  0
SECTION
  2
HEADER
  9
$ACADVER
  1
AC1014
  9
$ACADMAINTVER
 70
     9
  9
$DWGCODEPAGE
  3
ANSI_932
  9
$INSBASE
 10
0.0
 20
0.0
 30
0.0
  9
$EXTMIN
 10
-0.0256328098773793
 20
-0.0181261640759658
 30
-0.0000000100021362
  9
$EXTMAX
 10
797.6000995626677
 20
551.6452344804697
 30
0.0000000100021363
  9
$LIMMIN
 10
0.0
 20
0.0
  9
$LIMMAX
 10
840.0
 20
594.0
  9
$ORTHOMODE
 70
     0
  9
$REGENMODE
 70
     1
  9
$FILLMODE
 70
     1
  9
$QTEXTMODE
 70
     0
  9
$MIRRTEXT
 70
     1
  9
$DRAGMODE
 70
     2
  9
$LTSCALE
 40
10.0
  9
$OSMODE
 70
    35
  9
$ATTMODE
 70
     1
  9
$TEXTSIZE
 40
6.0
  9
$TRACEWID
 40
1.0
  9
$TEXTSTYLE
  7
STANDARD
  9
$CLAYER
  8
SUNPOU
  9
$CELTYPE
  6
BYLAYER
  9
$CECOLOR
 62
   256
  9
$CELTSCALE
 40
1.0
  9
$DELOBJ
 70
     1
  9
$DISPSILH
 70
     0
  9
$DIMSCALE
 40
1.0
  9
$DIMASZ
 40
3.0
  9
$DIMEXO
 40
6.0
  9
$DIMDLI
 40
14.0
  9
$DIMRND
 40
0.0
  9
$DIMDLE
 40
0.0
  9
$DIMEXE
 40
3.0
  9
$DIMTP
 40
0.0
  9
$DIMTM
 40
0.0
  9
$DIMTXT
 40
6.0
  9
$DIMCEN
 40
10.0
  9
$DIMTSZ
 40
0.0
  9
$DIMTOL
 70
     0
  9
$DIMLIM
 70
     0
  9
$DIMTIH
 70
     0
  9
$DIMTOH
 70
     0
  9
$DIMSE1
 70
     0
  9
$DIMSE2
 70
     0
  9
$DIMTAD
 70
     3
  9
$DIMZIN
 70
     0
  9
$DIMBLK
  1

  9
$DIMASO
 70
     1
  9
$DIMSHO
 70
     1
  9
$DIMPOST
  1

  9
$DIMAPOST
  1

  9
$DIMALT
 70
     0
  9
$DIMALTD
 70
     2
  9
$DIMALTF
 40
25.4
  9
$DIMLFAC
 40
1.0
  9
$DIMTOFL
 70
     1
  9
$DIMTVP
 40
0.0
  9
$DIMTIX
 70
     0
  9
$DIMSOXD
 70
     0
  9
$DIMSAH
 70
     1
  9
$DIMBLK1
  1
OPEN
  9
$DIMBLK2
  1
OPEN
  9
$DIMSTYLE
  2
STANDARD
  9
$DIMCLRD
 70
   256
  9
$DIMCLRE
 70
   256
  9
$DIMCLRT
 70
   256
  9
$DIMTFAC
 40
1.0
  9
$DIMGAP
 40
2.0
  9
$DIMJUST
 70
     0
  9
$DIMSD1
 70
     0
  9
$DIMSD2
 70
     0
  9
$DIMTOLJ
 70
     1
  9
$DIMTZIN
 70
     0
  9
$DIMALTZ
 70
     0
  9
$DIMALTTZ
 70
     0
  9
$DIMFIT
 70
     3
  9
$DIMUPT
 70
     0
  9
$DIMUNIT
 70
     2
  9
$DIMDEC
 70
     0
  9
$DIMTDEC
 70
     0
  9
$DIMALTU
 70
     2
  9
$DIMALTTD
 70
     2
  9
$DIMTXSTY
  7
STANDARD
  9
$DIMAUNIT
 70
     0
  9
$LUNITS
 70
     2
  9
$LUPREC
 70
     4
  9
$SKETCHINC
 40
1.0
  9
$FILLETRAD
 40
1.5
  9
$AUNITS
 70
     0
  9
$AUPREC
 70
     0
  9
$MENU
  1
.
  9
$ELEVATION
 40
0.0
  9
$PELEVATION
 40
0.0
  9
$THICKNESS
 40
0.0
  9
$LIMCHECK
 70
     0
  9
$BLIPMODE
 70
     0
  9
$CHAMFERA
 40
20.0
  9
$CHAMFERB
 40
20.0
  9
$CHAMFERC
 40
40.0
  9
$CHAMFERD
 40
0.0
  9
$SKPOLY
 70
     0
  9
$TDCREATE
 40
2451603.383938078
  9
$TDUPDATE
 40
2453802.490144849
  9
$TDINDWG
 40
0.1098936574
  9
$TDUSRTIMER
 40
0.1098936574
  9
$USRTIMER
 70
     1
  9
$ANGBASE
 50
0.0
  9
$ANGDIR
 70
     0
  9
$PDMODE
 70
     0
  9
$PDSIZE
 40
0.0
  9
$PLINEWID
 40
0.0
  9
$COORDS
 70
     1
  9
$SPLFRAME
 70
     0
  9
$SPLINETYPE
 70
     6
  9
$SPLINESEGS
 70
     8
  9
$ATTDIA
 70
     0
  9
$ATTREQ
 70
     1
  9
$HANDLING
 70
 10241
  9
$HANDSEED
  5
DB5
  9
$SURFTAB1
 70
     6
  9
$SURFTAB2
 70
     6
  9
$SURFTYPE
 70
     6
  9
$SURFU
 70
     6
  9
$SURFV
 70
     6
  9
$UCSNAME
  2

  9
$UCSORG
 10
0.0
 20
0.0
 30
0.0
  9
$UCSXDIR
 10
1.0
 20
0.0
 30
0.0
  9
$UCSYDIR
 10
0.0
 20
1.0
 30
0.0
  9
$PUCSNAME
  2

  9
$PUCSORG
 10
0.0
 20
0.0
 30
0.0
  9
$PUCSXDIR
 10
1.0
 20
0.0
 30
0.0
  9
$PUCSYDIR
 10
0.0
 20
1.0
 30
0.0
  9
$USERI1
 70
     0
  9
$USERI2
 70
     0
  9
$USERI3
 70
     0
  9
$USERI4
 70
     0
  9
$USERI5
 70
     0
  9
$USERR1
 40
0.0
  9
$USERR2
 40
0.0
  9
$USERR3
 40
0.0
  9
$USERR4
 40
0.0
  9
$USERR5
 40
0.0
  9
$WORLDVIEW
 70
     1
  9
$SHADEDGE
 70
     3
  9
$SHADEDIF
 70
    70
  9
$TILEMODE
 70
     1
  9
$MAXACTVP
 70
    16
  9
$PINSBASE
 10
0.0
 20
0.0
 30
0.0
  9
$PLIMCHECK
 70
     0
  9
$PEXTMIN
 10
0.0
 20
0.0
 30
0.0
  9
$PEXTMAX
 10
420.0
 20
297.0
 30
0.0
  9
$PLIMMIN
 10
0.0
 20
0.0
  9
$PLIMMAX
 10
420.0
 20
297.0
  9
$UNITMODE
 70
     0
  9
$VISRETAIN
 70
     0
  9
$PLINEGEN
 70
     0
  9
$PSLTSCALE
 70
     1
  9
$TREEDEPTH
 70
  3020
  9
$PICKSTYLE
 70
     1
  9
$CMLSTYLE
  2
STANDARD
  9
$CMLJUST
 70
     0
  9
$CMLSCALE
 40
1.0
  9
$PROXYGRAPHICS
 70
     1
  9
$MEASUREMENT
 70
     1
  0
ENDSEC
  0
SECTION
  2
CLASSES
  0
CLASS
  1
ACDBDICTIONARYWDFLT
  2
AcDbDictionaryWithDefault
  3
AutoCAD 2000
 90
        0
280
     0
281
     0
  0
CLASS
  1
ACDBPLACEHOLDER
  2
AcDbPlaceHolder
  3
AutoCAD 2000
 90
        0
280
     0
281
     0
  0
CLASS
  1
LAYOUT
  2
AcDbLayout
  3
AutoCAD 2000
 90
        0
280
     0
281
     0
  0
CLASS
  1
LONG_TRANSACTION
  2
AcDbLongTransaction
  3
AutoCAD 2000
 90
        0
280
     0
281
     0
  0
CLASS
  1
LWPOLYLINE
  2
AcDbPolyline
  3
AutoCAD 2000
 90
        0
280
     0
281
     1
  0
CLASS
  1
HATCH
  2
AcDbHatch
  3
AutoCAD 2000
 90
        0
280
     0
281
     1
  0
CLASS
  1
XRECORD
  2
AcDbXrecord
  3
AutoCAD 2000
 90
        0
280
     0
281
     0
  0
CLASS
  1
LONG_TRANSACTION
  2
AcDbLongTransaction
  3
AutoCAD 2000
 90
        0
280
     0
281
     0
  0
CLASS
  1
LWPOLYLINE
  2
AcDbPolyline
  3
AutoCAD 2000
 90
        0
280
     0
281
     1
  0
CLASS
  1
HATCH
  2
AcDbHatch
  3
AutoCAD 2000
 90
        0
280
     0
281
     1
  0
CLASS
  1
XRECORD
  2
AcDbXrecord
  3
AutoCAD 2000
 90
        0
280
     0
281
     0
  0
CLASS
  1
LONG_TRANSACTION
  2
AcDbLongTransaction
  3
AutoCAD 2000
 90
        0
280
     0
281
     0
  0
CLASS
  1
LWPOLYLINE
  2
AcDbPolyline
  3
AutoCAD 2000
 90
        0
280
     0
281
     1
  0
CLASS
  1
HATCH
  2
AcDbHatch
  3
AutoCAD 2000
 90
        0
280
     0
281
     1
  0
CLASS
  1
XRECORD
  2
AcDbXrecord
  3
AutoCAD 2000
 90
        0
280
     0
281
     0
  0
CLASS
  1
LONG_TRANSACTION
  2
AcDbLongTransaction
  3
AutoCAD 2000
 90
        0
280
     0
281
     0
  0
CLASS
  1
LWPOLYLINE
  2
AcDbPolyline
  3
AutoCAD 2000
 90
        0
280
     0
281
     1
  0
CLASS
  1
HATCH
  2
AcDbHatch
  3
AutoCAD 2000
 90
        0
280
     0
281
     1
  0
CLASS
  1
XRECORD
  2
AcDbXrecord
  3
AutoCAD 2000
 90
        0
280
     0
281
     0
  0
CLASS
  1
LONG_TRANSACTION
  2
AcDbLongTransaction
  3
AutoCAD 2000
 90
        0
280
     0
281
     0
  0
CLASS
  1
LWPOLYLINE
  2
AcDbPolyline
  3
AutoCAD 2000
 90
        0
280
     0
281
     1
  0
CLASS
  1
HATCH
  2
AcDbHatch
  3
AutoCAD 2000
 90
        0
280
     0
281
     1
  0
CLASS
  1
XRECORD
  2
AcDbXrecord
  3
AutoCAD 2000
 90
        0
280
     0
281
     0
  0
ENDSEC
  0
SECTION
  2
TABLES
  0
TABLE
  2
VPORT
  5
8
330
0
100
AcDbSymbolTable
 70
     2
  0
VPORT
  5
D91
330
8
100
AcDbSymbolTableRecord
100
AcDbViewportTableRecord
  2
*ACTIVE
 70
     0
 10
0.0
 20
0.0
 11
1.0
 21
1.0
 12
424.0291621753624
 22
289.4691651238085
 13
0.0
 23
0.0
 14
5.0
 24
5.0
 15
0.0
 25
0.0
 16
0.0
 26
0.0
 36
1.0
 17
0.0
 27
0.0
 37
0.0
 40
670.7685393086103
 41
1.795454545454545
 42
50.0
 43
0.0
 44
0.0
 50
0.0
 51
0.0
 71
     0
 72
   100
 73
     1
 74
     0
 75
     0
 76
     0
 77
     0
 78
     0
  0
ENDTAB
  0
TABLE
  2
LTYPE
  5
5
330
0
100
AcDbSymbolTable
 70
     3
  0
LTYPE
  5
14
330
5
100
AcDbSymbolTableRecord
100
AcDbLinetypeTableRecord
  2
BYBLOCK
 70
     0
  3

 72
    65
 73
     0
 40
0.0
  0
LTYPE
  5
15
330
5
100
AcDbSymbolTableRecord
100
AcDbLinetypeTableRecord
  2
BYLAYER
 70
     0
  3

 72
    65
 73
     0
 40
0.0
  0
LTYPE
  5
16
330
5
100
AcDbSymbolTableRecord
100
AcDbLinetypeTableRecord
  2
CONTINUOUS
 70
     0
  3
Solid line
 72
    65
 73
     0
 40
0.0
  0
LTYPE
  5
115
330
5
100
AcDbSymbolTableRecord
100
AcDbLinetypeTableRecord
  2
PHANTOM
 70
     0
  3
______  __  __  ______  __  __  ______  __  __ 
 72
    65
 73
     6
 40
2.5
 49
1.25
 74
     0
 49
-0.25
 74
     0
 49
0.25
 74
     0
 49
-0.25
 74
     0
 49
0.25
 74
     0
 49
-0.25
 74
     0
  0
LTYPE
  5
135
330
5
100
AcDbSymbolTableRecord
100
AcDbLinetypeTableRecord
  2
CENTER
 70
     0
  3
____ _ ____ _ ____ _ ____ _ ____ _ ____ _ ____ 
 72
    65
 73
     4
 40
2.0
 49
1.25
 74
     0
 49
-0.25
 74
     0
 49
0.25
 74
     0
 49
-0.25
 74
     0
  0
ENDTAB
  0
TABLE
  2
LAYER
  5
2
330
0
100
AcDbSymbolTable
 70
     9
  0
LAYER
  5
F
330
2
100
AcDbSymbolTableRecord
100
AcDbLayerTableRecord
  2
0
 70
     0
 62
     7
  6
CONTINUOUS
  0
LAYER
  5
62
330
2
100
AcDbSymbolTableRecord
100
AcDbLayerTableRecord
  2
VIEWPORT
 70
     0
 62
     7
  6
CONTINUOUS
  0
LAYER
  5
65
330
2
100
AcDbSymbolTableRecord
100
AcDbLayerTableRecord
  2
ZUWAKU
 70
     0
 62
     7
  6
CONTINUOUS
  0
LAYER
  5
164
330
2
100
AcDbSymbolTableRecord
100
AcDbLayerTableRecord
  2
DEFPOINTS
 70
     0
 62
     7
  6
CONTINUOUS
  0
LAYER
  5
165
330
2
100
AcDbSymbolTableRecord
100
AcDbLayerTableRecord
  2
SEIHIN
 70
     0
 62
     3
  6
CONTINUOUS
  0
LAYER
  5
166
330
2
100
AcDbSymbolTableRecord
100
AcDbLayerTableRecord
  2
SUNPOU
 70
     0
 62
     4
  6
CONTINUOUS
  0
LAYER
  5
167
330
2
100
AcDbSymbolTableRecord
100
AcDbLayerTableRecord
  2
CENTER_L
 70
     0
 62
     1
  6
CENTER
  0
LAYER
  5
168
330
2
100
AcDbSymbolTableRecord
100
AcDbLayerTableRecord
  2
NOKITOI
 70
     0
 62
     8
  6
PHANTOM
  0
LAYER
  5
B98
330
2
100
AcDbSymbolTableRecord
100
AcDbLayerTableRecord
  2
MOJI
 70
     0
 62
     2
  6
CONTINUOUS
  0
ENDTAB
  0
TABLE
  2
STYLE
  5
3
330
0
100
AcDbSymbolTable
 70
     2
  0
STYLE
  5
10
330
3
100
AcDbSymbolTableRecord
100
AcDbTextStyleTableRecord
  2
STANDARD
 70
     0
 40
0.0
 41
1.0
 50
0.0
 71
     0
 42
6.0
  3
TXT
  4
c:\PROGRAM FILES\AUTOCAD LT\ms\bigfont.shx
  0
STYLE
  5
B99
330
3
100
AcDbSymbolTableRecord
100
AcDbTextStyleTableRecord
  2
ｽﾀｲﾙ1
 70
     0
 40
0.0
 41
1.0
 50
0.0
 71
     0
 42
2.5
  3
MS PGothic.ttf
  4

1001
ACAD
1000
MS PGothic
1071
    32818
  0
ENDTAB
  0
TABLE
  2
VIEW
  5
6
330
0
100
AcDbSymbolTable
 70
     0
  0
ENDTAB
  0
TABLE
  2
UCS
  5
7
330
0
100
AcDbSymbolTable
 70
     0
  0
ENDTAB
  0
TABLE
  2
APPID
  5
9
330
0
100
AcDbSymbolTable
 70
     1
  0
APPID
  5
11
330
9
100
AcDbSymbolTableRecord
100
AcDbRegAppTableRecord
  2
ACAD
 70
     0
  0
ENDTAB
  0
TABLE
  2
DIMSTYLE
  5
A
330
0
100
AcDbSymbolTable
 70
     1
  0
DIMSTYLE
105
1D
102
{ACAD_REACTORS
330
60A
330
6DD
330
6EA
330
6F9
330
706
330
763
330
77F
330
7A2
330
7B1
330
7F2
330
933
330
940
330
9F8
102
}
330
A
100
AcDbSymbolTableRecord
100
AcDbDimStyleTableRecord
  2
STANDARD
 70
     0
  3

  4

  5

  6

  7

 40
1.0
 41
0.18
 42
0.0625
 43
0.38
 44
0.18
 45
0.0
 46
0.0
 47
0.0
 48
0.0
140
0.18
141
0.09
142
0.0
143
25.4
144
1.0
145
0.0
146
1.0
147
0.09
 71
     0
 72
     0
 73
     1
 74
     1
 75
     0
 76
     0
 77
     0
 78
     0
170
     0
171
     2
172
     0
173
     0
174
     0
175
     0
176
     0
177
     0
178
     0
270
     2
271
     4
272
     4
273
     2
274
     2
340
10
275
     0
280
     0
281
     0
282
     0
283
     1
284
     0
285
     0
286
     0
287
     3
288
     0
  0
ENDTAB
  0
TABLE
  2
BLOCK_RECORD
  5
1
330
0
100
AcDbSymbolTable
 70
    14
  0
BLOCK_RECORD
  5
1A
102
{ACAD_XDICTIONARY
360
6BF
102
}
330
1
100
AcDbSymbolTableRecord
100
AcDbBlockTableRecord
  2
*MODEL_SPACE
  0
BLOCK_RECORD
  5
17
102
{ACAD_XDICTIONARY
360
6BD
102
}
330
1
100
AcDbSymbolTableRecord
100
AcDbBlockTableRecord
  2
*PAPER_SPACE
  0
BLOCK_RECORD
  5
6D
330
1
100
AcDbSymbolTableRecord
100
AcDbBlockTableRecord
  2
_OPEN
  0
BLOCK_RECORD
  5
665
330
1
100
AcDbSymbolTableRecord
100
AcDbBlockTableRecord
  2
*D1
  0
BLOCK_RECORD
  5
6DE
330
1
100
AcDbSymbolTableRecord
100
AcDbBlockTableRecord
  2
*D2
  0
BLOCK_RECORD
  5
6EB
330
1
100
AcDbSymbolTableRecord
100
AcDbBlockTableRecord
  2
*D3
  0
BLOCK_RECORD
  5
6FA
330
1
100
AcDbSymbolTableRecord
100
AcDbBlockTableRecord
  2
*D4
  0
BLOCK_RECORD
  5
707
330
1
100
AcDbSymbolTableRecord
100
AcDbBlockTableRecord
  2
*D5
  0
BLOCK_RECORD
  5
764
330
1
100
AcDbSymbolTableRecord
100
AcDbBlockTableRecord
  2
*D6
  0
BLOCK_RECORD
  5
780
330
1
100
AcDbSymbolTableRecord
100
AcDbBlockTableRecord
  2
*D7
  0
BLOCK_RECORD
  5
7A3
330
1
100
AcDbSymbolTableRecord
100
AcDbBlockTableRecord
  2
*D8
  0
BLOCK_RECORD
  5
7B2
330
1
100
AcDbSymbolTableRecord
100
AcDbBlockTableRecord
  2
*D9
  0
BLOCK_RECORD
  5
7F3
330
1
100
AcDbSymbolTableRecord
100
AcDbBlockTableRecord
  2
*D10
  0
BLOCK_RECORD
  5
934
330
1
100
AcDbSymbolTableRecord
100
AcDbBlockTableRecord
  2
*D11
  0
BLOCK_RECORD
  5
941
330
1
100
AcDbSymbolTableRecord
100
AcDbBlockTableRecord
  2
*D12
  0
BLOCK_RECORD
  5
9F9
330
1
100
AcDbSymbolTableRecord
100
AcDbBlockTableRecord
  2
*D13
  0
ENDTAB
  0
ENDSEC
  0
SECTION
  2
BLOCKS
  0
BLOCK
  5
1B
330
1A
100
AcDbEntity
  8
0
100
AcDbBlockBegin
  2
*MODEL_SPACE
 70
     0
 10
0.0
 20
0.0
 30
0.0
  3
*MODEL_SPACE
  1

  0
ENDBLK
  5
1C
330
1A
100
AcDbEntity
  8
0
100
AcDbBlockEnd
  0
BLOCK
  5
18
330
17
100
AcDbEntity
 67
     1
  8
0
100
AcDbBlockBegin
  2
*PAPER_SPACE
 70
     0
 10
0.0
 20
0.0
 30
0.0
  3
*PAPER_SPACE
  1

  0
ENDBLK
  5
19
330
17
100
AcDbEntity
 67
     1
  8
0
100
AcDbBlockEnd
  0
BLOCK
  5
6E
330
6D
100
AcDbEntity
  8
0
100
AcDbBlockBegin
  2
_OPEN
 70
     0
 10
0.0
 20
0.0
 30
0.0
  3
_OPEN
  1

  0
LINE
  5
6F
330
6D
100
AcDbEntity
  8
0
  6
BYBLOCK
 62
     0
100
AcDbLine
 10
-1.0
 20
0.1666666666666666
 30
0.0
 11
0.0
 21
0.0
 31
0.0
  0
LINE
  5
70
330
6D
100
AcDbEntity
  8
0
  6
BYBLOCK
 62
     0
100
AcDbLine
 10
0.0
 20
0.0
 30
0.0
 11
-1.0
 21
-0.1666666666666666
 31
0.0
  0
LINE
  5
71
330
6D
100
AcDbEntity
  8
0
  6
BYBLOCK
 62
     0
100
AcDbLine
 10
0.0
 20
0.0
 30
0.0
 11
-1.0
 21
0.0
 31
0.0
  0
ENDBLK
  5
72
330
6D
100
AcDbEntity
  8
0
100
AcDbBlockEnd
  0
BLOCK
  5
66F
330
665
100
AcDbEntity
  8
0
100
AcDbBlockBegin
  2
*D1
 70
     1
 10
0.0
 20
0.0
 30
0.0
  3
*D1
  1

  0
LINE
  5
D22
330
665
100
AcDbEntity
  8
SUNPOU
100
AcDbLine
 10
294.3463364691706
 20
428.1086948684191
 30
0.0
 11
269.015523700833
 21
428.1086948684191
 31
0.0
  0
LINE
  5
D23
330
665
100
AcDbEntity
  8
SUNPOU
100
AcDbLine
 10
294.3463364691706
 20
408.1086948684192
 30
0.0
 11
269.015523700833
 21
408.1086948684192
 31
0.0
  0
LINE
  5
D24
330
665
100
AcDbEntity
  8
SUNPOU
100
AcDbLine
 10
270.515523700833
 20
425.1086948684192
 30
0.0
 11
270.515523700833
 21
411.1086948684191
 31
0.0
  0
INSERT
  5
D25
330
665
100
AcDbEntity
  8
SUNPOU
100
AcDbBlockReference
  2
_OPEN
 10
270.515523700833
 20
428.1086948684191
 30
0.0
 41
3.0
 42
3.0
 43
3.0
 50
90.0
  0
INSERT
  5
D26
330
665
100
AcDbEntity
  8
SUNPOU
100
AcDbBlockReference
  2
_OPEN
 10
270.515523700833
 20
408.1086948684192
 30
0.0
 41
3.0
 42
3.0
 43
3.0
 50
270.0
  0
MTEXT
  5
D27
330
665
100
AcDbEntity
  8
SUNPOU
100
AcDbMText
 10
268.0155237008329
 20
418.1086948684193
 30
0.0
 40
3.0
 41
0.0
 71
     5
 72
     1
  1
\A1;20
 11
0.0000000000000001
 21
1.0
 31
0.0
1001
ACAD
1000
MTEXTBEGIN
1070
    73
1070
     1
1070
    44
1040
1.0
1070
    74
1070
     0
1000
MTEXTEND
  0
POINT
  5
D28
330
665
100
AcDbEntity
  8
DEFPOINTS
 62
     0
100
AcDbPoint
 10
297.3463364691706
 20
428.1086948684191
 30
0.0
  0
POINT
  5
D29
330
665
100
AcDbEntity
  8
DEFPOINTS
 62
     0
100
AcDbPoint
 10
297.3463364691706
 20
408.1086948684192
 30
0.0
  0
POINT
  5
D2A
330
665
100
AcDbEntity
  8
DEFPOINTS
 62
     0
100
AcDbPoint
 10
270.515523700833
 20
408.1086948684192
 30
0.0
  0
ENDBLK
  5
670
330
665
100
AcDbEntity
  8
0
100
AcDbBlockEnd
  0
BLOCK
  5
6E8
330
6DE
100
AcDbEntity
  8
0
100
AcDbBlockBegin
  2
*D2
 70
     1
 10
0.0
 20
0.0
 30
0.0
  3
*D2
  1

  0
LINE
  5
D34
330
6DE
100
AcDbEntity
  8
SUNPOU
100
AcDbLine
 10
592.2780475485847
 20
251.2561453116461
 30
0.0
 11
619.7569940702249
 21
257.3015089714805
 31
0.0
  0
LINE
  5
D35
330
6DE
100
AcDbEntity
  8
SUNPOU
100
AcDbLine
 10
596.5752801185847
 20
231.723255211646
 30
0.0
 11
624.0542266402249
 21
237.7686188714805
 31
0.0
  0
LINE
  5
D36
330
6DE
100
AcDbEntity
  8
SUNPOU
100
AcDbLine
 10
617.4716454504928
 20
253.7269905862586
 30
0.0
 11
620.479708255003
 21
240.0539674912125
 31
0.0
  0
INSERT
  5
D37
330
6DE
100
AcDbEntity
  8
SUNPOU
100
AcDbBlockReference
  2
_OPEN
 10
616.8270605677479
 20
256.6569240887356
 30
0.0
 41
3.0
 42
3.0
 43
3.0
 50
102.407409428694
  0
INSERT
  5
D38
330
6DE
100
AcDbEntity
  8
SUNPOU
100
AcDbBlockReference
  2
_OPEN
 10
621.1242931377479
 20
237.1240339887355
 30
0.0
 41
3.0
 42
3.0
 43
3.0
 50
282.4074094286941
  0
MTEXT
  5
D39
330
6DE
100
AcDbEntity
  8
SUNPOU
100
AcDbMText
 10
623.8588993568761
 20
247.9647871766438
 30
0.0
 40
6.0
 41
0.0
 71
     5
 72
     1
  1
\A1;20
 11
0.2148616275816424
 21
-0.9766445008256422
 31
0.0
1001
ACAD
1000
MTEXTBEGIN
1070
    73
1070
     1
1070
    44
1040
1.0
1070
    74
1070
     0
1000
MTEXTEND
  0
POINT
  5
D3A
330
6DE
100
AcDbEntity
  8
DEFPOINTS
 62
     0
100
AcDbPoint
 10
586.4181805436309
 20
249.9669755461562
 30
0.0
  0
POINT
  5
D3B
330
6DE
100
AcDbEntity
  8
DEFPOINTS
 62
     0
100
AcDbPoint
 10
590.7154131136309
 20
230.4340854461562
 30
0.0
  0
POINT
  5
D3C
330
6DE
100
AcDbEntity
  8
DEFPOINTS
 62
     0
100
AcDbPoint
 10
621.1242931377479
 20
237.1240339887355
 30
0.0
  0
ENDBLK
  5
6E9
330
6DE
100
AcDbEntity
  8
0
100
AcDbBlockEnd
  0
BLOCK
  5
6F7
330
6EB
100
AcDbEntity
  8
0
100
AcDbBlockBegin
  2
*D3
 70
     1
 10
0.0
 20
0.0
 30
0.0
  3
*D3
  1

  0
LINE
  5
D4F
330
6EB
100
AcDbEntity
  8
SUNPOU
100
AcDbLine
 10
582.2381378776777
 20
222.4256021625044
 30
0.0
 11
587.7225758909579
 21
197.4963196509782
 31
0.0
  0
LINE
  5
D50
330
6EB
100
AcDbEntity
  8
SUNPOU
100
AcDbLine
 10
592.0045828816276
 20
224.5742184417538
 30
0.0
 11
597.4890208949077
 21
199.6449359302276
 31
0.0
  0
LINE
  5
D51
330
6EB
100
AcDbEntity
  8
SUNPOU
100
AcDbLine
 10
584.1480575047584
 20
199.781668269181
 30
0.0
 11
581.2181240025571
 21
199.1370833851826
 31
0.0
  0
LINE
  5
D52
330
6EB
100
AcDbEntity
  8
SUNPOU
100
AcDbLine
 10
599.7743695131105
 20
203.2194543164271
 30
0.0
 11
613.4473925233826
 21
206.2275171084196
 31
0.0
  0
LINE
  5
D53
330
6EB
100
AcDbEntity
  8
SUNPOU
100
AcDbLine
 10
587.0779910069595
 20
200.4262531531793
 30
0.0
 11
596.8444360109093
 21
202.5748694324287
 31
0.0
  0
INSERT
  5
D54
330
6EB
100
AcDbEntity
  8
SUNPOU
100
AcDbBlockReference
  2
_OPEN
 10
587.0779910069595
 20
200.4262531531793
 30
0.0
 41
3.0
 42
3.0
 43
3.0
 50
12.4074094532058
  0
INSERT
  5
D55
330
6EB
100
AcDbEntity
  8
SUNPOU
100
AcDbBlockReference
  2
_OPEN
 10
596.8444360109093
 20
202.5748694324287
 30
0.0
 41
3.0
 42
3.0
 43
3.0
 50
192.4074094532058
  0
MTEXT
  5
D56
330
6EB
100
AcDbEntity
  8
SUNPOU
100
AcDbMText
 10
607.0015396293499
 20
209.9290006580911
 30
0.0
 40
6.0
 41
0.0
 71
     5
 72
     1
  1
\A1;10
 11
0.9766445007337219
 21
0.2148616279994613
 31
0.0
1001
ACAD
1000
MTEXTBEGIN
1070
    73
1070
     1
1070
    44
1040
1.0
1070
    74
1070
     0
1000
MTEXTEND
  0
POINT
  5
D57
330
6EB
100
AcDbEntity
  8
DEFPOINTS
 62
     0
100
AcDbPoint
 10
580.948968109681
 20
228.2854691669068
 30
0.0
  0
POINT
  5
D58
330
6EB
100
AcDbEntity
  8
DEFPOINTS
 62
     0
100
AcDbPoint
 10
590.7154131136308
 20
230.4340854461562
 30
0.0
  0
POINT
  5
D59
330
6EB
100
AcDbEntity
  8
DEFPOINTS
 62
     0
100
AcDbPoint
 10
596.8444360109093
 20
202.5748694324287
 30
0.0
  0
ENDBLK
  5
6F8
330
6EB
100
AcDbEntity
  8
0
100
AcDbBlockEnd
  0
BLOCK
  5
704
330
6FA
100
AcDbEntity
  8
0
100
AcDbBlockBegin
  2
*D4
 70
     1
 10
0.0
 20
0.0
 30
0.0
  3
*D4
  1

  0
LINE
  5
D3D
330
6FA
100
AcDbEntity
  8
SUNPOU
100
AcDbLine
 10
543.1723578640067
 20
213.8311370459751
 30
0.0
 11
548.6567958772869
 21
188.9018545344488
 31
0.0
  0
LINE
  5
D3E
330
6FA
100
AcDbEntity
  8
SUNPOU
100
AcDbLine
 10
582.2381378776777
 20
222.4256021625044
 30
0.0
 11
587.7225758909578
 21
197.4963196509781
 31
0.0
  0
LINE
  5
D3F
330
6FA
100
AcDbEntity
  8
SUNPOU
100
AcDbLine
 10
550.9421444954896
 20
192.4763729206483
 30
0.0
 11
584.1480575047582
 21
199.7816682691809
 31
0.0
  0
INSERT
  5
D40
330
6FA
100
AcDbEntity
  8
SUNPOU
100
AcDbBlockReference
  2
_OPEN
 10
548.0122109932884
 20
191.83178803665
 30
0.0
 41
3.0
 42
3.0
 43
3.0
 50
192.4074094532058
  0
INSERT
  5
D41
330
6FA
100
AcDbEntity
  8
SUNPOU
100
AcDbBlockReference
  2
_OPEN
 10
587.0779910069594
 20
200.4262531531793
 30
0.0
 41
3.0
 42
3.0
 43
3.0
 50
12.40740945320583
  0
MTEXT
  5
D42
330
6FA
100
AcDbEntity
  8
SUNPOU
100
AcDbMText
 10
566.4707928601266
 20
201.0122430985832
 30
0.0
 40
6.0
 41
0.0
 71
     5
 72
     1
  1
\A1;40
 11
0.9766445007337217
 21
0.2148616279994617
 31
0.0
1001
ACAD
1000
MTEXTBEGIN
1070
    73
1070
     1
1070
    44
1040
1.0
1070
    74
1070
     0
1000
MTEXTEND
  0
POINT
  5
D43
330
6FA
100
AcDbEntity
  8
DEFPOINTS
 62
     0
100
AcDbPoint
 10
541.8831880960099
 20
219.6910040503774
 30
0.0
  0
POINT
  5
D44
330
6FA
100
AcDbEntity
  8
DEFPOINTS
 62
     0
100
AcDbPoint
 10
580.9489681096809
 20
228.2854691669067
 30
0.0
  0
POINT
  5
D45
330
6FA
100
AcDbEntity
  8
DEFPOINTS
 62
     0
100
AcDbPoint
 10
587.0779910069594
 20
200.4262531531793
 30
0.0
  0
ENDBLK
  5
705
330
6FA
100
AcDbEntity
  8
0
100
AcDbBlockEnd
  0
BLOCK
  5
711
330
707
100
AcDbEntity
  8
0
100
AcDbBlockBegin
  2
*D5
 70
     1
 10
0.0
 20
0.0
 30
0.0
  3
*D5
  1

  0
LINE
  5
D46
330
707
100
AcDbEntity
  8
SUNPOU
100
AcDbLine
 10
504.1065778518455
 20
205.2366718921617
 30
0.0
 11
509.5910158651257
 21
180.3073893806354
 31
0.0
  0
LINE
  5
D47
330
707
100
AcDbEntity
  8
SUNPOU
100
AcDbLine
 10
543.1723578655165
 20
213.8311370086911
 30
0.0
 11
548.6567958787967
 21
188.9018544971648
 31
0.0
  0
LINE
  5
D48
330
707
100
AcDbEntity
  8
SUNPOU
100
AcDbLine
 10
511.8763644833284
 20
183.881907766835
 30
0.0
 11
545.0822774925971
 21
191.1872031153675
 31
0.0
  0
INSERT
  5
D49
330
707
100
AcDbEntity
  8
SUNPOU
100
AcDbBlockReference
  2
_OPEN
 10
508.9464309811273
 20
183.2373228828366
 30
0.0
 41
3.0
 42
3.0
 43
3.0
 50
192.4074094532058
  0
INSERT
  5
D4A
330
707
100
AcDbEntity
  8
SUNPOU
100
AcDbBlockReference
  2
_OPEN
 10
548.0122109947983
 20
191.831787999366
 30
0.0
 41
3.0
 42
3.0
 43
3.0
 50
12.40740945320583
  0
MTEXT
  5
D4B
330
707
100
AcDbEntity
  8
SUNPOU
100
AcDbMText
 10
527.4050128479655
 20
192.4177779447699
 30
0.0
 40
6.0
 41
0.0
 71
     5
 72
     1
  1
\A1;40
 11
0.9766445007337217
 21
0.2148616279994617
 31
0.0
1001
ACAD
1000
MTEXTBEGIN
1070
    73
1070
     1
1070
    44
1040
1.0
1070
    74
1070
     0
1000
MTEXTEND
  0
POINT
  5
D4C
330
707
100
AcDbEntity
  8
DEFPOINTS
 62
     0
100
AcDbPoint
 10
502.8174080838487
 20
211.096538896564
 30
0.0
  0
POINT
  5
D4D
330
707
100
AcDbEntity
  8
DEFPOINTS
 62
     0
100
AcDbPoint
 10
541.8831880975197
 20
219.6910040130934
 30
0.0
  0
POINT
  5
D4E
330
707
100
AcDbEntity
  8
DEFPOINTS
 62
     0
100
AcDbPoint
 10
548.0122109947983
 20
191.831787999366
 30
0.0
  0
ENDBLK
  5
712
330
707
100
AcDbEntity
  8
0
100
AcDbBlockEnd
  0
BLOCK
  5
76E
330
764
100
AcDbEntity
  8
0
100
AcDbBlockBegin
  2
*D6
 70
     1
 10
0.0
 20
0.0
 30
0.0
  3
*D6
  1

  0
LINE
  5
D65
330
764
100
AcDbEntity
  8
SUNPOU
100
AcDbLine
 10
582.1237808116383
 20
309.6988864950168
 30
0.0
 11
638.5863808702577
 21
322.1206585143675
 31
0.0
  0
LINE
  5
D66
330
764
100
AcDbEntity
  8
SUNPOU
100
AcDbLine
 10
585.0244148792605
 20
296.5141861944936
 30
0.0
 11
641.4870149378799
 21
308.9359582138444
 31
0.0
  0
LINE
  5
D67
330
764
100
AcDbEntity
  8
SUNPOU
100
AcDbLine
 10
636.3010328185574
 20
318.5461397659776
 30
0.0
 11
637.9124961894902
 21
311.2213062655445
 31
0.0
  0
INSERT
  5
D68
330
764
100
AcDbEntity
  8
SUNPOU
100
AcDbBlockReference
  2
_OPEN
 10
635.6564474702127
 20
321.4760731660226
 30
0.0
 41
3.0
 42
3.0
 43
3.0
 50
102.407418533648
  0
INSERT
  5
D69
330
764
100
AcDbEntity
  8
SUNPOU
100
AcDbBlockReference
  2
_OPEN
 10
638.557081537835
 20
308.2913728654995
 30
0.0
 41
3.0
 42
3.0
 43
3.0
 50
282.407418533648
  0
MTEXT
  5
D6A
330
764
100
AcDbEntity
  8
SUNPOU
100
AcDbMText
 10
641.9899868374321
 20
315.9580319296691
 30
0.0
 40
6.0
 41
0.0
 71
     5
 72
     1
  1
\A1;14
 11
0.2148617827816094
 21
-0.9766444666816623
 31
0.0
1001
ACAD
1000
MTEXTBEGIN
1070
    73
1070
     1
1070
    44
1040
1.0
1070
    74
1070
     0
1000
MTEXTEND
  0
POINT
  5
D6B
330
764
100
AcDbEntity
  8
DEFPOINTS
 62
     0
100
AcDbPoint
 10
576.2639140115482
 20
308.4097157983271
 30
0.0
  0
POINT
  5
D6C
330
764
100
AcDbEntity
  8
DEFPOINTS
 62
     0
100
AcDbPoint
 10
579.1645480791705
 20
295.225015497804
 30
0.0
  0
POINT
  5
D6D
330
764
100
AcDbEntity
  8
DEFPOINTS
 62
     0
100
AcDbPoint
 10
638.557081537835
 20
308.2913728654995
 30
0.0
  0
ENDBLK
  5
76F
330
764
100
AcDbEntity
  8
0
100
AcDbBlockEnd
  0
BLOCK
  5
78C
330
780
100
AcDbEntity
  8
0
100
AcDbBlockBegin
  2
*D7
 70
     1
 10
0.0
 20
0.0
 30
0.0
  3
*D7
  1

  0
LINE
  5
D5A
330
780
100
AcDbEntity
  8
SUNPOU
100
AcDbLine
 10
584.702122194365
 20
297.9791529167469
 30
0.0
 11
627.5275472639062
 21
307.4007466074448
 31
0.0
  0
LINE
  5
D5B
330
780
100
AcDbEntity
  8
SUNPOU
100
AcDbLine
 10
585.0244148743651
 20
296.5141862167469
 30
0.0
 11
627.8498399439063
 21
305.9357799074448
 31
0.0
  0
LINE
  5
D5C
330
780
100
AcDbEntity
  8
SUNPOU
100
AcDbLine
 10
623.9530285068378
 20
309.6860946455706
 30
0.0
 11
623.3084431473663
 21
312.6160280431677
 31
0.0
  0
LINE
  5
D5D
330
780
100
AcDbEntity
  8
SUNPOU
100
AcDbLine
 10
625.5644919057806
 20
302.3612611503763
 30
0.0
 11
627.9279715571759
 21
291.6181720258535
 31
0.0
  0
LINE
  5
D5E
330
780
100
AcDbEntity
  8
SUNPOU
100
AcDbLine
 10
624.5976138663092
 20
306.7561612479734
 30
0.0
 11
624.9199065463092
 21
305.2911945479734
 31
0.0
  0
INSERT
  5
D5F
330
780
100
AcDbEntity
  8
SUNPOU
100
AcDbBlockReference
  2
_OPEN
 10
624.5976138663092
 20
306.7561612479734
 30
0.0
 41
3.0
 42
3.0
 43
3.0
 50
282.4074187512319
  0
INSERT
  5
D60
330
780
100
AcDbEntity
  8
SUNPOU
100
AcDbBlockReference
  2
_OPEN
 10
624.9199065463092
 20
305.2911945479734
 30
0.0
 41
3.0
 42
3.0
 43
3.0
 50
102.4074187512319
  0
MTEXT
  5
D61
330
780
100
AcDbEntity
  8
SUNPOU
100
AcDbMText
 10
631.9517467405424
 20
296.5990588217687
 30
0.0
 40
6.0
 41
0.0
 71
     5
 72
     1
  1
\A1;2
 11
0.214861786490471
 21
-0.9766444658657126
 31
0.0
1001
ACAD
1000
MTEXTBEGIN
1070
    73
1070
     1
1070
    44
1040
1.0
1070
    74
1070
     0
1000
MTEXTEND
  0
POINT
  5
D62
330
780
100
AcDbEntity
  8
DEFPOINTS
 62
     0
100
AcDbPoint
 10
578.8422553991707
 20
296.6899821978041
 30
0.0
  0
POINT
  5
D63
330
780
100
AcDbEntity
  8
DEFPOINTS
 62
     0
100
AcDbPoint
 10
579.1645480791707
 20
295.2250154978041
 30
0.0
  0
POINT
  5
D64
330
780
100
AcDbEntity
  8
DEFPOINTS
 62
     0
100
AcDbPoint
 10
624.9199065463092
 20
305.2911945479734
 30
0.0
  0
ENDBLK
  5
78D
330
780
100
AcDbEntity
  8
0
100
AcDbBlockEnd
  0
BLOCK
  5
7AF
330
7A3
100
AcDbEntity
  8
0
100
AcDbBlockBegin
  2
*D8
 70
     1
 10
0.0
 20
0.0
 30
0.0
  3
*D8
  1

  0
LINE
  5
D6E
330
7A3
100
AcDbEntity
  8
SUNPOU
100
AcDbLine
 10
585.0244148799608
 20
296.5141861913112
 30
0.0
 11
611.0034759988896
 21
302.2295796256538
 31
0.0
  0
LINE
  5
D6F
330
7A3
100
AcDbEntity
  8
SUNPOU
100
AcDbLine
 10
585.991292899961
 20
292.1192860913113
 30
0.0
 11
611.9703540188896
 21
297.8346795256539
 31
0.0
  0
LINE
  5
D70
330
7A3
100
AcDbEntity
  8
SUNPOU
100
AcDbLine
 10
607.4289572517407
 20
304.5149276792952
 30
0.0
 11
606.7843719049871
 21
307.4448610796902
 31
0.0
  0
LINE
  5
D71
330
7A3
100
AcDbEntity
  8
SUNPOU
100
AcDbLine
 10
609.6850059652482
 20
294.2601607785051
 30
0.0
 11
612.0484855700115
 21
283.5170716437233
 31
0.0
  0
LINE
  5
D72
330
7A3
100
AcDbEntity
  8
SUNPOU
100
AcDbLine
 10
608.0735425984945
 20
301.5849942789001
 30
0.0
 11
609.0404206184946
 21
297.1900941789002
 31
0.0
  0
INSERT
  5
D73
330
7A3
100
AcDbEntity
  8
SUNPOU
100
AcDbBlockReference
  2
_OPEN
 10
608.0735425984945
 20
301.5849942789001
 30
0.0
 41
3.0
 42
3.0
 43
3.0
 50
282.4074185025317
  0
INSERT
  5
D74
330
7A3
100
AcDbEntity
  8
SUNPOU
100
AcDbBlockReference
  2
_OPEN
 10
609.0404206184946
 20
297.1900941789002
 30
0.0
 41
3.0
 42
3.0
 43
3.0
 50
102.4074185025317
  0
MTEXT
  5
D75
330
7A3
100
AcDbEntity
  8
SUNPOU
100
AcDbMText
 10
616.0722607749984
 20
288.4979584221728
 30
0.0
 40
6.0
 41
0.0
 71
     5
 72
     1
  1
\A1;5
 11
0.2148617822512118
 21
-0.9766444667983499
 31
0.0
1001
ACAD
1000
MTEXTBEGIN
1070
    73
1070
     1
1070
    44
1040
1.0
1070
    74
1070
     0
1000
MTEXTEND
  0
POINT
  5
D76
330
7A3
100
AcDbEntity
  8
DEFPOINTS
 62
     0
100
AcDbPoint
 10
579.1645480791706
 20
295.225015497804
 30
0.0
  0
POINT
  5
D77
330
7A3
100
AcDbEntity
  8
DEFPOINTS
 62
     0
100
AcDbPoint
 10
580.1314260991708
 20
290.830115397804
 30
0.0
  0
POINT
  5
D78
330
7A3
100
AcDbEntity
  8
DEFPOINTS
 62
     0
100
AcDbPoint
 10
609.0404206184946
 20
297.1900941789002
 30
0.0
  0
ENDBLK
  5
7B0
330
7A3
100
AcDbEntity
  8
0
100
AcDbBlockEnd
  0
BLOCK
  5
7BC
330
7B2
100
AcDbEntity
  8
0
100
AcDbBlockBegin
  2
*D9
 70
     1
 10
0.0
 20
0.0
 30
0.0
  3
*D9
  1

  0
LINE
  5
D2B
330
7B2
100
AcDbEntity
  8
SUNPOU
100
AcDbLine
 10
413.5571657306009
 20
264.9348756604266
 30
0.0
 11
406.1041891788988
 21
298.8120417351288
 31
0.0
  0
LINE
  5
D2C
330
7B2
100
AcDbEntity
  8
SUNPOU
100
AcDbLine
 10
577.8753773806011
 20
301.0848822974804
 30
0.0
 11
570.422400828899
 21
334.9620483721827
 31
0.0
  0
LINE
  5
D2D
330
7B2
100
AcDbEntity
  8
SUNPOU
100
AcDbLine
 10
409.6787079280219
 20
296.5266936845755
 30
0.0
 11
568.1370527783456
 21
331.3875296230596
 31
0.0
  0
INSERT
  5
D2E
330
7B2
100
AcDbEntity
  8
SUNPOU
100
AcDbBlockReference
  2
_OPEN
 10
406.7487745281836
 20
295.8821083352907
 30
0.0
 41
3.0
 42
3.0
 43
3.0
 50
192.4074185520303
  0
INSERT
  5
D2F
330
7B2
100
AcDbEntity
  8
SUNPOU
100
AcDbBlockReference
  2
_OPEN
 10
571.0669861781838
 20
332.0321149723445
 30
0.0
 41
3.0
 42
3.0
 43
3.0
 50
12.40741855203033
  0
MTEXT
  5
D30
330
7B2
100
AcDbEntity
  8
SUNPOU
100
AcDbMText
 10
487.833571437709
 20
318.8403339868812
 30
0.0
 40
6.0
 41
0.0
 71
     5
 72
     1
  1
\A1;168
 11
0.9766444666127277
 21
0.2148617830949475
 31
0.0
1001
ACAD
1000
MTEXTBEGIN
1070
    73
1070
     1
1070
    44
1040
1.0
1070
    74
1070
     0
1000
MTEXTEND
  0
POINT
  5
D31
330
7B2
100
AcDbEntity
  8
DEFPOINTS
 62
     0
100
AcDbPoint
 10
414.8463364291705
 20
259.0750088607502
 30
0.0
  0
POINT
  5
D32
330
7B2
100
AcDbEntity
  8
DEFPOINTS
 62
     0
100
AcDbPoint
 10
579.1645480791706
 20
295.225015497804
 30
0.0
  0
POINT
  5
D33
330
7B2
100
AcDbEntity
  8
DEFPOINTS
 62
     0
100
AcDbPoint
 10
571.0669861781838
 20
332.0321149723445
 30
0.0
  0
ENDBLK
  5
7BD
330
7B2
100
AcDbEntity
  8
0
100
AcDbBlockEnd
  0
BLOCK
  5
7FD
330
7F3
100
AcDbEntity
  8
0
100
AcDbBlockBegin
  2
*D10
 70
     1
 10
0.0
 20
0.0
 30
0.0
  3
*D10
  1

  0
LINE
  5
D10
330
7F3
100
AcDbEntity
  8
SUNPOU
100
AcDbLine
 10
408.8463364291706
 20
259.0750088607502
 30
0.0
 11
242.6444103043782
 21
259.0750088607502
 31
0.0
  0
LINE
  5
D11
330
7F3
100
AcDbEntity
  8
SUNPOU
100
AcDbLine
 10
291.3463364691706
 20
187.691406597804
 30
0.0
 11
242.6444103043781
 21
187.691406597804
 31
0.0
  0
LINE
  5
D12
330
7F3
100
AcDbEntity
  8
SUNPOU
100
AcDbLine
 10
245.6444103043782
 20
256.0750088607503
 30
0.0
 11
245.6444103043782
 21
190.691406597804
 31
0.0
  0
INSERT
  5
D13
330
7F3
100
AcDbEntity
  8
SUNPOU
100
AcDbBlockReference
  2
_OPEN
 10
245.6444103043782
 20
259.0750088607502
 30
0.0
 41
3.0
 42
3.0
 43
3.0
 50
90.0
  0
INSERT
  5
D14
330
7F3
100
AcDbEntity
  8
SUNPOU
100
AcDbBlockReference
  2
_OPEN
 10
245.6444103043782
 20
187.691406597804
 30
0.0
 41
3.0
 42
3.0
 43
3.0
 50
270.0
  0
MTEXT
  5
D15
330
7F3
100
AcDbEntity
  8
SUNPOU
100
AcDbMText
 10
240.6444103043781
 20
223.3832077292772
 30
0.0
 40
6.0
 41
0.0
 71
     5
 72
     1
  1
\A1;71(No1)
 11
0.0000000000000001
 21
1.0
 31
0.0
1001
ACAD
1000
MTEXTBEGIN
1070
    73
1070
     1
1070
    44
1040
1.0
1070
    74
1070
     0
1000
MTEXTEND
  0
POINT
  5
D16
330
7F3
100
AcDbEntity
  8
DEFPOINTS
 62
     0
100
AcDbPoint
 10
414.8463364291705
 20
259.0750088607502
 30
0.0
  0
POINT
  5
D17
330
7F3
100
AcDbEntity
  8
DEFPOINTS
 62
     0
100
AcDbPoint
 10
297.3463364691706
 20
187.691406597804
 30
0.0
  0
POINT
  5
D18
330
7F3
100
AcDbEntity
  8
DEFPOINTS
 62
     0
100
AcDbPoint
 10
245.6444103043782
 20
187.691406597804
 30
0.0
  0
ENDBLK
  5
7FE
330
7F3
100
AcDbEntity
  8
0
100
AcDbBlockEnd
  0
BLOCK
  5
93E
330
934
100
AcDbEntity
  8
0
100
AcDbBlockBegin
  2
*D11
 70
     1
 10
0.0
 20
0.0
 30
0.0
  3
*D11
  1

  0
LINE
  5
D07
330
934
100
AcDbEntity
  8
SUNPOU
100
AcDbLine
 10
297.3463364691706
 20
193.691406597804
 30
0.0
 11
297.3463364691706
 21
279.1579910209359
 31
0.0
  0
LINE
  5
D08
330
934
100
AcDbEntity
  8
SUNPOU
100
AcDbLine
 10
414.8463364291705
 20
265.0750088607502
 30
0.0
 11
414.8463364291705
 21
279.1579910209359
 31
0.0
  0
LINE
  5
D09
330
934
100
AcDbEntity
  8
SUNPOU
100
AcDbLine
 10
300.3463364691706
 20
276.1579910209359
 30
0.0
 11
411.8463364291706
 21
276.1579910209359
 31
0.0
  0
INSERT
  5
D0A
330
934
100
AcDbEntity
  8
SUNPOU
100
AcDbBlockReference
  2
_OPEN
 10
297.3463364691706
 20
276.1579910209359
 30
0.0
 41
3.0
 42
3.0
 43
3.0
 50
180.0
  0
INSERT
  5
D0B
330
934
100
AcDbEntity
  8
SUNPOU
100
AcDbBlockReference
  2
_OPEN
 10
414.8463364291705
 20
276.1579910209359
 30
0.0
 41
3.0
 42
3.0
 43
3.0
  0
MTEXT
  5
D0C
330
934
100
AcDbEntity
  8
SUNPOU
100
AcDbMText
 10
356.0963364491706
 20
281.1579910209359
 30
0.0
 40
6.0
 41
0.0
 71
     5
 72
     1
  1
\A1;118
1001
ACAD
1000
MTEXTBEGIN
1070
    73
1070
     1
1070
    44
1040
1.0
1070
    74
1070
     0
1000
MTEXTEND
  0
POINT
  5
D0D
330
934
100
AcDbEntity
  8
DEFPOINTS
 62
     0
100
AcDbPoint
 10
297.3463364691706
 20
187.691406597804
 30
0.0
  0
POINT
  5
D0E
330
934
100
AcDbEntity
  8
DEFPOINTS
 62
     0
100
AcDbPoint
 10
414.8463364291705
 20
259.0750088607502
 30
0.0
  0
POINT
  5
D0F
330
934
100
AcDbEntity
  8
DEFPOINTS
 62
     0
100
AcDbPoint
 10
414.8463364291705
 20
276.1579910209359
 30
0.0
  0
ENDBLK
  5
93F
330
934
100
AcDbEntity
  8
0
100
AcDbBlockEnd
  0
BLOCK
  5
94B
330
941
100
AcDbEntity
  8
0
100
AcDbBlockBegin
  2
*D12
 70
     1
 10
0.0
 20
0.0
 30
0.0
  3
*D12
  1

  0
LINE
  5
D79
330
941
100
AcDbEntity
  8
SUNPOU
100
AcDbLine
 10
586.1314260991707
 20
428.1086948684191
 30
0.0
 11
617.6204585728946
 21
428.1086948684191
 31
0.0
  0
LINE
  5
D7A
330
941
100
AcDbEntity
  8
SUNPOU
100
AcDbLine
 10
586.1314260991707
 20
408.1086948684192
 30
0.0
 11
617.6204585728946
 21
408.1086948684192
 31
0.0
  0
LINE
  5
D7B
330
941
100
AcDbEntity
  8
SUNPOU
100
AcDbLine
 10
614.6204585728947
 20
425.1086948684192
 30
0.0
 11
614.6204585728947
 21
411.1086948684191
 31
0.0
  0
INSERT
  5
D7C
330
941
100
AcDbEntity
  8
SUNPOU
100
AcDbBlockReference
  2
_OPEN
 10
614.6204585728947
 20
428.1086948684191
 30
0.0
 41
3.0
 42
3.0
 43
3.0
 50
90.0
  0
INSERT
  5
D7D
330
941
100
AcDbEntity
  8
SUNPOU
100
AcDbBlockReference
  2
_OPEN
 10
614.6204585728947
 20
408.1086948684192
 30
0.0
 41
3.0
 42
3.0
 43
3.0
 50
270.0
  0
MTEXT
  5
D7E
330
941
100
AcDbEntity
  8
SUNPOU
100
AcDbMText
 10
609.6204585728945
 20
418.1086948684193
 30
0.0
 40
6.0
 41
0.0
 71
     5
 72
     1
  1
\A1;20
 11
0.0000000000000001
 21
1.0
 31
0.0
1001
ACAD
1000
MTEXTBEGIN
1070
    73
1070
     1
1070
    44
1040
1.0
1070
    74
1070
     0
1000
MTEXTEND
  0
POINT
  5
D7F
330
941
100
AcDbEntity
  8
DEFPOINTS
 62
     0
100
AcDbPoint
 10
580.1314260991707
 20
428.1086948684191
 30
0.0
  0
POINT
  5
D80
330
941
100
AcDbEntity
  8
DEFPOINTS
 62
     0
100
AcDbPoint
 10
580.1314260991707
 20
408.1086948684192
 30
0.0
  0
POINT
  5
D81
330
941
100
AcDbEntity
  8
DEFPOINTS
 62
     0
100
AcDbPoint
 10
614.6204585728947
 20
408.1086948684192
 30
0.0
  0
ENDBLK
  5
94C
330
941
100
AcDbEntity
  8
0
100
AcDbBlockEnd
  0
BLOCK
  5
A03
330
9F9
100
AcDbEntity
  8
0
100
AcDbBlockBegin
  2
*D13
 70
     1
 10
0.0
 20
0.0
 30
0.0
  3
*D13
  1

  0
LINE
  5
D19
330
9F9
100
AcDbEntity
  8
SUNPOU
100
AcDbLine
 10
104.9320453626511
 20
316.2801311978041
 30
0.0
 11
104.9320453626511
 21
358.2753494943399
 31
0.0
  0
LINE
  5
D1A
330
9F9
100
AcDbEntity
  8
SUNPOU
100
AcDbLine
 10
124.9320453626511
 20
316.2801311978041
 30
0.0
 11
124.9320453626511
 21
358.2753494943399
 31
0.0
  0
LINE
  5
D1B
330
9F9
100
AcDbEntity
  8
SUNPOU
100
AcDbLine
 10
107.9320453626511
 20
355.2753494943399
 30
0.0
 11
121.9320453626511
 21
355.2753494943399
 31
0.0
  0
INSERT
  5
D1C
330
9F9
100
AcDbEntity
  8
SUNPOU
100
AcDbBlockReference
  2
_OPEN
 10
104.9320453626511
 20
355.2753494943399
 30
0.0
 41
3.0
 42
3.0
 43
3.0
 50
180.0
  0
INSERT
  5
D1D
330
9F9
100
AcDbEntity
  8
SUNPOU
100
AcDbBlockReference
  2
_OPEN
 10
124.9320453626511
 20
355.2753494943399
 30
0.0
 41
3.0
 42
3.0
 43
3.0
  0
MTEXT
  5
D1E
330
9F9
100
AcDbEntity
  8
SUNPOU
100
AcDbMText
 10
114.9320453626511
 20
360.2753494943399
 30
0.0
 40
6.0
 41
0.0
 71
     5
 72
     1
  1
\A1;20
1001
ACAD
1000
MTEXTBEGIN
1070
    73
1070
     1
1070
    44
1040
1.0
1070
    74
1070
     0
1000
MTEXTEND
  0
POINT
  5
D1F
330
9F9
100
AcDbEntity
  8
DEFPOINTS
 62
     0
100
AcDbPoint
 10
104.9320453626511
 20
310.2801311978041
 30
0.0
  0
POINT
  5
D20
330
9F9
100
AcDbEntity
  8
DEFPOINTS
 62
     0
100
AcDbPoint
 10
124.9320453626511
 20
310.2801311978041
 30
0.0
  0
POINT
  5
D21
330
9F9
100
AcDbEntity
  8
DEFPOINTS
 62
     0
100
AcDbPoint
 10
124.9320453626511
 20
355.2753494943399
 30
0.0
  0
ENDBLK
  5
A04
330
9F9
100
AcDbEntity
  8
0
100
AcDbBlockEnd
  0
ENDSEC
  0
SECTION
  2
ENTITIES
  0
LINE
  5
3EC
330
1A
100
AcDbEntity
  8
CENTER_L
100
AcDbLine
 10
114.9320453626511
 20
168.6914065978041
 30
0.0
 11
114.9320453626511
 21
317.280131197804
 31
0.0
  0
LINE
  5
40A
330
1A
100
AcDbEntity
  8
SEIHIN
100
AcDbLine
 10
122.9320453626511
 20
206.760788297804
 30
0.0
 11
122.9320453626538
 21
190.7914065978043
 31
0.0
  0
LINE
  5
40B
330
1A
100
AcDbEntity
  8
SEIHIN
100
AcDbLine
 10
106.9320453626511
 20
206.760788297804
 30
0.0
 11
106.9320453626511
 21
190.791406597804
 31
0.0
  0
ARC
  5
418
330
1A
100
AcDbEntity
  8
SEIHIN
100
AcDbCircle
 10
124.3320453626511
 20
179.691406597804
 30
0.0
 40
3.599999985452111
100
AcDbArc
 50
0.0
 51
76.34287187273137
  0
ARC
  5
419
330
1A
100
AcDbEntity
  8
SEIHIN
100
AcDbCircle
 10
105.5320453626511
 20
179.691406597804
 30
0.0
 40
3.599999985452093
100
AcDbArc
 50
103.6571281272686
 51
180.0
  0
ARC
  5
41A
330
1A
100
AcDbEntity
  8
SEIHIN
100
AcDbCircle
 10
124.3320453626511
 20
179.691406597804
 30
0.0
 40
1.0
100
AcDbArc
 50
0.0
 51
90.0
  0
ARC
  5
41B
330
1A
100
AcDbEntity
  8
SEIHIN
100
AcDbCircle
 10
105.5320453626511
 20
179.691406597804
 30
0.0
 40
1.0
100
AcDbArc
 50
90.0
 51
180.0
  0
LINE
  5
420
330
1A
100
AcDbEntity
  8
SEIHIN
100
AcDbLine
 10
104.5320453626511
 20
175.691406597804
 30
0.0
 11
101.9320453626511
 21
175.691406597804
 31
0.0
  0
LINE
  5
421
330
1A
100
AcDbEntity
  8
SEIHIN
100
AcDbLine
 10
101.9320453626511
 20
175.691406597804
 30
0.0
 11
101.9320453626511
 21
179.691406597804
 31
0.0
  0
LINE
  5
422
330
1A
100
AcDbEntity
  8
SEIHIN
100
AcDbLine
 10
104.5320453626511
 20
175.691406597804
 30
0.0
 11
104.5320453626511
 21
179.691406597804
 31
0.0
  0
LINE
  5
425
330
1A
100
AcDbEntity
  8
SEIHIN
100
AcDbLine
 10
127.9320453626511
 20
175.691406597804
 30
0.0
 11
125.3320453626511
 21
175.691406597804
 31
0.0
  0
LINE
  5
426
330
1A
100
AcDbEntity
  8
SEIHIN
100
AcDbLine
 10
125.3320453626511
 20
175.691406597804
 30
0.0
 11
125.3320453626511
 21
179.691406597804
 31
0.0
  0
LINE
  5
427
330
1A
100
AcDbEntity
  8
SEIHIN
100
AcDbLine
 10
127.9320453626511
 20
175.691406597804
 30
0.0
 11
127.9320453626511
 21
179.691406597804
 31
0.0
  0
LINE
  5
428
330
1A
100
AcDbEntity
  8
SEIHIN
100
AcDbLine
 10
123.1820453626511
 20
188.191406597804
 30
0.0
 11
106.6820453626512
 21
188.191406597804
 31
0.0
  0
LINE
  5
429
330
1A
100
AcDbEntity
  8
SEIHIN
100
AcDbLine
 10
121.4320453626538
 20
189.2914065978041
 30
0.0
 11
108.4320453626512
 21
189.291406597804
 31
0.0
  0
LINE
  5
42A
330
1A
100
AcDbEntity
  8
SEIHIN
100
AcDbLine
 10
124.1820453626511
 20
180.691406597804
 30
0.0
 11
105.6820453626512
 21
180.691406597804
 31
0.0
  0
LINE
  5
42B
330
1A
100
AcDbEntity
  8
SEIHIN
100
AcDbLine
 10
104.6820453626511
 20
181.691406597804
 30
0.0
 11
104.6820453626511
 21
186.191406597804
 31
0.0
  0
ARC
  5
42D
330
1A
100
AcDbEntity
  8
SEIHIN
100
AcDbCircle
 10
105.6820453626512
 20
181.691406597804
 30
0.0
 40
1.0
100
AcDbArc
 50
180.0
 51
270.0
  0
LINE
  5
42E
330
1A
100
AcDbEntity
  8
SEIHIN
100
AcDbLine
 10
105.4820453626511
 20
187.791406597804
 30
0.0
 11
104.9320453626511
 21
187.791406597804
 31
0.0
  0
ARC
  5
42F
330
1A
100
AcDbEntity
  8
SEIHIN
100
AcDbCircle
 10
106.6820453626512
 20
186.191406597804
 30
0.0
 40
2.0
100
AcDbArc
 50
90.0
 51
180.0
  0
LINE
  5
430
330
1A
100
AcDbEntity
  8
SEIHIN
100
AcDbLine
 10
125.1820453626511
 20
181.691406597804
 30
0.0
 11
125.1820453626511
 21
186.191406597804
 31
0.0
  0
ARC
  5
432
330
1A
100
AcDbEntity
  8
SEIHIN
100
AcDbCircle
 10
124.1820453626511
 20
181.691406597804
 30
0.0
 40
1.0
100
AcDbArc
 50
270.0
 51
0.0
  0
LINE
  5
433
330
1A
100
AcDbEntity
  8
SEIHIN
100
AcDbLine
 10
124.9320453626511
 20
187.791406597804
 30
0.0
 11
124.3820453626511
 21
187.791406597804
 31
0.0
  0
ARC
  5
434
330
1A
100
AcDbEntity
  8
SEIHIN
100
AcDbCircle
 10
123.1820453626511
 20
186.191406597804
 30
0.0
 40
2.0
100
AcDbArc
 50
0.0
 51
90.0
  0
LINE
  5
459
330
1A
100
AcDbEntity
  8
SEIHIN
100
AcDbLine
 10
121.4320453626517
 20
201.778893697804
 30
0.0
 11
108.4320453626512
 21
201.778893697804
 31
0.0
  0
LINE
  5
45A
330
1A
100
AcDbEntity
  8
SEIHIN
100
AcDbLine
 10
105.9320453626511
 20
200.864679997804
 30
0.0
 11
104.9320453626511
 21
200.864679997804
 31
0.0
  0
LINE
  5
45B
330
1A
100
AcDbEntity
  8
SEIHIN
100
AcDbLine
 10
124.9320453626511
 20
200.864679997804
 30
0.0
 11
123.9320453626521
 21
200.864679997804
 31
0.0
  0
LINE
  5
45C
330
1A
100
AcDbEntity
  8
SEIHIN
100
AcDbLine
 10
119.9320453626511
 20
209.760788297804
 30
0.0
 11
109.9320453626511
 21
209.760788297804
 31
0.0
  0
LINE
  5
45D
330
1A
100
AcDbEntity
  8
SEIHIN
100
AcDbLine
 10
121.4320453626511
 20
205.0976311978041
 30
0.0
 11
108.4320453626512
 21
205.0976311978041
 31
0.0
  0
LINE
  5
45E
330
1A
100
AcDbEntity
  8
SEIHIN
100
AcDbLine
 10
105.9320453626511
 20
203.600372097804
 30
0.0
 11
104.9320453626511
 21
203.600372097804
 31
0.0
  0
LINE
  5
45F
330
1A
100
AcDbEntity
  8
SEIHIN
100
AcDbLine
 10
124.9320453626511
 20
203.600372097804
 30
0.0
 11
123.9320453626516
 21
203.600372097804
 31
0.0
  0
ARC
  5
460
330
1A
100
AcDbEntity
  8
SEIHIN
100
AcDbCircle
 10
120.9320453626511
 20
252.4435053607502
 30
0.0
 40
2.0
100
AcDbArc
 50
270.0
 51
0.0
  0
ARC
  5
461
330
1A
100
AcDbEntity
  8
SEIHIN
100
AcDbCircle
 10
108.9320453626511
 20
252.4435053607502
 30
0.0
 40
2.0
100
AcDbArc
 50
180.0
 51
270.0
  0
LINE
  5
462
330
1A
100
AcDbEntity
  8
SEIHIN
100
AcDbLine
 10
120.9320453626511
 20
250.4435053607502
 30
0.0
 11
108.9320453626511
 21
250.4435053607502
 31
0.0
  0
LINE
  5
464
330
1A
100
AcDbEntity
  8
SEIHIN
100
AcDbLine
 10
106.9320453626511
 20
252.4435053607502
 30
0.0
 11
106.9320453626511
 21
267.0925873607502
 31
0.0
  0
LINE
  5
465
330
1A
100
AcDbEntity
  8
SEIHIN
100
AcDbLine
 10
122.9320453626511
 20
252.4435053607502
 30
0.0
 11
122.9320453626511
 21
267.0925873607502
 31
0.0
  0
LINE
  5
466
330
1A
100
AcDbEntity
  8
SEIHIN
100
AcDbLine
 10
126.9320453626511
 20
259.0750088607502
 30
0.0
 11
123.9320453626511
 21
259.0750088607502
 31
0.0
  0
LINE
  5
468
330
1A
100
AcDbEntity
  8
SEIHIN
100
AcDbLine
 10
120.9320453626511
 20
269.0925873607502
 30
0.0
 11
108.9320453626511
 21
269.0925873607502
 31
0.0
  0
ARC
  5
469
330
1A
100
AcDbEntity
  8
SEIHIN
100
AcDbCircle
 10
108.9320453626511
 20
267.0925873607502
 30
0.0
 40
2.0
100
AcDbArc
 50
90.0
 51
180.0
  0
ARC
  5
46A
330
1A
100
AcDbEntity
  8
SEIHIN
100
AcDbCircle
 10
120.9320453626511
 20
267.0925873607502
 30
0.0
 40
2.0
100
AcDbArc
 50
0.0
 51
90.0
  0
LINE
  5
4E7
330
1A
100
AcDbEntity
  8
SEIHIN
100
AcDbLine
 10
124.9320453626511
 20
310.2801311978041
 30
0.0
 11
104.9320453626511
 21
310.2801311978041
 31
0.0
  0
LINE
  5
514
330
1A
100
AcDbEntity
  8
CENTER_L
100
AcDbLine
 10
541.1311723836308
 20
223.1092598461562
 30
0.0
 11
538.3379712036307
 21
235.8056383461562
 31
0.0
  0
ARC
  5
517
330
1A
100
AcDbEntity
  8
SEIHIN
 62
     2
100
AcDbCircle
 10
325.8858101936309
 20
4.510522096156222
 30
0.0
 40
274.367820662738
100
AcDbArc
 50
53.38532308682069
 51
55.22064626828634
  0
LINE
  5
518
330
1A
100
AcDbEntity
  8
CENTER_L
100
AcDbLine
 10
502.0653923556308
 20
214.5147946461562
 30
0.0
 11
499.2721911836309
 21
227.2111731461562
 31
0.0
  0
ARC
  5
519
330
1A
100
AcDbEntity
  8
SEIHIN
100
AcDbCircle
 10
419.8463364291706
 20
245.981555097804
 30
0.0
 40
1.000000000718011
100
AcDbArc
 50
304.8753351532559
 51
0.0
  0
LINE
  5
51A
330
1A
100
AcDbEntity
  8
SEIHIN
100
AcDbLine
 10
419.3463364291706
 20
240.7586847978041
 30
0.0
 11
419.3463364291706
 21
253.0456534978041
 31
0.0
  0
LINE
  5
51B
330
1A
100
AcDbEntity
  8
SEIHIN
100
AcDbLine
 10
414.8463364291705
 20
240.7586847978041
 30
0.0
 11
414.8463364291705
 21
253.0456534978041
 31
0.0
  0
LINE
  5
51C
330
1A
100
AcDbEntity
  8
SEIHIN
100
AcDbLine
 10
486.6330818326308
 20
207.5359898461562
 30
0.0
 11
590.7154131136308
 21
230.4340854461561
 31
0.0
  0
LINE
  5
51D
330
1A
100
AcDbEntity
  8
CENTER_L
100
AcDbLine
 10
484.4844655436308
 20
217.3024348461562
 30
0.0
 11
588.5667968236308
 21
240.2005305461562
 31
0.0
  0
LINE
  5
522
330
1A
100
AcDbEntity
  8
NOKITOI
  6
PHANTOM
 62
     8
100
AcDbLine
 10
403.7387791923986
 20
178.534206597804
 30
0.0
 11
400.7457791923981
 21
148.6044065978039
 31
0.0
  0
LINE
  5
523
330
1A
100
AcDbEntity
  8
NOKITOI
  6
PHANTOM
 62
     8
100
AcDbLine
 10
404.7797791923987
 20
176.883906597804
 30
0.0
 11
401.9109791923986
 21
148.196506597804
 31
0.0
  0
ARC
  5
524
330
1A
100
AcDbEntity
  8
NOKITOI
  6
PHANTOM
 62
     8
100
AcDbCircle
 10
345.6833852743664
 20
181.7844009731477
 30
0.0
 40
41.79999437547816
100
AcDbArc
 50
184.4742952125247
 51
269.999854592109
  0
ARC
  5
525
330
1A
100
AcDbEntity
  8
NOKITOI
  6
PHANTOM
 62
     8
100
AcDbCircle
 10
345.6833629659411
 20
181.7844210741741
 30
0.0
 40
43.00001447645168
100
AcDbArc
 50
186.5249107071174
 51
269.9998883751437
  0
LINE
  5
52D
330
1A
100
AcDbEntity
  8
NOKITOI
  6
PHANTOM
 62
     8
100
AcDbLine
 10
400.5648791923988
 20
148.267106597804
 30
0.0
 11
390.5795791923985
 21
140.0973065978039
 31
0.0
  0
LINE
  5
52E
330
1A
100
AcDbEntity
  8
NOKITOI
  6
PHANTOM
 62
     8
100
AcDbLine
 10
401.5491791923984
 20
147.5220065978041
 30
0.0
 11
391.1460791923984
 21
139.0103065978041
 31
0.0
  0
LINE
  5
52F
330
1A
100
AcDbEntity
  8
NOKITOI
  6
PHANTOM
 62
     8
100
AcDbLine
 10
345.6833791923984
 20
139.984406597804
 30
0.0
 11
390.2629791923984
 21
139.984306597804
 31
0.0
  0
LINE
  5
530
330
1A
100
AcDbEntity
  8
NOKITOI
  6
PHANTOM
 62
     8
100
AcDbLine
 10
390.5127791923985
 20
138.784306597804
 30
0.0
 11
345.6833791923984
 21
138.784406597804
 31
0.0
  0
LINE
  5
531
330
1A
100
AcDbEntity
  8
NOKITOI
  6
PHANTOM
 62
     8
100
AcDbLine
 10
386.2629791923984
 20
139.984306597804
 30
0.0
 11
366.3548791923988
 21
139.984306597804
 31
0.0
  0
LINE
  5
532
330
1A
100
AcDbEntity
  8
NOKITOI
  6
PHANTOM
 62
     8
100
AcDbLine
 10
386.5127791923985
 20
138.784306597804
 30
0.0
 11
366.3548791923988
 21
138.784306597804
 31
0.0
  0
ARC
  5
533
330
1A
100
AcDbEntity
  8
NOKITOI
  6
PHANTOM
 62
     8
100
AcDbCircle
 10
390.2629855801471
 20
140.4843088777936
 30
0.0
 40
0.5000022800304047
100
AcDbArc
 50
269.9992680212791
 51
309.2854498596055
  0
ARC
  5
534
330
1A
100
AcDbEntity
  8
NOKITOI
  6
PHANTOM
 62
     8
100
AcDbCircle
 10
390.512772259821
 20
139.7843041227979
 30
0.0
 40
0.9999975250179316
100
AcDbArc
 50
270.0003972084019
 51
309.2946416752284
  0
ARC
  5
535
330
1A
100
AcDbEntity
  8
NOKITOI
  6
PHANTOM
 62
     8
100
AcDbCircle
 10
400.2482617665203
 20
148.654074111416
 30
0.0
 40
0.4999904508696396
100
AcDbArc
 50
309.2900846377946
 51
354.2990110749239
  0
ARC
  5
536
330
1A
100
AcDbEntity
  8
NOKITOI
  6
PHANTOM
 62
     8
100
AcDbCircle
 10
400.9159566195296
 20
148.2959645261314
 30
0.0
 40
0.9999908507640039
100
AcDbArc
 50
309.288709223069
 51
354.286232947753
  0
LINE
  5
537
330
1A
100
AcDbEntity
  8
SEIHIN
100
AcDbLine
 10
299.6463364691706
 20
183.2914065978041
 30
0.0
 11
372.3612194509141
 21
183.2914065978041
 31
0.0
  0
LINE
  5
538
330
1A
100
AcDbEntity
  8
SEIHIN
100
AcDbLine
 10
307.2499096691707
 20
175.691406597804
 30
0.0
 11
375.6747635691706
 21
175.691406597804
 31
0.0
  0
ARC
  5
539
330
1A
100
AcDbEntity
  8
SEIHIN
100
AcDbCircle
 10
307.2499096691707
 20
177.291406597804
 30
0.0
 40
1.599999992064534
100
AcDbArc
 50
185.0000004668387
 51
270.0
  0
LINE
  5
53A
330
1A
100
AcDbEntity
  8
SEIHIN
100
AcDbLine
 10
299.1463364691707
 20
187.691406597804
 30
0.0
 11
299.1463364691707
 21
183.7914065978041
 31
0.0
  0
LINE
  5
53B
330
1A
100
AcDbEntity
  8
SEIHIN
100
AcDbLine
 10
297.3463364691706
 20
187.691406597804
 30
0.0
 11
297.3463364691706
 21
183.7914065978041
 31
0.0
  0
LINE
  5
53C
330
1A
100
AcDbEntity
  8
NOKITOI
  6
PHANTOM
 62
     8
100
AcDbLine
 10
302.3947791923985
 20
184.7582065978039
 30
0.0
 11
302.7105791923984
 21
190.758106597804
 31
0.0
  0
LINE
  5
53D
330
1A
100
AcDbEntity
  8
NOKITOI
  6
PHANTOM
 62
     8
100
AcDbLine
 10
300.4533791923988
 20
185.484406597804
 30
0.0
 11
300.8574791923986
 21
188.3128065978039
 31
0.0
  0
ARC
  5
53E
330
1A
100
AcDbEntity
  8
NOKITOI
  6
PHANTOM
 62
     8
100
AcDbCircle
 10
298.9900934108138
 20
187.262091963503
 30
0.0
 40
0.5000073448410256
100
AcDbArc
 50
351.8729478641237
 51
96.47829282997079
  0
ARC
  5
53F
330
1A
100
AcDbEntity
  8
NOKITOI
  6
PHANTOM
 62
     8
100
AcDbCircle
 10
299.3849170738451
 20
183.7844503803293
 30
0.0
 40
3.999989731271038
100
AcDbArc
 50
96.47731142013284
 51
181.7899836067311
  0
LINE
  5
540
330
1A
100
AcDbEntity
  8
NOKITOI
  6
PHANTOM
 62
     8
100
AcDbLine
 10
295.1336791923988
 20
191.7594065978039
 30
0.0
 11
295.2830791923982
 21
186.9805065978041
 31
0.0
  0
ARC
  5
541
330
1A
100
AcDbEntity
  8
NOKITOI
  6
PHANTOM
 62
     8
100
AcDbCircle
 10
299.3849994050676
 20
183.784465326184
 30
0.0
 40
5.2000412730095
100
AcDbArc
 50
90.0013245430618
 51
142.0757990790551
  0
LINE
  5
542
330
1A
100
AcDbEntity
  8
NOKITOI
  6
PHANTOM
 62
     8
100
AcDbLine
 10
301.2312791923984
 20
185.484406597804
 30
0.0
 11
301.4124791923984
 21
188.9259065978041
 31
0.0
  0
LINE
  5
543
330
1A
100
AcDbEntity
  8
NOKITOI
  6
PHANTOM
 62
     8
100
AcDbLine
 10
293.9342791923984
 20
191.721906597804
 30
0.0
 11
294.3244791923982
 21
179.2376065978039
 31
0.0
  0
LINE
  5
544
330
1A
100
AcDbEntity
  8
SEIHIN
100
AcDbLine
 10
305.6559981691707
 20
177.151957397804
 30
0.0
 11
305.1188659294042
 21
183.291406597804
 31
0.0
  0
ARC
  5
545
330
1A
100
AcDbEntity
  8
SEIHIN
100
AcDbCircle
 10
300.4463364691706
 20
183.7914065978041
 30
0.0
 40
3.100000000000008
100
AcDbArc
 50
180.0
 51
270.0
  0
LINE
  5
546
330
1A
100
AcDbEntity
  8
NOKITOI
  6
PHANTOM
 62
     8
100
AcDbLine
 10
295.4723791923981
 20
180.922006597804
 30
0.0
 11
295.3868791923984
 21
183.6595065978039
 31
0.0
  0
LINE
  5
547
330
1A
100
AcDbEntity
  8
SEIHIN
100
AcDbLine
 10
300.4463364691706
 20
180.691406597804
 30
0.0
 11
305.3463364691706
 21
180.691406597804
 31
0.0
  0
LINE
  5
548
330
1A
100
AcDbEntity
  8
NOKITOI
  6
PHANTOM
 62
     8
100
AcDbLine
 10
295.8236791923984
 20
177.784406597804
 30
0.0
 11
301.9683791923982
 21
177.784406597804
 31
0.0
  0
LINE
  5
549
330
1A
100
AcDbEntity
  8
NOKITOI
  6
PHANTOM
 62
     8
100
AcDbLine
 10
303.5122791923988
 20
178.984406597804
 30
0.0
 11
297.4713791923984
 21
178.984406597804
 31
0.0
  0
ARC
  5
54A
330
1A
100
AcDbEntity
  8
NOKITOI
  6
PHANTOM
 62
     8
100
AcDbCircle
 10
295.8237151515493
 20
179.2843717436607
 30
0.0
 40
1.499965146287778
100
AcDbArc
 50
181.7866280217766
 51
269.9986264296971
  0
ARC
  5
54B
330
1A
100
AcDbEntity
  8
NOKITOI
  6
PHANTOM
 62
     8
100
AcDbCircle
 10
297.4713927645368
 20
180.9843934427176
 30
0.0
 40
1.999986844959662
100
AcDbArc
 50
181.7875531852355
 51
269.9996111843215
  0
ARC
  5
54C
330
1A
100
AcDbEntity
  8
NOKITOI
  6
PHANTOM
 62
     8
100
AcDbCircle
 10
303.5122917621067
 20
178.4843949730743
 30
0.0
 40
0.5000116248877111
100
AcDbArc
 50
4.47484680834223
 51
90.00144034898383
  0
ARC
  5
54D
330
1A
100
AcDbEntity
  8
NOKITOI
  6
PHANTOM
 62
     8
100
AcDbCircle
 10
301.9683707682359
 20
176.7844141128604
 30
0.0
 40
0.9999924849789756
100
AcDbArc
 50
6.528264606673934
 51
89.99951732741129
  0
LINE
  5
54E
330
1A
100
AcDbEntity
  8
NOKITOI
  6
PHANTOM
 62
     8
100
AcDbLine
 10
301.8953791923984
 20
184.284406597804
 30
0.0
 11
299.6462791923984
 21
184.284406597804
 31
0.0
  0
LINE
  5
54F
330
1A
100
AcDbEntity
  8
NOKITOI
  6
PHANTOM
 62
     8
100
AcDbLine
 10
301.2312791923984
 20
185.484406597804
 30
0.0
 11
300.4533791923988
 21
185.484406597804
 31
0.0
  0
ARC
  5
550
330
1A
100
AcDbEntity
  8
SEIHIN
100
AcDbCircle
 10
299.6463364691706
 20
183.7914065978041
 30
0.0
 40
0.5
100
AcDbArc
 50
180.0
 51
270.0
  0
LINE
  5
551
330
1A
100
AcDbEntity
  8
NOKITOI
  6
PHANTOM
 62
     8
100
AcDbLine
 10
299.1513791923982
 20
184.8552065978042
 30
0.0
 11
299.4850791923984
 21
187.1914065978041
 31
0.0
  0
ARC
  5
552
330
1A
100
AcDbEntity
  8
NOKITOI
  6
PHANTOM
 62
     8
100
AcDbCircle
 10
299.6463057929961
 20
184.7843759209219
 30
0.0
 40
0.4999693238254178
100
AcDbArc
 50
171.8555038770531
 51
269.9969516090372
  0
ARC
  5
553
330
1A
100
AcDbEntity
  8
NOKITOI
  6
PHANTOM
 62
     8
100
AcDbCircle
 10
301.8953723054035
 20
184.7844000627184
 30
0.0
 40
0.499993464961963
100
AcDbArc
 50
270.0007892017869
 51
356.997036131742
  0
LINE
  5
554
330
1A
100
AcDbEntity
  8
NOKITOI
  6
PHANTOM
 62
     8
100
AcDbLine
 10
299.4893791923984
 20
191.8825065978039
 30
0.0
 11
299.7501791923984
 21
193.186406597804
 31
0.0
  0
ARC
  5
555
330
1A
100
AcDbEntity
  8
NOKITOI
  6
PHANTOM
 62
     8
100
AcDbCircle
 10
295.9332919432483
 20
191.7844197528904
 30
0.0
 40
1.999986844954076
100
AcDbArc
 50
90.00036528735288
 51
181.7883072882704
  0
LINE
  5
556
330
1A
100
AcDbEntity
  8
NOKITOI
  6
PHANTOM
 62
     8
100
AcDbLine
 10
299.8467791923987
 20
188.984406597804
 30
0.0
 11
300.8425791923984
 21
190.0844065978041
 31
0.0
  0
LINE
  5
557
330
1A
100
AcDbEntity
  8
NOKITOI
  6
PHANTOM
 62
     8
100
AcDbLine
 10
297.9060791923986
 20
190.0844065978041
 30
0.0
 11
300.8425791923984
 21
190.0844065978041
 31
0.0
  0
LINE
  5
558
330
1A
100
AcDbEntity
  8
NOKITOI
  6
PHANTOM
 62
     8
100
AcDbLine
 10
302.2111791923983
 20
191.284406597804
 30
0.0
 11
299.9796791923984
 21
191.284406597804
 31
0.0
  0
LINE
  5
559
330
1A
100
AcDbEntity
  8
SEIHIN
100
AcDbLine
 10
297.3463364691706
 20
187.691406597804
 30
0.0
 11
299.1463364691707
 21
187.691406597804
 31
0.0
  0
LINE
  5
55A
330
1A
100
AcDbEntity
  8
NOKITOI
  6
PHANTOM
 62
     8
100
AcDbLine
 10
299.8467791923987
 20
188.984406597804
 30
0.0
 11
299.3848791923985
 21
188.984406597804
 31
0.0
  0
ARC
  5
55B
330
1A
100
AcDbEntity
  8
NOKITOI
  6
PHANTOM
 62
     8
100
AcDbCircle
 10
299.979671937843
 20
191.7844154476474
 30
0.0
 40
0.5000088498959383
100
AcDbArc
 50
168.6864043304889
 51
270.0008312961425
  0
ARC
  5
55C
330
1A
100
AcDbEntity
  8
NOKITOI
  6
PHANTOM
 62
     8
100
AcDbCircle
 10
295.9332836871965
 20
191.7844112353309
 30
0.0
 40
0.7999953624857498
100
AcDbArc
 50
90.00032191805264
 51
181.7911273464193
  0
LINE
  5
55D
330
1A
100
AcDbEntity
  8
NOKITOI
  6
PHANTOM
 62
     8
100
AcDbLine
 10
295.9332791923982
 20
192.5844065978042
 30
0.0
 11
298.4060791923986
 21
192.5844065978042
 31
0.0
  0
LINE
  5
55E
330
1A
100
AcDbEntity
  8
NOKITOI
  6
PHANTOM
 62
     8
100
AcDbLine
 10
298.4060791923986
 20
192.5844065978042
 30
0.0
 11
297.9060791923986
 21
190.0844065978041
 31
0.0
  0
ARC
  5
55F
330
1A
100
AcDbEntity
  8
NOKITOI
  6
PHANTOM
 62
     8
100
AcDbCircle
 10
302.2111729912405
 20
190.7844131328893
 30
0.0
 40
0.4999934649531607
100
AcDbArc
 50
356.9955363203376
 51
89.99928939038239
  0
LINE
  5
560
330
1A
100
AcDbEntity
  8
NOKITOI
  6
PHANTOM
 62
     8
100
AcDbLine
 10
300.8574791923986
 20
188.3128065978039
 30
0.0
 11
301.4124791923984
 21
188.9259065978041
 31
0.0
  0
ARC
  5
561
330
1A
100
AcDbEntity
  8
NOKITOI
  6
PHANTOM
 62
     8
100
AcDbCircle
 10
299.25987840939
 20
193.2844075528057
 30
0.0
 40
0.4999990449987349
100
AcDbArc
 50
348.6967198015451
 51
89.99991027369329
  0
LINE
  5
562
330
1A
100
AcDbEntity
  8
NOKITOI
  6
PHANTOM
 62
     8
100
AcDbLine
 10
295.9332791923982
 20
193.784406597804
 30
0.0
 11
299.2598791923985
 21
193.784406597804
 31
0.0
  0
ARC
  5
563
330
1A
100
AcDbEntity
  8
SEIHIN
100
AcDbCircle
 10
410.8463364291707
 20
208.0948903351021
 30
0.0
 40
8.5
100
AcDbArc
 50
272.9999999857338
 51
0.0
  0
LINE
  5
564
330
1A
100
AcDbEntity
  8
SEIHIN
100
AcDbLine
 10
411.2911920551221
 20
199.6065392895775
 30
0.0
 11
391.2186450197026
 21
198.5545816799085
 31
0.0
  0
ARC
  5
565
330
1A
100
AcDbEntity
  8
SEIHIN
100
AcDbCircle
 10
413.8463364691706
 20
194.734273097804
 30
0.0
 40
5.500000030448694
100
AcDbArc
 50
0.0
 51
87.67356407343518
  0
ARC
  5
566
330
1A
100
AcDbEntity
  8
SEIHIN
100
AcDbCircle
 10
413.8463364691706
 20
194.734273097804
 30
0.0
 40
4.499999996725646
100
AcDbArc
 50
0.0
 51
92.99999996493296
  0
LINE
  5
567
330
1A
100
AcDbEntity
  8
SEIHIN
100
AcDbLine
 10
413.6108246691707
 20
199.228105997804
 30
0.0
 11
391.0269760691706
 21
198.044536697804
 31
0.0
  0
LINE
  5
568
330
1A
100
AcDbEntity
  8
SEIHIN
100
AcDbLine
 10
372.3539482908061
 20
189.2842998193838
 30
0.0
 11
385.3539444065249
 21
202.2842960368211
 31
0.0
  0
LINE
  5
569
330
1A
100
AcDbEntity
  8
SEIHIN
100
AcDbLine
 10
373.0610551123859
 20
188.5771930409637
 30
0.0
 11
385.5319498288629
 21
201.0480878550191
 31
0.0
  0
LINE
  5
56A
330
1A
100
AcDbEntity
  8
SEIHIN
100
AcDbLine
 10
398.3986724274955
 20
191.8322432625485
 30
0.0
 11
393.6808381281593
 21
191.5849920340327
 31
0.0
  0
LINE
  5
56B
330
1A
100
AcDbEntity
  8
SEIHIN
100
AcDbLine
 10
390.1522143691707
 20
174.645847097804
 30
0.0
 11
401.9952606691706
 21
180.422086697804
 31
0.0
  0
LINE
  5
56C
330
1A
100
AcDbEntity
  8
SEIHIN
100
AcDbLine
 10
390.9851193691706
 20
172.938138297804
 30
0.0
 11
402.2706091691707
 21
178.442439497804
 31
0.0
  0
LINE
  5
56D
330
1A
100
AcDbEntity
  8
SEIHIN
100
AcDbLine
 10
390.3275627691707
 20
174.286329497804
 30
0.0
 11
402.2706091691707
 21
180.1113423978041
 31
0.0
  0
LINE
  5
56E
330
1A
100
AcDbEntity
  8
SEIHIN
100
AcDbLine
 10
380.3986188351043
 20
178.3027726697324
 30
0.0
 11
389.0360787691706
 21
174.275058997804
 31
0.0
  0
LINE
  5
56F
330
1A
100
AcDbEntity
  8
SEIHIN
100
AcDbLine
 10
380.6996137447888
 20
178.6037675810315
 30
0.0
 11
389.2051260691706
 21
174.637582097804
 31
0.0
  0
ARC
  5
570
330
1A
100
AcDbEntity
  8
SEIHIN
100
AcDbCircle
 10
375.6747635691706
 20
180.7914065978041
 30
0.0
 40
5.100000011277387
100
AcDbArc
 50
270.0
 51
315.0
  0
LINE
  5
571
330
1A
100
AcDbEntity
  8
SEIHIN
100
AcDbLine
 10
379.2698644202446
 20
177.1740525944423
 30
0.0
 11
388.4021512691706
 21
172.915597297804
 31
0.0
  0
LINE
  5
572
330
1A
100
AcDbEntity
  8
CENTER_L
100
AcDbLine
 10
359.8463364691706
 20
198.1820094719114
 30
0.0
 11
359.8463364691706
 21
173.2429920199291
 31
0.0
  0
ARC
  5
573
330
1A
100
AcDbEntity
  8
SEIHIN
100
AcDbCircle
 10
389.6700061691707
 20
175.634520597804
 30
0.0
 40
2.9999999920909
100
AcDbArc
 50
244.9999949819811
 51
295.9999945251326
  0
ARC
  5
574
330
1A
100
AcDbEntity
  8
SEIHIN
100
AcDbCircle
 10
389.6700061691707
 20
175.634520597804
 30
0.0
 40
1.099999981342675
100
AcDbArc
 50
244.9999979823532
 51
295.9999960018844
  0
ARC
  5
575
330
1A
100
AcDbEntity
  8
SEIHIN
100
AcDbCircle
 10
389.6700061691707
 20
175.634520597804
 30
0.0
 40
1.499999997384386
100
AcDbArc
 50
244.9999984438227
 51
295.9999936879063
  0
LINE
  5
576
330
1A
100
AcDbEntity
  8
SEIHIN
100
AcDbLine
 10
349.8463364691706
 20
183.4914065978041
 30
0.0
 11
372.2681618538504
 21
183.4914065978041
 31
0.0
  0
LINE
  5
577
330
1A
100
AcDbEntity
  8
SEIHIN
100
AcDbLine
 10
349.8463364691706
 20
188.991406597804
 30
0.0
 11
371.6468415068532
 21
188.991406597804
 31
0.0
  0
ARC
  5
578
330
1A
100
AcDbEntity
  8
SEIHIN
100
AcDbCircle
 10
359.8463364691706
 20
183.1007815978041
 30
0.0
 40
7.890625
100
AcDbArc
 50
48.29108392084388
 51
131.708916079156
  0
LINE
  5
579
330
1A
100
AcDbEntity
  8
SEIHIN
100
AcDbLine
 10
349.8463364691706
 20
183.2914065978041
 30
0.0
 11
372.3610550691706
 21
183.2914065978041
 31
0.0
  0
LINE
  5
57A
330
1A
100
AcDbEntity
  8
SEIHIN
100
AcDbLine
 10
349.8463364691706
 20
187.991406597804
 30
0.0
 11
371.6468415444801
 21
187.991406597804
 31
0.0
  0
LINE
  5
57B
330
1A
100
AcDbEntity
  8
SEIHIN
100
AcDbLine
 10
349.8463364691706
 20
188.991406597804
 30
0.0
 11
349.8463364691706
 21
183.4914065978041
 31
0.0
  0
LINE
  5
57C
330
1A
100
AcDbEntity
  8
SEIHIN
100
AcDbLine
 10
375.8036957736151
 20
184.9558727057031
 30
0.0
 11
387.9447908705973
 21
197.0969678976833
 31
0.0
  0
LINE
  5
57D
330
1A
100
AcDbEntity
  8
SEIHIN
100
AcDbLine
 10
376.2501423691706
 20
184.902319297804
 30
0.0
 11
388.0806919641156
 21
196.732868892749
 31
0.0
  0
LINE
  5
57E
330
1A
100
AcDbEntity
  8
SEIHIN
100
AcDbLine
 10
379.2810081691707
 20
177.185161997804
 30
0.0
 11
393.6808381281593
 21
191.5849920340327
 31
0.0
  0
ARC
  5
57F
330
1A
100
AcDbEntity
  8
SEIHIN
100
AcDbCircle
 10
372.2681618538504
 20
188.4914065978041
 30
0.0
 40
5.0
100
AcDbArc
 50
270.0
 51
315.0000002241536
  0
ARC
  5
580
330
1A
100
AcDbEntity
  8
SEIHIN
100
AcDbCircle
 10
372.3610550691706
 20
188.7914065978041
 30
0.0
 40
5.500000002456481
100
AcDbArc
 50
270.0
 51
315.0
  0
ARC
  5
581
330
1A
100
AcDbEntity
  8
SEIHIN
100
AcDbCircle
 10
371.6468415068532
 20
189.991406597804
 30
0.0
 40
1.0
100
AcDbArc
 50
270.0
 51
315.0000002241536
  0
ARC
  5
582
330
1A
100
AcDbEntity
  8
SEIHIN
100
AcDbCircle
 10
371.6468415444801
 20
189.991406597804
 30
0.0
 40
2.0
100
AcDbArc
 50
270.0
 51
315.000000224157
  0
ARC
  5
583
330
1A
100
AcDbEntity
  8
SEIHIN
100
AcDbCircle
 10
391.4803247903619
 20
193.5614340055824
 30
0.0
 40
5.0
100
AcDbArc
 50
92.99999987887551
 51
135.000000224157
  0
ARC
  5
584
330
1A
100
AcDbEntity
  8
SEIHIN
100
AcDbCircle
 10
391.2624878691706
 20
193.5507037978041
 30
0.0
 40
4.499999985879004
100
AcDbArc
 50
92.99999996493296
 51
135.0
  0
ARC
  5
585
330
1A
100
AcDbEntity
  8
SEIHIN
100
AcDbCircle
 10
416.3463364691706
 20
177.7658889203759
 30
0.0
 40
3.0
100
AcDbArc
 50
266.9999999560019
 51
0.0
  0
ARC
  5
586
330
1A
100
AcDbEntity
  8
SEIHIN
100
AcDbCircle
 10
415.3463364691706
 20
177.8182966978041
 30
0.0
 40
2.999999998689364
100
AcDbArc
 50
266.9999993993207
 51
0.0
  0
LINE
  5
587
330
1A
100
AcDbEntity
  8
SEIHIN
100
AcDbLine
 10
408.8559296691706
 20
177.6577582978041
 30
0.0
 11
408.7250898114377
 21
175.1611845008297
 31
0.0
  0
LINE
  5
588
330
1A
100
AcDbEntity
  8
SEIHIN
100
AcDbLine
 10
416.1893285981412
 20
174.7700003162327
 30
0.0
 11
408.7250898691706
 21
175.161184497804
 31
0.0
  0
LINE
  5
589
330
1A
100
AcDbEntity
  8
SEIHIN
100
AcDbLine
 10
418.3463364691706
 20
194.791406597804
 30
0.0
 11
418.3463364691706
 21
177.8182966978041
 31
0.0
  0
LINE
  5
58A
330
1A
100
AcDbEntity
  8
SEIHIN
100
AcDbLine
 10
415.7463364691706
 20
194.791406597804
 30
0.0
 11
415.7463364691706
 21
177.8182966978041
 31
0.0
  0
LINE
  5
58B
330
1A
100
AcDbEntity
  8
SEIHIN
100
AcDbLine
 10
419.3463364691706
 20
194.791406597804
 30
0.0
 11
419.3463364691706
 21
177.7658889203759
 31
0.0
  0
ARC
  5
58C
330
1A
100
AcDbEntity
  8
NOKITOI
  6
PHANTOM
 62
     8
100
AcDbCircle
 10
408.3547482654624
 20
183.7844423424678
 30
0.0
 40
3.99998565374706
100
AcDbArc
 50
358.208696659101
 51
83.5242238046835
  0
LINE
  5
58D
330
1A
100
AcDbEntity
  8
NOKITOI
  6
PHANTOM
 62
     8
100
AcDbLine
 10
412.6058791923981
 20
191.7594065978039
 30
0.0
 11
412.4565791923985
 21
186.9804065978041
 31
0.0
  0
LINE
  5
58E
330
1A
100
AcDbEntity
  8
NOKITOI
  6
PHANTOM
 62
     8
100
AcDbLine
 10
407.2861791923981
 20
185.484406597804
 30
0.0
 11
406.8821791923985
 21
188.3128065978039
 31
0.0
  0
LINE
  5
58F
330
1A
100
AcDbEntity
  8
NOKITOI
  6
PHANTOM
 62
     8
100
AcDbLine
 10
405.3448791923986
 20
184.758106597804
 30
0.0
 11
405.0290791923982
 21
190.758106597804
 31
0.0
  0
LINE
  5
590
330
1A
100
AcDbEntity
  8
NOKITOI
  6
PHANTOM
 62
     8
100
AcDbLine
 10
406.5082791923985
 20
185.484406597804
 30
0.0
 11
406.3271791923982
 21
188.9258065978039
 31
0.0
  0
ARC
  5
591
330
1A
100
AcDbEntity
  8
NOKITOI
  6
PHANTOM
 62
     8
100
AcDbCircle
 10
408.3547613260472
 20
183.7844153261839
 30
0.0
 40
5.199991271650611
100
AcDbArc
 50
37.92532860473095
 51
89.99980314072399
  0
ARC
  5
592
330
1A
100
AcDbEntity
  8
NOKITOI
  6
PHANTOM
 62
     8
100
AcDbCircle
 10
408.7495085648981
 20
187.2620368302989
 30
0.0
 40
0.4999578477751074
100
AcDbArc
 50
83.52609071220751
 51
188.1330561712932
  0
LINE
  5
593
330
1A
100
AcDbEntity
  8
NOKITOI
  6
PHANTOM
 62
     8
100
AcDbLine
 10
413.8052791923985
 20
191.721906597804
 30
0.0
 11
413.4151791923984
 21
179.2375065978039
 31
0.0
  0
LINE
  5
594
330
1A
100
AcDbEntity
  8
SEIHIN
100
AcDbLine
 10
415.3254020691706
 20
177.4188448978041
 30
0.0
 11
408.8611632691707
 21
177.757621297804
 31
0.0
  0
ARC
  5
595
330
1A
100
AcDbEntity
  8
SEIHIN
100
AcDbCircle
 10
400.3417760691706
 20
182.397133297804
 30
0.0
 40
4.400000010194002
100
AcDbArc
 50
296.000000654725
 51
359.9999934891161
  0
ARC
  5
596
330
1A
100
AcDbEntity
  8
SEIHIN
100
AcDbCircle
 10
400.2417760691706
 20
184.017262897804
 30
0.0
 40
4.000000009467725
100
AcDbArc
 50
296.0000000723986
 51
0.0
  0
ARC
  5
597
330
1A
100
AcDbEntity
  8
SEIHIN
100
AcDbCircle
 10
400.3417760691706
 20
184.066036197804
 30
0.0
 40
4.400000010194002
100
AcDbArc
 50
296.000000654725
 51
359.9999934891161
  0
LINE
  5
598
330
1A
100
AcDbEntity
  8
NOKITOI
  6
PHANTOM
 62
     8
100
AcDbLine
 10
412.2672791923985
 20
180.921806597804
 30
0.0
 11
412.3527791923981
 21
183.659406597804
 31
0.0
  0
LINE
  5
599
330
1A
100
AcDbEntity
  8
NOKITOI
  6
PHANTOM
 62
     8
100
AcDbLine
 10
404.2362791923981
 20
178.984406597804
 30
0.0
 11
410.2681791923985
 21
178.984406597804
 31
0.0
  0
LINE
  5
59A
330
1A
100
AcDbEntity
  8
NOKITOI
  6
PHANTOM
 62
     8
100
AcDbLine
 10
411.9158791923984
 20
177.784406597804
 30
0.0
 11
405.7747791923986
 21
177.784406597804
 31
0.0
  0
ARC
  5
59B
330
1A
100
AcDbEntity
  8
NOKITOI
  6
PHANTOM
 62
     8
100
AcDbCircle
 10
404.2362922634031
 20
178.4844184280839
 30
0.0
 40
0.499988169890889
100
AcDbArc
 50
90.00149786226472
 51
174.2966061377164
  0
ARC
  5
59C
330
1A
100
AcDbEntity
  8
NOKITOI
  6
PHANTOM
 62
     8
100
AcDbCircle
 10
405.7747998422394
 20
176.7844252856532
 30
0.0
 40
0.9999813123640345
100
AcDbArc
 50
90.00118317084911
 51
174.2905900333514
  0
ARC
  5
59D
330
1A
100
AcDbEntity
  8
NOKITOI
  6
PHANTOM
 62
     8
100
AcDbCircle
 10
410.2682171802228
 20
180.9843434183762
 30
0.0
 40
2.000036820932882
100
AcDbArc
 50
269.9989117490344
 51
358.2110591274195
  0
ARC
  5
59E
330
1A
100
AcDbEntity
  8
NOKITOI
  6
PHANTOM
 62
     8
100
AcDbCircle
 10
411.9158964055766
 20
179.2844232809518
 30
0.0
 40
1.500016683246579
100
AcDbArc
 50
269.999342512336
 51
358.2076423244113
  0
LINE
  5
59F
330
1A
100
AcDbEntity
  8
NOKITOI
  6
PHANTOM
 62
     8
100
AcDbLine
 10
405.8441791923985
 20
184.284406597804
 30
0.0
 11
408.0932791923981
 21
184.284406597804
 31
0.0
  0
LINE
  5
5A0
330
1A
100
AcDbEntity
  8
SEIHIN
100
AcDbLine
 10
404.2417760691706
 20
184.017262897804
 30
0.0
 11
404.2417760691706
 21
186.525363397804
 31
0.0
  0
LINE
  5
5A1
330
1A
100
AcDbEntity
  8
SEIHIN
100
AcDbLine
 10
404.2417760691706
 20
186.525363397804
 30
0.0
 11
404.7417760691706
 21
186.525363397804
 31
0.0
  0
LINE
  5
5A2
330
1A
100
AcDbEntity
  8
SEIHIN
100
AcDbLine
 10
404.7417760691706
 20
182.3971327978041
 30
0.0
 11
404.7417760691706
 21
186.525363397804
 31
0.0
  0
ARC
  5
5A3
330
1A
100
AcDbEntity
  8
NOKITOI
  6
PHANTOM
 62
     8
100
AcDbCircle
 10
405.8441833138052
 20
184.7844026877735
 30
0.0
 40
0.4999960899864752
100
AcDbArc
 50
183.014724379174
 51
269.9995277178578
  0
LINE
  5
5A4
330
1A
100
AcDbEntity
  8
NOKITOI
  6
PHANTOM
 62
     8
100
AcDbLine
 10
408.5882791923983
 20
184.8551065978039
 30
0.0
 11
408.2544791923985
 21
187.1913065978041
 31
0.0
  0
ARC
  5
5A5
330
1A
100
AcDbEntity
  8
NOKITOI
  6
PHANTOM
 62
     8
100
AcDbCircle
 10
408.0932893788347
 20
184.7844183425281
 30
0.0
 40
0.5000117448278309
100
AcDbArc
 50
269.9988327478
 51
8.12731460871532
  0
LINE
  5
5A6
330
1A
100
AcDbEntity
  8
NOKITOI
  6
PHANTOM
 62
     8
100
AcDbLine
 10
406.5082791923985
 20
185.484406597804
 30
0.0
 11
407.2861791923981
 21
185.484406597804
 31
0.0
  0
ARC
  5
5A7
330
1A
100
AcDbEntity
  8
SEIHIN
100
AcDbCircle
 10
415.3463364691706
 20
177.8182966978041
 30
0.0
 40
0.3999999935166316
100
AcDbArc
 50
266.9999973921281
 51
0.0
  0
ARC
  5
5A8
330
1A
100
AcDbEntity
  8
SEIHIN
100
AcDbCircle
 10
413.8463364691706
 20
194.734273097804
 30
0.0
 40
1.899999991552915
100
AcDbArc
 50
0.0
 51
92.99999951753015
  0
LINE
  5
5A9
330
1A
100
AcDbEntity
  8
SEIHIN
100
AcDbLine
 10
399.3463364691706
 20
198.4805359222438
 30
0.0
 11
399.3463364691706
 21
192.830872797194
 31
0.0
  0
ARC
  5
5AA
330
1A
100
AcDbEntity
  8
NOKITOI
  6
PHANTOM
 62
     8
100
AcDbCircle
 10
411.8062679554043
 20
191.7844181916211
 30
0.0
 40
1.999988406214315
100
AcDbArc
 50
358.2088726535938
 51
89.99967808195389
  0
LINE
  5
5AB
330
1A
100
AcDbEntity
  8
NOKITOI
  6
PHANTOM
 62
     8
100
AcDbLine
 10
408.2501791923984
 20
191.8824065978041
 30
0.0
 11
407.9893791923984
 21
193.186406597804
 31
0.0
  0
LINE
  5
5AC
330
1A
100
AcDbEntity
  8
NOKITOI
  6
PHANTOM
 62
     8
100
AcDbLine
 10
405.5283791923987
 20
191.284406597804
 30
0.0
 11
407.7598791923985
 21
191.284406597804
 31
0.0
  0
ARC
  5
5AD
330
1A
100
AcDbEntity
  8
SEIHIN
100
AcDbCircle
 10
398.3463364691706
 20
192.830872797194
 30
0.0
 40
1.0
100
AcDbArc
 50
273.000000119443
 51
0.0
  0
ARC
  5
5AE
330
1A
100
AcDbEntity
  8
NOKITOI
  6
PHANTOM
 62
     8
100
AcDbCircle
 10
405.5283829018938
 20
190.7844105078347
 30
0.0
 40
0.4999960899831856
100
AcDbArc
 50
90.00042508014919
 51
183.0156217414647
  0
ARC
  5
5AF
330
1A
100
AcDbEntity
  8
NOKITOI
  6
PHANTOM
 62
     8
100
AcDbCircle
 10
411.8063231587513
 20
191.784361235331
 30
0.0
 40
0.7999453636812564
100
AcDbArc
 50
358.2123436447881
 51
90.00314907315425
  0
LINE
  5
5B0
330
1A
100
AcDbEntity
  8
NOKITOI
  6
PHANTOM
 62
     8
100
AcDbLine
 10
409.3335791923984
 20
192.5844065978042
 30
0.0
 11
409.8335791923984
 21
190.0844065978041
 31
0.0
  0
LINE
  5
5B1
330
1A
100
AcDbEntity
  8
NOKITOI
  6
PHANTOM
 62
     8
100
AcDbLine
 10
411.8062791923987
 20
192.5843065978039
 30
0.0
 11
409.3335791923984
 21
192.5844065978042
 31
0.0
  0
LINE
  5
5B2
330
1A
100
AcDbEntity
  8
NOKITOI
  6
PHANTOM
 62
     8
100
AcDbLine
 10
407.8927791923986
 20
188.984406597804
 30
0.0
 11
406.8969791923985
 21
190.0844065978041
 31
0.0
  0
LINE
  5
5B3
330
1A
100
AcDbEntity
  8
NOKITOI
  6
PHANTOM
 62
     8
100
AcDbLine
 10
407.8927791923986
 20
188.984406597804
 30
0.0
 11
408.3547791923986
 21
188.984406597804
 31
0.0
  0
ARC
  5
5B4
330
1A
100
AcDbEntity
  8
NOKITOI
  6
PHANTOM
 62
     8
100
AcDbCircle
 10
407.75987840939
 20
191.7844056428022
 30
0.0
 40
0.4999990449987399
100
AcDbArc
 50
270.0000897263034
 51
11.30328019845489
  0
LINE
  5
5B5
330
1A
100
AcDbEntity
  8
NOKITOI
  6
PHANTOM
 62
     8
100
AcDbLine
 10
406.8821791923985
 20
188.3128065978039
 30
0.0
 11
406.3271791923982
 21
188.9258065978039
 31
0.0
  0
LINE
  5
5B6
330
1A
100
AcDbEntity
  8
NOKITOI
  6
PHANTOM
 62
     8
100
AcDbLine
 10
409.8335791923984
 20
190.0844065978041
 30
0.0
 11
406.8969791923985
 21
190.0844065978041
 31
0.0
  0
LINE
  5
5B7
330
1A
100
AcDbEntity
  8
SEIHIN
100
AcDbLine
 10
413.7468981691706
 20
196.631669197804
 30
0.0
 11
399.3463364691706
 21
195.876967787645
 31
0.0
  0
ARC
  5
5B8
330
1A
100
AcDbEntity
  8
NOKITOI
  6
PHANTOM
 62
     8
100
AcDbCircle
 10
408.479671937843
 20
193.2843977479605
 30
0.0
 40
0.500008849895925
100
AcDbArc
 50
89.99916870385415
 51
191.3135956695126
  0
LINE
  5
5B9
330
1A
100
AcDbEntity
  8
NOKITOI
  6
PHANTOM
 62
     8
100
AcDbLine
 10
411.8062791923987
 20
193.784306597804
 30
0.0
 11
408.4796791923984
 21
193.784406597804
 31
0.0
  0
LINE
  5
5BA
330
1A
100
AcDbEntity
  8
SEIHIN
100
AcDbLine
 10
411.0556807391706
 20
203.8003720978041
 30
0.0
 11
389.1331893826354
 21
202.65146301493
 31
0.0
  0
LINE
  5
5BB
330
1A
100
AcDbEntity
  8
SEIHIN
100
AcDbLine
 10
410.9510083491707
 20
205.297631197804
 30
0.0
 11
389.6099547805622
 21
204.1791939526762
 31
0.0
  0
ARC
  5
5BC
330
1A
100
AcDbEntity
  8
SEIHIN
100
AcDbCircle
 10
389.4210371406039
 20
197.1590005737082
 30
0.0
 40
5.5
100
AcDbArc
 50
92.99999998573385
 51
135.000000224157
  0
ARC
  5
5BD
330
1A
100
AcDbEntity
  8
SEIHIN
100
AcDbCircle
 10
389.950138502219
 20
197.68810197709
 30
0.0
 40
6.5
100
AcDbArc
 50
93.00000005364516
 51
135.0000002241535
  0
LINE
  5
5BE
330
1A
100
AcDbEntity
  8
SEIHIN
100
AcDbLine
 10
414.8463364291705
 20
207.794890197804
 30
0.0
 11
414.8463364291705
 21
240.7586847978041
 31
0.0
  0
LINE
  5
5BF
330
1A
100
AcDbEntity
  8
SEIHIN
100
AcDbLine
 10
419.3463364291707
 20
208.0948903351021
 30
0.0
 11
419.3463364291706
 21
240.7586847978041
 31
0.0
  0
LINE
  5
5C0
330
1A
100
AcDbEntity
  8
SEIHIN
100
AcDbLine
 10
414.8463364291705
 20
209.9607882978041
 30
0.0
 11
410.9510083491707
 21
205.297631197804
 31
0.0
  0
ARC
  5
5C1
330
1A
100
AcDbEntity
  8
SEIHIN
100
AcDbCircle
 10
410.8463364291706
 20
207.794890197804
 30
0.0
 40
3.999999980649164
100
AcDbArc
 50
273.0000001011762
 51
0.0
  0
LINE
  5
5C2
330
1A
100
AcDbEntity
  8
SEIHIN
100
AcDbLine
 10
420.4181291891707
 20
245.161156997804
 30
0.0
 11
419.3463364291706
 21
244.414149997804
 31
0.0
  0
ARC
  5
5D5
330
1A
100
AcDbEntity
  8
SEIHIN
 62
     2
100
AcDbCircle
 10
487.0740666356308
 20
214.5282519461562
 30
0.0
 40
3.185327594419673
100
AcDbArc
 50
170.9601329425908
 51
210.8250683255719
  0
ARC
  5
5D6
330
1A
100
AcDbEntity
  8
SEIHIN
 62
     2
100
AcDbCircle
 10
484.9379717236309
 20
145.2183318461562
 30
0.0
 40
65.74267851724228
100
AcDbArc
 50
86.08672190559353
 51
89.17805018767998
  0
ARC
  5
5D7
330
1A
100
AcDbEntity
  8
SEIHIN
 62
     2
100
AcDbCircle
 10
487.9594143006309
 20
225.1041747461562
 30
0.0
 40
13.34274418299676
100
AcDbArc
 50
260.3267884930903
 51
274.5998110533681
  0
LINE
  5
5D8
330
1A
100
AcDbEntity
  8
SEIHIN
 62
     2
100
AcDbLine
 10
489.5319176386307
 20
208.2216401461562
 30
0.0
 11
487.6885931466309
 21
206.7933446461561
 31
0.0
  0
ARC
  5
5D9
330
1A
100
AcDbEntity
  8
SEIHIN
 62
     2
100
AcDbCircle
 10
486.0528596736308
 20
213.9188846461562
 30
0.0
 40
1.996129475927158
100
AcDbArc
 50
210.8250674335395
 51
260.3267885136306
  0
ARC
  5
5DA
330
1A
100
AcDbEntity
  8
SEIHIN
 62
     2
100
AcDbCircle
 10
482.9890075636308
 20
216.1170897461561
 30
0.0
 40
10.25415997130691
100
AcDbArc
 50
309.6483317608927
 51
320.2958087279812
  0
LINE
  5
5DB
330
1A
100
AcDbEntity
  8
SEIHIN
 62
     2
100
AcDbLine
 10
490.5639654876308
 20
210.5303121461562
 30
0.0
 11
491.0108113826309
 21
210.1055736461562
 31
0.0
  0
ARC
  5
5DC
330
1A
100
AcDbEntity
  8
SEIHIN
 62
     2
100
AcDbCircle
 10
489.1889374516308
 20
207.3615132461562
 30
0.0
 40
3.454271065091957
100
AcDbArc
 50
66.54266655124605
 51
86.08672191853399
  0
LINE
  5
5DD
330
1A
100
AcDbEntity
  8
SEIHIN
 62
     2
100
AcDbLine
 10
489.0294441636308
 20
211.8044056461562
 30
0.0
 11
490.2568726256308
 21
211.9169222461562
 31
0.0
  0
ARC
  5
5DE
330
1A
100
AcDbEntity
  8
SEIHIN
 62
     2
100
AcDbCircle
 10
490.3886403876308
 20
209.9728817461562
 30
0.0
 40
0.6361634406938867
100
AcDbArc
 50
320.29580340887
 51
12.0392357357659
  0
ARC
  5
5DF
330
1A
100
AcDbEntity
  8
SEIHIN
 62
     2
100
AcDbCircle
 10
491.4674685876309
 20
205.5233453461561
 30
0.0
 40
13.95534451949506
100
AcDbArc
 50
97.72794899973874
 51
109.4698645737527
  0
ARC
  5
5E0
330
1A
100
AcDbEntity
  8
SEIHIN
 62
     2
100
AcDbCircle
 10
488.1852838446309
 20
214.8074648461562
 30
0.0
 40
4.108131125076594
100
AcDbArc
 50
109.4698643532916
 51
138.5824391081548
  0
ARC
  5
5E1
330
1A
100
AcDbEntity
  8
SEIHIN
 62
     2
100
AcDbCircle
 10
488.8159390146308
 20
214.2511239461561
 30
0.0
 40
4.949107428725413
100
AcDbArc
 50
138.5824395089462
 51
170.9601333752196
  0
ARC
  5
5E2
330
1A
100
AcDbEntity
  8
SEIHIN
 62
     2
100
AcDbCircle
 10
492.5218045366308
 20
220.5504826461562
 30
0.0
 40
0.669050888624787
100
AcDbArc
 50
307.5827612026719
 51
20.33333118786941
  0
CIRCLE
  5
5E3
330
1A
100
AcDbEntity
  8
SEIHIN
100
AcDbCircle
 10
500.6687917696308
 20
220.8629839461562
 30
0.0
 40
2.25
  0
LINE
  5
5E6
330
1A
100
AcDbEntity
  8
SEIHIN
 62
     2
100
AcDbLine
 10
492.9298632036309
 20
220.0202777461561
 30
0.0
 11
492.6226512416308
 21
219.8482405461561
 31
0.0
  0
ARC
  5
5E7
330
1A
100
AcDbEntity
  8
SEIHIN
 62
     2
100
AcDbCircle
 10
766.2693032936308
 20
-1819.514764553843
 30
0.0
 40
2057.5539829579
100
AcDbArc
 50
97.66093891126752
 51
97.72794896121489
  0
ARC
  5
5E8
330
1A
100
AcDbEntity
  8
SEIHIN
 62
     2
100
AcDbCircle
 10
491.6288717856308
 20
222.2520993461562
 30
0.0
 40
2.601179451191199
100
AcDbArc
 50
277.6609390889665
 51
292.4606944925495
  0
ARC
  5
5E9
330
1A
100
AcDbEntity
  8
SEIHIN
 62
     2
100
AcDbCircle
 10
477.4814858836308
 20
208.5250708461562
 30
0.0
 40
20.19625455192497
100
AcDbArc
 50
43.59937457601043
 51
53.3853230995341
  0
ARC
  5
5EA
330
1A
100
AcDbEntity
  8
SEIHIN
 62
     2
100
AcDbCircle
 10
488.5730296306308
 20
219.0871743461562
 30
0.0
 40
4.880237683928346
100
AcDbArc
 50
20.33333184783
 51
43.59937457584574
  0
LINE
  5
5FC
330
1A
100
AcDbEntity
  8
SEIHIN
  6
PHANTOM
 62
     2
100
AcDbLine
 10
417.8342388791707
 20
273.5551871978041
 30
0.0
 11
576.2639140091708
 21
308.4097157978041
 31
0.0
  0
LINE
  5
5FD
330
1A
100
AcDbEntity
  8
SEIHIN
  6
PHANTOM
 62
     2
100
AcDbLine
 10
418.8011168991706
 20
269.160287097804
 30
0.0
 11
577.2307920291707
 21
304.014815697804
 31
0.0
  0
LINE
  5
5FE
330
1A
100
AcDbEntity
  8
SEIHIN
  6
PHANTOM
 62
     2
100
AcDbLine
 10
419.1234095791706
 20
267.695320397804
 30
0.0
 11
577.5530846991707
 21
302.5498489978041
 31
0.0
  0
LINE
  5
5FF
330
1A
100
AcDbEntity
  8
SEIHIN
  6
PHANTOM
 62
     2
100
AcDbLine
 10
419.4457022491706
 20
266.230353697804
 30
0.0
 11
577.8753773791707
 21
301.0848822978041
 31
0.0
  0
LINE
  5
600
330
1A
100
AcDbEntity
  8
SEIHIN
  6
PHANTOM
 62
     2
100
AcDbLine
 10
419.7679949291707
 20
264.765386997804
 30
0.0
 11
578.1976700491707
 21
299.619915597804
 31
0.0
  0
LINE
  5
601
330
1A
100
AcDbEntity
  8
SEIHIN
  6
PHANTOM
 62
     2
100
AcDbLine
 10
420.0902875991707
 20
263.300420297804
 30
0.0
 11
578.5199627291706
 21
298.1549488978041
 31
0.0
  0
LINE
  5
602
330
1A
100
AcDbEntity
  8
SEIHIN
  6
PHANTOM
 62
     2
100
AcDbLine
 10
420.4125802691707
 20
261.835453597804
 30
0.0
 11
578.8422553991706
 21
296.6899821978041
 31
0.0
  0
LINE
  5
603
330
1A
100
AcDbEntity
  8
SEIHIN
  6
PHANTOM
 62
     2
100
AcDbLine
 10
418.4788242291706
 20
270.625253797804
 30
0.0
 11
576.9084993591707
 21
305.4797823978041
 31
0.0
  0
LINE
  5
604
330
1A
100
AcDbEntity
  8
SEIHIN
  6
PHANTOM
 62
     2
100
AcDbLine
 10
418.1565315491707
 20
272.0902204978041
 30
0.0
 11
576.5862066791706
 21
306.9447490978041
 31
0.0
  0
LINE
  5
605
330
1A
100
AcDbEntity
  8
SEIHIN
100
AcDbLine
 10
420.7348729491707
 20
260.3704868978041
 30
0.0
 11
579.1645480791706
 21
295.225015497804
 31
0.0
  0
LINE
  5
606
330
1A
100
AcDbEntity
  8
SEIHIN
100
AcDbLine
 10
421.7017510091706
 20
255.975586897804
 30
0.0
 11
580.1314260991707
 21
290.830115397804
 31
0.0
  0
LINE
  5
608
330
1A
100
AcDbEntity
  8
SEIHIN
100
AcDbLine
 10
386.147906066586
 20
408.6086948684192
 30
0.0
 11
386.147906066586
 21
409.6086948684192
 31
0.0
  0
LINE
  5
609
330
1A
100
AcDbEntity
  8
SEIHIN
100
AcDbLine
 10
373.1339357888139
 20
409.6086948684191
 30
0.0
 11
373.1339357888139
 21
408.6086948684192
 31
0.0
  0
DIMENSION
  5
60A
330
1A
100
AcDbEntity
  8
SUNPOU
100
AcDbDimension
  2
*D1
 10
270.515523700833
 20
408.1086948684192
 30
0.0
 11
268.0155237008329
 21
418.1086948684193
 31
0.0
 70
    32
  3
STANDARD
100
AcDbAlignedDimension
 13
297.3463364691706
 23
428.1086948684191
 33
0.0
 14
297.3463364691706
 24
408.1086948684192
 34
0.0
 50
90.0
100
AcDbRotatedDimension
1001
ACAD
1000
DSTYLE
1002
{
1070
    41
1040
3.0
1070
    42
1040
3.0
1070
    43
1040
7.0
1070
    44
1040
1.5
1070
    73
1070
     0
1070
    74
1070
     0
1070
    77
1070
     3
1070
   140
1040
3.0
1070
   141
1040
3.0
1070
   147
1040
1.0
1070
   172
1070
     1
1070
   173
1070
     1
1070
   176
1070
   256
1070
   177
1070
   256
1070
   178
1070
   256
1070
   271
1070
     0
1070
   272
1070
     0
1070
   341
1005
6D
1070
     6
1000
OPEN
1070
     7
1000
OPEN
1002
}
  0
LINE
  5
60B
330
1A
100
AcDbEntity
  8
SEIHIN
100
AcDbLine
 10
299.1463364691707
 20
408.1086948684192
 30
0.0
 11
299.1463364691707
 21
428.1086948684191
 31
0.0
  0
LINE
  5
60C
330
1A
100
AcDbEntity
  8
SEIHIN
100
AcDbLine
 10
297.3463364691706
 20
408.1086948684192
 30
0.0
 11
297.3463364691706
 21
428.1086948684191
 31
0.0
  0
LINE
  5
60D
330
1A
100
AcDbEntity
  8
SEIHIN
100
AcDbLine
 10
349.8463364691706
 20
408.1086948684192
 30
0.0
 11
349.8463364691706
 21
428.1086948684191
 31
0.0
  0
LINE
  5
60E
330
1A
100
AcDbEntity
  8
CENTER_L
100
AcDbLine
 10
359.8463364691706
 20
403.0798231558679
 30
0.0
 11
359.8463364691706
 21
433.1375665809704
 31
0.0
  0
LINE
  5
60F
330
1A
100
AcDbEntity
  8
SEIHIN
100
AcDbLine
 10
399.3463364691706
 20
405.6086948684192
 30
0.0
 11
305.1188659294042
 21
405.6086948684192
 31
0.0
  0
LINE
  5
610
330
1A
100
AcDbEntity
  8
SEIHIN
100
AcDbLine
 10
297.3463364691706
 20
408.1086948684192
 30
0.0
 11
305.1188659294042
 21
408.1086948684192
 31
0.0
  0
LINE
  5
611
330
1A
100
AcDbEntity
  8
SEIHIN
100
AcDbLine
 10
305.1188659294042
 20
405.6086948684192
 30
0.0
 11
305.1188659294042
 21
408.1086948684192
 31
0.0
  0
LINE
  5
615
330
1A
100
AcDbEntity
  8
SEIHIN
100
AcDbLine
 10
423.2864271091707
 20
254.7883444978041
 30
0.0
 11
451.9423643991706
 21
261.092650697804
 31
0.0
  0
ARC
  5
616
330
1A
100
AcDbEntity
  8
SEIHIN
100
AcDbCircle
 10
422.3463364291705
 20
253.0456534978041
 30
0.0
 40
7.499999962837636
100
AcDbArc
 50
102.4074195122541
 51
180.0
  0
LINE
  5
618
330
1A
100
AcDbEntity
  8
SEIHIN
100
AcDbLine
 10
420.8463364291706
 20
245.981555097804
 30
0.0
 11
420.8463364291706
 21
252.158652297804
 31
0.0
  0
ARC
  5
619
330
1A
100
AcDbEntity
  8
SEIHIN
100
AcDbCircle
 10
422.3463364291705
 20
253.0456534978041
 30
0.0
 40
3.000000007676002
100
AcDbArc
 50
102.4074198703819
 51
180.0
  0
LINE
  5
61A
330
1A
100
AcDbEntity
  8
SEIHIN
100
AcDbLine
 10
420.8463364291706
 20
252.158652297804
 30
0.0
 11
423.2864271091707
 21
254.7883444978041
 31
0.0
  0
LINE
  5
61B
330
1A
100
AcDbEntity
  8
SEIHIN
100
AcDbLine
 10
452.4818073391706
 20
261.412770697804
 30
0.0
 11
453.9183199691706
 21
263.0632319978041
 31
0.0
  0
ARC
  5
61C
330
1A
100
AcDbEntity
  8
SEIHIN
100
AcDbCircle
 10
451.7275026191708
 20
262.069295197804
 30
0.0
 40
1.000000023399878
100
AcDbArc
 50
282.4074179678238
 51
318.9646537944581
  0
ARC
  5
620
330
1A
100
AcDbEntity
  8
SEIHIN
100
AcDbCircle
 10
451.7275025691707
 20
277.428006097804
 30
0.0
 40
1.000000023399878
100
AcDbArc
 50
282.4074179678238
 51
318.9646537944581
  0
LINE
  5
621
330
1A
100
AcDbEntity
  8
SEIHIN
100
AcDbLine
 10
349.8463364691706
 20
408.1086948684192
 30
0.0
 11
580.1314260991707
 21
408.1086948684192
 31
0.0
  0
LINE
  5
622
330
1A
100
AcDbEntity
  8
SEIHIN
100
AcDbLine
 10
374.2599166908664
 20
407.6086948684191
 30
0.0
 11
374.2599166908664
 21
406.1086948684192
 31
0.0
  0
LINE
  5
623
330
1A
100
AcDbEntity
  8
SEIHIN
100
AcDbLine
 10
389.78447455381
 20
407.6086948684191
 30
0.0
 11
389.78447455381
 21
406.1086948684192
 31
0.0
  0
LINE
  5
624
330
1A
100
AcDbEntity
  8
SEIHIN
100
AcDbLine
 10
399.3463364691706
 20
405.6086948684192
 30
0.0
 11
399.3463364691706
 21
408.1086948684192
 31
0.0
  0
LINE
  5
625
330
1A
100
AcDbEntity
  8
SEIHIN
100
AcDbLine
 10
399.3463364691706
 20
430.6086948684192
 30
0.0
 11
305.1188659294042
 21
430.6086948684192
 31
0.0
  0
LINE
  5
626
330
1A
100
AcDbEntity
  8
CENTER_L
100
AcDbLine
 10
588.667817888111
 20
418.1086948684192
 30
0.0
 11
290.3463364691706
 21
418.1086948684192
 31
0.0
  0
LINE
  5
627
330
1A
100
AcDbEntity
  8
SEIHIN
100
AcDbLine
 10
297.3463364691706
 20
428.1086948684191
 30
0.0
 11
305.1188659294042
 21
428.1086948684191
 31
0.0
  0
LINE
  5
628
330
1A
100
AcDbEntity
  8
SEIHIN
100
AcDbLine
 10
297.3463364691706
 20
428.1086948684191
 30
0.0
 11
305.1188659294041
 21
428.1086948684191
 31
0.0
  0
LINE
  5
629
330
1A
100
AcDbEntity
  8
SEIHIN
100
AcDbLine
 10
305.1188659294042
 20
430.6086948684192
 30
0.0
 11
305.1188659294042
 21
428.1086948684191
 31
0.0
  0
LINE
  5
62A
330
1A
100
AcDbEntity
  8
SEIHIN
100
AcDbLine
 10
349.8463364691706
 20
428.1086948684191
 30
0.0
 11
580.1314260991707
 21
428.1086948684191
 31
0.0
  0
LINE
  5
62B
330
1A
100
AcDbEntity
  8
SEIHIN
100
AcDbLine
 10
349.8463364691706
 20
426.1086948684193
 30
0.0
 11
414.8463364291705
 21
426.1086948684192
 31
0.0
  0
LINE
  5
62C
330
1A
100
AcDbEntity
  8
SEIHIN
100
AcDbLine
 10
349.8463364691706
 20
410.1086948684192
 30
0.0
 11
414.8463364291705
 21
410.1086948684192
 31
0.0
  0
CIRCLE
  5
62D
330
1A
100
AcDbEntity
  8
SEIHIN
100
AcDbCircle
 10
359.8463364691706
 20
418.1086948684192
 30
0.0
 40
5.0
  0
LINE
  5
62E
330
1A
100
AcDbEntity
  8
SEIHIN
100
AcDbLine
 10
386.986720523143
 20
410.6086948684191
 30
0.0
 11
386.986720523143
 21
425.6086948684192
 31
0.0
  0
LINE
  5
62F
330
1A
100
AcDbEntity
  8
SEIHIN
100
AcDbLine
 10
372.2019193171922
 20
410.6086948684191
 30
0.0
 11
372.2019193171922
 21
425.6086948684192
 31
0.0
  0
LINE
  5
630
330
1A
100
AcDbEntity
  8
SEIHIN
100
AcDbLine
 10
374.2599166908664
 20
428.6086948684192
 30
0.0
 11
374.2599166908664
 21
430.1086948684191
 31
0.0
  0
LINE
  5
631
330
1A
100
AcDbEntity
  8
SEIHIN
100
AcDbLine
 10
373.1339357888139
 20
426.6086948684193
 30
0.0
 11
373.1339357888139
 21
427.6086948684191
 31
0.0
  0
LINE
  5
632
330
1A
100
AcDbEntity
  8
SEIHIN
100
AcDbLine
 10
386.147906066586
 20
427.6086948684191
 30
0.0
 11
386.147906066586
 21
426.6086948684192
 31
0.0
  0
LINE
  5
633
330
1A
100
AcDbEntity
  8
SEIHIN
100
AcDbLine
 10
389.78447455381
 20
428.6086948684192
 30
0.0
 11
389.78447455381
 21
430.1086948684192
 31
0.0
  0
LINE
  5
634
330
1A
100
AcDbEntity
  8
SEIHIN
100
AcDbLine
 10
399.3463364691706
 20
430.6086948684192
 30
0.0
 11
399.3463364691706
 21
428.1086948684191
 31
0.0
  0
LINE
  5
63A
330
1A
100
AcDbEntity
  8
SEIHIN
100
AcDbLine
 10
580.1314260991707
 20
290.830115397804
 30
0.0
 11
579.1645480791706
 21
295.225015497804
 31
0.0
  0
CIRCLE
  5
63D
330
1A
100
AcDbEntity
  8
SEIHIN
100
AcDbCircle
 10
539.734571793631
 20
229.4574490461562
 30
0.0
 40
2.25
  0
LINE
  5
63E
330
1A
100
AcDbEntity
  8
SEIHIN
100
AcDbLine
 10
482.3358492636308
 20
227.0688798461562
 30
0.0
 11
586.4181805436308
 21
249.9669755461562
 31
0.0
  0
LINE
  5
640
330
1A
100
AcDbEntity
  8
SEIHIN
100
AcDbLine
 10
590.7154131136308
 20
230.4340854461561
 30
0.0
 11
586.4181805436308
 21
249.9669755461562
 31
0.0
  0
CIRCLE
  5
641
330
1A
100
AcDbEntity
  8
SEIHIN
100
AcDbCircle
 10
578.8003518136308
 20
238.0519142461562
 30
0.0
 40
2.25
  0
LINE
  5
642
330
1A
100
AcDbEntity
  8
CENTER_L
100
AcDbLine
 10
580.1969524036308
 20
231.7037249461562
 30
0.0
 11
577.4037512336308
 21
244.4001034461562
 31
0.0
  0
LINE
  5
650
330
1A
100
AcDbEntity
  8
SEIHIN
  6
PHANTOM
 62
     2
100
AcDbLine
 10
579.1645480604753
 20
295.225015493691
 30
0.0
 11
576.2639140115484
 21
308.4097157983271
 31
0.0
  0
LINE
  5
691
330
1A
100
AcDbEntity
  8
SEIHIN
100
AcDbLine
 10
579.1645480791706
 20
428.1086948684191
 30
0.0
 11
579.1645480791706
 21
408.1086948684192
 31
0.0
  0
LINE
  5
692
330
1A
100
AcDbEntity
  8
SEIHIN
100
AcDbLine
 10
580.1314260991707
 20
428.1086948684191
 30
0.0
 11
580.1314260991707
 21
408.1086948684192
 31
0.0
  0
LINE
  5
693
330
1A
100
AcDbEntity
  8
SEIHIN
100
AcDbLine
 10
414.8463364291705
 20
408.1086948684192
 30
0.0
 11
414.8463364291705
 21
428.1086948684191
 31
0.0
  0
LINE
  5
6CB
330
1A
100
AcDbEntity
  8
CENTER_L
100
AcDbLine
 10
570.7947036648937
 20
286.7282098990631
 30
0.0
 11
568.0015024948938
 21
299.4245883990631
 31
0.0
  0
LINE
  5
6CC
330
1A
100
AcDbEntity
  8
CENTER_L
100
AcDbLine
 10
531.7289236448938
 20
278.1337447990631
 30
0.0
 11
528.9357224648937
 21
290.8301232990631
 31
0.0
  0
LINE
  5
6CD
330
1A
100
AcDbEntity
  8
CENTER_L
100
AcDbLine
 10
492.6631436168937
 20
269.5392795990631
 30
0.0
 11
489.8699424448937
 21
282.2356580990631
 31
0.0
  0
LINE
  5
6CE
330
1A
100
AcDbEntity
  8
CENTER_L
100
AcDbLine
 10
569.3981034063055
 20
432.5157487159067
 30
0.0
 11
569.3981034063055
 21
403.7016410209316
 31
0.0
  0
LINE
  5
6D2
330
1A
100
AcDbEntity
  8
CENTER_L
100
AcDbLine
 10
530.3323247501364
 20
432.5157487159067
 30
0.0
 11
530.3323247501364
 21
403.7016410209316
 31
0.0
  0
LINE
  5
6D3
330
1A
100
AcDbEntity
  8
CENTER_L
100
AcDbLine
 10
491.2665460739368
 20
432.5157487159067
 30
0.0
 11
491.2665460739368
 21
403.7016410209316
 31
0.0
  0
ELLIPSE
  5
6DA
330
1A
100
AcDbEntity
  8
SEIHIN
100
AcDbEllipse
 10
569.3981034063055
 20
418.1086948684192
 30
0.0
 11
0.0
 21
-2.25
 31
0.0
210
0.0
220
0.0
230
1.0
 40
0.9766444666127224
 41
0.0
 42
6.283185307179586
  0
ELLIPSE
  5
6DB
330
1A
100
AcDbEntity
  8
SEIHIN
100
AcDbEllipse
 10
530.3323247501364
 20
418.1086948684192
 30
0.0
 11
0.0
 21
-2.25
 31
0.0
210
0.0
220
0.0
230
1.0
 40
0.9766444666127224
 41
0.0
 42
6.283185307179586
  0
ELLIPSE
  5
6DC
330
1A
100
AcDbEntity
  8
SEIHIN
100
AcDbEllipse
 10
491.2665460739368
 20
418.1086948684192
 30
0.0
 11
0.0
 21
-2.25
 31
0.0
210
0.0
220
0.0
230
1.0
 40
0.9766444666127224
 41
0.0
 42
6.283185307179586
  0
DIMENSION
  5
6DD
330
1A
100
AcDbEntity
  8
SUNPOU
100
AcDbDimension
  2
*D2
 10
621.1242931377479
 20
237.1240339887355
 30
0.0
 11
623.8588993568761
 21
247.9647871766438
 31
0.0
 70
    33
  3
STANDARD
100
AcDbAlignedDimension
 13
586.4181805436308
 23
249.9669755461562
 33
0.0
 14
590.7154131136308
 24
230.4340854461561
 34
0.0
1001
ACAD
1000
DSTYLE
1002
{
1070
    41
1040
3.0
1070
    42
1040
6.0
1070
    43
1040
14.0
1070
    44
1040
3.0
1070
    73
1070
     0
1070
    74
1070
     0
1070
    77
1070
     3
1070
   140
1040
6.0
1070
   141
1040
10.0
1070
   147
1040
2.0
1070
   172
1070
     1
1070
   173
1070
     1
1070
   176
1070
   256
1070
   177
1070
   256
1070
   178
1070
   256
1070
   271
1070
     0
1070
   272
1070
     0
1070
   341
1005
6D
1070
     6
1000
OPEN
1070
     7
1000
OPEN
1002
}
  0
DIMENSION
  5
6EA
330
1A
100
AcDbEntity
  8
SUNPOU
100
AcDbDimension
  2
*D3
 10
596.8444360109093
 20
202.5748694324287
 30
0.0
 11
607.0015396293499
 21
209.9290006580911
 31
0.0
 70
    33
  3
STANDARD
100
AcDbAlignedDimension
 13
580.948968109681
 23
228.2854691669068
 33
0.0
 14
590.7154131136308
 24
230.4340854461561
 34
0.0
1001
ACAD
1000
DSTYLE
1002
{
1070
    41
1040
3.0
1070
    42
1040
6.0
1070
    43
1040
14.0
1070
    44
1040
3.0
1070
    73
1070
     0
1070
    74
1070
     0
1070
    77
1070
     3
1070
   140
1040
6.0
1070
   141
1040
10.0
1070
   147
1040
2.0
1070
   172
1070
     1
1070
   173
1070
     1
1070
   176
1070
   256
1070
   177
1070
   256
1070
   178
1070
   256
1070
   271
1070
     0
1070
   272
1070
     0
1070
   341
1005
6D
1070
     6
1000
OPEN
1070
     7
1000
OPEN
1002
}
  0
DIMENSION
  5
6F9
330
1A
100
AcDbEntity
  8
SUNPOU
100
AcDbDimension
  2
*D4
 10
587.0779910069594
 20
200.4262531531793
 30
0.0
 11
566.4707928601266
 21
201.0122430985832
 31
0.0
 70
    33
  3
STANDARD
100
AcDbAlignedDimension
 13
541.8831880960099
 23
219.6910040503774
 33
0.0
 14
580.948968109681
 24
228.2854691669068
 34
0.0
1001
ACAD
1000
DSTYLE
1002
{
1070
    41
1040
3.0
1070
    42
1040
6.0
1070
    43
1040
14.0
1070
    44
1040
3.0
1070
    73
1070
     0
1070
    74
1070
     0
1070
    77
1070
     3
1070
   140
1040
6.0
1070
   141
1040
10.0
1070
   147
1040
2.0
1070
   172
1070
     1
1070
   173
1070
     1
1070
   176
1070
   256
1070
   177
1070
   256
1070
   178
1070
   256
1070
   271
1070
     0
1070
   272
1070
     0
1070
   341
1005
6D
1070
     6
1000
OPEN
1070
     7
1000
OPEN
1002
}
  0
DIMENSION
  5
706
330
1A
100
AcDbEntity
  8
SUNPOU
100
AcDbDimension
  2
*D5
 10
548.0122109947983
 20
191.831787999366
 30
0.0
 11
527.4050128479655
 21
192.4177779447699
 31
0.0
 70
    33
  3
STANDARD
100
AcDbAlignedDimension
 13
502.8174080838486
 23
211.096538896564
 33
0.0
 14
541.8831880975197
 24
219.6910040130934
 34
0.0
1001
ACAD
1000
DSTYLE
1002
{
1070
    41
1040
3.0
1070
    42
1040
6.0
1070
    43
1040
14.0
1070
    44
1040
3.0
1070
    73
1070
     0
1070
    74
1070
     0
1070
    77
1070
     3
1070
   140
1040
6.0
1070
   141
1040
10.0
1070
   147
1040
2.0
1070
   172
1070
     1
1070
   173
1070
     1
1070
   176
1070
   256
1070
   177
1070
   256
1070
   178
1070
   256
1070
   271
1070
     0
1070
   272
1070
     0
1070
   341
1005
6D
1070
     6
1000
OPEN
1070
     7
1000
OPEN
1002
}
  0
LEADER
  5
71C
330
1A
100
AcDbEntity
  8
SUNPOU
100
AcDbLeader
  3
STANDARD
 73
     0
 74
     0
 75
     1
 40
6.0
 41
31.19999999999999
 76
     4
 10
580.2844748281349
 20
236.3607966045299
 30
0.0
 10
620.8961670445153
 20
214.0898124942701
 30
0.0
 10
620.3456493160388
 20
233.3878658459179
 30
0.0
 10
623.3456493160388
 20
233.3878658459179
 30
0.0
340
71D
213
0.0
223
-3.0
233
0.0
1001
ACAD
1000
DSTYLE
1002
{
1070
     6
1000
OPEN
1070
    41
1040
3.0
1070
    42
1040
6.0
1070
    43
1040
14.0
1070
    44
1040
3.0
1070
    73
1070
     0
1070
    74
1070
     0
1070
    77
1070
     0
1070
   140
1040
6.0
1070
   141
1040
10.0
1070
   147
1040
2.0
1070
   172
1070
     1
1070
   173
1070
     1
1070
   176
1070
   256
1070
   177
1070
   256
1070
   178
1070
   256
1070
   271
1070
     0
1070
   272
1070
     0
1070
   341
1005
6D
1070
   343
1005
6D
1070
   344
1005
6D
1002
}
  0
MTEXT
  5
71D
102
{ACAD_REACTORS
330
71C
102
}
330
1A
100
AcDbEntity
  8
SUNPOU
100
AcDbMText
 10
625.3456493160387
 20
236.3878658459179
 30
0.0
 40
6.0
 41
0.0
 71
     1
 72
     5
  1
\A1;3-φ4.5
1001
ACAD
1000
MTEXTBEGIN
1070
    73
1070
     1
1070
    44
1040
1.0
1070
    74
1070
     0
1000
MTEXTEND
1000
MTEXTBEGIN
1070
    73
1070
     1
1070
    44
1040
1.0
1070
    74
1070
     0
1000
MTEXTEND
1000
MTEXTBEGIN
1070
    73
1070
     1
1070
    44
1040
1.0
1070
    74
1070
     0
1000
MTEXTEND
1000
MTEXTBEGIN
1070
    73
1070
     1
1070
    44
1040
1.0
1070
    74
1070
     0
1000
MTEXTEND
  0
LINE
  5
720
330
1A
100
AcDbEntity
  8
SEIHIN
100
AcDbLine
 10
120.9320453626511
 20
268.0925873607502
 30
0.0
 11
108.9320453626511
 21
268.0925873607502
 31
0.0
  0
ARC
  5
721
330
1A
100
AcDbEntity
  8
SEIHIN
100
AcDbCircle
 10
108.9320453626511
 20
267.0925873607502
 30
0.0
 40
1.0
100
AcDbArc
 50
90.0
 51
180.0
  0
LINE
  5
722
330
1A
100
AcDbEntity
  8
SEIHIN
100
AcDbLine
 10
107.9320453626512
 20
252.4435053607502
 30
0.0
 11
107.9320453626511
 21
267.0925873607502
 31
0.0
  0
ARC
  5
723
330
1A
100
AcDbEntity
  8
SEIHIN
100
AcDbCircle
 10
120.9320453626511
 20
267.0925873607502
 30
0.0
 40
1.0
100
AcDbArc
 50
0.0
 51
90.0
  0
LINE
  5
724
330
1A
100
AcDbEntity
  8
SEIHIN
100
AcDbLine
 10
121.932045362651
 20
252.4435053607502
 30
0.0
 11
121.9320453626511
 21
267.0925873607502
 31
0.0
  0
ARC
  5
725
330
1A
100
AcDbEntity
  8
SEIHIN
100
AcDbCircle
 10
120.9320453626511
 20
252.4435053607502
 30
0.0
 40
1.0
100
AcDbArc
 50
270.0
 51
0.0
  0
ARC
  5
726
330
1A
100
AcDbEntity
  8
SEIHIN
100
AcDbCircle
 10
108.9320453626511
 20
252.4435053607502
 30
0.0
 40
1.0
100
AcDbArc
 50
180.0
 51
270.0
  0
LINE
  5
727
330
1A
100
AcDbEntity
  8
SEIHIN
100
AcDbLine
 10
120.9320453626511
 20
251.4435053607502
 30
0.0
 11
108.9320453626511
 21
251.4435053607502
 31
0.0
  0
LINE
  5
728
330
1A
100
AcDbEntity
  8
SEIHIN
100
AcDbLine
 10
120.4320453626511
 20
258.0750088607502
 30
0.0
 11
109.4320453626511
 21
258.0750088607502
 31
0.0
  0
LINE
  5
72D
330
1A
100
AcDbEntity
  8
SEIHIN
100
AcDbLine
 10
105.9320453626511
 20
259.0750088607502
 30
0.0
 11
102.9320453626511
 21
259.0750088607502
 31
0.0
  0
LINE
  5
731
330
1A
100
AcDbEntity
  8
SEIHIN
100
AcDbLine
 10
453.9183199691707
 20
423.1086948684192
 30
0.0
 11
453.9183199691706
 21
413.1086948684191
 31
0.0
  0
LINE
  5
732
330
1A
100
AcDbEntity
  8
SEIHIN
100
AcDbLine
 10
450.9183199691707
 20
426.1086948684193
 30
0.0
 11
349.8463364691706
 21
426.1086948684193
 31
0.0
  0
LINE
  5
733
330
1A
100
AcDbEntity
  8
SEIHIN
100
AcDbLine
 10
450.9183199691706
 20
410.1086948684192
 30
0.0
 11
349.8463364691707
 21
410.1086948684192
 31
0.0
  0
LINE
  5
737
330
1A
100
AcDbEntity
  8
SEIHIN
100
AcDbLine
 10
416.3463364291706
 20
424.6086948684192
 30
0.0
 11
416.3463364291706
 21
411.6086948684191
 31
0.0
  0
ARC
  5
738
330
1A
100
AcDbEntity
  8
SEIHIN
100
AcDbCircle
 10
414.8463364291706
 20
424.6086948684192
 30
0.0
 40
1.5
100
AcDbArc
 50
359.9999999999977
 51
90.00000000000216
  0
ARC
  5
739
330
1A
100
AcDbEntity
  8
SEIHIN
100
AcDbCircle
 10
414.8463364291706
 20
411.6086948684191
 30
0.0
 40
1.5
100
AcDbArc
 50
269.9999999999978
 51
0.0
  0
ARC
  5
73A
330
1A
100
AcDbEntity
  8
SEIHIN
100
AcDbCircle
 10
450.9183199691707
 20
423.1086948684192
 30
0.0
 40
3.0
100
AcDbArc
 50
0.0
 51
90.0
  0
ARC
  5
73B
330
1A
100
AcDbEntity
  8
SEIHIN
100
AcDbCircle
 10
450.9183199691706
 20
413.1086948684192
 30
0.0
 40
3.0
100
AcDbArc
 50
270.0
 51
359.9999999999994
  0
ARC
  5
73C
330
1A
100
AcDbEntity
  8
SEIHIN
100
AcDbCircle
 10
109.9320453626511
 20
206.760788297804
 30
0.0
 40
3.0
100
AcDbArc
 50
90.0
 51
180.0
  0
ARC
  5
73D
330
1A
100
AcDbEntity
  8
SEIHIN
100
AcDbCircle
 10
119.9320453626511
 20
206.760788297804
 30
0.0
 40
3.0
100
AcDbArc
 50
0.0
 51
90.0
  0
ARC
  5
73E
330
1A
100
AcDbEntity
  8
SEIHIN
100
AcDbCircle
 10
108.4320453626512
 20
206.5976311978041
 30
0.0
 40
1.5
100
AcDbArc
 50
180.0
 51
270.0
  0
ARC
  5
73F
330
1A
100
AcDbEntity
  8
SEIHIN
100
AcDbCircle
 10
108.4320453626512
 20
203.278893697804
 30
0.0
 40
1.5
100
AcDbArc
 50
180.0
 51
270.0
  0
ARC
  5
740
330
1A
100
AcDbEntity
  8
SEIHIN
100
AcDbCircle
 10
108.4320453626512
 20
190.791406597804
 30
0.0
 40
1.5
100
AcDbArc
 50
180.0
 51
270.0
  0
ARC
  5
741
330
1A
100
AcDbEntity
  8
SEIHIN
100
AcDbCircle
 10
121.4320453626511
 20
206.5976311978041
 30
0.0
 40
1.5
100
AcDbArc
 50
269.9999999999998
 51
359.9999999999998
  0
ARC
  5
742
330
1A
100
AcDbEntity
  8
SEIHIN
100
AcDbCircle
 10
121.4320453626517
 20
203.278893697804
 30
0.0
 40
1.5
100
AcDbArc
 50
270.0
 51
0.0000000000099742
  0
ARC
  5
743
330
1A
100
AcDbEntity
  8
SEIHIN
100
AcDbCircle
 10
121.4320453626538
 20
190.791406597804
 30
0.0
 40
1.5
100
AcDbArc
 50
270.0
 51
0.0000000000098216
  0
LINE
  5
746
330
1A
100
AcDbEntity
  8
SEIHIN
100
AcDbLine
 10
107.9320453626511
 20
206.760788297804
 30
0.0
 11
107.9320453626511
 21
190.791406597804
 31
0.0
  0
LINE
  5
747
330
1A
100
AcDbEntity
  8
SEIHIN
100
AcDbLine
 10
121.9320453626511
 20
206.7607882978039
 30
0.0
 11
121.9320453626538
 21
190.7914065978041
 31
0.0
  0
LINE
  5
748
330
1A
100
AcDbEntity
  8
SEIHIN
100
AcDbLine
 10
121.4320453626538
 20
190.291406597804
 30
0.0
 11
108.4320453626512
 21
190.291406597804
 31
0.0
  0
LINE
  5
749
330
1A
100
AcDbEntity
  8
SEIHIN
100
AcDbLine
 10
119.9320453626511
 20
208.760788297804
 30
0.0
 11
109.9320453626511
 21
208.760788297804
 31
0.0
  0
ARC
  5
74A
330
1A
100
AcDbEntity
  8
SEIHIN
100
AcDbCircle
 10
109.9320453626511
 20
206.760788297804
 30
0.0
 40
2.0
100
AcDbArc
 50
90.0
 51
180.0
  0
ARC
  5
74B
330
1A
100
AcDbEntity
  8
SEIHIN
100
AcDbCircle
 10
119.9320453626511
 20
206.760788297804
 30
0.0
 40
2.0
100
AcDbArc
 50
0.0
 51
90.0
  0
ARC
  5
74C
330
1A
100
AcDbEntity
  8
SEIHIN
100
AcDbCircle
 10
121.4320453626538
 20
190.791406597804
 30
0.0
 40
0.5
100
AcDbArc
 50
270.0
 51
0.0000000000098216
  0
ARC
  5
74D
330
1A
100
AcDbEntity
  8
SEIHIN
100
AcDbCircle
 10
108.4320453626512
 20
190.791406597804
 30
0.0
 40
0.5
100
AcDbArc
 50
180.0
 51
270.0
  0
ARC
  5
74E
330
1A
100
AcDbEntity
  8
SEIHIN
100
AcDbCircle
 10
109.4320453626511
 20
259.5750088607502
 30
0.0
 40
1.5
100
AcDbArc
 50
180.0
 51
269.9999999999997
  0
ARC
  5
750
330
1A
100
AcDbEntity
  8
SEIHIN
100
AcDbCircle
 10
120.4320453626511
 20
259.5750088607502
 30
0.0
 40
1.5
100
AcDbArc
 50
270.0
 51
0.0
  0
LINE
  5
754
330
1A
100
AcDbEntity
  8
CENTER_L
100
AcDbLine
 10
490.4656934906098
 20
269.055840934396
 30
0.0
 11
487.6724923186099
 21
281.752219434396
 31
0.0
  0
LINE
  5
755
330
1A
100
AcDbEntity
  8
CENTER_L
100
AcDbLine
 10
494.8605937431777
 20
270.0227182637301
 30
0.0
 11
492.0673925711777
 21
282.7190967637302
 31
0.0
  0
ELLIPSE
  5
75C
330
1A
100
AcDbEntity
  8
SEIHIN
100
AcDbEllipse
 10
114.9320453626511
 20
275.8874550170393
 30
0.0
 11
-2.25
 21
0.0
 31
0.0
210
0.0
220
0.0
230
1.0
 40
0.2148617830949509
 41
0.0
 42
6.283185307179586
  0
ELLIPSE
  5
75D
330
1A
100
AcDbEntity
  8
SEIHIN
100
AcDbEllipse
 10
114.9320453626511
 20
284.4819263434091
 30
0.0
 11
-2.25
 21
0.0
 31
0.0
210
0.0
220
0.0
230
1.0
 40
0.2148617830949509
 41
0.0
 42
6.283185307179586
  0
ELLIPSE
  5
75E
330
1A
100
AcDbEntity
  8
SEIHIN
100
AcDbEllipse
 10
114.9320453626511
 20
293.0763976653722
 30
0.0
 11
-2.25
 21
0.0
 31
0.0
210
0.0
220
0.0
230
1.0
 40
0.2148617830949509
 41
0.0
 42
6.283185307179586
  0
LEADER
  5
761
330
1A
100
AcDbEntity
  8
SUNPOU
100
AcDbLeader
  3
STANDARD
 73
     0
 40
6.0
 41
14.0
 76
     3
 10
580.1314260991707
 20
290.830115397804
 30
0.0
 10
586.4578325531274
 20
281.924736089636
 30
0.0
 10
590.4666584673814
 20
281.924736089636
 30
0.0
340
762
213
0.0
223
-3.0
233
0.0
1001
ACAD
1000
DSTYLE
1002
{
1070
     6
1000
OPEN
1070
    41
1040
3.0
1070
    42
1040
6.0
1070
    43
1040
14.0
1070
    44
1040
3.0
1070
    73
1070
     0
1070
    74
1070
     0
1070
    77
1070
     0
1070
   140
1040
6.0
1070
   141
1040
10.0
1070
   147
1040
2.0
1070
   172
1070
     1
1070
   173
1070
     1
1070
   176
1070
   256
1070
   177
1070
   256
1070
   178
1070
   256
1070
   271
1070
     0
1070
   272
1070
     0
1070
   341
1005
6D
1070
   343
1005
6D
1070
   344
1005
6D
1002
}
  0
MTEXT
  5
762
102
{ACAD_REACTORS
330
761
102
}
330
1A
100
AcDbEntity
  8
SUNPOU
100
AcDbMText
 10
592.4666584673814
 20
284.924736089636
 30
0.0
 40
6.0
 41
0.0
 71
     1
 72
     5
  1
No1
1001
ACAD
1000
MTEXTBEGIN
1070
    73
1070
     1
1070
    44
1040
1.0
1070
    74
1070
     0
1000
MTEXTEND
1000
MTEXTBEGIN
1070
    73
1070
     1
1070
    44
1040
1.0
1070
    74
1070
     0
1000
MTEXTEND
1000
MTEXTBEGIN
1070
    73
1070
     1
1070
    44
1040
1.0
1070
    74
1070
     0
1000
MTEXTEND
1000
MTEXTBEGIN
1070
    73
1070
     1
1070
    44
1040
1.0
1070
    74
1070
     0
1000
MTEXTEND
  0
DIMENSION
  5
763
330
1A
100
AcDbEntity
  8
SUNPOU
100
AcDbDimension
  2
*D6
 10
638.557081537835
 20
308.2913728654995
 30
0.0
 11
641.9899868374321
 21
315.9580319296691
 31
0.0
 70
    33
  3
STANDARD
100
AcDbAlignedDimension
 13
576.2639140115484
 23
308.4097157983271
 33
0.0
 14
579.1645480791706
 24
295.225015497804
 34
0.0
1001
ACAD
1000
DSTYLE
1002
{
1070
    41
1040
3.0
1070
    42
1040
6.0
1070
    43
1040
14.0
1070
    44
1040
3.0
1070
    73
1070
     0
1070
    74
1070
     0
1070
    77
1070
     3
1070
   140
1040
6.0
1070
   141
1040
10.0
1070
   147
1040
2.0
1070
   172
1070
     1
1070
   173
1070
     1
1070
   176
1070
   256
1070
   177
1070
   256
1070
   178
1070
   256
1070
   271
1070
     0
1070
   272
1070
     0
1070
   341
1005
6D
1070
     6
1000
OPEN
1070
     7
1000
OPEN
1002
}
  0
DIMENSION
  5
77F
330
1A
100
AcDbEntity
  8
SUNPOU
100
AcDbDimension
  2
*D7
 10
624.9199065463092
 20
305.2911945479734
 30
0.0
 11
631.9517467405424
 21
296.5990588217687
 31
0.0
 70
    33
  3
STANDARD
100
AcDbAlignedDimension
 13
578.8422553991706
 23
296.6899821978041
 33
0.0
 14
579.1645480791706
 24
295.225015497804
 34
0.0
1001
ACAD
1000
DSTYLE
1002
{
1070
    41
1040
3.0
1070
    42
1040
6.0
1070
    43
1040
14.0
1070
    44
1040
3.0
1070
    73
1070
     0
1070
    74
1070
     0
1070
    77
1070
     3
1070
   140
1040
6.0
1070
   141
1040
10.0
1070
   147
1040
2.0
1070
   172
1070
     1
1070
   173
1070
     1
1070
   176
1070
   256
1070
   177
1070
   256
1070
   178
1070
   256
1070
   271
1070
     0
1070
   272
1070
     0
1070
   341
1005
6D
1070
     6
1000
OPEN
1070
     7
1000
OPEN
1002
}
  0
DIMENSION
  5
7A2
330
1A
100
AcDbEntity
  8
SUNPOU
100
AcDbDimension
  2
*D8
 10
609.0404206184946
 20
297.1900941789002
 30
0.0
 11
616.0722607749984
 21
288.4979584221728
 31
0.0
 70
    33
  3
STANDARD
100
AcDbAlignedDimension
 13
579.1645480791706
 23
295.225015497804
 33
0.0
 14
580.1314260991707
 24
290.830115397804
 34
0.0
1001
ACAD
1000
DSTYLE
1002
{
1070
    41
1040
3.0
1070
    42
1040
6.0
1070
    43
1040
14.0
1070
    44
1040
3.0
1070
    73
1070
     0
1070
    74
1070
     0
1070
    77
1070
     3
1070
   140
1040
6.0
1070
   141
1040
10.0
1070
   147
1040
2.0
1070
   172
1070
     1
1070
   173
1070
     1
1070
   176
1070
   256
1070
   177
1070
   256
1070
   178
1070
   256
1070
   271
1070
     0
1070
   272
1070
     0
1070
   341
1005
6D
1070
     6
1000
OPEN
1070
     7
1000
OPEN
1002
}
  0
DIMENSION
  5
7B1
330
1A
100
AcDbEntity
  8
SUNPOU
100
AcDbDimension
  2
*D9
 10
571.0669861781838
 20
332.0321149723445
 30
0.0
 11
487.833571437709
 21
318.8403339868812
 31
0.0
 70
    33
  3
STANDARD
100
AcDbAlignedDimension
 13
414.8463364291705
 23
259.0750088607502
 33
0.0
 14
579.1645480791706
 24
295.225015497804
 34
0.0
1001
ACAD
1000
DSTYLE
1002
{
1070
    41
1040
3.0
1070
    42
1040
6.0
1070
    43
1040
14.0
1070
    44
1040
3.0
1070
    73
1070
     0
1070
    74
1070
     0
1070
    77
1070
     3
1070
   140
1040
6.0
1070
   141
1040
10.0
1070
   147
1040
2.0
1070
   172
1070
     1
1070
   173
1070
     1
1070
   176
1070
   256
1070
   177
1070
   256
1070
   178
1070
   256
1070
   271
1070
     0
1070
   272
1070
     0
1070
   341
1005
6D
1070
     6
1000
OPEN
1070
     7
1000
OPEN
1002
}
  0
DIMENSION
  5
7F2
330
1A
100
AcDbEntity
  8
SUNPOU
100
AcDbDimension
  2
*D10
 10
245.6444103043782
 20
187.691406597804
 30
0.0
 11
240.6444103043781
 21
223.3832077292772
 31
0.0
 70
    32
  1
<>(No1)
  3
STANDARD
100
AcDbAlignedDimension
 13
414.8463364291705
 23
259.0750088607502
 33
0.0
 14
297.3463364691706
 24
187.691406597804
 34
0.0
 50
90.0
100
AcDbRotatedDimension
1001
ACAD
1000
DSTYLE
1002
{
1070
    41
1040
3.0
1070
    42
1040
6.0
1070
    43
1040
14.0
1070
    44
1040
3.0
1070
    73
1070
     0
1070
    74
1070
     0
1070
    77
1070
     3
1070
   140
1040
6.0
1070
   141
1040
10.0
1070
   147
1040
2.0
1070
   172
1070
     1
1070
   173
1070
     1
1070
   176
1070
   256
1070
   177
1070
   256
1070
   178
1070
   256
1070
   271
1070
     0
1070
   272
1070
     0
1070
   341
1005
6D
1070
     6
1000
OPEN
1070
     7
1000
OPEN
1002
}
  0
TEXT
  5
808
330
1A
100
AcDbEntity
  8
SUNPOU
 48
5.0
100
AcDbText
 10
643.5821299414828
 20
42.19617944524145
 30
0.0
 40
8.0
  1
図は１０丁流れの１番手を表す
100
AcDbText
  0
LINE
  5
809
330
1A
100
AcDbEntity
  8
SUNPOU
100
AcDbLine
 10
682.0625500456786
 20
317.8625734938938
 30
0.0
 11
712.0625500456786
 21
324.4625685415834
 31
0.0
  0
LINE
  5
80A
330
1A
100
AcDbEntity
  8
SUNPOU
100
AcDbLine
 10
712.0625500456786
 20
324.4625685415834
 30
0.0
 11
682.0625500456786
 21
324.4625685415834
 31
0.0
  0
LINE
  5
80C
330
1A
100
AcDbEntity
  8
SUNPOU
100
AcDbLine
 10
682.0625500456786
 20
324.4625685415834
 30
0.0
 11
682.0625500456786
 21
317.8625734938938
 31
0.0
  0
TEXT
  5
80D
330
1A
100
AcDbEntity
  8
SUNPOU
100
AcDbText
 10
693.0212227919927
 20
326.6855089212951
 30
0.0
 40
6.0
  1
10
100
AcDbText
  0
TEXT
  5
80E
330
1A
100
AcDbEntity
  8
SUNPOU
100
AcDbText
 10
664.6789415952479
 20
317.9833801355577
 30
0.0
 40
6.0
  1
2.2
100
AcDbText
  0
DIMENSION
  5
933
330
1A
100
AcDbEntity
  8
SUNPOU
100
AcDbDimension
  2
*D11
 10
414.8463364291705
 20
276.1579910209359
 30
0.0
 11
356.0963364491706
 21
281.1579910209359
 31
0.0
 70
    32
  3
STANDARD
100
AcDbAlignedDimension
 13
297.3463364691706
 23
187.691406597804
 33
0.0
 14
414.8463364291705
 24
259.0750088607502
 34
0.0
100
AcDbRotatedDimension
1001
ACAD
1000
DSTYLE
1002
{
1070
    41
1040
3.0
1070
    42
1040
6.0
1070
    43
1040
14.0
1070
    44
1040
3.0
1070
    73
1070
     0
1070
    74
1070
     0
1070
    77
1070
     3
1070
   140
1040
6.0
1070
   141
1040
10.0
1070
   147
1040
2.0
1070
   172
1070
     1
1070
   173
1070
     1
1070
   176
1070
   256
1070
   177
1070
   256
1070
   178
1070
   256
1070
   271
1070
     0
1070
   272
1070
     0
1070
   341
1005
6D
1070
     6
1000
OPEN
1070
     7
1000
OPEN
1002
}
  0
DIMENSION
  5
940
330
1A
100
AcDbEntity
  8
SUNPOU
100
AcDbDimension
  2
*D12
 10
614.6204585728947
 20
408.1086948684192
 30
0.0
 11
609.6204585728945
 21
418.1086948684193
 31
0.0
 70
    32
  3
STANDARD
100
AcDbAlignedDimension
 13
580.1314260991707
 23
428.1086948684191
 33
0.0
 14
580.1314260991707
 24
408.1086948684192
 34
0.0
 50
90.0
100
AcDbRotatedDimension
1001
ACAD
1000
DSTYLE
1002
{
1070
    41
1040
3.0
1070
    42
1040
6.0
1070
    43
1040
14.0
1070
    44
1040
3.0
1070
    73
1070
     0
1070
    74
1070
     0
1070
    77
1070
     3
1070
   140
1040
6.0
1070
   141
1040
10.0
1070
   147
1040
2.0
1070
   172
1070
     1
1070
   173
1070
     1
1070
   176
1070
   256
1070
   177
1070
   256
1070
   178
1070
   256
1070
   271
1070
     0
1070
   272
1070
     0
1070
   341
1005
6D
1070
     6
1000
OPEN
1070
     7
1000
OPEN
1002
}
  0
LEADER
  5
94D
330
1A
100
AcDbEntity
  8
SUNPOU
100
AcDbLeader
  3
STANDARD
 73
     0
 40
6.0
 41
18.99999999999999
 76
     3
 10
576.2639140115484
 20
308.4097157983271
 30
0.0
 10
586.9114059238354
 20
332.6394230880162
 30
0.0
 10
591.6214120504705
 20
332.6394230880162
 30
0.0
340
94E
213
0.0
223
-3.0
233
0.0
1001
ACAD
1000
DSTYLE
1002
{
1070
     6
1000
OPEN
1070
    41
1040
3.0
1070
    42
1040
6.0
1070
    43
1040
14.0
1070
    44
1040
3.0
1070
    73
1070
     0
1070
    74
1070
     0
1070
    77
1070
     0
1070
   140
1040
6.0
1070
   141
1040
10.0
1070
   147
1040
2.0
1070
   172
1070
     1
1070
   173
1070
     1
1070
   176
1070
   256
1070
   177
1070
   256
1070
   178
1070
   256
1070
   271
1070
     0
1070
   272
1070
     0
1070
   341
1005
6D
1070
   343
1005
6D
1070
   344
1005
6D
1002
}
  0
MTEXT
  5
94E
102
{ACAD_REACTORS
330
94D
102
}
330
1A
100
AcDbEntity
  8
SUNPOU
100
AcDbMText
 10
593.6214120504705
 20
335.6394230880161
 30
0.0
 40
6.0
 41
0.0
 71
     1
 72
     5
  1
\A1;No10
1001
ACAD
1000
MTEXTBEGIN
1070
    73
1070
     1
1070
    44
1040
1.0
1070
    74
1070
     0
1000
MTEXTEND
1000
MTEXTBEGIN
1070
    73
1070
     1
1070
    44
1040
1.0
1070
    74
1070
     0
1000
MTEXTEND
1000
MTEXTBEGIN
1070
    73
1070
     1
1070
    44
1040
1.0
1070
    74
1070
     0
1000
MTEXTEND
1000
MTEXTBEGIN
1070
    73
1070
     1
1070
    44
1040
1.0
1070
    74
1070
     0
1000
MTEXTEND
  0
LINE
  5
9F1
330
1A
100
AcDbEntity
  8
SEIHIN
100
AcDbLine
 10
124.9320453626511
 20
310.280131197804
 30
0.0
 11
124.9320453626511
 21
187.1596524343559
 31
0.0
  0
LINE
  5
9F2
330
1A
100
AcDbEntity
  8
SEIHIN
100
AcDbLine
 10
104.9320453626511
 20
310.280131197804
 30
0.0
 11
104.9320453626511
 21
187.1596524343559
 31
0.0
  0
LINE
  5
9F3
330
1A
100
AcDbEntity
  8
SEIHIN
100
AcDbLine
 10
450.9183199691707
 20
425.1086948684192
 30
0.0
 11
416.3463364291706
 21
425.1086948684192
 31
0.0
  0
ARC
  5
9F4
330
1A
100
AcDbEntity
  8
SEIHIN
100
AcDbCircle
 10
450.9183199691707
 20
423.1086948684192
 30
0.0
 40
2.0
100
AcDbArc
 50
0.0
 51
90.0
  0
LINE
  5
9F5
330
1A
100
AcDbEntity
  8
SEIHIN
100
AcDbLine
 10
452.9183199691707
 20
423.1086948684192
 30
0.0
 11
452.9183199691706
 21
413.1086948684191
 31
0.0
  0
ARC
  5
9F6
330
1A
100
AcDbEntity
  8
SEIHIN
100
AcDbCircle
 10
450.9183199691706
 20
413.1086948684192
 30
0.0
 40
2.0
100
AcDbArc
 50
270.0
 51
359.9999999999994
  0
LINE
  5
9F7
330
1A
100
AcDbEntity
  8
SEIHIN
100
AcDbLine
 10
450.9183199691706
 20
411.1086948684191
 30
0.0
 11
416.3463364291705
 21
411.1086948684191
 31
0.0
  0
DIMENSION
  5
9F8
330
1A
100
AcDbEntity
  8
SUNPOU
100
AcDbDimension
  2
*D13
 10
124.9320453626511
 20
355.2753494943399
 30
0.0
 11
114.9320453626511
 21
360.2753494943399
 31
0.0
 70
    32
  3
STANDARD
100
AcDbAlignedDimension
 13
104.9320453626511
 23
310.2801311978041
 33
0.0
 14
124.9320453626511
 24
310.2801311978041
 34
0.0
100
AcDbRotatedDimension
1001
ACAD
1000
DSTYLE
1002
{
1070
    41
1040
3.0
1070
    42
1040
6.0
1070
    43
1040
14.0
1070
    44
1040
3.0
1070
    73
1070
     0
1070
    74
1070
     0
1070
    77
1070
     3
1070
   140
1040
6.0
1070
   141
1040
10.0
1070
   147
1040
2.0
1070
   172
1070
     1
1070
   173
1070
     1
1070
   176
1070
   256
1070
   177
1070
   256
1070
   178
1070
   256
1070
   271
1070
     0
1070
   272
1070
     0
1070
   341
1005
6D
1070
     6
1000
OPEN
1070
     7
1000
OPEN
1002
}
  0
LINE
  5
C53
330
1A
100
AcDbEntity
  8
ZUWAKU
100
AcDbLine
 10
208.6466016508406
 20
15.19999989434051
 30
0.0
 11
447.4243643317641
 21
15.1999998943405
 31
0.0
  0
LINE
  5
C54
330
1A
100
AcDbEntity
  8
ZUWAKU
100
AcDbLine
 10
208.6466016508406
 20
15.59999989434051
 30
0.0
 11
447.4243643317641
 21
15.59999989434051
 31
0.0
  0
LINE
  5
C55
330
1A
100
AcDbEntity
  8
ZUWAKU
100
AcDbLine
 10
208.6466016508406
 20
15.39999989434051
 30
0.0
 11
447.4243643317641
 21
15.39999989434051
 31
0.0
  0
LINE
  5
C56
330
1A
100
AcDbEntity
  8
ZUWAKU
100
AcDbLine
 10
0.000000360772674
 20
30.79999989434048
 30
0.0
 11
797.4000003607725
 21
30.79999989434048
 31
0.0
  0
LINE
  5
C57
330
1A
100
AcDbEntity
  8
ZUWAKU
100
AcDbLine
 10
0.000000360772674
 20
30.59999989434048
 30
0.0
 11
797.4000003607725
 21
30.59999989434048
 31
0.0
  0
LINE
  5
C58
330
1A
100
AcDbEntity
  8
ZUWAKU
100
AcDbLine
 10
0.000000360772674
 20
30.39999989434048
 30
0.0
 11
797.4000003607725
 21
30.39999989434048
 31
0.0
  0
LINE
  5
C59
330
1A
100
AcDbEntity
  8
ZUWAKU
100
AcDbLine
 10
0.000000360772674
 20
30.19999989434047
 30
0.0
 11
797.4000003607725
 21
30.19999989434047
 31
0.0
  0
LINE
  5
C5A
330
1A
100
AcDbEntity
  8
ZUWAKU
100
AcDbLine
 10
0.000000360772674
 20
29.99999989434047
 30
0.0
 11
797.4000003607725
 21
29.99999989434047
 31
0.0
  0
LWPOLYLINE
  5
C5B
330
1A
100
AcDbEntity
  8
ZUWAKU
100
AcDbPolyline
 90
        4
 70
     1
 43
0.0
 10
0.2000003607726057
 20
551.3999998943405
 10
0.2000003607726057
 20
0.1999998943405217
 10
797.4000003607725
 20
0.1999998943405448
 10
797.4000003607727
 20
551.3999998943405
  0
LWPOLYLINE
  5
C5C
330
1A
100
AcDbEntity
  8
ZUWAKU
100
AcDbPolyline
 90
        4
 70
     1
 43
0.0
 10
0.600000360772583
 20
550.9999998943405
 10
0.600000360772583
 20
0.599999894340499
 10
797.0000003607728
 20
0.5999998943405452
 10
797.0000003607727
 20
550.9999998943405
  0
LWPOLYLINE
  5
C5D
330
1A
100
AcDbEntity
  8
ZUWAKU
100
AcDbPolyline
 90
        4
 70
     1
 43
0.0
 10
0.000000360772674
 20
551.5999998943405
 10
0.000000360772674
 20
-0.0000001056595238
 10
797.6000003607728
 20
-0.0000001056594563
 10
797.6000003607728
 20
551.5999998943406
  0
LWPOLYLINE
  5
C5E
330
1A
100
AcDbEntity
  8
ZUWAKU
100
AcDbPolyline
 90
        4
 70
     1
 43
0.0
 10
0.4000003607726513
 20
551.1999998943405
 10
0.4000003607726513
 20
0.3999998943405671
 10
797.2000003607726
 20
0.399999894340544
 10
797.2000003607726
 20
551.1999998943405
  0
LWPOLYLINE
  5
C5F
330
1A
100
AcDbEntity
  8
ZUWAKU
100
AcDbPolyline
 90
        4
 70
     1
 43
0.0
 10
0.8000003607726284
 20
550.7999998943405
 10
0.8000003607726284
 20
0.7999998943405445
 10
796.8000003607726
 20
0.7999998943405445
 10
796.8000003607726
 20
550.7999998943405
  0
TEXT
  5
C60
330
1A
100
AcDbEntity
  8
MOJI
100
AcDbText
 10
92.95778994894181
 20
12.74117802461523
 30
0.0
 40
6.0
  1
新・丸トップＲＶ１０５
 41
0.9
  7
ｽﾀｲﾙ1
100
AcDbText
  0
HATCH
  5
C61
330
1A
100
AcDbEntity
  8
ZUWAKU
100
AcDbHatch
 10
0.0
 20
0.0
 30
0.0
210
0.0
220
0.0
230
1.0
  2
ANSI37
 70
     0
 71
     0
 91
        8
 92
        7
 72
     1
 73
     1
 93
       24
 10
14.50226302189253
 20
17.64484837532406
 42
-0.1989123673796348
 10
14.09221251555379
 20
18.63479786898511
 42
0.0
 10
14.09221251555379
 20
19.92499989434048
 42
-0.4142135623730912
 10
14.61721251555377
 20
20.44999989434047
 42
0.0
 10
17.59221251555368
 20
20.44999989434047
 42
0.4142135623731546
 10
18.11721251555377
 20
20.97499989434047
 42
0.0
 10
18.11721251555377
 20
22.72499989434048
 42
0.4142135623731586
 10
17.59221251555368
 20
23.24999989434048
 42
0.0
 10
14.09221251555379
 20
23.24999989434048
 42
0.4142135623730928
 10
11.29221251555384
 20
20.4499998943405
 42
0.0
 10
11.29221251555384
 20
18.63479786898524
 42
0.1989123673796619
 10
12.52236403457027
 20
15.66494938800163
 42
0.0
 10
15.43216200921494
 20
12.75515141335697
 42
-0.1989123673796613
 10
15.84221251555379
 20
11.76520191969578
 42
0.0
 10
15.84221251555379
 20
10.47499989434047
 42
-0.4142135623730911
 10
15.31721251555381
 20
9.949999894340479
 42
0.0
 10
12.34221251555391
 20
9.949999894340479
 42
0.4142135623731526
 10
11.81721251555382
 20
9.424999894340491
 42
0.0
 10
11.81721251555382
 20
7.674999894340469
 42
0.4142135623731526
 10
12.34221251555391
 20
7.149999894340481
 42
0.0
 10
15.84221251555379
 20
7.149999894340481
 42
0.4142135623731044
 10
18.64221251555386
 20
9.949999894340457
 42
0.0
 10
18.64221251555386
 20
11.76520191969573
 42
0.1989123673796604
 10
17.41206099653732
 20
14.73505040067927
 42
0.0
 97
        0
 92
        7
 72
     1
 73
     1
 93
       16
 10
23.54221251555384
 20
19.04999989434048
 42
-0.4142135623730935
 10
24.94221251555382
 20
20.44999989434047
 42
0.0
 10
26.86721251555377
 20
20.44999989434047
 42
0.4142135623731546
 10
27.39221251555386
 20
20.97499989434047
 42
0.0
 10
27.39221251555386
 20
22.72499989434048
 42
0.4142135623730951
 10
26.86721251555388
 20
23.24999989434048
 42
0.0
 10
24.9422125155537
 20
23.24999989434044
 42
0.4142135623730892
 10
20.74221251555377
 20
19.04999989434041
 42
0.0
 10
20.74221251555377
 20
11.3499998943405
 42
0.4142135623730969
 10
24.94221251555382
 20
7.149999894340481
 42
0.0
 10
26.86721251555377
 20
7.149999894340481
 42
0.4142135623731526
 10
27.39221251555386
 20
7.674999894340469
 42
0.0
 10
27.39221251555386
 20
9.424999894340491
 42
0.4142135623730891
 10
26.86721251555388
 20
9.949999894340479
 42
0.0
 10
24.94221251555382
 20
9.949999894340479
 42
-0.4142135623730928
 10
23.54221251555384
 20
11.34999989434046
 42
0.0
 97
        0
 92
        7
 72
     1
 73
     1
 93
        2
 10
24.24221251555377
 20
15.19999989434047
 42
1.0
 10
27.74221251555377
 20
15.19999989434047
 42
1.0
 97
        0
 92
        7
 72
     1
 73
     1
 93
       26
 10
37.31485899773179
 20
19.2050470879039
 42
0.0
 10
38.3764986308696
 20
22.56690592617349
 42
0.5069206636600134
 10
37.87586773167424
 20
23.24999989434048
 42
0.0
 10
36.17697835206502
 20
23.24999989434048
 42
0.3272098845218764
 10
35.67634745286966
 20
22.88309386250745
 42
0.0
 10
33.80807757823788
 20
16.96690592617356
 42
-0.3272098845219541
 10
33.30744667904241
 20
16.59999989434047
 42
0.0
 10
33.16721251555395
 20
16.59999989434047
 42
-0.4142135623731526
 10
32.64221251555386
 20
17.12499989434046
 42
0.0
 10
32.64221251555386
 20
22.72499989434048
 42
0.4142135623730951
 10
32.11721251555388
 20
23.24999989434048
 42
0.0
 10
30.36721251555377
 20
23.24999989434048
 42
0.4142135623730871
 10
29.84221251555379
 20
22.7249998943405
 42
0.0
 10
29.84221251555379
 20
7.674999894340469
 42
0.4142135623730891
 10
30.36721251555377
 20
7.149999894340481
 42
0.0
 10
32.11721251555377
 20
7.149999894340481
 42
0.4142135623731526
 10
32.64221251555386
 20
7.674999894340469
 42
0.0
 10
32.64221251555386
 20
13.27499989434049
 42
-0.4142135623731526
 10
33.16721251555395
 20
13.79999989434048
 42
0.0
 10
33.30744667904252
 20
13.79999989434048
 42
-0.3272098845218915
 10
33.80807757823788
 20
13.4330938625074
 42
0.0
 10
35.67634745286966
 20
7.516905926173553
 42
0.3272098845218902
 10
36.17697835206502
 20
7.149999894340481
 42
0.0
 10
37.87586773167424
 20
7.149999894340481
 42
0.5069206636600335
 10
38.3764986308696
 20
7.833093862507489
 42
0.0
 10
36.05010725239594
 20
15.19999989434061
 42
0.0
 97
        0
 92
        7
 72
     1
 73
     1
 93
        8
 10
43.49221251555377
 20
22.72499989434049
 42
0.4142135623731546
 10
42.96721251555368
 20
23.24999989434048
 42
0.0
 10
41.21721251555391
 20
23.24999989434048
 42
0.4142135623731507
 10
40.69221251555382
 20
22.7249998943405
 42
0.0
 10
40.69221251555382
 20
7.674999894340469
 42
0.4142135623731526
 10
41.21721251555391
 20
7.149999894340481
 42
0.0
 10
42.96721251555368
 20
7.149999894340481
 42
0.4142135623731526
 10
43.49221251555377
 20
7.674999894340469
 42
0.0
 97
        0
 92
        7
 72
     1
 73
     1
 93
       24
 10
48.39221251555386
 20
19.92499989434048
 42
-0.4142135623731546
 10
48.91721251555395
 20
20.44999989434047
 42
0.0
 10
51.89221251555387
 20
20.44999989434047
 42
0.4142135623730911
 10
52.41721251555384
 20
20.97499989434047
 42
0.0
 10
52.41721251555384
 20
22.72499989434048
 42
0.4142135623730952
 10
51.89221251555387
 20
23.24999989434048
 42
0.0
 10
48.39221251555386
 20
23.24999989434048
 42
0.4142135623731048
 10
45.5922125155538
 20
20.4499998943405
 42
0.0
 10
45.5922125155538
 20
18.63479786898524
 42
0.1989123673796613
 10
46.82236403457034
 20
15.66494938800168
 42
0.0
 10
49.73216200921502
 20
12.75515141335701
 42
-0.1989123673796402
 10
50.14221251555387
 20
11.76520191969594
 42
0.0
 10
50.14221251555387
 20
10.47499989434047
 42
-0.4142135623730911
 10
49.61721251555388
 20
9.949999894340479
 42
0.0
 10
46.64221251555386
 20
9.949999894340479
 42
0.4142135623731526
 10
46.11721251555377
 20
9.424999894340491
 42
0.0
 10
46.11721251555377
 20
7.674999894340469
 42
0.4142135623730891
 10
46.64221251555375
 20
7.149999894340481
 42
0.0
 10
50.14221251555387
 20
7.149999894340481
 42
0.4142135623730925
 10
52.94221251555382
 20
9.949999894340457
 42
0.0
 10
52.94221251555382
 20
11.76520191969573
 42
0.1989123673796675
 10
51.71206099653727
 20
14.73505040067938
 42
0.0
 10
48.80226302189271
 20
17.6448483753239
 42
-0.1989123673796652
 10
48.39221251555386
 20
18.63479786898506
 42
0.0
 97
        0
 92
        7
 72
     1
 73
     1
 93
       16
 10
57.84221251555379
 20
22.72499989434046
 42
0.414213562373103
 10
57.31721251555382
 20
23.24999989434048
 42
0.0
 10
55.56721251555382
 20
23.24999989434048
 42
0.4142135623730871
 10
55.04221251555384
 20
22.7249998943405
 42
0.0
 10
55.04221251555384
 20
9.949999894340457
 42
0.4142135623730926
 10
57.84221251555379
 20
7.149999894340481
 42
0.0
 10
61.3422125155538
 20
7.149999894340481
 42
0.4142135623731044
 10
64.14221251555386
 20
9.949999894340457
 42
0.0
 10
64.14221251555386
 20
22.72499989434048
 42
0.4142135623730951
 10
63.61721251555389
 20
23.24999989434048
 42
0.0
 10
61.86721251555377
 20
23.24999989434048
 42
0.4142135623730871
 10
61.3422125155538
 20
22.7249998943405
 42
0.0
 10
61.3422125155538
 20
10.99999989434045
 42
-0.414213562373088
 10
60.29221251555384
 20
9.949999894340479
 42
0.0
 10
58.89221251555387
 20
9.949999894340479
 42
-0.4142135623731197
 10
57.84221251555379
 20
10.99999989434045
 42
0.0
 97
        0
 92
        7
 72
     1
 73
     1
 93
        8
 10
69.04221251555384
 20
22.7249998943405
 42
0.4142135623730871
 10
68.51721251555386
 20
23.24999989434048
 42
0.0
 10
66.76721251555386
 20
23.24999989434048
 42
0.4142135623731507
 10
66.24221251555377
 20
22.7249998943405
 42
0.0
 10
66.24221251555377
 20
7.674999894340469
 42
0.4142135623730891
 10
66.76721251555375
 20
7.149999894340481
 42
0.0
 10
68.51721251555386
 20
7.149999894340481
 42
0.4142135623730891
 10
69.04221251555384
 20
7.674999894340469
 42
0.0
 97
        0
 75
     0
 76
     1
 52
0.0
 41
0.2
 77
     0
 78
     2
 53
45.0
 43
-900.9423039739063
 44
-13.20000010565945
 45
-0.4490128060534576
 46
0.4490128060534577
 79
     0
 53
135.0
 43
-900.9423039739063
 44
-13.20000010565945
 45
-0.4490128060534577
 46
-0.4490128060534576
 79
     0
 47
0.057451373970553
 98
        8
 10
16.07985532379598
 20
15.16717354022603
 10
22.40451536721184
 20
18.84406207679148
 10
25.16436824643233
 20
15.51188154041119
 10
30.91406034240981
 20
16.20129754078198
 10
41.83847237972941
 20
16.66090980832359
 10
46.89820125590222
 20
19.41857621074768
 10
56.55768633317302
 20
18.72915780943549
 10
67.82707998039541
 20
19.1887700769771
  0
LINE
  5
C62
330
1A
100
AcDbEntity
  8
ZUWAKU
100
AcDbLine
 10
24.94221251555382
 20
23.24999989434044
 30
0.0
 11
26.86721251555377
 21
23.24999989434048
 31
0.0
  0
LINE
  5
C63
330
1A
100
AcDbEntity
  8
ZUWAKU
100
AcDbLine
 10
26.86721251555377
 20
20.44999989434047
 30
0.0
 11
24.94221251555382
 21
20.44999989434047
 31
0.0
  0
LINE
  5
C64
330
1A
100
AcDbEntity
  8
ZUWAKU
100
AcDbLine
 10
24.94221251555382
 20
9.949999894340479
 30
0.0
 11
26.86721251555377
 21
9.949999894340479
 31
0.0
  0
LINE
  5
C65
330
1A
100
AcDbEntity
  8
ZUWAKU
100
AcDbLine
 10
26.86721251555377
 20
7.149999894340481
 30
0.0
 11
24.94221251555382
 21
7.149999894340481
 31
0.0
  0
CIRCLE
  5
C66
330
1A
100
AcDbEntity
  8
ZUWAKU
100
AcDbCircle
 10
25.99221251555377
 20
15.19999989434047
 30
0.0
 40
1.75
  0
ARC
  5
C67
330
1A
100
AcDbEntity
  8
ZUWAKU
100
AcDbCircle
 10
15.49221251555377
 20
18.63479786898518
 30
0.0
 40
1.399999999999999
100
AcDbArc
 50
180.0000000000016
 51
224.9999999999988
  0
LINE
  5
C68
330
1A
100
AcDbEntity
  8
ZUWAKU
100
AcDbLine
 10
23.54221251555384
 20
19.04999989434048
 30
0.0
 11
23.54221251555384
 21
11.34999989434048
 31
0.0
  0
LINE
  5
C69
330
1A
100
AcDbEntity
  8
ZUWAKU
100
AcDbLine
 10
20.74221251555377
 20
11.34999989434048
 30
0.0
 11
20.74221251555377
 21
19.04999989434043
 31
0.0
  0
ARC
  5
C6A
330
1A
100
AcDbEntity
  8
ZUWAKU
100
AcDbCircle
 10
15.49221251555377
 20
18.63479786898518
 30
0.0
 40
4.199999999999999
100
AcDbArc
 50
180.0
 51
225.0
  0
ARC
  5
C6B
330
1A
100
AcDbEntity
  8
ZUWAKU
100
AcDbCircle
 10
15.84221251555379
 20
9.949999894340479
 30
0.0
 40
2.799999999999999
100
AcDbArc
 50
270.0
 51
0.0
  0
ARC
  5
C6C
330
1A
100
AcDbEntity
  8
ZUWAKU
100
AcDbCircle
 10
24.94221251555382
 20
11.34999989434048
 30
0.0
 40
4.199999999999999
100
AcDbArc
 50
180.0
 51
270.0
  0
ARC
  5
C6D
330
1A
100
AcDbEntity
  8
ZUWAKU
100
AcDbCircle
 10
14.44221251555382
 20
11.76520191969578
 30
0.0
 40
4.199999999999999
100
AcDbArc
 50
0.0
 51
45.0
  0
LINE
  5
C6E
330
1A
100
AcDbEntity
  8
ZUWAKU
100
AcDbLine
 10
17.41206099653732
 20
14.7350504006793
 30
0.0
 11
14.50226302189264
 21
17.64484837532398
 31
0.0
  0
LINE
  5
C6F
330
1A
100
AcDbEntity
  8
ZUWAKU
100
AcDbLine
 10
15.84221251555379
 20
10.47499989434048
 30
0.0
 11
15.84221251555379
 21
11.76520191969582
 31
0.0
  0
ARC
  5
C70
330
1A
100
AcDbEntity
  8
ZUWAKU
100
AcDbCircle
 10
15.31721251555381
 20
10.47499989434048
 30
0.0
 40
0.525
100
AcDbArc
 50
270.0
 51
0.0
  0
ARC
  5
C71
330
1A
100
AcDbEntity
  8
ZUWAKU
100
AcDbCircle
 10
14.44221251555382
 20
11.76520191969582
 30
0.0
 40
1.399999999999999
100
AcDbArc
 50
0.0
 51
45.0
  0
LINE
  5
C72
330
1A
100
AcDbEntity
  8
ZUWAKU
100
AcDbLine
 10
11.81721251555382
 20
7.67499989434048
 30
0.0
 11
11.81721251555382
 21
9.42499989434048
 31
0.0
  0
ARC
  5
C73
330
1A
100
AcDbEntity
  8
ZUWAKU
100
AcDbCircle
 10
12.34221251555379
 20
7.67499989434048
 30
0.0
 40
0.525
100
AcDbArc
 50
180.0
 51
270.0
  0
ARC
  5
C74
330
1A
100
AcDbEntity
  8
ZUWAKU
100
AcDbCircle
 10
12.34221251555379
 20
9.42499989434048
 30
0.0
 40
0.525
100
AcDbArc
 50
90.0
 51
180.0
  0
LINE
  5
C75
330
1A
100
AcDbEntity
  8
ZUWAKU
100
AcDbLine
 10
12.34221251555379
 20
7.149999894340481
 30
0.0
 11
15.84221251555379
 21
7.149999894340481
 31
0.0
  0
LINE
  5
C76
330
1A
100
AcDbEntity
  8
ZUWAKU
100
AcDbLine
 10
12.34221251555379
 20
9.949999894340479
 30
0.0
 11
15.31721251555381
 21
9.949999894340479
 31
0.0
  0
LINE
  5
C77
330
1A
100
AcDbEntity
  8
ZUWAKU
100
AcDbLine
 10
12.52236403457027
 20
15.66494938800166
 30
0.0
 11
15.43216200921494
 21
12.75515141335699
 31
0.0
  0
LINE
  5
C78
330
1A
100
AcDbEntity
  8
ZUWAKU
100
AcDbLine
 10
18.64221251555386
 20
9.949999894340479
 30
0.0
 11
18.64221251555386
 21
11.76520191969582
 31
0.0
  0
ARC
  5
C79
330
1A
100
AcDbEntity
  8
ZUWAKU
100
AcDbCircle
 10
24.94221251555382
 20
11.34999989434048
 30
0.0
 40
1.399999999999999
100
AcDbArc
 50
180.0
 51
270.0
  0
ARC
  5
C7A
330
1A
100
AcDbEntity
  8
ZUWAKU
100
AcDbCircle
 10
17.59221251555379
 20
22.72499989434047
 30
0.0
 40
0.525
100
AcDbArc
 50
0.0
 51
90.0
  0
ARC
  5
C7B
330
1A
100
AcDbEntity
  8
ZUWAKU
100
AcDbCircle
 10
17.59221251555379
 20
20.97499989434048
 30
0.0
 40
0.525
100
AcDbArc
 50
270.0
 51
0.0
  0
LINE
  5
C7C
330
1A
100
AcDbEntity
  8
ZUWAKU
100
AcDbLine
 10
14.09221251555379
 20
23.24999989434048
 30
0.0
 11
17.59221251555379
 21
23.24999989434048
 31
0.0
  0
ARC
  5
C7D
330
1A
100
AcDbEntity
  8
ZUWAKU
100
AcDbCircle
 10
14.61721251555377
 20
19.92499989434048
 30
0.0
 40
0.525
100
AcDbArc
 50
90.0
 51
180.0
  0
LINE
  5
C7E
330
1A
100
AcDbEntity
  8
ZUWAKU
100
AcDbLine
 10
14.09221251555379
 20
19.92499989434048
 30
0.0
 11
14.09221251555379
 21
18.63479786898514
 31
0.0
  0
LINE
  5
C7F
330
1A
100
AcDbEntity
  8
ZUWAKU
100
AcDbLine
 10
17.59221251555379
 20
20.44999989434047
 30
0.0
 11
14.61721251555377
 21
20.44999989434047
 31
0.0
  0
LINE
  5
C80
330
1A
100
AcDbEntity
  8
ZUWAKU
100
AcDbLine
 10
11.29221251555384
 20
20.44999989434047
 30
0.0
 11
11.29221251555384
 21
18.63479786898514
 31
0.0
  0
ARC
  5
C81
330
1A
100
AcDbEntity
  8
ZUWAKU
100
AcDbCircle
 10
14.09221251555379
 20
20.44999989434047
 30
0.0
 40
2.799999999999999
100
AcDbArc
 50
90.0
 51
180.0
  0
LINE
  5
C82
330
1A
100
AcDbEntity
  8
ZUWAKU
100
AcDbLine
 10
18.11721251555377
 20
22.72499989434047
 30
0.0
 11
18.11721251555377
 21
20.97499989434048
 31
0.0
  0
ARC
  5
C83
330
1A
100
AcDbEntity
  8
ZUWAKU
100
AcDbCircle
 10
24.94221251555382
 20
19.04999989434048
 30
0.0
 40
1.399999999999999
100
AcDbArc
 50
90.0
 51
180.0
  0
ARC
  5
C84
330
1A
100
AcDbEntity
  8
ZUWAKU
100
AcDbCircle
 10
24.94221251555382
 20
19.04999989434043
 30
0.0
 40
4.199999999999999
100
AcDbArc
 50
90.0
 51
180.0
  0
LINE
  5
C85
330
1A
100
AcDbEntity
  8
ZUWAKU
100
AcDbLine
 10
79.32662990876088
 20
29.99999989434047
 30
0.0
 11
79.3266299087611
 21
0.7999998943405445
 31
0.0
  0
LINE
  5
C86
330
1A
100
AcDbEntity
  8
ZUWAKU
100
AcDbLine
 10
79.52662990876092
 20
29.99999989434047
 30
0.0
 11
79.52662990876115
 21
0.7999998943405445
 31
0.0
  0
LINE
  5
C87
330
1A
100
AcDbEntity
  8
ZUWAKU
100
AcDbLine
 10
79.12662990876106
 20
29.99999989434047
 30
0.0
 11
79.12662990876106
 21
0.7999998943405445
 31
0.0
  0
LINE
  5
C88
330
1A
100
AcDbEntity
  8
ZUWAKU
100
AcDbLine
 10
64.14221251555386
 20
9.949999894340479
 30
0.0
 11
64.14221251555386
 21
22.72499989434047
 31
0.0
  0
LINE
  5
C89
330
1A
100
AcDbEntity
  8
ZUWAKU
100
AcDbLine
 10
61.3422125155538
 20
22.72499989434047
 30
0.0
 11
61.3422125155538
 21
10.99999989434047
 31
0.0
  0
LINE
  5
C8A
330
1A
100
AcDbEntity
  8
ZUWAKU
100
AcDbLine
 10
69.04221251555384
 20
7.67499989434048
 30
0.0
 11
69.04221251555384
 21
22.72499989434047
 31
0.0
  0
LINE
  5
C8B
330
1A
100
AcDbEntity
  8
ZUWAKU
100
AcDbLine
 10
66.24221251555377
 20
22.72499989434047
 30
0.0
 11
66.24221251555377
 21
7.67499989434048
 31
0.0
  0
ARC
  5
C8C
330
1A
100
AcDbEntity
  8
ZUWAKU
100
AcDbCircle
 10
49.79221251555384
 20
18.63479786898518
 30
0.0
 40
1.399999999999999
100
AcDbArc
 50
180.0000000000016
 51
224.9999999999988
  0
ARC
  5
C8D
330
1A
100
AcDbEntity
  8
ZUWAKU
100
AcDbCircle
 10
49.79221251555384
 20
18.63479786898518
 30
0.0
 40
4.199999999999999
100
AcDbArc
 50
180.0
 51
225.0
  0
LINE
  5
C8E
330
1A
100
AcDbEntity
  8
ZUWAKU
100
AcDbLine
 10
37.31485899773179
 20
19.2050470879039
 30
0.0
 11
36.05010725239594
 21
15.1999998943405
 31
0.0
  0
LINE
  5
C8F
330
1A
100
AcDbEntity
  8
ZUWAKU
100
AcDbLine
 10
40.69221251555382
 20
22.72499989434047
 30
0.0
 11
40.69221251555382
 21
7.67499989434048
 31
0.0
  0
LINE
  5
C90
330
1A
100
AcDbEntity
  8
ZUWAKU
100
AcDbLine
 10
43.49221251555377
 20
7.67499989434048
 30
0.0
 11
43.49221251555377
 21
22.72499989434047
 31
0.0
  0
LINE
  5
C91
330
1A
100
AcDbEntity
  8
ZUWAKU
100
AcDbLine
 10
55.04221251555384
 20
22.72499989434047
 30
0.0
 11
55.04221251555384
 21
9.949999894340479
 31
0.0
  0
LINE
  5
C92
330
1A
100
AcDbEntity
  8
ZUWAKU
100
AcDbLine
 10
57.84221251555379
 20
10.99999989434047
 30
0.0
 11
57.84221251555379
 21
22.72499989434047
 31
0.0
  0
LINE
  5
C93
330
1A
100
AcDbEntity
  8
ZUWAKU
100
AcDbLine
 10
32.64221251555386
 20
17.12499989434048
 30
0.0
 11
32.64221251555386
 21
22.72499989434047
 31
0.0
  0
LINE
  5
C94
330
1A
100
AcDbEntity
  8
ZUWAKU
100
AcDbLine
 10
29.84221251555379
 20
22.72499989434047
 30
0.0
 11
29.84221251555379
 21
7.67499989434048
 31
0.0
  0
LINE
  5
C95
330
1A
100
AcDbEntity
  8
ZUWAKU
100
AcDbLine
 10
35.67634745286966
 20
22.88309386250745
 30
0.0
 11
33.80807757823788
 21
16.96690592617351
 31
0.0
  0
LINE
  5
C96
330
1A
100
AcDbEntity
  8
ZUWAKU
100
AcDbLine
 10
60.29221251555384
 20
9.949999894340479
 30
0.0
 11
58.89221251555387
 21
9.949999894340479
 31
0.0
  0
LINE
  5
C97
330
1A
100
AcDbEntity
  8
ZUWAKU
100
AcDbLine
 10
57.84221251555379
 20
7.149999894340481
 30
0.0
 11
61.3422125155538
 21
7.149999894340481
 31
0.0
  0
LINE
  5
C98
330
1A
100
AcDbEntity
  8
ZUWAKU
100
AcDbLine
 10
41.2172125155538
 20
7.149999894340481
 30
0.0
 11
42.96721251555379
 21
7.149999894340481
 31
0.0
  0
LINE
  5
C99
330
1A
100
AcDbEntity
  8
ZUWAKU
100
AcDbLine
 10
35.67634745286966
 20
7.516905926173507
 30
0.0
 11
33.80807757823788
 21
13.43309386250744
 31
0.0
  0
ARC
  5
C9A
330
1A
100
AcDbEntity
  8
ZUWAKU
100
AcDbCircle
 10
33.30744667904252
 20
17.12499989434048
 30
0.0
 40
0.525
100
AcDbArc
 50
270.0
 51
342.4744316262769
  0
LINE
  5
C9B
330
1A
100
AcDbEntity
  8
ZUWAKU
100
AcDbLine
 10
33.30744667904252
 20
16.59999989434047
 30
0.0
 11
33.16721251555384
 21
16.59999989434047
 31
0.0
  0
LINE
  5
C9C
330
1A
100
AcDbEntity
  8
ZUWAKU
100
AcDbLine
 10
33.16721251555384
 20
13.79999989434048
 30
0.0
 11
33.30744667904252
 21
13.79999989434048
 31
0.0
  0
ARC
  5
C9D
330
1A
100
AcDbEntity
  8
ZUWAKU
100
AcDbCircle
 10
33.16721251555384
 20
17.12499989434048
 30
0.0
 40
0.525
100
AcDbArc
 50
180.0
 51
270.0
  0
LINE
  5
C9E
330
1A
100
AcDbEntity
  8
ZUWAKU
100
AcDbLine
 10
30.36721251555377
 20
7.149999894340481
 30
0.0
 11
32.11721251555377
 21
7.149999894340481
 31
0.0
  0
ARC
  5
C9F
330
1A
100
AcDbEntity
  8
ZUWAKU
100
AcDbCircle
 10
32.11721251555377
 20
7.67499989434048
 30
0.0
 40
0.525
100
AcDbArc
 50
270.0
 51
0.0
  0
LINE
  5
CA0
330
1A
100
AcDbEntity
  8
ZUWAKU
100
AcDbLine
 10
32.64221251555386
 20
7.67499989434048
 30
0.0
 11
32.64221251555386
 21
13.27499989434048
 31
0.0
  0
LINE
  5
CA1
330
1A
100
AcDbEntity
  8
ZUWAKU
100
AcDbLine
 10
27.39221251555386
 20
9.42499989434048
 30
0.0
 11
27.39221251555386
 21
7.67499989434048
 31
0.0
  0
ARC
  5
CA2
330
1A
100
AcDbEntity
  8
ZUWAKU
100
AcDbCircle
 10
26.86721251555377
 20
7.67499989434048
 30
0.0
 40
0.525
100
AcDbArc
 50
270.0
 51
0.0
  0
ARC
  5
CA3
330
1A
100
AcDbEntity
  8
ZUWAKU
100
AcDbCircle
 10
26.86721251555377
 20
9.42499989434048
 30
0.0
 40
0.525
100
AcDbArc
 50
0.0
 51
90.0
  0
ARC
  5
CA4
330
1A
100
AcDbEntity
  8
ZUWAKU
100
AcDbCircle
 10
30.36721251555377
 20
7.67499989434048
 30
0.0
 40
0.525
100
AcDbArc
 50
180.0
 51
270.0
  0
ARC
  5
CA5
330
1A
100
AcDbEntity
  8
ZUWAKU
100
AcDbCircle
 10
33.30744667904252
 20
13.27499989434048
 30
0.0
 40
0.525
100
AcDbArc
 50
17.52556837372303
 51
90.0
  0
ARC
  5
CA6
330
1A
100
AcDbEntity
  8
ZUWAKU
100
AcDbCircle
 10
33.16721251555384
 20
13.27499989434048
 30
0.0
 40
0.525
100
AcDbArc
 50
90.0
 51
180.0
  0
ARC
  5
CA7
330
1A
100
AcDbEntity
  8
ZUWAKU
100
AcDbCircle
 10
41.2172125155538
 20
7.67499989434048
 30
0.0
 40
0.525
100
AcDbArc
 50
180.0
 51
270.0
  0
LINE
  5
CA8
330
1A
100
AcDbEntity
  8
ZUWAKU
100
AcDbLine
 10
36.17697835206513
 20
7.149999894340481
 30
0.0
 11
37.87586773167413
 21
7.149999894340481
 31
0.0
  0
ARC
  5
CA9
330
1A
100
AcDbEntity
  8
ZUWAKU
100
AcDbCircle
 10
37.87586773167413
 20
7.67499989434048
 30
0.0
 40
0.525
100
AcDbArc
 50
270.0
 51
17.52556837372303
  0
LINE
  5
CAA
330
1A
100
AcDbEntity
  8
ZUWAKU
100
AcDbLine
 10
38.3764986308696
 20
7.833093862507453
 30
0.0
 11
36.05010725239594
 21
15.1999998943405
 31
0.0
  0
ARC
  5
CAB
330
1A
100
AcDbEntity
  8
ZUWAKU
100
AcDbCircle
 10
36.17697835206513
 20
7.67499989434048
 30
0.0
 40
0.525
100
AcDbArc
 50
197.525568373723
 51
270.0
  0
ARC
  5
CAC
330
1A
100
AcDbEntity
  8
ZUWAKU
100
AcDbCircle
 10
57.84221251555379
 20
9.949999894340479
 30
0.0
 40
2.799999999999999
100
AcDbArc
 50
180.0
 51
270.0
  0
ARC
  5
CAD
330
1A
100
AcDbEntity
  8
ZUWAKU
100
AcDbCircle
 10
50.14221251555387
 20
9.949999894340479
 30
0.0
 40
2.799999999999999
100
AcDbArc
 50
270.0
 51
0.0
  0
LINE
  5
CAE
330
1A
100
AcDbEntity
  8
ZUWAKU
100
AcDbLine
 10
51.71206099653739
 20
14.7350504006793
 30
0.0
 11
48.8022630218926
 21
17.64484837532398
 31
0.0
  0
LINE
  5
CAF
330
1A
100
AcDbEntity
  8
ZUWAKU
100
AcDbLine
 10
50.14221251555387
 20
10.47499989434048
 30
0.0
 11
50.14221251555387
 21
11.76520191969582
 31
0.0
  0
ARC
  5
CB0
330
1A
100
AcDbEntity
  8
ZUWAKU
100
AcDbCircle
 10
48.74221251555377
 20
11.76520191969582
 30
0.0
 40
1.399999999999999
100
AcDbArc
 50
0.0
 51
45.0
  0
ARC
  5
CB1
330
1A
100
AcDbEntity
  8
ZUWAKU
100
AcDbCircle
 10
49.61721251555378
 20
10.47499989434048
 30
0.0
 40
0.525
100
AcDbArc
 50
270.0
 51
0.0
  0
LINE
  5
CB2
330
1A
100
AcDbEntity
  8
ZUWAKU
100
AcDbLine
 10
46.11721251555377
 20
7.67499989434048
 30
0.0
 11
46.11721251555377
 21
9.42499989434048
 31
0.0
  0
ARC
  5
CB3
330
1A
100
AcDbEntity
  8
ZUWAKU
100
AcDbCircle
 10
46.64221251555386
 20
7.67499989434048
 30
0.0
 40
0.525
100
AcDbArc
 50
180.0
 51
270.0
  0
ARC
  5
CB4
330
1A
100
AcDbEntity
  8
ZUWAKU
100
AcDbCircle
 10
42.96721251555379
 20
7.67499989434048
 30
0.0
 40
0.525
100
AcDbArc
 50
270.0
 51
0.0
  0
ARC
  5
CB5
330
1A
100
AcDbEntity
  8
ZUWAKU
100
AcDbCircle
 10
46.64221251555386
 20
9.42499989434048
 30
0.0
 40
0.525
100
AcDbArc
 50
90.0
 51
180.0
  0
LINE
  5
CB6
330
1A
100
AcDbEntity
  8
ZUWAKU
100
AcDbLine
 10
46.64221251555386
 20
9.949999894340479
 30
0.0
 11
49.61721251555378
 21
9.949999894340479
 31
0.0
  0
LINE
  5
CB7
330
1A
100
AcDbEntity
  8
ZUWAKU
100
AcDbLine
 10
46.64221251555386
 20
7.149999894340481
 30
0.0
 11
50.14221251555387
 21
7.149999894340481
 31
0.0
  0
LINE
  5
CB8
330
1A
100
AcDbEntity
  8
ZUWAKU
100
AcDbLine
 10
46.82236403457034
 20
15.66494938800166
 30
0.0
 11
49.73216200921502
 21
12.75515141335699
 31
0.0
  0
LINE
  5
CB9
330
1A
100
AcDbEntity
  8
ZUWAKU
100
AcDbLine
 10
52.94221251555382
 20
9.949999894340479
 30
0.0
 11
52.94221251555382
 21
11.76520191969582
 31
0.0
  0
ARC
  5
CBA
330
1A
100
AcDbEntity
  8
ZUWAKU
100
AcDbCircle
 10
48.74221251555377
 20
11.76520191969578
 30
0.0
 40
4.199999999999999
100
AcDbArc
 50
0.0
 51
45.0
  0
ARC
  5
CBB
330
1A
100
AcDbEntity
  8
ZUWAKU
100
AcDbCircle
 10
58.89221251555387
 20
10.99999989434047
 30
0.0
 40
1.049999999999999
100
AcDbArc
 50
180.0
 51
270.0
  0
ARC
  5
CBC
330
1A
100
AcDbEntity
  8
ZUWAKU
100
AcDbCircle
 10
61.3422125155538
 20
9.949999894340479
 30
0.0
 40
2.799999999999999
100
AcDbArc
 50
270.0
 51
0.0
  0
LINE
  5
CBD
330
1A
100
AcDbEntity
  8
ZUWAKU
100
AcDbLine
 10
66.76721251555386
 20
7.149999894340481
 30
0.0
 11
68.51721251555386
 21
7.149999894340481
 31
0.0
  0
ARC
  5
CBE
330
1A
100
AcDbEntity
  8
ZUWAKU
100
AcDbCircle
 10
66.76721251555386
 20
7.67499989434048
 30
0.0
 40
0.525
100
AcDbArc
 50
180.0
 51
270.0
  0
ARC
  5
CBF
330
1A
100
AcDbEntity
  8
ZUWAKU
100
AcDbCircle
 10
60.29221251555384
 20
10.99999989434047
 30
0.0
 40
1.049999999999999
100
AcDbArc
 50
270.0
 51
0.0
  0
ARC
  5
CC0
330
1A
100
AcDbEntity
  8
ZUWAKU
100
AcDbCircle
 10
68.51721251555386
 20
7.67499989434048
 30
0.0
 40
0.525
100
AcDbArc
 50
270.0
 51
0.0
  0
LINE
  5
CC1
330
1A
100
AcDbEntity
  8
ZUWAKU
100
AcDbLine
 10
42.96721251555379
 20
23.24999989434048
 30
0.0
 11
41.2172125155538
 21
23.24999989434048
 31
0.0
  0
ARC
  5
CC2
330
1A
100
AcDbEntity
  8
ZUWAKU
100
AcDbCircle
 10
32.11721251555377
 20
22.72499989434047
 30
0.0
 40
0.525
100
AcDbArc
 50
0.0
 51
90.0
  0
LINE
  5
CC3
330
1A
100
AcDbEntity
  8
ZUWAKU
100
AcDbLine
 10
32.11721251555377
 20
23.24999989434048
 30
0.0
 11
30.36721251555377
 21
23.24999989434048
 31
0.0
  0
ARC
  5
CC4
330
1A
100
AcDbEntity
  8
ZUWAKU
100
AcDbCircle
 10
26.86721251555377
 20
22.72499989434047
 30
0.0
 40
0.525
100
AcDbArc
 50
0.0
 51
90.0
  0
ARC
  5
CC5
330
1A
100
AcDbEntity
  8
ZUWAKU
100
AcDbCircle
 10
30.36721251555377
 20
22.72499989434047
 30
0.0
 40
0.525
100
AcDbArc
 50
90.0
 51
180.0
  0
ARC
  5
CC6
330
1A
100
AcDbEntity
  8
ZUWAKU
100
AcDbCircle
 10
26.86721251555377
 20
20.97499989434048
 30
0.0
 40
0.525
100
AcDbArc
 50
270.0
 51
0.0
  0
LINE
  5
CC7
330
1A
100
AcDbEntity
  8
ZUWAKU
100
AcDbLine
 10
27.39221251555386
 20
22.72499989434047
 30
0.0
 11
27.39221251555386
 21
20.97499989434048
 31
0.0
  0
ARC
  5
CC8
330
1A
100
AcDbEntity
  8
ZUWAKU
100
AcDbCircle
 10
41.2172125155538
 20
22.72499989434047
 30
0.0
 40
0.525
100
AcDbArc
 50
90.0
 51
180.0
  0
LINE
  5
CC9
330
1A
100
AcDbEntity
  8
ZUWAKU
100
AcDbLine
 10
36.17697835206513
 20
23.24999989434048
 30
0.0
 11
37.87586773167413
 21
23.24999989434048
 31
0.0
  0
ARC
  5
CCA
330
1A
100
AcDbEntity
  8
ZUWAKU
100
AcDbCircle
 10
37.87586773167413
 20
22.72499989434047
 30
0.0
 40
0.525
100
AcDbArc
 50
342.4744316262769
 51
90.0
  0
LINE
  5
CCB
330
1A
100
AcDbEntity
  8
ZUWAKU
100
AcDbLine
 10
38.3764986308696
 20
22.56690592617351
 30
0.0
 11
37.31485899773179
 21
19.2050470879039
 31
0.0
  0
ARC
  5
CCC
330
1A
100
AcDbEntity
  8
ZUWAKU
100
AcDbCircle
 10
36.17697835206513
 20
22.72499989434047
 30
0.0
 40
0.525
100
AcDbArc
 50
90.0
 51
162.4744316262769
  0
LINE
  5
CCD
330
1A
100
AcDbEntity
  8
ZUWAKU
100
AcDbLine
 10
48.39221251555386
 20
23.24999989434048
 30
0.0
 11
51.89221251555387
 21
23.24999989434048
 31
0.0
  0
LINE
  5
CCE
330
1A
100
AcDbEntity
  8
ZUWAKU
100
AcDbLine
 10
51.89221251555387
 20
20.44999989434047
 30
0.0
 11
48.91721251555384
 21
20.44999989434047
 31
0.0
  0
ARC
  5
CCF
330
1A
100
AcDbEntity
  8
ZUWAKU
100
AcDbCircle
 10
48.91721251555384
 20
19.92499989434048
 30
0.0
 40
0.525
100
AcDbArc
 50
90.0
 51
180.0
  0
LINE
  5
CD0
330
1A
100
AcDbEntity
  8
ZUWAKU
100
AcDbLine
 10
48.39221251555386
 20
19.92499989434048
 30
0.0
 11
48.39221251555386
 21
18.63479786898514
 31
0.0
  0
ARC
  5
CD1
330
1A
100
AcDbEntity
  8
ZUWAKU
100
AcDbCircle
 10
42.96721251555379
 20
22.72499989434047
 30
0.0
 40
0.525
100
AcDbArc
 50
0.0
 51
90.0
  0
LINE
  5
CD2
330
1A
100
AcDbEntity
  8
ZUWAKU
100
AcDbLine
 10
45.5922125155538
 20
20.44999989434047
 30
0.0
 11
45.5922125155538
 21
18.63479786898514
 31
0.0
  0
ARC
  5
CD3
330
1A
100
AcDbEntity
  8
ZUWAKU
100
AcDbCircle
 10
48.39221251555386
 20
20.44999989434047
 30
0.0
 40
2.799999999999999
100
AcDbArc
 50
90.0
 51
180.0
  0
ARC
  5
CD4
330
1A
100
AcDbEntity
  8
ZUWAKU
100
AcDbCircle
 10
57.31721251555382
 20
22.72499989434047
 30
0.0
 40
0.525
100
AcDbArc
 50
0.0
 51
90.0
  0
ARC
  5
CD5
330
1A
100
AcDbEntity
  8
ZUWAKU
100
AcDbCircle
 10
55.56721251555382
 20
22.72499989434047
 30
0.0
 40
0.525
100
AcDbArc
 50
90.0
 51
180.0
  0
LINE
  5
CD6
330
1A
100
AcDbEntity
  8
ZUWAKU
100
AcDbLine
 10
57.31721251555382
 20
23.24999989434048
 30
0.0
 11
55.56721251555382
 21
23.24999989434048
 31
0.0
  0
ARC
  5
CD7
330
1A
100
AcDbEntity
  8
ZUWAKU
100
AcDbCircle
 10
51.89221251555387
 20
22.72499989434047
 30
0.0
 40
0.525
100
AcDbArc
 50
0.0
 51
90.0
  0
ARC
  5
CD8
330
1A
100
AcDbEntity
  8
ZUWAKU
100
AcDbCircle
 10
51.89221251555387
 20
20.97499989434048
 30
0.0
 40
0.525
100
AcDbArc
 50
270.0
 51
0.0
  0
LINE
  5
CD9
330
1A
100
AcDbEntity
  8
ZUWAKU
100
AcDbLine
 10
52.41721251555384
 20
22.72499989434047
 30
0.0
 11
52.41721251555384
 21
20.97499989434048
 31
0.0
  0
LINE
  5
CDA
330
1A
100
AcDbEntity
  8
ZUWAKU
100
AcDbLine
 10
68.51721251555386
 20
23.24999989434048
 30
0.0
 11
66.76721251555386
 21
23.24999989434048
 31
0.0
  0
ARC
  5
CDB
330
1A
100
AcDbEntity
  8
ZUWAKU
100
AcDbCircle
 10
66.76721251555386
 20
22.72499989434047
 30
0.0
 40
0.525
100
AcDbArc
 50
90.0
 51
180.0
  0
ARC
  5
CDC
330
1A
100
AcDbEntity
  8
ZUWAKU
100
AcDbCircle
 10
63.61721251555377
 20
22.72499989434047
 30
0.0
 40
0.525
100
AcDbArc
 50
0.0
 51
90.0
  0
LINE
  5
CDD
330
1A
100
AcDbEntity
  8
ZUWAKU
100
AcDbLine
 10
63.61721251555377
 20
23.24999989434048
 30
0.0
 11
61.86721251555377
 21
23.24999989434048
 31
0.0
  0
ARC
  5
CDE
330
1A
100
AcDbEntity
  8
ZUWAKU
100
AcDbCircle
 10
61.86721251555377
 20
22.72499989434047
 30
0.0
 40
0.525
100
AcDbArc
 50
90.0
 51
180.0
  0
ARC
  5
CDF
330
1A
100
AcDbEntity
  8
ZUWAKU
100
AcDbCircle
 10
68.51721251555386
 20
22.72499989434047
 30
0.0
 40
0.525
100
AcDbArc
 50
0.0
 51
90.0
  0
TEXT
  5
CE0
330
1A
100
AcDbEntity
  8
MOJI
100
AcDbText
 10
239.8272030416237
 20
3.204920951747897
 30
0.0
 40
5.599999999999999
  1
ＲＶ１０５－２．２
 41
0.9
  7
ｽﾀｲﾙ1
100
AcDbText
  0
TEXT
  5
CE1
330
1A
100
AcDbEntity
  8
MOJI
100
AcDbText
 10
239.8272030416237
 20
18.00492095174786
 30
0.0
 40
5.599999999999999
  1
亜鉛メッキ金具上打（吊）ストロング高強度金具
 41
0.9
  7
ｽﾀｲﾙ1
100
AcDbText
  0
LINE
  5
CE2
330
1A
100
AcDbEntity
  8
ZUWAKU
100
AcDbLine
 10
208.2466016508405
 20
29.99999989434047
 30
0.0
 11
208.2466016508405
 21
0.7999998943405445
 31
0.0
  0
LINE
  5
CE3
330
1A
100
AcDbEntity
  8
ZUWAKU
100
AcDbLine
 10
208.6466016508404
 20
29.99999989434047
 30
0.0
 11
208.6466016508406
 21
0.7999998943405445
 31
0.0
  0
LINE
  5
CE4
330
1A
100
AcDbEntity
  8
ZUWAKU
100
AcDbLine
 10
208.4466016508404
 20
29.99999989434047
 30
0.0
 11
208.4466016508406
 21
0.7999998943405445
 31
0.0
  0
TEXT
  5
CE5
330
1A
100
AcDbEntity
  8
ZUWAKU
100
AcDbText
 10
209.7240466730502
 20
9.655356432726094
 30
0.0
 40
4.0
  1
サイズ
 41
0.9
  7
ｽﾀｲﾙ1
100
AcDbText
  0
TEXT
  5
CE6
330
1A
100
AcDbEntity
  8
ZUWAKU
100
AcDbText
 10
209.7240466730499
 20
24.05535643272605
 30
0.0
 40
4.0
  1
品名
 41
0.9
  7
ｽﾀｲﾙ1
100
AcDbText
  0
LINE
  5
CE7
330
1A
100
AcDbEntity
  8
ZUWAKU
100
AcDbLine
 10
648.8172028709769
 20
15.1999998943405
 30
0.0
 11
697.2490109093139
 21
15.19999989434051
 31
0.0
  0
LINE
  5
CE8
330
1A
100
AcDbEntity
  8
ZUWAKU
100
AcDbLine
 10
648.8172028709771
 20
15.39999989434051
 30
0.0
 11
697.2490109093139
 21
15.39999989434051
 31
0.0
  0
LINE
  5
CE9
330
1A
100
AcDbEntity
  8
ZUWAKU
100
AcDbLine
 10
648.8172028709769
 20
15.59999989434051
 30
0.0
 11
697.2490109093139
 21
15.59999989434051
 31
0.0
  0
TEXT
  5
CEA
330
1A
100
AcDbEntity
  8
ZUWAKU
100
AcDbText
 10
658.203938048075
 20
18.00492095174786
 30
0.0
 40
5.599999999999999
  1
　　．　　．　　
 41
0.9
  7
ｽﾀｲﾙ1
100
AcDbText
  0
LINE
  5
CEB
330
1A
100
AcDbEntity
  8
ZUWAKU
100
AcDbLine
 10
505.1991798589135
 20
15.19999989434051
 30
0.0
 11
552.5269561268851
 21
15.19999989434051
 31
0.0
  0
LINE
  5
CEC
330
1A
100
AcDbEntity
  8
ZUWAKU
100
AcDbLine
 10
505.1991798589135
 20
15.39999989434051
 30
0.0
 11
552.5269561268851
 21
15.39999989434051
 31
0.0
  0
LINE
  5
CED
330
1A
100
AcDbEntity
  8
ZUWAKU
100
AcDbLine
 10
505.1991798589135
 20
15.59999989434051
 30
0.0
 11
552.5269561268851
 21
15.59999989434051
 31
0.0
  0
TEXT
  5
CEE
330
1A
100
AcDbEntity
  8
MOJI
100
AcDbText
 10
464.5946263640117
 20
11.94261761600046
 30
0.0
 40
5.599999999999999
  1
ＬＫ６２□
 41
0.9
  7
ｽﾀｲﾙ1
100
AcDbText
  0
LINE
  5
CEF
330
1A
100
AcDbEntity
  8
ZUWAKU
100
AcDbLine
 10
447.6243643317639
 20
29.99999989434047
 30
0.0
 11
447.6243643317641
 21
0.7999998943405445
 31
0.0
  0
LINE
  5
CF0
330
1A
100
AcDbEntity
  8
ZUWAKU
100
AcDbLine
 10
447.8243643317639
 20
29.99999989434047
 30
0.0
 11
447.8243643317641
 21
0.7999998943405445
 31
0.0
  0
LINE
  5
CF1
330
1A
100
AcDbEntity
  8
ZUWAKU
100
AcDbLine
 10
447.4243643317641
 20
29.99999989434047
 30
0.0
 11
447.4243643317641
 21
0.7999998943405445
 31
0.0
  0
TEXT
  5
CF2
330
1A
100
AcDbEntity
  8
MOJI
100
AcDbText
 10
528.0409083330855
 20
18.00492095174786
 30
0.0
 40
5.599999999999999
  1
Ａ３
 41
0.9
  7
ｽﾀｲﾙ1
100
AcDbText
  0
LINE
  5
CF3
330
1A
100
AcDbEntity
  8
ZUWAKU
100
AcDbLine
 10
504.9991798589135
 20
29.99999989434047
 30
0.0
 11
504.9991798589137
 21
0.7999998943405445
 31
0.0
  0
LINE
  5
CF4
330
1A
100
AcDbEntity
  8
ZUWAKU
100
AcDbLine
 10
505.1991798589135
 20
29.99999989434047
 30
0.0
 11
505.1991798589138
 21
0.7999998943405445
 31
0.0
  0
LINE
  5
CF5
330
1A
100
AcDbEntity
  8
ZUWAKU
100
AcDbLine
 10
504.7991798589136
 20
29.99999989434047
 30
0.0
 11
504.7991798589136
 21
0.7999998943405445
 31
0.0
  0
TEXT
  5
CF6
330
1A
100
AcDbEntity
  8
ZUWAKU
100
AcDbText
 10
506.6766248811234
 20
9.655356432726094
 30
0.0
 40
4.0
  1
縮尺
 41
0.9
  7
ｽﾀｲﾙ1
100
AcDbText
  0
TEXT
  5
CF7
330
1A
100
AcDbEntity
  8
MOJI
100
AcDbText
 10
528.0409083330855
 20
3.204920951747897
 30
0.0
 40
5.599999999999999
  1
１/２
 41
0.9
  7
ｽﾀｲﾙ1
100
AcDbText
  0
TEXT
  5
CF8
330
1A
100
AcDbEntity
  8
ZUWAKU
100
AcDbText
 10
449.3018093539736
 20
24.05535643272605
 30
0.0
 40
4.0
  1
品番
 41
0.9
  7
ｽﾀｲﾙ1
100
AcDbText
  0
TEXT
  5
CF9
330
1A
100
AcDbEntity
  8
ZUWAKU
100
AcDbText
 10
506.6766248811232
 20
24.05535643272605
 30
0.0
 40
4.0
  1
用紙
 41
0.9
  7
ｽﾀｲﾙ1
100
AcDbText
  0
LINE
  5
CFA
330
1A
100
AcDbEntity
  8
ZUWAKU
100
AcDbLine
 10
648.617202870977
 20
29.99999989434047
 30
0.0
 11
648.6172028709773
 21
0.7999998943405445
 31
0.0
  0
LINE
  5
CFB
330
1A
100
AcDbEntity
  8
ZUWAKU
100
AcDbLine
 10
648.8172028709771
 20
29.99999989434047
 30
0.0
 11
648.8172028709773
 21
0.7999998943405445
 31
0.0
  0
LINE
  5
CFC
330
1A
100
AcDbEntity
  8
ZUWAKU
100
AcDbLine
 10
648.4172028709772
 20
29.99999989434047
 30
0.0
 11
648.4172028709772
 21
0.7999998943405445
 31
0.0
  0
LINE
  5
CFD
330
1A
100
AcDbEntity
  8
ZUWAKU
100
AcDbLine
 10
552.7269561268849
 20
29.99999989434047
 30
0.0
 11
552.7269561268851
 21
0.7999998943405445
 31
0.0
  0
LINE
  5
CFE
330
1A
100
AcDbEntity
  8
ZUWAKU
100
AcDbLine
 10
552.926956126885
 20
29.99999989434047
 30
0.0
 11
552.9269561268852
 21
0.7999998943405445
 31
0.0
  0
LINE
  5
CFF
330
1A
100
AcDbEntity
  8
ZUWAKU
100
AcDbLine
 10
552.5269561268851
 20
29.99999989434047
 30
0.0
 11
552.5269561268851
 21
0.7999998943405445
 31
0.0
  0
TEXT
  5
D00
330
1A
100
AcDbEntity
  8
ZUWAKU
100
AcDbText
 10
650.2946478931867
 20
24.05535643272605
 30
0.0
 40
4.0
  1
DATE
 41
0.9
  7
ｽﾀｲﾙ1
100
AcDbText
  0
LINE
  5
D01
330
1A
100
AcDbEntity
  8
ZUWAKU
100
AcDbLine
 10
697.2490109093139
 20
29.99999989434047
 30
0.0
 11
697.2490109093139
 21
0.7999998943405445
 31
0.0
  0
LINE
  5
D02
330
1A
100
AcDbEntity
  8
ZUWAKU
100
AcDbLine
 10
697.449010909314
 20
29.99999989434047
 30
0.0
 11
697.449010909314
 21
0.7999998943405445
 31
0.0
  0
LINE
  5
D03
330
1A
100
AcDbEntity
  8
ZUWAKU
100
AcDbLine
 10
697.6490109093138
 20
29.99999989434047
 30
0.0
 11
697.649010909314
 21
0.7999998943405445
 31
0.0
  0
LINE
  5
D04
330
1A
100
AcDbEntity
  8
ZUWAKU
100
AcDbLine
 10
697.8490109093138
 20
29.99999989434047
 30
0.0
 11
697.849010909314
 21
0.7999998943405445
 31
0.0
  0
TEXT
  5
D05
330
1A
100
AcDbEntity
  8
ZUWAKU
100
AcDbText
 10
708.5280845530165
 20
17.55383923002727
 30
0.0
 40
6.0
  1
積水化学工業株式会社
 41
0.9
  7
ｽﾀｲﾙ1
100
AcDbText
  0
TEXT
  5
D06
330
1A
100
AcDbEntity
  8
ZUWAKU
100
AcDbText
 10
708.5280845530165
 20
6.648840208194542
 30
0.0
 40
6.0
  1
建材事業部
 41
0.9
  7
ｽﾀｲﾙ1
100
AcDbText
  0
TEXT
  5
D89
330
1A
100
AcDbEntity
  8
ZUWAKU
100
AcDbText
 10
462.6937620162798
 20
2.614070805479968
 30
0.0
 40
3.0
  1
□には色品番が入ります
 41
0.9
  7
ｽﾀｲﾙ1
100
AcDbText
  0
VIEWPORT
  5
22
330
17
100
AcDbEntity
 67
     1
  8
0
100
AcDbViewport
 10
313.6808219178082
 20
148.5
 30
0.0
 40
627.3616438356165
 41
297.0
 68
     2
 69
     1
1001
ACAD
1000
MVIEW
1002
{
1070
    16
1010
0.0
1020
0.0
1030
0.0
1010
0.0
1020
0.0
1030
1.0
1040
0.0
1040
297.0
1040
313.6808219178082
1040
148.5
1040
50.0
1040
0.0
1040
0.0
1070
     0
1070
   100
1070
     1
1070
     0
1070
     0
1070
     0
1070
     0
1070
     0
1040
0.0
1040
0.0
1040
0.0
1040
1.0
1040
1.0
1040
10.0
1040
10.0
1070
     0
1002
{
1002
}
1002
}
  0
VIEWPORT
  5
64
330
17
100
AcDbEntity
 67
     1
  8
VIEWPORT
100
AcDbViewport
 10
210.0
 20
148.5
 30
0.0
 40
420.0
 41
297.0
 68
     1
 69
     2
1001
ACAD
1000
MVIEW
1002
{
1070
    16
1010
0.0
1020
0.0
1030
0.0
1010
0.0
1020
0.0
1030
1.0
1040
0.0
1040
605.8799999999998
1040
420.0
1040
297.0
1040
50.0
1040
0.0
1040
0.0
1070
     0
1070
   100
1070
     1
1070
     0
1070
     0
1070
     0
1070
     0
1070
     0
1040
0.0
1040
0.0
1040
0.0
1040
10.0
1040
10.0
1040
0.0
1040
0.0
1070
     0
1002
{
1002
}
1002
}
  0
ENDSEC
  0
SECTION
  2
OBJECTS
  0
DICTIONARY
  5
C
330
0
100
AcDbDictionary
  3
ACAD_GROUP
350
D
  3
ACAD_LAYOUT
350
14C
  3
ACAD_MLINESTYLE
350
E
  3
ACAD_PLOTSETTINGS
350
14D
  3
ACAD_PLOTSTYLENAME
350
14A
  3
ACADDIM
350
71E
  3
ACDBHEADERROUNDTRIPXREC
350
D92
  0
DICTIONARY
  5
6BF
330
1A
100
AcDbDictionary
280
     1
  3
ACAD_LAYOUTSELFREF
360
DB4
  0
DICTIONARY
  5
6BD
330
17
100
AcDbDictionary
280
     1
  3
ACAD_LAYOUTSELFREF
360
DB3
  0
DICTIONARY
  5
D
102
{ACAD_REACTORS
330
C
102
}
330
C
100
AcDbDictionary
  0
DICTIONARY
  5
14C
102
{ACAD_REACTORS
330
C
102
}
330
C
100
AcDbDictionary
  0
DICTIONARY
  5
E
102
{ACAD_REACTORS
330
C
102
}
330
C
100
AcDbDictionary
  3
STANDARD
350
13
  0
DICTIONARY
  5
14D
102
{ACAD_REACTORS
330
C
102
}
330
C
100
AcDbDictionary
  0
ACDBDICTIONARYWDFLT
  5
14A
102
{ACAD_REACTORS
330
C
102
}
330
C
100
AcDbDictionary
281
     1
  3
Normal
350
14B
100
AcDbDictionaryWithDefault
340
14B
1001
ACAD
1000
TREAT_AS_HARD
1070
     0
1000
TREAT_AS_HARD
1070
     0
1000
TREAT_AS_HARD
1070
     0
1000
TREAT_AS_HARD
1070
     0
  0
XRECORD
  5
71E
102
{ACAD_REACTORS
330
C
102
}
330
C
100
AcDbXrecord
 90
   990106
  3

 60
     0
 61
     0
 62
     1
 63
     3
 64
     0
 65
     0
 66
     0
 67
     3
 68
     1
 69
     0
 70
     0
 71
     0
 72
     0
 40
0.0
170
     0
340
94E
  0
DICTIONARY
  5
D92
102
{ACAD_REACTORS
330
C
102
}
330
C
100
AcDbDictionary
  3
TSTACKALIGN
350
D93
  3
TSTACKSIZE
350
D94
  3
HYPERLINKBASE
350
D95
  3
STYLESHEET
350
D96
  3
LAYOUTDICT
350
D97
  3
PLOTSETDICT
350
D98
  3
PLOTSTYLNAMDICT
350
D99
  3
LWETCUNION
350
D9A
  3
INSUNITS
350
D9B
  3
CEPSNTYPE
350
D9C
  3
FINGERPRINTGUID
350
D9D
  3
VERSIONGUID
350
D9E
  3
PSVPSCALE
350
D9F
  3
DIMSTYLEDATA
350
DA0
  3
PUCSORTHOREF
350
DA1
  3
PUCSORTHOVIEW
350
DA2
  3
PUCSBASE
350
DA3
  3
PUCSORGTOP
350
DA4
  3
PUCSORGBOTTOM
350
DA5
  3
PUCSORGLEFT
350
DA6
  3
PUCSORGRIGHT
350
DA7
  3
PUCSORGFRONT
350
DA8
  3
PUCSORGBACK
350
DA9
  3
UCSORTHOREF
350
DAA
  3
UCSORTHOVIEW
350
DAB
  3
UCSBASE
350
DAC
  3
UCSORGTOP
350
DAD
  3
UCSORGBOTTOM
350
DAE
  3
UCSORGLEFT
350
DAF
  3
UCSORGRIGHT
350
DB0
  3
UCSORGFRONT
350
DB1
  3
UCSORGBACK
350
DB2
  0
XRECORD
  5
DB4
102
{ACAD_REACTORS
330
6BF
102
}
330
6BF
100
AcDbXrecord
340
1A
  0
XRECORD
  5
DB3
102
{ACAD_REACTORS
330
6BD
102
}
330
6BD
100
AcDbXrecord
340
17
  0
MLINESTYLE
  5
13
102
{ACAD_REACTORS
330
E
102
}
330
E
100
AcDbMlineStyle
  2
STANDARD
 70
     0
  3

 62
     0
 51
90.0
 52
90.0
 71
     2
 49
0.5
 62
   256
  6
BYLAYER
 49
-0.5
 62
   256
  6
BYLAYER
  0
ACDBPLACEHOLDER
  5
14B
102
{ACAD_REACTORS
330
14A
102
}
330
14A
100
AcDbPlaceHolder
280
     0
  0
XRECORD
  5
D93
102
{ACAD_REACTORS
330
D92
102
}
330
D92
100
AcDbXrecord
 90
        1
  0
XRECORD
  5
D94
102
{ACAD_REACTORS
330
D92
102
}
330
D92
100
AcDbXrecord
 90
       70
  0
XRECORD
  5
D95
102
{ACAD_REACTORS
330
D92
102
}
330
D92
100
AcDbXrecord
  1

  0
XRECORD
  5
D96
102
{ACAD_REACTORS
330
D92
102
}
330
D92
100
AcDbXrecord
  1
systemprinter.ctb
  0
XRECORD
  5
D97
102
{ACAD_REACTORS
330
D92
102
}
330
D92
100
AcDbXrecord
340
14C
  0
XRECORD
  5
D98
102
{ACAD_REACTORS
330
D92
102
}
330
D92
100
AcDbXrecord
340
14D
  0
XRECORD
  5
D99
102
{ACAD_REACTORS
330
D92
102
}
330
D92
100
AcDbXrecord
340
14A
  0
XRECORD
  5
D9A
102
{ACAD_REACTORS
330
D92
102
}
330
D92
100
AcDbXrecord
 90
    10781
  0
XRECORD
  5
D9B
102
{ACAD_REACTORS
330
D92
102
}
330
D92
100
AcDbXrecord
 90
        0
  0
XRECORD
  5
D9C
102
{ACAD_REACTORS
330
D92
102
}
330
D92
100
AcDbXrecord
 90
        0
  0
XRECORD
  5
D9D
102
{ACAD_REACTORS
330
D92
102
}
330
D92
100
AcDbXrecord
  1
{75772F4A-CE5A-11D3-932C-444553540000}
  0
XRECORD
  5
D9E
102
{ACAD_REACTORS
330
D92
102
}
330
D92
100
AcDbXrecord
  1
{8AD2DEF1-414B-4FEE-A79C-F5E3C6729261}
  0
XRECORD
  5
D9F
102
{ACAD_REACTORS
330
D92
102
}
330
D92
100
AcDbXrecord
 40
0.0
  0
XRECORD
  5
DA0
102
{ACAD_REACTORS
330
D92
102
}
330
D92
100
AcDbXrecord
1000
DSTYLE
1002
{
1070
   341
340
6D
1070
   343
340
6D
1070
   344
340
6D
1070
   371
 70
    -1
1070
   372
 70
    -1
1002
}
  0
XRECORD
  5
DA1
102
{ACAD_REACTORS
330
D92
102
}
330
D92
100
AcDbXrecord
340
0
  0
XRECORD
  5
DA2
102
{ACAD_REACTORS
330
D92
102
}
330
D92
100
AcDbXrecord
 70
     0
  0
XRECORD
  5
DA3
102
{ACAD_REACTORS
330
D92
102
}
330
D92
100
AcDbXrecord
340
0
  0
XRECORD
  5
DA4
102
{ACAD_REACTORS
330
D92
102
}
330
D92
100
AcDbXrecord
 10
0.0
 20
0.0
 30
0.0
  0
XRECORD
  5
DA5
102
{ACAD_REACTORS
330
D92
102
}
330
D92
100
AcDbXrecord
 10
0.0
 20
0.0
 30
0.0
  0
XRECORD
  5
DA6
102
{ACAD_REACTORS
330
D92
102
}
330
D92
100
AcDbXrecord
 10
0.0
 20
0.0
 30
0.0
  0
XRECORD
  5
DA7
102
{ACAD_REACTORS
330
D92
102
}
330
D92
100
AcDbXrecord
 10
0.0
 20
0.0
 30
0.0
  0
XRECORD
  5
DA8
102
{ACAD_REACTORS
330
D92
102
}
330
D92
100
AcDbXrecord
 10
0.0
 20
0.0
 30
0.0
  0
XRECORD
  5
DA9
102
{ACAD_REACTORS
330
D92
102
}
330
D92
100
AcDbXrecord
 10
0.0
 20
0.0
 30
0.0
  0
XRECORD
  5
DAA
102
{ACAD_REACTORS
330
D92
102
}
330
D92
100
AcDbXrecord
340
0
  0
XRECORD
  5
DAB
102
{ACAD_REACTORS
330
D92
102
}
330
D92
100
AcDbXrecord
 70
     0
  0
XRECORD
  5
DAC
102
{ACAD_REACTORS
330
D92
102
}
330
D92
100
AcDbXrecord
340
0
  0
XRECORD
  5
DAD
102
{ACAD_REACTORS
330
D92
102
}
330
D92
100
AcDbXrecord
 10
0.0
 20
0.0
 30
0.0
  0
XRECORD
  5
DAE
102
{ACAD_REACTORS
330
D92
102
}
330
D92
100
AcDbXrecord
 10
0.0
 20
0.0
 30
0.0
  0
XRECORD
  5
DAF
102
{ACAD_REACTORS
330
D92
102
}
330
D92
100
AcDbXrecord
 10
0.0
 20
0.0
 30
0.0
  0
XRECORD
  5
DB0
102
{ACAD_REACTORS
330
D92
102
}
330
D92
100
AcDbXrecord
 10
0.0
 20
0.0
 30
0.0
  0
XRECORD
  5
DB1
102
{ACAD_REACTORS
330
D92
102
}
330
D92
100
AcDbXrecord
 10
0.0
 20
0.0
 30
0.0
  0
XRECORD
  5
DB2
102
{ACAD_REACTORS
330
D92
102
}
330
D92
100
AcDbXrecord
 10
0.0
 20
0.0
 30
0.0
  0
ENDSEC
  0
EOF
