  0
SECTION
  2
HEADER
  9
$ACADVER
  1
AC1014
  9
$ACADMAINTVER
 70
     9
  9
$DWGCODEPAGE
  3
ANSI_932
  9
$INSBASE
 10
0.0
 20
0.0
 30
0.0
  9
$EXTMIN
 10
-0.0128164066901491
 20
-0.0090630292066862
 30
-0.0015258207003583
  9
$EXTMAX
 10
398.8000497812454
 20
275.8226172440017
 30
0.0000000349246037
  9
$LIMMIN
 10
0.0
 20
0.0
  9
$LIMMAX
 10
420.0
 20
297.0
  9
$ORTHOMODE
 70
     0
  9
$REGENMODE
 70
     1
  9
$FILLMODE
 70
     1
  9
$QTEXTMODE
 70
     0
  9
$MIRRTEXT
 70
     1
  9
$DRAGMODE
 70
     2
  9
$LTSCALE
 40
5.0
  9
$OSMODE
 70
    35
  9
$ATTMODE
 70
     1
  9
$TEXTSIZE
 40
4.0
  9
$TRACEWID
 40
1.0
  9
$TEXTSTYLE
  7
STANDARD
  9
$CLAYER
  8
SEIHIN
  9
$CELTYPE
  6
BYLAYER
  9
$CECOLOR
 62
   256
  9
$CELTSCALE
 40
1.0
  9
$DELOBJ
 70
     1
  9
$DISPSILH
 70
     0
  9
$DIMSCALE
 40
1.0
  9
$DIMASZ
 40
3.0
  9
$DIMEXO
 40
3.0
  9
$DIMDLI
 40
7.0
  9
$DIMRND
 40
0.0
  9
$DIMDLE
 40
0.0
  9
$DIMEXE
 40
1.5
  9
$DIMTP
 40
0.0
  9
$DIMTM
 40
0.0
  9
$DIMTXT
 40
3.0
  9
$DIMCEN
 40
3.0
  9
$DIMTSZ
 40
0.0
  9
$DIMTOL
 70
     0
  9
$DIMLIM
 70
     0
  9
$DIMTIH
 70
     0
  9
$DIMTOH
 70
     0
  9
$DIMSE1
 70
     0
  9
$DIMSE2
 70
     0
  9
$DIMTAD
 70
     3
  9
$DIMZIN
 70
     0
  9
$DIMBLK
  1

  9
$DIMASO
 70
     1
  9
$DIMSHO
 70
     1
  9
$DIMPOST
  1

  9
$DIMAPOST
  1

  9
$DIMALT
 70
     0
  9
$DIMALTD
 70
     2
  9
$DIMALTF
 40
25.4
  9
$DIMLFAC
 40
1.0
  9
$DIMTOFL
 70
     1
  9
$DIMTVP
 40
0.0
  9
$DIMTIX
 70
     0
  9
$DIMSOXD
 70
     0
  9
$DIMSAH
 70
     1
  9
$DIMBLK1
  1
OPEN
  9
$DIMBLK2
  1
OPEN
  9
$DIMSTYLE
  2
STANDARD
  9
$DIMCLRD
 70
   256
  9
$DIMCLRE
 70
   256
  9
$DIMCLRT
 70
   256
  9
$DIMTFAC
 40
1.0
  9
$DIMGAP
 40
1.0
  9
$DIMJUST
 70
     0
  9
$DIMSD1
 70
     0
  9
$DIMSD2
 70
     0
  9
$DIMTOLJ
 70
     1
  9
$DIMTZIN
 70
     0
  9
$DIMALTZ
 70
     0
  9
$DIMALTTZ
 70
     0
  9
$DIMFIT
 70
     3
  9
$DIMUPT
 70
     0
  9
$DIMUNIT
 70
     2
  9
$DIMDEC
 70
     0
  9
$DIMTDEC
 70
     0
  9
$DIMALTU
 70
     2
  9
$DIMALTTD
 70
     2
  9
$DIMTXSTY
  7
STANDARD
  9
$DIMAUNIT
 70
     0
  9
$LUNITS
 70
     2
  9
$LUPREC
 70
     4
  9
$SKETCHINC
 40
1.0
  9
$FILLETRAD
 40
10.0
  9
$AUNITS
 70
     0
  9
$AUPREC
 70
     0
  9
$MENU
  1
.
  9
$ELEVATION
 40
0.0
  9
$PELEVATION
 40
0.0
  9
$THICKNESS
 40
0.0
  9
$LIMCHECK
 70
     0
  9
$BLIPMODE
 70
     0
  9
$CHAMFERA
 40
10.0
  9
$CHAMFERB
 40
10.0
  9
$CHAMFERC
 40
20.0
  9
$CHAMFERD
 40
0.0
  9
$SKPOLY
 70
     0
  9
$TDCREATE
 40
2451569.441154629
  9
$TDUPDATE
 40
2453802.418326632
  9
$TDINDWG
 40
0.2821852431
  9
$TDUSRTIMER
 40
0.2821852431
  9
$USRTIMER
 70
     1
  9
$ANGBASE
 50
0.0
  9
$ANGDIR
 70
     0
  9
$PDMODE
 70
     0
  9
$PDSIZE
 40
0.0
  9
$PLINEWID
 40
0.0
  9
$COORDS
 70
     1
  9
$SPLFRAME
 70
     0
  9
$SPLINETYPE
 70
     6
  9
$SPLINESEGS
 70
     8
  9
$ATTDIA
 70
     0
  9
$ATTREQ
 70
     1
  9
$HANDLING
 70
 10241
  9
$HANDSEED
  5
26A4
  9
$SURFTAB1
 70
     6
  9
$SURFTAB2
 70
     6
  9
$SURFTYPE
 70
     6
  9
$SURFU
 70
     6
  9
$SURFV
 70
     6
  9
$UCSNAME
  2

  9
$UCSORG
 10
0.0
 20
0.0
 30
0.0
  9
$UCSXDIR
 10
1.0
 20
0.0
 30
0.0
  9
$UCSYDIR
 10
0.0
 20
1.0
 30
0.0
  9
$PUCSNAME
  2

  9
$PUCSORG
 10
0.0
 20
0.0
 30
0.0
  9
$PUCSXDIR
 10
1.0
 20
0.0
 30
0.0
  9
$PUCSYDIR
 10
0.0
 20
1.0
 30
0.0
  9
$USERI1
 70
     0
  9
$USERI2
 70
     0
  9
$USERI3
 70
     0
  9
$USERI4
 70
     0
  9
$USERI5
 70
     0
  9
$USERR1
 40
0.0
  9
$USERR2
 40
0.0
  9
$USERR3
 40
0.0
  9
$USERR4
 40
0.0
  9
$USERR5
 40
0.0
  9
$WORLDVIEW
 70
     1
  9
$SHADEDGE
 70
     3
  9
$SHADEDIF
 70
    70
  9
$TILEMODE
 70
     1
  9
$MAXACTVP
 70
    16
  9
$PINSBASE
 10
0.0
 20
0.0
 30
0.0
  9
$PLIMCHECK
 70
     0
  9
$PEXTMIN
 10
0.0
 20
0.0
 30
0.0
  9
$PEXTMAX
 10
420.0
 20
297.0
 30
0.0
  9
$PLIMMIN
 10
0.0
 20
0.0
  9
$PLIMMAX
 10
420.0
 20
297.0
  9
$UNITMODE
 70
     0
  9
$VISRETAIN
 70
     0
  9
$PLINEGEN
 70
     0
  9
$PSLTSCALE
 70
     1
  9
$TREEDEPTH
 70
  3020
  9
$PICKSTYLE
 70
     1
  9
$CMLSTYLE
  2
STANDARD
  9
$CMLJUST
 70
     0
  9
$CMLSCALE
 40
1.0
  9
$PROXYGRAPHICS
 70
     1
  9
$MEASUREMENT
 70
     0
  0
ENDSEC
  0
SECTION
  2
CLASSES
  0
CLASS
  1
ACDBDICTIONARYWDFLT
  2
AcDbDictionaryWithDefault
  3
AutoCAD 2000
 90
        0
280
     0
281
     0
  0
CLASS
  1
ACDBPLACEHOLDER
  2
AcDbPlaceHolder
  3
AutoCAD 2000
 90
        0
280
     0
281
     0
  0
CLASS
  1
LAYOUT
  2
AcDbLayout
  3
AutoCAD 2000
 90
        0
280
     0
281
     0
  0
CLASS
  1
LONG_TRANSACTION
  2
AcDbLongTransaction
  3
AutoCAD 2000
 90
        0
280
     0
281
     0
  0
CLASS
  1
LWPOLYLINE
  2
AcDbPolyline
  3
AutoCAD 2000
 90
        0
280
     0
281
     1
  0
CLASS
  1
HATCH
  2
AcDbHatch
  3
AutoCAD 2000
 90
        0
280
     0
281
     1
  0
CLASS
  1
XRECORD
  2
AcDbXrecord
  3
AutoCAD 2000
 90
        0
280
     0
281
     0
  0
CLASS
  1
LONG_TRANSACTION
  2
AcDbLongTransaction
  3
AutoCAD 2000
 90
        0
280
     0
281
     0
  0
CLASS
  1
LWPOLYLINE
  2
AcDbPolyline
  3
AutoCAD 2000
 90
        0
280
     0
281
     1
  0
CLASS
  1
HATCH
  2
AcDbHatch
  3
AutoCAD 2000
 90
        0
280
     0
281
     1
  0
CLASS
  1
XRECORD
  2
AcDbXrecord
  3
AutoCAD 2000
 90
        0
280
     0
281
     0
  0
CLASS
  1
LONG_TRANSACTION
  2
AcDbLongTransaction
  3
AutoCAD 2000
 90
        0
280
     0
281
     0
  0
CLASS
  1
LWPOLYLINE
  2
AcDbPolyline
  3
AutoCAD 2000
 90
        0
280
     0
281
     1
  0
CLASS
  1
HATCH
  2
AcDbHatch
  3
AutoCAD 2000
 90
        0
280
     0
281
     1
  0
CLASS
  1
XRECORD
  2
AcDbXrecord
  3
AutoCAD 2000
 90
        0
280
     0
281
     0
  0
CLASS
  1
LONG_TRANSACTION
  2
AcDbLongTransaction
  3
AutoCAD 2000
 90
        0
280
     0
281
     0
  0
CLASS
  1
LWPOLYLINE
  2
AcDbPolyline
  3
AutoCAD 2000
 90
        0
280
     0
281
     1
  0
CLASS
  1
HATCH
  2
AcDbHatch
  3
AutoCAD 2000
 90
        0
280
     0
281
     1
  0
CLASS
  1
XRECORD
  2
AcDbXrecord
  3
AutoCAD 2000
 90
        0
280
     0
281
     0
  0
CLASS
  1
LONG_TRANSACTION
  2
AcDbLongTransaction
  3
AutoCAD 2000
 90
        0
280
     0
281
     0
  0
CLASS
  1
LWPOLYLINE
  2
AcDbPolyline
  3
AutoCAD 2000
 90
        0
280
     0
281
     1
  0
CLASS
  1
HATCH
  2
AcDbHatch
  3
AutoCAD 2000
 90
        0
280
     0
281
     1
  0
CLASS
  1
XRECORD
  2
AcDbXrecord
  3
AutoCAD 2000
 90
        0
280
     0
281
     0
  0
CLASS
  1
LONG_TRANSACTION
  2
AcDbLongTransaction
  3
AutoCAD 2000
 90
        0
280
     0
281
     0
  0
CLASS
  1
LWPOLYLINE
  2
AcDbPolyline
  3
AutoCAD 2000
 90
        0
280
     0
281
     1
  0
CLASS
  1
HATCH
  2
AcDbHatch
  3
AutoCAD 2000
 90
        0
280
     0
281
     1
  0
CLASS
  1
XRECORD
  2
AcDbXrecord
  3
AutoCAD 2000
 90
        0
280
     0
281
     0
  0
CLASS
  1
LONG_TRANSACTION
  2
AcDbLongTransaction
  3
AutoCAD 2000
 90
        0
280
     0
281
     0
  0
CLASS
  1
LWPOLYLINE
  2
AcDbPolyline
  3
AutoCAD 2000
 90
        0
280
     0
281
     1
  0
CLASS
  1
HATCH
  2
AcDbHatch
  3
AutoCAD 2000
 90
        0
280
     0
281
     1
  0
CLASS
  1
XRECORD
  2
AcDbXrecord
  3
AutoCAD 2000
 90
        0
280
     0
281
     0
  0
CLASS
  1
LONG_TRANSACTION
  2
AcDbLongTransaction
  3
AutoCAD 2000
 90
        0
280
     0
281
     0
  0
CLASS
  1
LWPOLYLINE
  2
AcDbPolyline
  3
AutoCAD 2000
 90
        0
280
     0
281
     1
  0
CLASS
  1
HATCH
  2
AcDbHatch
  3
AutoCAD 2000
 90
        0
280
     0
281
     1
  0
CLASS
  1
XRECORD
  2
AcDbXrecord
  3
AutoCAD 2000
 90
        0
280
     0
281
     0
  0
CLASS
  1
LONG_TRANSACTION
  2
AcDbLongTransaction
  3
AutoCAD 2000
 90
        0
280
     0
281
     0
  0
CLASS
  1
LWPOLYLINE
  2
AcDbPolyline
  3
AutoCAD 2000
 90
        0
280
     0
281
     1
  0
CLASS
  1
HATCH
  2
AcDbHatch
  3
AutoCAD 2000
 90
        0
280
     0
281
     1
  0
CLASS
  1
XRECORD
  2
AcDbXrecord
  3
AutoCAD 2000
 90
        0
280
     0
281
     0
  0
CLASS
  1
LONG_TRANSACTION
  2
AcDbLongTransaction
  3
AutoCAD 2000
 90
        0
280
     0
281
     0
  0
CLASS
  1
LWPOLYLINE
  2
AcDbPolyline
  3
AutoCAD 2000
 90
        0
280
     0
281
     1
  0
CLASS
  1
HATCH
  2
AcDbHatch
  3
AutoCAD 2000
 90
        0
280
     0
281
     1
  0
CLASS
  1
XRECORD
  2
AcDbXrecord
  3
AutoCAD 2000
 90
        0
280
     0
281
     0
  0
CLASS
  1
LONG_TRANSACTION
  2
AcDbLongTransaction
  3
AutoCAD 2000
 90
        0
280
     0
281
     0
  0
CLASS
  1
LWPOLYLINE
  2
AcDbPolyline
  3
AutoCAD 2000
 90
        0
280
     0
281
     1
  0
CLASS
  1
HATCH
  2
AcDbHatch
  3
AutoCAD 2000
 90
        0
280
     0
281
     1
  0
CLASS
  1
XRECORD
  2
AcDbXrecord
  3
AutoCAD 2000
 90
        0
280
     0
281
     0
  0
ENDSEC
  0
SECTION
  2
TABLES
  0
TABLE
  2
VPORT
  5
8
330
0
100
AcDbSymbolTable
 70
     2
  0
VPORT
  5
2680
330
8
100
AcDbSymbolTableRecord
100
AcDbViewportTableRecord
  2
*ACTIVE
 70
     0
 10
0.0
 20
0.0
 11
1.0
 21
1.0
 12
213.5045430365597
 22
136.4190443713372
 13
0.0
 23
0.0
 14
5.0
 24
5.0
 15
0.0
 25
0.0
 16
0.0
 26
0.0
 36
1.0
 17
0.0
 27
0.0
 37
0.0
 40
314.3268519346051
 41
1.795454545454545
 42
50.0
 43
0.0
 44
0.0
 50
0.0
 51
0.0
 71
     0
 72
   100
 73
     1
 74
     0
 75
     0
 76
     0
 77
     0
 78
     0
  0
ENDTAB
  0
TABLE
  2
LTYPE
  5
5
330
0
100
AcDbSymbolTable
 70
     3
  0
LTYPE
  5
14
330
5
100
AcDbSymbolTableRecord
100
AcDbLinetypeTableRecord
  2
BYBLOCK
 70
     0
  3

 72
    65
 73
     0
 40
0.0
  0
LTYPE
  5
15
330
5
100
AcDbSymbolTableRecord
100
AcDbLinetypeTableRecord
  2
BYLAYER
 70
     0
  3

 72
    65
 73
     0
 40
0.0
  0
LTYPE
  5
16
330
5
100
AcDbSymbolTableRecord
100
AcDbLinetypeTableRecord
  2
CONTINUOUS
 70
     0
  3
Solid line
 72
    65
 73
     0
 40
0.0
  0
LTYPE
  5
120
330
5
100
AcDbSymbolTableRecord
100
AcDbLinetypeTableRecord
  2
CENTER
 70
     0
  3
____ _ ____ _ ____ _ ____ _ ____ _ ____ _ ____ 
 72
    65
 73
     4
 40
2.0
 49
1.25
 74
     0
 49
-0.25
 74
     0
 49
0.25
 74
     0
 49
-0.25
 74
     0
  0
LTYPE
  5
2305
330
5
100
AcDbSymbolTableRecord
100
AcDbLinetypeTableRecord
  2
PHANTOM
 70
     0
  3
______  __  __  ______  __  __  ______  __  __ 
 72
    65
 73
     6
 40
2.5
 49
1.25
 74
     0
 49
-0.25
 74
     0
 49
0.25
 74
     0
 49
-0.25
 74
     0
 49
0.25
 74
     0
 49
-0.25
 74
     0
  0
ENDTAB
  0
TABLE
  2
LAYER
  5
2
330
0
100
AcDbSymbolTable
 70
     9
  0
LAYER
  5
F
330
2
100
AcDbSymbolTableRecord
100
AcDbLayerTableRecord
  2
0
 70
     0
 62
     7
  6
CONTINUOUS
  0
LAYER
  5
62
330
2
100
AcDbSymbolTableRecord
100
AcDbLayerTableRecord
  2
VIEWPORT
 70
     0
 62
     7
  6
CONTINUOUS
  0
LAYER
  5
6B
330
2
100
AcDbSymbolTableRecord
100
AcDbLayerTableRecord
  2
ZUWAKU
 70
     0
 62
     7
  6
CONTINUOUS
  0
LAYER
  5
48C
330
2
100
AcDbSymbolTableRecord
100
AcDbLayerTableRecord
  2
DEFPOINTS
 70
     0
 62
     7
  6
CONTINUOUS
  0
LAYER
  5
629
330
2
100
AcDbSymbolTableRecord
100
AcDbLayerTableRecord
  2
SEIHIN
 70
     0
 62
     3
  6
CONTINUOUS
  0
LAYER
  5
62A
330
2
100
AcDbSymbolTableRecord
100
AcDbLayerTableRecord
  2
SUNPOU
 70
     0
 62
     4
  6
CONTINUOUS
  0
LAYER
  5
62B
330
2
100
AcDbSymbolTableRecord
100
AcDbLayerTableRecord
  2
CENTER_L
 70
     0
 62
     1
  6
CENTER
  0
LAYER
  5
2306
330
2
100
AcDbSymbolTableRecord
100
AcDbLayerTableRecord
  2
NOKITOI
 70
     0
 62
     8
  6
PHANTOM
  0
LAYER
  5
24A6
330
2
100
AcDbSymbolTableRecord
100
AcDbLayerTableRecord
  2
MOJI
 70
     0
 62
     2
  6
CONTINUOUS
  0
ENDTAB
  0
TABLE
  2
STYLE
  5
3
330
0
100
AcDbSymbolTable
 70
     2
  0
STYLE
  5
10
330
3
100
AcDbSymbolTableRecord
100
AcDbTextStyleTableRecord
  2
STANDARD
 70
     0
 40
0.0
 41
1.0
 50
0.0
 71
     0
 42
4.0
  3
TXT
  4
bigfont.shx
  0
STYLE
  5
24A7
330
3
100
AcDbSymbolTableRecord
100
AcDbTextStyleTableRecord
  2
ｽﾀｲﾙ1
 70
     0
 40
0.0
 41
1.0
 50
0.0
 71
     0
 42
2.5
  3
MS PGothic.ttf
  4

1001
ACAD
1000
MS PGothic
1071
    32818
  0
ENDTAB
  0
TABLE
  2
VIEW
  5
6
330
0
100
AcDbSymbolTable
 70
     0
  0
ENDTAB
  0
TABLE
  2
UCS
  5
7
330
0
100
AcDbSymbolTable
 70
     0
  0
ENDTAB
  0
TABLE
  2
APPID
  5
9
330
0
100
AcDbSymbolTable
 70
     1
  0
APPID
  5
11
330
9
100
AcDbSymbolTableRecord
100
AcDbRegAppTableRecord
  2
ACAD
 70
     0
  0
ENDTAB
  0
TABLE
  2
DIMSTYLE
  5
A
330
0
100
AcDbSymbolTable
 70
     1
  0
DIMSTYLE
105
1D
102
{ACAD_REACTORS
330
2248
330
2249
330
224B
330
224C
330
224D
330
2291
330
22AC
330
22B9
330
22BC
330
22C9
330
22F8
102
}
330
A
100
AcDbSymbolTableRecord
100
AcDbDimStyleTableRecord
  2
STANDARD
 70
     0
  3

  4

  5

  6

  7

 40
1.0
 41
0.18
 42
0.0625
 43
0.38
 44
0.18
 45
0.0
 46
0.0
 47
0.0
 48
0.0
140
0.18
141
0.09
142
0.0
143
25.4
144
1.0
145
0.0
146
1.0
147
0.09
 71
     0
 72
     0
 73
     1
 74
     1
 75
     0
 76
     0
 77
     0
 78
     0
170
     0
171
     2
172
     0
173
     0
174
     0
175
     0
176
     0
177
     0
178
     0
270
     2
271
     4
272
     4
273
     2
274
     2
340
10
275
     0
280
     0
281
     0
282
     0
283
     1
284
     0
285
     0
286
     0
287
     3
288
     0
  0
ENDTAB
  0
TABLE
  2
BLOCK_RECORD
  5
1
330
0
100
AcDbSymbolTable
 70
    12
  0
BLOCK_RECORD
  5
1A
102
{ACAD_XDICTIONARY
360
73C
102
}
330
1
100
AcDbSymbolTableRecord
100
AcDbBlockTableRecord
  2
*MODEL_SPACE
  0
BLOCK_RECORD
  5
17
102
{ACAD_XDICTIONARY
360
73A
102
}
330
1
100
AcDbSymbolTableRecord
100
AcDbBlockTableRecord
  2
*PAPER_SPACE
  0
BLOCK_RECORD
  5
B2
330
1
100
AcDbSymbolTableRecord
100
AcDbBlockTableRecord
  2
_OPEN
  0
BLOCK_RECORD
  5
224F
330
1
100
AcDbSymbolTableRecord
100
AcDbBlockTableRecord
  2
*D1
  0
BLOCK_RECORD
  5
225B
330
1
100
AcDbSymbolTableRecord
100
AcDbBlockTableRecord
  2
*D2
  0
BLOCK_RECORD
  5
2267
330
1
100
AcDbSymbolTableRecord
100
AcDbBlockTableRecord
  2
*D3
  0
BLOCK_RECORD
  5
2273
330
1
100
AcDbSymbolTableRecord
100
AcDbBlockTableRecord
  2
*D4
  0
BLOCK_RECORD
  5
2281
330
1
100
AcDbSymbolTableRecord
100
AcDbBlockTableRecord
  2
*D5
  0
BLOCK_RECORD
  5
2292
330
1
100
AcDbSymbolTableRecord
100
AcDbBlockTableRecord
  2
*D6
  0
BLOCK_RECORD
  5
229E
330
1
100
AcDbSymbolTableRecord
100
AcDbBlockTableRecord
  2
*D7
  0
BLOCK_RECORD
  5
22AD
330
1
100
AcDbSymbolTableRecord
100
AcDbBlockTableRecord
  2
*D8
  0
BLOCK_RECORD
  5
22BD
330
1
100
AcDbSymbolTableRecord
100
AcDbBlockTableRecord
  2
*D9
  0
BLOCK_RECORD
  5
22CA
330
1
100
AcDbSymbolTableRecord
100
AcDbBlockTableRecord
  2
*D10
  0
BLOCK_RECORD
  5
22F9
330
1
100
AcDbSymbolTableRecord
100
AcDbBlockTableRecord
  2
*D11
  0
ENDTAB
  0
ENDSEC
  0
SECTION
  2
BLOCKS
  0
BLOCK
  5
1B
330
1A
100
AcDbEntity
  8
0
100
AcDbBlockBegin
  2
*MODEL_SPACE
 70
     0
 10
0.0
 20
0.0
 30
0.0
  3
*MODEL_SPACE
  1

  0
ENDBLK
  5
1C
330
1A
100
AcDbEntity
  8
0
100
AcDbBlockEnd
  0
BLOCK
  5
18
330
17
100
AcDbEntity
 67
     1
  8
0
100
AcDbBlockBegin
  2
*PAPER_SPACE
 70
     0
 10
0.0
 20
0.0
 30
0.0
  3
*PAPER_SPACE
  1

  0
ENDBLK
  5
19
330
17
100
AcDbEntity
 67
     1
  8
0
100
AcDbBlockEnd
  0
BLOCK
  5
B3
330
B2
100
AcDbEntity
  8
0
100
AcDbBlockBegin
  2
_OPEN
 70
     0
 10
0.0
 20
0.0
 30
0.0
  3
_OPEN
  1

  0
LINE
  5
B4
330
B2
100
AcDbEntity
  8
0
  6
BYBLOCK
 62
     0
100
AcDbLine
 10
-1.0
 20
0.1666666666666666
 30
0.0
 11
0.0
 21
0.0
 31
0.0
  0
LINE
  5
B5
330
B2
100
AcDbEntity
  8
0
  6
BYBLOCK
 62
     0
100
AcDbLine
 10
0.0
 20
0.0
 30
0.0
 11
-1.0
 21
-0.1666666666666666
 31
0.0
  0
LINE
  5
B6
330
B2
100
AcDbEntity
  8
0
  6
BYBLOCK
 62
     0
100
AcDbLine
 10
0.0
 20
0.0
 30
0.0
 11
-1.0
 21
0.0
 31
0.0
  0
ENDBLK
  5
B7
330
B2
100
AcDbEntity
  8
0
100
AcDbBlockEnd
  0
BLOCK
  5
2250
330
224F
100
AcDbEntity
  8
0
100
AcDbBlockBegin
  2
*D1
 70
     1
 10
0.0
 20
0.0
 30
0.0
  3
*D1
  1

  0
LINE
  5
2668
330
224F
100
AcDbEntity
  8
SUNPOU
  6
CONTINUOUS
100
AcDbLine
 10
293.2015313767807
 20
94.48013308325872
 30
0.0
 11
293.2015313767807
 21
137.3238173193565
 31
0.0
  0
LINE
  5
2669
330
224F
100
AcDbEntity
  8
SUNPOU
  6
CONTINUOUS
100
AcDbLine
 10
336.2015313767808
 20
94.48013308325872
 30
0.0
 11
336.2015313767808
 21
137.3238173193565
 31
0.0
  0
LINE
  5
266A
330
224F
100
AcDbEntity
  8
SUNPOU
  6
CONTINUOUS
100
AcDbLine
 10
296.2015313767807
 20
135.8238173193565
 30
0.0
 11
333.2015313767807
 21
135.8238173193565
 31
0.0
  0
INSERT
  5
266B
330
224F
100
AcDbEntity
  8
SUNPOU
  6
CONTINUOUS
100
AcDbBlockReference
  2
_OPEN
 10
293.2015313767807
 20
135.8238173193565
 30
0.0
 41
3.0
 42
3.0
 43
3.0
 50
180.0
  0
INSERT
  5
266C
330
224F
100
AcDbEntity
  8
SUNPOU
  6
CONTINUOUS
100
AcDbBlockReference
  2
_OPEN
 10
336.2015313767808
 20
135.8238173193565
 30
0.0
 41
3.0
 42
3.0
 43
3.0
  0
MTEXT
  5
266D
330
224F
100
AcDbEntity
  8
SUNPOU
  6
CONTINUOUS
100
AcDbMText
 10
314.7015313767807
 20
138.3238173193565
 30
0.0
 40
3.0
 41
0.0
 71
     5
 72
     1
  1
\A1;43
1001
ACAD
1000
MTEXTBEGIN
1070
    73
1070
     1
1070
    44
1040
1.0
1070
    74
1070
     0
1000
MTEXTEND
  0
POINT
  5
266E
330
224F
100
AcDbEntity
  8
DEFPOINTS
  6
CONTINUOUS
 62
     0
100
AcDbPoint
 10
293.2015313767807
 20
91.48013308325872
 30
0.0
  0
POINT
  5
266F
330
224F
100
AcDbEntity
  8
DEFPOINTS
  6
CONTINUOUS
 62
     0
100
AcDbPoint
 10
336.2015313767808
 20
91.48013308325872
 30
0.0
  0
POINT
  5
2670
330
224F
100
AcDbEntity
  8
DEFPOINTS
  6
CONTINUOUS
 62
     0
100
AcDbPoint
 10
336.2015313767808
 20
135.8238173193565
 30
0.0
  0
ENDBLK
  5
225A
330
224F
100
AcDbEntity
  8
0
100
AcDbBlockEnd
  0
BLOCK
  5
225C
330
225B
100
AcDbEntity
  8
0
100
AcDbBlockBegin
  2
*D2
 70
     1
 10
0.0
 20
0.0
 30
0.0
  3
*D2
  1

  0
LINE
  5
2639
330
225B
100
AcDbEntity
  8
SUNPOU
  6
CONTINUOUS
100
AcDbLine
 10
284.2015313767808
 20
94.48013308325872
 30
0.0
 11
284.2015313767808
 21
151.3214037827529
 31
0.0
  0
LINE
  5
263A
330
225B
100
AcDbEntity
  8
SUNPOU
  6
CONTINUOUS
100
AcDbLine
 10
345.2015313767808
 20
94.4801331726587
 30
0.0
 11
345.2015313767808
 21
151.3214037827529
 31
0.0
  0
LINE
  5
263B
330
225B
100
AcDbEntity
  8
SUNPOU
  6
CONTINUOUS
100
AcDbLine
 10
287.2015313767807
 20
149.8214037827529
 30
0.0
 11
342.2015313767808
 21
149.8214037827529
 31
0.0
  0
INSERT
  5
263C
330
225B
100
AcDbEntity
  8
SUNPOU
  6
CONTINUOUS
100
AcDbBlockReference
  2
_OPEN
 10
284.2015313767808
 20
149.8214037827529
 30
0.0
 41
3.0
 42
3.0
 43
3.0
 50
180.0
  0
INSERT
  5
263D
330
225B
100
AcDbEntity
  8
SUNPOU
  6
CONTINUOUS
100
AcDbBlockReference
  2
_OPEN
 10
345.2015313767808
 20
149.8214037827529
 30
0.0
 41
3.0
 42
3.0
 43
3.0
  0
MTEXT
  5
263E
330
225B
100
AcDbEntity
  8
SUNPOU
  6
CONTINUOUS
100
AcDbMText
 10
314.7015313767807
 20
152.3214037827529
 30
0.0
 40
3.0
 41
0.0
 71
     5
 72
     1
  1
\A1;61
1001
ACAD
1000
MTEXTBEGIN
1070
    73
1070
     1
1070
    44
1040
1.0
1070
    74
1070
     0
1000
MTEXTEND
  0
POINT
  5
263F
330
225B
100
AcDbEntity
  8
DEFPOINTS
  6
CONTINUOUS
 62
     0
100
AcDbPoint
 10
284.2015313767808
 20
91.48013308325872
 30
0.0
  0
POINT
  5
2640
330
225B
100
AcDbEntity
  8
DEFPOINTS
  6
CONTINUOUS
 62
     0
100
AcDbPoint
 10
345.2015313767808
 20
91.48013317265869
 30
0.0
  0
POINT
  5
2641
330
225B
100
AcDbEntity
  8
DEFPOINTS
  6
CONTINUOUS
 62
     0
100
AcDbPoint
 10
345.2015313767808
 20
149.8214037827529
 30
0.0
  0
ENDBLK
  5
2266
330
225B
100
AcDbEntity
  8
0
100
AcDbBlockEnd
  0
BLOCK
  5
2268
330
2267
100
AcDbEntity
  8
0
100
AcDbBlockBegin
  2
*D3
 70
     1
 10
0.0
 20
0.0
 30
0.0
  3
*D3
  1

  0
LINE
  5
2642
330
2267
100
AcDbEntity
  8
SUNPOU
  6
CONTINUOUS
100
AcDbLine
 10
284.2015313767808
 20
94.48013308325867
 30
0.0
 11
266.1713054125578
 21
94.48013308325867
 31
0.0
  0
LINE
  5
2643
330
2267
100
AcDbEntity
  8
SUNPOU
  6
CONTINUOUS
100
AcDbLine
 10
284.2015313786292
 20
59.48013308325872
 30
0.0
 11
266.1713054125578
 21
59.48013308325872
 31
0.0
  0
LINE
  5
2644
330
2267
100
AcDbEntity
  8
SUNPOU
  6
CONTINUOUS
100
AcDbLine
 10
267.6713054125579
 20
91.48013308325866
 30
0.0
 11
267.6713054125579
 21
62.48013308325873
 31
0.0
  0
INSERT
  5
2645
330
2267
100
AcDbEntity
  8
SUNPOU
  6
CONTINUOUS
100
AcDbBlockReference
  2
_OPEN
 10
267.6713054125579
 20
94.48013308325867
 30
0.0
 41
3.0
 42
3.0
 43
3.0
 50
90.0
  0
INSERT
  5
2646
330
2267
100
AcDbEntity
  8
SUNPOU
  6
CONTINUOUS
100
AcDbBlockReference
  2
_OPEN
 10
267.6713054125579
 20
59.48013308325872
 30
0.0
 41
3.0
 42
3.0
 43
3.0
 50
270.0
  0
MTEXT
  5
2647
330
2267
100
AcDbEntity
  8
SUNPOU
  6
CONTINUOUS
100
AcDbMText
 10
265.1713054125579
 20
76.98013308325873
 30
0.0
 40
3.0
 41
0.0
 71
     5
 72
     1
  1
\A1;35
 11
0.0000000000000001
 21
1.0
 31
0.0
1001
ACAD
1000
MTEXTBEGIN
1070
    73
1070
     1
1070
    44
1040
1.0
1070
    74
1070
     0
1000
MTEXTEND
  0
POINT
  5
2648
330
2267
100
AcDbEntity
  8
DEFPOINTS
  6
CONTINUOUS
 62
     0
100
AcDbPoint
 10
287.2015313767807
 20
94.48013308325867
 30
0.0
  0
POINT
  5
2649
330
2267
100
AcDbEntity
  8
DEFPOINTS
  6
CONTINUOUS
 62
     0
100
AcDbPoint
 10
287.2015313786292
 20
59.48013308325872
 30
0.0
  0
POINT
  5
264A
330
2267
100
AcDbEntity
  8
DEFPOINTS
  6
CONTINUOUS
 62
     0
100
AcDbPoint
 10
267.6713054125579
 20
59.48013308325872
 30
0.0
  0
ENDBLK
  5
2272
330
2267
100
AcDbEntity
  8
0
100
AcDbBlockEnd
  0
BLOCK
  5
2274
330
2273
100
AcDbEntity
  8
0
100
AcDbBlockBegin
  2
*D4
 70
     1
 10
0.0
 20
0.0
 30
0.0
  3
*D4
  1

  0
LINE
  5
264B
330
2273
100
AcDbEntity
  8
SUNPOU
  6
CONTINUOUS
100
AcDbLine
 10
284.2015313767808
 20
94.48013308325867
 30
0.0
 11
275.0233751506631
 21
94.48013308325867
 31
0.0
  0
LINE
  5
264C
330
2273
100
AcDbEntity
  8
SUNPOU
  6
CONTINUOUS
100
AcDbLine
 10
285.2015313767807
 20
86.48013308325873
 30
0.0
 11
275.0233751506631
 21
86.48013308325873
 31
0.0
  0
LINE
  5
264D
330
2273
100
AcDbEntity
  8
SUNPOU
  6
CONTINUOUS
100
AcDbLine
 10
276.5233751506631
 20
97.48013308325866
 30
0.0
 11
276.5233751506631
 21
100.4801330832586
 31
0.0
  0
LINE
  5
264E
330
2273
100
AcDbEntity
  8
SUNPOU
  6
CONTINUOUS
100
AcDbLine
 10
276.5233751506631
 20
83.48013308325873
 30
0.0
 11
276.5233751506631
 21
80.48013308325874
 31
0.0
  0
LINE
  5
264F
330
2273
100
AcDbEntity
  8
SUNPOU
  6
CONTINUOUS
100
AcDbLine
 10
276.5233751506631
 20
94.48013308325867
 30
0.0
 11
276.5233751506631
 21
86.48013308325873
 31
0.0
  0
INSERT
  5
2650
330
2273
100
AcDbEntity
  8
SUNPOU
  6
CONTINUOUS
100
AcDbBlockReference
  2
_OPEN
 10
276.5233751506631
 20
94.48013308325867
 30
0.0
 41
3.0
 42
3.0
 43
3.0
 50
270.0
  0
INSERT
  5
2651
330
2273
100
AcDbEntity
  8
SUNPOU
  6
CONTINUOUS
100
AcDbBlockReference
  2
_OPEN
 10
276.5233751506631
 20
86.48013308325873
 30
0.0
 41
3.0
 42
3.0
 43
3.0
 50
90.0
  0
MTEXT
  5
2652
330
2273
100
AcDbEntity
  8
SUNPOU
  6
CONTINUOUS
100
AcDbMText
 10
274.0233751506631
 20
90.48013308325874
 30
0.0
 40
3.0
 41
0.0
 71
     5
 72
     1
  1
\A1;8
 11
0.0000000000000001
 21
1.0
 31
0.0
1001
ACAD
1000
MTEXTBEGIN
1070
    73
1070
     1
1070
    44
1040
1.0
1070
    74
1070
     0
1000
MTEXTEND
  0
POINT
  5
2653
330
2273
100
AcDbEntity
  8
DEFPOINTS
  6
CONTINUOUS
 62
     0
100
AcDbPoint
 10
287.2015313767807
 20
94.48013308325867
 30
0.0
  0
POINT
  5
2654
330
2273
100
AcDbEntity
  8
DEFPOINTS
  6
CONTINUOUS
 62
     0
100
AcDbPoint
 10
288.2015313767808
 20
86.48013308325872
 30
0.0
  0
POINT
  5
2655
330
2273
100
AcDbEntity
  8
DEFPOINTS
  6
CONTINUOUS
 62
     0
100
AcDbPoint
 10
276.5233751506631
 20
86.48013308325873
 30
0.0
  0
ENDBLK
  5
2280
330
2273
100
AcDbEntity
  8
0
100
AcDbBlockEnd
  0
BLOCK
  5
2282
330
2281
100
AcDbEntity
  8
0
100
AcDbBlockBegin
  2
*D5
 70
     1
 10
0.0
 20
0.0
 30
0.0
  3
*D5
  1

  0
LINE
  5
2656
330
2281
100
AcDbEntity
  8
SUNPOU
  6
CONTINUOUS
100
AcDbLine
 10
285.2015313767807
 20
67.48013308325873
 30
0.0
 11
275.0233751506631
 21
67.48013308325873
 31
0.0
  0
LINE
  5
2657
330
2281
100
AcDbEntity
  8
SUNPOU
  6
CONTINUOUS
100
AcDbLine
 10
284.2015313786292
 20
59.48013308325872
 30
0.0
 11
275.0233751506631
 21
59.48013308325872
 31
0.0
  0
LINE
  5
2658
330
2281
100
AcDbEntity
  8
SUNPOU
  6
CONTINUOUS
100
AcDbLine
 10
276.5233751506631
 20
64.48013308325873
 30
0.0
 11
276.5233751506631
 21
62.48013308325872
 31
0.0
  0
INSERT
  5
2659
330
2281
100
AcDbEntity
  8
SUNPOU
  6
CONTINUOUS
100
AcDbBlockReference
  2
_OPEN
 10
276.5233751506631
 20
67.48013308325873
 30
0.0
 41
3.0
 42
3.0
 43
3.0
 50
90.0
  0
INSERT
  5
265A
330
2281
100
AcDbEntity
  8
SUNPOU
  6
CONTINUOUS
100
AcDbBlockReference
  2
_OPEN
 10
276.5233751506631
 20
59.48013308325872
 30
0.0
 41
3.0
 42
3.0
 43
3.0
 50
270.0
  0
MTEXT
  5
265B
330
2281
100
AcDbEntity
  8
SUNPOU
  6
CONTINUOUS
100
AcDbMText
 10
274.0233751506631
 20
63.48013308325878
 30
0.0
 40
3.0
 41
0.0
 71
     5
 72
     1
  1
\A1;8
 11
0.0000000000000001
 21
1.0
 31
0.0
1001
ACAD
1000
MTEXTBEGIN
1070
    73
1070
     1
1070
    44
1040
1.0
1070
    74
1070
     0
1000
MTEXTEND
  0
POINT
  5
265C
330
2281
100
AcDbEntity
  8
DEFPOINTS
  6
CONTINUOUS
 62
     0
100
AcDbPoint
 10
288.2015313767808
 20
67.48013308325872
 30
0.0
  0
POINT
  5
265D
330
2281
100
AcDbEntity
  8
DEFPOINTS
  6
CONTINUOUS
 62
     0
100
AcDbPoint
 10
287.2015313786292
 20
59.48013308325872
 30
0.0
  0
POINT
  5
265E
330
2281
100
AcDbEntity
  8
DEFPOINTS
  6
CONTINUOUS
 62
     0
100
AcDbPoint
 10
276.5233751506631
 20
59.48013308325872
 30
0.0
  0
ENDBLK
  5
228E
330
2281
100
AcDbEntity
  8
0
100
AcDbBlockEnd
  0
BLOCK
  5
2293
330
2292
100
AcDbEntity
  8
0
100
AcDbBlockBegin
  2
*D6
 70
     1
 10
0.0
 20
0.0
 30
0.0
  3
*D6
  1

  0
LINE
  5
265F
330
2292
100
AcDbEntity
  8
SUNPOU
  6
CONTINUOUS
100
AcDbLine
 10
228.4400648405807
 20
94.48013308325867
 30
0.0
 11
240.4751732642168
 21
94.48013308325867
 31
0.0
  0
LINE
  5
2660
330
2292
100
AcDbEntity
  8
SUNPOU
  6
CONTINUOUS
100
AcDbLine
 10
228.4400648405807
 20
59.48013308325872
 30
0.0
 11
240.4751732642167
 21
59.48013308325871
 31
0.0
  0
LINE
  5
2661
330
2292
100
AcDbEntity
  8
SUNPOU
  6
CONTINUOUS
100
AcDbLine
 10
238.9751732642168
 20
91.48013308325866
 30
0.0
 11
238.9751732642168
 21
62.48013308325872
 31
0.0
  0
INSERT
  5
2662
330
2292
100
AcDbEntity
  8
SUNPOU
  6
CONTINUOUS
100
AcDbBlockReference
  2
_OPEN
 10
238.9751732642168
 20
94.48013308325867
 30
0.0
 41
3.0
 42
3.0
 43
3.0
 50
90.0
  0
INSERT
  5
2663
330
2292
100
AcDbEntity
  8
SUNPOU
  6
CONTINUOUS
100
AcDbBlockReference
  2
_OPEN
 10
238.9751732642168
 20
59.48013308325872
 30
0.0
 41
3.0
 42
3.0
 43
3.0
 50
270.0
  0
MTEXT
  5
2664
330
2292
100
AcDbEntity
  8
SUNPOU
  6
CONTINUOUS
100
AcDbMText
 10
236.4751732642168
 20
76.98013308325873
 30
0.0
 40
3.0
 41
0.0
 71
     5
 72
     1
  1
\A1;35
 11
0.0000000000000001
 21
1.0
 31
0.0
1001
ACAD
1000
MTEXTBEGIN
1070
    73
1070
     1
1070
    44
1040
1.0
1070
    74
1070
     0
1000
MTEXTEND
  0
POINT
  5
2665
330
2292
100
AcDbEntity
  8
DEFPOINTS
  6
CONTINUOUS
 62
     0
100
AcDbPoint
 10
225.4400648405808
 20
94.48013308325867
 30
0.0
  0
POINT
  5
2666
330
2292
100
AcDbEntity
  8
DEFPOINTS
  6
CONTINUOUS
 62
     0
100
AcDbPoint
 10
225.4400648405808
 20
59.48013308325872
 30
0.0
  0
POINT
  5
2667
330
2292
100
AcDbEntity
  8
DEFPOINTS
  6
CONTINUOUS
 62
     0
100
AcDbPoint
 10
238.9751732642168
 20
59.48013308325872
 30
0.0
  0
ENDBLK
  5
229D
330
2292
100
AcDbEntity
  8
0
100
AcDbBlockEnd
  0
BLOCK
  5
229F
330
229E
100
AcDbEntity
  8
0
100
AcDbBlockBegin
  2
*D7
 70
     1
 10
0.0
 20
0.0
 30
0.0
  3
*D7
  1

  0
LINE
  5
2627
330
229E
100
AcDbEntity
  8
SUNPOU
  6
CONTINUOUS
100
AcDbLine
 10
214.4400648405807
 20
123.5604275184585
 30
0.0
 11
214.4400648405807
 21
136.5012464059261
 31
0.0
  0
LINE
  5
2628
330
229E
100
AcDbEntity
  8
SUNPOU
  6
CONTINUOUS
100
AcDbLine
 10
225.4400648405808
 20
97.48013308325866
 30
0.0
 11
225.4400648405808
 21
136.5012464059261
 31
0.0
  0
LINE
  5
2629
330
229E
100
AcDbEntity
  8
SUNPOU
  6
CONTINUOUS
100
AcDbLine
 10
217.4400648405808
 20
135.0012464059261
 30
0.0
 11
222.4400648405807
 21
135.0012464059261
 31
0.0
  0
INSERT
  5
262A
330
229E
100
AcDbEntity
  8
SUNPOU
  6
CONTINUOUS
100
AcDbBlockReference
  2
_OPEN
 10
214.4400648405807
 20
135.0012464059261
 30
0.0
 41
3.0
 42
3.0
 43
3.0
 50
180.0
  0
INSERT
  5
262B
330
229E
100
AcDbEntity
  8
SUNPOU
  6
CONTINUOUS
100
AcDbBlockReference
  2
_OPEN
 10
225.4400648405808
 20
135.0012464059261
 30
0.0
 41
3.0
 42
3.0
 43
3.0
  0
MTEXT
  5
262C
330
229E
100
AcDbEntity
  8
SUNPOU
  6
CONTINUOUS
100
AcDbMText
 10
219.9400648405807
 20
137.5012464059261
 30
0.0
 40
3.0
 41
0.0
 71
     5
 72
     1
  1
\A1;11
1001
ACAD
1000
MTEXTBEGIN
1070
    73
1070
     1
1070
    44
1040
1.0
1070
    74
1070
     0
1000
MTEXTEND
  0
POINT
  5
262D
330
229E
100
AcDbEntity
  8
DEFPOINTS
  6
CONTINUOUS
 62
     0
100
AcDbPoint
 10
214.4400648405807
 20
120.5604275184585
 30
0.0
  0
POINT
  5
262E
330
229E
100
AcDbEntity
  8
DEFPOINTS
  6
CONTINUOUS
 62
     0
100
AcDbPoint
 10
225.4400648405808
 20
94.48013308325867
 30
0.0
  0
POINT
  5
262F
330
229E
100
AcDbEntity
  8
DEFPOINTS
  6
CONTINUOUS
 62
     0
100
AcDbPoint
 10
225.4400648405808
 20
135.0012464059261
 30
0.0
  0
ENDBLK
  5
22AB
330
229E
100
AcDbEntity
  8
0
100
AcDbBlockEnd
  0
BLOCK
  5
22AE
330
22AD
100
AcDbEntity
  8
0
100
AcDbBlockBegin
  2
*D8
 70
     1
 10
0.0
 20
0.0
 30
0.0
  3
*D8
  1

  0
LINE
  5
261E
330
22AD
100
AcDbEntity
  8
SUNPOU
  6
CONTINUOUS
100
AcDbLine
 10
225.4400648405808
 20
97.48013308325866
 30
0.0
 11
225.4400648405808
 21
150.4749447360151
 31
0.0
  0
LINE
  5
261F
330
22AD
100
AcDbEntity
  8
SUNPOU
  6
CONTINUOUS
100
AcDbLine
 10
84.82278996728087
 20
146.9272374353586
 30
0.0
 11
84.82278996728087
 21
147.4749447360151
 31
0.0
  0
LINE
  5
2620
330
22AD
100
AcDbEntity
  8
SUNPOU
  6
CONTINUOUS
100
AcDbLine
 10
222.4400648405807
 20
148.9749447360151
 30
0.0
 11
87.82278996728086
 21
148.9749447360151
 31
0.0
  0
INSERT
  5
2621
330
22AD
100
AcDbEntity
  8
SUNPOU
  6
CONTINUOUS
100
AcDbBlockReference
  2
_OPEN
 10
225.4400648405808
 20
148.9749447360151
 30
0.0
 41
3.0
 42
3.0
 43
3.0
  0
INSERT
  5
2622
330
22AD
100
AcDbEntity
  8
SUNPOU
  6
CONTINUOUS
100
AcDbBlockReference
  2
_OPEN
 10
84.82278996728087
 20
148.9749447360151
 30
0.0
 41
3.0
 42
3.0
 43
3.0
 50
180.0
  0
MTEXT
  5
2623
330
22AD
100
AcDbEntity
  8
SUNPOU
  6
CONTINUOUS
100
AcDbMText
 10
155.1314274039308
 20
151.4749447360151
 30
0.0
 40
3.0
 41
0.0
 71
     5
 72
     1
  1
\A1;141
1001
ACAD
1000
MTEXTBEGIN
1070
    73
1070
     1
1070
    44
1040
1.0
1070
    74
1070
     0
1000
MTEXTEND
  0
POINT
  5
2624
330
22AD
100
AcDbEntity
  8
DEFPOINTS
  6
CONTINUOUS
 62
     0
100
AcDbPoint
 10
225.4400648405808
 20
94.48013308325867
 30
0.0
  0
POINT
  5
2625
330
22AD
100
AcDbEntity
  8
DEFPOINTS
  6
CONTINUOUS
 62
     0
100
AcDbPoint
 10
84.82278996728087
 20
149.9272374353586
 30
0.0
  0
POINT
  5
2626
330
22AD
100
AcDbEntity
  8
DEFPOINTS
  6
CONTINUOUS
 62
     0
100
AcDbPoint
 10
84.82278996728087
 20
148.9749447360151
 30
0.0
  0
ENDBLK
  5
22B8
330
22AD
100
AcDbEntity
  8
0
100
AcDbBlockEnd
  0
BLOCK
  5
22BE
330
22BD
100
AcDbEntity
  8
0
100
AcDbBlockBegin
  2
*D9
 70
     1
 10
0.0
 20
0.0
 30
0.0
  3
*D9
  1

  0
LINE
  5
2671
330
22BD
100
AcDbEntity
  8
SUNPOU
  6
CONTINUOUS
100
AcDbLine
 10
231.4400648405807
 20
235.8569767171586
 30
0.0
 11
243.1667677887076
 21
235.8569767171586
 31
0.0
  0
LINE
  5
2672
330
22BD
100
AcDbEntity
  8
SUNPOU
  6
CONTINUOUS
100
AcDbLine
 10
231.4400648405807
 20
174.8569767171586
 30
0.0
 11
243.1667677887075
 21
174.8569767171586
 31
0.0
  0
LINE
  5
2673
330
22BD
100
AcDbEntity
  8
SUNPOU
  6
CONTINUOUS
100
AcDbLine
 10
241.6667677887076
 20
232.8569767171586
 30
0.0
 11
241.6667677887075
 21
177.8569767171586
 31
0.0
  0
INSERT
  5
2674
330
22BD
100
AcDbEntity
  8
SUNPOU
  6
CONTINUOUS
100
AcDbBlockReference
  2
_OPEN
 10
241.6667677887076
 20
235.8569767171586
 30
0.0
 41
3.0
 42
3.0
 43
3.0
 50
90.0
  0
INSERT
  5
2675
330
22BD
100
AcDbEntity
  8
SUNPOU
  6
CONTINUOUS
100
AcDbBlockReference
  2
_OPEN
 10
241.6667677887075
 20
174.8569767171586
 30
0.0
 41
3.0
 42
3.0
 43
3.0
 50
270.0
  0
MTEXT
  5
2676
330
22BD
100
AcDbEntity
  8
SUNPOU
  6
CONTINUOUS
100
AcDbMText
 10
239.1667677887075
 20
205.3569767171587
 30
0.0
 40
3.0
 41
0.0
 71
     5
 72
     1
  1
\A1;61
 11
0.0000000000000001
 21
1.0
 31
0.0
1001
ACAD
1000
MTEXTBEGIN
1070
    73
1070
     1
1070
    44
1040
1.0
1070
    74
1070
     0
1000
MTEXTEND
  0
POINT
  5
2677
330
22BD
100
AcDbEntity
  8
DEFPOINTS
  6
CONTINUOUS
 62
     0
100
AcDbPoint
 10
228.4400648405807
 20
235.8569767171586
 30
0.0
  0
POINT
  5
2678
330
22BD
100
AcDbEntity
  8
DEFPOINTS
  6
CONTINUOUS
 62
     0
100
AcDbPoint
 10
228.4400648405807
 20
174.8569767171586
 30
0.0
  0
POINT
  5
2679
330
22BD
100
AcDbEntity
  8
DEFPOINTS
  6
CONTINUOUS
 62
     0
100
AcDbPoint
 10
241.6667677887075
 20
174.8569767171586
 30
0.0
  0
ENDBLK
  5
22C8
330
22BD
100
AcDbEntity
  8
0
100
AcDbBlockEnd
  0
BLOCK
  5
22CB
330
22CA
100
AcDbEntity
  8
0
100
AcDbBlockBegin
  2
*D10
 70
     1
 10
0.0
 20
0.0
 30
0.0
  3
*D10
  1

  0
LINE
  5
2630
330
22CA
100
AcDbEntity
  8
SUNPOU
  6
CONTINUOUS
100
AcDbLine
 10
82.22278996728084
 20
215.3569767171586
 30
0.0
 11
69.4738983655808
 21
215.3569767171586
 31
0.0
  0
LINE
  5
2631
330
22CA
100
AcDbEntity
  8
SUNPOU
  6
CONTINUOUS
100
AcDbLine
 10
82.22278996728084
 20
195.3569767171586
 30
0.0
 11
69.4738983655808
 21
195.3569767171586
 31
0.0
  0
LINE
  5
2632
330
22CA
100
AcDbEntity
  8
SUNPOU
  6
CONTINUOUS
100
AcDbLine
 10
70.97389836558081
 20
212.3569767171586
 30
0.0
 11
70.97389836558081
 21
198.3569767171586
 31
0.0
  0
INSERT
  5
2633
330
22CA
100
AcDbEntity
  8
SUNPOU
  6
CONTINUOUS
100
AcDbBlockReference
  2
_OPEN
 10
70.97389836558081
 20
215.3569767171586
 30
0.0
 41
3.0
 42
3.0
 43
3.0
 50
90.0
  0
INSERT
  5
2634
330
22CA
100
AcDbEntity
  8
SUNPOU
  6
CONTINUOUS
100
AcDbBlockReference
  2
_OPEN
 10
70.97389836558081
 20
195.3569767171586
 30
0.0
 41
3.0
 42
3.0
 43
3.0
 50
270.0
  0
MTEXT
  5
2635
330
22CA
100
AcDbEntity
  8
SUNPOU
  6
CONTINUOUS
100
AcDbMText
 10
68.47389836558078
 20
205.3569767171587
 30
0.0
 40
3.0
 41
0.0
 71
     5
 72
     1
  1
\A1;20
 11
0.0000000000000001
 21
1.0
 31
0.0
1001
ACAD
1000
MTEXTBEGIN
1070
    73
1070
     1
1070
    44
1040
1.0
1070
    74
1070
     0
1000
MTEXTEND
  0
POINT
  5
2636
330
22CA
100
AcDbEntity
  8
DEFPOINTS
  6
CONTINUOUS
 62
     0
100
AcDbPoint
 10
85.22278996728083
 20
215.3569767171586
 30
0.0
  0
POINT
  5
2637
330
22CA
100
AcDbEntity
  8
DEFPOINTS
  6
CONTINUOUS
 62
     0
100
AcDbPoint
 10
85.22278996728083
 20
195.3569767171586
 30
0.0
  0
POINT
  5
2638
330
22CA
100
AcDbEntity
  8
DEFPOINTS
  6
CONTINUOUS
 62
     0
100
AcDbPoint
 10
70.97389836558081
 20
195.3569767171586
 30
0.0
  0
ENDBLK
  5
22D5
330
22CA
100
AcDbEntity
  8
0
100
AcDbBlockEnd
  0
BLOCK
  5
2303
330
22F9
100
AcDbEntity
  8
0
100
AcDbBlockBegin
  2
*D11
 70
     1
 10
0.0
 20
0.0
 30
0.0
  3
*D11
  1

  0
LINE
  5
2615
330
22F9
100
AcDbEntity
  8
SUNPOU
100
AcDbLine
 10
82.22278996728084
 20
121.3877870720586
 30
0.0
 11
60.09251284566108
 21
121.3877870720586
 31
0.0
  0
LINE
  5
2616
330
22F9
100
AcDbEntity
  8
SUNPOU
100
AcDbLine
 10
215.8400648405808
 20
59.48013308325872
 30
0.0
 11
60.09251284566106
 21
59.48013308325876
 31
0.0
  0
LINE
  5
2617
330
22F9
100
AcDbEntity
  8
SUNPOU
100
AcDbLine
 10
61.59251284566108
 20
118.3877870720586
 30
0.0
 11
61.59251284566106
 21
62.48013308325877
 31
0.0
  0
INSERT
  5
2618
330
22F9
100
AcDbEntity
  8
SUNPOU
100
AcDbBlockReference
  2
_OPEN
 10
61.59251284566108
 20
121.3877870720586
 30
0.0
 41
3.0
 42
3.0
 43
3.0
 50
90.0
  0
INSERT
  5
2619
330
22F9
100
AcDbEntity
  8
SUNPOU
100
AcDbBlockReference
  2
_OPEN
 10
61.59251284566106
 20
59.48013308325876
 30
0.0
 41
3.0
 42
3.0
 43
3.0
 50
270.0
  0
MTEXT
  5
261A
330
22F9
100
AcDbEntity
  8
SUNPOU
100
AcDbMText
 10
59.09251284566106
 20
90.43396007765872
 30
0.0
 40
3.0
 41
0.0
 71
     5
 72
     1
  1
\A1;62
 11
0.0000000000000001
 21
1.0
 31
0.0
1001
ACAD
1000
MTEXTBEGIN
1070
    73
1070
     1
1070
    44
1040
1.0
1070
    74
1070
     0
1000
MTEXTEND
  0
POINT
  5
261B
330
22F9
100
AcDbEntity
  8
DEFPOINTS
 62
     0
100
AcDbPoint
 10
85.22278996728083
 20
121.3877870720586
 30
0.0
  0
POINT
  5
261C
330
22F9
100
AcDbEntity
  8
DEFPOINTS
 62
     0
100
AcDbPoint
 10
218.8400648405809
 20
59.48013308325872
 30
0.0
  0
POINT
  5
261D
330
22F9
100
AcDbEntity
  8
DEFPOINTS
 62
     0
100
AcDbPoint
 10
61.59251284566106
 20
59.48013308325876
 30
0.0
  0
ENDBLK
  5
2304
330
22F9
100
AcDbEntity
  8
0
100
AcDbBlockEnd
  0
ENDSEC
  0
SECTION
  2
ENTITIES
  0
LINE
  5
21B1
330
1A
100
AcDbEntity
  8
SEIHIN
  6
CONTINUOUS
 62
     3
100
AcDbLine
 10
84.82278996728087
 20
149.9272374353586
 30
0.0
 11
85.22278996728084
 21
149.9272374353586
 31
0.0
  0
LINE
  5
21B2
330
1A
100
AcDbEntity
  8
SEIHIN
  6
CONTINUOUS
 62
     3
100
AcDbLine
 10
84.82278996728087
 20
107.6340059999586
 30
0.0
 11
84.82278996728087
 21
149.9272374353586
 31
0.0
  0
LINE
  5
21B3
330
1A
100
AcDbEntity
  8
SEIHIN
  6
CONTINUOUS
 62
     3
100
AcDbLine
 10
85.22278996728084
 20
121.3877870720586
 30
0.0
 11
85.22278996728084
 21
149.9272374353586
 31
0.0
  0
LINE
  5
21B4
330
1A
100
AcDbEntity
  8
SEIHIN
  6
CONTINUOUS
 62
     3
100
AcDbLine
 10
328.2015313767808
 20
84.48013308325872
 30
0.0
 11
328.2015313767808
 21
69.48013308325872
 31
0.0
  0
LINE
  5
21B5
330
1A
100
AcDbEntity
  8
SEIHIN
  6
CONTINUOUS
 62
     3
100
AcDbLine
 10
325.2015313767807
 20
65.48013308325874
 30
0.0
 11
329.7015313767808
 21
65.48013308325874
 31
0.0
  0
LINE
  5
21B6
330
1A
100
AcDbEntity
  8
SEIHIN
  6
CONTINUOUS
 62
     3
100
AcDbLine
 10
325.2015313767807
 20
84.48013308325872
 30
0.0
 11
329.7015313767808
 21
84.48013308325872
 31
0.0
  0
ARC
  5
21B7
330
1A
100
AcDbEntity
  8
SEIHIN
  6
CONTINUOUS
 62
     3
100
AcDbCircle
 10
342.2015313767808
 20
91.4801330832587
 30
0.0
 40
3.0
100
AcDbArc
 50
0.0000017075
 51
90.0000000118
  0
CIRCLE
  5
21B8
330
1A
100
AcDbEntity
  8
SEIHIN
  6
CONTINUOUS
 62
     3
100
AcDbCircle
 10
336.2015313767808
 20
67.48013308325872
 30
0.0
 40
2.1
  0
ARC
  5
21B9
330
1A
100
AcDbEntity
  8
SEIHIN
  6
CONTINUOUS
 62
     3
100
AcDbCircle
 10
342.2015313767808
 20
62.48013308325872
 30
0.0
 40
3.0
100
AcDbArc
 50
270.0000000353
 51
0.0000050269
  0
LINE
  5
21BA
330
1A
100
AcDbEntity
  8
SEIHIN
  6
CONTINUOUS
 62
     3
100
AcDbLine
 10
345.2015313767808
 20
91.48013317265869
 30
0.0
 11
345.2015313767808
 21
62.4801333464587
 31
0.0
  0
CIRCLE
  5
21BB
330
1A
100
AcDbEntity
  8
SEIHIN
  6
CONTINUOUS
 62
     3
100
AcDbCircle
 10
336.2015313767808
 20
86.48013308325872
 30
0.0
 40
2.1
  0
LINE
  5
21BC
330
1A
100
AcDbEntity
  8
SEIHIN
  6
CONTINUOUS
 62
     3
100
AcDbLine
 10
287.2015313767807
 20
59.48013308325872
 30
0.0
 11
342.2015313767808
 21
59.48013308325872
 31
0.0
  0
LINE
  5
21BD
330
1A
100
AcDbEntity
  8
SEIHIN
  6
CONTINUOUS
 62
     3
100
AcDbLine
 10
324.7015313767807
 20
94.48013308325867
 30
0.0
 11
342.2015313767808
 21
94.48013308325867
 31
0.0
  0
LINE
  5
21BE
330
1A
100
AcDbEntity
  8
SEIHIN
  6
CONTINUOUS
 62
     3
100
AcDbLine
 10
325.2015313767807
 20
69.48013308325872
 30
0.0
 11
329.7015313767808
 21
69.48013308325872
 31
0.0
  0
LINE
  5
21BF
330
1A
100
AcDbEntity
  8
SEIHIN
  6
CONTINUOUS
 62
     3
100
AcDbLine
 10
328.2015313767808
 20
65.48013308325874
 30
0.0
 11
328.2015313767808
 21
59.48013308325872
 31
0.0
  0
LINE
  5
21C0
330
1A
100
AcDbEntity
  8
SEIHIN
  6
CONTINUOUS
 62
     3
100
AcDbLine
 10
329.7015313767808
 20
65.48013308325874
 30
0.0
 11
329.7015313767808
 21
69.48013308325872
 31
0.0
  0
LINE
  5
21C1
330
1A
100
AcDbEntity
  8
SEIHIN
  6
CONTINUOUS
 62
     3
100
AcDbLine
 10
329.7015313767808
 20
84.48013308325872
 30
0.0
 11
329.7015313767808
 21
88.48013308325873
 31
0.0
  0
LINE
  5
21C2
330
1A
100
AcDbEntity
  8
SEIHIN
  6
CONTINUOUS
 62
     3
100
AcDbLine
 10
325.2015313767807
 20
88.48013308325873
 30
0.0
 11
329.7015313767808
 21
88.48013308325873
 31
0.0
  0
LINE
  5
21C3
330
1A
100
AcDbEntity
  8
SEIHIN
  6
CONTINUOUS
 62
     3
100
AcDbLine
 10
328.2015313767808
 20
94.48013308325867
 30
0.0
 11
328.2015313767808
 21
88.48013308325873
 31
0.0
  0
LINE
  5
21C4
330
1A
100
AcDbEntity
  8
SEIHIN
  6
CONTINUOUS
 62
     3
100
AcDbLine
 10
304.2015313767807
 20
65.48013308325874
 30
0.0
 11
299.7015313767807
 21
65.48013308325874
 31
0.0
  0
LINE
  5
21C5
330
1A
100
AcDbEntity
  8
SEIHIN
  6
CONTINUOUS
 62
     3
100
AcDbLine
 10
201.8651408395808
 20
99.02102649805867
 30
0.0
 11
200.3605633497809
 21
86.76722619325872
 31
0.0
  0
ARC
  5
21C6
330
1A
100
AcDbEntity
  8
SEIHIN
  6
CONTINUOUS
 62
     3
100
AcDbCircle
 10
198.3706842234809
 20
78.77043244725868
 30
0.0
 40
1.0
100
AcDbArc
 50
90.0000000118
 51
143.8742014336999
  0
ARC
  5
21C7
330
1A
100
AcDbEntity
  8
SEIHIN
  6
CONTINUOUS
 62
     3
100
AcDbCircle
 10
158.3883095622809
 20
107.9536664974586
 30
0.0
 40
48.5000144765
100
AcDbArc
 50
281.6548006464
 51
323.8742014572
  0
ARC
  5
21C8
330
1A
100
AcDbEntity
  8
SEIHIN
  6
CONTINUOUS
 62
     3
100
AcDbCircle
 10
91.72278996728085
 20
104.9536520210586
 30
0.0
 40
2.0
100
AcDbArc
 50
180.0000000234999
 51
270.0000000353
  0
LINE
  5
21C9
330
1A
100
AcDbEntity
  8
SEIHIN
  6
CONTINUOUS
 62
     3
100
AcDbLine
 10
94.14295998348086
 20
96.65266358015868
 30
0.0
 11
96.67102976728086
 21
71.3724944797587
 31
0.0
  0
LINE
  5
21CA
330
1A
100
AcDbEntity
  8
SEIHIN
  6
CONTINUOUS
 62
     3
100
AcDbLine
 10
91.72278996728085
 20
98.45365202105867
 30
0.0
 11
92.15288601518091
 21
98.45365202105867
 31
0.0
  0
LINE
  5
21CB
330
1A
100
AcDbEntity
  8
SEIHIN
  6
CONTINUOUS
 62
     3
100
AcDbLine
 10
307.2015313767808
 20
124.4034977874586
 30
0.0
 11
322.2015313767808
 21
124.4034977874586
 31
0.0
  0
LINE
  5
21CC
330
1A
100
AcDbEntity
  8
SEIHIN
  6
CONTINUOUS
 62
     3
100
AcDbLine
 10
301.2015313767808
 20
94.48013308325867
 30
0.0
 11
301.2015313767808
 21
88.48013308325873
 31
0.0
  0
LINE
  5
21CD
330
1A
100
AcDbEntity
  8
SEIHIN
  6
CONTINUOUS
 62
     3
100
AcDbLine
 10
223.8400648405808
 20
94.48013308325867
 30
0.0
 11
223.8400648405808
 21
59.48013308325872
 31
0.0
  0
LINE
  5
21CE
330
1A
100
AcDbEntity
  8
SEIHIN
  6
CONTINUOUS
 62
     3
100
AcDbLine
 10
224.9400648405807
 20
95.67191937955866
 30
0.0
 11
224.9400648405807
 21
94.48013308325867
 31
0.0
  0
LINE
  5
21CF
330
1A
100
AcDbEntity
  8
SEIHIN
  6
CONTINUOUS
 62
     3
100
AcDbLine
 10
201.1169132272807
 20
121.9746410807586
 30
0.0
 11
196.9530451629807
 21
117.8107730165586
 31
0.0
  0
LINE
  5
21D0
330
1A
100
AcDbEntity
  8
SEIHIN
  6
CONTINUOUS
 62
     3
100
AcDbLine
 10
198.3706842234809
 20
84.27043244725869
 30
0.0
 11
200.7812860821809
 21
84.27043244725869
 31
0.0
  0
LINE
  5
21D1
330
1A
100
AcDbEntity
  8
SEIHIN
  6
CONTINUOUS
 62
     3
100
AcDbLine
 10
89.72278996728084
 20
104.9536520210586
 30
0.0
 11
89.72278996728084
 21
121.3877870720586
 31
0.0
  0
LINE
  5
21D2
330
1A
100
AcDbEntity
  8
SEIHIN
  6
CONTINUOUS
 62
     3
100
AcDbLine
 10
111.6226409588808
 20
64.95354770185866
 30
0.0
 11
167.7157861153809
 21
64.95367283365869
 31
0.0
  0
ARC
  5
21D3
330
1A
100
AcDbEntity
  8
SEIHIN
  6
CONTINUOUS
 62
     3
100
AcDbCircle
 10
198.3706842234809
 20
78.77043244725868
 30
0.0
 40
5.5
100
AcDbArc
 50
90.00000001169999
 51
143.8741928299
  0
ARC
  5
21D4
330
1A
100
AcDbEntity
  8
SEIHIN
  6
CONTINUOUS
 62
     3
100
AcDbCircle
 10
200.7812860821809
 20
85.27043244725868
 30
0.0
 40
5.5
100
AcDbArc
 50
270.0000000353
 51
353.0000000461
  0
LINE
  5
21D5
330
1A
100
AcDbEntity
  8
SEIHIN
  6
CONTINUOUS
 62
     3
100
AcDbLine
 10
91.72278996728085
 20
102.9536520210586
 30
0.0
 11
92.15288601518091
 21
102.9536520210586
 31
0.0
  0
LINE
  5
21D6
330
1A
100
AcDbEntity
  8
SEIHIN
  6
CONTINUOUS
 62
     3
100
AcDbLine
 10
98.62062641218086
 20
97.10043958805867
 30
0.0
 11
100.9632229421808
 21
73.67496423475867
 31
0.0
  0
LINE
  5
21D7
330
1A
100
AcDbEntity
  8
SEIHIN
  6
CONTINUOUS
 62
     3
100
AcDbLine
 10
89.72278996728084
 20
121.3877870720586
 30
0.0
 11
85.22278996728084
 21
121.3877870720586
 31
0.0
  0
LINE
  5
21D8
330
1A
100
AcDbEntity
  8
SEIHIN
  6
CONTINUOUS
 62
     3
100
AcDbLine
 10
322.2015313767808
 20
102.0202210657586
 30
0.0
 11
322.2015313767808
 21
124.4034977874586
 31
0.0
  0
ARC
  5
21D9
330
1A
100
AcDbEntity
  8
SEIHIN
  6
CONTINUOUS
 62
     3
100
AcDbCircle
 10
212.4400648405807
 20
120.5604275184585
 30
0.0
 40
3.6
100
AcDbArc
 50
0.0
 51
90.0000000118
  0
LINE
  5
21DA
330
1A
100
AcDbEntity
  8
SEIHIN
  6
CONTINUOUS
 62
     3
100
AcDbLine
 10
196.9530451629807
 20
117.8107730165586
 30
0.0
 11
195.8216743130807
 21
118.9421438664586
 31
0.0
  0
LINE
  5
21DB
330
1A
100
AcDbEntity
  8
SEIHIN
  6
CONTINUOUS
 62
     3
100
AcDbLine
 10
216.0400648405809
 20
120.5604275184585
 30
0.0
 11
216.0400648405809
 21
105.0604275184585
 31
0.0
  0
LINE
  5
21DC
330
1A
100
AcDbEntity
  8
SEIHIN
  6
CONTINUOUS
 62
     3
100
AcDbLine
 10
214.4400648405807
 20
120.5604275184585
 30
0.0
 11
214.4400648405807
 21
105.0604275184585
 31
0.0
  0
ARC
  5
21DD
330
1A
100
AcDbEntity
  8
SEIHIN
  6
CONTINUOUS
 62
     3
100
AcDbCircle
 10
92.15288601518091
 20
96.45365202105868
 30
0.0
 40
2.0
100
AcDbArc
 50
5.7107117865
 51
90.0000000118
  0
CIRCLE
  5
21DE
330
1A
100
AcDbEntity
  8
SEIHIN
  6
CONTINUOUS
 62
     3
100
AcDbCircle
 10
293.2015313767807
 20
86.48013308325872
 30
0.0
 40
2.1
  0
ARC
  5
21DF
330
1A
100
AcDbEntity
  8
SEIHIN
  6
CONTINUOUS
 62
     3
100
AcDbCircle
 10
218.4400648405807
 20
95.67191937955866
 30
0.0
 40
2.0
100
AcDbArc
 50
0.0
 51
96.00000085959996
  0
LINE
  5
21E0
330
1A
100
AcDbEntity
  8
SEIHIN
  6
CONTINUOUS
 62
     3
100
AcDbLine
 10
225.4400648405808
 20
59.48013308325872
 30
0.0
 11
218.8400648405809
 21
59.48013308325872
 31
0.0
  0
LINE
  5
21E1
330
1A
100
AcDbEntity
  8
SEIHIN
  6
CONTINUOUS
 62
     3
100
AcDbLine
 10
284.2015313767808
 20
91.4801330832587
 30
0.0
 11
284.2015313767808
 21
62.48013308325872
 31
0.0
  0
LINE
  5
21E2
330
1A
100
AcDbEntity
  8
SEIHIN
  6
CONTINUOUS
 62
     3
100
AcDbLine
 10
225.4400648405808
 20
94.48013308325867
 30
0.0
 11
225.4400648405808
 21
59.48013308325872
 31
0.0
  0
ARC
  5
21E3
330
1A
100
AcDbEntity
  8
SEIHIN
  6
CONTINUOUS
 62
     3
100
AcDbCircle
 10
212.4400648405807
 20
105.0604275184585
 30
0.0
 40
2.0
100
AcDbArc
 50
270.0000000353
 51
0.0
  0
ARC
  5
21E4
330
1A
100
AcDbEntity
  8
SEIHIN
  6
CONTINUOUS
 62
     3
100
AcDbCircle
 10
212.4400648405807
 20
120.5604275184585
 30
0.0
 40
2.0
100
AcDbArc
 50
0.0
 51
90.0000000118
  0
ARC
  5
21E5
330
1A
100
AcDbEntity
  8
SEIHIN
  6
CONTINUOUS
 62
     3
100
AcDbCircle
 10
200.7812860821809
 20
85.27043244725868
 30
0.0
 40
1.0
100
AcDbArc
 50
270.0000000353
 51
353.0000000461
  0
LINE
  5
21E6
330
1A
100
AcDbEntity
  8
SEIHIN
  6
CONTINUOUS
 62
     3
100
AcDbLine
 10
198.3706842234809
 20
79.77043244725867
 30
0.0
 11
200.7812860821809
 21
79.77043244725867
 31
0.0
  0
LINE
  5
21E7
330
1A
100
AcDbEntity
  8
SEIHIN
  6
CONTINUOUS
 62
     3
100
AcDbLine
 10
301.2015313767808
 20
84.48013308325872
 30
0.0
 11
301.2015313767808
 21
69.48013308325872
 31
0.0
  0
LINE
  5
21E8
330
1A
100
AcDbEntity
  8
SEIHIN
  6
CONTINUOUS
 62
     3
100
AcDbLine
 10
304.2015313767807
 20
69.48013308325872
 30
0.0
 11
299.7015313767807
 21
69.48013308325872
 31
0.0
  0
LINE
  5
21E9
330
1A
100
AcDbEntity
  8
SEIHIN
  6
CONTINUOUS
 62
     3
100
AcDbLine
 10
206.4308531370809
 20
103.0604275184585
 30
0.0
 11
212.4400648405807
 21
103.0604275184585
 31
0.0
  0
ARC
  5
21EA
330
1A
100
AcDbEntity
  8
SEIHIN
  6
CONTINUOUS
 62
     3
100
AcDbCircle
 10
202.5311267895808
 20
120.5604275184585
 30
0.0
 40
2.0
100
AcDbArc
 50
90.0000000118
 51
135.0000000175999
  0
ARC
  5
21EB
330
1A
100
AcDbEntity
  8
SEIHIN
  6
CONTINUOUS
 62
     3
100
AcDbCircle
 10
218.4400648405807
 20
95.67191937955866
 30
0.0
 40
6.5
100
AcDbArc
 50
0.0
 51
95.99999702700001
  0
LINE
  5
21EC
330
1A
100
AcDbEntity
  8
SEIHIN
  6
CONTINUOUS
 62
     3
100
AcDbLine
 10
200.3605633497809
 20
86.76722619325872
 30
0.0
 11
201.9486371923807
 21
86.57223524385866
 31
0.0
  0
LINE
  5
21ED
330
1A
100
AcDbEntity
  8
SEIHIN
  6
CONTINUOUS
 62
     3
100
AcDbLine
 10
199.9855423773808
 20
123.1060119306586
 30
0.0
 11
195.8216743130807
 21
118.9421438664586
 31
0.0
  0
ARC
  5
21EE
330
1A
100
AcDbEntity
  8
SEIHIN
  6
CONTINUOUS
 62
     3
100
AcDbCircle
 10
209.4993705304807
 20
94.73221452165855
 30
0.0
 40
2.0
100
AcDbArc
 50
96.0000000125
 51
173.0000000225999
  0
LINE
  5
21EF
330
1A
100
AcDbEntity
  8
SEIHIN
  6
CONTINUOUS
 62
     3
100
AcDbLine
 10
100.9632229421808
 20
73.67496423475867
 30
0.0
 11
111.6226409588808
 21
64.95354770185866
 31
0.0
  0
LINE
  5
21F0
330
1A
100
AcDbEntity
  8
SEIHIN
  6
CONTINUOUS
 62
     3
100
AcDbLine
 10
96.67102976728086
 20
71.3724944797587
 30
0.0
 11
110.0162287448808
 21
60.45360202105868
 31
0.0
  0
LINE
  5
21F1
330
1A
100
AcDbEntity
  8
SEIHIN
  6
CONTINUOUS
 62
     3
100
AcDbLine
 10
324.7015313767807
 20
102.0202210657586
 30
0.0
 11
324.7015313767807
 21
59.48013308325872
 31
0.0
  0
ARC
  5
21F2
330
1A
100
AcDbEntity
  8
SEIHIN
  6
CONTINUOUS
 62
     3
100
AcDbCircle
 10
92.15288601518091
 20
96.45365202105868
 30
0.0
 40
6.5
100
AcDbArc
 50
5.7107117865
 51
90.0000000118
  0
LINE
  5
21F3
330
1A
100
AcDbEntity
  8
SEIHIN
  6
CONTINUOUS
 62
     3
100
AcDbLine
 10
304.2015313767807
 20
84.48013308325872
 30
0.0
 11
299.7015313767807
 21
84.48013308325872
 31
0.0
  0
LINE
  5
21F4
330
1A
100
AcDbEntity
  8
SEIHIN
  6
CONTINUOUS
 62
     3
100
AcDbLine
 10
304.2015313767807
 20
94.48013308325867
 30
0.0
 11
304.2015313767807
 21
59.48013308325872
 31
0.0
  0
LINE
  5
21F5
330
1A
100
AcDbEntity
  8
SEIHIN
  6
CONTINUOUS
 62
     3
100
AcDbLine
 10
299.7015313767807
 20
84.48013308325872
 30
0.0
 11
299.7015313767807
 21
88.48013308325873
 31
0.0
  0
LINE
  5
21F6
330
1A
100
AcDbEntity
  8
SEIHIN
  6
CONTINUOUS
 62
     3
100
AcDbLine
 10
301.2015313767808
 20
65.48013308325874
 30
0.0
 11
301.2015313767808
 21
59.48013308325872
 31
0.0
  0
ARC
  5
21F7
330
1A
100
AcDbEntity
  8
SEIHIN
  6
CONTINUOUS
 62
     3
100
AcDbCircle
 10
206.4308531370809
 20
98.46042751845867
 30
0.0
 40
3.0
100
AcDbArc
 50
90.0000000118
 51
173.0000000225999
  0
LINE
  5
21F8
330
1A
100
AcDbEntity
  8
SEIHIN
  6
CONTINUOUS
 62
     3
100
AcDbLine
 10
203.4532146821808
 20
98.82603554865868
 30
0.0
 11
201.7738322337808
 21
85.14856310385868
 31
0.0
  0
ARC
  5
21F9
330
1A
100
AcDbEntity
  8
SEIHIN
  6
CONTINUOUS
 62
     3
100
AcDbCircle
 10
158.3883095622809
 20
107.9536664974586
 30
0.0
 40
44.0000144765
100
AcDbArc
 50
282.2388815936998
 51
323.8742025326
  0
LINE
  5
21FA
330
1A
100
AcDbEntity
  8
SEIHIN
  6
CONTINUOUS
 62
     3
100
AcDbLine
 10
84.82278996728087
 20
107.6340059999586
 30
0.0
 11
85.22278996728084
 21
107.6340059999586
 31
0.0
  0
CIRCLE
  5
21FB
330
1A
100
AcDbEntity
  8
SEIHIN
  6
CONTINUOUS
 62
     3
100
AcDbCircle
 10
293.2015313767807
 20
67.48013308325872
 30
0.0
 40
2.1
  0
ARC
  5
21FC
330
1A
100
AcDbEntity
  8
SEIHIN
  6
CONTINUOUS
 62
     3
100
AcDbCircle
 10
206.4308531370809
 20
98.46042751845867
 30
0.0
 40
4.599999999999998
100
AcDbArc
 50
90.0000000118
 51
173.0000000225999
  0
ARC
  5
21FD
330
1A
100
AcDbEntity
  8
SEIHIN
  6
CONTINUOUS
 62
     3
100
AcDbCircle
 10
287.2015313767807
 20
62.48013308325872
 30
0.0
 40
3.0
100
AcDbArc
 50
180.0000000234999
 51
270.0000000353
  0
LINE
  5
21FE
330
1A
100
AcDbEntity
  8
SEIHIN
  6
CONTINUOUS
 62
     3
100
AcDbLine
 10
304.7015313767808
 20
102.0202210657586
 30
0.0
 11
324.7015313767807
 21
102.0202210657586
 31
0.0
  0
LINE
  5
21FF
330
1A
100
AcDbEntity
  8
SEIHIN
  6
CONTINUOUS
 62
     3
100
AcDbLine
 10
218.8400648405809
 20
94.48013308325867
 30
0.0
 11
218.8400648405809
 21
59.48013308325872
 31
0.0
  0
LINE
  5
2200
330
1A
100
AcDbEntity
  8
SEIHIN
  6
CONTINUOUS
 62
     3
100
AcDbLine
 10
225.4400648405808
 20
94.48013308325867
 30
0.0
 11
218.8400648405809
 21
94.48013308325867
 31
0.0
  0
ARC
  5
2201
330
1A
100
AcDbEntity
  8
SEIHIN
  6
CONTINUOUS
 62
     3
100
AcDbCircle
 10
212.4400648405807
 20
105.0604275184585
 30
0.0
 40
3.6
100
AcDbArc
 50
270.0000000353
 51
0.0
  0
ARC
  5
2202
330
1A
100
AcDbEntity
  8
SEIHIN
  6
CONTINUOUS
 62
     3
100
AcDbCircle
 10
209.4993705304807
 20
94.73221452165855
 30
0.0
 40
6.5
100
AcDbArc
 50
96.0000000125
 51
173.0000000225999
  0
LINE
  5
2203
330
1A
100
AcDbEntity
  8
SEIHIN
  6
CONTINUOUS
 62
     3
100
AcDbLine
 10
207.5142782271809
 20
94.97595320845867
 30
0.0
 11
206.2402899161809
 21
84.6001510585587
 31
0.0
  0
ARC
  5
2204
330
1A
100
AcDbEntity
  8
SEIHIN
  6
CONTINUOUS
 62
     3
100
AcDbCircle
 10
202.5311267895808
 20
120.5604275184585
 30
0.0
 40
3.6
100
AcDbArc
 50
90.0000000118
 51
135.0000000175999
  0
LINE
  5
2205
330
1A
100
AcDbEntity
  8
SEIHIN
  6
CONTINUOUS
 62
     3
100
AcDbLine
 10
202.5311267895808
 20
122.5604275184585
 30
0.0
 11
212.4400648405807
 21
122.5604275184585
 31
0.0
  0
LINE
  5
2206
330
1A
100
AcDbEntity
  8
SEIHIN
  6
CONTINUOUS
 62
     3
100
AcDbLine
 10
220.4400648405807
 20
95.67191937955866
 30
0.0
 11
220.4400648405807
 21
94.48013308325867
 31
0.0
  0
LINE
  5
2207
330
1A
100
AcDbEntity
  8
SEIHIN
  6
CONTINUOUS
 62
     3
100
AcDbLine
 10
304.7015313767808
 20
102.0202210657586
 30
0.0
 11
304.7015313767808
 21
59.48013308325872
 31
0.0
  0
LINE
  5
2208
330
1A
100
AcDbEntity
  8
SEIHIN
  6
CONTINUOUS
 62
     3
100
AcDbLine
 10
307.2015313767808
 20
102.0202210657586
 30
0.0
 11
307.2015313767808
 21
124.4034977874586
 31
0.0
  0
LINE
  5
2209
330
1A
100
AcDbEntity
  8
SEIHIN
  6
CONTINUOUS
 62
     3
100
AcDbLine
 10
168.1860276107809
 20
60.45360202105868
 30
0.0
 11
110.0162287448808
 21
60.45360202105868
 31
0.0
  0
ARC
  5
220A
330
1A
100
AcDbEntity
  8
SEIHIN
  6
CONTINUOUS
 62
     3
100
AcDbCircle
 10
91.72278996728085
 20
104.9536520210586
 30
0.0
 40
6.5
100
AcDbArc
 50
180.0000000234999
 51
270.0000000353
  0
LINE
  5
220B
330
1A
100
AcDbEntity
  8
SEIHIN
  6
CONTINUOUS
 62
     3
100
AcDbLine
 10
85.22278996728084
 20
104.9536520210586
 30
0.0
 11
85.22278996728084
 21
121.3877870720586
 31
0.0
  0
LINE
  5
220C
330
1A
100
AcDbEntity
  8
SEIHIN
  6
CONTINUOUS
 62
     3
100
AcDbLine
 10
202.5311267895808
 20
124.1604275184586
 30
0.0
 11
212.4400648405807
 21
124.1604275184586
 31
0.0
  0
LINE
  5
220D
330
1A
100
AcDbEntity
  8
SEIHIN
  6
CONTINUOUS
 62
     3
100
AcDbLine
 10
325.2015313767807
 20
94.48013308325867
 30
0.0
 11
325.2015313767807
 21
59.48013308325872
 31
0.0
  0
LINE
  5
220E
330
1A
100
AcDbEntity
  8
SEIHIN
  6
CONTINUOUS
 62
     3
100
AcDbLine
 10
206.4308531370809
 20
101.4604275184586
 30
0.0
 11
212.4400648405807
 21
101.4604275184586
 31
0.0
  0
LINE
  5
220F
330
1A
100
AcDbEntity
  8
SEIHIN
  6
CONTINUOUS
 62
     3
100
AcDbLine
 10
304.2015313767807
 20
88.48013308325873
 30
0.0
 11
299.7015313767807
 21
88.48013308325873
 31
0.0
  0
LINE
  5
2210
330
1A
100
AcDbEntity
  8
SEIHIN
  6
CONTINUOUS
 62
     3
100
AcDbLine
 10
299.7015313767807
 20
65.48013308325874
 30
0.0
 11
299.7015313767807
 21
69.48013308325872
 31
0.0
  0
LINE
  5
2211
330
1A
100
AcDbEntity
  8
SEIHIN
  6
CONTINUOUS
 62
     3
100
AcDbLine
 10
208.8199355191809
 20
101.1966068414586
 30
0.0
 11
217.7606301647809
 21
102.1363117346586
 31
0.0
  0
LINE
  5
2212
330
1A
100
AcDbEntity
  8
SEIHIN
  6
CONTINUOUS
 62
     3
100
AcDbLine
 10
209.2903136038809
 20
96.72125831235867
 30
0.0
 11
218.2310079140809
 21
97.66096317025867
 31
0.0
  0
ARC
  5
2213
330
1A
100
AcDbEntity
  8
SEIHIN
  6
CONTINUOUS
 62
     3
100
AcDbCircle
 10
287.2015313767807
 20
91.4801330832587
 30
0.0
 40
3.0
100
AcDbArc
 50
90.0000000118
 51
180.0000000234999
  0
LINE
  5
2214
330
1A
100
AcDbEntity
  8
SEIHIN
  6
CONTINUOUS
 62
     3
100
AcDbLine
 10
287.2015313767807
 20
94.48013308325867
 30
0.0
 11
304.7015313767808
 21
94.48013308325867
 31
0.0
  0
LINE
  5
2215
330
1A
100
AcDbEntity
  8
SEIHIN
  6
CONTINUOUS
 62
     3
100
AcDbLine
 10
195.8216743130807
 20
197.8569767171586
 30
0.0
 11
216.0400648405809
 21
197.8569767171586
 31
0.0
  0
LINE
  5
2216
330
1A
100
AcDbEntity
  8
SEIHIN
  6
CONTINUOUS
 62
     3
100
AcDbLine
 10
195.8216743130807
 20
197.8569767171586
 30
0.0
 11
195.8216743130807
 21
212.8569767171586
 31
0.0
  0
LINE
  5
2217
330
1A
100
AcDbEntity
  8
SEIHIN
  6
CONTINUOUS
 62
     3
100
AcDbLine
 10
195.8216743130807
 20
212.8569767171586
 30
0.0
 11
216.0400648405809
 21
212.8569767171586
 31
0.0
  0
LINE
  5
2218
330
1A
100
AcDbEntity
  8
SEIHIN
  6
CONTINUOUS
 62
     3
100
AcDbLine
 10
216.0400648405809
 20
197.8569767171586
 30
0.0
 11
216.0400648405809
 21
212.8569767171586
 31
0.0
  0
LINE
  5
2219
330
1A
100
AcDbEntity
  8
SEIHIN
  6
CONTINUOUS
 62
     3
100
AcDbLine
 10
223.8400648405808
 20
174.8569767171586
 30
0.0
 11
225.4400648405808
 21
174.8569767171586
 31
0.0
  0
LINE
  5
221A
330
1A
100
AcDbEntity
  8
SEIHIN
  6
CONTINUOUS
 62
     3
100
AcDbLine
 10
223.8400648405808
 20
235.8569767171586
 30
0.0
 11
225.4400648405808
 21
235.8569767171586
 31
0.0
  0
LINE
  5
221B
330
1A
100
AcDbEntity
  8
SEIHIN
  6
CONTINUOUS
 62
     3
100
AcDbLine
 10
219.8596237541806
 20
193.2452413689586
 30
0.0
 11
223.5973126749809
 21
192.0026280164586
 31
0.0
  0
ARC
  5
221C
330
1A
100
AcDbEntity
  8
SEIHIN
  6
CONTINUOUS
 62
     3
100
AcDbCircle
 10
220.9400648405807
 20
195.0459765129586
 30
0.0
 40
2.1
100
AcDbArc
 50
180.0000042601999
 51
239.0362434874
  0
ARC
  5
221D
330
1A
100
AcDbEntity
  8
SEIHIN
  6
CONTINUOUS
 62
     3
100
AcDbCircle
 10
223.3400648405809
 20
191.5738815276586
 30
0.0
 40
0.5
100
AcDbArc
 50
0.0000000352
 51
59.03624930149998
  0
ARC
  5
221E
330
1A
100
AcDbEntity
  8
SEIHIN
  6
CONTINUOUS
 62
     3
100
AcDbCircle
 10
223.3400648405809
 20
191.5738815276586
 30
0.0
 40
2.1
100
AcDbArc
 50
359.9999957868
 51
59.0362435109
  0
ARC
  5
221F
330
1A
100
AcDbEntity
  8
SEIHIN
  6
CONTINUOUS
 62
     3
100
AcDbCircle
 10
220.9400648405807
 20
195.0459765129586
 30
0.0
 40
0.5
100
AcDbArc
 50
180.0000000118
 51
239.0362434874
  0
LINE
  5
2220
330
1A
100
AcDbEntity
  8
SEIHIN
  6
CONTINUOUS
 62
     3
100
AcDbLine
 10
220.4400648405807
 20
193.0522708859586
 30
0.0
 11
223.8400648405808
 21
190.3569767171586
 31
0.0
  0
LINE
  5
2221
330
1A
100
AcDbEntity
  8
SEIHIN
  6
CONTINUOUS
 62
     3
100
AcDbLine
 10
223.8400648405808
 20
219.1400719066585
 30
0.0
 11
223.8400648405808
 21
235.8569767171586
 31
0.0
  0
LINE
  5
2222
330
1A
100
AcDbEntity
  8
SEIHIN
  6
CONTINUOUS
 62
     3
100
AcDbLine
 10
225.4400648405808
 20
219.1400717508586
 30
0.0
 11
225.4400648405808
 21
235.8569767171586
 31
0.0
  0
ARC
  5
2223
330
1A
100
AcDbEntity
  8
SEIHIN
  6
CONTINUOUS
 62
     3
100
AcDbCircle
 10
223.3400648405809
 20
219.1400719066585
 30
0.0
 40
0.5
100
AcDbArc
 50
300.9637464215998
 51
0.0000000353
  0
LINE
  5
2224
330
1A
100
AcDbEntity
  8
SEIHIN
  6
CONTINUOUS
 62
     3
100
AcDbLine
 10
84.82278996728087
 20
197.8569767171586
 30
0.0
 11
84.82278996728087
 21
212.8569767171586
 31
0.0
  0
LINE
  5
2225
330
1A
100
AcDbEntity
  8
SEIHIN
  6
CONTINUOUS
 62
     3
100
AcDbLine
 10
201.1534664322807
 20
197.8569767171586
 30
0.0
 11
201.1534664322807
 21
212.8569767171586
 31
0.0
  0
LINE
  5
2226
330
1A
100
AcDbEntity
  8
SEIHIN
  6
CONTINUOUS
 62
     3
100
AcDbLine
 10
224.9400648405807
 20
195.3569767171586
 30
0.0
 11
224.9400648405807
 21
215.3569767171586
 31
0.0
  0
LINE
  5
2227
330
1A
100
AcDbEntity
  8
SEIHIN
  6
CONTINUOUS
 62
     3
100
AcDbLine
 10
218.8400648405809
 20
195.0459763568586
 30
0.0
 11
218.8400648405809
 21
195.3569767171586
 31
0.0
  0
LINE
  5
2228
330
1A
100
AcDbEntity
  8
SEIHIN
  6
CONTINUOUS
 62
     3
100
AcDbLine
 10
220.4400648405807
 20
195.0459765128586
 30
0.0
 11
220.4400648405807
 21
195.3569767171586
 31
0.0
  0
LINE
  5
2229
330
1A
100
AcDbEntity
  8
SEIHIN
  6
CONTINUOUS
 62
     3
100
AcDbLine
 10
220.4400648405807
 20
215.6679769211586
 30
0.0
 11
220.4400648405807
 21
215.3569767171586
 31
0.0
  0
LINE
  5
222A
330
1A
100
AcDbEntity
  8
SEIHIN
  6
CONTINUOUS
 62
     3
100
AcDbLine
 10
218.8400648405809
 20
215.6679767651585
 30
0.0
 11
218.8400648405809
 21
215.3569767171586
 31
0.0
  0
ARC
  5
222B
330
1A
100
AcDbEntity
  8
SEIHIN
  6
CONTINUOUS
 62
     3
100
AcDbCircle
 10
220.9400648405807
 20
215.6679769212586
 30
0.0
 40
0.5
100
AcDbArc
 50
120.9637695122999
 51
180.0000000118
  0
LINE
  5
222C
330
1A
100
AcDbEntity
  8
SEIHIN
  6
CONTINUOUS
 62
     3
100
AcDbLine
 10
220.6828168657807
 20
216.0967233258585
 30
0.0
 11
224.4205057207807
 21
217.3393366388586
 31
0.0
  0
ARC
  5
222D
330
1A
100
AcDbEntity
  8
SEIHIN
  6
CONTINUOUS
 62
     3
100
AcDbCircle
 10
220.9400648405807
 20
215.6679769212586
 30
0.0
 40
2.1
100
AcDbArc
 50
120.9637641725
 51
180.0000042601999
  0
LINE
  5
222E
330
1A
100
AcDbEntity
  8
SEIHIN
  6
CONTINUOUS
 62
     3
100
AcDbLine
 10
220.4400648405807
 20
217.6616825483586
 30
0.0
 11
223.8400648405808
 21
220.3569767171586
 31
0.0
  0
LINE
  5
222F
330
1A
100
AcDbEntity
  8
SEIHIN
  6
CONTINUOUS
 62
     3
100
AcDbLine
 10
219.8596235141808
 20
217.4687119212586
 30
0.0
 11
223.5973126424809
 21
218.7113253982587
 31
0.0
  0
ARC
  5
2230
330
1A
100
AcDbEntity
  8
SEIHIN
  6
CONTINUOUS
 62
     3
100
AcDbCircle
 10
223.3400648405809
 20
219.1400719066585
 30
0.0
 40
2.1
100
AcDbArc
 50
300.963749999
 51
359.9999957868
  0
LINE
  5
2231
330
1A
100
AcDbEntity
  8
SEIHIN
  6
CONTINUOUS
 62
     3
100
AcDbLine
 10
223.8400648405808
 20
174.8569767171586
 30
0.0
 11
223.8400648405808
 21
191.5738815276586
 31
0.0
  0
LINE
  5
2232
330
1A
100
AcDbEntity
  8
SEIHIN
  6
CONTINUOUS
 62
     3
100
AcDbLine
 10
84.82278996728087
 20
197.8569767171586
 30
0.0
 11
85.22278996728084
 21
197.8569767171586
 31
0.0
  0
LINE
  5
2233
330
1A
100
AcDbEntity
  8
SEIHIN
  6
CONTINUOUS
 62
     3
100
AcDbLine
 10
84.82278996728087
 20
212.8569767171586
 30
0.0
 11
85.22278996728084
 21
212.8569767171586
 31
0.0
  0
LINE
  5
2234
330
1A
100
AcDbEntity
  8
SEIHIN
  6
CONTINUOUS
 62
     3
100
AcDbLine
 10
111.6226409588808
 20
213.7028360303586
 30
0.0
 11
111.6226409588808
 21
197.1174479025586
 31
0.0
  0
LINE
  5
2235
330
1A
100
AcDbEntity
  8
SEIHIN
  6
CONTINUOUS
 62
     3
100
AcDbLine
 10
96.87141468728089
 20
213.7028360303586
 30
0.0
 11
96.87141468728089
 21
197.1174479025586
 31
0.0
  0
LINE
  5
2236
330
1A
100
AcDbEntity
  8
SEIHIN
  6
CONTINUOUS
 62
     3
100
AcDbLine
 10
100.9632229421808
 20
213.7028360303586
 30
0.0
 11
100.9632229421808
 21
197.1174479025586
 31
0.0
  0
LINE
  5
2237
330
1A
100
AcDbEntity
  8
SEIHIN
  6
CONTINUOUS
 62
     3
100
AcDbLine
 10
89.72278996728084
 20
195.3569767171586
 30
0.0
 11
224.9400648405807
 21
195.3569767171586
 31
0.0
  0
LINE
  5
2238
330
1A
100
AcDbEntity
  8
SEIHIN
  6
CONTINUOUS
 62
     3
100
AcDbLine
 10
89.72278996728084
 20
215.3569767171586
 30
0.0
 11
224.9400648405807
 21
215.3569767171586
 31
0.0
  0
LINE
  5
2239
330
1A
100
AcDbEntity
  8
SEIHIN
  6
CONTINUOUS
 62
     3
100
AcDbLine
 10
89.72278996728084
 20
195.3569767171586
 30
0.0
 11
89.72278996728084
 21
215.3569767171586
 31
0.0
  0
LINE
  5
223A
330
1A
100
AcDbEntity
  8
SEIHIN
  6
CONTINUOUS
 62
     3
100
AcDbLine
 10
85.22278996728084
 20
195.3569767171586
 30
0.0
 11
89.72278996728084
 21
195.3569767171586
 31
0.0
  0
LINE
  5
223B
330
1A
100
AcDbEntity
  8
SEIHIN
  6
CONTINUOUS
 62
     3
100
AcDbLine
 10
85.22278996728084
 20
215.3569767171586
 30
0.0
 11
89.72278996728084
 21
215.3569767171586
 31
0.0
  0
LINE
  5
223C
330
1A
100
AcDbEntity
  8
SEIHIN
  6
CONTINUOUS
 62
     3
100
AcDbLine
 10
85.22278996728084
 20
195.3569767171586
 30
0.0
 11
85.22278996728084
 21
215.3569767171586
 31
0.0
  0
LINE
  5
223D
330
1A
100
AcDbEntity
  8
SEIHIN
  6
CONTINUOUS
 62
     3
100
AcDbLine
 10
225.4400648405808
 20
174.8569767171586
 30
0.0
 11
225.4400648405808
 21
191.5738813719585
 31
0.0
  0
LINE
  5
223E
330
1A
100
AcDbEntity
  8
SEIHIN
  6
CONTINUOUS
 62
     3
100
AcDbLine
 10
224.4205059269809
 20
193.3746166716586
 30
0.0
 11
220.6828169628809
 21
194.6172300501585
 31
0.0
  0
LINE
  5
2240
330
1A
100
AcDbEntity
  8
CENTER_L
  6
CENTER
100
AcDbLine
 10
331.2015313767807
 20
86.48013308325872
 30
0.0
 11
341.2015313767807
 21
86.48013308325872
 31
0.0
  0
LINE
  5
2241
330
1A
100
AcDbEntity
  8
CENTER_L
  6
CENTER
100
AcDbLine
 10
336.2015313767808
 20
81.48013308325872
 30
0.0
 11
336.2015313767808
 21
91.48013308325872
 31
0.0
  0
LINE
  5
2242
330
1A
100
AcDbEntity
  8
CENTER_L
  6
CENTER
100
AcDbLine
 10
331.2015313767807
 20
67.48013308325872
 30
0.0
 11
341.2015313767807
 21
67.48013308325872
 31
0.0
  0
LINE
  5
2243
330
1A
100
AcDbEntity
  8
CENTER_L
  6
CENTER
100
AcDbLine
 10
336.2015313767808
 20
62.48013308325872
 30
0.0
 11
336.2015313767808
 21
72.48013308325872
 31
0.0
  0
LINE
  5
2244
330
1A
100
AcDbEntity
  8
CENTER_L
  6
CENTER
100
AcDbLine
 10
293.2015313767807
 20
62.48013308325872
 30
0.0
 11
293.2015313767807
 21
72.48013308325872
 31
0.0
  0
LINE
  5
2245
330
1A
100
AcDbEntity
  8
CENTER_L
  6
CENTER
100
AcDbLine
 10
288.2015313767808
 20
67.48013308325872
 30
0.0
 11
298.2015313767807
 21
67.48013308325872
 31
0.0
  0
LINE
  5
2246
330
1A
100
AcDbEntity
  8
CENTER_L
  6
CENTER
100
AcDbLine
 10
288.2015313767808
 20
86.48013308325872
 30
0.0
 11
298.2015313767807
 21
86.48013308325872
 31
0.0
  0
LINE
  5
2247
330
1A
100
AcDbEntity
  8
CENTER_L
  6
CENTER
100
AcDbLine
 10
293.2015313767807
 20
81.48013308325872
 30
0.0
 11
293.2015313767807
 21
91.48013308325872
 31
0.0
  0
DIMENSION
  5
2248
330
1A
100
AcDbEntity
  8
SUNPOU
  6
CONTINUOUS
100
AcDbDimension
  2
*D2
 10
345.2015313767808
 20
149.8214037827529
 30
0.0
 11
314.7015313767807
 21
152.3214037827529
 31
0.0
 70
    32
  3
STANDARD
100
AcDbAlignedDimension
 13
284.2015313767808
 23
91.48013308325872
 33
0.0
 14
345.2015313767808
 24
91.48013317265869
 34
0.0
100
AcDbRotatedDimension
1001
ACAD
1000
DSTYLE
1002
{
1070
   140
1040
3.0
1070
    74
1070
     0
1070
   172
1070
     1
1070
    73
1070
     0
1070
   272
1070
     0
1070
    77
1070
     3
1070
   173
1070
     1
1070
   147
1040
1.0
1070
    42
1040
3.0
1070
    44
1040
1.5
1070
    43
1040
7.0
1070
   271
1070
     0
1070
   178
1070
   256
1070
   177
1070
   256
1070
   176
1070
   256
1070
   141
1040
3.0
1070
     7
1000
OPEN
1070
     6
1000
OPEN
1070
    41
1040
3.0
1002
}
  0
DIMENSION
  5
2249
330
1A
100
AcDbEntity
  8
SUNPOU
  6
CONTINUOUS
100
AcDbDimension
  2
*D1
 10
336.2015313767808
 20
135.8238173193565
 30
0.0
 11
314.7015313767807
 21
138.3238173193565
 31
0.0
 70
    32
  3
STANDARD
100
AcDbAlignedDimension
 13
293.2015313767807
 23
91.48013308325872
 33
0.0
 14
336.2015313767808
 24
91.48013308325872
 34
0.0
100
AcDbRotatedDimension
1001
ACAD
1000
DSTYLE
1002
{
1070
   140
1040
3.0
1070
    74
1070
     0
1070
   172
1070
     1
1070
    73
1070
     0
1070
   272
1070
     0
1070
    77
1070
     3
1070
   173
1070
     1
1070
   147
1040
1.0
1070
    42
1040
3.0
1070
    44
1040
1.5
1070
    43
1040
7.0
1070
   271
1070
     0
1070
   178
1070
   256
1070
   177
1070
   256
1070
   176
1070
   256
1070
   141
1040
3.0
1070
     7
1000
OPEN
1070
     6
1000
OPEN
1070
    41
1040
3.0
1002
}
  0
LEADER
  5
224A
330
1A
100
AcDbEntity
  8
SUNPOU
  6
CONTINUOUS
100
AcDbLeader
  3
STANDARD
 76
     3
 10
292.1396085424859
 20
88.29185047126465
 30
0.0
 10
275.9101165218037
 20
110.9319841556409
 30
0.0
 10
251.1567603476323
 20
110.9319841556409
 30
0.0
1001
ACAD
1000
DSTYLE
1002
{
1070
     6
1000
OPEN
1070
    41
1040
3.0
1070
    42
1040
3.0
1070
    43
1040
7.0
1070
    44
1040
1.5
1070
    73
1070
     0
1070
    74
1070
     0
1070
    77
1070
     3
1070
   140
1040
3.0
1070
   141
1040
3.0
1070
   147
1040
1.0
1070
   172
1070
     1
1070
   173
1070
     1
1070
   176
1070
   256
1070
   177
1070
   256
1070
   178
1070
   256
1070
   271
1070
     0
1070
   272
1070
     0
1070
   341
1005
B2
1070
   343
1005
B2
1070
   344
1005
B2
1002
}
1000
LEANOF
1010
0.0
1020
0.0
1030
0.0
  0
DIMENSION
  5
224B
330
1A
100
AcDbEntity
  8
SUNPOU
  6
CONTINUOUS
100
AcDbDimension
  2
*D5
 10
276.5233751506631
 20
59.48013308325872
 30
0.0
 11
274.0233751506631
 21
63.48013308325878
 31
0.0
 70
    32
  3
STANDARD
100
AcDbAlignedDimension
 13
288.2015313767808
 23
67.48013308325872
 33
0.0
 14
287.2015313786292
 24
59.48013308325872
 34
0.0
 50
90.0
100
AcDbRotatedDimension
1001
ACAD
1000
DSTYLE
1002
{
1070
   140
1040
3.0
1070
    74
1070
     0
1070
   172
1070
     1
1070
    73
1070
     0
1070
   272
1070
     0
1070
    77
1070
     3
1070
   173
1070
     1
1070
   147
1040
1.0
1070
    42
1040
3.0
1070
    44
1040
1.5
1070
    43
1040
7.0
1070
   271
1070
     0
1070
   178
1070
   256
1070
   177
1070
   256
1070
   176
1070
   256
1070
   141
1040
3.0
1070
     7
1000
OPEN
1070
     6
1000
OPEN
1070
    41
1040
3.0
1002
}
  0
DIMENSION
  5
224C
330
1A
100
AcDbEntity
  8
SUNPOU
  6
CONTINUOUS
100
AcDbDimension
  2
*D4
 10
276.5233751506631
 20
86.48013308325873
 30
0.0
 11
274.0233751506631
 21
90.48013308325874
 31
0.0
 70
    32
  3
STANDARD
100
AcDbAlignedDimension
 13
287.2015313767807
 23
94.48013308325867
 33
0.0
 14
288.2015313767808
 24
86.48013308325872
 34
0.0
 50
90.0
100
AcDbRotatedDimension
1001
ACAD
1000
DSTYLE
1002
{
1070
   140
1040
3.0
1070
    74
1070
     0
1070
   172
1070
     1
1070
    73
1070
     0
1070
   272
1070
     0
1070
    77
1070
     3
1070
   173
1070
     1
1070
   147
1040
1.0
1070
    42
1040
3.0
1070
    44
1040
1.5
1070
    43
1040
7.0
1070
   271
1070
     0
1070
   178
1070
   256
1070
   177
1070
   256
1070
   176
1070
   256
1070
   141
1040
3.0
1070
     7
1000
OPEN
1070
     6
1000
OPEN
1070
    41
1040
3.0
1002
}
  0
DIMENSION
  5
224D
330
1A
100
AcDbEntity
  8
SUNPOU
  6
CONTINUOUS
100
AcDbDimension
  2
*D3
 10
267.6713054125579
 20
59.48013308325872
 30
0.0
 11
265.1713054125579
 21
76.98013308325873
 31
0.0
 70
    32
  3
STANDARD
100
AcDbAlignedDimension
 13
287.2015313767807
 23
94.48013308325867
 33
0.0
 14
287.2015313786292
 24
59.48013308325872
 34
0.0
 50
90.0
100
AcDbRotatedDimension
1001
ACAD
1000
DSTYLE
1002
{
1070
   140
1040
3.0
1070
    74
1070
     0
1070
   172
1070
     1
1070
    73
1070
     0
1070
   272
1070
     0
1070
    77
1070
     3
1070
   173
1070
     1
1070
   147
1040
1.0
1070
    42
1040
3.0
1070
    44
1040
1.5
1070
    43
1040
7.0
1070
   271
1070
     0
1070
   178
1070
   256
1070
   177
1070
   256
1070
   176
1070
   256
1070
   141
1040
3.0
1070
     7
1000
OPEN
1070
     6
1000
OPEN
1070
    41
1040
3.0
1002
}
  0
TEXT
  5
224E
330
1A
100
AcDbEntity
  8
SUNPOU
  6
CONTINUOUS
100
AcDbText
 10
252.4947793994352
 20
112.2687492870132
 30
0.0
 40
4.0
  1
4-φ4.2
100
AcDbText
  0
LINE
  5
228F
330
1A
100
AcDbEntity
  8
CENTER_L
  6
CENTER
100
AcDbLine
 10
208.8400648405807
 20
67.48013308325872
 30
0.0
 11
235.4400648405807
 21
67.48013308325872
 31
0.0
  0
LINE
  5
2290
330
1A
100
AcDbEntity
  8
CENTER_L
  6
CENTER
100
AcDbLine
 10
208.8400648405807
 20
86.48013308325872
 30
0.0
 11
235.4400648405807
 21
86.48013308325877
 31
0.0
  0
DIMENSION
  5
2291
330
1A
100
AcDbEntity
  8
SUNPOU
  6
CONTINUOUS
100
AcDbDimension
  2
*D6
 10
238.9751732642168
 20
59.48013308325872
 30
0.0
 11
236.4751732642168
 21
76.98013308325873
 31
0.0
 70
    32
  3
STANDARD
100
AcDbAlignedDimension
 13
225.4400648405808
 23
94.48013308325867
 33
0.0
 14
225.4400648405808
 24
59.48013308325872
 34
0.0
 50
90.0
100
AcDbRotatedDimension
1001
ACAD
1000
DSTYLE
1002
{
1070
   140
1040
3.0
1070
    74
1070
     0
1070
   172
1070
     1
1070
    73
1070
     0
1070
   272
1070
     0
1070
    77
1070
     3
1070
   173
1070
     1
1070
   147
1040
1.0
1070
    42
1040
3.0
1070
    44
1040
1.5
1070
    43
1040
7.0
1070
   271
1070
     0
1070
   178
1070
   256
1070
   177
1070
   256
1070
   176
1070
   256
1070
   141
1040
3.0
1070
     7
1000
OPEN
1070
     6
1000
OPEN
1070
    41
1040
3.0
1002
}
  0
DIMENSION
  5
22AC
330
1A
100
AcDbEntity
  8
SUNPOU
  6
CONTINUOUS
100
AcDbDimension
  2
*D7
 10
225.4400648405808
 20
135.0012464059261
 30
0.0
 11
219.9400648405807
 21
137.5012464059261
 31
0.0
 70
    32
  3
STANDARD
100
AcDbAlignedDimension
 13
214.4400648405807
 23
120.5604275184585
 33
0.0
 14
225.4400648405808
 24
94.48013308325867
 34
0.0
100
AcDbRotatedDimension
1001
ACAD
1000
DSTYLE
1002
{
1070
   140
1040
3.0
1070
    74
1070
     0
1070
   172
1070
     1
1070
    73
1070
     0
1070
   272
1070
     0
1070
    77
1070
     3
1070
   173
1070
     1
1070
   147
1040
1.0
1070
    42
1040
3.0
1070
    44
1040
1.5
1070
    43
1040
7.0
1070
   271
1070
     0
1070
   178
1070
   256
1070
   177
1070
   256
1070
   176
1070
   256
1070
   141
1040
3.0
1070
     7
1000
OPEN
1070
     6
1000
OPEN
1070
    41
1040
3.0
1002
}
  0
DIMENSION
  5
22B9
330
1A
100
AcDbEntity
  8
SUNPOU
  6
CONTINUOUS
100
AcDbDimension
  2
*D8
 10
84.82278996728087
 20
148.9749447360151
 30
0.0
 11
155.1314274039308
 21
151.4749447360151
 31
0.0
 70
    32
  3
STANDARD
100
AcDbAlignedDimension
 13
225.4400648405808
 23
94.48013308325867
 33
0.0
 14
84.82278996728087
 24
149.9272374353586
 34
0.0
100
AcDbRotatedDimension
1001
ACAD
1000
DSTYLE
1002
{
1070
   140
1040
3.0
1070
    74
1070
     0
1070
   172
1070
     1
1070
    73
1070
     0
1070
   272
1070
     0
1070
    77
1070
     3
1070
   173
1070
     1
1070
   147
1040
1.0
1070
    42
1040
3.0
1070
    44
1040
1.5
1070
    43
1040
7.0
1070
   271
1070
     0
1070
   178
1070
   256
1070
   177
1070
   256
1070
   176
1070
   256
1070
   141
1040
3.0
1070
     7
1000
OPEN
1070
     6
1000
OPEN
1070
    41
1040
3.0
1002
}
  0
LINE
  5
22BA
330
1A
100
AcDbEntity
  8
CENTER_L
  6
CENTER
 62
     1
100
AcDbLine
 10
213.8400648405808
 20
226.8569767171587
 30
0.0
 11
235.4400648405806
 21
226.8569767171586
 31
0.0
  0
LINE
  5
22BB
330
1A
100
AcDbEntity
  8
CENTER_L
  6
CENTER
 62
     1
100
AcDbLine
 10
213.8400648405808
 20
183.8569767171586
 30
0.0
 11
235.4400648405806
 21
183.8569767171586
 31
0.0
  0
DIMENSION
  5
22BC
330
1A
100
AcDbEntity
  8
SUNPOU
  6
CONTINUOUS
100
AcDbDimension
  2
*D9
 10
241.6667677887075
 20
174.8569767171586
 30
0.0
 11
239.1667677887075
 21
205.3569767171587
 31
0.0
 70
    32
  3
STANDARD
100
AcDbAlignedDimension
 13
228.4400648405807
 23
235.8569767171586
 33
0.0
 14
228.4400648405807
 24
174.8569767171586
 34
0.0
 50
90.0
100
AcDbRotatedDimension
1001
ACAD
1000
DSTYLE
1002
{
1070
   140
1040
3.0
1070
    74
1070
     0
1070
   172
1070
     1
1070
    73
1070
     0
1070
   272
1070
     0
1070
    77
1070
     3
1070
   173
1070
     1
1070
   147
1040
1.0
1070
    42
1040
3.0
1070
    44
1040
1.5
1070
    43
1040
7.0
1070
   271
1070
     0
1070
   178
1070
   256
1070
   177
1070
   256
1070
   176
1070
   256
1070
   141
1040
3.0
1070
     7
1000
OPEN
1070
     6
1000
OPEN
1070
    41
1040
3.0
1002
}
  0
DIMENSION
  5
22C9
330
1A
100
AcDbEntity
  8
SUNPOU
  6
CONTINUOUS
100
AcDbDimension
  2
*D10
 10
70.97389836558081
 20
195.3569767171586
 30
0.0
 11
68.47389836558078
 21
205.3569767171587
 31
0.0
 70
    32
  3
STANDARD
100
AcDbAlignedDimension
 13
85.22278996728083
 23
215.3569767171586
 33
0.0
 14
85.22278996728083
 24
195.3569767171586
 34
0.0
 50
90.0
100
AcDbRotatedDimension
1001
ACAD
1000
DSTYLE
1002
{
1070
   140
1040
3.0
1070
    74
1070
     0
1070
   172
1070
     1
1070
    73
1070
     0
1070
   272
1070
     0
1070
    77
1070
     3
1070
   173
1070
     1
1070
   147
1040
1.0
1070
    42
1040
3.0
1070
    44
1040
1.5
1070
    43
1040
7.0
1070
   271
1070
     0
1070
   178
1070
   256
1070
   177
1070
   256
1070
   176
1070
   256
1070
   141
1040
3.0
1070
     7
1000
OPEN
1070
     6
1000
OPEN
1070
    41
1040
3.0
1002
}
  0
LINE
  5
22E0
330
1A
100
AcDbEntity
  8
CENTER_L
  6
CENTER
100
AcDbLine
 10
234.9400648405807
 20
205.3569767171586
 30
0.0
 11
75.22278996728084
 21
205.3569767171586
 31
0.0
  0
LINE
  5
22F7
330
1A
100
AcDbEntity
  8
CENTER_L
  6
CENTER
100
AcDbLine
 10
314.7015313767807
 20
54.48013308325872
 30
0.0
 11
314.7015313767807
 21
129.4244219832653
 31
0.0
  0
DIMENSION
  5
22F8
330
1A
100
AcDbEntity
  8
SUNPOU
100
AcDbDimension
  2
*D11
 10
61.59251284566106
 20
59.48013308325876
 30
0.0
 11
59.09251284566106
 21
90.43396007765872
 31
0.0
 70
    32
  3
STANDARD
100
AcDbAlignedDimension
 13
85.22278996728083
 23
121.3877870720586
 33
0.0
 14
218.8400648405809
 24
59.48013308325872
 34
0.0
 50
90.0
100
AcDbRotatedDimension
1001
ACAD
1000
DSTYLE
1002
{
1070
    41
1040
3.0
1070
    42
1040
3.0
1070
    43
1040
7.0
1070
    44
1040
1.5
1070
    73
1070
     0
1070
    74
1070
     0
1070
    77
1070
     3
1070
   140
1040
3.0
1070
   141
1040
3.0
1070
   147
1040
1.0
1070
   172
1070
     1
1070
   173
1070
     1
1070
   176
1070
   256
1070
   177
1070
   256
1070
   178
1070
   256
1070
   271
1070
     0
1070
   272
1070
     0
1070
   341
1005
B2
1070
     6
1000
OPEN
1070
     7
1000
OPEN
1070
   371
1070
    -1
1070
   372
1070
    -1
1002
}
  0
LINE
  5
238D
330
1A
100
AcDbEntity
  8
NOKITOI
  6
PHANTOM
 62
     8
100
AcDbLine
 10
207.3340135371311
 20
119.9537102677586
 30
0.0
 11
204.0074135371308
 21
119.9537102677586
 31
0.0
  0
LINE
  5
238E
330
1A
100
AcDbEntity
  8
NOKITOI
  6
PHANTOM
 62
     8
100
AcDbLine
 10
207.3340135371311
 20
118.7537102677588
 30
0.0
 11
204.8612135371306
 21
118.7537102677588
 31
0.0
  0
ARC
  5
238F
330
1A
100
AcDbEntity
  8
NOKITOI
  6
PHANTOM
 62
     8
100
AcDbCircle
 10
203.8823756556841
 20
109.953754050284
 30
0.0
 40
3.999989731271038
100
AcDbArc
 50
358.2100163932687
 51
83.52268857986718
  0
LINE
  5
2390
330
1A
100
AcDbEntity
  8
NOKITOI
  6
PHANTOM
 62
     8
100
AcDbLine
 10
207.4436135371308
 20
103.9537102677586
 30
0.0
 11
201.298913537131
 21
103.9537102677586
 31
0.0
  0
ARC
  5
2391
330
1A
100
AcDbEntity
  8
NOKITOI
  6
PHANTOM
 62
     8
100
AcDbCircle
 10
205.7958999649924
 20
107.1536971126722
 30
0.0
 40
1.999986844959662
100
AcDbArc
 50
270.0003888156784
 51
358.2124468147644
  0
ARC
  5
2392
330
1A
100
AcDbEntity
  8
NOKITOI
  6
PHANTOM
 62
     8
100
AcDbCircle
 10
203.8822933244616
 20
109.9537689961387
 30
0.0
 40
5.2000412730095
100
AcDbArc
 50
37.92420092094485
 51
89.9986754569382
  0
ARC
  5
2396
330
1A
100
AcDbEntity
  8
NOKITOI
  6
PHANTOM
 62
     8
100
AcDbCircle
 10
157.5839297635882
 20
107.9537247441287
 30
0.0
 40
43.00001447645168
100
AcDbArc
 50
270.0001116248562
 51
353.4750892928823
  0
ARC
  5
2398
330
1A
100
AcDbEntity
  8
NOKITOI
  6
PHANTOM
 62
     8
100
AcDbCircle
 10
207.44357757798
 20
105.4536754136154
 30
0.0
 40
1.499965146287778
100
AcDbArc
 50
270.0013735703027
 51
358.2133719782232
  0
LINE
  5
239C
330
1A
100
AcDbEntity
  8
NOKITOI
  6
PHANTOM
 62
     8
100
AcDbLine
 10
209.3330135371309
 20
117.8912102677586
 30
0.0
 11
208.942813537131
 21
105.4069102677586
 31
0.0
  0
LINE
  5
239D
330
1A
100
AcDbEntity
  8
NOKITOI
  6
PHANTOM
 62
     8
100
AcDbLine
 10
208.1336135371304
 20
117.9287102677585
 30
0.0
 11
207.9842135371311
 21
113.1498102677587
 31
0.0
  0
LINE
  5
239F
330
1A
100
AcDbEntity
  8
NOKITOI
  6
PHANTOM
 62
     8
100
AcDbLine
 10
207.7949135371311
 20
107.0913102677587
 30
0.0
 11
207.8804135371308
 21
109.8288102677586
 31
0.0
  0
ARC
  5
23A0
330
1A
100
AcDbEntity
  8
NOKITOI
  6
PHANTOM
 62
     8
100
AcDbCircle
 10
207.3340007862809
 20
117.9537234228451
 30
0.0
 40
1.999986844954076
100
AcDbArc
 50
358.2116927117296
 51
89.99963471264713
  0
ARC
  5
23A2
330
1A
100
AcDbEntity
  8
NOKITOI
  6
PHANTOM
 62
     8
100
AcDbCircle
 10
207.3340090423328
 20
117.9537149052855
 30
0.0
 40
0.7999953624857498
100
AcDbArc
 50
358.2088726535807
 51
89.99967808194737
  0
LINE
  5
23A3
330
1A
100
AcDbEntity
  8
NOKITOI
  6
PHANTOM
 62
     8
100
AcDbLine
 10
112.7545135371308
 20
64.95361026775867
 30
0.0
 11
157.5839135371309
 21
64.95371026775865
 31
0.0
  0
LINE
  5
23A4
330
1A
100
AcDbEntity
  8
NOKITOI
  6
PHANTOM
 62
     8
100
AcDbLine
 10
157.5839135371309
 20
66.1537102677587
 30
0.0
 11
113.0043135371308
 21
66.15361026775872
 31
0.0
  0
ARC
  5
23A8
330
1A
100
AcDbEntity
  8
NOKITOI
  6
PHANTOM
 62
     8
100
AcDbCircle
 10
157.5839074551629
 20
107.9537046431023
 30
0.0
 40
41.79999437547816
100
AcDbArc
 50
270.0001454078909
 51
355.5257047874752
  0
ARC
  5
23B1
330
1A
100
AcDbEntity
  8
NOKITOI
  6
PHANTOM
 62
     8
100
AcDbCircle
 10
199.7550009674225
 20
104.653698643029
 30
0.0
 40
0.5000116248877111
100
AcDbArc
 50
89.99855965101618
 51
175.5251531916578
  0
ARC
  5
23B4
330
1A
100
AcDbEntity
  8
NOKITOI
  6
PHANTOM
 62
     8
100
AcDbCircle
 10
201.2989219612934
 20
102.9537177828151
 30
0.0
 40
0.9999924849789756
100
AcDbArc
 50
90.00048267258872
 51
173.471735393326
  0
LINE
  5
23B5
330
1A
100
AcDbEntity
  8
NOKITOI
  6
PHANTOM
 62
     8
100
AcDbLine
 10
200.8725135371307
 20
110.9275102677586
 30
0.0
 11
200.5567135371309
 21
116.9274102677586
 31
0.0
  0
LINE
  5
23B6
330
1A
100
AcDbEntity
  8
NOKITOI
  6
PHANTOM
 62
     8
100
AcDbLine
 10
204.8612135371306
 20
118.7537102677588
 30
0.0
 11
205.3612135371306
 21
116.2537102677588
 31
0.0
  0
ARC
  5
23B7
330
1A
100
AcDbEntity
  8
NOKITOI
  6
PHANTOM
 62
     8
100
AcDbCircle
 10
201.3719204241258
 20
110.9537037326731
 30
0.0
 40
0.499993464961963
100
AcDbArc
 50
183.0029638682579
 51
269.999210798213
  0
LINE
  5
23B8
330
1A
100
AcDbEntity
  8
NOKITOI
  6
PHANTOM
 62
     8
100
AcDbLine
 10
202.0360135371308
 20
111.6537102677587
 30
0.0
 11
201.8548135371308
 21
115.0952102677588
 31
0.0
  0
LINE
  5
23B9
330
1A
100
AcDbEntity
  8
NOKITOI
  6
PHANTOM
 62
     8
100
AcDbLine
 10
202.4098135371307
 20
114.4821102677586
 30
0.0
 11
201.8548135371308
 21
115.0952102677588
 31
0.0
  0
ARC
  5
23BA
330
1A
100
AcDbEntity
  8
NOKITOI
  6
PHANTOM
 62
     8
100
AcDbCircle
 10
204.2771993187154
 20
113.4313956334576
 30
0.0
 40
0.5000073448410256
100
AcDbArc
 50
83.52170717003248
 51
188.1270521358759
  0
LINE
  5
23BB
330
1A
100
AcDbEntity
  8
NOKITOI
  6
PHANTOM
 62
     8
100
AcDbLine
 10
202.8139135371304
 20
111.6537102677587
 30
0.0
 11
202.4098135371307
 21
114.4821102677586
 31
0.0
  0
LINE
  5
23BC
330
1A
100
AcDbEntity
  8
NOKITOI
  6
PHANTOM
 62
     8
100
AcDbLine
 10
202.0360135371308
 20
111.6537102677587
 30
0.0
 11
202.8139135371304
 21
111.6537102677587
 31
0.0
  0
ARC
  5
23BD
330
1A
100
AcDbEntity
  8
NOKITOI
  6
PHANTOM
 62
     8
100
AcDbCircle
 10
203.6209869365332
 20
110.9536795908766
 30
0.0
 40
0.4999693238254178
100
AcDbArc
 50
270.0030483909627
 51
8.144496122946835
  0
LINE
  5
23BE
330
1A
100
AcDbEntity
  8
NOKITOI
  6
PHANTOM
 62
     8
100
AcDbLine
 10
201.3719135371309
 20
110.4537102677586
 30
0.0
 11
203.6210135371309
 21
110.4537102677586
 31
0.0
  0
LINE
  5
23BF
330
1A
100
AcDbEntity
  8
NOKITOI
  6
PHANTOM
 62
     8
100
AcDbLine
 10
204.115913537131
 20
111.0245102677588
 30
0.0
 11
203.7822135371309
 21
113.3607102677588
 31
0.0
  0
LINE
  5
23C0
330
1A
100
AcDbEntity
  8
NOKITOI
  6
PHANTOM
 62
     8
100
AcDbLine
 10
205.3612135371306
 20
116.2537102677588
 30
0.0
 11
202.4247135371308
 21
116.2537102677588
 31
0.0
  0
LINE
  5
23C1
330
1A
100
AcDbEntity
  8
NOKITOI
  6
PHANTOM
 62
     8
100
AcDbLine
 10
203.4205135371305
 20
115.1537102677587
 30
0.0
 11
203.8824135371307
 21
115.1537102677587
 31
0.0
  0
LINE
  5
23C2
330
1A
100
AcDbEntity
  8
NOKITOI
  6
PHANTOM
 62
     8
100
AcDbLine
 10
203.4205135371305
 20
115.1537102677587
 30
0.0
 11
202.4247135371308
 21
116.2537102677588
 31
0.0
  0
LINE
  5
23C3
330
1A
100
AcDbEntity
  8
NOKITOI
  6
PHANTOM
 62
     8
100
AcDbLine
 10
199.7550135371304
 20
105.1537102677587
 30
0.0
 11
205.7959135371309
 21
105.1537102677587
 31
0.0
  0
LINE
  5
23C4
330
1A
100
AcDbEntity
  8
NOKITOI
  6
PHANTOM
 62
     8
100
AcDbLine
 10
201.056113537131
 20
117.4537102677586
 30
0.0
 11
203.2876135371309
 21
117.4537102677586
 31
0.0
  0
ARC
  5
23C5
330
1A
100
AcDbEntity
  8
NOKITOI
  6
PHANTOM
 62
     8
100
AcDbCircle
 10
204.0074143201393
 20
119.4537112227604
 30
0.0
 40
0.4999990449987349
100
AcDbArc
 50
90.0000897263067
 51
191.3032801984552
  0
ARC
  5
23C6
330
1A
100
AcDbEntity
  8
NOKITOI
  6
PHANTOM
 62
     8
100
AcDbCircle
 10
203.2876207916863
 20
117.9537191176021
 30
0.0
 40
0.5000088498959383
100
AcDbArc
 50
269.9991687038574
 51
11.31359566951104
  0
LINE
  5
23C7
330
1A
100
AcDbEntity
  8
NOKITOI
  6
PHANTOM
 62
     8
100
AcDbLine
 10
203.7779135371308
 20
118.0518102677586
 30
0.0
 11
203.5171135371308
 21
119.3557102677587
 31
0.0
  0
ARC
  5
23C8
330
1A
100
AcDbEntity
  8
NOKITOI
  6
PHANTOM
 62
     8
100
AcDbCircle
 10
201.0561197382887
 20
116.9537168028439
 30
0.0
 40
0.4999934649531607
100
AcDbArc
 50
90.00071060961758
 51
183.0044636796624
  0
LINE
  5
23C9
330
1A
100
AcDbEntity
  8
NOKITOI
  6
PHANTOM
 62
     8
100
AcDbLine
 10
98.48751353713055
 20
103.0532102677587
 30
0.0
 11
101.3563135371307
 21
74.36581026775866
 31
0.0
  0
LINE
  5
23CA
330
1A
100
AcDbEntity
  8
NOKITOI
  6
PHANTOM
 62
     8
100
AcDbLine
 10
99.52851353713072
 20
104.7035102677587
 30
0.0
 11
102.5215135371311
 21
74.77371026775859
 31
0.0
  0
LINE
  5
23CE
330
1A
100
AcDbEntity
  8
NOKITOI
  6
PHANTOM
 62
     8
100
AcDbLine
 10
101.7181135371308
 20
73.69131026775881
 30
0.0
 11
112.1212135371308
 21
65.17961026775878
 31
0.0
  0
LINE
  5
23CF
330
1A
100
AcDbEntity
  8
NOKITOI
  6
PHANTOM
 62
     8
100
AcDbLine
 10
102.7024135371304
 20
74.43641026775868
 30
0.0
 11
112.6877135371307
 21
66.26661026775855
 31
0.0
  0
LINE
  5
23D3
330
1A
100
AcDbEntity
  8
NOKITOI
  6
PHANTOM
 62
     8
100
AcDbLine
 10
116.7545135371308
 20
64.95361026775867
 30
0.0
 11
136.9124135371305
 21
64.95361026775867
 31
0.0
  0
LINE
  5
23D4
330
1A
100
AcDbEntity
  8
NOKITOI
  6
PHANTOM
 62
     8
100
AcDbLine
 10
117.0043135371308
 20
66.15361026775872
 30
0.0
 11
136.9124135371305
 21
66.15361026775872
 31
0.0
  0
ARC
  5
23D5
330
1A
100
AcDbEntity
  8
NOKITOI
  6
PHANTOM
 62
     8
100
AcDbCircle
 10
112.7545204697082
 20
65.95360779275257
 30
0.0
 40
0.9999975250179316
100
AcDbArc
 50
230.705358324772
 51
269.999602791598
  0
ARC
  5
23D6
330
1A
100
AcDbEntity
  8
NOKITOI
  6
PHANTOM
 62
     8
100
AcDbCircle
 10
113.0043071493821
 20
66.65361254774825
 30
0.0
 40
0.5000022800304047
100
AcDbArc
 50
230.7145501403939
 51
270.0007319787208
  0
ARC
  5
23D7
330
1A
100
AcDbEntity
  8
NOKITOI
  6
PHANTOM
 62
     8
100
AcDbCircle
 10
102.3513361099996
 20
74.46526819608607
 30
0.0
 40
0.9999908507640039
100
AcDbArc
 50
185.7137670522467
 51
230.7112907769309
  0
ARC
  5
23D8
330
1A
100
AcDbEntity
  8
NOKITOI
  6
PHANTOM
 62
     8
100
AcDbCircle
 10
103.019030963009
 20
74.82337778137071
 30
0.0
 40
0.4999904508696396
100
AcDbArc
 50
185.700988925076
 51
230.7099153622048
  0
ARC
  5
23D9
330
1A
100
AcDbEntity
  8
NOKITOI
  6
PHANTOM
 62
     8
100
AcDbCircle
 10
99.03100046612621
 20
104.6537220980385
 30
0.0
 40
0.499988169890889
100
AcDbArc
 50
5.70339386228373
 51
89.99850213773529
  0
ARC
  5
23DA
330
1A
100
AcDbEntity
  8
NOKITOI
  6
PHANTOM
 62
     8
100
AcDbCircle
 10
92.99907554930655
 20
107.1536470883309
 30
0.0
 40
2.000036820932882
100
AcDbArc
 50
181.7889408725805
 51
270.0010882509654
  0
ARC
  5
23DB
330
1A
100
AcDbEntity
  8
NOKITOI
  6
PHANTOM
 62
     8
100
AcDbCircle
 10
91.3513963239527
 20
105.4537269509064
 30
0.0
 40
1.500016683246579
100
AcDbArc
 50
181.7923576755887
 51
270.0006574876639
  0
LINE
  5
23DE
330
1A
100
AcDbEntity
  8
NOKITOI
  6
PHANTOM
 62
     8
100
AcDbLine
 10
91.35141353713084
 20
103.9537102677586
 30
0.0
 11
97.49251353713066
 21
103.9537102677586
 31
0.0
  0
ARC
  5
23E4
330
1A
100
AcDbEntity
  8
NOKITOI
  6
PHANTOM
 62
     8
100
AcDbCircle
 10
97.49249288728993
 20
102.9537289556078
 30
0.0
 40
0.9999813123640345
100
AcDbArc
 50
5.709409966648592
 51
89.9988168291509
  0
LINE
  5
23E7
330
1A
100
AcDbEntity
  8
NOKITOI
  6
PHANTOM
 62
     8
100
AcDbLine
 10
91.46101353713062
 20
119.9536102677587
 30
0.0
 11
94.78761353713094
 21
119.9537102677586
 31
0.0
  0
LINE
  5
23E8
330
1A
100
AcDbEntity
  8
NOKITOI
  6
PHANTOM
 62
     8
100
AcDbLine
 10
91.46101353713062
 20
118.7536102677586
 30
0.0
 11
93.93371353713087
 21
118.7537102677588
 31
0.0
  0
ARC
  5
23E9
330
1A
100
AcDbEntity
  8
NOKITOI
  6
PHANTOM
 62
     8
100
AcDbCircle
 10
94.91253140348204
 20
109.9537189961386
 30
0.0
 40
5.199991271650611
100
AcDbArc
 50
90.00019685927602
 51
142.0746713952694
  0
ARC
  5
23EA
330
1A
100
AcDbEntity
  8
NOKITOI
  6
PHANTOM
 62
     8
100
AcDbCircle
 10
94.91254446406697
 20
109.9537460124224
 30
0.0
 40
3.99998565374706
100
AcDbArc
 50
96.47577619531659
 51
181.791303340899
  0
LINE
  5
23ED
330
1A
100
AcDbEntity
  8
NOKITOI
  6
PHANTOM
 62
     8
100
AcDbLine
 10
97.92241353713075
 20
110.9274102677586
 30
0.0
 11
98.23821353713107
 21
116.9274102677586
 31
0.0
  0
LINE
  5
23F0
330
1A
100
AcDbEntity
  8
NOKITOI
  6
PHANTOM
 62
     8
100
AcDbLine
 10
93.93371353713087
 20
118.7537102677588
 30
0.0
 11
93.43371353713086
 21
116.2537102677588
 31
0.0
  0
LINE
  5
23F1
330
1A
100
AcDbEntity
  8
NOKITOI
  6
PHANTOM
 62
     8
100
AcDbLine
 10
99.03101353713124
 20
105.1537102677587
 30
0.0
 11
92.99911353713083
 21
105.1537102677587
 31
0.0
  0
LINE
  5
23F2
330
1A
100
AcDbEntity
  8
NOKITOI
  6
PHANTOM
 62
     8
100
AcDbLine
 10
93.43371353713086
 20
116.2537102677588
 30
0.0
 11
96.37031353713087
 21
116.2537102677588
 31
0.0
  0
ARC
  5
23F3
330
1A
100
AcDbEntity
  8
NOKITOI
  6
PHANTOM
 62
     8
100
AcDbCircle
 10
94.51778416463117
 20
113.4313405002535
 30
0.0
 40
0.4999578477751074
100
AcDbArc
 50
351.8669438287067
 51
96.47390928779241
  0
LINE
  5
23F4
330
1A
100
AcDbEntity
  8
NOKITOI
  6
PHANTOM
 62
     8
100
AcDbLine
 10
96.75901353713085
 20
111.6537102677587
 30
0.0
 11
96.94011353713108
 21
115.0951102677586
 31
0.0
  0
LINE
  5
23F5
330
1A
100
AcDbEntity
  8
NOKITOI
  6
PHANTOM
 62
     8
100
AcDbLine
 10
96.38511353713079
 20
114.4821102677586
 30
0.0
 11
96.94011353713108
 21
115.0951102677586
 31
0.0
  0
LINE
  5
23F6
330
1A
100
AcDbEntity
  8
NOKITOI
  6
PHANTOM
 62
     8
100
AcDbLine
 10
95.98111353713125
 20
111.6537102677587
 30
0.0
 11
96.38511353713079
 21
114.4821102677586
 31
0.0
  0
LINE
  5
23F7
330
1A
100
AcDbEntity
  8
NOKITOI
  6
PHANTOM
 62
     8
100
AcDbLine
 10
96.75901353713085
 20
111.6537102677587
 30
0.0
 11
95.98111353713125
 21
111.6537102677587
 31
0.0
  0
LINE
  5
23F8
330
1A
100
AcDbEntity
  8
NOKITOI
  6
PHANTOM
 62
     8
100
AcDbLine
 10
97.4231135371308
 20
110.4537102677586
 30
0.0
 11
95.17401353713125
 21
110.4537102677586
 31
0.0
  0
ARC
  5
23F9
330
1A
100
AcDbEntity
  8
NOKITOI
  6
PHANTOM
 62
     8
100
AcDbCircle
 10
97.42310941572419
 20
110.9537063577281
 30
0.0
 40
0.4999960899864752
100
AcDbArc
 50
270.0004722821422
 51
356.9852756208258
  0
ARC
  5
23FA
330
1A
100
AcDbEntity
  8
NOKITOI
  6
PHANTOM
 62
     8
100
AcDbCircle
 10
95.17400335069465
 20
110.9537220124828
 30
0.0
 40
0.5000117448278309
100
AcDbArc
 50
171.8726853912844
 51
270.0011672521999
  0
LINE
  5
23FB
330
1A
100
AcDbEntity
  8
NOKITOI
  6
PHANTOM
 62
     8
100
AcDbLine
 10
94.67901353713092
 20
111.0244102677586
 30
0.0
 11
95.0128135371308
 21
113.3606102677588
 31
0.0
  0
LINE
  5
23FC
330
1A
100
AcDbEntity
  8
NOKITOI
  6
PHANTOM
 62
     8
100
AcDbLine
 10
95.37451353713072
 20
115.1537102677587
 30
0.0
 11
94.91251353713073
 21
115.1537102677587
 31
0.0
  0
LINE
  5
23FD
330
1A
100
AcDbEntity
  8
NOKITOI
  6
PHANTOM
 62
     8
100
AcDbLine
 10
95.37451353713072
 20
115.1537102677587
 30
0.0
 11
96.37031353713087
 21
116.2537102677588
 31
0.0
  0
LINE
  5
2400
330
1A
100
AcDbEntity
  8
NOKITOI
  6
PHANTOM
 62
     8
100
AcDbLine
 10
97.73891353713066
 20
117.4537102677586
 30
0.0
 11
95.50741353713078
 21
117.4537102677586
 31
0.0
  0
ARC
  5
2401
330
1A
100
AcDbEntity
  8
NOKITOI
  6
PHANTOM
 62
     8
100
AcDbCircle
 10
94.78762079168632
 20
119.4537014179152
 30
0.0
 40
0.500008849895925
100
AcDbArc
 50
348.6864043304874
 51
90.00083129614585
  0
ARC
  5
2402
330
1A
100
AcDbEntity
  8
NOKITOI
  6
PHANTOM
 62
     8
100
AcDbCircle
 10
95.50741432013934
 20
117.9537093127569
 30
0.0
 40
0.4999990449987399
100
AcDbArc
 50
168.6967198015447
 51
269.9999102736965
  0
LINE
  5
2403
330
1A
100
AcDbEntity
  8
NOKITOI
  6
PHANTOM
 62
     8
100
AcDbLine
 10
95.01711353713085
 20
118.0517102677588
 30
0.0
 11
95.27791353713087
 21
119.3557102677587
 31
0.0
  0
ARC
  5
2406
330
1A
100
AcDbEntity
  8
NOKITOI
  6
PHANTOM
 62
     8
100
AcDbCircle
 10
97.73890982763555
 20
116.9537141777894
 30
0.0
 40
0.4999960899831856
100
AcDbArc
 50
356.9843782585353
 51
89.99957491985082
  0
LINE
  5
2407
330
1A
100
AcDbEntity
  8
NOKITOI
  6
PHANTOM
 62
     8
100
AcDbLine
 10
90.66141353713124
 20
117.9287102677585
 30
0.0
 11
90.81071353713083
 21
113.1497102677588
 31
0.0
  0
LINE
  5
2408
330
1A
100
AcDbEntity
  8
NOKITOI
  6
PHANTOM
 62
     8
100
AcDbLine
 10
89.46201353713082
 20
117.8912102677586
 30
0.0
 11
89.85211353713088
 21
105.4068102677586
 31
0.0
  0
LINE
  5
240A
330
1A
100
AcDbEntity
  8
NOKITOI
  6
PHANTOM
 62
     8
100
AcDbLine
 10
91.00001353713082
 20
107.0911102677587
 30
0.0
 11
90.91451353713114
 21
109.8287102677586
 31
0.0
  0
ARC
  5
240D
330
1A
100
AcDbEntity
  8
NOKITOI
  6
PHANTOM
 62
     8
100
AcDbCircle
 10
91.46096957077793
 20
117.9536649052857
 30
0.0
 40
0.7999453636812564
100
AcDbArc
 50
89.99685092684577
 51
181.7876563552118
  0
ARC
  5
240E
330
1A
100
AcDbEntity
  8
NOKITOI
  6
PHANTOM
 62
     8
100
AcDbCircle
 10
91.46102477412501
 20
117.9537218615758
 30
0.0
 40
1.999988406214315
100
AcDbArc
 50
90.00032191804612
 51
181.7911273464063
  0
LINE
  5
2424
330
1A
100
AcDbEntity
  8
SEIHIN
100
AcDbLine
 10
201.9486371923807
 20
195.3569767171586
 30
0.0
 11
201.9486371923807
 21
197.8569767171586
 31
0.0
  0
LINE
  5
2425
330
1A
100
AcDbEntity
  8
SEIHIN
100
AcDbLine
 10
201.9486371923807
 20
212.8569767171586
 30
0.0
 11
201.9486371923807
 21
215.3569767171586
 31
0.0
  0
LWPOLYLINE
  5
2561
330
1A
100
AcDbEntity
  8
ZUWAKU
100
AcDbPolyline
 90
        4
 70
     1
 43
0.0
 10
0.3999999982485178
 20
275.4000002832666
 10
0.3999999982485178
 20
0.4000002832665928
 10
398.3999999982485
 20
0.4000002832665928
 10
398.3999999982485
 20
275.4000002832666
  0
LWPOLYLINE
  5
2562
330
1A
100
AcDbEntity
  8
ZUWAKU
100
AcDbPolyline
 90
        4
 70
     1
 43
0.0
 10
0.1999999982485292
 20
275.6000002832665
 10
0.1999999982485292
 20
0.2000002832666041
 10
398.5999999982485
 20
0.2000002832665926
 10
398.5999999982485
 20
275.6000002832665
  0
LWPOLYLINE
  5
2563
330
1A
100
AcDbEntity
  8
ZUWAKU
100
AcDbPolyline
 90
        4
 70
     1
 43
0.0
 10
-0.0000000017514594
 20
275.8000002832665
 10
-0.0000000017514594
 20
0.0000002832665587
 10
398.7999999982486
 20
0.0000002832665924
 10
398.7999999982486
 20
275.8000002832666
  0
LWPOLYLINE
  5
2564
330
1A
100
AcDbEntity
  8
ZUWAKU
100
AcDbPolyline
 90
        4
 70
     1
 43
0.0
 10
0.2999999982484951
 20
275.5000002832665
 10
0.2999999982484951
 20
0.30000028326657
 10
398.4999999982486
 20
0.3000002832665931
 10
398.4999999982485
 20
275.5000002832665
  0
LWPOLYLINE
  5
2565
330
1A
100
AcDbEntity
  8
ZUWAKU
100
AcDbPolyline
 90
        4
 70
     1
 43
0.0
 10
0.0999999982485065
 20
275.7000002832666
 10
0.0999999982485065
 20
0.1000002832665814
 10
398.6999999982484
 20
0.1000002832665929
 10
398.6999999982486
 20
275.7000002832666
  0
LINE
  5
2566
330
1A
100
AcDbEntity
  8
ZUWAKU
100
AcDbLine
 10
-0.0000000017514594
 20
15.00000028326655
 30
0.0
 11
398.6999999982484
 21
15.00000028326655
 31
0.0
  0
LINE
  5
2567
330
1A
100
AcDbEntity
  8
ZUWAKU
100
AcDbLine
 10
-0.0000000017514594
 20
15.10000028326656
 30
0.0
 11
398.6999999982484
 21
15.10000028326656
 31
0.0
  0
LINE
  5
2568
330
1A
100
AcDbEntity
  8
ZUWAKU
100
AcDbLine
 10
-0.0000000017514594
 20
15.20000028326656
 30
0.0
 11
398.6999999982484
 21
15.20000028326656
 31
0.0
  0
LINE
  5
2569
330
1A
100
AcDbEntity
  8
ZUWAKU
100
AcDbLine
 10
-0.0000000017514594
 20
15.30000028326656
 30
0.0
 11
398.6999999982484
 21
15.30000028326656
 31
0.0
  0
LINE
  5
256A
330
1A
100
AcDbEntity
  8
ZUWAKU
100
AcDbLine
 10
-0.0000000017514594
 20
15.40000028326656
 30
0.0
 11
398.6999999982484
 21
15.40000028326656
 31
0.0
  0
LINE
  5
256B
330
1A
100
AcDbEntity
  8
ZUWAKU
100
AcDbLine
 10
104.3233006432825
 20
7.700000283266575
 30
0.0
 11
223.7121819837442
 21
7.700000283266575
 31
0.0
  0
LINE
  5
256C
330
1A
100
AcDbEntity
  8
ZUWAKU
100
AcDbLine
 10
104.3233006432825
 20
7.800000283266575
 30
0.0
 11
223.7121819837442
 21
7.800000283266578
 31
0.0
  0
LINE
  5
256D
330
1A
100
AcDbEntity
  8
ZUWAKU
100
AcDbLine
 10
104.3233006432825
 20
7.600000283266577
 30
0.0
 11
223.7121819837442
 21
7.600000283266574
 31
0.0
  0
TEXT
  5
256E
330
1A
100
AcDbEntity
  8
MOJI
100
AcDbText
 10
46.4788947923331
 20
6.370589348403939
 30
0.0
 40
3.0
  1
新・丸トップＲＶ１０５
 41
0.9
  7
ｽﾀｲﾙ1
100
AcDbText
  0
CIRCLE
  5
256F
330
1A
100
AcDbEntity
  8
ZUWAKU
100
AcDbCircle
 10
12.99610607563909
 20
7.60000028326656
 30
0.0
 40
0.875
  0
LINE
  5
2570
330
1A
100
AcDbEntity
  8
ZUWAKU
100
AcDbLine
 10
13.43360607563909
 20
3.575000283266561
 30
0.0
 11
12.47110607563911
 21
3.575000283266561
 31
0.0
  0
LINE
  5
2571
330
1A
100
AcDbEntity
  8
ZUWAKU
100
AcDbLine
 10
12.47110607563911
 20
4.97500028326656
 30
0.0
 11
13.43360607563909
 21
4.97500028326656
 31
0.0
  0
LINE
  5
2572
330
1A
100
AcDbEntity
  8
ZUWAKU
100
AcDbLine
 10
13.43360607563909
 20
10.22500028326656
 30
0.0
 11
12.47110607563911
 21
10.22500028326656
 31
0.0
  0
LINE
  5
2573
330
1A
100
AcDbEntity
  8
ZUWAKU
100
AcDbLine
 10
12.47110607563911
 20
11.62500028326654
 30
0.0
 11
13.43360607563909
 21
11.62500028326656
 31
0.0
  0
HATCH
  5
2574
330
1A
100
AcDbEntity
  8
ZUWAKU
100
AcDbHatch
 10
0.0
 20
0.0
 30
0.0
210
0.0
220
0.0
230
1.0
  2
ANSI37
 70
     0
 71
     0
 91
        8
 92
        7
 72
     1
 73
     1
 93
       24
 10
7.251131328808469
 20
8.82242452375835
 42
-0.1989123673796348
 10
7.046106075639102
 20
9.317399270588875
 42
0.0
 10
7.046106075639102
 20
9.962500283266564
 42
-0.4142135623730912
 10
7.30860607563909
 20
10.22500028326656
 42
0.0
 10
8.796106075639045
 20
10.22500028326656
 42
0.4142135623731546
 10
9.05860607563909
 20
10.48750028326655
 42
0.0
 10
9.05860607563909
 20
11.36250028326656
 42
0.4142135623731586
 10
8.796106075639045
 20
11.62500028326656
 42
0.0
 10
7.046106075639102
 20
11.62500028326656
 42
0.4142135623730928
 10
5.646106075639124
 20
10.22500028326657
 42
0.0
 10
5.646106075639124
 20
9.317399270588939
 42
0.1989123673796619
 10
6.26118183514734
 20
7.832475030097135
 42
0.0
 10
7.716080822469677
 20
6.377576042774807
 42
-0.1989123673796613
 10
7.921106075639102
 20
5.882601295944214
 42
0.0
 10
7.921106075639102
 20
5.237500283266555
 42
-0.4142135623730911
 10
7.658606075639113
 20
4.97500028326656
 42
0.0
 10
6.171106075639158
 20
4.97500028326656
 42
0.4142135623731526
 10
5.908606075639113
 20
4.712500283266566
 42
0.0
 10
5.908606075639113
 20
3.837500283266555
 42
0.4142135623731526
 10
6.171106075639158
 20
3.575000283266561
 42
0.0
 10
7.921106075639102
 20
3.575000283266561
 42
0.4142135623731044
 10
9.321106075639136
 20
4.975000283266549
 42
0.0
 10
9.321106075639136
 20
5.882601295944185
 42
0.1989123673796604
 10
8.706030316130863
 20
7.367525536435955
 42
0.0
 97
        0
 92
        7
 72
     1
 73
     1
 93
       16
 10
11.77110607563912
 20
9.525000283266564
 42
-0.4142135623730935
 10
12.47110607563911
 20
10.22500028326656
 42
0.0
 10
13.43360607563909
 20
10.22500028326656
 42
0.4142135623731546
 10
13.69610607563913
 20
10.48750028326655
 42
0.0
 10
13.69610607563913
 20
11.36250028326656
 42
0.4142135623730951
 10
13.43360607563914
 20
11.62500028326656
 42
0.0
 10
12.47110607563905
 20
11.62500028326654
 42
0.4142135623730892
 10
10.37110607563909
 20
9.525000283266528
 42
0.0
 10
10.37110607563909
 20
5.675000283266573
 42
0.4142135623730969
 10
12.47110607563911
 20
3.575000283266561
 42
0.0
 10
13.43360607563909
 20
3.575000283266561
 42
0.4142135623731526
 10
13.69610607563913
 20
3.837500283266555
 42
0.0
 10
13.69610607563913
 20
4.712500283266566
 42
0.4142135623730891
 10
13.43360607563914
 20
4.97500028326656
 42
0.0
 10
12.47110607563911
 20
4.97500028326656
 42
-0.4142135623730928
 10
11.77110607563912
 20
5.675000283266554
 42
0.0
 97
        0
 92
        7
 72
     1
 73
     1
 93
        2
 10
12.12110607563909
 20
7.60000028326656
 42
1.0
 10
13.87110607563909
 20
7.60000028326656
 42
1.0
 97
        0
 92
        7
 72
     1
 73
     1
 93
       26
 10
18.6574293167281
 20
9.602523880048273
 42
0.0
 10
19.188249133297
 20
11.28345329918307
 42
0.5069206636600134
 10
18.93793368369932
 20
11.62500028326656
 42
0.0
 10
18.08848899389471
 20
11.62500028326656
 42
0.3272098845218764
 10
17.83817354429703
 20
11.44154726735004
 42
0.0
 10
16.90403860698114
 20
8.4834532991831
 42
-0.3272098845219541
 10
16.65372315738341
 20
8.300000283266559
 42
0.0
 10
16.58360607563918
 20
8.300000283266559
 42
-0.4142135623731526
 10
16.32110607563913
 20
8.562500283266553
 42
0.0
 10
16.32110607563913
 20
11.36250028326656
 42
0.4142135623730951
 10
16.05860607563914
 20
11.62500028326656
 42
0.0
 10
15.18360607563909
 20
11.62500028326656
 42
0.4142135623730871
 10
14.9211060756391
 20
11.36250028326657
 42
0.0
 10
14.9211060756391
 20
3.837500283266555
 42
0.4142135623730891
 10
15.18360607563909
 20
3.575000283266561
 42
0.0
 10
16.05860607563909
 20
3.575000283266561
 42
0.4142135623731526
 10
16.32110607563913
 20
3.837500283266555
 42
0.0
 10
16.32110607563913
 20
6.637500283266566
 42
-0.4142135623731526
 10
16.58360607563918
 20
6.90000028326656
 42
0.0
 10
16.65372315738346
 20
6.90000028326656
 42
-0.3272098845218915
 10
16.90403860698114
 20
6.716547267350023
 42
0.0
 10
17.83817354429703
 20
3.758453299183097
 42
0.3272098845218902
 10
18.08848899389471
 20
3.575000283266561
 42
0.0
 10
18.93793368369932
 20
3.575000283266561
 42
0.5069206636600335
 10
19.188249133297
 20
3.916547267350065
 42
0.0
 10
18.02505344406017
 20
7.600000283266629
 42
0.0
 97
        0
 92
        7
 72
     1
 73
     1
 93
        8
 10
21.74610607563909
 20
11.36250028326656
 42
0.4142135623731546
 10
21.48360607563904
 20
11.62500028326656
 42
0.0
 10
20.60860607563915
 20
11.62500028326656
 42
0.4142135623731507
 10
20.34610607563911
 20
11.36250028326657
 42
0.0
 10
20.34610607563911
 20
3.837500283266555
 42
0.4142135623731526
 10
20.60860607563915
 20
3.575000283266561
 42
0.0
 10
21.48360607563904
 20
3.575000283266561
 42
0.4142135623731526
 10
21.74610607563909
 20
3.837500283266555
 42
0.0
 97
        0
 92
        7
 72
     1
 73
     1
 93
       24
 10
24.19610607563913
 20
9.962500283266564
 42
-0.4142135623731546
 10
24.45860607563918
 20
10.22500028326656
 42
0.0
 10
25.94610607563913
 20
10.22500028326656
 42
0.4142135623730911
 10
26.20860607563912
 20
10.48750028326655
 42
0.0
 10
26.20860607563912
 20
11.36250028326656
 42
0.4142135623730952
 10
25.94610607563913
 20
11.62500028326656
 42
0.0
 10
24.19610607563913
 20
11.62500028326656
 42
0.4142135623731048
 10
22.7961060756391
 20
10.22500028326657
 42
0.0
 10
22.7961060756391
 20
9.317399270588939
 42
0.1989123673796613
 10
23.41118183514737
 20
7.832475030097164
 42
0.0
 10
24.86608082246971
 20
6.37757604277483
 42
-0.1989123673796402
 10
25.07110607563913
 20
5.882601295944294
 42
0.0
 10
25.07110607563913
 20
5.237500283266555
 42
-0.4142135623730911
 10
24.80860607563915
 20
4.97500028326656
 42
0.0
 10
23.32110607563913
 20
4.97500028326656
 42
0.4142135623731526
 10
23.05860607563908
 20
4.712500283266566
 42
0.0
 10
23.05860607563908
 20
3.837500283266555
 42
0.4142135623730891
 10
23.32110607563908
 20
3.575000283266561
 42
0.0
 10
25.07110607563913
 20
3.575000283266561
 42
0.4142135623730925
 10
26.47110607563911
 20
4.975000283266549
 42
0.0
 10
26.47110607563911
 20
5.882601295944185
 42
0.1989123673796675
 10
25.85603031613084
 20
7.367525536436012
 42
0.0
 10
24.40113132880856
 20
8.82242452375827
 42
-0.1989123673796652
 10
24.19610607563913
 20
9.317399270588854
 42
0.0
 97
        0
 92
        7
 72
     1
 73
     1
 93
       16
 10
28.9211060756391
 20
11.36250028326655
 42
0.414213562373103
 10
28.65860607563911
 20
11.62500028326656
 42
0.0
 10
27.78360607563911
 20
11.62500028326656
 42
0.4142135623730871
 10
27.52110607563912
 20
11.36250028326657
 42
0.0
 10
27.52110607563912
 20
4.975000283266549
 42
0.4142135623730926
 10
28.9211060756391
 20
3.575000283266561
 42
0.0
 10
30.6711060756391
 20
3.575000283266561
 42
0.4142135623731044
 10
32.07110607563913
 20
4.975000283266549
 42
0.0
 10
32.07110607563913
 20
11.36250028326656
 42
0.4142135623730951
 10
31.80860607563914
 20
11.62500028326656
 42
0.0
 10
30.93360607563909
 20
11.62500028326656
 42
0.4142135623730871
 10
30.6711060756391
 20
11.36250028326657
 42
0.0
 10
30.6711060756391
 20
5.500000283266547
 42
-0.414213562373088
 10
30.14610607563912
 20
4.97500028326656
 42
0.0
 10
29.44610607563913
 20
4.97500028326656
 42
-0.4142135623731197
 10
28.9211060756391
 20
5.500000283266547
 42
0.0
 97
        0
 92
        7
 72
     1
 73
     1
 93
        8
 10
34.52110607563912
 20
11.36250028326657
 42
0.4142135623730871
 10
34.25860607563913
 20
11.62500028326656
 42
0.0
 10
33.38360607563913
 20
11.62500028326656
 42
0.4142135623731507
 10
33.12110607563909
 20
11.36250028326657
 42
0.0
 10
33.12110607563909
 20
3.837500283266555
 42
0.4142135623730891
 10
33.38360607563908
 20
3.575000283266561
 42
0.0
 10
34.25860607563913
 20
3.575000283266561
 42
0.4142135623730891
 10
34.52110607563912
 20
3.837500283266555
 42
0.0
 97
        0
 75
     0
 76
     1
 52
0.0
 41
0.1
 77
     0
 78
     2
 53
45.0
 43
-450.4711521690909
 44
-6.599999716733407
 45
-0.2245064030267288
 46
0.2245064030267288
 79
     0
 53
135.0
 43
-450.4711521690909
 44
-6.599999716733407
 45
-0.2245064030267288
 46
-0.2245064030267288
 79
     0
 47
0.057451373970553
 98
        8
 10
8.039927479760194
 20
7.583587106209336
 10
11.20225750146812
 20
9.422031374492064
 10
12.58218394107837
 20
7.755941106301918
 10
15.45702998906711
 20
8.10064910648731
 10
20.91923600772691
 20
8.330455240258118
 10
23.44910044581331
 20
9.709288441470164
 10
28.27884298444871
 20
9.364579240814066
 10
33.91353980805991
 20
9.594385374584874
  0
ARC
  5
2575
330
1A
100
AcDbEntity
  8
ZUWAKU
100
AcDbCircle
 10
7.74610607563909
 20
9.317399270588911
 30
0.0
 40
2.099999999999999
100
AcDbArc
 50
180.0
 51
225.0
  0
LINE
  5
2576
330
1A
100
AcDbEntity
  8
ZUWAKU
100
AcDbLine
 10
10.37110607563909
 20
5.675000283266562
 30
0.0
 11
10.37110607563909
 21
9.525000283266539
 31
0.0
  0
LINE
  5
2577
330
1A
100
AcDbEntity
  8
ZUWAKU
100
AcDbLine
 10
11.77110607563912
 20
9.52500028326656
 30
0.0
 11
11.77110607563912
 21
5.675000283266562
 31
0.0
  0
ARC
  5
2578
330
1A
100
AcDbEntity
  8
ZUWAKU
100
AcDbCircle
 10
7.74610607563909
 20
9.317399270588911
 30
0.0
 40
0.7
100
AcDbArc
 50
180.0000000000016
 51
224.9999999999988
  0
ARC
  5
2579
330
1A
100
AcDbEntity
  8
ZUWAKU
100
AcDbCircle
 10
12.47110607563911
 20
5.675000283266562
 30
0.0
 40
2.099999999999999
100
AcDbArc
 50
180.0
 51
270.0
  0
ARC
  5
257A
330
1A
100
AcDbEntity
  8
ZUWAKU
100
AcDbCircle
 10
7.921106075639102
 20
4.97500028326656
 30
0.0
 40
1.399999999999999
100
AcDbArc
 50
270.0
 51
0.0
  0
ARC
  5
257B
330
1A
100
AcDbEntity
  8
ZUWAKU
100
AcDbCircle
 10
7.221106075639113
 20
5.882601295944212
 30
0.0
 40
2.099999999999999
100
AcDbArc
 50
0.0
 51
45.0
  0
LINE
  5
257C
330
1A
100
AcDbEntity
  8
ZUWAKU
100
AcDbLine
 10
6.26118183514734
 20
7.83247503009715
 30
0.0
 11
7.716080822469677
 21
6.377576042774819
 31
0.0
  0
LINE
  5
257D
330
1A
100
AcDbEntity
  8
ZUWAKU
100
AcDbLine
 10
6.171106075639102
 20
4.97500028326656
 30
0.0
 11
7.658606075639113
 21
4.97500028326656
 31
0.0
  0
LINE
  5
257E
330
1A
100
AcDbEntity
  8
ZUWAKU
100
AcDbLine
 10
6.171106075639102
 20
3.575000283266561
 30
0.0
 11
7.921106075639102
 21
3.575000283266561
 31
0.0
  0
ARC
  5
257F
330
1A
100
AcDbEntity
  8
ZUWAKU
100
AcDbCircle
 10
6.171106075639102
 20
4.71250028326656
 30
0.0
 40
0.2625
100
AcDbArc
 50
90.0
 51
180.0
  0
ARC
  5
2580
330
1A
100
AcDbEntity
  8
ZUWAKU
100
AcDbCircle
 10
6.171106075639102
 20
3.83750028326656
 30
0.0
 40
0.2625
100
AcDbArc
 50
180.0
 51
270.0
  0
LINE
  5
2581
330
1A
100
AcDbEntity
  8
ZUWAKU
100
AcDbLine
 10
5.908606075639113
 20
3.83750028326656
 30
0.0
 11
5.908606075639113
 21
4.71250028326656
 31
0.0
  0
ARC
  5
2582
330
1A
100
AcDbEntity
  8
ZUWAKU
100
AcDbCircle
 10
7.221106075639113
 20
5.882601295944233
 30
0.0
 40
0.7
100
AcDbArc
 50
0.0
 51
45.0
  0
ARC
  5
2583
330
1A
100
AcDbEntity
  8
ZUWAKU
100
AcDbCircle
 10
7.658606075639113
 20
5.237500283266562
 30
0.0
 40
0.2625
100
AcDbArc
 50
270.0
 51
0.0
  0
LINE
  5
2584
330
1A
100
AcDbEntity
  8
ZUWAKU
100
AcDbLine
 10
7.921106075639102
 20
5.237500283266562
 30
0.0
 11
7.921106075639102
 21
5.882601295944233
 31
0.0
  0
LINE
  5
2585
330
1A
100
AcDbEntity
  8
ZUWAKU
100
AcDbLine
 10
8.706030316130863
 20
7.367525536435973
 30
0.0
 11
7.251131328808526
 21
8.822424523758311
 31
0.0
  0
ARC
  5
2586
330
1A
100
AcDbEntity
  8
ZUWAKU
100
AcDbCircle
 10
12.47110607563911
 20
5.675000283266562
 30
0.0
 40
0.7
100
AcDbArc
 50
180.0
 51
270.0
  0
LINE
  5
2587
330
1A
100
AcDbEntity
  8
ZUWAKU
100
AcDbLine
 10
9.321106075639136
 20
4.97500028326656
 30
0.0
 11
9.321106075639136
 21
5.882601295944233
 31
0.0
  0
ARC
  5
2588
330
1A
100
AcDbEntity
  8
ZUWAKU
100
AcDbCircle
 10
8.796106075639102
 20
10.48750028326655
 30
0.0
 40
0.2625
100
AcDbArc
 50
270.0
 51
0.0
  0
ARC
  5
2589
330
1A
100
AcDbEntity
  8
ZUWAKU
100
AcDbCircle
 10
8.796106075639102
 20
11.36250028326655
 30
0.0
 40
0.2625
100
AcDbArc
 50
0.0
 51
90.0
  0
ARC
  5
258A
330
1A
100
AcDbEntity
  8
ZUWAKU
100
AcDbCircle
 10
7.046106075639102
 20
10.22500028326656
 30
0.0
 40
1.399999999999999
100
AcDbArc
 50
90.0
 51
180.0
  0
LINE
  5
258B
330
1A
100
AcDbEntity
  8
ZUWAKU
100
AcDbLine
 10
5.646106075639124
 20
10.22500028326656
 30
0.0
 11
5.646106075639124
 21
9.317399270588889
 31
0.0
  0
LINE
  5
258C
330
1A
100
AcDbEntity
  8
ZUWAKU
100
AcDbLine
 10
8.796106075639102
 20
10.22500028326656
 30
0.0
 11
7.30860607563909
 21
10.22500028326656
 31
0.0
  0
LINE
  5
258D
330
1A
100
AcDbEntity
  8
ZUWAKU
100
AcDbLine
 10
7.046106075639102
 20
9.96250028326656
 30
0.0
 11
7.046106075639102
 21
9.317399270588889
 31
0.0
  0
ARC
  5
258E
330
1A
100
AcDbEntity
  8
ZUWAKU
100
AcDbCircle
 10
7.30860607563909
 20
9.96250028326656
 30
0.0
 40
0.2625
100
AcDbArc
 50
90.0
 51
180.0
  0
LINE
  5
258F
330
1A
100
AcDbEntity
  8
ZUWAKU
100
AcDbLine
 10
7.046106075639102
 20
11.62500028326656
 30
0.0
 11
8.796106075639102
 21
11.62500028326656
 31
0.0
  0
ARC
  5
2590
330
1A
100
AcDbEntity
  8
ZUWAKU
100
AcDbCircle
 10
12.47110607563911
 20
9.525000283266539
 30
0.0
 40
2.099999999999999
100
AcDbArc
 50
90.0
 51
180.0
  0
ARC
  5
2591
330
1A
100
AcDbEntity
  8
ZUWAKU
100
AcDbCircle
 10
12.47110607563911
 20
9.52500028326656
 30
0.0
 40
0.7
100
AcDbArc
 50
90.0
 51
180.0
  0
LINE
  5
2592
330
1A
100
AcDbEntity
  8
ZUWAKU
100
AcDbLine
 10
9.05860607563909
 20
11.36250028326655
 30
0.0
 11
9.05860607563909
 21
10.48750028326655
 31
0.0
  0
LINE
  5
2593
330
1A
100
AcDbEntity
  8
ZUWAKU
100
AcDbLine
 10
17.83817354429703
 20
11.44154726735004
 30
0.0
 11
16.90403860698114
 21
8.483453299183075
 31
0.0
  0
LINE
  5
2594
330
1A
100
AcDbEntity
  8
ZUWAKU
100
AcDbLine
 10
14.9211060756391
 20
11.36250028326655
 30
0.0
 11
14.9211060756391
 21
3.83750028326656
 31
0.0
  0
LINE
  5
2595
330
1A
100
AcDbEntity
  8
ZUWAKU
100
AcDbLine
 10
16.32110607563913
 20
8.562500283266562
 30
0.0
 11
16.32110607563913
 21
11.36250028326655
 31
0.0
  0
LINE
  5
2596
330
1A
100
AcDbEntity
  8
ZUWAKU
100
AcDbLine
 10
28.9211060756391
 20
5.500000283266558
 30
0.0
 11
28.9211060756391
 21
11.36250028326655
 31
0.0
  0
LINE
  5
2597
330
1A
100
AcDbEntity
  8
ZUWAKU
100
AcDbLine
 10
27.52110607563912
 20
11.36250028326655
 30
0.0
 11
27.52110607563912
 21
4.97500028326656
 31
0.0
  0
LINE
  5
2598
330
1A
100
AcDbEntity
  8
ZUWAKU
100
AcDbLine
 10
21.74610607563909
 20
3.83750028326656
 30
0.0
 11
21.74610607563909
 21
11.36250028326655
 31
0.0
  0
LINE
  5
2599
330
1A
100
AcDbEntity
  8
ZUWAKU
100
AcDbLine
 10
20.34610607563911
 20
11.36250028326655
 30
0.0
 11
20.34610607563911
 21
3.83750028326656
 31
0.0
  0
LINE
  5
259A
330
1A
100
AcDbEntity
  8
ZUWAKU
100
AcDbLine
 10
18.6574293167281
 20
9.602523880048273
 30
0.0
 11
18.02505344406017
 21
7.60000028326657
 31
0.0
  0
ARC
  5
259B
330
1A
100
AcDbEntity
  8
ZUWAKU
100
AcDbCircle
 10
24.89610607563912
 20
9.317399270588911
 30
0.0
 40
2.099999999999999
100
AcDbArc
 50
180.0
 51
225.0
  0
ARC
  5
259C
330
1A
100
AcDbEntity
  8
ZUWAKU
100
AcDbCircle
 10
24.89610607563912
 20
9.317399270588911
 30
0.0
 40
0.7
100
AcDbArc
 50
180.0000000000016
 51
224.9999999999988
  0
LINE
  5
259D
330
1A
100
AcDbEntity
  8
ZUWAKU
100
AcDbLine
 10
33.12110607563909
 20
11.36250028326655
 30
0.0
 11
33.12110607563909
 21
3.83750028326656
 31
0.0
  0
LINE
  5
259E
330
1A
100
AcDbEntity
  8
ZUWAKU
100
AcDbLine
 10
34.52110607563912
 20
3.83750028326656
 30
0.0
 11
34.52110607563912
 21
11.36250028326655
 31
0.0
  0
LINE
  5
259F
330
1A
100
AcDbEntity
  8
ZUWAKU
100
AcDbLine
 10
30.6711060756391
 20
11.36250028326655
 30
0.0
 11
30.6711060756391
 21
5.500000283266558
 31
0.0
  0
LINE
  5
25A0
330
1A
100
AcDbEntity
  8
ZUWAKU
100
AcDbLine
 10
32.07110607563913
 20
4.97500028326656
 30
0.0
 11
32.07110607563913
 21
11.36250028326655
 31
0.0
  0
LINE
  5
25A1
330
1A
100
AcDbEntity
  8
ZUWAKU
100
AcDbLine
 10
39.56331477224273
 20
15.00000028326655
 30
0.0
 11
39.56331477224273
 21
0.4000002832665928
 31
0.0
  0
LINE
  5
25A2
330
1A
100
AcDbEntity
  8
ZUWAKU
100
AcDbLine
 10
39.76331477224266
 20
15.00000028326655
 30
0.0
 11
39.76331477224277
 21
0.4000002832665928
 31
0.0
  0
LINE
  5
25A3
330
1A
100
AcDbEntity
  8
ZUWAKU
100
AcDbLine
 10
39.66331477224264
 20
15.00000028326655
 30
0.0
 11
39.66331477224276
 21
0.4000002832665928
 31
0.0
  0
LINE
  5
25A4
330
1A
100
AcDbEntity
  8
ZUWAKU
100
AcDbLine
 10
28.9211060756391
 20
3.575000283266561
 30
0.0
 11
30.6711060756391
 21
3.575000283266561
 31
0.0
  0
LINE
  5
25A5
330
1A
100
AcDbEntity
  8
ZUWAKU
100
AcDbLine
 10
30.14610607563912
 20
4.97500028326656
 30
0.0
 11
29.44610607563913
 21
4.97500028326656
 31
0.0
  0
LINE
  5
25A6
330
1A
100
AcDbEntity
  8
ZUWAKU
100
AcDbLine
 10
20.6086060756391
 20
3.575000283266561
 30
0.0
 11
21.4836060756391
 21
3.575000283266561
 31
0.0
  0
LINE
  5
25A7
330
1A
100
AcDbEntity
  8
ZUWAKU
100
AcDbLine
 10
17.83817354429703
 20
3.758453299183074
 30
0.0
 11
16.90403860698114
 21
6.716547267350044
 31
0.0
  0
ARC
  5
25A8
330
1A
100
AcDbEntity
  8
ZUWAKU
100
AcDbCircle
 10
16.58360607563912
 20
6.637500283266561
 30
0.0
 40
0.2625
100
AcDbArc
 50
90.0
 51
180.0
  0
ARC
  5
25A9
330
1A
100
AcDbEntity
  8
ZUWAKU
100
AcDbCircle
 10
16.65372315738346
 20
6.637500283266561
 30
0.0
 40
0.2625
100
AcDbArc
 50
17.52556837372303
 51
90.0
  0
ARC
  5
25AA
330
1A
100
AcDbEntity
  8
ZUWAKU
100
AcDbCircle
 10
15.18360607563909
 20
3.83750028326656
 30
0.0
 40
0.2625
100
AcDbArc
 50
180.0
 51
270.0
  0
ARC
  5
25AB
330
1A
100
AcDbEntity
  8
ZUWAKU
100
AcDbCircle
 10
13.43360607563909
 20
4.71250028326656
 30
0.0
 40
0.2625
100
AcDbArc
 50
0.0
 51
90.0
  0
ARC
  5
25AC
330
1A
100
AcDbEntity
  8
ZUWAKU
100
AcDbCircle
 10
13.43360607563909
 20
3.83750028326656
 30
0.0
 40
0.2625
100
AcDbArc
 50
270.0
 51
0.0
  0
LINE
  5
25AD
330
1A
100
AcDbEntity
  8
ZUWAKU
100
AcDbLine
 10
13.69610607563913
 20
4.71250028326656
 30
0.0
 11
13.69610607563913
 21
3.83750028326656
 31
0.0
  0
LINE
  5
25AE
330
1A
100
AcDbEntity
  8
ZUWAKU
100
AcDbLine
 10
16.32110607563913
 20
3.83750028326656
 30
0.0
 11
16.32110607563913
 21
6.637500283266561
 31
0.0
  0
ARC
  5
25AF
330
1A
100
AcDbEntity
  8
ZUWAKU
100
AcDbCircle
 10
16.05860607563909
 20
3.83750028326656
 30
0.0
 40
0.2625
100
AcDbArc
 50
270.0
 51
0.0
  0
LINE
  5
25B0
330
1A
100
AcDbEntity
  8
ZUWAKU
100
AcDbLine
 10
15.18360607563909
 20
3.575000283266561
 30
0.0
 11
16.05860607563909
 21
3.575000283266561
 31
0.0
  0
ARC
  5
25B1
330
1A
100
AcDbEntity
  8
ZUWAKU
100
AcDbCircle
 10
16.58360607563912
 20
8.562500283266562
 30
0.0
 40
0.2625
100
AcDbArc
 50
180.0
 51
270.0
  0
LINE
  5
25B2
330
1A
100
AcDbEntity
  8
ZUWAKU
100
AcDbLine
 10
16.58360607563912
 20
6.90000028326656
 30
0.0
 11
16.65372315738346
 21
6.90000028326656
 31
0.0
  0
LINE
  5
25B3
330
1A
100
AcDbEntity
  8
ZUWAKU
100
AcDbLine
 10
16.65372315738346
 20
8.300000283266559
 30
0.0
 11
16.58360607563912
 21
8.300000283266559
 31
0.0
  0
ARC
  5
25B4
330
1A
100
AcDbEntity
  8
ZUWAKU
100
AcDbCircle
 10
16.65372315738346
 20
8.562500283266562
 30
0.0
 40
0.2625
100
AcDbArc
 50
270.0
 51
342.4744316262769
  0
ARC
  5
25B5
330
1A
100
AcDbEntity
  8
ZUWAKU
100
AcDbCircle
 10
18.08848899389477
 20
3.83750028326656
 30
0.0
 40
0.2625
100
AcDbArc
 50
197.525568373723
 51
270.0
  0
LINE
  5
25B6
330
1A
100
AcDbEntity
  8
ZUWAKU
100
AcDbLine
 10
19.188249133297
 20
3.916547267350047
 30
0.0
 11
18.02505344406017
 21
7.60000028326657
 31
0.0
  0
ARC
  5
25B7
330
1A
100
AcDbEntity
  8
ZUWAKU
100
AcDbCircle
 10
18.93793368369927
 20
3.83750028326656
 30
0.0
 40
0.2625
100
AcDbArc
 50
270.0
 51
17.52556837372303
  0
LINE
  5
25B8
330
1A
100
AcDbEntity
  8
ZUWAKU
100
AcDbLine
 10
18.08848899389477
 20
3.575000283266561
 30
0.0
 11
18.93793368369927
 21
3.575000283266561
 31
0.0
  0
ARC
  5
25B9
330
1A
100
AcDbEntity
  8
ZUWAKU
100
AcDbCircle
 10
20.6086060756391
 20
3.83750028326656
 30
0.0
 40
0.2625
100
AcDbArc
 50
180.0
 51
270.0
  0
ARC
  5
25BA
330
1A
100
AcDbEntity
  8
ZUWAKU
100
AcDbCircle
 10
25.07110607563913
 20
4.97500028326656
 30
0.0
 40
1.399999999999999
100
AcDbArc
 50
270.0
 51
0.0
  0
ARC
  5
25BB
330
1A
100
AcDbEntity
  8
ZUWAKU
100
AcDbCircle
 10
28.9211060756391
 20
4.97500028326656
 30
0.0
 40
1.399999999999999
100
AcDbArc
 50
180.0
 51
270.0
  0
LINE
  5
25BC
330
1A
100
AcDbEntity
  8
ZUWAKU
100
AcDbLine
 10
25.85603031613089
 20
7.367525536435973
 30
0.0
 11
24.4011313288085
 21
8.822424523758311
 31
0.0
  0
LINE
  5
25BD
330
1A
100
AcDbEntity
  8
ZUWAKU
100
AcDbLine
 10
23.41118183514737
 20
7.83247503009715
 30
0.0
 11
24.86608082246971
 21
6.377576042774819
 31
0.0
  0
LINE
  5
25BE
330
1A
100
AcDbEntity
  8
ZUWAKU
100
AcDbLine
 10
23.32110607563913
 20
3.575000283266561
 30
0.0
 11
25.07110607563913
 21
3.575000283266561
 31
0.0
  0
LINE
  5
25BF
330
1A
100
AcDbEntity
  8
ZUWAKU
100
AcDbLine
 10
23.32110607563913
 20
4.97500028326656
 30
0.0
 11
24.80860607563909
 21
4.97500028326656
 31
0.0
  0
ARC
  5
25C0
330
1A
100
AcDbEntity
  8
ZUWAKU
100
AcDbCircle
 10
23.32110607563913
 20
4.71250028326656
 30
0.0
 40
0.2625
100
AcDbArc
 50
90.0
 51
180.0
  0
ARC
  5
25C1
330
1A
100
AcDbEntity
  8
ZUWAKU
100
AcDbCircle
 10
21.4836060756391
 20
3.83750028326656
 30
0.0
 40
0.2625
100
AcDbArc
 50
270.0
 51
0.0
  0
ARC
  5
25C2
330
1A
100
AcDbEntity
  8
ZUWAKU
100
AcDbCircle
 10
23.32110607563913
 20
3.83750028326656
 30
0.0
 40
0.2625
100
AcDbArc
 50
180.0
 51
270.0
  0
LINE
  5
25C3
330
1A
100
AcDbEntity
  8
ZUWAKU
100
AcDbLine
 10
23.05860607563908
 20
3.83750028326656
 30
0.0
 11
23.05860607563908
 21
4.71250028326656
 31
0.0
  0
ARC
  5
25C4
330
1A
100
AcDbEntity
  8
ZUWAKU
100
AcDbCircle
 10
24.80860607563909
 20
5.237500283266562
 30
0.0
 40
0.2625
100
AcDbArc
 50
270.0
 51
0.0
  0
ARC
  5
25C5
330
1A
100
AcDbEntity
  8
ZUWAKU
100
AcDbCircle
 10
24.37110607563909
 20
5.882601295944233
 30
0.0
 40
0.7
100
AcDbArc
 50
0.0
 51
45.0
  0
LINE
  5
25C6
330
1A
100
AcDbEntity
  8
ZUWAKU
100
AcDbLine
 10
25.07110607563913
 20
5.237500283266562
 30
0.0
 11
25.07110607563913
 21
5.882601295944233
 31
0.0
  0
ARC
  5
25C7
330
1A
100
AcDbEntity
  8
ZUWAKU
100
AcDbCircle
 10
29.44610607563913
 20
5.500000283266558
 30
0.0
 40
0.525
100
AcDbArc
 50
180.0
 51
270.0
  0
ARC
  5
25C8
330
1A
100
AcDbEntity
  8
ZUWAKU
100
AcDbCircle
 10
24.37110607563909
 20
5.882601295944212
 30
0.0
 40
2.099999999999999
100
AcDbArc
 50
0.0
 51
45.0
  0
LINE
  5
25C9
330
1A
100
AcDbEntity
  8
ZUWAKU
100
AcDbLine
 10
26.47110607563911
 20
4.97500028326656
 30
0.0
 11
26.47110607563911
 21
5.882601295944233
 31
0.0
  0
ARC
  5
25CA
330
1A
100
AcDbEntity
  8
ZUWAKU
100
AcDbCircle
 10
30.6711060756391
 20
4.97500028326656
 30
0.0
 40
1.399999999999999
100
AcDbArc
 50
270.0
 51
0.0
  0
LINE
  5
25CB
330
1A
100
AcDbEntity
  8
ZUWAKU
100
AcDbLine
 10
33.38360607563913
 20
3.575000283266561
 30
0.0
 11
34.25860607563913
 21
3.575000283266561
 31
0.0
  0
ARC
  5
25CC
330
1A
100
AcDbEntity
  8
ZUWAKU
100
AcDbCircle
 10
30.14610607563912
 20
5.500000283266558
 30
0.0
 40
0.525
100
AcDbArc
 50
270.0
 51
0.0
  0
ARC
  5
25CD
330
1A
100
AcDbEntity
  8
ZUWAKU
100
AcDbCircle
 10
33.38360607563913
 20
3.83750028326656
 30
0.0
 40
0.2625
100
AcDbArc
 50
180.0
 51
270.0
  0
ARC
  5
25CE
330
1A
100
AcDbEntity
  8
ZUWAKU
100
AcDbCircle
 10
34.25860607563913
 20
3.83750028326656
 30
0.0
 40
0.2625
100
AcDbArc
 50
270.0
 51
0.0
  0
LINE
  5
25CF
330
1A
100
AcDbEntity
  8
ZUWAKU
100
AcDbLine
 10
21.4836060756391
 20
11.62500028326656
 30
0.0
 11
20.6086060756391
 21
11.62500028326656
 31
0.0
  0
LINE
  5
25D0
330
1A
100
AcDbEntity
  8
ZUWAKU
100
AcDbLine
 10
13.69610607563913
 20
11.36250028326655
 30
0.0
 11
13.69610607563913
 21
10.48750028326655
 31
0.0
  0
ARC
  5
25D1
330
1A
100
AcDbEntity
  8
ZUWAKU
100
AcDbCircle
 10
13.43360607563909
 20
10.48750028326655
 30
0.0
 40
0.2625
100
AcDbArc
 50
270.0
 51
0.0
  0
ARC
  5
25D2
330
1A
100
AcDbEntity
  8
ZUWAKU
100
AcDbCircle
 10
15.18360607563909
 20
11.36250028326655
 30
0.0
 40
0.2625
100
AcDbArc
 50
90.0
 51
180.0
  0
ARC
  5
25D3
330
1A
100
AcDbEntity
  8
ZUWAKU
100
AcDbCircle
 10
13.43360607563909
 20
11.36250028326655
 30
0.0
 40
0.2625
100
AcDbArc
 50
0.0
 51
90.0
  0
LINE
  5
25D4
330
1A
100
AcDbEntity
  8
ZUWAKU
100
AcDbLine
 10
16.05860607563909
 20
11.62500028326656
 30
0.0
 11
15.18360607563909
 21
11.62500028326656
 31
0.0
  0
ARC
  5
25D5
330
1A
100
AcDbEntity
  8
ZUWAKU
100
AcDbCircle
 10
16.05860607563909
 20
11.36250028326655
 30
0.0
 40
0.2625
100
AcDbArc
 50
0.0
 51
90.0
  0
ARC
  5
25D6
330
1A
100
AcDbEntity
  8
ZUWAKU
100
AcDbCircle
 10
18.08848899389477
 20
11.36250028326655
 30
0.0
 40
0.2625
100
AcDbArc
 50
90.0
 51
162.4744316262769
  0
LINE
  5
25D7
330
1A
100
AcDbEntity
  8
ZUWAKU
100
AcDbLine
 10
19.188249133297
 20
11.28345329918307
 30
0.0
 11
18.6574293167281
 21
9.602523880048273
 31
0.0
  0
ARC
  5
25D8
330
1A
100
AcDbEntity
  8
ZUWAKU
100
AcDbCircle
 10
18.93793368369927
 20
11.36250028326655
 30
0.0
 40
0.2625
100
AcDbArc
 50
342.4744316262769
 51
90.0
  0
LINE
  5
25D9
330
1A
100
AcDbEntity
  8
ZUWAKU
100
AcDbLine
 10
18.08848899389477
 20
11.62500028326656
 30
0.0
 11
18.93793368369927
 21
11.62500028326656
 31
0.0
  0
ARC
  5
25DA
330
1A
100
AcDbEntity
  8
ZUWAKU
100
AcDbCircle
 10
20.6086060756391
 20
11.36250028326655
 30
0.0
 40
0.2625
100
AcDbArc
 50
90.0
 51
180.0
  0
LINE
  5
25DB
330
1A
100
AcDbEntity
  8
ZUWAKU
100
AcDbLine
 10
25.94610607563913
 20
10.22500028326656
 30
0.0
 11
24.45860607563912
 21
10.22500028326656
 31
0.0
  0
LINE
  5
25DC
330
1A
100
AcDbEntity
  8
ZUWAKU
100
AcDbLine
 10
24.19610607563913
 20
11.62500028326656
 30
0.0
 11
25.94610607563913
 21
11.62500028326656
 31
0.0
  0
ARC
  5
25DD
330
1A
100
AcDbEntity
  8
ZUWAKU
100
AcDbCircle
 10
24.19610607563913
 20
10.22500028326656
 30
0.0
 40
1.399999999999999
100
AcDbArc
 50
90.0
 51
180.0
  0
LINE
  5
25DE
330
1A
100
AcDbEntity
  8
ZUWAKU
100
AcDbLine
 10
22.7961060756391
 20
10.22500028326656
 30
0.0
 11
22.7961060756391
 21
9.317399270588889
 31
0.0
  0
ARC
  5
25DF
330
1A
100
AcDbEntity
  8
ZUWAKU
100
AcDbCircle
 10
21.4836060756391
 20
11.36250028326655
 30
0.0
 40
0.2625
100
AcDbArc
 50
0.0
 51
90.0
  0
LINE
  5
25E0
330
1A
100
AcDbEntity
  8
ZUWAKU
100
AcDbLine
 10
24.19610607563913
 20
9.96250028326656
 30
0.0
 11
24.19610607563913
 21
9.317399270588889
 31
0.0
  0
ARC
  5
25E1
330
1A
100
AcDbEntity
  8
ZUWAKU
100
AcDbCircle
 10
24.45860607563912
 20
9.96250028326656
 30
0.0
 40
0.2625
100
AcDbArc
 50
90.0
 51
180.0
  0
LINE
  5
25E2
330
1A
100
AcDbEntity
  8
ZUWAKU
100
AcDbLine
 10
26.20860607563912
 20
11.36250028326655
 30
0.0
 11
26.20860607563912
 21
10.48750028326655
 31
0.0
  0
ARC
  5
25E3
330
1A
100
AcDbEntity
  8
ZUWAKU
100
AcDbCircle
 10
25.94610607563913
 20
10.48750028326655
 30
0.0
 40
0.2625
100
AcDbArc
 50
270.0
 51
0.0
  0
ARC
  5
25E4
330
1A
100
AcDbEntity
  8
ZUWAKU
100
AcDbCircle
 10
25.94610607563913
 20
11.36250028326655
 30
0.0
 40
0.2625
100
AcDbArc
 50
0.0
 51
90.0
  0
LINE
  5
25E5
330
1A
100
AcDbEntity
  8
ZUWAKU
100
AcDbLine
 10
28.65860607563911
 20
11.62500028326656
 30
0.0
 11
27.78360607563911
 21
11.62500028326656
 31
0.0
  0
ARC
  5
25E6
330
1A
100
AcDbEntity
  8
ZUWAKU
100
AcDbCircle
 10
27.78360607563911
 20
11.36250028326655
 30
0.0
 40
0.2625
100
AcDbArc
 50
90.0
 51
180.0
  0
ARC
  5
25E7
330
1A
100
AcDbEntity
  8
ZUWAKU
100
AcDbCircle
 10
28.65860607563911
 20
11.36250028326655
 30
0.0
 40
0.2625
100
AcDbArc
 50
0.0
 51
90.0
  0
LINE
  5
25E8
330
1A
100
AcDbEntity
  8
ZUWAKU
100
AcDbLine
 10
34.25860607563913
 20
11.62500028326656
 30
0.0
 11
33.38360607563913
 21
11.62500028326656
 31
0.0
  0
ARC
  5
25E9
330
1A
100
AcDbEntity
  8
ZUWAKU
100
AcDbCircle
 10
30.93360607563909
 20
11.36250028326655
 30
0.0
 40
0.2625
100
AcDbArc
 50
90.0
 51
180.0
  0
LINE
  5
25EA
330
1A
100
AcDbEntity
  8
ZUWAKU
100
AcDbLine
 10
31.80860607563909
 20
11.62500028326656
 30
0.0
 11
30.93360607563909
 21
11.62500028326656
 31
0.0
  0
ARC
  5
25EB
330
1A
100
AcDbEntity
  8
ZUWAKU
100
AcDbCircle
 10
31.80860607563909
 20
11.36250028326655
 30
0.0
 40
0.2625
100
AcDbArc
 50
0.0
 51
90.0
  0
ARC
  5
25EC
330
1A
100
AcDbEntity
  8
ZUWAKU
100
AcDbCircle
 10
33.38360607563913
 20
11.36250028326655
 30
0.0
 40
0.2625
100
AcDbArc
 50
90.0
 51
180.0
  0
ARC
  5
25ED
330
1A
100
AcDbEntity
  8
ZUWAKU
100
AcDbCircle
 10
34.25860607563913
 20
11.36250028326655
 30
0.0
 40
0.2625
100
AcDbArc
 50
0.0
 51
90.0
  0
TEXT
  5
25EE
330
1A
100
AcDbEntity
  8
MOJI
100
AcDbText
 10
119.913601338674
 20
1.602460811970269
 30
0.0
 40
2.799999999999999
  1
ＲＶ１０５－０－１０
 41
0.9
  7
ｽﾀｲﾙ1
100
AcDbText
  0
TEXT
  5
25EF
330
1A
100
AcDbEntity
  8
MOJI
100
AcDbText
 10
119.913601338674
 20
9.002460811970252
 30
0.0
 40
2.799999999999999
  1
亜鉛メッキ金具正面打（受）ストロング高強度金具角使い
 41
0.9
  7
ｽﾀｲﾙ1
100
AcDbText
  0
LINE
  5
25F0
330
1A
100
AcDbEntity
  8
ZUWAKU
100
AcDbLine
 10
104.2233006432824
 20
15.00000028326655
 30
0.0
 11
104.2233006432825
 21
0.4000002832665928
 31
0.0
  0
LINE
  5
25F1
330
1A
100
AcDbEntity
  8
ZUWAKU
100
AcDbLine
 10
104.3233006432824
 20
15.00000028326655
 30
0.0
 11
104.3233006432825
 21
0.4000002832665928
 31
0.0
  0
LINE
  5
25F2
330
1A
100
AcDbEntity
  8
ZUWAKU
100
AcDbLine
 10
104.1233006432825
 20
15.00000028326655
 30
0.0
 11
104.1233006432825
 21
0.4000002832665928
 31
0.0
  0
TEXT
  5
25F3
330
1A
100
AcDbEntity
  8
ZUWAKU
100
AcDbText
 10
104.8620231543873
 20
4.827678552459367
 30
0.0
 40
2.0
  1
サイズ
 41
0.9
  7
ｽﾀｲﾙ1
100
AcDbText
  0
TEXT
  5
25F4
330
1A
100
AcDbEntity
  8
ZUWAKU
100
AcDbText
 10
104.8620231543871
 20
12.02767855245935
 30
0.0
 40
2.0
  1
品名
 41
0.9
  7
ｽﾀｲﾙ1
100
AcDbText
  0
TEXT
  5
25F5
330
1A
100
AcDbEntity
  8
ZUWAKU
100
AcDbText
 10
329.1019688418997
 20
9.002460811970252
 30
0.0
 40
2.799999999999999
  1
　　．　　．　　
 41
0.9
  7
ｽﾀｲﾙ1
100
AcDbText
  0
LINE
  5
25F6
330
1A
100
AcDbEntity
  8
ZUWAKU
100
AcDbLine
 10
324.4086012533506
 20
7.800000283266575
 30
0.0
 11
348.6245052725191
 21
7.800000283266575
 31
0.0
  0
LINE
  5
25F7
330
1A
100
AcDbEntity
  8
ZUWAKU
100
AcDbLine
 10
324.4086012533507
 20
7.700000283266577
 30
0.0
 11
348.6245052725191
 21
7.700000283266575
 31
0.0
  0
LINE
  5
25F8
330
1A
100
AcDbEntity
  8
ZUWAKU
100
AcDbLine
 10
324.4086012533506
 20
7.600000283266574
 30
0.0
 11
348.6245052725191
 21
7.600000283266576
 31
0.0
  0
LINE
  5
25F9
330
1A
100
AcDbEntity
  8
ZUWAKU
100
AcDbLine
 10
252.5995897473189
 20
7.800000283266575
 30
0.0
 11
276.2634778813047
 21
7.800000283266575
 31
0.0
  0
LINE
  5
25FA
330
1A
100
AcDbEntity
  8
ZUWAKU
100
AcDbLine
 10
252.5995897473189
 20
7.700000283266575
 30
0.0
 11
276.2634778813047
 21
7.700000283266575
 31
0.0
  0
LINE
  5
25FB
330
1A
100
AcDbEntity
  8
ZUWAKU
100
AcDbLine
 10
252.5995897473189
 20
7.600000283266577
 30
0.0
 11
276.2634778813047
 21
7.600000283266577
 31
0.0
  0
LINE
  5
25FC
330
1A
100
AcDbEntity
  8
ZUWAKU
100
AcDbLine
 10
252.399589747319
 20
15.00000028326655
 30
0.0
 11
252.399589747319
 21
0.4000002832665928
 31
0.0
  0
LINE
  5
25FD
330
1A
100
AcDbEntity
  8
ZUWAKU
100
AcDbLine
 10
252.5995897473189
 20
15.00000028326655
 30
0.0
 11
252.599589747319
 21
0.4000002832665928
 31
0.0
  0
LINE
  5
25FE
330
1A
100
AcDbEntity
  8
ZUWAKU
100
AcDbLine
 10
252.4995897473189
 20
15.00000028326655
 30
0.0
 11
252.499589747319
 21
0.4000002832665928
 31
0.0
  0
TEXT
  5
25FF
330
1A
100
AcDbEntity
  8
MOJI
100
AcDbText
 10
264.0204539844049
 20
9.002460811970252
 30
0.0
 40
2.799999999999999
  1
Ａ３
 41
0.9
  7
ｽﾀｲﾙ1
100
AcDbText
  0
LINE
  5
2600
330
1A
100
AcDbEntity
  8
ZUWAKU
100
AcDbLine
 10
223.7121819837442
 20
15.00000028326655
 30
0.0
 11
223.7121819837442
 21
0.4000002832665928
 31
0.0
  0
LINE
  5
2601
330
1A
100
AcDbEntity
  8
ZUWAKU
100
AcDbLine
 10
223.9121819837441
 20
15.00000028326655
 30
0.0
 11
223.9121819837442
 21
0.4000002832665928
 31
0.0
  0
LINE
  5
2602
330
1A
100
AcDbEntity
  8
ZUWAKU
100
AcDbLine
 10
223.8121819837441
 20
15.00000028326655
 30
0.0
 11
223.8121819837442
 21
0.4000002832665928
 31
0.0
  0
TEXT
  5
2603
330
1A
100
AcDbEntity
  8
MOJI
100
AcDbText
 10
231.2836391592428
 20
5.971309144096551
 30
0.0
 40
2.799999999999999
  1
ＬＬ２６Ｇ
 41
0.9
  7
ｽﾀｲﾙ1
100
AcDbText
  0
TEXT
  5
2604
330
1A
100
AcDbEntity
  8
ZUWAKU
100
AcDbText
 10
253.3383122584239
 20
4.827678552459367
 30
0.0
 40
2.0
  1
縮尺
 41
0.9
  7
ｽﾀｲﾙ1
100
AcDbText
  0
TEXT
  5
2605
330
1A
100
AcDbEntity
  8
MOJI
100
AcDbText
 10
264.0204539844049
 20
1.602460811970269
 30
0.0
 40
2.799999999999999
  1
１/１
 41
0.9
  7
ｽﾀｲﾙ1
100
AcDbText
  0
TEXT
  5
2606
330
1A
100
AcDbEntity
  8
ZUWAKU
100
AcDbText
 10
224.6509044948489
 20
12.02767855245935
 30
0.0
 40
2.0
  1
品番
 41
0.9
  7
ｽﾀｲﾙ1
100
AcDbText
  0
TEXT
  5
2607
330
1A
100
AcDbEntity
  8
ZUWAKU
100
AcDbText
 10
253.3383122584238
 20
12.02767855245935
 30
0.0
 40
2.0
  1
用紙
 41
0.9
  7
ｽﾀｲﾙ1
100
AcDbText
  0
LINE
  5
2608
330
1A
100
AcDbEntity
  8
ZUWAKU
100
AcDbLine
 10
276.2634778813047
 20
15.00000028326655
 30
0.0
 11
276.2634778813047
 21
0.4000002832665928
 31
0.0
  0
LINE
  5
2609
330
1A
100
AcDbEntity
  8
ZUWAKU
100
AcDbLine
 10
276.4634778813046
 20
15.00000028326655
 30
0.0
 11
276.4634778813048
 21
0.4000002832665928
 31
0.0
  0
LINE
  5
260A
330
1A
100
AcDbEntity
  8
ZUWAKU
100
AcDbLine
 10
276.3634778813046
 20
15.00000028326655
 30
0.0
 11
276.3634778813047
 21
0.4000002832665928
 31
0.0
  0
LINE
  5
260B
330
1A
100
AcDbEntity
  8
ZUWAKU
100
AcDbLine
 10
324.2086012533508
 20
15.00000028326655
 30
0.0
 11
324.2086012533508
 21
0.4000002832665928
 31
0.0
  0
LINE
  5
260C
330
1A
100
AcDbEntity
  8
ZUWAKU
100
AcDbLine
 10
324.4086012533507
 20
15.00000028326655
 30
0.0
 11
324.4086012533508
 21
0.4000002832665928
 31
0.0
  0
LINE
  5
260D
330
1A
100
AcDbEntity
  8
ZUWAKU
100
AcDbLine
 10
324.3086012533507
 20
15.00000028326655
 30
0.0
 11
324.3086012533508
 21
0.4000002832665928
 31
0.0
  0
TEXT
  5
260E
330
1A
100
AcDbEntity
  8
ZUWAKU
100
AcDbText
 10
325.1473237644555
 20
12.02767855245935
 30
0.0
 40
2.0
  1
DATE
 41
0.9
  7
ｽﾀｲﾙ1
100
AcDbText
  0
TEXT
  5
260F
330
1A
100
AcDbEntity
  8
ZUWAKU
100
AcDbText
 10
354.2640420943704
 20
8.77691995110996
 30
0.0
 40
3.0
  1
積水化学工業株式会社
 41
0.9
  7
ｽﾀｲﾙ1
100
AcDbText
  0
LINE
  5
2610
330
1A
100
AcDbEntity
  8
ZUWAKU
100
AcDbLine
 10
348.9245052725191
 20
15.00000028326655
 30
0.0
 11
348.9245052725192
 21
0.4000002832665928
 31
0.0
  0
LINE
  5
2611
330
1A
100
AcDbEntity
  8
ZUWAKU
100
AcDbLine
 10
348.824505272519
 20
15.00000028326655
 30
0.0
 11
348.8245052725192
 21
0.4000002832665928
 31
0.0
  0
LINE
  5
2612
330
1A
100
AcDbEntity
  8
ZUWAKU
100
AcDbLine
 10
348.7245052725191
 20
15.00000028326655
 30
0.0
 11
348.7245052725191
 21
0.4000002832665928
 31
0.0
  0
LINE
  5
2613
330
1A
100
AcDbEntity
  8
ZUWAKU
100
AcDbLine
 10
348.6245052725191
 20
15.00000028326655
 30
0.0
 11
348.6245052725191
 21
0.4000002832665928
 31
0.0
  0
TEXT
  5
2614
330
1A
100
AcDbEntity
  8
ZUWAKU
100
AcDbText
 10
354.2640420943704
 20
3.324420440193591
 30
0.0
 40
3.0
  1
建材事業部
 41
0.9
  7
ｽﾀｲﾙ1
100
AcDbText
  0
VIEWPORT
  5
22
330
17
100
AcDbEntity
 67
     1
  8
0
100
AcDbViewport
 10
313.6808219178082
 20
148.5
 30
0.0
 40
627.3616438356165
 41
297.0
 68
     2
 69
     1
1001
ACAD
1000
MVIEW
1002
{
1070
    16
1010
0.0
1020
0.0
1030
0.0
1010
0.0
1020
0.0
1030
1.0
1040
0.0
1040
297.0
1040
313.6808219178082
1040
148.5
1040
50.0
1040
0.0
1040
0.0
1070
     0
1070
   100
1070
     1
1070
     0
1070
     0
1070
     0
1070
     0
1070
     0
1040
0.0
1040
0.0
1040
0.0
1040
1.0
1040
1.0
1040
10.0
1040
10.0
1070
     0
1002
{
1002
}
1002
}
  0
VIEWPORT
  5
64
330
17
100
AcDbEntity
 67
     1
  8
VIEWPORT
100
AcDbViewport
 10
210.0
 20
148.5
 30
0.0
 40
420.0
 41
297.0
 68
     1
 69
     2
1001
ACAD
1000
MVIEW
1002
{
1070
    16
1010
0.0
1020
0.0
1030
0.0
1010
0.0
1020
0.0
1030
1.0
1040
0.0
1040
302.9399999999998
1040
210.0
1040
148.5
1040
50.0
1040
0.0
1040
0.0
1070
     0
1070
   100
1070
     1
1070
     0
1070
     0
1070
     0
1070
     0
1070
     0
1040
0.0
1040
0.0
1040
0.0
1040
5.0
1040
5.0
1040
0.0
1040
0.0
1070
     0
1002
{
1002
}
1002
}
  0
ENDSEC
  0
SECTION
  2
OBJECTS
  0
DICTIONARY
  5
C
330
0
100
AcDbDictionary
  3
ACAD_GROUP
350
D
  3
ACAD_LAYOUT
350
141
  3
ACAD_MLINESTYLE
350
E
  3
ACAD_PLOTSETTINGS
350
142
  3
ACAD_PLOTSTYLENAME
350
22F2
  3
ACDBHEADERROUNDTRIPXREC
350
2681
1001
ACAD
1000
TREAT_AS_HARD
1070
     0
  0
DICTIONARY
  5
73C
330
1A
100
AcDbDictionary
280
     1
  3
ACAD_LAYOUTSELFREF
360
26A3
1001
ACAD
1000
TREAT_AS_HARD
1070
     1
  0
DICTIONARY
  5
73A
330
17
100
AcDbDictionary
280
     1
  3
ACAD_LAYOUTSELFREF
360
26A2
1001
ACAD
1000
TREAT_AS_HARD
1070
     1
  0
DICTIONARY
  5
D
102
{ACAD_REACTORS
330
C
102
}
330
C
100
AcDbDictionary
1001
ACAD
1000
TREAT_AS_HARD
1070
     0
  0
DICTIONARY
  5
141
102
{ACAD_REACTORS
330
C
102
}
330
C
100
AcDbDictionary
1001
ACAD
1000
TREAT_AS_HARD
1070
     0
  0
DICTIONARY
  5
E
102
{ACAD_REACTORS
330
C
102
}
330
C
100
AcDbDictionary
  3
STANDARD
350
13
1001
ACAD
1000
TREAT_AS_HARD
1070
     0
  0
DICTIONARY
  5
142
102
{ACAD_REACTORS
330
C
102
}
330
C
100
AcDbDictionary
1001
ACAD
1000
TREAT_AS_HARD
1070
     0
  0
ACDBDICTIONARYWDFLT
  5
22F2
102
{ACAD_REACTORS
330
C
102
}
330
C
100
AcDbDictionary
281
     1
  3
Normal
350
22F3
100
AcDbDictionaryWithDefault
340
22F3
1001
ACAD
1000
TREAT_AS_HARD
1070
     0
1000
TREAT_AS_HARD
1070
     0
  0
DICTIONARY
  5
2681
102
{ACAD_REACTORS
330
C
102
}
330
C
100
AcDbDictionary
  3
TSTACKALIGN
350
2682
  3
TSTACKSIZE
350
2683
  3
HYPERLINKBASE
350
2684
  3
STYLESHEET
350
2685
  3
LAYOUTDICT
350
2686
  3
PLOTSETDICT
350
2687
  3
PLOTSTYLNAMDICT
350
2688
  3
LWETCUNION
350
2689
  3
INSUNITS
350
268A
  3
CEPSNTYPE
350
268B
  3
FINGERPRINTGUID
350
268C
  3
VERSIONGUID
350
268D
  3
PSVPSCALE
350
268E
  3
DIMSTYLEDATA
350
268F
  3
PUCSORTHOREF
350
2690
  3
PUCSORTHOVIEW
350
2691
  3
PUCSBASE
350
2692
  3
PUCSORGTOP
350
2693
  3
PUCSORGBOTTOM
350
2694
  3
PUCSORGLEFT
350
2695
  3
PUCSORGRIGHT
350
2696
  3
PUCSORGFRONT
350
2697
  3
PUCSORGBACK
350
2698
  3
UCSORTHOREF
350
2699
  3
UCSORTHOVIEW
350
269A
  3
UCSBASE
350
269B
  3
UCSORGTOP
350
269C
  3
UCSORGBOTTOM
350
269D
  3
UCSORGLEFT
350
269E
  3
UCSORGRIGHT
350
269F
  3
UCSORGFRONT
350
26A0
  3
UCSORGBACK
350
26A1
  0
XRECORD
  5
26A3
102
{ACAD_REACTORS
330
73C
102
}
330
73C
100
AcDbXrecord
340
1A
  0
XRECORD
  5
26A2
102
{ACAD_REACTORS
330
73A
102
}
330
73A
100
AcDbXrecord
340
17
  0
MLINESTYLE
  5
13
102
{ACAD_REACTORS
330
E
102
}
330
E
100
AcDbMlineStyle
  2
STANDARD
 70
     0
  3

 62
     0
 51
90.0
 52
90.0
 71
     2
 49
0.5
 62
   256
  6
BYLAYER
 49
-0.5
 62
   256
  6
BYLAYER
  0
ACDBPLACEHOLDER
  5
22F3
102
{ACAD_REACTORS
330
22F2
102
}
330
22F2
100
AcDbPlaceHolder
280
     0
  0
XRECORD
  5
2682
102
{ACAD_REACTORS
330
2681
102
}
330
2681
100
AcDbXrecord
 90
        1
  0
XRECORD
  5
2683
102
{ACAD_REACTORS
330
2681
102
}
330
2681
100
AcDbXrecord
 90
       70
  0
XRECORD
  5
2684
102
{ACAD_REACTORS
330
2681
102
}
330
2681
100
AcDbXrecord
  1

  0
XRECORD
  5
2685
102
{ACAD_REACTORS
330
2681
102
}
330
2681
100
AcDbXrecord
  1
systemprinter.ctb
  0
XRECORD
  5
2686
102
{ACAD_REACTORS
330
2681
102
}
330
2681
100
AcDbXrecord
340
141
  0
XRECORD
  5
2687
102
{ACAD_REACTORS
330
2681
102
}
330
2681
100
AcDbXrecord
340
142
  0
XRECORD
  5
2688
102
{ACAD_REACTORS
330
2681
102
}
330
2681
100
AcDbXrecord
340
22F2
  0
XRECORD
  5
2689
102
{ACAD_REACTORS
330
2681
102
}
330
2681
100
AcDbXrecord
 90
    10781
  0
XRECORD
  5
268A
102
{ACAD_REACTORS
330
2681
102
}
330
2681
100
AcDbXrecord
 90
        0
  0
XRECORD
  5
268B
102
{ACAD_REACTORS
330
2681
102
}
330
2681
100
AcDbXrecord
 90
        0
  0
XRECORD
  5
268C
102
{ACAD_REACTORS
330
2681
102
}
330
2681
100
AcDbXrecord
  1
{F36656A4-16E9-46AF-BA79-B33D12E8955F}
  0
XRECORD
  5
268D
102
{ACAD_REACTORS
330
2681
102
}
330
2681
100
AcDbXrecord
  1
{35CB4D8E-E578-49E3-A618-33B8AAF80CA5}
  0
XRECORD
  5
268E
102
{ACAD_REACTORS
330
2681
102
}
330
2681
100
AcDbXrecord
 40
0.0
  0
XRECORD
  5
268F
102
{ACAD_REACTORS
330
2681
102
}
330
2681
100
AcDbXrecord
1000
DSTYLE
1002
{
1070
   341
340
B2
1070
   343
340
B2
1070
   344
340
B2
1070
   371
 70
    -1
1070
   372
 70
    -1
1002
}
  0
XRECORD
  5
2690
102
{ACAD_REACTORS
330
2681
102
}
330
2681
100
AcDbXrecord
340
0
  0
XRECORD
  5
2691
102
{ACAD_REACTORS
330
2681
102
}
330
2681
100
AcDbXrecord
 70
     0
  0
XRECORD
  5
2692
102
{ACAD_REACTORS
330
2681
102
}
330
2681
100
AcDbXrecord
340
0
  0
XRECORD
  5
2693
102
{ACAD_REACTORS
330
2681
102
}
330
2681
100
AcDbXrecord
 10
0.0
 20
0.0
 30
0.0
  0
XRECORD
  5
2694
102
{ACAD_REACTORS
330
2681
102
}
330
2681
100
AcDbXrecord
 10
0.0
 20
0.0
 30
0.0
  0
XRECORD
  5
2695
102
{ACAD_REACTORS
330
2681
102
}
330
2681
100
AcDbXrecord
 10
0.0
 20
0.0
 30
0.0
  0
XRECORD
  5
2696
102
{ACAD_REACTORS
330
2681
102
}
330
2681
100
AcDbXrecord
 10
0.0
 20
0.0
 30
0.0
  0
XRECORD
  5
2697
102
{ACAD_REACTORS
330
2681
102
}
330
2681
100
AcDbXrecord
 10
0.0
 20
0.0
 30
0.0
  0
XRECORD
  5
2698
102
{ACAD_REACTORS
330
2681
102
}
330
2681
100
AcDbXrecord
 10
0.0
 20
0.0
 30
0.0
  0
XRECORD
  5
2699
102
{ACAD_REACTORS
330
2681
102
}
330
2681
100
AcDbXrecord
340
0
  0
XRECORD
  5
269A
102
{ACAD_REACTORS
330
2681
102
}
330
2681
100
AcDbXrecord
 70
     0
  0
XRECORD
  5
269B
102
{ACAD_REACTORS
330
2681
102
}
330
2681
100
AcDbXrecord
340
0
  0
XRECORD
  5
269C
102
{ACAD_REACTORS
330
2681
102
}
330
2681
100
AcDbXrecord
 10
0.0
 20
0.0
 30
0.0
  0
XRECORD
  5
269D
102
{ACAD_REACTORS
330
2681
102
}
330
2681
100
AcDbXrecord
 10
0.0
 20
0.0
 30
0.0
  0
XRECORD
  5
269E
102
{ACAD_REACTORS
330
2681
102
}
330
2681
100
AcDbXrecord
 10
0.0
 20
0.0
 30
0.0
  0
XRECORD
  5
269F
102
{ACAD_REACTORS
330
2681
102
}
330
2681
100
AcDbXrecord
 10
0.0
 20
0.0
 30
0.0
  0
XRECORD
  5
26A0
102
{ACAD_REACTORS
330
2681
102
}
330
2681
100
AcDbXrecord
 10
0.0
 20
0.0
 30
0.0
  0
XRECORD
  5
26A1
102
{ACAD_REACTORS
330
2681
102
}
330
2681
100
AcDbXrecord
 10
0.0
 20
0.0
 30
0.0
  0
ENDSEC
  0
EOF
