  0
SECTION
  2
HEADER
  9
$ACADVER
  1
AC1014
  9
$ACADMAINTVER
 70
     9
  9
$DWGCODEPAGE
  3
ANSI_932
  9
$INSBASE
 10
0.0
 20
0.0
 30
0.0
  9
$EXTMIN
 10
-0.0128164066901491
 20
-0.0090630292066862
 30
-0.0015258207003583
  9
$EXTMAX
 10
398.8000497812454
 20
275.8226172440017
 30
0.0000000349246037
  9
$LIMMIN
 10
0.0
 20
0.0
  9
$LIMMAX
 10
420.0
 20
297.0
  9
$ORTHOMODE
 70
     0
  9
$REGENMODE
 70
     1
  9
$FILLMODE
 70
     1
  9
$QTEXTMODE
 70
     0
  9
$MIRRTEXT
 70
     1
  9
$DRAGMODE
 70
     2
  9
$LTSCALE
 40
5.0
  9
$OSMODE
 70
    35
  9
$ATTMODE
 70
     1
  9
$TEXTSIZE
 40
4.0
  9
$TRACEWID
 40
1.0
  9
$TEXTSTYLE
  7
STANDARD
  9
$CLAYER
  8
SEIHIN
  9
$CELTYPE
  6
BYLAYER
  9
$CECOLOR
 62
   256
  9
$CELTSCALE
 40
1.0
  9
$DELOBJ
 70
     1
  9
$DISPSILH
 70
     0
  9
$DIMSCALE
 40
1.0
  9
$DIMASZ
 40
3.0
  9
$DIMEXO
 40
3.0
  9
$DIMDLI
 40
7.0
  9
$DIMRND
 40
0.0
  9
$DIMDLE
 40
0.0
  9
$DIMEXE
 40
1.5
  9
$DIMTP
 40
0.0
  9
$DIMTM
 40
0.0
  9
$DIMTXT
 40
3.0
  9
$DIMCEN
 40
3.0
  9
$DIMTSZ
 40
0.0
  9
$DIMTOL
 70
     0
  9
$DIMLIM
 70
     0
  9
$DIMTIH
 70
     0
  9
$DIMTOH
 70
     0
  9
$DIMSE1
 70
     0
  9
$DIMSE2
 70
     0
  9
$DIMTAD
 70
     3
  9
$DIMZIN
 70
     0
  9
$DIMBLK
  1

  9
$DIMASO
 70
     1
  9
$DIMSHO
 70
     1
  9
$DIMPOST
  1

  9
$DIMAPOST
  1

  9
$DIMALT
 70
     0
  9
$DIMALTD
 70
     2
  9
$DIMALTF
 40
25.4
  9
$DIMLFAC
 40
1.0
  9
$DIMTOFL
 70
     1
  9
$DIMTVP
 40
0.0
  9
$DIMTIX
 70
     0
  9
$DIMSOXD
 70
     0
  9
$DIMSAH
 70
     1
  9
$DIMBLK1
  1
OPEN
  9
$DIMBLK2
  1
OPEN
  9
$DIMSTYLE
  2
STANDARD
  9
$DIMCLRD
 70
   256
  9
$DIMCLRE
 70
   256
  9
$DIMCLRT
 70
   256
  9
$DIMTFAC
 40
1.0
  9
$DIMGAP
 40
1.0
  9
$DIMJUST
 70
     0
  9
$DIMSD1
 70
     0
  9
$DIMSD2
 70
     0
  9
$DIMTOLJ
 70
     1
  9
$DIMTZIN
 70
     0
  9
$DIMALTZ
 70
     0
  9
$DIMALTTZ
 70
     0
  9
$DIMFIT
 70
     3
  9
$DIMUPT
 70
     0
  9
$DIMUNIT
 70
     2
  9
$DIMDEC
 70
     0
  9
$DIMTDEC
 70
     0
  9
$DIMALTU
 70
     2
  9
$DIMALTTD
 70
     2
  9
$DIMTXSTY
  7
STANDARD
  9
$DIMAUNIT
 70
     0
  9
$LUNITS
 70
     2
  9
$LUPREC
 70
     4
  9
$SKETCHINC
 40
1.0
  9
$FILLETRAD
 40
10.0
  9
$AUNITS
 70
     0
  9
$AUPREC
 70
     0
  9
$MENU
  1
.
  9
$ELEVATION
 40
0.0
  9
$PELEVATION
 40
0.0
  9
$THICKNESS
 40
0.0
  9
$LIMCHECK
 70
     0
  9
$BLIPMODE
 70
     0
  9
$CHAMFERA
 40
10.0
  9
$CHAMFERB
 40
10.0
  9
$CHAMFERC
 40
20.0
  9
$CHAMFERD
 40
0.0
  9
$SKPOLY
 70
     0
  9
$TDCREATE
 40
2451569.441154629
  9
$TDUPDATE
 40
2453802.402673426
  9
$TDINDWG
 40
0.2908206597
  9
$TDUSRTIMER
 40
0.2908206597
  9
$USRTIMER
 70
     1
  9
$ANGBASE
 50
0.0
  9
$ANGDIR
 70
     0
  9
$PDMODE
 70
     0
  9
$PDSIZE
 40
0.0
  9
$PLINEWID
 40
0.0
  9
$COORDS
 70
     1
  9
$SPLFRAME
 70
     0
  9
$SPLINETYPE
 70
     6
  9
$SPLINESEGS
 70
     8
  9
$ATTDIA
 70
     0
  9
$ATTREQ
 70
     1
  9
$HANDLING
 70
 10241
  9
$HANDSEED
  5
287B
  9
$SURFTAB1
 70
     6
  9
$SURFTAB2
 70
     6
  9
$SURFTYPE
 70
     6
  9
$SURFU
 70
     6
  9
$SURFV
 70
     6
  9
$UCSNAME
  2

  9
$UCSORG
 10
0.0
 20
0.0
 30
0.0
  9
$UCSXDIR
 10
1.0
 20
0.0
 30
0.0
  9
$UCSYDIR
 10
0.0
 20
1.0
 30
0.0
  9
$PUCSNAME
  2

  9
$PUCSORG
 10
0.0
 20
0.0
 30
0.0
  9
$PUCSXDIR
 10
1.0
 20
0.0
 30
0.0
  9
$PUCSYDIR
 10
0.0
 20
1.0
 30
0.0
  9
$USERI1
 70
     0
  9
$USERI2
 70
     0
  9
$USERI3
 70
     0
  9
$USERI4
 70
     0
  9
$USERI5
 70
     0
  9
$USERR1
 40
0.0
  9
$USERR2
 40
0.0
  9
$USERR3
 40
0.0
  9
$USERR4
 40
0.0
  9
$USERR5
 40
0.0
  9
$WORLDVIEW
 70
     1
  9
$SHADEDGE
 70
     3
  9
$SHADEDIF
 70
    70
  9
$TILEMODE
 70
     1
  9
$MAXACTVP
 70
    16
  9
$PINSBASE
 10
0.0
 20
0.0
 30
0.0
  9
$PLIMCHECK
 70
     0
  9
$PEXTMIN
 10
0.0
 20
0.0
 30
0.0
  9
$PEXTMAX
 10
420.0
 20
297.0
 30
0.0
  9
$PLIMMIN
 10
0.0
 20
0.0
  9
$PLIMMAX
 10
420.0
 20
297.0
  9
$UNITMODE
 70
     0
  9
$VISRETAIN
 70
     0
  9
$PLINEGEN
 70
     0
  9
$PSLTSCALE
 70
     1
  9
$TREEDEPTH
 70
  3020
  9
$PICKSTYLE
 70
     1
  9
$CMLSTYLE
  2
STANDARD
  9
$CMLJUST
 70
     0
  9
$CMLSCALE
 40
1.0
  9
$PROXYGRAPHICS
 70
     1
  9
$MEASUREMENT
 70
     0
  0
ENDSEC
  0
SECTION
  2
CLASSES
  0
CLASS
  1
ACDBDICTIONARYWDFLT
  2
AcDbDictionaryWithDefault
  3
AutoCAD 2000
 90
        0
280
     0
281
     0
  0
CLASS
  1
ACDBPLACEHOLDER
  2
AcDbPlaceHolder
  3
AutoCAD 2000
 90
        0
280
     0
281
     0
  0
CLASS
  1
LAYOUT
  2
AcDbLayout
  3
AutoCAD 2000
 90
        0
280
     0
281
     0
  0
CLASS
  1
LONG_TRANSACTION
  2
AcDbLongTransaction
  3
AutoCAD 2000
 90
        0
280
     0
281
     0
  0
CLASS
  1
LWPOLYLINE
  2
AcDbPolyline
  3
AutoCAD 2000
 90
        0
280
     0
281
     1
  0
CLASS
  1
HATCH
  2
AcDbHatch
  3
AutoCAD 2000
 90
        0
280
     0
281
     1
  0
CLASS
  1
XRECORD
  2
AcDbXrecord
  3
AutoCAD 2000
 90
        0
280
     0
281
     0
  0
CLASS
  1
LONG_TRANSACTION
  2
AcDbLongTransaction
  3
AutoCAD 2000
 90
        0
280
     0
281
     0
  0
CLASS
  1
LWPOLYLINE
  2
AcDbPolyline
  3
AutoCAD 2000
 90
        0
280
     0
281
     1
  0
CLASS
  1
HATCH
  2
AcDbHatch
  3
AutoCAD 2000
 90
        0
280
     0
281
     1
  0
CLASS
  1
XRECORD
  2
AcDbXrecord
  3
AutoCAD 2000
 90
        0
280
     0
281
     0
  0
CLASS
  1
LONG_TRANSACTION
  2
AcDbLongTransaction
  3
AutoCAD 2000
 90
        0
280
     0
281
     0
  0
CLASS
  1
LWPOLYLINE
  2
AcDbPolyline
  3
AutoCAD 2000
 90
        0
280
     0
281
     1
  0
CLASS
  1
HATCH
  2
AcDbHatch
  3
AutoCAD 2000
 90
        0
280
     0
281
     1
  0
CLASS
  1
XRECORD
  2
AcDbXrecord
  3
AutoCAD 2000
 90
        0
280
     0
281
     0
  0
CLASS
  1
LONG_TRANSACTION
  2
AcDbLongTransaction
  3
AutoCAD 2000
 90
        0
280
     0
281
     0
  0
CLASS
  1
LWPOLYLINE
  2
AcDbPolyline
  3
AutoCAD 2000
 90
        0
280
     0
281
     1
  0
CLASS
  1
HATCH
  2
AcDbHatch
  3
AutoCAD 2000
 90
        0
280
     0
281
     1
  0
CLASS
  1
XRECORD
  2
AcDbXrecord
  3
AutoCAD 2000
 90
        0
280
     0
281
     0
  0
CLASS
  1
LONG_TRANSACTION
  2
AcDbLongTransaction
  3
AutoCAD 2000
 90
        0
280
     0
281
     0
  0
CLASS
  1
LWPOLYLINE
  2
AcDbPolyline
  3
AutoCAD 2000
 90
        0
280
     0
281
     1
  0
CLASS
  1
HATCH
  2
AcDbHatch
  3
AutoCAD 2000
 90
        0
280
     0
281
     1
  0
CLASS
  1
XRECORD
  2
AcDbXrecord
  3
AutoCAD 2000
 90
        0
280
     0
281
     0
  0
CLASS
  1
LONG_TRANSACTION
  2
AcDbLongTransaction
  3
AutoCAD 2000
 90
        0
280
     0
281
     0
  0
CLASS
  1
LWPOLYLINE
  2
AcDbPolyline
  3
AutoCAD 2000
 90
        0
280
     0
281
     1
  0
CLASS
  1
HATCH
  2
AcDbHatch
  3
AutoCAD 2000
 90
        0
280
     0
281
     1
  0
CLASS
  1
XRECORD
  2
AcDbXrecord
  3
AutoCAD 2000
 90
        0
280
     0
281
     0
  0
CLASS
  1
LONG_TRANSACTION
  2
AcDbLongTransaction
  3
AutoCAD 2000
 90
        0
280
     0
281
     0
  0
CLASS
  1
LWPOLYLINE
  2
AcDbPolyline
  3
AutoCAD 2000
 90
        0
280
     0
281
     1
  0
CLASS
  1
HATCH
  2
AcDbHatch
  3
AutoCAD 2000
 90
        0
280
     0
281
     1
  0
CLASS
  1
XRECORD
  2
AcDbXrecord
  3
AutoCAD 2000
 90
        0
280
     0
281
     0
  0
CLASS
  1
LONG_TRANSACTION
  2
AcDbLongTransaction
  3
AutoCAD 2000
 90
        0
280
     0
281
     0
  0
CLASS
  1
LWPOLYLINE
  2
AcDbPolyline
  3
AutoCAD 2000
 90
        0
280
     0
281
     1
  0
CLASS
  1
HATCH
  2
AcDbHatch
  3
AutoCAD 2000
 90
        0
280
     0
281
     1
  0
CLASS
  1
XRECORD
  2
AcDbXrecord
  3
AutoCAD 2000
 90
        0
280
     0
281
     0
  0
CLASS
  1
LONG_TRANSACTION
  2
AcDbLongTransaction
  3
AutoCAD 2000
 90
        0
280
     0
281
     0
  0
CLASS
  1
LWPOLYLINE
  2
AcDbPolyline
  3
AutoCAD 2000
 90
        0
280
     0
281
     1
  0
CLASS
  1
HATCH
  2
AcDbHatch
  3
AutoCAD 2000
 90
        0
280
     0
281
     1
  0
CLASS
  1
XRECORD
  2
AcDbXrecord
  3
AutoCAD 2000
 90
        0
280
     0
281
     0
  0
CLASS
  1
LONG_TRANSACTION
  2
AcDbLongTransaction
  3
AutoCAD 2000
 90
        0
280
     0
281
     0
  0
CLASS
  1
LWPOLYLINE
  2
AcDbPolyline
  3
AutoCAD 2000
 90
        0
280
     0
281
     1
  0
CLASS
  1
HATCH
  2
AcDbHatch
  3
AutoCAD 2000
 90
        0
280
     0
281
     1
  0
CLASS
  1
XRECORD
  2
AcDbXrecord
  3
AutoCAD 2000
 90
        0
280
     0
281
     0
  0
CLASS
  1
LONG_TRANSACTION
  2
AcDbLongTransaction
  3
AutoCAD 2000
 90
        0
280
     0
281
     0
  0
CLASS
  1
LWPOLYLINE
  2
AcDbPolyline
  3
AutoCAD 2000
 90
        0
280
     0
281
     1
  0
CLASS
  1
HATCH
  2
AcDbHatch
  3
AutoCAD 2000
 90
        0
280
     0
281
     1
  0
CLASS
  1
XRECORD
  2
AcDbXrecord
  3
AutoCAD 2000
 90
        0
280
     0
281
     0
  0
CLASS
  1
LONG_TRANSACTION
  2
AcDbLongTransaction
  3
AutoCAD 2000
 90
        0
280
     0
281
     0
  0
CLASS
  1
LWPOLYLINE
  2
AcDbPolyline
  3
AutoCAD 2000
 90
        0
280
     0
281
     1
  0
CLASS
  1
HATCH
  2
AcDbHatch
  3
AutoCAD 2000
 90
        0
280
     0
281
     1
  0
CLASS
  1
XRECORD
  2
AcDbXrecord
  3
AutoCAD 2000
 90
        0
280
     0
281
     0
  0
ENDSEC
  0
SECTION
  2
TABLES
  0
TABLE
  2
VPORT
  5
8
330
0
100
AcDbSymbolTable
 70
     2
  0
VPORT
  5
2857
330
8
100
AcDbSymbolTableRecord
100
AcDbViewportTableRecord
  2
*ACTIVE
 70
     0
 10
0.0
 20
0.0
 11
1.0
 21
1.0
 12
226.6032343395752
 22
140.0136795289256
 13
0.0
 23
0.0
 14
5.0
 24
5.0
 15
0.0
 25
0.0
 16
0.0
 26
0.0
 36
1.0
 17
0.0
 27
0.0
 37
0.0
 40
315.8367152982898
 41
1.795454545454545
 42
50.0
 43
0.0
 44
0.0
 50
0.0
 51
0.0
 71
     0
 72
   100
 73
     1
 74
     0
 75
     0
 76
     0
 77
     0
 78
     0
  0
ENDTAB
  0
TABLE
  2
LTYPE
  5
5
330
0
100
AcDbSymbolTable
 70
     3
  0
LTYPE
  5
14
330
5
100
AcDbSymbolTableRecord
100
AcDbLinetypeTableRecord
  2
BYBLOCK
 70
     0
  3

 72
    65
 73
     0
 40
0.0
  0
LTYPE
  5
15
330
5
100
AcDbSymbolTableRecord
100
AcDbLinetypeTableRecord
  2
BYLAYER
 70
     0
  3

 72
    65
 73
     0
 40
0.0
  0
LTYPE
  5
16
330
5
100
AcDbSymbolTableRecord
100
AcDbLinetypeTableRecord
  2
CONTINUOUS
 70
     0
  3
Solid line
 72
    65
 73
     0
 40
0.0
  0
LTYPE
  5
120
330
5
100
AcDbSymbolTableRecord
100
AcDbLinetypeTableRecord
  2
CENTER
 70
     0
  3
____ _ ____ _ ____ _ ____ _ ____ _ ____ _ ____ 
 72
    65
 73
     4
 40
2.0
 49
1.25
 74
     0
 49
-0.25
 74
     0
 49
0.25
 74
     0
 49
-0.25
 74
     0
  0
LTYPE
  5
24D6
330
5
100
AcDbSymbolTableRecord
100
AcDbLinetypeTableRecord
  2
PHANTOM
 70
     0
  3
______  __  __  ______  __  __  ______  __  __ 
 72
    65
 73
     6
 40
2.5
 49
1.25
 74
     0
 49
-0.25
 74
     0
 49
0.25
 74
     0
 49
-0.25
 74
     0
 49
0.25
 74
     0
 49
-0.25
 74
     0
  0
ENDTAB
  0
TABLE
  2
LAYER
  5
2
330
0
100
AcDbSymbolTable
 70
     9
  0
LAYER
  5
F
330
2
100
AcDbSymbolTableRecord
100
AcDbLayerTableRecord
  2
0
 70
     0
 62
     7
  6
CONTINUOUS
  0
LAYER
  5
62
330
2
100
AcDbSymbolTableRecord
100
AcDbLayerTableRecord
  2
VIEWPORT
 70
     0
 62
     7
  6
CONTINUOUS
  0
LAYER
  5
6B
330
2
100
AcDbSymbolTableRecord
100
AcDbLayerTableRecord
  2
ZUWAKU
 70
     0
 62
     7
  6
CONTINUOUS
  0
LAYER
  5
48C
330
2
100
AcDbSymbolTableRecord
100
AcDbLayerTableRecord
  2
DEFPOINTS
 70
     0
 62
     7
  6
CONTINUOUS
  0
LAYER
  5
629
330
2
100
AcDbSymbolTableRecord
100
AcDbLayerTableRecord
  2
SEIHIN
 70
     0
 62
     3
  6
CONTINUOUS
  0
LAYER
  5
62A
330
2
100
AcDbSymbolTableRecord
100
AcDbLayerTableRecord
  2
SUNPOU
 70
     0
 62
     4
  6
CONTINUOUS
  0
LAYER
  5
62B
330
2
100
AcDbSymbolTableRecord
100
AcDbLayerTableRecord
  2
CENTER_L
 70
     0
 62
     1
  6
CENTER
  0
LAYER
  5
24D7
330
2
100
AcDbSymbolTableRecord
100
AcDbLayerTableRecord
  2
NOKITOI
 70
     0
 62
     8
  6
PHANTOM
  0
LAYER
  5
267F
330
2
100
AcDbSymbolTableRecord
100
AcDbLayerTableRecord
  2
MOJI
 70
     0
 62
     2
  6
CONTINUOUS
  0
ENDTAB
  0
TABLE
  2
STYLE
  5
3
330
0
100
AcDbSymbolTable
 70
     2
  0
STYLE
  5
10
330
3
100
AcDbSymbolTableRecord
100
AcDbTextStyleTableRecord
  2
STANDARD
 70
     0
 40
0.0
 41
1.0
 50
0.0
 71
     0
 42
4.0
  3
TXT
  4
bigfont.shx
  0
STYLE
  5
2680
330
3
100
AcDbSymbolTableRecord
100
AcDbTextStyleTableRecord
  2
ｽﾀｲﾙ1
 70
     0
 40
0.0
 41
1.0
 50
0.0
 71
     0
 42
2.5
  3
MS PGothic.ttf
  4

1001
ACAD
1000
MS PGothic
1071
    32818
  0
ENDTAB
  0
TABLE
  2
VIEW
  5
6
330
0
100
AcDbSymbolTable
 70
     0
  0
ENDTAB
  0
TABLE
  2
UCS
  5
7
330
0
100
AcDbSymbolTable
 70
     0
  0
ENDTAB
  0
TABLE
  2
APPID
  5
9
330
0
100
AcDbSymbolTable
 70
     1
  0
APPID
  5
11
330
9
100
AcDbSymbolTableRecord
100
AcDbRegAppTableRecord
  2
ACAD
 70
     0
  0
ENDTAB
  0
TABLE
  2
DIMSTYLE
  5
A
330
0
100
AcDbSymbolTable
 70
     1
  0
DIMSTYLE
105
1D
102
{ACAD_REACTORS
330
23FD
330
2403
330
2404
330
2405
330
2407
330
244B
330
2472
330
2473
330
249B
330
24A9
330
2594
102
}
330
A
100
AcDbSymbolTableRecord
100
AcDbDimStyleTableRecord
  2
STANDARD
 70
     0
  3

  4

  5

  6

  7

 40
1.0
 41
0.18
 42
0.0625
 43
0.38
 44
0.18
 45
0.0
 46
0.0
 47
0.0
 48
0.0
140
0.18
141
0.09
142
0.0
143
25.4
144
1.0
145
0.0
146
1.0
147
0.09
 71
     0
 72
     0
 73
     1
 74
     1
 75
     0
 76
     0
 77
     0
 78
     0
170
     0
171
     2
172
     0
173
     0
174
     0
175
     0
176
     0
177
     0
178
     0
270
     2
271
     4
272
     4
273
     2
274
     2
340
10
275
     0
280
     0
281
     0
282
     0
283
     1
284
     0
285
     0
286
     0
287
     3
288
     0
  0
ENDTAB
  0
TABLE
  2
BLOCK_RECORD
  5
1
330
0
100
AcDbSymbolTable
 70
    12
  0
BLOCK_RECORD
  5
1A
102
{ACAD_XDICTIONARY
360
73C
102
}
330
1
100
AcDbSymbolTableRecord
100
AcDbBlockTableRecord
  2
*MODEL_SPACE
  0
BLOCK_RECORD
  5
17
102
{ACAD_XDICTIONARY
360
73A
102
}
330
1
100
AcDbSymbolTableRecord
100
AcDbBlockTableRecord
  2
*PAPER_SPACE
  0
BLOCK_RECORD
  5
B2
330
1
100
AcDbSymbolTableRecord
100
AcDbBlockTableRecord
  2
_OPEN
  0
BLOCK_RECORD
  5
2409
330
1
100
AcDbSymbolTableRecord
100
AcDbBlockTableRecord
  2
*D1
  0
BLOCK_RECORD
  5
2415
330
1
100
AcDbSymbolTableRecord
100
AcDbBlockTableRecord
  2
*D2
  0
BLOCK_RECORD
  5
2421
330
1
100
AcDbSymbolTableRecord
100
AcDbBlockTableRecord
  2
*D3
  0
BLOCK_RECORD
  5
242F
330
1
100
AcDbSymbolTableRecord
100
AcDbBlockTableRecord
  2
*D4
  0
BLOCK_RECORD
  5
243D
330
1
100
AcDbSymbolTableRecord
100
AcDbBlockTableRecord
  2
*D5
  0
BLOCK_RECORD
  5
244C
330
1
100
AcDbSymbolTableRecord
100
AcDbBlockTableRecord
  2
*D6
  0
BLOCK_RECORD
  5
2474
330
1
100
AcDbSymbolTableRecord
100
AcDbBlockTableRecord
  2
*D7
  0
BLOCK_RECORD
  5
2480
330
1
100
AcDbSymbolTableRecord
100
AcDbBlockTableRecord
  2
*D8
  0
BLOCK_RECORD
  5
249D
330
1
100
AcDbSymbolTableRecord
100
AcDbBlockTableRecord
  2
*D9
  0
BLOCK_RECORD
  5
24AA
330
1
100
AcDbSymbolTableRecord
100
AcDbBlockTableRecord
  2
*D10
  0
BLOCK_RECORD
  5
2595
330
1
100
AcDbSymbolTableRecord
100
AcDbBlockTableRecord
  2
*D11
  0
ENDTAB
  0
ENDSEC
  0
SECTION
  2
BLOCKS
  0
BLOCK
  5
1B
330
1A
100
AcDbEntity
  8
0
100
AcDbBlockBegin
  2
*MODEL_SPACE
 70
     0
 10
0.0
 20
0.0
 30
0.0
  3
*MODEL_SPACE
  1

  0
ENDBLK
  5
1C
330
1A
100
AcDbEntity
  8
0
100
AcDbBlockEnd
  0
BLOCK
  5
18
330
17
100
AcDbEntity
 67
     1
  8
0
100
AcDbBlockBegin
  2
*PAPER_SPACE
 70
     0
 10
0.0
 20
0.0
 30
0.0
  3
*PAPER_SPACE
  1

  0
ENDBLK
  5
19
330
17
100
AcDbEntity
 67
     1
  8
0
100
AcDbBlockEnd
  0
BLOCK
  5
B3
330
B2
100
AcDbEntity
  8
0
100
AcDbBlockBegin
  2
_OPEN
 70
     0
 10
0.0
 20
0.0
 30
0.0
  3
_OPEN
  1

  0
LINE
  5
B4
330
B2
100
AcDbEntity
  8
0
  6
BYBLOCK
 62
     0
100
AcDbLine
 10
-1.0
 20
0.1666666666666666
 30
0.0
 11
0.0
 21
0.0
 31
0.0
  0
LINE
  5
B5
330
B2
100
AcDbEntity
  8
0
  6
BYBLOCK
 62
     0
100
AcDbLine
 10
0.0
 20
0.0
 30
0.0
 11
-1.0
 21
-0.1666666666666666
 31
0.0
  0
LINE
  5
B6
330
B2
100
AcDbEntity
  8
0
  6
BYBLOCK
 62
     0
100
AcDbLine
 10
0.0
 20
0.0
 30
0.0
 11
-1.0
 21
0.0
 31
0.0
  0
ENDBLK
  5
B7
330
B2
100
AcDbEntity
  8
0
100
AcDbBlockEnd
  0
BLOCK
  5
240A
330
2409
100
AcDbEntity
  8
0
100
AcDbBlockBegin
  2
*D1
 70
     1
 10
0.0
 20
0.0
 30
0.0
  3
*D1
  1

  0
LINE
  5
2812
330
2409
100
AcDbEntity
  8
SUNPOU
  6
CONTINUOUS
100
AcDbLine
 10
299.4964564570293
 20
89.33023683714976
 30
0.0
 11
299.4964564570293
 21
146.171507536644
 31
0.0
  0
LINE
  5
2813
330
2409
100
AcDbEntity
  8
SUNPOU
  6
CONTINUOUS
100
AcDbLine
 10
360.4964564570293
 20
89.33023692654979
 30
0.0
 11
360.4964564570293
 21
146.171507536644
 31
0.0
  0
LINE
  5
2814
330
2409
100
AcDbEntity
  8
SUNPOU
  6
CONTINUOUS
100
AcDbLine
 10
302.4964564570292
 20
144.671507536644
 30
0.0
 11
357.4964564570293
 21
144.671507536644
 31
0.0
  0
INSERT
  5
2815
330
2409
100
AcDbEntity
  8
SUNPOU
  6
CONTINUOUS
100
AcDbBlockReference
  2
_OPEN
 10
299.4964564570293
 20
144.671507536644
 30
0.0
 41
3.0
 42
3.0
 43
3.0
 50
180.0
  0
INSERT
  5
2816
330
2409
100
AcDbEntity
  8
SUNPOU
  6
CONTINUOUS
100
AcDbBlockReference
  2
_OPEN
 10
360.4964564570293
 20
144.671507536644
 30
0.0
 41
3.0
 42
3.0
 43
3.0
  0
MTEXT
  5
2817
330
2409
100
AcDbEntity
  8
SUNPOU
  6
CONTINUOUS
100
AcDbMText
 10
329.9964564570292
 20
147.171507536644
 30
0.0
 40
3.0
 41
0.0
 71
     5
 72
     1
  1
\A1;61
1001
ACAD
1000
MTEXTBEGIN
1070
    73
1070
     1
1070
    44
1040
1.0
1070
    74
1070
     0
1000
MTEXTEND
  0
POINT
  5
2818
330
2409
100
AcDbEntity
  8
DEFPOINTS
  6
CONTINUOUS
 62
     0
100
AcDbPoint
 10
299.4964564570293
 20
86.33023683714977
 30
0.0
  0
POINT
  5
2819
330
2409
100
AcDbEntity
  8
DEFPOINTS
  6
CONTINUOUS
 62
     0
100
AcDbPoint
 10
360.4964564570293
 20
86.33023692654978
 30
0.0
  0
POINT
  5
281A
330
2409
100
AcDbEntity
  8
DEFPOINTS
  6
CONTINUOUS
 62
     0
100
AcDbPoint
 10
360.4964564570293
 20
144.671507536644
 30
0.0
  0
ENDBLK
  5
2414
330
2409
100
AcDbEntity
  8
0
100
AcDbBlockEnd
  0
BLOCK
  5
2416
330
2415
100
AcDbEntity
  8
0
100
AcDbBlockBegin
  2
*D2
 70
     1
 10
0.0
 20
0.0
 30
0.0
  3
*D2
  1

  0
LINE
  5
281B
330
2415
100
AcDbEntity
  8
SUNPOU
  6
CONTINUOUS
100
AcDbLine
 10
308.4964564570292
 20
89.33023683714976
 30
0.0
 11
308.4964564570292
 21
137.9904502465284
 31
0.0
  0
LINE
  5
281C
330
2415
100
AcDbEntity
  8
SUNPOU
  6
CONTINUOUS
100
AcDbLine
 10
351.4964564570293
 20
89.33023683714976
 30
0.0
 11
351.4964564570293
 21
137.9904502465284
 31
0.0
  0
LINE
  5
281D
330
2415
100
AcDbEntity
  8
SUNPOU
  6
CONTINUOUS
100
AcDbLine
 10
311.4964564570293
 20
136.4904502465284
 30
0.0
 11
348.4964564570292
 21
136.4904502465284
 31
0.0
  0
INSERT
  5
281E
330
2415
100
AcDbEntity
  8
SUNPOU
  6
CONTINUOUS
100
AcDbBlockReference
  2
_OPEN
 10
308.4964564570292
 20
136.4904502465284
 30
0.0
 41
3.0
 42
3.0
 43
3.0
 50
180.0
  0
INSERT
  5
281F
330
2415
100
AcDbEntity
  8
SUNPOU
  6
CONTINUOUS
100
AcDbBlockReference
  2
_OPEN
 10
351.4964564570293
 20
136.4904502465284
 30
0.0
 41
3.0
 42
3.0
 43
3.0
  0
MTEXT
  5
2820
330
2415
100
AcDbEntity
  8
SUNPOU
  6
CONTINUOUS
100
AcDbMText
 10
329.9964564570292
 20
138.9904502465284
 30
0.0
 40
3.0
 41
0.0
 71
     5
 72
     1
  1
\A1;43
1001
ACAD
1000
MTEXTBEGIN
1070
    73
1070
     1
1070
    44
1040
1.0
1070
    74
1070
     0
1000
MTEXTEND
  0
POINT
  5
2821
330
2415
100
AcDbEntity
  8
DEFPOINTS
  6
CONTINUOUS
 62
     0
100
AcDbPoint
 10
308.4964564570292
 20
86.33023683714977
 30
0.0
  0
POINT
  5
2822
330
2415
100
AcDbEntity
  8
DEFPOINTS
  6
CONTINUOUS
 62
     0
100
AcDbPoint
 10
351.4964564570293
 20
86.33023683714977
 30
0.0
  0
POINT
  5
2823
330
2415
100
AcDbEntity
  8
DEFPOINTS
  6
CONTINUOUS
 62
     0
100
AcDbPoint
 10
351.4964564570293
 20
136.4904502465284
 30
0.0
  0
ENDBLK
  5
2420
330
2415
100
AcDbEntity
  8
0
100
AcDbBlockEnd
  0
BLOCK
  5
2422
330
2421
100
AcDbEntity
  8
0
100
AcDbBlockBegin
  2
*D3
 70
     1
 10
0.0
 20
0.0
 30
0.0
  3
*D3
  1

  0
LINE
  5
2824
330
2421
100
AcDbEntity
  8
SUNPOU
  6
CONTINUOUS
100
AcDbLine
 10
300.4964564570292
 20
62.33023683714981
 30
0.0
 11
290.3183002309115
 21
62.33023683714981
 31
0.0
  0
LINE
  5
2825
330
2421
100
AcDbEntity
  8
SUNPOU
  6
CONTINUOUS
100
AcDbLine
 10
299.4964564588776
 20
54.33023683714981
 30
0.0
 11
290.3183002309115
 21
54.33023683714981
 31
0.0
  0
LINE
  5
2826
330
2421
100
AcDbEntity
  8
SUNPOU
  6
CONTINUOUS
100
AcDbLine
 10
291.8183002309115
 20
59.33023683714981
 30
0.0
 11
291.8183002309115
 21
57.3302368371498
 31
0.0
  0
INSERT
  5
2827
330
2421
100
AcDbEntity
  8
SUNPOU
  6
CONTINUOUS
100
AcDbBlockReference
  2
_OPEN
 10
291.8183002309115
 20
62.33023683714981
 30
0.0
 41
3.0
 42
3.0
 43
3.0
 50
90.0
  0
INSERT
  5
2828
330
2421
100
AcDbEntity
  8
SUNPOU
  6
CONTINUOUS
100
AcDbBlockReference
  2
_OPEN
 10
291.8183002309115
 20
54.33023683714981
 30
0.0
 41
3.0
 42
3.0
 43
3.0
 50
270.0
  0
MTEXT
  5
2829
330
2421
100
AcDbEntity
  8
SUNPOU
  6
CONTINUOUS
100
AcDbMText
 10
289.3183002309115
 20
58.33023683714985
 30
0.0
 40
3.0
 41
0.0
 71
     5
 72
     1
  1
\A1;8
 11
0.0000000000000001
 21
1.0
 31
0.0
1001
ACAD
1000
MTEXTBEGIN
1070
    73
1070
     1
1070
    44
1040
1.0
1070
    74
1070
     0
1000
MTEXTEND
  0
POINT
  5
282A
330
2421
100
AcDbEntity
  8
DEFPOINTS
  6
CONTINUOUS
 62
     0
100
AcDbPoint
 10
303.4964564570293
 20
62.33023683714981
 30
0.0
  0
POINT
  5
282B
330
2421
100
AcDbEntity
  8
DEFPOINTS
  6
CONTINUOUS
 62
     0
100
AcDbPoint
 10
302.4964564588776
 20
54.33023683714981
 30
0.0
  0
POINT
  5
282C
330
2421
100
AcDbEntity
  8
DEFPOINTS
  6
CONTINUOUS
 62
     0
100
AcDbPoint
 10
291.8183002309115
 20
54.33023683714981
 30
0.0
  0
ENDBLK
  5
242E
330
2421
100
AcDbEntity
  8
0
100
AcDbBlockEnd
  0
BLOCK
  5
2430
330
242F
100
AcDbEntity
  8
0
100
AcDbBlockBegin
  2
*D4
 70
     1
 10
0.0
 20
0.0
 30
0.0
  3
*D4
  1

  0
LINE
  5
283F
330
242F
100
AcDbEntity
  8
SUNPOU
  6
CONTINUOUS
100
AcDbLine
 10
299.4964564570293
 20
89.33023683714981
 30
0.0
 11
290.3183002309115
 21
89.33023683714981
 31
0.0
  0
LINE
  5
2840
330
242F
100
AcDbEntity
  8
SUNPOU
  6
CONTINUOUS
100
AcDbLine
 10
300.4964564570292
 20
81.33023683714979
 30
0.0
 11
290.3183002309115
 21
81.33023683714979
 31
0.0
  0
LINE
  5
2841
330
242F
100
AcDbEntity
  8
SUNPOU
  6
CONTINUOUS
100
AcDbLine
 10
291.8183002309115
 20
86.33023683714981
 30
0.0
 11
291.8183002309115
 21
84.3302368371498
 31
0.0
  0
INSERT
  5
2842
330
242F
100
AcDbEntity
  8
SUNPOU
  6
CONTINUOUS
100
AcDbBlockReference
  2
_OPEN
 10
291.8183002309115
 20
89.33023683714981
 30
0.0
 41
3.0
 42
3.0
 43
3.0
 50
90.0
  0
INSERT
  5
2843
330
242F
100
AcDbEntity
  8
SUNPOU
  6
CONTINUOUS
100
AcDbBlockReference
  2
_OPEN
 10
291.8183002309115
 20
81.33023683714979
 30
0.0
 41
3.0
 42
3.0
 43
3.0
 50
270.0
  0
MTEXT
  5
2844
330
242F
100
AcDbEntity
  8
SUNPOU
  6
CONTINUOUS
100
AcDbMText
 10
289.3183002309115
 20
85.33023683714985
 30
0.0
 40
3.0
 41
0.0
 71
     5
 72
     1
  1
\A1;8
 11
0.0000000000000001
 21
1.0
 31
0.0
1001
ACAD
1000
MTEXTBEGIN
1070
    73
1070
     1
1070
    44
1040
1.0
1070
    74
1070
     0
1000
MTEXTEND
  0
POINT
  5
2845
330
242F
100
AcDbEntity
  8
DEFPOINTS
  6
CONTINUOUS
 62
     0
100
AcDbPoint
 10
302.4964564570292
 20
89.33023683714981
 30
0.0
  0
POINT
  5
2846
330
242F
100
AcDbEntity
  8
DEFPOINTS
  6
CONTINUOUS
 62
     0
100
AcDbPoint
 10
303.4964564570293
 20
81.33023683714979
 30
0.0
  0
POINT
  5
2847
330
242F
100
AcDbEntity
  8
DEFPOINTS
  6
CONTINUOUS
 62
     0
100
AcDbPoint
 10
291.8183002309115
 20
81.33023683714979
 30
0.0
  0
ENDBLK
  5
243C
330
242F
100
AcDbEntity
  8
0
100
AcDbBlockEnd
  0
BLOCK
  5
243E
330
243D
100
AcDbEntity
  8
0
100
AcDbBlockBegin
  2
*D5
 70
     1
 10
0.0
 20
0.0
 30
0.0
  3
*D5
  1

  0
LINE
  5
2836
330
243D
100
AcDbEntity
  8
SUNPOU
  6
CONTINUOUS
100
AcDbLine
 10
299.4964564570293
 20
89.33023683714981
 30
0.0
 11
281.4662304928063
 21
89.33023683714983
 31
0.0
  0
LINE
  5
2837
330
243D
100
AcDbEntity
  8
SUNPOU
  6
CONTINUOUS
100
AcDbLine
 10
299.4964564588776
 20
54.33023683714981
 30
0.0
 11
281.4662304928063
 21
54.33023683714981
 31
0.0
  0
LINE
  5
2838
330
243D
100
AcDbEntity
  8
SUNPOU
  6
CONTINUOUS
100
AcDbLine
 10
282.9662304928063
 20
86.33023683714982
 30
0.0
 11
282.9662304928063
 21
57.3302368371498
 31
0.0
  0
INSERT
  5
2839
330
243D
100
AcDbEntity
  8
SUNPOU
  6
CONTINUOUS
100
AcDbBlockReference
  2
_OPEN
 10
282.9662304928063
 20
89.33023683714983
 30
0.0
 41
3.0
 42
3.0
 43
3.0
 50
90.0
  0
INSERT
  5
283A
330
243D
100
AcDbEntity
  8
SUNPOU
  6
CONTINUOUS
100
AcDbBlockReference
  2
_OPEN
 10
282.9662304928063
 20
54.33023683714981
 30
0.0
 41
3.0
 42
3.0
 43
3.0
 50
270.0
  0
MTEXT
  5
283B
330
243D
100
AcDbEntity
  8
SUNPOU
  6
CONTINUOUS
100
AcDbMText
 10
280.4662304928062
 20
71.83023683714985
 30
0.0
 40
3.0
 41
0.0
 71
     5
 72
     1
  1
\A1;35
 11
0.0000000000000001
 21
1.0
 31
0.0
1001
ACAD
1000
MTEXTBEGIN
1070
    73
1070
     1
1070
    44
1040
1.0
1070
    74
1070
     0
1000
MTEXTEND
  0
POINT
  5
283C
330
243D
100
AcDbEntity
  8
DEFPOINTS
  6
CONTINUOUS
 62
     0
100
AcDbPoint
 10
302.4964564570292
 20
89.33023683714981
 30
0.0
  0
POINT
  5
283D
330
243D
100
AcDbEntity
  8
DEFPOINTS
  6
CONTINUOUS
 62
     0
100
AcDbPoint
 10
302.4964564588776
 20
54.33023683714981
 30
0.0
  0
POINT
  5
283E
330
243D
100
AcDbEntity
  8
DEFPOINTS
  6
CONTINUOUS
 62
     0
100
AcDbPoint
 10
282.9662304928063
 20
54.33023683714981
 30
0.0
  0
ENDBLK
  5
2448
330
243D
100
AcDbEntity
  8
0
100
AcDbBlockEnd
  0
BLOCK
  5
244D
330
244C
100
AcDbEntity
  8
0
100
AcDbBlockBegin
  2
*D6
 70
     1
 10
0.0
 20
0.0
 30
0.0
  3
*D6
  1

  0
LINE
  5
282D
330
244C
100
AcDbEntity
  8
SUNPOU
  6
CONTINUOUS
100
AcDbLine
 10
222.9804714516292
 20
90.47673412654981
 30
0.0
 11
235.0155798752655
 21
90.4767341265498
 31
0.0
  0
LINE
  5
282E
330
244C
100
AcDbEntity
  8
SUNPOU
  6
CONTINUOUS
100
AcDbLine
 10
222.9804714516292
 20
55.4767341265498
 30
0.0
 11
235.0155798752655
 21
55.4767341265498
 31
0.0
  0
LINE
  5
282F
330
244C
100
AcDbEntity
  8
SUNPOU
  6
CONTINUOUS
100
AcDbLine
 10
233.5155798752655
 20
87.47673412654981
 30
0.0
 11
233.5155798752654
 21
58.4767341265498
 31
0.0
  0
INSERT
  5
2830
330
244C
100
AcDbEntity
  8
SUNPOU
  6
CONTINUOUS
100
AcDbBlockReference
  2
_OPEN
 10
233.5155798752655
 20
90.4767341265498
 30
0.0
 41
3.0
 42
3.0
 43
3.0
 50
90.0
  0
INSERT
  5
2831
330
244C
100
AcDbEntity
  8
SUNPOU
  6
CONTINUOUS
100
AcDbBlockReference
  2
_OPEN
 10
233.5155798752654
 20
55.4767341265498
 30
0.0
 41
3.0
 42
3.0
 43
3.0
 50
270.0
  0
MTEXT
  5
2832
330
244C
100
AcDbEntity
  8
SUNPOU
  6
CONTINUOUS
100
AcDbMText
 10
231.0155798752655
 20
72.97673412654984
 30
0.0
 40
3.0
 41
0.0
 71
     5
 72
     1
  1
\A1;35
 11
0.0000000000000001
 21
1.0
 31
0.0
1001
ACAD
1000
MTEXTBEGIN
1070
    73
1070
     1
1070
    44
1040
1.0
1070
    74
1070
     0
1000
MTEXTEND
  0
POINT
  5
2833
330
244C
100
AcDbEntity
  8
DEFPOINTS
  6
CONTINUOUS
 62
     0
100
AcDbPoint
 10
219.9804714516292
 20
90.47673412654981
 30
0.0
  0
POINT
  5
2834
330
244C
100
AcDbEntity
  8
DEFPOINTS
  6
CONTINUOUS
 62
     0
100
AcDbPoint
 10
219.9804714516292
 20
55.4767341265498
 30
0.0
  0
POINT
  5
2835
330
244C
100
AcDbEntity
  8
DEFPOINTS
  6
CONTINUOUS
 62
     0
100
AcDbPoint
 10
233.5155798752654
 20
55.4767341265498
 30
0.0
  0
ENDBLK
  5
2457
330
244C
100
AcDbEntity
  8
0
100
AcDbBlockEnd
  0
BLOCK
  5
2475
330
2474
100
AcDbEntity
  8
0
100
AcDbBlockBegin
  2
*D7
 70
     1
 10
0.0
 20
0.0
 30
0.0
  3
*D7
  1

  0
LINE
  5
27F7
330
2474
100
AcDbEntity
  8
SUNPOU
  6
CONTINUOUS
100
AcDbLine
 10
219.9804714516293
 20
93.47673412654982
 30
0.0
 11
219.9804714516293
 21
158.0555886193085
 31
0.0
  0
LINE
  5
27F8
330
2474
100
AcDbEntity
  8
SUNPOU
  6
CONTINUOUS
100
AcDbLine
 10
74.67585551812937
 20
148.0204114581497
 30
0.0
 11
74.67585551812937
 21
158.0555886193085
 31
0.0
  0
LINE
  5
27F9
330
2474
100
AcDbEntity
  8
SUNPOU
  6
CONTINUOUS
100
AcDbLine
 10
216.9804714516292
 20
156.5555886193085
 30
0.0
 11
77.67585551812937
 21
156.5555886193085
 31
0.0
  0
INSERT
  5
27FA
330
2474
100
AcDbEntity
  8
SUNPOU
  6
CONTINUOUS
100
AcDbBlockReference
  2
_OPEN
 10
219.9804714516293
 20
156.5555886193085
 30
0.0
 41
3.0
 42
3.0
 43
3.0
  0
INSERT
  5
27FB
330
2474
100
AcDbEntity
  8
SUNPOU
  6
CONTINUOUS
100
AcDbBlockReference
  2
_OPEN
 10
74.67585551812937
 20
156.5555886193085
 30
0.0
 41
3.0
 42
3.0
 43
3.0
 50
180.0
  0
MTEXT
  5
27FC
330
2474
100
AcDbEntity
  8
SUNPOU
  6
CONTINUOUS
100
AcDbMText
 10
147.3281634848793
 20
159.0555886193085
 30
0.0
 40
3.0
 41
0.0
 71
     5
 72
     1
  1
\A1;145
1001
ACAD
1000
MTEXTBEGIN
1070
    73
1070
     1
1070
    44
1040
1.0
1070
    74
1070
     0
1000
MTEXTEND
  0
POINT
  5
27FD
330
2474
100
AcDbEntity
  8
DEFPOINTS
  6
CONTINUOUS
 62
     0
100
AcDbPoint
 10
219.9804714516293
 20
90.47673412654981
 30
0.0
  0
POINT
  5
27FE
330
2474
100
AcDbEntity
  8
DEFPOINTS
  6
CONTINUOUS
 62
     0
100
AcDbPoint
 10
74.67585551812937
 20
145.0204114581497
 30
0.0
  0
POINT
  5
27FF
330
2474
100
AcDbEntity
  8
DEFPOINTS
  6
CONTINUOUS
 62
     0
100
AcDbPoint
 10
74.67585551812937
 20
156.5555886193085
 30
0.0
  0
ENDBLK
  5
247F
330
2474
100
AcDbEntity
  8
0
100
AcDbBlockEnd
  0
BLOCK
  5
2481
330
2480
100
AcDbEntity
  8
0
100
AcDbBlockBegin
  2
*D8
 70
     1
 10
0.0
 20
0.0
 30
0.0
  3
*D8
  1

  0
LINE
  5
2809
330
2480
100
AcDbEntity
  8
SUNPOU
  6
CONTINUOUS
100
AcDbLine
 10
219.9804714516293
 20
93.47673412654982
 30
0.0
 11
219.9804714516293
 21
144.2909167447347
 31
0.0
  0
LINE
  5
280A
330
2480
100
AcDbEntity
  8
SUNPOU
  6
CONTINUOUS
100
AcDbLine
 10
204.2931303914293
 20
118.6536015412497
 30
0.0
 11
204.2931303914293
 21
144.2909167447347
 31
0.0
  0
LINE
  5
280B
330
2480
100
AcDbEntity
  8
SUNPOU
  6
CONTINUOUS
100
AcDbLine
 10
216.9804714516292
 20
142.7909167447348
 30
0.0
 11
207.2931303914292
 21
142.7909167447348
 31
0.0
  0
INSERT
  5
280C
330
2480
100
AcDbEntity
  8
SUNPOU
  6
CONTINUOUS
100
AcDbBlockReference
  2
_OPEN
 10
219.9804714516293
 20
142.7909167447348
 30
0.0
 41
3.0
 42
3.0
 43
3.0
  0
INSERT
  5
280D
330
2480
100
AcDbEntity
  8
SUNPOU
  6
CONTINUOUS
100
AcDbBlockReference
  2
_OPEN
 10
204.2931303914293
 20
142.7909167447348
 30
0.0
 41
3.0
 42
3.0
 43
3.0
 50
180.0
  0
MTEXT
  5
280E
330
2480
100
AcDbEntity
  8
SUNPOU
  6
CONTINUOUS
100
AcDbMText
 10
212.1368009215292
 20
145.2909167447347
 30
0.0
 40
3.0
 41
0.0
 71
     5
 72
     1
  1
\A1;16
1001
ACAD
1000
MTEXTBEGIN
1070
    73
1070
     1
1070
    44
1040
1.0
1070
    74
1070
     0
1000
MTEXTEND
  0
POINT
  5
280F
330
2480
100
AcDbEntity
  8
DEFPOINTS
  6
CONTINUOUS
 62
     0
100
AcDbPoint
 10
219.9804714516293
 20
90.47673412654981
 30
0.0
  0
POINT
  5
2810
330
2480
100
AcDbEntity
  8
DEFPOINTS
  6
CONTINUOUS
 62
     0
100
AcDbPoint
 10
204.2931303914293
 20
115.6536015412497
 30
0.0
  0
POINT
  5
2811
330
2480
100
AcDbEntity
  8
DEFPOINTS
  6
CONTINUOUS
 62
     0
100
AcDbPoint
 10
204.2931303914293
 20
142.7909167447348
 30
0.0
  0
ENDBLK
  5
248B
330
2480
100
AcDbEntity
  8
0
100
AcDbBlockEnd
  0
BLOCK
  5
249E
330
249D
100
AcDbEntity
  8
0
100
AcDbBlockBegin
  2
*D9
 70
     1
 10
0.0
 20
0.0
 30
0.0
  3
*D9
  1

  0
LINE
  5
2848
330
249D
100
AcDbEntity
  8
SUNPOU
  6
CONTINUOUS
100
AcDbLine
 10
222.9804714516292
 20
234.2751660760497
 30
0.0
 11
236.8897808492486
 21
234.2751660760497
 31
0.0
  0
LINE
  5
2849
330
249D
100
AcDbEntity
  8
SUNPOU
  6
CONTINUOUS
100
AcDbLine
 10
222.9804714516292
 20
173.2751660760497
 30
0.0
 11
236.8897808492486
 21
173.2751660760497
 31
0.0
  0
LINE
  5
284A
330
249D
100
AcDbEntity
  8
SUNPOU
  6
CONTINUOUS
100
AcDbLine
 10
235.3897808492486
 20
231.2751660760497
 30
0.0
 11
235.3897808492486
 21
176.2751660760497
 31
0.0
  0
INSERT
  5
284B
330
249D
100
AcDbEntity
  8
SUNPOU
  6
CONTINUOUS
100
AcDbBlockReference
  2
_OPEN
 10
235.3897808492486
 20
234.2751660760497
 30
0.0
 41
3.0
 42
3.0
 43
3.0
 50
90.0
  0
INSERT
  5
284C
330
249D
100
AcDbEntity
  8
SUNPOU
  6
CONTINUOUS
100
AcDbBlockReference
  2
_OPEN
 10
235.3897808492486
 20
173.2751660760497
 30
0.0
 41
3.0
 42
3.0
 43
3.0
 50
270.0
  0
MTEXT
  5
284D
330
249D
100
AcDbEntity
  8
SUNPOU
  6
CONTINUOUS
100
AcDbMText
 10
232.8897808492485
 20
203.7751660760497
 30
0.0
 40
3.0
 41
0.0
 71
     5
 72
     1
  1
\A1;61
 11
0.0000000000000001
 21
1.0
 31
0.0
1001
ACAD
1000
MTEXTBEGIN
1070
    73
1070
     1
1070
    44
1040
1.0
1070
    74
1070
     0
1000
MTEXTEND
  0
POINT
  5
284E
330
249D
100
AcDbEntity
  8
DEFPOINTS
  6
CONTINUOUS
 62
     0
100
AcDbPoint
 10
219.9804714516293
 20
234.2751660760497
 30
0.0
  0
POINT
  5
284F
330
249D
100
AcDbEntity
  8
DEFPOINTS
  6
CONTINUOUS
 62
     0
100
AcDbPoint
 10
219.9804714516293
 20
173.2751660760497
 30
0.0
  0
POINT
  5
2850
330
249D
100
AcDbEntity
  8
DEFPOINTS
  6
CONTINUOUS
 62
     0
100
AcDbPoint
 10
235.3897808492486
 20
173.2751660760497
 30
0.0
  0
ENDBLK
  5
24A8
330
249D
100
AcDbEntity
  8
0
100
AcDbBlockEnd
  0
BLOCK
  5
24AB
330
24AA
100
AcDbEntity
  8
0
100
AcDbBlockBegin
  2
*D10
 70
     1
 10
0.0
 20
0.0
 30
0.0
  3
*D10
  1

  0
LINE
  5
2800
330
24AA
100
AcDbEntity
  8
SUNPOU
  6
CONTINUOUS
100
AcDbLine
 10
72.07585551812934
 20
213.7751660760497
 30
0.0
 11
45.27749152584255
 21
213.7751660760497
 31
0.0
  0
LINE
  5
2801
330
24AA
100
AcDbEntity
  8
SUNPOU
  6
CONTINUOUS
100
AcDbLine
 10
72.07585551812934
 20
193.7751660760497
 30
0.0
 11
45.27749152584255
 21
193.7751660760497
 31
0.0
  0
LINE
  5
2802
330
24AA
100
AcDbEntity
  8
SUNPOU
  6
CONTINUOUS
100
AcDbLine
 10
46.77749152584255
 20
210.7751660760497
 30
0.0
 11
46.77749152584254
 21
196.7751660760497
 31
0.0
  0
INSERT
  5
2803
330
24AA
100
AcDbEntity
  8
SUNPOU
  6
CONTINUOUS
100
AcDbBlockReference
  2
_OPEN
 10
46.77749152584255
 20
213.7751660760497
 30
0.0
 41
3.0
 42
3.0
 43
3.0
 50
90.0
  0
INSERT
  5
2804
330
24AA
100
AcDbEntity
  8
SUNPOU
  6
CONTINUOUS
100
AcDbBlockReference
  2
_OPEN
 10
46.77749152584254
 20
193.7751660760497
 30
0.0
 41
3.0
 42
3.0
 43
3.0
 50
270.0
  0
MTEXT
  5
2805
330
24AA
100
AcDbEntity
  8
SUNPOU
  6
CONTINUOUS
100
AcDbMText
 10
44.27749152584252
 20
203.7751660760497
 30
0.0
 40
3.0
 41
0.0
 71
     5
 72
     1
  1
\A1;20
 11
0.0000000000000001
 21
1.0
 31
0.0
1001
ACAD
1000
MTEXTBEGIN
1070
    73
1070
     1
1070
    44
1040
1.0
1070
    74
1070
     0
1000
MTEXTEND
  0
POINT
  5
2806
330
24AA
100
AcDbEntity
  8
DEFPOINTS
  6
CONTINUOUS
 62
     0
100
AcDbPoint
 10
75.07585551812934
 20
213.7751660760497
 30
0.0
  0
POINT
  5
2807
330
24AA
100
AcDbEntity
  8
DEFPOINTS
  6
CONTINUOUS
 62
     0
100
AcDbPoint
 10
75.07585551812934
 20
193.7751660760497
 30
0.0
  0
POINT
  5
2808
330
24AA
100
AcDbEntity
  8
DEFPOINTS
  6
CONTINUOUS
 62
     0
100
AcDbPoint
 10
46.77749152584254
 20
193.7751660760497
 30
0.0
  0
ENDBLK
  5
24B5
330
24AA
100
AcDbEntity
  8
0
100
AcDbBlockEnd
  0
BLOCK
  5
259F
330
2595
100
AcDbEntity
  8
0
100
AcDbBlockBegin
  2
*D11
 70
     1
 10
0.0
 20
0.0
 30
0.0
  3
*D11
  1

  0
LINE
  5
27EE
330
2595
100
AcDbEntity
  8
SUNPOU
100
AcDbLine
 10
72.07585551812934
 20
116.4809610949497
 30
0.0
 11
45.27749152584251
 21
116.4809610949497
 31
0.0
  0
LINE
  5
27EF
330
2595
100
AcDbEntity
  8
SUNPOU
100
AcDbLine
 10
210.3804714516293
 20
55.4767341265498
 30
0.0
 11
45.27749152584251
 21
55.47673412654986
 31
0.0
  0
LINE
  5
27F0
330
2595
100
AcDbEntity
  8
SUNPOU
100
AcDbLine
 10
46.77749152584252
 20
113.4809610949497
 30
0.0
 11
46.7774915258425
 21
58.47673412654986
 31
0.0
  0
INSERT
  5
27F1
330
2595
100
AcDbEntity
  8
SUNPOU
100
AcDbBlockReference
  2
_OPEN
 10
46.77749152584252
 20
116.4809610949497
 30
0.0
 41
3.0
 42
3.0
 43
3.0
 50
90.0
  0
INSERT
  5
27F2
330
2595
100
AcDbEntity
  8
SUNPOU
100
AcDbBlockReference
  2
_OPEN
 10
46.7774915258425
 20
55.47673412654986
 30
0.0
 41
3.0
 42
3.0
 43
3.0
 50
270.0
  0
MTEXT
  5
27F3
330
2595
100
AcDbEntity
  8
SUNPOU
100
AcDbMText
 10
44.2774915258425
 20
85.97884761074983
 30
0.0
 40
3.0
 41
0.0
 71
     5
 72
     1
  1
\A1;61
 11
0.0000000000000001
 21
1.0
 31
0.0
1001
ACAD
1000
MTEXTBEGIN
1070
    73
1070
     1
1070
    44
1040
1.0
1070
    74
1070
     0
1000
MTEXTEND
  0
POINT
  5
27F4
330
2595
100
AcDbEntity
  8
DEFPOINTS
 62
     0
100
AcDbPoint
 10
75.07585551812934
 20
116.4809610949497
 30
0.0
  0
POINT
  5
27F5
330
2595
100
AcDbEntity
  8
DEFPOINTS
 62
     0
100
AcDbPoint
 10
213.3804714516292
 20
55.4767341265498
 30
0.0
  0
POINT
  5
27F6
330
2595
100
AcDbEntity
  8
DEFPOINTS
 62
     0
100
AcDbPoint
 10
46.7774915258425
 20
55.47673412654986
 30
0.0
  0
ENDBLK
  5
25A0
330
2595
100
AcDbEntity
  8
0
100
AcDbBlockEnd
  0
ENDSEC
  0
SECTION
  2
ENTITIES
  0
ARC
  5
236C
330
1A
100
AcDbEntity
  8
SEIHIN
  6
CONTINUOUS
 62
     3
100
AcDbCircle
 10
215.4804714516292
 20
214.0861662802497
 30
0.0
 40
0.5
100
AcDbArc
 50
120.9637695122999
 51
180.0000000118
  0
ARC
  5
236D
330
1A
100
AcDbEntity
  8
SEIHIN
  6
CONTINUOUS
 62
     3
100
AcDbCircle
 10
217.8804714516292
 20
189.9920708865497
 30
0.0
 40
0.5
100
AcDbArc
 50
0.0000000352
 51
59.03624930149998
  0
ARC
  5
236E
330
1A
100
AcDbEntity
  8
SEIHIN
  6
CONTINUOUS
 62
     3
100
AcDbCircle
 10
215.4804714516292
 20
193.4641658718497
 30
0.0
 40
2.1
100
AcDbArc
 50
180.0000042601999
 51
239.0362434874
  0
LINE
  5
236F
330
1A
100
AcDbEntity
  8
SEIHIN
  6
CONTINUOUS
 62
     3
100
AcDbLine
 10
214.4000303652293
 20
191.6634307278497
 30
0.0
 11
218.1377192860292
 21
190.4208173754497
 31
0.0
  0
LINE
  5
2370
330
1A
100
AcDbEntity
  8
SEIHIN
  6
CONTINUOUS
 62
     3
100
AcDbLine
 10
218.9609125380292
 20
191.7928060305496
 30
0.0
 11
215.2232235739293
 21
193.0354194090498
 31
0.0
  0
LINE
  5
2371
330
1A
100
AcDbEntity
  8
SEIHIN
  6
CONTINUOUS
 62
     3
100
AcDbLine
 10
185.6747398638292
 20
196.2751660760497
 30
0.0
 11
205.8931303914292
 21
196.2751660760497
 31
0.0
  0
LINE
  5
2372
330
1A
100
AcDbEntity
  8
SEIHIN
  6
CONTINUOUS
 62
     3
100
AcDbLine
 10
185.6747398638292
 20
211.2751660760497
 30
0.0
 11
205.8931303914292
 21
211.2751660760497
 31
0.0
  0
LINE
  5
2373
330
1A
100
AcDbEntity
  8
SEIHIN
  6
CONTINUOUS
 62
     3
100
AcDbLine
 10
205.8931303914292
 20
196.2751660760497
 30
0.0
 11
205.8931303914292
 21
211.2751660760497
 31
0.0
  0
LINE
  5
2374
330
1A
100
AcDbEntity
  8
SEIHIN
  6
CONTINUOUS
 62
     3
100
AcDbLine
 10
219.9804714516293
 20
173.2751660760497
 30
0.0
 11
219.9804714516293
 21
189.9920707308497
 31
0.0
  0
LINE
  5
2375
330
1A
100
AcDbEntity
  8
SEIHIN
  6
CONTINUOUS
 62
     3
100
AcDbLine
 10
218.3804714516293
 20
90.47673412654981
 30
0.0
 11
218.3804714516293
 21
55.47673412654981
 31
0.0
  0
LINE
  5
2376
330
1A
100
AcDbEntity
  8
SEIHIN
  6
CONTINUOUS
 62
     3
100
AcDbLine
 10
219.9804714516293
 20
90.47673412654981
 30
0.0
 11
219.9804714516293
 21
55.47673412654981
 31
0.0
  0
LINE
  5
2377
330
1A
100
AcDbEntity
  8
SEIHIN
  6
CONTINUOUS
 62
     3
100
AcDbLine
 10
219.4804714516292
 20
91.25775278024978
 30
0.0
 11
219.4804714516292
 21
90.47673412654981
 31
0.0
  0
LINE
  5
2378
330
1A
100
AcDbEntity
  8
SEIHIN
  6
CONTINUOUS
 62
     3
100
AcDbLine
 10
199.1433791547293
 20
91.81443233514981
 30
0.0
 11
212.7714145251292
 21
93.24679657094982
 31
0.0
  0
LINE
  5
2379
330
1A
100
AcDbEntity
  8
SEIHIN
  6
CONTINUOUS
 62
     3
100
AcDbLine
 10
198.6730010700294
 20
96.28978086434976
 30
0.0
 11
212.3010364404293
 21
97.72214510004978
 31
0.0
  0
LINE
  5
237A
330
1A
100
AcDbEntity
  8
SEIHIN
  6
CONTINUOUS
 62
     3
100
AcDbLine
 10
214.9804714516292
 20
91.25775278024978
 30
0.0
 11
214.9804714516292
 21
90.47673412654981
 31
0.0
  0
ARC
  5
237B
330
1A
100
AcDbEntity
  8
SEIHIN
  6
CONTINUOUS
 62
     3
100
AcDbCircle
 10
202.2931303914293
 20
100.1536015412497
 30
0.0
 40
3.6
100
AcDbArc
 50
270.0000000353
 51
0.0
  0
LINE
  5
237C
330
1A
100
AcDbEntity
  8
SEIHIN
  6
CONTINUOUS
 62
     3
100
AcDbLine
 10
213.3804714516292
 20
90.47673412654981
 30
0.0
 11
213.3804714516292
 21
55.47673412654981
 31
0.0
  0
LINE
  5
237D
330
1A
100
AcDbEntity
  8
SEIHIN
  6
CONTINUOUS
 62
     3
100
AcDbLine
 10
213.3804714516292
 20
214.0861661240498
 30
0.0
 11
213.3804714516292
 21
213.7751660760497
 31
0.0
  0
LINE
  5
237E
330
1A
100
AcDbEntity
  8
SEIHIN
  6
CONTINUOUS
 62
     3
100
AcDbLine
 10
214.9804714516292
 20
214.0861662801497
 30
0.0
 11
214.9804714516292
 21
213.7751660760497
 31
0.0
  0
LINE
  5
237F
330
1A
100
AcDbEntity
  8
SEIHIN
  6
CONTINUOUS
 62
     3
100
AcDbLine
 10
214.9804714516292
 20
193.4641658717497
 30
0.0
 11
214.9804714516292
 21
193.7751660760497
 31
0.0
  0
LINE
  5
2380
330
1A
100
AcDbEntity
  8
SEIHIN
  6
CONTINUOUS
 62
     3
100
AcDbLine
 10
213.3804714516292
 20
193.4641657157497
 30
0.0
 11
213.3804714516292
 21
193.7751660760497
 31
0.0
  0
LINE
  5
2381
330
1A
100
AcDbEntity
  8
SEIHIN
  6
CONTINUOUS
 62
     3
100
AcDbLine
 10
219.4804714516292
 20
193.7751660760497
 30
0.0
 11
219.4804714516292
 21
213.7751660760497
 31
0.0
  0
LINE
  5
2382
330
1A
100
AcDbEntity
  8
SEIHIN
  6
CONTINUOUS
 62
     3
100
AcDbLine
 10
79.57585551812934
 20
213.7751660760497
 30
0.0
 11
219.4804714516292
 21
213.7751660760497
 31
0.0
  0
LINE
  5
2383
330
1A
100
AcDbEntity
  8
SEIHIN
  6
CONTINUOUS
 62
     3
100
AcDbLine
 10
79.57585551812934
 20
193.7751660760497
 30
0.0
 11
219.4804714516292
 21
193.7751660760497
 31
0.0
  0
ARC
  5
2384
330
1A
100
AcDbEntity
  8
SEIHIN
  6
CONTINUOUS
 62
     3
100
AcDbCircle
 10
217.8804714516292
 20
217.5582612655496
 30
0.0
 40
0.5
100
AcDbArc
 50
300.9637464215998
 51
0.0000000353
  0
LINE
  5
2385
330
1A
100
AcDbEntity
  8
SEIHIN
  6
CONTINUOUS
 62
     3
100
AcDbLine
 10
218.3804714516293
 20
217.5582612655496
 30
0.0
 11
218.3804714516293
 21
234.2751660760497
 31
0.0
  0
LINE
  5
2386
330
1A
100
AcDbEntity
  8
SEIHIN
  6
CONTINUOUS
 62
     3
100
AcDbLine
 10
214.9804714516292
 20
191.4704602448496
 30
0.0
 11
218.3804714516293
 21
188.7751660760497
 31
0.0
  0
ARC
  5
2387
330
1A
100
AcDbEntity
  8
SEIHIN
  6
CONTINUOUS
 62
     3
100
AcDbCircle
 10
215.4804714516292
 20
193.4641658718497
 30
0.0
 40
0.5
100
AcDbArc
 50
180.0000000118
 51
239.0362434874
  0
LINE
  5
2388
330
1A
100
AcDbEntity
  8
SEIHIN
  6
CONTINUOUS
 62
     3
100
AcDbLine
 10
218.3804714516293
 20
173.2751660760497
 30
0.0
 11
218.3804714516293
 21
189.9920708865497
 31
0.0
  0
LINE
  5
2389
330
1A
100
AcDbEntity
  8
SEIHIN
  6
CONTINUOUS
 62
     3
100
AcDbLine
 10
214.4000301252293
 20
215.8869012802497
 30
0.0
 11
218.1377192535292
 21
217.1295147571497
 31
0.0
  0
LINE
  5
238A
330
1A
100
AcDbEntity
  8
SEIHIN
  6
CONTINUOUS
 62
     3
100
AcDbLine
 10
214.9804714516292
 20
216.0798719072497
 30
0.0
 11
218.3804714516293
 21
218.7751660760497
 31
0.0
  0
ARC
  5
238B
330
1A
100
AcDbEntity
  8
SEIHIN
  6
CONTINUOUS
 62
     3
100
AcDbCircle
 10
215.4804714516292
 20
214.0861662802497
 30
0.0
 40
2.1
100
AcDbArc
 50
120.9637641725
 51
180.0000042601999
  0
LINE
  5
238C
330
1A
100
AcDbEntity
  8
SEIHIN
  6
CONTINUOUS
 62
     3
100
AcDbLine
 10
215.2232234768292
 20
214.5149126848497
 30
0.0
 11
218.9609123318292
 21
215.7575259978497
 31
0.0
  0
ARC
  5
238D
330
1A
100
AcDbEntity
  8
SEIHIN
  6
CONTINUOUS
 62
     3
100
AcDbCircle
 10
-212.9804714516292
 20
91.25775278024978
 30
0.0
 40
2.0
210
0.0
220
0.0
230
-1.0
100
AcDbArc
 50
84.0
 51
180.0
  0
LINE
  5
238E
330
1A
100
AcDbEntity
  8
SEIHIN
  6
CONTINUOUS
 62
     3
100
AcDbLine
 10
205.8931303914292
 20
115.6536015412497
 30
0.0
 11
205.8931303914292
 21
100.1536015412497
 31
0.0
  0
LINE
  5
238F
330
1A
100
AcDbEntity
  8
SEIHIN
  6
CONTINUOUS
 62
     3
100
AcDbLine
 10
219.9804714516293
 20
55.47673412654981
 30
0.0
 11
213.3804714516292
 21
55.47673412654981
 31
0.0
  0
ARC
  5
2390
330
1A
100
AcDbEntity
  8
SEIHIN
  6
CONTINUOUS
 62
     3
100
AcDbCircle
 10
202.2931303914293
 20
115.6536015412497
 30
0.0
 40
3.6
100
AcDbArc
 50
0.0
 51
90.0000000118
  0
ARC
  5
2391
330
1A
100
AcDbEntity
  8
SEIHIN
  6
CONTINUOUS
 62
     3
100
AcDbCircle
 10
-212.9804714516292
 20
91.25775278024978
 30
0.0
 40
6.5
210
0.0
220
0.0
230
-1.0
100
AcDbArc
 50
84.0
 51
180.0
  0
LINE
  5
2392
330
1A
100
AcDbEntity
  8
SEIHIN
  6
CONTINUOUS
 62
     3
100
AcDbLine
 10
219.9804714516293
 20
90.47673412654981
 30
0.0
 11
213.3804714516292
 21
90.47673412654981
 31
0.0
  0
ARC
  5
2393
330
1A
100
AcDbEntity
  8
SEIHIN
  6
CONTINUOUS
 62
     3
100
AcDbCircle
 10
217.8804714516292
 20
217.5582612655496
 30
0.0
 40
2.1
100
AcDbArc
 50
300.963749999
 51
359.9999957868
  0
LINE
  5
2394
330
1A
100
AcDbEntity
  8
SEIHIN
  6
CONTINUOUS
 62
     3
100
AcDbLine
 10
218.3804714516293
 20
234.2751660760497
 30
0.0
 11
219.9804714516293
 21
234.2751660760497
 31
0.0
  0
LINE
  5
2395
330
1A
100
AcDbEntity
  8
SEIHIN
  6
CONTINUOUS
 62
     3
100
AcDbLine
 10
218.3804714516293
 20
173.2751660760497
 30
0.0
 11
219.9804714516293
 21
173.2751660760497
 31
0.0
  0
LINE
  5
2396
330
1A
100
AcDbEntity
  8
SEIHIN
  6
CONTINUOUS
 62
     3
100
AcDbLine
 10
219.9804714516293
 20
217.5582611098497
 30
0.0
 11
219.9804714516293
 21
234.2751660760497
 31
0.0
  0
ARC
  5
2397
330
1A
100
AcDbEntity
  8
SEIHIN
  6
CONTINUOUS
 62
     3
100
AcDbCircle
 10
217.8804714516292
 20
189.9920708865497
 30
0.0
 40
2.1
100
AcDbArc
 50
359.9999957868
 51
59.0362435109
  0
LINE
  5
2398
330
1A
100
AcDbEntity
  8
SEIHIN
  6
CONTINUOUS
 62
     3
100
AcDbLine
 10
74.67585551812931
 20
145.0204114582497
 30
0.0
 11
75.07585551812934
 21
145.0204114582497
 31
0.0
  0
LINE
  5
2399
330
1A
100
AcDbEntity
  8
SEIHIN
  6
CONTINUOUS
 62
     3
100
AcDbLine
 10
74.67585551812931
 20
102.7271800228497
 30
0.0
 11
74.67585551812931
 21
145.0204114582497
 31
0.0
  0
LINE
  5
239A
330
1A
100
AcDbEntity
  8
SEIHIN
  6
CONTINUOUS
 62
     3
100
AcDbLine
 10
75.07585551812934
 20
116.4809610949497
 30
0.0
 11
75.07585551812934
 21
145.0204114582497
 31
0.0
  0
LINE
  5
239B
330
1A
100
AcDbEntity
  8
SEIHIN
  6
CONTINUOUS
 62
     3
100
AcDbLine
 10
86.52409531802936
 20
66.46566850264979
 30
0.0
 11
99.86929429572933
 21
55.54677604384981
 31
0.0
  0
LINE
  5
239C
330
1A
100
AcDbEntity
  8
SEIHIN
  6
CONTINUOUS
 62
     3
100
AcDbLine
 10
74.67585551812931
 20
102.7271800228497
 30
0.0
 11
75.07585551812934
 21
102.7271800228497
 31
0.0
  0
ARC
  5
239D
330
1A
100
AcDbEntity
  8
SEIHIN
  6
CONTINUOUS
 62
     3
100
AcDbCircle
 10
82.00595156602934
 20
91.54682604384978
 30
0.0
 40
6.5
100
AcDbArc
 50
5.7107117865
 51
90.0000000118
  0
ARC
  5
239E
330
1A
100
AcDbEntity
  8
SEIHIN
  6
CONTINUOUS
 62
     3
100
AcDbCircle
 10
81.57585551812934
 20
100.0468260438497
 30
0.0
 40
6.5
100
AcDbArc
 50
180.0000000234999
 51
270.0000000353
  0
LINE
  5
239F
330
1A
100
AcDbEntity
  8
SEIHIN
  6
CONTINUOUS
 62
     3
100
AcDbLine
 10
88.47369196302935
 20
92.19361361094982
 30
0.0
 11
90.81628849292934
 21
68.76813825754981
 31
0.0
  0
LINE
  5
23A0
330
1A
100
AcDbEntity
  8
SEIHIN
  6
CONTINUOUS
 62
     3
100
AcDbLine
 10
158.0390931616292
 20
55.54677604384981
 30
0.0
 11
99.86929429572933
 21
55.54677604384981
 31
0.0
  0
LINE
  5
23A1
330
1A
100
AcDbEntity
  8
SEIHIN
  6
CONTINUOUS
 62
     3
100
AcDbLine
 10
101.4757065097293
 20
60.0467217246498
 30
0.0
 11
157.5688516662292
 21
60.04684685644983
 31
0.0
  0
ARC
  5
23A2
330
1A
100
AcDbEntity
  8
SEIHIN
  6
CONTINUOUS
 62
     3
100
AcDbCircle
 10
148.2413751131292
 20
103.0468405202497
 30
0.0
 40
44.0000144765
100
AcDbArc
 50
282.2388815936998
 51
323.8742025326
  0
ARC
  5
23A3
330
1A
100
AcDbEntity
  8
SEIHIN
  6
CONTINUOUS
 62
     3
100
AcDbCircle
 10
190.6343516329293
 20
80.36360647004981
 30
0.0
 40
5.5
100
AcDbArc
 50
270.0000000353
 51
353.0000000461
  0
ARC
  5
23A4
330
1A
100
AcDbEntity
  8
SEIHIN
  6
CONTINUOUS
 62
     3
100
AcDbCircle
 10
196.2839186879293
 20
93.55360154124984
 30
0.0
 40
4.599999999999998
100
AcDbArc
 50
90.0000000118
 51
173.0000000225999
  0
LINE
  5
23A5
330
1A
100
AcDbEntity
  8
SEIHIN
  6
CONTINUOUS
 62
     3
100
AcDbLine
 10
190.9699787780292
 20
117.0678151036497
 30
0.0
 11
186.8061107137292
 21
112.9039470393497
 31
0.0
  0
LINE
  5
23A6
330
1A
100
AcDbEntity
  8
SEIHIN
  6
CONTINUOUS
 62
     3
100
AcDbLine
 10
192.3841923404293
 20
117.6536015412497
 30
0.0
 11
202.2931303914293
 21
117.6536015412497
 31
0.0
  0
ARC
  5
23A7
330
1A
100
AcDbEntity
  8
SEIHIN
  6
CONTINUOUS
 62
     3
100
AcDbCircle
 10
199.3524360812292
 20
89.8253885444498
 30
0.0
 40
2.0
100
AcDbArc
 50
96.0000000125
 51
173.0000000225999
  0
LINE
  5
23A8
330
1A
100
AcDbEntity
  8
SEIHIN
  6
CONTINUOUS
 62
     3
100
AcDbLine
 10
188.2237497742292
 20
74.86360647004983
 30
0.0
 11
190.6343516329293
 21
74.86360647004983
 31
0.0
  0
LINE
  5
23A9
330
1A
100
AcDbEntity
  8
SEIHIN
  6
CONTINUOUS
 62
     3
100
AcDbLine
 10
190.2136289005293
 20
81.86040021604981
 30
0.0
 11
191.8017027432292
 21
81.66540926664982
 31
0.0
  0
ARC
  5
23AA
330
1A
100
AcDbEntity
  8
SEIHIN
  6
CONTINUOUS
 62
     3
100
AcDbCircle
 10
196.2839186879293
 20
93.55360154124984
 30
0.0
 40
3.0
100
AcDbArc
 50
90.0000000118
 51
173.0000000225999
  0
LINE
  5
23AB
330
1A
100
AcDbEntity
  8
SEIHIN
  6
CONTINUOUS
 62
     3
100
AcDbLine
 10
186.8061107137292
 20
112.9039470393497
 30
0.0
 11
185.6747398638292
 21
114.0353178892497
 31
0.0
  0
ARC
  5
23AC
330
1A
100
AcDbEntity
  8
SEIHIN
  6
CONTINUOUS
 62
     3
100
AcDbCircle
 10
192.3841923404293
 20
115.6536015412497
 30
0.0
 40
3.6
100
AcDbArc
 50
90.0000000118
 51
135.0000000175999
  0
ARC
  5
23AD
330
1A
100
AcDbEntity
  8
SEIHIN
  6
CONTINUOUS
 62
     3
100
AcDbCircle
 10
188.2237497742292
 20
73.86360647004983
 30
0.0
 40
5.5
100
AcDbArc
 50
90.00000001169999
 51
143.8741928299
  0
ARC
  5
23AE
330
1A
100
AcDbEntity
  8
SEIHIN
  6
CONTINUOUS
 62
     3
100
AcDbCircle
 10
188.2237497742292
 20
73.86360647004983
 30
0.0
 40
1.0
100
AcDbArc
 50
90.0000000118
 51
143.8742014336999
  0
ARC
  5
23AF
330
1A
100
AcDbEntity
  8
SEIHIN
  6
CONTINUOUS
 62
     3
100
AcDbCircle
 10
148.2413751131292
 20
103.0468405202497
 30
0.0
 40
48.5000144765
100
AcDbArc
 50
281.6548006464
 51
323.8742014572
  0
LINE
  5
23B0
330
1A
100
AcDbEntity
  8
SEIHIN
  6
CONTINUOUS
 62
     3
100
AcDbLine
 10
193.3062802330292
 20
93.91920957144984
 30
0.0
 11
191.6268977846292
 21
80.24173712664982
 31
0.0
  0
ARC
  5
23B1
330
1A
100
AcDbEntity
  8
SEIHIN
  6
CONTINUOUS
 62
     3
100
AcDbCircle
 10
202.2931303914293
 20
100.1536015412497
 30
0.0
 40
2.0
100
AcDbArc
 50
270.0000000353
 51
0.0
  0
ARC
  5
23B2
330
1A
100
AcDbEntity
  8
SEIHIN
  6
CONTINUOUS
 62
     3
100
AcDbCircle
 10
202.2931303914293
 20
115.6536015412497
 30
0.0
 40
2.0
100
AcDbArc
 50
0.0
 51
90.0000000118
  0
LINE
  5
23B3
330
1A
100
AcDbEntity
  8
SEIHIN
  6
CONTINUOUS
 62
     3
100
AcDbLine
 10
192.3841923404293
 20
119.2536015412497
 30
0.0
 11
202.2931303914293
 21
119.2536015412497
 31
0.0
  0
ARC
  5
23B4
330
1A
100
AcDbEntity
  8
SEIHIN
  6
CONTINUOUS
 62
     3
100
AcDbCircle
 10
81.57585551812934
 20
100.0468260438497
 30
0.0
 40
2.0
100
AcDbArc
 50
180.0000000234999
 51
270.0000000353
  0
LINE
  5
23B5
330
1A
100
AcDbEntity
  8
SEIHIN
  6
CONTINUOUS
 62
     3
100
AcDbLine
 10
83.99602553432931
 20
91.74583760294984
 30
0.0
 11
86.52409531802936
 21
66.46566850264979
 31
0.0
  0
ARC
  5
23B6
330
1A
100
AcDbEntity
  8
SEIHIN
  6
CONTINUOUS
 62
     3
100
AcDbCircle
 10
82.00595156602934
 20
91.54682604384978
 30
0.0
 40
2.0
100
AcDbArc
 50
5.7107117865
 51
90.0000000118
  0
LINE
  5
23B7
330
1A
100
AcDbEntity
  8
SEIHIN
  6
CONTINUOUS
 62
     3
100
AcDbLine
 10
75.07585551812934
 20
100.0468260438497
 30
0.0
 11
75.07585551812934
 21
116.4809610949497
 31
0.0
  0
LINE
  5
23B8
330
1A
100
AcDbEntity
  8
SEIHIN
  6
CONTINUOUS
 62
     3
100
AcDbLine
 10
79.57585551812934
 20
116.4809610949497
 30
0.0
 11
75.07585551812934
 21
116.4809610949497
 31
0.0
  0
LINE
  5
23B9
330
1A
100
AcDbEntity
  8
SEIHIN
  6
CONTINUOUS
 62
     3
100
AcDbLine
 10
79.57585551812934
 20
100.0468260438497
 30
0.0
 11
79.57585551812934
 21
116.4809610949497
 31
0.0
  0
LINE
  5
23BA
330
1A
100
AcDbEntity
  8
SEIHIN
  6
CONTINUOUS
 62
     3
100
AcDbLine
 10
197.3673437780292
 20
90.06912723124985
 30
0.0
 11
196.0933554670292
 21
79.69332508134979
 31
0.0
  0
LINE
  5
23BB
330
1A
100
AcDbEntity
  8
SEIHIN
  6
CONTINUOUS
 62
     3
100
AcDbLine
 10
189.8386079281292
 20
118.1991859535497
 30
0.0
 11
185.6747398638292
 21
114.0353178892497
 31
0.0
  0
ARC
  5
23BC
330
1A
100
AcDbEntity
  8
SEIHIN
  6
CONTINUOUS
 62
     3
100
AcDbCircle
 10
190.6343516329293
 20
80.36360647004981
 30
0.0
 40
1.0
100
AcDbArc
 50
270.0000000353
 51
353.0000000461
  0
ARC
  5
23BD
330
1A
100
AcDbEntity
  8
SEIHIN
  6
CONTINUOUS
 62
     3
100
AcDbCircle
 10
192.3841923404293
 20
115.6536015412497
 30
0.0
 40
2.0
100
AcDbArc
 50
90.0000000118
 51
135.0000000175999
  0
LINE
  5
23BE
330
1A
100
AcDbEntity
  8
SEIHIN
  6
CONTINUOUS
 62
     3
100
AcDbLine
 10
188.2237497742292
 20
79.36360647004983
 30
0.0
 11
190.6343516329293
 21
79.36360647004983
 31
0.0
  0
LINE
  5
23BF
330
1A
100
AcDbEntity
  8
SEIHIN
  6
CONTINUOUS
 62
     3
100
AcDbLine
 10
204.2931303914293
 20
115.6536015412497
 30
0.0
 11
204.2931303914293
 21
100.1536015412497
 31
0.0
  0
LINE
  5
23C0
330
1A
100
AcDbEntity
  8
SEIHIN
  6
CONTINUOUS
 62
     3
100
AcDbLine
 10
196.2839186879293
 20
98.15360154124977
 30
0.0
 11
202.2931303914293
 21
98.15360154124977
 31
0.0
  0
LINE
  5
23C1
330
1A
100
AcDbEntity
  8
SEIHIN
  6
CONTINUOUS
 62
     3
100
AcDbLine
 10
196.2839186879293
 20
96.55360154124977
 30
0.0
 11
202.2931303914293
 21
96.55360154124977
 31
0.0
  0
ARC
  5
23C2
330
1A
100
AcDbEntity
  8
SEIHIN
  6
CONTINUOUS
 62
     3
100
AcDbCircle
 10
199.3524360812292
 20
89.8253885444498
 30
0.0
 40
6.5
100
AcDbArc
 50
96.0000000125
 51
173.0000000225999
  0
LINE
  5
23C3
330
1A
100
AcDbEntity
  8
SEIHIN
  6
CONTINUOUS
 62
     3
100
AcDbLine
 10
191.7182063904293
 20
94.11420052094976
 30
0.0
 11
190.2136289005293
 21
81.86040021604981
 31
0.0
  0
LINE
  5
23C4
330
1A
100
AcDbEntity
  8
SEIHIN
  6
CONTINUOUS
 62
     3
100
AcDbLine
 10
81.57585551812934
 20
93.54682604384978
 30
0.0
 11
82.00595156602934
 21
93.54682604384978
 31
0.0
  0
LINE
  5
23C5
330
1A
100
AcDbEntity
  8
SEIHIN
  6
CONTINUOUS
 62
     3
100
AcDbLine
 10
81.57585551812934
 20
98.04682604384979
 30
0.0
 11
82.00595156602934
 21
98.04682604384979
 31
0.0
  0
LINE
  5
23C6
330
1A
100
AcDbEntity
  8
SEIHIN
  6
CONTINUOUS
 62
     3
100
AcDbLine
 10
90.81628849292934
 20
68.76813825754981
 30
0.0
 11
101.4757065097293
 21
60.0467217246498
 31
0.0
  0
LINE
  5
23C7
330
1A
100
AcDbEntity
  8
SEIHIN
  6
CONTINUOUS
 62
     3
100
AcDbLine
 10
75.07585551812934
 20
193.7751660760497
 30
0.0
 11
79.57585551812934
 21
193.7751660760497
 31
0.0
  0
LINE
  5
23C8
330
1A
100
AcDbEntity
  8
SEIHIN
  6
CONTINUOUS
 62
     3
100
AcDbLine
 10
75.07585551812934
 20
213.7751660760497
 30
0.0
 11
79.57585551812934
 21
213.7751660760497
 31
0.0
  0
LINE
  5
23C9
330
1A
100
AcDbEntity
  8
SEIHIN
  6
CONTINUOUS
 62
     3
100
AcDbLine
 10
75.07585551812934
 20
193.7751660760497
 30
0.0
 11
75.07585551812934
 21
213.7751660760497
 31
0.0
  0
LINE
  5
23CA
330
1A
100
AcDbEntity
  8
SEIHIN
  6
CONTINUOUS
 62
     3
100
AcDbLine
 10
74.67585551812931
 20
196.2751660760497
 30
0.0
 11
74.67585551812931
 21
211.2751660760497
 31
0.0
  0
LINE
  5
23CB
330
1A
100
AcDbEntity
  8
SEIHIN
  6
CONTINUOUS
 62
     3
100
AcDbLine
 10
191.0065319830292
 20
196.2751660760497
 30
0.0
 11
191.0065319830292
 21
211.2751660760497
 31
0.0
  0
LINE
  5
23CC
330
1A
100
AcDbEntity
  8
SEIHIN
  6
CONTINUOUS
 62
     3
100
AcDbLine
 10
74.67585551812931
 20
196.2751660760497
 30
0.0
 11
75.07585551812934
 21
196.2751660760497
 31
0.0
  0
LINE
  5
23CD
330
1A
100
AcDbEntity
  8
SEIHIN
  6
CONTINUOUS
 62
     3
100
AcDbLine
 10
74.67585551812931
 20
211.2751660760497
 30
0.0
 11
75.07585551812934
 21
211.2751660760497
 31
0.0
  0
LINE
  5
23CE
330
1A
100
AcDbEntity
  8
SEIHIN
  6
CONTINUOUS
 62
     3
100
AcDbLine
 10
185.6747398638292
 20
196.2751660760497
 30
0.0
 11
185.6747398638292
 21
211.2751660760497
 31
0.0
  0
LINE
  5
23CF
330
1A
100
AcDbEntity
  8
SEIHIN
  6
CONTINUOUS
 62
     3
100
AcDbLine
 10
101.4757065097293
 20
212.1210253893497
 30
0.0
 11
101.4757065097293
 21
195.5356372614497
 31
0.0
  0
LINE
  5
23D0
330
1A
100
AcDbEntity
  8
SEIHIN
  6
CONTINUOUS
 62
     3
100
AcDbLine
 10
86.72448023812933
 20
212.1210253893497
 30
0.0
 11
86.72448023812933
 21
195.5356372614497
 31
0.0
  0
LINE
  5
23D1
330
1A
100
AcDbEntity
  8
SEIHIN
  6
CONTINUOUS
 62
     3
100
AcDbLine
 10
90.81628849292934
 20
212.1210253893497
 30
0.0
 11
90.81628849292934
 21
195.5356372614497
 31
0.0
  0
LINE
  5
23D2
330
1A
100
AcDbEntity
  8
SEIHIN
  6
CONTINUOUS
 62
     3
100
AcDbLine
 10
79.57585551812934
 20
193.7751660760497
 30
0.0
 11
79.57585551812934
 21
213.7751660760497
 31
0.0
  0
LINE
  5
23D3
330
1A
100
AcDbEntity
  8
SEIHIN
  6
CONTINUOUS
 62
     3
100
AcDbLine
 10
360.4964564570293
 20
86.33023692654981
 30
0.0
 11
360.4964564570293
 21
57.33023710034982
 31
0.0
  0
LINE
  5
23D4
330
1A
100
AcDbEntity
  8
SEIHIN
  6
CONTINUOUS
 62
     3
100
AcDbLine
 10
340.4964564570292
 20
60.33023683714981
 30
0.0
 11
344.9964564570293
 21
60.33023683714981
 31
0.0
  0
LINE
  5
23D5
330
1A
100
AcDbEntity
  8
SEIHIN
  6
CONTINUOUS
 62
     3
100
AcDbLine
 10
319.4964564570292
 20
60.33023683714981
 30
0.0
 11
314.9964564570292
 21
60.33023683714981
 31
0.0
  0
LINE
  5
23D6
330
1A
100
AcDbEntity
  8
SEIHIN
  6
CONTINUOUS
 62
     3
100
AcDbLine
 10
319.9964564570293
 20
96.87032481954979
 30
0.0
 11
339.9964564570292
 21
96.87032481954979
 31
0.0
  0
LINE
  5
23D7
330
1A
100
AcDbEntity
  8
SEIHIN
  6
CONTINUOUS
 62
     3
100
AcDbLine
 10
340.4964564570292
 20
64.33023683714981
 30
0.0
 11
344.9964564570293
 21
64.33023683714981
 31
0.0
  0
CIRCLE
  5
23D8
330
1A
100
AcDbEntity
  8
SEIHIN
  6
CONTINUOUS
 62
     3
100
AcDbCircle
 10
351.4964564570293
 20
81.33023683714979
 30
0.0
 40
2.1
  0
LINE
  5
23D9
330
1A
100
AcDbEntity
  8
SEIHIN
  6
CONTINUOUS
 62
     3
100
AcDbLine
 10
319.4964564570292
 20
89.33023683714985
 30
0.0
 11
319.4964564570292
 21
54.33023683714981
 31
0.0
  0
LINE
  5
23DA
330
1A
100
AcDbEntity
  8
SEIHIN
  6
CONTINUOUS
 62
     3
100
AcDbLine
 10
316.4964564570293
 20
60.33023683714981
 30
0.0
 11
316.4964564570293
 21
54.33023683714981
 31
0.0
  0
LINE
  5
23DB
330
1A
100
AcDbEntity
  8
SEIHIN
  6
CONTINUOUS
 62
     3
100
AcDbLine
 10
314.9964564570292
 20
79.33023683714981
 30
0.0
 11
314.9964564570292
 21
83.33023683714984
 31
0.0
  0
ARC
  5
23DC
330
1A
100
AcDbEntity
  8
SEIHIN
  6
CONTINUOUS
 62
     3
100
AcDbCircle
 10
357.4964564570293
 20
57.33023683714981
 30
0.0
 40
3.0
100
AcDbArc
 50
270.0000000353
 51
0.0000050269
  0
LINE
  5
23DD
330
1A
100
AcDbEntity
  8
SEIHIN
  6
CONTINUOUS
 62
     3
100
AcDbLine
 10
316.4964564570293
 20
89.33023683714985
 30
0.0
 11
316.4964564570293
 21
83.33023683714984
 31
0.0
  0
LINE
  5
23DE
330
1A
100
AcDbEntity
  8
SEIHIN
  6
CONTINUOUS
 62
     3
100
AcDbLine
 10
319.9964564570293
 20
96.87032481954979
 30
0.0
 11
319.9964564570293
 21
54.33023683714981
 31
0.0
  0
LINE
  5
23DF
330
1A
100
AcDbEntity
  8
SEIHIN
  6
CONTINUOUS
 62
     3
100
AcDbLine
 10
343.4964564570293
 20
89.33023683714985
 30
0.0
 11
343.4964564570293
 21
83.33023683714984
 31
0.0
  0
ARC
  5
23E0
330
1A
100
AcDbEntity
  8
SEIHIN
  6
CONTINUOUS
 62
     3
100
AcDbCircle
 10
357.4964564570293
 20
86.33023683714984
 30
0.0
 40
3.0
100
AcDbArc
 50
0.0000017075
 51
90.0000000118
  0
LINE
  5
23E1
330
1A
100
AcDbEntity
  8
SEIHIN
  6
CONTINUOUS
 62
     3
100
AcDbLine
 10
344.9964564570293
 20
79.33023683714981
 30
0.0
 11
344.9964564570293
 21
83.33023683714984
 31
0.0
  0
LINE
  5
23E2
330
1A
100
AcDbEntity
  8
SEIHIN
  6
CONTINUOUS
 62
     3
100
AcDbLine
 10
302.4964564570292
 20
54.33023683714981
 30
0.0
 11
357.4964564570293
 21
54.33023683714981
 31
0.0
  0
LINE
  5
23E3
330
1A
100
AcDbEntity
  8
SEIHIN
  6
CONTINUOUS
 62
     3
100
AcDbLine
 10
314.9964564570292
 20
60.33023683714981
 30
0.0
 11
314.9964564570292
 21
64.33023683714981
 31
0.0
  0
LINE
  5
23E4
330
1A
100
AcDbEntity
  8
SEIHIN
  6
CONTINUOUS
 62
     3
100
AcDbLine
 10
319.4964564570292
 20
83.33023683714984
 30
0.0
 11
314.9964564570292
 21
83.33023683714984
 31
0.0
  0
LINE
  5
23E5
330
1A
100
AcDbEntity
  8
SEIHIN
  6
CONTINUOUS
 62
     3
100
AcDbLine
 10
340.4964564570292
 20
79.33023683714981
 30
0.0
 11
344.9964564570293
 21
79.33023683714981
 31
0.0
  0
LINE
  5
23E6
330
1A
100
AcDbEntity
  8
SEIHIN
  6
CONTINUOUS
 62
     3
100
AcDbLine
 10
339.9964564570292
 20
96.87032481954979
 30
0.0
 11
339.9964564570292
 21
54.33023683714981
 31
0.0
  0
LINE
  5
23E7
330
1A
100
AcDbEntity
  8
SEIHIN
  6
CONTINUOUS
 62
     3
100
AcDbLine
 10
319.4964564570292
 20
64.33023683714981
 30
0.0
 11
314.9964564570292
 21
64.33023683714981
 31
0.0
  0
LINE
  5
23E8
330
1A
100
AcDbEntity
  8
SEIHIN
  6
CONTINUOUS
 62
     3
100
AcDbLine
 10
343.4964564570293
 20
60.33023683714981
 30
0.0
 11
343.4964564570293
 21
54.33023683714981
 31
0.0
  0
LINE
  5
23E9
330
1A
100
AcDbEntity
  8
SEIHIN
  6
CONTINUOUS
 62
     3
100
AcDbLine
 10
322.4964564570293
 20
118.0370623345497
 30
0.0
 11
337.4964564570293
 21
118.0370623345497
 31
0.0
  0
LINE
  5
23EA
330
1A
100
AcDbEntity
  8
SEIHIN
  6
CONTINUOUS
 62
     3
100
AcDbLine
 10
322.4964564570293
 20
96.87032481954979
 30
0.0
 11
322.4964564570293
 21
118.0370623345497
 31
0.0
  0
LINE
  5
23EB
330
1A
100
AcDbEntity
  8
SEIHIN
  6
CONTINUOUS
 62
     3
100
AcDbLine
 10
337.4964564570293
 20
96.87032481954979
 30
0.0
 11
337.4964564570293
 21
118.0370623345497
 31
0.0
  0
ARC
  5
23EC
330
1A
100
AcDbEntity
  8
SEIHIN
  6
CONTINUOUS
 62
     3
100
AcDbCircle
 10
302.4964564570292
 20
86.33023683714984
 30
0.0
 40
3.0
100
AcDbArc
 50
90.0000000118
 51
180.0000000234999
  0
ARC
  5
23ED
330
1A
100
AcDbEntity
  8
SEIHIN
  6
CONTINUOUS
 62
     3
100
AcDbCircle
 10
302.4964564570292
 20
57.33023683714981
 30
0.0
 40
3.0
100
AcDbArc
 50
180.0000000234999
 51
270.0000000353
  0
LINE
  5
23EE
330
1A
100
AcDbEntity
  8
SEIHIN
  6
CONTINUOUS
 62
     3
100
AcDbLine
 10
302.4964564570292
 20
89.33023683714985
 30
0.0
 11
319.9964564570293
 21
89.33023683714985
 31
0.0
  0
CIRCLE
  5
23EF
330
1A
100
AcDbEntity
  8
SEIHIN
  6
CONTINUOUS
 62
     3
100
AcDbCircle
 10
308.4964564570292
 20
81.33023683714979
 30
0.0
 40
2.1
  0
LINE
  5
23F0
330
1A
100
AcDbEntity
  8
SEIHIN
  6
CONTINUOUS
 62
     3
100
AcDbLine
 10
340.4964564570292
 20
89.33023683714985
 30
0.0
 11
340.4964564570292
 21
54.33023683714981
 31
0.0
  0
LINE
  5
23F1
330
1A
100
AcDbEntity
  8
SEIHIN
  6
CONTINUOUS
 62
     3
100
AcDbLine
 10
299.4964564570293
 20
86.33023683714984
 30
0.0
 11
299.4964564570293
 21
57.33023683714981
 31
0.0
  0
CIRCLE
  5
23F2
330
1A
100
AcDbEntity
  8
SEIHIN
  6
CONTINUOUS
 62
     3
100
AcDbCircle
 10
351.4964564570293
 20
62.33023683714981
 30
0.0
 40
2.1
  0
LINE
  5
23F3
330
1A
100
AcDbEntity
  8
SEIHIN
  6
CONTINUOUS
 62
     3
100
AcDbLine
 10
344.9964564570293
 20
60.33023683714981
 30
0.0
 11
344.9964564570293
 21
64.33023683714981
 31
0.0
  0
CIRCLE
  5
23F4
330
1A
100
AcDbEntity
  8
SEIHIN
  6
CONTINUOUS
 62
     3
100
AcDbCircle
 10
308.4964564570292
 20
62.33023683714981
 30
0.0
 40
2.1
  0
LINE
  5
23F5
330
1A
100
AcDbEntity
  8
SEIHIN
  6
CONTINUOUS
 62
     3
100
AcDbLine
 10
343.4964564570293
 20
79.33023683714981
 30
0.0
 11
343.4964564570293
 21
64.33023683714981
 31
0.0
  0
LINE
  5
23F6
330
1A
100
AcDbEntity
  8
SEIHIN
  6
CONTINUOUS
 62
     3
100
AcDbLine
 10
316.4964564570293
 20
79.33023683714981
 30
0.0
 11
316.4964564570293
 21
64.33023683714981
 31
0.0
  0
LINE
  5
23F7
330
1A
100
AcDbEntity
  8
SEIHIN
  6
CONTINUOUS
 62
     3
100
AcDbLine
 10
339.9964564570292
 20
89.33023683714985
 30
0.0
 11
357.4964564570293
 21
89.33023683714985
 31
0.0
  0
LINE
  5
23F8
330
1A
100
AcDbEntity
  8
SEIHIN
  6
CONTINUOUS
 62
     3
100
AcDbLine
 10
340.4964564570292
 20
83.33023683714984
 30
0.0
 11
344.9964564570293
 21
83.33023683714984
 31
0.0
  0
LINE
  5
23F9
330
1A
100
AcDbEntity
  8
SEIHIN
  6
CONTINUOUS
 62
     3
100
AcDbLine
 10
319.4964564570292
 20
79.33023683714981
 30
0.0
 11
314.9964564570292
 21
79.33023683714981
 31
0.0
  0
LINE
  5
23FA
330
1A
100
AcDbEntity
  8
CENTER_L
  6
CENTER
100
AcDbLine
 10
351.4964564570293
 20
57.33023683714981
 30
0.0
 11
351.4964564570293
 21
67.33023683714981
 31
0.0
  0
LINE
  5
23FB
330
1A
100
AcDbEntity
  8
CENTER_L
  6
CENTER
100
AcDbLine
 10
346.4964564570292
 20
62.33023683714981
 30
0.0
 11
356.4964564570292
 21
62.33023683714981
 31
0.0
  0
LINE
  5
23FC
330
1A
100
AcDbEntity
  8
CENTER_L
  6
CENTER
100
AcDbLine
 10
346.4964564570292
 20
81.33023683714979
 30
0.0
 11
356.4964564570292
 21
81.33023683714979
 31
0.0
  0
DIMENSION
  5
23FD
330
1A
100
AcDbEntity
  8
SUNPOU
  6
CONTINUOUS
100
AcDbDimension
  2
*D2
 10
351.4964564570293
 20
136.4904502465284
 30
0.0
 11
329.9964564570292
 21
138.9904502465284
 31
0.0
 70
    32
  3
STANDARD
100
AcDbAlignedDimension
 13
308.4964564570292
 23
86.33023683714977
 33
0.0
 14
351.4964564570293
 24
86.33023683714977
 34
0.0
100
AcDbRotatedDimension
1001
ACAD
1000
DSTYLE
1002
{
1070
   140
1040
3.0
1070
    74
1070
     0
1070
   172
1070
     1
1070
    73
1070
     0
1070
   272
1070
     0
1070
    77
1070
     3
1070
   173
1070
     1
1070
   147
1040
1.0
1070
    42
1040
3.0
1070
    44
1040
1.5
1070
    43
1040
7.0
1070
   271
1070
     0
1070
   178
1070
   256
1070
   177
1070
   256
1070
   176
1070
   256
1070
   141
1040
3.0
1070
     7
1000
OPEN
1070
     6
1000
OPEN
1070
    41
1040
3.0
1002
}
  0
LINE
  5
23FE
330
1A
100
AcDbEntity
  8
CENTER_L
  6
CENTER
100
AcDbLine
 10
351.4964564570293
 20
76.3302368371498
 30
0.0
 11
351.4964564570293
 21
86.33023683714977
 31
0.0
  0
LINE
  5
23FF
330
1A
100
AcDbEntity
  8
CENTER_L
  6
CENTER
100
AcDbLine
 10
303.4964564570293
 20
62.33023683714981
 30
0.0
 11
313.4964564570292
 21
62.33023683714981
 31
0.0
  0
LINE
  5
2400
330
1A
100
AcDbEntity
  8
CENTER_L
  6
CENTER
100
AcDbLine
 10
308.4964564570292
 20
57.33023683714981
 30
0.0
 11
308.4964564570292
 21
67.33023683714981
 31
0.0
  0
LINE
  5
2401
330
1A
100
AcDbEntity
  8
CENTER_L
  6
CENTER
100
AcDbLine
 10
303.4964564570293
 20
81.33023683714979
 30
0.0
 11
313.4964564570292
 21
81.33023683714979
 31
0.0
  0
LINE
  5
2402
330
1A
100
AcDbEntity
  8
CENTER_L
  6
CENTER
100
AcDbLine
 10
308.4964564570292
 20
76.3302368371498
 30
0.0
 11
308.4964564570292
 21
86.33023683714977
 31
0.0
  0
DIMENSION
  5
2403
330
1A
100
AcDbEntity
  8
SUNPOU
  6
CONTINUOUS
100
AcDbDimension
  2
*D1
 10
360.4964564570293
 20
144.671507536644
 30
0.0
 11
329.9964564570292
 21
147.171507536644
 31
0.0
 70
    32
  3
STANDARD
100
AcDbAlignedDimension
 13
299.4964564570293
 23
86.33023683714977
 33
0.0
 14
360.4964564570293
 24
86.33023692654978
 34
0.0
100
AcDbRotatedDimension
1001
ACAD
1000
DSTYLE
1002
{
1070
   140
1040
3.0
1070
    74
1070
     0
1070
   172
1070
     1
1070
    73
1070
     0
1070
   272
1070
     0
1070
    77
1070
     3
1070
   173
1070
     1
1070
   147
1040
1.0
1070
    42
1040
3.0
1070
    44
1040
1.5
1070
    43
1040
7.0
1070
   271
1070
     0
1070
   178
1070
   256
1070
   177
1070
   256
1070
   176
1070
   256
1070
   141
1040
3.0
1070
     7
1000
OPEN
1070
     6
1000
OPEN
1070
    41
1040
3.0
1002
}
  0
DIMENSION
  5
2404
330
1A
100
AcDbEntity
  8
SUNPOU
  6
CONTINUOUS
100
AcDbDimension
  2
*D4
 10
291.8183002309115
 20
81.33023683714979
 30
0.0
 11
289.3183002309115
 21
85.33023683714985
 31
0.0
 70
    32
  3
STANDARD
100
AcDbAlignedDimension
 13
302.4964564570292
 23
89.33023683714981
 33
0.0
 14
303.4964564570293
 24
81.33023683714979
 34
0.0
 50
90.0
100
AcDbRotatedDimension
1001
ACAD
1000
DSTYLE
1002
{
1070
   140
1040
3.0
1070
    74
1070
     0
1070
   172
1070
     1
1070
    73
1070
     0
1070
   272
1070
     0
1070
    77
1070
     3
1070
   173
1070
     1
1070
   147
1040
1.0
1070
    42
1040
3.0
1070
    44
1040
1.5
1070
    43
1040
7.0
1070
   271
1070
     0
1070
   178
1070
   256
1070
   177
1070
   256
1070
   176
1070
   256
1070
   141
1040
3.0
1070
     7
1000
OPEN
1070
     6
1000
OPEN
1070
    41
1040
3.0
1002
}
  0
DIMENSION
  5
2405
330
1A
100
AcDbEntity
  8
SUNPOU
  6
CONTINUOUS
100
AcDbDimension
  2
*D3
 10
291.8183002309115
 20
54.33023683714981
 30
0.0
 11
289.3183002309115
 21
58.33023683714985
 31
0.0
 70
    32
  3
STANDARD
100
AcDbAlignedDimension
 13
303.4964564570293
 23
62.33023683714981
 33
0.0
 14
302.4964564588776
 24
54.33023683714981
 34
0.0
 50
90.0
100
AcDbRotatedDimension
1001
ACAD
1000
DSTYLE
1002
{
1070
   140
1040
3.0
1070
    74
1070
     0
1070
   172
1070
     1
1070
    73
1070
     0
1070
   272
1070
     0
1070
    77
1070
     3
1070
   173
1070
     1
1070
   147
1040
1.0
1070
    42
1040
3.0
1070
    44
1040
1.5
1070
    43
1040
7.0
1070
   271
1070
     0
1070
   178
1070
   256
1070
   177
1070
   256
1070
   176
1070
   256
1070
   141
1040
3.0
1070
     7
1000
OPEN
1070
     6
1000
OPEN
1070
    41
1040
3.0
1002
}
  0
LEADER
  5
2406
330
1A
100
AcDbEntity
  8
SUNPOU
  6
CONTINUOUS
100
AcDbLeader
  3
STANDARD
 76
     3
 10
307.4345336227344
 20
83.14195422515574
 30
0.0
 10
291.2050416020523
 20
105.782087909532
 30
0.0
 10
266.4516854278809
 20
105.782087909532
 30
0.0
1001
ACAD
1000
DSTYLE
1002
{
1070
     6
1000
OPEN
1070
    41
1040
3.0
1070
    42
1040
3.0
1070
    43
1040
7.0
1070
    44
1040
1.5
1070
    73
1070
     0
1070
    74
1070
     0
1070
    77
1070
     3
1070
   140
1040
3.0
1070
   141
1040
3.0
1070
   147
1040
1.0
1070
   172
1070
     1
1070
   173
1070
     1
1070
   176
1070
   256
1070
   177
1070
   256
1070
   178
1070
   256
1070
   271
1070
     0
1070
   272
1070
     0
1070
   341
1005
B2
1070
   343
1005
B2
1070
   344
1005
B2
1002
}
1000
LEANOF
1010
0.0
1020
0.0
1030
0.0
  0
DIMENSION
  5
2407
330
1A
100
AcDbEntity
  8
SUNPOU
  6
CONTINUOUS
100
AcDbDimension
  2
*D5
 10
282.9662304928063
 20
54.33023683714981
 30
0.0
 11
280.4662304928062
 21
71.83023683714985
 31
0.0
 70
    32
  3
STANDARD
100
AcDbAlignedDimension
 13
302.4964564570292
 23
89.33023683714981
 33
0.0
 14
302.4964564588776
 24
54.33023683714981
 34
0.0
 50
90.0
100
AcDbRotatedDimension
1001
ACAD
1000
DSTYLE
1002
{
1070
   140
1040
3.0
1070
    74
1070
     0
1070
   172
1070
     1
1070
    73
1070
     0
1070
   272
1070
     0
1070
    77
1070
     3
1070
   173
1070
     1
1070
   147
1040
1.0
1070
    42
1040
3.0
1070
    44
1040
1.5
1070
    43
1040
7.0
1070
   271
1070
     0
1070
   178
1070
   256
1070
   177
1070
   256
1070
   176
1070
   256
1070
   141
1040
3.0
1070
     7
1000
OPEN
1070
     6
1000
OPEN
1070
    41
1040
3.0
1002
}
  0
TEXT
  5
2408
330
1A
100
AcDbEntity
  8
SUNPOU
  6
CONTINUOUS
100
AcDbText
 10
268.5524873123591
 20
107.4700582708184
 30
0.0
 40
4.0
  1
4-φ4.2
100
AcDbText
  0
LINE
  5
2449
330
1A
100
AcDbEntity
  8
CENTER_L
  6
CENTER
100
AcDbLine
 10
201.380928150529
 20
82.40669220924978
 30
0.0
 11
227.9809281505292
 21
82.40669220924978
 31
0.0
  0
LINE
  5
244A
330
1A
100
AcDbEntity
  8
CENTER_L
  6
CENTER
100
AcDbLine
 10
201.380928150529
 20
63.40669220924977
 30
0.0
 11
227.9809281505292
 21
63.40669220924977
 31
0.0
  0
DIMENSION
  5
244B
330
1A
100
AcDbEntity
  8
SUNPOU
  6
CONTINUOUS
100
AcDbDimension
  2
*D6
 10
233.5155798752654
 20
55.4767341265498
 30
0.0
 11
231.0155798752655
 21
72.97673412654984
 31
0.0
 70
    32
  3
STANDARD
100
AcDbAlignedDimension
 13
219.9804714516292
 23
90.47673412654981
 33
0.0
 14
219.9804714516292
 24
55.4767341265498
 34
0.0
 50
90.0
100
AcDbRotatedDimension
1001
ACAD
1000
DSTYLE
1002
{
1070
   140
1040
3.0
1070
    74
1070
     0
1070
   172
1070
     1
1070
    73
1070
     0
1070
   272
1070
     0
1070
    77
1070
     3
1070
   173
1070
     1
1070
   147
1040
1.0
1070
    42
1040
3.0
1070
    44
1040
1.5
1070
    43
1040
7.0
1070
   271
1070
     0
1070
   178
1070
   256
1070
   177
1070
   256
1070
   176
1070
   256
1070
   141
1040
3.0
1070
     7
1000
OPEN
1070
     6
1000
OPEN
1070
    41
1040
3.0
1002
}
  0
DIMENSION
  5
2472
330
1A
100
AcDbEntity
  8
SUNPOU
  6
CONTINUOUS
100
AcDbDimension
  2
*D8
 10
204.2931303914293
 20
142.7909167447348
 30
0.0
 11
212.1368009215292
 21
145.2909167447347
 31
0.0
 70
    32
  3
STANDARD
100
AcDbAlignedDimension
 13
219.9804714516293
 23
90.47673412654981
 33
0.0
 14
204.2931303914293
 24
115.6536015412497
 34
0.0
100
AcDbRotatedDimension
1001
ACAD
1000
DSTYLE
1002
{
1070
   140
1040
3.0
1070
    74
1070
     0
1070
   172
1070
     1
1070
    73
1070
     0
1070
   272
1070
     0
1070
    77
1070
     3
1070
   173
1070
     1
1070
   147
1040
1.0
1070
    42
1040
3.0
1070
    44
1040
1.5
1070
    43
1040
7.0
1070
   271
1070
     0
1070
   178
1070
   256
1070
   177
1070
   256
1070
   176
1070
   256
1070
   141
1040
3.0
1070
     7
1000
OPEN
1070
     6
1000
OPEN
1070
    41
1040
3.0
1002
}
  0
DIMENSION
  5
2473
330
1A
100
AcDbEntity
  8
SUNPOU
  6
CONTINUOUS
100
AcDbDimension
  2
*D7
 10
74.67585551812937
 20
156.5555886193085
 30
0.0
 11
147.3281634848793
 21
159.0555886193085
 31
0.0
 70
    32
  3
STANDARD
100
AcDbAlignedDimension
 13
219.9804714516293
 23
90.47673412654981
 33
0.0
 14
74.67585551812937
 24
145.0204114581497
 34
0.0
100
AcDbRotatedDimension
1001
ACAD
1000
DSTYLE
1002
{
1070
   140
1040
3.0
1070
    74
1070
     0
1070
   172
1070
     1
1070
    73
1070
     0
1070
   272
1070
     0
1070
    77
1070
     3
1070
   173
1070
     1
1070
   147
1040
1.0
1070
    42
1040
3.0
1070
    44
1040
1.5
1070
    43
1040
7.0
1070
   271
1070
     0
1070
   178
1070
   256
1070
   177
1070
   256
1070
   176
1070
   256
1070
   141
1040
3.0
1070
     7
1000
OPEN
1070
     6
1000
OPEN
1070
    41
1040
3.0
1002
}
  0
LINE
  5
248C
330
1A
100
AcDbEntity
  8
CENTER_L
  6
CENTER
 62
     1
100
AcDbLine
 10
208.3804714516292
 20
225.2751660760497
 30
0.0
 11
229.9804714516292
 21
225.2751660760497
 31
0.0
  0
DIMENSION
  5
249B
330
1A
100
AcDbEntity
  8
SUNPOU
  6
CONTINUOUS
100
AcDbDimension
  2
*D9
 10
235.3897808492486
 20
173.2751660760497
 30
0.0
 11
232.8897808492485
 21
203.7751660760497
 31
0.0
 70
    32
  3
STANDARD
100
AcDbAlignedDimension
 13
219.9804714516293
 23
234.2751660760497
 33
0.0
 14
219.9804714516293
 24
173.2751660760497
 34
0.0
 50
90.0
100
AcDbRotatedDimension
1001
ACAD
1000
DSTYLE
1002
{
1070
   140
1040
3.0
1070
    74
1070
     0
1070
   172
1070
     1
1070
    73
1070
     0
1070
   272
1070
     0
1070
    77
1070
     3
1070
   173
1070
     1
1070
   147
1040
1.0
1070
    42
1040
3.0
1070
    44
1040
1.5
1070
    43
1040
7.0
1070
   271
1070
     0
1070
   178
1070
   256
1070
   177
1070
   256
1070
   176
1070
   256
1070
   141
1040
3.0
1070
     7
1000
OPEN
1070
     6
1000
OPEN
1070
    41
1040
3.0
1002
}
  0
LINE
  5
249C
330
1A
100
AcDbEntity
  8
CENTER_L
  6
CENTER
 62
     1
100
AcDbLine
 10
208.3804714516292
 20
182.2751660760497
 30
0.0
 11
229.9804714516292
 21
182.2751660760497
 31
0.0
  0
DIMENSION
  5
24A9
330
1A
100
AcDbEntity
  8
SUNPOU
  6
CONTINUOUS
100
AcDbDimension
  2
*D10
 10
46.77749152584254
 20
193.7751660760497
 30
0.0
 11
44.27749152584252
 21
203.7751660760497
 31
0.0
 70
    32
  3
STANDARD
100
AcDbAlignedDimension
 13
75.07585551812934
 23
213.7751660760497
 33
0.0
 14
75.07585551812934
 24
193.7751660760497
 34
0.0
 50
90.0
100
AcDbRotatedDimension
1001
ACAD
1000
DSTYLE
1002
{
1070
   140
1040
3.0
1070
    74
1070
     0
1070
   172
1070
     1
1070
    73
1070
     0
1070
   272
1070
     0
1070
    77
1070
     3
1070
   173
1070
     1
1070
   147
1040
1.0
1070
    42
1040
3.0
1070
    44
1040
1.5
1070
    43
1040
7.0
1070
   271
1070
     0
1070
   178
1070
   256
1070
   177
1070
   256
1070
   176
1070
   256
1070
   141
1040
3.0
1070
     7
1000
OPEN
1070
     6
1000
OPEN
1070
    41
1040
3.0
1002
}
  0
LINE
  5
24BF
330
1A
100
AcDbEntity
  8
CENTER_L
  6
CENTER
100
AcDbLine
 10
229.4804714516292
 20
203.7751660760497
 30
0.0
 11
65.07585551812934
 21
203.7751660760498
 31
0.0
  0
LINE
  5
2530
330
1A
100
AcDbEntity
  8
NOKITOI
  6
PHANTOM
 62
     8
100
AcDbLine
 10
147.4369790879794
 20
61.24688429064979
 30
0.0
 11
102.8573790879793
 21
61.24678429064982
 31
0.0
  0
LINE
  5
2531
330
1A
100
AcDbEntity
  8
NOKITOI
  6
PHANTOM
 62
     8
100
AcDbLine
 10
102.6075790879793
 20
60.04678429064977
 30
0.0
 11
147.4369790879794
 21
60.04688429064974
 31
0.0
  0
LINE
  5
2532
330
1A
100
AcDbEntity
  8
NOKITOI
  6
PHANTOM
 62
     8
100
AcDbLine
 10
89.38157908797922
 20
99.79668429064982
 30
0.0
 11
92.37457908797962
 21
69.86688429064968
 31
0.0
  0
LINE
  5
2533
330
1A
100
AcDbEntity
  8
NOKITOI
  6
PHANTOM
 62
     8
100
AcDbLine
 10
88.34057908797905
 20
98.14638429064981
 30
0.0
 11
91.20937908797925
 21
69.45898429064975
 31
0.0
  0
ARC
  5
2534
330
1A
100
AcDbEntity
  8
NOKITOI
  6
PHANTOM
 62
     8
100
AcDbCircle
 10
102.6075860205567
 20
61.04678181564366
 30
0.0
 40
0.9999975250179316
100
AcDbArc
 50
230.7053583247715
 51
269.999602791598
  0
LINE
  5
2535
330
1A
100
AcDbEntity
  8
NOKITOI
  6
PHANTOM
 62
     8
100
AcDbLine
 10
92.55547908797899
 20
69.52958429064977
 30
0.0
 11
102.5407790879792
 21
61.35978429064964
 31
0.0
  0
LINE
  5
2536
330
1A
100
AcDbEntity
  8
NOKITOI
  6
PHANTOM
 62
     8
100
AcDbLine
 10
91.57117908797937
 20
68.7844842906499
 30
0.0
 11
101.9742790879793
 21
60.27278429064988
 31
0.0
  0
ARC
  5
2537
330
1A
100
AcDbEntity
  8
NOKITOI
  6
PHANTOM
 62
     8
100
AcDbCircle
 10
92.87209651385756
 20
69.9165518042618
 30
0.0
 40
0.4999904508696396
100
AcDbArc
 50
185.7009889250759
 51
230.7099153622053
  0
ARC
  5
2538
330
1A
100
AcDbEntity
  8
NOKITOI
  6
PHANTOM
 62
     8
100
AcDbCircle
 10
92.20440166084818
 20
69.55844221897717
 30
0.0
 40
0.9999908507640039
100
AcDbArc
 50
185.713767052247
 51
230.711290776931
  0
LINE
  5
2539
330
1A
100
AcDbEntity
  8
NOKITOI
  6
PHANTOM
 62
     8
100
AcDbLine
 10
106.6075790879793
 20
60.04678429064977
 30
0.0
 11
126.765479087979
 21
60.04678429064977
 31
0.0
  0
LINE
  5
253A
330
1A
100
AcDbEntity
  8
NOKITOI
  6
PHANTOM
 62
     8
100
AcDbLine
 10
106.8573790879793
 20
61.24678429064982
 30
0.0
 11
126.765479087979
 21
61.24678429064982
 31
0.0
  0
ARC
  5
253B
330
1A
100
AcDbEntity
  8
NOKITOI
  6
PHANTOM
 62
     8
100
AcDbCircle
 10
102.8573727002306
 20
61.74678657063934
 30
0.0
 40
0.5000022800304047
100
AcDbArc
 50
230.7145501403943
 51
270.0007319787208
  0
ARC
  5
253C
330
1A
100
AcDbEntity
  8
NOKITOI
  6
PHANTOM
 62
     8
100
AcDbCircle
 10
87.59197537848406
 20
112.0468882006804
 30
0.0
 40
0.4999960899831856
100
AcDbArc
 50
356.9843782585352
 51
89.99957491985082
  0
LINE
  5
253D
330
1A
100
AcDbEntity
  8
NOKITOI
  6
PHANTOM
 62
     8
100
AcDbLine
 10
83.78677908797937
 20
113.8468842906499
 30
0.0
 11
83.28677908797937
 21
111.3468842906499
 31
0.0
  0
LINE
  5
253E
330
1A
100
AcDbEntity
  8
NOKITOI
  6
PHANTOM
 62
     8
100
AcDbLine
 10
80.51447908797973
 20
113.0218842906496
 30
0.0
 11
80.66377908797932
 21
108.2428842906499
 31
0.0
  0
LINE
  5
253F
330
1A
100
AcDbEntity
  8
NOKITOI
  6
PHANTOM
 62
     8
100
AcDbLine
 10
79.31507908797931
 20
112.9843842906497
 30
0.0
 11
79.70517908797939
 21
100.4999842906497
 31
0.0
  0
LINE
  5
2540
330
1A
100
AcDbEntity
  8
NOKITOI
  6
PHANTOM
 62
     8
100
AcDbLine
 10
85.22757908797922
 20
110.2468842906498
 30
0.0
 11
86.22337908797936
 21
111.3468842906499
 31
0.0
  0
LINE
  5
2541
330
1A
100
AcDbEntity
  8
NOKITOI
  6
PHANTOM
 62
     8
100
AcDbLine
 10
87.27617908797929
 20
105.5468842906497
 30
0.0
 11
85.02707908797976
 21
105.5468842906497
 31
0.0
  0
LINE
  5
2542
330
1A
100
AcDbEntity
  8
NOKITOI
  6
PHANTOM
 62
     8
100
AcDbLine
 10
81.20447908797933
 20
99.04688429064977
 30
0.0
 11
87.34557908797915
 21
99.04688429064977
 31
0.0
  0
LINE
  5
2543
330
1A
100
AcDbEntity
  8
NOKITOI
  6
PHANTOM
 62
     8
100
AcDbLine
 10
88.88407908797972
 20
100.2468842906498
 30
0.0
 11
82.85217908797932
 21
100.2468842906498
 31
0.0
  0
LINE
  5
2544
330
1A
100
AcDbEntity
  8
NOKITOI
  6
PHANTOM
 62
     8
100
AcDbLine
 10
83.28677908797937
 20
111.3468842906499
 30
0.0
 11
86.22337908797936
 21
111.3468842906499
 31
0.0
  0
ARC
  5
2545
330
1A
100
AcDbEntity
  8
NOKITOI
  6
PHANTOM
 62
     8
100
AcDbCircle
 10
82.85214110015505
 20
102.246821111222
 30
0.0
 40
2.000036820932882
100
AcDbArc
 50
181.7889408725804
 51
270.0010882509654
  0
ARC
  5
2546
330
1A
100
AcDbEntity
  8
NOKITOI
  6
PHANTOM
 62
     8
100
AcDbCircle
 10
81.20446187480121
 20
100.5469009737975
 30
0.0
 40
1.500016683246579
100
AcDbArc
 50
181.7923576755886
 51
270.0006574876639
  0
ARC
  5
2547
330
1A
100
AcDbEntity
  8
NOKITOI
  6
PHANTOM
 62
     8
100
AcDbCircle
 10
84.76561001491546
 20
105.0469200353135
 30
0.0
 40
3.99998565374706
100
AcDbArc
 50
96.4757761953165
 51
181.7913033408989
  0
LINE
  5
2548
330
1A
100
AcDbEntity
  8
NOKITOI
  6
PHANTOM
 62
     8
100
AcDbLine
 10
84.5320790879794
 20
106.1175842906497
 30
0.0
 11
84.86587908797929
 21
108.4537842906499
 31
0.0
  0
LINE
  5
2549
330
1A
100
AcDbEntity
  8
NOKITOI
  6
PHANTOM
 62
     8
100
AcDbLine
 10
80.85307908797933
 20
102.1842842906498
 30
0.0
 11
80.76757908797963
 21
104.9218842906497
 31
0.0
  0
ARC
  5
254A
330
1A
100
AcDbEntity
  8
NOKITOI
  6
PHANTOM
 62
     8
100
AcDbCircle
 10
85.02706890154314
 20
106.0468960353739
 30
0.0
 40
0.5000117448278309
100
AcDbArc
 50
171.8726853912846
 51
270.0011672522
  0
ARC
  5
254B
330
1A
100
AcDbEntity
  8
NOKITOI
  6
PHANTOM
 62
     8
100
AcDbCircle
 10
84.76559695433053
 20
105.0468930190297
 30
0.0
 40
5.199991271650611
100
AcDbArc
 50
90.00019685927602
 51
142.0746713952677
  0
LINE
  5
254C
330
1A
100
AcDbEntity
  8
NOKITOI
  6
PHANTOM
 62
     8
100
AcDbLine
 10
85.22757908797922
 20
110.2468842906498
 30
0.0
 11
84.76557908797923
 21
110.2468842906498
 31
0.0
  0
ARC
  5
254D
330
1A
100
AcDbEntity
  8
NOKITOI
  6
PHANTOM
 62
     8
100
AcDbCircle
 10
84.37084971547966
 20
108.5245145231446
 30
0.0
 40
0.4999578477751074
100
AcDbArc
 50
351.8669438287067
 51
96.47390928779252
  0
ARC
  5
254E
330
1A
100
AcDbEntity
  8
NOKITOI
  6
PHANTOM
 62
     8
100
AcDbCircle
 10
87.34555843813842
 20
98.04690297849898
 30
0.0
 40
0.9999813123640345
100
AcDbArc
 50
5.70940996664858
 51
89.99881682915088
  0
ARC
  5
254F
330
1A
100
AcDbEntity
  8
NOKITOI
  6
PHANTOM
 62
     8
100
AcDbCircle
 10
88.88406601697472
 20
99.74689612092966
 30
0.0
 40
0.499988169890889
100
AcDbArc
 50
5.703393862283571
 51
89.99850213773529
  0
LINE
  5
2550
330
1A
100
AcDbEntity
  8
NOKITOI
  6
PHANTOM
 62
     8
100
AcDbLine
 10
87.77547908797926
 20
106.0205842906497
 30
0.0
 11
88.09127908797956
 21
112.0205842906497
 31
0.0
  0
ARC
  5
2551
330
1A
100
AcDbEntity
  8
NOKITOI
  6
PHANTOM
 62
     8
100
AcDbCircle
 10
87.27617496657268
 20
106.0468803806192
 30
0.0
 40
0.4999960899864752
100
AcDbArc
 50
270.0004722821422
 51
356.9852756208259
  0
LINE
  5
2552
330
1A
100
AcDbEntity
  8
NOKITOI
  6
PHANTOM
 62
     8
100
AcDbLine
 10
86.2381790879793
 20
109.5752842906496
 30
0.0
 11
86.79317908797958
 21
110.1882842906497
 31
0.0
  0
LINE
  5
2553
330
1A
100
AcDbEntity
  8
NOKITOI
  6
PHANTOM
 62
     8
100
AcDbLine
 10
86.61207908797933
 20
106.7468842906498
 30
0.0
 11
85.83417908797974
 21
106.7468842906498
 31
0.0
  0
LINE
  5
2554
330
1A
100
AcDbEntity
  8
NOKITOI
  6
PHANTOM
 62
     8
100
AcDbLine
 10
85.83417908797974
 20
106.7468842906498
 30
0.0
 11
86.2381790879793
 21
109.5752842906496
 31
0.0
  0
LINE
  5
2555
330
1A
100
AcDbEntity
  8
NOKITOI
  6
PHANTOM
 62
     8
100
AcDbLine
 10
86.61207908797933
 20
106.7468842906498
 30
0.0
 11
86.79317908797958
 21
110.1882842906497
 31
0.0
  0
LINE
  5
2556
330
1A
100
AcDbEntity
  8
NOKITOI
  6
PHANTOM
 62
     8
100
AcDbLine
 10
87.59197908797915
 20
112.5468842906497
 30
0.0
 11
85.36047908797929
 21
112.5468842906497
 31
0.0
  0
LINE
  5
2557
330
1A
100
AcDbEntity
  8
NOKITOI
  6
PHANTOM
 62
     8
100
AcDbLine
 10
81.3140790879791
 20
113.8467842906497
 30
0.0
 11
83.78677908797937
 21
113.8468842906499
 31
0.0
  0
LINE
  5
2558
330
1A
100
AcDbEntity
  8
NOKITOI
  6
PHANTOM
 62
     8
100
AcDbLine
 10
81.3140790879791
 20
115.0467842906498
 30
0.0
 11
84.64067908797943
 21
115.0468842906497
 31
0.0
  0
ARC
  5
2559
330
1A
100
AcDbEntity
  8
NOKITOI
  6
PHANTOM
 62
     8
100
AcDbCircle
 10
81.3140903249735
 20
113.0468958844669
 30
0.0
 40
1.999988406214315
100
AcDbArc
 50
90.00032191804612
 51
181.7911273464062
  0
ARC
  5
255A
330
1A
100
AcDbEntity
  8
NOKITOI
  6
PHANTOM
 62
     8
100
AcDbCircle
 10
81.31403512162643
 20
113.0468389281767
 30
0.0
 40
0.7999453636812564
100
AcDbArc
 50
89.99685092684575
 51
181.7876563552118
  0
LINE
  5
255B
330
1A
100
AcDbEntity
  8
NOKITOI
  6
PHANTOM
 62
     8
100
AcDbLine
 10
84.87017908797936
 20
113.1448842906499
 30
0.0
 11
85.13097908797936
 21
114.4488842906498
 31
0.0
  0
ARC
  5
255C
330
1A
100
AcDbEntity
  8
NOKITOI
  6
PHANTOM
 62
     8
100
AcDbCircle
 10
84.64068634253482
 20
114.5468754408063
 30
0.0
 40
0.500008849895925
100
AcDbArc
 50
348.6864043304874
 51
90.00083129614585
  0
ARC
  5
255D
330
1A
100
AcDbEntity
  8
NOKITOI
  6
PHANTOM
 62
     8
100
AcDbCircle
 10
85.36047987098783
 20
113.046883335648
 30
0.0
 40
0.4999990449987399
100
AcDbArc
 50
168.6967198015451
 51
269.9999102736965
  0
ARC
  5
255E
330
1A
100
AcDbEntity
  8
NOKITOI
  6
PHANTOM
 62
     8
100
AcDbCircle
 10
147.4369953144367
 20
103.0468987670198
 30
0.0
 40
43.00001447645168
100
AcDbArc
 50
270.0001116248562
 51
353.4750892928824
  0
ARC
  5
255F
330
1A
100
AcDbEntity
  8
NOKITOI
  6
PHANTOM
 62
     8
100
AcDbCircle
 10
147.4369730060114
 20
103.0468786659934
 30
0.0
 40
41.79999437547816
100
AcDbArc
 50
270.0001454078909
 51
355.5257047874752
  0
ARC
  5
2560
330
1A
100
AcDbEntity
  8
NOKITOI
  6
PHANTOM
 62
     8
100
AcDbCircle
 10
190.9091852891372
 20
112.046890825735
 30
0.0
 40
0.4999934649531607
100
AcDbArc
 50
90.00071060961758
 51
183.0044636796624
  0
LINE
  5
2561
330
1A
100
AcDbEntity
  8
NOKITOI
  6
PHANTOM
 62
     8
100
AcDbLine
 10
194.7142790879791
 20
113.8468842906499
 30
0.0
 11
195.2142790879791
 21
111.3468842906499
 31
0.0
  0
LINE
  5
2562
330
1A
100
AcDbEntity
  8
NOKITOI
  6
PHANTOM
 62
     8
100
AcDbLine
 10
197.9866790879789
 20
113.0218842906496
 30
0.0
 11
197.8372790879796
 21
108.2429842906498
 31
0.0
  0
LINE
  5
2563
330
1A
100
AcDbEntity
  8
NOKITOI
  6
PHANTOM
 62
     8
100
AcDbLine
 10
199.1860790879794
 20
112.9843842906497
 30
0.0
 11
198.7958790879796
 21
100.5000842906496
 31
0.0
  0
ARC
  5
2564
330
1A
100
AcDbEntity
  8
NOKITOI
  6
PHANTOM
 62
     8
100
AcDbCircle
 10
195.6489655158409
 20
102.2468711355633
 30
0.0
 40
1.999986844959662
100
AcDbArc
 50
270.0003888156784
 51
358.2124468147644
  0
ARC
  5
2565
330
1A
100
AcDbEntity
  8
NOKITOI
  6
PHANTOM
 62
     8
100
AcDbCircle
 10
197.2966431288285
 20
100.5468494365065
 30
0.0
 40
1.499965146287778
100
AcDbArc
 50
270.0013735703027
 51
358.2133719782233
  0
LINE
  5
2566
330
1A
100
AcDbEntity
  8
NOKITOI
  6
PHANTOM
 62
     8
100
AcDbLine
 10
197.2966790879793
 20
99.04688429064977
 30
0.0
 11
191.1519790879795
 21
99.04688429064977
 31
0.0
  0
LINE
  5
2567
330
1A
100
AcDbEntity
  8
NOKITOI
  6
PHANTOM
 62
     8
100
AcDbLine
 10
189.6080790879789
 20
100.2468842906498
 30
0.0
 11
195.6489790879794
 21
100.2468842906498
 31
0.0
  0
ARC
  5
2568
330
1A
100
AcDbEntity
  8
NOKITOI
  6
PHANTOM
 62
     8
100
AcDbCircle
 10
191.1519875121419
 20
98.04689180570626
 30
0.0
 40
0.9999924849789756
100
AcDbArc
 50
90.00048267258872
 51
173.471735393326
  0
ARC
  5
2569
330
1A
100
AcDbEntity
  8
NOKITOI
  6
PHANTOM
 62
     8
100
AcDbCircle
 10
189.608066518271
 20
99.7468726659201
 30
0.0
 40
0.5000116248877111
100
AcDbArc
 50
89.99855965101616
 51
175.5251531916577
  0
LINE
  5
256A
330
1A
100
AcDbEntity
  8
NOKITOI
  6
PHANTOM
 62
     8
100
AcDbLine
 10
193.273579087979
 20
110.2468842906498
 30
0.0
 11
192.2777790879793
 21
111.3468842906499
 31
0.0
  0
LINE
  5
256B
330
1A
100
AcDbEntity
  8
NOKITOI
  6
PHANTOM
 62
     8
100
AcDbLine
 10
195.2142790879791
 20
111.3468842906499
 30
0.0
 11
192.2777790879793
 21
111.3468842906499
 31
0.0
  0
LINE
  5
256C
330
1A
100
AcDbEntity
  8
NOKITOI
  6
PHANTOM
 62
     8
100
AcDbLine
 10
191.8890790879793
 20
106.7468842906498
 30
0.0
 11
192.6669790879789
 21
106.7468842906498
 31
0.0
  0
LINE
  5
256D
330
1A
100
AcDbEntity
  8
NOKITOI
  6
PHANTOM
 62
     8
100
AcDbLine
 10
192.6669790879789
 20
106.7468842906498
 30
0.0
 11
192.2628790879792
 21
109.5752842906496
 31
0.0
  0
LINE
  5
256E
330
1A
100
AcDbEntity
  8
NOKITOI
  6
PHANTOM
 62
     8
100
AcDbLine
 10
191.2249790879794
 20
105.5468842906497
 30
0.0
 11
193.4740790879794
 21
105.5468842906497
 31
0.0
  0
LINE
  5
256F
330
1A
100
AcDbEntity
  8
NOKITOI
  6
PHANTOM
 62
     8
100
AcDbLine
 10
190.7255790879792
 20
106.0206842906497
 30
0.0
 11
190.4097790879794
 21
112.0205842906497
 31
0.0
  0
ARC
  5
2570
330
1A
100
AcDbEntity
  8
NOKITOI
  6
PHANTOM
 62
     8
100
AcDbCircle
 10
191.2249859749743
 20
106.0468777555642
 30
0.0
 40
0.499993464961963
100
AcDbArc
 50
183.0029638682578
 51
269.9992107982129
  0
LINE
  5
2571
330
1A
100
AcDbEntity
  8
NOKITOI
  6
PHANTOM
 62
     8
100
AcDbLine
 10
192.2628790879792
 20
109.5752842906496
 30
0.0
 11
191.7078790879793
 21
110.1883842906499
 31
0.0
  0
LINE
  5
2572
330
1A
100
AcDbEntity
  8
NOKITOI
  6
PHANTOM
 62
     8
100
AcDbLine
 10
191.8890790879793
 20
106.7468842906498
 30
0.0
 11
191.7078790879793
 21
110.1883842906499
 31
0.0
  0
ARC
  5
2573
330
1A
100
AcDbEntity
  8
NOKITOI
  6
PHANTOM
 62
     8
100
AcDbCircle
 10
193.7354412065326
 20
105.0469280731751
 30
0.0
 40
3.999989731271038
100
AcDbArc
 50
358.2100163932687
 51
83.52268857986718
  0
LINE
  5
2574
330
1A
100
AcDbEntity
  8
NOKITOI
  6
PHANTOM
 62
     8
100
AcDbLine
 10
193.9689790879795
 20
106.1176842906499
 30
0.0
 11
193.6352790879794
 21
108.4538842906499
 31
0.0
  0
ARC
  5
2575
330
1A
100
AcDbEntity
  8
NOKITOI
  6
PHANTOM
 62
     8
100
AcDbCircle
 10
193.4740524873816
 20
106.0468536137677
 30
0.0
 40
0.4999693238254178
100
AcDbArc
 50
270.0030483909627
 51
8.144496122946826
  0
LINE
  5
2576
330
1A
100
AcDbEntity
  8
NOKITOI
  6
PHANTOM
 62
     8
100
AcDbLine
 10
197.6479790879796
 20
102.1844842906497
 30
0.0
 11
197.7334790879793
 21
104.9219842906497
 31
0.0
  0
ARC
  5
2577
330
1A
100
AcDbEntity
  8
NOKITOI
  6
PHANTOM
 62
     8
100
AcDbCircle
 10
193.7353588753101
 20
105.0469430190298
 30
0.0
 40
5.2000412730095
100
AcDbArc
 50
37.92420092094485
 51
89.99867545693819
  0
LINE
  5
2578
330
1A
100
AcDbEntity
  8
NOKITOI
  6
PHANTOM
 62
     8
100
AcDbLine
 10
193.273579087979
 20
110.2468842906498
 30
0.0
 11
193.7354790879792
 21
110.2468842906498
 31
0.0
  0
ARC
  5
2579
330
1A
100
AcDbEntity
  8
NOKITOI
  6
PHANTOM
 62
     8
100
AcDbCircle
 10
194.1302648695639
 20
108.5245696563488
 30
0.0
 40
0.5000073448410256
100
AcDbArc
 50
83.52170717003247
 51
188.1270521358761
  0
LINE
  5
257A
330
1A
100
AcDbEntity
  8
NOKITOI
  6
PHANTOM
 62
     8
100
AcDbLine
 10
190.9091790879795
 20
112.5468842906497
 30
0.0
 11
193.1406790879794
 21
112.5468842906497
 31
0.0
  0
LINE
  5
257B
330
1A
100
AcDbEntity
  8
NOKITOI
  6
PHANTOM
 62
     8
100
AcDbLine
 10
197.1870790879796
 20
113.8468842906499
 30
0.0
 11
194.7142790879791
 21
113.8468842906499
 31
0.0
  0
LINE
  5
257C
330
1A
100
AcDbEntity
  8
NOKITOI
  6
PHANTOM
 62
     8
100
AcDbLine
 10
197.1870790879796
 20
115.0468842906497
 30
0.0
 11
193.8604790879793
 21
115.0468842906497
 31
0.0
  0
LINE
  5
257D
330
1A
100
AcDbEntity
  8
NOKITOI
  6
PHANTOM
 62
     8
100
AcDbLine
 10
193.6309790879793
 20
113.1449842906496
 30
0.0
 11
193.3701790879793
 21
114.4488842906498
 31
0.0
  0
ARC
  5
257E
330
1A
100
AcDbEntity
  8
NOKITOI
  6
PHANTOM
 62
     8
100
AcDbCircle
 10
193.8604798709878
 20
114.5468852456515
 30
0.0
 40
0.4999990449987349
100
AcDbArc
 50
90.0000897263067
 51
191.3032801984548
  0
ARC
  5
257F
330
1A
100
AcDbEntity
  8
NOKITOI
  6
PHANTOM
 62
     8
100
AcDbCircle
 10
193.1406863425348
 20
113.0468931404932
 30
0.0
 40
0.5000088498959383
100
AcDbArc
 50
269.9991687038573
 51
11.31359566951103
  0
ARC
  5
2580
330
1A
100
AcDbEntity
  8
NOKITOI
  6
PHANTOM
 62
     8
100
AcDbCircle
 10
197.1870745931813
 20
113.0468889281766
 30
0.0
 40
0.7999953624857498
100
AcDbArc
 50
358.2088726535806
 51
89.99967808194737
  0
ARC
  5
2581
330
1A
100
AcDbEntity
  8
NOKITOI
  6
PHANTOM
 62
     8
100
AcDbCircle
 10
197.1870663371294
 20
113.0468974457362
 30
0.0
 40
1.999986844954076
100
AcDbArc
 50
358.2116927117295
 51
89.99963471264711
  0
DIMENSION
  5
2594
330
1A
100
AcDbEntity
  8
SUNPOU
100
AcDbDimension
  2
*D11
 10
46.7774915258425
 20
55.47673412654986
 30
0.0
 11
44.2774915258425
 21
85.97884761074983
 31
0.0
 70
    32
  3
STANDARD
100
AcDbAlignedDimension
 13
75.07585551812934
 23
116.4809610949497
 33
0.0
 14
213.3804714516292
 24
55.4767341265498
 34
0.0
 50
90.0
100
AcDbRotatedDimension
1001
ACAD
1000
DSTYLE
1002
{
1070
    41
1040
3.0
1070
    42
1040
3.0
1070
    43
1040
7.0
1070
    44
1040
1.5
1070
    73
1070
     0
1070
    74
1070
     0
1070
    77
1070
     3
1070
   140
1040
3.0
1070
   141
1040
3.0
1070
   147
1040
1.0
1070
   172
1070
     1
1070
   173
1070
     1
1070
   176
1070
   256
1070
   177
1070
   256
1070
   178
1070
   256
1070
   271
1070
     0
1070
   341
1005
B2
1070
     6
1000
OPEN
1070
     7
1000
OPEN
1070
   371
1070
    -1
1070
   372
1070
    -1
1002
}
  0
LINE
  5
2605
330
1A
100
AcDbEntity
  8
CENTER_L
  6
CENTER
100
AcDbLine
 10
329.9964564570292
 20
49.3302368371498
 30
0.0
 11
329.9964564570292
 21
126.4142084081634
 31
0.0
  0
LINE
  5
260F
330
1A
100
AcDbEntity
  8
SEIHIN
100
AcDbLine
 10
191.6268977846277
 20
193.7751660760497
 30
0.0
 11
191.6268977846277
 21
196.2751660760497
 31
0.0
  0
LINE
  5
2610
330
1A
100
AcDbEntity
  8
SEIHIN
100
AcDbLine
 10
191.6268977846277
 20
211.2751660760497
 30
0.0
 11
191.6268977846277
 21
213.7751660760497
 31
0.0
  0
LWPOLYLINE
  5
273A
330
1A
100
AcDbEntity
  8
ZUWAKU
100
AcDbPolyline
 90
        4
 70
     1
 43
0.0
 10
0.3999999982485178
 20
275.4000002832666
 10
0.3999999982485178
 20
0.4000002832665928
 10
398.3999999982485
 20
0.4000002832665928
 10
398.3999999982485
 20
275.4000002832666
  0
LWPOLYLINE
  5
273B
330
1A
100
AcDbEntity
  8
ZUWAKU
100
AcDbPolyline
 90
        4
 70
     1
 43
0.0
 10
0.1999999982485292
 20
275.6000002832665
 10
0.1999999982485292
 20
0.2000002832666041
 10
398.5999999982485
 20
0.2000002832665926
 10
398.5999999982485
 20
275.6000002832665
  0
LWPOLYLINE
  5
273C
330
1A
100
AcDbEntity
  8
ZUWAKU
100
AcDbPolyline
 90
        4
 70
     1
 43
0.0
 10
-0.0000000017514594
 20
275.8000002832665
 10
-0.0000000017514594
 20
0.0000002832665587
 10
398.7999999982486
 20
0.0000002832665924
 10
398.7999999982486
 20
275.8000002832666
  0
LWPOLYLINE
  5
273D
330
1A
100
AcDbEntity
  8
ZUWAKU
100
AcDbPolyline
 90
        4
 70
     1
 43
0.0
 10
0.2999999982484951
 20
275.5000002832665
 10
0.2999999982484951
 20
0.30000028326657
 10
398.4999999982486
 20
0.3000002832665931
 10
398.4999999982485
 20
275.5000002832665
  0
LWPOLYLINE
  5
273E
330
1A
100
AcDbEntity
  8
ZUWAKU
100
AcDbPolyline
 90
        4
 70
     1
 43
0.0
 10
0.0999999982485065
 20
275.7000002832666
 10
0.0999999982485065
 20
0.1000002832665814
 10
398.6999999982484
 20
0.1000002832665929
 10
398.6999999982486
 20
275.7000002832666
  0
LINE
  5
273F
330
1A
100
AcDbEntity
  8
ZUWAKU
100
AcDbLine
 10
-0.0000000017514594
 20
15.00000028326655
 30
0.0
 11
398.6999999982484
 21
15.00000028326655
 31
0.0
  0
LINE
  5
2740
330
1A
100
AcDbEntity
  8
ZUWAKU
100
AcDbLine
 10
-0.0000000017514594
 20
15.10000028326656
 30
0.0
 11
398.6999999982484
 21
15.10000028326656
 31
0.0
  0
LINE
  5
2741
330
1A
100
AcDbEntity
  8
ZUWAKU
100
AcDbLine
 10
-0.0000000017514594
 20
15.20000028326656
 30
0.0
 11
398.6999999982484
 21
15.20000028326656
 31
0.0
  0
LINE
  5
2742
330
1A
100
AcDbEntity
  8
ZUWAKU
100
AcDbLine
 10
-0.0000000017514594
 20
15.30000028326656
 30
0.0
 11
398.6999999982484
 21
15.30000028326656
 31
0.0
  0
LINE
  5
2743
330
1A
100
AcDbEntity
  8
ZUWAKU
100
AcDbLine
 10
-0.0000000017514594
 20
15.40000028326656
 30
0.0
 11
398.6999999982484
 21
15.40000028326656
 31
0.0
  0
LINE
  5
2744
330
1A
100
AcDbEntity
  8
ZUWAKU
100
AcDbLine
 10
104.3233006432825
 20
7.700000283266575
 30
0.0
 11
223.7121819837442
 21
7.700000283266575
 31
0.0
  0
LINE
  5
2745
330
1A
100
AcDbEntity
  8
ZUWAKU
100
AcDbLine
 10
104.3233006432825
 20
7.800000283266575
 30
0.0
 11
223.7121819837442
 21
7.800000283266578
 31
0.0
  0
LINE
  5
2746
330
1A
100
AcDbEntity
  8
ZUWAKU
100
AcDbLine
 10
104.3233006432825
 20
7.600000283266577
 30
0.0
 11
223.7121819837442
 21
7.600000283266574
 31
0.0
  0
TEXT
  5
2747
330
1A
100
AcDbEntity
  8
MOJI
100
AcDbText
 10
46.4788947923331
 20
6.370589348403939
 30
0.0
 40
3.0
  1
新・丸トップＲＶ１０５
 41
0.9
  7
ｽﾀｲﾙ1
100
AcDbText
  0
CIRCLE
  5
2748
330
1A
100
AcDbEntity
  8
ZUWAKU
100
AcDbCircle
 10
12.99610607563909
 20
7.60000028326656
 30
0.0
 40
0.875
  0
LINE
  5
2749
330
1A
100
AcDbEntity
  8
ZUWAKU
100
AcDbLine
 10
13.43360607563909
 20
3.575000283266561
 30
0.0
 11
12.47110607563911
 21
3.575000283266561
 31
0.0
  0
LINE
  5
274A
330
1A
100
AcDbEntity
  8
ZUWAKU
100
AcDbLine
 10
12.47110607563911
 20
4.97500028326656
 30
0.0
 11
13.43360607563909
 21
4.97500028326656
 31
0.0
  0
LINE
  5
274B
330
1A
100
AcDbEntity
  8
ZUWAKU
100
AcDbLine
 10
13.43360607563909
 20
10.22500028326656
 30
0.0
 11
12.47110607563911
 21
10.22500028326656
 31
0.0
  0
LINE
  5
274C
330
1A
100
AcDbEntity
  8
ZUWAKU
100
AcDbLine
 10
12.47110607563911
 20
11.62500028326654
 30
0.0
 11
13.43360607563909
 21
11.62500028326656
 31
0.0
  0
HATCH
  5
274D
330
1A
100
AcDbEntity
  8
ZUWAKU
100
AcDbHatch
 10
0.0
 20
0.0
 30
0.0
210
0.0
220
0.0
230
1.0
  2
ANSI37
 70
     0
 71
     0
 91
        8
 92
        7
 72
     1
 73
     1
 93
       24
 10
7.251131328808469
 20
8.82242452375835
 42
-0.1989123673796348
 10
7.046106075639102
 20
9.317399270588875
 42
0.0
 10
7.046106075639102
 20
9.962500283266564
 42
-0.4142135623730912
 10
7.30860607563909
 20
10.22500028326656
 42
0.0
 10
8.796106075639045
 20
10.22500028326656
 42
0.4142135623731546
 10
9.05860607563909
 20
10.48750028326655
 42
0.0
 10
9.05860607563909
 20
11.36250028326656
 42
0.4142135623731586
 10
8.796106075639045
 20
11.62500028326656
 42
0.0
 10
7.046106075639102
 20
11.62500028326656
 42
0.4142135623730928
 10
5.646106075639124
 20
10.22500028326657
 42
0.0
 10
5.646106075639124
 20
9.317399270588939
 42
0.1989123673796619
 10
6.26118183514734
 20
7.832475030097135
 42
0.0
 10
7.716080822469677
 20
6.377576042774807
 42
-0.1989123673796613
 10
7.921106075639102
 20
5.882601295944214
 42
0.0
 10
7.921106075639102
 20
5.237500283266555
 42
-0.4142135623730911
 10
7.658606075639113
 20
4.97500028326656
 42
0.0
 10
6.171106075639158
 20
4.97500028326656
 42
0.4142135623731526
 10
5.908606075639113
 20
4.712500283266566
 42
0.0
 10
5.908606075639113
 20
3.837500283266555
 42
0.4142135623731526
 10
6.171106075639158
 20
3.575000283266561
 42
0.0
 10
7.921106075639102
 20
3.575000283266561
 42
0.4142135623731044
 10
9.321106075639136
 20
4.975000283266549
 42
0.0
 10
9.321106075639136
 20
5.882601295944185
 42
0.1989123673796604
 10
8.706030316130863
 20
7.367525536435955
 42
0.0
 97
        0
 92
        7
 72
     1
 73
     1
 93
       16
 10
11.77110607563912
 20
9.525000283266564
 42
-0.4142135623730935
 10
12.47110607563911
 20
10.22500028326656
 42
0.0
 10
13.43360607563909
 20
10.22500028326656
 42
0.4142135623731546
 10
13.69610607563913
 20
10.48750028326655
 42
0.0
 10
13.69610607563913
 20
11.36250028326656
 42
0.4142135623730951
 10
13.43360607563914
 20
11.62500028326656
 42
0.0
 10
12.47110607563905
 20
11.62500028326654
 42
0.4142135623730892
 10
10.37110607563909
 20
9.525000283266528
 42
0.0
 10
10.37110607563909
 20
5.675000283266573
 42
0.4142135623730969
 10
12.47110607563911
 20
3.575000283266561
 42
0.0
 10
13.43360607563909
 20
3.575000283266561
 42
0.4142135623731526
 10
13.69610607563913
 20
3.837500283266555
 42
0.0
 10
13.69610607563913
 20
4.712500283266566
 42
0.4142135623730891
 10
13.43360607563914
 20
4.97500028326656
 42
0.0
 10
12.47110607563911
 20
4.97500028326656
 42
-0.4142135623730928
 10
11.77110607563912
 20
5.675000283266554
 42
0.0
 97
        0
 92
        7
 72
     1
 73
     1
 93
        2
 10
12.12110607563909
 20
7.60000028326656
 42
1.0
 10
13.87110607563909
 20
7.60000028326656
 42
1.0
 97
        0
 92
        7
 72
     1
 73
     1
 93
       26
 10
18.6574293167281
 20
9.602523880048273
 42
0.0
 10
19.188249133297
 20
11.28345329918307
 42
0.5069206636600134
 10
18.93793368369932
 20
11.62500028326656
 42
0.0
 10
18.08848899389471
 20
11.62500028326656
 42
0.3272098845218764
 10
17.83817354429703
 20
11.44154726735004
 42
0.0
 10
16.90403860698114
 20
8.4834532991831
 42
-0.3272098845219541
 10
16.65372315738341
 20
8.300000283266559
 42
0.0
 10
16.58360607563918
 20
8.300000283266559
 42
-0.4142135623731526
 10
16.32110607563913
 20
8.562500283266553
 42
0.0
 10
16.32110607563913
 20
11.36250028326656
 42
0.4142135623730951
 10
16.05860607563914
 20
11.62500028326656
 42
0.0
 10
15.18360607563909
 20
11.62500028326656
 42
0.4142135623730871
 10
14.9211060756391
 20
11.36250028326657
 42
0.0
 10
14.9211060756391
 20
3.837500283266555
 42
0.4142135623730891
 10
15.18360607563909
 20
3.575000283266561
 42
0.0
 10
16.05860607563909
 20
3.575000283266561
 42
0.4142135623731526
 10
16.32110607563913
 20
3.837500283266555
 42
0.0
 10
16.32110607563913
 20
6.637500283266566
 42
-0.4142135623731526
 10
16.58360607563918
 20
6.90000028326656
 42
0.0
 10
16.65372315738346
 20
6.90000028326656
 42
-0.3272098845218915
 10
16.90403860698114
 20
6.716547267350023
 42
0.0
 10
17.83817354429703
 20
3.758453299183097
 42
0.3272098845218902
 10
18.08848899389471
 20
3.575000283266561
 42
0.0
 10
18.93793368369932
 20
3.575000283266561
 42
0.5069206636600335
 10
19.188249133297
 20
3.916547267350065
 42
0.0
 10
18.02505344406017
 20
7.600000283266629
 42
0.0
 97
        0
 92
        7
 72
     1
 73
     1
 93
        8
 10
21.74610607563909
 20
11.36250028326656
 42
0.4142135623731546
 10
21.48360607563904
 20
11.62500028326656
 42
0.0
 10
20.60860607563915
 20
11.62500028326656
 42
0.4142135623731507
 10
20.34610607563911
 20
11.36250028326657
 42
0.0
 10
20.34610607563911
 20
3.837500283266555
 42
0.4142135623731526
 10
20.60860607563915
 20
3.575000283266561
 42
0.0
 10
21.48360607563904
 20
3.575000283266561
 42
0.4142135623731526
 10
21.74610607563909
 20
3.837500283266555
 42
0.0
 97
        0
 92
        7
 72
     1
 73
     1
 93
       24
 10
24.19610607563913
 20
9.962500283266564
 42
-0.4142135623731546
 10
24.45860607563918
 20
10.22500028326656
 42
0.0
 10
25.94610607563913
 20
10.22500028326656
 42
0.4142135623730911
 10
26.20860607563912
 20
10.48750028326655
 42
0.0
 10
26.20860607563912
 20
11.36250028326656
 42
0.4142135623730952
 10
25.94610607563913
 20
11.62500028326656
 42
0.0
 10
24.19610607563913
 20
11.62500028326656
 42
0.4142135623731048
 10
22.7961060756391
 20
10.22500028326657
 42
0.0
 10
22.7961060756391
 20
9.317399270588939
 42
0.1989123673796613
 10
23.41118183514737
 20
7.832475030097164
 42
0.0
 10
24.86608082246971
 20
6.37757604277483
 42
-0.1989123673796402
 10
25.07110607563913
 20
5.882601295944294
 42
0.0
 10
25.07110607563913
 20
5.237500283266555
 42
-0.4142135623730911
 10
24.80860607563915
 20
4.97500028326656
 42
0.0
 10
23.32110607563913
 20
4.97500028326656
 42
0.4142135623731526
 10
23.05860607563908
 20
4.712500283266566
 42
0.0
 10
23.05860607563908
 20
3.837500283266555
 42
0.4142135623730891
 10
23.32110607563908
 20
3.575000283266561
 42
0.0
 10
25.07110607563913
 20
3.575000283266561
 42
0.4142135623730925
 10
26.47110607563911
 20
4.975000283266549
 42
0.0
 10
26.47110607563911
 20
5.882601295944185
 42
0.1989123673796675
 10
25.85603031613084
 20
7.367525536436012
 42
0.0
 10
24.40113132880856
 20
8.82242452375827
 42
-0.1989123673796652
 10
24.19610607563913
 20
9.317399270588854
 42
0.0
 97
        0
 92
        7
 72
     1
 73
     1
 93
       16
 10
28.9211060756391
 20
11.36250028326655
 42
0.414213562373103
 10
28.65860607563911
 20
11.62500028326656
 42
0.0
 10
27.78360607563911
 20
11.62500028326656
 42
0.4142135623730871
 10
27.52110607563912
 20
11.36250028326657
 42
0.0
 10
27.52110607563912
 20
4.975000283266549
 42
0.4142135623730926
 10
28.9211060756391
 20
3.575000283266561
 42
0.0
 10
30.6711060756391
 20
3.575000283266561
 42
0.4142135623731044
 10
32.07110607563913
 20
4.975000283266549
 42
0.0
 10
32.07110607563913
 20
11.36250028326656
 42
0.4142135623730951
 10
31.80860607563914
 20
11.62500028326656
 42
0.0
 10
30.93360607563909
 20
11.62500028326656
 42
0.4142135623730871
 10
30.6711060756391
 20
11.36250028326657
 42
0.0
 10
30.6711060756391
 20
5.500000283266547
 42
-0.414213562373088
 10
30.14610607563912
 20
4.97500028326656
 42
0.0
 10
29.44610607563913
 20
4.97500028326656
 42
-0.4142135623731197
 10
28.9211060756391
 20
5.500000283266547
 42
0.0
 97
        0
 92
        7
 72
     1
 73
     1
 93
        8
 10
34.52110607563912
 20
11.36250028326657
 42
0.4142135623730871
 10
34.25860607563913
 20
11.62500028326656
 42
0.0
 10
33.38360607563913
 20
11.62500028326656
 42
0.4142135623731507
 10
33.12110607563909
 20
11.36250028326657
 42
0.0
 10
33.12110607563909
 20
3.837500283266555
 42
0.4142135623730891
 10
33.38360607563908
 20
3.575000283266561
 42
0.0
 10
34.25860607563913
 20
3.575000283266561
 42
0.4142135623730891
 10
34.52110607563912
 20
3.837500283266555
 42
0.0
 97
        0
 75
     0
 76
     1
 52
0.0
 41
0.1
 77
     0
 78
     2
 53
45.0
 43
-450.4711521690909
 44
-6.599999716733407
 45
-0.2245064030267288
 46
0.2245064030267288
 79
     0
 53
135.0
 43
-450.4711521690909
 44
-6.599999716733407
 45
-0.2245064030267288
 46
-0.2245064030267288
 79
     0
 47
0.057451373970553
 98
        8
 10
8.039927479760194
 20
7.583587106209336
 10
11.20225750146812
 20
9.422031374492064
 10
12.58218394107837
 20
7.755941106301918
 10
15.45702998906711
 20
8.10064910648731
 10
20.91923600772691
 20
8.330455240258118
 10
23.44910044581331
 20
9.709288441470164
 10
28.27884298444871
 20
9.364579240814066
 10
33.91353980805991
 20
9.594385374584874
  0
ARC
  5
274E
330
1A
100
AcDbEntity
  8
ZUWAKU
100
AcDbCircle
 10
7.74610607563909
 20
9.317399270588911
 30
0.0
 40
2.099999999999999
100
AcDbArc
 50
180.0
 51
225.0
  0
LINE
  5
274F
330
1A
100
AcDbEntity
  8
ZUWAKU
100
AcDbLine
 10
10.37110607563909
 20
5.675000283266562
 30
0.0
 11
10.37110607563909
 21
9.525000283266539
 31
0.0
  0
LINE
  5
2750
330
1A
100
AcDbEntity
  8
ZUWAKU
100
AcDbLine
 10
11.77110607563912
 20
9.52500028326656
 30
0.0
 11
11.77110607563912
 21
5.675000283266562
 31
0.0
  0
ARC
  5
2751
330
1A
100
AcDbEntity
  8
ZUWAKU
100
AcDbCircle
 10
7.74610607563909
 20
9.317399270588911
 30
0.0
 40
0.7
100
AcDbArc
 50
180.0000000000016
 51
224.9999999999988
  0
ARC
  5
2752
330
1A
100
AcDbEntity
  8
ZUWAKU
100
AcDbCircle
 10
12.47110607563911
 20
5.675000283266562
 30
0.0
 40
2.099999999999999
100
AcDbArc
 50
180.0
 51
270.0
  0
ARC
  5
2753
330
1A
100
AcDbEntity
  8
ZUWAKU
100
AcDbCircle
 10
7.921106075639102
 20
4.97500028326656
 30
0.0
 40
1.399999999999999
100
AcDbArc
 50
270.0
 51
0.0
  0
ARC
  5
2754
330
1A
100
AcDbEntity
  8
ZUWAKU
100
AcDbCircle
 10
7.221106075639113
 20
5.882601295944212
 30
0.0
 40
2.099999999999999
100
AcDbArc
 50
0.0
 51
45.0
  0
LINE
  5
2755
330
1A
100
AcDbEntity
  8
ZUWAKU
100
AcDbLine
 10
6.26118183514734
 20
7.83247503009715
 30
0.0
 11
7.716080822469677
 21
6.377576042774819
 31
0.0
  0
LINE
  5
2756
330
1A
100
AcDbEntity
  8
ZUWAKU
100
AcDbLine
 10
6.171106075639102
 20
4.97500028326656
 30
0.0
 11
7.658606075639113
 21
4.97500028326656
 31
0.0
  0
LINE
  5
2757
330
1A
100
AcDbEntity
  8
ZUWAKU
100
AcDbLine
 10
6.171106075639102
 20
3.575000283266561
 30
0.0
 11
7.921106075639102
 21
3.575000283266561
 31
0.0
  0
ARC
  5
2758
330
1A
100
AcDbEntity
  8
ZUWAKU
100
AcDbCircle
 10
6.171106075639102
 20
4.71250028326656
 30
0.0
 40
0.2625
100
AcDbArc
 50
90.0
 51
180.0
  0
ARC
  5
2759
330
1A
100
AcDbEntity
  8
ZUWAKU
100
AcDbCircle
 10
6.171106075639102
 20
3.83750028326656
 30
0.0
 40
0.2625
100
AcDbArc
 50
180.0
 51
270.0
  0
LINE
  5
275A
330
1A
100
AcDbEntity
  8
ZUWAKU
100
AcDbLine
 10
5.908606075639113
 20
3.83750028326656
 30
0.0
 11
5.908606075639113
 21
4.71250028326656
 31
0.0
  0
ARC
  5
275B
330
1A
100
AcDbEntity
  8
ZUWAKU
100
AcDbCircle
 10
7.221106075639113
 20
5.882601295944233
 30
0.0
 40
0.7
100
AcDbArc
 50
0.0
 51
45.0
  0
ARC
  5
275C
330
1A
100
AcDbEntity
  8
ZUWAKU
100
AcDbCircle
 10
7.658606075639113
 20
5.237500283266562
 30
0.0
 40
0.2625
100
AcDbArc
 50
270.0
 51
0.0
  0
LINE
  5
275D
330
1A
100
AcDbEntity
  8
ZUWAKU
100
AcDbLine
 10
7.921106075639102
 20
5.237500283266562
 30
0.0
 11
7.921106075639102
 21
5.882601295944233
 31
0.0
  0
LINE
  5
275E
330
1A
100
AcDbEntity
  8
ZUWAKU
100
AcDbLine
 10
8.706030316130863
 20
7.367525536435973
 30
0.0
 11
7.251131328808526
 21
8.822424523758311
 31
0.0
  0
ARC
  5
275F
330
1A
100
AcDbEntity
  8
ZUWAKU
100
AcDbCircle
 10
12.47110607563911
 20
5.675000283266562
 30
0.0
 40
0.7
100
AcDbArc
 50
180.0
 51
270.0
  0
LINE
  5
2760
330
1A
100
AcDbEntity
  8
ZUWAKU
100
AcDbLine
 10
9.321106075639136
 20
4.97500028326656
 30
0.0
 11
9.321106075639136
 21
5.882601295944233
 31
0.0
  0
ARC
  5
2761
330
1A
100
AcDbEntity
  8
ZUWAKU
100
AcDbCircle
 10
8.796106075639102
 20
10.48750028326655
 30
0.0
 40
0.2625
100
AcDbArc
 50
270.0
 51
0.0
  0
ARC
  5
2762
330
1A
100
AcDbEntity
  8
ZUWAKU
100
AcDbCircle
 10
8.796106075639102
 20
11.36250028326655
 30
0.0
 40
0.2625
100
AcDbArc
 50
0.0
 51
90.0
  0
ARC
  5
2763
330
1A
100
AcDbEntity
  8
ZUWAKU
100
AcDbCircle
 10
7.046106075639102
 20
10.22500028326656
 30
0.0
 40
1.399999999999999
100
AcDbArc
 50
90.0
 51
180.0
  0
LINE
  5
2764
330
1A
100
AcDbEntity
  8
ZUWAKU
100
AcDbLine
 10
5.646106075639124
 20
10.22500028326656
 30
0.0
 11
5.646106075639124
 21
9.317399270588889
 31
0.0
  0
LINE
  5
2765
330
1A
100
AcDbEntity
  8
ZUWAKU
100
AcDbLine
 10
8.796106075639102
 20
10.22500028326656
 30
0.0
 11
7.30860607563909
 21
10.22500028326656
 31
0.0
  0
LINE
  5
2766
330
1A
100
AcDbEntity
  8
ZUWAKU
100
AcDbLine
 10
7.046106075639102
 20
9.96250028326656
 30
0.0
 11
7.046106075639102
 21
9.317399270588889
 31
0.0
  0
ARC
  5
2767
330
1A
100
AcDbEntity
  8
ZUWAKU
100
AcDbCircle
 10
7.30860607563909
 20
9.96250028326656
 30
0.0
 40
0.2625
100
AcDbArc
 50
90.0
 51
180.0
  0
LINE
  5
2768
330
1A
100
AcDbEntity
  8
ZUWAKU
100
AcDbLine
 10
7.046106075639102
 20
11.62500028326656
 30
0.0
 11
8.796106075639102
 21
11.62500028326656
 31
0.0
  0
ARC
  5
2769
330
1A
100
AcDbEntity
  8
ZUWAKU
100
AcDbCircle
 10
12.47110607563911
 20
9.525000283266539
 30
0.0
 40
2.099999999999999
100
AcDbArc
 50
90.0
 51
180.0
  0
ARC
  5
276A
330
1A
100
AcDbEntity
  8
ZUWAKU
100
AcDbCircle
 10
12.47110607563911
 20
9.52500028326656
 30
0.0
 40
0.7
100
AcDbArc
 50
90.0
 51
180.0
  0
LINE
  5
276B
330
1A
100
AcDbEntity
  8
ZUWAKU
100
AcDbLine
 10
9.05860607563909
 20
11.36250028326655
 30
0.0
 11
9.05860607563909
 21
10.48750028326655
 31
0.0
  0
LINE
  5
276C
330
1A
100
AcDbEntity
  8
ZUWAKU
100
AcDbLine
 10
17.83817354429703
 20
11.44154726735004
 30
0.0
 11
16.90403860698114
 21
8.483453299183075
 31
0.0
  0
LINE
  5
276D
330
1A
100
AcDbEntity
  8
ZUWAKU
100
AcDbLine
 10
14.9211060756391
 20
11.36250028326655
 30
0.0
 11
14.9211060756391
 21
3.83750028326656
 31
0.0
  0
LINE
  5
276E
330
1A
100
AcDbEntity
  8
ZUWAKU
100
AcDbLine
 10
16.32110607563913
 20
8.562500283266562
 30
0.0
 11
16.32110607563913
 21
11.36250028326655
 31
0.0
  0
LINE
  5
276F
330
1A
100
AcDbEntity
  8
ZUWAKU
100
AcDbLine
 10
28.9211060756391
 20
5.500000283266558
 30
0.0
 11
28.9211060756391
 21
11.36250028326655
 31
0.0
  0
LINE
  5
2770
330
1A
100
AcDbEntity
  8
ZUWAKU
100
AcDbLine
 10
27.52110607563912
 20
11.36250028326655
 30
0.0
 11
27.52110607563912
 21
4.97500028326656
 31
0.0
  0
LINE
  5
2771
330
1A
100
AcDbEntity
  8
ZUWAKU
100
AcDbLine
 10
21.74610607563909
 20
3.83750028326656
 30
0.0
 11
21.74610607563909
 21
11.36250028326655
 31
0.0
  0
LINE
  5
2772
330
1A
100
AcDbEntity
  8
ZUWAKU
100
AcDbLine
 10
20.34610607563911
 20
11.36250028326655
 30
0.0
 11
20.34610607563911
 21
3.83750028326656
 31
0.0
  0
LINE
  5
2773
330
1A
100
AcDbEntity
  8
ZUWAKU
100
AcDbLine
 10
18.6574293167281
 20
9.602523880048273
 30
0.0
 11
18.02505344406017
 21
7.60000028326657
 31
0.0
  0
ARC
  5
2774
330
1A
100
AcDbEntity
  8
ZUWAKU
100
AcDbCircle
 10
24.89610607563912
 20
9.317399270588911
 30
0.0
 40
2.099999999999999
100
AcDbArc
 50
180.0
 51
225.0
  0
ARC
  5
2775
330
1A
100
AcDbEntity
  8
ZUWAKU
100
AcDbCircle
 10
24.89610607563912
 20
9.317399270588911
 30
0.0
 40
0.7
100
AcDbArc
 50
180.0000000000016
 51
224.9999999999988
  0
LINE
  5
2776
330
1A
100
AcDbEntity
  8
ZUWAKU
100
AcDbLine
 10
33.12110607563909
 20
11.36250028326655
 30
0.0
 11
33.12110607563909
 21
3.83750028326656
 31
0.0
  0
LINE
  5
2777
330
1A
100
AcDbEntity
  8
ZUWAKU
100
AcDbLine
 10
34.52110607563912
 20
3.83750028326656
 30
0.0
 11
34.52110607563912
 21
11.36250028326655
 31
0.0
  0
LINE
  5
2778
330
1A
100
AcDbEntity
  8
ZUWAKU
100
AcDbLine
 10
30.6711060756391
 20
11.36250028326655
 30
0.0
 11
30.6711060756391
 21
5.500000283266558
 31
0.0
  0
LINE
  5
2779
330
1A
100
AcDbEntity
  8
ZUWAKU
100
AcDbLine
 10
32.07110607563913
 20
4.97500028326656
 30
0.0
 11
32.07110607563913
 21
11.36250028326655
 31
0.0
  0
LINE
  5
277A
330
1A
100
AcDbEntity
  8
ZUWAKU
100
AcDbLine
 10
39.56331477224273
 20
15.00000028326655
 30
0.0
 11
39.56331477224273
 21
0.4000002832665928
 31
0.0
  0
LINE
  5
277B
330
1A
100
AcDbEntity
  8
ZUWAKU
100
AcDbLine
 10
39.76331477224266
 20
15.00000028326655
 30
0.0
 11
39.76331477224277
 21
0.4000002832665928
 31
0.0
  0
LINE
  5
277C
330
1A
100
AcDbEntity
  8
ZUWAKU
100
AcDbLine
 10
39.66331477224264
 20
15.00000028326655
 30
0.0
 11
39.66331477224276
 21
0.4000002832665928
 31
0.0
  0
LINE
  5
277D
330
1A
100
AcDbEntity
  8
ZUWAKU
100
AcDbLine
 10
28.9211060756391
 20
3.575000283266561
 30
0.0
 11
30.6711060756391
 21
3.575000283266561
 31
0.0
  0
LINE
  5
277E
330
1A
100
AcDbEntity
  8
ZUWAKU
100
AcDbLine
 10
30.14610607563912
 20
4.97500028326656
 30
0.0
 11
29.44610607563913
 21
4.97500028326656
 31
0.0
  0
LINE
  5
277F
330
1A
100
AcDbEntity
  8
ZUWAKU
100
AcDbLine
 10
20.6086060756391
 20
3.575000283266561
 30
0.0
 11
21.4836060756391
 21
3.575000283266561
 31
0.0
  0
LINE
  5
2780
330
1A
100
AcDbEntity
  8
ZUWAKU
100
AcDbLine
 10
17.83817354429703
 20
3.758453299183074
 30
0.0
 11
16.90403860698114
 21
6.716547267350044
 31
0.0
  0
ARC
  5
2781
330
1A
100
AcDbEntity
  8
ZUWAKU
100
AcDbCircle
 10
16.58360607563912
 20
6.637500283266561
 30
0.0
 40
0.2625
100
AcDbArc
 50
90.0
 51
180.0
  0
ARC
  5
2782
330
1A
100
AcDbEntity
  8
ZUWAKU
100
AcDbCircle
 10
16.65372315738346
 20
6.637500283266561
 30
0.0
 40
0.2625
100
AcDbArc
 50
17.52556837372303
 51
90.0
  0
ARC
  5
2783
330
1A
100
AcDbEntity
  8
ZUWAKU
100
AcDbCircle
 10
15.18360607563909
 20
3.83750028326656
 30
0.0
 40
0.2625
100
AcDbArc
 50
180.0
 51
270.0
  0
ARC
  5
2784
330
1A
100
AcDbEntity
  8
ZUWAKU
100
AcDbCircle
 10
13.43360607563909
 20
4.71250028326656
 30
0.0
 40
0.2625
100
AcDbArc
 50
0.0
 51
90.0
  0
ARC
  5
2785
330
1A
100
AcDbEntity
  8
ZUWAKU
100
AcDbCircle
 10
13.43360607563909
 20
3.83750028326656
 30
0.0
 40
0.2625
100
AcDbArc
 50
270.0
 51
0.0
  0
LINE
  5
2786
330
1A
100
AcDbEntity
  8
ZUWAKU
100
AcDbLine
 10
13.69610607563913
 20
4.71250028326656
 30
0.0
 11
13.69610607563913
 21
3.83750028326656
 31
0.0
  0
LINE
  5
2787
330
1A
100
AcDbEntity
  8
ZUWAKU
100
AcDbLine
 10
16.32110607563913
 20
3.83750028326656
 30
0.0
 11
16.32110607563913
 21
6.637500283266561
 31
0.0
  0
ARC
  5
2788
330
1A
100
AcDbEntity
  8
ZUWAKU
100
AcDbCircle
 10
16.05860607563909
 20
3.83750028326656
 30
0.0
 40
0.2625
100
AcDbArc
 50
270.0
 51
0.0
  0
LINE
  5
2789
330
1A
100
AcDbEntity
  8
ZUWAKU
100
AcDbLine
 10
15.18360607563909
 20
3.575000283266561
 30
0.0
 11
16.05860607563909
 21
3.575000283266561
 31
0.0
  0
ARC
  5
278A
330
1A
100
AcDbEntity
  8
ZUWAKU
100
AcDbCircle
 10
16.58360607563912
 20
8.562500283266562
 30
0.0
 40
0.2625
100
AcDbArc
 50
180.0
 51
270.0
  0
LINE
  5
278B
330
1A
100
AcDbEntity
  8
ZUWAKU
100
AcDbLine
 10
16.58360607563912
 20
6.90000028326656
 30
0.0
 11
16.65372315738346
 21
6.90000028326656
 31
0.0
  0
LINE
  5
278C
330
1A
100
AcDbEntity
  8
ZUWAKU
100
AcDbLine
 10
16.65372315738346
 20
8.300000283266559
 30
0.0
 11
16.58360607563912
 21
8.300000283266559
 31
0.0
  0
ARC
  5
278D
330
1A
100
AcDbEntity
  8
ZUWAKU
100
AcDbCircle
 10
16.65372315738346
 20
8.562500283266562
 30
0.0
 40
0.2625
100
AcDbArc
 50
270.0
 51
342.4744316262769
  0
ARC
  5
278E
330
1A
100
AcDbEntity
  8
ZUWAKU
100
AcDbCircle
 10
18.08848899389477
 20
3.83750028326656
 30
0.0
 40
0.2625
100
AcDbArc
 50
197.525568373723
 51
270.0
  0
LINE
  5
278F
330
1A
100
AcDbEntity
  8
ZUWAKU
100
AcDbLine
 10
19.188249133297
 20
3.916547267350047
 30
0.0
 11
18.02505344406017
 21
7.60000028326657
 31
0.0
  0
ARC
  5
2790
330
1A
100
AcDbEntity
  8
ZUWAKU
100
AcDbCircle
 10
18.93793368369927
 20
3.83750028326656
 30
0.0
 40
0.2625
100
AcDbArc
 50
270.0
 51
17.52556837372303
  0
LINE
  5
2791
330
1A
100
AcDbEntity
  8
ZUWAKU
100
AcDbLine
 10
18.08848899389477
 20
3.575000283266561
 30
0.0
 11
18.93793368369927
 21
3.575000283266561
 31
0.0
  0
ARC
  5
2792
330
1A
100
AcDbEntity
  8
ZUWAKU
100
AcDbCircle
 10
20.6086060756391
 20
3.83750028326656
 30
0.0
 40
0.2625
100
AcDbArc
 50
180.0
 51
270.0
  0
ARC
  5
2793
330
1A
100
AcDbEntity
  8
ZUWAKU
100
AcDbCircle
 10
25.07110607563913
 20
4.97500028326656
 30
0.0
 40
1.399999999999999
100
AcDbArc
 50
270.0
 51
0.0
  0
ARC
  5
2794
330
1A
100
AcDbEntity
  8
ZUWAKU
100
AcDbCircle
 10
28.9211060756391
 20
4.97500028326656
 30
0.0
 40
1.399999999999999
100
AcDbArc
 50
180.0
 51
270.0
  0
LINE
  5
2795
330
1A
100
AcDbEntity
  8
ZUWAKU
100
AcDbLine
 10
25.85603031613089
 20
7.367525536435973
 30
0.0
 11
24.4011313288085
 21
8.822424523758311
 31
0.0
  0
LINE
  5
2796
330
1A
100
AcDbEntity
  8
ZUWAKU
100
AcDbLine
 10
23.41118183514737
 20
7.83247503009715
 30
0.0
 11
24.86608082246971
 21
6.377576042774819
 31
0.0
  0
LINE
  5
2797
330
1A
100
AcDbEntity
  8
ZUWAKU
100
AcDbLine
 10
23.32110607563913
 20
3.575000283266561
 30
0.0
 11
25.07110607563913
 21
3.575000283266561
 31
0.0
  0
LINE
  5
2798
330
1A
100
AcDbEntity
  8
ZUWAKU
100
AcDbLine
 10
23.32110607563913
 20
4.97500028326656
 30
0.0
 11
24.80860607563909
 21
4.97500028326656
 31
0.0
  0
ARC
  5
2799
330
1A
100
AcDbEntity
  8
ZUWAKU
100
AcDbCircle
 10
23.32110607563913
 20
4.71250028326656
 30
0.0
 40
0.2625
100
AcDbArc
 50
90.0
 51
180.0
  0
ARC
  5
279A
330
1A
100
AcDbEntity
  8
ZUWAKU
100
AcDbCircle
 10
21.4836060756391
 20
3.83750028326656
 30
0.0
 40
0.2625
100
AcDbArc
 50
270.0
 51
0.0
  0
ARC
  5
279B
330
1A
100
AcDbEntity
  8
ZUWAKU
100
AcDbCircle
 10
23.32110607563913
 20
3.83750028326656
 30
0.0
 40
0.2625
100
AcDbArc
 50
180.0
 51
270.0
  0
LINE
  5
279C
330
1A
100
AcDbEntity
  8
ZUWAKU
100
AcDbLine
 10
23.05860607563908
 20
3.83750028326656
 30
0.0
 11
23.05860607563908
 21
4.71250028326656
 31
0.0
  0
ARC
  5
279D
330
1A
100
AcDbEntity
  8
ZUWAKU
100
AcDbCircle
 10
24.80860607563909
 20
5.237500283266562
 30
0.0
 40
0.2625
100
AcDbArc
 50
270.0
 51
0.0
  0
ARC
  5
279E
330
1A
100
AcDbEntity
  8
ZUWAKU
100
AcDbCircle
 10
24.37110607563909
 20
5.882601295944233
 30
0.0
 40
0.7
100
AcDbArc
 50
0.0
 51
45.0
  0
LINE
  5
279F
330
1A
100
AcDbEntity
  8
ZUWAKU
100
AcDbLine
 10
25.07110607563913
 20
5.237500283266562
 30
0.0
 11
25.07110607563913
 21
5.882601295944233
 31
0.0
  0
ARC
  5
27A0
330
1A
100
AcDbEntity
  8
ZUWAKU
100
AcDbCircle
 10
29.44610607563913
 20
5.500000283266558
 30
0.0
 40
0.525
100
AcDbArc
 50
180.0
 51
270.0
  0
ARC
  5
27A1
330
1A
100
AcDbEntity
  8
ZUWAKU
100
AcDbCircle
 10
24.37110607563909
 20
5.882601295944212
 30
0.0
 40
2.099999999999999
100
AcDbArc
 50
0.0
 51
45.0
  0
LINE
  5
27A2
330
1A
100
AcDbEntity
  8
ZUWAKU
100
AcDbLine
 10
26.47110607563911
 20
4.97500028326656
 30
0.0
 11
26.47110607563911
 21
5.882601295944233
 31
0.0
  0
ARC
  5
27A3
330
1A
100
AcDbEntity
  8
ZUWAKU
100
AcDbCircle
 10
30.6711060756391
 20
4.97500028326656
 30
0.0
 40
1.399999999999999
100
AcDbArc
 50
270.0
 51
0.0
  0
LINE
  5
27A4
330
1A
100
AcDbEntity
  8
ZUWAKU
100
AcDbLine
 10
33.38360607563913
 20
3.575000283266561
 30
0.0
 11
34.25860607563913
 21
3.575000283266561
 31
0.0
  0
ARC
  5
27A5
330
1A
100
AcDbEntity
  8
ZUWAKU
100
AcDbCircle
 10
30.14610607563912
 20
5.500000283266558
 30
0.0
 40
0.525
100
AcDbArc
 50
270.0
 51
0.0
  0
ARC
  5
27A6
330
1A
100
AcDbEntity
  8
ZUWAKU
100
AcDbCircle
 10
33.38360607563913
 20
3.83750028326656
 30
0.0
 40
0.2625
100
AcDbArc
 50
180.0
 51
270.0
  0
ARC
  5
27A7
330
1A
100
AcDbEntity
  8
ZUWAKU
100
AcDbCircle
 10
34.25860607563913
 20
3.83750028326656
 30
0.0
 40
0.2625
100
AcDbArc
 50
270.0
 51
0.0
  0
LINE
  5
27A8
330
1A
100
AcDbEntity
  8
ZUWAKU
100
AcDbLine
 10
21.4836060756391
 20
11.62500028326656
 30
0.0
 11
20.6086060756391
 21
11.62500028326656
 31
0.0
  0
LINE
  5
27A9
330
1A
100
AcDbEntity
  8
ZUWAKU
100
AcDbLine
 10
13.69610607563913
 20
11.36250028326655
 30
0.0
 11
13.69610607563913
 21
10.48750028326655
 31
0.0
  0
ARC
  5
27AA
330
1A
100
AcDbEntity
  8
ZUWAKU
100
AcDbCircle
 10
13.43360607563909
 20
10.48750028326655
 30
0.0
 40
0.2625
100
AcDbArc
 50
270.0
 51
0.0
  0
ARC
  5
27AB
330
1A
100
AcDbEntity
  8
ZUWAKU
100
AcDbCircle
 10
15.18360607563909
 20
11.36250028326655
 30
0.0
 40
0.2625
100
AcDbArc
 50
90.0
 51
180.0
  0
ARC
  5
27AC
330
1A
100
AcDbEntity
  8
ZUWAKU
100
AcDbCircle
 10
13.43360607563909
 20
11.36250028326655
 30
0.0
 40
0.2625
100
AcDbArc
 50
0.0
 51
90.0
  0
LINE
  5
27AD
330
1A
100
AcDbEntity
  8
ZUWAKU
100
AcDbLine
 10
16.05860607563909
 20
11.62500028326656
 30
0.0
 11
15.18360607563909
 21
11.62500028326656
 31
0.0
  0
ARC
  5
27AE
330
1A
100
AcDbEntity
  8
ZUWAKU
100
AcDbCircle
 10
16.05860607563909
 20
11.36250028326655
 30
0.0
 40
0.2625
100
AcDbArc
 50
0.0
 51
90.0
  0
ARC
  5
27AF
330
1A
100
AcDbEntity
  8
ZUWAKU
100
AcDbCircle
 10
18.08848899389477
 20
11.36250028326655
 30
0.0
 40
0.2625
100
AcDbArc
 50
90.0
 51
162.4744316262769
  0
LINE
  5
27B0
330
1A
100
AcDbEntity
  8
ZUWAKU
100
AcDbLine
 10
19.188249133297
 20
11.28345329918307
 30
0.0
 11
18.6574293167281
 21
9.602523880048273
 31
0.0
  0
ARC
  5
27B1
330
1A
100
AcDbEntity
  8
ZUWAKU
100
AcDbCircle
 10
18.93793368369927
 20
11.36250028326655
 30
0.0
 40
0.2625
100
AcDbArc
 50
342.4744316262769
 51
90.0
  0
LINE
  5
27B2
330
1A
100
AcDbEntity
  8
ZUWAKU
100
AcDbLine
 10
18.08848899389477
 20
11.62500028326656
 30
0.0
 11
18.93793368369927
 21
11.62500028326656
 31
0.0
  0
ARC
  5
27B3
330
1A
100
AcDbEntity
  8
ZUWAKU
100
AcDbCircle
 10
20.6086060756391
 20
11.36250028326655
 30
0.0
 40
0.2625
100
AcDbArc
 50
90.0
 51
180.0
  0
LINE
  5
27B4
330
1A
100
AcDbEntity
  8
ZUWAKU
100
AcDbLine
 10
25.94610607563913
 20
10.22500028326656
 30
0.0
 11
24.45860607563912
 21
10.22500028326656
 31
0.0
  0
LINE
  5
27B5
330
1A
100
AcDbEntity
  8
ZUWAKU
100
AcDbLine
 10
24.19610607563913
 20
11.62500028326656
 30
0.0
 11
25.94610607563913
 21
11.62500028326656
 31
0.0
  0
ARC
  5
27B6
330
1A
100
AcDbEntity
  8
ZUWAKU
100
AcDbCircle
 10
24.19610607563913
 20
10.22500028326656
 30
0.0
 40
1.399999999999999
100
AcDbArc
 50
90.0
 51
180.0
  0
LINE
  5
27B7
330
1A
100
AcDbEntity
  8
ZUWAKU
100
AcDbLine
 10
22.7961060756391
 20
10.22500028326656
 30
0.0
 11
22.7961060756391
 21
9.317399270588889
 31
0.0
  0
ARC
  5
27B8
330
1A
100
AcDbEntity
  8
ZUWAKU
100
AcDbCircle
 10
21.4836060756391
 20
11.36250028326655
 30
0.0
 40
0.2625
100
AcDbArc
 50
0.0
 51
90.0
  0
LINE
  5
27B9
330
1A
100
AcDbEntity
  8
ZUWAKU
100
AcDbLine
 10
24.19610607563913
 20
9.96250028326656
 30
0.0
 11
24.19610607563913
 21
9.317399270588889
 31
0.0
  0
ARC
  5
27BA
330
1A
100
AcDbEntity
  8
ZUWAKU
100
AcDbCircle
 10
24.45860607563912
 20
9.96250028326656
 30
0.0
 40
0.2625
100
AcDbArc
 50
90.0
 51
180.0
  0
LINE
  5
27BB
330
1A
100
AcDbEntity
  8
ZUWAKU
100
AcDbLine
 10
26.20860607563912
 20
11.36250028326655
 30
0.0
 11
26.20860607563912
 21
10.48750028326655
 31
0.0
  0
ARC
  5
27BC
330
1A
100
AcDbEntity
  8
ZUWAKU
100
AcDbCircle
 10
25.94610607563913
 20
10.48750028326655
 30
0.0
 40
0.2625
100
AcDbArc
 50
270.0
 51
0.0
  0
ARC
  5
27BD
330
1A
100
AcDbEntity
  8
ZUWAKU
100
AcDbCircle
 10
25.94610607563913
 20
11.36250028326655
 30
0.0
 40
0.2625
100
AcDbArc
 50
0.0
 51
90.0
  0
LINE
  5
27BE
330
1A
100
AcDbEntity
  8
ZUWAKU
100
AcDbLine
 10
28.65860607563911
 20
11.62500028326656
 30
0.0
 11
27.78360607563911
 21
11.62500028326656
 31
0.0
  0
ARC
  5
27BF
330
1A
100
AcDbEntity
  8
ZUWAKU
100
AcDbCircle
 10
27.78360607563911
 20
11.36250028326655
 30
0.0
 40
0.2625
100
AcDbArc
 50
90.0
 51
180.0
  0
ARC
  5
27C0
330
1A
100
AcDbEntity
  8
ZUWAKU
100
AcDbCircle
 10
28.65860607563911
 20
11.36250028326655
 30
0.0
 40
0.2625
100
AcDbArc
 50
0.0
 51
90.0
  0
LINE
  5
27C1
330
1A
100
AcDbEntity
  8
ZUWAKU
100
AcDbLine
 10
34.25860607563913
 20
11.62500028326656
 30
0.0
 11
33.38360607563913
 21
11.62500028326656
 31
0.0
  0
ARC
  5
27C2
330
1A
100
AcDbEntity
  8
ZUWAKU
100
AcDbCircle
 10
30.93360607563909
 20
11.36250028326655
 30
0.0
 40
0.2625
100
AcDbArc
 50
90.0
 51
180.0
  0
LINE
  5
27C3
330
1A
100
AcDbEntity
  8
ZUWAKU
100
AcDbLine
 10
31.80860607563909
 20
11.62500028326656
 30
0.0
 11
30.93360607563909
 21
11.62500028326656
 31
0.0
  0
ARC
  5
27C4
330
1A
100
AcDbEntity
  8
ZUWAKU
100
AcDbCircle
 10
31.80860607563909
 20
11.36250028326655
 30
0.0
 40
0.2625
100
AcDbArc
 50
0.0
 51
90.0
  0
ARC
  5
27C5
330
1A
100
AcDbEntity
  8
ZUWAKU
100
AcDbCircle
 10
33.38360607563913
 20
11.36250028326655
 30
0.0
 40
0.2625
100
AcDbArc
 50
90.0
 51
180.0
  0
ARC
  5
27C6
330
1A
100
AcDbEntity
  8
ZUWAKU
100
AcDbCircle
 10
34.25860607563913
 20
11.36250028326655
 30
0.0
 40
0.2625
100
AcDbArc
 50
0.0
 51
90.0
  0
TEXT
  5
27C7
330
1A
100
AcDbEntity
  8
MOJI
100
AcDbText
 10
119.913601338674
 20
1.602460811970269
 30
0.0
 40
2.799999999999999
  1
ＲＶ１０５－０－２０
 41
0.9
  7
ｽﾀｲﾙ1
100
AcDbText
  0
TEXT
  5
27C8
330
1A
100
AcDbEntity
  8
MOJI
100
AcDbText
 10
119.913601338674
 20
9.002460811970252
 30
0.0
 40
2.799999999999999
  1
亜鉛メッキ金具正面打（受）ストロング高強度金具角使い
 41
0.9
  7
ｽﾀｲﾙ1
100
AcDbText
  0
LINE
  5
27C9
330
1A
100
AcDbEntity
  8
ZUWAKU
100
AcDbLine
 10
104.2233006432824
 20
15.00000028326655
 30
0.0
 11
104.2233006432825
 21
0.4000002832665928
 31
0.0
  0
LINE
  5
27CA
330
1A
100
AcDbEntity
  8
ZUWAKU
100
AcDbLine
 10
104.3233006432824
 20
15.00000028326655
 30
0.0
 11
104.3233006432825
 21
0.4000002832665928
 31
0.0
  0
LINE
  5
27CB
330
1A
100
AcDbEntity
  8
ZUWAKU
100
AcDbLine
 10
104.1233006432825
 20
15.00000028326655
 30
0.0
 11
104.1233006432825
 21
0.4000002832665928
 31
0.0
  0
TEXT
  5
27CC
330
1A
100
AcDbEntity
  8
ZUWAKU
100
AcDbText
 10
104.8620231543873
 20
4.827678552459367
 30
0.0
 40
2.0
  1
サイズ
 41
0.9
  7
ｽﾀｲﾙ1
100
AcDbText
  0
TEXT
  5
27CD
330
1A
100
AcDbEntity
  8
ZUWAKU
100
AcDbText
 10
104.8620231543871
 20
12.02767855245935
 30
0.0
 40
2.0
  1
品名
 41
0.9
  7
ｽﾀｲﾙ1
100
AcDbText
  0
TEXT
  5
27CE
330
1A
100
AcDbEntity
  8
ZUWAKU
100
AcDbText
 10
329.1019688418997
 20
9.002460811970252
 30
0.0
 40
2.799999999999999
  1
　　．　　．　　
 41
0.9
  7
ｽﾀｲﾙ1
100
AcDbText
  0
LINE
  5
27CF
330
1A
100
AcDbEntity
  8
ZUWAKU
100
AcDbLine
 10
324.4086012533506
 20
7.800000283266575
 30
0.0
 11
348.6245052725191
 21
7.800000283266575
 31
0.0
  0
LINE
  5
27D0
330
1A
100
AcDbEntity
  8
ZUWAKU
100
AcDbLine
 10
324.4086012533507
 20
7.700000283266577
 30
0.0
 11
348.6245052725191
 21
7.700000283266575
 31
0.0
  0
LINE
  5
27D1
330
1A
100
AcDbEntity
  8
ZUWAKU
100
AcDbLine
 10
324.4086012533506
 20
7.600000283266574
 30
0.0
 11
348.6245052725191
 21
7.600000283266576
 31
0.0
  0
LINE
  5
27D2
330
1A
100
AcDbEntity
  8
ZUWAKU
100
AcDbLine
 10
252.5995897473189
 20
7.800000283266575
 30
0.0
 11
276.2634778813047
 21
7.800000283266575
 31
0.0
  0
LINE
  5
27D3
330
1A
100
AcDbEntity
  8
ZUWAKU
100
AcDbLine
 10
252.5995897473189
 20
7.700000283266575
 30
0.0
 11
276.2634778813047
 21
7.700000283266575
 31
0.0
  0
LINE
  5
27D4
330
1A
100
AcDbEntity
  8
ZUWAKU
100
AcDbLine
 10
252.5995897473189
 20
7.600000283266577
 30
0.0
 11
276.2634778813047
 21
7.600000283266577
 31
0.0
  0
LINE
  5
27D5
330
1A
100
AcDbEntity
  8
ZUWAKU
100
AcDbLine
 10
252.399589747319
 20
15.00000028326655
 30
0.0
 11
252.399589747319
 21
0.4000002832665928
 31
0.0
  0
LINE
  5
27D6
330
1A
100
AcDbEntity
  8
ZUWAKU
100
AcDbLine
 10
252.5995897473189
 20
15.00000028326655
 30
0.0
 11
252.599589747319
 21
0.4000002832665928
 31
0.0
  0
LINE
  5
27D7
330
1A
100
AcDbEntity
  8
ZUWAKU
100
AcDbLine
 10
252.4995897473189
 20
15.00000028326655
 30
0.0
 11
252.499589747319
 21
0.4000002832665928
 31
0.0
  0
TEXT
  5
27D8
330
1A
100
AcDbEntity
  8
MOJI
100
AcDbText
 10
264.0204539844049
 20
9.002460811970252
 30
0.0
 40
2.799999999999999
  1
Ａ３
 41
0.9
  7
ｽﾀｲﾙ1
100
AcDbText
  0
LINE
  5
27D9
330
1A
100
AcDbEntity
  8
ZUWAKU
100
AcDbLine
 10
223.7121819837442
 20
15.00000028326655
 30
0.0
 11
223.7121819837442
 21
0.4000002832665928
 31
0.0
  0
LINE
  5
27DA
330
1A
100
AcDbEntity
  8
ZUWAKU
100
AcDbLine
 10
223.9121819837441
 20
15.00000028326655
 30
0.0
 11
223.9121819837442
 21
0.4000002832665928
 31
0.0
  0
LINE
  5
27DB
330
1A
100
AcDbEntity
  8
ZUWAKU
100
AcDbLine
 10
223.8121819837441
 20
15.00000028326655
 30
0.0
 11
223.8121819837442
 21
0.4000002832665928
 31
0.0
  0
TEXT
  5
27DC
330
1A
100
AcDbEntity
  8
MOJI
100
AcDbText
 10
231.2836391592428
 20
5.971309144096551
 30
0.0
 40
2.799999999999999
  1
ＬＬ２７Ｇ
 41
0.9
  7
ｽﾀｲﾙ1
100
AcDbText
  0
TEXT
  5
27DD
330
1A
100
AcDbEntity
  8
ZUWAKU
100
AcDbText
 10
253.3383122584239
 20
4.827678552459367
 30
0.0
 40
2.0
  1
縮尺
 41
0.9
  7
ｽﾀｲﾙ1
100
AcDbText
  0
TEXT
  5
27DE
330
1A
100
AcDbEntity
  8
MOJI
100
AcDbText
 10
264.0204539844049
 20
1.602460811970269
 30
0.0
 40
2.799999999999999
  1
１/１
 41
0.9
  7
ｽﾀｲﾙ1
100
AcDbText
  0
TEXT
  5
27DF
330
1A
100
AcDbEntity
  8
ZUWAKU
100
AcDbText
 10
224.6509044948489
 20
12.02767855245935
 30
0.0
 40
2.0
  1
品番
 41
0.9
  7
ｽﾀｲﾙ1
100
AcDbText
  0
TEXT
  5
27E0
330
1A
100
AcDbEntity
  8
ZUWAKU
100
AcDbText
 10
253.3383122584238
 20
12.02767855245935
 30
0.0
 40
2.0
  1
用紙
 41
0.9
  7
ｽﾀｲﾙ1
100
AcDbText
  0
LINE
  5
27E1
330
1A
100
AcDbEntity
  8
ZUWAKU
100
AcDbLine
 10
276.2634778813047
 20
15.00000028326655
 30
0.0
 11
276.2634778813047
 21
0.4000002832665928
 31
0.0
  0
LINE
  5
27E2
330
1A
100
AcDbEntity
  8
ZUWAKU
100
AcDbLine
 10
276.4634778813046
 20
15.00000028326655
 30
0.0
 11
276.4634778813048
 21
0.4000002832665928
 31
0.0
  0
LINE
  5
27E3
330
1A
100
AcDbEntity
  8
ZUWAKU
100
AcDbLine
 10
276.3634778813046
 20
15.00000028326655
 30
0.0
 11
276.3634778813047
 21
0.4000002832665928
 31
0.0
  0
LINE
  5
27E4
330
1A
100
AcDbEntity
  8
ZUWAKU
100
AcDbLine
 10
324.2086012533508
 20
15.00000028326655
 30
0.0
 11
324.2086012533508
 21
0.4000002832665928
 31
0.0
  0
LINE
  5
27E5
330
1A
100
AcDbEntity
  8
ZUWAKU
100
AcDbLine
 10
324.4086012533507
 20
15.00000028326655
 30
0.0
 11
324.4086012533508
 21
0.4000002832665928
 31
0.0
  0
LINE
  5
27E6
330
1A
100
AcDbEntity
  8
ZUWAKU
100
AcDbLine
 10
324.3086012533507
 20
15.00000028326655
 30
0.0
 11
324.3086012533508
 21
0.4000002832665928
 31
0.0
  0
TEXT
  5
27E7
330
1A
100
AcDbEntity
  8
ZUWAKU
100
AcDbText
 10
325.1473237644555
 20
12.02767855245935
 30
0.0
 40
2.0
  1
DATE
 41
0.9
  7
ｽﾀｲﾙ1
100
AcDbText
  0
TEXT
  5
27E8
330
1A
100
AcDbEntity
  8
ZUWAKU
100
AcDbText
 10
354.2640420943704
 20
8.77691995110996
 30
0.0
 40
3.0
  1
積水化学工業株式会社
 41
0.9
  7
ｽﾀｲﾙ1
100
AcDbText
  0
LINE
  5
27E9
330
1A
100
AcDbEntity
  8
ZUWAKU
100
AcDbLine
 10
348.9245052725191
 20
15.00000028326655
 30
0.0
 11
348.9245052725192
 21
0.4000002832665928
 31
0.0
  0
LINE
  5
27EA
330
1A
100
AcDbEntity
  8
ZUWAKU
100
AcDbLine
 10
348.824505272519
 20
15.00000028326655
 30
0.0
 11
348.8245052725192
 21
0.4000002832665928
 31
0.0
  0
LINE
  5
27EB
330
1A
100
AcDbEntity
  8
ZUWAKU
100
AcDbLine
 10
348.7245052725191
 20
15.00000028326655
 30
0.0
 11
348.7245052725191
 21
0.4000002832665928
 31
0.0
  0
LINE
  5
27EC
330
1A
100
AcDbEntity
  8
ZUWAKU
100
AcDbLine
 10
348.6245052725191
 20
15.00000028326655
 30
0.0
 11
348.6245052725191
 21
0.4000002832665928
 31
0.0
  0
TEXT
  5
27ED
330
1A
100
AcDbEntity
  8
ZUWAKU
100
AcDbText
 10
354.2640420943704
 20
3.324420440193591
 30
0.0
 40
3.0
  1
建材事業部
 41
0.9
  7
ｽﾀｲﾙ1
100
AcDbText
  0
VIEWPORT
  5
22
330
17
100
AcDbEntity
 67
     1
  8
0
100
AcDbViewport
 10
313.6808219178082
 20
148.5
 30
0.0
 40
627.3616438356165
 41
297.0
 68
     2
 69
     1
1001
ACAD
1000
MVIEW
1002
{
1070
    16
1010
0.0
1020
0.0
1030
0.0
1010
0.0
1020
0.0
1030
1.0
1040
0.0
1040
297.0
1040
313.6808219178082
1040
148.5
1040
50.0
1040
0.0
1040
0.0
1070
     0
1070
   100
1070
     1
1070
     0
1070
     0
1070
     0
1070
     0
1070
     0
1040
0.0
1040
0.0
1040
0.0
1040
1.0
1040
1.0
1040
10.0
1040
10.0
1070
     0
1002
{
1002
}
1002
}
  0
VIEWPORT
  5
64
330
17
100
AcDbEntity
 67
     1
  8
VIEWPORT
100
AcDbViewport
 10
210.0
 20
148.5
 30
0.0
 40
420.0
 41
297.0
 68
     1
 69
     2
1001
ACAD
1000
MVIEW
1002
{
1070
    16
1010
0.0
1020
0.0
1030
0.0
1010
0.0
1020
0.0
1030
1.0
1040
0.0
1040
302.9399999999998
1040
210.0
1040
148.5
1040
50.0
1040
0.0
1040
0.0
1070
     0
1070
   100
1070
     1
1070
     0
1070
     0
1070
     0
1070
     0
1070
     0
1040
0.0
1040
0.0
1040
0.0
1040
5.0
1040
5.0
1040
0.0
1040
0.0
1070
     0
1002
{
1002
}
1002
}
  0
ENDSEC
  0
SECTION
  2
OBJECTS
  0
DICTIONARY
  5
C
330
0
100
AcDbDictionary
  3
ACAD_GROUP
350
D
  3
ACAD_LAYOUT
350
141
  3
ACAD_MLINESTYLE
350
E
  3
ACAD_PLOTSETTINGS
350
142
  3
ACAD_PLOTSTYLENAME
350
24D1
  3
ACDBHEADERROUNDTRIPXREC
350
2858
1001
ACAD
1000
TREAT_AS_HARD
1070
     0
  0
DICTIONARY
  5
73C
330
1A
100
AcDbDictionary
280
     1
  3
ACAD_LAYOUTSELFREF
360
287A
1001
ACAD
1000
TREAT_AS_HARD
1070
     1
  0
DICTIONARY
  5
73A
330
17
100
AcDbDictionary
280
     1
  3
ACAD_LAYOUTSELFREF
360
2879
1001
ACAD
1000
TREAT_AS_HARD
1070
     1
  0
DICTIONARY
  5
D
102
{ACAD_REACTORS
330
C
102
}
330
C
100
AcDbDictionary
1001
ACAD
1000
TREAT_AS_HARD
1070
     0
  0
DICTIONARY
  5
141
102
{ACAD_REACTORS
330
C
102
}
330
C
100
AcDbDictionary
1001
ACAD
1000
TREAT_AS_HARD
1070
     0
  0
DICTIONARY
  5
E
102
{ACAD_REACTORS
330
C
102
}
330
C
100
AcDbDictionary
  3
STANDARD
350
13
1001
ACAD
1000
TREAT_AS_HARD
1070
     0
  0
DICTIONARY
  5
142
102
{ACAD_REACTORS
330
C
102
}
330
C
100
AcDbDictionary
1001
ACAD
1000
TREAT_AS_HARD
1070
     0
  0
ACDBDICTIONARYWDFLT
  5
24D1
102
{ACAD_REACTORS
330
C
102
}
330
C
100
AcDbDictionary
281
     1
  3
Normal
350
24D2
100
AcDbDictionaryWithDefault
340
24D2
1001
ACAD
1000
TREAT_AS_HARD
1070
     0
1000
TREAT_AS_HARD
1070
     0
1000
TREAT_AS_HARD
1070
     0
  0
DICTIONARY
  5
2858
102
{ACAD_REACTORS
330
C
102
}
330
C
100
AcDbDictionary
  3
TSTACKALIGN
350
2859
  3
TSTACKSIZE
350
285A
  3
HYPERLINKBASE
350
285B
  3
STYLESHEET
350
285C
  3
LAYOUTDICT
350
285D
  3
PLOTSETDICT
350
285E
  3
PLOTSTYLNAMDICT
350
285F
  3
LWETCUNION
350
2860
  3
INSUNITS
350
2861
  3
CEPSNTYPE
350
2862
  3
FINGERPRINTGUID
350
2863
  3
VERSIONGUID
350
2864
  3
PSVPSCALE
350
2865
  3
DIMSTYLEDATA
350
2866
  3
PUCSORTHOREF
350
2867
  3
PUCSORTHOVIEW
350
2868
  3
PUCSBASE
350
2869
  3
PUCSORGTOP
350
286A
  3
PUCSORGBOTTOM
350
286B
  3
PUCSORGLEFT
350
286C
  3
PUCSORGRIGHT
350
286D
  3
PUCSORGFRONT
350
286E
  3
PUCSORGBACK
350
286F
  3
UCSORTHOREF
350
2870
  3
UCSORTHOVIEW
350
2871
  3
UCSBASE
350
2872
  3
UCSORGTOP
350
2873
  3
UCSORGBOTTOM
350
2874
  3
UCSORGLEFT
350
2875
  3
UCSORGRIGHT
350
2876
  3
UCSORGFRONT
350
2877
  3
UCSORGBACK
350
2878
  0
XRECORD
  5
287A
102
{ACAD_REACTORS
330
73C
102
}
330
73C
100
AcDbXrecord
340
1A
  0
XRECORD
  5
2879
102
{ACAD_REACTORS
330
73A
102
}
330
73A
100
AcDbXrecord
340
17
  0
MLINESTYLE
  5
13
102
{ACAD_REACTORS
330
E
102
}
330
E
100
AcDbMlineStyle
  2
STANDARD
 70
     0
  3

 62
     0
 51
90.0
 52
90.0
 71
     2
 49
0.5
 62
   256
  6
BYLAYER
 49
-0.5
 62
   256
  6
BYLAYER
  0
ACDBPLACEHOLDER
  5
24D2
102
{ACAD_REACTORS
330
24D1
102
}
330
24D1
100
AcDbPlaceHolder
280
     0
  0
XRECORD
  5
2859
102
{ACAD_REACTORS
330
2858
102
}
330
2858
100
AcDbXrecord
 90
        1
  0
XRECORD
  5
285A
102
{ACAD_REACTORS
330
2858
102
}
330
2858
100
AcDbXrecord
 90
       70
  0
XRECORD
  5
285B
102
{ACAD_REACTORS
330
2858
102
}
330
2858
100
AcDbXrecord
  1

  0
XRECORD
  5
285C
102
{ACAD_REACTORS
330
2858
102
}
330
2858
100
AcDbXrecord
  1
systemprinter.ctb
  0
XRECORD
  5
285D
102
{ACAD_REACTORS
330
2858
102
}
330
2858
100
AcDbXrecord
340
141
  0
XRECORD
  5
285E
102
{ACAD_REACTORS
330
2858
102
}
330
2858
100
AcDbXrecord
340
142
  0
XRECORD
  5
285F
102
{ACAD_REACTORS
330
2858
102
}
330
2858
100
AcDbXrecord
340
24D1
  0
XRECORD
  5
2860
102
{ACAD_REACTORS
330
2858
102
}
330
2858
100
AcDbXrecord
 90
    10781
  0
XRECORD
  5
2861
102
{ACAD_REACTORS
330
2858
102
}
330
2858
100
AcDbXrecord
 90
        0
  0
XRECORD
  5
2862
102
{ACAD_REACTORS
330
2858
102
}
330
2858
100
AcDbXrecord
 90
        0
  0
XRECORD
  5
2863
102
{ACAD_REACTORS
330
2858
102
}
330
2858
100
AcDbXrecord
  1
{B1EA1BEC-23DC-4409-8B00-54D5AA7363F1}
  0
XRECORD
  5
2864
102
{ACAD_REACTORS
330
2858
102
}
330
2858
100
AcDbXrecord
  1
{6290A8E0-D277-4255-9CDE-072B66F25548}
  0
XRECORD
  5
2865
102
{ACAD_REACTORS
330
2858
102
}
330
2858
100
AcDbXrecord
 40
0.0
  0
XRECORD
  5
2866
102
{ACAD_REACTORS
330
2858
102
}
330
2858
100
AcDbXrecord
1000
DSTYLE
1002
{
1070
   341
340
B2
1070
   343
340
B2
1070
   344
340
B2
1070
   371
 70
    -1
1070
   372
 70
    -1
1002
}
  0
XRECORD
  5
2867
102
{ACAD_REACTORS
330
2858
102
}
330
2858
100
AcDbXrecord
340
0
  0
XRECORD
  5
2868
102
{ACAD_REACTORS
330
2858
102
}
330
2858
100
AcDbXrecord
 70
     0
  0
XRECORD
  5
2869
102
{ACAD_REACTORS
330
2858
102
}
330
2858
100
AcDbXrecord
340
0
  0
XRECORD
  5
286A
102
{ACAD_REACTORS
330
2858
102
}
330
2858
100
AcDbXrecord
 10
0.0
 20
0.0
 30
0.0
  0
XRECORD
  5
286B
102
{ACAD_REACTORS
330
2858
102
}
330
2858
100
AcDbXrecord
 10
0.0
 20
0.0
 30
0.0
  0
XRECORD
  5
286C
102
{ACAD_REACTORS
330
2858
102
}
330
2858
100
AcDbXrecord
 10
0.0
 20
0.0
 30
0.0
  0
XRECORD
  5
286D
102
{ACAD_REACTORS
330
2858
102
}
330
2858
100
AcDbXrecord
 10
0.0
 20
0.0
 30
0.0
  0
XRECORD
  5
286E
102
{ACAD_REACTORS
330
2858
102
}
330
2858
100
AcDbXrecord
 10
0.0
 20
0.0
 30
0.0
  0
XRECORD
  5
286F
102
{ACAD_REACTORS
330
2858
102
}
330
2858
100
AcDbXrecord
 10
0.0
 20
0.0
 30
0.0
  0
XRECORD
  5
2870
102
{ACAD_REACTORS
330
2858
102
}
330
2858
100
AcDbXrecord
340
0
  0
XRECORD
  5
2871
102
{ACAD_REACTORS
330
2858
102
}
330
2858
100
AcDbXrecord
 70
     0
  0
XRECORD
  5
2872
102
{ACAD_REACTORS
330
2858
102
}
330
2858
100
AcDbXrecord
340
0
  0
XRECORD
  5
2873
102
{ACAD_REACTORS
330
2858
102
}
330
2858
100
AcDbXrecord
 10
0.0
 20
0.0
 30
0.0
  0
XRECORD
  5
2874
102
{ACAD_REACTORS
330
2858
102
}
330
2858
100
AcDbXrecord
 10
0.0
 20
0.0
 30
0.0
  0
XRECORD
  5
2875
102
{ACAD_REACTORS
330
2858
102
}
330
2858
100
AcDbXrecord
 10
0.0
 20
0.0
 30
0.0
  0
XRECORD
  5
2876
102
{ACAD_REACTORS
330
2858
102
}
330
2858
100
AcDbXrecord
 10
0.0
 20
0.0
 30
0.0
  0
XRECORD
  5
2877
102
{ACAD_REACTORS
330
2858
102
}
330
2858
100
AcDbXrecord
 10
0.0
 20
0.0
 30
0.0
  0
XRECORD
  5
2878
102
{ACAD_REACTORS
330
2858
102
}
330
2858
100
AcDbXrecord
 10
0.0
 20
0.0
 30
0.0
  0
ENDSEC
  0
EOF
