  0
SECTION
  2
HEADER
  9
$ACADVER
  1
AC1014
  9
$ACADMAINTVER
 70
     9
  9
$DWGCODEPAGE
  3
ANSI_932
  9
$INSBASE
 10
0.0
 20
0.0
 30
0.0
  9
$EXTMIN
 10
-0.0128164066901491
 20
-0.0090630292066862
 30
-0.0000000100021362
  9
$EXTMAX
 10
398.8000497812454
 20
275.8226172440017
 30
0.0000000100021363
  9
$LIMMIN
 10
0.0
 20
0.0
  9
$LIMMAX
 10
420.0
 20
297.0
  9
$ORTHOMODE
 70
     0
  9
$REGENMODE
 70
     1
  9
$FILLMODE
 70
     1
  9
$QTEXTMODE
 70
     0
  9
$MIRRTEXT
 70
     1
  9
$DRAGMODE
 70
     2
  9
$LTSCALE
 40
5.0
  9
$OSMODE
 70
    35
  9
$ATTMODE
 70
     1
  9
$TEXTSIZE
 40
4.0
  9
$TRACEWID
 40
1.0
  9
$TEXTSTYLE
  7
STANDARD
  9
$CLAYER
  8
SUNPOU
  9
$CELTYPE
  6
BYLAYER
  9
$CECOLOR
 62
   256
  9
$CELTSCALE
 40
1.0
  9
$DELOBJ
 70
     1
  9
$DISPSILH
 70
     0
  9
$DIMSCALE
 40
1.0
  9
$DIMASZ
 40
3.0
  9
$DIMEXO
 40
3.0
  9
$DIMDLI
 40
7.0
  9
$DIMRND
 40
0.0
  9
$DIMDLE
 40
0.0
  9
$DIMEXE
 40
1.5
  9
$DIMTP
 40
0.0
  9
$DIMTM
 40
0.0
  9
$DIMTXT
 40
3.0
  9
$DIMCEN
 40
3.0
  9
$DIMTSZ
 40
0.0
  9
$DIMTOL
 70
     0
  9
$DIMLIM
 70
     0
  9
$DIMTIH
 70
     0
  9
$DIMTOH
 70
     0
  9
$DIMSE1
 70
     0
  9
$DIMSE2
 70
     0
  9
$DIMTAD
 70
     3
  9
$DIMZIN
 70
     0
  9
$DIMBLK
  1

  9
$DIMASO
 70
     1
  9
$DIMSHO
 70
     1
  9
$DIMPOST
  1

  9
$DIMAPOST
  1

  9
$DIMALT
 70
     0
  9
$DIMALTD
 70
     2
  9
$DIMALTF
 40
25.4
  9
$DIMLFAC
 40
1.0
  9
$DIMTOFL
 70
     1
  9
$DIMTVP
 40
0.0
  9
$DIMTIX
 70
     0
  9
$DIMSOXD
 70
     0
  9
$DIMSAH
 70
     1
  9
$DIMBLK1
  1
OPEN
  9
$DIMBLK2
  1
OPEN
  9
$DIMSTYLE
  2
STANDARD
  9
$DIMCLRD
 70
   256
  9
$DIMCLRE
 70
   256
  9
$DIMCLRT
 70
   256
  9
$DIMTFAC
 40
1.0
  9
$DIMGAP
 40
1.0
  9
$DIMJUST
 70
     0
  9
$DIMSD1
 70
     0
  9
$DIMSD2
 70
     0
  9
$DIMTOLJ
 70
     1
  9
$DIMTZIN
 70
     0
  9
$DIMALTZ
 70
     0
  9
$DIMALTTZ
 70
     0
  9
$DIMFIT
 70
     3
  9
$DIMUPT
 70
     0
  9
$DIMUNIT
 70
     2
  9
$DIMDEC
 70
     0
  9
$DIMTDEC
 70
     0
  9
$DIMALTU
 70
     2
  9
$DIMALTTD
 70
     2
  9
$DIMTXSTY
  7
STANDARD
  9
$DIMAUNIT
 70
     0
  9
$LUNITS
 70
     2
  9
$LUPREC
 70
     4
  9
$SKETCHINC
 40
1.0
  9
$FILLETRAD
 40
10.0
  9
$AUNITS
 70
     0
  9
$AUPREC
 70
     2
  9
$MENU
  1
.
  9
$ELEVATION
 40
0.0
  9
$PELEVATION
 40
0.0
  9
$THICKNESS
 40
0.0
  9
$LIMCHECK
 70
     0
  9
$BLIPMODE
 70
     0
  9
$CHAMFERA
 40
10.0
  9
$CHAMFERB
 40
10.0
  9
$CHAMFERC
 40
20.0
  9
$CHAMFERD
 40
0.0
  9
$SKPOLY
 70
     0
  9
$TDCREATE
 40
2451569.441154629
  9
$TDUPDATE
 40
2453802.414223449
  9
$TDINDWG
 40
0.4873407523
  9
$TDUSRTIMER
 40
0.4873407523
  9
$USRTIMER
 70
     1
  9
$ANGBASE
 50
0.0
  9
$ANGDIR
 70
     0
  9
$PDMODE
 70
     0
  9
$PDSIZE
 40
0.0
  9
$PLINEWID
 40
0.0
  9
$COORDS
 70
     1
  9
$SPLFRAME
 70
     0
  9
$SPLINETYPE
 70
     6
  9
$SPLINESEGS
 70
     8
  9
$ATTDIA
 70
     0
  9
$ATTREQ
 70
     1
  9
$HANDLING
 70
 10241
  9
$HANDSEED
  5
338D
  9
$SURFTAB1
 70
     6
  9
$SURFTAB2
 70
     6
  9
$SURFTYPE
 70
     6
  9
$SURFU
 70
     6
  9
$SURFV
 70
     6
  9
$UCSNAME
  2

  9
$UCSORG
 10
0.0
 20
0.0
 30
0.0
  9
$UCSXDIR
 10
1.0
 20
0.0
 30
0.0
  9
$UCSYDIR
 10
0.0
 20
1.0
 30
0.0
  9
$PUCSNAME
  2

  9
$PUCSORG
 10
0.0
 20
0.0
 30
0.0
  9
$PUCSXDIR
 10
1.0
 20
0.0
 30
0.0
  9
$PUCSYDIR
 10
0.0
 20
1.0
 30
0.0
  9
$USERI1
 70
     0
  9
$USERI2
 70
     0
  9
$USERI3
 70
     0
  9
$USERI4
 70
     0
  9
$USERI5
 70
     0
  9
$USERR1
 40
0.0
  9
$USERR2
 40
0.0
  9
$USERR3
 40
0.0
  9
$USERR4
 40
0.0
  9
$USERR5
 40
0.0
  9
$WORLDVIEW
 70
     1
  9
$SHADEDGE
 70
     3
  9
$SHADEDIF
 70
    70
  9
$TILEMODE
 70
     1
  9
$MAXACTVP
 70
    16
  9
$PINSBASE
 10
0.0
 20
0.0
 30
0.0
  9
$PLIMCHECK
 70
     0
  9
$PEXTMIN
 10
0.0
 20
0.0
 30
0.0
  9
$PEXTMAX
 10
420.0
 20
297.0
 30
0.0
  9
$PLIMMIN
 10
0.0
 20
0.0
  9
$PLIMMAX
 10
420.0
 20
297.0
  9
$UNITMODE
 70
     0
  9
$VISRETAIN
 70
     0
  9
$PLINEGEN
 70
     0
  9
$PSLTSCALE
 70
     1
  9
$TREEDEPTH
 70
  3020
  9
$PICKSTYLE
 70
     1
  9
$CMLSTYLE
  2
STANDARD
  9
$CMLJUST
 70
     0
  9
$CMLSCALE
 40
1.0
  9
$PROXYGRAPHICS
 70
     1
  9
$MEASUREMENT
 70
     0
  0
ENDSEC
  0
SECTION
  2
CLASSES
  0
CLASS
  1
ACDBDICTIONARYWDFLT
  2
AcDbDictionaryWithDefault
  3
AutoCAD 2000
 90
        0
280
     0
281
     0
  0
CLASS
  1
ACDBPLACEHOLDER
  2
AcDbPlaceHolder
  3
AutoCAD 2000
 90
        0
280
     0
281
     0
  0
CLASS
  1
LAYOUT
  2
AcDbLayout
  3
AutoCAD 2000
 90
        0
280
     0
281
     0
  0
CLASS
  1
LONG_TRANSACTION
  2
AcDbLongTransaction
  3
AutoCAD 2000
 90
        0
280
     0
281
     0
  0
CLASS
  1
LWPOLYLINE
  2
AcDbPolyline
  3
AutoCAD 2000
 90
        0
280
     0
281
     1
  0
CLASS
  1
HATCH
  2
AcDbHatch
  3
AutoCAD 2000
 90
        0
280
     0
281
     1
  0
CLASS
  1
XRECORD
  2
AcDbXrecord
  3
AutoCAD 2000
 90
        0
280
     0
281
     0
  0
CLASS
  1
LONG_TRANSACTION
  2
AcDbLongTransaction
  3
AutoCAD 2000
 90
        0
280
     0
281
     0
  0
CLASS
  1
LWPOLYLINE
  2
AcDbPolyline
  3
AutoCAD 2000
 90
        0
280
     0
281
     1
  0
CLASS
  1
HATCH
  2
AcDbHatch
  3
AutoCAD 2000
 90
        0
280
     0
281
     1
  0
CLASS
  1
XRECORD
  2
AcDbXrecord
  3
AutoCAD 2000
 90
        0
280
     0
281
     0
  0
CLASS
  1
LONG_TRANSACTION
  2
AcDbLongTransaction
  3
AutoCAD 2000
 90
        0
280
     0
281
     0
  0
CLASS
  1
LWPOLYLINE
  2
AcDbPolyline
  3
AutoCAD 2000
 90
        0
280
     0
281
     1
  0
CLASS
  1
HATCH
  2
AcDbHatch
  3
AutoCAD 2000
 90
        0
280
     0
281
     1
  0
CLASS
  1
XRECORD
  2
AcDbXrecord
  3
AutoCAD 2000
 90
        0
280
     0
281
     0
  0
CLASS
  1
LONG_TRANSACTION
  2
AcDbLongTransaction
  3
AutoCAD 2000
 90
        0
280
     0
281
     0
  0
CLASS
  1
LWPOLYLINE
  2
AcDbPolyline
  3
AutoCAD 2000
 90
        0
280
     0
281
     1
  0
CLASS
  1
HATCH
  2
AcDbHatch
  3
AutoCAD 2000
 90
        0
280
     0
281
     1
  0
CLASS
  1
XRECORD
  2
AcDbXrecord
  3
AutoCAD 2000
 90
        0
280
     0
281
     0
  0
CLASS
  1
LONG_TRANSACTION
  2
AcDbLongTransaction
  3
AutoCAD 2000
 90
        0
280
     0
281
     0
  0
CLASS
  1
LWPOLYLINE
  2
AcDbPolyline
  3
AutoCAD 2000
 90
        0
280
     0
281
     1
  0
CLASS
  1
HATCH
  2
AcDbHatch
  3
AutoCAD 2000
 90
        0
280
     0
281
     1
  0
CLASS
  1
XRECORD
  2
AcDbXrecord
  3
AutoCAD 2000
 90
        0
280
     0
281
     0
  0
CLASS
  1
LONG_TRANSACTION
  2
AcDbLongTransaction
  3
AutoCAD 2000
 90
        0
280
     0
281
     0
  0
CLASS
  1
LWPOLYLINE
  2
AcDbPolyline
  3
AutoCAD 2000
 90
        0
280
     0
281
     1
  0
CLASS
  1
HATCH
  2
AcDbHatch
  3
AutoCAD 2000
 90
        0
280
     0
281
     1
  0
CLASS
  1
XRECORD
  2
AcDbXrecord
  3
AutoCAD 2000
 90
        0
280
     0
281
     0
  0
CLASS
  1
LONG_TRANSACTION
  2
AcDbLongTransaction
  3
AutoCAD 2000
 90
        0
280
     0
281
     0
  0
CLASS
  1
LWPOLYLINE
  2
AcDbPolyline
  3
AutoCAD 2000
 90
        0
280
     0
281
     1
  0
CLASS
  1
HATCH
  2
AcDbHatch
  3
AutoCAD 2000
 90
        0
280
     0
281
     1
  0
CLASS
  1
XRECORD
  2
AcDbXrecord
  3
AutoCAD 2000
 90
        0
280
     0
281
     0
  0
CLASS
  1
LONG_TRANSACTION
  2
AcDbLongTransaction
  3
AutoCAD 2000
 90
        0
280
     0
281
     0
  0
CLASS
  1
LWPOLYLINE
  2
AcDbPolyline
  3
AutoCAD 2000
 90
        0
280
     0
281
     1
  0
CLASS
  1
HATCH
  2
AcDbHatch
  3
AutoCAD 2000
 90
        0
280
     0
281
     1
  0
CLASS
  1
XRECORD
  2
AcDbXrecord
  3
AutoCAD 2000
 90
        0
280
     0
281
     0
  0
CLASS
  1
LONG_TRANSACTION
  2
AcDbLongTransaction
  3
AutoCAD 2000
 90
        0
280
     0
281
     0
  0
CLASS
  1
LWPOLYLINE
  2
AcDbPolyline
  3
AutoCAD 2000
 90
        0
280
     0
281
     1
  0
CLASS
  1
HATCH
  2
AcDbHatch
  3
AutoCAD 2000
 90
        0
280
     0
281
     1
  0
CLASS
  1
XRECORD
  2
AcDbXrecord
  3
AutoCAD 2000
 90
        0
280
     0
281
     0
  0
CLASS
  1
LONG_TRANSACTION
  2
AcDbLongTransaction
  3
AutoCAD 2000
 90
        0
280
     0
281
     0
  0
CLASS
  1
LWPOLYLINE
  2
AcDbPolyline
  3
AutoCAD 2000
 90
        0
280
     0
281
     1
  0
CLASS
  1
HATCH
  2
AcDbHatch
  3
AutoCAD 2000
 90
        0
280
     0
281
     1
  0
CLASS
  1
XRECORD
  2
AcDbXrecord
  3
AutoCAD 2000
 90
        0
280
     0
281
     0
  0
CLASS
  1
LONG_TRANSACTION
  2
AcDbLongTransaction
  3
AutoCAD 2000
 90
        0
280
     0
281
     0
  0
CLASS
  1
LWPOLYLINE
  2
AcDbPolyline
  3
AutoCAD 2000
 90
        0
280
     0
281
     1
  0
CLASS
  1
HATCH
  2
AcDbHatch
  3
AutoCAD 2000
 90
        0
280
     0
281
     1
  0
CLASS
  1
XRECORD
  2
AcDbXrecord
  3
AutoCAD 2000
 90
        0
280
     0
281
     0
  0
CLASS
  1
LONG_TRANSACTION
  2
AcDbLongTransaction
  3
AutoCAD 2000
 90
        0
280
     0
281
     0
  0
CLASS
  1
LWPOLYLINE
  2
AcDbPolyline
  3
AutoCAD 2000
 90
        0
280
     0
281
     1
  0
CLASS
  1
HATCH
  2
AcDbHatch
  3
AutoCAD 2000
 90
        0
280
     0
281
     1
  0
CLASS
  1
XRECORD
  2
AcDbXrecord
  3
AutoCAD 2000
 90
        0
280
     0
281
     0
  0
ENDSEC
  0
SECTION
  2
TABLES
  0
TABLE
  2
VPORT
  5
8
330
0
100
AcDbSymbolTable
 70
     2
  0
VPORT
  5
3369
330
8
100
AcDbSymbolTableRecord
100
AcDbViewportTableRecord
  2
*ACTIVE
 70
     0
 10
0.0
 20
0.0
 11
1.0
 21
1.0
 12
213.3125319451409
 22
136.6977012317163
 13
0.0
 23
0.0
 14
5.0
 24
5.0
 15
0.0
 25
0.0
 16
0.0
 26
0.0
 36
1.0
 17
0.0
 27
0.0
 37
0.0
 40
332.3194600890915
 41
1.795454545454545
 42
50.0
 43
0.0
 44
0.0
 50
0.0
 51
0.0
 71
     0
 72
   100
 73
     1
 74
     0
 75
     0
 76
     0
 77
     0
 78
     0
  0
ENDTAB
  0
TABLE
  2
LTYPE
  5
5
330
0
100
AcDbSymbolTable
 70
     3
  0
LTYPE
  5
14
330
5
100
AcDbSymbolTableRecord
100
AcDbLinetypeTableRecord
  2
BYBLOCK
 70
     0
  3

 72
    65
 73
     0
 40
0.0
  0
LTYPE
  5
15
330
5
100
AcDbSymbolTableRecord
100
AcDbLinetypeTableRecord
  2
BYLAYER
 70
     0
  3

 72
    65
 73
     0
 40
0.0
  0
LTYPE
  5
16
330
5
100
AcDbSymbolTableRecord
100
AcDbLinetypeTableRecord
  2
CONTINUOUS
 70
     0
  3
Solid line
 72
    65
 73
     0
 40
0.0
  0
LTYPE
  5
120
330
5
100
AcDbSymbolTableRecord
100
AcDbLinetypeTableRecord
  2
CENTER
 70
     0
  3
____ _ ____ _ ____ _ ____ _ ____ _ ____ _ ____ 
 72
    65
 73
     4
 40
2.0
 49
1.25
 74
     0
 49
-0.25
 74
     0
 49
0.25
 74
     0
 49
-0.25
 74
     0
  0
LTYPE
  5
2F12
330
5
100
AcDbSymbolTableRecord
100
AcDbLinetypeTableRecord
  2
PHANTOM
 70
     0
  3
______  __  __  ______  __  __  ______  __  __ 
 72
    65
 73
     6
 40
2.5
 49
1.25
 74
     0
 49
-0.25
 74
     0
 49
0.25
 74
     0
 49
-0.25
 74
     0
 49
0.25
 74
     0
 49
-0.25
 74
     0
  0
ENDTAB
  0
TABLE
  2
LAYER
  5
2
330
0
100
AcDbSymbolTable
 70
     9
  0
LAYER
  5
F
330
2
100
AcDbSymbolTableRecord
100
AcDbLayerTableRecord
  2
0
 70
     0
 62
     7
  6
CONTINUOUS
  0
LAYER
  5
62
330
2
100
AcDbSymbolTableRecord
100
AcDbLayerTableRecord
  2
VIEWPORT
 70
     0
 62
     7
  6
CONTINUOUS
  0
LAYER
  5
6B
330
2
100
AcDbSymbolTableRecord
100
AcDbLayerTableRecord
  2
ZUWAKU
 70
     0
 62
     7
  6
CONTINUOUS
  0
LAYER
  5
48C
330
2
100
AcDbSymbolTableRecord
100
AcDbLayerTableRecord
  2
DEFPOINTS
 70
     0
 62
     7
  6
CONTINUOUS
  0
LAYER
  5
629
330
2
100
AcDbSymbolTableRecord
100
AcDbLayerTableRecord
  2
SEIHIN
 70
     0
 62
     3
  6
CONTINUOUS
  0
LAYER
  5
62A
330
2
100
AcDbSymbolTableRecord
100
AcDbLayerTableRecord
  2
SUNPOU
 70
     0
 62
     4
  6
CONTINUOUS
  0
LAYER
  5
62B
330
2
100
AcDbSymbolTableRecord
100
AcDbLayerTableRecord
  2
CENTER_L
 70
     0
 62
     1
  6
CENTER
  0
LAYER
  5
2F13
330
2
100
AcDbSymbolTableRecord
100
AcDbLayerTableRecord
  2
NOKITOI
 70
     0
 62
     8
  6
PHANTOM
  0
LAYER
  5
318F
330
2
100
AcDbSymbolTableRecord
100
AcDbLayerTableRecord
  2
MOJI
 70
     0
 62
     2
  6
CONTINUOUS
  0
ENDTAB
  0
TABLE
  2
STYLE
  5
3
330
0
100
AcDbSymbolTable
 70
     2
  0
STYLE
  5
10
330
3
100
AcDbSymbolTableRecord
100
AcDbTextStyleTableRecord
  2
STANDARD
 70
     0
 40
0.0
 41
1.0
 50
0.0
 71
     0
 42
4.0
  3
TXT
  4
bigfont.shx
  0
STYLE
  5
3190
330
3
100
AcDbSymbolTableRecord
100
AcDbTextStyleTableRecord
  2
ｽﾀｲﾙ1
 70
     0
 40
0.0
 41
1.0
 50
0.0
 71
     0
 42
2.5
  3
MS PGothic.ttf
  4

1001
ACAD
1000
MS PGothic
1071
    32818
  0
ENDTAB
  0
TABLE
  2
VIEW
  5
6
330
0
100
AcDbSymbolTable
 70
     0
  0
ENDTAB
  0
TABLE
  2
UCS
  5
7
330
0
100
AcDbSymbolTable
 70
     0
  0
ENDTAB
  0
TABLE
  2
APPID
  5
9
330
0
100
AcDbSymbolTable
 70
     1
  0
APPID
  5
11
330
9
100
AcDbSymbolTableRecord
100
AcDbRegAppTableRecord
  2
ACAD
 70
     0
  0
ENDTAB
  0
TABLE
  2
DIMSTYLE
  5
A
330
0
100
AcDbSymbolTable
 70
     1
  0
DIMSTYLE
105
1D
102
{ACAD_REACTORS
330
2E01
330
2E02
330
2E05
330
2E06
330
2E07
330
2E48
330
2E5C
330
2E5D
330
2E80
330
2EBA
330
3139
102
}
330
A
100
AcDbSymbolTableRecord
100
AcDbDimStyleTableRecord
  2
STANDARD
 70
     0
  3

  4

  5

  6

  7

 40
1.0
 41
0.18
 42
0.0625
 43
0.38
 44
0.18
 45
0.0
 46
0.0
 47
0.0
 48
0.0
140
0.18
141
0.09
142
0.0
143
25.4
144
1.0
145
0.0
146
1.0
147
0.09
 71
     0
 72
     0
 73
     1
 74
     1
 75
     0
 76
     0
 77
     0
 78
     0
170
     0
171
     2
172
     0
173
     0
174
     0
175
     0
176
     0
177
     0
178
     0
270
     2
271
     4
272
     4
273
     2
274
     2
340
10
275
     0
280
     0
281
     0
282
     0
283
     1
284
     0
285
     0
286
     0
287
     3
288
     0
  0
ENDTAB
  0
TABLE
  2
BLOCK_RECORD
  5
1
330
0
100
AcDbSymbolTable
 70
    12
  0
BLOCK_RECORD
  5
1A
102
{ACAD_XDICTIONARY
360
73C
102
}
330
1
100
AcDbSymbolTableRecord
100
AcDbBlockTableRecord
  2
*MODEL_SPACE
  0
BLOCK_RECORD
  5
17
102
{ACAD_XDICTIONARY
360
73A
102
}
330
1
100
AcDbSymbolTableRecord
100
AcDbBlockTableRecord
  2
*PAPER_SPACE
  0
BLOCK_RECORD
  5
B2
330
1
100
AcDbSymbolTableRecord
100
AcDbBlockTableRecord
  2
_OPEN
  0
BLOCK_RECORD
  5
2E08
330
1
100
AcDbSymbolTableRecord
100
AcDbBlockTableRecord
  2
*D1
  0
BLOCK_RECORD
  5
2E14
330
1
100
AcDbSymbolTableRecord
100
AcDbBlockTableRecord
  2
*D2
  0
BLOCK_RECORD
  5
2E20
330
1
100
AcDbSymbolTableRecord
100
AcDbBlockTableRecord
  2
*D3
  0
BLOCK_RECORD
  5
2E2C
330
1
100
AcDbSymbolTableRecord
100
AcDbBlockTableRecord
  2
*D4
  0
BLOCK_RECORD
  5
2E3A
330
1
100
AcDbSymbolTableRecord
100
AcDbBlockTableRecord
  2
*D5
  0
BLOCK_RECORD
  5
2E50
330
1
100
AcDbSymbolTableRecord
100
AcDbBlockTableRecord
  2
*D6
  0
BLOCK_RECORD
  5
2E5E
330
1
100
AcDbSymbolTableRecord
100
AcDbBlockTableRecord
  2
*D7
  0
BLOCK_RECORD
  5
2E6C
330
1
100
AcDbSymbolTableRecord
100
AcDbBlockTableRecord
  2
*D8
  0
BLOCK_RECORD
  5
2E81
330
1
100
AcDbSymbolTableRecord
100
AcDbBlockTableRecord
  2
*D9
  0
BLOCK_RECORD
  5
2EAE
330
1
100
AcDbSymbolTableRecord
100
AcDbBlockTableRecord
  2
*D10
  0
BLOCK_RECORD
  5
313A
330
1
100
AcDbSymbolTableRecord
100
AcDbBlockTableRecord
  2
*D11
  0
ENDTAB
  0
ENDSEC
  0
SECTION
  2
BLOCKS
  0
BLOCK
  5
1B
330
1A
100
AcDbEntity
  8
0
100
AcDbBlockBegin
  2
*MODEL_SPACE
 70
     0
 10
0.0
 20
0.0
 30
0.0
  3
*MODEL_SPACE
  1

  0
ENDBLK
  5
1C
330
1A
100
AcDbEntity
  8
0
100
AcDbBlockEnd
  0
BLOCK
  5
18
330
17
100
AcDbEntity
 67
     1
  8
0
100
AcDbBlockBegin
  2
*PAPER_SPACE
 70
     0
 10
0.0
 20
0.0
 30
0.0
  3
*PAPER_SPACE
  1

  0
ENDBLK
  5
19
330
17
100
AcDbEntity
 67
     1
  8
0
100
AcDbBlockEnd
  0
BLOCK
  5
B3
330
B2
100
AcDbEntity
  8
0
100
AcDbBlockBegin
  2
_OPEN
 70
     0
 10
0.0
 20
0.0
 30
0.0
  3
_OPEN
  1

  0
LINE
  5
B4
330
B2
100
AcDbEntity
  8
0
  6
BYBLOCK
 62
     0
100
AcDbLine
 10
-1.0
 20
0.1666666666666666
 30
0.0
 11
0.0
 21
0.0
 31
0.0
  0
LINE
  5
B5
330
B2
100
AcDbEntity
  8
0
  6
BYBLOCK
 62
     0
100
AcDbLine
 10
0.0
 20
0.0
 30
0.0
 11
-1.0
 21
-0.1666666666666666
 31
0.0
  0
LINE
  5
B6
330
B2
100
AcDbEntity
  8
0
  6
BYBLOCK
 62
     0
100
AcDbLine
 10
0.0
 20
0.0
 30
0.0
 11
-1.0
 21
0.0
 31
0.0
  0
ENDBLK
  5
B7
330
B2
100
AcDbEntity
  8
0
100
AcDbBlockEnd
  0
BLOCK
  5
2E09
330
2E08
100
AcDbEntity
  8
0
100
AcDbBlockBegin
  2
*D1
 70
     1
 10
0.0
 20
0.0
 30
0.0
  3
*D1
  1

  0
LINE
  5
3322
330
2E08
100
AcDbEntity
  8
SUNPOU
100
AcDbLine
 10
287.7959718904433
 20
121.8320340062296
 30
0.0
 11
266.6869522208472
 21
174.6083482326117
 31
0.0
  0
LINE
  5
3323
330
2E08
100
AcDbEntity
  8
SUNPOU
100
AcDbLine
 10
344.4336072969788
 20
144.4854720578005
 30
0.0
 11
323.324587660583
 21
197.2617862011759
 31
0.0
  0
LINE
  5
3324
330
2E08
100
AcDbEntity
  8
SUNPOU
100
AcDbLine
 10
270.0294614548152
 20
174.329722998941
 30
0.0
 11
321.0961819332656
 21
194.7549539542038
 31
0.0
  0
INSERT
  5
3325
330
2E08
100
AcDbEntity
  8
SUNPOU
100
AcDbBlockReference
  2
_OPEN
 10
267.2440039741725
 20
173.2156194922903
 30
0.0
 41
3.0
 42
3.0
 43
3.0
 50
201.7999999999998
  0
INSERT
  5
3326
330
2E08
100
AcDbEntity
  8
SUNPOU
100
AcDbBlockReference
  2
_OPEN
 10
323.8816394139083
 20
195.8690574608544
 30
0.0
 41
3.0
 42
3.0
 43
3.0
 50
21.79999999999982
  0
MTEXT
  5
3327
330
2E08
100
AcDbEntity
  8
SUNPOU
100
AcDbMText
 10
294.6344021051649
 20
186.8635530437747
 30
0.0
 40
3.0
 41
0.0
 71
     5
 72
     1
  1
\A1;61
 11
0.9284858268809148
 21
0.3713678355502321
 31
0.0
1001
ACAD
1000
MTEXTBEGIN
1070
    73
1070
     1
1070
    44
1040
1.0
1070
    74
1070
     0
1000
MTEXTEND
  0
POINT
  5
3328
330
2E08
100
AcDbEntity
  8
DEFPOINTS
 62
     0
100
AcDbPoint
 10
288.9100753970939
 20
119.0465765255868
 30
0.0
  0
POINT
  5
3329
330
2E08
100
AcDbEntity
  8
DEFPOINTS
 62
     0
100
AcDbPoint
 10
345.5477108036295
 20
141.7000145771577
 30
0.0
  0
POINT
  5
332A
330
2E08
100
AcDbEntity
  8
DEFPOINTS
 62
     0
100
AcDbPoint
 10
323.8816394139083
 20
195.8690574608544
 30
0.0
  0
ENDBLK
  5
2E13
330
2E08
100
AcDbEntity
  8
0
100
AcDbBlockEnd
  0
BLOCK
  5
2E15
330
2E14
100
AcDbEntity
  8
0
100
AcDbBlockBegin
  2
*D2
 70
     1
 10
0.0
 20
0.0
 30
0.0
  3
*D2
  1

  0
LINE
  5
332B
330
2E14
100
AcDbEntity
  8
SUNPOU
100
AcDbLine
 10
296.1523443323717
 20
125.1743445261817
 30
0.0
 11
278.3964932383787
 21
169.5671392348408
 31
0.0
  0
LINE
  5
332C
330
2E14
100
AcDbEntity
  8
SUNPOU
100
AcDbLine
 10
336.0772348882508
 20
141.1431614548417
 30
0.0
 11
318.3213837942578
 21
185.5359561635007
 31
0.0
  0
LINE
  5
332D
330
2E14
100
AcDbEntity
  8
SUNPOU
100
AcDbLine
 10
281.7390024723467
 20
169.2885140011701
 30
0.0
 11
316.0929780669404
 21
183.0291239165287
 31
0.0
  0
INSERT
  5
332E
330
2E14
100
AcDbEntity
  8
SUNPOU
100
AcDbBlockReference
  2
_OPEN
 10
278.953544991704
 20
168.1744104945194
 30
0.0
 41
3.0
 42
3.0
 43
3.0
 50
201.7999999999998
  0
INSERT
  5
332F
330
2E14
100
AcDbEntity
  8
SUNPOU
100
AcDbBlockReference
  2
_OPEN
 10
318.8784355475831
 20
184.1432274231793
 30
0.0
 41
3.0
 42
3.0
 43
3.0
 50
21.79999999999982
  0
MTEXT
  5
3330
330
2E14
100
AcDbEntity
  8
SUNPOU
100
AcDbMText
 10
297.9875706807681
 20
178.4800335260517
 30
0.0
 40
3.0
 41
0.0
 71
     5
 72
     1
  1
\A1;43
 11
0.9284858268809148
 21
0.3713678355502321
 31
0.0
1001
ACAD
1000
MTEXTBEGIN
1070
    73
1070
     1
1070
    44
1040
1.0
1070
    74
1070
     0
1000
MTEXTEND
  0
POINT
  5
3331
330
2E14
100
AcDbEntity
  8
DEFPOINTS
 62
     0
100
AcDbPoint
 10
297.2664478390224
 20
122.3888870455389
 30
0.0
  0
POINT
  5
3332
330
2E14
100
AcDbEntity
  8
DEFPOINTS
 62
     0
100
AcDbPoint
 10
337.1913383949015
 20
138.357703974199
 30
0.0
  0
POINT
  5
3333
330
2E14
100
AcDbEntity
  8
DEFPOINTS
 62
     0
100
AcDbPoint
 10
318.8784355475831
 20
184.1432274231793
 30
0.0
  0
ENDBLK
  5
2E1F
330
2E14
100
AcDbEntity
  8
0
100
AcDbBlockEnd
  0
BLOCK
  5
2E21
330
2E20
100
AcDbEntity
  8
0
100
AcDbBlockBegin
  2
*D3
 70
     1
 10
0.0
 20
0.0
 30
0.0
  3
*D3
  1

  0
LINE
  5
3334
330
2E20
100
AcDbEntity
  8
SUNPOU
100
AcDbLine
 10
288.0521989221153
 20
121.2905189765702
 30
0.0
 11
271.3113896588743
 21
114.5946729857552
 31
0.0
  0
LINE
  5
3335
330
2E20
100
AcDbEntity
  8
SUNPOU
100
AcDbLine
 10
301.0500731680896
 20
88.79351503642471
 30
0.0
 11
284.3092639031323
 21
82.09766904492331
 31
0.0
  0
LINE
  5
3336
330
2E20
100
AcDbEntity
  8
SUNPOU
100
AcDbLine
 10
273.8182219058463
 20
112.3662672584378
 30
0.0
 11
284.587889136803
 21
85.4401782788914
 31
0.0
  0
INSERT
  5
3337
330
2E20
100
AcDbEntity
  8
SUNPOU
100
AcDbBlockReference
  2
_OPEN
 10
272.7041183991957
 20
115.1517247390806
 30
0.0
 41
3.0
 42
3.0
 43
3.0
 50
111.7999999999997
  0
INSERT
  5
3338
330
2E20
100
AcDbEntity
  8
SUNPOU
100
AcDbBlockReference
  2
_OPEN
 10
285.7019926434537
 20
82.65472079824865
 30
0.0
 41
3.0
 42
3.0
 43
3.0
 50
291.7999999999997
  0
MTEXT
  5
3339
330
2E20
100
AcDbEntity
  8
SUNPOU
100
AcDbMText
 10
281.524270088527
 20
99.83164235754019
 30
0.0
 40
3.0
 41
0.0
 71
     5
 72
     1
  1
\A1;35
 11
0.371367835550231
 21
-0.928485826880915
 31
0.0
1001
ACAD
1000
MTEXTBEGIN
1070
    73
1070
     1
1070
    44
1040
1.0
1070
    74
1070
     0
1000
MTEXTEND
  0
POINT
  5
333A
330
2E20
100
AcDbEntity
  8
DEFPOINTS
 62
     0
100
AcDbPoint
 10
290.8376564027581
 20
122.4046224832209
 30
0.0
  0
POINT
  5
333B
330
2E20
100
AcDbEntity
  8
DEFPOINTS
 62
     0
100
AcDbPoint
 10
303.8355306487324
 20
89.90761854307541
 30
0.0
  0
POINT
  5
333C
330
2E20
100
AcDbEntity
  8
DEFPOINTS
 62
     0
100
AcDbPoint
 10
285.7019926434537
 20
82.65472079824865
 30
0.0
  0
ENDBLK
  5
2E2B
330
2E20
100
AcDbEntity
  8
0
100
AcDbBlockEnd
  0
BLOCK
  5
2E2D
330
2E2C
100
AcDbEntity
  8
0
100
AcDbBlockBegin
  2
*D4
 70
     1
 10
0.0
 20
0.0
 30
0.0
  3
*D4
  1

  0
LINE
  5
334F
330
2E2C
100
AcDbEntity
  8
SUNPOU
100
AcDbLine
 10
288.0521989221153
 20
121.2905189765702
 30
0.0
 11
279.5304109492663
 21
117.882046964535
 31
0.0
  0
LINE
  5
3350
330
2E2C
100
AcDbEntity
  8
SUNPOU
100
AcDbLine
 10
291.951627433398
 20
114.2340001970731
 30
0.0
 11
282.5013536336681
 21
110.4541603494877
 31
0.0
  0
LINE
  5
3351
330
2E2C
100
AcDbEntity
  8
SUNPOU
100
AcDbLine
 10
279.809036182937
 20
121.2245561985031
 30
0.0
 11
278.6949326762863
 21
124.0100136791459
 31
0.0
  0
LINE
  5
3352
330
2E2C
100
AcDbEntity
  8
SUNPOU
100
AcDbLine
 10
285.0081858806402
 20
108.2257546221703
 30
0.0
 11
286.1222893872909
 21
105.4402971415276
 31
0.0
  0
LINE
  5
3353
330
2E2C
100
AcDbEntity
  8
SUNPOU
100
AcDbLine
 10
280.9231396895877
 20
118.4390987178604
 30
0.0
 11
283.8940823739895
 21
111.0112121028131
 31
0.0
  0
INSERT
  5
3354
330
2E2C
100
AcDbEntity
  8
SUNPOU
100
AcDbBlockReference
  2
_OPEN
 10
280.9231396895877
 20
118.4390987178604
 30
0.0
 41
3.0
 42
3.0
 43
3.0
 50
291.7999999999997
  0
INSERT
  5
3355
330
2E2C
100
AcDbEntity
  8
SUNPOU
100
AcDbBlockReference
  2
_OPEN
 10
283.8940823739895
 20
111.0112121028131
 30
0.0
 41
3.0
 42
3.0
 43
3.0
 50
111.7999999999997
  0
MTEXT
  5
3356
330
2E2C
100
AcDbEntity
  8
SUNPOU
100
AcDbMText
 10
284.7298255989909
 20
115.6535749992123
 30
0.0
 40
3.0
 41
0.0
 71
     5
 72
     1
  1
\A1;8
 11
0.371367835550231
 21
-0.928485826880915
 31
0.0
1001
ACAD
1000
MTEXTBEGIN
1070
    73
1070
     1
1070
    44
1040
1.0
1070
    74
1070
     0
1000
MTEXTEND
  0
POINT
  5
3357
330
2E2C
100
AcDbEntity
  8
DEFPOINTS
 62
     0
100
AcDbPoint
 10
290.8376564027581
 20
122.4046224832209
 30
0.0
  0
POINT
  5
3358
330
2E2C
100
AcDbEntity
  8
DEFPOINTS
 62
     0
100
AcDbPoint
 10
294.7370849140407
 20
115.3481037037238
 30
0.0
  0
POINT
  5
3359
330
2E2C
100
AcDbEntity
  8
DEFPOINTS
 62
     0
100
AcDbPoint
 10
283.8940823739895
 20
111.0112121028131
 30
0.0
  0
ENDBLK
  5
2E39
330
2E2C
100
AcDbEntity
  8
0
100
AcDbBlockEnd
  0
BLOCK
  5
2E3B
330
2E3A
100
AcDbEntity
  8
0
100
AcDbBlockBegin
  2
*D5
 70
     1
 10
0.0
 20
0.0
 30
0.0
  3
*D5
  1

  0
LINE
  5
3346
330
2E3A
100
AcDbEntity
  8
SUNPOU
100
AcDbLine
 10
299.0076163088524
 20
96.59276948633582
 30
0.0
 11
289.5573425091226
 21
92.81292963875051
 31
0.0
  0
LINE
  5
3347
330
2E3A
100
AcDbEntity
  8
SUNPOU
100
AcDbLine
 10
301.0500731680896
 20
88.79351503642471
 30
0.0
 11
292.5282851935245
 21
85.38504302370315
 31
0.0
  0
LINE
  5
3348
330
2E3A
100
AcDbEntity
  8
SUNPOU
100
AcDbLine
 10
292.0641747560947
 20
90.5845239114331
 30
0.0
 11
292.8069104271952
 21
88.72755225767125
 31
0.0
  0
INSERT
  5
3349
330
2E3A
100
AcDbEntity
  8
SUNPOU
100
AcDbBlockReference
  2
_OPEN
 10
290.950071249444
 20
93.36998139207585
 30
0.0
 41
3.0
 42
3.0
 43
3.0
 50
111.7999999999997
  0
INSERT
  5
334A
330
2E3A
100
AcDbEntity
  8
SUNPOU
100
AcDbBlockReference
  2
_OPEN
 10
293.9210139338459
 20
85.9420947770285
 30
0.0
 41
3.0
 42
3.0
 43
3.0
 50
291.7999999999997
  0
MTEXT
  5
334B
330
2E3A
100
AcDbEntity
  8
SUNPOU
100
AcDbMText
 10
294.7567571588472
 20
90.58445767342773
 30
0.0
 40
3.0
 41
0.0
 71
     5
 72
     1
  1
\A1;8
 11
0.371367835550231
 21
-0.928485826880915
 31
0.0
1001
ACAD
1000
MTEXTBEGIN
1070
    73
1070
     1
1070
    44
1040
1.0
1070
    74
1070
     0
1000
MTEXTEND
  0
POINT
  5
334C
330
2E3A
100
AcDbEntity
  8
DEFPOINTS
 62
     0
100
AcDbPoint
 10
301.7930737894951
 20
97.7068729929865
 30
0.0
  0
POINT
  5
334D
330
2E3A
100
AcDbEntity
  8
DEFPOINTS
 62
     0
100
AcDbPoint
 10
303.8355306487324
 20
89.90761854307541
 30
0.0
  0
POINT
  5
334E
330
2E3A
100
AcDbEntity
  8
DEFPOINTS
 62
     0
100
AcDbPoint
 10
293.9210139338459
 20
85.9420947770285
 30
0.0
  0
ENDBLK
  5
2E47
330
2E3A
100
AcDbEntity
  8
0
100
AcDbBlockEnd
  0
BLOCK
  5
2E51
330
2E50
100
AcDbEntity
  8
0
100
AcDbBlockBegin
  2
*D6
 70
     1
 10
0.0
 20
0.0
 30
0.0
  3
*D6
  1

  0
LINE
  5
333D
330
2E50
100
AcDbEntity
  8
SUNPOU
 62
     4
100
AcDbLine
 10
231.2156794137171
 20
98.55482488760927
 30
0.0
 11
244.7795231207504
 21
103.9803623704226
 31
0.0
  0
LINE
  5
333E
330
2E50
100
AcDbEntity
  8
SUNPOU
 62
     4
100
AcDbLine
 10
244.2143530861173
 20
66.05814070660937
 30
0.0
 11
257.7781967931506
 21
71.48367818942276
 31
0.0
  0
LINE
  5
333F
330
2E50
100
AcDbEntity
  8
SUNPOU
 62
     4
100
AcDbLine
 10
244.5009801134848
 20
100.6378462832357
 30
0.0
 11
255.2713097277603
 21
73.71202224754736
 31
0.0
  0
INSERT
  5
3340
330
2E50
100
AcDbEntity
  8
SUNPOU
 62
     4
100
AcDbBlockReference
  2
_OPEN
 10
243.3868080844225
 20
103.4232763558915
 30
0.0
 41
3.0
 42
3.0
 43
3.0
 50
111.8014094863521
  0
INSERT
  5
3341
330
2E50
100
AcDbEntity
  8
SUNPOU
 62
     4
100
AcDbBlockReference
  2
_OPEN
 10
256.3854817568227
 20
70.9265921748916
 30
0.0
 41
3.0
 42
3.0
 43
3.0
 50
291.8014094863521
  0
MTEXT
  5
3342
330
2E50
100
AcDbEntity
  8
SUNPOU
 62
     4
100
AcDbMText
 10
252.2073366478357
 20
88.10341095627682
 30
0.0
 40
3.0
 41
0.0
 71
     5
 72
     1
  1
\A1;35
 11
0.3713906763541095
 21
-0.9284766908852569
 31
0.0
1001
ACAD
1000
MTEXTBEGIN
1070
    73
1070
     1
1070
    44
1040
1.0
1070
    74
1070
     0
1000
MTEXTEND
  0
POINT
  5
3343
330
2E50
100
AcDbEntity
  8
DEFPOINTS
 62
     0
100
AcDbPoint
 10
228.4302493410613
 20
97.44065285854693
 30
0.0
  0
POINT
  5
3344
330
2E50
100
AcDbEntity
  8
DEFPOINTS
 62
     0
100
AcDbPoint
 10
241.4289230134615
 20
64.94396867754703
 30
0.0
  0
POINT
  5
3345
330
2E50
100
AcDbEntity
  8
DEFPOINTS
 62
     0
100
AcDbPoint
 10
256.3854817568227
 20
70.9265921748916
 30
0.0
  0
ENDBLK
  5
2E5B
330
2E50
100
AcDbEntity
  8
0
100
AcDbBlockEnd
  0
BLOCK
  5
2E5F
330
2E5E
100
AcDbEntity
  8
0
100
AcDbBlockBegin
  2
*D7
 70
     1
 10
0.0
 20
0.0
 30
0.0
  3
*D7
  1

  0
LINE
  5
3307
330
2E5E
100
AcDbEntity
  8
SUNPOU
 62
     4
100
AcDbLine
 10
208.0805021184613
 20
124.8150209151469
 30
0.0
 11
208.0805021184613
 21
138.9827249912291
 31
0.0
  0
LINE
  5
3308
330
2E5E
100
AcDbEntity
  8
SUNPOU
 62
     4
100
AcDbLine
 10
217.8805021184614
 20
126.8150209151469
 30
0.0
 11
217.8805021184614
 21
138.9827249912291
 31
0.0
  0
LINE
  5
3309
330
2E5E
100
AcDbEntity
  8
SUNPOU
 62
     4
100
AcDbLine
 10
211.0805021184613
 20
137.4827249912291
 30
0.0
 11
214.8805021184614
 21
137.4827249912291
 31
0.0
  0
INSERT
  5
330A
330
2E5E
100
AcDbEntity
  8
SUNPOU
 62
     4
100
AcDbBlockReference
  2
_OPEN
 10
208.0805021184613
 20
137.4827249912291
 30
0.0
 41
3.0
 42
3.0
 43
3.0
 50
180.0
  0
INSERT
  5
330B
330
2E5E
100
AcDbEntity
  8
SUNPOU
 62
     4
100
AcDbBlockReference
  2
_OPEN
 10
217.8805021184614
 20
137.4827249912291
 30
0.0
 41
3.0
 42
3.0
 43
3.0
  0
MTEXT
  5
330C
330
2E5E
100
AcDbEntity
  8
SUNPOU
 62
     4
100
AcDbMText
 10
212.9805021184614
 20
139.9827249912291
 30
0.0
 40
3.0
 41
0.0
 71
     5
 72
     1
  1
\A1;10
1001
ACAD
1000
MTEXTBEGIN
1070
    73
1070
     1
1070
    44
1040
1.0
1070
    74
1070
     0
1000
MTEXTEND
  0
POINT
  5
330D
330
2E5E
100
AcDbEntity
  8
DEFPOINTS
 62
     0
100
AcDbPoint
 10
208.0805021184613
 20
121.8150209151469
 30
0.0
  0
POINT
  5
330E
330
2E5E
100
AcDbEntity
  8
DEFPOINTS
 62
     0
100
AcDbPoint
 10
217.8805021184614
 20
123.8150209151469
 30
0.0
  0
POINT
  5
330F
330
2E5E
100
AcDbEntity
  8
DEFPOINTS
 62
     0
100
AcDbPoint
 10
217.8805021184614
 20
137.4827249912291
 30
0.0
  0
ENDBLK
  5
2E6B
330
2E5E
100
AcDbEntity
  8
0
100
AcDbBlockEnd
  0
BLOCK
  5
2E6D
330
2E6C
100
AcDbEntity
  8
0
100
AcDbBlockBegin
  2
*D8
 70
     1
 10
0.0
 20
0.0
 30
0.0
  3
*D8
  1

  0
LINE
  5
3310
330
2E6C
100
AcDbEntity
  8
SUNPOU
 62
     4
100
AcDbLine
 10
217.8805021184614
 20
126.8150209151469
 30
0.0
 11
217.8805021184614
 21
173.6606610857335
 31
0.0
  0
LINE
  5
3311
330
2E6C
100
AcDbEntity
  8
SUNPOU
 62
     4
100
AcDbLine
 10
78.46322724516141
 20
154.1818308320469
 30
0.0
 11
78.46322724516141
 21
173.6606610857335
 31
0.0
  0
LINE
  5
3312
330
2E6C
100
AcDbEntity
  8
SUNPOU
 62
     4
100
AcDbLine
 10
214.8805021184614
 20
172.1606610857335
 30
0.0
 11
81.4632272451614
 21
172.1606610857335
 31
0.0
  0
INSERT
  5
3313
330
2E6C
100
AcDbEntity
  8
SUNPOU
 62
     4
100
AcDbBlockReference
  2
_OPEN
 10
217.8805021184614
 20
172.1606610857335
 30
0.0
 41
3.0
 42
3.0
 43
3.0
  0
INSERT
  5
3314
330
2E6C
100
AcDbEntity
  8
SUNPOU
 62
     4
100
AcDbBlockReference
  2
_OPEN
 10
78.46322724516141
 20
172.1606610857335
 30
0.0
 41
3.0
 42
3.0
 43
3.0
 50
180.0
  0
MTEXT
  5
3315
330
2E6C
100
AcDbEntity
  8
SUNPOU
 62
     4
100
AcDbMText
 10
148.1718646818114
 20
174.6606610857335
 30
0.0
 40
3.0
 41
0.0
 71
     5
 72
     1
  1
\A1;139
1001
ACAD
1000
MTEXTBEGIN
1070
    73
1070
     1
1070
    44
1040
1.0
1070
    74
1070
     0
1000
MTEXTEND
  0
POINT
  5
3316
330
2E6C
100
AcDbEntity
  8
DEFPOINTS
 62
     0
100
AcDbPoint
 10
217.8805021184614
 20
123.8150209151469
 30
0.0
  0
POINT
  5
3317
330
2E6C
100
AcDbEntity
  8
DEFPOINTS
 62
     0
100
AcDbPoint
 10
78.46322724516141
 20
151.1818308320469
 30
0.0
  0
POINT
  5
3318
330
2E6C
100
AcDbEntity
  8
DEFPOINTS
 62
     0
100
AcDbPoint
 10
78.46322724516141
 20
172.1606610857335
 30
0.0
  0
ENDBLK
  5
2E77
330
2E6C
100
AcDbEntity
  8
0
100
AcDbBlockEnd
  0
BLOCK
  5
2E82
330
2E81
100
AcDbEntity
  8
0
100
AcDbBlockBegin
  2
*D9
 70
     1
 10
0.0
 20
0.0
 30
0.0
  3
*D9
  1

  0
LINE
  5
335A
330
2E81
100
AcDbEntity
  8
SUNPOU
 62
     4
100
AcDbLine
 10
243.0872354087392
 20
242.1796517096468
 30
0.0
 11
257.6727117672829
 21
242.1796517096468
 31
0.0
  0
LINE
  5
335B
330
2E81
100
AcDbEntity
  8
SUNPOU
 62
     4
100
AcDbLine
 10
243.0872354087392
 20
181.1796517096468
 30
0.0
 11
257.6727117672829
 21
181.1796517096468
 31
0.0
  0
LINE
  5
335C
330
2E81
100
AcDbEntity
  8
SUNPOU
 62
     4
100
AcDbLine
 10
256.172711767283
 20
239.1796517096468
 30
0.0
 11
256.172711767283
 21
184.1796517096469
 31
0.0
  0
INSERT
  5
335D
330
2E81
100
AcDbEntity
  8
SUNPOU
 62
     4
100
AcDbBlockReference
  2
_OPEN
 10
256.172711767283
 20
242.1796517096468
 30
0.0
 41
3.0
 42
3.0
 43
3.0
 50
90.0
  0
INSERT
  5
335E
330
2E81
100
AcDbEntity
  8
SUNPOU
 62
     4
100
AcDbBlockReference
  2
_OPEN
 10
256.172711767283
 20
181.1796517096468
 30
0.0
 41
3.0
 42
3.0
 43
3.0
 50
270.0
  0
MTEXT
  5
335F
330
2E81
100
AcDbEntity
  8
SUNPOU
 62
     4
100
AcDbMText
 10
253.6727117672829
 20
211.6796517096469
 30
0.0
 40
3.0
 41
0.0
 71
     5
 72
     1
  1
\A1;61
 11
0.0000000000000001
 21
1.0
 31
0.0
1001
ACAD
1000
MTEXTBEGIN
1070
    73
1070
     1
1070
    44
1040
1.0
1070
    74
1070
     0
1000
MTEXTEND
  0
POINT
  5
3360
330
2E81
100
AcDbEntity
  8
DEFPOINTS
 62
     0
100
AcDbPoint
 10
240.0872354087392
 20
242.1796517096468
 30
0.0
  0
POINT
  5
3361
330
2E81
100
AcDbEntity
  8
DEFPOINTS
 62
     0
100
AcDbPoint
 10
240.0872354087392
 20
181.1796517096468
 30
0.0
  0
POINT
  5
3362
330
2E81
100
AcDbEntity
  8
DEFPOINTS
 62
     0
100
AcDbPoint
 10
256.172711767283
 20
181.1796517096468
 30
0.0
  0
ENDBLK
  5
2E8C
330
2E81
100
AcDbEntity
  8
0
100
AcDbBlockEnd
  0
BLOCK
  5
2EAF
330
2EAE
100
AcDbEntity
  8
0
100
AcDbBlockBegin
  2
*D10
 70
     1
 10
0.0
 20
0.0
 30
0.0
  3
*D10
  1

  0
LINE
  5
3319
330
2EAE
100
AcDbEntity
  8
SUNPOU
 62
     4
100
AcDbLine
 10
75.86322724616138
 20
221.6796517096468
 30
0.0
 11
53.12888080826134
 21
221.6796517096469
 31
0.0
  0
LINE
  5
331A
330
2EAE
100
AcDbEntity
  8
SUNPOU
 62
     4
100
AcDbLine
 10
75.86322724616138
 20
201.6796517096469
 30
0.0
 11
53.12888080826133
 21
201.6796517096469
 31
0.0
  0
LINE
  5
331B
330
2EAE
100
AcDbEntity
  8
SUNPOU
 62
     4
100
AcDbLine
 10
54.62888080826133
 20
218.6796517096469
 30
0.0
 11
54.62888080826132
 21
204.6796517096469
 31
0.0
  0
INSERT
  5
331C
330
2EAE
100
AcDbEntity
  8
SUNPOU
 62
     4
100
AcDbBlockReference
  2
_OPEN
 10
54.62888080826133
 20
221.6796517096469
 30
0.0
 41
3.0
 42
3.0
 43
3.0
 50
90.0
  0
INSERT
  5
331D
330
2EAE
100
AcDbEntity
  8
SUNPOU
 62
     4
100
AcDbBlockReference
  2
_OPEN
 10
54.62888080826132
 20
201.6796517096469
 30
0.0
 41
3.0
 42
3.0
 43
3.0
 50
270.0
  0
MTEXT
  5
331E
330
2EAE
100
AcDbEntity
  8
SUNPOU
 62
     4
100
AcDbMText
 10
52.1288808082613
 20
211.6796517096469
 30
0.0
 40
3.0
 41
0.0
 71
     5
 72
     1
  1
\A1;20
 11
0.0000000000000001
 21
1.0
 31
0.0
1001
ACAD
1000
MTEXTBEGIN
1070
    73
1070
     1
1070
    44
1040
1.0
1070
    74
1070
     0
1000
MTEXTEND
  0
POINT
  5
331F
330
2EAE
100
AcDbEntity
  8
DEFPOINTS
 62
     0
100
AcDbPoint
 10
78.86322724616139
 20
221.6796517096468
 30
0.0
  0
POINT
  5
3320
330
2EAE
100
AcDbEntity
  8
DEFPOINTS
 62
     0
100
AcDbPoint
 10
78.86322724616139
 20
201.6796517096469
 30
0.0
  0
POINT
  5
3321
330
2EAE
100
AcDbEntity
  8
DEFPOINTS
 62
     0
100
AcDbPoint
 10
54.62888080826132
 20
201.6796517096469
 30
0.0
  0
ENDBLK
  5
2EB9
330
2EAE
100
AcDbEntity
  8
0
100
AcDbBlockEnd
  0
BLOCK
  5
3144
330
313A
100
AcDbEntity
  8
0
100
AcDbBlockBegin
  2
*D11
 70
     1
 10
0.0
 20
0.0
 30
0.0
  3
*D11
  1

  0
LINE
  5
32FE
330
313A
100
AcDbEntity
  8
SUNPOU
100
AcDbLine
 10
75.86322724616138
 20
122.6423804664468
 30
0.0
 11
53.1288808082613
 21
122.6423804664468
 31
0.0
  0
LINE
  5
32FF
330
313A
100
AcDbEntity
  8
SUNPOU
100
AcDbLine
 10
238.4289230134615
 20
64.94396867754701
 30
0.0
 11
53.12888080826128
 21
64.94396867754706
 31
0.0
  0
LINE
  5
3300
330
313A
100
AcDbEntity
  8
SUNPOU
100
AcDbLine
 10
54.62888080826131
 20
119.6423804664469
 30
0.0
 11
54.62888080826129
 21
67.94396867754706
 31
0.0
  0
INSERT
  5
3301
330
313A
100
AcDbEntity
  8
SUNPOU
100
AcDbBlockReference
  2
_OPEN
 10
54.62888080826131
 20
122.6423804664468
 30
0.0
 41
3.0
 42
3.0
 43
3.0
 50
90.0
  0
INSERT
  5
3302
330
313A
100
AcDbEntity
  8
SUNPOU
100
AcDbBlockReference
  2
_OPEN
 10
54.62888080826129
 20
64.94396867754706
 30
0.0
 41
3.0
 42
3.0
 43
3.0
 50
270.0
  0
MTEXT
  5
3303
330
313A
100
AcDbEntity
  8
SUNPOU
100
AcDbMText
 10
52.12888080826129
 20
93.79317457199698
 30
0.0
 40
3.0
 41
0.0
 71
     5
 72
     1
  1
\A1;58
 11
0.0000000000000001
 21
1.0
 31
0.0
1001
ACAD
1000
MTEXTBEGIN
1070
    73
1070
     1
1070
    44
1040
1.0
1070
    74
1070
     0
1000
MTEXTEND
  0
POINT
  5
3304
330
313A
100
AcDbEntity
  8
DEFPOINTS
 62
     0
100
AcDbPoint
 10
78.86322724616139
 20
122.6423804664468
 30
0.0
  0
POINT
  5
3305
330
313A
100
AcDbEntity
  8
DEFPOINTS
 62
     0
100
AcDbPoint
 10
241.4289230134615
 20
64.94396867754701
 30
0.0
  0
POINT
  5
3306
330
313A
100
AcDbEntity
  8
DEFPOINTS
 62
     0
100
AcDbPoint
 10
54.62888080826129
 20
64.94396867754706
 30
0.0
  0
ENDBLK
  5
3145
330
313A
100
AcDbEntity
  8
0
100
AcDbBlockEnd
  0
ENDSEC
  0
SECTION
  2
ENTITIES
  0
LINE
  5
2D50
330
1A
100
AcDbEntity
  8
SEIHIN
100
AcDbLine
 10
298.2926981624867
 20
157.6150893079379
 30
0.0
 11
312.2198485257868
 21
163.1859494532379
 31
0.0
  0
LINE
  5
2D51
330
1A
100
AcDbEntity
  8
SEIHIN
100
AcDbLine
 10
322.8539805336867
 20
143.332075442438
 30
0.0
 11
338.6529725815867
 21
103.834595322438
 31
0.0
  0
LINE
  5
2D52
330
1A
100
AcDbEntity
  8
SEIHIN
100
AcDbLine
 10
335.4033041634867
 20
113.3050575695379
 30
0.0
 11
339.5814492724868
 21
114.9763156131379
 31
0.0
  0
LINE
  5
2D53
330
1A
100
AcDbEntity
  8
SEIHIN
100
AcDbLine
 10
332.6178740908866
 20
128.346379961838
 30
0.0
 11
338.1887342361867
 21
114.419229598538
 31
0.0
  0
LINE
  5
2D54
330
1A
100
AcDbEntity
  8
SEIHIN
100
AcDbLine
 10
326.1185372546867
 20
136.516974841638
 30
0.0
 11
339.1172109270869
 21
104.020290660638
 31
0.0
  0
LINE
  5
2D55
330
1A
100
AcDbEntity
  8
SEIHIN
100
AcDbLine
 10
336.8888668689867
 20
109.591150805938
 30
0.0
 11
341.0670119778868
 21
111.2624088495379
 31
0.0
  0
LINE
  5
2D56
330
1A
100
AcDbEntity
  8
SEIHIN
100
AcDbLine
 10
328.9039673273868
 20
137.631146870738
 30
0.0
 11
331.1323113854867
 21
132.060286725438
 31
0.0
  0
LINE
  5
2D57
330
1A
100
AcDbEntity
  8
SEIHIN
100
AcDbLine
 10
328.3468813127867
 20
130.9461146963379
 30
0.0
 11
332.5250264217868
 21
132.6173727399379
 31
0.0
  0
LINE
  5
2D58
330
1A
100
AcDbEntity
  8
SEIHIN
100
AcDbLine
 10
313.2127112513867
 20
100.120688558938
 30
0.0
 11
311.7271485459867
 21
103.834595322438
 31
0.0
  0
LINE
  5
2D59
330
1A
100
AcDbEntity
  8
SEIHIN
100
AcDbLine
 10
290.8364230010868
 20
122.404129140138
 30
0.0
 11
307.0847650914868
 21
128.9034659763379
 31
0.0
  0
LINE
  5
2D5A
330
1A
100
AcDbEntity
  8
SEIHIN
100
AcDbLine
 10
295.4776335574868
 20
164.6527508204379
 30
0.0
 11
309.4047839207867
 21
170.2236109657379
 31
0.0
  0
LINE
  5
2D5B
330
1A
100
AcDbEntity
  8
SEIHIN
100
AcDbLine
 10
304.2844467159869
 20
135.9042619153379
 30
0.0
 11
320.0834387638867
 21
96.40678179543799
 31
0.0
  0
LINE
  5
2D5C
330
1A
100
AcDbEntity
  8
SEIHIN
100
AcDbLine
 10
320.5327888064867
 20
142.403598751538
 30
0.0
 11
309.4047839207867
 21
170.2236109657379
 31
0.0
  0
CIRCLE
  5
2D5D
330
1A
100
AcDbEntity
  8
SEIHIN
100
AcDbCircle
 10
306.4348314078868
 20
99.56360254443801
 30
0.0
 40
2.1
  0
LINE
  5
2D5E
330
1A
100
AcDbEntity
  8
SEIHIN
100
AcDbLine
 10
315.9052936549867
 20
105.5058533660379
 30
0.0
 11
311.7271485459867
 21
103.834595322438
 31
0.0
  0
LINE
  5
2D5F
330
1A
100
AcDbEntity
  8
SEIHIN
100
AcDbLine
 10
307.5490034369867
 20
118.3188317003379
 30
0.0
 11
313.1198635822867
 21
104.391681337038
 31
0.0
  0
LINE
  5
2D60
330
1A
100
AcDbEntity
  8
SEIHIN
100
AcDbLine
 10
317.3908563603867
 20
101.791946602538
 30
0.0
 11
313.2127112513867
 21
100.120688558938
 31
0.0
  0
LINE
  5
2D61
330
1A
100
AcDbEntity
  8
SEIHIN
100
AcDbLine
 10
304.2844467159869
 20
135.9042619153379
 30
0.0
 11
322.8539805336867
 21
143.332075442438
 31
0.0
  0
LINE
  5
2D62
330
1A
100
AcDbEntity
  8
SEIHIN
100
AcDbLine
 10
306.6205267460869
 20
128.7177706382381
 30
0.0
 11
319.6192004184867
 21
96.221086457238
 31
0.0
  0
LINE
  5
2D63
330
1A
100
AcDbEntity
  8
SEIHIN
100
AcDbLine
 10
325.6542989092868
 20
136.3312795034381
 30
0.0
 11
341.9026409996868
 21
142.8306163396379
 31
0.0
  0
CIRCLE
  5
2D64
330
1A
100
AcDbEntity
  8
SEIHIN
100
AcDbCircle
 10
339.3029062652867
 20
133.1744587544379
 30
0.0
 40
2.1
  0
LINE
  5
2D65
330
1A
100
AcDbEntity
  8
SEIHIN
100
AcDbLine
 10
334.0105891271868
 20
128.9034659763379
 30
0.0
 11
332.5250264217868
 21
132.6173727399379
 31
0.0
  0
LINE
  5
2D66
330
1A
100
AcDbEntity
  8
SEIHIN
100
AcDbLine
 10
339.6742969415867
 20
110.705322835038
 30
0.0
 11
341.9026409996868
 21
105.134462689738
 31
0.0
  0
LINE
  5
2D67
330
1A
100
AcDbEntity
  8
SEIHIN
100
AcDbLine
 10
314.6054262876867
 20
100.677774573438
 30
0.0
 11
316.8337703457867
 21
95.10691442813799
 31
0.0
  0
LINE
  5
2D68
330
1A
100
AcDbEntity
  8
SEIHIN
100
AcDbLine
 10
341.0670119778868
 20
111.2624088495379
 30
0.0
 11
339.5814492724868
 21
114.9763156131379
 31
0.0
  0
LINE
  5
2D69
330
1A
100
AcDbEntity
  8
SEIHIN
100
AcDbLine
 10
308.8488708041869
 20
123.1469104929379
 30
0.0
 11
304.6707256951867
 21
121.4756524493379
 31
0.0
  0
LINE
  5
2D6A
330
1A
100
AcDbEntity
  8
SEIHIN
100
AcDbLine
 10
310.3344335095868
 20
119.433003729338
 30
0.0
 11
306.1562884006868
 21
117.761745685738
 31
0.0
  0
LINE
  5
2D6B
330
1A
100
AcDbEntity
  8
SEIHIN
100
AcDbLine
 10
329.8324440181867
 20
127.232207932838
 30
0.0
 11
334.0105891271868
 21
128.9034659763379
 31
0.0
  0
LINE
  5
2D6C
330
1A
100
AcDbEntity
  8
SEIHIN
100
AcDbLine
 10
303.8350966733867
 20
89.90744495923808
 30
0.0
 11
354.9013146720867
 21
110.333932158638
 31
0.0
  0
LINE
  5
2D6D
330
1A
100
AcDbEntity
  8
SEIHIN
100
AcDbLine
 10
226.8302493410613
 20
183.679651709647
 30
0.0
 11
226.8302493410613
 21
198.0501462702468
 31
0.0
  0
LINE
  5
2D6E
330
1A
100
AcDbEntity
  8
SEIHIN
100
AcDbLine
 10
226.8302493410613
 20
239.6796517096468
 30
0.0
 11
226.8302493410613
 21
225.3091571490469
 31
0.0
  0
LINE
  5
2D6F
330
1A
100
AcDbEntity
  8
SEIHIN
100
AcDbLine
 10
83.36322724616138
 20
221.6796517096468
 30
0.0
 11
240.9289230134613
 21
221.6796517096468
 31
0.0
  0
LINE
  5
2D70
330
1A
100
AcDbEntity
  8
SEIHIN
100
AcDbLine
 10
189.4621115918613
 20
219.1796517096468
 30
0.0
 11
209.6805021194613
 21
219.1796517096468
 31
0.0
  0
LINE
  5
2D71
330
1A
100
AcDbEntity
  8
SEIHIN
100
AcDbLine
 10
78.46322724616141
 20
219.1796517096468
 30
0.0
 11
78.86322724616139
 21
219.1796517096468
 31
0.0
  0
LINE
  5
2D72
330
1A
100
AcDbEntity
  8
SEIHIN
100
AcDbLine
 10
236.9289230134613
 20
221.990651913747
 30
0.0
 11
236.9289230134613
 21
221.6796517096468
 31
0.0
  0
ARC
  5
2D73
330
1A
100
AcDbEntity
  8
SEIHIN
100
AcDbCircle
 10
239.3289230134614
 20
225.3495979870469
 30
0.0
 40
2.1
100
AcDbArc
 50
288.3896487477998
 51
0.0000042603
  0
LINE
  5
2D74
330
1A
100
AcDbEntity
  8
SEIHIN
100
AcDbLine
 10
237.1716750386612
 20
222.4193983184469
 30
0.0
 11
239.9914259966613
 21
223.3568385965468
 31
0.0
  0
ARC
  5
2D75
330
1A
100
AcDbEntity
  8
SEIHIN
100
AcDbCircle
 10
237.4289230134613
 20
221.9906519138469
 30
0.0
 40
0.5
100
AcDbArc
 50
120.9637695122999
 51
180.0000000117
  0
ARC
  5
2D76
330
1A
100
AcDbEntity
  8
SEIHIN
100
AcDbCircle
 10
226.3302493410613
 20
225.3091571490469
 30
0.0
 40
0.5
100
AcDbArc
 50
288.3896443627
 51
0.0000000353
  0
ARC
  5
2D77
330
1A
100
AcDbEntity
  8
SEIHIN
100
AcDbCircle
 10
226.3302493410613
 20
225.3495979870469
 30
0.0
 40
2.1
100
AcDbArc
 50
288.3896487477998
 51
0.0000042603
  0
LINE
  5
2D78
330
1A
100
AcDbEntity
  8
SEIHIN
100
AcDbLine
 10
224.1730013662613
 20
222.4193983184469
 30
0.0
 11
226.9927523242613
 21
223.3568385965468
 31
0.0
  0
LINE
  5
2D79
330
1A
100
AcDbEntity
  8
SEIHIN
100
AcDbLine
 10
223.9302493410613
 20
223.9843575408468
 30
0.0
 11
226.8302493410613
 21
226.2832849201469
 31
0.0
  0
ARC
  5
2D7A
330
1A
100
AcDbEntity
  8
SEIHIN
100
AcDbCircle
 10
224.4302493410613
 20
221.9906519138469
 30
0.0
 40
0.5
100
AcDbArc
 50
120.9637695122999
 51
180.0000000117
  0
LINE
  5
2D7B
330
1A
100
AcDbEntity
  8
SEIHIN
100
AcDbLine
 10
228.4302493410613
 20
224.1210330818469
 30
0.0
 11
240.3512727471613
 21
224.1210330818469
 31
0.0
  0
LINE
  5
2D7C
330
1A
100
AcDbEntity
  8
SEIHIN
100
AcDbLine
 10
228.4302493410613
 20
239.6796517096468
 30
0.0
 11
228.4302493410613
 21
225.3495981419468
 31
0.0
  0
LINE
  5
2D7D
330
1A
100
AcDbEntity
  8
SEIHIN
100
AcDbLine
 10
223.3498080146614
 20
223.7913869138469
 30
0.0
 11
226.4879881121614
 21
224.8346906098468
 31
0.0
  0
LINE
  5
2D7E
330
1A
100
AcDbEntity
  8
SEIHIN
100
AcDbLine
 10
222.3302493410613
 20
221.9906517576469
 30
0.0
 11
222.3302493410613
 21
221.6796517096468
 31
0.0
  0
LINE
  5
2D7F
330
1A
100
AcDbEntity
  8
SEIHIN
100
AcDbLine
 10
223.9302493410613
 20
221.990651913747
 30
0.0
 11
223.9302493410613
 21
221.6796517096468
 31
0.0
  0
LINE
  5
2D80
330
1A
100
AcDbEntity
  8
SEIHIN
100
AcDbLine
 10
78.86322724616139
 20
221.6796517096468
 30
0.0
 11
83.36322724616138
 21
221.6796517096468
 31
0.0
  0
LINE
  5
2D81
330
1A
100
AcDbEntity
  8
SEIHIN
100
AcDbLine
 10
241.4289230134613
 20
239.6796517096468
 30
0.0
 11
241.4289230134613
 21
225.3495981419468
 31
0.0
  0
ARC
  5
2D82
330
1A
100
AcDbEntity
  8
SEIHIN
100
AcDbCircle
 10
224.4302493410613
 20
221.9906519138469
 30
0.0
 40
2.1
100
AcDbArc
 50
120.9637641725
 51
180.0000042601999
  0
LINE
  5
2D83
330
1A
100
AcDbEntity
  8
SEIHIN
100
AcDbLine
 10
189.4621115918613
 20
204.1796517096468
 30
0.0
 11
189.4621115918613
 21
219.1796517096468
 31
0.0
  0
LINE
  5
2D84
330
1A
100
AcDbEntity
  8
SEIHIN
100
AcDbLine
 10
209.6805021194613
 20
204.1796517096468
 30
0.0
 11
209.6805021194613
 21
219.1796517096468
 31
0.0
  0
LINE
  5
2D85
330
1A
100
AcDbEntity
  8
SEIHIN
100
AcDbLine
 10
194.7939037110613
 20
204.1796517096468
 30
0.0
 11
194.7939037110613
 21
219.1796517096468
 31
0.0
  0
LINE
  5
2D86
330
1A
100
AcDbEntity
  8
SEIHIN
100
AcDbLine
 10
226.4198511796614
 20
205.8793623950469
 30
0.0
 11
226.4198511796614
 21
217.6300694657469
 31
0.0
  0
LINE
  5
2D87
330
1A
100
AcDbEntity
  8
SEIHIN
100
AcDbLine
 10
78.86322724616139
 20
201.6796517096469
 30
0.0
 11
78.86322724616139
 21
221.6796517096468
 31
0.0
  0
LINE
  5
2D88
330
1A
100
AcDbEntity
  8
SEIHIN
100
AcDbLine
 10
241.4289230134613
 20
183.679651709647
 30
0.0
 11
241.4289230134613
 21
198.0097052773469
 31
0.0
  0
LINE
  5
2D89
330
1A
100
AcDbEntity
  8
SEIHIN
100
AcDbLine
 10
226.9927523098612
 20
200.0024647795469
 30
0.0
 11
224.1730014633613
 21
200.9399050426468
 31
0.0
  0
ARC
  5
2D8A
330
1A
100
AcDbEntity
  8
SEIHIN
100
AcDbCircle
 10
226.3302493410613
 20
198.0501462702468
 30
0.0
 40
0.5
100
AcDbArc
 50
0.0000000353
 51
71.6103557078
  0
LINE
  5
2D8B
330
1A
100
AcDbEntity
  8
SEIHIN
100
AcDbLine
 10
228.4302493410613
 20
183.679651709647
 30
0.0
 11
228.4302493410613
 21
198.0097052773469
 31
0.0
  0
LINE
  5
2D8C
330
1A
100
AcDbEntity
  8
SEIHIN
100
AcDbLine
 10
222.3302493410613
 20
201.3686513493469
 30
0.0
 11
222.3302493410613
 21
201.6796517096469
 31
0.0
  0
LINE
  5
2D8D
330
1A
100
AcDbEntity
  8
SEIHIN
100
AcDbLine
 10
223.9302493410613
 20
201.3686515053469
 30
0.0
 11
223.9302493410613
 21
201.6796517096469
 31
0.0
  0
ARC
  5
2D8E
330
1A
100
AcDbEntity
  8
SEIHIN
100
AcDbCircle
 10
224.4302493410613
 20
201.3686515054469
 30
0.0
 40
2.1
100
AcDbArc
 50
180.0000042601999
 51
239.0362434874
  0
LINE
  5
2D8F
330
1A
100
AcDbEntity
  8
SEIHIN
100
AcDbLine
 10
78.46322724616141
 20
204.1796517096468
 30
0.0
 11
78.86322724616139
 21
204.1796517096468
 31
0.0
  0
LINE
  5
2D90
330
1A
100
AcDbEntity
  8
SEIHIN
100
AcDbLine
 10
189.4621115918613
 20
204.1796517096468
 30
0.0
 11
209.6805021194613
 21
204.1796517096468
 31
0.0
  0
LINE
  5
2D91
330
1A
100
AcDbEntity
  8
SEIHIN
100
AcDbLine
 10
83.36322724616138
 20
201.6796517096469
 30
0.0
 11
240.9289230134613
 21
201.6796517096469
 31
0.0
  0
LINE
  5
2D92
330
1A
100
AcDbEntity
  8
SEIHIN
100
AcDbLine
 10
223.9302493410613
 20
199.3749458784469
 30
0.0
 11
226.8302493410613
 21
197.0760184991469
 31
0.0
  0
ARC
  5
2D93
330
1A
100
AcDbEntity
  8
SEIHIN
100
AcDbCircle
 10
226.3302493410613
 20
198.0097054322469
 30
0.0
 40
2.1
100
AcDbArc
 50
359.9999958101999
 51
71.6103513227
  0
ARC
  5
2D94
330
1A
100
AcDbEntity
  8
SEIHIN
100
AcDbCircle
 10
224.4302493410613
 20
201.3686515054469
 30
0.0
 40
0.5
100
AcDbArc
 50
180.0000000117
 51
239.0362434874
  0
LINE
  5
2D95
330
1A
100
AcDbEntity
  8
SEIHIN
100
AcDbLine
 10
223.3498082547613
 20
199.5679163614468
 30
0.0
 11
226.4879881068613
 21
198.5246127935468
 31
0.0
  0
LINE
  5
2D96
330
1A
100
AcDbEntity
  8
SEIHIN
100
AcDbLine
 10
228.4302493410613
 20
199.2382703374469
 30
0.0
 11
240.3512727471613
 21
199.2382703374469
 31
0.0
  0
LINE
  5
2D97
330
1A
100
AcDbEntity
  8
SEIHIN
100
AcDbLine
 10
78.86322724616139
 20
201.6796517096469
 30
0.0
 11
83.36322724616138
 21
201.6796517096469
 31
0.0
  0
LINE
  5
2D98
330
1A
100
AcDbEntity
  8
SEIHIN
100
AcDbLine
 10
236.9289230134613
 20
201.3686515053469
 30
0.0
 11
236.9289230134613
 21
201.6796517096469
 31
0.0
  0
LINE
  5
2D99
330
1A
100
AcDbEntity
  8
SEIHIN
100
AcDbLine
 10
239.9914259822613
 20
200.0024647795469
 30
0.0
 11
237.1716751357613
 21
200.9399050426468
 31
0.0
  0
ARC
  5
2D9A
330
1A
100
AcDbEntity
  8
SEIHIN
100
AcDbCircle
 10
239.3289230134614
 20
198.0097054322469
 30
0.0
 40
2.1
100
AcDbArc
 50
359.9999958101999
 51
71.6103513227
  0
ARC
  5
2D9B
330
1A
100
AcDbEntity
  8
SEIHIN
100
AcDbCircle
 10
237.4289230134613
 20
201.3686515054469
 30
0.0
 40
0.5
100
AcDbArc
 50
180.0000000117
 51
239.0362434874
  0
LINE
  5
2D9C
330
1A
100
AcDbEntity
  8
SEIHIN
100
AcDbLine
 10
83.36322724616138
 20
201.6796517096469
 30
0.0
 11
83.36322724616138
 21
221.6796517096468
 31
0.0
  0
LINE
  5
2D9D
330
1A
100
AcDbEntity
  8
SEIHIN
100
AcDbLine
 10
240.9289230134613
 20
201.6796517096469
 30
0.0
 11
240.9289230134613
 21
221.6796517096468
 31
0.0
  0
LINE
  5
2D9E
330
1A
100
AcDbEntity
  8
SEIHIN
100
AcDbLine
 10
105.2630782377613
 20
220.0255110229469
 30
0.0
 11
105.2630782377613
 21
203.4401228950469
 31
0.0
  0
LINE
  5
2D9F
330
1A
100
AcDbEntity
  8
SEIHIN
100
AcDbLine
 10
94.60366022096138
 20
220.0255110229469
 30
0.0
 11
94.60366022096138
 21
203.4401228950469
 31
0.0
  0
LINE
  5
2DA0
330
1A
100
AcDbEntity
  8
SEIHIN
100
AcDbLine
 10
78.46322724616141
 20
204.1796517096468
 30
0.0
 11
78.46322724616141
 21
219.1796517096468
 31
0.0
  0
LINE
  5
2DA1
330
1A
100
AcDbEntity
  8
SEIHIN
100
AcDbLine
 10
90.51185196616136
 20
220.0255110229469
 30
0.0
 11
90.51185196616136
 21
203.4401228950469
 31
0.0
  0
LINE
  5
2DA2
330
1A
100
AcDbEntity
  8
SEIHIN
100
AcDbLine
 10
182.4115925537614
 20
220.0255110229469
 30
0.0
 11
182.4115925537614
 21
203.4401228950469
 31
0.0
  0
LINE
  5
2DA3
330
1A
100
AcDbEntity
  8
SEIHIN
100
AcDbLine
 10
222.5898660375613
 20
98.578699099547
 30
0.0
 11
223.7878658866613
 21
95.5836994768469
 31
0.0
  0
ARC
  5
2DA4
330
1A
100
AcDbEntity
  8
SEIHIN
100
AcDbCircle
 10
206.0805021194613
 20
121.815020912747
 30
0.0
 40
3.6
100
AcDbArc
 50
0.0
 51
90.0000000118
  0
LINE
  5
2DA5
330
1A
100
AcDbEntity
  8
SEIHIN
100
AcDbLine
 10
306.6056384431867
 20
136.8327386062379
 30
0.0
 11
295.4776335574868
 21
164.6527508204379
 31
0.0
  0
LINE
  5
2DA6
330
1A
100
AcDbEntity
  8
SEIHIN
100
AcDbLine
 10
200.0712904159613
 20
102.7150209127469
 30
0.0
 11
206.0805021194613
 21
102.7150209127469
 31
0.0
  0
LINE
  5
2DA7
330
1A
100
AcDbEntity
  8
SUNPOU
100
AcDbLine
 10
206.0805021190612
 20
123.815020912747
 30
0.0
 11
217.8805021184614
 21
123.8150209151469
 31
0.0
  0
LINE
  5
2DA8
330
1A
100
AcDbEntity
  8
SUNPOU
100
AcDbLine
 10
217.8805021184614
 20
123.8150209151469
 30
0.0
 11
228.4302493411613
 21
97.44065285854691
 31
0.0
  0
LINE
  5
2DA9
330
1A
100
AcDbEntity
  8
SEIHIN
100
AcDbLine
 10
303.8350966733867
 20
127.6035986091379
 30
0.0
 11
306.0634407315867
 21
122.0327384638379
 31
0.0
  0
ARC
  5
2DAA
330
1A
100
AcDbEntity
  8
SEIHIN
100
AcDbCircle
 10
203.1398078092613
 20
95.98680791594691
 30
0.0
 40
6.5
100
AcDbArc
 50
96.0000000125
 51
173.0000000225999
  0
LINE
  5
2DAB
330
1A
100
AcDbEntity
  8
SEIHIN
100
AcDbLine
 10
200.0712904159613
 20
104.3150209127469
 30
0.0
 11
206.0805021194613
 21
104.3150209127469
 31
0.0
  0
LINE
  5
2DAC
330
1A
100
AcDbEntity
  8
SEIHIN
100
AcDbLine
 10
208.0805021194613
 20
121.815020912747
 30
0.0
 11
208.0805021194613
 21
106.3150209127469
 31
0.0
  0
LINE
  5
2DAD
330
1A
100
AcDbEntity
  8
SEIHIN
100
AcDbLine
 10
78.46322724616141
 20
151.1818308297469
 30
0.0
 11
78.86322724616139
 21
151.1818308297469
 31
0.0
  0
LINE
  5
2DAE
330
1A
100
AcDbEntity
  8
SEIHIN
100
AcDbLine
 10
78.86322724616139
 20
122.6423804664468
 30
0.0
 11
78.86322724616139
 21
151.1818308297469
 31
0.0
  0
ARC
  5
2DAF
330
1A
100
AcDbEntity
  8
SEIHIN
100
AcDbCircle
 10
206.0805021194613
 20
121.815020912747
 30
0.0
 40
2.0
100
AcDbArc
 50
0.0
 51
90.0000000118
  0
LINE
  5
2DB0
330
1A
100
AcDbEntity
  8
SEIHIN
100
AcDbLine
 10
83.36322724616138
 20
106.2082454153469
 30
0.0
 11
83.36322724616138
 21
122.6423804664468
 31
0.0
  0
CIRCLE
  5
2DB1
330
1A
100
AcDbEntity
  8
SEIHIN
100
AcDbCircle
 10
299.3784085571867
 20
117.2046596712379
 30
0.0
 40
2.1
  0
ARC
  5
2DB2
330
1A
100
AcDbEntity
  8
SEIHIN
100
AcDbCircle
 10
152.0287468410613
 20
109.2082598917469
 30
0.0
 40
48.5000144765
100
AcDbArc
 50
281.6548006464
 51
323.8742014572
  0
LINE
  5
2DB3
330
1A
100
AcDbEntity
  8
SEIHIN
100
AcDbLine
 10
196.1715640684613
 20
123.815020912747
 30
0.0
 11
206.0805021194613
 21
123.815020912747
 31
0.0
  0
ARC
  5
2DB4
330
1A
100
AcDbEntity
  8
SEIHIN
100
AcDbCircle
 10
192.0111215022613
 20
80.025025841647
 30
0.0
 40
1.0
100
AcDbArc
 50
90.0000000118
 51
143.8742014336999
  0
ARC
  5
2DB5
330
1A
100
AcDbEntity
  8
SEIHIN
100
AcDbCircle
 10
194.4217233609612
 20
86.52502584164698
 30
0.0
 40
5.5
100
AcDbArc
 50
270.0000000353
 51
353.0000000461
  0
ARC
  5
2DB6
330
1A
100
AcDbEntity
  8
SEIHIN
100
AcDbCircle
 10
200.0712904159613
 20
99.71502091274691
 30
0.0
 40
3.0
100
AcDbArc
 50
90.0000000118
 51
173.0000000225999
  0
LINE
  5
2DB7
330
1A
100
AcDbEntity
  8
SEIHIN
100
AcDbLine
 10
226.7680111465612
 20
100.2499571430468
 30
0.0
 11
227.9660109956614
 21
97.2549575204469
 31
0.0
  0
ARC
  5
2DB8
330
1A
100
AcDbEntity
  8
SEIHIN
100
AcDbCircle
 10
85.36322724616139
 20
106.2082454153469
 30
0.0
 40
6.5
100
AcDbArc
 50
180.0000000234999
 51
270.0000000353
  0
ARC
  5
2DB9
330
1A
100
AcDbEntity
  8
SEIHIN
100
AcDbCircle
 10
85.36322724616139
 20
106.2082454153469
 30
0.0
 40
2.0
100
AcDbArc
 50
180.0000000234999
 51
270.0000000353
  0
LINE
  5
2DBA
330
1A
100
AcDbEntity
  8
SEIHIN
100
AcDbLine
 10
83.36322724616138
 20
122.6423804664468
 30
0.0
 11
78.86322724616139
 21
122.6423804664468
 31
0.0
  0
LINE
  5
2DBB
330
1A
100
AcDbEntity
  8
SEIHIN
100
AcDbLine
 10
78.86322724616139
 20
106.2082454153469
 30
0.0
 11
78.86322724616139
 21
122.6423804664468
 31
0.0
  0
LINE
  5
2DBC
330
1A
100
AcDbEntity
  8
SEIHIN
100
AcDbLine
 10
85.36322724616139
 20
104.2082454153469
 30
0.0
 11
85.79332329396141
 21
104.2082454153469
 31
0.0
  0
ARC
  5
2DBD
330
1A
100
AcDbEntity
  8
SEIHIN
100
AcDbCircle
 10
85.79332329396141
 20
97.70824541534691
 30
0.0
 40
6.5
100
AcDbArc
 50
5.7107117865
 51
90.0000000118
  0
ARC
  5
2DBE
330
1A
100
AcDbEntity
  8
SEIHIN
100
AcDbCircle
 10
85.79332329396141
 20
97.70824541534691
 30
0.0
 40
2.0
100
AcDbArc
 50
5.7107117865
 51
90.0000000118
  0
LINE
  5
2DBF
330
1A
100
AcDbEntity
  8
SEIHIN
100
AcDbLine
 10
85.36322724616139
 20
99.70824541534691
 30
0.0
 11
85.79332329396141
 21
99.70824541534691
 31
0.0
  0
LINE
  5
2DC0
330
1A
100
AcDbEntity
  8
SEIHIN
100
AcDbLine
 10
78.46322724616141
 20
108.8885993943469
 30
0.0
 11
78.86322724616139
 21
108.8885993943469
 31
0.0
  0
LINE
  5
2DC1
330
1A
100
AcDbEntity
  8
SEIHIN
100
AcDbLine
 10
90.31146704606141
 20
72.62708787414698
 30
0.0
 11
103.6566660236613
 21
61.70819541534695
 31
0.0
  0
ARC
  5
2DC2
330
1A
100
AcDbEntity
  8
SEIHIN
100
AcDbCircle
 10
200.0712904159613
 20
99.71502091274691
 30
0.0
 40
4.599999999999998
100
AcDbArc
 50
90.0000000118
 51
173.0000000225999
  0
ARC
  5
2DC3
330
1A
100
AcDbEntity
  8
SEIHIN
100
AcDbCircle
 10
196.1715640684613
 20
121.815020912747
 30
0.0
 40
2.0
100
AcDbArc
 50
90.0000000118
 51
135.0000000175999
  0
LINE
  5
2DC4
330
1A
100
AcDbEntity
  8
SEIHIN
100
AcDbLine
 10
196.1715640684613
 20
125.4150209127469
 30
0.0
 11
206.0805021194613
 21
125.4150209127469
 31
0.0
  0
LINE
  5
2DC5
330
1A
100
AcDbEntity
  8
SEIHIN
100
AcDbLine
 10
241.4289230134613
 20
64.94396867754699
 30
0.0
 11
235.3009768536613
 21
62.49279021364697
 31
0.0
  0
LINE
  5
2DC6
330
1A
100
AcDbEntity
  8
SEIHIN
100
AcDbLine
 10
228.4302493411613
 20
97.44065285854691
 30
0.0
 11
222.3023031812612
 21
94.98947439464689
 31
0.0
  0
LINE
  5
2DC7
330
1A
100
AcDbEntity
  8
SEIHIN
100
AcDbLine
 10
222.3023031812612
 20
94.98947439464689
 30
0.0
 11
235.3009768536613
 21
62.49279021364697
 31
0.0
  0
LINE
  5
2DC8
330
1A
100
AcDbEntity
  8
SEIHIN
100
AcDbLine
 10
209.6805021194613
 20
121.815020912747
 30
0.0
 11
209.6805021194613
 21
106.3150209127469
 31
0.0
  0
LINE
  5
2DC9
330
1A
100
AcDbEntity
  8
SEIHIN
100
AcDbLine
 10
78.46322724616141
 20
108.8885993943469
 30
0.0
 11
78.46322724616141
 21
151.1818308297469
 31
0.0
  0
LINE
  5
2DCA
330
1A
100
AcDbEntity
  8
SEIHIN
100
AcDbLine
 10
92.26106369106137
 20
98.3550329824469
 30
0.0
 11
94.60366022096138
 21
74.92955762914698
 31
0.0
  0
LINE
  5
2DCB
330
1A
100
AcDbEntity
  8
SEIHIN
100
AcDbLine
 10
194.0010006285613
 20
88.02181958764698
 30
0.0
 11
195.5890744711614
 21
87.82682863814692
 31
0.0
  0
ARC
  5
2DCC
330
1A
100
AcDbEntity
  8
SEIHIN
100
AcDbCircle
 10
194.4217233609612
 20
86.52502584164698
 30
0.0
 40
1.0
100
AcDbArc
 50
270.0000000353
 51
353.0000000461
  0
LINE
  5
2DCD
330
1A
100
AcDbEntity
  8
SEIHIN
100
AcDbLine
 10
194.7573505060613
 20
123.2292344751469
 30
0.0
 11
190.5934824417612
 21
119.0653664108469
 31
0.0
  0
LINE
  5
2DCE
330
1A
100
AcDbEntity
  8
SEIHIN
100
AcDbLine
 10
192.0111215022613
 20
81.02502584164698
 30
0.0
 11
194.4217233609612
 21
81.02502584164698
 31
0.0
  0
LINE
  5
2DCF
330
1A
100
AcDbEntity
  8
SEIHIN
100
AcDbLine
 10
289.1651649574867
 20
118.504527038438
 30
0.0
 11
299.9354945716868
 21
91.57870300283809
 31
0.0
  0
ARC
  5
2DD0
330
1A
100
AcDbEntity
  8
SEIHIN
100
AcDbCircle
 10
291.9505950300867
 20
119.618699067538
 30
0.0
 40
3.0
100
AcDbArc
 50
111.8014094981
 51
201.8014095099
  0
LINE
  5
2DD1
330
1A
100
AcDbEntity
  8
SEIHIN
100
AcDbLine
 10
201.1547155059613
 20
96.23054660274691
 30
0.0
 11
199.8807271950613
 21
85.85474445284694
 31
0.0
  0
LINE
  5
2DD2
330
1A
100
AcDbEntity
  8
SEIHIN
100
AcDbLine
 10
105.2630782377613
 20
66.20814109624695
 30
0.0
 11
161.3562233942613
 21
66.20826622804696
 31
0.0
  0
LINE
  5
2DD3
330
1A
100
AcDbEntity
  8
SEIHIN
100
AcDbLine
 10
94.60366022096138
 20
74.92955762914698
 30
0.0
 11
105.2630782377613
 21
66.20814109624695
 31
0.0
  0
LINE
  5
2DD4
330
1A
100
AcDbEntity
  8
SEIHIN
100
AcDbLine
 10
161.8264648896614
 20
61.70819541534695
 30
0.0
 11
103.6566660236613
 21
61.70819541534695
 31
0.0
  0
ARC
  5
2DD5
330
1A
100
AcDbEntity
  8
SEIHIN
100
AcDbCircle
 10
206.0805021194613
 20
106.3150209127469
 30
0.0
 40
2.0
100
AcDbArc
 50
270.0000000353
 51
0.0
  0
LINE
  5
2DD6
330
1A
100
AcDbEntity
  8
SEIHIN
100
AcDbLine
 10
228.4302493410613
 20
97.44065285854691
 30
0.0
 11
241.4289230134613
 21
64.94396867754699
 31
0.0
  0
ARC
  5
2DD7
330
1A
100
AcDbEntity
  8
SEIHIN
100
AcDbCircle
 10
203.1398078092613
 20
95.98680791594691
 30
0.0
 40
2.0
100
AcDbArc
 50
96.0000000125
 51
173.0000000225999
  0
ARC
  5
2DD8
330
1A
100
AcDbEntity
  8
SEIHIN
100
AcDbCircle
 10
206.0805021194613
 20
106.3150209127469
 30
0.0
 40
3.6
100
AcDbArc
 50
270.0000000353
 51
0.0
  0
LINE
  5
2DD9
330
1A
100
AcDbEntity
  8
SEIHIN
100
AcDbLine
 10
226.9446866356613
 20
96.8464277764469
 30
0.0
 11
239.9433603080613
 21
64.34974359544696
 31
0.0
  0
LINE
  5
2DDA
330
1A
100
AcDbEntity
  8
SEIHIN
100
AcDbLine
 10
306.1562884006868
 20
117.761745685738
 30
0.0
 11
304.6707256951867
 21
121.4756524493379
 31
0.0
  0
ARC
  5
2DDB
330
1A
100
AcDbEntity
  8
SEIHIN
100
AcDbCircle
 10
-231.4302493410613
 20
239.6796517096468
 30
0.0
 40
3.0
210
0.0
220
0.0
230
-1.0
100
AcDbArc
 50
0.0
 51
56.44269023807857
  0
ELLIPSE
  5
2DDC
330
1A
100
AcDbEntity
  8
SEIHIN
100
AcDbEllipse
 10
231.4011584355614
 20
233.6796517096468
 30
0.0
 11
0.0
 21
-2.099999999999993
 31
0.0
210
0.0
220
0.0
230
-1.0
 40
0.3712875744
 41
-1.570796326794896
 42
4.712388980384688
  0
ARC
  5
2DDD
330
1A
100
AcDbEntity
  8
SEIHIN
100
AcDbCircle
 10
229.8302493410613
 20
183.679651709647
 30
0.0
 40
3.0
100
AcDbArc
 50
180.0
 51
236.4426902380809
  0
ARC
  5
2DDE
330
1A
100
AcDbEntity
  8
SEIHIN
100
AcDbCircle
 10
238.4289230134613
 20
183.679651709647
 30
0.0
 40
3.0
100
AcDbArc
 50
303.5573097619196
 51
0.0
  0
ARC
  5
2DDF
330
1A
100
AcDbEntity
  8
SEIHIN
100
AcDbCircle
 10
231.4302493410613
 20
183.679651709647
 30
0.0
 40
3.0
100
AcDbArc
 50
180.0
 51
236.4426902380809
  0
ELLIPSE
  5
2DE0
330
1A
100
AcDbEntity
  8
SEIHIN
100
AcDbEllipse
 10
231.4011584355614
 20
189.6796517096468
 30
0.0
 11
0.0
 21
2.099999999999993
 31
0.0
210
0.0
220
0.0
230
1.0
 40
0.3712875744
 41
-1.570796326794896
 42
4.712388980384688
  0
ELLIPSE
  5
2DE1
330
1A
100
AcDbEntity
  8
SEIHIN
100
AcDbEllipse
 10
238.4575825414613
 20
189.6796517096468
 30
0.0
 11
0.0
 21
2.099999999999993
 31
0.0
210
0.0
220
0.0
230
1.0
 40
0.3712875744
 41
-1.570796326794896
 42
4.712388980384688
  0
LINE
  5
2DE3
330
1A
100
AcDbEntity
  8
SEIHIN
100
AcDbLine
 10
87.7833972623614
 20
97.90725697444692
 30
0.0
 11
90.31146704606141
 21
72.62708787414698
 31
0.0
  0
ARC
  5
2DE4
330
1A
100
AcDbEntity
  8
SEIHIN
100
AcDbCircle
 10
-220.7329126558612
 20
97.8359177467469
 30
0.0
 40
6.5
210
0.0
220
0.0
230
-1.0
100
AcDbArc
 50
84.0
 51
158.1985905136999
  0
ARC
  5
2DE5
330
1A
100
AcDbEntity
  8
SEIHIN
100
AcDbCircle
 10
-220.7329126558612
 20
97.8359177467469
 30
0.0
 40
2.0
210
0.0
220
0.0
230
-1.0
100
AcDbArc
 50
84.0
 51
158.1985905136
  0
LINE
  5
2DE6
330
1A
100
AcDbEntity
  8
SEIHIN
100
AcDbLine
 10
197.0936519610613
 20
100.0806289429469
 30
0.0
 11
195.4142695126613
 21
86.40315649814692
 31
0.0
  0
ARC
  5
2DE7
330
1A
100
AcDbEntity
  8
SEIHIN
100
AcDbCircle
 10
152.0287468410613
 20
109.2082598917469
 30
0.0
 40
44.0000144765
100
AcDbArc
 50
282.2388815936998
 51
323.8742025326
  0
LINE
  5
2DE8
330
1A
100
AcDbEntity
  8
SEIHIN
100
AcDbLine
 10
195.5055781183614
 20
100.2756198924469
 30
0.0
 11
194.0010006285613
 21
88.02181958764698
 31
0.0
  0
LINE
  5
2DE9
330
1A
100
AcDbEntity
  8
SEIHIN
100
AcDbLine
 10
192.0111215022613
 20
85.52502584164699
 30
0.0
 11
194.4217233609612
 21
85.52502584164699
 31
0.0
  0
ARC
  5
2DEA
330
1A
100
AcDbEntity
  8
SEIHIN
100
AcDbCircle
 10
302.7209246443868
 20
92.69287503183804
 30
0.0
 40
3.0
100
AcDbArc
 50
201.8014095099
 51
291.8014095216
  0
LINE
  5
2DEB
330
1A
100
AcDbEntity
  8
SEIHIN
100
AcDbLine
 10
202.4603727980613
 20
102.4512002358469
 30
0.0
 11
220.0534776445612
 21
104.3003100666469
 31
0.0
  0
ARC
  5
2DEC
330
1A
100
AcDbEntity
  8
SEIHIN
100
AcDbCircle
 10
192.0111215022613
 20
80.025025841647
 30
0.0
 40
5.5
100
AcDbArc
 50
90.00000001169999
 51
143.8741928299
  0
ARC
  5
2DED
330
1A
100
AcDbEntity
  8
SEIHIN
100
AcDbCircle
 10
196.1715640684613
 20
121.815020912747
 30
0.0
 40
3.6
100
AcDbArc
 50
90.0000000118
 51
135.0000000175999
  0
LINE
  5
2DEE
330
1A
100
AcDbEntity
  8
SEIHIN
100
AcDbLine
 10
190.5934824417612
 20
119.0653664108469
 30
0.0
 11
189.4621115918613
 21
120.1967372607469
 31
0.0
  0
LINE
  5
2DEF
330
1A
100
AcDbEntity
  8
SEIHIN
100
AcDbLine
 10
202.9307508827613
 20
97.97585170664691
 30
0.0
 11
220.5238557292613
 21
99.82496153754691
 31
0.0
  0
LINE
  5
2DF0
330
1A
100
AcDbEntity
  8
SEIHIN
100
AcDbLine
 10
193.6259796561612
 20
124.3606053250469
 30
0.0
 11
189.4621115918613
 21
120.1967372607469
 31
0.0
  0
ARC
  5
2DF1
330
1A
100
AcDbEntity
  8
SEIHIN
100
AcDbCircle
 10
353.7871426430867
 20
113.119362231338
 30
0.0
 40
3.0
100
AcDbArc
 50
291.8014095216
 51
21.8014145132
  0
ARC
  5
2DF2
330
1A
100
AcDbEntity
  8
SEIHIN
100
AcDbCircle
 10
-238.4289230134613
 20
239.6796517096468
 30
0.0
 40
3.0
210
0.0
220
0.0
230
-1.0
100
AcDbArc
 50
123.5573097619214
 51
180.0
  0
ELLIPSE
  5
2DF4
330
1A
100
AcDbEntity
  8
SEIHIN
100
AcDbEllipse
 10
238.4575825414613
 20
233.6796517096468
 30
0.0
 11
0.0
 21
-2.099999999999993
 31
0.0
210
0.0
220
0.0
230
-1.0
 40
0.3712875744
 41
-1.570796326794896
 42
4.712388980384688
  0
ARC
  5
2DF5
330
1A
100
AcDbEntity
  8
SEIHIN
100
AcDbCircle
 10
-229.8302493410613
 20
239.6796517096468
 30
0.0
 40
3.0
210
0.0
220
0.0
230
-1.0
100
AcDbArc
 50
0.0
 51
56.44269023807857
  0
ARC
  5
2DF6
330
1A
100
AcDbEntity
  8
SEIHIN
100
AcDbCircle
 10
343.0168130287867
 20
140.0451862670379
 30
0.0
 40
3.0
100
AcDbArc
 50
21.80141119389998
 51
111.8014094981
  0
CIRCLE
  5
2DF7
330
1A
100
AcDbEntity
  8
SEIHIN
100
AcDbCircle
 10
346.3593291159869
 20
115.533401627638
 30
0.0
 40
2.1
  0
LINE
  5
2DF8
330
1A
100
AcDbEntity
  8
SEIHIN
100
AcDbLine
 10
345.8022430682868
 20
141.1593583790379
 30
0.0
 11
356.5725726179867
 21
114.233534504738
 31
0.0
  0
LINE
  5
2DF9
330
1A
100
AcDbEntity
  8
CENTER_L
100
AcDbLine
 10
334.6609111061279
 20
131.3177931606242
 30
0.0
 11
343.9457693749371
 21
135.0314715161264
 31
0.0
  0
LINE
  5
2DFA
330
1A
100
AcDbEntity
  8
CENTER_L
100
AcDbLine
 10
341.1601794182836
 20
128.5322032039707
 30
0.0
 11
337.4465010627812
 21
137.8170614727798
 31
0.0
  0
LINE
  5
2DFB
330
1A
100
AcDbEntity
  8
CENTER_L
100
AcDbLine
 10
341.7168999815824
 20
113.6765624498868
 30
0.0
 11
351.0017582503914
 21
117.3902408053891
 31
0.0
  0
LINE
  5
2DFC
330
1A
100
AcDbEntity
  8
CENTER_L
100
AcDbLine
 10
348.2161682937381
 20
110.8909724932334
 30
0.0
 11
344.5024899382356
 21
120.1758307620425
 31
0.0
  0
LINE
  5
2DFD
330
1A
100
AcDbEntity
  8
CENTER_L
100
AcDbLine
 10
301.2352888624042
 20
112.5633862753106
 30
0.0
 11
297.5216105069021
 21
121.8482445441197
 31
0.0
  0
LINE
  5
2DFE
330
1A
100
AcDbEntity
  8
CENTER_L
100
AcDbLine
 10
294.7360205502487
 20
115.348976231964
 30
0.0
 11
304.0208788190577
 21
119.0626545874663
 31
0.0
  0
LINE
  5
2DFF
330
1A
100
AcDbEntity
  8
CENTER_L
100
AcDbLine
 10
308.2912777378588
 20
94.92215556457342
 30
0.0
 11
304.5775993823566
 21
104.2070138333825
 31
0.0
  0
LINE
  5
2E00
330
1A
100
AcDbEntity
  8
CENTER_L
100
AcDbLine
 10
301.7920094257031
 20
97.70774552122681
 30
0.0
 11
311.0768676945122
 21
101.421423876729
 31
0.0
  0
DIMENSION
  5
2E01
330
1A
100
AcDbEntity
  8
SUNPOU
100
AcDbDimension
  2
*D2
 10
318.8784355475831
 20
184.1432274231793
 30
0.0
 11
297.9875706807681
 21
178.4800335260517
 31
0.0
 70
    32
  3
STANDARD
100
AcDbAlignedDimension
 13
297.2664478390224
 23
122.3888870455389
 33
0.0
 14
337.1913383949016
 24
138.357703974199
 34
0.0
 50
21.79999999999982
100
AcDbRotatedDimension
1001
ACAD
1000
DSTYLE
1002
{
1070
   140
1040
3.0
1070
    74
1070
     0
1070
   172
1070
     1
1070
    73
1070
     0
1070
   272
1070
     0
1070
    77
1070
     3
1070
   173
1070
     1
1070
   147
1040
1.0
1070
    42
1040
3.0
1070
    44
1040
1.5
1070
    43
1040
7.0
1070
   271
1070
     0
1070
   178
1070
   256
1070
   177
1070
   256
1070
   176
1070
   256
1070
   141
1040
3.0
1070
     7
1000
OPEN
1070
     6
1000
OPEN
1070
    41
1040
3.0
1002
}
  0
DIMENSION
  5
2E02
330
1A
100
AcDbEntity
  8
SUNPOU
100
AcDbDimension
  2
*D1
 10
323.8816394139083
 20
195.8690574608544
 30
0.0
 11
294.6344021051649
 21
186.8635530437747
 31
0.0
 70
    32
  3
STANDARD
100
AcDbAlignedDimension
 13
288.9100753970939
 23
119.0465765255868
 33
0.0
 14
345.5477108036295
 24
141.7000145771577
 34
0.0
 50
21.79999999999982
100
AcDbRotatedDimension
1001
ACAD
1000
DSTYLE
1002
{
1070
   140
1040
3.0
1070
    74
1070
     0
1070
   172
1070
     1
1070
    73
1070
     0
1070
   272
1070
     0
1070
    77
1070
     3
1070
   173
1070
     1
1070
   147
1040
1.0
1070
    42
1040
3.0
1070
    44
1040
1.5
1070
    43
1040
7.0
1070
   271
1070
     0
1070
   178
1070
   256
1070
   177
1070
   256
1070
   176
1070
   256
1070
   141
1040
3.0
1070
     7
1000
OPEN
1070
     6
1000
OPEN
1070
    41
1040
3.0
1002
}
  0
LEADER
  5
2E03
330
1A
100
AcDbEntity
  8
SUNPOU
100
AcDbLeader
  3
STANDARD
 76
     3
 10
297.4644931508769
 20
119.034247843718
 30
0.0
 10
273.9878223892619
 20
134.0281797645503
 30
0.0
 10
251.0046820138085
 20
124.8355794595443
 30
0.0
211
0.9284858268809136
221
0.3713678355502348
231
0.0
1001
ACAD
1000
DSTYLE
1002
{
1070
     6
1000
OPEN
1070
    41
1040
3.0
1070
    42
1040
3.0
1070
    43
1040
7.0
1070
    44
1040
1.5
1070
    73
1070
     0
1070
    74
1070
     0
1070
    77
1070
     3
1070
   140
1040
3.0
1070
   141
1040
3.0
1070
   147
1040
1.0
1070
   172
1070
     1
1070
   173
1070
     1
1070
   176
1070
   256
1070
   177
1070
   256
1070
   178
1070
   256
1070
   271
1070
     0
1070
   272
1070
     0
1070
   341
1005
B2
1070
   343
1005
B2
1070
   344
1005
B2
1002
}
1000
LEANOF
1010
0.0
1020
0.0
1030
0.0
  0
TEXT
  5
2E04
330
1A
100
AcDbEntity
  8
SUNPOU
100
AcDbText
 10
251.7505821660275
 20
126.5736441770849
 30
0.0
 40
4.0
  1
4-φ4.2
 50
21.79999999999982
100
AcDbText
  0
DIMENSION
  5
2E05
330
1A
100
AcDbEntity
  8
SUNPOU
100
AcDbDimension
  2
*D4
 10
283.8940823739895
 20
111.0112121028131
 30
0.0
 11
284.7298255989909
 21
115.6535749992123
 31
0.0
 70
    32
  3
STANDARD
100
AcDbAlignedDimension
 13
290.837656402758
 23
122.4046224832209
 33
0.0
 14
294.7370849140407
 24
115.3481037037238
 34
0.0
 50
111.7999999999997
100
AcDbRotatedDimension
1001
ACAD
1000
DSTYLE
1002
{
1070
   140
1040
3.0
1070
    74
1070
     0
1070
   172
1070
     1
1070
    73
1070
     0
1070
   272
1070
     0
1070
    77
1070
     3
1070
   173
1070
     1
1070
   147
1040
1.0
1070
    42
1040
3.0
1070
    44
1040
1.5
1070
    43
1040
7.0
1070
   271
1070
     0
1070
   178
1070
   256
1070
   177
1070
   256
1070
   176
1070
   256
1070
   141
1040
3.0
1070
     7
1000
OPEN
1070
     6
1000
OPEN
1070
    41
1040
3.0
1002
}
  0
DIMENSION
  5
2E06
330
1A
100
AcDbEntity
  8
SUNPOU
100
AcDbDimension
  2
*D3
 10
285.7019926434537
 20
82.65472079824865
 30
0.0
 11
281.524270088527
 21
99.83164235754019
 31
0.0
 70
    32
  3
STANDARD
100
AcDbAlignedDimension
 13
290.837656402758
 23
122.4046224832209
 33
0.0
 14
303.8355306487324
 24
89.90761854307539
 34
0.0
 50
111.7999999999997
100
AcDbRotatedDimension
1001
ACAD
1000
DSTYLE
1002
{
1070
   140
1040
3.0
1070
    74
1070
     0
1070
   172
1070
     1
1070
    73
1070
     0
1070
   272
1070
     0
1070
    77
1070
     3
1070
   173
1070
     1
1070
   147
1040
1.0
1070
    42
1040
3.0
1070
    44
1040
1.5
1070
    43
1040
7.0
1070
   271
1070
     0
1070
   178
1070
   256
1070
   177
1070
   256
1070
   176
1070
   256
1070
   141
1040
3.0
1070
     7
1000
OPEN
1070
     6
1000
OPEN
1070
    41
1040
3.0
1002
}
  0
DIMENSION
  5
2E07
330
1A
100
AcDbEntity
  8
SUNPOU
100
AcDbDimension
  2
*D5
 10
293.9210139338459
 20
85.9420947770285
 30
0.0
 11
294.7567571588472
 21
90.58445767342773
 31
0.0
 70
    32
  3
STANDARD
100
AcDbAlignedDimension
 13
301.7930737894951
 23
97.7068729929865
 33
0.0
 14
303.8355306487324
 24
89.90761854307539
 34
0.0
 50
111.7999999999997
100
AcDbRotatedDimension
1001
ACAD
1000
DSTYLE
1002
{
1070
   140
1040
3.0
1070
    74
1070
     0
1070
   172
1070
     1
1070
    73
1070
     0
1070
   272
1070
     0
1070
    77
1070
     3
1070
   173
1070
     1
1070
   147
1040
1.0
1070
    42
1040
3.0
1070
    44
1040
1.5
1070
    43
1040
7.0
1070
   271
1070
     0
1070
   178
1070
   256
1070
   177
1070
   256
1070
   176
1070
   256
1070
   141
1040
3.0
1070
     7
1000
OPEN
1070
     6
1000
OPEN
1070
    41
1040
3.0
1002
}
  0
DIMENSION
  5
2E48
330
1A
100
AcDbEntity
  8
SUNPOU
100
AcDbDimension
  2
*D6
 10
256.3854817568227
 20
70.9265921748916
 30
0.0
 11
252.2073366478357
 21
88.10341095627682
 31
0.0
 70
    33
  3
STANDARD
100
AcDbAlignedDimension
 13
228.4302493410613
 23
97.44065285854691
 33
0.0
 14
241.4289230134615
 24
64.94396867754701
 34
0.0
1001
ACAD
1000
DSTYLE
1002
{
1070
   140
1040
3.0
1070
    74
1070
     0
1070
   172
1070
     1
1070
    73
1070
     0
1070
   272
1070
     2
1070
    77
1070
     3
1070
   173
1070
     1
1070
   147
1040
1.0
1070
    42
1040
3.0
1070
    44
1040
1.5
1070
    43
1040
7.0
1070
   271
1070
     0
1070
   178
1070
     4
1070
   177
1070
     4
1070
   176
1070
     4
1070
   141
1040
3.0
1070
     7
1000
_OPEN
1070
     6
1000
_OPEN
1070
    41
1040
3.0
1002
}
  0
LINE
  5
2E49
330
1A
100
AcDbEntity
  8
CENTER_L
 48
5.0
100
AcDbLine
 10
243.4715717335989
 20
94.8409181240099
 30
0.0
 11
219.3311777705006
 21
85.18476053900734
 31
0.0
  0
LINE
  5
2E4A
330
1A
100
AcDbEntity
  8
CENTER_L
 48
5.0
100
AcDbLine
 10
250.5279945841778
 20
77.19986099713032
 30
0.0
 11
226.3876006210796
 21
67.54370341212774
 31
0.0
  0
LINE
  5
2E4B
330
1A
100
AcDbEntity
  8
SUNPOU
100
AcDbLine
 10
241.4289230134615
 20
64.94396867754699
 30
0.0
 11
250.7762017357615
 21
41.57577187184699
 31
0.0
  0
TEXT
  5
2E4C
330
1A
100
AcDbEntity
  8
SUNPOU
100
AcDbText
 10
240.7423633409614
 20
44.81482284024695
 30
0.0
 40
3.5983331442
  1
10
 41
0.8
100
AcDbText
  0
TEXT
  5
2E4D
330
1A
100
AcDbEntity
  8
SUNPOU
100
AcDbText
 10
248.1051073914614
 20
36.11758191434694
 30
0.0
 40
3.5983331442
  1
4
 41
0.8
100
AcDbText
  0
LINE
  5
2E4E
330
1A
100
AcDbEntity
  8
SUNPOU
100
AcDbLine
 10
246.7762017357615
 20
41.57577187184699
 30
0.0
 11
246.7762017357615
 21
51.57577187184699
 31
0.0
  0
LINE
  5
2E4F
330
1A
100
AcDbEntity
  8
SUNPOU
100
AcDbLine
 10
250.7762017357615
 20
41.57577187184699
 30
0.0
 11
246.7762017357615
 21
41.57577187184699
 31
0.0
  0
DIMENSION
  5
2E5C
330
1A
100
AcDbEntity
  8
SUNPOU
100
AcDbDimension
  2
*D8
 10
78.46322724516141
 20
172.1606610857335
 30
0.0
 11
148.1718646818114
 21
174.6606610857335
 31
0.0
 70
    32
  3
STANDARD
100
AcDbAlignedDimension
 13
217.8805021184614
 23
123.8150209151469
 33
0.0
 14
78.46322724516141
 24
151.1818308320469
 34
0.0
100
AcDbRotatedDimension
1001
ACAD
1000
DSTYLE
1002
{
1070
   140
1040
3.0
1070
    74
1070
     0
1070
   172
1070
     1
1070
    73
1070
     0
1070
   272
1070
     2
1070
    77
1070
     3
1070
   173
1070
     1
1070
   147
1040
1.0
1070
    42
1040
3.0
1070
    44
1040
1.5
1070
    43
1040
7.0
1070
   271
1070
     0
1070
   178
1070
     4
1070
   177
1070
     4
1070
   176
1070
     4
1070
   141
1040
3.0
1070
     7
1000
_OPEN
1070
     6
1000
_OPEN
1070
    41
1040
3.0
1002
}
  0
DIMENSION
  5
2E5D
330
1A
100
AcDbEntity
  8
SUNPOU
100
AcDbDimension
  2
*D7
 10
217.8805021184614
 20
137.4827249912291
 30
0.0
 11
212.9805021184614
 21
139.9827249912291
 31
0.0
 70
    32
  3
STANDARD
100
AcDbAlignedDimension
 13
208.0805021184613
 23
121.8150209151469
 33
0.0
 14
217.8805021184614
 24
123.8150209151469
 34
0.0
100
AcDbRotatedDimension
1001
ACAD
1000
DSTYLE
1002
{
1070
   140
1040
3.0
1070
    74
1070
     0
1070
   172
1070
     1
1070
    73
1070
     0
1070
   272
1070
     2
1070
    77
1070
     3
1070
   173
1070
     1
1070
   147
1040
1.0
1070
    42
1040
3.0
1070
    44
1040
1.5
1070
    43
1040
7.0
1070
   271
1070
     0
1070
   178
1070
     4
1070
   177
1070
     4
1070
   176
1070
     4
1070
   141
1040
3.0
1070
     7
1000
_OPEN
1070
     6
1000
_OPEN
1070
    41
1040
3.0
1002
}
  0
LINE
  5
2E78
330
1A
100
AcDbEntity
  8
CENTER_L
100
AcDbLine
 10
228.4011584355614
 20
233.6796517096468
 30
0.0
 11
234.4011584355613
 21
233.6796517096468
 31
0.0
  0
LINE
  5
2E79
330
1A
100
AcDbEntity
  8
CENTER_L
100
AcDbLine
 10
231.4011584355614
 20
230.6796517096469
 30
0.0
 11
231.4011584355614
 21
236.6796517096469
 31
0.0
  0
LINE
  5
2E7A
330
1A
100
AcDbEntity
  8
CENTER_L
100
AcDbLine
 10
238.4575825414613
 20
230.6796517096469
 30
0.0
 11
238.4575825414613
 21
236.6796517096469
 31
0.0
  0
LINE
  5
2E7B
330
1A
100
AcDbEntity
  8
CENTER_L
100
AcDbLine
 10
235.4575825414614
 20
233.6796517096468
 30
0.0
 11
241.4575825414612
 21
233.6796517096468
 31
0.0
  0
LINE
  5
2E7C
330
1A
100
AcDbEntity
  8
CENTER_L
100
AcDbLine
 10
231.4011584355614
 20
186.6796517096468
 30
0.0
 11
231.4011584355614
 21
192.6796517096468
 31
0.0
  0
LINE
  5
2E7D
330
1A
100
AcDbEntity
  8
CENTER_L
100
AcDbLine
 10
228.4011584355614
 20
189.6796517096468
 30
0.0
 11
234.4011584355613
 21
189.6796517096468
 31
0.0
  0
LINE
  5
2E7E
330
1A
100
AcDbEntity
  8
CENTER_L
100
AcDbLine
 10
238.4575825414613
 20
186.6796517096468
 30
0.0
 11
238.4575825414613
 21
192.6796517096468
 31
0.0
  0
LINE
  5
2E7F
330
1A
100
AcDbEntity
  8
CENTER_L
100
AcDbLine
 10
235.4575825414614
 20
189.6796517096468
 30
0.0
 11
241.4575825414612
 21
189.6796517096468
 31
0.0
  0
DIMENSION
  5
2E80
330
1A
100
AcDbEntity
  8
SUNPOU
100
AcDbDimension
  2
*D9
 10
256.172711767283
 20
181.1796517096468
 30
0.0
 11
253.6727117672829
 21
211.6796517096469
 31
0.0
 70
    32
  3
STANDARD
100
AcDbAlignedDimension
 13
240.0872354087392
 23
242.1796517096468
 33
0.0
 14
240.0872354087392
 24
181.1796517096468
 34
0.0
 50
90.0
100
AcDbRotatedDimension
1001
ACAD
1000
DSTYLE
1002
{
1070
   140
1040
3.0
1070
    74
1070
     0
1070
   172
1070
     1
1070
    73
1070
     0
1070
   272
1070
     2
1070
    77
1070
     3
1070
   173
1070
     1
1070
   147
1040
1.0
1070
    42
1040
3.0
1070
    44
1040
1.5
1070
    43
1040
7.0
1070
   271
1070
     0
1070
   178
1070
     4
1070
   177
1070
     4
1070
   176
1070
     4
1070
   141
1040
3.0
1070
     7
1000
_OPEN
1070
     6
1000
_OPEN
1070
    41
1040
3.0
1002
}
  0
LINE
  5
2E8D
330
1A
100
AcDbEntity
  8
SEIHIN
100
AcDbLine
 10
228.1719369458836
 20
242.1796517096468
 30
0.0
 11
240.087235408639
 21
242.1796517096468
 31
0.0
  0
LINE
  5
2E90
330
1A
100
AcDbEntity
  8
SEIHIN
100
AcDbLine
 10
228.1719369458837
 20
181.1796517096468
 30
0.0
 11
240.0872354086389
 21
181.1796517096468
 31
0.0
  0
LINE
  5
2EAA
330
1A
100
AcDbEntity
  8
CENTER_L
100
AcDbLine
 10
250.9289230134613
 20
211.6796517096469
 30
0.0
 11
68.86322724616139
 21
211.6796517096469
 31
0.0
  0
DIMENSION
  5
2EBA
330
1A
100
AcDbEntity
  8
SUNPOU
100
AcDbDimension
  2
*D10
 10
54.62888080826132
 20
201.6796517096469
 30
0.0
 11
52.1288808082613
 21
211.6796517096469
 31
0.0
 70
    32
  3
STANDARD
100
AcDbAlignedDimension
 13
78.86322724616139
 23
221.6796517096468
 33
0.0
 14
78.86322724616139
 24
201.6796517096469
 34
0.0
 50
90.0
100
AcDbRotatedDimension
1001
ACAD
1000
DSTYLE
1002
{
1070
   140
1040
3.0
1070
    74
1070
     0
1070
   172
1070
     1
1070
    73
1070
     0
1070
   272
1070
     2
1070
    77
1070
     3
1070
   173
1070
     1
1070
   147
1040
1.0
1070
    42
1040
3.0
1070
    44
1040
1.5
1070
    43
1040
7.0
1070
   271
1070
     0
1070
   178
1070
     4
1070
   177
1070
     4
1070
   176
1070
     4
1070
   141
1040
3.0
1070
     7
1000
_OPEN
1070
     6
1000
_OPEN
1070
    41
1040
3.0
1002
}
  0
LINE
  5
2EFE
330
1A
100
AcDbEntity
  8
CENTER_L
100
AcDbLine
 10
331.2250448504878
 20
95.4782594245335
 30
0.0
 11
300.2506673525363
 21
172.919727829294
 31
0.0
  0
LINE
  5
2F6C
330
1A
100
AcDbEntity
  8
NOKITOI
100
AcDbLine
 10
85.10145081601114
 20
121.2082036621469
 30
0.0
 11
88.42805081601147
 21
121.2083036621469
 31
0.0
  0
ARC
  5
2F6D
330
1A
100
AcDbEntity
  8
NOKITOI
100
AcDbCircle
 10
88.15822144351171
 20
114.6859338946418
 30
0.0
 40
0.4999578477751074
100
AcDbArc
 50
351.8669438287067
 51
96.47390928779252
  0
ARC
  5
2F6E
330
1A
100
AcDbEntity
  8
NOKITOI
100
AcDbCircle
 10
88.55296868236257
 20
111.2083123905267
 30
0.0
 40
5.199991271650611
100
AcDbArc
 50
90.00019685927602
 51
142.0746713952677
  0
ARC
  5
2F6F
330
1A
100
AcDbEntity
  8
NOKITOI
100
AcDbCircle
 10
88.81444062957518
 20
112.208315406871
 30
0.0
 40
0.500011744827831
100
AcDbArc
 50
171.8726853912846
 51
270.0011672522
  0
LINE
  5
2F70
330
1A
100
AcDbEntity
  8
NOKITOI
100
AcDbLine
 10
87.07415081601141
 20
117.508303662147
 30
0.0
 11
90.01075081601142
 21
117.508303662147
 31
0.0
  0
LINE
  5
2F71
330
1A
100
AcDbEntity
  8
NOKITOI
100
AcDbLine
 10
92.67145081601176
 20
106.4083036621469
 30
0.0
 11
86.63955081601136
 21
106.4083036621469
 31
0.0
  0
LINE
  5
2F72
330
1A
100
AcDbEntity
  8
NOKITOI
100
AcDbLine
 10
84.99185081601138
 20
105.2083036621468
 30
0.0
 11
91.13295081601121
 21
105.2083036621468
 31
0.0
  0
LINE
  5
2F73
330
1A
100
AcDbEntity
  8
NOKITOI
100
AcDbLine
 10
83.10245081601136
 20
119.1458036621469
 30
0.0
 11
83.49255081601143
 21
106.6614036621468
 31
0.0
  0
LINE
  5
2F74
330
1A
100
AcDbEntity
  8
NOKITOI
100
AcDbLine
 10
84.30185081601178
 20
119.1833036621468
 30
0.0
 11
84.45115081601135
 21
114.404303662147
 31
0.0
  0
LINE
  5
2F75
330
1A
100
AcDbEntity
  8
NOKITOI
100
AcDbLine
 10
84.64045081601136
 20
108.3457036621469
 30
0.0
 11
84.55495081601169
 21
111.0833036621469
 31
0.0
  0
ARC
  5
2F76
330
1A
100
AcDbEntity
  8
NOKITOI
100
AcDbCircle
 10
84.99183360283325
 20
106.7083203452947
 30
0.0
 40
1.500016683246579
100
AcDbArc
 50
181.7923576755886
 51
270.0006574876639
  0
ARC
  5
2F77
330
1A
100
AcDbEntity
  8
NOKITOI
100
AcDbCircle
 10
86.63951282818709
 20
108.408240482719
 30
0.0
 40
2.000036820932881
100
AcDbArc
 50
181.7889408725804
 51
270.0010882509654
  0
ARC
  5
2F78
330
1A
100
AcDbEntity
  8
NOKITOI
100
AcDbCircle
 10
88.5529817429475
 20
111.2083394068107
 30
0.0
 40
3.99998565374706
100
AcDbArc
 50
96.4757761953165
 51
181.7913033408989
  0
ARC
  5
2F79
330
1A
100
AcDbEntity
  8
NOKITOI
100
AcDbCircle
 10
85.10146205300555
 20
119.208315255964
 30
0.0
 40
1.999988406214314
100
AcDbArc
 50
90.00032191804612
 51
181.7911273464062
  0
ARC
  5
2F7A
330
1A
100
AcDbEntity
  8
NOKITOI
100
AcDbCircle
 10
85.10140684965847
 20
119.2082582996739
 30
0.0
 40
0.7999453636812564
100
AcDbArc
 50
89.99685092684575
 51
181.7876563552118
  0
LINE
  5
2F7B
330
1A
100
AcDbEntity
  8
NOKITOI
100
AcDbLine
 10
85.10145081601114
 20
120.0082036621468
 30
0.0
 11
87.57415081601141
 21
120.008303662147
 31
0.0
  0
LINE
  5
2F7C
330
1A
100
AcDbEntity
  8
NOKITOI
100
AcDbLine
 10
87.57415081601141
 20
120.008303662147
 30
0.0
 11
87.07415081601141
 21
117.508303662147
 31
0.0
  0
ARC
  5
2F7D
330
1A
100
AcDbEntity
  8
NOKITOI
100
AcDbCircle
 10
151.2243447340433
 20
109.2082980374906
 30
0.0
 40
41.79999437547816
100
AcDbArc
 50
270.0001454078909
 51
355.5257047874752
  0
ARC
  5
2F7E
330
1A
100
AcDbEntity
  8
NOKITOI
100
AcDbCircle
 10
151.2243670424687
 20
109.208318138517
 30
0.0
 40
43.00001447645168
100
AcDbArc
 50
270.0001116248562
 51
353.4750892928824
  0
LINE
  5
2F7F
330
1A
100
AcDbEntity
  8
NOKITOI
100
AcDbLine
 10
92.12795081601109
 20
104.3078036621469
 30
0.0
 11
94.99675081601129
 21
75.62040366214691
 31
0.0
  0
LINE
  5
2F80
330
1A
100
AcDbEntity
  8
NOKITOI
100
AcDbLine
 10
93.16895081601126
 20
105.9581036621469
 30
0.0
 11
96.16195081601166
 21
76.02830366214684
 31
0.0
  0
LINE
  5
2F81
330
1A
100
AcDbEntity
  8
NOKITOI
100
AcDbLine
 10
110.6447508160114
 20
67.40820366214697
 30
0.0
 11
130.552850816011
 21
67.40820366214697
 31
0.0
  0
LINE
  5
2F82
330
1A
100
AcDbEntity
  8
NOKITOI
100
AcDbLine
 10
110.3949508160113
 20
66.20820366214693
 30
0.0
 11
130.552850816011
 21
66.20820366214693
 31
0.0
  0
LINE
  5
2F83
330
1A
100
AcDbEntity
  8
NOKITOI
100
AcDbLine
 10
106.3949508160113
 20
66.20820366214693
 30
0.0
 11
151.2243508160114
 21
66.2083036621469
 31
0.0
  0
LINE
  5
2F84
330
1A
100
AcDbEntity
  8
NOKITOI
100
AcDbLine
 10
151.2243508160114
 20
67.40830366214694
 30
0.0
 11
106.6447508160114
 21
67.40820366214697
 31
0.0
  0
LINE
  5
2F85
330
1A
100
AcDbEntity
  8
NOKITOI
100
AcDbLine
 10
95.35855081601141
 20
74.94590366214706
 30
0.0
 11
105.7616508160114
 21
66.43420366214704
 31
0.0
  0
LINE
  5
2F86
330
1A
100
AcDbEntity
  8
NOKITOI
100
AcDbLine
 10
96.34285081601104
 20
75.69100366214692
 30
0.0
 11
106.3281508160113
 21
67.5212036621468
 31
0.0
  0
ARC
  5
2F87
330
1A
100
AcDbEntity
  8
NOKITOI
100
AcDbCircle
 10
106.6447444282627
 20
67.9082059421365
 30
0.0
 40
0.5000022800304047
100
AcDbArc
 50
230.7145501403943
 51
270.0007319787208
  0
ARC
  5
2F88
330
1A
100
AcDbEntity
  8
NOKITOI
100
AcDbCircle
 10
106.3949577485888
 20
67.20820118714081
 30
0.0
 40
0.9999975250179316
100
AcDbArc
 50
230.7053583247715
 51
269.999602791598
  0
ARC
  5
2F89
330
1A
100
AcDbEntity
  8
NOKITOI
100
AcDbCircle
 10
95.99177338888024
 20
75.71986159047432
 30
0.0
 40
0.9999908507640039
100
AcDbArc
 50
185.713767052247
 51
230.711290776931
  0
ARC
  5
2F8A
330
1A
100
AcDbEntity
  8
NOKITOI
100
AcDbCircle
 10
96.65946824188962
 20
76.07797117575896
 30
0.0
 40
0.4999904508696396
100
AcDbArc
 50
185.7009889250759
 51
230.7099153622053
  0
LINE
  5
2F8B
330
1A
100
AcDbEntity
  8
NOKITOI
100
AcDbLine
 10
90.39945081601137
 20
112.9083036621469
 30
0.0
 11
90.58055081601162
 21
116.3497036621468
 31
0.0
  0
LINE
  5
2F8C
330
1A
100
AcDbEntity
  8
NOKITOI
100
AcDbLine
 10
90.02555081601133
 20
115.7367036621468
 30
0.0
 11
90.58055081601162
 21
116.3497036621468
 31
0.0
  0
LINE
  5
2F8D
330
1A
100
AcDbEntity
  8
NOKITOI
100
AcDbLine
 10
91.56285081601129
 20
112.1820036621469
 30
0.0
 11
91.87865081601159
 21
118.1820036621469
 31
0.0
  0
ARC
  5
2F8E
330
1A
100
AcDbEntity
  8
NOKITOI
100
AcDbCircle
 10
91.13293016617047
 20
104.2083223499961
 30
0.0
 40
0.9999813123640343
100
AcDbArc
 50
5.70940996664858
 51
89.99881682915088
  0
ARC
  5
2F8F
330
1A
100
AcDbEntity
  8
NOKITOI
100
AcDbCircle
 10
92.67143774500675
 20
105.9083154924268
 30
0.0
 40
0.4999881698908891
100
AcDbArc
 50
5.703393862283571
 51
89.99850213773529
  0
LINE
  5
2F90
330
1A
100
AcDbEntity
  8
NOKITOI
100
AcDbLine
 10
89.6215508160118
 20
112.9083036621469
 30
0.0
 11
90.02555081601133
 21
115.7367036621468
 31
0.0
  0
LINE
  5
2F91
330
1A
100
AcDbEntity
  8
NOKITOI
100
AcDbLine
 10
90.39945081601137
 20
112.9083036621469
 30
0.0
 11
89.6215508160118
 21
112.9083036621469
 31
0.0
  0
ARC
  5
2F92
330
1A
100
AcDbEntity
  8
NOKITOI
100
AcDbCircle
 10
91.06354669460472
 20
112.2082997521164
 30
0.0
 40
0.4999960899864753
100
AcDbArc
 50
270.0004722821422
 51
356.9852756208259
  0
LINE
  5
2F93
330
1A
100
AcDbEntity
  8
NOKITOI
100
AcDbLine
 10
88.31945081601146
 20
112.2790036621469
 30
0.0
 11
88.65325081601133
 21
114.615203662147
 31
0.0
  0
LINE
  5
2F94
330
1A
100
AcDbEntity
  8
NOKITOI
100
AcDbLine
 10
91.06355081601135
 20
111.7083036621469
 30
0.0
 11
88.8144508160118
 21
111.7083036621469
 31
0.0
  0
ARC
  5
2F95
330
1A
100
AcDbEntity
  8
NOKITOI
100
AcDbCircle
 10
89.14785159901986
 20
119.2083027071451
 30
0.0
 40
0.4999990449987399
100
AcDbArc
 50
168.6967198015451
 51
269.9999102736965
  0
ARC
  5
2F96
330
1A
100
AcDbEntity
  8
NOKITOI
100
AcDbCircle
 10
88.42805807056686
 20
120.7082948123034
 30
0.0
 40
0.500008849895925
100
AcDbArc
 50
348.6864043304874
 51
90.00083129614585
  0
LINE
  5
2F97
330
1A
100
AcDbEntity
  8
NOKITOI
100
AcDbLine
 10
88.6575508160114
 20
119.306303662147
 30
0.0
 11
88.91835081601142
 21
120.6103036621468
 31
0.0
  0
LINE
  5
2F98
330
1A
100
AcDbEntity
  8
NOKITOI
100
AcDbLine
 10
91.37935081601119
 20
118.7083036621468
 30
0.0
 11
89.14785081601133
 21
118.7083036621468
 31
0.0
  0
LINE
  5
2F99
330
1A
100
AcDbEntity
  8
NOKITOI
100
AcDbLine
 10
89.01495081601126
 20
116.4083036621469
 30
0.0
 11
88.55295081601127
 21
116.4083036621469
 31
0.0
  0
LINE
  5
2F9A
330
1A
100
AcDbEntity
  8
NOKITOI
100
AcDbLine
 10
89.01495081601126
 20
116.4083036621469
 30
0.0
 11
90.01075081601142
 21
117.508303662147
 31
0.0
  0
ARC
  5
2F9B
330
1A
100
AcDbEntity
  8
NOKITOI
100
AcDbCircle
 10
91.3793471065161
 20
118.2083075721776
 30
0.0
 40
0.4999960899831856
100
AcDbArc
 50
356.9843782585352
 51
89.99957491985082
  0
ARC
  5
2F9C
330
1A
100
AcDbEntity
  8
NOKITOI
100
AcDbCircle
 10
197.5227306033422
 20
111.2083623905268
 30
0.0
 40
5.2000412730095
100
AcDbArc
 50
37.92420092094485
 51
89.99867545693819
  0
LINE
  5
2F9D
330
1A
100
AcDbEntity
  8
NOKITOI
100
AcDbLine
 10
195.6764508160114
 20
112.9083036621469
 30
0.0
 11
195.4952508160114
 21
116.349803662147
 31
0.0
  0
LINE
  5
2F9E
330
1A
100
AcDbEntity
  8
NOKITOI
100
AcDbLine
 10
196.0502508160112
 20
115.7367036621468
 30
0.0
 11
195.4952508160114
 21
116.349803662147
 31
0.0
  0
LINE
  5
2F9F
330
1A
100
AcDbEntity
  8
NOKITOI
100
AcDbLine
 10
194.5129508160113
 20
112.1821036621468
 30
0.0
 11
194.1971508160114
 21
118.1820036621469
 31
0.0
  0
LINE
  5
2FA0
330
1A
100
AcDbEntity
  8
NOKITOI
100
AcDbLine
 10
202.9734508160114
 20
119.1458036621469
 30
0.0
 11
202.5832508160115
 21
106.6615036621468
 31
0.0
  0
LINE
  5
2FA1
330
1A
100
AcDbEntity
  8
NOKITOI
100
AcDbLine
 10
201.774050816011
 20
119.1833036621468
 30
0.0
 11
201.6246508160115
 21
114.404403662147
 31
0.0
  0
ARC
  5
2FA2
330
1A
100
AcDbEntity
  8
NOKITOI
100
AcDbCircle
 10
195.0123577030063
 20
112.2082971270614
 30
0.0
 40
0.4999934649619629
100
AcDbArc
 50
183.0029638682578
 51
269.9992107982129
  0
ARC
  5
2FA3
330
1A
100
AcDbEntity
  8
NOKITOI
100
AcDbCircle
 10
194.9393592401738
 20
104.2083111772034
 30
0.0
 40
0.9999924849789756
100
AcDbArc
 50
90.00048267258872
 51
173.471735393326
  0
LINE
  5
2FA4
330
1A
100
AcDbEntity
  8
NOKITOI
100
AcDbLine
 10
193.395450816011
 20
106.4083036621469
 30
0.0
 11
199.4363508160114
 21
106.4083036621469
 31
0.0
  0
ARC
  5
2FA5
330
1A
100
AcDbEntity
  8
NOKITOI
100
AcDbCircle
 10
193.3954382463031
 20
105.9082920374172
 30
0.0
 40
0.5000116248877112
100
AcDbArc
 50
89.99855965101616
 51
175.5251531916577
  0
LINE
  5
2FA6
330
1A
100
AcDbEntity
  8
NOKITOI
100
AcDbLine
 10
201.4353508160115
 20
108.3459036621469
 30
0.0
 11
201.5208508160113
 21
111.0834036621468
 31
0.0
  0
LINE
  5
2FA7
330
1A
100
AcDbEntity
  8
NOKITOI
100
AcDbLine
 10
201.0840508160114
 20
105.2083036621468
 30
0.0
 11
194.9393508160114
 21
105.2083036621468
 31
0.0
  0
ARC
  5
2FA8
330
1A
100
AcDbEntity
  8
NOKITOI
100
AcDbCircle
 10
201.0840148568604
 20
106.7082688080036
 30
0.0
 40
1.499965146287778
100
AcDbArc
 50
270.0013735703027
 51
358.2133719782233
  0
ARC
  5
2FA9
330
1A
100
AcDbEntity
  8
NOKITOI
100
AcDbCircle
 10
199.436337243873
 20
108.4082905070605
 30
0.0
 40
1.999986844959662
100
AcDbArc
 50
270.0003888156784
 51
358.2124468147644
  0
ARC
  5
2FAA
330
1A
100
AcDbEntity
  8
NOKITOI
100
AcDbCircle
 10
197.5228129345647
 20
111.2083474446722
 30
0.0
 40
3.999989731271038
100
AcDbArc
 50
358.2100163932687
 51
83.52268857986718
  0
ARC
  5
2FAB
330
1A
100
AcDbEntity
  8
NOKITOI
100
AcDbCircle
 10
197.917636597596
 20
114.6859890278459
 30
0.0
 40
0.5000073448410256
100
AcDbArc
 50
83.52170717003247
 51
188.1270521358761
  0
ARC
  5
2FAC
330
1A
100
AcDbEntity
  8
NOKITOI
100
AcDbCircle
 10
197.2614242154137
 20
112.2082729852648
 30
0.0
 40
0.4999693238254178
100
AcDbArc
 50
270.0030483909627
 51
8.144496122946826
  0
LINE
  5
2FAD
330
1A
100
AcDbEntity
  8
NOKITOI
100
AcDbLine
 10
197.7563508160116
 20
112.279103662147
 30
0.0
 11
197.4226508160114
 21
114.615303662147
 31
0.0
  0
LINE
  5
2FAE
330
1A
100
AcDbEntity
  8
NOKITOI
100
AcDbLine
 10
195.0123508160114
 20
111.7083036621469
 30
0.0
 11
197.2614508160114
 21
111.7083036621469
 31
0.0
  0
LINE
  5
2FAF
330
1A
100
AcDbEntity
  8
NOKITOI
100
AcDbLine
 10
196.454350816011
 20
112.9083036621469
 30
0.0
 11
196.0502508160112
 21
115.7367036621468
 31
0.0
  0
LINE
  5
2FB0
330
1A
100
AcDbEntity
  8
NOKITOI
100
AcDbLine
 10
195.6764508160114
 20
112.9083036621469
 30
0.0
 11
196.454350816011
 21
112.9083036621469
 31
0.0
  0
ARC
  5
2FB1
330
1A
100
AcDbEntity
  8
NOKITOI
100
AcDbCircle
 10
200.9744380651613
 20
119.2083168172333
 30
0.0
 40
1.999986844954075
100
AcDbArc
 50
358.2116927117295
 51
89.99963471264711
  0
LINE
  5
2FB2
330
1A
100
AcDbEntity
  8
NOKITOI
100
AcDbLine
 10
194.6965508160116
 20
118.7083036621468
 30
0.0
 11
196.9280508160114
 21
118.7083036621468
 31
0.0
  0
ARC
  5
2FB3
330
1A
100
AcDbEntity
  8
NOKITOI
100
AcDbCircle
 10
194.6965570171693
 20
118.2083101972321
 30
0.0
 40
0.4999934649531607
100
AcDbArc
 50
90.00071060961758
 51
183.0044636796624
  0
LINE
  5
2FB4
330
1A
100
AcDbEntity
  8
NOKITOI
100
AcDbLine
 10
200.9744508160116
 20
121.2083036621469
 30
0.0
 11
197.6478508160113
 21
121.2083036621469
 31
0.0
  0
LINE
  5
2FB5
330
1A
100
AcDbEntity
  8
NOKITOI
100
AcDbLine
 10
200.9744508160116
 20
120.008303662147
 30
0.0
 11
198.501650816011
 21
120.008303662147
 31
0.0
  0
LINE
  5
2FB6
330
1A
100
AcDbEntity
  8
NOKITOI
100
AcDbLine
 10
199.001650816011
 20
117.508303662147
 30
0.0
 11
196.0651508160112
 21
117.508303662147
 31
0.0
  0
LINE
  5
2FB7
330
1A
100
AcDbEntity
  8
NOKITOI
100
AcDbLine
 10
198.501650816011
 20
120.008303662147
 30
0.0
 11
199.001650816011
 21
117.508303662147
 31
0.0
  0
ARC
  5
2FB8
330
1A
100
AcDbEntity
  8
NOKITOI
100
AcDbCircle
 10
196.9280580705668
 20
119.2083125119903
 30
0.0
 40
0.5000088498959383
100
AcDbArc
 50
269.9991687038573
 51
11.31359566951103
  0
ARC
  5
2FB9
330
1A
100
AcDbEntity
  8
NOKITOI
100
AcDbCircle
 10
197.6478515990198
 20
120.7083046171486
 30
0.0
 40
0.4999990449987349
100
AcDbArc
 50
90.0000897263067
 51
191.3032801984548
  0
LINE
  5
2FBA
330
1A
100
AcDbEntity
  8
NOKITOI
100
AcDbLine
 10
197.4183508160114
 20
119.3064036621468
 30
0.0
 11
197.1575508160112
 21
120.6103036621468
 31
0.0
  0
LINE
  5
2FBB
330
1A
100
AcDbEntity
  8
NOKITOI
100
AcDbLine
 10
197.0609508160109
 20
116.4083036621469
 30
0.0
 11
197.5228508160113
 21
116.4083036621469
 31
0.0
  0
LINE
  5
2FBC
330
1A
100
AcDbEntity
  8
NOKITOI
100
AcDbLine
 10
197.0609508160109
 20
116.4083036621469
 30
0.0
 11
196.0651508160112
 21
117.508303662147
 31
0.0
  0
ARC
  5
2FBD
330
1A
100
AcDbEntity
  8
NOKITOI
100
AcDbCircle
 10
200.9744463212133
 20
119.2083082996738
 30
0.0
 40
0.7999953624857498
100
AcDbArc
 50
358.2088726535806
 51
89.99967808194737
  0
DIMENSION
  5
3139
330
1A
100
AcDbEntity
  8
SUNPOU
100
AcDbDimension
  2
*D11
 10
54.62888080826129
 20
64.94396867754706
 30
0.0
 11
52.12888080826129
 21
93.79317457199698
 31
0.0
 70
    32
  3
STANDARD
100
AcDbAlignedDimension
 13
78.86322724616139
 23
122.6423804664468
 33
0.0
 14
241.4289230134615
 24
64.94396867754701
 34
0.0
 50
90.0
100
AcDbRotatedDimension
1001
ACAD
1000
DSTYLE
1002
{
1070
    41
1040
3.0
1070
    42
1040
3.0
1070
    43
1040
7.0
1070
    44
1040
1.5
1070
    73
1070
     0
1070
    74
1070
     0
1070
    77
1070
     3
1070
   140
1040
3.0
1070
   141
1040
3.0
1070
   147
1040
1.0
1070
   172
1070
     1
1070
   173
1070
     1
1070
   176
1070
   256
1070
   177
1070
   256
1070
   178
1070
   256
1070
   271
1070
     0
1070
   272
1070
     0
1070
   341
1005
B2
1070
     6
1000
OPEN
1070
     7
1000
OPEN
1070
   371
1070
    -1
1070
   372
1070
    -1
1002
}
  0
LWPOLYLINE
  5
324A
330
1A
100
AcDbEntity
  8
ZUWAKU
100
AcDbPolyline
 90
        4
 70
     1
 43
0.0
 10
0.3999999982485178
 20
275.4000002832666
 10
0.3999999982485178
 20
0.4000002832665928
 10
398.3999999982485
 20
0.4000002832665928
 10
398.3999999982485
 20
275.4000002832666
  0
LWPOLYLINE
  5
324B
330
1A
100
AcDbEntity
  8
ZUWAKU
100
AcDbPolyline
 90
        4
 70
     1
 43
0.0
 10
0.1999999982485292
 20
275.6000002832665
 10
0.1999999982485292
 20
0.2000002832666041
 10
398.5999999982485
 20
0.2000002832665926
 10
398.5999999982485
 20
275.6000002832665
  0
LWPOLYLINE
  5
324C
330
1A
100
AcDbEntity
  8
ZUWAKU
100
AcDbPolyline
 90
        4
 70
     1
 43
0.0
 10
-0.0000000017514594
 20
275.8000002832665
 10
-0.0000000017514594
 20
0.0000002832665587
 10
398.7999999982486
 20
0.0000002832665924
 10
398.7999999982486
 20
275.8000002832666
  0
LWPOLYLINE
  5
324D
330
1A
100
AcDbEntity
  8
ZUWAKU
100
AcDbPolyline
 90
        4
 70
     1
 43
0.0
 10
0.2999999982484951
 20
275.5000002832665
 10
0.2999999982484951
 20
0.30000028326657
 10
398.4999999982486
 20
0.3000002832665931
 10
398.4999999982485
 20
275.5000002832665
  0
LWPOLYLINE
  5
324E
330
1A
100
AcDbEntity
  8
ZUWAKU
100
AcDbPolyline
 90
        4
 70
     1
 43
0.0
 10
0.0999999982485065
 20
275.7000002832666
 10
0.0999999982485065
 20
0.1000002832665814
 10
398.6999999982484
 20
0.1000002832665929
 10
398.6999999982486
 20
275.7000002832666
  0
LINE
  5
324F
330
1A
100
AcDbEntity
  8
ZUWAKU
100
AcDbLine
 10
-0.0000000017514594
 20
15.00000028326655
 30
0.0
 11
398.6999999982484
 21
15.00000028326655
 31
0.0
  0
LINE
  5
3250
330
1A
100
AcDbEntity
  8
ZUWAKU
100
AcDbLine
 10
-0.0000000017514594
 20
15.10000028326656
 30
0.0
 11
398.6999999982484
 21
15.10000028326656
 31
0.0
  0
LINE
  5
3251
330
1A
100
AcDbEntity
  8
ZUWAKU
100
AcDbLine
 10
-0.0000000017514594
 20
15.20000028326656
 30
0.0
 11
398.6999999982484
 21
15.20000028326656
 31
0.0
  0
LINE
  5
3252
330
1A
100
AcDbEntity
  8
ZUWAKU
100
AcDbLine
 10
-0.0000000017514594
 20
15.30000028326656
 30
0.0
 11
398.6999999982484
 21
15.30000028326656
 31
0.0
  0
LINE
  5
3253
330
1A
100
AcDbEntity
  8
ZUWAKU
100
AcDbLine
 10
-0.0000000017514594
 20
15.40000028326656
 30
0.0
 11
398.6999999982484
 21
15.40000028326656
 31
0.0
  0
LINE
  5
3254
330
1A
100
AcDbEntity
  8
ZUWAKU
100
AcDbLine
 10
104.3233006432825
 20
7.700000283266575
 30
0.0
 11
223.7121819837442
 21
7.700000283266575
 31
0.0
  0
LINE
  5
3255
330
1A
100
AcDbEntity
  8
ZUWAKU
100
AcDbLine
 10
104.3233006432825
 20
7.800000283266575
 30
0.0
 11
223.7121819837442
 21
7.800000283266578
 31
0.0
  0
LINE
  5
3256
330
1A
100
AcDbEntity
  8
ZUWAKU
100
AcDbLine
 10
104.3233006432825
 20
7.600000283266577
 30
0.0
 11
223.7121819837442
 21
7.600000283266574
 31
0.0
  0
TEXT
  5
3257
330
1A
100
AcDbEntity
  8
MOJI
100
AcDbText
 10
46.4788947923331
 20
6.370589348403939
 30
0.0
 40
3.0
  1
新・丸トップＲＶ１０５
 41
0.9
  7
ｽﾀｲﾙ1
100
AcDbText
  0
CIRCLE
  5
3258
330
1A
100
AcDbEntity
  8
ZUWAKU
100
AcDbCircle
 10
12.99610607563909
 20
7.60000028326656
 30
0.0
 40
0.875
  0
LINE
  5
3259
330
1A
100
AcDbEntity
  8
ZUWAKU
100
AcDbLine
 10
13.43360607563909
 20
3.575000283266561
 30
0.0
 11
12.47110607563911
 21
3.575000283266561
 31
0.0
  0
LINE
  5
325A
330
1A
100
AcDbEntity
  8
ZUWAKU
100
AcDbLine
 10
12.47110607563911
 20
4.97500028326656
 30
0.0
 11
13.43360607563909
 21
4.97500028326656
 31
0.0
  0
LINE
  5
325B
330
1A
100
AcDbEntity
  8
ZUWAKU
100
AcDbLine
 10
13.43360607563909
 20
10.22500028326656
 30
0.0
 11
12.47110607563911
 21
10.22500028326656
 31
0.0
  0
LINE
  5
325C
330
1A
100
AcDbEntity
  8
ZUWAKU
100
AcDbLine
 10
12.47110607563911
 20
11.62500028326654
 30
0.0
 11
13.43360607563909
 21
11.62500028326656
 31
0.0
  0
HATCH
  5
325D
330
1A
100
AcDbEntity
  8
ZUWAKU
100
AcDbHatch
 10
0.0
 20
0.0
 30
0.0
210
0.0
220
0.0
230
1.0
  2
ANSI37
 70
     0
 71
     0
 91
        8
 92
        7
 72
     1
 73
     1
 93
       24
 10
7.251131328808469
 20
8.82242452375835
 42
-0.1989123673796348
 10
7.046106075639102
 20
9.317399270588875
 42
0.0
 10
7.046106075639102
 20
9.962500283266564
 42
-0.4142135623730912
 10
7.30860607563909
 20
10.22500028326656
 42
0.0
 10
8.796106075639045
 20
10.22500028326656
 42
0.4142135623731546
 10
9.05860607563909
 20
10.48750028326655
 42
0.0
 10
9.05860607563909
 20
11.36250028326656
 42
0.4142135623731586
 10
8.796106075639045
 20
11.62500028326656
 42
0.0
 10
7.046106075639102
 20
11.62500028326656
 42
0.4142135623730928
 10
5.646106075639124
 20
10.22500028326657
 42
0.0
 10
5.646106075639124
 20
9.317399270588939
 42
0.1989123673796619
 10
6.26118183514734
 20
7.832475030097135
 42
0.0
 10
7.716080822469677
 20
6.377576042774807
 42
-0.1989123673796613
 10
7.921106075639102
 20
5.882601295944214
 42
0.0
 10
7.921106075639102
 20
5.237500283266555
 42
-0.4142135623730911
 10
7.658606075639113
 20
4.97500028326656
 42
0.0
 10
6.171106075639158
 20
4.97500028326656
 42
0.4142135623731526
 10
5.908606075639113
 20
4.712500283266566
 42
0.0
 10
5.908606075639113
 20
3.837500283266555
 42
0.4142135623731526
 10
6.171106075639158
 20
3.575000283266561
 42
0.0
 10
7.921106075639102
 20
3.575000283266561
 42
0.4142135623731044
 10
9.321106075639136
 20
4.975000283266549
 42
0.0
 10
9.321106075639136
 20
5.882601295944185
 42
0.1989123673796604
 10
8.706030316130863
 20
7.367525536435955
 42
0.0
 97
        0
 92
        7
 72
     1
 73
     1
 93
       16
 10
11.77110607563912
 20
9.525000283266564
 42
-0.4142135623730935
 10
12.47110607563911
 20
10.22500028326656
 42
0.0
 10
13.43360607563909
 20
10.22500028326656
 42
0.4142135623731546
 10
13.69610607563913
 20
10.48750028326655
 42
0.0
 10
13.69610607563913
 20
11.36250028326656
 42
0.4142135623730951
 10
13.43360607563914
 20
11.62500028326656
 42
0.0
 10
12.47110607563905
 20
11.62500028326654
 42
0.4142135623730892
 10
10.37110607563909
 20
9.525000283266528
 42
0.0
 10
10.37110607563909
 20
5.675000283266573
 42
0.4142135623730969
 10
12.47110607563911
 20
3.575000283266561
 42
0.0
 10
13.43360607563909
 20
3.575000283266561
 42
0.4142135623731526
 10
13.69610607563913
 20
3.837500283266555
 42
0.0
 10
13.69610607563913
 20
4.712500283266566
 42
0.4142135623730891
 10
13.43360607563914
 20
4.97500028326656
 42
0.0
 10
12.47110607563911
 20
4.97500028326656
 42
-0.4142135623730928
 10
11.77110607563912
 20
5.675000283266554
 42
0.0
 97
        0
 92
        7
 72
     1
 73
     1
 93
        2
 10
12.12110607563909
 20
7.60000028326656
 42
1.0
 10
13.87110607563909
 20
7.60000028326656
 42
1.0
 97
        0
 92
        7
 72
     1
 73
     1
 93
       26
 10
18.6574293167281
 20
9.602523880048273
 42
0.0
 10
19.188249133297
 20
11.28345329918307
 42
0.5069206636600134
 10
18.93793368369932
 20
11.62500028326656
 42
0.0
 10
18.08848899389471
 20
11.62500028326656
 42
0.3272098845218764
 10
17.83817354429703
 20
11.44154726735004
 42
0.0
 10
16.90403860698114
 20
8.4834532991831
 42
-0.3272098845219541
 10
16.65372315738341
 20
8.300000283266559
 42
0.0
 10
16.58360607563918
 20
8.300000283266559
 42
-0.4142135623731526
 10
16.32110607563913
 20
8.562500283266553
 42
0.0
 10
16.32110607563913
 20
11.36250028326656
 42
0.4142135623730951
 10
16.05860607563914
 20
11.62500028326656
 42
0.0
 10
15.18360607563909
 20
11.62500028326656
 42
0.4142135623730871
 10
14.9211060756391
 20
11.36250028326657
 42
0.0
 10
14.9211060756391
 20
3.837500283266555
 42
0.4142135623730891
 10
15.18360607563909
 20
3.575000283266561
 42
0.0
 10
16.05860607563909
 20
3.575000283266561
 42
0.4142135623731526
 10
16.32110607563913
 20
3.837500283266555
 42
0.0
 10
16.32110607563913
 20
6.637500283266566
 42
-0.4142135623731526
 10
16.58360607563918
 20
6.90000028326656
 42
0.0
 10
16.65372315738346
 20
6.90000028326656
 42
-0.3272098845218915
 10
16.90403860698114
 20
6.716547267350023
 42
0.0
 10
17.83817354429703
 20
3.758453299183097
 42
0.3272098845218902
 10
18.08848899389471
 20
3.575000283266561
 42
0.0
 10
18.93793368369932
 20
3.575000283266561
 42
0.5069206636600335
 10
19.188249133297
 20
3.916547267350065
 42
0.0
 10
18.02505344406017
 20
7.600000283266629
 42
0.0
 97
        0
 92
        7
 72
     1
 73
     1
 93
        8
 10
21.74610607563909
 20
11.36250028326656
 42
0.4142135623731546
 10
21.48360607563904
 20
11.62500028326656
 42
0.0
 10
20.60860607563915
 20
11.62500028326656
 42
0.4142135623731507
 10
20.34610607563911
 20
11.36250028326657
 42
0.0
 10
20.34610607563911
 20
3.837500283266555
 42
0.4142135623731526
 10
20.60860607563915
 20
3.575000283266561
 42
0.0
 10
21.48360607563904
 20
3.575000283266561
 42
0.4142135623731526
 10
21.74610607563909
 20
3.837500283266555
 42
0.0
 97
        0
 92
        7
 72
     1
 73
     1
 93
       24
 10
24.19610607563913
 20
9.962500283266564
 42
-0.4142135623731546
 10
24.45860607563918
 20
10.22500028326656
 42
0.0
 10
25.94610607563913
 20
10.22500028326656
 42
0.4142135623730911
 10
26.20860607563912
 20
10.48750028326655
 42
0.0
 10
26.20860607563912
 20
11.36250028326656
 42
0.4142135623730952
 10
25.94610607563913
 20
11.62500028326656
 42
0.0
 10
24.19610607563913
 20
11.62500028326656
 42
0.4142135623731048
 10
22.7961060756391
 20
10.22500028326657
 42
0.0
 10
22.7961060756391
 20
9.317399270588939
 42
0.1989123673796613
 10
23.41118183514737
 20
7.832475030097164
 42
0.0
 10
24.86608082246971
 20
6.37757604277483
 42
-0.1989123673796402
 10
25.07110607563913
 20
5.882601295944294
 42
0.0
 10
25.07110607563913
 20
5.237500283266555
 42
-0.4142135623730911
 10
24.80860607563915
 20
4.97500028326656
 42
0.0
 10
23.32110607563913
 20
4.97500028326656
 42
0.4142135623731526
 10
23.05860607563908
 20
4.712500283266566
 42
0.0
 10
23.05860607563908
 20
3.837500283266555
 42
0.4142135623730891
 10
23.32110607563908
 20
3.575000283266561
 42
0.0
 10
25.07110607563913
 20
3.575000283266561
 42
0.4142135623730925
 10
26.47110607563911
 20
4.975000283266549
 42
0.0
 10
26.47110607563911
 20
5.882601295944185
 42
0.1989123673796675
 10
25.85603031613084
 20
7.367525536436012
 42
0.0
 10
24.40113132880856
 20
8.82242452375827
 42
-0.1989123673796652
 10
24.19610607563913
 20
9.317399270588854
 42
0.0
 97
        0
 92
        7
 72
     1
 73
     1
 93
       16
 10
28.9211060756391
 20
11.36250028326655
 42
0.414213562373103
 10
28.65860607563911
 20
11.62500028326656
 42
0.0
 10
27.78360607563911
 20
11.62500028326656
 42
0.4142135623730871
 10
27.52110607563912
 20
11.36250028326657
 42
0.0
 10
27.52110607563912
 20
4.975000283266549
 42
0.4142135623730926
 10
28.9211060756391
 20
3.575000283266561
 42
0.0
 10
30.6711060756391
 20
3.575000283266561
 42
0.4142135623731044
 10
32.07110607563913
 20
4.975000283266549
 42
0.0
 10
32.07110607563913
 20
11.36250028326656
 42
0.4142135623730951
 10
31.80860607563914
 20
11.62500028326656
 42
0.0
 10
30.93360607563909
 20
11.62500028326656
 42
0.4142135623730871
 10
30.6711060756391
 20
11.36250028326657
 42
0.0
 10
30.6711060756391
 20
5.500000283266547
 42
-0.414213562373088
 10
30.14610607563912
 20
4.97500028326656
 42
0.0
 10
29.44610607563913
 20
4.97500028326656
 42
-0.4142135623731197
 10
28.9211060756391
 20
5.500000283266547
 42
0.0
 97
        0
 92
        7
 72
     1
 73
     1
 93
        8
 10
34.52110607563912
 20
11.36250028326657
 42
0.4142135623730871
 10
34.25860607563913
 20
11.62500028326656
 42
0.0
 10
33.38360607563913
 20
11.62500028326656
 42
0.4142135623731507
 10
33.12110607563909
 20
11.36250028326657
 42
0.0
 10
33.12110607563909
 20
3.837500283266555
 42
0.4142135623730891
 10
33.38360607563908
 20
3.575000283266561
 42
0.0
 10
34.25860607563913
 20
3.575000283266561
 42
0.4142135623730891
 10
34.52110607563912
 20
3.837500283266555
 42
0.0
 97
        0
 75
     0
 76
     1
 52
0.0
 41
0.1
 77
     0
 78
     2
 53
45.0
 43
-450.4711521690909
 44
-6.599999716733407
 45
-0.2245064030267288
 46
0.2245064030267288
 79
     0
 53
135.0
 43
-450.4711521690909
 44
-6.599999716733407
 45
-0.2245064030267288
 46
-0.2245064030267288
 79
     0
 47
0.057451373970553
 98
        8
 10
8.039927479760194
 20
7.583587106209336
 10
11.20225750146812
 20
9.422031374492064
 10
12.58218394107837
 20
7.755941106301918
 10
15.45702998906711
 20
8.10064910648731
 10
20.91923600772691
 20
8.330455240258118
 10
23.44910044581331
 20
9.709288441470164
 10
28.27884298444871
 20
9.364579240814066
 10
33.91353980805991
 20
9.594385374584874
  0
ARC
  5
325E
330
1A
100
AcDbEntity
  8
ZUWAKU
100
AcDbCircle
 10
7.74610607563909
 20
9.317399270588911
 30
0.0
 40
2.099999999999999
100
AcDbArc
 50
180.0
 51
225.0
  0
LINE
  5
325F
330
1A
100
AcDbEntity
  8
ZUWAKU
100
AcDbLine
 10
10.37110607563909
 20
5.675000283266562
 30
0.0
 11
10.37110607563909
 21
9.525000283266539
 31
0.0
  0
LINE
  5
3260
330
1A
100
AcDbEntity
  8
ZUWAKU
100
AcDbLine
 10
11.77110607563912
 20
9.52500028326656
 30
0.0
 11
11.77110607563912
 21
5.675000283266562
 31
0.0
  0
ARC
  5
3261
330
1A
100
AcDbEntity
  8
ZUWAKU
100
AcDbCircle
 10
7.74610607563909
 20
9.317399270588911
 30
0.0
 40
0.7
100
AcDbArc
 50
180.0000000000016
 51
224.9999999999988
  0
ARC
  5
3262
330
1A
100
AcDbEntity
  8
ZUWAKU
100
AcDbCircle
 10
12.47110607563911
 20
5.675000283266562
 30
0.0
 40
2.099999999999999
100
AcDbArc
 50
180.0
 51
270.0
  0
ARC
  5
3263
330
1A
100
AcDbEntity
  8
ZUWAKU
100
AcDbCircle
 10
7.921106075639102
 20
4.97500028326656
 30
0.0
 40
1.399999999999999
100
AcDbArc
 50
270.0
 51
0.0
  0
ARC
  5
3264
330
1A
100
AcDbEntity
  8
ZUWAKU
100
AcDbCircle
 10
7.221106075639113
 20
5.882601295944212
 30
0.0
 40
2.099999999999999
100
AcDbArc
 50
0.0
 51
45.0
  0
LINE
  5
3265
330
1A
100
AcDbEntity
  8
ZUWAKU
100
AcDbLine
 10
6.26118183514734
 20
7.83247503009715
 30
0.0
 11
7.716080822469677
 21
6.377576042774819
 31
0.0
  0
LINE
  5
3266
330
1A
100
AcDbEntity
  8
ZUWAKU
100
AcDbLine
 10
6.171106075639102
 20
4.97500028326656
 30
0.0
 11
7.658606075639113
 21
4.97500028326656
 31
0.0
  0
LINE
  5
3267
330
1A
100
AcDbEntity
  8
ZUWAKU
100
AcDbLine
 10
6.171106075639102
 20
3.575000283266561
 30
0.0
 11
7.921106075639102
 21
3.575000283266561
 31
0.0
  0
ARC
  5
3268
330
1A
100
AcDbEntity
  8
ZUWAKU
100
AcDbCircle
 10
6.171106075639102
 20
4.71250028326656
 30
0.0
 40
0.2625
100
AcDbArc
 50
90.0
 51
180.0
  0
ARC
  5
3269
330
1A
100
AcDbEntity
  8
ZUWAKU
100
AcDbCircle
 10
6.171106075639102
 20
3.83750028326656
 30
0.0
 40
0.2625
100
AcDbArc
 50
180.0
 51
270.0
  0
LINE
  5
326A
330
1A
100
AcDbEntity
  8
ZUWAKU
100
AcDbLine
 10
5.908606075639113
 20
3.83750028326656
 30
0.0
 11
5.908606075639113
 21
4.71250028326656
 31
0.0
  0
ARC
  5
326B
330
1A
100
AcDbEntity
  8
ZUWAKU
100
AcDbCircle
 10
7.221106075639113
 20
5.882601295944233
 30
0.0
 40
0.7
100
AcDbArc
 50
0.0
 51
45.0
  0
ARC
  5
326C
330
1A
100
AcDbEntity
  8
ZUWAKU
100
AcDbCircle
 10
7.658606075639113
 20
5.237500283266562
 30
0.0
 40
0.2625
100
AcDbArc
 50
270.0
 51
0.0
  0
LINE
  5
326D
330
1A
100
AcDbEntity
  8
ZUWAKU
100
AcDbLine
 10
7.921106075639102
 20
5.237500283266562
 30
0.0
 11
7.921106075639102
 21
5.882601295944233
 31
0.0
  0
LINE
  5
326E
330
1A
100
AcDbEntity
  8
ZUWAKU
100
AcDbLine
 10
8.706030316130863
 20
7.367525536435973
 30
0.0
 11
7.251131328808526
 21
8.822424523758311
 31
0.0
  0
ARC
  5
326F
330
1A
100
AcDbEntity
  8
ZUWAKU
100
AcDbCircle
 10
12.47110607563911
 20
5.675000283266562
 30
0.0
 40
0.7
100
AcDbArc
 50
180.0
 51
270.0
  0
LINE
  5
3270
330
1A
100
AcDbEntity
  8
ZUWAKU
100
AcDbLine
 10
9.321106075639136
 20
4.97500028326656
 30
0.0
 11
9.321106075639136
 21
5.882601295944233
 31
0.0
  0
ARC
  5
3271
330
1A
100
AcDbEntity
  8
ZUWAKU
100
AcDbCircle
 10
8.796106075639102
 20
10.48750028326655
 30
0.0
 40
0.2625
100
AcDbArc
 50
270.0
 51
0.0
  0
ARC
  5
3272
330
1A
100
AcDbEntity
  8
ZUWAKU
100
AcDbCircle
 10
8.796106075639102
 20
11.36250028326655
 30
0.0
 40
0.2625
100
AcDbArc
 50
0.0
 51
90.0
  0
ARC
  5
3273
330
1A
100
AcDbEntity
  8
ZUWAKU
100
AcDbCircle
 10
7.046106075639102
 20
10.22500028326656
 30
0.0
 40
1.399999999999999
100
AcDbArc
 50
90.0
 51
180.0
  0
LINE
  5
3274
330
1A
100
AcDbEntity
  8
ZUWAKU
100
AcDbLine
 10
5.646106075639124
 20
10.22500028326656
 30
0.0
 11
5.646106075639124
 21
9.317399270588889
 31
0.0
  0
LINE
  5
3275
330
1A
100
AcDbEntity
  8
ZUWAKU
100
AcDbLine
 10
8.796106075639102
 20
10.22500028326656
 30
0.0
 11
7.30860607563909
 21
10.22500028326656
 31
0.0
  0
LINE
  5
3276
330
1A
100
AcDbEntity
  8
ZUWAKU
100
AcDbLine
 10
7.046106075639102
 20
9.96250028326656
 30
0.0
 11
7.046106075639102
 21
9.317399270588889
 31
0.0
  0
ARC
  5
3277
330
1A
100
AcDbEntity
  8
ZUWAKU
100
AcDbCircle
 10
7.30860607563909
 20
9.96250028326656
 30
0.0
 40
0.2625
100
AcDbArc
 50
90.0
 51
180.0
  0
LINE
  5
3278
330
1A
100
AcDbEntity
  8
ZUWAKU
100
AcDbLine
 10
7.046106075639102
 20
11.62500028326656
 30
0.0
 11
8.796106075639102
 21
11.62500028326656
 31
0.0
  0
ARC
  5
3279
330
1A
100
AcDbEntity
  8
ZUWAKU
100
AcDbCircle
 10
12.47110607563911
 20
9.525000283266539
 30
0.0
 40
2.099999999999999
100
AcDbArc
 50
90.0
 51
180.0
  0
ARC
  5
327A
330
1A
100
AcDbEntity
  8
ZUWAKU
100
AcDbCircle
 10
12.47110607563911
 20
9.52500028326656
 30
0.0
 40
0.7
100
AcDbArc
 50
90.0
 51
180.0
  0
LINE
  5
327B
330
1A
100
AcDbEntity
  8
ZUWAKU
100
AcDbLine
 10
9.05860607563909
 20
11.36250028326655
 30
0.0
 11
9.05860607563909
 21
10.48750028326655
 31
0.0
  0
LINE
  5
327C
330
1A
100
AcDbEntity
  8
ZUWAKU
100
AcDbLine
 10
17.83817354429703
 20
11.44154726735004
 30
0.0
 11
16.90403860698114
 21
8.483453299183075
 31
0.0
  0
LINE
  5
327D
330
1A
100
AcDbEntity
  8
ZUWAKU
100
AcDbLine
 10
14.9211060756391
 20
11.36250028326655
 30
0.0
 11
14.9211060756391
 21
3.83750028326656
 31
0.0
  0
LINE
  5
327E
330
1A
100
AcDbEntity
  8
ZUWAKU
100
AcDbLine
 10
16.32110607563913
 20
8.562500283266562
 30
0.0
 11
16.32110607563913
 21
11.36250028326655
 31
0.0
  0
LINE
  5
327F
330
1A
100
AcDbEntity
  8
ZUWAKU
100
AcDbLine
 10
28.9211060756391
 20
5.500000283266558
 30
0.0
 11
28.9211060756391
 21
11.36250028326655
 31
0.0
  0
LINE
  5
3280
330
1A
100
AcDbEntity
  8
ZUWAKU
100
AcDbLine
 10
27.52110607563912
 20
11.36250028326655
 30
0.0
 11
27.52110607563912
 21
4.97500028326656
 31
0.0
  0
LINE
  5
3281
330
1A
100
AcDbEntity
  8
ZUWAKU
100
AcDbLine
 10
21.74610607563909
 20
3.83750028326656
 30
0.0
 11
21.74610607563909
 21
11.36250028326655
 31
0.0
  0
LINE
  5
3282
330
1A
100
AcDbEntity
  8
ZUWAKU
100
AcDbLine
 10
20.34610607563911
 20
11.36250028326655
 30
0.0
 11
20.34610607563911
 21
3.83750028326656
 31
0.0
  0
LINE
  5
3283
330
1A
100
AcDbEntity
  8
ZUWAKU
100
AcDbLine
 10
18.6574293167281
 20
9.602523880048273
 30
0.0
 11
18.02505344406017
 21
7.60000028326657
 31
0.0
  0
ARC
  5
3284
330
1A
100
AcDbEntity
  8
ZUWAKU
100
AcDbCircle
 10
24.89610607563912
 20
9.317399270588911
 30
0.0
 40
2.099999999999999
100
AcDbArc
 50
180.0
 51
225.0
  0
ARC
  5
3285
330
1A
100
AcDbEntity
  8
ZUWAKU
100
AcDbCircle
 10
24.89610607563912
 20
9.317399270588911
 30
0.0
 40
0.7
100
AcDbArc
 50
180.0000000000016
 51
224.9999999999988
  0
LINE
  5
3286
330
1A
100
AcDbEntity
  8
ZUWAKU
100
AcDbLine
 10
33.12110607563909
 20
11.36250028326655
 30
0.0
 11
33.12110607563909
 21
3.83750028326656
 31
0.0
  0
LINE
  5
3287
330
1A
100
AcDbEntity
  8
ZUWAKU
100
AcDbLine
 10
34.52110607563912
 20
3.83750028326656
 30
0.0
 11
34.52110607563912
 21
11.36250028326655
 31
0.0
  0
LINE
  5
3288
330
1A
100
AcDbEntity
  8
ZUWAKU
100
AcDbLine
 10
30.6711060756391
 20
11.36250028326655
 30
0.0
 11
30.6711060756391
 21
5.500000283266558
 31
0.0
  0
LINE
  5
3289
330
1A
100
AcDbEntity
  8
ZUWAKU
100
AcDbLine
 10
32.07110607563913
 20
4.97500028326656
 30
0.0
 11
32.07110607563913
 21
11.36250028326655
 31
0.0
  0
LINE
  5
328A
330
1A
100
AcDbEntity
  8
ZUWAKU
100
AcDbLine
 10
39.56331477224273
 20
15.00000028326655
 30
0.0
 11
39.56331477224273
 21
0.4000002832665928
 31
0.0
  0
LINE
  5
328B
330
1A
100
AcDbEntity
  8
ZUWAKU
100
AcDbLine
 10
39.76331477224266
 20
15.00000028326655
 30
0.0
 11
39.76331477224277
 21
0.4000002832665928
 31
0.0
  0
LINE
  5
328C
330
1A
100
AcDbEntity
  8
ZUWAKU
100
AcDbLine
 10
39.66331477224264
 20
15.00000028326655
 30
0.0
 11
39.66331477224276
 21
0.4000002832665928
 31
0.0
  0
LINE
  5
328D
330
1A
100
AcDbEntity
  8
ZUWAKU
100
AcDbLine
 10
28.9211060756391
 20
3.575000283266561
 30
0.0
 11
30.6711060756391
 21
3.575000283266561
 31
0.0
  0
LINE
  5
328E
330
1A
100
AcDbEntity
  8
ZUWAKU
100
AcDbLine
 10
30.14610607563912
 20
4.97500028326656
 30
0.0
 11
29.44610607563913
 21
4.97500028326656
 31
0.0
  0
LINE
  5
328F
330
1A
100
AcDbEntity
  8
ZUWAKU
100
AcDbLine
 10
20.6086060756391
 20
3.575000283266561
 30
0.0
 11
21.4836060756391
 21
3.575000283266561
 31
0.0
  0
LINE
  5
3290
330
1A
100
AcDbEntity
  8
ZUWAKU
100
AcDbLine
 10
17.83817354429703
 20
3.758453299183074
 30
0.0
 11
16.90403860698114
 21
6.716547267350044
 31
0.0
  0
ARC
  5
3291
330
1A
100
AcDbEntity
  8
ZUWAKU
100
AcDbCircle
 10
16.58360607563912
 20
6.637500283266561
 30
0.0
 40
0.2625
100
AcDbArc
 50
90.0
 51
180.0
  0
ARC
  5
3292
330
1A
100
AcDbEntity
  8
ZUWAKU
100
AcDbCircle
 10
16.65372315738346
 20
6.637500283266561
 30
0.0
 40
0.2625
100
AcDbArc
 50
17.52556837372303
 51
90.0
  0
ARC
  5
3293
330
1A
100
AcDbEntity
  8
ZUWAKU
100
AcDbCircle
 10
15.18360607563909
 20
3.83750028326656
 30
0.0
 40
0.2625
100
AcDbArc
 50
180.0
 51
270.0
  0
ARC
  5
3294
330
1A
100
AcDbEntity
  8
ZUWAKU
100
AcDbCircle
 10
13.43360607563909
 20
4.71250028326656
 30
0.0
 40
0.2625
100
AcDbArc
 50
0.0
 51
90.0
  0
ARC
  5
3295
330
1A
100
AcDbEntity
  8
ZUWAKU
100
AcDbCircle
 10
13.43360607563909
 20
3.83750028326656
 30
0.0
 40
0.2625
100
AcDbArc
 50
270.0
 51
0.0
  0
LINE
  5
3296
330
1A
100
AcDbEntity
  8
ZUWAKU
100
AcDbLine
 10
13.69610607563913
 20
4.71250028326656
 30
0.0
 11
13.69610607563913
 21
3.83750028326656
 31
0.0
  0
LINE
  5
3297
330
1A
100
AcDbEntity
  8
ZUWAKU
100
AcDbLine
 10
16.32110607563913
 20
3.83750028326656
 30
0.0
 11
16.32110607563913
 21
6.637500283266561
 31
0.0
  0
ARC
  5
3298
330
1A
100
AcDbEntity
  8
ZUWAKU
100
AcDbCircle
 10
16.05860607563909
 20
3.83750028326656
 30
0.0
 40
0.2625
100
AcDbArc
 50
270.0
 51
0.0
  0
LINE
  5
3299
330
1A
100
AcDbEntity
  8
ZUWAKU
100
AcDbLine
 10
15.18360607563909
 20
3.575000283266561
 30
0.0
 11
16.05860607563909
 21
3.575000283266561
 31
0.0
  0
ARC
  5
329A
330
1A
100
AcDbEntity
  8
ZUWAKU
100
AcDbCircle
 10
16.58360607563912
 20
8.562500283266562
 30
0.0
 40
0.2625
100
AcDbArc
 50
180.0
 51
270.0
  0
LINE
  5
329B
330
1A
100
AcDbEntity
  8
ZUWAKU
100
AcDbLine
 10
16.58360607563912
 20
6.90000028326656
 30
0.0
 11
16.65372315738346
 21
6.90000028326656
 31
0.0
  0
LINE
  5
329C
330
1A
100
AcDbEntity
  8
ZUWAKU
100
AcDbLine
 10
16.65372315738346
 20
8.300000283266559
 30
0.0
 11
16.58360607563912
 21
8.300000283266559
 31
0.0
  0
ARC
  5
329D
330
1A
100
AcDbEntity
  8
ZUWAKU
100
AcDbCircle
 10
16.65372315738346
 20
8.562500283266562
 30
0.0
 40
0.2625
100
AcDbArc
 50
270.0
 51
342.4744316262769
  0
ARC
  5
329E
330
1A
100
AcDbEntity
  8
ZUWAKU
100
AcDbCircle
 10
18.08848899389477
 20
3.83750028326656
 30
0.0
 40
0.2625
100
AcDbArc
 50
197.525568373723
 51
270.0
  0
LINE
  5
329F
330
1A
100
AcDbEntity
  8
ZUWAKU
100
AcDbLine
 10
19.188249133297
 20
3.916547267350047
 30
0.0
 11
18.02505344406017
 21
7.60000028326657
 31
0.0
  0
ARC
  5
32A0
330
1A
100
AcDbEntity
  8
ZUWAKU
100
AcDbCircle
 10
18.93793368369927
 20
3.83750028326656
 30
0.0
 40
0.2625
100
AcDbArc
 50
270.0
 51
17.52556837372303
  0
LINE
  5
32A1
330
1A
100
AcDbEntity
  8
ZUWAKU
100
AcDbLine
 10
18.08848899389477
 20
3.575000283266561
 30
0.0
 11
18.93793368369927
 21
3.575000283266561
 31
0.0
  0
ARC
  5
32A2
330
1A
100
AcDbEntity
  8
ZUWAKU
100
AcDbCircle
 10
20.6086060756391
 20
3.83750028326656
 30
0.0
 40
0.2625
100
AcDbArc
 50
180.0
 51
270.0
  0
ARC
  5
32A3
330
1A
100
AcDbEntity
  8
ZUWAKU
100
AcDbCircle
 10
25.07110607563913
 20
4.97500028326656
 30
0.0
 40
1.399999999999999
100
AcDbArc
 50
270.0
 51
0.0
  0
ARC
  5
32A4
330
1A
100
AcDbEntity
  8
ZUWAKU
100
AcDbCircle
 10
28.9211060756391
 20
4.97500028326656
 30
0.0
 40
1.399999999999999
100
AcDbArc
 50
180.0
 51
270.0
  0
LINE
  5
32A5
330
1A
100
AcDbEntity
  8
ZUWAKU
100
AcDbLine
 10
25.85603031613089
 20
7.367525536435973
 30
0.0
 11
24.4011313288085
 21
8.822424523758311
 31
0.0
  0
LINE
  5
32A6
330
1A
100
AcDbEntity
  8
ZUWAKU
100
AcDbLine
 10
23.41118183514737
 20
7.83247503009715
 30
0.0
 11
24.86608082246971
 21
6.377576042774819
 31
0.0
  0
LINE
  5
32A7
330
1A
100
AcDbEntity
  8
ZUWAKU
100
AcDbLine
 10
23.32110607563913
 20
3.575000283266561
 30
0.0
 11
25.07110607563913
 21
3.575000283266561
 31
0.0
  0
LINE
  5
32A8
330
1A
100
AcDbEntity
  8
ZUWAKU
100
AcDbLine
 10
23.32110607563913
 20
4.97500028326656
 30
0.0
 11
24.80860607563909
 21
4.97500028326656
 31
0.0
  0
ARC
  5
32A9
330
1A
100
AcDbEntity
  8
ZUWAKU
100
AcDbCircle
 10
23.32110607563913
 20
4.71250028326656
 30
0.0
 40
0.2625
100
AcDbArc
 50
90.0
 51
180.0
  0
ARC
  5
32AA
330
1A
100
AcDbEntity
  8
ZUWAKU
100
AcDbCircle
 10
21.4836060756391
 20
3.83750028326656
 30
0.0
 40
0.2625
100
AcDbArc
 50
270.0
 51
0.0
  0
ARC
  5
32AB
330
1A
100
AcDbEntity
  8
ZUWAKU
100
AcDbCircle
 10
23.32110607563913
 20
3.83750028326656
 30
0.0
 40
0.2625
100
AcDbArc
 50
180.0
 51
270.0
  0
LINE
  5
32AC
330
1A
100
AcDbEntity
  8
ZUWAKU
100
AcDbLine
 10
23.05860607563908
 20
3.83750028326656
 30
0.0
 11
23.05860607563908
 21
4.71250028326656
 31
0.0
  0
ARC
  5
32AD
330
1A
100
AcDbEntity
  8
ZUWAKU
100
AcDbCircle
 10
24.80860607563909
 20
5.237500283266562
 30
0.0
 40
0.2625
100
AcDbArc
 50
270.0
 51
0.0
  0
ARC
  5
32AE
330
1A
100
AcDbEntity
  8
ZUWAKU
100
AcDbCircle
 10
24.37110607563909
 20
5.882601295944233
 30
0.0
 40
0.7
100
AcDbArc
 50
0.0
 51
45.0
  0
LINE
  5
32AF
330
1A
100
AcDbEntity
  8
ZUWAKU
100
AcDbLine
 10
25.07110607563913
 20
5.237500283266562
 30
0.0
 11
25.07110607563913
 21
5.882601295944233
 31
0.0
  0
ARC
  5
32B0
330
1A
100
AcDbEntity
  8
ZUWAKU
100
AcDbCircle
 10
29.44610607563913
 20
5.500000283266558
 30
0.0
 40
0.525
100
AcDbArc
 50
180.0
 51
270.0
  0
ARC
  5
32B1
330
1A
100
AcDbEntity
  8
ZUWAKU
100
AcDbCircle
 10
24.37110607563909
 20
5.882601295944212
 30
0.0
 40
2.099999999999999
100
AcDbArc
 50
0.0
 51
45.0
  0
LINE
  5
32B2
330
1A
100
AcDbEntity
  8
ZUWAKU
100
AcDbLine
 10
26.47110607563911
 20
4.97500028326656
 30
0.0
 11
26.47110607563911
 21
5.882601295944233
 31
0.0
  0
ARC
  5
32B3
330
1A
100
AcDbEntity
  8
ZUWAKU
100
AcDbCircle
 10
30.6711060756391
 20
4.97500028326656
 30
0.0
 40
1.399999999999999
100
AcDbArc
 50
270.0
 51
0.0
  0
LINE
  5
32B4
330
1A
100
AcDbEntity
  8
ZUWAKU
100
AcDbLine
 10
33.38360607563913
 20
3.575000283266561
 30
0.0
 11
34.25860607563913
 21
3.575000283266561
 31
0.0
  0
ARC
  5
32B5
330
1A
100
AcDbEntity
  8
ZUWAKU
100
AcDbCircle
 10
30.14610607563912
 20
5.500000283266558
 30
0.0
 40
0.525
100
AcDbArc
 50
270.0
 51
0.0
  0
ARC
  5
32B6
330
1A
100
AcDbEntity
  8
ZUWAKU
100
AcDbCircle
 10
33.38360607563913
 20
3.83750028326656
 30
0.0
 40
0.2625
100
AcDbArc
 50
180.0
 51
270.0
  0
ARC
  5
32B7
330
1A
100
AcDbEntity
  8
ZUWAKU
100
AcDbCircle
 10
34.25860607563913
 20
3.83750028326656
 30
0.0
 40
0.2625
100
AcDbArc
 50
270.0
 51
0.0
  0
LINE
  5
32B8
330
1A
100
AcDbEntity
  8
ZUWAKU
100
AcDbLine
 10
21.4836060756391
 20
11.62500028326656
 30
0.0
 11
20.6086060756391
 21
11.62500028326656
 31
0.0
  0
LINE
  5
32B9
330
1A
100
AcDbEntity
  8
ZUWAKU
100
AcDbLine
 10
13.69610607563913
 20
11.36250028326655
 30
0.0
 11
13.69610607563913
 21
10.48750028326655
 31
0.0
  0
ARC
  5
32BA
330
1A
100
AcDbEntity
  8
ZUWAKU
100
AcDbCircle
 10
13.43360607563909
 20
10.48750028326655
 30
0.0
 40
0.2625
100
AcDbArc
 50
270.0
 51
0.0
  0
ARC
  5
32BB
330
1A
100
AcDbEntity
  8
ZUWAKU
100
AcDbCircle
 10
15.18360607563909
 20
11.36250028326655
 30
0.0
 40
0.2625
100
AcDbArc
 50
90.0
 51
180.0
  0
ARC
  5
32BC
330
1A
100
AcDbEntity
  8
ZUWAKU
100
AcDbCircle
 10
13.43360607563909
 20
11.36250028326655
 30
0.0
 40
0.2625
100
AcDbArc
 50
0.0
 51
90.0
  0
LINE
  5
32BD
330
1A
100
AcDbEntity
  8
ZUWAKU
100
AcDbLine
 10
16.05860607563909
 20
11.62500028326656
 30
0.0
 11
15.18360607563909
 21
11.62500028326656
 31
0.0
  0
ARC
  5
32BE
330
1A
100
AcDbEntity
  8
ZUWAKU
100
AcDbCircle
 10
16.05860607563909
 20
11.36250028326655
 30
0.0
 40
0.2625
100
AcDbArc
 50
0.0
 51
90.0
  0
ARC
  5
32BF
330
1A
100
AcDbEntity
  8
ZUWAKU
100
AcDbCircle
 10
18.08848899389477
 20
11.36250028326655
 30
0.0
 40
0.2625
100
AcDbArc
 50
90.0
 51
162.4744316262769
  0
LINE
  5
32C0
330
1A
100
AcDbEntity
  8
ZUWAKU
100
AcDbLine
 10
19.188249133297
 20
11.28345329918307
 30
0.0
 11
18.6574293167281
 21
9.602523880048273
 31
0.0
  0
ARC
  5
32C1
330
1A
100
AcDbEntity
  8
ZUWAKU
100
AcDbCircle
 10
18.93793368369927
 20
11.36250028326655
 30
0.0
 40
0.2625
100
AcDbArc
 50
342.4744316262769
 51
90.0
  0
LINE
  5
32C2
330
1A
100
AcDbEntity
  8
ZUWAKU
100
AcDbLine
 10
18.08848899389477
 20
11.62500028326656
 30
0.0
 11
18.93793368369927
 21
11.62500028326656
 31
0.0
  0
ARC
  5
32C3
330
1A
100
AcDbEntity
  8
ZUWAKU
100
AcDbCircle
 10
20.6086060756391
 20
11.36250028326655
 30
0.0
 40
0.2625
100
AcDbArc
 50
90.0
 51
180.0
  0
LINE
  5
32C4
330
1A
100
AcDbEntity
  8
ZUWAKU
100
AcDbLine
 10
25.94610607563913
 20
10.22500028326656
 30
0.0
 11
24.45860607563912
 21
10.22500028326656
 31
0.0
  0
LINE
  5
32C5
330
1A
100
AcDbEntity
  8
ZUWAKU
100
AcDbLine
 10
24.19610607563913
 20
11.62500028326656
 30
0.0
 11
25.94610607563913
 21
11.62500028326656
 31
0.0
  0
ARC
  5
32C6
330
1A
100
AcDbEntity
  8
ZUWAKU
100
AcDbCircle
 10
24.19610607563913
 20
10.22500028326656
 30
0.0
 40
1.399999999999999
100
AcDbArc
 50
90.0
 51
180.0
  0
LINE
  5
32C7
330
1A
100
AcDbEntity
  8
ZUWAKU
100
AcDbLine
 10
22.7961060756391
 20
10.22500028326656
 30
0.0
 11
22.7961060756391
 21
9.317399270588889
 31
0.0
  0
ARC
  5
32C8
330
1A
100
AcDbEntity
  8
ZUWAKU
100
AcDbCircle
 10
21.4836060756391
 20
11.36250028326655
 30
0.0
 40
0.2625
100
AcDbArc
 50
0.0
 51
90.0
  0
LINE
  5
32C9
330
1A
100
AcDbEntity
  8
ZUWAKU
100
AcDbLine
 10
24.19610607563913
 20
9.96250028326656
 30
0.0
 11
24.19610607563913
 21
9.317399270588889
 31
0.0
  0
ARC
  5
32CA
330
1A
100
AcDbEntity
  8
ZUWAKU
100
AcDbCircle
 10
24.45860607563912
 20
9.96250028326656
 30
0.0
 40
0.2625
100
AcDbArc
 50
90.0
 51
180.0
  0
LINE
  5
32CB
330
1A
100
AcDbEntity
  8
ZUWAKU
100
AcDbLine
 10
26.20860607563912
 20
11.36250028326655
 30
0.0
 11
26.20860607563912
 21
10.48750028326655
 31
0.0
  0
ARC
  5
32CC
330
1A
100
AcDbEntity
  8
ZUWAKU
100
AcDbCircle
 10
25.94610607563913
 20
10.48750028326655
 30
0.0
 40
0.2625
100
AcDbArc
 50
270.0
 51
0.0
  0
ARC
  5
32CD
330
1A
100
AcDbEntity
  8
ZUWAKU
100
AcDbCircle
 10
25.94610607563913
 20
11.36250028326655
 30
0.0
 40
0.2625
100
AcDbArc
 50
0.0
 51
90.0
  0
LINE
  5
32CE
330
1A
100
AcDbEntity
  8
ZUWAKU
100
AcDbLine
 10
28.65860607563911
 20
11.62500028326656
 30
0.0
 11
27.78360607563911
 21
11.62500028326656
 31
0.0
  0
ARC
  5
32CF
330
1A
100
AcDbEntity
  8
ZUWAKU
100
AcDbCircle
 10
27.78360607563911
 20
11.36250028326655
 30
0.0
 40
0.2625
100
AcDbArc
 50
90.0
 51
180.0
  0
ARC
  5
32D0
330
1A
100
AcDbEntity
  8
ZUWAKU
100
AcDbCircle
 10
28.65860607563911
 20
11.36250028326655
 30
0.0
 40
0.2625
100
AcDbArc
 50
0.0
 51
90.0
  0
LINE
  5
32D1
330
1A
100
AcDbEntity
  8
ZUWAKU
100
AcDbLine
 10
34.25860607563913
 20
11.62500028326656
 30
0.0
 11
33.38360607563913
 21
11.62500028326656
 31
0.0
  0
ARC
  5
32D2
330
1A
100
AcDbEntity
  8
ZUWAKU
100
AcDbCircle
 10
30.93360607563909
 20
11.36250028326655
 30
0.0
 40
0.2625
100
AcDbArc
 50
90.0
 51
180.0
  0
LINE
  5
32D3
330
1A
100
AcDbEntity
  8
ZUWAKU
100
AcDbLine
 10
31.80860607563909
 20
11.62500028326656
 30
0.0
 11
30.93360607563909
 21
11.62500028326656
 31
0.0
  0
ARC
  5
32D4
330
1A
100
AcDbEntity
  8
ZUWAKU
100
AcDbCircle
 10
31.80860607563909
 20
11.36250028326655
 30
0.0
 40
0.2625
100
AcDbArc
 50
0.0
 51
90.0
  0
ARC
  5
32D5
330
1A
100
AcDbEntity
  8
ZUWAKU
100
AcDbCircle
 10
33.38360607563913
 20
11.36250028326655
 30
0.0
 40
0.2625
100
AcDbArc
 50
90.0
 51
180.0
  0
ARC
  5
32D6
330
1A
100
AcDbEntity
  8
ZUWAKU
100
AcDbCircle
 10
34.25860607563913
 20
11.36250028326655
 30
0.0
 40
0.2625
100
AcDbArc
 50
0.0
 51
90.0
  0
TEXT
  5
32D7
330
1A
100
AcDbEntity
  8
MOJI
100
AcDbText
 10
119.913601338674
 20
1.602460811970269
 30
0.0
 40
2.799999999999999
  1
ＲＶ１０５－４－１０
 41
0.9
  7
ｽﾀｲﾙ1
100
AcDbText
  0
TEXT
  5
32D8
330
1A
100
AcDbEntity
  8
MOJI
100
AcDbText
 10
119.913601338674
 20
9.002460811970252
 30
0.0
 40
2.799999999999999
  1
亜鉛メッキ金具正面打（受）ストロング高強度金具角使い
 41
0.9
  7
ｽﾀｲﾙ1
100
AcDbText
  0
LINE
  5
32D9
330
1A
100
AcDbEntity
  8
ZUWAKU
100
AcDbLine
 10
104.2233006432824
 20
15.00000028326655
 30
0.0
 11
104.2233006432825
 21
0.4000002832665928
 31
0.0
  0
LINE
  5
32DA
330
1A
100
AcDbEntity
  8
ZUWAKU
100
AcDbLine
 10
104.3233006432824
 20
15.00000028326655
 30
0.0
 11
104.3233006432825
 21
0.4000002832665928
 31
0.0
  0
LINE
  5
32DB
330
1A
100
AcDbEntity
  8
ZUWAKU
100
AcDbLine
 10
104.1233006432825
 20
15.00000028326655
 30
0.0
 11
104.1233006432825
 21
0.4000002832665928
 31
0.0
  0
TEXT
  5
32DC
330
1A
100
AcDbEntity
  8
ZUWAKU
100
AcDbText
 10
104.8620231543873
 20
4.827678552459367
 30
0.0
 40
2.0
  1
サイズ
 41
0.9
  7
ｽﾀｲﾙ1
100
AcDbText
  0
TEXT
  5
32DD
330
1A
100
AcDbEntity
  8
ZUWAKU
100
AcDbText
 10
104.8620231543871
 20
12.02767855245935
 30
0.0
 40
2.0
  1
品名
 41
0.9
  7
ｽﾀｲﾙ1
100
AcDbText
  0
TEXT
  5
32DE
330
1A
100
AcDbEntity
  8
ZUWAKU
100
AcDbText
 10
329.1019688418997
 20
9.002460811970252
 30
0.0
 40
2.799999999999999
  1
　　．　　．　　
 41
0.9
  7
ｽﾀｲﾙ1
100
AcDbText
  0
LINE
  5
32DF
330
1A
100
AcDbEntity
  8
ZUWAKU
100
AcDbLine
 10
324.4086012533506
 20
7.800000283266575
 30
0.0
 11
348.6245052725191
 21
7.800000283266575
 31
0.0
  0
LINE
  5
32E0
330
1A
100
AcDbEntity
  8
ZUWAKU
100
AcDbLine
 10
324.4086012533507
 20
7.700000283266577
 30
0.0
 11
348.6245052725191
 21
7.700000283266575
 31
0.0
  0
LINE
  5
32E1
330
1A
100
AcDbEntity
  8
ZUWAKU
100
AcDbLine
 10
324.4086012533506
 20
7.600000283266574
 30
0.0
 11
348.6245052725191
 21
7.600000283266576
 31
0.0
  0
LINE
  5
32E2
330
1A
100
AcDbEntity
  8
ZUWAKU
100
AcDbLine
 10
252.5995897473189
 20
7.800000283266575
 30
0.0
 11
276.2634778813047
 21
7.800000283266575
 31
0.0
  0
LINE
  5
32E3
330
1A
100
AcDbEntity
  8
ZUWAKU
100
AcDbLine
 10
252.5995897473189
 20
7.700000283266575
 30
0.0
 11
276.2634778813047
 21
7.700000283266575
 31
0.0
  0
LINE
  5
32E4
330
1A
100
AcDbEntity
  8
ZUWAKU
100
AcDbLine
 10
252.5995897473189
 20
7.600000283266577
 30
0.0
 11
276.2634778813047
 21
7.600000283266577
 31
0.0
  0
LINE
  5
32E5
330
1A
100
AcDbEntity
  8
ZUWAKU
100
AcDbLine
 10
252.399589747319
 20
15.00000028326655
 30
0.0
 11
252.399589747319
 21
0.4000002832665928
 31
0.0
  0
LINE
  5
32E6
330
1A
100
AcDbEntity
  8
ZUWAKU
100
AcDbLine
 10
252.5995897473189
 20
15.00000028326655
 30
0.0
 11
252.599589747319
 21
0.4000002832665928
 31
0.0
  0
LINE
  5
32E7
330
1A
100
AcDbEntity
  8
ZUWAKU
100
AcDbLine
 10
252.4995897473189
 20
15.00000028326655
 30
0.0
 11
252.499589747319
 21
0.4000002832665928
 31
0.0
  0
TEXT
  5
32E8
330
1A
100
AcDbEntity
  8
MOJI
100
AcDbText
 10
264.0204539844049
 20
9.002460811970252
 30
0.0
 40
2.799999999999999
  1
Ａ３
 41
0.9
  7
ｽﾀｲﾙ1
100
AcDbText
  0
LINE
  5
32E9
330
1A
100
AcDbEntity
  8
ZUWAKU
100
AcDbLine
 10
223.7121819837442
 20
15.00000028326655
 30
0.0
 11
223.7121819837442
 21
0.4000002832665928
 31
0.0
  0
LINE
  5
32EA
330
1A
100
AcDbEntity
  8
ZUWAKU
100
AcDbLine
 10
223.9121819837441
 20
15.00000028326655
 30
0.0
 11
223.9121819837442
 21
0.4000002832665928
 31
0.0
  0
LINE
  5
32EB
330
1A
100
AcDbEntity
  8
ZUWAKU
100
AcDbLine
 10
223.8121819837441
 20
15.00000028326655
 30
0.0
 11
223.8121819837442
 21
0.4000002832665928
 31
0.0
  0
TEXT
  5
32EC
330
1A
100
AcDbEntity
  8
MOJI
100
AcDbText
 10
231.2836391592428
 20
5.971309144096551
 30
0.0
 40
2.799999999999999
  1
ＬＬ３２Ｇ
 41
0.9
  7
ｽﾀｲﾙ1
100
AcDbText
  0
TEXT
  5
32ED
330
1A
100
AcDbEntity
  8
ZUWAKU
100
AcDbText
 10
253.3383122584239
 20
4.827678552459367
 30
0.0
 40
2.0
  1
縮尺
 41
0.9
  7
ｽﾀｲﾙ1
100
AcDbText
  0
TEXT
  5
32EE
330
1A
100
AcDbEntity
  8
MOJI
100
AcDbText
 10
264.0204539844049
 20
1.602460811970269
 30
0.0
 40
2.799999999999999
  1
１/１
 41
0.9
  7
ｽﾀｲﾙ1
100
AcDbText
  0
TEXT
  5
32EF
330
1A
100
AcDbEntity
  8
ZUWAKU
100
AcDbText
 10
224.6509044948489
 20
12.02767855245935
 30
0.0
 40
2.0
  1
品番
 41
0.9
  7
ｽﾀｲﾙ1
100
AcDbText
  0
TEXT
  5
32F0
330
1A
100
AcDbEntity
  8
ZUWAKU
100
AcDbText
 10
253.3383122584238
 20
12.02767855245935
 30
0.0
 40
2.0
  1
用紙
 41
0.9
  7
ｽﾀｲﾙ1
100
AcDbText
  0
LINE
  5
32F1
330
1A
100
AcDbEntity
  8
ZUWAKU
100
AcDbLine
 10
276.2634778813047
 20
15.00000028326655
 30
0.0
 11
276.2634778813047
 21
0.4000002832665928
 31
0.0
  0
LINE
  5
32F2
330
1A
100
AcDbEntity
  8
ZUWAKU
100
AcDbLine
 10
276.4634778813046
 20
15.00000028326655
 30
0.0
 11
276.4634778813048
 21
0.4000002832665928
 31
0.0
  0
LINE
  5
32F3
330
1A
100
AcDbEntity
  8
ZUWAKU
100
AcDbLine
 10
276.3634778813046
 20
15.00000028326655
 30
0.0
 11
276.3634778813047
 21
0.4000002832665928
 31
0.0
  0
LINE
  5
32F4
330
1A
100
AcDbEntity
  8
ZUWAKU
100
AcDbLine
 10
324.2086012533508
 20
15.00000028326655
 30
0.0
 11
324.2086012533508
 21
0.4000002832665928
 31
0.0
  0
LINE
  5
32F5
330
1A
100
AcDbEntity
  8
ZUWAKU
100
AcDbLine
 10
324.4086012533507
 20
15.00000028326655
 30
0.0
 11
324.4086012533508
 21
0.4000002832665928
 31
0.0
  0
LINE
  5
32F6
330
1A
100
AcDbEntity
  8
ZUWAKU
100
AcDbLine
 10
324.3086012533507
 20
15.00000028326655
 30
0.0
 11
324.3086012533508
 21
0.4000002832665928
 31
0.0
  0
TEXT
  5
32F7
330
1A
100
AcDbEntity
  8
ZUWAKU
100
AcDbText
 10
325.1473237644555
 20
12.02767855245935
 30
0.0
 40
2.0
  1
DATE
 41
0.9
  7
ｽﾀｲﾙ1
100
AcDbText
  0
TEXT
  5
32F8
330
1A
100
AcDbEntity
  8
ZUWAKU
100
AcDbText
 10
354.2640420943704
 20
8.77691995110996
 30
0.0
 40
3.0
  1
積水化学工業株式会社
 41
0.9
  7
ｽﾀｲﾙ1
100
AcDbText
  0
LINE
  5
32F9
330
1A
100
AcDbEntity
  8
ZUWAKU
100
AcDbLine
 10
348.9245052725191
 20
15.00000028326655
 30
0.0
 11
348.9245052725192
 21
0.4000002832665928
 31
0.0
  0
LINE
  5
32FA
330
1A
100
AcDbEntity
  8
ZUWAKU
100
AcDbLine
 10
348.824505272519
 20
15.00000028326655
 30
0.0
 11
348.8245052725192
 21
0.4000002832665928
 31
0.0
  0
LINE
  5
32FB
330
1A
100
AcDbEntity
  8
ZUWAKU
100
AcDbLine
 10
348.7245052725191
 20
15.00000028326655
 30
0.0
 11
348.7245052725191
 21
0.4000002832665928
 31
0.0
  0
LINE
  5
32FC
330
1A
100
AcDbEntity
  8
ZUWAKU
100
AcDbLine
 10
348.6245052725191
 20
15.00000028326655
 30
0.0
 11
348.6245052725191
 21
0.4000002832665928
 31
0.0
  0
TEXT
  5
32FD
330
1A
100
AcDbEntity
  8
ZUWAKU
100
AcDbText
 10
354.2640420943704
 20
3.324420440193591
 30
0.0
 40
3.0
  1
建材事業部
 41
0.9
  7
ｽﾀｲﾙ1
100
AcDbText
  0
VIEWPORT
  5
22
330
17
100
AcDbEntity
 67
     1
  8
0
100
AcDbViewport
 10
313.6808219178082
 20
148.5
 30
0.0
 40
627.3616438356165
 41
297.0
 68
     2
 69
     1
1001
ACAD
1000
MVIEW
1002
{
1070
    16
1010
0.0
1020
0.0
1030
0.0
1010
0.0
1020
0.0
1030
1.0
1040
0.0
1040
297.0
1040
313.6808219178082
1040
148.5
1040
50.0
1040
0.0
1040
0.0
1070
     0
1070
   100
1070
     1
1070
     0
1070
     0
1070
     0
1070
     0
1070
     0
1040
0.0
1040
0.0
1040
0.0
1040
1.0
1040
1.0
1040
10.0
1040
10.0
1070
     0
1002
{
1002
}
1002
}
  0
VIEWPORT
  5
64
330
17
100
AcDbEntity
 67
     1
  8
VIEWPORT
100
AcDbViewport
 10
210.0
 20
148.5
 30
0.0
 40
420.0
 41
297.0
 68
     1
 69
     2
1001
ACAD
1000
MVIEW
1002
{
1070
    16
1010
0.0
1020
0.0
1030
0.0
1010
0.0
1020
0.0
1030
1.0
1040
0.0
1040
302.9399999999998
1040
210.0
1040
148.5
1040
50.0
1040
0.0
1040
0.0
1070
     0
1070
   100
1070
     1
1070
     0
1070
     0
1070
     0
1070
     0
1070
     0
1040
0.0
1040
0.0
1040
0.0
1040
5.0
1040
5.0
1040
0.0
1040
0.0
1070
     0
1002
{
1002
}
1002
}
  0
ENDSEC
  0
SECTION
  2
OBJECTS
  0
DICTIONARY
  5
C
330
0
100
AcDbDictionary
  3
ACAD_GROUP
350
D
  3
ACAD_LAYOUT
350
141
  3
ACAD_MLINESTYLE
350
E
  3
ACAD_PLOTSETTINGS
350
142
  3
ACAD_PLOTSTYLENAME
350
2ECA
  3
ACDBHEADERROUNDTRIPXREC
350
336A
1001
ACAD
1000
TREAT_AS_HARD
1070
     0
  0
DICTIONARY
  5
73C
330
1A
100
AcDbDictionary
280
     1
  3
ACAD_LAYOUTSELFREF
360
338C
1001
ACAD
1000
TREAT_AS_HARD
1070
     1
  0
DICTIONARY
  5
73A
330
17
100
AcDbDictionary
280
     1
  3
ACAD_LAYOUTSELFREF
360
338B
1001
ACAD
1000
TREAT_AS_HARD
1070
     1
  0
DICTIONARY
  5
D
102
{ACAD_REACTORS
330
C
102
}
330
C
100
AcDbDictionary
1001
ACAD
1000
TREAT_AS_HARD
1070
     0
  0
DICTIONARY
  5
141
102
{ACAD_REACTORS
330
C
102
}
330
C
100
AcDbDictionary
1001
ACAD
1000
TREAT_AS_HARD
1070
     0
  0
DICTIONARY
  5
E
102
{ACAD_REACTORS
330
C
102
}
330
C
100
AcDbDictionary
  3
STANDARD
350
13
1001
ACAD
1000
TREAT_AS_HARD
1070
     0
  0
DICTIONARY
  5
142
102
{ACAD_REACTORS
330
C
102
}
330
C
100
AcDbDictionary
1001
ACAD
1000
TREAT_AS_HARD
1070
     0
  0
ACDBDICTIONARYWDFLT
  5
2ECA
102
{ACAD_REACTORS
330
C
102
}
330
C
100
AcDbDictionary
281
     1
  3
Normal
350
2ECB
100
AcDbDictionaryWithDefault
340
2ECB
1001
ACAD
1000
TREAT_AS_HARD
1070
     0
1000
TREAT_AS_HARD
1070
     0
1000
TREAT_AS_HARD
1070
     0
  0
DICTIONARY
  5
336A
102
{ACAD_REACTORS
330
C
102
}
330
C
100
AcDbDictionary
  3
TSTACKALIGN
350
336B
  3
TSTACKSIZE
350
336C
  3
HYPERLINKBASE
350
336D
  3
STYLESHEET
350
336E
  3
LAYOUTDICT
350
336F
  3
PLOTSETDICT
350
3370
  3
PLOTSTYLNAMDICT
350
3371
  3
LWETCUNION
350
3372
  3
INSUNITS
350
3373
  3
CEPSNTYPE
350
3374
  3
FINGERPRINTGUID
350
3375
  3
VERSIONGUID
350
3376
  3
PSVPSCALE
350
3377
  3
DIMSTYLEDATA
350
3378
  3
PUCSORTHOREF
350
3379
  3
PUCSORTHOVIEW
350
337A
  3
PUCSBASE
350
337B
  3
PUCSORGTOP
350
337C
  3
PUCSORGBOTTOM
350
337D
  3
PUCSORGLEFT
350
337E
  3
PUCSORGRIGHT
350
337F
  3
PUCSORGFRONT
350
3380
  3
PUCSORGBACK
350
3381
  3
UCSORTHOREF
350
3382
  3
UCSORTHOVIEW
350
3383
  3
UCSBASE
350
3384
  3
UCSORGTOP
350
3385
  3
UCSORGBOTTOM
350
3386
  3
UCSORGLEFT
350
3387
  3
UCSORGRIGHT
350
3388
  3
UCSORGFRONT
350
3389
  3
UCSORGBACK
350
338A
  0
XRECORD
  5
338C
102
{ACAD_REACTORS
330
73C
102
}
330
73C
100
AcDbXrecord
340
1A
  0
XRECORD
  5
338B
102
{ACAD_REACTORS
330
73A
102
}
330
73A
100
AcDbXrecord
340
17
  0
MLINESTYLE
  5
13
102
{ACAD_REACTORS
330
E
102
}
330
E
100
AcDbMlineStyle
  2
STANDARD
 70
     0
  3

 62
     0
 51
90.0
 52
90.0
 71
     2
 49
0.5
 62
   256
  6
BYLAYER
 49
-0.5
 62
   256
  6
BYLAYER
  0
ACDBPLACEHOLDER
  5
2ECB
102
{ACAD_REACTORS
330
2ECA
102
}
330
2ECA
100
AcDbPlaceHolder
280
     0
  0
XRECORD
  5
336B
102
{ACAD_REACTORS
330
336A
102
}
330
336A
100
AcDbXrecord
 90
        1
  0
XRECORD
  5
336C
102
{ACAD_REACTORS
330
336A
102
}
330
336A
100
AcDbXrecord
 90
       70
  0
XRECORD
  5
336D
102
{ACAD_REACTORS
330
336A
102
}
330
336A
100
AcDbXrecord
  1

  0
XRECORD
  5
336E
102
{ACAD_REACTORS
330
336A
102
}
330
336A
100
AcDbXrecord
  1
systemprinter.ctb
  0
XRECORD
  5
336F
102
{ACAD_REACTORS
330
336A
102
}
330
336A
100
AcDbXrecord
340
141
  0
XRECORD
  5
3370
102
{ACAD_REACTORS
330
336A
102
}
330
336A
100
AcDbXrecord
340
142
  0
XRECORD
  5
3371
102
{ACAD_REACTORS
330
336A
102
}
330
336A
100
AcDbXrecord
340
2ECA
  0
XRECORD
  5
3372
102
{ACAD_REACTORS
330
336A
102
}
330
336A
100
AcDbXrecord
 90
    10781
  0
XRECORD
  5
3373
102
{ACAD_REACTORS
330
336A
102
}
330
336A
100
AcDbXrecord
 90
        0
  0
XRECORD
  5
3374
102
{ACAD_REACTORS
330
336A
102
}
330
336A
100
AcDbXrecord
 90
        0
  0
XRECORD
  5
3375
102
{ACAD_REACTORS
330
336A
102
}
330
336A
100
AcDbXrecord
  1
{9433C0C6-0920-4EBC-A00C-BEE97CFE8607}
  0
XRECORD
  5
3376
102
{ACAD_REACTORS
330
336A
102
}
330
336A
100
AcDbXrecord
  1
{B52E8017-E4AD-40A9-897F-D87B0E5AC8F2}
  0
XRECORD
  5
3377
102
{ACAD_REACTORS
330
336A
102
}
330
336A
100
AcDbXrecord
 40
0.0
  0
XRECORD
  5
3378
102
{ACAD_REACTORS
330
336A
102
}
330
336A
100
AcDbXrecord
1000
DSTYLE
1002
{
1070
   341
340
B2
1070
   343
340
B2
1070
   344
340
B2
1070
   371
 70
    -1
1070
   372
 70
    -1
1002
}
  0
XRECORD
  5
3379
102
{ACAD_REACTORS
330
336A
102
}
330
336A
100
AcDbXrecord
340
0
  0
XRECORD
  5
337A
102
{ACAD_REACTORS
330
336A
102
}
330
336A
100
AcDbXrecord
 70
     0
  0
XRECORD
  5
337B
102
{ACAD_REACTORS
330
336A
102
}
330
336A
100
AcDbXrecord
340
0
  0
XRECORD
  5
337C
102
{ACAD_REACTORS
330
336A
102
}
330
336A
100
AcDbXrecord
 10
0.0
 20
0.0
 30
0.0
  0
XRECORD
  5
337D
102
{ACAD_REACTORS
330
336A
102
}
330
336A
100
AcDbXrecord
 10
0.0
 20
0.0
 30
0.0
  0
XRECORD
  5
337E
102
{ACAD_REACTORS
330
336A
102
}
330
336A
100
AcDbXrecord
 10
0.0
 20
0.0
 30
0.0
  0
XRECORD
  5
337F
102
{ACAD_REACTORS
330
336A
102
}
330
336A
100
AcDbXrecord
 10
0.0
 20
0.0
 30
0.0
  0
XRECORD
  5
3380
102
{ACAD_REACTORS
330
336A
102
}
330
336A
100
AcDbXrecord
 10
0.0
 20
0.0
 30
0.0
  0
XRECORD
  5
3381
102
{ACAD_REACTORS
330
336A
102
}
330
336A
100
AcDbXrecord
 10
0.0
 20
0.0
 30
0.0
  0
XRECORD
  5
3382
102
{ACAD_REACTORS
330
336A
102
}
330
336A
100
AcDbXrecord
340
0
  0
XRECORD
  5
3383
102
{ACAD_REACTORS
330
336A
102
}
330
336A
100
AcDbXrecord
 70
     0
  0
XRECORD
  5
3384
102
{ACAD_REACTORS
330
336A
102
}
330
336A
100
AcDbXrecord
340
0
  0
XRECORD
  5
3385
102
{ACAD_REACTORS
330
336A
102
}
330
336A
100
AcDbXrecord
 10
0.0
 20
0.0
 30
0.0
  0
XRECORD
  5
3386
102
{ACAD_REACTORS
330
336A
102
}
330
336A
100
AcDbXrecord
 10
0.0
 20
0.0
 30
0.0
  0
XRECORD
  5
3387
102
{ACAD_REACTORS
330
336A
102
}
330
336A
100
AcDbXrecord
 10
0.0
 20
0.0
 30
0.0
  0
XRECORD
  5
3388
102
{ACAD_REACTORS
330
336A
102
}
330
336A
100
AcDbXrecord
 10
0.0
 20
0.0
 30
0.0
  0
XRECORD
  5
3389
102
{ACAD_REACTORS
330
336A
102
}
330
336A
100
AcDbXrecord
 10
0.0
 20
0.0
 30
0.0
  0
XRECORD
  5
338A
102
{ACAD_REACTORS
330
336A
102
}
330
336A
100
AcDbXrecord
 10
0.0
 20
0.0
 30
0.0
  0
ENDSEC
  0
EOF
