  0
SECTION
  2
HEADER
  9
$ACADVER
  1
AC1014
  9
$ACADMAINTVER
 70
     9
  9
$DWGCODEPAGE
  3
ANSI_932
  9
$INSBASE
 10
0.0
 20
0.0
 30
0.0
  9
$EXTMIN
 10
-0.0128164066901491
 20
-0.0090630292066862
 30
-0.0000000100021362
  9
$EXTMAX
 10
398.8000497812454
 20
275.8226172440017
 30
0.0000000100021363
  9
$LIMMIN
 10
0.0
 20
0.0
  9
$LIMMAX
 10
420.0
 20
297.0
  9
$ORTHOMODE
 70
     0
  9
$REGENMODE
 70
     1
  9
$FILLMODE
 70
     1
  9
$QTEXTMODE
 70
     0
  9
$MIRRTEXT
 70
     1
  9
$DRAGMODE
 70
     2
  9
$LTSCALE
 40
5.0
  9
$OSMODE
 70
    35
  9
$ATTMODE
 70
     1
  9
$TEXTSIZE
 40
4.0
  9
$TRACEWID
 40
1.0
  9
$TEXTSTYLE
  7
STANDARD
  9
$CLAYER
  8
SUNPOU
  9
$CELTYPE
  6
BYLAYER
  9
$CECOLOR
 62
   256
  9
$CELTSCALE
 40
1.0
  9
$DELOBJ
 70
     1
  9
$DISPSILH
 70
     0
  9
$DIMSCALE
 40
1.0
  9
$DIMASZ
 40
3.0
  9
$DIMEXO
 40
3.0
  9
$DIMDLI
 40
7.0
  9
$DIMRND
 40
0.0
  9
$DIMDLE
 40
0.0
  9
$DIMEXE
 40
1.5
  9
$DIMTP
 40
0.0
  9
$DIMTM
 40
0.0
  9
$DIMTXT
 40
3.0
  9
$DIMCEN
 40
3.0
  9
$DIMTSZ
 40
0.0
  9
$DIMTOL
 70
     0
  9
$DIMLIM
 70
     0
  9
$DIMTIH
 70
     0
  9
$DIMTOH
 70
     0
  9
$DIMSE1
 70
     0
  9
$DIMSE2
 70
     0
  9
$DIMTAD
 70
     3
  9
$DIMZIN
 70
     0
  9
$DIMBLK
  1

  9
$DIMASO
 70
     1
  9
$DIMSHO
 70
     1
  9
$DIMPOST
  1

  9
$DIMAPOST
  1

  9
$DIMALT
 70
     0
  9
$DIMALTD
 70
     2
  9
$DIMALTF
 40
25.4
  9
$DIMLFAC
 40
1.0
  9
$DIMTOFL
 70
     1
  9
$DIMTVP
 40
0.0
  9
$DIMTIX
 70
     0
  9
$DIMSOXD
 70
     0
  9
$DIMSAH
 70
     1
  9
$DIMBLK1
  1
OPEN
  9
$DIMBLK2
  1
OPEN
  9
$DIMSTYLE
  2
STANDARD
  9
$DIMCLRD
 70
   256
  9
$DIMCLRE
 70
   256
  9
$DIMCLRT
 70
   256
  9
$DIMTFAC
 40
1.0
  9
$DIMGAP
 40
1.0
  9
$DIMJUST
 70
     0
  9
$DIMSD1
 70
     0
  9
$DIMSD2
 70
     0
  9
$DIMTOLJ
 70
     1
  9
$DIMTZIN
 70
     0
  9
$DIMALTZ
 70
     0
  9
$DIMALTTZ
 70
     0
  9
$DIMFIT
 70
     3
  9
$DIMUPT
 70
     0
  9
$DIMUNIT
 70
     2
  9
$DIMDEC
 70
     0
  9
$DIMTDEC
 70
     0
  9
$DIMALTU
 70
     2
  9
$DIMALTTD
 70
     2
  9
$DIMTXSTY
  7
STANDARD
  9
$DIMAUNIT
 70
     0
  9
$LUNITS
 70
     2
  9
$LUPREC
 70
     4
  9
$SKETCHINC
 40
1.0
  9
$FILLETRAD
 40
10.0
  9
$AUNITS
 70
     0
  9
$AUPREC
 70
     2
  9
$MENU
  1
.
  9
$ELEVATION
 40
0.0
  9
$PELEVATION
 40
0.0
  9
$THICKNESS
 40
0.0
  9
$LIMCHECK
 70
     0
  9
$BLIPMODE
 70
     0
  9
$CHAMFERA
 40
10.0
  9
$CHAMFERB
 40
10.0
  9
$CHAMFERC
 40
20.0
  9
$CHAMFERD
 40
0.0
  9
$SKPOLY
 70
     0
  9
$TDCREATE
 40
2451569.441154629
  9
$TDUPDATE
 40
2453802.416341863
  9
$TDINDWG
 40
0.5088683333
  9
$TDUSRTIMER
 40
0.5088683333
  9
$USRTIMER
 70
     1
  9
$ANGBASE
 50
0.0
  9
$ANGDIR
 70
     0
  9
$PDMODE
 70
     0
  9
$PDSIZE
 40
0.0
  9
$PLINEWID
 40
0.0
  9
$COORDS
 70
     1
  9
$SPLFRAME
 70
     0
  9
$SPLINETYPE
 70
     6
  9
$SPLINESEGS
 70
     8
  9
$ATTDIA
 70
     0
  9
$ATTREQ
 70
     1
  9
$HANDLING
 70
 10241
  9
$HANDSEED
  5
3502
  9
$SURFTAB1
 70
     6
  9
$SURFTAB2
 70
     6
  9
$SURFTYPE
 70
     6
  9
$SURFU
 70
     6
  9
$SURFV
 70
     6
  9
$UCSNAME
  2

  9
$UCSORG
 10
0.0
 20
0.0
 30
0.0
  9
$UCSXDIR
 10
1.0
 20
0.0
 30
0.0
  9
$UCSYDIR
 10
0.0
 20
1.0
 30
0.0
  9
$PUCSNAME
  2

  9
$PUCSORG
 10
0.0
 20
0.0
 30
0.0
  9
$PUCSXDIR
 10
1.0
 20
0.0
 30
0.0
  9
$PUCSYDIR
 10
0.0
 20
1.0
 30
0.0
  9
$USERI1
 70
     0
  9
$USERI2
 70
     0
  9
$USERI3
 70
     0
  9
$USERI4
 70
     0
  9
$USERI5
 70
     0
  9
$USERR1
 40
0.0
  9
$USERR2
 40
0.0
  9
$USERR3
 40
0.0
  9
$USERR4
 40
0.0
  9
$USERR5
 40
0.0
  9
$WORLDVIEW
 70
     1
  9
$SHADEDGE
 70
     3
  9
$SHADEDIF
 70
    70
  9
$TILEMODE
 70
     1
  9
$MAXACTVP
 70
    16
  9
$PINSBASE
 10
0.0
 20
0.0
 30
0.0
  9
$PLIMCHECK
 70
     0
  9
$PEXTMIN
 10
0.0
 20
0.0
 30
0.0
  9
$PEXTMAX
 10
420.0
 20
297.0
 30
0.0
  9
$PLIMMIN
 10
0.0
 20
0.0
  9
$PLIMMAX
 10
420.0
 20
297.0
  9
$UNITMODE
 70
     0
  9
$VISRETAIN
 70
     0
  9
$PLINEGEN
 70
     0
  9
$PSLTSCALE
 70
     1
  9
$TREEDEPTH
 70
  3020
  9
$PICKSTYLE
 70
     1
  9
$CMLSTYLE
  2
STANDARD
  9
$CMLJUST
 70
     0
  9
$CMLSCALE
 40
1.0
  9
$PROXYGRAPHICS
 70
     1
  9
$MEASUREMENT
 70
     0
  0
ENDSEC
  0
SECTION
  2
CLASSES
  0
CLASS
  1
ACDBDICTIONARYWDFLT
  2
AcDbDictionaryWithDefault
  3
AutoCAD 2000
 90
        0
280
     0
281
     0
  0
CLASS
  1
ACDBPLACEHOLDER
  2
AcDbPlaceHolder
  3
AutoCAD 2000
 90
        0
280
     0
281
     0
  0
CLASS
  1
LAYOUT
  2
AcDbLayout
  3
AutoCAD 2000
 90
        0
280
     0
281
     0
  0
CLASS
  1
LONG_TRANSACTION
  2
AcDbLongTransaction
  3
AutoCAD 2000
 90
        0
280
     0
281
     0
  0
CLASS
  1
LWPOLYLINE
  2
AcDbPolyline
  3
AutoCAD 2000
 90
        0
280
     0
281
     1
  0
CLASS
  1
HATCH
  2
AcDbHatch
  3
AutoCAD 2000
 90
        0
280
     0
281
     1
  0
CLASS
  1
XRECORD
  2
AcDbXrecord
  3
AutoCAD 2000
 90
        0
280
     0
281
     0
  0
CLASS
  1
LONG_TRANSACTION
  2
AcDbLongTransaction
  3
AutoCAD 2000
 90
        0
280
     0
281
     0
  0
CLASS
  1
LWPOLYLINE
  2
AcDbPolyline
  3
AutoCAD 2000
 90
        0
280
     0
281
     1
  0
CLASS
  1
HATCH
  2
AcDbHatch
  3
AutoCAD 2000
 90
        0
280
     0
281
     1
  0
CLASS
  1
XRECORD
  2
AcDbXrecord
  3
AutoCAD 2000
 90
        0
280
     0
281
     0
  0
CLASS
  1
LONG_TRANSACTION
  2
AcDbLongTransaction
  3
AutoCAD 2000
 90
        0
280
     0
281
     0
  0
CLASS
  1
LWPOLYLINE
  2
AcDbPolyline
  3
AutoCAD 2000
 90
        0
280
     0
281
     1
  0
CLASS
  1
HATCH
  2
AcDbHatch
  3
AutoCAD 2000
 90
        0
280
     0
281
     1
  0
CLASS
  1
XRECORD
  2
AcDbXrecord
  3
AutoCAD 2000
 90
        0
280
     0
281
     0
  0
CLASS
  1
LONG_TRANSACTION
  2
AcDbLongTransaction
  3
AutoCAD 2000
 90
        0
280
     0
281
     0
  0
CLASS
  1
LWPOLYLINE
  2
AcDbPolyline
  3
AutoCAD 2000
 90
        0
280
     0
281
     1
  0
CLASS
  1
HATCH
  2
AcDbHatch
  3
AutoCAD 2000
 90
        0
280
     0
281
     1
  0
CLASS
  1
XRECORD
  2
AcDbXrecord
  3
AutoCAD 2000
 90
        0
280
     0
281
     0
  0
CLASS
  1
LONG_TRANSACTION
  2
AcDbLongTransaction
  3
AutoCAD 2000
 90
        0
280
     0
281
     0
  0
CLASS
  1
LWPOLYLINE
  2
AcDbPolyline
  3
AutoCAD 2000
 90
        0
280
     0
281
     1
  0
CLASS
  1
HATCH
  2
AcDbHatch
  3
AutoCAD 2000
 90
        0
280
     0
281
     1
  0
CLASS
  1
XRECORD
  2
AcDbXrecord
  3
AutoCAD 2000
 90
        0
280
     0
281
     0
  0
CLASS
  1
LONG_TRANSACTION
  2
AcDbLongTransaction
  3
AutoCAD 2000
 90
        0
280
     0
281
     0
  0
CLASS
  1
LWPOLYLINE
  2
AcDbPolyline
  3
AutoCAD 2000
 90
        0
280
     0
281
     1
  0
CLASS
  1
HATCH
  2
AcDbHatch
  3
AutoCAD 2000
 90
        0
280
     0
281
     1
  0
CLASS
  1
XRECORD
  2
AcDbXrecord
  3
AutoCAD 2000
 90
        0
280
     0
281
     0
  0
CLASS
  1
LONG_TRANSACTION
  2
AcDbLongTransaction
  3
AutoCAD 2000
 90
        0
280
     0
281
     0
  0
CLASS
  1
LWPOLYLINE
  2
AcDbPolyline
  3
AutoCAD 2000
 90
        0
280
     0
281
     1
  0
CLASS
  1
HATCH
  2
AcDbHatch
  3
AutoCAD 2000
 90
        0
280
     0
281
     1
  0
CLASS
  1
XRECORD
  2
AcDbXrecord
  3
AutoCAD 2000
 90
        0
280
     0
281
     0
  0
CLASS
  1
LONG_TRANSACTION
  2
AcDbLongTransaction
  3
AutoCAD 2000
 90
        0
280
     0
281
     0
  0
CLASS
  1
LWPOLYLINE
  2
AcDbPolyline
  3
AutoCAD 2000
 90
        0
280
     0
281
     1
  0
CLASS
  1
HATCH
  2
AcDbHatch
  3
AutoCAD 2000
 90
        0
280
     0
281
     1
  0
CLASS
  1
XRECORD
  2
AcDbXrecord
  3
AutoCAD 2000
 90
        0
280
     0
281
     0
  0
CLASS
  1
LONG_TRANSACTION
  2
AcDbLongTransaction
  3
AutoCAD 2000
 90
        0
280
     0
281
     0
  0
CLASS
  1
LWPOLYLINE
  2
AcDbPolyline
  3
AutoCAD 2000
 90
        0
280
     0
281
     1
  0
CLASS
  1
HATCH
  2
AcDbHatch
  3
AutoCAD 2000
 90
        0
280
     0
281
     1
  0
CLASS
  1
XRECORD
  2
AcDbXrecord
  3
AutoCAD 2000
 90
        0
280
     0
281
     0
  0
CLASS
  1
LONG_TRANSACTION
  2
AcDbLongTransaction
  3
AutoCAD 2000
 90
        0
280
     0
281
     0
  0
CLASS
  1
LWPOLYLINE
  2
AcDbPolyline
  3
AutoCAD 2000
 90
        0
280
     0
281
     1
  0
CLASS
  1
HATCH
  2
AcDbHatch
  3
AutoCAD 2000
 90
        0
280
     0
281
     1
  0
CLASS
  1
XRECORD
  2
AcDbXrecord
  3
AutoCAD 2000
 90
        0
280
     0
281
     0
  0
CLASS
  1
LONG_TRANSACTION
  2
AcDbLongTransaction
  3
AutoCAD 2000
 90
        0
280
     0
281
     0
  0
CLASS
  1
LWPOLYLINE
  2
AcDbPolyline
  3
AutoCAD 2000
 90
        0
280
     0
281
     1
  0
CLASS
  1
HATCH
  2
AcDbHatch
  3
AutoCAD 2000
 90
        0
280
     0
281
     1
  0
CLASS
  1
XRECORD
  2
AcDbXrecord
  3
AutoCAD 2000
 90
        0
280
     0
281
     0
  0
ENDSEC
  0
SECTION
  2
TABLES
  0
TABLE
  2
VPORT
  5
8
330
0
100
AcDbSymbolTable
 70
     2
  0
VPORT
  5
34DE
330
8
100
AcDbSymbolTableRecord
100
AcDbViewportTableRecord
  2
*ACTIVE
 70
     0
 10
0.0
 20
0.0
 11
1.0
 21
1.0
 12
223.5106641084294
 22
145.0877071627932
 13
0.0
 23
0.0
 14
5.0
 24
5.0
 15
0.0
 25
0.0
 16
0.0
 26
0.0
 36
1.0
 17
0.0
 27
0.0
 37
0.0
 40
300.2817678798769
 41
1.795454545454545
 42
50.0
 43
0.0
 44
0.0
 50
0.0
 51
0.0
 71
     0
 72
   100
 73
     1
 74
     0
 75
     0
 76
     0
 77
     0
 78
     0
  0
ENDTAB
  0
TABLE
  2
LTYPE
  5
5
330
0
100
AcDbSymbolTable
 70
     3
  0
LTYPE
  5
14
330
5
100
AcDbSymbolTableRecord
100
AcDbLinetypeTableRecord
  2
BYBLOCK
 70
     0
  3

 72
    65
 73
     0
 40
0.0
  0
LTYPE
  5
15
330
5
100
AcDbSymbolTableRecord
100
AcDbLinetypeTableRecord
  2
BYLAYER
 70
     0
  3

 72
    65
 73
     0
 40
0.0
  0
LTYPE
  5
16
330
5
100
AcDbSymbolTableRecord
100
AcDbLinetypeTableRecord
  2
CONTINUOUS
 70
     0
  3
Solid line
 72
    65
 73
     0
 40
0.0
  0
LTYPE
  5
120
330
5
100
AcDbSymbolTableRecord
100
AcDbLinetypeTableRecord
  2
CENTER
 70
     0
  3
____ _ ____ _ ____ _ ____ _ ____ _ ____ _ ____ 
 72
    65
 73
     4
 40
2.0
 49
1.25
 74
     0
 49
-0.25
 74
     0
 49
0.25
 74
     0
 49
-0.25
 74
     0
  0
LTYPE
  5
31A1
330
5
100
AcDbSymbolTableRecord
100
AcDbLinetypeTableRecord
  2
PHANTOM
 70
     0
  3
______  __  __  ______  __  __  ______  __  __ 
 72
    65
 73
     6
 40
2.5
 49
1.25
 74
     0
 49
-0.25
 74
     0
 49
0.25
 74
     0
 49
-0.25
 74
     0
 49
0.25
 74
     0
 49
-0.25
 74
     0
  0
ENDTAB
  0
TABLE
  2
LAYER
  5
2
330
0
100
AcDbSymbolTable
 70
     9
  0
LAYER
  5
F
330
2
100
AcDbSymbolTableRecord
100
AcDbLayerTableRecord
  2
0
 70
     0
 62
     7
  6
CONTINUOUS
  0
LAYER
  5
62
330
2
100
AcDbSymbolTableRecord
100
AcDbLayerTableRecord
  2
VIEWPORT
 70
     0
 62
     7
  6
CONTINUOUS
  0
LAYER
  5
6B
330
2
100
AcDbSymbolTableRecord
100
AcDbLayerTableRecord
  2
ZUWAKU
 70
     0
 62
     7
  6
CONTINUOUS
  0
LAYER
  5
48C
330
2
100
AcDbSymbolTableRecord
100
AcDbLayerTableRecord
  2
DEFPOINTS
 70
     0
 62
     7
  6
CONTINUOUS
  0
LAYER
  5
629
330
2
100
AcDbSymbolTableRecord
100
AcDbLayerTableRecord
  2
SEIHIN
 70
     0
 62
     3
  6
CONTINUOUS
  0
LAYER
  5
62A
330
2
100
AcDbSymbolTableRecord
100
AcDbLayerTableRecord
  2
SUNPOU
 70
     0
 62
     4
  6
CONTINUOUS
  0
LAYER
  5
62B
330
2
100
AcDbSymbolTableRecord
100
AcDbLayerTableRecord
  2
CENTER_L
 70
     0
 62
     1
  6
CENTER
  0
LAYER
  5
31A2
330
2
100
AcDbSymbolTableRecord
100
AcDbLayerTableRecord
  2
NOKITOI
 70
     0
 62
     8
  6
PHANTOM
  0
LAYER
  5
3302
330
2
100
AcDbSymbolTableRecord
100
AcDbLayerTableRecord
  2
MOJI
 70
     0
 62
     2
  6
CONTINUOUS
  0
ENDTAB
  0
TABLE
  2
STYLE
  5
3
330
0
100
AcDbSymbolTable
 70
     2
  0
STYLE
  5
10
330
3
100
AcDbSymbolTableRecord
100
AcDbTextStyleTableRecord
  2
STANDARD
 70
     0
 40
0.0
 41
1.0
 50
0.0
 71
     0
 42
4.0
  3
TXT
  4
bigfont.shx
  0
STYLE
  5
3303
330
3
100
AcDbSymbolTableRecord
100
AcDbTextStyleTableRecord
  2
ｽﾀｲﾙ1
 70
     0
 40
0.0
 41
1.0
 50
0.0
 71
     0
 42
2.5
  3
MS PGothic.ttf
  4

1001
ACAD
1000
MS PGothic
1071
    32818
  0
ENDTAB
  0
TABLE
  2
VIEW
  5
6
330
0
100
AcDbSymbolTable
 70
     0
  0
ENDTAB
  0
TABLE
  2
UCS
  5
7
330
0
100
AcDbSymbolTable
 70
     0
  0
ENDTAB
  0
TABLE
  2
APPID
  5
9
330
0
100
AcDbSymbolTable
 70
     1
  0
APPID
  5
11
330
9
100
AcDbSymbolTableRecord
100
AcDbRegAppTableRecord
  2
ACAD
 70
     0
  0
ENDTAB
  0
TABLE
  2
DIMSTYLE
  5
A
330
0
100
AcDbSymbolTable
 70
     1
  0
DIMSTYLE
105
1D
102
{ACAD_REACTORS
330
3006
330
3007
330
3008
330
3009
330
300A
330
304D
330
3062
330
3063
330
3084
330
30BC
330
32AC
102
}
330
A
100
AcDbSymbolTableRecord
100
AcDbDimStyleTableRecord
  2
STANDARD
 70
     0
  3

  4

  5

  6

  7

 40
1.0
 41
0.18
 42
0.0625
 43
0.38
 44
0.18
 45
0.0
 46
0.0
 47
0.0
 48
0.0
140
0.18
141
0.09
142
0.0
143
25.4
144
1.0
145
0.0
146
1.0
147
0.09
 71
     0
 72
     0
 73
     1
 74
     1
 75
     0
 76
     0
 77
     0
 78
     0
170
     0
171
     2
172
     0
173
     0
174
     0
175
     0
176
     0
177
     0
178
     0
270
     2
271
     4
272
     4
273
     2
274
     2
340
10
275
     0
280
     0
281
     0
282
     0
283
     1
284
     0
285
     0
286
     0
287
     3
288
     0
  0
ENDTAB
  0
TABLE
  2
BLOCK_RECORD
  5
1
330
0
100
AcDbSymbolTable
 70
    12
  0
BLOCK_RECORD
  5
1A
102
{ACAD_XDICTIONARY
360
73C
102
}
330
1
100
AcDbSymbolTableRecord
100
AcDbBlockTableRecord
  2
*MODEL_SPACE
  0
BLOCK_RECORD
  5
17
102
{ACAD_XDICTIONARY
360
73A
102
}
330
1
100
AcDbSymbolTableRecord
100
AcDbBlockTableRecord
  2
*PAPER_SPACE
  0
BLOCK_RECORD
  5
B2
330
1
100
AcDbSymbolTableRecord
100
AcDbBlockTableRecord
  2
_OPEN
  0
BLOCK_RECORD
  5
300D
330
1
100
AcDbSymbolTableRecord
100
AcDbBlockTableRecord
  2
*D1
  0
BLOCK_RECORD
  5
3019
330
1
100
AcDbSymbolTableRecord
100
AcDbBlockTableRecord
  2
*D2
  0
BLOCK_RECORD
  5
3025
330
1
100
AcDbSymbolTableRecord
100
AcDbBlockTableRecord
  2
*D3
  0
BLOCK_RECORD
  5
3031
330
1
100
AcDbSymbolTableRecord
100
AcDbBlockTableRecord
  2
*D4
  0
BLOCK_RECORD
  5
303F
330
1
100
AcDbSymbolTableRecord
100
AcDbBlockTableRecord
  2
*D5
  0
BLOCK_RECORD
  5
3055
330
1
100
AcDbSymbolTableRecord
100
AcDbBlockTableRecord
  2
*D6
  0
BLOCK_RECORD
  5
3064
330
1
100
AcDbSymbolTableRecord
100
AcDbBlockTableRecord
  2
*D7
  0
BLOCK_RECORD
  5
3070
330
1
100
AcDbSymbolTableRecord
100
AcDbBlockTableRecord
  2
*D8
  0
BLOCK_RECORD
  5
3085
330
1
100
AcDbSymbolTableRecord
100
AcDbBlockTableRecord
  2
*D9
  0
BLOCK_RECORD
  5
30B0
330
1
100
AcDbSymbolTableRecord
100
AcDbBlockTableRecord
  2
*D10
  0
BLOCK_RECORD
  5
32AD
330
1
100
AcDbSymbolTableRecord
100
AcDbBlockTableRecord
  2
*D11
  0
ENDTAB
  0
ENDSEC
  0
SECTION
  2
BLOCKS
  0
BLOCK
  5
1B
330
1A
100
AcDbEntity
  8
0
100
AcDbBlockBegin
  2
*MODEL_SPACE
 70
     0
 10
0.0
 20
0.0
 30
0.0
  3
*MODEL_SPACE
  1

  0
ENDBLK
  5
1C
330
1A
100
AcDbEntity
  8
0
100
AcDbBlockEnd
  0
BLOCK
  5
18
330
17
100
AcDbEntity
 67
     1
  8
0
100
AcDbBlockBegin
  2
*PAPER_SPACE
 70
     0
 10
0.0
 20
0.0
 30
0.0
  3
*PAPER_SPACE
  1

  0
ENDBLK
  5
19
330
17
100
AcDbEntity
 67
     1
  8
0
100
AcDbBlockEnd
  0
BLOCK
  5
B3
330
B2
100
AcDbEntity
  8
0
100
AcDbBlockBegin
  2
_OPEN
 70
     0
 10
0.0
 20
0.0
 30
0.0
  3
_OPEN
  1

  0
LINE
  5
B4
330
B2
100
AcDbEntity
  8
0
  6
BYBLOCK
 62
     0
100
AcDbLine
 10
-1.0
 20
0.1666666666666666
 30
0.0
 11
0.0
 21
0.0
 31
0.0
  0
LINE
  5
B5
330
B2
100
AcDbEntity
  8
0
  6
BYBLOCK
 62
     0
100
AcDbLine
 10
0.0
 20
0.0
 30
0.0
 11
-1.0
 21
-0.1666666666666666
 31
0.0
  0
LINE
  5
B6
330
B2
100
AcDbEntity
  8
0
  6
BYBLOCK
 62
     0
100
AcDbLine
 10
0.0
 20
0.0
 30
0.0
 11
-1.0
 21
0.0
 31
0.0
  0
ENDBLK
  5
B7
330
B2
100
AcDbEntity
  8
0
100
AcDbBlockEnd
  0
BLOCK
  5
300E
330
300D
100
AcDbEntity
  8
0
100
AcDbBlockBegin
  2
*D1
 70
     1
 10
0.0
 20
0.0
 30
0.0
  3
*D1
  1

  0
LINE
  5
3495
330
300D
100
AcDbEntity
  8
SUNPOU
100
AcDbLine
 10
301.8846549789866
 20
121.5651417380533
 30
0.0
 11
280.7756353093907
 21
174.3414559644352
 31
0.0
  0
LINE
  5
3496
330
300D
100
AcDbEntity
  8
SUNPOU
100
AcDbLine
 10
358.5222903855221
 20
144.2185797896242
 30
0.0
 11
337.4132707491264
 21
196.9948939329994
 31
0.0
  0
LINE
  5
3497
330
300D
100
AcDbEntity
  8
SUNPOU
100
AcDbLine
 10
284.1181445433587
 20
174.0628307307646
 30
0.0
 11
335.1848650218089
 21
194.4880616860274
 31
0.0
  0
INSERT
  5
3498
330
300D
100
AcDbEntity
  8
SUNPOU
100
AcDbBlockReference
  2
_OPEN
 10
281.332687062716
 20
172.9487272241138
 30
0.0
 41
3.0
 42
3.0
 43
3.0
 50
201.7999999999998
  0
INSERT
  5
3499
330
300D
100
AcDbEntity
  8
SUNPOU
100
AcDbBlockReference
  2
_OPEN
 10
337.9703225024517
 20
195.602165192678
 30
0.0
 41
3.0
 42
3.0
 43
3.0
 50
21.79999999999982
  0
MTEXT
  5
349A
330
300D
100
AcDbEntity
  8
SUNPOU
100
AcDbMText
 10
308.7230851937083
 20
186.5966607755982
 30
0.0
 40
3.0
 41
0.0
 71
     5
 72
     1
  1
\A1;61
 11
0.9284858268809148
 21
0.3713678355502321
 31
0.0
1001
ACAD
1000
MTEXTBEGIN
1070
    73
1070
     1
1070
    44
1040
1.0
1070
    74
1070
     0
1000
MTEXTEND
  0
POINT
  5
349B
330
300D
100
AcDbEntity
  8
DEFPOINTS
 62
     0
100
AcDbPoint
 10
302.9987584856373
 20
118.7796842574106
 30
0.0
  0
POINT
  5
349C
330
300D
100
AcDbEntity
  8
DEFPOINTS
 62
     0
100
AcDbPoint
 10
359.6363938921728
 20
141.4331223089815
 30
0.0
  0
POINT
  5
349D
330
300D
100
AcDbEntity
  8
DEFPOINTS
 62
     0
100
AcDbPoint
 10
337.9703225024517
 20
195.602165192678
 30
0.0
  0
ENDBLK
  5
3018
330
300D
100
AcDbEntity
  8
0
100
AcDbBlockEnd
  0
BLOCK
  5
301A
330
3019
100
AcDbEntity
  8
0
100
AcDbBlockBegin
  2
*D2
 70
     1
 10
0.0
 20
0.0
 30
0.0
  3
*D2
  1

  0
LINE
  5
349E
330
3019
100
AcDbEntity
  8
SUNPOU
100
AcDbLine
 10
310.241027420915
 20
124.9074522580054
 30
0.0
 11
292.4397842520282
 21
169.4137352501321
 31
0.0
  0
LINE
  5
349F
330
3019
100
AcDbEntity
  8
SUNPOU
100
AcDbLine
 10
350.1659179767941
 20
140.8762691866655
 30
0.0
 11
332.3646748079073
 21
185.382552178792
 31
0.0
  0
LINE
  5
34A0
330
3019
100
AcDbEntity
  8
SUNPOU
100
AcDbLine
 10
295.7822934859962
 20
169.1351100164614
 30
0.0
 11
330.1362690805899
 21
182.8757199318199
 31
0.0
  0
INSERT
  5
34A1
330
3019
100
AcDbEntity
  8
SUNPOU
100
AcDbBlockReference
  2
_OPEN
 10
292.9968360053535
 20
168.0210065098107
 30
0.0
 41
3.0
 42
3.0
 43
3.0
 50
201.7999999999998
  0
INSERT
  5
34A2
330
3019
100
AcDbEntity
  8
SUNPOU
100
AcDbBlockReference
  2
_OPEN
 10
332.9217265612326
 20
183.9898234384706
 30
0.0
 41
3.0
 42
3.0
 43
3.0
 50
21.79999999999982
  0
MTEXT
  5
34A3
330
3019
100
AcDbEntity
  8
SUNPOU
100
AcDbMText
 10
311.466111426691
 20
178.1007455499238
 30
0.0
 40
3.0
 41
0.0
 71
     5
 72
     1
  1
\A1;43
 11
0.9284858268809148
 21
0.3713678355502321
 31
0.0
1001
ACAD
1000
MTEXTBEGIN
1070
    73
1070
     1
1070
    44
1040
1.0
1070
    74
1070
     0
1000
MTEXTEND
  0
POINT
  5
34A4
330
3019
100
AcDbEntity
  8
DEFPOINTS
 62
     0
100
AcDbPoint
 10
311.3551309275657
 20
122.1219947773627
 30
0.0
  0
POINT
  5
34A5
330
3019
100
AcDbEntity
  8
DEFPOINTS
 62
     0
100
AcDbPoint
 10
351.2800214834448
 20
138.0908117060228
 30
0.0
  0
POINT
  5
34A6
330
3019
100
AcDbEntity
  8
DEFPOINTS
 62
     0
100
AcDbPoint
 10
332.9217265612326
 20
183.9898234384706
 30
0.0
  0
ENDBLK
  5
3024
330
3019
100
AcDbEntity
  8
0
100
AcDbBlockEnd
  0
BLOCK
  5
3026
330
3025
100
AcDbEntity
  8
0
100
AcDbBlockBegin
  2
*D3
 70
     1
 10
0.0
 20
0.0
 30
0.0
  3
*D3
  1

  0
LINE
  5
34B0
330
3025
100
AcDbEntity
  8
SUNPOU
100
AcDbLine
 10
302.1396486088873
 20
121.0231333653109
 30
0.0
 11
285.3988393456462
 21
114.3272873744959
 31
0.0
  0
LINE
  5
34B1
330
3025
100
AcDbEntity
  8
SUNPOU
100
AcDbLine
 10
315.1375228548616
 20
88.52612942516552
 30
0.0
 11
298.3967135899042
 21
81.83028343366405
 31
0.0
  0
LINE
  5
34B2
330
3025
100
AcDbEntity
  8
SUNPOU
100
AcDbLine
 10
287.9056715926182
 20
112.0988816471785
 30
0.0
 11
298.6753388235749
 21
85.17279266763214
 31
0.0
  0
INSERT
  5
34B3
330
3025
100
AcDbEntity
  8
SUNPOU
100
AcDbBlockReference
  2
_OPEN
 10
286.7915680859676
 20
114.8843391278213
 30
0.0
 41
3.0
 42
3.0
 43
3.0
 50
111.7999999999997
  0
INSERT
  5
34B4
330
3025
100
AcDbEntity
  8
SUNPOU
100
AcDbBlockReference
  2
_OPEN
 10
299.7894423302257
 20
82.38733518698939
 30
0.0
 41
3.0
 42
3.0
 43
3.0
 50
291.7999999999997
  0
MTEXT
  5
34B5
330
3025
100
AcDbEntity
  8
SUNPOU
100
AcDbMText
 10
295.6117197752989
 20
99.56425674628091
 30
0.0
 40
3.0
 41
0.0
 71
     5
 72
     1
  1
\A1;35
 11
0.371367835550231
 21
-0.928485826880915
 31
0.0
1001
ACAD
1000
MTEXTBEGIN
1070
    73
1070
     1
1070
    44
1040
1.0
1070
    74
1070
     0
1000
MTEXTEND
  0
POINT
  5
34B6
330
3025
100
AcDbEntity
  8
DEFPOINTS
 62
     0
100
AcDbPoint
 10
304.9251060895301
 20
122.1372368719616
 30
0.0
  0
POINT
  5
34B7
330
3025
100
AcDbEntity
  8
DEFPOINTS
 62
     0
100
AcDbPoint
 10
317.9229803355044
 20
89.6402329318162
 30
0.0
  0
POINT
  5
34B8
330
3025
100
AcDbEntity
  8
DEFPOINTS
 62
     0
100
AcDbPoint
 10
299.7894423302257
 20
82.38733518698939
 30
0.0
  0
ENDBLK
  5
3030
330
3025
100
AcDbEntity
  8
0
100
AcDbBlockEnd
  0
BLOCK
  5
3032
330
3031
100
AcDbEntity
  8
0
100
AcDbBlockBegin
  2
*D4
 70
     1
 10
0.0
 20
0.0
 30
0.0
  3
*D4
  1

  0
LINE
  5
34C4
330
3031
100
AcDbEntity
  8
SUNPOU
100
AcDbLine
 10
302.1396486088873
 20
121.0231333653109
 30
0.0
 11
293.6178606360383
 21
117.6146613532758
 31
0.0
  0
LINE
  5
34C5
330
3031
100
AcDbEntity
  8
SUNPOU
100
AcDbLine
 10
306.0390771201703
 20
113.9666145858139
 30
0.0
 11
296.5888033204402
 21
110.1867747382285
 31
0.0
  0
LINE
  5
34C6
330
3031
100
AcDbEntity
  8
SUNPOU
100
AcDbLine
 10
293.896485869709
 20
120.9571705872438
 30
0.0
 11
292.7823823630583
 21
123.7426280678866
 31
0.0
  0
LINE
  5
34C7
330
3031
100
AcDbEntity
  8
SUNPOU
100
AcDbLine
 10
299.0956355674122
 20
107.958369010911
 30
0.0
 11
300.2097390740629
 21
105.1729115302683
 31
0.0
  0
LINE
  5
34C8
330
3031
100
AcDbEntity
  8
SUNPOU
100
AcDbLine
 10
295.0105893763597
 20
118.1717131066011
 30
0.0
 11
297.9815320607615
 21
110.7438264915538
 31
0.0
  0
INSERT
  5
34C9
330
3031
100
AcDbEntity
  8
SUNPOU
100
AcDbBlockReference
  2
_OPEN
 10
295.0105893763597
 20
118.1717131066011
 30
0.0
 41
3.0
 42
3.0
 43
3.0
 50
291.7999999999997
  0
INSERT
  5
34CA
330
3031
100
AcDbEntity
  8
SUNPOU
100
AcDbBlockReference
  2
_OPEN
 10
297.9815320607615
 20
110.7438264915538
 30
0.0
 41
3.0
 42
3.0
 43
3.0
 50
111.7999999999997
  0
MTEXT
  5
34CB
330
3031
100
AcDbEntity
  8
SUNPOU
100
AcDbMText
 10
298.8172752857629
 20
115.386189387953
 30
0.0
 40
3.0
 41
0.0
 71
     5
 72
     1
  1
\A1;8
 11
0.371367835550231
 21
-0.928485826880915
 31
0.0
1001
ACAD
1000
MTEXTBEGIN
1070
    73
1070
     1
1070
    44
1040
1.0
1070
    74
1070
     0
1000
MTEXTEND
  0
POINT
  5
34CC
330
3031
100
AcDbEntity
  8
DEFPOINTS
 62
     0
100
AcDbPoint
 10
304.9251060895301
 20
122.1372368719616
 30
0.0
  0
POINT
  5
34CD
330
3031
100
AcDbEntity
  8
DEFPOINTS
 62
     0
100
AcDbPoint
 10
308.824534600813
 20
115.0807180924646
 30
0.0
  0
POINT
  5
34CE
330
3031
100
AcDbEntity
  8
DEFPOINTS
 62
     0
100
AcDbPoint
 10
297.9815320607615
 20
110.7438264915538
 30
0.0
  0
ENDBLK
  5
303E
330
3031
100
AcDbEntity
  8
0
100
AcDbBlockEnd
  0
BLOCK
  5
3040
330
303F
100
AcDbEntity
  8
0
100
AcDbBlockBegin
  2
*D5
 70
     1
 10
0.0
 20
0.0
 30
0.0
  3
*D5
  1

  0
LINE
  5
34B9
330
303F
100
AcDbEntity
  8
SUNPOU
100
AcDbLine
 10
313.0950659956246
 20
96.32538387507656
 30
0.0
 11
303.6447921958947
 21
92.54554402749116
 31
0.0
  0
LINE
  5
34BA
330
303F
100
AcDbEntity
  8
SUNPOU
100
AcDbLine
 10
315.1375228548616
 20
88.52612942516552
 30
0.0
 11
306.6157348802966
 21
85.11765741244392
 31
0.0
  0
LINE
  5
34BB
330
303F
100
AcDbEntity
  8
SUNPOU
100
AcDbLine
 10
303.9234174295654
 20
95.88805326145925
 30
0.0
 11
302.8093139229147
 21
98.67351074210199
 31
0.0
  0
LINE
  5
34BC
330
303F
100
AcDbEntity
  8
SUNPOU
100
AcDbLine
 10
309.1225671272686
 20
82.88925168512653
 30
0.0
 11
310.2366706339193
 21
80.10379420448378
 31
0.0
  0
LINE
  5
34BD
330
303F
100
AcDbEntity
  8
SUNPOU
100
AcDbLine
 10
305.0375209362161
 20
93.10259578081652
 30
0.0
 11
308.0084636206179
 21
85.67470916576928
 31
0.0
  0
INSERT
  5
34BE
330
303F
100
AcDbEntity
  8
SUNPOU
100
AcDbBlockReference
  2
_OPEN
 10
305.0375209362161
 20
93.10259578081652
 30
0.0
 41
3.0
 42
3.0
 43
3.0
 50
291.7999999999997
  0
INSERT
  5
34BF
330
303F
100
AcDbEntity
  8
SUNPOU
100
AcDbBlockReference
  2
_OPEN
 10
308.0084636206179
 20
85.67470916576928
 30
0.0
 41
3.0
 42
3.0
 43
3.0
 50
111.7999999999997
  0
MTEXT
  5
34C0
330
303F
100
AcDbEntity
  8
SUNPOU
100
AcDbMText
 10
308.8442068456193
 20
90.31707206216843
 30
0.0
 40
3.0
 41
0.0
 71
     5
 72
     1
  1
\A1;8
 11
0.371367835550231
 21
-0.928485826880915
 31
0.0
1001
ACAD
1000
MTEXTBEGIN
1070
    73
1070
     1
1070
    44
1040
1.0
1070
    74
1070
     0
1000
MTEXTEND
  0
POINT
  5
34C1
330
303F
100
AcDbEntity
  8
DEFPOINTS
 62
     0
100
AcDbPoint
 10
315.8805234762674
 20
97.43948738172726
 30
0.0
  0
POINT
  5
34C2
330
303F
100
AcDbEntity
  8
DEFPOINTS
 62
     0
100
AcDbPoint
 10
317.9229803355044
 20
89.6402329318162
 30
0.0
  0
POINT
  5
34C3
330
303F
100
AcDbEntity
  8
DEFPOINTS
 62
     0
100
AcDbPoint
 10
308.0084636206179
 20
85.67470916576928
 30
0.0
  0
ENDBLK
  5
304C
330
303F
100
AcDbEntity
  8
0
100
AcDbBlockEnd
  0
BLOCK
  5
3056
330
3055
100
AcDbEntity
  8
0
100
AcDbBlockBegin
  2
*D6
 70
     1
 10
0.0
 20
0.0
 30
0.0
  3
*D6
  1

  0
LINE
  5
34A7
330
3055
100
AcDbEntity
  8
SUNPOU
 62
     4
100
AcDbLine
 10
226.8927383563856
 20
105.247407131824
 30
0.0
 11
240.4565820634188
 21
110.6729446146374
 31
0.0
  0
LINE
  5
34A8
330
3055
100
AcDbEntity
  8
SUNPOU
 62
     4
100
AcDbLine
 10
239.8914120287859
 20
72.75072295082413
 30
0.0
 11
253.4552557358189
 21
78.17626043363747
 31
0.0
  0
LINE
  5
34A9
330
3055
100
AcDbEntity
  8
SUNPOU
 62
     4
100
AcDbLine
 10
240.1780390561532
 20
107.3304285274504
 30
0.0
 11
250.9483686704288
 21
80.40460449176206
 31
0.0
  0
INSERT
  5
34AA
330
3055
100
AcDbEntity
  8
SUNPOU
 62
     4
100
AcDbBlockReference
  2
_OPEN
 10
239.0638670270909
 20
110.1158586001062
 30
0.0
 41
3.0
 42
3.0
 43
3.0
 50
111.8014094863521
  0
INSERT
  5
34AB
330
3055
100
AcDbEntity
  8
SUNPOU
 62
     4
100
AcDbBlockReference
  2
_OPEN
 10
252.062540699491
 20
77.6191744191063
 30
0.0
 41
3.0
 42
3.0
 43
3.0
 50
291.8014094863521
  0
MTEXT
  5
34AC
330
3055
100
AcDbEntity
  8
SUNPOU
 62
     4
100
AcDbMText
 10
247.8843955905041
 20
94.79599320049157
 30
0.0
 40
3.0
 41
0.0
 71
     5
 72
     1
  1
\A1;35
 11
0.3713906763541095
 21
-0.9284766908852569
 31
0.0
1001
ACAD
1000
MTEXTBEGIN
1070
    73
1070
     1
1070
    44
1040
1.0
1070
    74
1070
     0
1000
MTEXTEND
  0
POINT
  5
34AD
330
3055
100
AcDbEntity
  8
DEFPOINTS
 62
     0
100
AcDbPoint
 10
224.1073082837299
 20
104.1332351027617
 30
0.0
  0
POINT
  5
34AE
330
3055
100
AcDbEntity
  8
DEFPOINTS
 62
     0
100
AcDbPoint
 10
237.1059819561301
 20
71.63655092176181
 30
0.0
  0
POINT
  5
34AF
330
3055
100
AcDbEntity
  8
DEFPOINTS
 62
     0
100
AcDbPoint
 10
252.062540699491
 20
77.6191744191063
 30
0.0
  0
ENDBLK
  5
3060
330
3055
100
AcDbEntity
  8
0
100
AcDbBlockEnd
  0
BLOCK
  5
3065
330
3064
100
AcDbEntity
  8
0
100
AcDbBlockBegin
  2
*D7
 70
     1
 10
0.0
 20
0.0
 30
0.0
  3
*D7
  1

  0
LINE
  5
347A
330
3064
100
AcDbEntity
  8
SUNPOU
 62
     4
100
AcDbLine
 10
198.9592885679301
 20
131.0032843923617
 30
0.0
 11
198.9592885679301
 21
147.5412871261467
 31
0.0
  0
LINE
  5
347B
330
3064
100
AcDbEntity
  8
SUNPOU
 62
     4
100
AcDbLine
 10
213.7592885665301
 20
133.0032843957616
 30
0.0
 11
213.7592885665301
 21
147.5412871261467
 31
0.0
  0
LINE
  5
347C
330
3064
100
AcDbEntity
  8
SUNPOU
 62
     4
100
AcDbLine
 10
201.9592885679301
 20
146.0412871261467
 30
0.0
 11
210.7592885665301
 21
146.0412871261467
 31
0.0
  0
INSERT
  5
347D
330
3064
100
AcDbEntity
  8
SUNPOU
 62
     4
100
AcDbBlockReference
  2
_OPEN
 10
198.9592885679301
 20
146.0412871261467
 30
0.0
 41
3.0
 42
3.0
 43
3.0
 50
180.0
  0
INSERT
  5
347E
330
3064
100
AcDbEntity
  8
SUNPOU
 62
     4
100
AcDbBlockReference
  2
_OPEN
 10
213.7592885665301
 20
146.0412871261467
 30
0.0
 41
3.0
 42
3.0
 43
3.0
  0
MTEXT
  5
347F
330
3064
100
AcDbEntity
  8
SUNPOU
 62
     4
100
AcDbMText
 10
206.3592885672301
 20
148.5412871261467
 30
0.0
 40
3.0
 41
0.0
 71
     5
 72
     1
  1
\A1;15
1001
ACAD
1000
MTEXTBEGIN
1070
    73
1070
     1
1070
    44
1040
1.0
1070
    74
1070
     0
1000
MTEXTEND
  0
POINT
  5
3480
330
3064
100
AcDbEntity
  8
DEFPOINTS
 62
     0
100
AcDbPoint
 10
198.9592885679301
 20
128.0032843923617
 30
0.0
  0
POINT
  5
3481
330
3064
100
AcDbEntity
  8
DEFPOINTS
 62
     0
100
AcDbPoint
 10
213.7592885665301
 20
130.0032843957616
 30
0.0
  0
POINT
  5
3482
330
3064
100
AcDbEntity
  8
DEFPOINTS
 62
     0
100
AcDbPoint
 10
213.7592885665301
 20
146.0412871261467
 30
0.0
  0
ENDBLK
  5
306F
330
3064
100
AcDbEntity
  8
0
100
AcDbBlockEnd
  0
BLOCK
  5
3071
330
3070
100
AcDbEntity
  8
0
100
AcDbBlockBegin
  2
*D8
 70
     1
 10
0.0
 20
0.0
 30
0.0
  3
*D8
  1

  0
LINE
  5
3483
330
3070
100
AcDbEntity
  8
SUNPOU
 62
     4
100
AcDbLine
 10
213.7592885665301
 20
133.0032843957616
 30
0.0
 11
213.7592885665301
 21
172.1135063911272
 31
0.0
  0
LINE
  5
3484
330
3070
100
AcDbEntity
  8
SUNPOU
 62
     4
100
AcDbLine
 10
69.34201369463017
 20
160.3700943092616
 30
0.0
 11
69.34201369463017
 21
172.1135063911272
 31
0.0
  0
LINE
  5
3485
330
3070
100
AcDbEntity
  8
SUNPOU
 62
     4
100
AcDbLine
 10
210.7592885665301
 20
170.6135063911272
 30
0.0
 11
72.34201369463017
 21
170.6135063911272
 31
0.0
  0
INSERT
  5
3486
330
3070
100
AcDbEntity
  8
SUNPOU
 62
     4
100
AcDbBlockReference
  2
_OPEN
 10
213.7592885665301
 20
170.6135063911272
 30
0.0
 41
3.0
 42
3.0
 43
3.0
  0
INSERT
  5
3487
330
3070
100
AcDbEntity
  8
SUNPOU
 62
     4
100
AcDbBlockReference
  2
_OPEN
 10
69.34201369463017
 20
170.6135063911272
 30
0.0
 41
3.0
 42
3.0
 43
3.0
 50
180.0
  0
MTEXT
  5
3488
330
3070
100
AcDbEntity
  8
SUNPOU
 62
     4
100
AcDbMText
 10
141.5506511305801
 20
173.1135063911272
 30
0.0
 40
3.0
 41
0.0
 71
     5
 72
     1
  1
\A1;144
1001
ACAD
1000
MTEXTBEGIN
1070
    73
1070
     1
1070
    44
1040
1.0
1070
    74
1070
     0
1000
MTEXTEND
  0
POINT
  5
3489
330
3070
100
AcDbEntity
  8
DEFPOINTS
 62
     0
100
AcDbPoint
 10
213.7592885665301
 20
130.0032843957616
 30
0.0
  0
POINT
  5
348A
330
3070
100
AcDbEntity
  8
DEFPOINTS
 62
     0
100
AcDbPoint
 10
69.34201369463017
 20
157.3700943092616
 30
0.0
  0
POINT
  5
348B
330
3070
100
AcDbEntity
  8
DEFPOINTS
 62
     0
100
AcDbPoint
 10
69.34201369463017
 20
170.6135063911272
 30
0.0
  0
ENDBLK
  5
307B
330
3070
100
AcDbEntity
  8
0
100
AcDbBlockEnd
  0
BLOCK
  5
3086
330
3085
100
AcDbEntity
  8
0
100
AcDbBlockBegin
  2
*D9
 70
     1
 10
0.0
 20
0.0
 30
0.0
  3
*D9
  1

  0
LINE
  5
34CF
330
3085
100
AcDbEntity
  8
SUNPOU
 62
     4
100
AcDbLine
 10
238.7642943514079
 20
237.2739806651615
 30
0.0
 11
253.3497707099517
 21
237.2739806651615
 31
0.0
  0
LINE
  5
34D0
330
3085
100
AcDbEntity
  8
SUNPOU
 62
     4
100
AcDbLine
 10
238.7642943514079
 20
176.2739806651617
 30
0.0
 11
253.3497707099516
 21
176.2739806651617
 31
0.0
  0
LINE
  5
34D1
330
3085
100
AcDbEntity
  8
SUNPOU
 62
     4
100
AcDbLine
 10
251.8497707099517
 20
234.2739806651615
 30
0.0
 11
251.8497707099516
 21
179.2739806651617
 31
0.0
  0
INSERT
  5
34D2
330
3085
100
AcDbEntity
  8
SUNPOU
 62
     4
100
AcDbBlockReference
  2
_OPEN
 10
251.8497707099517
 20
237.2739806651615
 30
0.0
 41
3.0
 42
3.0
 43
3.0
 50
90.0
  0
INSERT
  5
34D3
330
3085
100
AcDbEntity
  8
SUNPOU
 62
     4
100
AcDbBlockReference
  2
_OPEN
 10
251.8497707099516
 20
176.2739806651617
 30
0.0
 41
3.0
 42
3.0
 43
3.0
 50
270.0
  0
MTEXT
  5
34D4
330
3085
100
AcDbEntity
  8
SUNPOU
 62
     4
100
AcDbMText
 10
249.3497707099516
 20
206.7739806651616
 30
0.0
 40
3.0
 41
0.0
 71
     5
 72
     1
  1
\A1;61
 11
0.0000000000000001
 21
1.0
 31
0.0
1001
ACAD
1000
MTEXTBEGIN
1070
    73
1070
     1
1070
    44
1040
1.0
1070
    74
1070
     0
1000
MTEXTEND
  0
POINT
  5
34D5
330
3085
100
AcDbEntity
  8
DEFPOINTS
 62
     0
100
AcDbPoint
 10
235.7642943514079
 20
237.2739806651615
 30
0.0
  0
POINT
  5
34D6
330
3085
100
AcDbEntity
  8
DEFPOINTS
 62
     0
100
AcDbPoint
 10
235.7642943514079
 20
176.2739806651617
 30
0.0
  0
POINT
  5
34D7
330
3085
100
AcDbEntity
  8
DEFPOINTS
 62
     0
100
AcDbPoint
 10
251.8497707099516
 20
176.2739806651617
 30
0.0
  0
ENDBLK
  5
3090
330
3085
100
AcDbEntity
  8
0
100
AcDbBlockEnd
  0
BLOCK
  5
30B1
330
30B0
100
AcDbEntity
  8
0
100
AcDbBlockBegin
  2
*D10
 70
     1
 10
0.0
 20
0.0
 30
0.0
  3
*D10
  1

  0
LINE
  5
348C
330
30B0
100
AcDbEntity
  8
SUNPOU
 62
     4
100
AcDbLine
 10
66.74201369323009
 20
216.7739806651617
 30
0.0
 11
44.06221688976529
 21
216.7739806651618
 31
0.0
  0
LINE
  5
348D
330
30B0
100
AcDbEntity
  8
SUNPOU
 62
     4
100
AcDbLine
 10
66.74201369323009
 20
196.7739806651617
 30
0.0
 11
44.06221688976528
 21
196.7739806651617
 31
0.0
  0
LINE
  5
348E
330
30B0
100
AcDbEntity
  8
SUNPOU
 62
     4
100
AcDbLine
 10
45.56221688976529
 20
213.7739806651617
 30
0.0
 11
45.56221688976529
 21
199.7739806651617
 31
0.0
  0
INSERT
  5
348F
330
30B0
100
AcDbEntity
  8
SUNPOU
 62
     4
100
AcDbBlockReference
  2
_OPEN
 10
45.56221688976529
 20
216.7739806651618
 30
0.0
 41
3.0
 42
3.0
 43
3.0
 50
90.0
  0
INSERT
  5
3490
330
30B0
100
AcDbEntity
  8
SUNPOU
 62
     4
100
AcDbBlockReference
  2
_OPEN
 10
45.56221688976529
 20
196.7739806651617
 30
0.0
 41
3.0
 42
3.0
 43
3.0
 50
270.0
  0
MTEXT
  5
3491
330
30B0
100
AcDbEntity
  8
SUNPOU
 62
     4
100
AcDbMText
 10
43.06221688976526
 20
206.7739806651617
 30
0.0
 40
3.0
 41
0.0
 71
     5
 72
     1
  1
\A1;20
 11
0.0000000000000001
 21
1.0
 31
0.0
1001
ACAD
1000
MTEXTBEGIN
1070
    73
1070
     1
1070
    44
1040
1.0
1070
    74
1070
     0
1000
MTEXTEND
  0
POINT
  5
3492
330
30B0
100
AcDbEntity
  8
DEFPOINTS
 62
     0
100
AcDbPoint
 10
69.74201369323009
 20
216.7739806651617
 30
0.0
  0
POINT
  5
3493
330
30B0
100
AcDbEntity
  8
DEFPOINTS
 62
     0
100
AcDbPoint
 10
69.74201369323009
 20
196.7739806651617
 30
0.0
  0
POINT
  5
3494
330
30B0
100
AcDbEntity
  8
DEFPOINTS
 62
     0
100
AcDbPoint
 10
45.56221688976529
 20
196.7739806651617
 30
0.0
  0
ENDBLK
  5
30BB
330
30B0
100
AcDbEntity
  8
0
100
AcDbBlockEnd
  0
BLOCK
  5
32B7
330
32AD
100
AcDbEntity
  8
0
100
AcDbBlockBegin
  2
*D11
 70
     1
 10
0.0
 20
0.0
 30
0.0
  3
*D11
  1

  0
LINE
  5
3471
330
32AD
100
AcDbEntity
  8
SUNPOU
100
AcDbLine
 10
66.74201369323009
 20
128.8306439493617
 30
0.0
 11
44.06221688976527
 21
128.8306439493617
 31
0.0
  0
LINE
  5
3472
330
32AD
100
AcDbEntity
  8
SUNPOU
100
AcDbLine
 10
232.620419250749
 20
71.04232583961422
 30
0.0
 11
44.06221688976525
 21
71.04232583961428
 31
0.0
  0
LINE
  5
3473
330
32AD
100
AcDbEntity
  8
SUNPOU
100
AcDbLine
 10
45.56221688976527
 20
125.8306439493617
 30
0.0
 11
45.56221688976526
 21
74.04232583961428
 31
0.0
  0
INSERT
  5
3474
330
32AD
100
AcDbEntity
  8
SUNPOU
100
AcDbBlockReference
  2
_OPEN
 10
45.56221688976527
 20
128.8306439493617
 30
0.0
 41
3.0
 42
3.0
 43
3.0
 50
90.0
  0
INSERT
  5
3475
330
32AD
100
AcDbEntity
  8
SUNPOU
100
AcDbBlockReference
  2
_OPEN
 10
45.56221688976526
 20
71.04232583961428
 30
0.0
 41
3.0
 42
3.0
 43
3.0
 50
270.0
  0
MTEXT
  5
3476
330
32AD
100
AcDbEntity
  8
SUNPOU
100
AcDbMText
 10
43.06221688976525
 20
99.93648489448801
 30
0.0
 40
3.0
 41
0.0
 71
     5
 72
     1
  1
\A1;58
 11
0.0000000000000001
 21
1.0
 31
0.0
1001
ACAD
1000
MTEXTBEGIN
1070
    73
1070
     1
1070
    44
1040
1.0
1070
    74
1070
     0
1000
MTEXTEND
  0
POINT
  5
3477
330
32AD
100
AcDbEntity
  8
DEFPOINTS
 62
     0
100
AcDbPoint
 10
69.74201369323009
 20
128.8306439493617
 30
0.0
  0
POINT
  5
3478
330
32AD
100
AcDbEntity
  8
DEFPOINTS
 62
     0
100
AcDbPoint
 10
235.620419250749
 20
71.04232583961422
 30
0.0
  0
POINT
  5
3479
330
32AD
100
AcDbEntity
  8
DEFPOINTS
 62
     0
100
AcDbPoint
 10
45.56221688976526
 20
71.04232583961428
 30
0.0
  0
ENDBLK
  5
32B8
330
32AD
100
AcDbEntity
  8
0
100
AcDbBlockEnd
  0
ENDSEC
  0
SECTION
  2
ENTITIES
  0
LINE
  5
2F55
330
1A
100
AcDbEntity
  8
SUNPOU
100
AcDbLine
 10
224.1073082837301
 20
104.1332351027617
 30
0.0
 11
213.7592885665301
 21
130.0032843957616
 31
0.0
  0
ARC
  5
2F56
330
1A
100
AcDbEntity
  8
SEIHIN
100
AcDbCircle
 10
222.00730828373
 20
220.4034861045617
 30
0.0
 40
0.5
100
AcDbArc
 50
288.3896443627
 51
0.0000000353
  0
LINE
  5
2F57
330
1A
100
AcDbEntity
  8
SEIHIN
100
AcDbLine
 10
219.0268669573301
 20
218.8857158692617
 30
0.0
 11
222.16504705483
 21
219.9290195653617
 31
0.0
  0
LINE
  5
2F58
330
1A
100
AcDbEntity
  8
SEIHIN
100
AcDbLine
 10
222.0969101223301
 20
200.9736913504617
 30
0.0
 11
222.0969101223301
 21
212.7243984211617
 31
0.0
  0
ELLIPSE
  5
2F59
330
1A
100
AcDbEntity
  8
SEIHIN
100
AcDbEllipse
 10
227.0782173781301
 20
184.7739806651617
 30
0.0
 11
0.0
 21
2.099999999999993
 31
0.0
210
0.0
220
0.0
230
1.0
 40
0.3712875744
 41
-1.570796326794896
 42
4.712388980384688
  0
ARC
  5
2F5A
330
1A
100
AcDbEntity
  8
SEIHIN
100
AcDbCircle
 10
227.1073082837301
 20
178.7739806651617
 30
0.0
 40
3.0
100
AcDbArc
 50
180.0
 51
236.4426902380803
  0
ARC
  5
2F5B
330
1A
100
AcDbEntity
  8
SEIHIN
100
AcDbCircle
 10
225.50730828373
 20
178.7739806651617
 30
0.0
 40
3.0
100
AcDbArc
 50
180.0
 51
236.4426902380803
  0
ARC
  5
2F5D
330
1A
100
AcDbEntity
  8
SEIHIN
100
AcDbCircle
 10
233.10598195613
 20
217.0849808692617
 30
0.0
 40
0.5
100
AcDbArc
 50
120.9637695122999
 51
180.0000000117
  0
LINE
  5
2F5E
330
1A
100
AcDbEntity
  8
SEIHIN
100
AcDbLine
 10
232.60598195613
 20
217.0849808691617
 30
0.0
 11
232.60598195613
 21
216.7739806651617
 31
0.0
  0
ARC
  5
2F5F
330
1A
100
AcDbEntity
  8
SEIHIN
100
AcDbCircle
 10
222.00730828373
 20
193.1040343876617
 30
0.0
 40
2.1
100
AcDbArc
 50
359.9999958101999
 51
71.6103513227
  0
LINE
  5
2F60
330
1A
100
AcDbEntity
  8
SEIHIN
100
AcDbLine
 10
219.60730828373
 20
194.4692748339616
 30
0.0
 11
222.50730828373
 21
192.1703474546617
 31
0.0
  0
ARC
  5
2F61
330
1A
100
AcDbEntity
  8
SEIHIN
100
AcDbCircle
 10
222.00730828373
 20
193.1444752257617
 30
0.0
 40
0.5
100
AcDbArc
 50
0.0000000353
 51
71.6103557078
  0
LINE
  5
2F62
330
1A
100
AcDbEntity
  8
SEIHIN
100
AcDbLine
 10
222.66981125253
 20
195.0967937350617
 30
0.0
 11
219.85006040603
 21
196.0342339980616
 31
0.0
  0
LINE
  5
2F63
330
1A
100
AcDbEntity
  8
SEIHIN
100
AcDbLine
 10
224.1073082837301
 20
178.7739806651617
 30
0.0
 11
224.1073082837301
 21
193.1040342328617
 31
0.0
  0
LINE
  5
2F64
330
1A
100
AcDbEntity
  8
SEIHIN
100
AcDbLine
 10
222.50730828373
 20
178.7739806651617
 30
0.0
 11
222.50730828373
 21
193.1444752257617
 31
0.0
  0
ARC
  5
2F65
330
1A
100
AcDbEntity
  8
SEIHIN
100
AcDbCircle
 10
233.10598195613
 20
196.4629804609617
 30
0.0
 40
0.5
100
AcDbArc
 50
180.0000000117
 51
239.0362434874
  0
LINE
  5
2F66
330
1A
100
AcDbEntity
  8
SEIHIN
100
AcDbLine
 10
219.85006030893
 20
217.5137272738617
 30
0.0
 11
222.66981126683
 21
218.4511675519617
 31
0.0
  0
LINE
  5
2F67
330
1A
100
AcDbEntity
  8
SEIHIN
100
AcDbLine
 10
232.60598195613
 20
196.4629804608617
 30
0.0
 11
232.60598195613
 21
196.7739806651617
 31
0.0
  0
LINE
  5
2F68
330
1A
100
AcDbEntity
  8
SEIHIN
100
AcDbLine
 10
219.02686719733
 20
194.6622453169617
 30
0.0
 11
222.16504704953
 21
193.6189417490617
 31
0.0
  0
ELLIPSE
  5
2F69
330
1A
100
AcDbEntity
  8
SEIHIN
100
AcDbEllipse
 10
227.0782173781301
 20
228.7739806651617
 30
0.0
 11
0.0
 21
-2.099999999999993
 31
0.0
210
0.0
220
0.0
230
-1.0
 40
0.3712875744
 41
-1.570796326794896
 42
4.712388980384688
  0
ARC
  5
2F6A
330
1A
100
AcDbEntity
  8
SEIHIN
100
AcDbCircle
 10
-227.1073082837301
 20
234.7739806651617
 30
0.0
 40
3.0
210
0.0
220
0.0
230
-1.0
100
AcDbArc
 50
0.0
 51
56.44269023808037
  0
ARC
  5
2F6B
330
1A
100
AcDbEntity
  8
SEIHIN
100
AcDbCircle
 10
-225.50730828373
 20
234.7739806651617
 30
0.0
 40
3.0
210
0.0
220
0.0
230
-1.0
100
AcDbArc
 50
0.0
 51
56.44269023808037
  0
LINE
  5
2F6D
330
1A
100
AcDbEntity
  8
SEIHIN
100
AcDbLine
 10
222.62174557833
 20
103.5390100206617
 30
0.0
 11
235.62041925073
 21
71.04232583966177
 31
0.0
  0
ARC
  5
2F6E
330
1A
100
AcDbEntity
  8
SEIHIN
100
AcDbCircle
 10
234.1059819561301
 20
178.7739806651617
 30
0.0
 40
3.0
100
AcDbArc
 50
303.5573097619196
 51
0.0
  0
ELLIPSE
  5
2F6F
330
1A
100
AcDbEntity
  8
SEIHIN
100
AcDbEllipse
 10
234.1346414841301
 20
184.7739806651617
 30
0.0
 11
0.0
 21
2.099999999999993
 31
0.0
210
0.0
220
0.0
230
1.0
 40
0.3712875744
 41
-1.570796326794896
 42
4.712388980384688
  0
LINE
  5
2F70
330
1A
100
AcDbEntity
  8
SEIHIN
100
AcDbLine
 10
224.1073082837301
 20
219.2153620373617
 30
0.0
 11
236.02833168983
 21
219.2153620373617
 31
0.0
  0
LINE
  5
2F71
330
1A
100
AcDbEntity
  8
SEIHIN
100
AcDbLine
 10
232.8487339813301
 20
217.5137272738617
 30
0.0
 11
235.66848493923
 21
218.4511675519617
 31
0.0
  0
LINE
  5
2F72
330
1A
100
AcDbEntity
  8
SEIHIN
100
AcDbLine
 10
74.24201369323009
 20
216.7739806651617
 30
0.0
 11
236.60598195613
 21
216.7739806651617
 31
0.0
  0
LINE
  5
2F73
330
1A
100
AcDbEntity
  8
SEIHIN
100
AcDbLine
 10
224.1073082837301
 20
194.3325992928617
 30
0.0
 11
236.02833168983
 21
194.3325992928617
 31
0.0
  0
LINE
  5
2F74
330
1A
100
AcDbEntity
  8
SEIHIN
100
AcDbLine
 10
237.10598195613
 20
71.63655092176179
 30
0.0
 11
230.9780357963301
 21
69.18537245786177
 31
0.0
  0
LINE
  5
2F75
330
1A
100
AcDbEntity
  8
SEIHIN
100
AcDbLine
 10
224.1073082837301
 20
104.1332351027617
 30
0.0
 11
217.97936212393
 21
101.6820566388617
 31
0.0
  0
LINE
  5
2F76
330
1A
100
AcDbEntity
  8
SEIHIN
100
AcDbLine
 10
217.97936212393
 20
101.6820566388617
 30
0.0
 11
230.9780357963301
 21
69.18537245786177
 31
0.0
  0
ARC
  5
2F77
330
1A
100
AcDbEntity
  8
SEIHIN
100
AcDbCircle
 10
-216.4099715984301
 20
104.5284999909617
 30
0.0
 40
6.5
210
0.0
220
0.0
230
-1.0
100
AcDbArc
 50
84.0
 51
158.1985905136999
  0
LINE
  5
2F78
330
1A
100
AcDbEntity
  8
SEIHIN
100
AcDbLine
 10
237.10598195613
 20
71.63655092176179
 30
0.0
 11
224.1073082837301
 21
104.1332351027617
 31
0.0
  0
LINE
  5
2F79
330
1A
100
AcDbEntity
  8
SEIHIN
100
AcDbLine
 10
224.1073082837301
 20
234.7739806651617
 30
0.0
 11
224.1073082837301
 21
220.4439270973617
 31
0.0
  0
LINE
  5
2F7A
330
1A
100
AcDbEntity
  8
SEIHIN
100
AcDbLine
 10
222.50730828373
 20
234.7739806651617
 30
0.0
 11
222.50730828373
 21
220.4034861045617
 31
0.0
  0
LINE
  5
2F7B
330
1A
100
AcDbEntity
  8
SEIHIN
100
AcDbLine
 10
219.60730828373
 20
219.0786864963617
 30
0.0
 11
222.50730828373
 21
221.3776138755617
 31
0.0
  0
ARC
  5
2F7C
330
1A
100
AcDbEntity
  8
SEIHIN
100
AcDbCircle
 10
222.00730828373
 20
220.4439269425617
 30
0.0
 40
2.1
100
AcDbArc
 50
288.3896487477998
 51
0.0000042603
  0
LINE
  5
2F7D
330
1A
100
AcDbEntity
  8
SEIHIN
100
AcDbLine
 10
74.24201369323009
 20
196.7739806651617
 30
0.0
 11
236.60598195613
 21
196.7739806651617
 31
0.0
  0
ARC
  5
2F7E
330
1A
100
AcDbEntity
  8
SEIHIN
100
AcDbCircle
 10
235.00598195613
 20
193.1040343876617
 30
0.0
 40
2.1
100
AcDbArc
 50
359.9999958101999
 51
71.6103513227
  0
LINE
  5
2F7F
330
1A
100
AcDbEntity
  8
SEIHIN
100
AcDbLine
 10
235.6684849249301
 20
195.0967937350617
 30
0.0
 11
232.84873407843
 21
196.0342339980616
 31
0.0
  0
ARC
  5
2F80
330
1A
100
AcDbEntity
  8
SEIHIN
100
AcDbCircle
 10
235.00598195613
 20
220.4439269425617
 30
0.0
 40
2.1
100
AcDbArc
 50
288.3896487477998
 51
0.0000042603
  0
LINE
  5
2F81
330
1A
100
AcDbEntity
  8
SEIHIN
100
AcDbLine
 10
237.10598195613
 20
234.7739806651617
 30
0.0
 11
237.10598195613
 21
220.4439270973617
 31
0.0
  0
ELLIPSE
  5
2F82
330
1A
100
AcDbEntity
  8
SEIHIN
100
AcDbEllipse
 10
234.1346414841301
 20
228.7739806651617
 30
0.0
 11
0.0
 21
-2.099999999999993
 31
0.0
210
0.0
220
0.0
230
-1.0
 40
0.3712875744
 41
-1.570796326794896
 42
4.712388980384688
  0
ARC
  5
2F83
330
1A
100
AcDbEntity
  8
SEIHIN
100
AcDbCircle
 10
-234.1059819561301
 20
234.7739806651617
 30
0.0
 40
3.0
210
0.0
220
0.0
230
-1.0
100
AcDbArc
 50
123.5573097619217
 51
180.0
  0
LINE
  5
2F84
330
1A
100
AcDbEntity
  8
SEIHIN
100
AcDbLine
 10
237.10598195613
 20
178.7739806651617
 30
0.0
 11
237.10598195613
 21
193.1040342328617
 31
0.0
  0
LINE
  5
2F85
330
1A
100
AcDbEntity
  8
SEIHIN
100
AcDbLine
 10
236.60598195613
 20
196.7739806651617
 30
0.0
 11
236.60598195613
 21
216.7739806651617
 31
0.0
  0
LINE
  5
2F86
330
1A
100
AcDbEntity
  8
SEIHIN
100
AcDbLine
 10
222.4450700892299
 20
106.9425393872617
 30
0.0
 11
223.64306993833
 21
103.9475397645617
 31
0.0
  0
LINE
  5
2F87
330
1A
100
AcDbEntity
  8
SEIHIN
100
AcDbLine
 10
152.70525133673
 20
67.89645889836174
 30
0.0
 11
94.53545247083013
 21
67.89645889836174
 31
0.0
  0
LINE
  5
2F88
330
1A
100
AcDbEntity
  8
SEIHIN
100
AcDbLine
 10
81.1902534932301
 20
78.81535135716177
 30
0.0
 11
94.53545247083013
 21
67.89645889836174
 31
0.0
  0
ARC
  5
2F89
330
1A
100
AcDbEntity
  8
SEIHIN
100
AcDbCircle
 10
142.90753328823
 20
115.3965233747617
 30
0.0
 40
48.5000144765
100
AcDbArc
 50
281.6548006464
 51
323.8742014572
  0
LINE
  5
2F8A
330
1A
100
AcDbEntity
  8
SEIHIN
100
AcDbLine
 10
218.00730828373
 20
217.0849807131617
 30
0.0
 11
218.00730828373
 21
216.7739806651617
 31
0.0
  0
LINE
  5
2F8B
330
1A
100
AcDbEntity
  8
SEIHIN
100
AcDbLine
 10
180.3408980390301
 20
214.2739806651617
 30
0.0
 11
200.55928856653
 21
214.2739806651617
 31
0.0
  0
LINE
  5
2F8C
330
1A
100
AcDbEntity
  8
SEIHIN
100
AcDbLine
 10
69.34201369323012
 20
214.2739806651617
 30
0.0
 11
69.74201369323009
 21
214.2739806651617
 31
0.0
  0
LINE
  5
2F8D
330
1A
100
AcDbEntity
  8
SEIHIN
100
AcDbLine
 10
69.74201369323009
 20
196.7739806651617
 30
0.0
 11
69.74201369323009
 21
216.7739806651617
 31
0.0
  0
LINE
  5
2F8E
330
1A
100
AcDbEntity
  8
SEIHIN
100
AcDbLine
 10
74.24201369323009
 20
196.7739806651617
 30
0.0
 11
74.24201369323009
 21
216.7739806651617
 31
0.0
  0
ARC
  5
2F8F
330
1A
100
AcDbEntity
  8
SEIHIN
100
AcDbCircle
 10
220.1073082837301
 20
217.0849808692617
 30
0.0
 40
0.5
100
AcDbArc
 50
120.9637695122999
 51
180.0000000117
  0
ARC
  5
2F90
330
1A
100
AcDbEntity
  8
SEIHIN
100
AcDbCircle
 10
220.1073082837301
 20
217.0849808692617
 30
0.0
 40
2.1
100
AcDbArc
 50
120.9637641725
 51
180.0000042601999
  0
LINE
  5
2F91
330
1A
100
AcDbEntity
  8
SEIHIN
100
AcDbLine
 10
219.60730828373
 20
217.0849808691617
 30
0.0
 11
219.60730828373
 21
216.7739806651617
 31
0.0
  0
LINE
  5
2F92
330
1A
100
AcDbEntity
  8
SEIHIN
100
AcDbLine
 10
96.14186468493011
 20
215.1198399783617
 30
0.0
 11
96.14186468493011
 21
198.5344518505617
 31
0.0
  0
LINE
  5
2F93
330
1A
100
AcDbEntity
  8
SEIHIN
100
AcDbLine
 10
85.48244666813014
 20
215.1198399783617
 30
0.0
 11
85.48244666813014
 21
198.5344518505617
 31
0.0
  0
LINE
  5
2F94
330
1A
100
AcDbEntity
  8
SEIHIN
100
AcDbLine
 10
69.34201369323012
 20
199.2739806651617
 30
0.0
 11
69.34201369323012
 21
214.2739806651617
 31
0.0
  0
LINE
  5
2F95
330
1A
100
AcDbEntity
  8
SEIHIN
100
AcDbLine
 10
81.39063841323013
 20
215.1198399783617
 30
0.0
 11
81.39063841323013
 21
198.5344518505617
 31
0.0
  0
LINE
  5
2F96
330
1A
100
AcDbEntity
  8
SEIHIN
100
AcDbLine
 10
173.29037900093
 20
215.1198399783617
 30
0.0
 11
173.29037900093
 21
198.5344518505617
 31
0.0
  0
LINE
  5
2F97
330
1A
100
AcDbEntity
  8
SEIHIN
100
AcDbLine
 10
180.3408980390301
 20
199.2739806651617
 30
0.0
 11
180.3408980390301
 21
214.2739806651617
 31
0.0
  0
LINE
  5
2F98
330
1A
100
AcDbEntity
  8
SEIHIN
100
AcDbLine
 10
200.55928856653
 20
199.2739806651617
 30
0.0
 11
200.55928856653
 21
214.2739806651617
 31
0.0
  0
LINE
  5
2F99
330
1A
100
AcDbEntity
  8
SEIHIN
100
AcDbLine
 10
185.67269015823
 20
199.2739806651617
 30
0.0
 11
185.67269015823
 21
214.2739806651617
 31
0.0
  0
LINE
  5
2F9A
330
1A
100
AcDbEntity
  8
SEIHIN
100
AcDbLine
 10
69.74201369323009
 20
216.7739806651617
 30
0.0
 11
74.24201369323009
 21
216.7739806651617
 31
0.0
  0
LINE
  5
2F9B
330
1A
100
AcDbEntity
  8
SEIHIN
100
AcDbLine
 10
187.0503505156301
 20
130.0032843957616
 30
0.0
 11
196.9592885665301
 21
130.0032843957616
 31
0.0
  0
LINE
  5
2F9C
330
1A
100
AcDbEntity
  8
SEIHIN
100
AcDbLine
 10
69.74201369323009
 20
128.8306439493617
 30
0.0
 11
69.74201369323009
 21
157.3700943126617
 31
0.0
  0
LINE
  5
2F9D
330
1A
100
AcDbEntity
  8
SEIHIN
100
AcDbLine
 10
69.74201369323009
 20
112.3965088983617
 30
0.0
 11
69.74201369323009
 21
128.8306439493617
 31
0.0
  0
ARC
  5
2F9E
330
1A
100
AcDbEntity
  8
SEIHIN
100
AcDbCircle
 10
182.88990794943
 20
86.21328932456179
 30
0.0
 40
5.5
100
AcDbArc
 50
90.00000001169999
 51
143.8741928299
  0
LINE
  5
2F9F
330
1A
100
AcDbEntity
  8
SEIHIN
100
AcDbLine
 10
186.3843645655301
 20
106.4638833753617
 30
0.0
 11
184.8797870757299
 21
94.21008307056178
 31
0.0
  0
LINE
  5
2FA0
330
1A
100
AcDbEntity
  8
SEIHIN
100
AcDbLine
 10
192.03350195313
 20
102.4188100857617
 30
0.0
 11
190.7595136421301
 21
92.04300793586181
 31
0.0
  0
ARC
  5
2FA1
330
1A
100
AcDbEntity
  8
SEIHIN
100
AcDbCircle
 10
190.95007686313
 20
105.9032843957617
 30
0.0
 40
4.599999999999998
100
AcDbArc
 50
90.0000000118
 51
173.0000000225999
  0
LINE
  5
2FA2
330
1A
100
AcDbEntity
  8
SEIHIN
100
AcDbLine
 10
190.95007686313
 20
110.5032843957616
 30
0.0
 11
196.9592885665301
 21
110.5032843957616
 31
0.0
  0
LINE
  5
2FA3
330
1A
100
AcDbEntity
  8
SUNPOU
100
AcDbLine
 10
196.9592885665301
 20
130.0032843957616
 30
0.0
 11
213.7592885665301
 21
130.0032843957616
 31
0.0
  0
LINE
  5
2FA4
330
1A
100
AcDbEntity
  8
SEIHIN
100
AcDbLine
 10
181.47226888893
 20
125.2536298938617
 30
0.0
 11
180.3408980390301
 21
126.3850007437616
 31
0.0
  0
LINE
  5
2FA5
330
1A
100
AcDbEntity
  8
SEIHIN
100
AcDbLine
 10
185.63613695323
 20
129.4174979581617
 30
0.0
 11
181.47226888893
 21
125.2536298938617
 31
0.0
  0
LINE
  5
2FA6
330
1A
100
AcDbEntity
  8
SEIHIN
100
AcDbLine
 10
69.34201369323012
 20
115.0768628772617
 30
0.0
 11
69.34201369323012
 21
157.3700943126617
 31
0.0
  0
LINE
  5
2FA7
330
1A
100
AcDbEntity
  8
SEIHIN
100
AcDbLine
 10
78.66218370943011
 20
104.0955204574617
 30
0.0
 11
81.1902534932301
 21
78.81535135716177
 31
0.0
  0
LINE
  5
2FA8
330
1A
100
AcDbEntity
  8
SEIHIN
100
AcDbLine
 10
69.34201369323012
 20
115.0768628772617
 30
0.0
 11
69.74201369323009
 21
115.0768628772617
 31
0.0
  0
LINE
  5
2FA9
330
1A
100
AcDbEntity
  8
SEIHIN
100
AcDbLine
 10
76.24201369323009
 20
105.8965088983617
 30
0.0
 11
76.67210974113015
 21
105.8965088983617
 31
0.0
  0
ARC
  5
2FAA
330
1A
100
AcDbEntity
  8
SEIHIN
100
AcDbCircle
 10
76.24201369323009
 20
112.3965088983617
 30
0.0
 40
6.5
100
AcDbArc
 50
180.0000000234999
 51
270.0000000353
  0
ARC
  5
2FAB
330
1A
100
AcDbEntity
  8
SEIHIN
100
AcDbCircle
 10
76.67210974113015
 20
103.8965088983617
 30
0.0
 40
6.5
100
AcDbArc
 50
5.7107117865
 51
90.0000000118
  0
ARC
  5
2FAC
330
1A
100
AcDbEntity
  8
SEIHIN
100
AcDbCircle
 10
76.67210974113015
 20
103.8965088983617
 30
0.0
 40
2.0
100
AcDbArc
 50
5.7107117865
 51
90.0000000118
  0
ARC
  5
2FAD
330
1A
100
AcDbEntity
  8
SEIHIN
100
AcDbCircle
 10
185.3005098081301
 20
92.7132893245618
 30
0.0
 40
1.0
100
AcDbArc
 50
270.0000000353
 51
353.0000000461
  0
LINE
  5
2FAE
330
1A
100
AcDbEntity
  8
SEIHIN
100
AcDbLine
 10
182.88990794943
 20
87.21328932456179
 30
0.0
 11
185.3005098081301
 21
87.21328932456179
 31
0.0
  0
ARC
  5
2FAF
330
1A
100
AcDbEntity
  8
SEIHIN
100
AcDbCircle
 10
194.01859425643
 20
102.1750713989616
 30
0.0
 40
6.5
100
AcDbArc
 50
96.0000000125
 51
173.0000000225999
  0
LINE
  5
2FB0
330
1A
100
AcDbEntity
  8
SEIHIN
100
AcDbLine
 10
96.14186468493011
 20
72.39640457916175
 30
0.0
 11
152.23500984133
 21
72.39652971096177
 31
0.0
  0
ARC
  5
2FB1
330
1A
100
AcDbEntity
  8
SEIHIN
100
AcDbCircle
 10
76.24201369323009
 20
112.3965088983617
 30
0.0
 40
2.0
100
AcDbArc
 50
180.0000000234999
 51
270.0000000353
  0
LINE
  5
2FB2
330
1A
100
AcDbEntity
  8
SEIHIN
100
AcDbLine
 10
83.1398501381301
 20
104.5432964653617
 30
0.0
 11
85.48244666813014
 21
81.1178211120618
 31
0.0
  0
LINE
  5
2FB3
330
1A
100
AcDbEntity
  8
SEIHIN
100
AcDbLine
 10
74.24201369323009
 20
112.3965088983617
 30
0.0
 11
74.24201369323009
 21
128.8306439493617
 31
0.0
  0
LINE
  5
2FB4
330
1A
100
AcDbEntity
  8
SEIHIN
100
AcDbLine
 10
182.88990794943
 20
91.7132893245618
 30
0.0
 11
185.3005098081301
 21
91.7132893245618
 31
0.0
  0
LINE
  5
2FB5
330
1A
100
AcDbEntity
  8
SEIHIN
100
AcDbLine
 10
187.9724384081301
 20
106.2688924259617
 30
0.0
 11
186.2930559597301
 21
92.59141998116179
 31
0.0
  0
ARC
  5
2FB6
330
1A
100
AcDbEntity
  8
SEIHIN
100
AcDbCircle
 10
182.88990794943
 20
86.21328932456179
 30
0.0
 40
1.0
100
AcDbArc
 50
90.0000000118
 51
143.8742014336999
  0
LINE
  5
2FB7
330
1A
100
AcDbEntity
  8
SEIHIN
100
AcDbLine
 10
198.9592885665301
 20
128.0032843957616
 30
0.0
 11
198.9592885665301
 21
112.5032843957616
 31
0.0
  0
LINE
  5
2FB8
330
1A
100
AcDbEntity
  8
SEIHIN
100
AcDbLine
 10
184.8797870757299
 20
94.21008307056178
 30
0.0
 11
186.4678609183301
 21
94.01509212116179
 31
0.0
  0
LINE
  5
2FB9
330
1A
100
AcDbEntity
  8
SEIHIN
100
AcDbLine
 10
76.24201369323009
 20
110.3965088983617
 30
0.0
 11
76.67210974113015
 21
110.3965088983617
 31
0.0
  0
LINE
  5
2FBA
330
1A
100
AcDbEntity
  8
SEIHIN
100
AcDbLine
 10
85.48244666813014
 20
81.1178211120618
 30
0.0
 11
96.14186468493011
 21
72.39640457916175
 31
0.0
  0
ARC
  5
2FBB
330
1A
100
AcDbEntity
  8
SEIHIN
100
AcDbCircle
 10
142.90753328823
 20
115.3965233747617
 30
0.0
 40
44.0000144765
100
AcDbArc
 50
282.2388815936998
 51
323.8742025326
  0
LINE
  5
2FBC
330
1A
100
AcDbEntity
  8
SEIHIN
100
AcDbLine
 10
187.0503505156301
 20
131.6032843957617
 30
0.0
 11
196.9592885665301
 21
131.6032843957617
 31
0.0
  0
LINE
  5
2FBD
330
1A
100
AcDbEntity
  8
SEIHIN
100
AcDbLine
 10
69.34201369323012
 20
157.3700943126617
 30
0.0
 11
69.74201369323009
 21
157.3700943126617
 31
0.0
  0
ARC
  5
2FBE
330
1A
100
AcDbEntity
  8
SEIHIN
100
AcDbCircle
 10
196.9592885665301
 20
112.5032843957616
 30
0.0
 40
3.6
100
AcDbArc
 50
270.0000000353
 51
0.0
  0
ARC
  5
2FBF
330
1A
100
AcDbEntity
  8
SEIHIN
100
AcDbCircle
 10
196.9592885665301
 20
112.5032843957616
 30
0.0
 40
2.0
100
AcDbArc
 50
270.0000000353
 51
0.0
  0
LINE
  5
2FC0
330
1A
100
AcDbEntity
  8
SEIHIN
100
AcDbLine
 10
193.3391592452301
 20
108.6394637188617
 30
0.0
 11
215.73053658723
 21
110.9928923108617
 31
0.0
  0
LINE
  5
2FC1
330
1A
100
AcDbEntity
  8
SEIHIN
100
AcDbLine
 10
193.8095373299301
 20
104.1641151896617
 30
0.0
 11
216.2009146719301
 21
106.5175437817617
 31
0.0
  0
ARC
  5
2FC2
330
1A
100
AcDbEntity
  8
SEIHIN
100
AcDbCircle
 10
-216.4099715984301
 20
104.5284999909617
 30
0.0
 40
2.0
210
0.0
220
0.0
230
-1.0
100
AcDbArc
 50
84.0
 51
158.1985905136999
  0
ARC
  5
2FC3
330
1A
100
AcDbEntity
  8
SEIHIN
100
AcDbCircle
 10
220.1073082837301
 20
196.4629804609617
 30
0.0
 40
0.5
100
AcDbArc
 50
180.0000000117
 51
239.0362434874
  0
LINE
  5
2FC4
330
1A
100
AcDbEntity
  8
SEIHIN
100
AcDbLine
 10
200.55928856653
 20
128.0032843957616
 30
0.0
 11
200.55928856653
 21
112.5032843957616
 31
0.0
  0
ARC
  5
2FC5
330
1A
100
AcDbEntity
  8
SEIHIN
100
AcDbCircle
 10
196.9592885665301
 20
128.0032843957616
 30
0.0
 40
2.0
100
AcDbArc
 50
0.0
 51
90.0000000118
  0
ARC
  5
2FC6
330
1A
100
AcDbEntity
  8
SEIHIN
100
AcDbCircle
 10
196.9592885665301
 20
128.0032843957616
 30
0.0
 40
3.6
100
AcDbArc
 50
0.0
 51
90.0000000118
  0
LINE
  5
2FC7
330
1A
100
AcDbEntity
  8
SEIHIN
100
AcDbLine
 10
74.24201369323009
 20
128.8306439493617
 30
0.0
 11
69.74201369323009
 21
128.8306439493617
 31
0.0
  0
ARC
  5
2FC8
330
1A
100
AcDbEntity
  8
SEIHIN
100
AcDbCircle
 10
187.0503505156301
 20
128.0032843957616
 30
0.0
 40
3.6
100
AcDbArc
 50
90.0000000118
 51
135.0000000175999
  0
ARC
  5
2FC9
330
1A
100
AcDbEntity
  8
SEIHIN
100
AcDbCircle
 10
185.3005098081301
 20
92.7132893245618
 30
0.0
 40
5.5
100
AcDbArc
 50
270.0000000353
 51
353.0000000461
  0
ARC
  5
2FCA
330
1A
100
AcDbEntity
  8
SEIHIN
100
AcDbCircle
 10
187.0503505156301
 20
128.0032843957616
 30
0.0
 40
2.0
100
AcDbArc
 50
90.0000000118
 51
135.0000000175999
  0
ARC
  5
2FCB
330
1A
100
AcDbEntity
  8
SEIHIN
100
AcDbCircle
 10
194.01859425643
 20
102.1750713989616
 30
0.0
 40
2.0
100
AcDbArc
 50
96.0000000125
 51
173.0000000225999
  0
ARC
  5
2FCC
330
1A
100
AcDbEntity
  8
SEIHIN
100
AcDbCircle
 10
190.95007686313
 20
105.9032843957617
 30
0.0
 40
3.0
100
AcDbArc
 50
90.0000000118
 51
173.0000000225999
  0
LINE
  5
2FCD
330
1A
100
AcDbEntity
  8
SEIHIN
100
AcDbLine
 10
69.34201369323012
 20
199.2739806651617
 30
0.0
 11
69.74201369323009
 21
199.2739806651617
 31
0.0
  0
LINE
  5
2FCE
330
1A
100
AcDbEntity
  8
SEIHIN
100
AcDbLine
 10
180.3408980390301
 20
199.2739806651617
 30
0.0
 11
200.55928856653
 21
199.2739806651617
 31
0.0
  0
LINE
  5
2FCF
330
1A
100
AcDbEntity
  8
SEIHIN
100
AcDbLine
 10
69.74201369323009
 20
196.7739806651617
 30
0.0
 11
74.24201369323009
 21
196.7739806651617
 31
0.0
  0
LINE
  5
2FD0
330
1A
100
AcDbEntity
  8
SEIHIN
100
AcDbLine
 10
190.95007686313
 20
108.9032843957617
 30
0.0
 11
196.9592885665301
 21
108.9032843957617
 31
0.0
  0
LINE
  5
2FD1
330
1A
100
AcDbEntity
  8
SEIHIN
100
AcDbLine
 10
218.26692498023
 20
105.2712813436617
 30
0.0
 11
219.46492482933
 21
102.2762817210617
 31
0.0
  0
LINE
  5
2FD2
330
1A
100
AcDbEntity
  8
SEIHIN
100
AcDbLine
 10
184.5047661033301
 20
130.5488688080616
 30
0.0
 11
180.3408980390301
 21
126.3850007437616
 31
0.0
  0
ARC
  5
2FD3
330
1A
100
AcDbEntity
  8
SEIHIN
100
AcDbCircle
 10
220.1073082837301
 20
196.4629804609617
 30
0.0
 40
2.1
100
AcDbArc
 50
180.0000042601999
 51
239.0362434874
  0
LINE
  5
2FD4
330
1A
100
AcDbEntity
  8
SEIHIN
100
AcDbLine
 10
219.60730828373
 20
196.4629804608617
 30
0.0
 11
219.60730828373
 21
196.7739806651617
 31
0.0
  0
LINE
  5
2FD5
330
1A
100
AcDbEntity
  8
SEIHIN
100
AcDbLine
 10
218.00730828373
 20
196.4629803048617
 30
0.0
 11
218.00730828373
 21
196.7739806651617
 31
0.0
  0
ARC
  5
2FD6
330
1A
100
AcDbEntity
  8
SEIHIN
100
AcDbCircle
 10
357.1054961173301
 20
139.7782939988617
 30
0.0
 40
3.0
100
AcDbArc
 50
21.80141119389998
 51
111.8014094981
  0
LINE
  5
2FD7
330
1A
100
AcDbEntity
  8
SEIHIN
100
AcDbLine
 10
312.83319256983
 20
156.2186687427617
 30
0.0
 11
326.7603429331301
 21
161.7895288880617
 31
0.0
  0
LINE
  5
2FD8
330
1A
100
AcDbEntity
  8
SEIHIN
100
AcDbLine
 10
334.62147189503
 20
142.1367064833617
 30
0.0
 11
323.40762470943
 21
170.1713244471617
 31
0.0
  0
LINE
  5
2FD9
330
1A
100
AcDbEntity
  8
SEIHIN
100
AcDbLine
 10
309.4804743462301
 20
164.6004643018617
 30
0.0
 11
323.40762470943
 21
170.1713244471617
 31
0.0
  0
LINE
  5
2FDA
330
1A
100
AcDbEntity
  8
SEIHIN
100
AcDbLine
 10
340.20722034323
 20
136.2500825735617
 30
0.0
 11
353.20589401563
 21
103.7533983925617
 31
0.0
  0
LINE
  5
2FDB
330
1A
100
AcDbEntity
  8
SEIHIN
100
AcDbLine
 10
353.7629800301301
 20
110.4384305668617
 30
0.0
 11
355.99132408833
 21
104.8675704215617
 31
0.0
  0
LINE
  5
2FDC
330
1A
100
AcDbEntity
  8
SEIHIN
100
AcDbLine
 10
331.4795394489301
 20
101.5250543343617
 30
0.0
 11
327.3013943399301
 21
99.85379629086175
 31
0.0
  0
LINE
  5
2FDD
330
1A
100
AcDbEntity
  8
SEIHIN
100
AcDbLine
 10
317.9237797620301
 20
127.3367063410617
 30
0.0
 11
320.15212382013
 21
121.7658461956617
 31
0.0
  0
LINE
  5
2FDE
330
1A
100
AcDbEntity
  8
SEIHIN
100
AcDbLine
 10
304.92510608963
 20
122.1372368720617
 30
0.0
 11
321.1734481801301
 21
128.6365737082617
 31
0.0
  0
CIRCLE
  5
2FDF
330
1A
100
AcDbEntity
  8
SEIHIN
100
AcDbCircle
 10
313.4670916457301
 20
116.9377674030616
 30
0.0
 40
2.1
  0
LINE
  5
2FE0
330
1A
100
AcDbEntity
  8
SEIHIN
100
AcDbLine
 10
303.2538480460301
 20
118.2376347703617
 30
0.0
 11
314.0241776602302
 21
91.31181073466176
 31
0.0
  0
ARC
  5
2FE1
330
1A
100
AcDbEntity
  8
SEIHIN
100
AcDbCircle
 10
316.80960773293
 20
92.42598276376172
 30
0.0
 40
3.0
100
AcDbArc
 50
201.8014095099
 51
291.8014095216
  0
CIRCLE
  5
2FE2
330
1A
100
AcDbEntity
  8
SEIHIN
100
AcDbCircle
 10
320.5235144964301
 20
99.29671027626174
 30
0.0
 40
2.1
  0
LINE
  5
2FE3
330
1A
100
AcDbEntity
  8
SEIHIN
100
AcDbLine
 10
321.6376865255301
 20
118.0519394321617
 30
0.0
 11
327.2085466708301
 21
104.1247890688617
 31
0.0
  0
ARC
  5
2FE4
330
1A
100
AcDbEntity
  8
SEIHIN
100
AcDbCircle
 10
367.8758257316301
 20
112.8524699631617
 30
0.0
 40
3.0
100
AcDbArc
 50
291.8014095216
 51
21.8014145132
  0
LINE
  5
2FE5
330
1A
100
AcDbEntity
  8
SEIHIN
100
AcDbLine
 10
318.3731298045301
 20
135.6373696471616
 30
0.0
 11
336.94266362223
 21
143.0651831742617
 31
0.0
  0
LINE
  5
2FE6
330
1A
100
AcDbEntity
  8
SEIHIN
100
AcDbLine
 10
320.24497148923
 20
117.4948534176617
 30
0.0
 11
318.7594087838301
 21
121.2087601811617
 31
0.0
  0
LINE
  5
2FE7
330
1A
100
AcDbEntity
  8
SEIHIN
100
AcDbLine
 10
322.9375538927301
 20
122.8800182247617
 30
0.0
 11
318.7594087838301
 21
121.2087601811617
 31
0.0
  0
LINE
  5
2FE8
330
1A
100
AcDbEntity
  8
SEIHIN
100
AcDbLine
 10
348.09927221573
 20
128.6365737082617
 30
0.0
 11
346.6137095103301
 21
132.3504804717617
 31
0.0
  0
LINE
  5
2FE9
330
1A
100
AcDbEntity
  8
SEIHIN
100
AcDbLine
 10
320.7092098346301
 20
128.4508783700617
 30
0.0
 11
333.70788350703
 21
95.9541941890618
 31
0.0
  0
LINE
  5
2FEA
330
1A
100
AcDbEntity
  8
SEIHIN
100
AcDbLine
 10
350.97754995753
 20
109.3242585378616
 30
0.0
 11
355.15569506653
 21
110.9955165814616
 31
0.0
  0
LINE
  5
2FEB
330
1A
100
AcDbEntity
  8
SEIHIN
100
AcDbLine
 10
355.15569506653
 20
110.9955165814616
 30
0.0
 11
353.6701323610301
 21
114.7094233449617
 31
0.0
  0
LINE
  5
2FEC
330
1A
100
AcDbEntity
  8
SEIHIN
100
AcDbLine
 10
359.89092615683
 20
140.8924661109617
 30
0.0
 11
370.66125570653
 21
113.9666422366617
 31
0.0
  0
LINE
  5
2FED
330
1A
100
AcDbEntity
  8
SEIHIN
100
AcDbLine
 10
342.4355644013301
 20
130.6792224281617
 30
0.0
 11
346.6137095103301
 21
132.3504804717617
 31
0.0
  0
LINE
  5
2FEE
330
1A
100
AcDbEntity
  8
SEIHIN
100
AcDbLine
 10
324.42311659823
 20
119.1661114612617
 30
0.0
 11
320.24497148923
 21
117.4948534176617
 31
0.0
  0
LINE
  5
2FEF
330
1A
100
AcDbEntity
  8
SEIHIN
100
AcDbLine
 10
336.94266362223
 20
143.0651831742617
 30
0.0
 11
352.74165567023
 21
103.5677030543616
 31
0.0
  0
LINE
  5
2FF0
330
1A
100
AcDbEntity
  8
SEIHIN
100
AcDbLine
 10
328.69410937623
 20
100.4108823053617
 30
0.0
 11
330.9224534344299
 21
94.8400221600618
 31
0.0
  0
LINE
  5
2FF1
330
1A
100
AcDbEntity
  8
SEIHIN
100
AcDbLine
 10
329.99397674353
 20
105.2389610979617
 30
0.0
 11
325.81583163453
 21
103.5677030543616
 31
0.0
  0
LINE
  5
2FF2
330
1A
100
AcDbEntity
  8
SEIHIN
100
AcDbLine
 10
346.70655717943
 20
128.0794876937616
 30
0.0
 11
352.2774173247301
 21
114.1523373304617
 31
0.0
  0
LINE
  5
2FF3
330
1A
100
AcDbEntity
  8
SEIHIN
100
AcDbLine
 10
327.3013943399301
 20
99.85379629086175
 30
0.0
 11
325.81583163453
 21
103.5677030543616
 31
0.0
  0
LINE
  5
2FF4
330
1A
100
AcDbEntity
  8
SEIHIN
100
AcDbLine
 10
339.7429819978301
 20
136.0643872353617
 30
0.0
 11
355.99132408833
 21
142.5637240715617
 31
0.0
  0
LINE
  5
2FF5
330
1A
100
AcDbEntity
  8
SEIHIN
100
AcDbLine
 10
349.49198725213
 20
113.0381653013617
 30
0.0
 11
353.6701323610301
 21
114.7094233449617
 31
0.0
  0
CIRCLE
  5
2FF6
330
1A
100
AcDbEntity
  8
SEIHIN
100
AcDbCircle
 10
360.4480122045301
 20
115.2665093594617
 30
0.0
 40
2.1
  0
ARC
  5
2FF7
330
1A
100
AcDbEntity
  8
SEIHIN
100
AcDbCircle
 10
306.03927811863
 20
119.3518067993617
 30
0.0
 40
3.0
100
AcDbArc
 50
111.8014094981
 51
201.8014095099
  0
LINE
  5
2FF8
330
1A
100
AcDbEntity
  8
SEIHIN
100
AcDbLine
 10
317.9237797620301
 20
89.64055269106175
 30
0.0
 11
368.98999776063
 21
110.0670398905617
 31
0.0
  0
LINE
  5
2FF9
330
1A
100
AcDbEntity
  8
SEIHIN
100
AcDbLine
 10
318.3731298045301
 20
135.6373696471616
 30
0.0
 11
334.1721218524301
 21
96.13988952726181
 31
0.0
  0
CIRCLE
  5
2FFA
330
1A
100
AcDbEntity
  8
SEIHIN
100
AcDbCircle
 10
353.39158935383
 20
132.9075664863617
 30
0.0
 40
2.1
  0
LINE
  5
2FFB
330
1A
100
AcDbEntity
  8
SEIHIN
100
AcDbLine
 10
342.9926504159301
 20
137.3642546025616
 30
0.0
 11
345.22099447403
 21
131.7933944572617
 31
0.0
  0
LINE
  5
2FFC
330
1A
100
AcDbEntity
  8
SEIHIN
100
AcDbLine
 10
343.9211271067301
 20
126.9653156646617
 30
0.0
 11
348.09927221573
 21
128.6365737082617
 31
0.0
  0
LINE
  5
2FFD
330
1A
100
AcDbEntity
  8
SEIHIN
100
AcDbLine
 10
320.69432153173
 20
136.5658463380617
 30
0.0
 11
309.4804743462301
 21
164.6004643018617
 31
0.0
  0
LINE
  5
2FFE
330
1A
100
AcDbEntity
  8
CENTER_L
100
AcDbLine
 10
308.8247036387919
 20
115.0820839637877
 30
0.0
 11
318.109561907601
 21
118.7957623192901
 31
0.0
  0
LINE
  5
2FFF
330
1A
100
AcDbEntity
  8
CENTER_L
100
AcDbLine
 10
315.3239719509476
 20
112.2964940071343
 30
0.0
 11
311.6102935954454
 21
121.5813522759435
 31
0.0
  0
LINE
  5
3000
330
1A
100
AcDbEntity
  8
CENTER_L
100
AcDbLine
 10
322.379960826402
 20
94.65526329639711
 30
0.0
 11
318.6662824708998
 21
103.9401215652062
 31
0.0
  0
LINE
  5
3001
330
1A
100
AcDbEntity
  8
CENTER_L
100
AcDbLine
 10
315.8806925142464
 20
97.44085325305045
 30
0.0
 11
325.1655507830556
 21
101.1545316085528
 31
0.0
  0
LINE
  5
3002
330
1A
100
AcDbEntity
  8
CENTER_L
100
AcDbLine
 10
355.8055830701257
 20
113.4096701817105
 30
0.0
 11
365.0904413389348
 21
117.1233485372129
 31
0.0
  0
LINE
  5
3003
330
1A
100
AcDbEntity
  8
CENTER_L
100
AcDbLine
 10
362.3048513822813
 20
110.6240802250571
 30
0.0
 11
358.5911730267789
 21
119.9089384938663
 31
0.0
  0
LINE
  5
3004
330
1A
100
AcDbEntity
  8
CENTER_L
100
AcDbLine
 10
348.7495941946712
 20
131.0509008924478
 30
0.0
 11
358.0344524634804
 21
134.7645792479501
 31
0.0
  0
LINE
  5
3005
330
1A
100
AcDbEntity
  8
CENTER_L
100
AcDbLine
 10
355.2488625068269
 20
128.2653109357944
 30
0.0
 11
351.5351841513244
 21
137.5501692046035
 31
0.0
  0
DIMENSION
  5
3006
330
1A
100
AcDbEntity
  8
SUNPOU
100
AcDbDimension
  2
*D2
 10
332.9217265612326
 20
183.9898234384706
 30
0.0
 11
312.3945310155666
 21
175.7795309827215
 31
0.0
 70
   160
  3
STANDARD
100
AcDbAlignedDimension
 13
311.3551309275657
 23
122.1219947773627
 33
0.0
 14
351.2800214834449
 24
138.0908117060228
 34
0.0
 50
21.79999999999983
100
AcDbRotatedDimension
1001
ACAD
1000
DSTYLE
1002
{
1070
   140
1040
3.0
1070
    74
1070
     0
1070
   172
1070
     1
1070
    73
1070
     0
1070
   272
1070
     0
1070
    77
1070
     3
1070
   173
1070
     1
1070
   147
1040
1.0
1070
    42
1040
3.0
1070
    44
1040
1.5
1070
    43
1040
7.0
1070
   271
1070
     0
1070
   178
1070
   256
1070
   177
1070
   256
1070
   176
1070
   256
1070
   141
1040
3.0
1070
     7
1000
OPEN
1070
     6
1000
OPEN
1070
    41
1040
3.0
1002
}
  0
DIMENSION
  5
3007
330
1A
100
AcDbEntity
  8
SUNPOU
100
AcDbDimension
  2
*D1
 10
337.9703225024517
 20
195.602165192678
 30
0.0
 11
308.7230851937083
 21
186.5966607755982
 31
0.0
 70
    32
  3
STANDARD
100
AcDbAlignedDimension
 13
302.9987584856373
 23
118.7796842574106
 33
0.0
 14
359.6363938921728
 24
141.4331223089815
 34
0.0
 50
21.79999999999983
100
AcDbRotatedDimension
1001
ACAD
1000
DSTYLE
1002
{
1070
   140
1040
3.0
1070
    74
1070
     0
1070
   172
1070
     1
1070
    73
1070
     0
1070
   272
1070
     0
1070
    77
1070
     3
1070
   173
1070
     1
1070
   147
1040
1.0
1070
    42
1040
3.0
1070
    44
1040
1.5
1070
    43
1040
7.0
1070
   271
1070
     0
1070
   178
1070
   256
1070
   177
1070
   256
1070
   176
1070
   256
1070
   141
1040
3.0
1070
     7
1000
OPEN
1070
     6
1000
OPEN
1070
    41
1040
3.0
1002
}
  0
DIMENSION
  5
3008
330
1A
100
AcDbEntity
  8
SUNPOU
100
AcDbDimension
  2
*D4
 10
297.9815320607615
 20
110.7438264915538
 30
0.0
 11
298.8172752857629
 21
115.386189387953
 31
0.0
 70
    32
  3
STANDARD
100
AcDbAlignedDimension
 13
304.92510608953
 23
122.1372368719616
 33
0.0
 14
308.8245346008129
 24
115.0807180924646
 34
0.0
 50
111.7999999999997
100
AcDbRotatedDimension
1001
ACAD
1000
DSTYLE
1002
{
1070
   140
1040
3.0
1070
    74
1070
     0
1070
   172
1070
     1
1070
    73
1070
     0
1070
   272
1070
     0
1070
    77
1070
     3
1070
   173
1070
     1
1070
   147
1040
1.0
1070
    42
1040
3.0
1070
    44
1040
1.5
1070
    43
1040
7.0
1070
   271
1070
     0
1070
   178
1070
   256
1070
   177
1070
   256
1070
   176
1070
   256
1070
   141
1040
3.0
1070
     7
1000
OPEN
1070
     6
1000
OPEN
1070
    41
1040
3.0
1002
}
  0
DIMENSION
  5
3009
330
1A
100
AcDbEntity
  8
SUNPOU
100
AcDbDimension
  2
*D3
 10
299.7894423302257
 20
82.38733518698939
 30
0.0
 11
295.6117197752989
 21
99.56425674628091
 31
0.0
 70
    32
  3
STANDARD
100
AcDbAlignedDimension
 13
304.92510608953
 23
122.1372368719616
 33
0.0
 14
317.9229803355044
 24
89.6402329318162
 34
0.0
 50
111.7999999999997
100
AcDbRotatedDimension
1001
ACAD
1000
DSTYLE
1002
{
1070
   140
1040
3.0
1070
    74
1070
     0
1070
   172
1070
     1
1070
    73
1070
     0
1070
   272
1070
     0
1070
    77
1070
     3
1070
   173
1070
     1
1070
   147
1040
1.0
1070
    42
1040
3.0
1070
    44
1040
1.5
1070
    43
1040
7.0
1070
   271
1070
     0
1070
   178
1070
   256
1070
   177
1070
   256
1070
   176
1070
   256
1070
   141
1040
3.0
1070
     7
1000
OPEN
1070
     6
1000
OPEN
1070
    41
1040
3.0
1002
}
  0
DIMENSION
  5
300A
330
1A
100
AcDbEntity
  8
SUNPOU
100
AcDbDimension
  2
*D5
 10
308.0084636206179
 20
85.67470916576928
 30
0.0
 11
308.8442068456193
 21
90.31707206216843
 31
0.0
 70
    32
  3
STANDARD
100
AcDbAlignedDimension
 13
315.8805234762674
 23
97.43948738172726
 33
0.0
 14
317.9229803355044
 24
89.6402329318162
 34
0.0
 50
111.7999999999997
100
AcDbRotatedDimension
1001
ACAD
1000
DSTYLE
1002
{
1070
   140
1040
3.0
1070
    74
1070
     0
1070
   172
1070
     1
1070
    73
1070
     0
1070
   272
1070
     0
1070
    77
1070
     3
1070
   173
1070
     1
1070
   147
1040
1.0
1070
    42
1040
3.0
1070
    44
1040
1.5
1070
    43
1040
7.0
1070
   271
1070
     0
1070
   178
1070
   256
1070
   177
1070
   256
1070
   176
1070
   256
1070
   141
1040
3.0
1070
     7
1000
OPEN
1070
     6
1000
OPEN
1070
    41
1040
3.0
1002
}
  0
LEADER
  5
300B
330
1A
100
AcDbEntity
  8
SUNPOU
100
AcDbLeader
  3
STANDARD
 76
     3
 10
311.5531762394202
 20
118.7673555755418
 30
0.0
 10
288.0765054778052
 20
133.761287496374
 30
0.0
 10
265.0933651023519
 20
124.5686871913679
 30
0.0
211
0.9284858268809136
221
0.3713678355502348
231
0.0
1001
ACAD
1000
DSTYLE
1002
{
1070
     6
1000
OPEN
1070
    41
1040
3.0
1070
    42
1040
3.0
1070
    43
1040
7.0
1070
    44
1040
1.5
1070
    73
1070
     0
1070
    74
1070
     0
1070
    77
1070
     3
1070
   140
1040
3.0
1070
   141
1040
3.0
1070
   147
1040
1.0
1070
   172
1070
     1
1070
   173
1070
     1
1070
   176
1070
   256
1070
   177
1070
   256
1070
   178
1070
   256
1070
   271
1070
     0
1070
   272
1070
     0
1070
   341
1005
B2
1070
   343
1005
B2
1070
   344
1005
B2
1002
}
1000
LEANOF
1010
0.0
1020
0.0
1030
0.0
  0
TEXT
  5
300C
330
1A
100
AcDbEntity
  8
SUNPOU
100
AcDbText
 10
265.8392652545707
 20
126.3067519089086
 30
0.0
 40
4.0
  1
4-φ4.2
 50
21.79999999999982
100
AcDbText
  0
DIMENSION
  5
304D
330
1A
100
AcDbEntity
  8
SUNPOU
100
AcDbDimension
  2
*D6
 10
252.062540699491
 20
77.6191744191063
 30
0.0
 11
247.8843955905041
 21
94.79599320049157
 31
0.0
 70
    33
  3
STANDARD
100
AcDbAlignedDimension
 13
224.1073082837298
 23
104.1332351027617
 33
0.0
 14
237.10598195613
 24
71.63655092176179
 34
0.0
1001
ACAD
1000
DSTYLE
1002
{
1070
   140
1040
3.0
1070
    74
1070
     0
1070
   172
1070
     1
1070
    73
1070
     0
1070
   272
1070
     2
1070
    77
1070
     3
1070
   173
1070
     1
1070
   147
1040
1.0
1070
    42
1040
3.0
1070
    44
1040
1.5
1070
    43
1040
7.0
1070
   271
1070
     0
1070
   178
1070
     4
1070
   177
1070
     4
1070
   176
1070
     4
1070
   141
1040
3.0
1070
     7
1000
_OPEN
1070
     6
1000
_OPEN
1070
    41
1040
3.0
1002
}
  0
LINE
  5
304E
330
1A
100
AcDbEntity
  8
CENTER_L
100
AcDbLine
 10
239.1486306762674
 20
101.5335003682246
 30
0.0
 11
215.0082367131692
 21
91.87734278322214
 31
0.0
  0
LINE
  5
304F
330
1A
100
AcDbEntity
  8
CENTER_L
100
AcDbLine
 10
246.2050535268463
 20
83.8924432413451
 30
0.0
 11
222.0646595637481
 21
74.23628565634253
 31
0.0
  0
LINE
  5
3050
330
1A
100
AcDbEntity
  8
SUNPOU
100
AcDbLine
 10
237.10598195613
 20
71.63655092176179
 30
0.0
 11
246.4532606784301
 21
48.2683541160618
 31
0.0
  0
MTEXT
  5
3051
330
1A
100
AcDbEntity
  8
SUNPOU
100
AcDbMText
 10
243.78216633413
 20
46.40849730276181
 30
0.0
 40
3.5983331442
 41
8.626259690899999
 71
     1
 72
     5
  1
\W0.8;4
1001
ACAD
1000
MTEXTBEGIN
1070
    73
1070
     1
1070
    44
1040
1.0
1070
    74
1070
     0
1000
MTEXTEND
1000
MTEXTBEGIN
1070
    73
1070
     1
1070
    44
1040
1.0
1070
    74
1070
     0
1000
MTEXTEND
1000
MTEXTBEGIN
1070
    73
1070
     1
1070
    44
1040
1.0
1070
    74
1070
     0
1000
MTEXTEND
1000
MTEXTBEGIN
1070
    73
1070
     1
1070
    44
1040
1.0
1070
    74
1070
     0
1000
MTEXTEND
  0
LINE
  5
3052
330
1A
100
AcDbEntity
  8
SUNPOU
100
AcDbLine
 10
246.4532606784301
 20
48.2683541160618
 30
0.0
 11
242.4532606784301
 21
48.2683541160618
 31
0.0
  0
MTEXT
  5
3053
330
1A
100
AcDbEntity
  8
SUNPOU
100
AcDbMText
 10
236.41942228363
 20
55.10573822876182
 30
0.0
 40
3.5983331442
 41
11.8309251626
 71
     1
 72
     5
  1
\W0.8;10
1001
ACAD
1000
MTEXTBEGIN
1070
    73
1070
     1
1070
    44
1040
1.0
1070
    74
1070
     0
1000
MTEXTEND
1000
MTEXTBEGIN
1070
    73
1070
     1
1070
    44
1040
1.0
1070
    74
1070
     0
1000
MTEXTEND
1000
MTEXTBEGIN
1070
    73
1070
     1
1070
    44
1040
1.0
1070
    74
1070
     0
1000
MTEXTEND
1000
MTEXTBEGIN
1070
    73
1070
     1
1070
    44
1040
1.0
1070
    74
1070
     0
1000
MTEXTEND
  0
LINE
  5
3054
330
1A
100
AcDbEntity
  8
SUNPOU
100
AcDbLine
 10
242.4532606784301
 20
48.2683541160618
 30
0.0
 11
242.4532606784301
 21
58.2683541160618
 31
0.0
  0
DIMENSION
  5
3062
330
1A
100
AcDbEntity
  8
SUNPOU
100
AcDbDimension
  2
*D8
 10
69.34201369463017
 20
170.6135063911272
 30
0.0
 11
141.5506511305801
 21
173.1135063911272
 31
0.0
 70
    32
  3
STANDARD
100
AcDbAlignedDimension
 13
213.7592885665301
 23
130.0032843957616
 33
0.0
 14
69.34201369463017
 24
157.3700943092616
 34
0.0
100
AcDbRotatedDimension
1001
ACAD
1000
DSTYLE
1002
{
1070
   140
1040
3.0
1070
    74
1070
     0
1070
   172
1070
     1
1070
    73
1070
     0
1070
   272
1070
     2
1070
    77
1070
     3
1070
   173
1070
     1
1070
   147
1040
1.0
1070
    42
1040
3.0
1070
    44
1040
1.5
1070
    43
1040
7.0
1070
   271
1070
     0
1070
   178
1070
     4
1070
   177
1070
     4
1070
   176
1070
     4
1070
   141
1040
3.0
1070
     7
1000
_OPEN
1070
     6
1000
_OPEN
1070
    41
1040
3.0
1002
}
  0
DIMENSION
  5
3063
330
1A
100
AcDbEntity
  8
SUNPOU
100
AcDbDimension
  2
*D7
 10
213.7592885665301
 20
146.0412871261467
 30
0.0
 11
206.3592885672301
 21
148.5412871261467
 31
0.0
 70
    32
  3
STANDARD
100
AcDbAlignedDimension
 13
198.9592885679301
 23
128.0032843923617
 33
0.0
 14
213.7592885665301
 24
130.0032843957616
 34
0.0
100
AcDbRotatedDimension
1001
ACAD
1000
DSTYLE
1002
{
1070
   140
1040
3.0
1070
    74
1070
     0
1070
   172
1070
     1
1070
    73
1070
     0
1070
   272
1070
     2
1070
    77
1070
     3
1070
   173
1070
     1
1070
   147
1040
1.0
1070
    42
1040
3.0
1070
    44
1040
1.5
1070
    43
1040
7.0
1070
   271
1070
     0
1070
   178
1070
     4
1070
   177
1070
     4
1070
   176
1070
     4
1070
   141
1040
3.0
1070
     7
1000
_OPEN
1070
     6
1000
_OPEN
1070
    41
1040
3.0
1002
}
  0
LINE
  5
307C
330
1A
100
AcDbEntity
  8
CENTER_L
100
AcDbLine
 10
227.0782173782301
 20
225.7739806651617
 30
0.0
 11
227.0782173782301
 21
231.7739806651617
 31
0.0
  0
LINE
  5
307D
330
1A
100
AcDbEntity
  8
CENTER_L
100
AcDbLine
 10
224.0782173782302
 20
228.7739806651616
 30
0.0
 11
230.07821737823
 21
228.7739806651617
 31
0.0
  0
LINE
  5
307E
330
1A
100
AcDbEntity
  8
CENTER_L
100
AcDbLine
 10
231.13464148413
 20
228.7739806651616
 30
0.0
 11
237.13464148413
 21
228.7739806651617
 31
0.0
  0
LINE
  5
307F
330
1A
100
AcDbEntity
  8
CENTER_L
100
AcDbLine
 10
234.1346414841301
 20
225.7739806651617
 30
0.0
 11
234.1346414841301
 21
231.7739806651617
 31
0.0
  0
LINE
  5
3080
330
1A
100
AcDbEntity
  8
CENTER_L
100
AcDbLine
 10
227.0782173782301
 20
181.7739806651617
 30
0.0
 11
227.0782173782301
 21
187.7739806651617
 31
0.0
  0
LINE
  5
3081
330
1A
100
AcDbEntity
  8
CENTER_L
100
AcDbLine
 10
234.1346414841301
 20
181.7739806651617
 30
0.0
 11
234.1346414841301
 21
187.7739806651617
 31
0.0
  0
LINE
  5
3082
330
1A
100
AcDbEntity
  8
CENTER_L
100
AcDbLine
 10
231.13464148413
 20
184.7739806651616
 30
0.0
 11
237.13464148413
 21
184.7739806651617
 31
0.0
  0
LINE
  5
3083
330
1A
100
AcDbEntity
  8
CENTER_L
100
AcDbLine
 10
224.0782173782302
 20
184.7739806651616
 30
0.0
 11
230.07821737823
 21
184.7739806651617
 31
0.0
  0
DIMENSION
  5
3084
330
1A
100
AcDbEntity
  8
SUNPOU
100
AcDbDimension
  2
*D9
 10
251.8497707099516
 20
176.2739806651617
 30
0.0
 11
249.3497707099516
 21
206.7739806651616
 31
0.0
 70
    32
  3
STANDARD
100
AcDbAlignedDimension
 13
235.7642943514079
 23
237.2739806651615
 33
0.0
 14
235.7642943514079
 24
176.2739806651617
 34
0.0
 50
90.0
100
AcDbRotatedDimension
1001
ACAD
1000
DSTYLE
1002
{
1070
   140
1040
3.0
1070
    74
1070
     0
1070
   172
1070
     1
1070
    73
1070
     0
1070
   272
1070
     2
1070
    77
1070
     3
1070
   173
1070
     1
1070
   147
1040
1.0
1070
    42
1040
3.0
1070
    44
1040
1.5
1070
    43
1040
7.0
1070
   271
1070
     0
1070
   178
1070
     4
1070
   177
1070
     4
1070
   176
1070
     4
1070
   141
1040
3.0
1070
     7
1000
_OPEN
1070
     6
1000
_OPEN
1070
    41
1040
3.0
1002
}
  0
LINE
  5
3091
330
1A
100
AcDbEntity
  8
SEIHIN
100
AcDbLine
 10
223.8489958885524
 20
176.2739806651617
 30
0.0
 11
235.7642943513076
 21
176.2739806651617
 31
0.0
  0
LINE
  5
3094
330
1A
100
AcDbEntity
  8
SEIHIN
100
AcDbLine
 10
223.8489958885524
 20
237.2739806651617
 30
0.0
 11
235.7642943513077
 21
237.2739806651616
 31
0.0
  0
LINE
  5
30AD
330
1A
100
AcDbEntity
  8
CENTER_L
100
AcDbLine
 10
246.6059819561301
 20
206.7739806651617
 30
0.0
 11
59.74201369323009
 21
206.7739806651617
 31
0.0
  0
DIMENSION
  5
30BC
330
1A
100
AcDbEntity
  8
SUNPOU
100
AcDbDimension
  2
*D10
 10
45.56221688976529
 20
196.7739806651617
 30
0.0
 11
43.06221688976526
 21
206.7739806651617
 31
0.0
 70
    32
  3
STANDARD
100
AcDbAlignedDimension
 13
69.74201369323009
 23
216.7739806651617
 33
0.0
 14
69.74201369323009
 24
196.7739806651617
 34
0.0
 50
90.0
100
AcDbRotatedDimension
1001
ACAD
1000
DSTYLE
1002
{
1070
   140
1040
3.0
1070
    74
1070
     0
1070
   172
1070
     1
1070
    73
1070
     0
1070
   272
1070
     2
1070
    77
1070
     3
1070
   173
1070
     1
1070
   147
1040
1.0
1070
    42
1040
3.0
1070
    44
1040
1.5
1070
    43
1040
7.0
1070
   271
1070
     0
1070
   178
1070
     4
1070
   177
1070
     4
1070
   176
1070
     4
1070
   141
1040
3.0
1070
     7
1000
_OPEN
1070
     6
1000
_OPEN
1070
    41
1040
3.0
1002
}
  0
LINE
  5
319F
330
1A
100
AcDbEntity
  8
CENTER_L
100
AcDbLine
 10
345.3137279390811
 20
95.2113671564072
 30
0.0
 11
314.2841112207321
 21
172.7909434647551
 31
0.0
  0
LINE
  5
31FB
330
1A
100
AcDbEntity
  8
NOKITOI
  6
PHANTOM
 62
     8
100
AcDbLine
 10
75.98023726307985
 20
127.3964671450617
 30
0.0
 11
79.30683726308018
 21
127.3965671450618
 31
0.0
  0
ARC
  5
31FC
330
1A
100
AcDbEntity
  8
NOKITOI
  6
PHANTOM
 62
     8
100
AcDbCircle
 10
79.03700789058041
 20
120.8741973775566
 30
0.0
 40
0.4999578477751074
100
AcDbArc
 50
351.8669438287067
 51
96.47390928779252
  0
ARC
  5
31FD
330
1A
100
AcDbEntity
  8
NOKITOI
  6
PHANTOM
 62
     8
100
AcDbCircle
 10
79.43175512943128
 20
117.3965758734416
 30
0.0
 40
5.199991271650611
100
AcDbArc
 50
90.00019685927602
 51
142.0746713952677
  0
ARC
  5
31FE
330
1A
100
AcDbEntity
  8
NOKITOI
  6
PHANTOM
 62
     8
100
AcDbCircle
 10
79.69322707664389
 20
118.3965788897858
 30
0.0
 40
0.500011744827831
100
AcDbArc
 50
171.8726853912846
 51
270.0011672522
  0
LINE
  5
31FF
330
1A
100
AcDbEntity
  8
NOKITOI
  6
PHANTOM
 62
     8
100
AcDbLine
 10
77.95293726308011
 20
123.6965671450618
 30
0.0
 11
80.88953726308011
 21
123.6965671450618
 31
0.0
  0
LINE
  5
3200
330
1A
100
AcDbEntity
  8
NOKITOI
  6
PHANTOM
 62
     8
100
AcDbLine
 10
83.55023726308047
 20
112.5965671450617
 30
0.0
 11
77.51833726308007
 21
112.5965671450617
 31
0.0
  0
LINE
  5
3201
330
1A
100
AcDbEntity
  8
NOKITOI
  6
PHANTOM
 62
     8
100
AcDbLine
 10
75.87063726308008
 20
111.3965671450616
 30
0.0
 11
82.0117372630799
 21
111.3965671450616
 31
0.0
  0
LINE
  5
3202
330
1A
100
AcDbEntity
  8
NOKITOI
  6
PHANTOM
 62
     8
100
AcDbLine
 10
73.98123726308006
 20
125.3340671450617
 30
0.0
 11
74.37133726308013
 21
112.8496671450616
 31
0.0
  0
LINE
  5
3203
330
1A
100
AcDbEntity
  8
NOKITOI
  6
PHANTOM
 62
     8
100
AcDbLine
 10
75.18063726308048
 20
125.3715671450617
 30
0.0
 11
75.32993726308006
 21
120.5925671450618
 31
0.0
  0
LINE
  5
3204
330
1A
100
AcDbEntity
  8
NOKITOI
  6
PHANTOM
 62
     8
100
AcDbLine
 10
75.51923726308007
 20
114.5339671450617
 30
0.0
 11
75.43373726308039
 21
117.2715671450617
 31
0.0
  0
ARC
  5
3205
330
1A
100
AcDbEntity
  8
NOKITOI
  6
PHANTOM
 62
     8
100
AcDbCircle
 10
75.87062004990196
 20
112.8965838282095
 30
0.0
 40
1.500016683246579
100
AcDbArc
 50
181.7923576755886
 51
270.0006574876639
  0
ARC
  5
3206
330
1A
100
AcDbEntity
  8
NOKITOI
  6
PHANTOM
 62
     8
100
AcDbCircle
 10
77.5182992752558
 20
114.5965039656339
 30
0.0
 40
2.000036820932881
100
AcDbArc
 50
181.7889408725804
 51
270.0010882509654
  0
ARC
  5
3207
330
1A
100
AcDbEntity
  8
NOKITOI
  6
PHANTOM
 62
     8
100
AcDbCircle
 10
79.43176819001621
 20
117.3966028897255
 30
0.0
 40
3.99998565374706
100
AcDbArc
 50
96.4757761953165
 51
181.7913033408989
  0
ARC
  5
3208
330
1A
100
AcDbEntity
  8
NOKITOI
  6
PHANTOM
 62
     8
100
AcDbCircle
 10
75.98024850007425
 20
125.3965787388788
 30
0.0
 40
1.999988406214314
100
AcDbArc
 50
90.00032191804612
 51
181.7911273464062
  0
ARC
  5
3209
330
1A
100
AcDbEntity
  8
NOKITOI
  6
PHANTOM
 62
     8
100
AcDbCircle
 10
75.98019329672718
 20
125.3965217825887
 30
0.0
 40
0.7999453636812564
100
AcDbArc
 50
89.99685092684575
 51
181.7876563552118
  0
LINE
  5
320A
330
1A
100
AcDbEntity
  8
NOKITOI
  6
PHANTOM
 62
     8
100
AcDbLine
 10
75.98023726307985
 20
126.1964671450616
 30
0.0
 11
78.45293726308011
 21
126.1965671450618
 31
0.0
  0
LINE
  5
320B
330
1A
100
AcDbEntity
  8
NOKITOI
  6
PHANTOM
 62
     8
100
AcDbLine
 10
78.45293726308011
 20
126.1965671450618
 30
0.0
 11
77.95293726308011
 21
123.6965671450618
 31
0.0
  0
ARC
  5
320C
330
1A
100
AcDbEntity
  8
NOKITOI
  6
PHANTOM
 62
     8
100
AcDbCircle
 10
142.103131181112
 20
115.3965615204054
 30
0.0
 40
41.79999437547816
100
AcDbArc
 50
270.0001454078909
 51
355.5257047874752
  0
ARC
  5
320D
330
1A
100
AcDbEntity
  8
NOKITOI
  6
PHANTOM
 62
     8
100
AcDbCircle
 10
142.1031534895374
 20
115.3965816214318
 30
0.0
 40
43.00001447645168
100
AcDbArc
 50
270.0001116248562
 51
353.4750892928824
  0
LINE
  5
320E
330
1A
100
AcDbEntity
  8
NOKITOI
  6
PHANTOM
 62
     8
100
AcDbLine
 10
83.0067372630798
 20
110.4960671450617
 30
0.0
 11
85.87553726308
 21
81.80866714506175
 31
0.0
  0
LINE
  5
320F
330
1A
100
AcDbEntity
  8
NOKITOI
  6
PHANTOM
 62
     8
100
AcDbLine
 10
84.04773726307997
 20
112.1463671450617
 30
0.0
 11
87.04073726308036
 21
82.21656714506167
 31
0.0
  0
LINE
  5
3210
330
1A
100
AcDbEntity
  8
NOKITOI
  6
PHANTOM
 62
     8
100
AcDbLine
 10
101.5235372630801
 20
73.59646714506181
 30
0.0
 11
121.4316372630797
 21
73.59646714506181
 31
0.0
  0
LINE
  5
3211
330
1A
100
AcDbEntity
  8
NOKITOI
  6
PHANTOM
 62
     8
100
AcDbLine
 10
101.27373726308
 20
72.39646714506176
 30
0.0
 11
121.4316372630797
 21
72.39646714506176
 31
0.0
  0
LINE
  5
3212
330
1A
100
AcDbEntity
  8
NOKITOI
  6
PHANTOM
 62
     8
100
AcDbLine
 10
97.27373726308009
 20
72.39646714506176
 30
0.0
 11
142.1031372630801
 21
72.39656714506174
 31
0.0
  0
LINE
  5
3213
330
1A
100
AcDbEntity
  8
NOKITOI
  6
PHANTOM
 62
     8
100
AcDbLine
 10
142.1031372630801
 20
73.59656714506178
 30
0.0
 11
97.52353726308014
 21
73.59646714506181
 31
0.0
  0
LINE
  5
3214
330
1A
100
AcDbEntity
  8
NOKITOI
  6
PHANTOM
 62
     8
100
AcDbLine
 10
86.23733726308012
 20
81.1341671450619
 30
0.0
 11
96.64043726308012
 21
72.62246714506187
 31
0.0
  0
LINE
  5
3215
330
1A
100
AcDbEntity
  8
NOKITOI
  6
PHANTOM
 62
     8
100
AcDbLine
 10
87.22163726307973
 20
81.87926714506176
 30
0.0
 11
97.20693726308002
 21
73.70946714506164
 31
0.0
  0
ARC
  5
3216
330
1A
100
AcDbEntity
  8
NOKITOI
  6
PHANTOM
 62
     8
100
AcDbCircle
 10
97.52353087533141
 20
74.09646942505133
 30
0.0
 40
0.5000022800304047
100
AcDbArc
 50
230.7145501403943
 51
270.0007319787208
  0
ARC
  5
3217
330
1A
100
AcDbEntity
  8
NOKITOI
  6
PHANTOM
 62
     8
100
AcDbCircle
 10
97.27374419565752
 20
73.39646467005565
 30
0.0
 40
0.9999975250179316
100
AcDbArc
 50
230.7053583247715
 51
269.999602791598
  0
ARC
  5
3218
330
1A
100
AcDbEntity
  8
NOKITOI
  6
PHANTOM
 62
     8
100
AcDbCircle
 10
86.87055983594893
 20
81.90812507338916
 30
0.0
 40
0.9999908507640039
100
AcDbArc
 50
185.713767052247
 51
230.711290776931
  0
ARC
  5
3219
330
1A
100
AcDbEntity
  8
NOKITOI
  6
PHANTOM
 62
     8
100
AcDbCircle
 10
87.53825468895831
 20
82.2662346586738
 30
0.0
 40
0.4999904508696396
100
AcDbArc
 50
185.7009889250759
 51
230.7099153622053
  0
LINE
  5
321A
330
1A
100
AcDbEntity
  8
NOKITOI
  6
PHANTOM
 62
     8
100
AcDbLine
 10
81.27823726308008
 20
119.0965671450617
 30
0.0
 11
81.45933726308033
 21
122.5379671450616
 31
0.0
  0
LINE
  5
321B
330
1A
100
AcDbEntity
  8
NOKITOI
  6
PHANTOM
 62
     8
100
AcDbLine
 10
80.90433726308004
 20
121.9249671450616
 30
0.0
 11
81.45933726308033
 21
122.5379671450616
 31
0.0
  0
LINE
  5
321C
330
1A
100
AcDbEntity
  8
NOKITOI
  6
PHANTOM
 62
     8
100
AcDbLine
 10
82.44163726308
 20
118.3702671450617
 30
0.0
 11
82.7574372630803
 21
124.3702671450617
 31
0.0
  0
ARC
  5
321D
330
1A
100
AcDbEntity
  8
NOKITOI
  6
PHANTOM
 62
     8
100
AcDbCircle
 10
82.01171661323916
 20
110.3965858329109
 30
0.0
 40
0.9999813123640343
100
AcDbArc
 50
5.70940996664858
 51
89.99881682915088
  0
ARC
  5
321E
330
1A
100
AcDbEntity
  8
NOKITOI
  6
PHANTOM
 62
     8
100
AcDbCircle
 10
83.55022419207546
 20
112.0965789753416
 30
0.0
 40
0.4999881698908891
100
AcDbArc
 50
5.703393862283571
 51
89.99850213773529
  0
LINE
  5
321F
330
1A
100
AcDbEntity
  8
NOKITOI
  6
PHANTOM
 62
     8
100
AcDbLine
 10
80.50033726308049
 20
119.0965671450617
 30
0.0
 11
80.90433726308004
 21
121.9249671450616
 31
0.0
  0
LINE
  5
3220
330
1A
100
AcDbEntity
  8
NOKITOI
  6
PHANTOM
 62
     8
100
AcDbLine
 10
81.27823726308008
 20
119.0965671450617
 30
0.0
 11
80.50033726308049
 21
119.0965671450617
 31
0.0
  0
ARC
  5
3221
330
1A
100
AcDbEntity
  8
NOKITOI
  6
PHANTOM
 62
     8
100
AcDbCircle
 10
81.94233314167343
 20
118.3965632350312
 30
0.0
 40
0.4999960899864753
100
AcDbArc
 50
270.0004722821422
 51
356.9852756208259
  0
LINE
  5
3222
330
1A
100
AcDbEntity
  8
NOKITOI
  6
PHANTOM
 62
     8
100
AcDbLine
 10
79.19823726308016
 20
118.4672671450617
 30
0.0
 11
79.53203726308004
 21
120.8034671450618
 31
0.0
  0
LINE
  5
3223
330
1A
100
AcDbEntity
  8
NOKITOI
  6
PHANTOM
 62
     8
100
AcDbLine
 10
81.94233726308004
 20
117.8965671450617
 30
0.0
 11
79.69323726308051
 21
117.8965671450617
 31
0.0
  0
ARC
  5
3224
330
1A
100
AcDbEntity
  8
NOKITOI
  6
PHANTOM
 62
     8
100
AcDbCircle
 10
80.02663804608857
 20
125.3965661900599
 30
0.0
 40
0.4999990449987399
100
AcDbArc
 50
168.6967198015451
 51
269.9999102736965
  0
ARC
  5
3225
330
1A
100
AcDbEntity
  8
NOKITOI
  6
PHANTOM
 62
     8
100
AcDbCircle
 10
79.30684451763557
 20
126.8965582952182
 30
0.0
 40
0.500008849895925
100
AcDbArc
 50
348.6864043304874
 51
90.00083129614585
  0
LINE
  5
3226
330
1A
100
AcDbEntity
  8
NOKITOI
  6
PHANTOM
 62
     8
100
AcDbLine
 10
79.5363372630801
 20
125.4945671450618
 30
0.0
 11
79.79713726308012
 21
126.7985671450617
 31
0.0
  0
LINE
  5
3227
330
1A
100
AcDbEntity
  8
NOKITOI
  6
PHANTOM
 62
     8
100
AcDbLine
 10
82.2581372630799
 20
124.8965671450616
 30
0.0
 11
80.02663726308004
 21
124.8965671450616
 31
0.0
  0
LINE
  5
3228
330
1A
100
AcDbEntity
  8
NOKITOI
  6
PHANTOM
 62
     8
100
AcDbLine
 10
79.89373726307997
 20
122.5965671450617
 30
0.0
 11
79.43173726307998
 21
122.5965671450617
 31
0.0
  0
LINE
  5
3229
330
1A
100
AcDbEntity
  8
NOKITOI
  6
PHANTOM
 62
     8
100
AcDbLine
 10
79.89373726307997
 20
122.5965671450617
 30
0.0
 11
80.88953726308011
 21
123.6965671450618
 31
0.0
  0
ARC
  5
322A
330
1A
100
AcDbEntity
  8
NOKITOI
  6
PHANTOM
 62
     8
100
AcDbCircle
 10
82.2581335535848
 20
124.3965710550924
 30
0.0
 40
0.4999960899831856
100
AcDbArc
 50
356.9843782585352
 51
89.99957491985082
  0
ARC
  5
322B
330
1A
100
AcDbEntity
  8
NOKITOI
  6
PHANTOM
 62
     8
100
AcDbCircle
 10
188.4015170504109
 20
117.3966258734417
 30
0.0
 40
5.2000412730095
100
AcDbArc
 50
37.92420092094485
 51
89.99867545693819
  0
LINE
  5
322C
330
1A
100
AcDbEntity
  8
NOKITOI
  6
PHANTOM
 62
     8
100
AcDbLine
 10
186.5552372630801
 20
119.0965671450617
 30
0.0
 11
186.3740372630801
 21
122.5380671450618
 31
0.0
  0
LINE
  5
322D
330
1A
100
AcDbEntity
  8
NOKITOI
  6
PHANTOM
 62
     8
100
AcDbLine
 10
186.9290372630799
 20
121.9249671450616
 30
0.0
 11
186.3740372630801
 21
122.5380671450618
 31
0.0
  0
LINE
  5
322E
330
1A
100
AcDbEntity
  8
NOKITOI
  6
PHANTOM
 62
     8
100
AcDbLine
 10
185.39173726308
 20
118.3703671450616
 30
0.0
 11
185.0759372630801
 21
124.3702671450617
 31
0.0
  0
LINE
  5
322F
330
1A
100
AcDbEntity
  8
NOKITOI
  6
PHANTOM
 62
     8
100
AcDbLine
 10
193.8522372630801
 20
125.3340671450617
 30
0.0
 11
193.4620372630802
 21
112.8497671450616
 31
0.0
  0
LINE
  5
3230
330
1A
100
AcDbEntity
  8
NOKITOI
  6
PHANTOM
 62
     8
100
AcDbLine
 10
192.6528372630797
 20
125.3715671450617
 30
0.0
 11
192.5034372630802
 21
120.5926671450618
 31
0.0
  0
ARC
  5
3231
330
1A
100
AcDbEntity
  8
NOKITOI
  6
PHANTOM
 62
     8
100
AcDbCircle
 10
185.891144150075
 20
118.3965606099762
 30
0.0
 40
0.4999934649619629
100
AcDbArc
 50
183.0029638682578
 51
269.9992107982129
  0
ARC
  5
3232
330
1A
100
AcDbEntity
  8
NOKITOI
  6
PHANTOM
 62
     8
100
AcDbCircle
 10
185.8181456872425
 20
110.3965746601182
 30
0.0
 40
0.9999924849789756
100
AcDbArc
 50
90.00048267258872
 51
173.471735393326
  0
LINE
  5
3233
330
1A
100
AcDbEntity
  8
NOKITOI
  6
PHANTOM
 62
     8
100
AcDbLine
 10
184.2742372630797
 20
112.5965671450617
 30
0.0
 11
190.3151372630801
 21
112.5965671450617
 31
0.0
  0
ARC
  5
3234
330
1A
100
AcDbEntity
  8
NOKITOI
  6
PHANTOM
 62
     8
100
AcDbCircle
 10
184.2742246933718
 20
112.096555520332
 30
0.0
 40
0.5000116248877112
100
AcDbArc
 50
89.99855965101616
 51
175.5251531916577
  0
LINE
  5
3235
330
1A
100
AcDbEntity
  8
NOKITOI
  6
PHANTOM
 62
     8
100
AcDbLine
 10
192.3141372630802
 20
114.5341671450617
 30
0.0
 11
192.39963726308
 21
117.2716671450616
 31
0.0
  0
LINE
  5
3236
330
1A
100
AcDbEntity
  8
NOKITOI
  6
PHANTOM
 62
     8
100
AcDbLine
 10
191.9628372630801
 20
111.3965671450616
 30
0.0
 11
185.8181372630801
 21
111.3965671450616
 31
0.0
  0
ARC
  5
3237
330
1A
100
AcDbEntity
  8
NOKITOI
  6
PHANTOM
 62
     8
100
AcDbCircle
 10
191.9628013039292
 20
112.8965322909184
 30
0.0
 40
1.499965146287778
100
AcDbArc
 50
270.0013735703027
 51
358.2133719782233
  0
ARC
  5
3238
330
1A
100
AcDbEntity
  8
NOKITOI
  6
PHANTOM
 62
     8
100
AcDbCircle
 10
190.3151236909417
 20
114.5965539899753
 30
0.0
 40
1.999986844959662
100
AcDbArc
 50
270.0003888156784
 51
358.2124468147644
  0
ARC
  5
3239
330
1A
100
AcDbEntity
  8
NOKITOI
  6
PHANTOM
 62
     8
100
AcDbCircle
 10
188.4015993816334
 20
117.396610927587
 30
0.0
 40
3.999989731271038
100
AcDbArc
 50
358.2100163932687
 51
83.52268857986718
  0
ARC
  5
323A
330
1A
100
AcDbEntity
  8
NOKITOI
  6
PHANTOM
 62
     8
100
AcDbCircle
 10
188.7964230446647
 20
120.8742525107607
 30
0.0
 40
0.5000073448410256
100
AcDbArc
 50
83.52170717003247
 51
188.1270521358761
  0
ARC
  5
323B
330
1A
100
AcDbEntity
  8
NOKITOI
  6
PHANTOM
 62
     8
100
AcDbCircle
 10
188.1402106624824
 20
118.3965364681796
 30
0.0
 40
0.4999693238254178
100
AcDbArc
 50
270.0030483909627
 51
8.144496122946826
  0
LINE
  5
323C
330
1A
100
AcDbEntity
  8
NOKITOI
  6
PHANTOM
 62
     8
100
AcDbLine
 10
188.6351372630803
 20
118.4673671450618
 30
0.0
 11
188.3014372630801
 21
120.8035671450618
 31
0.0
  0
LINE
  5
323D
330
1A
100
AcDbEntity
  8
NOKITOI
  6
PHANTOM
 62
     8
100
AcDbLine
 10
185.8911372630801
 20
117.8965671450617
 30
0.0
 11
188.1402372630801
 21
117.8965671450617
 31
0.0
  0
LINE
  5
323E
330
1A
100
AcDbEntity
  8
NOKITOI
  6
PHANTOM
 62
     8
100
AcDbLine
 10
187.3331372630797
 20
119.0965671450617
 30
0.0
 11
186.9290372630799
 21
121.9249671450616
 31
0.0
  0
LINE
  5
323F
330
1A
100
AcDbEntity
  8
NOKITOI
  6
PHANTOM
 62
     8
100
AcDbLine
 10
186.5552372630801
 20
119.0965671450617
 30
0.0
 11
187.3331372630797
 21
119.0965671450617
 31
0.0
  0
ARC
  5
3240
330
1A
100
AcDbEntity
  8
NOKITOI
  6
PHANTOM
 62
     8
100
AcDbCircle
 10
191.8532245122301
 20
125.3965803001481
 30
0.0
 40
1.999986844954075
100
AcDbArc
 50
358.2116927117295
 51
89.99963471264711
  0
LINE
  5
3241
330
1A
100
AcDbEntity
  8
NOKITOI
  6
PHANTOM
 62
     8
100
AcDbLine
 10
185.5753372630802
 20
124.8965671450616
 30
0.0
 11
187.8068372630801
 21
124.8965671450616
 31
0.0
  0
ARC
  5
3242
330
1A
100
AcDbEntity
  8
NOKITOI
  6
PHANTOM
 62
     8
100
AcDbCircle
 10
185.575343464238
 20
124.3965736801469
 30
0.0
 40
0.4999934649531607
100
AcDbArc
 50
90.00071060961758
 51
183.0044636796624
  0
LINE
  5
3243
330
1A
100
AcDbEntity
  8
NOKITOI
  6
PHANTOM
 62
     8
100
AcDbLine
 10
191.8532372630803
 20
127.3965671450618
 30
0.0
 11
188.52663726308
 21
127.3965671450618
 31
0.0
  0
LINE
  5
3244
330
1A
100
AcDbEntity
  8
NOKITOI
  6
PHANTOM
 62
     8
100
AcDbLine
 10
191.8532372630803
 20
126.1965671450618
 30
0.0
 11
189.3804372630797
 21
126.1965671450618
 31
0.0
  0
LINE
  5
3245
330
1A
100
AcDbEntity
  8
NOKITOI
  6
PHANTOM
 62
     8
100
AcDbLine
 10
189.8804372630797
 20
123.6965671450618
 30
0.0
 11
186.9439372630799
 21
123.6965671450618
 31
0.0
  0
LINE
  5
3246
330
1A
100
AcDbEntity
  8
NOKITOI
  6
PHANTOM
 62
     8
100
AcDbLine
 10
189.3804372630797
 20
126.1965671450618
 30
0.0
 11
189.8804372630797
 21
123.6965671450618
 31
0.0
  0
ARC
  5
3247
330
1A
100
AcDbEntity
  8
NOKITOI
  6
PHANTOM
 62
     8
100
AcDbCircle
 10
187.8068445176355
 20
125.3965759949051
 30
0.0
 40
0.5000088498959383
100
AcDbArc
 50
269.9991687038573
 51
11.31359566951103
  0
ARC
  5
3248
330
1A
100
AcDbEntity
  8
NOKITOI
  6
PHANTOM
 62
     8
100
AcDbCircle
 10
188.5266380460885
 20
126.8965681000634
 30
0.0
 40
0.4999990449987349
100
AcDbArc
 50
90.0000897263067
 51
191.3032801984548
  0
LINE
  5
3249
330
1A
100
AcDbEntity
  8
NOKITOI
  6
PHANTOM
 62
     8
100
AcDbLine
 10
188.2971372630801
 20
125.4946671450616
 30
0.0
 11
188.03633726308
 21
126.7985671450617
 31
0.0
  0
LINE
  5
324A
330
1A
100
AcDbEntity
  8
NOKITOI
  6
PHANTOM
 62
     8
100
AcDbLine
 10
187.9397372630796
 20
122.5965671450617
 30
0.0
 11
188.40163726308
 21
122.5965671450617
 31
0.0
  0
LINE
  5
324B
330
1A
100
AcDbEntity
  8
NOKITOI
  6
PHANTOM
 62
     8
100
AcDbLine
 10
187.9397372630796
 20
122.5965671450617
 30
0.0
 11
186.9439372630799
 21
123.6965671450618
 31
0.0
  0
ARC
  5
324C
330
1A
100
AcDbEntity
  8
NOKITOI
  6
PHANTOM
 62
     8
100
AcDbCircle
 10
191.853232768282
 20
125.3965717825886
 30
0.0
 40
0.7999953624857498
100
AcDbArc
 50
358.2088726535806
 51
89.99967808194737
  0
DIMENSION
  5
32AC
330
1A
100
AcDbEntity
  8
SUNPOU
100
AcDbDimension
  2
*D11
 10
45.56221688976526
 20
71.04232583961428
 30
0.0
 11
43.06221688976525
 21
99.93648489448801
 31
0.0
 70
    32
  3
STANDARD
100
AcDbAlignedDimension
 13
69.74201369323009
 23
128.8306439493617
 33
0.0
 14
235.620419250749
 24
71.04232583961422
 34
0.0
 50
90.0
100
AcDbRotatedDimension
1001
ACAD
1000
DSTYLE
1002
{
1070
    41
1040
3.0
1070
    42
1040
3.0
1070
    43
1040
7.0
1070
    44
1040
1.5
1070
    73
1070
     0
1070
    74
1070
     0
1070
    77
1070
     3
1070
   140
1040
3.0
1070
   141
1040
3.0
1070
   147
1040
1.0
1070
   172
1070
     1
1070
   173
1070
     1
1070
   176
1070
   256
1070
   177
1070
   256
1070
   178
1070
   256
1070
   271
1070
     0
1070
   272
1070
     0
1070
   341
1005
B2
1070
     6
1000
OPEN
1070
     7
1000
OPEN
1070
   371
1070
    -1
1070
   372
1070
    -1
1002
}
  0
LWPOLYLINE
  5
33BD
330
1A
100
AcDbEntity
  8
ZUWAKU
100
AcDbPolyline
 90
        4
 70
     1
 43
0.0
 10
0.3999999982485178
 20
275.4000002832666
 10
0.3999999982485178
 20
0.4000002832665928
 10
398.3999999982485
 20
0.4000002832665928
 10
398.3999999982485
 20
275.4000002832666
  0
LWPOLYLINE
  5
33BE
330
1A
100
AcDbEntity
  8
ZUWAKU
100
AcDbPolyline
 90
        4
 70
     1
 43
0.0
 10
0.1999999982485292
 20
275.6000002832665
 10
0.1999999982485292
 20
0.2000002832666041
 10
398.5999999982485
 20
0.2000002832665926
 10
398.5999999982485
 20
275.6000002832665
  0
LWPOLYLINE
  5
33BF
330
1A
100
AcDbEntity
  8
ZUWAKU
100
AcDbPolyline
 90
        4
 70
     1
 43
0.0
 10
-0.0000000017514594
 20
275.8000002832665
 10
-0.0000000017514594
 20
0.0000002832665587
 10
398.7999999982486
 20
0.0000002832665924
 10
398.7999999982486
 20
275.8000002832666
  0
LWPOLYLINE
  5
33C0
330
1A
100
AcDbEntity
  8
ZUWAKU
100
AcDbPolyline
 90
        4
 70
     1
 43
0.0
 10
0.2999999982484951
 20
275.5000002832665
 10
0.2999999982484951
 20
0.30000028326657
 10
398.4999999982486
 20
0.3000002832665931
 10
398.4999999982485
 20
275.5000002832665
  0
LWPOLYLINE
  5
33C1
330
1A
100
AcDbEntity
  8
ZUWAKU
100
AcDbPolyline
 90
        4
 70
     1
 43
0.0
 10
0.0999999982485065
 20
275.7000002832666
 10
0.0999999982485065
 20
0.1000002832665814
 10
398.6999999982484
 20
0.1000002832665929
 10
398.6999999982486
 20
275.7000002832666
  0
LINE
  5
33C2
330
1A
100
AcDbEntity
  8
ZUWAKU
100
AcDbLine
 10
-0.0000000017514594
 20
15.00000028326655
 30
0.0
 11
398.6999999982484
 21
15.00000028326655
 31
0.0
  0
LINE
  5
33C3
330
1A
100
AcDbEntity
  8
ZUWAKU
100
AcDbLine
 10
-0.0000000017514594
 20
15.10000028326656
 30
0.0
 11
398.6999999982484
 21
15.10000028326656
 31
0.0
  0
LINE
  5
33C4
330
1A
100
AcDbEntity
  8
ZUWAKU
100
AcDbLine
 10
-0.0000000017514594
 20
15.20000028326656
 30
0.0
 11
398.6999999982484
 21
15.20000028326656
 31
0.0
  0
LINE
  5
33C5
330
1A
100
AcDbEntity
  8
ZUWAKU
100
AcDbLine
 10
-0.0000000017514594
 20
15.30000028326656
 30
0.0
 11
398.6999999982484
 21
15.30000028326656
 31
0.0
  0
LINE
  5
33C6
330
1A
100
AcDbEntity
  8
ZUWAKU
100
AcDbLine
 10
-0.0000000017514594
 20
15.40000028326656
 30
0.0
 11
398.6999999982484
 21
15.40000028326656
 31
0.0
  0
LINE
  5
33C7
330
1A
100
AcDbEntity
  8
ZUWAKU
100
AcDbLine
 10
104.3233006432825
 20
7.700000283266575
 30
0.0
 11
223.7121819837442
 21
7.700000283266575
 31
0.0
  0
LINE
  5
33C8
330
1A
100
AcDbEntity
  8
ZUWAKU
100
AcDbLine
 10
104.3233006432825
 20
7.800000283266575
 30
0.0
 11
223.7121819837442
 21
7.800000283266578
 31
0.0
  0
LINE
  5
33C9
330
1A
100
AcDbEntity
  8
ZUWAKU
100
AcDbLine
 10
104.3233006432825
 20
7.600000283266577
 30
0.0
 11
223.7121819837442
 21
7.600000283266574
 31
0.0
  0
TEXT
  5
33CA
330
1A
100
AcDbEntity
  8
MOJI
100
AcDbText
 10
46.4788947923331
 20
6.370589348403939
 30
0.0
 40
3.0
  1
新・丸トップＲＶ１０５
 41
0.9
  7
ｽﾀｲﾙ1
100
AcDbText
  0
CIRCLE
  5
33CB
330
1A
100
AcDbEntity
  8
ZUWAKU
100
AcDbCircle
 10
12.99610607563909
 20
7.60000028326656
 30
0.0
 40
0.875
  0
LINE
  5
33CC
330
1A
100
AcDbEntity
  8
ZUWAKU
100
AcDbLine
 10
13.43360607563909
 20
3.575000283266561
 30
0.0
 11
12.47110607563911
 21
3.575000283266561
 31
0.0
  0
LINE
  5
33CD
330
1A
100
AcDbEntity
  8
ZUWAKU
100
AcDbLine
 10
12.47110607563911
 20
4.97500028326656
 30
0.0
 11
13.43360607563909
 21
4.97500028326656
 31
0.0
  0
LINE
  5
33CE
330
1A
100
AcDbEntity
  8
ZUWAKU
100
AcDbLine
 10
13.43360607563909
 20
10.22500028326656
 30
0.0
 11
12.47110607563911
 21
10.22500028326656
 31
0.0
  0
LINE
  5
33CF
330
1A
100
AcDbEntity
  8
ZUWAKU
100
AcDbLine
 10
12.47110607563911
 20
11.62500028326654
 30
0.0
 11
13.43360607563909
 21
11.62500028326656
 31
0.0
  0
HATCH
  5
33D0
330
1A
100
AcDbEntity
  8
ZUWAKU
100
AcDbHatch
 10
0.0
 20
0.0
 30
0.0
210
0.0
220
0.0
230
1.0
  2
ANSI37
 70
     0
 71
     0
 91
        8
 92
        7
 72
     1
 73
     1
 93
       24
 10
7.251131328808469
 20
8.82242452375835
 42
-0.1989123673796348
 10
7.046106075639102
 20
9.317399270588875
 42
0.0
 10
7.046106075639102
 20
9.962500283266564
 42
-0.4142135623730912
 10
7.30860607563909
 20
10.22500028326656
 42
0.0
 10
8.796106075639045
 20
10.22500028326656
 42
0.4142135623731546
 10
9.05860607563909
 20
10.48750028326655
 42
0.0
 10
9.05860607563909
 20
11.36250028326656
 42
0.4142135623731586
 10
8.796106075639045
 20
11.62500028326656
 42
0.0
 10
7.046106075639102
 20
11.62500028326656
 42
0.4142135623730928
 10
5.646106075639124
 20
10.22500028326657
 42
0.0
 10
5.646106075639124
 20
9.317399270588939
 42
0.1989123673796619
 10
6.26118183514734
 20
7.832475030097135
 42
0.0
 10
7.716080822469677
 20
6.377576042774807
 42
-0.1989123673796613
 10
7.921106075639102
 20
5.882601295944214
 42
0.0
 10
7.921106075639102
 20
5.237500283266555
 42
-0.4142135623730911
 10
7.658606075639113
 20
4.97500028326656
 42
0.0
 10
6.171106075639158
 20
4.97500028326656
 42
0.4142135623731526
 10
5.908606075639113
 20
4.712500283266566
 42
0.0
 10
5.908606075639113
 20
3.837500283266555
 42
0.4142135623731526
 10
6.171106075639158
 20
3.575000283266561
 42
0.0
 10
7.921106075639102
 20
3.575000283266561
 42
0.4142135623731044
 10
9.321106075639136
 20
4.975000283266549
 42
0.0
 10
9.321106075639136
 20
5.882601295944185
 42
0.1989123673796604
 10
8.706030316130863
 20
7.367525536435955
 42
0.0
 97
        0
 92
        7
 72
     1
 73
     1
 93
       16
 10
11.77110607563912
 20
9.525000283266564
 42
-0.4142135623730935
 10
12.47110607563911
 20
10.22500028326656
 42
0.0
 10
13.43360607563909
 20
10.22500028326656
 42
0.4142135623731546
 10
13.69610607563913
 20
10.48750028326655
 42
0.0
 10
13.69610607563913
 20
11.36250028326656
 42
0.4142135623730951
 10
13.43360607563914
 20
11.62500028326656
 42
0.0
 10
12.47110607563905
 20
11.62500028326654
 42
0.4142135623730892
 10
10.37110607563909
 20
9.525000283266528
 42
0.0
 10
10.37110607563909
 20
5.675000283266573
 42
0.4142135623730969
 10
12.47110607563911
 20
3.575000283266561
 42
0.0
 10
13.43360607563909
 20
3.575000283266561
 42
0.4142135623731526
 10
13.69610607563913
 20
3.837500283266555
 42
0.0
 10
13.69610607563913
 20
4.712500283266566
 42
0.4142135623730891
 10
13.43360607563914
 20
4.97500028326656
 42
0.0
 10
12.47110607563911
 20
4.97500028326656
 42
-0.4142135623730928
 10
11.77110607563912
 20
5.675000283266554
 42
0.0
 97
        0
 92
        7
 72
     1
 73
     1
 93
        2
 10
12.12110607563909
 20
7.60000028326656
 42
1.0
 10
13.87110607563909
 20
7.60000028326656
 42
1.0
 97
        0
 92
        7
 72
     1
 73
     1
 93
       26
 10
18.6574293167281
 20
9.602523880048273
 42
0.0
 10
19.188249133297
 20
11.28345329918307
 42
0.5069206636600134
 10
18.93793368369932
 20
11.62500028326656
 42
0.0
 10
18.08848899389471
 20
11.62500028326656
 42
0.3272098845218764
 10
17.83817354429703
 20
11.44154726735004
 42
0.0
 10
16.90403860698114
 20
8.4834532991831
 42
-0.3272098845219541
 10
16.65372315738341
 20
8.300000283266559
 42
0.0
 10
16.58360607563918
 20
8.300000283266559
 42
-0.4142135623731526
 10
16.32110607563913
 20
8.562500283266553
 42
0.0
 10
16.32110607563913
 20
11.36250028326656
 42
0.4142135623730951
 10
16.05860607563914
 20
11.62500028326656
 42
0.0
 10
15.18360607563909
 20
11.62500028326656
 42
0.4142135623730871
 10
14.9211060756391
 20
11.36250028326657
 42
0.0
 10
14.9211060756391
 20
3.837500283266555
 42
0.4142135623730891
 10
15.18360607563909
 20
3.575000283266561
 42
0.0
 10
16.05860607563909
 20
3.575000283266561
 42
0.4142135623731526
 10
16.32110607563913
 20
3.837500283266555
 42
0.0
 10
16.32110607563913
 20
6.637500283266566
 42
-0.4142135623731526
 10
16.58360607563918
 20
6.90000028326656
 42
0.0
 10
16.65372315738346
 20
6.90000028326656
 42
-0.3272098845218915
 10
16.90403860698114
 20
6.716547267350023
 42
0.0
 10
17.83817354429703
 20
3.758453299183097
 42
0.3272098845218902
 10
18.08848899389471
 20
3.575000283266561
 42
0.0
 10
18.93793368369932
 20
3.575000283266561
 42
0.5069206636600335
 10
19.188249133297
 20
3.916547267350065
 42
0.0
 10
18.02505344406017
 20
7.600000283266629
 42
0.0
 97
        0
 92
        7
 72
     1
 73
     1
 93
        8
 10
21.74610607563909
 20
11.36250028326656
 42
0.4142135623731546
 10
21.48360607563904
 20
11.62500028326656
 42
0.0
 10
20.60860607563915
 20
11.62500028326656
 42
0.4142135623731507
 10
20.34610607563911
 20
11.36250028326657
 42
0.0
 10
20.34610607563911
 20
3.837500283266555
 42
0.4142135623731526
 10
20.60860607563915
 20
3.575000283266561
 42
0.0
 10
21.48360607563904
 20
3.575000283266561
 42
0.4142135623731526
 10
21.74610607563909
 20
3.837500283266555
 42
0.0
 97
        0
 92
        7
 72
     1
 73
     1
 93
       24
 10
24.19610607563913
 20
9.962500283266564
 42
-0.4142135623731546
 10
24.45860607563918
 20
10.22500028326656
 42
0.0
 10
25.94610607563913
 20
10.22500028326656
 42
0.4142135623730911
 10
26.20860607563912
 20
10.48750028326655
 42
0.0
 10
26.20860607563912
 20
11.36250028326656
 42
0.4142135623730952
 10
25.94610607563913
 20
11.62500028326656
 42
0.0
 10
24.19610607563913
 20
11.62500028326656
 42
0.4142135623731048
 10
22.7961060756391
 20
10.22500028326657
 42
0.0
 10
22.7961060756391
 20
9.317399270588939
 42
0.1989123673796613
 10
23.41118183514737
 20
7.832475030097164
 42
0.0
 10
24.86608082246971
 20
6.37757604277483
 42
-0.1989123673796402
 10
25.07110607563913
 20
5.882601295944294
 42
0.0
 10
25.07110607563913
 20
5.237500283266555
 42
-0.4142135623730911
 10
24.80860607563915
 20
4.97500028326656
 42
0.0
 10
23.32110607563913
 20
4.97500028326656
 42
0.4142135623731526
 10
23.05860607563908
 20
4.712500283266566
 42
0.0
 10
23.05860607563908
 20
3.837500283266555
 42
0.4142135623730891
 10
23.32110607563908
 20
3.575000283266561
 42
0.0
 10
25.07110607563913
 20
3.575000283266561
 42
0.4142135623730925
 10
26.47110607563911
 20
4.975000283266549
 42
0.0
 10
26.47110607563911
 20
5.882601295944185
 42
0.1989123673796675
 10
25.85603031613084
 20
7.367525536436012
 42
0.0
 10
24.40113132880856
 20
8.82242452375827
 42
-0.1989123673796652
 10
24.19610607563913
 20
9.317399270588854
 42
0.0
 97
        0
 92
        7
 72
     1
 73
     1
 93
       16
 10
28.9211060756391
 20
11.36250028326655
 42
0.414213562373103
 10
28.65860607563911
 20
11.62500028326656
 42
0.0
 10
27.78360607563911
 20
11.62500028326656
 42
0.4142135623730871
 10
27.52110607563912
 20
11.36250028326657
 42
0.0
 10
27.52110607563912
 20
4.975000283266549
 42
0.4142135623730926
 10
28.9211060756391
 20
3.575000283266561
 42
0.0
 10
30.6711060756391
 20
3.575000283266561
 42
0.4142135623731044
 10
32.07110607563913
 20
4.975000283266549
 42
0.0
 10
32.07110607563913
 20
11.36250028326656
 42
0.4142135623730951
 10
31.80860607563914
 20
11.62500028326656
 42
0.0
 10
30.93360607563909
 20
11.62500028326656
 42
0.4142135623730871
 10
30.6711060756391
 20
11.36250028326657
 42
0.0
 10
30.6711060756391
 20
5.500000283266547
 42
-0.414213562373088
 10
30.14610607563912
 20
4.97500028326656
 42
0.0
 10
29.44610607563913
 20
4.97500028326656
 42
-0.4142135623731197
 10
28.9211060756391
 20
5.500000283266547
 42
0.0
 97
        0
 92
        7
 72
     1
 73
     1
 93
        8
 10
34.52110607563912
 20
11.36250028326657
 42
0.4142135623730871
 10
34.25860607563913
 20
11.62500028326656
 42
0.0
 10
33.38360607563913
 20
11.62500028326656
 42
0.4142135623731507
 10
33.12110607563909
 20
11.36250028326657
 42
0.0
 10
33.12110607563909
 20
3.837500283266555
 42
0.4142135623730891
 10
33.38360607563908
 20
3.575000283266561
 42
0.0
 10
34.25860607563913
 20
3.575000283266561
 42
0.4142135623730891
 10
34.52110607563912
 20
3.837500283266555
 42
0.0
 97
        0
 75
     0
 76
     1
 52
0.0
 41
0.1
 77
     0
 78
     2
 53
45.0
 43
-450.4711521690909
 44
-6.599999716733407
 45
-0.2245064030267288
 46
0.2245064030267288
 79
     0
 53
135.0
 43
-450.4711521690909
 44
-6.599999716733407
 45
-0.2245064030267288
 46
-0.2245064030267288
 79
     0
 47
0.057451373970553
 98
        8
 10
8.039927479760194
 20
7.583587106209336
 10
11.20225750146812
 20
9.422031374492064
 10
12.58218394107837
 20
7.755941106301918
 10
15.45702998906711
 20
8.10064910648731
 10
20.91923600772691
 20
8.330455240258118
 10
23.44910044581331
 20
9.709288441470164
 10
28.27884298444871
 20
9.364579240814066
 10
33.91353980805991
 20
9.594385374584874
  0
ARC
  5
33D1
330
1A
100
AcDbEntity
  8
ZUWAKU
100
AcDbCircle
 10
7.74610607563909
 20
9.317399270588911
 30
0.0
 40
2.099999999999999
100
AcDbArc
 50
180.0
 51
225.0
  0
LINE
  5
33D2
330
1A
100
AcDbEntity
  8
ZUWAKU
100
AcDbLine
 10
10.37110607563909
 20
5.675000283266562
 30
0.0
 11
10.37110607563909
 21
9.525000283266539
 31
0.0
  0
LINE
  5
33D3
330
1A
100
AcDbEntity
  8
ZUWAKU
100
AcDbLine
 10
11.77110607563912
 20
9.52500028326656
 30
0.0
 11
11.77110607563912
 21
5.675000283266562
 31
0.0
  0
ARC
  5
33D4
330
1A
100
AcDbEntity
  8
ZUWAKU
100
AcDbCircle
 10
7.74610607563909
 20
9.317399270588911
 30
0.0
 40
0.7
100
AcDbArc
 50
180.0000000000016
 51
224.9999999999988
  0
ARC
  5
33D5
330
1A
100
AcDbEntity
  8
ZUWAKU
100
AcDbCircle
 10
12.47110607563911
 20
5.675000283266562
 30
0.0
 40
2.099999999999999
100
AcDbArc
 50
180.0
 51
270.0
  0
ARC
  5
33D6
330
1A
100
AcDbEntity
  8
ZUWAKU
100
AcDbCircle
 10
7.921106075639102
 20
4.97500028326656
 30
0.0
 40
1.399999999999999
100
AcDbArc
 50
270.0
 51
0.0
  0
ARC
  5
33D7
330
1A
100
AcDbEntity
  8
ZUWAKU
100
AcDbCircle
 10
7.221106075639113
 20
5.882601295944212
 30
0.0
 40
2.099999999999999
100
AcDbArc
 50
0.0
 51
45.0
  0
LINE
  5
33D8
330
1A
100
AcDbEntity
  8
ZUWAKU
100
AcDbLine
 10
6.26118183514734
 20
7.83247503009715
 30
0.0
 11
7.716080822469677
 21
6.377576042774819
 31
0.0
  0
LINE
  5
33D9
330
1A
100
AcDbEntity
  8
ZUWAKU
100
AcDbLine
 10
6.171106075639102
 20
4.97500028326656
 30
0.0
 11
7.658606075639113
 21
4.97500028326656
 31
0.0
  0
LINE
  5
33DA
330
1A
100
AcDbEntity
  8
ZUWAKU
100
AcDbLine
 10
6.171106075639102
 20
3.575000283266561
 30
0.0
 11
7.921106075639102
 21
3.575000283266561
 31
0.0
  0
ARC
  5
33DB
330
1A
100
AcDbEntity
  8
ZUWAKU
100
AcDbCircle
 10
6.171106075639102
 20
4.71250028326656
 30
0.0
 40
0.2625
100
AcDbArc
 50
90.0
 51
180.0
  0
ARC
  5
33DC
330
1A
100
AcDbEntity
  8
ZUWAKU
100
AcDbCircle
 10
6.171106075639102
 20
3.83750028326656
 30
0.0
 40
0.2625
100
AcDbArc
 50
180.0
 51
270.0
  0
LINE
  5
33DD
330
1A
100
AcDbEntity
  8
ZUWAKU
100
AcDbLine
 10
5.908606075639113
 20
3.83750028326656
 30
0.0
 11
5.908606075639113
 21
4.71250028326656
 31
0.0
  0
ARC
  5
33DE
330
1A
100
AcDbEntity
  8
ZUWAKU
100
AcDbCircle
 10
7.221106075639113
 20
5.882601295944233
 30
0.0
 40
0.7
100
AcDbArc
 50
0.0
 51
45.0
  0
ARC
  5
33DF
330
1A
100
AcDbEntity
  8
ZUWAKU
100
AcDbCircle
 10
7.658606075639113
 20
5.237500283266562
 30
0.0
 40
0.2625
100
AcDbArc
 50
270.0
 51
0.0
  0
LINE
  5
33E0
330
1A
100
AcDbEntity
  8
ZUWAKU
100
AcDbLine
 10
7.921106075639102
 20
5.237500283266562
 30
0.0
 11
7.921106075639102
 21
5.882601295944233
 31
0.0
  0
LINE
  5
33E1
330
1A
100
AcDbEntity
  8
ZUWAKU
100
AcDbLine
 10
8.706030316130863
 20
7.367525536435973
 30
0.0
 11
7.251131328808526
 21
8.822424523758311
 31
0.0
  0
ARC
  5
33E2
330
1A
100
AcDbEntity
  8
ZUWAKU
100
AcDbCircle
 10
12.47110607563911
 20
5.675000283266562
 30
0.0
 40
0.7
100
AcDbArc
 50
180.0
 51
270.0
  0
LINE
  5
33E3
330
1A
100
AcDbEntity
  8
ZUWAKU
100
AcDbLine
 10
9.321106075639136
 20
4.97500028326656
 30
0.0
 11
9.321106075639136
 21
5.882601295944233
 31
0.0
  0
ARC
  5
33E4
330
1A
100
AcDbEntity
  8
ZUWAKU
100
AcDbCircle
 10
8.796106075639102
 20
10.48750028326655
 30
0.0
 40
0.2625
100
AcDbArc
 50
270.0
 51
0.0
  0
ARC
  5
33E5
330
1A
100
AcDbEntity
  8
ZUWAKU
100
AcDbCircle
 10
8.796106075639102
 20
11.36250028326655
 30
0.0
 40
0.2625
100
AcDbArc
 50
0.0
 51
90.0
  0
ARC
  5
33E6
330
1A
100
AcDbEntity
  8
ZUWAKU
100
AcDbCircle
 10
7.046106075639102
 20
10.22500028326656
 30
0.0
 40
1.399999999999999
100
AcDbArc
 50
90.0
 51
180.0
  0
LINE
  5
33E7
330
1A
100
AcDbEntity
  8
ZUWAKU
100
AcDbLine
 10
5.646106075639124
 20
10.22500028326656
 30
0.0
 11
5.646106075639124
 21
9.317399270588889
 31
0.0
  0
LINE
  5
33E8
330
1A
100
AcDbEntity
  8
ZUWAKU
100
AcDbLine
 10
8.796106075639102
 20
10.22500028326656
 30
0.0
 11
7.30860607563909
 21
10.22500028326656
 31
0.0
  0
LINE
  5
33E9
330
1A
100
AcDbEntity
  8
ZUWAKU
100
AcDbLine
 10
7.046106075639102
 20
9.96250028326656
 30
0.0
 11
7.046106075639102
 21
9.317399270588889
 31
0.0
  0
ARC
  5
33EA
330
1A
100
AcDbEntity
  8
ZUWAKU
100
AcDbCircle
 10
7.30860607563909
 20
9.96250028326656
 30
0.0
 40
0.2625
100
AcDbArc
 50
90.0
 51
180.0
  0
LINE
  5
33EB
330
1A
100
AcDbEntity
  8
ZUWAKU
100
AcDbLine
 10
7.046106075639102
 20
11.62500028326656
 30
0.0
 11
8.796106075639102
 21
11.62500028326656
 31
0.0
  0
ARC
  5
33EC
330
1A
100
AcDbEntity
  8
ZUWAKU
100
AcDbCircle
 10
12.47110607563911
 20
9.525000283266539
 30
0.0
 40
2.099999999999999
100
AcDbArc
 50
90.0
 51
180.0
  0
ARC
  5
33ED
330
1A
100
AcDbEntity
  8
ZUWAKU
100
AcDbCircle
 10
12.47110607563911
 20
9.52500028326656
 30
0.0
 40
0.7
100
AcDbArc
 50
90.0
 51
180.0
  0
LINE
  5
33EE
330
1A
100
AcDbEntity
  8
ZUWAKU
100
AcDbLine
 10
9.05860607563909
 20
11.36250028326655
 30
0.0
 11
9.05860607563909
 21
10.48750028326655
 31
0.0
  0
LINE
  5
33EF
330
1A
100
AcDbEntity
  8
ZUWAKU
100
AcDbLine
 10
17.83817354429703
 20
11.44154726735004
 30
0.0
 11
16.90403860698114
 21
8.483453299183075
 31
0.0
  0
LINE
  5
33F0
330
1A
100
AcDbEntity
  8
ZUWAKU
100
AcDbLine
 10
14.9211060756391
 20
11.36250028326655
 30
0.0
 11
14.9211060756391
 21
3.83750028326656
 31
0.0
  0
LINE
  5
33F1
330
1A
100
AcDbEntity
  8
ZUWAKU
100
AcDbLine
 10
16.32110607563913
 20
8.562500283266562
 30
0.0
 11
16.32110607563913
 21
11.36250028326655
 31
0.0
  0
LINE
  5
33F2
330
1A
100
AcDbEntity
  8
ZUWAKU
100
AcDbLine
 10
28.9211060756391
 20
5.500000283266558
 30
0.0
 11
28.9211060756391
 21
11.36250028326655
 31
0.0
  0
LINE
  5
33F3
330
1A
100
AcDbEntity
  8
ZUWAKU
100
AcDbLine
 10
27.52110607563912
 20
11.36250028326655
 30
0.0
 11
27.52110607563912
 21
4.97500028326656
 31
0.0
  0
LINE
  5
33F4
330
1A
100
AcDbEntity
  8
ZUWAKU
100
AcDbLine
 10
21.74610607563909
 20
3.83750028326656
 30
0.0
 11
21.74610607563909
 21
11.36250028326655
 31
0.0
  0
LINE
  5
33F5
330
1A
100
AcDbEntity
  8
ZUWAKU
100
AcDbLine
 10
20.34610607563911
 20
11.36250028326655
 30
0.0
 11
20.34610607563911
 21
3.83750028326656
 31
0.0
  0
LINE
  5
33F6
330
1A
100
AcDbEntity
  8
ZUWAKU
100
AcDbLine
 10
18.6574293167281
 20
9.602523880048273
 30
0.0
 11
18.02505344406017
 21
7.60000028326657
 31
0.0
  0
ARC
  5
33F7
330
1A
100
AcDbEntity
  8
ZUWAKU
100
AcDbCircle
 10
24.89610607563912
 20
9.317399270588911
 30
0.0
 40
2.099999999999999
100
AcDbArc
 50
180.0
 51
225.0
  0
ARC
  5
33F8
330
1A
100
AcDbEntity
  8
ZUWAKU
100
AcDbCircle
 10
24.89610607563912
 20
9.317399270588911
 30
0.0
 40
0.7
100
AcDbArc
 50
180.0000000000016
 51
224.9999999999988
  0
LINE
  5
33F9
330
1A
100
AcDbEntity
  8
ZUWAKU
100
AcDbLine
 10
33.12110607563909
 20
11.36250028326655
 30
0.0
 11
33.12110607563909
 21
3.83750028326656
 31
0.0
  0
LINE
  5
33FA
330
1A
100
AcDbEntity
  8
ZUWAKU
100
AcDbLine
 10
34.52110607563912
 20
3.83750028326656
 30
0.0
 11
34.52110607563912
 21
11.36250028326655
 31
0.0
  0
LINE
  5
33FB
330
1A
100
AcDbEntity
  8
ZUWAKU
100
AcDbLine
 10
30.6711060756391
 20
11.36250028326655
 30
0.0
 11
30.6711060756391
 21
5.500000283266558
 31
0.0
  0
LINE
  5
33FC
330
1A
100
AcDbEntity
  8
ZUWAKU
100
AcDbLine
 10
32.07110607563913
 20
4.97500028326656
 30
0.0
 11
32.07110607563913
 21
11.36250028326655
 31
0.0
  0
LINE
  5
33FD
330
1A
100
AcDbEntity
  8
ZUWAKU
100
AcDbLine
 10
39.56331477224273
 20
15.00000028326655
 30
0.0
 11
39.56331477224273
 21
0.4000002832665928
 31
0.0
  0
LINE
  5
33FE
330
1A
100
AcDbEntity
  8
ZUWAKU
100
AcDbLine
 10
39.76331477224266
 20
15.00000028326655
 30
0.0
 11
39.76331477224277
 21
0.4000002832665928
 31
0.0
  0
LINE
  5
33FF
330
1A
100
AcDbEntity
  8
ZUWAKU
100
AcDbLine
 10
39.66331477224264
 20
15.00000028326655
 30
0.0
 11
39.66331477224276
 21
0.4000002832665928
 31
0.0
  0
LINE
  5
3400
330
1A
100
AcDbEntity
  8
ZUWAKU
100
AcDbLine
 10
28.9211060756391
 20
3.575000283266561
 30
0.0
 11
30.6711060756391
 21
3.575000283266561
 31
0.0
  0
LINE
  5
3401
330
1A
100
AcDbEntity
  8
ZUWAKU
100
AcDbLine
 10
30.14610607563912
 20
4.97500028326656
 30
0.0
 11
29.44610607563913
 21
4.97500028326656
 31
0.0
  0
LINE
  5
3402
330
1A
100
AcDbEntity
  8
ZUWAKU
100
AcDbLine
 10
20.6086060756391
 20
3.575000283266561
 30
0.0
 11
21.4836060756391
 21
3.575000283266561
 31
0.0
  0
LINE
  5
3403
330
1A
100
AcDbEntity
  8
ZUWAKU
100
AcDbLine
 10
17.83817354429703
 20
3.758453299183074
 30
0.0
 11
16.90403860698114
 21
6.716547267350044
 31
0.0
  0
ARC
  5
3404
330
1A
100
AcDbEntity
  8
ZUWAKU
100
AcDbCircle
 10
16.58360607563912
 20
6.637500283266561
 30
0.0
 40
0.2625
100
AcDbArc
 50
90.0
 51
180.0
  0
ARC
  5
3405
330
1A
100
AcDbEntity
  8
ZUWAKU
100
AcDbCircle
 10
16.65372315738346
 20
6.637500283266561
 30
0.0
 40
0.2625
100
AcDbArc
 50
17.52556837372303
 51
90.0
  0
ARC
  5
3406
330
1A
100
AcDbEntity
  8
ZUWAKU
100
AcDbCircle
 10
15.18360607563909
 20
3.83750028326656
 30
0.0
 40
0.2625
100
AcDbArc
 50
180.0
 51
270.0
  0
ARC
  5
3407
330
1A
100
AcDbEntity
  8
ZUWAKU
100
AcDbCircle
 10
13.43360607563909
 20
4.71250028326656
 30
0.0
 40
0.2625
100
AcDbArc
 50
0.0
 51
90.0
  0
ARC
  5
3408
330
1A
100
AcDbEntity
  8
ZUWAKU
100
AcDbCircle
 10
13.43360607563909
 20
3.83750028326656
 30
0.0
 40
0.2625
100
AcDbArc
 50
270.0
 51
0.0
  0
LINE
  5
3409
330
1A
100
AcDbEntity
  8
ZUWAKU
100
AcDbLine
 10
13.69610607563913
 20
4.71250028326656
 30
0.0
 11
13.69610607563913
 21
3.83750028326656
 31
0.0
  0
LINE
  5
340A
330
1A
100
AcDbEntity
  8
ZUWAKU
100
AcDbLine
 10
16.32110607563913
 20
3.83750028326656
 30
0.0
 11
16.32110607563913
 21
6.637500283266561
 31
0.0
  0
ARC
  5
340B
330
1A
100
AcDbEntity
  8
ZUWAKU
100
AcDbCircle
 10
16.05860607563909
 20
3.83750028326656
 30
0.0
 40
0.2625
100
AcDbArc
 50
270.0
 51
0.0
  0
LINE
  5
340C
330
1A
100
AcDbEntity
  8
ZUWAKU
100
AcDbLine
 10
15.18360607563909
 20
3.575000283266561
 30
0.0
 11
16.05860607563909
 21
3.575000283266561
 31
0.0
  0
ARC
  5
340D
330
1A
100
AcDbEntity
  8
ZUWAKU
100
AcDbCircle
 10
16.58360607563912
 20
8.562500283266562
 30
0.0
 40
0.2625
100
AcDbArc
 50
180.0
 51
270.0
  0
LINE
  5
340E
330
1A
100
AcDbEntity
  8
ZUWAKU
100
AcDbLine
 10
16.58360607563912
 20
6.90000028326656
 30
0.0
 11
16.65372315738346
 21
6.90000028326656
 31
0.0
  0
LINE
  5
340F
330
1A
100
AcDbEntity
  8
ZUWAKU
100
AcDbLine
 10
16.65372315738346
 20
8.300000283266559
 30
0.0
 11
16.58360607563912
 21
8.300000283266559
 31
0.0
  0
ARC
  5
3410
330
1A
100
AcDbEntity
  8
ZUWAKU
100
AcDbCircle
 10
16.65372315738346
 20
8.562500283266562
 30
0.0
 40
0.2625
100
AcDbArc
 50
270.0
 51
342.4744316262769
  0
ARC
  5
3411
330
1A
100
AcDbEntity
  8
ZUWAKU
100
AcDbCircle
 10
18.08848899389477
 20
3.83750028326656
 30
0.0
 40
0.2625
100
AcDbArc
 50
197.525568373723
 51
270.0
  0
LINE
  5
3412
330
1A
100
AcDbEntity
  8
ZUWAKU
100
AcDbLine
 10
19.188249133297
 20
3.916547267350047
 30
0.0
 11
18.02505344406017
 21
7.60000028326657
 31
0.0
  0
ARC
  5
3413
330
1A
100
AcDbEntity
  8
ZUWAKU
100
AcDbCircle
 10
18.93793368369927
 20
3.83750028326656
 30
0.0
 40
0.2625
100
AcDbArc
 50
270.0
 51
17.52556837372303
  0
LINE
  5
3414
330
1A
100
AcDbEntity
  8
ZUWAKU
100
AcDbLine
 10
18.08848899389477
 20
3.575000283266561
 30
0.0
 11
18.93793368369927
 21
3.575000283266561
 31
0.0
  0
ARC
  5
3415
330
1A
100
AcDbEntity
  8
ZUWAKU
100
AcDbCircle
 10
20.6086060756391
 20
3.83750028326656
 30
0.0
 40
0.2625
100
AcDbArc
 50
180.0
 51
270.0
  0
ARC
  5
3416
330
1A
100
AcDbEntity
  8
ZUWAKU
100
AcDbCircle
 10
25.07110607563913
 20
4.97500028326656
 30
0.0
 40
1.399999999999999
100
AcDbArc
 50
270.0
 51
0.0
  0
ARC
  5
3417
330
1A
100
AcDbEntity
  8
ZUWAKU
100
AcDbCircle
 10
28.9211060756391
 20
4.97500028326656
 30
0.0
 40
1.399999999999999
100
AcDbArc
 50
180.0
 51
270.0
  0
LINE
  5
3418
330
1A
100
AcDbEntity
  8
ZUWAKU
100
AcDbLine
 10
25.85603031613089
 20
7.367525536435973
 30
0.0
 11
24.4011313288085
 21
8.822424523758311
 31
0.0
  0
LINE
  5
3419
330
1A
100
AcDbEntity
  8
ZUWAKU
100
AcDbLine
 10
23.41118183514737
 20
7.83247503009715
 30
0.0
 11
24.86608082246971
 21
6.377576042774819
 31
0.0
  0
LINE
  5
341A
330
1A
100
AcDbEntity
  8
ZUWAKU
100
AcDbLine
 10
23.32110607563913
 20
3.575000283266561
 30
0.0
 11
25.07110607563913
 21
3.575000283266561
 31
0.0
  0
LINE
  5
341B
330
1A
100
AcDbEntity
  8
ZUWAKU
100
AcDbLine
 10
23.32110607563913
 20
4.97500028326656
 30
0.0
 11
24.80860607563909
 21
4.97500028326656
 31
0.0
  0
ARC
  5
341C
330
1A
100
AcDbEntity
  8
ZUWAKU
100
AcDbCircle
 10
23.32110607563913
 20
4.71250028326656
 30
0.0
 40
0.2625
100
AcDbArc
 50
90.0
 51
180.0
  0
ARC
  5
341D
330
1A
100
AcDbEntity
  8
ZUWAKU
100
AcDbCircle
 10
21.4836060756391
 20
3.83750028326656
 30
0.0
 40
0.2625
100
AcDbArc
 50
270.0
 51
0.0
  0
ARC
  5
341E
330
1A
100
AcDbEntity
  8
ZUWAKU
100
AcDbCircle
 10
23.32110607563913
 20
3.83750028326656
 30
0.0
 40
0.2625
100
AcDbArc
 50
180.0
 51
270.0
  0
LINE
  5
341F
330
1A
100
AcDbEntity
  8
ZUWAKU
100
AcDbLine
 10
23.05860607563908
 20
3.83750028326656
 30
0.0
 11
23.05860607563908
 21
4.71250028326656
 31
0.0
  0
ARC
  5
3420
330
1A
100
AcDbEntity
  8
ZUWAKU
100
AcDbCircle
 10
24.80860607563909
 20
5.237500283266562
 30
0.0
 40
0.2625
100
AcDbArc
 50
270.0
 51
0.0
  0
ARC
  5
3421
330
1A
100
AcDbEntity
  8
ZUWAKU
100
AcDbCircle
 10
24.37110607563909
 20
5.882601295944233
 30
0.0
 40
0.7
100
AcDbArc
 50
0.0
 51
45.0
  0
LINE
  5
3422
330
1A
100
AcDbEntity
  8
ZUWAKU
100
AcDbLine
 10
25.07110607563913
 20
5.237500283266562
 30
0.0
 11
25.07110607563913
 21
5.882601295944233
 31
0.0
  0
ARC
  5
3423
330
1A
100
AcDbEntity
  8
ZUWAKU
100
AcDbCircle
 10
29.44610607563913
 20
5.500000283266558
 30
0.0
 40
0.525
100
AcDbArc
 50
180.0
 51
270.0
  0
ARC
  5
3424
330
1A
100
AcDbEntity
  8
ZUWAKU
100
AcDbCircle
 10
24.37110607563909
 20
5.882601295944212
 30
0.0
 40
2.099999999999999
100
AcDbArc
 50
0.0
 51
45.0
  0
LINE
  5
3425
330
1A
100
AcDbEntity
  8
ZUWAKU
100
AcDbLine
 10
26.47110607563911
 20
4.97500028326656
 30
0.0
 11
26.47110607563911
 21
5.882601295944233
 31
0.0
  0
ARC
  5
3426
330
1A
100
AcDbEntity
  8
ZUWAKU
100
AcDbCircle
 10
30.6711060756391
 20
4.97500028326656
 30
0.0
 40
1.399999999999999
100
AcDbArc
 50
270.0
 51
0.0
  0
LINE
  5
3427
330
1A
100
AcDbEntity
  8
ZUWAKU
100
AcDbLine
 10
33.38360607563913
 20
3.575000283266561
 30
0.0
 11
34.25860607563913
 21
3.575000283266561
 31
0.0
  0
ARC
  5
3428
330
1A
100
AcDbEntity
  8
ZUWAKU
100
AcDbCircle
 10
30.14610607563912
 20
5.500000283266558
 30
0.0
 40
0.525
100
AcDbArc
 50
270.0
 51
0.0
  0
ARC
  5
3429
330
1A
100
AcDbEntity
  8
ZUWAKU
100
AcDbCircle
 10
33.38360607563913
 20
3.83750028326656
 30
0.0
 40
0.2625
100
AcDbArc
 50
180.0
 51
270.0
  0
ARC
  5
342A
330
1A
100
AcDbEntity
  8
ZUWAKU
100
AcDbCircle
 10
34.25860607563913
 20
3.83750028326656
 30
0.0
 40
0.2625
100
AcDbArc
 50
270.0
 51
0.0
  0
LINE
  5
342B
330
1A
100
AcDbEntity
  8
ZUWAKU
100
AcDbLine
 10
21.4836060756391
 20
11.62500028326656
 30
0.0
 11
20.6086060756391
 21
11.62500028326656
 31
0.0
  0
LINE
  5
342C
330
1A
100
AcDbEntity
  8
ZUWAKU
100
AcDbLine
 10
13.69610607563913
 20
11.36250028326655
 30
0.0
 11
13.69610607563913
 21
10.48750028326655
 31
0.0
  0
ARC
  5
342D
330
1A
100
AcDbEntity
  8
ZUWAKU
100
AcDbCircle
 10
13.43360607563909
 20
10.48750028326655
 30
0.0
 40
0.2625
100
AcDbArc
 50
270.0
 51
0.0
  0
ARC
  5
342E
330
1A
100
AcDbEntity
  8
ZUWAKU
100
AcDbCircle
 10
15.18360607563909
 20
11.36250028326655
 30
0.0
 40
0.2625
100
AcDbArc
 50
90.0
 51
180.0
  0
ARC
  5
342F
330
1A
100
AcDbEntity
  8
ZUWAKU
100
AcDbCircle
 10
13.43360607563909
 20
11.36250028326655
 30
0.0
 40
0.2625
100
AcDbArc
 50
0.0
 51
90.0
  0
LINE
  5
3430
330
1A
100
AcDbEntity
  8
ZUWAKU
100
AcDbLine
 10
16.05860607563909
 20
11.62500028326656
 30
0.0
 11
15.18360607563909
 21
11.62500028326656
 31
0.0
  0
ARC
  5
3431
330
1A
100
AcDbEntity
  8
ZUWAKU
100
AcDbCircle
 10
16.05860607563909
 20
11.36250028326655
 30
0.0
 40
0.2625
100
AcDbArc
 50
0.0
 51
90.0
  0
ARC
  5
3432
330
1A
100
AcDbEntity
  8
ZUWAKU
100
AcDbCircle
 10
18.08848899389477
 20
11.36250028326655
 30
0.0
 40
0.2625
100
AcDbArc
 50
90.0
 51
162.4744316262769
  0
LINE
  5
3433
330
1A
100
AcDbEntity
  8
ZUWAKU
100
AcDbLine
 10
19.188249133297
 20
11.28345329918307
 30
0.0
 11
18.6574293167281
 21
9.602523880048273
 31
0.0
  0
ARC
  5
3434
330
1A
100
AcDbEntity
  8
ZUWAKU
100
AcDbCircle
 10
18.93793368369927
 20
11.36250028326655
 30
0.0
 40
0.2625
100
AcDbArc
 50
342.4744316262769
 51
90.0
  0
LINE
  5
3435
330
1A
100
AcDbEntity
  8
ZUWAKU
100
AcDbLine
 10
18.08848899389477
 20
11.62500028326656
 30
0.0
 11
18.93793368369927
 21
11.62500028326656
 31
0.0
  0
ARC
  5
3436
330
1A
100
AcDbEntity
  8
ZUWAKU
100
AcDbCircle
 10
20.6086060756391
 20
11.36250028326655
 30
0.0
 40
0.2625
100
AcDbArc
 50
90.0
 51
180.0
  0
LINE
  5
3437
330
1A
100
AcDbEntity
  8
ZUWAKU
100
AcDbLine
 10
25.94610607563913
 20
10.22500028326656
 30
0.0
 11
24.45860607563912
 21
10.22500028326656
 31
0.0
  0
LINE
  5
3438
330
1A
100
AcDbEntity
  8
ZUWAKU
100
AcDbLine
 10
24.19610607563913
 20
11.62500028326656
 30
0.0
 11
25.94610607563913
 21
11.62500028326656
 31
0.0
  0
ARC
  5
3439
330
1A
100
AcDbEntity
  8
ZUWAKU
100
AcDbCircle
 10
24.19610607563913
 20
10.22500028326656
 30
0.0
 40
1.399999999999999
100
AcDbArc
 50
90.0
 51
180.0
  0
LINE
  5
343A
330
1A
100
AcDbEntity
  8
ZUWAKU
100
AcDbLine
 10
22.7961060756391
 20
10.22500028326656
 30
0.0
 11
22.7961060756391
 21
9.317399270588889
 31
0.0
  0
ARC
  5
343B
330
1A
100
AcDbEntity
  8
ZUWAKU
100
AcDbCircle
 10
21.4836060756391
 20
11.36250028326655
 30
0.0
 40
0.2625
100
AcDbArc
 50
0.0
 51
90.0
  0
LINE
  5
343C
330
1A
100
AcDbEntity
  8
ZUWAKU
100
AcDbLine
 10
24.19610607563913
 20
9.96250028326656
 30
0.0
 11
24.19610607563913
 21
9.317399270588889
 31
0.0
  0
ARC
  5
343D
330
1A
100
AcDbEntity
  8
ZUWAKU
100
AcDbCircle
 10
24.45860607563912
 20
9.96250028326656
 30
0.0
 40
0.2625
100
AcDbArc
 50
90.0
 51
180.0
  0
LINE
  5
343E
330
1A
100
AcDbEntity
  8
ZUWAKU
100
AcDbLine
 10
26.20860607563912
 20
11.36250028326655
 30
0.0
 11
26.20860607563912
 21
10.48750028326655
 31
0.0
  0
ARC
  5
343F
330
1A
100
AcDbEntity
  8
ZUWAKU
100
AcDbCircle
 10
25.94610607563913
 20
10.48750028326655
 30
0.0
 40
0.2625
100
AcDbArc
 50
270.0
 51
0.0
  0
ARC
  5
3440
330
1A
100
AcDbEntity
  8
ZUWAKU
100
AcDbCircle
 10
25.94610607563913
 20
11.36250028326655
 30
0.0
 40
0.2625
100
AcDbArc
 50
0.0
 51
90.0
  0
LINE
  5
3441
330
1A
100
AcDbEntity
  8
ZUWAKU
100
AcDbLine
 10
28.65860607563911
 20
11.62500028326656
 30
0.0
 11
27.78360607563911
 21
11.62500028326656
 31
0.0
  0
ARC
  5
3442
330
1A
100
AcDbEntity
  8
ZUWAKU
100
AcDbCircle
 10
27.78360607563911
 20
11.36250028326655
 30
0.0
 40
0.2625
100
AcDbArc
 50
90.0
 51
180.0
  0
ARC
  5
3443
330
1A
100
AcDbEntity
  8
ZUWAKU
100
AcDbCircle
 10
28.65860607563911
 20
11.36250028326655
 30
0.0
 40
0.2625
100
AcDbArc
 50
0.0
 51
90.0
  0
LINE
  5
3444
330
1A
100
AcDbEntity
  8
ZUWAKU
100
AcDbLine
 10
34.25860607563913
 20
11.62500028326656
 30
0.0
 11
33.38360607563913
 21
11.62500028326656
 31
0.0
  0
ARC
  5
3445
330
1A
100
AcDbEntity
  8
ZUWAKU
100
AcDbCircle
 10
30.93360607563909
 20
11.36250028326655
 30
0.0
 40
0.2625
100
AcDbArc
 50
90.0
 51
180.0
  0
LINE
  5
3446
330
1A
100
AcDbEntity
  8
ZUWAKU
100
AcDbLine
 10
31.80860607563909
 20
11.62500028326656
 30
0.0
 11
30.93360607563909
 21
11.62500028326656
 31
0.0
  0
ARC
  5
3447
330
1A
100
AcDbEntity
  8
ZUWAKU
100
AcDbCircle
 10
31.80860607563909
 20
11.36250028326655
 30
0.0
 40
0.2625
100
AcDbArc
 50
0.0
 51
90.0
  0
ARC
  5
3448
330
1A
100
AcDbEntity
  8
ZUWAKU
100
AcDbCircle
 10
33.38360607563913
 20
11.36250028326655
 30
0.0
 40
0.2625
100
AcDbArc
 50
90.0
 51
180.0
  0
ARC
  5
3449
330
1A
100
AcDbEntity
  8
ZUWAKU
100
AcDbCircle
 10
34.25860607563913
 20
11.36250028326655
 30
0.0
 40
0.2625
100
AcDbArc
 50
0.0
 51
90.0
  0
TEXT
  5
344A
330
1A
100
AcDbEntity
  8
MOJI
100
AcDbText
 10
119.913601338674
 20
1.602460811970269
 30
0.0
 40
2.799999999999999
  1
ＲＶ１０５－４－２０
 41
0.9
  7
ｽﾀｲﾙ1
100
AcDbText
  0
TEXT
  5
344B
330
1A
100
AcDbEntity
  8
MOJI
100
AcDbText
 10
119.913601338674
 20
9.002460811970252
 30
0.0
 40
2.799999999999999
  1
亜鉛メッキ金具正面打（受）ストロング高強度金具角使い
 41
0.9
  7
ｽﾀｲﾙ1
100
AcDbText
  0
LINE
  5
344C
330
1A
100
AcDbEntity
  8
ZUWAKU
100
AcDbLine
 10
104.2233006432824
 20
15.00000028326655
 30
0.0
 11
104.2233006432825
 21
0.4000002832665928
 31
0.0
  0
LINE
  5
344D
330
1A
100
AcDbEntity
  8
ZUWAKU
100
AcDbLine
 10
104.3233006432824
 20
15.00000028326655
 30
0.0
 11
104.3233006432825
 21
0.4000002832665928
 31
0.0
  0
LINE
  5
344E
330
1A
100
AcDbEntity
  8
ZUWAKU
100
AcDbLine
 10
104.1233006432825
 20
15.00000028326655
 30
0.0
 11
104.1233006432825
 21
0.4000002832665928
 31
0.0
  0
TEXT
  5
344F
330
1A
100
AcDbEntity
  8
ZUWAKU
100
AcDbText
 10
104.8620231543873
 20
4.827678552459367
 30
0.0
 40
2.0
  1
サイズ
 41
0.9
  7
ｽﾀｲﾙ1
100
AcDbText
  0
TEXT
  5
3450
330
1A
100
AcDbEntity
  8
ZUWAKU
100
AcDbText
 10
104.8620231543871
 20
12.02767855245935
 30
0.0
 40
2.0
  1
品名
 41
0.9
  7
ｽﾀｲﾙ1
100
AcDbText
  0
TEXT
  5
3451
330
1A
100
AcDbEntity
  8
ZUWAKU
100
AcDbText
 10
329.1019688418997
 20
9.002460811970252
 30
0.0
 40
2.799999999999999
  1
　　．　　．　　
 41
0.9
  7
ｽﾀｲﾙ1
100
AcDbText
  0
LINE
  5
3452
330
1A
100
AcDbEntity
  8
ZUWAKU
100
AcDbLine
 10
324.4086012533506
 20
7.800000283266575
 30
0.0
 11
348.6245052725191
 21
7.800000283266575
 31
0.0
  0
LINE
  5
3453
330
1A
100
AcDbEntity
  8
ZUWAKU
100
AcDbLine
 10
324.4086012533507
 20
7.700000283266577
 30
0.0
 11
348.6245052725191
 21
7.700000283266575
 31
0.0
  0
LINE
  5
3454
330
1A
100
AcDbEntity
  8
ZUWAKU
100
AcDbLine
 10
324.4086012533506
 20
7.600000283266574
 30
0.0
 11
348.6245052725191
 21
7.600000283266576
 31
0.0
  0
LINE
  5
3455
330
1A
100
AcDbEntity
  8
ZUWAKU
100
AcDbLine
 10
252.5995897473189
 20
7.800000283266575
 30
0.0
 11
276.2634778813047
 21
7.800000283266575
 31
0.0
  0
LINE
  5
3456
330
1A
100
AcDbEntity
  8
ZUWAKU
100
AcDbLine
 10
252.5995897473189
 20
7.700000283266575
 30
0.0
 11
276.2634778813047
 21
7.700000283266575
 31
0.0
  0
LINE
  5
3457
330
1A
100
AcDbEntity
  8
ZUWAKU
100
AcDbLine
 10
252.5995897473189
 20
7.600000283266577
 30
0.0
 11
276.2634778813047
 21
7.600000283266577
 31
0.0
  0
LINE
  5
3458
330
1A
100
AcDbEntity
  8
ZUWAKU
100
AcDbLine
 10
252.399589747319
 20
15.00000028326655
 30
0.0
 11
252.399589747319
 21
0.4000002832665928
 31
0.0
  0
LINE
  5
3459
330
1A
100
AcDbEntity
  8
ZUWAKU
100
AcDbLine
 10
252.5995897473189
 20
15.00000028326655
 30
0.0
 11
252.599589747319
 21
0.4000002832665928
 31
0.0
  0
LINE
  5
345A
330
1A
100
AcDbEntity
  8
ZUWAKU
100
AcDbLine
 10
252.4995897473189
 20
15.00000028326655
 30
0.0
 11
252.499589747319
 21
0.4000002832665928
 31
0.0
  0
TEXT
  5
345B
330
1A
100
AcDbEntity
  8
MOJI
100
AcDbText
 10
264.0204539844049
 20
9.002460811970252
 30
0.0
 40
2.799999999999999
  1
Ａ３
 41
0.9
  7
ｽﾀｲﾙ1
100
AcDbText
  0
LINE
  5
345C
330
1A
100
AcDbEntity
  8
ZUWAKU
100
AcDbLine
 10
223.7121819837442
 20
15.00000028326655
 30
0.0
 11
223.7121819837442
 21
0.4000002832665928
 31
0.0
  0
LINE
  5
345D
330
1A
100
AcDbEntity
  8
ZUWAKU
100
AcDbLine
 10
223.9121819837441
 20
15.00000028326655
 30
0.0
 11
223.9121819837442
 21
0.4000002832665928
 31
0.0
  0
LINE
  5
345E
330
1A
100
AcDbEntity
  8
ZUWAKU
100
AcDbLine
 10
223.8121819837441
 20
15.00000028326655
 30
0.0
 11
223.8121819837442
 21
0.4000002832665928
 31
0.0
  0
TEXT
  5
345F
330
1A
100
AcDbEntity
  8
MOJI
100
AcDbText
 10
231.2836391592428
 20
5.971309144096551
 30
0.0
 40
2.799999999999999
  1
ＬＬ３３Ｇ
 41
0.9
  7
ｽﾀｲﾙ1
100
AcDbText
  0
TEXT
  5
3460
330
1A
100
AcDbEntity
  8
ZUWAKU
100
AcDbText
 10
253.3383122584239
 20
4.827678552459367
 30
0.0
 40
2.0
  1
縮尺
 41
0.9
  7
ｽﾀｲﾙ1
100
AcDbText
  0
TEXT
  5
3461
330
1A
100
AcDbEntity
  8
MOJI
100
AcDbText
 10
264.0204539844049
 20
1.602460811970269
 30
0.0
 40
2.799999999999999
  1
１/１
 41
0.9
  7
ｽﾀｲﾙ1
100
AcDbText
  0
TEXT
  5
3462
330
1A
100
AcDbEntity
  8
ZUWAKU
100
AcDbText
 10
224.6509044948489
 20
12.02767855245935
 30
0.0
 40
2.0
  1
品番
 41
0.9
  7
ｽﾀｲﾙ1
100
AcDbText
  0
TEXT
  5
3463
330
1A
100
AcDbEntity
  8
ZUWAKU
100
AcDbText
 10
253.3383122584238
 20
12.02767855245935
 30
0.0
 40
2.0
  1
用紙
 41
0.9
  7
ｽﾀｲﾙ1
100
AcDbText
  0
LINE
  5
3464
330
1A
100
AcDbEntity
  8
ZUWAKU
100
AcDbLine
 10
276.2634778813047
 20
15.00000028326655
 30
0.0
 11
276.2634778813047
 21
0.4000002832665928
 31
0.0
  0
LINE
  5
3465
330
1A
100
AcDbEntity
  8
ZUWAKU
100
AcDbLine
 10
276.4634778813046
 20
15.00000028326655
 30
0.0
 11
276.4634778813048
 21
0.4000002832665928
 31
0.0
  0
LINE
  5
3466
330
1A
100
AcDbEntity
  8
ZUWAKU
100
AcDbLine
 10
276.3634778813046
 20
15.00000028326655
 30
0.0
 11
276.3634778813047
 21
0.4000002832665928
 31
0.0
  0
LINE
  5
3467
330
1A
100
AcDbEntity
  8
ZUWAKU
100
AcDbLine
 10
324.2086012533508
 20
15.00000028326655
 30
0.0
 11
324.2086012533508
 21
0.4000002832665928
 31
0.0
  0
LINE
  5
3468
330
1A
100
AcDbEntity
  8
ZUWAKU
100
AcDbLine
 10
324.4086012533507
 20
15.00000028326655
 30
0.0
 11
324.4086012533508
 21
0.4000002832665928
 31
0.0
  0
LINE
  5
3469
330
1A
100
AcDbEntity
  8
ZUWAKU
100
AcDbLine
 10
324.3086012533507
 20
15.00000028326655
 30
0.0
 11
324.3086012533508
 21
0.4000002832665928
 31
0.0
  0
TEXT
  5
346A
330
1A
100
AcDbEntity
  8
ZUWAKU
100
AcDbText
 10
325.1473237644555
 20
12.02767855245935
 30
0.0
 40
2.0
  1
DATE
 41
0.9
  7
ｽﾀｲﾙ1
100
AcDbText
  0
TEXT
  5
346B
330
1A
100
AcDbEntity
  8
ZUWAKU
100
AcDbText
 10
354.2640420943704
 20
8.77691995110996
 30
0.0
 40
3.0
  1
積水化学工業株式会社
 41
0.9
  7
ｽﾀｲﾙ1
100
AcDbText
  0
LINE
  5
346C
330
1A
100
AcDbEntity
  8
ZUWAKU
100
AcDbLine
 10
348.9245052725191
 20
15.00000028326655
 30
0.0
 11
348.9245052725192
 21
0.4000002832665928
 31
0.0
  0
LINE
  5
346D
330
1A
100
AcDbEntity
  8
ZUWAKU
100
AcDbLine
 10
348.824505272519
 20
15.00000028326655
 30
0.0
 11
348.8245052725192
 21
0.4000002832665928
 31
0.0
  0
LINE
  5
346E
330
1A
100
AcDbEntity
  8
ZUWAKU
100
AcDbLine
 10
348.7245052725191
 20
15.00000028326655
 30
0.0
 11
348.7245052725191
 21
0.4000002832665928
 31
0.0
  0
LINE
  5
346F
330
1A
100
AcDbEntity
  8
ZUWAKU
100
AcDbLine
 10
348.6245052725191
 20
15.00000028326655
 30
0.0
 11
348.6245052725191
 21
0.4000002832665928
 31
0.0
  0
TEXT
  5
3470
330
1A
100
AcDbEntity
  8
ZUWAKU
100
AcDbText
 10
354.2640420943704
 20
3.324420440193591
 30
0.0
 40
3.0
  1
建材事業部
 41
0.9
  7
ｽﾀｲﾙ1
100
AcDbText
  0
VIEWPORT
  5
22
330
17
100
AcDbEntity
 67
     1
  8
0
100
AcDbViewport
 10
313.6808219178082
 20
148.5
 30
0.0
 40
627.3616438356165
 41
297.0
 68
     2
 69
     1
1001
ACAD
1000
MVIEW
1002
{
1070
    16
1010
0.0
1020
0.0
1030
0.0
1010
0.0
1020
0.0
1030
1.0
1040
0.0
1040
297.0
1040
313.6808219178082
1040
148.5
1040
50.0
1040
0.0
1040
0.0
1070
     0
1070
   100
1070
     1
1070
     0
1070
     0
1070
     0
1070
     0
1070
     0
1040
0.0
1040
0.0
1040
0.0
1040
1.0
1040
1.0
1040
10.0
1040
10.0
1070
     0
1002
{
1002
}
1002
}
  0
VIEWPORT
  5
64
330
17
100
AcDbEntity
 67
     1
  8
VIEWPORT
100
AcDbViewport
 10
210.0
 20
148.5
 30
0.0
 40
420.0
 41
297.0
 68
     1
 69
     2
1001
ACAD
1000
MVIEW
1002
{
1070
    16
1010
0.0
1020
0.0
1030
0.0
1010
0.0
1020
0.0
1030
1.0
1040
0.0
1040
302.9399999999998
1040
210.0
1040
148.5
1040
50.0
1040
0.0
1040
0.0
1070
     0
1070
   100
1070
     1
1070
     0
1070
     0
1070
     0
1070
     0
1070
     0
1040
0.0
1040
0.0
1040
0.0
1040
5.0
1040
5.0
1040
0.0
1040
0.0
1070
     0
1002
{
1002
}
1002
}
  0
ENDSEC
  0
SECTION
  2
OBJECTS
  0
DICTIONARY
  5
C
330
0
100
AcDbDictionary
  3
ACAD_GROUP
350
D
  3
ACAD_LAYOUT
350
141
  3
ACAD_MLINESTYLE
350
E
  3
ACAD_PLOTSETTINGS
350
142
  3
ACAD_PLOTSTYLENAME
350
30CC
  3
ACDBHEADERROUNDTRIPXREC
350
34DF
1001
ACAD
1000
TREAT_AS_HARD
1070
     0
  0
DICTIONARY
  5
73C
330
1A
100
AcDbDictionary
280
     1
  3
ACAD_LAYOUTSELFREF
360
3501
1001
ACAD
1000
TREAT_AS_HARD
1070
     1
  0
DICTIONARY
  5
73A
330
17
100
AcDbDictionary
280
     1
  3
ACAD_LAYOUTSELFREF
360
3500
1001
ACAD
1000
TREAT_AS_HARD
1070
     1
  0
DICTIONARY
  5
D
102
{ACAD_REACTORS
330
C
102
}
330
C
100
AcDbDictionary
1001
ACAD
1000
TREAT_AS_HARD
1070
     0
  0
DICTIONARY
  5
141
102
{ACAD_REACTORS
330
C
102
}
330
C
100
AcDbDictionary
1001
ACAD
1000
TREAT_AS_HARD
1070
     0
  0
DICTIONARY
  5
E
102
{ACAD_REACTORS
330
C
102
}
330
C
100
AcDbDictionary
  3
STANDARD
350
13
1001
ACAD
1000
TREAT_AS_HARD
1070
     0
  0
DICTIONARY
  5
142
102
{ACAD_REACTORS
330
C
102
}
330
C
100
AcDbDictionary
1001
ACAD
1000
TREAT_AS_HARD
1070
     0
  0
ACDBDICTIONARYWDFLT
  5
30CC
102
{ACAD_REACTORS
330
C
102
}
330
C
100
AcDbDictionary
281
     1
  3
Normal
350
30CD
100
AcDbDictionaryWithDefault
340
30CD
1001
ACAD
1000
TREAT_AS_HARD
1070
     0
1000
TREAT_AS_HARD
1070
     0
  0
DICTIONARY
  5
34DF
102
{ACAD_REACTORS
330
C
102
}
330
C
100
AcDbDictionary
  3
TSTACKALIGN
350
34E0
  3
TSTACKSIZE
350
34E1
  3
HYPERLINKBASE
350
34E2
  3
STYLESHEET
350
34E3
  3
LAYOUTDICT
350
34E4
  3
PLOTSETDICT
350
34E5
  3
PLOTSTYLNAMDICT
350
34E6
  3
LWETCUNION
350
34E7
  3
INSUNITS
350
34E8
  3
CEPSNTYPE
350
34E9
  3
FINGERPRINTGUID
350
34EA
  3
VERSIONGUID
350
34EB
  3
PSVPSCALE
350
34EC
  3
DIMSTYLEDATA
350
34ED
  3
PUCSORTHOREF
350
34EE
  3
PUCSORTHOVIEW
350
34EF
  3
PUCSBASE
350
34F0
  3
PUCSORGTOP
350
34F1
  3
PUCSORGBOTTOM
350
34F2
  3
PUCSORGLEFT
350
34F3
  3
PUCSORGRIGHT
350
34F4
  3
PUCSORGFRONT
350
34F5
  3
PUCSORGBACK
350
34F6
  3
UCSORTHOREF
350
34F7
  3
UCSORTHOVIEW
350
34F8
  3
UCSBASE
350
34F9
  3
UCSORGTOP
350
34FA
  3
UCSORGBOTTOM
350
34FB
  3
UCSORGLEFT
350
34FC
  3
UCSORGRIGHT
350
34FD
  3
UCSORGFRONT
350
34FE
  3
UCSORGBACK
350
34FF
  0
XRECORD
  5
3501
102
{ACAD_REACTORS
330
73C
102
}
330
73C
100
AcDbXrecord
340
1A
  0
XRECORD
  5
3500
102
{ACAD_REACTORS
330
73A
102
}
330
73A
100
AcDbXrecord
340
17
  0
MLINESTYLE
  5
13
102
{ACAD_REACTORS
330
E
102
}
330
E
100
AcDbMlineStyle
  2
STANDARD
 70
     0
  3

 62
     0
 51
90.0
 52
90.0
 71
     2
 49
0.5
 62
   256
  6
BYLAYER
 49
-0.5
 62
   256
  6
BYLAYER
  0
ACDBPLACEHOLDER
  5
30CD
102
{ACAD_REACTORS
330
30CC
102
}
330
30CC
100
AcDbPlaceHolder
280
     0
  0
XRECORD
  5
34E0
102
{ACAD_REACTORS
330
34DF
102
}
330
34DF
100
AcDbXrecord
 90
        1
  0
XRECORD
  5
34E1
102
{ACAD_REACTORS
330
34DF
102
}
330
34DF
100
AcDbXrecord
 90
       70
  0
XRECORD
  5
34E2
102
{ACAD_REACTORS
330
34DF
102
}
330
34DF
100
AcDbXrecord
  1

  0
XRECORD
  5
34E3
102
{ACAD_REACTORS
330
34DF
102
}
330
34DF
100
AcDbXrecord
  1
systemprinter.ctb
  0
XRECORD
  5
34E4
102
{ACAD_REACTORS
330
34DF
102
}
330
34DF
100
AcDbXrecord
340
141
  0
XRECORD
  5
34E5
102
{ACAD_REACTORS
330
34DF
102
}
330
34DF
100
AcDbXrecord
340
142
  0
XRECORD
  5
34E6
102
{ACAD_REACTORS
330
34DF
102
}
330
34DF
100
AcDbXrecord
340
30CC
  0
XRECORD
  5
34E7
102
{ACAD_REACTORS
330
34DF
102
}
330
34DF
100
AcDbXrecord
 90
    10781
  0
XRECORD
  5
34E8
102
{ACAD_REACTORS
330
34DF
102
}
330
34DF
100
AcDbXrecord
 90
        0
  0
XRECORD
  5
34E9
102
{ACAD_REACTORS
330
34DF
102
}
330
34DF
100
AcDbXrecord
 90
        0
  0
XRECORD
  5
34EA
102
{ACAD_REACTORS
330
34DF
102
}
330
34DF
100
AcDbXrecord
  1
{AE6BE1C5-9BDB-433F-9E24-07DAA6B3A44D}
  0
XRECORD
  5
34EB
102
{ACAD_REACTORS
330
34DF
102
}
330
34DF
100
AcDbXrecord
  1
{CBCD3A48-87E9-4B0E-BF28-AF87AF42D62F}
  0
XRECORD
  5
34EC
102
{ACAD_REACTORS
330
34DF
102
}
330
34DF
100
AcDbXrecord
 40
0.0
  0
XRECORD
  5
34ED
102
{ACAD_REACTORS
330
34DF
102
}
330
34DF
100
AcDbXrecord
1000
DSTYLE
1002
{
1070
   341
340
B2
1070
   343
340
B2
1070
   344
340
B2
1070
   371
 70
    -1
1070
   372
 70
    -1
1002
}
  0
XRECORD
  5
34EE
102
{ACAD_REACTORS
330
34DF
102
}
330
34DF
100
AcDbXrecord
340
0
  0
XRECORD
  5
34EF
102
{ACAD_REACTORS
330
34DF
102
}
330
34DF
100
AcDbXrecord
 70
     0
  0
XRECORD
  5
34F0
102
{ACAD_REACTORS
330
34DF
102
}
330
34DF
100
AcDbXrecord
340
0
  0
XRECORD
  5
34F1
102
{ACAD_REACTORS
330
34DF
102
}
330
34DF
100
AcDbXrecord
 10
0.0
 20
0.0
 30
0.0
  0
XRECORD
  5
34F2
102
{ACAD_REACTORS
330
34DF
102
}
330
34DF
100
AcDbXrecord
 10
0.0
 20
0.0
 30
0.0
  0
XRECORD
  5
34F3
102
{ACAD_REACTORS
330
34DF
102
}
330
34DF
100
AcDbXrecord
 10
0.0
 20
0.0
 30
0.0
  0
XRECORD
  5
34F4
102
{ACAD_REACTORS
330
34DF
102
}
330
34DF
100
AcDbXrecord
 10
0.0
 20
0.0
 30
0.0
  0
XRECORD
  5
34F5
102
{ACAD_REACTORS
330
34DF
102
}
330
34DF
100
AcDbXrecord
 10
0.0
 20
0.0
 30
0.0
  0
XRECORD
  5
34F6
102
{ACAD_REACTORS
330
34DF
102
}
330
34DF
100
AcDbXrecord
 10
0.0
 20
0.0
 30
0.0
  0
XRECORD
  5
34F7
102
{ACAD_REACTORS
330
34DF
102
}
330
34DF
100
AcDbXrecord
340
0
  0
XRECORD
  5
34F8
102
{ACAD_REACTORS
330
34DF
102
}
330
34DF
100
AcDbXrecord
 70
     0
  0
XRECORD
  5
34F9
102
{ACAD_REACTORS
330
34DF
102
}
330
34DF
100
AcDbXrecord
340
0
  0
XRECORD
  5
34FA
102
{ACAD_REACTORS
330
34DF
102
}
330
34DF
100
AcDbXrecord
 10
0.0
 20
0.0
 30
0.0
  0
XRECORD
  5
34FB
102
{ACAD_REACTORS
330
34DF
102
}
330
34DF
100
AcDbXrecord
 10
0.0
 20
0.0
 30
0.0
  0
XRECORD
  5
34FC
102
{ACAD_REACTORS
330
34DF
102
}
330
34DF
100
AcDbXrecord
 10
0.0
 20
0.0
 30
0.0
  0
XRECORD
  5
34FD
102
{ACAD_REACTORS
330
34DF
102
}
330
34DF
100
AcDbXrecord
 10
0.0
 20
0.0
 30
0.0
  0
XRECORD
  5
34FE
102
{ACAD_REACTORS
330
34DF
102
}
330
34DF
100
AcDbXrecord
 10
0.0
 20
0.0
 30
0.0
  0
XRECORD
  5
34FF
102
{ACAD_REACTORS
330
34DF
102
}
330
34DF
100
AcDbXrecord
 10
0.0
 20
0.0
 30
0.0
  0
ENDSEC
  0
EOF
