  0
SECTION
  2
HEADER
  9
$ACADVER
  1
AC1014
  9
$ACADMAINTVER
 70
     9
  9
$DWGCODEPAGE
  3
ANSI_932
  9
$INSBASE
 10
0.0
 20
0.0
 30
0.0
  9
$EXTMIN
 10
-0.0128164066901491
 20
-0.0090630292066862
 30
-0.0000000100021362
  9
$EXTMAX
 10
398.8000497812454
 20
275.8226172440017
 30
0.0000000100021363
  9
$LIMMIN
 10
0.0
 20
0.0
  9
$LIMMAX
 10
420.0
 20
297.0
  9
$ORTHOMODE
 70
     1
  9
$REGENMODE
 70
     1
  9
$FILLMODE
 70
     1
  9
$QTEXTMODE
 70
     0
  9
$MIRRTEXT
 70
     1
  9
$DRAGMODE
 70
     2
  9
$LTSCALE
 40
5.0
  9
$OSMODE
 70
    35
  9
$ATTMODE
 70
     1
  9
$TEXTSIZE
 40
4.0
  9
$TRACEWID
 40
1.0
  9
$TEXTSTYLE
  7
STANDARD
  9
$CLAYER
  8
SUNPOU
  9
$CELTYPE
  6
BYLAYER
  9
$CECOLOR
 62
   256
  9
$CELTSCALE
 40
1.0
  9
$DELOBJ
 70
     1
  9
$DISPSILH
 70
     0
  9
$DIMSCALE
 40
1.0
  9
$DIMASZ
 40
3.0
  9
$DIMEXO
 40
3.0
  9
$DIMDLI
 40
7.0
  9
$DIMRND
 40
0.0
  9
$DIMDLE
 40
0.0
  9
$DIMEXE
 40
1.5
  9
$DIMTP
 40
0.0
  9
$DIMTM
 40
0.0
  9
$DIMTXT
 40
3.0
  9
$DIMCEN
 40
3.0
  9
$DIMTSZ
 40
0.0
  9
$DIMTOL
 70
     0
  9
$DIMLIM
 70
     0
  9
$DIMTIH
 70
     0
  9
$DIMTOH
 70
     0
  9
$DIMSE1
 70
     0
  9
$DIMSE2
 70
     0
  9
$DIMTAD
 70
     3
  9
$DIMZIN
 70
     0
  9
$DIMBLK
  1

  9
$DIMASO
 70
     1
  9
$DIMSHO
 70
     1
  9
$DIMPOST
  1

  9
$DIMAPOST
  1

  9
$DIMALT
 70
     0
  9
$DIMALTD
 70
     2
  9
$DIMALTF
 40
25.4
  9
$DIMLFAC
 40
1.0
  9
$DIMTOFL
 70
     1
  9
$DIMTVP
 40
0.0
  9
$DIMTIX
 70
     0
  9
$DIMSOXD
 70
     0
  9
$DIMSAH
 70
     1
  9
$DIMBLK1
  1
OPEN
  9
$DIMBLK2
  1
OPEN
  9
$DIMSTYLE
  2
STANDARD
  9
$DIMCLRD
 70
   256
  9
$DIMCLRE
 70
   256
  9
$DIMCLRT
 70
   256
  9
$DIMTFAC
 40
1.0
  9
$DIMGAP
 40
1.0
  9
$DIMJUST
 70
     0
  9
$DIMSD1
 70
     0
  9
$DIMSD2
 70
     0
  9
$DIMTOLJ
 70
     1
  9
$DIMTZIN
 70
     0
  9
$DIMALTZ
 70
     0
  9
$DIMALTTZ
 70
     0
  9
$DIMFIT
 70
     3
  9
$DIMUPT
 70
     0
  9
$DIMUNIT
 70
     2
  9
$DIMDEC
 70
     0
  9
$DIMTDEC
 70
     0
  9
$DIMALTU
 70
     2
  9
$DIMALTTD
 70
     2
  9
$DIMTXSTY
  7
STANDARD
  9
$DIMAUNIT
 70
     0
  9
$LUNITS
 70
     2
  9
$LUPREC
 70
     4
  9
$SKETCHINC
 40
1.0
  9
$FILLETRAD
 40
10.0
  9
$AUNITS
 70
     0
  9
$AUPREC
 70
     2
  9
$MENU
  1
.
  9
$ELEVATION
 40
0.0
  9
$PELEVATION
 40
0.0
  9
$THICKNESS
 40
0.0
  9
$LIMCHECK
 70
     0
  9
$BLIPMODE
 70
     0
  9
$CHAMFERA
 40
10.0
  9
$CHAMFERB
 40
10.0
  9
$CHAMFERC
 40
20.0
  9
$CHAMFERD
 40
0.0
  9
$SKPOLY
 70
     0
  9
$TDCREATE
 40
2451569.441154629
  9
$TDUPDATE
 40
2453802.415575440
  9
$TDINDWG
 40
0.5247283333
  9
$TDUSRTIMER
 40
0.5247283333
  9
$USRTIMER
 70
     1
  9
$ANGBASE
 50
0.0
  9
$ANGDIR
 70
     0
  9
$PDMODE
 70
     0
  9
$PDSIZE
 40
0.0
  9
$PLINEWID
 40
0.0
  9
$COORDS
 70
     1
  9
$SPLFRAME
 70
     0
  9
$SPLINETYPE
 70
     6
  9
$SPLINESEGS
 70
     8
  9
$ATTDIA
 70
     0
  9
$ATTREQ
 70
     1
  9
$HANDLING
 70
 10241
  9
$HANDSEED
  5
370B
  9
$SURFTAB1
 70
     6
  9
$SURFTAB2
 70
     6
  9
$SURFTYPE
 70
     6
  9
$SURFU
 70
     6
  9
$SURFV
 70
     6
  9
$UCSNAME
  2

  9
$UCSORG
 10
0.0
 20
0.0
 30
0.0
  9
$UCSXDIR
 10
1.0
 20
0.0
 30
0.0
  9
$UCSYDIR
 10
0.0
 20
1.0
 30
0.0
  9
$PUCSNAME
  2

  9
$PUCSORG
 10
0.0
 20
0.0
 30
0.0
  9
$PUCSXDIR
 10
1.0
 20
0.0
 30
0.0
  9
$PUCSYDIR
 10
0.0
 20
1.0
 30
0.0
  9
$USERI1
 70
     0
  9
$USERI2
 70
     0
  9
$USERI3
 70
     0
  9
$USERI4
 70
     0
  9
$USERI5
 70
     0
  9
$USERR1
 40
0.0
  9
$USERR2
 40
0.0
  9
$USERR3
 40
0.0
  9
$USERR4
 40
0.0
  9
$USERR5
 40
0.0
  9
$WORLDVIEW
 70
     1
  9
$SHADEDGE
 70
     3
  9
$SHADEDIF
 70
    70
  9
$TILEMODE
 70
     1
  9
$MAXACTVP
 70
    16
  9
$PINSBASE
 10
0.0
 20
0.0
 30
0.0
  9
$PLIMCHECK
 70
     0
  9
$PEXTMIN
 10
0.0
 20
0.0
 30
0.0
  9
$PEXTMAX
 10
420.0
 20
297.0
 30
0.0
  9
$PLIMMIN
 10
0.0
 20
0.0
  9
$PLIMMAX
 10
420.0
 20
297.0
  9
$UNITMODE
 70
     0
  9
$VISRETAIN
 70
     0
  9
$PLINEGEN
 70
     0
  9
$PSLTSCALE
 70
     1
  9
$TREEDEPTH
 70
  3020
  9
$PICKSTYLE
 70
     1
  9
$CMLSTYLE
  2
STANDARD
  9
$CMLJUST
 70
     0
  9
$CMLSCALE
 40
1.0
  9
$PROXYGRAPHICS
 70
     1
  9
$MEASUREMENT
 70
     0
  0
ENDSEC
  0
SECTION
  2
CLASSES
  0
CLASS
  1
ACDBDICTIONARYWDFLT
  2
AcDbDictionaryWithDefault
  3
AutoCAD 2000
 90
        0
280
     0
281
     0
  0
CLASS
  1
ACDBPLACEHOLDER
  2
AcDbPlaceHolder
  3
AutoCAD 2000
 90
        0
280
     0
281
     0
  0
CLASS
  1
LAYOUT
  2
AcDbLayout
  3
AutoCAD 2000
 90
        0
280
     0
281
     0
  0
CLASS
  1
LONG_TRANSACTION
  2
AcDbLongTransaction
  3
AutoCAD 2000
 90
        0
280
     0
281
     0
  0
CLASS
  1
LWPOLYLINE
  2
AcDbPolyline
  3
AutoCAD 2000
 90
        0
280
     0
281
     1
  0
CLASS
  1
HATCH
  2
AcDbHatch
  3
AutoCAD 2000
 90
        0
280
     0
281
     1
  0
CLASS
  1
XRECORD
  2
AcDbXrecord
  3
AutoCAD 2000
 90
        0
280
     0
281
     0
  0
CLASS
  1
LONG_TRANSACTION
  2
AcDbLongTransaction
  3
AutoCAD 2000
 90
        0
280
     0
281
     0
  0
CLASS
  1
LWPOLYLINE
  2
AcDbPolyline
  3
AutoCAD 2000
 90
        0
280
     0
281
     1
  0
CLASS
  1
HATCH
  2
AcDbHatch
  3
AutoCAD 2000
 90
        0
280
     0
281
     1
  0
CLASS
  1
XRECORD
  2
AcDbXrecord
  3
AutoCAD 2000
 90
        0
280
     0
281
     0
  0
CLASS
  1
LONG_TRANSACTION
  2
AcDbLongTransaction
  3
AutoCAD 2000
 90
        0
280
     0
281
     0
  0
CLASS
  1
LWPOLYLINE
  2
AcDbPolyline
  3
AutoCAD 2000
 90
        0
280
     0
281
     1
  0
CLASS
  1
HATCH
  2
AcDbHatch
  3
AutoCAD 2000
 90
        0
280
     0
281
     1
  0
CLASS
  1
XRECORD
  2
AcDbXrecord
  3
AutoCAD 2000
 90
        0
280
     0
281
     0
  0
CLASS
  1
LONG_TRANSACTION
  2
AcDbLongTransaction
  3
AutoCAD 2000
 90
        0
280
     0
281
     0
  0
CLASS
  1
LWPOLYLINE
  2
AcDbPolyline
  3
AutoCAD 2000
 90
        0
280
     0
281
     1
  0
CLASS
  1
HATCH
  2
AcDbHatch
  3
AutoCAD 2000
 90
        0
280
     0
281
     1
  0
CLASS
  1
XRECORD
  2
AcDbXrecord
  3
AutoCAD 2000
 90
        0
280
     0
281
     0
  0
CLASS
  1
LONG_TRANSACTION
  2
AcDbLongTransaction
  3
AutoCAD 2000
 90
        0
280
     0
281
     0
  0
CLASS
  1
LWPOLYLINE
  2
AcDbPolyline
  3
AutoCAD 2000
 90
        0
280
     0
281
     1
  0
CLASS
  1
HATCH
  2
AcDbHatch
  3
AutoCAD 2000
 90
        0
280
     0
281
     1
  0
CLASS
  1
XRECORD
  2
AcDbXrecord
  3
AutoCAD 2000
 90
        0
280
     0
281
     0
  0
CLASS
  1
LONG_TRANSACTION
  2
AcDbLongTransaction
  3
AutoCAD 2000
 90
        0
280
     0
281
     0
  0
CLASS
  1
LWPOLYLINE
  2
AcDbPolyline
  3
AutoCAD 2000
 90
        0
280
     0
281
     1
  0
CLASS
  1
HATCH
  2
AcDbHatch
  3
AutoCAD 2000
 90
        0
280
     0
281
     1
  0
CLASS
  1
XRECORD
  2
AcDbXrecord
  3
AutoCAD 2000
 90
        0
280
     0
281
     0
  0
CLASS
  1
LONG_TRANSACTION
  2
AcDbLongTransaction
  3
AutoCAD 2000
 90
        0
280
     0
281
     0
  0
CLASS
  1
LWPOLYLINE
  2
AcDbPolyline
  3
AutoCAD 2000
 90
        0
280
     0
281
     1
  0
CLASS
  1
HATCH
  2
AcDbHatch
  3
AutoCAD 2000
 90
        0
280
     0
281
     1
  0
CLASS
  1
XRECORD
  2
AcDbXrecord
  3
AutoCAD 2000
 90
        0
280
     0
281
     0
  0
CLASS
  1
LONG_TRANSACTION
  2
AcDbLongTransaction
  3
AutoCAD 2000
 90
        0
280
     0
281
     0
  0
CLASS
  1
LWPOLYLINE
  2
AcDbPolyline
  3
AutoCAD 2000
 90
        0
280
     0
281
     1
  0
CLASS
  1
HATCH
  2
AcDbHatch
  3
AutoCAD 2000
 90
        0
280
     0
281
     1
  0
CLASS
  1
XRECORD
  2
AcDbXrecord
  3
AutoCAD 2000
 90
        0
280
     0
281
     0
  0
CLASS
  1
LONG_TRANSACTION
  2
AcDbLongTransaction
  3
AutoCAD 2000
 90
        0
280
     0
281
     0
  0
CLASS
  1
LWPOLYLINE
  2
AcDbPolyline
  3
AutoCAD 2000
 90
        0
280
     0
281
     1
  0
CLASS
  1
HATCH
  2
AcDbHatch
  3
AutoCAD 2000
 90
        0
280
     0
281
     1
  0
CLASS
  1
XRECORD
  2
AcDbXrecord
  3
AutoCAD 2000
 90
        0
280
     0
281
     0
  0
CLASS
  1
LONG_TRANSACTION
  2
AcDbLongTransaction
  3
AutoCAD 2000
 90
        0
280
     0
281
     0
  0
CLASS
  1
LWPOLYLINE
  2
AcDbPolyline
  3
AutoCAD 2000
 90
        0
280
     0
281
     1
  0
CLASS
  1
HATCH
  2
AcDbHatch
  3
AutoCAD 2000
 90
        0
280
     0
281
     1
  0
CLASS
  1
XRECORD
  2
AcDbXrecord
  3
AutoCAD 2000
 90
        0
280
     0
281
     0
  0
CLASS
  1
LONG_TRANSACTION
  2
AcDbLongTransaction
  3
AutoCAD 2000
 90
        0
280
     0
281
     0
  0
CLASS
  1
LWPOLYLINE
  2
AcDbPolyline
  3
AutoCAD 2000
 90
        0
280
     0
281
     1
  0
CLASS
  1
HATCH
  2
AcDbHatch
  3
AutoCAD 2000
 90
        0
280
     0
281
     1
  0
CLASS
  1
XRECORD
  2
AcDbXrecord
  3
AutoCAD 2000
 90
        0
280
     0
281
     0
  0
ENDSEC
  0
SECTION
  2
TABLES
  0
TABLE
  2
VPORT
  5
8
330
0
100
AcDbSymbolTable
 70
     2
  0
VPORT
  5
36E7
330
8
100
AcDbSymbolTableRecord
100
AcDbViewportTableRecord
  2
*ACTIVE
 70
     0
 10
0.0
 20
0.0
 11
1.0
 21
1.0
 12
207.3343499314163
 22
141.1276282338051
 13
0.0
 23
0.0
 14
5.0
 24
5.0
 15
0.0
 25
0.0
 16
0.0
 26
0.0
 36
1.0
 17
0.0
 27
0.0
 37
0.0
 40
326.2261427875333
 41
1.795454545454545
 42
50.0
 43
0.0
 44
0.0
 50
0.0
 51
0.0
 71
     0
 72
   100
 73
     1
 74
     0
 75
     0
 76
     0
 77
     0
 78
     0
  0
ENDTAB
  0
TABLE
  2
LTYPE
  5
5
330
0
100
AcDbSymbolTable
 70
     3
  0
LTYPE
  5
14
330
5
100
AcDbSymbolTableRecord
100
AcDbLinetypeTableRecord
  2
BYBLOCK
 70
     0
  3

 72
    65
 73
     0
 40
0.0
  0
LTYPE
  5
15
330
5
100
AcDbSymbolTableRecord
100
AcDbLinetypeTableRecord
  2
BYLAYER
 70
     0
  3

 72
    65
 73
     0
 40
0.0
  0
LTYPE
  5
16
330
5
100
AcDbSymbolTableRecord
100
AcDbLinetypeTableRecord
  2
CONTINUOUS
 70
     0
  3
Solid line
 72
    65
 73
     0
 40
0.0
  0
LTYPE
  5
120
330
5
100
AcDbSymbolTableRecord
100
AcDbLinetypeTableRecord
  2
CENTER
 70
     0
  3
____ _ ____ _ ____ _ ____ _ ____ _ ____ _ ____ 
 72
    65
 73
     4
 40
2.0
 49
1.25
 74
     0
 49
-0.25
 74
     0
 49
0.25
 74
     0
 49
-0.25
 74
     0
  0
LTYPE
  5
3323
330
5
100
AcDbSymbolTableRecord
100
AcDbLinetypeTableRecord
  2
PHANTOM
 70
     0
  3
______  __  __  ______  __  __  ______  __  __ 
 72
    65
 73
     6
 40
2.5
 49
1.25
 74
     0
 49
-0.25
 74
     0
 49
0.25
 74
     0
 49
-0.25
 74
     0
 49
0.25
 74
     0
 49
-0.25
 74
     0
  0
ENDTAB
  0
TABLE
  2
LAYER
  5
2
330
0
100
AcDbSymbolTable
 70
     9
  0
LAYER
  5
F
330
2
100
AcDbSymbolTableRecord
100
AcDbLayerTableRecord
  2
0
 70
     0
 62
     7
  6
CONTINUOUS
  0
LAYER
  5
62
330
2
100
AcDbSymbolTableRecord
100
AcDbLayerTableRecord
  2
VIEWPORT
 70
     0
 62
     7
  6
CONTINUOUS
  0
LAYER
  5
6B
330
2
100
AcDbSymbolTableRecord
100
AcDbLayerTableRecord
  2
ZUWAKU
 70
     0
 62
     7
  6
CONTINUOUS
  0
LAYER
  5
48C
330
2
100
AcDbSymbolTableRecord
100
AcDbLayerTableRecord
  2
DEFPOINTS
 70
     0
 62
     7
  6
CONTINUOUS
  0
LAYER
  5
629
330
2
100
AcDbSymbolTableRecord
100
AcDbLayerTableRecord
  2
SEIHIN
 70
     0
 62
     3
  6
CONTINUOUS
  0
LAYER
  5
62A
330
2
100
AcDbSymbolTableRecord
100
AcDbLayerTableRecord
  2
SUNPOU
 70
     0
 62
     4
  6
CONTINUOUS
  0
LAYER
  5
62B
330
2
100
AcDbSymbolTableRecord
100
AcDbLayerTableRecord
  2
CENTER_L
 70
     0
 62
     1
  6
CENTER
  0
LAYER
  5
3324
330
2
100
AcDbSymbolTableRecord
100
AcDbLayerTableRecord
  2
NOKITOI
 70
     0
 62
     8
  6
PHANTOM
  0
LAYER
  5
3572
330
2
100
AcDbSymbolTableRecord
100
AcDbLayerTableRecord
  2
MOJI
 70
     0
 62
     2
  6
CONTINUOUS
  0
ENDTAB
  0
TABLE
  2
STYLE
  5
3
330
0
100
AcDbSymbolTable
 70
     2
  0
STYLE
  5
10
330
3
100
AcDbSymbolTableRecord
100
AcDbTextStyleTableRecord
  2
STANDARD
 70
     0
 40
0.0
 41
1.0
 50
0.0
 71
     0
 42
4.0
  3
TXT
  4
bigfont.shx
  0
STYLE
  5
3573
330
3
100
AcDbSymbolTableRecord
100
AcDbTextStyleTableRecord
  2
ｽﾀｲﾙ1
 70
     0
 40
0.0
 41
1.0
 50
0.0
 71
     0
 42
2.5
  3
MS PGothic.ttf
  4

1001
ACAD
1000
MS PGothic
1071
    32818
  0
ENDTAB
  0
TABLE
  2
VIEW
  5
6
330
0
100
AcDbSymbolTable
 70
     0
  0
ENDTAB
  0
TABLE
  2
UCS
  5
7
330
0
100
AcDbSymbolTable
 70
     0
  0
ENDTAB
  0
TABLE
  2
APPID
  5
9
330
0
100
AcDbSymbolTable
 70
     1
  0
APPID
  5
11
330
9
100
AcDbSymbolTableRecord
100
AcDbRegAppTableRecord
  2
ACAD
 70
     0
  0
ENDTAB
  0
TABLE
  2
DIMSTYLE
  5
A
330
0
100
AcDbSymbolTable
 70
     1
  0
DIMSTYLE
105
1D
102
{ACAD_REACTORS
330
31ED
330
31F1
330
31F2
330
31F3
330
3234
330
3248
330
3249
330
326A
330
32A0
330
33E1
330
351C
102
}
330
A
100
AcDbSymbolTableRecord
100
AcDbDimStyleTableRecord
  2
STANDARD
 70
     0
  3

  4

  5

  6

  7

 40
1.0
 41
0.18
 42
0.0625
 43
0.38
 44
0.18
 45
0.0
 46
0.0
 47
0.0
 48
0.0
140
0.18
141
0.09
142
0.0
143
25.4
144
1.0
145
0.0
146
1.0
147
0.09
 71
     0
 72
     0
 73
     1
 74
     1
 75
     0
 76
     0
 77
     0
 78
     0
170
     0
171
     2
172
     0
173
     0
174
     0
175
     0
176
     0
177
     0
178
     0
270
     2
271
     4
272
     4
273
     2
274
     2
340
10
275
     0
280
     0
281
     0
282
     0
283
     1
284
     0
285
     0
286
     0
287
     3
288
     0
  0
ENDTAB
  0
TABLE
  2
BLOCK_RECORD
  5
1
330
0
100
AcDbSymbolTable
 70
    12
  0
BLOCK_RECORD
  5
1A
102
{ACAD_XDICTIONARY
360
73C
102
}
330
1
100
AcDbSymbolTableRecord
100
AcDbBlockTableRecord
  2
*MODEL_SPACE
  0
BLOCK_RECORD
  5
17
102
{ACAD_XDICTIONARY
360
73A
102
}
330
1
100
AcDbSymbolTableRecord
100
AcDbBlockTableRecord
  2
*PAPER_SPACE
  0
BLOCK_RECORD
  5
B2
330
1
100
AcDbSymbolTableRecord
100
AcDbBlockTableRecord
  2
_OPEN
  0
BLOCK_RECORD
  5
3200
330
1
100
AcDbSymbolTableRecord
100
AcDbBlockTableRecord
  2
*D1
  0
BLOCK_RECORD
  5
320C
330
1
100
AcDbSymbolTableRecord
100
AcDbBlockTableRecord
  2
*D2
  0
BLOCK_RECORD
  5
3218
330
1
100
AcDbSymbolTableRecord
100
AcDbBlockTableRecord
  2
*D3
  0
BLOCK_RECORD
  5
3226
330
1
100
AcDbSymbolTableRecord
100
AcDbBlockTableRecord
  2
*D4
  0
BLOCK_RECORD
  5
323C
330
1
100
AcDbSymbolTableRecord
100
AcDbBlockTableRecord
  2
*D5
  0
BLOCK_RECORD
  5
324A
330
1
100
AcDbSymbolTableRecord
100
AcDbBlockTableRecord
  2
*D6
  0
BLOCK_RECORD
  5
3256
330
1
100
AcDbSymbolTableRecord
100
AcDbBlockTableRecord
  2
*D7
  0
BLOCK_RECORD
  5
326B
330
1
100
AcDbSymbolTableRecord
100
AcDbBlockTableRecord
  2
*D8
  0
BLOCK_RECORD
  5
3294
330
1
100
AcDbSymbolTableRecord
100
AcDbBlockTableRecord
  2
*D9
  0
BLOCK_RECORD
  5
33E2
330
1
100
AcDbSymbolTableRecord
100
AcDbBlockTableRecord
  2
*D10
  0
BLOCK_RECORD
  5
351D
330
1
100
AcDbSymbolTableRecord
100
AcDbBlockTableRecord
  2
*D11
  0
ENDTAB
  0
ENDSEC
  0
SECTION
  2
BLOCKS
  0
BLOCK
  5
1B
330
1A
100
AcDbEntity
  8
0
100
AcDbBlockBegin
  2
*MODEL_SPACE
 70
     0
 10
0.0
 20
0.0
 30
0.0
  3
*MODEL_SPACE
  1

  0
ENDBLK
  5
1C
330
1A
100
AcDbEntity
  8
0
100
AcDbBlockEnd
  0
BLOCK
  5
18
330
17
100
AcDbEntity
 67
     1
  8
0
100
AcDbBlockBegin
  2
*PAPER_SPACE
 70
     0
 10
0.0
 20
0.0
 30
0.0
  3
*PAPER_SPACE
  1

  0
ENDBLK
  5
19
330
17
100
AcDbEntity
 67
     1
  8
0
100
AcDbBlockEnd
  0
BLOCK
  5
B3
330
B2
100
AcDbEntity
  8
0
100
AcDbBlockBegin
  2
_OPEN
 70
     0
 10
0.0
 20
0.0
 30
0.0
  3
_OPEN
  1

  0
LINE
  5
B4
330
B2
100
AcDbEntity
  8
0
  6
BYBLOCK
 62
     0
100
AcDbLine
 10
-1.0
 20
0.1666666666666666
 30
0.0
 11
0.0
 21
0.0
 31
0.0
  0
LINE
  5
B5
330
B2
100
AcDbEntity
  8
0
  6
BYBLOCK
 62
     0
100
AcDbLine
 10
0.0
 20
0.0
 30
0.0
 11
-1.0
 21
-0.1666666666666666
 31
0.0
  0
LINE
  5
B6
330
B2
100
AcDbEntity
  8
0
  6
BYBLOCK
 62
     0
100
AcDbLine
 10
0.0
 20
0.0
 30
0.0
 11
-1.0
 21
0.0
 31
0.0
  0
ENDBLK
  5
B7
330
B2
100
AcDbEntity
  8
0
100
AcDbBlockEnd
  0
BLOCK
  5
3201
330
3200
100
AcDbEntity
  8
0
100
AcDbBlockBegin
  2
*D1
 70
     1
 10
0.0
 20
0.0
 30
0.0
  3
*D1
  1

  0
LINE
  5
3471
330
3200
100
AcDbEntity
  8
SUNPOU
100
AcDbLine
 10
291.1605288688718
 20
111.6948839284231
 30
0.0
 11
270.0515091992757
 21
164.4711981548051
 31
0.0
  0
LINE
  5
3472
330
3200
100
AcDbEntity
  8
SUNPOU
100
AcDbLine
 10
347.7981642754073
 20
134.348321979994
 30
0.0
 11
326.6891446390116
 21
187.1246361233692
 31
0.0
  0
LINE
  5
3473
330
3200
100
AcDbEntity
  8
SUNPOU
100
AcDbLine
 10
273.3940184332438
 20
164.1925729211344
 30
0.0
 11
324.4607389116942
 21
184.6178038763972
 31
0.0
  0
INSERT
  5
3474
330
3200
100
AcDbEntity
  8
SUNPOU
100
AcDbBlockReference
  2
_OPEN
 10
270.608560952601
 20
163.0784694144837
 30
0.0
 41
3.0
 42
3.0
 43
3.0
 50
201.7999999999998
  0
INSERT
  5
3475
330
3200
100
AcDbEntity
  8
SUNPOU
100
AcDbBlockReference
  2
_OPEN
 10
327.2461963923369
 20
185.7319073830478
 30
0.0
 41
3.0
 42
3.0
 43
3.0
 50
21.79999999999982
  0
MTEXT
  5
3476
330
3200
100
AcDbEntity
  8
SUNPOU
100
AcDbMText
 10
297.9989590835934
 20
176.7264029659681
 30
0.0
 40
3.0
 41
0.0
 71
     5
 72
     5
  1
\A1;61
 11
0.9284858268809148
 21
0.3713678355502321
 31
0.0
1001
ACAD
1000
MTEXTBEGIN
1070
    73
1070
     1
1070
    44
1040
1.0
1070
    74
1070
     0
1000
MTEXTEND
1000
MTEXTBEGIN
1070
    73
1070
     1
1070
    44
1040
1.0
1070
    74
1070
     0
1000
MTEXTEND
1000
MTEXTBEGIN
1070
    73
1070
     1
1070
    44
1040
1.0
1070
    74
1070
     0
1000
MTEXTEND
  0
POINT
  5
3477
330
3200
100
AcDbEntity
  8
DEFPOINTS
 62
     0
100
AcDbPoint
 10
292.2746323755225
 20
108.9094264477803
 30
0.0
  0
POINT
  5
3478
330
3200
100
AcDbEntity
  8
DEFPOINTS
 62
     0
100
AcDbPoint
 10
348.912267782058
 20
131.5628644993513
 30
0.0
  0
POINT
  5
3479
330
3200
100
AcDbEntity
  8
DEFPOINTS
 62
     0
100
AcDbPoint
 10
327.2461963923369
 20
185.7319073830478
 30
0.0
  0
ENDBLK
  5
320B
330
3200
100
AcDbEntity
  8
0
100
AcDbBlockEnd
  0
BLOCK
  5
320D
330
320C
100
AcDbEntity
  8
0
100
AcDbBlockBegin
  2
*D2
 70
     1
 10
0.0
 20
0.0
 30
0.0
  3
*D2
  1

  0
LINE
  5
347A
330
320C
100
AcDbEntity
  8
SUNPOU
100
AcDbLine
 10
291.4155224987725
 20
111.1528755557807
 30
0.0
 11
274.6747132355313
 21
104.4570295649658
 31
0.0
  0
LINE
  5
347B
330
320C
100
AcDbEntity
  8
SUNPOU
100
AcDbLine
 10
304.4133967447469
 20
78.65587161563529
 30
0.0
 11
287.6725874797894
 21
71.96002562413383
 31
0.0
  0
LINE
  5
347C
330
320C
100
AcDbEntity
  8
SUNPOU
100
AcDbLine
 10
277.1815454825035
 20
102.2286238376483
 30
0.0
 11
287.9512127134601
 21
75.30253485810192
 31
0.0
  0
INSERT
  5
347D
330
320C
100
AcDbEntity
  8
SUNPOU
100
AcDbBlockReference
  2
_OPEN
 10
276.0674419758527
 20
105.0140813182911
 30
0.0
 41
3.0
 42
3.0
 43
3.0
 50
111.7999999999997
  0
INSERT
  5
347E
330
320C
100
AcDbEntity
  8
SUNPOU
100
AcDbBlockReference
  2
_OPEN
 10
289.0653162201108
 20
72.51707737745917
 30
0.0
 41
3.0
 42
3.0
 43
3.0
 50
291.7999999999997
  0
MTEXT
  5
347F
330
320C
100
AcDbEntity
  8
SUNPOU
100
AcDbMText
 10
284.8875936651841
 20
89.6939989367507
 30
0.0
 40
3.0
 41
0.0
 71
     5
 72
     5
  1
\A1;35
 11
0.371367835550231
 21
-0.928485826880915
 31
0.0
1001
ACAD
1000
MTEXTBEGIN
1070
    73
1070
     1
1070
    44
1040
1.0
1070
    74
1070
     0
1000
MTEXTEND
1000
MTEXTBEGIN
1070
    73
1070
     1
1070
    44
1040
1.0
1070
    74
1070
     0
1000
MTEXTEND
1000
MTEXTBEGIN
1070
    73
1070
     1
1070
    44
1040
1.0
1070
    74
1070
     0
1000
MTEXTEND
  0
POINT
  5
3480
330
320C
100
AcDbEntity
  8
DEFPOINTS
 62
     0
100
AcDbPoint
 10
294.2009799794152
 20
112.2669790624314
 30
0.0
  0
POINT
  5
3481
330
320C
100
AcDbEntity
  8
DEFPOINTS
 62
     0
100
AcDbPoint
 10
307.1988542253896
 20
79.76997512228598
 30
0.0
  0
POINT
  5
3482
330
320C
100
AcDbEntity
  8
DEFPOINTS
 62
     0
100
AcDbPoint
 10
289.0653162201108
 20
72.51707737745917
 30
0.0
  0
ENDBLK
  5
3217
330
320C
100
AcDbEntity
  8
0
100
AcDbBlockEnd
  0
BLOCK
  5
3219
330
3218
100
AcDbEntity
  8
0
100
AcDbBlockBegin
  2
*D3
 70
     1
 10
0.0
 20
0.0
 30
0.0
  3
*D3
  1

  0
LINE
  5
348C
330
3218
100
AcDbEntity
  8
SUNPOU
100
AcDbLine
 10
291.4155224987725
 20
111.1528755557807
 30
0.0
 11
282.8937345259235
 21
107.7444035437456
 31
0.0
  0
LINE
  5
348D
330
3218
100
AcDbEntity
  8
SUNPOU
100
AcDbLine
 10
295.314951010055
 20
104.0963567762836
 30
0.0
 11
285.8646772103254
 21
100.3165169286983
 31
0.0
  0
LINE
  5
348E
330
3218
100
AcDbEntity
  8
SUNPOU
100
AcDbLine
 10
283.1723597595942
 20
111.0869127777137
 30
0.0
 11
282.0582562529435
 21
113.8723702583564
 31
0.0
  0
LINE
  5
348F
330
3218
100
AcDbEntity
  8
SUNPOU
100
AcDbLine
 10
288.3715094572974
 20
98.08811120138097
 30
0.0
 11
289.4856129639482
 21
95.30265372073822
 31
0.0
  0
LINE
  5
3490
330
3218
100
AcDbEntity
  8
SUNPOU
100
AcDbLine
 10
284.2864632662449
 20
108.3014552970709
 30
0.0
 11
287.2574059506467
 21
100.8735686820237
 31
0.0
  0
INSERT
  5
3491
330
3218
100
AcDbEntity
  8
SUNPOU
100
AcDbBlockReference
  2
_OPEN
 10
284.2864632662449
 20
108.3014552970709
 30
0.0
 41
3.0
 42
3.0
 43
3.0
 50
291.7999999999997
  0
INSERT
  5
3492
330
3218
100
AcDbEntity
  8
SUNPOU
100
AcDbBlockReference
  2
_OPEN
 10
287.2574059506467
 20
100.8735686820237
 30
0.0
 41
3.0
 42
3.0
 43
3.0
 50
111.7999999999997
  0
MTEXT
  5
3493
330
3218
100
AcDbEntity
  8
SUNPOU
100
AcDbMText
 10
288.0931491756481
 20
105.5159315784228
 30
0.0
 40
3.0
 41
0.0
 71
     5
 72
     5
  1
\A1;8
 11
0.371367835550231
 21
-0.928485826880915
 31
0.0
1001
ACAD
1000
MTEXTBEGIN
1070
    73
1070
     1
1070
    44
1040
1.0
1070
    74
1070
     0
1000
MTEXTEND
1000
MTEXTBEGIN
1070
    73
1070
     1
1070
    44
1040
1.0
1070
    74
1070
     0
1000
MTEXTEND
1000
MTEXTBEGIN
1070
    73
1070
     1
1070
    44
1040
1.0
1070
    74
1070
     0
1000
MTEXTEND
  0
POINT
  5
3494
330
3218
100
AcDbEntity
  8
DEFPOINTS
 62
     0
100
AcDbPoint
 10
294.2009799794152
 20
112.2669790624314
 30
0.0
  0
POINT
  5
3495
330
3218
100
AcDbEntity
  8
DEFPOINTS
 62
     0
100
AcDbPoint
 10
298.1004084906978
 20
105.2104602829343
 30
0.0
  0
POINT
  5
3496
330
3218
100
AcDbEntity
  8
DEFPOINTS
 62
     0
100
AcDbPoint
 10
287.2574059506467
 20
100.8735686820237
 30
0.0
  0
ENDBLK
  5
3225
330
3218
100
AcDbEntity
  8
0
100
AcDbBlockEnd
  0
BLOCK
  5
3227
330
3226
100
AcDbEntity
  8
0
100
AcDbBlockBegin
  2
*D4
 70
     1
 10
0.0
 20
0.0
 30
0.0
  3
*D4
  1

  0
LINE
  5
3497
330
3226
100
AcDbEntity
  8
SUNPOU
100
AcDbLine
 10
302.3709398855096
 20
86.45512606554644
 30
0.0
 11
292.9206660857799
 21
82.67528621796113
 31
0.0
  0
LINE
  5
3498
330
3226
100
AcDbEntity
  8
SUNPOU
100
AcDbLine
 10
304.4133967447469
 20
78.65587161563529
 30
0.0
 11
295.8916087701818
 21
75.24739960291373
 31
0.0
  0
LINE
  5
3499
330
3226
100
AcDbEntity
  8
SUNPOU
100
AcDbLine
 10
295.427498332752
 20
80.44688049064374
 30
0.0
 11
296.1702340038525
 21
78.58990883688183
 31
0.0
  0
INSERT
  5
349A
330
3226
100
AcDbEntity
  8
SUNPOU
100
AcDbBlockReference
  2
_OPEN
 10
294.3133948261013
 20
83.23233797128649
 30
0.0
 41
3.0
 42
3.0
 43
3.0
 50
111.7999999999997
  0
INSERT
  5
349B
330
3226
100
AcDbEntity
  8
SUNPOU
100
AcDbBlockReference
  2
_OPEN
 10
297.2843375105032
 20
75.80445135623908
 30
0.0
 41
3.0
 42
3.0
 43
3.0
 50
291.7999999999997
  0
MTEXT
  5
349C
330
3226
100
AcDbEntity
  8
SUNPOU
100
AcDbMText
 10
298.1200807355045
 20
80.44681425263831
 30
0.0
 40
3.0
 41
0.0
 71
     5
 72
     5
  1
\A1;8
 11
0.371367835550231
 21
-0.928485826880915
 31
0.0
1001
ACAD
1000
MTEXTBEGIN
1070
    73
1070
     1
1070
    44
1040
1.0
1070
    74
1070
     0
1000
MTEXTEND
1000
MTEXTBEGIN
1070
    73
1070
     1
1070
    44
1040
1.0
1070
    74
1070
     0
1000
MTEXTEND
1000
MTEXTBEGIN
1070
    73
1070
     1
1070
    44
1040
1.0
1070
    74
1070
     0
1000
MTEXTEND
  0
POINT
  5
349D
330
3226
100
AcDbEntity
  8
DEFPOINTS
 62
     0
100
AcDbPoint
 10
305.1563973661523
 20
87.56922957219712
 30
0.0
  0
POINT
  5
349E
330
3226
100
AcDbEntity
  8
DEFPOINTS
 62
     0
100
AcDbPoint
 10
307.1988542253896
 20
79.76997512228598
 30
0.0
  0
POINT
  5
349F
330
3226
100
AcDbEntity
  8
DEFPOINTS
 62
     0
100
AcDbPoint
 10
297.2843375105032
 20
75.80445135623908
 30
0.0
  0
ENDBLK
  5
3233
330
3226
100
AcDbEntity
  8
0
100
AcDbBlockEnd
  0
BLOCK
  5
323D
330
323C
100
AcDbEntity
  8
0
100
AcDbBlockBegin
  2
*D5
 70
     1
 10
0.0
 20
0.0
 30
0.0
  3
*D5
  1

  0
LINE
  5
3483
330
323C
100
AcDbEntity
  8
SUNPOU
 62
     4
100
AcDbLine
 10
248.0723775308617
 20
91.85002085959153
 30
0.0
 11
261.6362212378947
 21
97.27555834240481
 31
0.0
  0
LINE
  5
3484
330
323C
100
AcDbEntity
  8
SUNPOU
 62
     4
100
AcDbLine
 10
261.071051203262
 20
59.35333667859151
 30
0.0
 11
274.6348949102949
 21
64.77887416140479
 31
0.0
  0
LINE
  5
3485
330
323C
100
AcDbEntity
  8
SUNPOU
 62
     4
100
AcDbLine
 10
261.3576782306291
 20
93.93304225521786
 30
0.0
 11
272.1280078449047
 21
67.00721821952939
 31
0.0
  0
INSERT
  5
3486
330
323C
100
AcDbEntity
  8
SUNPOU
 62
     4
100
AcDbBlockReference
  2
_OPEN
 10
260.2435062015668
 20
96.71847232787364
 30
0.0
 41
3.0
 42
3.0
 43
3.0
 50
111.8014094863521
  0
INSERT
  5
3487
330
323C
100
AcDbEntity
  8
SUNPOU
 62
     4
100
AcDbBlockReference
  2
_OPEN
 10
273.242179873967
 20
64.22178814687362
 30
0.0
 41
3.0
 42
3.0
 43
3.0
 50
291.8014094863521
  0
MTEXT
  5
3488
330
323C
100
AcDbEntity
  8
SUNPOU
 62
     4
100
AcDbMText
 10
269.0640347649801
 20
81.39860692825893
 30
0.0
 40
3.0
 41
0.0
 71
     5
 72
     5
  1
\A1;35
 11
0.3713906763541095
 21
-0.9284766908852569
 31
0.0
1001
ACAD
1000
MTEXTBEGIN
1070
    73
1070
     1
1070
    44
1040
1.0
1070
    74
1070
     0
1000
MTEXTEND
1000
MTEXTBEGIN
1070
    73
1070
     1
1070
    44
1040
1.0
1070
    74
1070
     0
1000
MTEXTEND
1000
MTEXTBEGIN
1070
    73
1070
     1
1070
    44
1040
1.0
1070
    74
1070
     0
1000
MTEXTEND
  0
POINT
  5
3489
330
323C
100
AcDbEntity
  8
DEFPOINTS
 62
     0
100
AcDbPoint
 10
245.286947458206
 20
90.73584883052919
 30
0.0
  0
POINT
  5
348A
330
323C
100
AcDbEntity
  8
DEFPOINTS
 62
     0
100
AcDbPoint
 10
258.2856211306062
 20
58.23916464952918
 30
0.0
  0
POINT
  5
348B
330
323C
100
AcDbEntity
  8
DEFPOINTS
 62
     0
100
AcDbPoint
 10
273.242179873967
 20
64.22178814687362
 30
0.0
  0
ENDBLK
  5
3247
330
323C
100
AcDbEntity
  8
0
100
AcDbBlockEnd
  0
BLOCK
  5
324B
330
324A
100
AcDbEntity
  8
0
100
AcDbBlockBegin
  2
*D6
 70
     1
 10
0.0
 20
0.0
 30
0.0
  3
*D6
  1

  0
LINE
  5
3468
330
324A
100
AcDbEntity
  8
SUNPOU
 62
     4
100
AcDbLine
 10
210.5423827523061
 20
116.597260595529
 30
0.0
 11
210.5423827523061
 21
148.3825818287156
 31
0.0
  0
LINE
  5
3469
330
324A
100
AcDbEntity
  8
SUNPOU
 62
     4
100
AcDbLine
 10
235.3423827501062
 20
118.597260601029
 30
0.0
 11
235.3423827501062
 21
148.3825818287156
 31
0.0
  0
LINE
  5
346A
330
324A
100
AcDbEntity
  8
SUNPOU
 62
     4
100
AcDbLine
 10
213.5423827523061
 20
146.8825818287156
 30
0.0
 11
232.3423827501061
 21
146.8825818287156
 31
0.0
  0
INSERT
  5
346B
330
324A
100
AcDbEntity
  8
SUNPOU
 62
     4
100
AcDbBlockReference
  2
_OPEN
 10
210.5423827523061
 20
146.8825818287156
 30
0.0
 41
3.0
 42
3.0
 43
3.0
 50
180.0
  0
INSERT
  5
346C
330
324A
100
AcDbEntity
  8
SUNPOU
 62
     4
100
AcDbBlockReference
  2
_OPEN
 10
235.3423827501062
 20
146.8825818287156
 30
0.0
 41
3.0
 42
3.0
 43
3.0
  0
MTEXT
  5
346D
330
324A
100
AcDbEntity
  8
SUNPOU
 62
     4
100
AcDbMText
 10
222.9423827512062
 20
149.3825818287156
 30
0.0
 40
3.0
 41
0.0
 71
     5
 72
     5
  1
\A1;25
1001
ACAD
1000
MTEXTBEGIN
1070
    73
1070
     1
1070
    44
1040
1.0
1070
    74
1070
     0
1000
MTEXTEND
1000
MTEXTBEGIN
1070
    73
1070
     1
1070
    44
1040
1.0
1070
    74
1070
     0
1000
MTEXTEND
1000
MTEXTBEGIN
1070
    73
1070
     1
1070
    44
1040
1.0
1070
    74
1070
     0
1000
MTEXTEND
  0
POINT
  5
346E
330
324A
100
AcDbEntity
  8
DEFPOINTS
 62
     0
100
AcDbPoint
 10
210.5423827523061
 20
113.597260595529
 30
0.0
  0
POINT
  5
346F
330
324A
100
AcDbEntity
  8
DEFPOINTS
 62
     0
100
AcDbPoint
 10
235.3423827501062
 20
115.597260601029
 30
0.0
  0
POINT
  5
3470
330
324A
100
AcDbEntity
  8
DEFPOINTS
 62
     0
100
AcDbPoint
 10
235.3423827501062
 20
146.8825818287156
 30
0.0
  0
ENDBLK
  5
3255
330
324A
100
AcDbEntity
  8
0
100
AcDbBlockEnd
  0
BLOCK
  5
3257
330
3256
100
AcDbEntity
  8
0
100
AcDbBlockBegin
  2
*D7
 70
     1
 10
0.0
 20
0.0
 30
0.0
  3
*D7
  1

  0
LINE
  5
344D
330
3256
100
AcDbEntity
  8
SUNPOU
 62
     4
100
AcDbLine
 10
235.3423827501062
 20
118.597260601029
 30
0.0
 11
235.3423827501062
 21
167.5309598166186
 31
0.0
  0
LINE
  5
344E
330
3256
100
AcDbEntity
  8
SUNPOU
 62
     4
100
AcDbLine
 10
80.9251078790062
 20
145.964070512429
 30
0.0
 11
80.9251078790062
 21
167.5309598166186
 31
0.0
  0
LINE
  5
344F
330
3256
100
AcDbEntity
  8
SUNPOU
 62
     4
100
AcDbLine
 10
232.3423827501061
 20
166.0309598166186
 30
0.0
 11
83.9251078790062
 21
166.0309598166186
 31
0.0
  0
INSERT
  5
3450
330
3256
100
AcDbEntity
  8
SUNPOU
 62
     4
100
AcDbBlockReference
  2
_OPEN
 10
235.3423827501062
 20
166.0309598166186
 30
0.0
 41
3.0
 42
3.0
 43
3.0
  0
INSERT
  5
3451
330
3256
100
AcDbEntity
  8
SUNPOU
 62
     4
100
AcDbBlockReference
  2
_OPEN
 10
80.9251078790062
 20
166.0309598166186
 30
0.0
 41
3.0
 42
3.0
 43
3.0
 50
180.0
  0
MTEXT
  5
3452
330
3256
100
AcDbEntity
  8
SUNPOU
 62
     4
100
AcDbMText
 10
158.1337453145561
 20
168.5309598166186
 30
0.0
 40
3.0
 41
0.0
 71
     5
 72
     5
  1
\A1;154
1001
ACAD
1000
MTEXTBEGIN
1070
    73
1070
     1
1070
    44
1040
1.0
1070
    74
1070
     0
1000
MTEXTEND
1000
MTEXTBEGIN
1070
    73
1070
     1
1070
    44
1040
1.0
1070
    74
1070
     0
1000
MTEXTEND
1000
MTEXTBEGIN
1070
    73
1070
     1
1070
    44
1040
1.0
1070
    74
1070
     0
1000
MTEXTEND
  0
POINT
  5
3453
330
3256
100
AcDbEntity
  8
DEFPOINTS
 62
     0
100
AcDbPoint
 10
235.3423827501062
 20
115.597260601029
 30
0.0
  0
POINT
  5
3454
330
3256
100
AcDbEntity
  8
DEFPOINTS
 62
     0
100
AcDbPoint
 10
80.9251078790062
 20
142.964070512429
 30
0.0
  0
POINT
  5
3455
330
3256
100
AcDbEntity
  8
DEFPOINTS
 62
     0
100
AcDbPoint
 10
80.9251078790062
 20
166.0309598166186
 30
0.0
  0
ENDBLK
  5
3261
330
3256
100
AcDbEntity
  8
0
100
AcDbBlockEnd
  0
BLOCK
  5
326C
330
326B
100
AcDbEntity
  8
0
100
AcDbBlockBegin
  2
*D8
 70
     1
 10
0.0
 20
0.0
 30
0.0
  3
*D8
  1

  0
LINE
  5
34A0
330
326B
100
AcDbEntity
  8
SUNPOU
 62
     4
100
AcDbLine
 10
259.9439335258839
 20
251.4564862643814
 30
0.0
 11
274.5294098844275
 21
251.4564862643814
 31
0.0
  0
LINE
  5
34A1
330
326B
100
AcDbEntity
  8
SUNPOU
 62
     4
100
AcDbLine
 10
259.9439335258839
 20
190.4564862643815
 30
0.0
 11
274.5294098844275
 21
190.4564862643815
 31
0.0
  0
LINE
  5
34A2
330
326B
100
AcDbEntity
  8
SUNPOU
 62
     4
100
AcDbLine
 10
273.0294098844276
 20
248.4564862643813
 30
0.0
 11
273.0294098844276
 21
193.4564862643815
 31
0.0
  0
INSERT
  5
34A3
330
326B
100
AcDbEntity
  8
SUNPOU
 62
     4
100
AcDbBlockReference
  2
_OPEN
 10
273.0294098844276
 20
251.4564862643814
 30
0.0
 41
3.0
 42
3.0
 43
3.0
 50
90.0
  0
INSERT
  5
34A4
330
326B
100
AcDbEntity
  8
SUNPOU
 62
     4
100
AcDbBlockReference
  2
_OPEN
 10
273.0294098844276
 20
190.4564862643815
 30
0.0
 41
3.0
 42
3.0
 43
3.0
 50
270.0
  0
MTEXT
  5
34A5
330
326B
100
AcDbEntity
  8
SUNPOU
 62
     4
100
AcDbMText
 10
270.5294098844275
 20
220.9564862643815
 30
0.0
 40
3.0
 41
0.0
 71
     5
 72
     5
  1
\A1;61
 11
0.0000000000000001
 21
1.0
 31
0.0
1001
ACAD
1000
MTEXTBEGIN
1070
    73
1070
     1
1070
    44
1040
1.0
1070
    74
1070
     0
1000
MTEXTEND
1000
MTEXTBEGIN
1070
    73
1070
     1
1070
    44
1040
1.0
1070
    74
1070
     0
1000
MTEXTEND
1000
MTEXTBEGIN
1070
    73
1070
     1
1070
    44
1040
1.0
1070
    74
1070
     0
1000
MTEXTEND
  0
POINT
  5
34A6
330
326B
100
AcDbEntity
  8
DEFPOINTS
 62
     0
100
AcDbPoint
 10
256.9439335258838
 20
251.4564862643814
 30
0.0
  0
POINT
  5
34A7
330
326B
100
AcDbEntity
  8
DEFPOINTS
 62
     0
100
AcDbPoint
 10
256.9439335258838
 20
190.4564862643815
 30
0.0
  0
POINT
  5
34A8
330
326B
100
AcDbEntity
  8
DEFPOINTS
 62
     0
100
AcDbPoint
 10
273.0294098844276
 20
190.4564862643815
 30
0.0
  0
ENDBLK
  5
3276
330
326B
100
AcDbEntity
  8
0
100
AcDbBlockEnd
  0
BLOCK
  5
3295
330
3294
100
AcDbEntity
  8
0
100
AcDbBlockBegin
  2
*D9
 70
     1
 10
0.0
 20
0.0
 30
0.0
  3
*D9
  1

  0
LINE
  5
34A9
330
3294
100
AcDbEntity
  8
SUNPOU
 62
     4
100
AcDbLine
 10
78.3251078768062
 20
230.9564862643814
 30
0.0
 11
51.79392279371405
 21
230.9564862643814
 31
0.0
  0
LINE
  5
34AA
330
3294
100
AcDbEntity
  8
SUNPOU
 62
     4
100
AcDbLine
 10
78.3251078768062
 20
210.9564862643815
 30
0.0
 11
51.79392279371405
 21
210.9564862643816
 31
0.0
  0
LINE
  5
34AB
330
3294
100
AcDbEntity
  8
SUNPOU
 62
     4
100
AcDbLine
 10
53.29392279371404
 20
227.9564862643814
 30
0.0
 11
53.29392279371404
 21
213.9564862643815
 31
0.0
  0
INSERT
  5
34AC
330
3294
100
AcDbEntity
  8
SUNPOU
 62
     4
100
AcDbBlockReference
  2
_OPEN
 10
53.29392279371404
 20
230.9564862643814
 30
0.0
 41
3.0
 42
3.0
 43
3.0
 50
90.0
  0
INSERT
  5
34AD
330
3294
100
AcDbEntity
  8
SUNPOU
 62
     4
100
AcDbBlockReference
  2
_OPEN
 10
53.29392279371404
 20
210.9564862643816
 30
0.0
 41
3.0
 42
3.0
 43
3.0
 50
270.0
  0
MTEXT
  5
34AE
330
3294
100
AcDbEntity
  8
SUNPOU
 62
     4
100
AcDbMText
 10
50.79392279371401
 20
220.9564862643815
 30
0.0
 40
3.0
 41
0.0
 71
     5
 72
     5
  1
\A1;20
 11
0.0000000000000001
 21
1.0
 31
0.0
1001
ACAD
1000
MTEXTBEGIN
1070
    73
1070
     1
1070
    44
1040
1.0
1070
    74
1070
     0
1000
MTEXTEND
1000
MTEXTBEGIN
1070
    73
1070
     1
1070
    44
1040
1.0
1070
    74
1070
     0
1000
MTEXTEND
1000
MTEXTBEGIN
1070
    73
1070
     1
1070
    44
1040
1.0
1070
    74
1070
     0
1000
MTEXTEND
  0
POINT
  5
34AF
330
3294
100
AcDbEntity
  8
DEFPOINTS
 62
     0
100
AcDbPoint
 10
81.32510787680621
 20
230.9564862643814
 30
0.0
  0
POINT
  5
34B0
330
3294
100
AcDbEntity
  8
DEFPOINTS
 62
     0
100
AcDbPoint
 10
81.32510787680621
 20
210.9564862643815
 30
0.0
  0
POINT
  5
34B1
330
3294
100
AcDbEntity
  8
DEFPOINTS
 62
     0
100
AcDbPoint
 10
53.29392279371404
 20
210.9564862643816
 30
0.0
  0
ENDBLK
  5
329F
330
3294
100
AcDbEntity
  8
0
100
AcDbBlockEnd
  0
BLOCK
  5
33EC
330
33E2
100
AcDbEntity
  8
0
100
AcDbBlockBegin
  2
*D10
 70
     1
 10
0.0
 20
0.0
 30
0.0
  3
*D10
  1

  0
LINE
  5
3506
330
33E2
100
AcDbEntity
  8
SUNPOU
 62
     4
100
AcDbLine
 10
339.6969545345589
 20
130.465368875616
 30
0.0
 11
321.4320099954871
 21
176.1309880000271
 31
0.0
  0
LINE
  5
3507
330
33E2
100
AcDbEntity
  8
SUNPOU
 62
     4
100
AcDbLine
 10
299.7720639786799
 20
114.4965519469559
 30
0.0
 11
281.5071194396082
 21
160.162171071367
 31
0.0
  0
LINE
  5
3508
330
33E2
100
AcDbEntity
  8
SUNPOU
 62
     4
100
AcDbLine
 10
319.2036042681698
 20
173.624155753055
 30
0.0
 11
284.8496286735763
 21
159.8835458376963
 31
0.0
  0
INSERT
  5
3509
330
33E2
100
AcDbEntity
  8
SUNPOU
 62
     4
100
AcDbBlockReference
  2
_OPEN
 10
321.9890617488125
 20
174.7382592597057
 30
0.0
 41
3.0
 42
3.0
 43
3.0
 50
21.80000000000013
  0
INSERT
  5
350A
330
33E2
100
AcDbEntity
  8
SUNPOU
 62
     4
100
AcDbBlockReference
  2
_OPEN
 10
282.0641711929336
 20
158.7694423310457
 30
0.0
 41
3.0
 42
3.0
 43
3.0
 50
201.8000000000001
  0
MTEXT
  5
350B
330
33E2
100
AcDbEntity
  8
SUNPOU
 62
     4
100
AcDbMText
 10
301.0981968819974
 20
169.075065362578
 30
0.0
 40
3.0
 41
0.0
 71
     5
 72
     5
  1
\A1;43
 11
0.9284858268809127
 21
0.3713678355502367
 31
0.0
1001
ACAD
1000
MTEXTBEGIN
1070
    73
1070
     1
1070
    44
1040
1.0
1070
    74
1070
     0
1000
MTEXTEND
1000
MTEXTBEGIN
1070
    73
1070
     1
1070
    44
1040
1.0
1070
    74
1070
     0
1000
MTEXTEND
  0
POINT
  5
350C
330
33E2
100
AcDbEntity
  8
DEFPOINTS
 62
     0
100
AcDbPoint
 10
340.8110580412096
 20
127.6799113949733
 30
0.0
  0
POINT
  5
350D
330
33E2
100
AcDbEntity
  8
DEFPOINTS
 62
     0
100
AcDbPoint
 10
300.8861674853307
 20
111.7110944663132
 30
0.0
  0
POINT
  5
350E
330
33E2
100
AcDbEntity
  8
DEFPOINTS
 62
     0
100
AcDbPoint
 10
282.0641711929336
 20
158.7694423310457
 30
0.0
  0
ENDBLK
  5
33ED
330
33E2
100
AcDbEntity
  8
0
100
AcDbBlockEnd
  0
BLOCK
  5
3527
330
351D
100
AcDbEntity
  8
0
100
AcDbBlockBegin
  2
*D11
 70
     1
 10
0.0
 20
0.0
 30
0.0
  3
*D11
  1

  0
LINE
  5
3565
330
351D
100
AcDbEntity
  8
SUNPOU
100
AcDbLine
 10
78.32510787680622
 20
114.4246201546291
 30
0.0
 11
51.79392279371402
 21
114.4246201546291
 31
0.0
  0
LINE
  5
3566
330
351D
100
AcDbEntity
  8
SUNPOU
100
AcDbLine
 10
255.2856211306062
 20
58.23916464952917
 30
0.0
 11
51.793922793714
 21
58.23916464952922
 31
0.0
  0
LINE
  5
3567
330
351D
100
AcDbEntity
  8
SUNPOU
100
AcDbLine
 10
53.29392279371401
 20
111.4246201546291
 30
0.0
 11
53.29392279371401
 21
61.23916464952923
 31
0.0
  0
INSERT
  5
3568
330
351D
100
AcDbEntity
  8
SUNPOU
100
AcDbBlockReference
  2
_OPEN
 10
53.29392279371402
 20
114.4246201546291
 30
0.0
 41
3.0
 42
3.0
 43
3.0
 50
90.0
  0
INSERT
  5
3569
330
351D
100
AcDbEntity
  8
SUNPOU
100
AcDbBlockReference
  2
_OPEN
 10
53.29392279371401
 20
58.23916464952922
 30
0.0
 41
3.0
 42
3.0
 43
3.0
 50
270.0
  0
MTEXT
  5
356A
330
351D
100
AcDbEntity
  8
SUNPOU
100
AcDbMText
 10
50.79392279371401
 20
86.3318924020792
 30
0.0
 40
3.0
 41
0.0
 71
     5
 72
     5
  1
\A1;56
 11
0.0000000000000001
 21
1.0
 31
0.0
1001
ACAD
1000
MTEXTBEGIN
1070
    73
1070
     1
1070
    44
1040
1.0
1070
    74
1070
     0
1000
MTEXTEND
  0
POINT
  5
356B
330
351D
100
AcDbEntity
  8
DEFPOINTS
 62
     0
100
AcDbPoint
 10
81.32510787680621
 20
114.4246201546291
 30
0.0
  0
POINT
  5
356C
330
351D
100
AcDbEntity
  8
DEFPOINTS
 62
     0
100
AcDbPoint
 10
258.2856211306062
 20
58.23916464952917
 30
0.0
  0
POINT
  5
356D
330
351D
100
AcDbEntity
  8
DEFPOINTS
 62
     0
100
AcDbPoint
 10
53.29392279371401
 20
58.23916464952922
 30
0.0
  0
ENDBLK
  5
3528
330
351D
100
AcDbEntity
  8
0
100
AcDbBlockEnd
  0
ENDSEC
  0
SECTION
  2
ENTITIES
  0
LINE
  5
313C
330
1A
100
AcDbEntity
  8
SEIHIN
100
AcDbLine
 10
92.77334767670618
 20
64.40932756242914
 30
0.0
 11
106.1185466543062
 21
53.49043510362911
 31
0.0
  0
ARC
  5
313D
330
1A
100
AcDbEntity
  8
SEIHIN
100
AcDbCircle
 10
154.490627471706
 20
100.9904995800291
 30
0.0
 40
48.5000144765
100
AcDbArc
 50
281.6548006464
 51
323.8742014572
  0
LINE
  5
313E
330
1A
100
AcDbEntity
  8
SEIHIN
100
AcDbLine
 10
164.288345520306
 20
53.49043510362911
 30
0.0
 11
106.1185466543062
 21
53.49043510362911
 31
0.0
  0
LINE
  5
313F
330
1A
100
AcDbEntity
  8
SEIHIN
100
AcDbLine
 10
80.92510787680618
 20
213.4564862643815
 30
0.0
 11
81.32510787680621
 21
213.4564862643815
 31
0.0
  0
ARC
  5
3140
330
1A
100
AcDbEntity
  8
SEIHIN
100
AcDbCircle
 10
88.25520392460617
 20
89.49048510362919
 30
0.0
 40
2.0
100
AcDbArc
 50
5.7107117865
 51
90.0000000118
  0
LINE
  5
3141
330
1A
100
AcDbEntity
  8
SEIHIN
100
AcDbLine
 10
97.06554085160622
 20
66.71179731732917
 30
0.0
 11
107.724958868406
 21
57.99038078442913
 31
0.0
  0
ARC
  5
3142
330
1A
100
AcDbEntity
  8
SEIHIN
100
AcDbCircle
 10
88.25520392460617
 20
89.49048510362919
 30
0.0
 40
6.5
100
AcDbArc
 50
5.7107117865
 51
90.0000000118
  0
LINE
  5
3143
330
1A
100
AcDbEntity
  8
SEIHIN
100
AcDbLine
 10
85.82510787680622
 20
230.9564862643814
 30
0.0
 11
257.7856211306061
 21
230.9564862643814
 31
0.0
  0
LINE
  5
3144
330
1A
100
AcDbEntity
  8
SEIHIN
100
AcDbLine
 10
85.82510787680622
 20
210.9564862643815
 30
0.0
 11
257.7856211306061
 21
210.9564862643815
 31
0.0
  0
LINE
  5
3145
330
1A
100
AcDbEntity
  8
SEIHIN
100
AcDbLine
 10
92.97373259670616
 20
229.3023455776815
 30
0.0
 11
92.97373259670616
 21
212.7169574497814
 31
0.0
  0
LINE
  5
3146
330
1A
100
AcDbEntity
  8
SEIHIN
100
AcDbLine
 10
107.724958868406
 20
57.99038078442913
 30
0.0
 11
163.8181040249062
 21
57.99050591622915
 31
0.0
  0
LINE
  5
3147
330
1A
100
AcDbEntity
  8
SEIHIN
100
AcDbLine
 10
85.82510787680622
 20
97.99048510362915
 30
0.0
 11
85.82510787680622
 21
114.4246201546291
 31
0.0
  0
LINE
  5
3148
330
1A
100
AcDbEntity
  8
SEIHIN
100
AcDbLine
 10
85.82510787680622
 20
114.4246201546291
 30
0.0
 11
81.32510787680621
 21
114.4246201546291
 31
0.0
  0
LINE
  5
3149
330
1A
100
AcDbEntity
  8
SEIHIN
100
AcDbLine
 10
81.32510787680621
 20
114.4246201546291
 30
0.0
 11
81.32510787680621
 21
142.964070517929
 31
0.0
  0
LINE
  5
314A
330
1A
100
AcDbEntity
  8
SEIHIN
100
AcDbLine
 10
80.92510787680618
 20
100.670839082529
 30
0.0
 11
81.32510787680621
 21
100.670839082529
 31
0.0
  0
LINE
  5
314B
330
1A
100
AcDbEntity
  8
SEIHIN
100
AcDbLine
 10
80.92510787680618
 20
142.964070517929
 30
0.0
 11
81.32510787680621
 21
142.964070517929
 31
0.0
  0
LINE
  5
314C
330
1A
100
AcDbEntity
  8
SEIHIN
100
AcDbLine
 10
87.82510787680621
 20
91.49048510362918
 30
0.0
 11
88.25520392460617
 21
91.49048510362918
 31
0.0
  0
LINE
  5
314D
330
1A
100
AcDbEntity
  8
SEIHIN
100
AcDbLine
 10
94.72294432160618
 20
90.13727267062916
 30
0.0
 11
97.06554085160622
 21
66.71179731732917
 31
0.0
  0
LINE
  5
314E
330
1A
100
AcDbEntity
  8
SEIHIN
100
AcDbLine
 10
97.06554085160622
 20
229.3023455776815
 30
0.0
 11
97.06554085160622
 21
212.7169574497814
 31
0.0
  0
LINE
  5
314F
330
1A
100
AcDbEntity
  8
SEIHIN
100
AcDbLine
 10
107.724958868406
 20
229.3023455776815
 30
0.0
 11
107.724958868406
 21
212.7169574497814
 31
0.0
  0
LINE
  5
3150
330
1A
100
AcDbEntity
  8
SEIHIN
100
AcDbLine
 10
80.92510787680618
 20
213.4564862643815
 30
0.0
 11
80.92510787680618
 21
228.4564862643815
 31
0.0
  0
LINE
  5
3151
330
1A
100
AcDbEntity
  8
SEIHIN
100
AcDbLine
 10
85.82510787680622
 20
210.9564862643815
 30
0.0
 11
85.82510787680622
 21
230.9564862643814
 31
0.0
  0
LINE
  5
3152
330
1A
100
AcDbEntity
  8
SEIHIN
100
AcDbLine
 10
81.32510787680621
 20
210.9564862643815
 30
0.0
 11
81.32510787680621
 21
230.9564862643814
 31
0.0
  0
LINE
  5
3153
330
1A
100
AcDbEntity
  8
SEIHIN
100
AcDbLine
 10
80.92510787680618
 20
228.4564862643815
 30
0.0
 11
81.32510787680621
 21
228.4564862643815
 31
0.0
  0
LINE
  5
3154
330
1A
100
AcDbEntity
  8
SEIHIN
100
AcDbLine
 10
81.32510787680621
 20
230.9564862643814
 30
0.0
 11
85.82510787680622
 21
230.9564862643814
 31
0.0
  0
LINE
  5
3155
330
1A
100
AcDbEntity
  8
SEIHIN
100
AcDbLine
 10
81.32510787680621
 20
210.9564862643815
 30
0.0
 11
85.82510787680622
 21
210.9564862643815
 31
0.0
  0
LINE
  5
3156
330
1A
100
AcDbEntity
  8
SEIHIN
100
AcDbLine
 10
90.24527789290619
 20
89.68949666272914
 30
0.0
 11
92.77334767670618
 21
64.40932756242914
 31
0.0
  0
LINE
  5
3157
330
1A
100
AcDbEntity
  8
SEIHIN
100
AcDbLine
 10
87.82510787680621
 20
95.99048510362914
 30
0.0
 11
88.25520392460617
 21
95.99048510362914
 31
0.0
  0
ARC
  5
3158
330
1A
100
AcDbEntity
  8
SEIHIN
100
AcDbCircle
 10
87.82510787680621
 20
97.99048510362915
 30
0.0
 40
2.0
100
AcDbArc
 50
180.0000000234999
 51
270.0000000353
  0
LINE
  5
3159
330
1A
100
AcDbEntity
  8
SEIHIN
100
AcDbLine
 10
80.92510787680618
 20
100.670839082529
 30
0.0
 11
80.92510787680618
 21
142.964070517929
 31
0.0
  0
LINE
  5
315A
330
1A
100
AcDbEntity
  8
SEIHIN
100
AcDbLine
 10
81.32510787680621
 20
97.99048510362915
 30
0.0
 11
81.32510787680621
 21
114.4246201546291
 31
0.0
  0
ARC
  5
315B
330
1A
100
AcDbEntity
  8
SEIHIN
100
AcDbCircle
 10
87.82510787680621
 20
97.99048510362915
 30
0.0
 40
6.5
100
AcDbArc
 50
180.0000000234999
 51
270.0000000353
  0
LINE
  5
315C
330
1A
100
AcDbEntity
  8
SEIHIN
100
AcDbLine
 10
240.206506131906
 20
233.0682214685814
 30
0.0
 11
243.3446862293061
 21
234.1115251645814
 31
0.0
  0
LINE
  5
315D
330
1A
100
AcDbEntity
  8
SEIHIN
100
AcDbLine
 10
239.1869474583061
 20
231.2674863124815
 30
0.0
 11
239.1869474583061
 21
230.9564862643814
 31
0.0
  0
LINE
  5
315E
330
1A
100
AcDbEntity
  8
SEIHIN
100
AcDbLine
 10
253.785621130606
 20
231.2674864684815
 30
0.0
 11
253.785621130606
 21
230.9564862643814
 31
0.0
  0
ARC
  5
315F
330
1A
100
AcDbEntity
  8
SEIHIN
100
AcDbCircle
 10
256.1856211306062
 20
234.6264325418815
 30
0.0
 40
2.1
100
AcDbArc
 50
288.3896487477998
 51
0.0000042603
  0
LINE
  5
3160
330
1A
100
AcDbEntity
  8
SEIHIN
100
AcDbLine
 10
254.0283731558059
 20
231.6962328731814
 30
0.0
 11
256.8481241138062
 21
232.6336731512815
 31
0.0
  0
ARC
  5
3161
330
1A
100
AcDbEntity
  8
SEIHIN
100
AcDbCircle
 10
254.285621130606
 20
231.2674864685814
 30
0.0
 40
0.5
100
AcDbArc
 50
120.9637695122999
 51
180.0000000117
  0
LINE
  5
3162
330
1A
100
AcDbEntity
  8
SEIHIN
100
AcDbLine
 10
245.2869474583061
 20
233.3978676366815
 30
0.0
 11
257.2079708643061
 21
233.3978676366815
 31
0.0
  0
LINE
  5
3163
330
1A
100
AcDbEntity
  8
SEIHIN
100
AcDbLine
 10
245.2869474583061
 20
248.9564862643815
 30
0.0
 11
245.2869474583061
 21
234.6264326966815
 31
0.0
  0
ARC
  5
3164
330
1A
100
AcDbEntity
  8
SEIHIN
100
AcDbCircle
 10
243.1869474583061
 20
234.6264325418815
 30
0.0
 40
2.1
100
AcDbArc
 50
288.3896487477998
 51
0.0000042603
  0
LINE
  5
3165
330
1A
100
AcDbEntity
  8
SEIHIN
100
AcDbLine
 10
241.0296994834061
 20
231.6962328731814
 30
0.0
 11
243.8494504414061
 21
232.6336731512815
 31
0.0
  0
LINE
  5
3166
330
1A
100
AcDbEntity
  8
SEIHIN
100
AcDbLine
 10
240.7869474583061
 20
233.2611920955815
 30
0.0
 11
243.6869474583061
 21
235.5601194748814
 31
0.0
  0
LINE
  5
3167
330
1A
100
AcDbEntity
  8
SEIHIN
100
AcDbLine
 10
191.9239922225061
 20
228.4564862643815
 30
0.0
 11
212.1423827501061
 21
228.4564862643815
 31
0.0
  0
LINE
  5
3168
330
1A
100
AcDbEntity
  8
SEIHIN
100
AcDbLine
 10
197.2557843417062
 20
213.4564862643815
 30
0.0
 11
197.2557843417062
 21
228.4564862643815
 31
0.0
  0
LINE
  5
3169
330
1A
100
AcDbEntity
  8
SEIHIN
100
AcDbLine
 10
212.1423827501061
 20
213.4564862643815
 30
0.0
 11
212.1423827501061
 21
228.4564862643815
 31
0.0
  0
LINE
  5
316A
330
1A
100
AcDbEntity
  8
SEIHIN
100
AcDbLine
 10
191.9239922225061
 20
213.4564862643815
 30
0.0
 11
191.9239922225061
 21
228.4564862643815
 31
0.0
  0
LINE
  5
316B
330
1A
100
AcDbEntity
  8
SEIHIN
100
AcDbLine
 10
184.8734731844061
 20
229.3023455776815
 30
0.0
 11
184.8734731844061
 21
212.7169574497814
 31
0.0
  0
LINE
  5
316C
330
1A
100
AcDbEntity
  8
SEIHIN
100
AcDbLine
 10
243.2765492968061
 20
215.1561969497814
 30
0.0
 11
243.2765492968061
 21
226.9069040204815
 31
0.0
  0
LINE
  5
316D
330
1A
100
AcDbEntity
  8
SEIHIN
100
AcDbLine
 10
257.7856211306061
 20
210.9564862643815
 30
0.0
 11
257.7856211306061
 21
230.9564862643814
 31
0.0
  0
LINE
  5
316E
330
1A
100
AcDbEntity
  8
SEIHIN
100
AcDbLine
 10
191.9239922225061
 20
213.4564862643815
 30
0.0
 11
212.1423827501061
 21
213.4564862643815
 31
0.0
  0
LINE
  5
316F
330
1A
100
AcDbEntity
  8
SEIHIN
100
AcDbLine
 10
240.7869474583061
 20
231.2674864684815
 30
0.0
 11
240.7869474583061
 21
230.9564862643814
 31
0.0
  0
LINE
  5
3170
330
1A
100
AcDbEntity
  8
SEIHIN
100
AcDbLine
 10
258.2856211306061
 20
248.9564862643815
 30
0.0
 11
258.2856211306061
 21
234.6264326966815
 31
0.0
  0
ARC
  5
3171
330
1A
100
AcDbEntity
  8
SEIHIN
100
AcDbCircle
 10
241.2869474583061
 20
231.2674864685814
 30
0.0
 40
2.1
100
AcDbArc
 50
120.9637641725
 51
180.0000042601999
  0
ARC
  5
3172
330
1A
100
AcDbEntity
  8
SEIHIN
100
AcDbCircle
 10
243.1869474583061
 20
234.5859917037814
 30
0.0
 40
0.5
100
AcDbArc
 50
288.3896443627
 51
0.0000000353
  0
ELLIPSE
  5
3173
330
1A
100
AcDbEntity
  8
SEIHIN
100
AcDbEllipse
 10
255.3142806586059
 20
242.9564862643815
 30
0.0
 11
0.0
 21
-2.099999999999993
 31
0.0
210
0.0
220
0.0
230
-1.0
 40
0.3712875744
 41
-1.570796326794896
 42
4.712388980384688
  0
ARC
  5
3174
330
1A
100
AcDbEntity
  8
SEIHIN
100
AcDbCircle
 10
241.2869474583061
 20
231.2674864685814
 30
0.0
 40
0.5
100
AcDbArc
 50
120.9637695122999
 51
180.0000000117
  0
ELLIPSE
  5
3175
330
1A
100
AcDbEntity
  8
SEIHIN
100
AcDbEllipse
 10
248.2578565527061
 20
242.9564862643815
 30
0.0
 11
0.0
 21
-2.099999999999993
 31
0.0
210
0.0
220
0.0
230
-1.0
 40
0.3712875744
 41
-1.570796326794896
 42
4.712388980384688
  0
LINE
  5
3176
330
1A
100
AcDbEntity
  8
SEIHIN
100
AcDbLine
 10
243.6869474583061
 20
248.9564862643815
 30
0.0
 11
243.6869474583061
 21
234.5859917037814
 31
0.0
  0
LINE
  5
3177
330
1A
100
AcDbEntity
  8
SEIHIN
100
AcDbLine
 10
196.0878602868061
 20
116.142845013329
 30
0.0
 11
191.9239922225061
 21
111.978976949029
 31
0.0
  0
LINE
  5
3178
330
1A
100
AcDbEntity
  8
SEIHIN
100
AcDbLine
 10
198.633444699106
 20
115.597260601029
 30
0.0
 11
208.5423827501061
 21
115.597260601029
 31
0.0
  0
CIRCLE
  5
3179
330
1A
100
AcDbEntity
  8
SEIHIN
100
AcDbCircle
 10
342.6674632437153
 20
123.0373086767314
 30
0.0
 40
2.1
  0
LINE
  5
317A
330
1A
100
AcDbEntity
  8
SEIHIN
100
AcDbLine
 10
335.9824310693152
 20
118.2092298841314
 30
0.0
 11
341.5532912146151
 21
104.2820795208314
 31
0.0
  0
LINE
  5
317B
330
1A
100
AcDbEntity
  8
SUNPOU
100
AcDbLine
 10
208.5423827501061
 20
115.597260601029
 30
0.0
 11
235.3423827501062
 21
115.597260601029
 31
0.0
  0
LINE
  5
317C
330
1A
100
AcDbEntity
  8
SUNPOU
100
AcDbLine
 10
245.2869474583061
 20
90.73584883052918
 30
0.0
 11
235.3423827501062
 21
115.597260601029
 31
0.0
  0
ARC
  5
317D
330
1A
100
AcDbEntity
  8
SEIHIN
100
AcDbCircle
 10
205.6016884399062
 20
87.76904760422912
 30
0.0
 40
2.0
100
AcDbArc
 50
96.0000000125
 51
173.0000000225999
  0
LINE
  5
317E
330
1A
100
AcDbEntity
  8
SEIHIN
100
AcDbLine
 10
319.2698506334151
 20
95.36870328833146
 30
0.0
 11
315.0917055244151
 21
93.69744524473146
 31
0.0
  0
ARC
  5
317F
330
1A
100
AcDbEntity
  8
SEIHIN
100
AcDbCircle
 10
208.5423827501061
 20
113.597260601029
 30
0.0
 40
3.6
100
AcDbArc
 50
0.0
 51
90.0000000118
  0
ARC
  5
3180
330
1A
100
AcDbEntity
  8
SEIHIN
100
AcDbCircle
 10
196.883603991606
 20
78.30726552982918
 30
0.0
 40
5.5
100
AcDbArc
 50
270.0000000353
 51
353.0000000461
  0
ARC
  5
3181
330
1A
100
AcDbEntity
  8
SEIHIN
100
AcDbCircle
 10
194.4730021329062
 20
71.80726552982918
 30
0.0
 40
5.5
100
AcDbArc
 50
90.00000001169999
 51
143.8741928299
  0
LINE
  5
3182
330
1A
100
AcDbEntity
  8
SEIHIN
100
AcDbLine
 10
194.4730021329062
 20
72.80726552982918
 30
0.0
 11
196.883603991606
 21
72.80726552982918
 31
0.0
  0
LINE
  5
3183
330
1A
100
AcDbEntity
  8
SEIHIN
100
AcDbLine
 10
245.2869474583061
 20
90.73584883052918
 30
0.0
 11
258.2856211306061
 21
58.23916464952917
 31
0.0
  0
LINE
  5
3184
330
1A
100
AcDbEntity
  8
SEIHIN
100
AcDbLine
 10
332.2685243058153
 20
127.4939967929314
 30
0.0
 11
334.4968683639151
 21
121.9231366476314
 31
0.0
  0
LINE
  5
3185
330
1A
100
AcDbEntity
  8
SEIHIN
100
AcDbLine
 10
316.5772682298153
 20
89.98353848113145
 30
0.0
 11
315.0917055244151
 21
93.69744524473146
 31
0.0
  0
LINE
  5
3186
330
1A
100
AcDbEntity
  8
SEIHIN
100
AcDbLine
 10
307.6490036944153
 20
125.7671118375314
 30
0.0
 11
326.2185375121152
 21
133.1949253646314
 31
0.0
  0
ARC
  5
3187
330
1A
100
AcDbEntity
  8
SEIHIN
100
AcDbCircle
 10
202.5331710466061
 20
91.49726060102917
 30
0.0
 40
4.599999999999998
100
AcDbArc
 50
90.0000000118
 51
173.0000000225999
  0
LINE
  5
3188
330
1A
100
AcDbEntity
  8
SEIHIN
100
AcDbLine
 10
203.616596136606
 20
88.01278629102917
 30
0.0
 11
202.342607825606
 21
77.63698414112917
 31
0.0
  0
LINE
  5
3189
330
1A
100
AcDbEntity
  8
SEIHIN
100
AcDbLine
 10
307.6490036944153
 20
125.7671118375314
 30
0.0
 11
323.4479957424151
 21
86.26963171763154
 31
0.0
  0
LINE
  5
318A
330
1A
100
AcDbEntity
  8
SEIHIN
100
AcDbLine
 10
307.1996536519153
 20
117.4664485313314
 30
0.0
 11
309.4279977100151
 21
111.8955883860314
 31
0.0
  0
LINE
  5
318B
330
1A
100
AcDbEntity
  8
SEIHIN
100
AcDbLine
 10
204.9222534287061
 20
94.23343992412915
 30
0.0
 11
236.9101757617062
 21
97.59550603862905
 31
0.0
  0
ARC
  5
318C
330
1A
100
AcDbEntity
  8
SEIHIN
100
AcDbCircle
 10
357.1516996215152
 20
102.9822121535314
 30
0.0
 40
3.0
100
AcDbArc
 50
291.8014095216
 51
21.8014145132
  0
LINE
  5
318D
330
1A
100
AcDbEntity
  8
SEIHIN
100
AcDbLine
 10
309.5208453791153
 20
107.6245956080314
 30
0.0
 11
308.0352826737152
 21
111.3385023715314
 31
0.0
  0
CIRCLE
  5
318E
330
1A
100
AcDbEntity
  8
SEIHIN
100
AcDbCircle
 10
302.7429655356152
 20
107.0675095934314
 30
0.0
 40
2.1
  0
ARC
  5
318F
330
1A
100
AcDbEntity
  8
SEIHIN
100
AcDbCircle
 10
208.5423827501061
 20
113.597260601029
 30
0.0
 40
2.0
100
AcDbArc
 50
0.0
 51
90.0000000118
  0
ARC
  5
3190
330
1A
100
AcDbEntity
  8
SEIHIN
100
AcDbCircle
 10
196.883603991606
 20
78.30726552982918
 30
0.0
 40
1.0
100
AcDbArc
 50
270.0000000353
 51
353.0000000461
  0
LINE
  5
3191
330
1A
100
AcDbEntity
  8
SEIHIN
100
AcDbLine
 10
212.1423827501061
 20
113.597260601029
 30
0.0
 11
212.1423827501061
 21
98.09726060102903
 31
0.0
  0
LINE
  5
3192
330
1A
100
AcDbEntity
  8
SEIHIN
100
AcDbLine
 10
313.6989904881152
 20
109.2958536516314
 30
0.0
 11
309.5208453791153
 21
107.6245956080314
 31
0.0
  0
LINE
  5
3193
330
1A
100
AcDbEntity
  8
SEIHIN
100
AcDbLine
 10
239.1590012984061
 20
88.28467036662916
 30
0.0
 11
252.1576749708061
 21
55.78798618562916
 31
0.0
  0
LINE
  5
3194
330
1A
100
AcDbEntity
  8
SEIHIN
100
AcDbLine
 10
326.2185375121152
 20
133.1949253646314
 30
0.0
 11
342.0175295601152
 21
93.69744524473146
 31
0.0
  0
CIRCLE
  5
3195
330
1A
100
AcDbEntity
  8
SEIHIN
100
AcDbCircle
 10
309.7993883864153
 20
89.42645246663152
 30
0.0
 40
2.1
  0
LINE
  5
3196
330
1A
100
AcDbEntity
  8
SEIHIN
100
AcDbLine
 10
344.4315689564151
 20
101.1252587718314
 30
0.0
 11
342.9460062510153
 21
104.8391655353314
 31
0.0
  0
LINE
  5
3197
330
1A
100
AcDbEntity
  8
SEIHIN
100
AcDbLine
 10
307.1996536519153
 20
79.77029488143149
 30
0.0
 11
358.2658716506151
 21
100.1967820809314
 31
0.0
  0
ARC
  5
3198
330
1A
100
AcDbEntity
  8
SEIHIN
100
AcDbCircle
 10
295.3151520085152
 20
109.4815489897314
 30
0.0
 40
3.0
100
AcDbArc
 50
111.8014094981
 51
201.8014095099
  0
LINE
  5
3199
330
1A
100
AcDbEntity
  8
SEIHIN
100
AcDbLine
 10
302.4734008749151
 20
145.4375748951314
 30
0.0
 11
316.4005512382152
 21
151.0084350404314
 31
0.0
  0
LINE
  5
319A
330
1A
100
AcDbEntity
  8
SEIHIN
100
AcDbLine
 10
309.9701954216153
 20
126.6955885284314
 30
0.0
 11
297.7851238463151
 21
157.1582674666314
 31
0.0
  0
LINE
  5
319B
330
1A
100
AcDbEntity
  8
SEIHIN
100
AcDbLine
 10
292.5297219359151
 20
108.3673769607314
 30
0.0
 11
303.3000515502151
 21
81.44155292503148
 31
0.0
  0
LINE
  5
319C
330
1A
100
AcDbEntity
  8
SEIHIN
100
AcDbLine
 10
243.624709263706
 20
93.54515311502915
 30
0.0
 11
244.8227091128062
 21
90.55015349232917
 31
0.0
  0
LINE
  5
319D
330
1A
100
AcDbEntity
  8
SEIHIN
100
AcDbLine
 10
309.9850837245151
 20
118.5806205604314
 30
0.0
 11
322.9837573969151
 21
86.08393637943155
 31
0.0
  0
LINE
  5
319E
330
1A
100
AcDbEntity
  8
SEIHIN
100
AcDbLine
 10
343.0388539200153
 20
100.5681727572314
 30
0.0
 11
345.2671979782153
 21
94.99731261193145
 31
0.0
  0
LINE
  5
319F
330
1A
100
AcDbEntity
  8
SEIHIN
100
AcDbLine
 10
340.2534238474153
 20
99.45400072823147
 30
0.0
 11
344.4315689564151
 21
101.1252587718314
 31
0.0
  0
LINE
  5
31A0
330
1A
100
AcDbEntity
  8
SEIHIN
100
AcDbLine
 10
197.9674587490062
 20
92.05785958062914
 30
0.0
 11
196.462881259206
 21
79.80405927582914
 31
0.0
  0
CIRCLE
  5
31A1
330
1A
100
AcDbEntity
  8
SEIHIN
100
AcDbCircle
 10
349.7238860944152
 20
105.3962515498314
 30
0.0
 40
2.1
  0
LINE
  5
31A2
330
1A
100
AcDbEntity
  8
SEIHIN
100
AcDbLine
 10
329.0188558877153
 20
126.1941294257314
 30
0.0
 11
345.2671979782153
 21
132.6934662619314
 31
0.0
  0
ARC
  5
31A3
330
1A
100
AcDbEntity
  8
SEIHIN
100
AcDbCircle
 10
198.633444699106
 20
113.597260601029
 30
0.0
 40
3.6
100
AcDbArc
 50
90.0000000118
 51
135.0000000175999
  0
LINE
  5
31A4
330
1A
100
AcDbEntity
  8
SEIHIN
100
AcDbLine
 10
202.5331710466061
 20
94.49726060102904
 30
0.0
 11
208.5423827501061
 21
94.49726060102904
 31
0.0
  0
LINE
  5
31A5
330
1A
100
AcDbEntity
  8
SEIHIN
100
AcDbLine
 10
198.633444699106
 20
117.197260601029
 30
0.0
 11
208.5423827501061
 21
117.197260601029
 31
0.0
  0
LINE
  5
31A6
330
1A
100
AcDbEntity
  8
SEIHIN
100
AcDbLine
 10
194.4730021329062
 20
77.30726552982918
 30
0.0
 11
196.883603991606
 21
77.30726552982918
 31
0.0
  0
LINE
  5
31A7
330
1A
100
AcDbEntity
  8
SEIHIN
100
AcDbLine
 10
210.5423827501061
 20
113.597260601029
 30
0.0
 11
210.5423827501061
 21
98.09726060102903
 31
0.0
  0
ARC
  5
31A8
330
1A
100
AcDbEntity
  8
SEIHIN
100
AcDbCircle
 10
346.3813700072153
 20
129.9080361892314
 30
0.0
 40
3.0
100
AcDbArc
 50
21.80141119389998
 51
111.8014094981
  0
ARC
  5
31A9
330
1A
100
AcDbEntity
  8
SEIHIN
100
AcDbCircle
 10
154.490627471706
 20
100.9904995800291
 30
0.0
 40
44.0000144765
100
AcDbArc
 50
282.2388815936998
 51
323.8742025326
  0
LINE
  5
31AA
330
1A
100
AcDbEntity
  8
SEIHIN
100
AcDbLine
 10
197.219231136706
 20
115.0114741634291
 30
0.0
 11
193.055363072406
 21
110.8476060991291
 31
0.0
  0
LINE
  5
31AB
330
1A
100
AcDbEntity
  8
SEIHIN
100
AcDbLine
 10
193.055363072406
 20
110.8476060991291
 30
0.0
 11
191.9239922225061
 21
111.978976949029
 31
0.0
  0
LINE
  5
31AC
330
1A
100
AcDbEntity
  8
SEIHIN
100
AcDbLine
 10
333.1970009967152
 20
117.0950578550314
 30
0.0
 11
337.3751461056152
 21
118.7663158986314
 31
0.0
  0
LINE
  5
31AD
330
1A
100
AcDbEntity
  8
SEIHIN
100
AcDbLine
 10
329.4830942331151
 20
126.3798247638314
 30
0.0
 11
342.4817679055152
 21
93.88314058293145
 31
0.0
  0
LINE
  5
31AE
330
1A
100
AcDbEntity
  8
SEIHIN
100
AcDbLine
 10
312.2134277827151
 20
113.0097604151314
 30
0.0
 11
308.0352826737152
 21
111.3385023715314
 31
0.0
  0
ARC
  5
31AF
330
1A
100
AcDbEntity
  8
SEIHIN
100
AcDbCircle
 10
208.5423827501061
 20
98.09726060102903
 30
0.0
 40
2.0
100
AcDbArc
 50
270.0000000353
 51
0.0
  0
LINE
  5
31B0
330
1A
100
AcDbEntity
  8
SEIHIN
100
AcDbLine
 10
317.9699832661152
 20
90.5406244957315
 30
0.0
 11
320.1983273243153
 21
84.9697643504315
 31
0.0
  0
LINE
  5
31B1
330
1A
100
AcDbEntity
  8
SEIHIN
100
AcDbLine
 10
331.7114382912153
 20
120.8089646185314
 30
0.0
 11
335.8895834002152
 21
122.4802226621314
 31
0.0
  0
LINE
  5
31B2
330
1A
100
AcDbEntity
  8
SEIHIN
100
AcDbLine
 10
320.7554133388151
 20
91.6547965247315
 30
0.0
 11
316.5772682298153
 21
89.98353848113145
 31
0.0
  0
LINE
  5
31B3
330
1A
100
AcDbEntity
  8
SEIHIN
100
AcDbLine
 10
337.3751461056152
 20
118.7663158986314
 30
0.0
 11
335.8895834002152
 21
122.4802226621314
 31
0.0
  0
LINE
  5
31B4
330
1A
100
AcDbEntity
  8
SEIHIN
100
AcDbLine
 10
294.2009799795151
 20
112.2669790624314
 30
0.0
 11
310.4493220700152
 21
118.7663158986314
 31
0.0
  0
LINE
  5
31B5
330
1A
100
AcDbEntity
  8
SEIHIN
100
AcDbLine
 10
297.7851238463151
 20
157.1582674666314
 30
0.0
 11
311.7122742096153
 21
162.7291276120314
 31
0.0
  0
LINE
  5
31B6
330
1A
100
AcDbEntity
  8
SEIHIN
100
AcDbLine
 10
205.3926315134061
 20
89.75809139492913
 30
0.0
 11
237.3805538464061
 21
93.12015750952914
 31
0.0
  0
LINE
  5
31B7
330
1A
100
AcDbEntity
  8
SEIHIN
100
AcDbLine
 10
243.801384752806
 20
90.14162374832917
 30
0.0
 11
256.8000584252061
 21
57.64493956732916
 31
0.0
  0
LINE
  5
31B8
330
1A
100
AcDbEntity
  8
SEIHIN
100
AcDbLine
 10
338.7678611420152
 20
103.1679074917314
 30
0.0
 11
342.9460062510153
 21
104.8391655353314
 31
0.0
  0
ARC
  5
31B9
330
1A
100
AcDbEntity
  8
SEIHIN
100
AcDbCircle
 10
241.2869474583061
 20
210.6454860602814
 30
0.0
 40
0.5
100
AcDbArc
 50
180.0000000117
 51
239.0362434874
  0
LINE
  5
31BA
330
1A
100
AcDbEntity
  8
SEIHIN
100
AcDbLine
 10
240.2065063719062
 20
208.8447509162814
 30
0.0
 11
243.3446862240062
 21
207.8014473483815
 31
0.0
  0
LINE
  5
31BB
330
1A
100
AcDbEntity
  8
SEIHIN
100
AcDbLine
 10
245.2869474583061
 20
208.5151048921815
 30
0.0
 11
257.2079708643061
 21
208.5151048921815
 31
0.0
  0
LINE
  5
31BC
330
1A
100
AcDbEntity
  8
SEIHIN
100
AcDbLine
 10
253.785621130606
 20
210.6454860601814
 30
0.0
 11
253.785621130606
 21
210.9564862643815
 31
0.0
  0
LINE
  5
31BD
330
1A
100
AcDbEntity
  8
SEIHIN
100
AcDbLine
 10
239.1869474583061
 20
210.6454859040815
 30
0.0
 11
239.1869474583061
 21
210.9564862643815
 31
0.0
  0
LINE
  5
31BE
330
1A
100
AcDbEntity
  8
SEIHIN
100
AcDbLine
 10
240.7869474583061
 20
210.6454860601814
 30
0.0
 11
240.7869474583061
 21
210.9564862643815
 31
0.0
  0
ARC
  5
31BF
330
1A
100
AcDbEntity
  8
SEIHIN
100
AcDbCircle
 10
241.2869474583061
 20
210.6454860602814
 30
0.0
 40
2.1
100
AcDbArc
 50
180.0000042601999
 51
239.0362434874
  0
LINE
  5
31C0
330
1A
100
AcDbEntity
  8
SEIHIN
100
AcDbLine
 10
258.2856211306061
 20
192.9564862643815
 30
0.0
 11
258.2856211306061
 21
207.2865398321815
 31
0.0
  0
ELLIPSE
  5
31C1
330
1A
100
AcDbEntity
  8
SEIHIN
100
AcDbEllipse
 10
255.3142806586059
 20
198.9564862643815
 30
0.0
 11
0.0
 21
2.099999999999993
 31
0.0
210
0.0
220
0.0
230
1.0
 40
0.3712875744
 41
-1.570796326794896
 42
4.712388980384688
  0
ARC
  5
31C3
330
1A
100
AcDbEntity
  8
SEIHIN
100
AcDbCircle
 10
198.633444699106
 20
113.597260601029
 30
0.0
 40
2.0
100
AcDbArc
 50
90.0000000118
 51
135.0000000175999
  0
LINE
  5
31C4
330
1A
100
AcDbEntity
  8
SEIHIN
100
AcDbLine
 10
196.462881259206
 20
79.80405927582914
 30
0.0
 11
198.0509551018061
 21
79.60906832642916
 31
0.0
  0
LINE
  5
31C5
330
1A
100
AcDbEntity
  8
SEIHIN
100
AcDbLine
 10
202.5331710466061
 20
96.09726060102904
 30
0.0
 11
208.5423827501061
 21
96.09726060102904
 31
0.0
  0
ARC
  5
31C6
330
1A
100
AcDbEntity
  8
SEIHIN
100
AcDbCircle
 10
-237.589610773006
 20
91.13111371872912
 30
0.0
 40
2.0
210
0.0
220
0.0
230
-1.0
100
AcDbArc
 50
84.0
 51
158.1985905136999
  0
LINE
  5
31C7
330
1A
100
AcDbEntity
  8
SEIHIN
100
AcDbLine
 10
349.1668000467151
 20
131.0222083013314
 30
0.0
 11
359.9371295964151
 21
104.0963844270314
 31
0.0
  0
ARC
  5
31C8
330
1A
100
AcDbEntity
  8
SEIHIN
100
AcDbCircle
 10
248.2869474583062
 20
192.9564862643815
 30
0.0
 40
3.0
100
AcDbArc
 50
180.0
 51
236.4426902380785
  0
ELLIPSE
  5
31C9
330
1A
100
AcDbEntity
  8
SEIHIN
100
AcDbEllipse
 10
248.2578565527061
 20
198.9564862643815
 30
0.0
 11
0.0
 21
2.099999999999993
 31
0.0
210
0.0
220
0.0
230
1.0
 40
0.3712875744
 41
-1.570796326794896
 42
4.712388980384688
  0
LINE
  5
31CA
330
1A
100
AcDbEntity
  8
SEIHIN
100
AcDbLine
 10
256.848124099406
 20
209.2792993342814
 30
0.0
 11
254.0283732529061
 21
210.2167395973815
 31
0.0
  0
ARC
  5
31CB
330
1A
100
AcDbEntity
  8
SEIHIN
100
AcDbCircle
 10
256.1856211306062
 20
207.2865399869814
 30
0.0
 40
2.1
100
AcDbArc
 50
359.9999958101999
 51
71.6103513227
  0
ARC
  5
31CC
330
1A
100
AcDbEntity
  8
SEIHIN
100
AcDbCircle
 10
254.285621130606
 20
210.6454860602814
 30
0.0
 40
0.5
100
AcDbArc
 50
180.0000000117
 51
239.0362434874
  0
LINE
  5
31CD
330
1A
100
AcDbEntity
  8
SEIHIN
100
AcDbLine
 10
243.6869474583061
 20
192.9564862643815
 30
0.0
 11
243.6869474583061
 21
207.3269808249814
 31
0.0
  0
LINE
  5
31CE
330
1A
100
AcDbEntity
  8
SEIHIN
100
AcDbLine
 10
245.2869474583061
 20
192.9564862643815
 30
0.0
 11
245.2869474583061
 21
207.2865398321815
 31
0.0
  0
LINE
  5
31CF
330
1A
100
AcDbEntity
  8
SEIHIN
100
AcDbLine
 10
243.8494504270062
 20
209.2792993342814
 30
0.0
 11
241.0296995805061
 21
210.2167395973815
 31
0.0
  0
ARC
  5
31D0
330
1A
100
AcDbEntity
  8
SEIHIN
100
AcDbCircle
 10
243.1869474583061
 20
207.3269808249814
 30
0.0
 40
0.5
100
AcDbArc
 50
0.0000000353
 51
71.6103557078
  0
LINE
  5
31D1
330
1A
100
AcDbEntity
  8
SEIHIN
100
AcDbLine
 10
240.7869474583061
 20
208.6517804331815
 30
0.0
 11
243.6869474583061
 21
206.3528530539814
 31
0.0
  0
ARC
  5
31D2
330
1A
100
AcDbEntity
  8
SEIHIN
100
AcDbCircle
 10
243.1869474583061
 20
207.2865399869814
 30
0.0
 40
2.1
100
AcDbArc
 50
359.9999958101999
 51
71.6103513227
  0
LINE
  5
31D3
330
1A
100
AcDbEntity
  8
SEIHIN
100
AcDbLine
 10
199.555532591706
 20
91.86286863122917
 30
0.0
 11
197.8761501433061
 21
78.18539618642915
 31
0.0
  0
ARC
  5
31D4
330
1A
100
AcDbEntity
  8
SEIHIN
100
AcDbCircle
 10
205.6016884399062
 20
87.76904760422912
 30
0.0
 40
6.5
100
AcDbArc
 50
96.0000000125
 51
173.0000000225999
  0
ARC
  5
31D5
330
1A
100
AcDbEntity
  8
SEIHIN
100
AcDbCircle
 10
194.4730021329062
 20
71.80726552982918
 30
0.0
 40
1.0
100
AcDbArc
 50
90.0000000118
 51
143.8742014336999
  0
LINE
  5
31D6
330
1A
100
AcDbEntity
  8
SEIHIN
100
AcDbLine
 10
258.2856211306061
 20
58.23916464952917
 30
0.0
 11
252.1576749708061
 21
55.78798618562916
 31
0.0
  0
LINE
  5
31D7
330
1A
100
AcDbEntity
  8
SEIHIN
100
AcDbLine
 10
310.9135604154153
 20
108.1816816225314
 30
0.0
 11
316.4844205607153
 21
94.25453125923146
 31
0.0
  0
ARC
  5
31D8
330
1A
100
AcDbEntity
  8
SEIHIN
100
AcDbCircle
 10
306.0854816228151
 20
82.55572495413149
 30
0.0
 40
3.0
100
AcDbArc
 50
201.8014095099
 51
291.8014095216
  0
LINE
  5
31D9
330
1A
100
AcDbEntity
  8
SEIHIN
100
AcDbLine
 10
323.8973457849152
 20
132.2664486737314
 30
0.0
 11
311.7122742096153
 21
162.7291276120314
 31
0.0
  0
LINE
  5
31DA
330
1A
100
AcDbEntity
  8
SEIHIN
100
AcDbLine
 10
239.446564154706
 20
91.87389507142919
 30
0.0
 11
240.644564003806
 21
88.87889544872917
 31
0.0
  0
ARC
  5
31DB
330
1A
100
AcDbEntity
  8
SEIHIN
100
AcDbCircle
 10
-237.589610773006
 20
91.13111371872912
 30
0.0
 40
6.5
210
0.0
220
0.0
230
-1.0
100
AcDbArc
 50
84.0
 51
158.1985905136
  0
ARC
  5
31DC
330
1A
100
AcDbEntity
  8
SEIHIN
100
AcDbCircle
 10
202.5331710466061
 20
91.49726060102917
 30
0.0
 40
3.0
100
AcDbArc
 50
90.0000000118
 51
173.0000000225999
  0
ARC
  5
31DD
330
1A
100
AcDbEntity
  8
SEIHIN
100
AcDbCircle
 10
208.5423827501061
 20
98.09726060102903
 30
0.0
 40
3.6
100
AcDbArc
 50
270.0000000353
 51
0.0
  0
ARC
  5
31DE
330
1A
100
AcDbEntity
  8
SEIHIN
100
AcDbCircle
 10
246.686947458306
 20
192.9564862643815
 30
0.0
 40
3.0
100
AcDbArc
 50
180.0
 51
236.4426902380785
  0
ARC
  5
31DF
330
1A
100
AcDbEntity
  8
SEIHIN
100
AcDbCircle
 10
255.285621130606
 20
192.9564862643815
 30
0.0
 40
3.0
100
AcDbArc
 50
303.5573097619213
 51
0.0
  0
LINE
  5
31E0
330
1A
100
AcDbEntity
  8
SEIHIN
100
AcDbLine
 10
245.2869474583061
 20
90.73584883052918
 30
0.0
 11
239.1590012984061
 21
88.28467036662916
 31
0.0
  0
ARC
  5
31E1
330
1A
100
AcDbEntity
  8
SEIHIN
100
AcDbCircle
 10
-246.686947458306
 20
248.9564862643815
 30
0.0
 40
3.0
210
0.0
220
0.0
230
-1.0
100
AcDbArc
 50
0.0
 51
90.0
  0
ARC
  5
31E2
330
1A
100
AcDbEntity
  8
SEIHIN
100
AcDbCircle
 10
-248.2869474583062
 20
248.9564862643815
 30
0.0
 40
3.0
210
0.0
220
0.0
230
-1.0
100
AcDbArc
 50
0.0
 51
90.0
  0
ARC
  5
31E3
330
1A
100
AcDbEntity
  8
SEIHIN
100
AcDbCircle
 10
-255.285621130606
 20
248.9564862643815
 30
0.0
 40
3.0
210
0.0
220
0.0
230
-1.0
100
AcDbArc
 50
90.0
 51
180.0
  0
LINE
  5
31E4
330
1A
100
AcDbEntity
  8
SEIHIN
100
AcDbLine
 10
246.686947458306
 20
251.9564862643814
 30
0.0
 11
255.285621130606
 21
251.9564862643814
 31
0.0
  0
LINE
  5
31E5
330
1A
100
AcDbEntity
  8
CENTER_L
100
AcDbLine
 10
338.0254680845563
 20
121.1806430828175
 30
0.0
 11
347.3103263533654
 21
124.8943214383199
 31
0.0
  0
LINE
  5
31E6
330
1A
100
AcDbEntity
  8
CENTER_L
100
AcDbLine
 10
344.5247363967121
 20
118.3950531261642
 30
0.0
 11
340.8110580412096
 21
127.6799113949733
 31
0.0
  0
LINE
  5
31E7
330
1A
100
AcDbEntity
  8
CENTER_L
100
AcDbLine
 10
345.0814569600108
 20
103.5394123720803
 30
0.0
 11
354.3663152288198
 21
107.2530907275826
 31
0.0
  0
LINE
  5
31E8
330
1A
100
AcDbEntity
  8
CENTER_L
100
AcDbLine
 10
351.5807252721665
 20
100.7538224154268
 30
0.0
 11
347.8670469166639
 21
110.038680684236
 31
0.0
  0
LINE
  5
31E9
330
1A
100
AcDbEntity
  8
CENTER_L
100
AcDbLine
 10
305.1565664041315
 20
87.57059544342029
 30
0.0
 11
314.4414246729406
 21
91.28427379892263
 31
0.0
  0
LINE
  5
31EA
330
1A
100
AcDbEntity
  8
CENTER_L
100
AcDbLine
 10
311.6558347162872
 20
84.78500548676684
 30
0.0
 11
307.9421563607849
 21
94.06986375557595
 31
0.0
  0
LINE
  5
31EB
330
1A
100
AcDbEntity
  8
CENTER_L
100
AcDbLine
 10
298.1005775286771
 20
105.2118261541575
 30
0.0
 11
307.3854357974862
 21
108.9255045096598
 31
0.0
  0
LINE
  5
31EC
330
1A
100
AcDbEntity
  8
CENTER_L
100
AcDbLine
 10
304.5998458408328
 20
102.4262361975041
 30
0.0
 11
300.8861674853306
 21
111.7110944663132
 31
0.0
  0
DIMENSION
  5
31ED
330
1A
100
AcDbEntity
  8
SUNPOU
100
AcDbDimension
  2
*D1
 10
327.2461963923369
 20
185.7319073830478
 30
0.0
 11
297.9989590835934
 21
176.7264029659681
 31
0.0
 70
    32
  3
STANDARD
100
AcDbAlignedDimension
 13
292.2746323755225
 23
108.9094264477803
 33
0.0
 14
348.912267782058
 24
131.5628644993513
 34
0.0
 50
21.79999999999982
100
AcDbRotatedDimension
1001
ACAD
1000
DSTYLE
1002
{
1070
   140
1040
3.0
1070
    74
1070
     0
1070
   172
1070
     1
1070
    73
1070
     0
1070
   272
1070
     0
1070
    77
1070
     3
1070
   173
1070
     1
1070
   147
1040
1.0
1070
    42
1040
3.0
1070
    44
1040
1.5
1070
    43
1040
7.0
1070
   271
1070
     0
1070
   178
1070
   256
1070
   177
1070
   256
1070
   176
1070
   256
1070
   141
1040
3.0
1070
     7
1000
OPEN
1070
     6
1000
OPEN
1070
    41
1040
3.0
1002
}
  0
TEXT
  5
31EF
330
1A
100
AcDbEntity
  8
SUNPOU
100
AcDbText
 10
255.3772378350083
 20
116.6758211870467
 30
0.0
 40
4.0
  1
4-φ4.2
 50
21.79999999999982
100
AcDbText
  0
LEADER
  5
31F0
330
1A
100
AcDbEntity
  8
SUNPOU
100
AcDbLeader
  3
STANDARD
 76
     3
 10
300.8290501293053
 20
108.8970977659116
 30
0.0
 10
277.3523793676904
 20
123.8910296867438
 30
0.0
 10
254.369238992237
 20
114.6984293817377
 30
0.0
211
0.9284858268809136
221
0.3713678355502348
231
0.0
1001
ACAD
1000
DSTYLE
1002
{
1070
     6
1000
OPEN
1070
    41
1040
3.0
1070
    42
1040
3.0
1070
    43
1040
7.0
1070
    44
1040
1.5
1070
    73
1070
     0
1070
    74
1070
     0
1070
    77
1070
     3
1070
   140
1040
3.0
1070
   141
1040
3.0
1070
   147
1040
1.0
1070
   172
1070
     1
1070
   173
1070
     1
1070
   176
1070
   256
1070
   177
1070
   256
1070
   178
1070
   256
1070
   271
1070
     0
1070
   272
1070
     0
1070
   341
1005
B2
1070
   343
1005
B2
1070
   344
1005
B2
1002
}
1000
LEANOF
1010
0.0
1020
0.0
1030
0.0
  0
DIMENSION
  5
31F1
330
1A
100
AcDbEntity
  8
SUNPOU
100
AcDbDimension
  2
*D3
 10
287.2574059506467
 20
100.8735686820237
 30
0.0
 11
288.0931491756481
 21
105.5159315784228
 31
0.0
 70
    32
  3
STANDARD
100
AcDbAlignedDimension
 13
294.2009799794151
 23
112.2669790624314
 33
0.0
 14
298.1004084906978
 24
105.2104602829343
 34
0.0
 50
111.7999999999997
100
AcDbRotatedDimension
1001
ACAD
1000
DSTYLE
1002
{
1070
   140
1040
3.0
1070
    74
1070
     0
1070
   172
1070
     1
1070
    73
1070
     0
1070
   272
1070
     0
1070
    77
1070
     3
1070
   173
1070
     1
1070
   147
1040
1.0
1070
    42
1040
3.0
1070
    44
1040
1.5
1070
    43
1040
7.0
1070
   271
1070
     0
1070
   178
1070
   256
1070
   177
1070
   256
1070
   176
1070
   256
1070
   141
1040
3.0
1070
     7
1000
OPEN
1070
     6
1000
OPEN
1070
    41
1040
3.0
1002
}
  0
DIMENSION
  5
31F2
330
1A
100
AcDbEntity
  8
SUNPOU
100
AcDbDimension
  2
*D2
 10
289.0653162201108
 20
72.51707737745917
 30
0.0
 11
284.8875936651841
 21
89.6939989367507
 31
0.0
 70
    32
  3
STANDARD
100
AcDbAlignedDimension
 13
294.2009799794151
 23
112.2669790624314
 33
0.0
 14
307.1988542253896
 24
79.76997512228598
 34
0.0
 50
111.7999999999997
100
AcDbRotatedDimension
1001
ACAD
1000
DSTYLE
1002
{
1070
   140
1040
3.0
1070
    74
1070
     0
1070
   172
1070
     1
1070
    73
1070
     0
1070
   272
1070
     0
1070
    77
1070
     3
1070
   173
1070
     1
1070
   147
1040
1.0
1070
    42
1040
3.0
1070
    44
1040
1.5
1070
    43
1040
7.0
1070
   271
1070
     0
1070
   178
1070
   256
1070
   177
1070
   256
1070
   176
1070
   256
1070
   141
1040
3.0
1070
     7
1000
OPEN
1070
     6
1000
OPEN
1070
    41
1040
3.0
1002
}
  0
DIMENSION
  5
31F3
330
1A
100
AcDbEntity
  8
SUNPOU
100
AcDbDimension
  2
*D4
 10
297.2843375105032
 20
75.80445135623908
 30
0.0
 11
298.1200807355045
 21
80.44681425263831
 31
0.0
 70
    32
  3
STANDARD
100
AcDbAlignedDimension
 13
305.1563973661523
 23
87.56922957219712
 33
0.0
 14
307.1988542253896
 24
79.76997512228598
 34
0.0
 50
111.7999999999997
100
AcDbRotatedDimension
1001
ACAD
1000
DSTYLE
1002
{
1070
   140
1040
3.0
1070
    74
1070
     0
1070
   172
1070
     1
1070
    73
1070
     0
1070
   272
1070
     0
1070
    77
1070
     3
1070
   173
1070
     1
1070
   147
1040
1.0
1070
    42
1040
3.0
1070
    44
1040
1.5
1070
    43
1040
7.0
1070
   271
1070
     0
1070
   178
1070
   256
1070
   177
1070
   256
1070
   176
1070
   256
1070
   141
1040
3.0
1070
     7
1000
OPEN
1070
     6
1000
OPEN
1070
    41
1040
3.0
1002
}
  0
DIMENSION
  5
3234
330
1A
100
AcDbEntity
  8
SUNPOU
100
AcDbDimension
  2
*D5
 10
273.242179873967
 20
64.22178814687362
 30
0.0
 11
269.0640347649801
 21
81.39860692825893
 31
0.0
 70
    33
  3
STANDARD
100
AcDbAlignedDimension
 13
245.286947458206
 23
90.73584883052918
 33
0.0
 14
258.2856211306062
 24
58.23916464952917
 34
0.0
1001
ACAD
1000
DSTYLE
1002
{
1070
   140
1040
3.0
1070
    74
1070
     0
1070
   172
1070
     1
1070
    73
1070
     0
1070
   272
1070
     2
1070
    77
1070
     3
1070
   173
1070
     1
1070
   147
1040
1.0
1070
    42
1040
3.0
1070
    44
1040
1.5
1070
    43
1040
7.0
1070
   271
1070
     0
1070
   178
1070
     4
1070
   177
1070
     4
1070
   176
1070
     4
1070
   141
1040
3.0
1070
     7
1000
_OPEN
1070
     6
1000
_OPEN
1070
    41
1040
3.0
1002
}
  0
LINE
  5
3235
330
1A
100
AcDbEntity
  8
CENTER_L
 48
5.0
100
AcDbLine
 10
260.3282698507781
 20
88.13611409596592
 30
0.0
 11
236.1878758876798
 21
78.47995651096335
 31
0.0
  0
LINE
  5
3236
330
1A
100
AcDbEntity
  8
CENTER_L
 48
5.0
100
AcDbLine
 10
267.384692701357
 20
70.49505696908636
 30
0.0
 11
243.2442987382586
 21
60.83889938408377
 31
0.0
  0
LINE
  5
3237
330
1A
100
AcDbEntity
  8
SUNPOU
100
AcDbLine
 10
258.2856211306062
 20
58.23916464952917
 30
0.0
 11
267.6328998529062
 21
34.87096784382918
 31
0.0
  0
LINE
  5
3238
330
1A
100
AcDbEntity
  8
SUNPOU
100
AcDbLine
 10
263.6328998529062
 20
34.87096784382918
 30
0.0
 11
263.6328998529062
 21
44.87096784382919
 31
0.0
  0
LINE
  5
3239
330
1A
100
AcDbEntity
  8
SUNPOU
100
AcDbLine
 10
267.6328998529062
 20
34.87096784382918
 30
0.0
 11
263.6328998529062
 21
34.87096784382918
 31
0.0
  0
MTEXT
  5
323A
330
1A
100
AcDbEntity
  8
SUNPOU
100
AcDbMText
 10
264.9618055086063
 20
33.0111110305292
 30
0.0
 40
3.5983331442
 41
8.626259690899999
 71
     1
 72
     5
  1
\W0.8;4
1001
ACAD
1000
MTEXTBEGIN
1070
    73
1070
     1
1070
    44
1040
1.0
1070
    74
1070
     0
1000
MTEXTEND
1000
MTEXTBEGIN
1070
    73
1070
     1
1070
    44
1040
1.0
1070
    74
1070
     0
1000
MTEXTEND
1000
MTEXTBEGIN
1070
    73
1070
     1
1070
    44
1040
1.0
1070
    74
1070
     0
1000
MTEXTEND
1000
MTEXTBEGIN
1070
    73
1070
     1
1070
    44
1040
1.0
1070
    74
1070
     0
1000
MTEXTEND
  0
MTEXT
  5
323B
330
1A
100
AcDbEntity
  8
SUNPOU
100
AcDbMText
 10
257.5990614581062
 20
41.7083519565292
 30
0.0
 40
3.5983331442
 41
11.8309251626
 71
     1
 72
     5
  1
\W0.8;10
1001
ACAD
1000
MTEXTBEGIN
1070
    73
1070
     1
1070
    44
1040
1.0
1070
    74
1070
     0
1000
MTEXTEND
1000
MTEXTBEGIN
1070
    73
1070
     1
1070
    44
1040
1.0
1070
    74
1070
     0
1000
MTEXTEND
1000
MTEXTBEGIN
1070
    73
1070
     1
1070
    44
1040
1.0
1070
    74
1070
     0
1000
MTEXTEND
1000
MTEXTBEGIN
1070
    73
1070
     1
1070
    44
1040
1.0
1070
    74
1070
     0
1000
MTEXTEND
  0
DIMENSION
  5
3248
330
1A
100
AcDbEntity
  8
SUNPOU
100
AcDbDimension
  2
*D7
 10
80.9251078790062
 20
166.0309598166186
 30
0.0
 11
158.1337453145561
 21
168.5309598166186
 31
0.0
 70
    32
  3
STANDARD
100
AcDbAlignedDimension
 13
235.3423827501062
 23
115.597260601029
 33
0.0
 14
80.9251078790062
 24
142.964070512429
 34
0.0
100
AcDbRotatedDimension
1001
ACAD
1000
DSTYLE
1002
{
1070
   140
1040
3.0
1070
    74
1070
     0
1070
   172
1070
     1
1070
    73
1070
     0
1070
   272
1070
     2
1070
    77
1070
     3
1070
   173
1070
     1
1070
   147
1040
1.0
1070
    42
1040
3.0
1070
    44
1040
1.5
1070
    43
1040
7.0
1070
   271
1070
     0
1070
   178
1070
     4
1070
   177
1070
     4
1070
   176
1070
     4
1070
   141
1040
3.0
1070
     7
1000
_OPEN
1070
     6
1000
_OPEN
1070
    41
1040
3.0
1002
}
  0
DIMENSION
  5
3249
330
1A
100
AcDbEntity
  8
SUNPOU
100
AcDbDimension
  2
*D6
 10
235.3423827501062
 20
146.8825818287156
 30
0.0
 11
222.9423827512062
 21
149.3825818287156
 31
0.0
 70
    32
  3
STANDARD
100
AcDbAlignedDimension
 13
210.5423827523061
 23
113.597260595529
 33
0.0
 14
235.3423827501062
 24
115.597260601029
 34
0.0
100
AcDbRotatedDimension
1001
ACAD
1000
DSTYLE
1002
{
1070
   140
1040
3.0
1070
    74
1070
     0
1070
   172
1070
     1
1070
    73
1070
     0
1070
   272
1070
     2
1070
    77
1070
     3
1070
   173
1070
     1
1070
   147
1040
1.0
1070
    42
1040
3.0
1070
    44
1040
1.5
1070
    43
1040
7.0
1070
   271
1070
     0
1070
   178
1070
     4
1070
   177
1070
     4
1070
   176
1070
     4
1070
   141
1040
3.0
1070
     7
1000
_OPEN
1070
     6
1000
_OPEN
1070
    41
1040
3.0
1002
}
  0
LINE
  5
3262
330
1A
100
AcDbEntity
  8
CENTER_L
100
AcDbLine
 10
255.3142806586059
 20
239.9564862643815
 30
0.0
 11
255.3142806586059
 21
245.9564862643815
 31
0.0
  0
LINE
  5
3263
330
1A
100
AcDbEntity
  8
CENTER_L
100
AcDbLine
 10
248.257856552706
 20
239.9564862643815
 30
0.0
 11
248.257856552706
 21
245.9564862643815
 31
0.0
  0
LINE
  5
3264
330
1A
100
AcDbEntity
  8
CENTER_L
100
AcDbLine
 10
245.2578565527061
 20
242.9564862643814
 30
0.0
 11
251.2578565527059
 21
242.9564862643815
 31
0.0
  0
LINE
  5
3265
330
1A
100
AcDbEntity
  8
CENTER_L
100
AcDbLine
 10
252.3142806586061
 20
242.9564862643814
 30
0.0
 11
258.3142806586059
 21
242.9564862643815
 31
0.0
  0
LINE
  5
3266
330
1A
100
AcDbEntity
  8
CENTER_L
100
AcDbLine
 10
248.257856552706
 20
195.9564862643815
 30
0.0
 11
248.257856552706
 21
201.9564862643814
 31
0.0
  0
LINE
  5
3267
330
1A
100
AcDbEntity
  8
CENTER_L
100
AcDbLine
 10
255.3142806586059
 20
195.9564862643815
 30
0.0
 11
255.3142806586059
 21
201.9564862643814
 31
0.0
  0
LINE
  5
3268
330
1A
100
AcDbEntity
  8
CENTER_L
100
AcDbLine
 10
245.2578565527061
 20
198.9564862643814
 30
0.0
 11
251.2578565527059
 21
198.9564862643815
 31
0.0
  0
LINE
  5
3269
330
1A
100
AcDbEntity
  8
CENTER_L
100
AcDbLine
 10
252.3142806586061
 20
198.9564862643814
 30
0.0
 11
258.3142806586059
 21
198.9564862643815
 31
0.0
  0
DIMENSION
  5
326A
330
1A
100
AcDbEntity
  8
SUNPOU
100
AcDbDimension
  2
*D8
 10
273.0294098844276
 20
190.4564862643815
 30
0.0
 11
270.5294098844275
 21
220.9564862643815
 31
0.0
 70
    32
  3
STANDARD
100
AcDbAlignedDimension
 13
256.9439335258838
 23
251.4564862643814
 33
0.0
 14
256.9439335258838
 24
190.4564862643815
 34
0.0
 50
90.0
100
AcDbRotatedDimension
1001
ACAD
1000
DSTYLE
1002
{
1070
   140
1040
3.0
1070
    74
1070
     0
1070
   172
1070
     1
1070
    73
1070
     0
1070
   272
1070
     2
1070
    77
1070
     3
1070
   173
1070
     1
1070
   147
1040
1.0
1070
    42
1040
3.0
1070
    44
1040
1.5
1070
    43
1040
7.0
1070
   271
1070
     0
1070
   178
1070
     4
1070
   177
1070
     4
1070
   176
1070
     4
1070
   141
1040
3.0
1070
     7
1000
_OPEN
1070
     6
1000
_OPEN
1070
    41
1040
3.0
1002
}
  0
LINE
  5
3277
330
1A
100
AcDbEntity
  8
SEIHIN
100
AcDbLine
 10
245.0286350631283
 20
190.4564862643815
 30
0.0
 11
256.9439335257839
 21
190.4564862643815
 31
0.0
  0
LINE
  5
3291
330
1A
100
AcDbEntity
  8
CENTER_L
100
AcDbLine
 10
267.785621130606
 20
220.9564862643815
 30
0.0
 11
71.32510787680621
 21
220.9564862643815
 31
0.0
  0
DIMENSION
  5
32A0
330
1A
100
AcDbEntity
  8
SUNPOU
100
AcDbDimension
  2
*D9
 10
53.29392279371404
 20
210.9564862643816
 30
0.0
 11
50.79392279371401
 21
220.9564862643815
 31
0.0
 70
    32
  3
STANDARD
100
AcDbAlignedDimension
 13
81.32510787680621
 23
230.9564862643814
 33
0.0
 14
81.32510787680621
 24
210.9564862643815
 34
0.0
 50
90.0
100
AcDbRotatedDimension
1001
ACAD
1000
DSTYLE
1002
{
1070
   140
1040
3.0
1070
    74
1070
     0
1070
   172
1070
     1
1070
    73
1070
     0
1070
   272
1070
     2
1070
    77
1070
     3
1070
   173
1070
     1
1070
   147
1040
1.0
1070
    42
1040
3.0
1070
    44
1040
1.5
1070
    43
1040
7.0
1070
   271
1070
     0
1070
   178
1070
     4
1070
   177
1070
     4
1070
   176
1070
     4
1070
   141
1040
3.0
1070
     7
1000
_OPEN
1070
     6
1000
_OPEN
1070
    41
1040
3.0
1002
}
  0
LINE
  5
337D
330
1A
100
AcDbEntity
  8
NOKITOI
100
AcDbLine
 10
153.6862314466562
 20
59.19054335032917
 30
0.0
 11
109.1066314466562
 21
59.19044335032919
 31
0.0
  0
LINE
  5
337E
330
1A
100
AcDbEntity
  8
NOKITOI
100
AcDbLine
 10
108.8568314466562
 20
57.99044335032914
 30
0.0
 11
153.6862314466562
 21
57.99054335032912
 31
0.0
  0
LINE
  5
337F
330
1A
100
AcDbEntity
  8
NOKITOI
100
AcDbLine
 10
95.63083144665609
 20
97.7403433503292
 30
0.0
 11
98.62383144665649
 21
67.81054335032905
 31
0.0
  0
LINE
  5
3380
330
1A
100
AcDbEntity
  8
NOKITOI
100
AcDbLine
 10
94.58983144665593
 20
96.09004335032919
 30
0.0
 11
97.45863144665612
 21
67.40264335032913
 31
0.0
  0
ARC
  5
3381
330
1A
100
AcDbEntity
  8
NOKITOI
100
AcDbCircle
 10
108.8568383792336
 20
58.99044087532303
 30
0.0
 40
0.9999975250179316
100
AcDbArc
 50
230.7053583247715
 51
269.999602791598
  0
LINE
  5
3382
330
1A
100
AcDbEntity
  8
NOKITOI
100
AcDbLine
 10
98.80473144665586
 20
67.47324335032914
 30
0.0
 11
108.7900314466561
 21
59.30344335032902
 31
0.0
  0
LINE
  5
3383
330
1A
100
AcDbEntity
  8
NOKITOI
100
AcDbLine
 10
97.82043144665625
 20
66.72814335032928
 30
0.0
 11
108.2235314466562
 21
58.21644335032925
 31
0.0
  0
ARC
  5
3384
330
1A
100
AcDbEntity
  8
NOKITOI
100
AcDbCircle
 10
99.12134887253444
 20
67.86021086394118
 30
0.0
 40
0.4999904508696396
100
AcDbArc
 50
185.7009889250759
 51
230.7099153622053
  0
ARC
  5
3385
330
1A
100
AcDbEntity
  8
NOKITOI
100
AcDbCircle
 10
98.45365401952506
 20
67.50210127865654
 30
0.0
 40
0.9999908507640039
100
AcDbArc
 50
185.713767052247
 51
230.711290776931
  0
LINE
  5
3386
330
1A
100
AcDbEntity
  8
NOKITOI
100
AcDbLine
 10
113.1066314466562
 20
59.19044335032919
 30
0.0
 11
133.0147314466558
 21
59.19044335032919
 31
0.0
  0
LINE
  5
3387
330
1A
100
AcDbEntity
  8
NOKITOI
100
AcDbLine
 10
112.8568314466562
 20
57.99044335032914
 30
0.0
 11
133.0147314466558
 21
57.99044335032914
 31
0.0
  0
ARC
  5
3388
330
1A
100
AcDbEntity
  8
NOKITOI
100
AcDbCircle
 10
109.1066250589075
 20
59.69044563031872
 30
0.0
 40
0.5000022800304047
100
AcDbArc
 50
230.7145501403943
 51
270.0007319787208
  0
LINE
  5
3389
330
1A
100
AcDbEntity
  8
NOKITOI
100
AcDbLine
 10
85.56433144665618
 20
110.9280433503291
 30
0.0
 11
85.95443144665626
 21
98.4436433503291
 31
0.0
  0
LINE
  5
338A
330
1A
100
AcDbEntity
  8
NOKITOI
100
AcDbLine
 10
86.7637314466566
 20
110.965543350329
 30
0.0
 11
86.91303144665619
 21
106.1865433503292
 31
0.0
  0
ARC
  5
338B
330
1A
100
AcDbEntity
  8
NOKITOI
100
AcDbCircle
 10
93.84122773716091
 20
109.9905472603598
 30
0.0
 40
0.4999960899831856
100
AcDbArc
 50
356.9843782585352
 51
89.99957491985082
  0
LINE
  5
338C
330
1A
100
AcDbEntity
  8
NOKITOI
100
AcDbLine
 10
90.03603144665623
 20
111.7905433503293
 30
0.0
 11
89.53603144665624
 21
109.2905433503293
 31
0.0
  0
LINE
  5
338D
330
1A
100
AcDbEntity
  8
NOKITOI
100
AcDbLine
 10
91.47683144665609
 20
108.1905433503292
 30
0.0
 11
92.47263144665623
 21
109.2905433503293
 31
0.0
  0
LINE
  5
338E
330
1A
100
AcDbEntity
  8
NOKITOI
100
AcDbLine
 10
93.52543144665617
 20
103.4905433503291
 30
0.0
 11
91.27633144665663
 21
103.4905433503291
 31
0.0
  0
LINE
  5
338F
330
1A
100
AcDbEntity
  8
NOKITOI
100
AcDbLine
 10
89.53603144665624
 20
109.2905433503293
 30
0.0
 11
92.47263144665623
 21
109.2905433503293
 31
0.0
  0
LINE
  5
3390
330
1A
100
AcDbEntity
  8
NOKITOI
100
AcDbLine
 10
95.1333314466566
 20
98.1905433503292
 30
0.0
 11
89.10143144665619
 21
98.1905433503292
 31
0.0
  0
LINE
  5
3391
330
1A
100
AcDbEntity
  8
NOKITOI
100
AcDbLine
 10
87.4537314466562
 20
96.99054335032915
 30
0.0
 11
93.59483144665603
 21
96.99054335032915
 31
0.0
  0
ARC
  5
3392
330
1A
100
AcDbEntity
  8
NOKITOI
100
AcDbCircle
 10
87.45371423347808
 20
98.49056003347696
 30
0.0
 40
1.500016683246579
100
AcDbArc
 50
181.7923576755886
 51
270.0006574876639
  0
ARC
  5
3393
330
1A
100
AcDbEntity
  8
NOKITOI
100
AcDbCircle
 10
89.10139345883193
 20
100.1904801709013
 30
0.0
 40
2.000036820932882
100
AcDbArc
 50
181.7889408725804
 51
270.0010882509654
  0
LINE
  5
3394
330
1A
100
AcDbEntity
  8
NOKITOI
100
AcDbLine
 10
90.78133144665628
 20
104.0612433503291
 30
0.0
 11
91.11513144665616
 21
106.3974433503293
 31
0.0
  0
ARC
  5
3395
330
1A
100
AcDbEntity
  8
NOKITOI
100
AcDbCircle
 10
91.01486237359234
 20
102.9905790949929
 30
0.0
 40
3.99998565374706
100
AcDbArc
 50
96.4757761953165
 51
181.7913033408989
  0
LINE
  5
3396
330
1A
100
AcDbEntity
  8
NOKITOI
100
AcDbLine
 10
87.1023314466562
 20
100.1279433503292
 30
0.0
 11
87.01683144665651
 21
102.8655433503291
 31
0.0
  0
ARC
  5
3397
330
1A
100
AcDbEntity
  8
NOKITOI
100
AcDbCircle
 10
91.27632126022001
 20
103.9905550950532
 30
0.0
 40
0.5000117448278309
100
AcDbArc
 50
171.8726853912846
 51
270.0011672522
  0
ARC
  5
3398
330
1A
100
AcDbEntity
  8
NOKITOI
100
AcDbCircle
 10
91.0148493130074
 20
102.9905520787091
 30
0.0
 40
5.199991271650611
100
AcDbArc
 50
90.00019685927602
 51
142.0746713952677
  0
LINE
  5
3399
330
1A
100
AcDbEntity
  8
NOKITOI
100
AcDbLine
 10
91.47683144665609
 20
108.1905433503292
 30
0.0
 11
91.01483144665611
 21
108.1905433503292
 31
0.0
  0
ARC
  5
339A
330
1A
100
AcDbEntity
  8
NOKITOI
100
AcDbCircle
 10
90.62010207415653
 20
106.468173582824
 30
0.0
 40
0.4999578477751074
100
AcDbArc
 50
351.8669438287067
 51
96.47390928779252
  0
ARC
  5
339B
330
1A
100
AcDbEntity
  8
NOKITOI
100
AcDbCircle
 10
93.59481079681529
 20
95.99056203817836
 30
0.0
 40
0.9999813123640345
100
AcDbArc
 50
5.70940996664858
 51
89.99881682915088
  0
ARC
  5
339C
330
1A
100
AcDbEntity
  8
NOKITOI
100
AcDbCircle
 10
95.13331837565159
 20
97.69055518060904
 30
0.0
 40
0.499988169890889
100
AcDbArc
 50
5.703393862283571
 51
89.99850213773529
  0
LINE
  5
339D
330
1A
100
AcDbEntity
  8
NOKITOI
100
AcDbLine
 10
94.02473144665611
 20
103.9642433503291
 30
0.0
 11
94.34053144665643
 21
109.9642433503291
 31
0.0
  0
ARC
  5
339E
330
1A
100
AcDbEntity
  8
NOKITOI
100
AcDbCircle
 10
93.52542732524955
 20
103.9905394402986
 30
0.0
 40
0.4999960899864752
100
AcDbArc
 50
270.0004722821422
 51
356.9852756208259
  0
LINE
  5
339F
330
1A
100
AcDbEntity
  8
NOKITOI
100
AcDbLine
 10
92.86133144665621
 20
104.6905433503291
 30
0.0
 11
92.08343144665661
 21
104.6905433503291
 31
0.0
  0
LINE
  5
33A0
330
1A
100
AcDbEntity
  8
NOKITOI
100
AcDbLine
 10
92.08343144665661
 20
104.6905433503291
 30
0.0
 11
92.48743144665615
 21
107.518943350329
 31
0.0
  0
LINE
  5
33A1
330
1A
100
AcDbEntity
  8
NOKITOI
100
AcDbLine
 10
92.48743144665615
 20
107.518943350329
 30
0.0
 11
93.04243144665646
 21
108.1319433503291
 31
0.0
  0
LINE
  5
33A2
330
1A
100
AcDbEntity
  8
NOKITOI
100
AcDbLine
 10
92.86133144665621
 20
104.6905433503291
 30
0.0
 11
93.04243144665646
 21
108.1319433503291
 31
0.0
  0
LINE
  5
33A3
330
1A
100
AcDbEntity
  8
NOKITOI
100
AcDbLine
 10
93.84123144665602
 20
110.4905433503291
 30
0.0
 11
91.60973144665616
 21
110.4905433503291
 31
0.0
  0
LINE
  5
33A4
330
1A
100
AcDbEntity
  8
NOKITOI
100
AcDbLine
 10
87.56333144665598
 20
111.7904433503291
 30
0.0
 11
90.03603144665623
 21
111.7905433503293
 31
0.0
  0
LINE
  5
33A5
330
1A
100
AcDbEntity
  8
NOKITOI
100
AcDbLine
 10
87.56333144665598
 20
112.9904433503291
 30
0.0
 11
90.8899314466563
 21
112.9905433503291
 31
0.0
  0
ARC
  5
33A6
330
1A
100
AcDbEntity
  8
NOKITOI
100
AcDbCircle
 10
87.56334268365037
 20
110.9905549441462
 30
0.0
 40
1.999988406214315
100
AcDbArc
 50
90.00032191804612
 51
181.7911273464062
  0
ARC
  5
33A7
330
1A
100
AcDbEntity
  8
NOKITOI
100
AcDbCircle
 10
87.5632874803033
 20
110.9904979878561
 30
0.0
 40
0.7999453636812564
100
AcDbArc
 50
89.99685092684575
 51
181.7876563552118
  0
LINE
  5
33A8
330
1A
100
AcDbEntity
  8
NOKITOI
100
AcDbLine
 10
91.11943144665621
 20
111.0885433503293
 30
0.0
 11
91.38023144665623
 21
112.3925433503291
 31
0.0
  0
ARC
  5
33A9
330
1A
100
AcDbEntity
  8
NOKITOI
100
AcDbCircle
 10
91.6097322296647
 20
110.9905423953274
 30
0.0
 40
0.4999990449987399
100
AcDbArc
 50
168.6967198015451
 51
269.9999102736965
  0
ARC
  5
33AA
330
1A
100
AcDbEntity
  8
NOKITOI
100
AcDbCircle
 10
90.8899387012117
 20
112.4905345004857
 30
0.0
 40
0.500008849895925
100
AcDbArc
 50
348.6864043304874
 51
90.00083129614585
  0
ARC
  5
33AB
330
1A
100
AcDbEntity
  8
NOKITOI
100
AcDbCircle
 10
153.6862253646883
 20
100.9905377256728
 30
0.0
 40
41.79999437547816
100
AcDbArc
 50
270.0001454078909
 51
355.5257047874752
  0
ARC
  5
33AC
330
1A
100
AcDbEntity
  8
NOKITOI
100
AcDbCircle
 10
153.6862476731136
 20
100.9905578266992
 30
0.0
 40
43.00001447645168
100
AcDbArc
 50
270.0001116248562
 51
353.4750892928824
  0
ARC
  5
33AD
330
1A
100
AcDbEntity
  8
NOKITOI
100
AcDbCircle
 10
197.1584376478141
 20
109.9905498854144
 30
0.0
 40
0.4999934649531607
100
AcDbArc
 50
90.00071060961758
 51
183.0044636796624
  0
LINE
  5
33AE
330
1A
100
AcDbEntity
  8
NOKITOI
100
AcDbLine
 10
200.963531446656
 20
111.7905433503293
 30
0.0
 11
201.463531446656
 21
109.2905433503293
 31
0.0
  0
LINE
  5
33AF
330
1A
100
AcDbEntity
  8
NOKITOI
100
AcDbLine
 10
204.2359314466558
 20
110.965543350329
 30
0.0
 11
204.0865314466565
 21
106.1866433503292
 31
0.0
  0
LINE
  5
33B0
330
1A
100
AcDbEntity
  8
NOKITOI
100
AcDbLine
 10
205.4353314466562
 20
110.9280433503291
 30
0.0
 11
205.0451314466564
 21
98.44374335032908
 31
0.0
  0
ARC
  5
33B1
330
1A
100
AcDbEntity
  8
NOKITOI
100
AcDbCircle
 10
203.5458954875053
 20
98.49050849618592
 30
0.0
 40
1.499965146287778
100
AcDbArc
 50
270.0013735703027
 51
358.2133719782233
  0
ARC
  5
33B2
330
1A
100
AcDbEntity
  8
NOKITOI
100
AcDbCircle
 10
201.8982178745178
 20
100.1905301952427
 30
0.0
 40
1.999986844959662
100
AcDbArc
 50
270.0003888156784
 51
358.2124468147644
  0
LINE
  5
33B3
330
1A
100
AcDbEntity
  8
NOKITOI
100
AcDbLine
 10
195.8573314466558
 20
98.1905433503292
 30
0.0
 11
201.8982314466562
 21
98.1905433503292
 31
0.0
  0
LINE
  5
33B4
330
1A
100
AcDbEntity
  8
NOKITOI
100
AcDbLine
 10
203.5459314466562
 20
96.99054335032915
 30
0.0
 11
197.4012314466564
 21
96.99054335032915
 31
0.0
  0
ARC
  5
33B5
330
1A
100
AcDbEntity
  8
NOKITOI
100
AcDbCircle
 10
197.4012398708188
 20
95.99055086538564
 30
0.0
 40
0.9999924849789756
100
AcDbArc
 50
90.00048267258872
 51
173.471735393326
  0
ARC
  5
33B6
330
1A
100
AcDbEntity
  8
NOKITOI
100
AcDbCircle
 10
195.8573188769479
 20
97.69053172559948
 30
0.0
 40
0.5000116248877111
100
AcDbArc
 50
89.99855965101616
 51
175.5251531916577
  0
LINE
  5
33B7
330
1A
100
AcDbEntity
  8
NOKITOI
100
AcDbLine
 10
199.5228314466559
 20
108.1905433503292
 30
0.0
 11
198.5270314466562
 21
109.2905433503293
 31
0.0
  0
LINE
  5
33B8
330
1A
100
AcDbEntity
  8
NOKITOI
100
AcDbLine
 10
201.463531446656
 20
109.2905433503293
 30
0.0
 11
198.5270314466562
 21
109.2905433503293
 31
0.0
  0
LINE
  5
33B9
330
1A
100
AcDbEntity
  8
NOKITOI
100
AcDbLine
 10
197.4742314466563
 20
103.4905433503291
 30
0.0
 11
199.7233314466562
 21
103.4905433503291
 31
0.0
  0
LINE
  5
33BA
330
1A
100
AcDbEntity
  8
NOKITOI
100
AcDbLine
 10
198.1383314466562
 20
104.6905433503291
 30
0.0
 11
198.9162314466558
 21
104.6905433503291
 31
0.0
  0
LINE
  5
33BB
330
1A
100
AcDbEntity
  8
NOKITOI
100
AcDbLine
 10
198.9162314466558
 20
104.6905433503291
 30
0.0
 11
198.512131446656
 21
107.518943350329
 31
0.0
  0
LINE
  5
33BC
330
1A
100
AcDbEntity
  8
NOKITOI
100
AcDbLine
 10
196.9748314466561
 20
103.9643433503291
 30
0.0
 11
196.6590314466562
 21
109.9642433503291
 31
0.0
  0
ARC
  5
33BD
330
1A
100
AcDbEntity
  8
NOKITOI
100
AcDbCircle
 10
197.4742383336512
 20
103.9905368152436
 30
0.0
 40
0.499993464961963
100
AcDbArc
 50
183.0029638682578
 51
269.9992107982129
  0
LINE
  5
33BE
330
1A
100
AcDbEntity
  8
NOKITOI
100
AcDbLine
 10
198.512131446656
 20
107.518943350329
 30
0.0
 11
197.9571314466562
 21
108.1320433503293
 31
0.0
  0
LINE
  5
33BF
330
1A
100
AcDbEntity
  8
NOKITOI
100
AcDbLine
 10
198.1383314466562
 20
104.6905433503291
 30
0.0
 11
197.9571314466562
 21
108.1320433503293
 31
0.0
  0
LINE
  5
33C0
330
1A
100
AcDbEntity
  8
NOKITOI
100
AcDbLine
 10
200.2182314466564
 20
104.0613433503293
 30
0.0
 11
199.8845314466563
 21
106.3975433503292
 31
0.0
  0
ARC
  5
33C1
330
1A
100
AcDbEntity
  8
NOKITOI
100
AcDbCircle
 10
199.9846935652095
 20
102.9905871328545
 30
0.0
 40
3.999989731271038
100
AcDbArc
 50
358.2100163932687
 51
83.52268857986718
  0
ARC
  5
33C2
330
1A
100
AcDbEntity
  8
NOKITOI
100
AcDbCircle
 10
199.7233048460585
 20
103.9905126734471
 30
0.0
 40
0.4999693238254178
100
AcDbArc
 50
270.0030483909627
 51
8.144496122946826
  0
LINE
  5
33C3
330
1A
100
AcDbEntity
  8
NOKITOI
100
AcDbLine
 10
203.8972314466565
 20
100.1281433503291
 30
0.0
 11
203.9827314466561
 21
102.8656433503291
 31
0.0
  0
ARC
  5
33C4
330
1A
100
AcDbEntity
  8
NOKITOI
100
AcDbCircle
 10
199.984611233987
 20
102.9906020787092
 30
0.0
 40
5.2000412730095
100
AcDbArc
 50
37.92420092094485
 51
89.99867545693819
  0
LINE
  5
33C5
330
1A
100
AcDbEntity
  8
NOKITOI
100
AcDbLine
 10
199.5228314466559
 20
108.1905433503292
 30
0.0
 11
199.9847314466561
 21
108.1905433503292
 31
0.0
  0
ARC
  5
33C6
330
1A
100
AcDbEntity
  8
NOKITOI
100
AcDbCircle
 10
200.3795172282408
 20
106.4682287160281
 30
0.0
 40
0.5000073448410256
100
AcDbArc
 50
83.52170717003247
 51
188.1270521358761
  0
LINE
  5
33C7
330
1A
100
AcDbEntity
  8
NOKITOI
100
AcDbLine
 10
197.1584314466564
 20
110.4905433503291
 30
0.0
 11
199.3899314466563
 21
110.4905433503291
 31
0.0
  0
LINE
  5
33C8
330
1A
100
AcDbEntity
  8
NOKITOI
100
AcDbLine
 10
203.4363314466564
 20
111.7905433503293
 30
0.0
 11
200.963531446656
 21
111.7905433503293
 31
0.0
  0
LINE
  5
33C9
330
1A
100
AcDbEntity
  8
NOKITOI
100
AcDbLine
 10
203.4363314466564
 20
112.9905433503291
 30
0.0
 11
200.1097314466561
 21
112.9905433503291
 31
0.0
  0
LINE
  5
33CA
330
1A
100
AcDbEntity
  8
NOKITOI
100
AcDbLine
 10
199.8802314466562
 20
111.088643350329
 30
0.0
 11
199.6194314466562
 21
112.3925433503291
 31
0.0
  0
ARC
  5
33CB
330
1A
100
AcDbEntity
  8
NOKITOI
100
AcDbCircle
 10
199.3899387012116
 20
110.9905522001725
 30
0.0
 40
0.5000088498959383
100
AcDbArc
 50
269.9991687038573
 51
11.31359566951103
  0
ARC
  5
33CC
330
1A
100
AcDbEntity
  8
NOKITOI
100
AcDbCircle
 10
200.1097322296646
 20
112.4905443053308
 30
0.0
 40
0.4999990449987349
100
AcDbArc
 50
90.0000897263067
 51
191.3032801984548
  0
ARC
  5
33CD
330
1A
100
AcDbEntity
  8
NOKITOI
100
AcDbCircle
 10
203.4363269518581
 20
110.990547987856
 30
0.0
 40
0.7999953624857498
100
AcDbArc
 50
358.2088726535806
 51
89.99967808194737
  0
ARC
  5
33CE
330
1A
100
AcDbEntity
  8
NOKITOI
100
AcDbCircle
 10
203.4363186958063
 20
110.9905565054155
 30
0.0
 40
1.999986844954076
100
AcDbArc
 50
358.2116927117295
 51
89.99963471264711
  0
DIMENSION
  5
33E1
330
1A
100
AcDbEntity
  8
SUNPOU
100
AcDbDimension
  2
*D10
 10
282.0641711929336
 20
158.7694423310457
 30
0.0
 11
301.0981968819974
 21
169.075065362578
 31
0.0
 70
    33
  3
STANDARD
100
AcDbAlignedDimension
 13
340.8110580412096
 23
127.6799113949733
 33
0.0
 14
300.8861674853306
 24
111.7110944663132
 34
0.0
1001
ACAD
1000
DSTYLE
1002
{
1070
    41
1040
3.0
1070
    42
1040
3.0
1070
    43
1040
7.0
1070
    44
1040
1.5
1070
    73
1070
     0
1070
    74
1070
     0
1070
    77
1070
     3
1070
   140
1040
3.0
1070
   141
1040
3.0
1070
   147
1040
1.0
1070
   172
1070
     1
1070
   173
1070
     1
1070
   176
1070
     4
1070
   177
1070
     4
1070
   178
1070
     4
1070
   271
1070
     0
1070
   272
1070
     2
1070
   341
1005
B2
1070
     6
1000
OPEN
1070
     7
1000
OPEN
1002
}
  0
LINE
  5
33EE
330
1A
100
AcDbEntity
  8
CENTER_L
100
AcDbLine
 10
334.5896018290163
 20
85.34110934677688
 30
0.0
 11
302.6780692675562
 21
165.1256325634014
 31
0.0
  0
LINE
  5
34BF
330
1A
100
AcDbEntity
  8
SEIHIN
100
AcDbLine
 10
198.0509551018848
 20
210.9564862643815
 30
0.0
 11
198.0509551018848
 21
213.4564862643815
 31
0.0
  0
LINE
  5
34C0
330
1A
100
AcDbEntity
  8
SEIHIN
100
AcDbLine
 10
198.0509551018848
 20
228.4564862643815
 30
0.0
 11
198.0509551018848
 21
230.9564862643814
 31
0.0
  0
DIMENSION
  5
351C
330
1A
100
AcDbEntity
  8
SUNPOU
100
AcDbDimension
  2
*D11
 10
53.29392279371401
 20
58.23916464952922
 30
0.0
 11
50.79392279371401
 21
86.3318924020792
 31
0.0
 70
    32
  3
STANDARD
100
AcDbAlignedDimension
 13
81.32510787680621
 23
114.4246201546291
 33
0.0
 14
258.2856211306062
 24
58.23916464952917
 34
0.0
 50
90.0
100
AcDbRotatedDimension
1001
ACAD
1000
DSTYLE
1002
{
1070
    41
1040
3.0
1070
    42
1040
3.0
1070
    43
1040
7.0
1070
    44
1040
1.5
1070
    73
1070
     0
1070
    74
1070
     0
1070
    77
1070
     3
1070
   140
1040
3.0
1070
   141
1040
3.0
1070
   147
1040
1.0
1070
   172
1070
     1
1070
   173
1070
     1
1070
   176
1070
   256
1070
   177
1070
   256
1070
   178
1070
   256
1070
   271
1070
     0
1070
   272
1070
     0
1070
   341
1005
B2
1070
     6
1000
OPEN
1070
     7
1000
OPEN
1070
   371
1070
    -1
1070
   372
1070
    -1
1002
}
  0
LWPOLYLINE
  5
362D
330
1A
100
AcDbEntity
  8
ZUWAKU
100
AcDbPolyline
 90
        4
 70
     1
 43
0.0
 10
0.3999999982485178
 20
275.4000002832666
 10
0.3999999982485178
 20
0.4000002832665928
 10
398.3999999982485
 20
0.4000002832665928
 10
398.3999999982485
 20
275.4000002832666
  0
LWPOLYLINE
  5
362E
330
1A
100
AcDbEntity
  8
ZUWAKU
100
AcDbPolyline
 90
        4
 70
     1
 43
0.0
 10
0.1999999982485292
 20
275.6000002832665
 10
0.1999999982485292
 20
0.2000002832666041
 10
398.5999999982485
 20
0.2000002832665926
 10
398.5999999982485
 20
275.6000002832665
  0
LWPOLYLINE
  5
362F
330
1A
100
AcDbEntity
  8
ZUWAKU
100
AcDbPolyline
 90
        4
 70
     1
 43
0.0
 10
-0.0000000017514594
 20
275.8000002832665
 10
-0.0000000017514594
 20
0.0000002832665587
 10
398.7999999982486
 20
0.0000002832665924
 10
398.7999999982486
 20
275.8000002832666
  0
LWPOLYLINE
  5
3630
330
1A
100
AcDbEntity
  8
ZUWAKU
100
AcDbPolyline
 90
        4
 70
     1
 43
0.0
 10
0.2999999982484951
 20
275.5000002832665
 10
0.2999999982484951
 20
0.30000028326657
 10
398.4999999982486
 20
0.3000002832665931
 10
398.4999999982485
 20
275.5000002832665
  0
LWPOLYLINE
  5
3631
330
1A
100
AcDbEntity
  8
ZUWAKU
100
AcDbPolyline
 90
        4
 70
     1
 43
0.0
 10
0.0999999982485065
 20
275.7000002832666
 10
0.0999999982485065
 20
0.1000002832665814
 10
398.6999999982484
 20
0.1000002832665929
 10
398.6999999982486
 20
275.7000002832666
  0
LINE
  5
3632
330
1A
100
AcDbEntity
  8
ZUWAKU
100
AcDbLine
 10
-0.0000000017514594
 20
15.00000028326655
 30
0.0
 11
398.6999999982484
 21
15.00000028326655
 31
0.0
  0
LINE
  5
3633
330
1A
100
AcDbEntity
  8
ZUWAKU
100
AcDbLine
 10
-0.0000000017514594
 20
15.10000028326656
 30
0.0
 11
398.6999999982484
 21
15.10000028326656
 31
0.0
  0
LINE
  5
3634
330
1A
100
AcDbEntity
  8
ZUWAKU
100
AcDbLine
 10
-0.0000000017514594
 20
15.20000028326656
 30
0.0
 11
398.6999999982484
 21
15.20000028326656
 31
0.0
  0
LINE
  5
3635
330
1A
100
AcDbEntity
  8
ZUWAKU
100
AcDbLine
 10
-0.0000000017514594
 20
15.30000028326656
 30
0.0
 11
398.6999999982484
 21
15.30000028326656
 31
0.0
  0
LINE
  5
3636
330
1A
100
AcDbEntity
  8
ZUWAKU
100
AcDbLine
 10
-0.0000000017514594
 20
15.40000028326656
 30
0.0
 11
398.6999999982484
 21
15.40000028326656
 31
0.0
  0
LINE
  5
3637
330
1A
100
AcDbEntity
  8
ZUWAKU
100
AcDbLine
 10
104.3233006432825
 20
7.700000283266575
 30
0.0
 11
223.7121819837442
 21
7.700000283266575
 31
0.0
  0
LINE
  5
3638
330
1A
100
AcDbEntity
  8
ZUWAKU
100
AcDbLine
 10
104.3233006432825
 20
7.800000283266575
 30
0.0
 11
223.7121819837442
 21
7.800000283266578
 31
0.0
  0
LINE
  5
3639
330
1A
100
AcDbEntity
  8
ZUWAKU
100
AcDbLine
 10
104.3233006432825
 20
7.600000283266577
 30
0.0
 11
223.7121819837442
 21
7.600000283266574
 31
0.0
  0
TEXT
  5
363A
330
1A
100
AcDbEntity
  8
MOJI
100
AcDbText
 10
46.4788947923331
 20
6.370589348403939
 30
0.0
 40
3.0
  1
新・丸トップＲＶ１０５
 41
0.9
  7
ｽﾀｲﾙ1
100
AcDbText
  0
CIRCLE
  5
363B
330
1A
100
AcDbEntity
  8
ZUWAKU
100
AcDbCircle
 10
12.99610607563909
 20
7.60000028326656
 30
0.0
 40
0.875
  0
LINE
  5
363C
330
1A
100
AcDbEntity
  8
ZUWAKU
100
AcDbLine
 10
13.43360607563909
 20
3.575000283266561
 30
0.0
 11
12.47110607563911
 21
3.575000283266561
 31
0.0
  0
LINE
  5
363D
330
1A
100
AcDbEntity
  8
ZUWAKU
100
AcDbLine
 10
12.47110607563911
 20
4.97500028326656
 30
0.0
 11
13.43360607563909
 21
4.97500028326656
 31
0.0
  0
LINE
  5
363E
330
1A
100
AcDbEntity
  8
ZUWAKU
100
AcDbLine
 10
13.43360607563909
 20
10.22500028326656
 30
0.0
 11
12.47110607563911
 21
10.22500028326656
 31
0.0
  0
LINE
  5
363F
330
1A
100
AcDbEntity
  8
ZUWAKU
100
AcDbLine
 10
12.47110607563911
 20
11.62500028326654
 30
0.0
 11
13.43360607563909
 21
11.62500028326656
 31
0.0
  0
HATCH
  5
3640
330
1A
100
AcDbEntity
  8
ZUWAKU
100
AcDbHatch
 10
0.0
 20
0.0
 30
0.0
210
0.0
220
0.0
230
1.0
  2
ANSI37
 70
     0
 71
     0
 91
        8
 92
        7
 72
     1
 73
     1
 93
       24
 10
7.251131328808469
 20
8.82242452375835
 42
-0.1989123673796348
 10
7.046106075639102
 20
9.317399270588875
 42
0.0
 10
7.046106075639102
 20
9.962500283266564
 42
-0.4142135623730912
 10
7.30860607563909
 20
10.22500028326656
 42
0.0
 10
8.796106075639045
 20
10.22500028326656
 42
0.4142135623731546
 10
9.05860607563909
 20
10.48750028326655
 42
0.0
 10
9.05860607563909
 20
11.36250028326656
 42
0.4142135623731586
 10
8.796106075639045
 20
11.62500028326656
 42
0.0
 10
7.046106075639102
 20
11.62500028326656
 42
0.4142135623730928
 10
5.646106075639124
 20
10.22500028326657
 42
0.0
 10
5.646106075639124
 20
9.317399270588939
 42
0.1989123673796619
 10
6.26118183514734
 20
7.832475030097135
 42
0.0
 10
7.716080822469677
 20
6.377576042774807
 42
-0.1989123673796613
 10
7.921106075639102
 20
5.882601295944214
 42
0.0
 10
7.921106075639102
 20
5.237500283266555
 42
-0.4142135623730911
 10
7.658606075639113
 20
4.97500028326656
 42
0.0
 10
6.171106075639158
 20
4.97500028326656
 42
0.4142135623731526
 10
5.908606075639113
 20
4.712500283266566
 42
0.0
 10
5.908606075639113
 20
3.837500283266555
 42
0.4142135623731526
 10
6.171106075639158
 20
3.575000283266561
 42
0.0
 10
7.921106075639102
 20
3.575000283266561
 42
0.4142135623731044
 10
9.321106075639136
 20
4.975000283266549
 42
0.0
 10
9.321106075639136
 20
5.882601295944185
 42
0.1989123673796604
 10
8.706030316130863
 20
7.367525536435955
 42
0.0
 97
        0
 92
        7
 72
     1
 73
     1
 93
       16
 10
11.77110607563912
 20
9.525000283266564
 42
-0.4142135623730935
 10
12.47110607563911
 20
10.22500028326656
 42
0.0
 10
13.43360607563909
 20
10.22500028326656
 42
0.4142135623731546
 10
13.69610607563913
 20
10.48750028326655
 42
0.0
 10
13.69610607563913
 20
11.36250028326656
 42
0.4142135623730951
 10
13.43360607563914
 20
11.62500028326656
 42
0.0
 10
12.47110607563905
 20
11.62500028326654
 42
0.4142135623730892
 10
10.37110607563909
 20
9.525000283266528
 42
0.0
 10
10.37110607563909
 20
5.675000283266573
 42
0.4142135623730969
 10
12.47110607563911
 20
3.575000283266561
 42
0.0
 10
13.43360607563909
 20
3.575000283266561
 42
0.4142135623731526
 10
13.69610607563913
 20
3.837500283266555
 42
0.0
 10
13.69610607563913
 20
4.712500283266566
 42
0.4142135623730891
 10
13.43360607563914
 20
4.97500028326656
 42
0.0
 10
12.47110607563911
 20
4.97500028326656
 42
-0.4142135623730928
 10
11.77110607563912
 20
5.675000283266554
 42
0.0
 97
        0
 92
        7
 72
     1
 73
     1
 93
        2
 10
12.12110607563909
 20
7.60000028326656
 42
1.0
 10
13.87110607563909
 20
7.60000028326656
 42
1.0
 97
        0
 92
        7
 72
     1
 73
     1
 93
       26
 10
18.6574293167281
 20
9.602523880048273
 42
0.0
 10
19.188249133297
 20
11.28345329918307
 42
0.5069206636600134
 10
18.93793368369932
 20
11.62500028326656
 42
0.0
 10
18.08848899389471
 20
11.62500028326656
 42
0.3272098845218764
 10
17.83817354429703
 20
11.44154726735004
 42
0.0
 10
16.90403860698114
 20
8.4834532991831
 42
-0.3272098845219541
 10
16.65372315738341
 20
8.300000283266559
 42
0.0
 10
16.58360607563918
 20
8.300000283266559
 42
-0.4142135623731526
 10
16.32110607563913
 20
8.562500283266553
 42
0.0
 10
16.32110607563913
 20
11.36250028326656
 42
0.4142135623730951
 10
16.05860607563914
 20
11.62500028326656
 42
0.0
 10
15.18360607563909
 20
11.62500028326656
 42
0.4142135623730871
 10
14.9211060756391
 20
11.36250028326657
 42
0.0
 10
14.9211060756391
 20
3.837500283266555
 42
0.4142135623730891
 10
15.18360607563909
 20
3.575000283266561
 42
0.0
 10
16.05860607563909
 20
3.575000283266561
 42
0.4142135623731526
 10
16.32110607563913
 20
3.837500283266555
 42
0.0
 10
16.32110607563913
 20
6.637500283266566
 42
-0.4142135623731526
 10
16.58360607563918
 20
6.90000028326656
 42
0.0
 10
16.65372315738346
 20
6.90000028326656
 42
-0.3272098845218915
 10
16.90403860698114
 20
6.716547267350023
 42
0.0
 10
17.83817354429703
 20
3.758453299183097
 42
0.3272098845218902
 10
18.08848899389471
 20
3.575000283266561
 42
0.0
 10
18.93793368369932
 20
3.575000283266561
 42
0.5069206636600335
 10
19.188249133297
 20
3.916547267350065
 42
0.0
 10
18.02505344406017
 20
7.600000283266629
 42
0.0
 97
        0
 92
        7
 72
     1
 73
     1
 93
        8
 10
21.74610607563909
 20
11.36250028326656
 42
0.4142135623731546
 10
21.48360607563904
 20
11.62500028326656
 42
0.0
 10
20.60860607563915
 20
11.62500028326656
 42
0.4142135623731507
 10
20.34610607563911
 20
11.36250028326657
 42
0.0
 10
20.34610607563911
 20
3.837500283266555
 42
0.4142135623731526
 10
20.60860607563915
 20
3.575000283266561
 42
0.0
 10
21.48360607563904
 20
3.575000283266561
 42
0.4142135623731526
 10
21.74610607563909
 20
3.837500283266555
 42
0.0
 97
        0
 92
        7
 72
     1
 73
     1
 93
       24
 10
24.19610607563913
 20
9.962500283266564
 42
-0.4142135623731546
 10
24.45860607563918
 20
10.22500028326656
 42
0.0
 10
25.94610607563913
 20
10.22500028326656
 42
0.4142135623730911
 10
26.20860607563912
 20
10.48750028326655
 42
0.0
 10
26.20860607563912
 20
11.36250028326656
 42
0.4142135623730952
 10
25.94610607563913
 20
11.62500028326656
 42
0.0
 10
24.19610607563913
 20
11.62500028326656
 42
0.4142135623731048
 10
22.7961060756391
 20
10.22500028326657
 42
0.0
 10
22.7961060756391
 20
9.317399270588939
 42
0.1989123673796613
 10
23.41118183514737
 20
7.832475030097164
 42
0.0
 10
24.86608082246971
 20
6.37757604277483
 42
-0.1989123673796402
 10
25.07110607563913
 20
5.882601295944294
 42
0.0
 10
25.07110607563913
 20
5.237500283266555
 42
-0.4142135623730911
 10
24.80860607563915
 20
4.97500028326656
 42
0.0
 10
23.32110607563913
 20
4.97500028326656
 42
0.4142135623731526
 10
23.05860607563908
 20
4.712500283266566
 42
0.0
 10
23.05860607563908
 20
3.837500283266555
 42
0.4142135623730891
 10
23.32110607563908
 20
3.575000283266561
 42
0.0
 10
25.07110607563913
 20
3.575000283266561
 42
0.4142135623730925
 10
26.47110607563911
 20
4.975000283266549
 42
0.0
 10
26.47110607563911
 20
5.882601295944185
 42
0.1989123673796675
 10
25.85603031613084
 20
7.367525536436012
 42
0.0
 10
24.40113132880856
 20
8.82242452375827
 42
-0.1989123673796652
 10
24.19610607563913
 20
9.317399270588854
 42
0.0
 97
        0
 92
        7
 72
     1
 73
     1
 93
       16
 10
28.9211060756391
 20
11.36250028326655
 42
0.414213562373103
 10
28.65860607563911
 20
11.62500028326656
 42
0.0
 10
27.78360607563911
 20
11.62500028326656
 42
0.4142135623730871
 10
27.52110607563912
 20
11.36250028326657
 42
0.0
 10
27.52110607563912
 20
4.975000283266549
 42
0.4142135623730926
 10
28.9211060756391
 20
3.575000283266561
 42
0.0
 10
30.6711060756391
 20
3.575000283266561
 42
0.4142135623731044
 10
32.07110607563913
 20
4.975000283266549
 42
0.0
 10
32.07110607563913
 20
11.36250028326656
 42
0.4142135623730951
 10
31.80860607563914
 20
11.62500028326656
 42
0.0
 10
30.93360607563909
 20
11.62500028326656
 42
0.4142135623730871
 10
30.6711060756391
 20
11.36250028326657
 42
0.0
 10
30.6711060756391
 20
5.500000283266547
 42
-0.414213562373088
 10
30.14610607563912
 20
4.97500028326656
 42
0.0
 10
29.44610607563913
 20
4.97500028326656
 42
-0.4142135623731197
 10
28.9211060756391
 20
5.500000283266547
 42
0.0
 97
        0
 92
        7
 72
     1
 73
     1
 93
        8
 10
34.52110607563912
 20
11.36250028326657
 42
0.4142135623730871
 10
34.25860607563913
 20
11.62500028326656
 42
0.0
 10
33.38360607563913
 20
11.62500028326656
 42
0.4142135623731507
 10
33.12110607563909
 20
11.36250028326657
 42
0.0
 10
33.12110607563909
 20
3.837500283266555
 42
0.4142135623730891
 10
33.38360607563908
 20
3.575000283266561
 42
0.0
 10
34.25860607563913
 20
3.575000283266561
 42
0.4142135623730891
 10
34.52110607563912
 20
3.837500283266555
 42
0.0
 97
        0
 75
     0
 76
     1
 52
0.0
 41
0.1
 77
     0
 78
     2
 53
45.0
 43
-450.4711521690909
 44
-6.599999716733407
 45
-0.2245064030267288
 46
0.2245064030267288
 79
     0
 53
135.0
 43
-450.4711521690909
 44
-6.599999716733407
 45
-0.2245064030267288
 46
-0.2245064030267288
 79
     0
 47
0.057451373970553
 98
        8
 10
8.039927479760194
 20
7.583587106209336
 10
11.20225750146812
 20
9.422031374492064
 10
12.58218394107837
 20
7.755941106301918
 10
15.45702998906711
 20
8.10064910648731
 10
20.91923600772691
 20
8.330455240258118
 10
23.44910044581331
 20
9.709288441470164
 10
28.27884298444871
 20
9.364579240814066
 10
33.91353980805991
 20
9.594385374584874
  0
ARC
  5
3641
330
1A
100
AcDbEntity
  8
ZUWAKU
100
AcDbCircle
 10
7.74610607563909
 20
9.317399270588911
 30
0.0
 40
2.099999999999999
100
AcDbArc
 50
180.0
 51
225.0
  0
LINE
  5
3642
330
1A
100
AcDbEntity
  8
ZUWAKU
100
AcDbLine
 10
10.37110607563909
 20
5.675000283266562
 30
0.0
 11
10.37110607563909
 21
9.525000283266539
 31
0.0
  0
LINE
  5
3643
330
1A
100
AcDbEntity
  8
ZUWAKU
100
AcDbLine
 10
11.77110607563912
 20
9.52500028326656
 30
0.0
 11
11.77110607563912
 21
5.675000283266562
 31
0.0
  0
ARC
  5
3644
330
1A
100
AcDbEntity
  8
ZUWAKU
100
AcDbCircle
 10
7.74610607563909
 20
9.317399270588911
 30
0.0
 40
0.7
100
AcDbArc
 50
180.0000000000016
 51
224.9999999999988
  0
ARC
  5
3645
330
1A
100
AcDbEntity
  8
ZUWAKU
100
AcDbCircle
 10
12.47110607563911
 20
5.675000283266562
 30
0.0
 40
2.099999999999999
100
AcDbArc
 50
180.0
 51
270.0
  0
ARC
  5
3646
330
1A
100
AcDbEntity
  8
ZUWAKU
100
AcDbCircle
 10
7.921106075639102
 20
4.97500028326656
 30
0.0
 40
1.399999999999999
100
AcDbArc
 50
270.0
 51
0.0
  0
ARC
  5
3647
330
1A
100
AcDbEntity
  8
ZUWAKU
100
AcDbCircle
 10
7.221106075639113
 20
5.882601295944212
 30
0.0
 40
2.099999999999999
100
AcDbArc
 50
0.0
 51
45.0
  0
LINE
  5
3648
330
1A
100
AcDbEntity
  8
ZUWAKU
100
AcDbLine
 10
6.26118183514734
 20
7.83247503009715
 30
0.0
 11
7.716080822469677
 21
6.377576042774819
 31
0.0
  0
LINE
  5
3649
330
1A
100
AcDbEntity
  8
ZUWAKU
100
AcDbLine
 10
6.171106075639102
 20
4.97500028326656
 30
0.0
 11
7.658606075639113
 21
4.97500028326656
 31
0.0
  0
LINE
  5
364A
330
1A
100
AcDbEntity
  8
ZUWAKU
100
AcDbLine
 10
6.171106075639102
 20
3.575000283266561
 30
0.0
 11
7.921106075639102
 21
3.575000283266561
 31
0.0
  0
ARC
  5
364B
330
1A
100
AcDbEntity
  8
ZUWAKU
100
AcDbCircle
 10
6.171106075639102
 20
4.71250028326656
 30
0.0
 40
0.2625
100
AcDbArc
 50
90.0
 51
180.0
  0
ARC
  5
364C
330
1A
100
AcDbEntity
  8
ZUWAKU
100
AcDbCircle
 10
6.171106075639102
 20
3.83750028326656
 30
0.0
 40
0.2625
100
AcDbArc
 50
180.0
 51
270.0
  0
LINE
  5
364D
330
1A
100
AcDbEntity
  8
ZUWAKU
100
AcDbLine
 10
5.908606075639113
 20
3.83750028326656
 30
0.0
 11
5.908606075639113
 21
4.71250028326656
 31
0.0
  0
ARC
  5
364E
330
1A
100
AcDbEntity
  8
ZUWAKU
100
AcDbCircle
 10
7.221106075639113
 20
5.882601295944233
 30
0.0
 40
0.7
100
AcDbArc
 50
0.0
 51
45.0
  0
ARC
  5
364F
330
1A
100
AcDbEntity
  8
ZUWAKU
100
AcDbCircle
 10
7.658606075639113
 20
5.237500283266562
 30
0.0
 40
0.2625
100
AcDbArc
 50
270.0
 51
0.0
  0
LINE
  5
3650
330
1A
100
AcDbEntity
  8
ZUWAKU
100
AcDbLine
 10
7.921106075639102
 20
5.237500283266562
 30
0.0
 11
7.921106075639102
 21
5.882601295944233
 31
0.0
  0
LINE
  5
3651
330
1A
100
AcDbEntity
  8
ZUWAKU
100
AcDbLine
 10
8.706030316130863
 20
7.367525536435973
 30
0.0
 11
7.251131328808526
 21
8.822424523758311
 31
0.0
  0
ARC
  5
3652
330
1A
100
AcDbEntity
  8
ZUWAKU
100
AcDbCircle
 10
12.47110607563911
 20
5.675000283266562
 30
0.0
 40
0.7
100
AcDbArc
 50
180.0
 51
270.0
  0
LINE
  5
3653
330
1A
100
AcDbEntity
  8
ZUWAKU
100
AcDbLine
 10
9.321106075639136
 20
4.97500028326656
 30
0.0
 11
9.321106075639136
 21
5.882601295944233
 31
0.0
  0
ARC
  5
3654
330
1A
100
AcDbEntity
  8
ZUWAKU
100
AcDbCircle
 10
8.796106075639102
 20
10.48750028326655
 30
0.0
 40
0.2625
100
AcDbArc
 50
270.0
 51
0.0
  0
ARC
  5
3655
330
1A
100
AcDbEntity
  8
ZUWAKU
100
AcDbCircle
 10
8.796106075639102
 20
11.36250028326655
 30
0.0
 40
0.2625
100
AcDbArc
 50
0.0
 51
90.0
  0
ARC
  5
3656
330
1A
100
AcDbEntity
  8
ZUWAKU
100
AcDbCircle
 10
7.046106075639102
 20
10.22500028326656
 30
0.0
 40
1.399999999999999
100
AcDbArc
 50
90.0
 51
180.0
  0
LINE
  5
3657
330
1A
100
AcDbEntity
  8
ZUWAKU
100
AcDbLine
 10
5.646106075639124
 20
10.22500028326656
 30
0.0
 11
5.646106075639124
 21
9.317399270588889
 31
0.0
  0
LINE
  5
3658
330
1A
100
AcDbEntity
  8
ZUWAKU
100
AcDbLine
 10
8.796106075639102
 20
10.22500028326656
 30
0.0
 11
7.30860607563909
 21
10.22500028326656
 31
0.0
  0
LINE
  5
3659
330
1A
100
AcDbEntity
  8
ZUWAKU
100
AcDbLine
 10
7.046106075639102
 20
9.96250028326656
 30
0.0
 11
7.046106075639102
 21
9.317399270588889
 31
0.0
  0
ARC
  5
365A
330
1A
100
AcDbEntity
  8
ZUWAKU
100
AcDbCircle
 10
7.30860607563909
 20
9.96250028326656
 30
0.0
 40
0.2625
100
AcDbArc
 50
90.0
 51
180.0
  0
LINE
  5
365B
330
1A
100
AcDbEntity
  8
ZUWAKU
100
AcDbLine
 10
7.046106075639102
 20
11.62500028326656
 30
0.0
 11
8.796106075639102
 21
11.62500028326656
 31
0.0
  0
ARC
  5
365C
330
1A
100
AcDbEntity
  8
ZUWAKU
100
AcDbCircle
 10
12.47110607563911
 20
9.525000283266539
 30
0.0
 40
2.099999999999999
100
AcDbArc
 50
90.0
 51
180.0
  0
ARC
  5
365D
330
1A
100
AcDbEntity
  8
ZUWAKU
100
AcDbCircle
 10
12.47110607563911
 20
9.52500028326656
 30
0.0
 40
0.7
100
AcDbArc
 50
90.0
 51
180.0
  0
LINE
  5
365E
330
1A
100
AcDbEntity
  8
ZUWAKU
100
AcDbLine
 10
9.05860607563909
 20
11.36250028326655
 30
0.0
 11
9.05860607563909
 21
10.48750028326655
 31
0.0
  0
LINE
  5
365F
330
1A
100
AcDbEntity
  8
ZUWAKU
100
AcDbLine
 10
17.83817354429703
 20
11.44154726735004
 30
0.0
 11
16.90403860698114
 21
8.483453299183075
 31
0.0
  0
LINE
  5
3660
330
1A
100
AcDbEntity
  8
ZUWAKU
100
AcDbLine
 10
14.9211060756391
 20
11.36250028326655
 30
0.0
 11
14.9211060756391
 21
3.83750028326656
 31
0.0
  0
LINE
  5
3661
330
1A
100
AcDbEntity
  8
ZUWAKU
100
AcDbLine
 10
16.32110607563913
 20
8.562500283266562
 30
0.0
 11
16.32110607563913
 21
11.36250028326655
 31
0.0
  0
LINE
  5
3662
330
1A
100
AcDbEntity
  8
ZUWAKU
100
AcDbLine
 10
28.9211060756391
 20
5.500000283266558
 30
0.0
 11
28.9211060756391
 21
11.36250028326655
 31
0.0
  0
LINE
  5
3663
330
1A
100
AcDbEntity
  8
ZUWAKU
100
AcDbLine
 10
27.52110607563912
 20
11.36250028326655
 30
0.0
 11
27.52110607563912
 21
4.97500028326656
 31
0.0
  0
LINE
  5
3664
330
1A
100
AcDbEntity
  8
ZUWAKU
100
AcDbLine
 10
21.74610607563909
 20
3.83750028326656
 30
0.0
 11
21.74610607563909
 21
11.36250028326655
 31
0.0
  0
LINE
  5
3665
330
1A
100
AcDbEntity
  8
ZUWAKU
100
AcDbLine
 10
20.34610607563911
 20
11.36250028326655
 30
0.0
 11
20.34610607563911
 21
3.83750028326656
 31
0.0
  0
LINE
  5
3666
330
1A
100
AcDbEntity
  8
ZUWAKU
100
AcDbLine
 10
18.6574293167281
 20
9.602523880048273
 30
0.0
 11
18.02505344406017
 21
7.60000028326657
 31
0.0
  0
ARC
  5
3667
330
1A
100
AcDbEntity
  8
ZUWAKU
100
AcDbCircle
 10
24.89610607563912
 20
9.317399270588911
 30
0.0
 40
2.099999999999999
100
AcDbArc
 50
180.0
 51
225.0
  0
ARC
  5
3668
330
1A
100
AcDbEntity
  8
ZUWAKU
100
AcDbCircle
 10
24.89610607563912
 20
9.317399270588911
 30
0.0
 40
0.7
100
AcDbArc
 50
180.0000000000016
 51
224.9999999999988
  0
LINE
  5
3669
330
1A
100
AcDbEntity
  8
ZUWAKU
100
AcDbLine
 10
33.12110607563909
 20
11.36250028326655
 30
0.0
 11
33.12110607563909
 21
3.83750028326656
 31
0.0
  0
LINE
  5
366A
330
1A
100
AcDbEntity
  8
ZUWAKU
100
AcDbLine
 10
34.52110607563912
 20
3.83750028326656
 30
0.0
 11
34.52110607563912
 21
11.36250028326655
 31
0.0
  0
LINE
  5
366B
330
1A
100
AcDbEntity
  8
ZUWAKU
100
AcDbLine
 10
30.6711060756391
 20
11.36250028326655
 30
0.0
 11
30.6711060756391
 21
5.500000283266558
 31
0.0
  0
LINE
  5
366C
330
1A
100
AcDbEntity
  8
ZUWAKU
100
AcDbLine
 10
32.07110607563913
 20
4.97500028326656
 30
0.0
 11
32.07110607563913
 21
11.36250028326655
 31
0.0
  0
LINE
  5
366D
330
1A
100
AcDbEntity
  8
ZUWAKU
100
AcDbLine
 10
39.56331477224273
 20
15.00000028326655
 30
0.0
 11
39.56331477224273
 21
0.4000002832665928
 31
0.0
  0
LINE
  5
366E
330
1A
100
AcDbEntity
  8
ZUWAKU
100
AcDbLine
 10
39.76331477224266
 20
15.00000028326655
 30
0.0
 11
39.76331477224277
 21
0.4000002832665928
 31
0.0
  0
LINE
  5
366F
330
1A
100
AcDbEntity
  8
ZUWAKU
100
AcDbLine
 10
39.66331477224264
 20
15.00000028326655
 30
0.0
 11
39.66331477224276
 21
0.4000002832665928
 31
0.0
  0
LINE
  5
3670
330
1A
100
AcDbEntity
  8
ZUWAKU
100
AcDbLine
 10
28.9211060756391
 20
3.575000283266561
 30
0.0
 11
30.6711060756391
 21
3.575000283266561
 31
0.0
  0
LINE
  5
3671
330
1A
100
AcDbEntity
  8
ZUWAKU
100
AcDbLine
 10
30.14610607563912
 20
4.97500028326656
 30
0.0
 11
29.44610607563913
 21
4.97500028326656
 31
0.0
  0
LINE
  5
3672
330
1A
100
AcDbEntity
  8
ZUWAKU
100
AcDbLine
 10
20.6086060756391
 20
3.575000283266561
 30
0.0
 11
21.4836060756391
 21
3.575000283266561
 31
0.0
  0
LINE
  5
3673
330
1A
100
AcDbEntity
  8
ZUWAKU
100
AcDbLine
 10
17.83817354429703
 20
3.758453299183074
 30
0.0
 11
16.90403860698114
 21
6.716547267350044
 31
0.0
  0
ARC
  5
3674
330
1A
100
AcDbEntity
  8
ZUWAKU
100
AcDbCircle
 10
16.58360607563912
 20
6.637500283266561
 30
0.0
 40
0.2625
100
AcDbArc
 50
90.0
 51
180.0
  0
ARC
  5
3675
330
1A
100
AcDbEntity
  8
ZUWAKU
100
AcDbCircle
 10
16.65372315738346
 20
6.637500283266561
 30
0.0
 40
0.2625
100
AcDbArc
 50
17.52556837372303
 51
90.0
  0
ARC
  5
3676
330
1A
100
AcDbEntity
  8
ZUWAKU
100
AcDbCircle
 10
15.18360607563909
 20
3.83750028326656
 30
0.0
 40
0.2625
100
AcDbArc
 50
180.0
 51
270.0
  0
ARC
  5
3677
330
1A
100
AcDbEntity
  8
ZUWAKU
100
AcDbCircle
 10
13.43360607563909
 20
4.71250028326656
 30
0.0
 40
0.2625
100
AcDbArc
 50
0.0
 51
90.0
  0
ARC
  5
3678
330
1A
100
AcDbEntity
  8
ZUWAKU
100
AcDbCircle
 10
13.43360607563909
 20
3.83750028326656
 30
0.0
 40
0.2625
100
AcDbArc
 50
270.0
 51
0.0
  0
LINE
  5
3679
330
1A
100
AcDbEntity
  8
ZUWAKU
100
AcDbLine
 10
13.69610607563913
 20
4.71250028326656
 30
0.0
 11
13.69610607563913
 21
3.83750028326656
 31
0.0
  0
LINE
  5
367A
330
1A
100
AcDbEntity
  8
ZUWAKU
100
AcDbLine
 10
16.32110607563913
 20
3.83750028326656
 30
0.0
 11
16.32110607563913
 21
6.637500283266561
 31
0.0
  0
ARC
  5
367B
330
1A
100
AcDbEntity
  8
ZUWAKU
100
AcDbCircle
 10
16.05860607563909
 20
3.83750028326656
 30
0.0
 40
0.2625
100
AcDbArc
 50
270.0
 51
0.0
  0
LINE
  5
367C
330
1A
100
AcDbEntity
  8
ZUWAKU
100
AcDbLine
 10
15.18360607563909
 20
3.575000283266561
 30
0.0
 11
16.05860607563909
 21
3.575000283266561
 31
0.0
  0
ARC
  5
367D
330
1A
100
AcDbEntity
  8
ZUWAKU
100
AcDbCircle
 10
16.58360607563912
 20
8.562500283266562
 30
0.0
 40
0.2625
100
AcDbArc
 50
180.0
 51
270.0
  0
LINE
  5
367E
330
1A
100
AcDbEntity
  8
ZUWAKU
100
AcDbLine
 10
16.58360607563912
 20
6.90000028326656
 30
0.0
 11
16.65372315738346
 21
6.90000028326656
 31
0.0
  0
LINE
  5
367F
330
1A
100
AcDbEntity
  8
ZUWAKU
100
AcDbLine
 10
16.65372315738346
 20
8.300000283266559
 30
0.0
 11
16.58360607563912
 21
8.300000283266559
 31
0.0
  0
ARC
  5
3680
330
1A
100
AcDbEntity
  8
ZUWAKU
100
AcDbCircle
 10
16.65372315738346
 20
8.562500283266562
 30
0.0
 40
0.2625
100
AcDbArc
 50
270.0
 51
342.4744316262769
  0
ARC
  5
3681
330
1A
100
AcDbEntity
  8
ZUWAKU
100
AcDbCircle
 10
18.08848899389477
 20
3.83750028326656
 30
0.0
 40
0.2625
100
AcDbArc
 50
197.525568373723
 51
270.0
  0
LINE
  5
3682
330
1A
100
AcDbEntity
  8
ZUWAKU
100
AcDbLine
 10
19.188249133297
 20
3.916547267350047
 30
0.0
 11
18.02505344406017
 21
7.60000028326657
 31
0.0
  0
ARC
  5
3683
330
1A
100
AcDbEntity
  8
ZUWAKU
100
AcDbCircle
 10
18.93793368369927
 20
3.83750028326656
 30
0.0
 40
0.2625
100
AcDbArc
 50
270.0
 51
17.52556837372303
  0
LINE
  5
3684
330
1A
100
AcDbEntity
  8
ZUWAKU
100
AcDbLine
 10
18.08848899389477
 20
3.575000283266561
 30
0.0
 11
18.93793368369927
 21
3.575000283266561
 31
0.0
  0
ARC
  5
3685
330
1A
100
AcDbEntity
  8
ZUWAKU
100
AcDbCircle
 10
20.6086060756391
 20
3.83750028326656
 30
0.0
 40
0.2625
100
AcDbArc
 50
180.0
 51
270.0
  0
ARC
  5
3686
330
1A
100
AcDbEntity
  8
ZUWAKU
100
AcDbCircle
 10
25.07110607563913
 20
4.97500028326656
 30
0.0
 40
1.399999999999999
100
AcDbArc
 50
270.0
 51
0.0
  0
ARC
  5
3687
330
1A
100
AcDbEntity
  8
ZUWAKU
100
AcDbCircle
 10
28.9211060756391
 20
4.97500028326656
 30
0.0
 40
1.399999999999999
100
AcDbArc
 50
180.0
 51
270.0
  0
LINE
  5
3688
330
1A
100
AcDbEntity
  8
ZUWAKU
100
AcDbLine
 10
25.85603031613089
 20
7.367525536435973
 30
0.0
 11
24.4011313288085
 21
8.822424523758311
 31
0.0
  0
LINE
  5
3689
330
1A
100
AcDbEntity
  8
ZUWAKU
100
AcDbLine
 10
23.41118183514737
 20
7.83247503009715
 30
0.0
 11
24.86608082246971
 21
6.377576042774819
 31
0.0
  0
LINE
  5
368A
330
1A
100
AcDbEntity
  8
ZUWAKU
100
AcDbLine
 10
23.32110607563913
 20
3.575000283266561
 30
0.0
 11
25.07110607563913
 21
3.575000283266561
 31
0.0
  0
LINE
  5
368B
330
1A
100
AcDbEntity
  8
ZUWAKU
100
AcDbLine
 10
23.32110607563913
 20
4.97500028326656
 30
0.0
 11
24.80860607563909
 21
4.97500028326656
 31
0.0
  0
ARC
  5
368C
330
1A
100
AcDbEntity
  8
ZUWAKU
100
AcDbCircle
 10
23.32110607563913
 20
4.71250028326656
 30
0.0
 40
0.2625
100
AcDbArc
 50
90.0
 51
180.0
  0
ARC
  5
368D
330
1A
100
AcDbEntity
  8
ZUWAKU
100
AcDbCircle
 10
21.4836060756391
 20
3.83750028326656
 30
0.0
 40
0.2625
100
AcDbArc
 50
270.0
 51
0.0
  0
ARC
  5
368E
330
1A
100
AcDbEntity
  8
ZUWAKU
100
AcDbCircle
 10
23.32110607563913
 20
3.83750028326656
 30
0.0
 40
0.2625
100
AcDbArc
 50
180.0
 51
270.0
  0
LINE
  5
368F
330
1A
100
AcDbEntity
  8
ZUWAKU
100
AcDbLine
 10
23.05860607563908
 20
3.83750028326656
 30
0.0
 11
23.05860607563908
 21
4.71250028326656
 31
0.0
  0
ARC
  5
3690
330
1A
100
AcDbEntity
  8
ZUWAKU
100
AcDbCircle
 10
24.80860607563909
 20
5.237500283266562
 30
0.0
 40
0.2625
100
AcDbArc
 50
270.0
 51
0.0
  0
ARC
  5
3691
330
1A
100
AcDbEntity
  8
ZUWAKU
100
AcDbCircle
 10
24.37110607563909
 20
5.882601295944233
 30
0.0
 40
0.7
100
AcDbArc
 50
0.0
 51
45.0
  0
LINE
  5
3692
330
1A
100
AcDbEntity
  8
ZUWAKU
100
AcDbLine
 10
25.07110607563913
 20
5.237500283266562
 30
0.0
 11
25.07110607563913
 21
5.882601295944233
 31
0.0
  0
ARC
  5
3693
330
1A
100
AcDbEntity
  8
ZUWAKU
100
AcDbCircle
 10
29.44610607563913
 20
5.500000283266558
 30
0.0
 40
0.525
100
AcDbArc
 50
180.0
 51
270.0
  0
ARC
  5
3694
330
1A
100
AcDbEntity
  8
ZUWAKU
100
AcDbCircle
 10
24.37110607563909
 20
5.882601295944212
 30
0.0
 40
2.099999999999999
100
AcDbArc
 50
0.0
 51
45.0
  0
LINE
  5
3695
330
1A
100
AcDbEntity
  8
ZUWAKU
100
AcDbLine
 10
26.47110607563911
 20
4.97500028326656
 30
0.0
 11
26.47110607563911
 21
5.882601295944233
 31
0.0
  0
ARC
  5
3696
330
1A
100
AcDbEntity
  8
ZUWAKU
100
AcDbCircle
 10
30.6711060756391
 20
4.97500028326656
 30
0.0
 40
1.399999999999999
100
AcDbArc
 50
270.0
 51
0.0
  0
LINE
  5
3697
330
1A
100
AcDbEntity
  8
ZUWAKU
100
AcDbLine
 10
33.38360607563913
 20
3.575000283266561
 30
0.0
 11
34.25860607563913
 21
3.575000283266561
 31
0.0
  0
ARC
  5
3698
330
1A
100
AcDbEntity
  8
ZUWAKU
100
AcDbCircle
 10
30.14610607563912
 20
5.500000283266558
 30
0.0
 40
0.525
100
AcDbArc
 50
270.0
 51
0.0
  0
ARC
  5
3699
330
1A
100
AcDbEntity
  8
ZUWAKU
100
AcDbCircle
 10
33.38360607563913
 20
3.83750028326656
 30
0.0
 40
0.2625
100
AcDbArc
 50
180.0
 51
270.0
  0
ARC
  5
369A
330
1A
100
AcDbEntity
  8
ZUWAKU
100
AcDbCircle
 10
34.25860607563913
 20
3.83750028326656
 30
0.0
 40
0.2625
100
AcDbArc
 50
270.0
 51
0.0
  0
LINE
  5
369B
330
1A
100
AcDbEntity
  8
ZUWAKU
100
AcDbLine
 10
21.4836060756391
 20
11.62500028326656
 30
0.0
 11
20.6086060756391
 21
11.62500028326656
 31
0.0
  0
LINE
  5
369C
330
1A
100
AcDbEntity
  8
ZUWAKU
100
AcDbLine
 10
13.69610607563913
 20
11.36250028326655
 30
0.0
 11
13.69610607563913
 21
10.48750028326655
 31
0.0
  0
ARC
  5
369D
330
1A
100
AcDbEntity
  8
ZUWAKU
100
AcDbCircle
 10
13.43360607563909
 20
10.48750028326655
 30
0.0
 40
0.2625
100
AcDbArc
 50
270.0
 51
0.0
  0
ARC
  5
369E
330
1A
100
AcDbEntity
  8
ZUWAKU
100
AcDbCircle
 10
15.18360607563909
 20
11.36250028326655
 30
0.0
 40
0.2625
100
AcDbArc
 50
90.0
 51
180.0
  0
ARC
  5
369F
330
1A
100
AcDbEntity
  8
ZUWAKU
100
AcDbCircle
 10
13.43360607563909
 20
11.36250028326655
 30
0.0
 40
0.2625
100
AcDbArc
 50
0.0
 51
90.0
  0
LINE
  5
36A0
330
1A
100
AcDbEntity
  8
ZUWAKU
100
AcDbLine
 10
16.05860607563909
 20
11.62500028326656
 30
0.0
 11
15.18360607563909
 21
11.62500028326656
 31
0.0
  0
ARC
  5
36A1
330
1A
100
AcDbEntity
  8
ZUWAKU
100
AcDbCircle
 10
16.05860607563909
 20
11.36250028326655
 30
0.0
 40
0.2625
100
AcDbArc
 50
0.0
 51
90.0
  0
ARC
  5
36A2
330
1A
100
AcDbEntity
  8
ZUWAKU
100
AcDbCircle
 10
18.08848899389477
 20
11.36250028326655
 30
0.0
 40
0.2625
100
AcDbArc
 50
90.0
 51
162.4744316262769
  0
LINE
  5
36A3
330
1A
100
AcDbEntity
  8
ZUWAKU
100
AcDbLine
 10
19.188249133297
 20
11.28345329918307
 30
0.0
 11
18.6574293167281
 21
9.602523880048273
 31
0.0
  0
ARC
  5
36A4
330
1A
100
AcDbEntity
  8
ZUWAKU
100
AcDbCircle
 10
18.93793368369927
 20
11.36250028326655
 30
0.0
 40
0.2625
100
AcDbArc
 50
342.4744316262769
 51
90.0
  0
LINE
  5
36A5
330
1A
100
AcDbEntity
  8
ZUWAKU
100
AcDbLine
 10
18.08848899389477
 20
11.62500028326656
 30
0.0
 11
18.93793368369927
 21
11.62500028326656
 31
0.0
  0
ARC
  5
36A6
330
1A
100
AcDbEntity
  8
ZUWAKU
100
AcDbCircle
 10
20.6086060756391
 20
11.36250028326655
 30
0.0
 40
0.2625
100
AcDbArc
 50
90.0
 51
180.0
  0
LINE
  5
36A7
330
1A
100
AcDbEntity
  8
ZUWAKU
100
AcDbLine
 10
25.94610607563913
 20
10.22500028326656
 30
0.0
 11
24.45860607563912
 21
10.22500028326656
 31
0.0
  0
LINE
  5
36A8
330
1A
100
AcDbEntity
  8
ZUWAKU
100
AcDbLine
 10
24.19610607563913
 20
11.62500028326656
 30
0.0
 11
25.94610607563913
 21
11.62500028326656
 31
0.0
  0
ARC
  5
36A9
330
1A
100
AcDbEntity
  8
ZUWAKU
100
AcDbCircle
 10
24.19610607563913
 20
10.22500028326656
 30
0.0
 40
1.399999999999999
100
AcDbArc
 50
90.0
 51
180.0
  0
LINE
  5
36AA
330
1A
100
AcDbEntity
  8
ZUWAKU
100
AcDbLine
 10
22.7961060756391
 20
10.22500028326656
 30
0.0
 11
22.7961060756391
 21
9.317399270588889
 31
0.0
  0
ARC
  5
36AB
330
1A
100
AcDbEntity
  8
ZUWAKU
100
AcDbCircle
 10
21.4836060756391
 20
11.36250028326655
 30
0.0
 40
0.2625
100
AcDbArc
 50
0.0
 51
90.0
  0
LINE
  5
36AC
330
1A
100
AcDbEntity
  8
ZUWAKU
100
AcDbLine
 10
24.19610607563913
 20
9.96250028326656
 30
0.0
 11
24.19610607563913
 21
9.317399270588889
 31
0.0
  0
ARC
  5
36AD
330
1A
100
AcDbEntity
  8
ZUWAKU
100
AcDbCircle
 10
24.45860607563912
 20
9.96250028326656
 30
0.0
 40
0.2625
100
AcDbArc
 50
90.0
 51
180.0
  0
LINE
  5
36AE
330
1A
100
AcDbEntity
  8
ZUWAKU
100
AcDbLine
 10
26.20860607563912
 20
11.36250028326655
 30
0.0
 11
26.20860607563912
 21
10.48750028326655
 31
0.0
  0
ARC
  5
36AF
330
1A
100
AcDbEntity
  8
ZUWAKU
100
AcDbCircle
 10
25.94610607563913
 20
10.48750028326655
 30
0.0
 40
0.2625
100
AcDbArc
 50
270.0
 51
0.0
  0
ARC
  5
36B0
330
1A
100
AcDbEntity
  8
ZUWAKU
100
AcDbCircle
 10
25.94610607563913
 20
11.36250028326655
 30
0.0
 40
0.2625
100
AcDbArc
 50
0.0
 51
90.0
  0
LINE
  5
36B1
330
1A
100
AcDbEntity
  8
ZUWAKU
100
AcDbLine
 10
28.65860607563911
 20
11.62500028326656
 30
0.0
 11
27.78360607563911
 21
11.62500028326656
 31
0.0
  0
ARC
  5
36B2
330
1A
100
AcDbEntity
  8
ZUWAKU
100
AcDbCircle
 10
27.78360607563911
 20
11.36250028326655
 30
0.0
 40
0.2625
100
AcDbArc
 50
90.0
 51
180.0
  0
ARC
  5
36B3
330
1A
100
AcDbEntity
  8
ZUWAKU
100
AcDbCircle
 10
28.65860607563911
 20
11.36250028326655
 30
0.0
 40
0.2625
100
AcDbArc
 50
0.0
 51
90.0
  0
LINE
  5
36B4
330
1A
100
AcDbEntity
  8
ZUWAKU
100
AcDbLine
 10
34.25860607563913
 20
11.62500028326656
 30
0.0
 11
33.38360607563913
 21
11.62500028326656
 31
0.0
  0
ARC
  5
36B5
330
1A
100
AcDbEntity
  8
ZUWAKU
100
AcDbCircle
 10
30.93360607563909
 20
11.36250028326655
 30
0.0
 40
0.2625
100
AcDbArc
 50
90.0
 51
180.0
  0
LINE
  5
36B6
330
1A
100
AcDbEntity
  8
ZUWAKU
100
AcDbLine
 10
31.80860607563909
 20
11.62500028326656
 30
0.0
 11
30.93360607563909
 21
11.62500028326656
 31
0.0
  0
ARC
  5
36B7
330
1A
100
AcDbEntity
  8
ZUWAKU
100
AcDbCircle
 10
31.80860607563909
 20
11.36250028326655
 30
0.0
 40
0.2625
100
AcDbArc
 50
0.0
 51
90.0
  0
ARC
  5
36B8
330
1A
100
AcDbEntity
  8
ZUWAKU
100
AcDbCircle
 10
33.38360607563913
 20
11.36250028326655
 30
0.0
 40
0.2625
100
AcDbArc
 50
90.0
 51
180.0
  0
ARC
  5
36B9
330
1A
100
AcDbEntity
  8
ZUWAKU
100
AcDbCircle
 10
34.25860607563913
 20
11.36250028326655
 30
0.0
 40
0.2625
100
AcDbArc
 50
0.0
 51
90.0
  0
TEXT
  5
36BA
330
1A
100
AcDbEntity
  8
MOJI
100
AcDbText
 10
119.913601338674
 20
1.602460811970269
 30
0.0
 40
2.799999999999999
  1
ＲＶ１０５－４－３０
 41
0.9
  7
ｽﾀｲﾙ1
100
AcDbText
  0
TEXT
  5
36BB
330
1A
100
AcDbEntity
  8
MOJI
100
AcDbText
 10
119.913601338674
 20
9.002460811970252
 30
0.0
 40
2.799999999999999
  1
亜鉛メッキ金具正面打（受）ストロング高強度金具角使い
 41
0.9
  7
ｽﾀｲﾙ1
100
AcDbText
  0
LINE
  5
36BC
330
1A
100
AcDbEntity
  8
ZUWAKU
100
AcDbLine
 10
104.2233006432824
 20
15.00000028326655
 30
0.0
 11
104.2233006432825
 21
0.4000002832665928
 31
0.0
  0
LINE
  5
36BD
330
1A
100
AcDbEntity
  8
ZUWAKU
100
AcDbLine
 10
104.3233006432824
 20
15.00000028326655
 30
0.0
 11
104.3233006432825
 21
0.4000002832665928
 31
0.0
  0
LINE
  5
36BE
330
1A
100
AcDbEntity
  8
ZUWAKU
100
AcDbLine
 10
104.1233006432825
 20
15.00000028326655
 30
0.0
 11
104.1233006432825
 21
0.4000002832665928
 31
0.0
  0
TEXT
  5
36BF
330
1A
100
AcDbEntity
  8
ZUWAKU
100
AcDbText
 10
104.8620231543873
 20
4.827678552459367
 30
0.0
 40
2.0
  1
サイズ
 41
0.9
  7
ｽﾀｲﾙ1
100
AcDbText
  0
TEXT
  5
36C0
330
1A
100
AcDbEntity
  8
ZUWAKU
100
AcDbText
 10
104.8620231543871
 20
12.02767855245935
 30
0.0
 40
2.0
  1
品名
 41
0.9
  7
ｽﾀｲﾙ1
100
AcDbText
  0
TEXT
  5
36C1
330
1A
100
AcDbEntity
  8
ZUWAKU
100
AcDbText
 10
329.1019688418997
 20
9.002460811970252
 30
0.0
 40
2.799999999999999
  1
　　．　　．　　
 41
0.9
  7
ｽﾀｲﾙ1
100
AcDbText
  0
LINE
  5
36C2
330
1A
100
AcDbEntity
  8
ZUWAKU
100
AcDbLine
 10
324.4086012533506
 20
7.800000283266575
 30
0.0
 11
348.6245052725191
 21
7.800000283266575
 31
0.0
  0
LINE
  5
36C3
330
1A
100
AcDbEntity
  8
ZUWAKU
100
AcDbLine
 10
324.4086012533507
 20
7.700000283266577
 30
0.0
 11
348.6245052725191
 21
7.700000283266575
 31
0.0
  0
LINE
  5
36C4
330
1A
100
AcDbEntity
  8
ZUWAKU
100
AcDbLine
 10
324.4086012533506
 20
7.600000283266574
 30
0.0
 11
348.6245052725191
 21
7.600000283266576
 31
0.0
  0
LINE
  5
36C5
330
1A
100
AcDbEntity
  8
ZUWAKU
100
AcDbLine
 10
252.5995897473189
 20
7.800000283266575
 30
0.0
 11
276.2634778813047
 21
7.800000283266575
 31
0.0
  0
LINE
  5
36C6
330
1A
100
AcDbEntity
  8
ZUWAKU
100
AcDbLine
 10
252.5995897473189
 20
7.700000283266575
 30
0.0
 11
276.2634778813047
 21
7.700000283266575
 31
0.0
  0
LINE
  5
36C7
330
1A
100
AcDbEntity
  8
ZUWAKU
100
AcDbLine
 10
252.5995897473189
 20
7.600000283266577
 30
0.0
 11
276.2634778813047
 21
7.600000283266577
 31
0.0
  0
LINE
  5
36C8
330
1A
100
AcDbEntity
  8
ZUWAKU
100
AcDbLine
 10
252.399589747319
 20
15.00000028326655
 30
0.0
 11
252.399589747319
 21
0.4000002832665928
 31
0.0
  0
LINE
  5
36C9
330
1A
100
AcDbEntity
  8
ZUWAKU
100
AcDbLine
 10
252.5995897473189
 20
15.00000028326655
 30
0.0
 11
252.599589747319
 21
0.4000002832665928
 31
0.0
  0
LINE
  5
36CA
330
1A
100
AcDbEntity
  8
ZUWAKU
100
AcDbLine
 10
252.4995897473189
 20
15.00000028326655
 30
0.0
 11
252.499589747319
 21
0.4000002832665928
 31
0.0
  0
TEXT
  5
36CB
330
1A
100
AcDbEntity
  8
MOJI
100
AcDbText
 10
264.0204539844049
 20
9.002460811970252
 30
0.0
 40
2.799999999999999
  1
Ａ３
 41
0.9
  7
ｽﾀｲﾙ1
100
AcDbText
  0
LINE
  5
36CC
330
1A
100
AcDbEntity
  8
ZUWAKU
100
AcDbLine
 10
223.7121819837442
 20
15.00000028326655
 30
0.0
 11
223.7121819837442
 21
0.4000002832665928
 31
0.0
  0
LINE
  5
36CD
330
1A
100
AcDbEntity
  8
ZUWAKU
100
AcDbLine
 10
223.9121819837441
 20
15.00000028326655
 30
0.0
 11
223.9121819837442
 21
0.4000002832665928
 31
0.0
  0
LINE
  5
36CE
330
1A
100
AcDbEntity
  8
ZUWAKU
100
AcDbLine
 10
223.8121819837441
 20
15.00000028326655
 30
0.0
 11
223.8121819837442
 21
0.4000002832665928
 31
0.0
  0
TEXT
  5
36CF
330
1A
100
AcDbEntity
  8
MOJI
100
AcDbText
 10
231.2836391592428
 20
5.971309144096551
 30
0.0
 40
2.799999999999999
  1
ＬＬ３４Ｇ
 41
0.9
  7
ｽﾀｲﾙ1
100
AcDbText
  0
TEXT
  5
36D0
330
1A
100
AcDbEntity
  8
ZUWAKU
100
AcDbText
 10
253.3383122584239
 20
4.827678552459367
 30
0.0
 40
2.0
  1
縮尺
 41
0.9
  7
ｽﾀｲﾙ1
100
AcDbText
  0
TEXT
  5
36D1
330
1A
100
AcDbEntity
  8
MOJI
100
AcDbText
 10
264.0204539844049
 20
1.602460811970269
 30
0.0
 40
2.799999999999999
  1
１/１
 41
0.9
  7
ｽﾀｲﾙ1
100
AcDbText
  0
TEXT
  5
36D2
330
1A
100
AcDbEntity
  8
ZUWAKU
100
AcDbText
 10
224.6509044948489
 20
12.02767855245935
 30
0.0
 40
2.0
  1
品番
 41
0.9
  7
ｽﾀｲﾙ1
100
AcDbText
  0
TEXT
  5
36D3
330
1A
100
AcDbEntity
  8
ZUWAKU
100
AcDbText
 10
253.3383122584238
 20
12.02767855245935
 30
0.0
 40
2.0
  1
用紙
 41
0.9
  7
ｽﾀｲﾙ1
100
AcDbText
  0
LINE
  5
36D4
330
1A
100
AcDbEntity
  8
ZUWAKU
100
AcDbLine
 10
276.2634778813047
 20
15.00000028326655
 30
0.0
 11
276.2634778813047
 21
0.4000002832665928
 31
0.0
  0
LINE
  5
36D5
330
1A
100
AcDbEntity
  8
ZUWAKU
100
AcDbLine
 10
276.4634778813046
 20
15.00000028326655
 30
0.0
 11
276.4634778813048
 21
0.4000002832665928
 31
0.0
  0
LINE
  5
36D6
330
1A
100
AcDbEntity
  8
ZUWAKU
100
AcDbLine
 10
276.3634778813046
 20
15.00000028326655
 30
0.0
 11
276.3634778813047
 21
0.4000002832665928
 31
0.0
  0
LINE
  5
36D7
330
1A
100
AcDbEntity
  8
ZUWAKU
100
AcDbLine
 10
324.2086012533508
 20
15.00000028326655
 30
0.0
 11
324.2086012533508
 21
0.4000002832665928
 31
0.0
  0
LINE
  5
36D8
330
1A
100
AcDbEntity
  8
ZUWAKU
100
AcDbLine
 10
324.4086012533507
 20
15.00000028326655
 30
0.0
 11
324.4086012533508
 21
0.4000002832665928
 31
0.0
  0
LINE
  5
36D9
330
1A
100
AcDbEntity
  8
ZUWAKU
100
AcDbLine
 10
324.3086012533507
 20
15.00000028326655
 30
0.0
 11
324.3086012533508
 21
0.4000002832665928
 31
0.0
  0
TEXT
  5
36DA
330
1A
100
AcDbEntity
  8
ZUWAKU
100
AcDbText
 10
325.1473237644555
 20
12.02767855245935
 30
0.0
 40
2.0
  1
DATE
 41
0.9
  7
ｽﾀｲﾙ1
100
AcDbText
  0
TEXT
  5
36DB
330
1A
100
AcDbEntity
  8
ZUWAKU
100
AcDbText
 10
354.2640420943704
 20
8.77691995110996
 30
0.0
 40
3.0
  1
積水化学工業株式会社
 41
0.9
  7
ｽﾀｲﾙ1
100
AcDbText
  0
LINE
  5
36DC
330
1A
100
AcDbEntity
  8
ZUWAKU
100
AcDbLine
 10
348.9245052725191
 20
15.00000028326655
 30
0.0
 11
348.9245052725192
 21
0.4000002832665928
 31
0.0
  0
LINE
  5
36DD
330
1A
100
AcDbEntity
  8
ZUWAKU
100
AcDbLine
 10
348.824505272519
 20
15.00000028326655
 30
0.0
 11
348.8245052725192
 21
0.4000002832665928
 31
0.0
  0
LINE
  5
36DE
330
1A
100
AcDbEntity
  8
ZUWAKU
100
AcDbLine
 10
348.7245052725191
 20
15.00000028326655
 30
0.0
 11
348.7245052725191
 21
0.4000002832665928
 31
0.0
  0
LINE
  5
36DF
330
1A
100
AcDbEntity
  8
ZUWAKU
100
AcDbLine
 10
348.6245052725191
 20
15.00000028326655
 30
0.0
 11
348.6245052725191
 21
0.4000002832665928
 31
0.0
  0
TEXT
  5
36E0
330
1A
100
AcDbEntity
  8
ZUWAKU
100
AcDbText
 10
354.2640420943704
 20
3.324420440193591
 30
0.0
 40
3.0
  1
建材事業部
 41
0.9
  7
ｽﾀｲﾙ1
100
AcDbText
  0
VIEWPORT
  5
22
330
17
100
AcDbEntity
 67
     1
  8
0
100
AcDbViewport
 10
313.6808219178082
 20
148.5
 30
0.0
 40
627.3616438356165
 41
297.0
 68
     2
 69
     1
1001
ACAD
1000
MVIEW
1002
{
1070
    16
1010
0.0
1020
0.0
1030
0.0
1010
0.0
1020
0.0
1030
1.0
1040
0.0
1040
297.0
1040
313.6808219178082
1040
148.5
1040
50.0
1040
0.0
1040
0.0
1070
     0
1070
   100
1070
     1
1070
     0
1070
     0
1070
     0
1070
     0
1070
     0
1040
0.0
1040
0.0
1040
0.0
1040
1.0
1040
1.0
1040
10.0
1040
10.0
1070
     0
1002
{
1002
}
1002
}
  0
VIEWPORT
  5
64
330
17
100
AcDbEntity
 67
     1
  8
VIEWPORT
100
AcDbViewport
 10
210.0
 20
148.5
 30
0.0
 40
420.0
 41
297.0
 68
     1
 69
     2
1001
ACAD
1000
MVIEW
1002
{
1070
    16
1010
0.0
1020
0.0
1030
0.0
1010
0.0
1020
0.0
1030
1.0
1040
0.0
1040
302.9399999999998
1040
210.0
1040
148.5
1040
50.0
1040
0.0
1040
0.0
1070
     0
1070
   100
1070
     1
1070
     0
1070
     0
1070
     0
1070
     0
1070
     0
1040
0.0
1040
0.0
1040
0.0
1040
5.0
1040
5.0
1040
0.0
1040
0.0
1070
     0
1002
{
1002
}
1002
}
  0
ENDSEC
  0
SECTION
  2
OBJECTS
  0
DICTIONARY
  5
C
330
0
100
AcDbDictionary
  3
ACAD_GROUP
350
D
  3
ACAD_LAYOUT
350
141
  3
ACAD_MLINESTYLE
350
E
  3
ACAD_PLOTSETTINGS
350
142
  3
ACAD_PLOTSTYLENAME
350
32B0
  3
ACDBHEADERROUNDTRIPXREC
350
36E8
1001
ACAD
1000
TREAT_AS_HARD
1070
     0
  0
DICTIONARY
  5
73C
330
1A
100
AcDbDictionary
280
     1
  3
ACAD_LAYOUTSELFREF
360
370A
1001
ACAD
1000
TREAT_AS_HARD
1070
     1
  0
DICTIONARY
  5
73A
330
17
100
AcDbDictionary
280
     1
  3
ACAD_LAYOUTSELFREF
360
3709
1001
ACAD
1000
TREAT_AS_HARD
1070
     1
  0
DICTIONARY
  5
D
102
{ACAD_REACTORS
330
C
102
}
330
C
100
AcDbDictionary
1001
ACAD
1000
TREAT_AS_HARD
1070
     0
  0
DICTIONARY
  5
141
102
{ACAD_REACTORS
330
C
102
}
330
C
100
AcDbDictionary
1001
ACAD
1000
TREAT_AS_HARD
1070
     0
  0
DICTIONARY
  5
E
102
{ACAD_REACTORS
330
C
102
}
330
C
100
AcDbDictionary
  3
STANDARD
350
13
1001
ACAD
1000
TREAT_AS_HARD
1070
     0
  0
DICTIONARY
  5
142
102
{ACAD_REACTORS
330
C
102
}
330
C
100
AcDbDictionary
1001
ACAD
1000
TREAT_AS_HARD
1070
     0
  0
ACDBDICTIONARYWDFLT
  5
32B0
102
{ACAD_REACTORS
330
C
102
}
330
C
100
AcDbDictionary
281
     1
  3
Normal
350
32B1
100
AcDbDictionaryWithDefault
340
32B1
1001
ACAD
1000
TREAT_AS_HARD
1070
     0
1000
TREAT_AS_HARD
1070
     0
  0
DICTIONARY
  5
36E8
102
{ACAD_REACTORS
330
C
102
}
330
C
100
AcDbDictionary
  3
TSTACKALIGN
350
36E9
  3
TSTACKSIZE
350
36EA
  3
HYPERLINKBASE
350
36EB
  3
STYLESHEET
350
36EC
  3
LAYOUTDICT
350
36ED
  3
PLOTSETDICT
350
36EE
  3
PLOTSTYLNAMDICT
350
36EF
  3
LWETCUNION
350
36F0
  3
INSUNITS
350
36F1
  3
CEPSNTYPE
350
36F2
  3
FINGERPRINTGUID
350
36F3
  3
VERSIONGUID
350
36F4
  3
PSVPSCALE
350
36F5
  3
DIMSTYLEDATA
350
36F6
  3
PUCSORTHOREF
350
36F7
  3
PUCSORTHOVIEW
350
36F8
  3
PUCSBASE
350
36F9
  3
PUCSORGTOP
350
36FA
  3
PUCSORGBOTTOM
350
36FB
  3
PUCSORGLEFT
350
36FC
  3
PUCSORGRIGHT
350
36FD
  3
PUCSORGFRONT
350
36FE
  3
PUCSORGBACK
350
36FF
  3
UCSORTHOREF
350
3700
  3
UCSORTHOVIEW
350
3701
  3
UCSBASE
350
3702
  3
UCSORGTOP
350
3703
  3
UCSORGBOTTOM
350
3704
  3
UCSORGLEFT
350
3705
  3
UCSORGRIGHT
350
3706
  3
UCSORGFRONT
350
3707
  3
UCSORGBACK
350
3708
  0
XRECORD
  5
370A
102
{ACAD_REACTORS
330
73C
102
}
330
73C
100
AcDbXrecord
340
1A
  0
XRECORD
  5
3709
102
{ACAD_REACTORS
330
73A
102
}
330
73A
100
AcDbXrecord
340
17
  0
MLINESTYLE
  5
13
102
{ACAD_REACTORS
330
E
102
}
330
E
100
AcDbMlineStyle
  2
STANDARD
 70
     0
  3

 62
     0
 51
90.0
 52
90.0
 71
     2
 49
0.5
 62
   256
  6
BYLAYER
 49
-0.5
 62
   256
  6
BYLAYER
  0
ACDBPLACEHOLDER
  5
32B1
102
{ACAD_REACTORS
330
32B0
102
}
330
32B0
100
AcDbPlaceHolder
280
     0
  0
XRECORD
  5
36E9
102
{ACAD_REACTORS
330
36E8
102
}
330
36E8
100
AcDbXrecord
 90
        1
  0
XRECORD
  5
36EA
102
{ACAD_REACTORS
330
36E8
102
}
330
36E8
100
AcDbXrecord
 90
       70
  0
XRECORD
  5
36EB
102
{ACAD_REACTORS
330
36E8
102
}
330
36E8
100
AcDbXrecord
  1

  0
XRECORD
  5
36EC
102
{ACAD_REACTORS
330
36E8
102
}
330
36E8
100
AcDbXrecord
  1
systemprinter.ctb
  0
XRECORD
  5
36ED
102
{ACAD_REACTORS
330
36E8
102
}
330
36E8
100
AcDbXrecord
340
141
  0
XRECORD
  5
36EE
102
{ACAD_REACTORS
330
36E8
102
}
330
36E8
100
AcDbXrecord
340
142
  0
XRECORD
  5
36EF
102
{ACAD_REACTORS
330
36E8
102
}
330
36E8
100
AcDbXrecord
340
32B0
  0
XRECORD
  5
36F0
102
{ACAD_REACTORS
330
36E8
102
}
330
36E8
100
AcDbXrecord
 90
    10781
  0
XRECORD
  5
36F1
102
{ACAD_REACTORS
330
36E8
102
}
330
36E8
100
AcDbXrecord
 90
        0
  0
XRECORD
  5
36F2
102
{ACAD_REACTORS
330
36E8
102
}
330
36E8
100
AcDbXrecord
 90
        0
  0
XRECORD
  5
36F3
102
{ACAD_REACTORS
330
36E8
102
}
330
36E8
100
AcDbXrecord
  1
{95FA296A-4FC9-4292-B2D7-4BE0CAD6F6CF}
  0
XRECORD
  5
36F4
102
{ACAD_REACTORS
330
36E8
102
}
330
36E8
100
AcDbXrecord
  1
{C0F5BED3-AB53-4E83-AB81-81A386566B89}
  0
XRECORD
  5
36F5
102
{ACAD_REACTORS
330
36E8
102
}
330
36E8
100
AcDbXrecord
 40
0.0
  0
XRECORD
  5
36F6
102
{ACAD_REACTORS
330
36E8
102
}
330
36E8
100
AcDbXrecord
1000
DSTYLE
1002
{
1070
   341
340
B2
1070
   343
340
B2
1070
   344
340
B2
1070
   371
 70
    -1
1070
   372
 70
    -1
1002
}
  0
XRECORD
  5
36F7
102
{ACAD_REACTORS
330
36E8
102
}
330
36E8
100
AcDbXrecord
340
0
  0
XRECORD
  5
36F8
102
{ACAD_REACTORS
330
36E8
102
}
330
36E8
100
AcDbXrecord
 70
     0
  0
XRECORD
  5
36F9
102
{ACAD_REACTORS
330
36E8
102
}
330
36E8
100
AcDbXrecord
340
0
  0
XRECORD
  5
36FA
102
{ACAD_REACTORS
330
36E8
102
}
330
36E8
100
AcDbXrecord
 10
0.0
 20
0.0
 30
0.0
  0
XRECORD
  5
36FB
102
{ACAD_REACTORS
330
36E8
102
}
330
36E8
100
AcDbXrecord
 10
0.0
 20
0.0
 30
0.0
  0
XRECORD
  5
36FC
102
{ACAD_REACTORS
330
36E8
102
}
330
36E8
100
AcDbXrecord
 10
0.0
 20
0.0
 30
0.0
  0
XRECORD
  5
36FD
102
{ACAD_REACTORS
330
36E8
102
}
330
36E8
100
AcDbXrecord
 10
0.0
 20
0.0
 30
0.0
  0
XRECORD
  5
36FE
102
{ACAD_REACTORS
330
36E8
102
}
330
36E8
100
AcDbXrecord
 10
0.0
 20
0.0
 30
0.0
  0
XRECORD
  5
36FF
102
{ACAD_REACTORS
330
36E8
102
}
330
36E8
100
AcDbXrecord
 10
0.0
 20
0.0
 30
0.0
  0
XRECORD
  5
3700
102
{ACAD_REACTORS
330
36E8
102
}
330
36E8
100
AcDbXrecord
340
0
  0
XRECORD
  5
3701
102
{ACAD_REACTORS
330
36E8
102
}
330
36E8
100
AcDbXrecord
 70
     0
  0
XRECORD
  5
3702
102
{ACAD_REACTORS
330
36E8
102
}
330
36E8
100
AcDbXrecord
340
0
  0
XRECORD
  5
3703
102
{ACAD_REACTORS
330
36E8
102
}
330
36E8
100
AcDbXrecord
 10
0.0
 20
0.0
 30
0.0
  0
XRECORD
  5
3704
102
{ACAD_REACTORS
330
36E8
102
}
330
36E8
100
AcDbXrecord
 10
0.0
 20
0.0
 30
0.0
  0
XRECORD
  5
3705
102
{ACAD_REACTORS
330
36E8
102
}
330
36E8
100
AcDbXrecord
 10
0.0
 20
0.0
 30
0.0
  0
XRECORD
  5
3706
102
{ACAD_REACTORS
330
36E8
102
}
330
36E8
100
AcDbXrecord
 10
0.0
 20
0.0
 30
0.0
  0
XRECORD
  5
3707
102
{ACAD_REACTORS
330
36E8
102
}
330
36E8
100
AcDbXrecord
 10
0.0
 20
0.0
 30
0.0
  0
XRECORD
  5
3708
102
{ACAD_REACTORS
330
36E8
102
}
330
36E8
100
AcDbXrecord
 10
0.0
 20
0.0
 30
0.0
  0
ENDSEC
  0
EOF
