  0
SECTION
  2
HEADER
  9
$ACADVER
  1
AC1014
  9
$ACADMAINTVER
 70
     9
  9
$DWGCODEPAGE
  3
ANSI_932
  9
$INSBASE
 10
0.0
 20
0.0
 30
0.0
  9
$EXTMIN
 10
-0.0128167645398207
 20
-0.0090630968384176
 30
-0.0015258207003583
  9
$EXTMAX
 10
398.800049763183
 20
275.8226172391794
 30
0.0000000349246037
  9
$LIMMIN
 10
0.0
 20
0.0
  9
$LIMMAX
 10
420.0
 20
297.0
  9
$ORTHOMODE
 70
     1
  9
$REGENMODE
 70
     1
  9
$FILLMODE
 70
     1
  9
$QTEXTMODE
 70
     0
  9
$MIRRTEXT
 70
     1
  9
$DRAGMODE
 70
     2
  9
$LTSCALE
 40
5.0
  9
$OSMODE
 70
    35
  9
$ATTMODE
 70
     1
  9
$TEXTSIZE
 40
4.0
  9
$TRACEWID
 40
1.0
  9
$TEXTSTYLE
  7
STANDARD
  9
$CLAYER
  8
SUNPOU
  9
$CELTYPE
  6
CONTINUOUS
  9
$CECOLOR
 62
   256
  9
$CELTSCALE
 40
1.0
  9
$DELOBJ
 70
     1
  9
$DISPSILH
 70
     0
  9
$DIMSCALE
 40
1.0
  9
$DIMASZ
 40
3.0
  9
$DIMEXO
 40
3.0
  9
$DIMDLI
 40
7.0
  9
$DIMRND
 40
0.0
  9
$DIMDLE
 40
0.0
  9
$DIMEXE
 40
1.5
  9
$DIMTP
 40
0.0
  9
$DIMTM
 40
0.0
  9
$DIMTXT
 40
3.0
  9
$DIMCEN
 40
3.0
  9
$DIMTSZ
 40
0.0
  9
$DIMTOL
 70
     0
  9
$DIMLIM
 70
     0
  9
$DIMTIH
 70
     0
  9
$DIMTOH
 70
     0
  9
$DIMSE1
 70
     0
  9
$DIMSE2
 70
     0
  9
$DIMTAD
 70
     3
  9
$DIMZIN
 70
     0
  9
$DIMBLK
  1

  9
$DIMASO
 70
     1
  9
$DIMSHO
 70
     1
  9
$DIMPOST
  1

  9
$DIMAPOST
  1

  9
$DIMALT
 70
     0
  9
$DIMALTD
 70
     2
  9
$DIMALTF
 40
25.4
  9
$DIMLFAC
 40
1.0
  9
$DIMTOFL
 70
     1
  9
$DIMTVP
 40
0.0
  9
$DIMTIX
 70
     0
  9
$DIMSOXD
 70
     0
  9
$DIMSAH
 70
     1
  9
$DIMBLK1
  1
OPEN
  9
$DIMBLK2
  1
OPEN
  9
$DIMSTYLE
  2
STANDARD
  9
$DIMCLRD
 70
   256
  9
$DIMCLRE
 70
   256
  9
$DIMCLRT
 70
   256
  9
$DIMTFAC
 40
1.0
  9
$DIMGAP
 40
1.0
  9
$DIMJUST
 70
     0
  9
$DIMSD1
 70
     0
  9
$DIMSD2
 70
     0
  9
$DIMTOLJ
 70
     1
  9
$DIMTZIN
 70
     0
  9
$DIMALTZ
 70
     0
  9
$DIMALTTZ
 70
     0
  9
$DIMFIT
 70
     3
  9
$DIMUPT
 70
     0
  9
$DIMUNIT
 70
     2
  9
$DIMDEC
 70
     0
  9
$DIMTDEC
 70
     0
  9
$DIMALTU
 70
     2
  9
$DIMALTTD
 70
     2
  9
$DIMTXSTY
  7
STANDARD
  9
$DIMAUNIT
 70
     0
  9
$LUNITS
 70
     2
  9
$LUPREC
 70
     4
  9
$SKETCHINC
 40
1.0
  9
$FILLETRAD
 40
10.0
  9
$AUNITS
 70
     0
  9
$AUPREC
 70
     0
  9
$MENU
  1
.
  9
$ELEVATION
 40
0.0
  9
$PELEVATION
 40
0.0
  9
$THICKNESS
 40
0.0
  9
$LIMCHECK
 70
     0
  9
$BLIPMODE
 70
     0
  9
$CHAMFERA
 40
10.0
  9
$CHAMFERB
 40
10.0
  9
$CHAMFERC
 40
20.0
  9
$CHAMFERD
 40
0.0
  9
$SKPOLY
 70
     0
  9
$TDCREATE
 40
2451569.441154629
  9
$TDUPDATE
 40
2453802.582387326
  9
$TDINDWG
 40
0.2571812500
  9
$TDUSRTIMER
 40
0.2571812500
  9
$USRTIMER
 70
     1
  9
$ANGBASE
 50
0.0
  9
$ANGDIR
 70
     0
  9
$PDMODE
 70
     0
  9
$PDSIZE
 40
0.0
  9
$PLINEWID
 40
0.0
  9
$COORDS
 70
     1
  9
$SPLFRAME
 70
     0
  9
$SPLINETYPE
 70
     6
  9
$SPLINESEGS
 70
     8
  9
$ATTDIA
 70
     0
  9
$ATTREQ
 70
     1
  9
$HANDLING
 70
 10241
  9
$HANDSEED
  5
248E
  9
$SURFTAB1
 70
     6
  9
$SURFTAB2
 70
     6
  9
$SURFTYPE
 70
     6
  9
$SURFU
 70
     6
  9
$SURFV
 70
     6
  9
$UCSNAME
  2

  9
$UCSORG
 10
0.0
 20
0.0
 30
0.0
  9
$UCSXDIR
 10
1.0
 20
0.0
 30
0.0
  9
$UCSYDIR
 10
0.0
 20
1.0
 30
0.0
  9
$PUCSNAME
  2

  9
$PUCSORG
 10
0.0
 20
0.0
 30
0.0
  9
$PUCSXDIR
 10
1.0
 20
0.0
 30
0.0
  9
$PUCSYDIR
 10
0.0
 20
1.0
 30
0.0
  9
$USERI1
 70
     0
  9
$USERI2
 70
     0
  9
$USERI3
 70
     0
  9
$USERI4
 70
     0
  9
$USERI5
 70
     0
  9
$USERR1
 40
0.0
  9
$USERR2
 40
0.0
  9
$USERR3
 40
0.0
  9
$USERR4
 40
0.0
  9
$USERR5
 40
0.0
  9
$WORLDVIEW
 70
     1
  9
$SHADEDGE
 70
     3
  9
$SHADEDIF
 70
    70
  9
$TILEMODE
 70
     1
  9
$MAXACTVP
 70
    16
  9
$PINSBASE
 10
0.0
 20
0.0
 30
0.0
  9
$PLIMCHECK
 70
     0
  9
$PEXTMIN
 10
0.0
 20
0.0
 30
0.0
  9
$PEXTMAX
 10
420.0
 20
297.0
 30
0.0
  9
$PLIMMIN
 10
0.0
 20
0.0
  9
$PLIMMAX
 10
420.0
 20
297.0
  9
$UNITMODE
 70
     0
  9
$VISRETAIN
 70
     0
  9
$PLINEGEN
 70
     0
  9
$PSLTSCALE
 70
     1
  9
$TREEDEPTH
 70
  3020
  9
$PICKSTYLE
 70
     1
  9
$CMLSTYLE
  2
STANDARD
  9
$CMLJUST
 70
     0
  9
$CMLSCALE
 40
1.0
  9
$PROXYGRAPHICS
 70
     1
  9
$MEASUREMENT
 70
     0
  0
ENDSEC
  0
SECTION
  2
CLASSES
  0
CLASS
  1
ACDBDICTIONARYWDFLT
  2
AcDbDictionaryWithDefault
  3
AutoCAD 2000
 90
        0
280
     0
281
     0
  0
CLASS
  1
ACDBPLACEHOLDER
  2
AcDbPlaceHolder
  3
AutoCAD 2000
 90
        0
280
     0
281
     0
  0
CLASS
  1
LAYOUT
  2
AcDbLayout
  3
AutoCAD 2000
 90
        0
280
     0
281
     0
  0
CLASS
  1
LONG_TRANSACTION
  2
AcDbLongTransaction
  3
AutoCAD 2000
 90
        0
280
     0
281
     0
  0
CLASS
  1
LWPOLYLINE
  2
AcDbPolyline
  3
AutoCAD 2000
 90
        0
280
     0
281
     1
  0
CLASS
  1
HATCH
  2
AcDbHatch
  3
AutoCAD 2000
 90
        0
280
     0
281
     1
  0
CLASS
  1
XRECORD
  2
AcDbXrecord
  3
AutoCAD 2000
 90
        0
280
     0
281
     0
  0
CLASS
  1
LONG_TRANSACTION
  2
AcDbLongTransaction
  3
AutoCAD 2000
 90
        0
280
     0
281
     0
  0
CLASS
  1
LWPOLYLINE
  2
AcDbPolyline
  3
AutoCAD 2000
 90
        0
280
     0
281
     1
  0
CLASS
  1
HATCH
  2
AcDbHatch
  3
AutoCAD 2000
 90
        0
280
     0
281
     1
  0
CLASS
  1
XRECORD
  2
AcDbXrecord
  3
AutoCAD 2000
 90
        0
280
     0
281
     0
  0
CLASS
  1
LONG_TRANSACTION
  2
AcDbLongTransaction
  3
AutoCAD 2000
 90
        0
280
     0
281
     0
  0
CLASS
  1
LWPOLYLINE
  2
AcDbPolyline
  3
AutoCAD 2000
 90
        0
280
     0
281
     1
  0
CLASS
  1
HATCH
  2
AcDbHatch
  3
AutoCAD 2000
 90
        0
280
     0
281
     1
  0
CLASS
  1
XRECORD
  2
AcDbXrecord
  3
AutoCAD 2000
 90
        0
280
     0
281
     0
  0
CLASS
  1
LONG_TRANSACTION
  2
AcDbLongTransaction
  3
AutoCAD 2000
 90
        0
280
     0
281
     0
  0
CLASS
  1
LWPOLYLINE
  2
AcDbPolyline
  3
AutoCAD 2000
 90
        0
280
     0
281
     1
  0
CLASS
  1
HATCH
  2
AcDbHatch
  3
AutoCAD 2000
 90
        0
280
     0
281
     1
  0
CLASS
  1
XRECORD
  2
AcDbXrecord
  3
AutoCAD 2000
 90
        0
280
     0
281
     0
  0
CLASS
  1
LONG_TRANSACTION
  2
AcDbLongTransaction
  3
AutoCAD 2000
 90
        0
280
     0
281
     0
  0
CLASS
  1
LWPOLYLINE
  2
AcDbPolyline
  3
AutoCAD 2000
 90
        0
280
     0
281
     1
  0
CLASS
  1
HATCH
  2
AcDbHatch
  3
AutoCAD 2000
 90
        0
280
     0
281
     1
  0
CLASS
  1
XRECORD
  2
AcDbXrecord
  3
AutoCAD 2000
 90
        0
280
     0
281
     0
  0
CLASS
  1
LONG_TRANSACTION
  2
AcDbLongTransaction
  3
AutoCAD 2000
 90
        0
280
     0
281
     0
  0
CLASS
  1
LWPOLYLINE
  2
AcDbPolyline
  3
AutoCAD 2000
 90
        0
280
     0
281
     1
  0
CLASS
  1
HATCH
  2
AcDbHatch
  3
AutoCAD 2000
 90
        0
280
     0
281
     1
  0
CLASS
  1
XRECORD
  2
AcDbXrecord
  3
AutoCAD 2000
 90
        0
280
     0
281
     0
  0
CLASS
  1
LONG_TRANSACTION
  2
AcDbLongTransaction
  3
AutoCAD 2000
 90
        0
280
     0
281
     0
  0
CLASS
  1
LWPOLYLINE
  2
AcDbPolyline
  3
AutoCAD 2000
 90
        0
280
     0
281
     1
  0
CLASS
  1
HATCH
  2
AcDbHatch
  3
AutoCAD 2000
 90
        0
280
     0
281
     1
  0
CLASS
  1
XRECORD
  2
AcDbXrecord
  3
AutoCAD 2000
 90
        0
280
     0
281
     0
  0
CLASS
  1
LONG_TRANSACTION
  2
AcDbLongTransaction
  3
AutoCAD 2000
 90
        0
280
     0
281
     0
  0
CLASS
  1
LWPOLYLINE
  2
AcDbPolyline
  3
AutoCAD 2000
 90
        0
280
     0
281
     1
  0
CLASS
  1
HATCH
  2
AcDbHatch
  3
AutoCAD 2000
 90
        0
280
     0
281
     1
  0
CLASS
  1
XRECORD
  2
AcDbXrecord
  3
AutoCAD 2000
 90
        0
280
     0
281
     0
  0
CLASS
  1
LONG_TRANSACTION
  2
AcDbLongTransaction
  3
AutoCAD 2000
 90
        0
280
     0
281
     0
  0
CLASS
  1
LWPOLYLINE
  2
AcDbPolyline
  3
AutoCAD 2000
 90
        0
280
     0
281
     1
  0
CLASS
  1
HATCH
  2
AcDbHatch
  3
AutoCAD 2000
 90
        0
280
     0
281
     1
  0
CLASS
  1
XRECORD
  2
AcDbXrecord
  3
AutoCAD 2000
 90
        0
280
     0
281
     0
  0
CLASS
  1
LONG_TRANSACTION
  2
AcDbLongTransaction
  3
AutoCAD 2000
 90
        0
280
     0
281
     0
  0
CLASS
  1
LWPOLYLINE
  2
AcDbPolyline
  3
AutoCAD 2000
 90
        0
280
     0
281
     1
  0
CLASS
  1
HATCH
  2
AcDbHatch
  3
AutoCAD 2000
 90
        0
280
     0
281
     1
  0
CLASS
  1
XRECORD
  2
AcDbXrecord
  3
AutoCAD 2000
 90
        0
280
     0
281
     0
  0
CLASS
  1
LONG_TRANSACTION
  2
AcDbLongTransaction
  3
AutoCAD 2000
 90
        0
280
     0
281
     0
  0
CLASS
  1
LWPOLYLINE
  2
AcDbPolyline
  3
AutoCAD 2000
 90
        0
280
     0
281
     1
  0
CLASS
  1
HATCH
  2
AcDbHatch
  3
AutoCAD 2000
 90
        0
280
     0
281
     1
  0
CLASS
  1
XRECORD
  2
AcDbXrecord
  3
AutoCAD 2000
 90
        0
280
     0
281
     0
  0
ENDSEC
  0
SECTION
  2
TABLES
  0
TABLE
  2
VPORT
  5
8
330
0
100
AcDbSymbolTable
 70
     2
  0
VPORT
  5
246A
330
8
100
AcDbSymbolTableRecord
100
AcDbViewportTableRecord
  2
*ACTIVE
 70
     0
 10
0.0
 20
0.0
 11
1.0
 21
1.0
 12
200.4846392005021
 22
126.672016470722
 13
0.0
 23
0.0
 14
5.0
 24
5.0
 15
0.0
 25
0.0
 16
0.0
 26
0.0
 36
1.0
 17
0.0
 27
0.0
 37
0.0
 40
352.2455396545876
 41
1.795454545454545
 42
50.0
 43
0.0
 44
0.0
 50
0.0
 51
0.0
 71
     0
 72
   100
 73
     1
 74
     0
 75
     0
 76
     0
 77
     0
 78
     0
  0
ENDTAB
  0
TABLE
  2
LTYPE
  5
5
330
0
100
AcDbSymbolTable
 70
     3
  0
LTYPE
  5
14
330
5
100
AcDbSymbolTableRecord
100
AcDbLinetypeTableRecord
  2
BYBLOCK
 70
     0
  3

 72
    65
 73
     0
 40
0.0
  0
LTYPE
  5
15
330
5
100
AcDbSymbolTableRecord
100
AcDbLinetypeTableRecord
  2
BYLAYER
 70
     0
  3

 72
    65
 73
     0
 40
0.0
  0
LTYPE
  5
16
330
5
100
AcDbSymbolTableRecord
100
AcDbLinetypeTableRecord
  2
CONTINUOUS
 70
     0
  3
Solid line
 72
    65
 73
     0
 40
0.0
  0
LTYPE
  5
120
330
5
100
AcDbSymbolTableRecord
100
AcDbLinetypeTableRecord
  2
CENTER
 70
     0
  3
____ _ ____ _ ____ _ ____ _ ____ _ ____ _ ____ 
 72
    65
 73
     4
 40
2.0
 49
1.25
 74
     0
 49
-0.25
 74
     0
 49
0.25
 74
     0
 49
-0.25
 74
     0
  0
LTYPE
  5
213B
330
5
100
AcDbSymbolTableRecord
100
AcDbLinetypeTableRecord
  2
PHANTOM
 70
     0
  3
______  __  __  ______  __  __  ______  __  __ 
 72
    65
 73
     6
 40
2.5
 49
1.25
 74
     0
 49
-0.25
 74
     0
 49
0.25
 74
     0
 49
-0.25
 74
     0
 49
0.25
 74
     0
 49
-0.25
 74
     0
  0
ENDTAB
  0
TABLE
  2
LAYER
  5
2
330
0
100
AcDbSymbolTable
 70
     9
  0
LAYER
  5
F
330
2
100
AcDbSymbolTableRecord
100
AcDbLayerTableRecord
  2
0
 70
     0
 62
     7
  6
CONTINUOUS
  0
LAYER
  5
62
330
2
100
AcDbSymbolTableRecord
100
AcDbLayerTableRecord
  2
VIEWPORT
 70
     0
 62
     7
  6
CONTINUOUS
  0
LAYER
  5
6B
330
2
100
AcDbSymbolTableRecord
100
AcDbLayerTableRecord
  2
ZUWAKU
 70
     0
 62
     7
  6
CONTINUOUS
  0
LAYER
  5
48C
330
2
100
AcDbSymbolTableRecord
100
AcDbLayerTableRecord
  2
DEFPOINTS
 70
     0
 62
     7
  6
CONTINUOUS
  0
LAYER
  5
629
330
2
100
AcDbSymbolTableRecord
100
AcDbLayerTableRecord
  2
SEIHIN
 70
     0
 62
     3
  6
CONTINUOUS
  0
LAYER
  5
62A
330
2
100
AcDbSymbolTableRecord
100
AcDbLayerTableRecord
  2
SUNPOU
 70
     0
 62
     4
  6
CONTINUOUS
  0
LAYER
  5
62B
330
2
100
AcDbSymbolTableRecord
100
AcDbLayerTableRecord
  2
CENTER_L
 70
     0
 62
     1
  6
CENTER
  0
LAYER
  5
213C
330
2
100
AcDbSymbolTableRecord
100
AcDbLayerTableRecord
  2
NOKITOI
 70
     0
 62
     8
  6
PHANTOM
  0
LAYER
  5
22F2
330
2
100
AcDbSymbolTableRecord
100
AcDbLayerTableRecord
  2
MOJI
 70
     0
 62
     2
  6
CONTINUOUS
  0
ENDTAB
  0
TABLE
  2
STYLE
  5
3
330
0
100
AcDbSymbolTable
 70
     2
  0
STYLE
  5
10
330
3
100
AcDbSymbolTableRecord
100
AcDbTextStyleTableRecord
  2
STANDARD
 70
     0
 40
0.0
 41
1.0
 50
0.0
 71
     0
 42
4.0
  3
TXT
  4
bigfont.shx
  0
STYLE
  5
22F3
330
3
100
AcDbSymbolTableRecord
100
AcDbTextStyleTableRecord
  2
ｽﾀｲﾙ1
 70
     0
 40
0.0
 41
1.0
 50
0.0
 71
     0
 42
2.5
  3
MS PGothic.ttf
  4

1001
ACAD
1000
MS PGothic
1071
    32818
  0
ENDTAB
  0
TABLE
  2
VIEW
  5
6
330
0
100
AcDbSymbolTable
 70
     0
  0
ENDTAB
  0
TABLE
  2
UCS
  5
7
330
0
100
AcDbSymbolTable
 70
     0
  0
ENDTAB
  0
TABLE
  2
APPID
  5
9
330
0
100
AcDbSymbolTable
 70
     1
  0
APPID
  5
11
330
9
100
AcDbSymbolTableRecord
100
AcDbRegAppTableRecord
  2
ACAD
 70
     0
  0
ENDTAB
  0
TABLE
  2
DIMSTYLE
  5
A
330
0
100
AcDbSymbolTable
 70
     1
  0
DIMSTYLE
105
1D
102
{ACAD_REACTORS
330
2077
330
2084
330
20A2
330
20C4
330
20D3
330
20E2
330
20F1
330
20FE
330
210B
330
2118
330
228A
102
}
330
A
100
AcDbSymbolTableRecord
100
AcDbDimStyleTableRecord
  2
STANDARD
 70
     0
  3

  4

  5

  6

  7

 40
1.0
 41
0.18
 42
0.0625
 43
0.38
 44
0.18
 45
0.0
 46
0.0
 47
0.0
 48
0.0
140
0.18
141
0.09
142
0.0
143
25.4
144
1.0
145
0.0
146
1.0
147
0.09
 71
     0
 72
     0
 73
     1
 74
     1
 75
     0
 76
     0
 77
     0
 78
     0
170
     0
171
     2
172
     0
173
     0
174
     0
175
     0
176
     0
177
     0
178
     0
270
     2
271
     4
272
     4
273
     2
274
     2
340
10
275
     0
280
     0
281
     0
282
     0
283
     1
284
     0
285
     0
286
     0
287
     3
288
     0
  0
ENDTAB
  0
TABLE
  2
BLOCK_RECORD
  5
1
330
0
100
AcDbSymbolTable
 70
    12
  0
BLOCK_RECORD
  5
1A
102
{ACAD_XDICTIONARY
360
73C
102
}
330
1
100
AcDbSymbolTableRecord
100
AcDbBlockTableRecord
  2
*MODEL_SPACE
  0
BLOCK_RECORD
  5
17
102
{ACAD_XDICTIONARY
360
73A
102
}
330
1
100
AcDbSymbolTableRecord
100
AcDbBlockTableRecord
  2
*PAPER_SPACE
  0
BLOCK_RECORD
  5
B2
330
1
100
AcDbSymbolTableRecord
100
AcDbBlockTableRecord
  2
_OPEN
  0
BLOCK_RECORD
  5
206B
330
1
100
AcDbSymbolTableRecord
100
AcDbBlockTableRecord
  2
*D1
  0
BLOCK_RECORD
  5
2078
330
1
100
AcDbSymbolTableRecord
100
AcDbBlockTableRecord
  2
*D2
  0
BLOCK_RECORD
  5
2096
330
1
100
AcDbSymbolTableRecord
100
AcDbBlockTableRecord
  2
*D3
  0
BLOCK_RECORD
  5
20B6
330
1
100
AcDbSymbolTableRecord
100
AcDbBlockTableRecord
  2
*D4
  0
BLOCK_RECORD
  5
20C5
330
1
100
AcDbSymbolTableRecord
100
AcDbBlockTableRecord
  2
*D5
  0
BLOCK_RECORD
  5
20D6
330
1
100
AcDbSymbolTableRecord
100
AcDbBlockTableRecord
  2
*D6
  0
BLOCK_RECORD
  5
20E3
330
1
100
AcDbSymbolTableRecord
100
AcDbBlockTableRecord
  2
*D7
  0
BLOCK_RECORD
  5
20F2
330
1
100
AcDbSymbolTableRecord
100
AcDbBlockTableRecord
  2
*D8
  0
BLOCK_RECORD
  5
20FF
330
1
100
AcDbSymbolTableRecord
100
AcDbBlockTableRecord
  2
*D9
  0
BLOCK_RECORD
  5
210C
330
1
100
AcDbSymbolTableRecord
100
AcDbBlockTableRecord
  2
*D10
  0
BLOCK_RECORD
  5
228B
330
1
100
AcDbSymbolTableRecord
100
AcDbBlockTableRecord
  2
*D11
  0
ENDTAB
  0
ENDSEC
  0
SECTION
  2
BLOCKS
  0
BLOCK
  5
1B
330
1A
100
AcDbEntity
  8
0
100
AcDbBlockBegin
  2
*MODEL_SPACE
 70
     0
 10
0.0
 20
0.0
 30
0.0
  3
*MODEL_SPACE
  1

  0
ENDBLK
  5
1C
330
1A
100
AcDbEntity
  8
0
100
AcDbBlockEnd
  0
BLOCK
  5
18
330
17
100
AcDbEntity
 67
     1
  8
0
100
AcDbBlockBegin
  2
*PAPER_SPACE
 70
     0
 10
0.0
 20
0.0
 30
0.0
  3
*PAPER_SPACE
  1

  0
ENDBLK
  5
19
330
17
100
AcDbEntity
 67
     1
  8
0
100
AcDbBlockEnd
  0
BLOCK
  5
B3
330
B2
100
AcDbEntity
  8
0
100
AcDbBlockBegin
  2
_OPEN
 70
     0
 10
0.0
 20
0.0
 30
0.0
  3
_OPEN
  1

  0
LINE
  5
B4
330
B2
100
AcDbEntity
  8
0
  6
BYBLOCK
 62
     0
100
AcDbLine
 10
-1.0
 20
0.1666666666666666
 30
0.0
 11
0.0
 21
0.0
 31
0.0
  0
LINE
  5
B5
330
B2
100
AcDbEntity
  8
0
  6
BYBLOCK
 62
     0
100
AcDbLine
 10
0.0
 20
0.0
 30
0.0
 11
-1.0
 21
-0.1666666666666666
 31
0.0
  0
LINE
  5
B6
330
B2
100
AcDbEntity
  8
0
  6
BYBLOCK
 62
     0
100
AcDbLine
 10
0.0
 20
0.0
 30
0.0
 11
-1.0
 21
0.0
 31
0.0
  0
ENDBLK
  5
B7
330
B2
100
AcDbEntity
  8
0
100
AcDbBlockEnd
  0
BLOCK
  5
206C
330
206B
100
AcDbEntity
  8
0
100
AcDbBlockBegin
  2
*D1
 70
     1
 10
0.0
 20
0.0
 30
0.0
  3
*D1
  1

  0
LINE
  5
2216
330
206B
100
AcDbEntity
  8
SUNPOU
  6
CONTINUOUS
100
AcDbLine
 10
284.7192468673798
 20
100.1008945776258
 30
0.0
 11
284.7192468673798
 21
155.4072609479971
 31
0.0
  0
LINE
  5
2217
330
206B
100
AcDbEntity
  8
SUNPOU
  6
CONTINUOUS
100
AcDbLine
 10
327.7192468673798
 20
100.1008945776258
 30
0.0
 11
327.7192468673798
 21
155.4072609479971
 31
0.0
  0
LINE
  5
2218
330
206B
100
AcDbEntity
  8
SUNPOU
  6
CONTINUOUS
100
AcDbLine
 10
287.7192468673797
 20
153.9072609479971
 30
0.0
 11
324.7192468673798
 21
153.9072609479971
 31
0.0
  0
INSERT
  5
2219
330
206B
100
AcDbEntity
  8
SUNPOU
  6
CONTINUOUS
100
AcDbBlockReference
  2
_OPEN
 10
284.7192468673798
 20
153.9072609479971
 30
0.0
 41
3.0
 42
3.0
 43
3.0
 50
180.0
  0
INSERT
  5
221A
330
206B
100
AcDbEntity
  8
SUNPOU
  6
CONTINUOUS
100
AcDbBlockReference
  2
_OPEN
 10
327.7192468673798
 20
153.9072609479971
 30
0.0
 41
3.0
 42
3.0
 43
3.0
  0
MTEXT
  5
221B
330
206B
100
AcDbEntity
  8
SUNPOU
  6
CONTINUOUS
100
AcDbMText
 10
306.2192468673798
 20
156.4072609479971
 30
0.0
 40
3.0
 41
0.0
 71
     5
 72
     5
  1
\A1;43
1001
ACAD
1000
MTEXTBEGIN
1070
    73
1070
     1
1070
    44
1040
1.0
1070
    74
1070
     0
1000
MTEXTEND
1000
MTEXTBEGIN
1070
    73
1070
     1
1070
    44
1040
1.0
1070
    74
1070
     0
1000
MTEXTEND
1000
MTEXTBEGIN
1070
    73
1070
     1
1070
    44
1040
1.0
1070
    74
1070
     0
1000
MTEXTEND
  0
POINT
  5
221C
330
206B
100
AcDbEntity
  8
DEFPOINTS
  6
CONTINUOUS
 62
     0
100
AcDbPoint
 10
284.7192468673798
 20
97.10089457762586
 30
0.0
  0
POINT
  5
221D
330
206B
100
AcDbEntity
  8
DEFPOINTS
  6
CONTINUOUS
 62
     0
100
AcDbPoint
 10
327.7192468673798
 20
97.10089457762586
 30
0.0
  0
POINT
  5
221E
330
206B
100
AcDbEntity
  8
DEFPOINTS
  6
CONTINUOUS
 62
     0
100
AcDbPoint
 10
327.7192468673798
 20
153.9072609479971
 30
0.0
  0
ENDBLK
  5
2076
330
206B
100
AcDbEntity
  8
0
100
AcDbBlockEnd
  0
BLOCK
  5
2079
330
2078
100
AcDbEntity
  8
0
100
AcDbBlockBegin
  2
*D2
 70
     1
 10
0.0
 20
0.0
 30
0.0
  3
*D2
  1

  0
LINE
  5
2204
330
2078
100
AcDbEntity
  8
SUNPOU
  6
CONTINUOUS
100
AcDbLine
 10
275.7192468673798
 20
100.1008945776258
 30
0.0
 11
275.7192468673798
 21
164.3718408243334
 31
0.0
  0
LINE
  5
2205
330
2078
100
AcDbEntity
  8
SUNPOU
  6
CONTINUOUS
100
AcDbLine
 10
336.7192468673798
 20
100.1008946670258
 30
0.0
 11
336.7192468673798
 21
164.3718408243334
 31
0.0
  0
LINE
  5
2206
330
2078
100
AcDbEntity
  8
SUNPOU
  6
CONTINUOUS
100
AcDbLine
 10
278.7192468673798
 20
162.8718408243334
 30
0.0
 11
333.7192468673798
 21
162.8718408243334
 31
0.0
  0
INSERT
  5
2207
330
2078
100
AcDbEntity
  8
SUNPOU
  6
CONTINUOUS
100
AcDbBlockReference
  2
_OPEN
 10
275.7192468673798
 20
162.8718408243334
 30
0.0
 41
3.0
 42
3.0
 43
3.0
 50
180.0
  0
INSERT
  5
2208
330
2078
100
AcDbEntity
  8
SUNPOU
  6
CONTINUOUS
100
AcDbBlockReference
  2
_OPEN
 10
336.7192468673798
 20
162.8718408243334
 30
0.0
 41
3.0
 42
3.0
 43
3.0
  0
MTEXT
  5
2209
330
2078
100
AcDbEntity
  8
SUNPOU
  6
CONTINUOUS
100
AcDbMText
 10
306.2192468673798
 20
165.3718408243334
 30
0.0
 40
3.0
 41
0.0
 71
     5
 72
     5
  1
\A1;61
1001
ACAD
1000
MTEXTBEGIN
1070
    73
1070
     1
1070
    44
1040
1.0
1070
    74
1070
     0
1000
MTEXTEND
1000
MTEXTBEGIN
1070
    73
1070
     1
1070
    44
1040
1.0
1070
    74
1070
     0
1000
MTEXTEND
1000
MTEXTBEGIN
1070
    73
1070
     1
1070
    44
1040
1.0
1070
    74
1070
     0
1000
MTEXTEND
  0
POINT
  5
220A
330
2078
100
AcDbEntity
  8
DEFPOINTS
  6
CONTINUOUS
 62
     0
100
AcDbPoint
 10
275.7192468673798
 20
97.10089457762586
 30
0.0
  0
POINT
  5
220B
330
2078
100
AcDbEntity
  8
DEFPOINTS
  6
CONTINUOUS
 62
     0
100
AcDbPoint
 10
336.7192468673798
 20
97.10089466702585
 30
0.0
  0
POINT
  5
220C
330
2078
100
AcDbEntity
  8
DEFPOINTS
  6
CONTINUOUS
 62
     0
100
AcDbPoint
 10
336.7192468673798
 20
162.8718408243334
 30
0.0
  0
ENDBLK
  5
2083
330
2078
100
AcDbEntity
  8
0
100
AcDbBlockEnd
  0
BLOCK
  5
2097
330
2096
100
AcDbEntity
  8
0
100
AcDbBlockBegin
  2
*D3
 70
     1
 10
0.0
 20
0.0
 30
0.0
  3
*D3
  1

  0
LINE
  5
2098
330
2096
100
AcDbEntity
  8
0
  6
BYBLOCK
100
AcDbLine
 10
275.7192468673798
 20
100.1008945776257
 30
0.0
 11
257.6890209031569
 21
100.1008945776257
 31
0.0
  0
LINE
  5
2099
330
2096
100
AcDbEntity
  8
0
  6
BYBLOCK
100
AcDbLine
 10
275.719246869228
 20
65.10089457762585
 30
0.0
 11
257.6890209031569
 21
65.10089457762585
 31
0.0
  0
LINE
  5
209A
330
2096
100
AcDbEntity
  8
0
  6
BYBLOCK
100
AcDbLine
 10
259.1890209031569
 20
97.10089457762586
 30
0.0
 11
259.1890209031569
 21
68.10089457762585
 31
0.0
  0
INSERT
  5
209B
330
2096
100
AcDbEntity
  8
0
  6
BYBLOCK
100
AcDbBlockReference
  2
_OPEN
 10
259.1890209031569
 20
100.1008945776257
 30
0.0
 41
3.0
 42
3.0
 43
3.0
 50
90.0
  0
INSERT
  5
209C
330
2096
100
AcDbEntity
  8
0
  6
BYBLOCK
100
AcDbBlockReference
  2
_OPEN
 10
259.1890209031569
 20
65.10089457762585
 30
0.0
 41
3.0
 42
3.0
 43
3.0
 50
270.0
  0
MTEXT
  5
209D
330
2096
100
AcDbEntity
  8
0
  6
BYBLOCK
100
AcDbMText
 10
256.6890209031569
 20
82.60089457762587
 30
0.0
 40
3.0
 41
0.0
 71
     5
 72
     5
  1
\A1;35
 11
0.0
 21
1.0
 31
0.0
1001
ACAD
1000
MTEXTBEGIN
1070
    73
1070
     1
1070
    44
1040
1.0
1070
    74
1070
     0
1000
MTEXTEND
1000
MTEXTBEGIN
1070
    73
1070
     1
1070
    44
1040
1.0
1070
    74
1070
     0
1000
MTEXTEND
1000
MTEXTBEGIN
1070
    73
1070
     1
1070
    44
1040
1.0
1070
    74
1070
     0
1000
MTEXTEND
1000
MTEXTBEGIN
1070
    73
1070
     1
1070
    44
1040
1.0
1070
    74
1070
     0
1000
MTEXTEND
  0
POINT
  5
209E
330
2096
100
AcDbEntity
  8
DEFPOINTS
  6
BYBLOCK
 62
     0
100
AcDbPoint
 10
278.7192468673798
 20
100.1008945776257
 30
0.0
  0
POINT
  5
209F
330
2096
100
AcDbEntity
  8
DEFPOINTS
  6
BYBLOCK
 62
     0
100
AcDbPoint
 10
278.719246869228
 20
65.10089457762585
 30
0.0
  0
POINT
  5
20A0
330
2096
100
AcDbEntity
  8
DEFPOINTS
  6
BYBLOCK
 62
     0
100
AcDbPoint
 10
259.1890209031569
 20
65.10089457762585
 30
0.0
  0
ENDBLK
  5
20A1
330
2096
100
AcDbEntity
  8
0
100
AcDbBlockEnd
  0
BLOCK
  5
20B7
330
20B6
100
AcDbEntity
  8
0
100
AcDbBlockBegin
  2
*D4
 70
     1
 10
0.0
 20
0.0
 30
0.0
  3
*D4
  1

  0
LINE
  5
20B8
330
20B6
100
AcDbEntity
  8
0
  6
BYBLOCK
100
AcDbLine
 10
275.7192468673798
 20
100.1008945776257
 30
0.0
 11
266.5410906412621
 21
100.1008945776257
 31
0.0
  0
LINE
  5
20B9
330
20B6
100
AcDbEntity
  8
0
  6
BYBLOCK
100
AcDbLine
 10
276.7192468673798
 20
92.10089457762585
 30
0.0
 11
266.5410906412621
 21
92.10089457762585
 31
0.0
  0
LINE
  5
20BA
330
20B6
100
AcDbEntity
  8
0
  6
BYBLOCK
100
AcDbLine
 10
268.0410906412621
 20
103.1008945776257
 30
0.0
 11
268.0410906412621
 21
106.1008945776257
 31
0.0
  0
LINE
  5
20BB
330
20B6
100
AcDbEntity
  8
0
  6
BYBLOCK
100
AcDbLine
 10
268.0410906412621
 20
89.10089457762586
 30
0.0
 11
268.0410906412621
 21
86.10089457762585
 31
0.0
  0
LINE
  5
20BC
330
20B6
100
AcDbEntity
  8
0
  6
BYBLOCK
100
AcDbLine
 10
268.0410906412621
 20
100.1008945776257
 30
0.0
 11
268.0410906412621
 21
92.10089457762585
 31
0.0
  0
INSERT
  5
20BD
330
20B6
100
AcDbEntity
  8
0
  6
BYBLOCK
100
AcDbBlockReference
  2
_OPEN
 10
268.0410906412621
 20
100.1008945776257
 30
0.0
 41
3.0
 42
3.0
 43
3.0
 50
270.0
  0
INSERT
  5
20BE
330
20B6
100
AcDbEntity
  8
0
  6
BYBLOCK
100
AcDbBlockReference
  2
_OPEN
 10
268.0410906412621
 20
92.10089457762585
 30
0.0
 41
3.0
 42
3.0
 43
3.0
 50
90.0
  0
MTEXT
  5
20BF
330
20B6
100
AcDbEntity
  8
0
  6
BYBLOCK
100
AcDbMText
 10
265.541090641262
 20
96.10089457762587
 30
0.0
 40
3.0
 41
0.0
 71
     5
 72
     5
  1
\A1;8
 11
0.0
 21
1.0
 31
0.0
1001
ACAD
1000
MTEXTBEGIN
1070
    73
1070
     1
1070
    44
1040
1.0
1070
    74
1070
     0
1000
MTEXTEND
1000
MTEXTBEGIN
1070
    73
1070
     1
1070
    44
1040
1.0
1070
    74
1070
     0
1000
MTEXTEND
1000
MTEXTBEGIN
1070
    73
1070
     1
1070
    44
1040
1.0
1070
    74
1070
     0
1000
MTEXTEND
1000
MTEXTBEGIN
1070
    73
1070
     1
1070
    44
1040
1.0
1070
    74
1070
     0
1000
MTEXTEND
  0
POINT
  5
20C0
330
20B6
100
AcDbEntity
  8
DEFPOINTS
  6
BYBLOCK
 62
     0
100
AcDbPoint
 10
278.7192468673798
 20
100.1008945776257
 30
0.0
  0
POINT
  5
20C1
330
20B6
100
AcDbEntity
  8
DEFPOINTS
  6
BYBLOCK
 62
     0
100
AcDbPoint
 10
279.7192468673798
 20
92.10089457762585
 30
0.0
  0
POINT
  5
20C2
330
20B6
100
AcDbEntity
  8
DEFPOINTS
  6
BYBLOCK
 62
     0
100
AcDbPoint
 10
268.0410906412621
 20
92.10089457762585
 30
0.0
  0
ENDBLK
  5
20C3
330
20B6
100
AcDbEntity
  8
0
100
AcDbBlockEnd
  0
BLOCK
  5
20C6
330
20C5
100
AcDbEntity
  8
0
100
AcDbBlockBegin
  2
*D5
 70
     1
 10
0.0
 20
0.0
 30
0.0
  3
*D5
  1

  0
LINE
  5
20C7
330
20C5
100
AcDbEntity
  8
0
  6
BYBLOCK
100
AcDbLine
 10
276.7192468673798
 20
73.10089457762585
 30
0.0
 11
266.5410906412621
 21
73.10089457762585
 31
0.0
  0
LINE
  5
20C8
330
20C5
100
AcDbEntity
  8
0
  6
BYBLOCK
100
AcDbLine
 10
275.719246869228
 20
65.10089457762585
 30
0.0
 11
266.5410906412621
 21
65.10089457762585
 31
0.0
  0
LINE
  5
20C9
330
20C5
100
AcDbEntity
  8
0
  6
BYBLOCK
100
AcDbLine
 10
268.0410906412621
 20
76.10089457762588
 30
0.0
 11
268.0410906412621
 21
79.10089457762587
 31
0.0
  0
LINE
  5
20CA
330
20C5
100
AcDbEntity
  8
0
  6
BYBLOCK
100
AcDbLine
 10
268.0410906412621
 20
62.10089457762586
 30
0.0
 11
268.0410906412621
 21
59.10089457762587
 31
0.0
  0
LINE
  5
20CB
330
20C5
100
AcDbEntity
  8
0
  6
BYBLOCK
100
AcDbLine
 10
268.0410906412621
 20
73.10089457762585
 30
0.0
 11
268.0410906412621
 21
65.10089457762585
 31
0.0
  0
INSERT
  5
20CC
330
20C5
100
AcDbEntity
  8
0
  6
BYBLOCK
100
AcDbBlockReference
  2
_OPEN
 10
268.0410906412621
 20
73.10089457762585
 30
0.0
 41
3.0
 42
3.0
 43
3.0
 50
270.0
  0
INSERT
  5
20CD
330
20C5
100
AcDbEntity
  8
0
  6
BYBLOCK
100
AcDbBlockReference
  2
_OPEN
 10
268.0410906412621
 20
65.10089457762585
 30
0.0
 41
3.0
 42
3.0
 43
3.0
 50
90.0
  0
MTEXT
  5
20CE
330
20C5
100
AcDbEntity
  8
0
  6
BYBLOCK
100
AcDbMText
 10
265.541090641262
 20
69.10089457762587
 30
0.0
 40
3.0
 41
0.0
 71
     5
 72
     5
  1
\A1;8
 11
0.0
 21
1.0
 31
0.0
1001
ACAD
1000
MTEXTBEGIN
1070
    73
1070
     1
1070
    44
1040
1.0
1070
    74
1070
     0
1000
MTEXTEND
1000
MTEXTBEGIN
1070
    73
1070
     1
1070
    44
1040
1.0
1070
    74
1070
     0
1000
MTEXTEND
1000
MTEXTBEGIN
1070
    73
1070
     1
1070
    44
1040
1.0
1070
    74
1070
     0
1000
MTEXTEND
1000
MTEXTBEGIN
1070
    73
1070
     1
1070
    44
1040
1.0
1070
    74
1070
     0
1000
MTEXTEND
  0
POINT
  5
20CF
330
20C5
100
AcDbEntity
  8
DEFPOINTS
  6
BYBLOCK
 62
     0
100
AcDbPoint
 10
279.7192468673798
 20
73.10089457762585
 30
0.0
  0
POINT
  5
20D0
330
20C5
100
AcDbEntity
  8
DEFPOINTS
  6
BYBLOCK
 62
     0
100
AcDbPoint
 10
278.719246869228
 20
65.10089457762585
 30
0.0
  0
POINT
  5
20D1
330
20C5
100
AcDbEntity
  8
DEFPOINTS
  6
BYBLOCK
 62
     0
100
AcDbPoint
 10
268.0410906412621
 20
65.10089457762585
 30
0.0
  0
ENDBLK
  5
20D2
330
20C5
100
AcDbEntity
  8
0
100
AcDbBlockEnd
  0
BLOCK
  5
20D7
330
20D6
100
AcDbEntity
  8
0
100
AcDbBlockBegin
  2
*D6
 70
     1
 10
0.0
 20
0.0
 30
0.0
  3
*D6
  1

  0
LINE
  5
20D8
330
20D6
100
AcDbEntity
  8
0
  6
BYBLOCK
100
AcDbLine
 10
224.1330674335798
 20
100.1008945776257
 30
0.0
 11
236.168175857216
 21
100.1008945776257
 31
0.0
  0
LINE
  5
20D9
330
20D6
100
AcDbEntity
  8
0
  6
BYBLOCK
100
AcDbLine
 10
224.1330674335798
 20
65.10089457762585
 30
0.0
 11
236.168175857216
 21
65.10089457762585
 31
0.0
  0
LINE
  5
20DA
330
20D6
100
AcDbEntity
  8
0
  6
BYBLOCK
100
AcDbLine
 10
234.6681758572159
 20
97.10089457762586
 30
0.0
 11
234.6681758572159
 21
68.10089457762585
 31
0.0
  0
INSERT
  5
20DB
330
20D6
100
AcDbEntity
  8
0
  6
BYBLOCK
100
AcDbBlockReference
  2
_OPEN
 10
234.6681758572159
 20
100.1008945776257
 30
0.0
 41
3.0
 42
3.0
 43
3.0
 50
90.0
  0
INSERT
  5
20DC
330
20D6
100
AcDbEntity
  8
0
  6
BYBLOCK
100
AcDbBlockReference
  2
_OPEN
 10
234.6681758572159
 20
65.10089457762585
 30
0.0
 41
3.0
 42
3.0
 43
3.0
 50
270.0
  0
MTEXT
  5
20DD
330
20D6
100
AcDbEntity
  8
0
  6
BYBLOCK
100
AcDbMText
 10
232.168175857216
 20
82.60089457762587
 30
0.0
 40
3.0
 41
0.0
 71
     5
 72
     5
  1
\A1;35
 11
0.0
 21
1.0
 31
0.0
1001
ACAD
1000
MTEXTBEGIN
1070
    73
1070
     1
1070
    44
1040
1.0
1070
    74
1070
     0
1000
MTEXTEND
1000
MTEXTBEGIN
1070
    73
1070
     1
1070
    44
1040
1.0
1070
    74
1070
     0
1000
MTEXTEND
1000
MTEXTBEGIN
1070
    73
1070
     1
1070
    44
1040
1.0
1070
    74
1070
     0
1000
MTEXTEND
1000
MTEXTBEGIN
1070
    73
1070
     1
1070
    44
1040
1.0
1070
    74
1070
     0
1000
MTEXTEND
  0
POINT
  5
20DE
330
20D6
100
AcDbEntity
  8
DEFPOINTS
  6
BYBLOCK
 62
     0
100
AcDbPoint
 10
221.1330674335798
 20
100.1008945776257
 30
0.0
  0
POINT
  5
20DF
330
20D6
100
AcDbEntity
  8
DEFPOINTS
  6
BYBLOCK
 62
     0
100
AcDbPoint
 10
221.1330674335798
 20
65.10089457762585
 30
0.0
  0
POINT
  5
20E0
330
20D6
100
AcDbEntity
  8
DEFPOINTS
  6
BYBLOCK
 62
     0
100
AcDbPoint
 10
234.6681758572159
 20
65.10089457762585
 30
0.0
  0
ENDBLK
  5
20E1
330
20D6
100
AcDbEntity
  8
0
100
AcDbBlockEnd
  0
BLOCK
  5
20E4
330
20E3
100
AcDbEntity
  8
0
100
AcDbBlockBegin
  2
*D7
 70
     1
 10
0.0
 20
0.0
 30
0.0
  3
*D7
  1

  0
LINE
  5
21FB
330
20E3
100
AcDbEntity
  8
SUNPOU
  6
CONTINUOUS
100
AcDbLine
 10
221.1330674335798
 20
103.1008945776257
 30
0.0
 11
221.1330674335798
 21
156.4263456587335
 31
0.0
  0
LINE
  5
21FC
330
20E3
100
AcDbEntity
  8
SUNPOU
  6
CONTINUOUS
100
AcDbLine
 10
210.1330674335799
 20
129.1811890325258
 30
0.0
 11
210.1330674335799
 21
156.4263456587335
 31
0.0
  0
LINE
  5
21FD
330
20E3
100
AcDbEntity
  8
SUNPOU
  6
CONTINUOUS
100
AcDbLine
 10
218.1330674335799
 20
154.9263456587335
 30
0.0
 11
213.1330674335798
 21
154.9263456587335
 31
0.0
  0
INSERT
  5
21FE
330
20E3
100
AcDbEntity
  8
SUNPOU
  6
CONTINUOUS
100
AcDbBlockReference
  2
_OPEN
 10
221.1330674335798
 20
154.9263456587335
 30
0.0
 41
3.0
 42
3.0
 43
3.0
  0
INSERT
  5
21FF
330
20E3
100
AcDbEntity
  8
SUNPOU
  6
CONTINUOUS
100
AcDbBlockReference
  2
_OPEN
 10
210.1330674335799
 20
154.9263456587335
 30
0.0
 41
3.0
 42
3.0
 43
3.0
 50
180.0
  0
MTEXT
  5
2200
330
20E3
100
AcDbEntity
  8
SUNPOU
  6
CONTINUOUS
100
AcDbMText
 10
215.6330674335798
 20
157.4263456587335
 30
0.0
 40
3.0
 41
0.0
 71
     5
 72
     5
  1
\A1;11
1001
ACAD
1000
MTEXTBEGIN
1070
    73
1070
     1
1070
    44
1040
1.0
1070
    74
1070
     0
1000
MTEXTEND
1000
MTEXTBEGIN
1070
    73
1070
     1
1070
    44
1040
1.0
1070
    74
1070
     0
1000
MTEXTEND
1000
MTEXTBEGIN
1070
    73
1070
     1
1070
    44
1040
1.0
1070
    74
1070
     0
1000
MTEXTEND
  0
POINT
  5
2201
330
20E3
100
AcDbEntity
  8
DEFPOINTS
  6
CONTINUOUS
 62
     0
100
AcDbPoint
 10
221.1330674335798
 20
100.1008945776257
 30
0.0
  0
POINT
  5
2202
330
20E3
100
AcDbEntity
  8
DEFPOINTS
  6
CONTINUOUS
 62
     0
100
AcDbPoint
 10
210.1330674335799
 20
126.1811890325257
 30
0.0
  0
POINT
  5
2203
330
20E3
100
AcDbEntity
  8
DEFPOINTS
  6
CONTINUOUS
 62
     0
100
AcDbPoint
 10
210.1330674335799
 20
154.9263456587335
 30
0.0
  0
ENDBLK
  5
20F0
330
20E3
100
AcDbEntity
  8
0
100
AcDbBlockEnd
  0
BLOCK
  5
20F3
330
20F2
100
AcDbEntity
  8
0
100
AcDbBlockBegin
  2
*D8
 70
     1
 10
0.0
 20
0.0
 30
0.0
  3
*D8
  1

  0
LINE
  5
21E9
330
20F2
100
AcDbEntity
  8
SUNPOU
  6
CONTINUOUS
100
AcDbLine
 10
221.1330674335798
 20
103.1008945776257
 30
0.0
 11
221.1330674335798
 21
166.6824076475544
 31
0.0
  0
LINE
  5
21EA
330
20F2
100
AcDbEntity
  8
SUNPOU
  6
CONTINUOUS
100
AcDbLine
 10
80.5157925602799
 20
158.5479989494258
 30
0.0
 11
80.5157925602799
 21
166.6824076475544
 31
0.0
  0
LINE
  5
21EB
330
20F2
100
AcDbEntity
  8
SUNPOU
  6
CONTINUOUS
100
AcDbLine
 10
218.1330674335799
 20
165.1824076475544
 30
0.0
 11
83.5157925602799
 21
165.1824076475544
 31
0.0
  0
INSERT
  5
21EC
330
20F2
100
AcDbEntity
  8
SUNPOU
  6
CONTINUOUS
100
AcDbBlockReference
  2
_OPEN
 10
221.1330674335798
 20
165.1824076475544
 30
0.0
 41
3.0
 42
3.0
 43
3.0
  0
INSERT
  5
21ED
330
20F2
100
AcDbEntity
  8
SUNPOU
  6
CONTINUOUS
100
AcDbBlockReference
  2
_OPEN
 10
80.5157925602799
 20
165.1824076475544
 30
0.0
 41
3.0
 42
3.0
 43
3.0
 50
180.0
  0
MTEXT
  5
21EE
330
20F2
100
AcDbEntity
  8
SUNPOU
  6
CONTINUOUS
100
AcDbMText
 10
150.8244299969298
 20
167.6824076475544
 30
0.0
 40
3.0
 41
0.0
 71
     5
 72
     5
  1
\A1;141
1001
ACAD
1000
MTEXTBEGIN
1070
    73
1070
     1
1070
    44
1040
1.0
1070
    74
1070
     0
1000
MTEXTEND
1000
MTEXTBEGIN
1070
    73
1070
     1
1070
    44
1040
1.0
1070
    74
1070
     0
1000
MTEXTEND
1000
MTEXTBEGIN
1070
    73
1070
     1
1070
    44
1040
1.0
1070
    74
1070
     0
1000
MTEXTEND
  0
POINT
  5
21EF
330
20F2
100
AcDbEntity
  8
DEFPOINTS
  6
CONTINUOUS
 62
     0
100
AcDbPoint
 10
221.1330674335798
 20
100.1008945776257
 30
0.0
  0
POINT
  5
21F0
330
20F2
100
AcDbEntity
  8
DEFPOINTS
  6
CONTINUOUS
 62
     0
100
AcDbPoint
 10
80.5157925602799
 20
155.5479989494258
 30
0.0
  0
POINT
  5
21F1
330
20F2
100
AcDbEntity
  8
DEFPOINTS
  6
CONTINUOUS
 62
     0
100
AcDbPoint
 10
80.5157925602799
 20
165.1824076475544
 30
0.0
  0
ENDBLK
  5
20FD
330
20F2
100
AcDbEntity
  8
0
100
AcDbBlockEnd
  0
BLOCK
  5
2100
330
20FF
100
AcDbEntity
  8
0
100
AcDbBlockBegin
  2
*D9
 70
     1
 10
0.0
 20
0.0
 30
0.0
  3
*D9
  1

  0
LINE
  5
2101
330
20FF
100
AcDbEntity
  8
0
  6
BYBLOCK
100
AcDbLine
 10
224.1330674335798
 20
241.1308053366258
 30
0.0
 11
235.8597703817066
 21
241.1308053366258
 31
0.0
  0
LINE
  5
2102
330
20FF
100
AcDbEntity
  8
0
  6
BYBLOCK
100
AcDbLine
 10
224.1330674335798
 20
180.1308053366258
 30
0.0
 11
235.8597703817066
 21
180.1308053366258
 31
0.0
  0
LINE
  5
2103
330
20FF
100
AcDbEntity
  8
0
  6
BYBLOCK
100
AcDbLine
 10
234.3597703817066
 20
238.1308053366258
 30
0.0
 11
234.3597703817066
 21
183.1308053366258
 31
0.0
  0
INSERT
  5
2104
330
20FF
100
AcDbEntity
  8
0
  6
BYBLOCK
100
AcDbBlockReference
  2
_OPEN
 10
234.3597703817066
 20
241.1308053366258
 30
0.0
 41
3.0
 42
3.0
 43
3.0
 50
90.0
  0
INSERT
  5
2105
330
20FF
100
AcDbEntity
  8
0
  6
BYBLOCK
100
AcDbBlockReference
  2
_OPEN
 10
234.3597703817066
 20
180.1308053366258
 30
0.0
 41
3.0
 42
3.0
 43
3.0
 50
270.0
  0
MTEXT
  5
2106
330
20FF
100
AcDbEntity
  8
0
  6
BYBLOCK
100
AcDbMText
 10
231.8597703817066
 20
210.6308053366258
 30
0.0
 40
3.0
 41
0.0
 71
     5
 72
     5
  1
\A1;61
 11
0.0
 21
1.0
 31
0.0
1001
ACAD
1000
MTEXTBEGIN
1070
    73
1070
     1
1070
    44
1040
1.0
1070
    74
1070
     0
1000
MTEXTEND
1000
MTEXTBEGIN
1070
    73
1070
     1
1070
    44
1040
1.0
1070
    74
1070
     0
1000
MTEXTEND
1000
MTEXTBEGIN
1070
    73
1070
     1
1070
    44
1040
1.0
1070
    74
1070
     0
1000
MTEXTEND
1000
MTEXTBEGIN
1070
    73
1070
     1
1070
    44
1040
1.0
1070
    74
1070
     0
1000
MTEXTEND
  0
POINT
  5
2107
330
20FF
100
AcDbEntity
  8
DEFPOINTS
  6
BYBLOCK
 62
     0
100
AcDbPoint
 10
221.1330674335798
 20
241.1308053366258
 30
0.0
  0
POINT
  5
2108
330
20FF
100
AcDbEntity
  8
DEFPOINTS
  6
BYBLOCK
 62
     0
100
AcDbPoint
 10
221.1330674335798
 20
180.1308053366258
 30
0.0
  0
POINT
  5
2109
330
20FF
100
AcDbEntity
  8
DEFPOINTS
  6
BYBLOCK
 62
     0
100
AcDbPoint
 10
234.3597703817066
 20
180.1308053366258
 30
0.0
  0
ENDBLK
  5
210A
330
20FF
100
AcDbEntity
  8
0
100
AcDbBlockEnd
  0
BLOCK
  5
210D
330
210C
100
AcDbEntity
  8
0
100
AcDbBlockBegin
  2
*D10
 70
     1
 10
0.0
 20
0.0
 30
0.0
  3
*D10
  1

  0
LINE
  5
22A0
330
210C
100
AcDbEntity
  8
SUNPOU
  6
CONTINUOUS
100
AcDbLine
 10
77.9157925602799
 20
220.6308053366258
 30
0.0
 11
57.41870928064669
 21
220.6308053366258
 31
0.0
  0
LINE
  5
22A1
330
210C
100
AcDbEntity
  8
SUNPOU
  6
CONTINUOUS
100
AcDbLine
 10
77.9157925602799
 20
200.6308053366258
 30
0.0
 11
57.41870928064668
 21
200.6308053366258
 31
0.0
  0
LINE
  5
22A2
330
210C
100
AcDbEntity
  8
SUNPOU
  6
CONTINUOUS
100
AcDbLine
 10
58.91870928064669
 20
217.6308053366258
 30
0.0
 11
58.91870928064668
 21
203.6308053366258
 31
0.0
  0
INSERT
  5
22A3
330
210C
100
AcDbEntity
  8
SUNPOU
  6
CONTINUOUS
100
AcDbBlockReference
  2
_OPEN
 10
58.91870928064669
 20
220.6308053366258
 30
0.0
 41
3.0
 42
3.0
 43
3.0
 50
90.0
  0
INSERT
  5
22A4
330
210C
100
AcDbEntity
  8
SUNPOU
  6
CONTINUOUS
100
AcDbBlockReference
  2
_OPEN
 10
58.91870928064668
 20
200.6308053366258
 30
0.0
 41
3.0
 42
3.0
 43
3.0
 50
270.0
  0
MTEXT
  5
22A5
330
210C
100
AcDbEntity
  8
SUNPOU
  6
CONTINUOUS
100
AcDbMText
 10
56.41870928064665
 20
210.6308053366258
 30
0.0
 40
3.0
 41
0.0
 71
     5
 72
     5
  1
\A1;20
 11
0.0000000000000001
 21
1.0
 31
0.0
1001
ACAD
1000
MTEXTBEGIN
1070
    73
1070
     1
1070
    44
1040
1.0
1070
    74
1070
     0
1000
MTEXTEND
1000
MTEXTBEGIN
1070
    73
1070
     1
1070
    44
1040
1.0
1070
    74
1070
     0
1000
MTEXTEND
  0
POINT
  5
22A6
330
210C
100
AcDbEntity
  8
DEFPOINTS
  6
CONTINUOUS
 62
     0
100
AcDbPoint
 10
80.91579256027989
 20
220.6308053366258
 30
0.0
  0
POINT
  5
22A7
330
210C
100
AcDbEntity
  8
DEFPOINTS
  6
CONTINUOUS
 62
     0
100
AcDbPoint
 10
80.91579256027989
 20
200.6308053366258
 30
0.0
  0
POINT
  5
22A8
330
210C
100
AcDbEntity
  8
DEFPOINTS
  6
CONTINUOUS
 62
     0
100
AcDbPoint
 10
58.91870928064668
 20
200.6308053366258
 30
0.0
  0
ENDBLK
  5
2117
330
210C
100
AcDbEntity
  8
0
100
AcDbBlockEnd
  0
BLOCK
  5
2295
330
228B
100
AcDbEntity
  8
0
100
AcDbBlockBegin
  2
*D11
 70
     1
 10
0.0
 20
0.0
 30
0.0
  3
*D11
  1

  0
LINE
  5
22E5
330
228B
100
AcDbEntity
  8
SUNPOU
  6
CONTINUOUS
100
AcDbLine
 10
77.9157925602799
 20
127.0085485861258
 30
0.0
 11
57.41870928064667
 21
127.0085485861258
 31
0.0
  0
LINE
  5
22E6
330
228B
100
AcDbEntity
  8
SUNPOU
  6
CONTINUOUS
100
AcDbLine
 10
211.5330674335798
 20
65.10089457762585
 30
0.0
 11
57.41870928064667
 21
65.10089457762589
 31
0.0
  0
LINE
  5
22E7
330
228B
100
AcDbEntity
  8
SUNPOU
  6
CONTINUOUS
100
AcDbLine
 10
58.91870928064666
 20
124.0085485861257
 30
0.0
 11
58.91870928064665
 21
68.1008945776259
 31
0.0
  0
INSERT
  5
22E8
330
228B
100
AcDbEntity
  8
SUNPOU
  6
CONTINUOUS
100
AcDbBlockReference
  2
_OPEN
 10
58.91870928064666
 20
127.0085485861258
 30
0.0
 41
3.0
 42
3.0
 43
3.0
 50
90.0
  0
INSERT
  5
22E9
330
228B
100
AcDbEntity
  8
SUNPOU
  6
CONTINUOUS
100
AcDbBlockReference
  2
_OPEN
 10
58.91870928064665
 20
65.10089457762589
 30
0.0
 41
3.0
 42
3.0
 43
3.0
 50
270.0
  0
MTEXT
  5
22EA
330
228B
100
AcDbEntity
  8
SUNPOU
  6
CONTINUOUS
100
AcDbMText
 10
56.41870928064665
 20
96.05472158187588
 30
0.0
 40
3.0
 41
0.0
 71
     5
 72
     5
  1
\A1;62
 11
0.0000000000000001
 21
1.0
 31
0.0
1001
ACAD
1000
MTEXTBEGIN
1070
    73
1070
     1
1070
    44
1040
1.0
1070
    74
1070
     0
1000
MTEXTEND
  0
POINT
  5
22EB
330
228B
100
AcDbEntity
  8
DEFPOINTS
  6
CONTINUOUS
 62
     0
100
AcDbPoint
 10
80.91579256027989
 20
127.0085485861258
 30
0.0
  0
POINT
  5
22EC
330
228B
100
AcDbEntity
  8
DEFPOINTS
  6
CONTINUOUS
 62
     0
100
AcDbPoint
 10
214.5330674335799
 20
65.10089457762585
 30
0.0
  0
POINT
  5
22ED
330
228B
100
AcDbEntity
  8
DEFPOINTS
  6
CONTINUOUS
 62
     0
100
AcDbPoint
 10
58.91870928064665
 20
65.10089457762589
 30
0.0
  0
ENDBLK
  5
2296
330
228B
100
AcDbEntity
  8
0
100
AcDbBlockEnd
  0
ENDSEC
  0
SECTION
  2
ENTITIES
  0
LINE
  5
1FC8
330
1A
100
AcDbEntity
  8
SEIHIN
  6
CONTINUOUS
 62
     3
100
AcDbLine
 10
80.5157925602799
 20
113.2547675140258
 30
0.0
 11
80.5157925602799
 21
155.5479989494258
 31
0.0
  0
LINE
  5
1FC9
330
1A
100
AcDbEntity
  8
SEIHIN
  6
CONTINUOUS
 62
     3
100
AcDbLine
 10
80.91579256027989
 20
127.0085485861258
 30
0.0
 11
80.91579256027989
 21
155.5479989494258
 31
0.0
  0
LINE
  5
1FCA
330
1A
100
AcDbEntity
  8
SEIHIN
  6
CONTINUOUS
 62
     3
100
AcDbLine
 10
80.5157925602799
 20
155.5479989494258
 30
0.0
 11
80.91579256027989
 21
155.5479989494258
 31
0.0
  0
ARC
  5
1FCB
330
1A
100
AcDbEntity
  8
SEIHIN
  6
CONTINUOUS
 62
     3
100
AcDbCircle
 10
333.7192468673798
 20
68.10089457762585
 30
0.0
 40
3.0
100
AcDbArc
 50
270.0000000353
 51
0.0000050269
  0
ARC
  5
1FCC
330
1A
100
AcDbEntity
  8
SEIHIN
  6
CONTINUOUS
 62
     3
100
AcDbCircle
 10
333.7192468673798
 20
97.10089457762586
 30
0.0
 40
3.0
100
AcDbArc
 50
0.0000017075
 51
90.0000000118
  0
LINE
  5
1FCD
330
1A
100
AcDbEntity
  8
SEIHIN
  6
CONTINUOUS
 62
     3
100
AcDbLine
 10
336.7192468673798
 20
97.10089466702585
 30
0.0
 11
336.7192468673798
 21
68.10089484082586
 31
0.0
  0
LINE
  5
1FCE
330
1A
100
AcDbEntity
  8
SEIHIN
  6
CONTINUOUS
 62
     3
100
AcDbLine
 10
321.2192468673798
 20
90.10089457762587
 30
0.0
 11
321.2192468673798
 21
94.10089457762586
 31
0.0
  0
LINE
  5
1FCF
330
1A
100
AcDbEntity
  8
SEIHIN
  6
CONTINUOUS
 62
     3
100
AcDbLine
 10
298.7192468673798
 20
130.0242592818257
 30
0.0
 11
313.7192468673798
 21
130.0242592818257
 31
0.0
  0
LINE
  5
1FD0
330
1A
100
AcDbEntity
  8
SEIHIN
  6
CONTINUOUS
 62
     3
100
AcDbLine
 10
296.2192468673798
 20
107.6409825601257
 30
0.0
 11
316.2192468673798
 21
107.6409825601257
 31
0.0
  0
LINE
  5
1FD1
330
1A
100
AcDbEntity
  8
SEIHIN
  6
CONTINUOUS
 62
     3
100
AcDbLine
 10
316.2192468673798
 20
100.1008945776257
 30
0.0
 11
333.7192468673798
 21
100.1008945776257
 31
0.0
  0
LINE
  5
1FD2
330
1A
100
AcDbEntity
  8
SEIHIN
  6
CONTINUOUS
 62
     3
100
AcDbLine
 10
316.7192468673798
 20
75.10089457762585
 30
0.0
 11
321.2192468673798
 21
75.10089457762585
 31
0.0
  0
LINE
  5
1FD3
330
1A
100
AcDbEntity
  8
SEIHIN
  6
CONTINUOUS
 62
     3
100
AcDbLine
 10
319.7192468673798
 20
71.10089457762588
 30
0.0
 11
319.7192468673798
 21
65.10089457762585
 31
0.0
  0
LINE
  5
1FD4
330
1A
100
AcDbEntity
  8
SEIHIN
  6
CONTINUOUS
 62
     3
100
AcDbLine
 10
316.7192468673798
 20
94.10089457762586
 30
0.0
 11
321.2192468673798
 21
94.10089457762586
 31
0.0
  0
LINE
  5
1FD5
330
1A
100
AcDbEntity
  8
SEIHIN
  6
CONTINUOUS
 62
     3
100
AcDbLine
 10
316.7192468673798
 20
71.10089457762588
 30
0.0
 11
321.2192468673798
 21
71.10089457762588
 31
0.0
  0
CIRCLE
  5
1FD6
330
1A
100
AcDbEntity
  8
SEIHIN
  6
CONTINUOUS
 62
     3
100
AcDbCircle
 10
327.7192468673798
 20
73.10089457762585
 30
0.0
 40
2.1
  0
LINE
  5
1FD7
330
1A
100
AcDbEntity
  8
SEIHIN
  6
CONTINUOUS
 62
     3
100
AcDbLine
 10
319.7192468673798
 20
90.10089457762587
 30
0.0
 11
319.7192468673798
 21
75.10089457762585
 31
0.0
  0
LINE
  5
1FD8
330
1A
100
AcDbEntity
  8
SEIHIN
  6
CONTINUOUS
 62
     3
100
AcDbLine
 10
316.7192468673798
 20
90.10089457762587
 30
0.0
 11
321.2192468673798
 21
90.10089457762587
 31
0.0
  0
CIRCLE
  5
1FD9
330
1A
100
AcDbEntity
  8
SEIHIN
  6
CONTINUOUS
 62
     3
100
AcDbCircle
 10
327.7192468673798
 20
92.10089457762586
 30
0.0
 40
2.1
  0
LINE
  5
1FDA
330
1A
100
AcDbEntity
  8
SEIHIN
  6
CONTINUOUS
 62
     3
100
AcDbLine
 10
321.2192468673798
 20
71.10089457762588
 30
0.0
 11
321.2192468673798
 21
75.10089457762585
 31
0.0
  0
LINE
  5
1FDB
330
1A
100
AcDbEntity
  8
SEIHIN
  6
CONTINUOUS
 62
     3
100
AcDbLine
 10
278.7192468673798
 20
65.10089457762585
 30
0.0
 11
333.7192468673798
 21
65.10089457762585
 31
0.0
  0
LINE
  5
1FDC
330
1A
100
AcDbEntity
  8
SEIHIN
  6
CONTINUOUS
 62
     3
100
AcDbLine
 10
319.7192468673798
 20
100.1008945776257
 30
0.0
 11
319.7192468673798
 21
94.10089457762586
 31
0.0
  0
LINE
  5
1FDD
330
1A
100
AcDbEntity
  8
SEIHIN
  6
CONTINUOUS
 62
     3
100
AcDbLine
 10
316.2192468673798
 20
107.6409825601257
 30
0.0
 11
316.2192468673798
 21
65.10089457762585
 31
0.0
  0
LINE
  5
1FDE
330
1A
100
AcDbEntity
  8
SEIHIN
  6
CONTINUOUS
 62
     3
100
AcDbLine
 10
313.7192468673798
 20
107.6409825601257
 30
0.0
 11
313.7192468673798
 21
130.0242592818257
 31
0.0
  0
LINE
  5
1FDF
330
1A
100
AcDbEntity
  8
SEIHIN
  6
CONTINUOUS
 62
     3
100
AcDbLine
 10
316.7192468673798
 20
100.1008945776257
 30
0.0
 11
316.7192468673798
 21
65.10089457762585
 31
0.0
  0
ARC
  5
1FE0
330
1A
100
AcDbEntity
  8
SEIHIN
  6
CONTINUOUS
 62
     3
100
AcDbCircle
 10
198.2241293826798
 20
126.1811890325257
 30
0.0
 40
2.0
100
AcDbArc
 50
90.0000000118
 51
135.0000000175999
  0
LINE
  5
1FE1
330
1A
100
AcDbEntity
  8
SEIHIN
  6
CONTINUOUS
 62
     3
100
AcDbLine
 10
216.1330674335799
 20
101.2926808739258
 30
0.0
 11
216.1330674335799
 21
100.1008945776257
 31
0.0
  0
ARC
  5
1FE2
330
1A
100
AcDbEntity
  8
SEIHIN
  6
CONTINUOUS
 62
     3
100
AcDbCircle
 10
205.2700636945798
 20
100.3611416437258
 30
0.0
 40
2.0
100
AcDbArc
 50
96.0000000125
 51
174.289288237
  0
LINE
  5
1FE3
330
1A
100
AcDbEntity
  8
SEIHIN
  6
CONTINUOUS
 62
     3
100
AcDbLine
 10
202.1238557301798
 20
107.0811890325257
 30
0.0
 11
208.1330674335799
 21
107.0811890325257
 31
0.0
  0
LINE
  5
1FE4
330
1A
100
AcDbEntity
  8
SEIHIN
  6
CONTINUOUS
 62
     3
100
AcDbLine
 10
197.5581434325799
 20
104.6417880121258
 30
0.0
 11
196.0535659427799
 21
92.38798770732586
 31
0.0
  0
LINE
  5
1FE5
330
1A
100
AcDbEntity
  8
SEIHIN
  6
CONTINUOUS
 62
     3
100
AcDbLine
 10
196.0535659427799
 20
92.38798770732586
 30
0.0
 11
197.6416397853799
 21
92.19299675782586
 31
0.0
  0
LINE
  5
1FE6
330
1A
100
AcDbEntity
  8
SEIHIN
  6
CONTINUOUS
 62
     3
100
AcDbLine
 10
198.8023232975797
 20
101.0079292108258
 30
0.0
 11
196.7653918985799
 21
80.6390412379258
 31
0.0
  0
LINE
  5
1FE7
330
1A
100
AcDbEntity
  8
SEIHIN
  6
CONTINUOUS
 62
     3
100
AcDbLine
 10
195.6785449703799
 20
128.7267734447258
 30
0.0
 11
191.5146769060799
 21
124.5629053804258
 31
0.0
  0
LINE
  5
1FE8
330
1A
100
AcDbEntity
  8
SEIHIN
  6
CONTINUOUS
 62
     3
100
AcDbLine
 10
128.3710127643799
 20
70.57443433622586
 30
0.0
 11
184.4641578679798
 21
70.57430921592582
 31
0.0
  0
ARC
  5
1FE9
330
1A
100
AcDbEntity
  8
SEIHIN
  6
CONTINUOUS
 62
     3
100
AcDbCircle
 10
202.1238557301798
 20
104.0811890325257
 30
0.0
 40
3.0
100
AcDbArc
 50
90.0000000118
 51
173.0000000225999
  0
ARC
  5
1FEA
330
1A
100
AcDbEntity
  8
SEIHIN
  6
CONTINUOUS
 62
     3
100
AcDbCircle
 10
205.2700636945798
 20
100.3611416437258
 30
0.0
 40
6.5
100
AcDbArc
 50
96.0000000125
 51
174.289288237
  0
LINE
  5
1FEB
330
1A
100
AcDbEntity
  8
SEIHIN
  6
CONTINUOUS
 62
     3
100
AcDbLine
 10
192.6460477559799
 20
123.4315345306258
 30
0.0
 11
191.5146769060799
 21
124.5629053804258
 31
0.0
  0
ARC
  5
1FEC
330
1A
100
AcDbEntity
  8
SEIHIN
  6
CONTINUOUS
 62
     3
100
AcDbCircle
 10
214.1330674335799
 20
101.2926808739258
 30
0.0
 40
6.5
100
AcDbArc
 50
0.0000041094
 51
96.0000003214
  0
LINE
  5
1FED
330
1A
100
AcDbEntity
  8
SEIHIN
  6
CONTINUOUS
 62
     3
100
AcDbLine
 10
204.5906286833798
 20
106.8255339636257
 30
0.0
 11
213.4536323860799
 21
107.7570731899258
 31
0.0
  0
LINE
  5
1FEE
330
1A
100
AcDbEntity
  8
SEIHIN
  6
CONTINUOUS
 62
     3
100
AcDbLine
 10
198.2241293826798
 20
129.7811890325258
 30
0.0
 11
208.1330674335799
 21
129.7811890325258
 31
0.0
  0
LINE
  5
1FEF
330
1A
100
AcDbEntity
  8
SEIHIN
  6
CONTINUOUS
 62
     3
100
AcDbLine
 10
196.7653918985799
 20
80.6390412379258
 30
0.0
 11
184.4641578679798
 21
70.57430921592582
 31
0.0
  0
LINE
  5
1FF0
330
1A
100
AcDbEntity
  8
SEIHIN
  6
CONTINUOUS
 62
     3
100
AcDbLine
 10
201.0575850734799
 20
78.33657148292582
 30
0.0
 11
186.0705700819798
 21
66.07436353512588
 31
0.0
  0
ARC
  5
1FF1
330
1A
100
AcDbEntity
  8
SEIHIN
  6
CONTINUOUS
 62
     3
100
AcDbCircle
 10
202.1238557301798
 20
104.0811890325257
 30
0.0
 40
4.599999999999998
100
AcDbArc
 50
90.0000000118
 51
173.0000000225999
  0
LINE
  5
1FF2
330
1A
100
AcDbEntity
  8
SEIHIN
  6
CONTINUOUS
 62
     3
100
AcDbLine
 10
198.2241293826798
 20
128.1811890325258
 30
0.0
 11
208.1330674335799
 21
128.1811890325258
 31
0.0
  0
LINE
  5
1FF3
330
1A
100
AcDbEntity
  8
SEIHIN
  6
CONTINUOUS
 62
     3
100
AcDbLine
 10
219.5330674335798
 20
100.1008945776257
 30
0.0
 11
219.5330674335798
 21
65.10089457762585
 31
0.0
  0
LINE
  5
1FF4
330
1A
100
AcDbEntity
  8
SEIHIN
  6
CONTINUOUS
 62
     3
100
AcDbLine
 10
292.7192468673798
 20
100.1008945776257
 30
0.0
 11
292.7192468673798
 21
94.10089457762586
 31
0.0
  0
ARC
  5
1FF5
330
1A
100
AcDbEntity
  8
SEIHIN
  6
CONTINUOUS
 62
     3
100
AcDbCircle
 10
278.7192468673798
 20
97.10089457762586
 30
0.0
 40
3.0
100
AcDbArc
 50
90.0000000118
 51
180.0000000234999
  0
ARC
  5
1FF6
330
1A
100
AcDbEntity
  8
SEIHIN
  6
CONTINUOUS
 62
     3
100
AcDbCircle
 10
88.52531437047991
 20
102.0744135351257
 30
0.0
 40
2.0
100
AcDbArc
 50
13.1630474015
 51
90.0000000118
  0
LINE
  5
1FF7
330
1A
100
AcDbEntity
  8
SEIHIN
  6
CONTINUOUS
 62
     3
100
AcDbLine
 10
275.7192468673798
 20
97.10089457762586
 30
0.0
 11
275.7192468673798
 21
68.10089457762585
 31
0.0
  0
CIRCLE
  5
1FF8
330
1A
100
AcDbEntity
  8
SEIHIN
  6
CONTINUOUS
 62
     3
100
AcDbCircle
 10
284.7192468673798
 20
73.10089457762585
 30
0.0
 40
2.1
  0
LINE
  5
1FF9
330
1A
100
AcDbEntity
  8
SEIHIN
  6
CONTINUOUS
 62
     3
100
AcDbLine
 10
85.4157925602799
 20
110.5744135351257
 30
0.0
 11
85.4157925602799
 21
127.0085485861258
 31
0.0
  0
LINE
  5
1FFA
330
1A
100
AcDbEntity
  8
SEIHIN
  6
CONTINUOUS
 62
     3
100
AcDbLine
 10
80.91579256027989
 20
110.5744135351257
 30
0.0
 11
80.91579256027989
 21
127.0085485861258
 31
0.0
  0
LINE
  5
1FFB
330
1A
100
AcDbEntity
  8
SEIHIN
  6
CONTINUOUS
 62
     3
100
AcDbLine
 10
127.9007712160799
 20
66.07436353512588
 30
0.0
 11
186.0705700819798
 21
66.07436353512588
 31
0.0
  0
CIRCLE
  5
1FFC
330
1A
100
AcDbEntity
  8
SEIHIN
  6
CONTINUOUS
 62
     3
100
AcDbCircle
 10
284.7192468673798
 20
92.10089457762586
 30
0.0
 40
2.1
  0
LINE
  5
1FFD
330
1A
100
AcDbEntity
  8
SEIHIN
  6
CONTINUOUS
 62
     3
100
AcDbLine
 10
291.2192468673798
 20
71.10089457762588
 30
0.0
 11
291.2192468673798
 21
75.10089457762585
 31
0.0
  0
LINE
  5
1FFE
330
1A
100
AcDbEntity
  8
SEIHIN
  6
CONTINUOUS
 62
     3
100
AcDbLine
 10
295.7192468673799
 20
75.10089457762585
 30
0.0
 11
291.2192468673798
 21
75.10089457762585
 31
0.0
  0
LINE
  5
1FFF
330
1A
100
AcDbEntity
  8
SEIHIN
  6
CONTINUOUS
 62
     3
100
AcDbLine
 10
211.7330674335799
 20
126.1811890325257
 30
0.0
 11
211.7330674335799
 21
110.6811890325257
 31
0.0
  0
ARC
  5
2000
330
1A
100
AcDbEntity
  8
SEIHIN
  6
CONTINUOUS
 62
     3
100
AcDbCircle
 10
208.1330674335799
 20
110.6811890325257
 30
0.0
 40
2.0
100
AcDbArc
 50
270.0000000353
 51
0.0
  0
LINE
  5
2001
330
1A
100
AcDbEntity
  8
SEIHIN
  6
CONTINUOUS
 62
     3
100
AcDbLine
 10
220.6330674335799
 20
101.2926813401257
 30
0.0
 11
220.6330674335799
 21
100.1008945776257
 31
0.0
  0
LINE
  5
2002
330
1A
100
AcDbEntity
  8
SEIHIN
  6
CONTINUOUS
 62
     3
100
AcDbLine
 10
221.1330674335798
 20
65.10089457762585
 30
0.0
 11
214.5330674335799
 21
65.10089457762585
 31
0.0
  0
LINE
  5
2003
330
1A
100
AcDbEntity
  8
SEIHIN
  6
CONTINUOUS
 62
     3
100
AcDbLine
 10
296.2192468673798
 20
107.6409825601257
 30
0.0
 11
296.2192468673798
 21
65.10089457762585
 31
0.0
  0
LINE
  5
2004
330
1A
100
AcDbEntity
  8
SEIHIN
  6
CONTINUOUS
 62
     3
100
AcDbLine
 10
87.41579256027987
 20
104.0744135351257
 30
0.0
 11
88.52531437047991
 21
104.0744135351257
 31
0.0
  0
ARC
  5
2005
330
1A
100
AcDbEntity
  8
SEIHIN
  6
CONTINUOUS
 62
     3
100
AcDbCircle
 10
87.41579256027987
 20
110.5744135351257
 30
0.0
 40
6.5
100
AcDbArc
 50
180.0000000234999
 51
270.0000000353
  0
ARC
  5
2006
330
1A
100
AcDbEntity
  8
SEIHIN
  6
CONTINUOUS
 62
     3
100
AcDbCircle
 10
87.41579256027987
 20
110.5744135351257
 30
0.0
 40
2.0
100
AcDbArc
 50
180.0000000234999
 51
270.0000000353
  0
LINE
  5
2007
330
1A
100
AcDbEntity
  8
SEIHIN
  6
CONTINUOUS
 62
     3
100
AcDbLine
 10
295.7192468673799
 20
94.10089457762586
 30
0.0
 11
291.2192468673798
 21
94.10089457762586
 31
0.0
  0
LINE
  5
2008
330
1A
100
AcDbEntity
  8
SEIHIN
  6
CONTINUOUS
 62
     3
100
AcDbLine
 10
85.4157925602799
 20
127.0085485861258
 30
0.0
 11
80.91579256027989
 21
127.0085485861258
 31
0.0
  0
ARC
  5
2009
330
1A
100
AcDbEntity
  8
SEIHIN
  6
CONTINUOUS
 62
     3
100
AcDbCircle
 10
198.2241293826798
 20
126.1811890325257
 30
0.0
 40
3.6
100
AcDbArc
 50
90.00000001169999
 51
135.0000000175999
  0
LINE
  5
200A
330
1A
100
AcDbEntity
  8
SEIHIN
  6
CONTINUOUS
 62
     3
100
AcDbLine
 10
278.7192468673798
 20
100.1008945776257
 30
0.0
 11
296.2192468673798
 21
100.1008945776257
 31
0.0
  0
LINE
  5
200B
330
1A
100
AcDbEntity
  8
SEIHIN
  6
CONTINUOUS
 62
     3
100
AcDbLine
 10
295.7192468673799
 20
100.1008945776257
 30
0.0
 11
295.7192468673799
 21
65.10089457762585
 31
0.0
  0
LINE
  5
200C
330
1A
100
AcDbEntity
  8
SEIHIN
  6
CONTINUOUS
 62
     3
100
AcDbLine
 10
203.2799897262798
 20
100.5601532028257
 30
0.0
 11
201.0575850734799
 21
78.33657148292582
 31
0.0
  0
LINE
  5
200D
330
1A
100
AcDbEntity
  8
SEIHIN
  6
CONTINUOUS
 62
     3
100
AcDbLine
 10
202.1238557301798
 20
108.6811890325257
 30
0.0
 11
208.1330674335799
 21
108.6811890325257
 31
0.0
  0
ARC
  5
200E
330
1A
100
AcDbEntity
  8
SEIHIN
  6
CONTINUOUS
 62
     3
100
AcDbCircle
 10
208.1330674335799
 20
110.6811890325257
 30
0.0
 40
3.6
100
AcDbArc
 50
270.0000000353
 51
0.0
  0
LINE
  5
200F
330
1A
100
AcDbEntity
  8
SEIHIN
  6
CONTINUOUS
 62
     3
100
AcDbLine
 10
298.7192468673798
 20
107.6409825601257
 30
0.0
 11
298.7192468673798
 21
130.0242592818257
 31
0.0
  0
ARC
  5
2010
330
1A
100
AcDbEntity
  8
SEIHIN
  6
CONTINUOUS
 62
     3
100
AcDbCircle
 10
88.52531437047991
 20
102.0744135351257
 30
0.0
 40
6.5
100
AcDbArc
 50
13.1630502727
 51
90.0000000118
  0
LINE
  5
2011
330
1A
100
AcDbEntity
  8
SEIHIN
  6
CONTINUOUS
 62
     3
100
AcDbLine
 10
87.41579256027987
 20
108.5744135351257
 30
0.0
 11
88.52531437047991
 21
108.5744135351257
 31
0.0
  0
ARC
  5
2012
330
1A
100
AcDbEntity
  8
SEIHIN
  6
CONTINUOUS
 62
     3
100
AcDbCircle
 10
137.6984892645799
 20
113.5744280115257
 30
0.0
 40
48.5000144765
100
AcDbArc
 50
193.1630520442998
 51
258.3451994240999
  0
LINE
  5
2013
330
1A
100
AcDbEntity
  8
SEIHIN
  6
CONTINUOUS
 62
     3
100
AcDbLine
 10
205.0610067680799
 20
102.3501854345258
 30
0.0
 11
213.9240105070798
 21
103.2817246646257
 31
0.0
  0
ARC
  5
2014
330
1A
100
AcDbEntity
  8
SEIHIN
  6
CONTINUOUS
 62
     3
100
AcDbCircle
 10
214.1330674335799
 20
101.2926808739258
 30
0.0
 40
2.0
100
AcDbArc
 50
0.0
 51
96.00000085959996
  0
LINE
  5
2015
330
1A
100
AcDbEntity
  8
SEIHIN
  6
CONTINUOUS
 62
     3
100
AcDbLine
 10
214.5330674335799
 20
100.1008945776257
 30
0.0
 11
214.5330674335799
 21
65.10089457762585
 31
0.0
  0
LINE
  5
2016
330
1A
100
AcDbEntity
  8
SEIHIN
  6
CONTINUOUS
 62
     3
100
AcDbLine
 10
295.7192468673799
 20
90.10089457762587
 30
0.0
 11
291.2192468673798
 21
90.10089457762587
 31
0.0
  0
LINE
  5
2017
330
1A
100
AcDbEntity
  8
SEIHIN
  6
CONTINUOUS
 62
     3
100
AcDbLine
 10
199.1462172751798
 20
104.4467970627257
 30
0.0
 11
197.6416397853799
 21
92.19299675782586
 31
0.0
  0
LINE
  5
2018
330
1A
100
AcDbEntity
  8
SEIHIN
  6
CONTINUOUS
 62
     3
100
AcDbLine
 10
292.7192468673798
 20
71.10089457762588
 30
0.0
 11
292.7192468673798
 21
65.10089457762585
 31
0.0
  0
LINE
  5
2019
330
1A
100
AcDbEntity
  8
SEIHIN
  6
CONTINUOUS
 62
     3
100
AcDbLine
 10
292.7192468673798
 20
90.10089457762587
 30
0.0
 11
292.7192468673798
 21
75.10089457762585
 31
0.0
  0
LINE
  5
201A
330
1A
100
AcDbEntity
  8
SEIHIN
  6
CONTINUOUS
 62
     3
100
AcDbLine
 10
210.1330674335799
 20
126.1811890325257
 30
0.0
 11
210.1330674335799
 21
110.6811890325257
 31
0.0
  0
ARC
  5
201B
330
1A
100
AcDbEntity
  8
SEIHIN
  6
CONTINUOUS
 62
     3
100
AcDbCircle
 10
208.1330674335799
 20
126.1811890325257
 30
0.0
 40
3.6
100
AcDbArc
 50
0.0
 51
90.0000000118
  0
ARC
  5
201C
330
1A
100
AcDbEntity
  8
SEIHIN
  6
CONTINUOUS
 62
     3
100
AcDbCircle
 10
208.1330674335799
 20
126.1811890325257
 30
0.0
 40
2.0
100
AcDbArc
 50
0.0
 51
90.0000000118
  0
LINE
  5
201D
330
1A
100
AcDbEntity
  8
SEIHIN
  6
CONTINUOUS
 62
     3
100
AcDbLine
 10
295.7192468673799
 20
71.10089457762588
 30
0.0
 11
291.2192468673798
 21
71.10089457762588
 31
0.0
  0
ARC
  5
201E
330
1A
100
AcDbEntity
  8
SEIHIN
  6
CONTINUOUS
 62
     3
100
AcDbCircle
 10
278.7192468673798
 20
68.10089457762585
 30
0.0
 40
3.0
100
AcDbArc
 50
180.0000000234999
 51
270.0000000353
  0
LINE
  5
201F
330
1A
100
AcDbEntity
  8
SEIHIN
  6
CONTINUOUS
 62
     3
100
AcDbLine
 10
80.91579256027989
 20
113.2547675140258
 30
0.0
 11
80.5157925602799
 21
113.2547675140258
 31
0.0
  0
ARC
  5
2020
330
1A
100
AcDbEntity
  8
SEIHIN
  6
CONTINUOUS
 62
     3
100
AcDbCircle
 10
137.6984892645799
 20
113.5744280115257
 30
0.0
 40
44.0000144765
100
AcDbArc
 50
193.1630520925999
 51
257.7611184768
  0
LINE
  5
2021
330
1A
100
AcDbEntity
  8
SEIHIN
  6
CONTINUOUS
 62
     3
100
AcDbLine
 10
291.2192468673798
 20
90.10089457762587
 30
0.0
 11
291.2192468673798
 21
94.10089457762586
 31
0.0
  0
LINE
  5
2022
330
1A
100
AcDbEntity
  8
SEIHIN
  6
CONTINUOUS
 62
     3
100
AcDbLine
 10
196.8099158202799
 20
127.5954025948258
 30
0.0
 11
192.6460477559799
 21
123.4315345306258
 31
0.0
  0
LINE
  5
2023
330
1A
100
AcDbEntity
  8
SEIHIN
  6
CONTINUOUS
 62
     3
100
AcDbLine
 10
221.1330674335798
 20
100.1008945776257
 30
0.0
 11
221.1330674335798
 21
65.10089457762585
 31
0.0
  0
LINE
  5
2024
330
1A
100
AcDbEntity
  8
SEIHIN
  6
CONTINUOUS
 62
     3
100
AcDbLine
 10
221.1330674335798
 20
100.1008945776257
 30
0.0
 11
214.5330674335799
 21
100.1008945776257
 31
0.0
  0
LINE
  5
2025
330
1A
100
AcDbEntity
  8
SEIHIN
  6
CONTINUOUS
 62
     3
100
AcDbLine
 10
92.56441728027994
 20
218.9766646498258
 30
0.0
 11
92.56441728027994
 21
202.3912765220257
 31
0.0
  0
LINE
  5
2026
330
1A
100
AcDbEntity
  8
SEIHIN
  6
CONTINUOUS
 62
     3
100
AcDbLine
 10
184.4641578679798
 20
218.9766646498258
 30
0.0
 11
184.4641578679798
 21
202.3912765220257
 31
0.0
  0
LINE
  5
2027
330
1A
100
AcDbEntity
  8
SEIHIN
  6
CONTINUOUS
 62
     3
100
AcDbLine
 10
214.5330674335799
 20
200.3198049763258
 30
0.0
 11
214.5330674335799
 21
200.6308053366258
 31
0.0
  0
LINE
  5
2028
330
1A
100
AcDbEntity
  8
SEIHIN
  6
CONTINUOUS
 62
     3
100
AcDbLine
 10
216.1330674335799
 20
200.3198051323258
 30
0.0
 11
216.1330674335799
 21
200.6308053366258
 31
0.0
  0
LINE
  5
2029
330
1A
100
AcDbEntity
  8
SEIHIN
  6
CONTINUOUS
 62
     3
100
AcDbLine
 10
216.1330674335799
 20
220.9418055406258
 30
0.0
 11
216.1330674335799
 21
220.6308053366258
 31
0.0
  0
LINE
  5
202A
330
1A
100
AcDbEntity
  8
SEIHIN
  6
CONTINUOUS
 62
     3
100
AcDbLine
 10
214.5330674335799
 20
220.9418053846258
 30
0.0
 11
214.5330674335799
 21
220.6308053366258
 31
0.0
  0
ARC
  5
202B
330
1A
100
AcDbEntity
  8
SEIHIN
  6
CONTINUOUS
 62
     3
100
AcDbCircle
 10
216.6330674335799
 20
220.9418055407258
 30
0.0
 40
0.5
100
AcDbArc
 50
120.9637695122999
 51
180.0000000118
  0
LINE
  5
202C
330
1A
100
AcDbEntity
  8
SEIHIN
  6
CONTINUOUS
 62
     3
100
AcDbLine
 10
216.3758194587798
 20
221.3705519453258
 30
0.0
 11
220.1135083137799
 21
222.6131652583258
 31
0.0
  0
ARC
  5
202D
330
1A
100
AcDbEntity
  8
SEIHIN
  6
CONTINUOUS
 62
     3
100
AcDbCircle
 10
216.6330674335799
 20
220.9418055407258
 30
0.0
 40
2.1
100
AcDbArc
 50
120.9637641725
 51
180.0000042601998
  0
LINE
  5
202E
330
1A
100
AcDbEntity
  8
SEIHIN
  6
CONTINUOUS
 62
     3
100
AcDbLine
 10
216.1330674335799
 20
222.9355111678258
 30
0.0
 11
219.5330674335798
 21
225.6308053366258
 31
0.0
  0
LINE
  5
202F
330
1A
100
AcDbEntity
  8
SEIHIN
  6
CONTINUOUS
 62
     3
100
AcDbLine
 10
215.5526261071799
 20
222.7425405407259
 30
0.0
 11
219.2903152354798
 21
223.9851540177258
 31
0.0
  0
ARC
  5
2030
330
1A
100
AcDbEntity
  8
SEIHIN
  6
CONTINUOUS
 62
     3
100
AcDbCircle
 10
219.0330674335799
 20
224.4139005261257
 30
0.0
 40
2.1
100
AcDbArc
 50
300.963749999
 51
359.9999957868
  0
LINE
  5
2031
330
1A
100
AcDbEntity
  8
SEIHIN
  6
CONTINUOUS
 62
     3
100
AcDbLine
 10
219.5330674335798
 20
180.1308053366258
 30
0.0
 11
219.5330674335798
 21
196.8477101471258
 31
0.0
  0
LINE
  5
2032
330
1A
100
AcDbEntity
  8
SEIHIN
  6
CONTINUOUS
 62
     3
100
AcDbLine
 10
219.5330674335798
 20
180.1308053366258
 30
0.0
 11
221.1330674335798
 21
180.1308053366258
 31
0.0
  0
LINE
  5
2033
330
1A
100
AcDbEntity
  8
SEIHIN
  6
CONTINUOUS
 62
     3
100
AcDbLine
 10
221.1330674335798
 20
180.1308053366258
 30
0.0
 11
221.1330674335798
 21
196.8477099914258
 31
0.0
  0
LINE
  5
2034
330
1A
100
AcDbEntity
  8
SEIHIN
  6
CONTINUOUS
 62
     3
100
AcDbLine
 10
220.1135085199799
 20
198.6484452911257
 30
0.0
 11
216.3758195558799
 21
199.8910586695257
 31
0.0
  0
LINE
  5
2035
330
1A
100
AcDbEntity
  8
SEIHIN
  6
CONTINUOUS
 62
     3
100
AcDbLine
 10
215.5526263471799
 20
198.5190699884258
 30
0.0
 11
219.2903152679798
 21
197.2764566359258
 31
0.0
  0
ARC
  5
2036
330
1A
100
AcDbEntity
  8
SEIHIN
  6
CONTINUOUS
 62
     3
100
AcDbCircle
 10
216.6330674335799
 20
200.3198051324257
 30
0.0
 40
2.1
100
AcDbArc
 50
180.0000042601998
 51
239.0362434874
  0
ARC
  5
2037
330
1A
100
AcDbEntity
  8
SEIHIN
  6
CONTINUOUS
 62
     3
100
AcDbCircle
 10
219.0330674335799
 20
196.8477101471258
 30
0.0
 40
0.5
100
AcDbArc
 50
0.0000000352
 51
59.03624930149998
  0
ARC
  5
2038
330
1A
100
AcDbEntity
  8
SEIHIN
  6
CONTINUOUS
 62
     3
100
AcDbCircle
 10
219.0330674335799
 20
196.8477101471258
 30
0.0
 40
2.1
100
AcDbArc
 50
359.9999957868
 51
59.0362435109
  0
ARC
  5
2039
330
1A
100
AcDbEntity
  8
SEIHIN
  6
CONTINUOUS
 62
     3
100
AcDbCircle
 10
216.6330674335799
 20
200.3198051324257
 30
0.0
 40
0.5
100
AcDbArc
 50
180.0000000118
 51
239.0362434874
  0
LINE
  5
203A
330
1A
100
AcDbEntity
  8
SEIHIN
  6
CONTINUOUS
 62
     3
100
AcDbLine
 10
216.1330674335799
 20
198.3260995054257
 30
0.0
 11
219.5330674335798
 21
195.6308053366258
 31
0.0
  0
LINE
  5
203B
330
1A
100
AcDbEntity
  8
SEIHIN
  6
CONTINUOUS
 62
     3
100
AcDbLine
 10
219.5330674335798
 20
241.1308053366258
 30
0.0
 11
221.1330674335798
 21
241.1308053366258
 31
0.0
  0
LINE
  5
203C
330
1A
100
AcDbEntity
  8
SEIHIN
  6
CONTINUOUS
 62
     3
100
AcDbLine
 10
219.5330674335798
 20
224.4139005261257
 30
0.0
 11
219.5330674335798
 21
241.1308053366258
 31
0.0
  0
LINE
  5
203D
330
1A
100
AcDbEntity
  8
SEIHIN
  6
CONTINUOUS
 62
     3
100
AcDbLine
 10
221.1330674335798
 20
224.4139003703258
 30
0.0
 11
221.1330674335798
 21
241.1308053366258
 31
0.0
  0
ARC
  5
203E
330
1A
100
AcDbEntity
  8
SEIHIN
  6
CONTINUOUS
 62
     3
100
AcDbCircle
 10
219.0330674335799
 20
224.4139005261257
 30
0.0
 40
0.5
100
AcDbArc
 50
300.9637464215998
 51
0.0000000353
  0
LINE
  5
203F
330
1A
100
AcDbEntity
  8
SEIHIN
  6
CONTINUOUS
 62
     3
100
AcDbLine
 10
80.5157925602799
 20
203.1308053366258
 30
0.0
 11
80.91579256027989
 21
203.1308053366258
 31
0.0
  0
LINE
  5
2040
330
1A
100
AcDbEntity
  8
SEIHIN
  6
CONTINUOUS
 62
     3
100
AcDbLine
 10
80.5157925602799
 20
218.1308053366258
 30
0.0
 11
80.91579256027989
 21
218.1308053366258
 31
0.0
  0
LINE
  5
2041
330
1A
100
AcDbEntity
  8
SEIHIN
  6
CONTINUOUS
 62
     3
100
AcDbLine
 10
191.5146769060799
 20
203.1308053366258
 30
0.0
 11
211.7330674335799
 21
203.1308053366258
 31
0.0
  0
LINE
  5
2042
330
1A
100
AcDbEntity
  8
SEIHIN
  6
CONTINUOUS
 62
     3
100
AcDbLine
 10
191.5146769060799
 20
203.1308053366258
 30
0.0
 11
191.5146769060799
 21
218.1308053366258
 31
0.0
  0
LINE
  5
2043
330
1A
100
AcDbEntity
  8
SEIHIN
  6
CONTINUOUS
 62
     3
100
AcDbLine
 10
191.5146769060799
 20
218.1308053366258
 30
0.0
 11
211.7330674335799
 21
218.1308053366258
 31
0.0
  0
LINE
  5
2044
330
1A
100
AcDbEntity
  8
SEIHIN
  6
CONTINUOUS
 62
     3
100
AcDbLine
 10
211.7330674335799
 20
203.1308053366258
 30
0.0
 11
211.7330674335799
 21
218.1308053366258
 31
0.0
  0
LINE
  5
2045
330
1A
100
AcDbEntity
  8
SEIHIN
  6
CONTINUOUS
 62
     3
100
AcDbLine
 10
85.4157925602799
 20
200.6308053366258
 30
0.0
 11
220.6330674335799
 21
200.6308053366258
 31
0.0
  0
LINE
  5
2046
330
1A
100
AcDbEntity
  8
SEIHIN
  6
CONTINUOUS
 62
     3
100
AcDbLine
 10
85.4157925602799
 20
220.6308053366258
 30
0.0
 11
220.6330674335799
 21
220.6308053366258
 31
0.0
  0
LINE
  5
2047
330
1A
100
AcDbEntity
  8
SEIHIN
  6
CONTINUOUS
 62
     3
100
AcDbLine
 10
85.4157925602799
 20
200.6308053366258
 30
0.0
 11
85.4157925602799
 21
220.6308053366258
 31
0.0
  0
LINE
  5
2048
330
1A
100
AcDbEntity
  8
SEIHIN
  6
CONTINUOUS
 62
     3
100
AcDbLine
 10
80.91579256027989
 20
200.6308053366258
 30
0.0
 11
85.4157925602799
 21
200.6308053366258
 31
0.0
  0
LINE
  5
2049
330
1A
100
AcDbEntity
  8
SEIHIN
  6
CONTINUOUS
 62
     3
100
AcDbLine
 10
80.91579256027989
 20
220.6308053366258
 30
0.0
 11
85.4157925602799
 21
220.6308053366258
 31
0.0
  0
LINE
  5
204A
330
1A
100
AcDbEntity
  8
SEIHIN
  6
CONTINUOUS
 62
     3
100
AcDbLine
 10
80.91579256027989
 20
200.6308053366258
 30
0.0
 11
80.91579256027989
 21
220.6308053366258
 31
0.0
  0
LINE
  5
204B
330
1A
100
AcDbEntity
  8
SEIHIN
  6
CONTINUOUS
 62
     3
100
AcDbLine
 10
80.5157925602799
 20
203.1308053366258
 30
0.0
 11
80.5157925602799
 21
218.1308053366258
 31
0.0
  0
LINE
  5
204D
330
1A
100
AcDbEntity
  8
SEIHIN
  6
CONTINUOUS
 62
     3
100
AcDbLine
 10
220.6330674335799
 20
200.6308053366258
 30
0.0
 11
220.6330674335799
 21
220.6308053366258
 31
0.0
  0
LINE
  5
2053
330
1A
100
AcDbEntity
  8
CENTER_L
  6
CENTER
 62
     1
100
AcDbLine
 10
209.5330674335798
 20
232.1308053366258
 30
0.0
 11
231.1330674335799
 21
232.1308053366256
 31
0.0
  0
LINE
  5
2055
330
1A
100
AcDbEntity
  8
CENTER_L
  6
CENTER
 62
     1
100
AcDbLine
 10
209.5330674335798
 20
189.1308053366258
 30
0.0
 11
231.1330674335799
 21
189.1308053366256
 31
0.0
  0
LINE
  5
205A
330
1A
100
AcDbEntity
  8
CENTER_L
  6
CENTER
100
AcDbLine
 10
322.7192468673798
 20
92.10089457762586
 30
0.0
 11
332.7192468673798
 21
92.10089457762586
 31
0.0
  0
LINE
  5
205B
330
1A
100
AcDbEntity
  8
CENTER_L
  6
CENTER
100
AcDbLine
 10
327.7192468673798
 20
87.10089457762586
 30
0.0
 11
327.7192468673798
 21
97.10089457762586
 31
0.0
  0
LINE
  5
205E
330
1A
100
AcDbEntity
  8
CENTER_L
  6
CENTER
100
AcDbLine
 10
204.5330674335798
 20
92.10089457762586
 30
0.0
 11
231.1330674335799
 21
92.10089457762586
 31
0.0
  0
LINE
  5
205F
330
1A
100
AcDbEntity
  8
CENTER_L
  6
CENTER
100
AcDbLine
 10
284.7192468673798
 20
87.10089457762586
 30
0.0
 11
284.7192468673798
 21
97.10089457762586
 31
0.0
  0
LINE
  5
2060
330
1A
100
AcDbEntity
  8
CENTER_L
  6
CENTER
100
AcDbLine
 10
284.7192468673798
 20
68.10089457762585
 30
0.0
 11
284.7192468673798
 21
78.10089457762585
 31
0.0
  0
LINE
  5
2061
330
1A
100
AcDbEntity
  8
CENTER_L
  6
CENTER
100
AcDbLine
 10
204.5330674335798
 20
73.10089457762585
 30
0.0
 11
231.1330674335799
 21
73.10089457762585
 31
0.0
  0
LINE
  5
2062
330
1A
100
AcDbEntity
  8
CENTER_L
  6
CENTER
100
AcDbLine
 10
322.7192468673798
 20
73.10089457762585
 30
0.0
 11
332.7192468673798
 21
73.10089457762585
 31
0.0
  0
LINE
  5
2063
330
1A
100
AcDbEntity
  8
CENTER_L
  6
CENTER
100
AcDbLine
 10
327.7192468673798
 20
68.10089457762585
 30
0.0
 11
327.7192468673798
 21
78.10089457762585
 31
0.0
  0
LINE
  5
2068
330
1A
100
AcDbEntity
  8
CENTER_L
  6
CENTER
100
AcDbLine
 10
279.7192468673798
 20
73.10089457762585
 30
0.0
 11
289.7192468673797
 21
73.10089457762585
 31
0.0
  0
LINE
  5
2069
330
1A
100
AcDbEntity
  8
CENTER_L
  6
CENTER
100
AcDbLine
 10
279.7192468673798
 20
92.10089457762585
 30
0.0
 11
289.7192468673797
 21
92.10089457762586
 31
0.0
  0
DIMENSION
  5
2077
330
1A
100
AcDbEntity
  8
SUNPOU
  6
CONTINUOUS
100
AcDbDimension
  2
*D1
 10
327.7192468673798
 20
153.9072609479971
 30
0.0
 11
306.2192468673798
 21
156.4072609479971
 31
0.0
 70
    32
  3
STANDARD
100
AcDbAlignedDimension
 13
284.7192468673798
 23
97.10089457762586
 33
0.0
 14
327.7192468673798
 24
97.10089457762586
 34
0.0
100
AcDbRotatedDimension
1001
ACAD
1000
DSTYLE
1002
{
1070
   140
1040
3.0
1070
    74
1070
     0
1070
   172
1070
     1
1070
    73
1070
     0
1070
   272
1070
     0
1070
    77
1070
     3
1070
   173
1070
     1
1070
   147
1040
1.0
1070
    42
1040
3.0
1070
    44
1040
1.5
1070
    43
1040
7.0
1070
   271
1070
     0
1070
   178
1070
   256
1070
   177
1070
   256
1070
   176
1070
   256
1070
   141
1040
3.0
1070
     7
1000
OPEN
1070
     6
1000
OPEN
1070
    41
1040
3.0
1002
}
  0
DIMENSION
  5
2084
330
1A
100
AcDbEntity
  8
SUNPOU
  6
CONTINUOUS
100
AcDbDimension
  2
*D2
 10
336.7192468673798
 20
162.8718408243334
 30
0.0
 11
306.2192468673798
 21
165.3718408243334
 31
0.0
 70
    32
  3
STANDARD
100
AcDbAlignedDimension
 13
275.7192468673798
 23
97.10089457762586
 33
0.0
 14
336.7192468673798
 24
97.10089466702585
 34
0.0
100
AcDbRotatedDimension
1001
ACAD
1000
DSTYLE
1002
{
1070
   140
1040
3.0
1070
    74
1070
     0
1070
   172
1070
     1
1070
    73
1070
     0
1070
   272
1070
     0
1070
    77
1070
     3
1070
   173
1070
     1
1070
   147
1040
1.0
1070
    42
1040
3.0
1070
    44
1040
1.5
1070
    43
1040
7.0
1070
   271
1070
     0
1070
   178
1070
   256
1070
   177
1070
   256
1070
   176
1070
   256
1070
   141
1040
3.0
1070
     7
1000
OPEN
1070
     6
1000
OPEN
1070
    41
1040
3.0
1002
}
  0
DIMENSION
  5
20A2
330
1A
100
AcDbEntity
  8
SUNPOU
  6
CONTINUOUS
100
AcDbDimension
  2
*D3
 10
259.1890209031569
 20
65.10089457762585
 30
0.0
 11
256.6890209031569
 21
82.60089457762587
 31
0.0
 70
    32
  3
STANDARD
100
AcDbAlignedDimension
 13
278.7192468673798
 23
100.1008945776257
 33
0.0
 14
278.719246869228
 24
65.10089457762585
 34
0.0
 50
90.0
100
AcDbRotatedDimension
1001
ACAD
1000
DSTYLE
1002
{
1070
   140
1040
3.0
1070
    74
1070
     0
1070
   172
1070
     1
1070
    73
1070
     0
1070
   272
1070
     0
1070
    77
1070
     3
1070
   173
1070
     1
1070
   147
1040
1.0
1070
    42
1040
3.0
1070
    44
1040
1.5
1070
    43
1040
7.0
1070
   271
1070
     0
1070
   178
1070
   256
1070
   177
1070
   256
1070
   176
1070
   256
1070
   141
1040
3.0
1070
     7
1000
OPEN
1070
     6
1000
OPEN
1070
    41
1040
3.0
1002
}
  0
DIMENSION
  5
20C4
330
1A
100
AcDbEntity
  8
SUNPOU
  6
CONTINUOUS
100
AcDbDimension
  2
*D4
 10
268.0410906412621
 20
92.10089457762585
 30
0.0
 11
265.541090641262
 21
96.10089457762587
 31
0.0
 70
    32
  3
STANDARD
100
AcDbAlignedDimension
 13
278.7192468673798
 23
100.1008945776257
 33
0.0
 14
279.7192468673798
 24
92.10089457762585
 34
0.0
 50
90.0
100
AcDbRotatedDimension
1001
ACAD
1000
DSTYLE
1002
{
1070
   140
1040
3.0
1070
    74
1070
     0
1070
   172
1070
     1
1070
    73
1070
     0
1070
   272
1070
     0
1070
    77
1070
     3
1070
   173
1070
     1
1070
   147
1040
1.0
1070
    42
1040
3.0
1070
    44
1040
1.5
1070
    43
1040
7.0
1070
   271
1070
     0
1070
   178
1070
   256
1070
   177
1070
   256
1070
   176
1070
   256
1070
   141
1040
3.0
1070
     7
1000
OPEN
1070
     6
1000
OPEN
1070
    41
1040
3.0
1002
}
  0
DIMENSION
  5
20D3
330
1A
100
AcDbEntity
  8
SUNPOU
  6
CONTINUOUS
100
AcDbDimension
  2
*D5
 10
268.0410906412621
 20
65.10089457762585
 30
0.0
 11
265.541090641262
 21
69.10089457762587
 31
0.0
 70
    32
  3
STANDARD
100
AcDbAlignedDimension
 13
279.7192468673798
 23
73.10089457762585
 33
0.0
 14
278.719246869228
 24
65.10089457762585
 34
0.0
 50
90.0
100
AcDbRotatedDimension
1001
ACAD
1000
DSTYLE
1002
{
1070
   140
1040
3.0
1070
    74
1070
     0
1070
   172
1070
     1
1070
    73
1070
     0
1070
   272
1070
     0
1070
    77
1070
     3
1070
   173
1070
     1
1070
   147
1040
1.0
1070
    42
1040
3.0
1070
    44
1040
1.5
1070
    43
1040
7.0
1070
   271
1070
     0
1070
   178
1070
   256
1070
   177
1070
   256
1070
   176
1070
   256
1070
   141
1040
3.0
1070
     7
1000
OPEN
1070
     6
1000
OPEN
1070
    41
1040
3.0
1002
}
  0
TEXT
  5
20D4
330
1A
100
AcDbEntity
  8
SUNPOU
  6
CONTINUOUS
100
AcDbText
 10
244.0124948900343
 20
117.8895107813804
 30
0.0
 40
4.0
  1
4-φ4.2
100
AcDbText
  0
LEADER
  5
20D5
330
1A
100
AcDbEntity
  8
SUNPOU
  6
CONTINUOUS
100
AcDbLeader
  3
STANDARD
 76
     3
 10
283.6573240330849
 20
93.9126119656318
 30
0.0
 10
267.4278320124027
 20
116.5527456500082
 30
0.0
 10
242.6744758382314
 20
116.5527456500082
 30
0.0
1001
ACAD
1000
DSTYLE
1002
{
1070
     6
1000
OPEN
1070
    41
1040
3.0
1070
    42
1040
3.0
1070
    43
1040
7.0
1070
    44
1040
1.5
1070
    73
1070
     0
1070
    74
1070
     0
1070
    77
1070
     3
1070
   140
1040
3.0
1070
   141
1040
3.0
1070
   147
1040
1.0
1070
   172
1070
     1
1070
   173
1070
     1
1070
   176
1070
   256
1070
   177
1070
   256
1070
   178
1070
   256
1070
   271
1070
     0
1070
   272
1070
     0
1070
   341
1005
B2
1070
   343
1005
B2
1070
   344
1005
B2
1002
}
1000
LEANOF
1010
0.0
1020
0.0
1030
0.0
  0
DIMENSION
  5
20E2
330
1A
100
AcDbEntity
  8
SUNPOU
  6
CONTINUOUS
100
AcDbDimension
  2
*D6
 10
234.6681758572159
 20
65.10089457762585
 30
0.0
 11
232.168175857216
 21
82.60089457762587
 31
0.0
 70
    32
  3
STANDARD
100
AcDbAlignedDimension
 13
221.1330674335798
 23
100.1008945776257
 33
0.0
 14
221.1330674335798
 24
65.10089457762585
 34
0.0
 50
90.0
100
AcDbRotatedDimension
1001
ACAD
1000
DSTYLE
1002
{
1070
   140
1040
3.0
1070
    74
1070
     0
1070
   172
1070
     1
1070
    73
1070
     0
1070
   272
1070
     0
1070
    77
1070
     3
1070
   173
1070
     1
1070
   147
1040
1.0
1070
    42
1040
3.0
1070
    44
1040
1.5
1070
    43
1040
7.0
1070
   271
1070
     0
1070
   178
1070
   256
1070
   177
1070
   256
1070
   176
1070
   256
1070
   141
1040
3.0
1070
     7
1000
OPEN
1070
     6
1000
OPEN
1070
    41
1040
3.0
1002
}
  0
DIMENSION
  5
20F1
330
1A
100
AcDbEntity
  8
SUNPOU
  6
CONTINUOUS
100
AcDbDimension
  2
*D7
 10
210.1330674335799
 20
154.9263456587335
 30
0.0
 11
215.6330674335798
 21
157.4263456587335
 31
0.0
 70
    32
  3
STANDARD
100
AcDbAlignedDimension
 13
221.1330674335798
 23
100.1008945776257
 33
0.0
 14
210.1330674335799
 24
126.1811890325257
 34
0.0
100
AcDbRotatedDimension
1001
ACAD
1000
DSTYLE
1002
{
1070
   140
1040
3.0
1070
    74
1070
     0
1070
   172
1070
     1
1070
    73
1070
     0
1070
   272
1070
     0
1070
    77
1070
     3
1070
   173
1070
     1
1070
   147
1040
1.0
1070
    42
1040
3.0
1070
    44
1040
1.5
1070
    43
1040
7.0
1070
   271
1070
     0
1070
   178
1070
   256
1070
   177
1070
   256
1070
   176
1070
   256
1070
   141
1040
3.0
1070
     7
1000
OPEN
1070
     6
1000
OPEN
1070
    41
1040
3.0
1002
}
  0
DIMENSION
  5
20FE
330
1A
100
AcDbEntity
  8
SUNPOU
  6
CONTINUOUS
100
AcDbDimension
  2
*D8
 10
80.5157925602799
 20
165.1824076475544
 30
0.0
 11
150.8244299969298
 21
167.6824076475544
 31
0.0
 70
    32
  3
STANDARD
100
AcDbAlignedDimension
 13
221.1330674335798
 23
100.1008945776257
 33
0.0
 14
80.5157925602799
 24
155.5479989494258
 34
0.0
100
AcDbRotatedDimension
1001
ACAD
1000
DSTYLE
1002
{
1070
   140
1040
3.0
1070
    74
1070
     0
1070
   172
1070
     1
1070
    73
1070
     0
1070
   272
1070
     0
1070
    77
1070
     3
1070
   173
1070
     1
1070
   147
1040
1.0
1070
    42
1040
3.0
1070
    44
1040
1.5
1070
    43
1040
7.0
1070
   271
1070
     0
1070
   178
1070
   256
1070
   177
1070
   256
1070
   176
1070
   256
1070
   141
1040
3.0
1070
     7
1000
OPEN
1070
     6
1000
OPEN
1070
    41
1040
3.0
1002
}
  0
DIMENSION
  5
210B
330
1A
100
AcDbEntity
  8
SUNPOU
  6
CONTINUOUS
100
AcDbDimension
  2
*D9
 10
234.3597703817066
 20
180.1308053366258
 30
0.0
 11
231.8597703817066
 21
210.6308053366258
 31
0.0
 70
    32
  3
STANDARD
100
AcDbAlignedDimension
 13
221.1330674335798
 23
241.1308053366258
 33
0.0
 14
221.1330674335798
 24
180.1308053366258
 34
0.0
 50
90.0
100
AcDbRotatedDimension
1001
ACAD
1000
DSTYLE
1002
{
1070
   140
1040
3.0
1070
    74
1070
     0
1070
   172
1070
     1
1070
    73
1070
     0
1070
   272
1070
     0
1070
    77
1070
     3
1070
   173
1070
     1
1070
   147
1040
1.0
1070
    42
1040
3.0
1070
    44
1040
1.5
1070
    43
1040
7.0
1070
   271
1070
     0
1070
   178
1070
   256
1070
   177
1070
   256
1070
   176
1070
   256
1070
   141
1040
3.0
1070
     7
1000
OPEN
1070
     6
1000
OPEN
1070
    41
1040
3.0
1002
}
  0
DIMENSION
  5
2118
330
1A
100
AcDbEntity
  8
SUNPOU
  6
CONTINUOUS
100
AcDbDimension
  2
*D10
 10
58.91870928064668
 20
200.6308053366258
 30
0.0
 11
56.41870928064665
 21
210.6308053366258
 31
0.0
 70
    32
  3
STANDARD
100
AcDbAlignedDimension
 13
80.91579256027989
 23
220.6308053366258
 33
0.0
 14
80.91579256027989
 24
200.6308053366258
 34
0.0
 50
90.0
100
AcDbRotatedDimension
1001
ACAD
1000
DSTYLE
1002
{
1070
   140
1040
3.0
1070
    74
1070
     0
1070
   172
1070
     1
1070
    73
1070
     0
1070
   272
1070
     0
1070
    77
1070
     3
1070
   173
1070
     1
1070
   147
1040
1.0
1070
    42
1040
3.0
1070
    44
1040
1.5
1070
    43
1040
7.0
1070
   271
1070
     0
1070
   178
1070
   256
1070
   177
1070
   256
1070
   176
1070
   256
1070
   141
1040
3.0
1070
     7
1000
OPEN
1070
     6
1000
OPEN
1070
    41
1040
3.0
1002
}
  0
LINE
  5
2124
330
1A
100
AcDbEntity
  8
CENTER_L
  6
CENTER
100
AcDbLine
 10
230.6330674335799
 20
210.6308053366258
 30
0.0
 11
70.9157925602799
 21
210.6308053366257
 31
0.0
  0
LINE
  5
2195
330
1A
100
AcDbEntity
  8
NOKITOI
  6
PHANTOM
 62
     8
100
AcDbLine
 10
181.7335161301299
 20
70.5743717818258
 30
0.0
 11
136.9041161301298
 21
70.57447178182577
 31
0.0
  0
LINE
  5
2196
330
1A
100
AcDbEntity
  8
NOKITOI
  6
PHANTOM
 62
     8
100
AcDbLine
 10
136.9041161301298
 20
71.77447178182582
 30
0.0
 11
181.4837161301299
 21
71.77437178182585
 31
0.0
  0
ARC
  5
2198
330
1A
100
AcDbEntity
  8
NOKITOI
  6
PHANTOM
 62
     8
100
AcDbCircle
 10
136.9040999036725
 20
113.5744862581959
 30
0.0
 40
43.00001447645168
100
AcDbArc
 50
186.5249107071174
 51
269.9998883751437
  0
ARC
  5
2199
330
1A
100
AcDbEntity
  8
NOKITOI
  6
PHANTOM
 62
     8
100
AcDbCircle
 10
136.9041222120978
 20
113.5744661571695
 30
0.0
 40
41.79999437547816
100
AcDbArc
 50
184.4742952125247
 51
269.999854592109
  0
CIRCLE
  5
219A
330
1A
100
AcDbEntity
  8
NOKITOI
100
AcDbCircle
 10
85.4157925602799
 20
127.0085485861258
 30
0.0
 40
9.549248213508121
  0
LINE
  5
219B
330
1A
100
AcDbEntity
  8
NOKITOI
  6
PHANTOM
 62
     8
100
AcDbLine
 10
85.15501613012986
 20
123.5119717818258
 30
0.0
 11
85.54521613012969
 21
111.0276717818257
 31
0.0
  0
LINE
  5
219C
330
1A
100
AcDbEntity
  8
NOKITOI
  6
PHANTOM
 62
     8
100
AcDbLine
 10
86.35441613013028
 20
123.5494717818257
 30
0.0
 11
86.50381613012962
 21
118.7705717818259
 31
0.0
  0
LINE
  5
219D
330
1A
100
AcDbEntity
  8
NOKITOI
  6
PHANTOM
 62
     8
100
AcDbLine
 10
89.62681613013012
 20
124.3744717818259
 30
0.0
 11
89.12681613013011
 21
121.8744717818259
 31
0.0
  0
ARC
  5
219E
330
1A
100
AcDbEntity
  8
NOKITOI
  6
PHANTOM
 62
     8
100
AcDbCircle
 10
93.431909928972
 20
122.574478316911
 30
0.0
 40
0.4999934649531607
100
AcDbArc
 50
356.9955363203376
 51
89.99928939038239
  0
LINE
  5
219F
330
1A
100
AcDbEntity
  8
NOKITOI
  6
PHANTOM
 62
     8
100
AcDbLine
 10
93.11611613012985
 20
116.0744717818258
 30
0.0
 11
90.86701613012985
 21
116.0744717818258
 31
0.0
  0
LINE
  5
21A0
330
1A
100
AcDbEntity
  8
NOKITOI
  6
PHANTOM
 62
     8
100
AcDbLine
 10
89.12681613013011
 20
121.8744717818259
 30
0.0
 11
92.06331613012991
 21
121.8744717818259
 31
0.0
  0
LINE
  5
21A1
330
1A
100
AcDbEntity
  8
NOKITOI
  6
PHANTOM
 62
     8
100
AcDbLine
 10
91.06751613013022
 20
120.7744717818258
 30
0.0
 11
92.06331613012991
 21
121.8744717818259
 31
0.0
  0
LINE
  5
21A2
330
1A
100
AcDbEntity
  8
NOKITOI
  6
PHANTOM
 62
     8
100
AcDbLine
 10
87.04441613012988
 20
109.5744717818257
 30
0.0
 11
93.18911613012971
 21
109.5744717818257
 31
0.0
  0
LINE
  5
21A3
330
1A
100
AcDbEntity
  8
NOKITOI
  6
PHANTOM
 62
     8
100
AcDbLine
 10
94.73301613013029
 20
110.7744717818258
 30
0.0
 11
88.69211613012987
 21
110.7744717818258
 31
0.0
  0
ARC
  5
21A4
330
1A
100
AcDbEntity
  8
NOKITOI
  6
PHANTOM
 62
     8
100
AcDbCircle
 10
88.69212970226829
 20
112.7744586267394
 30
0.0
 40
1.999986844959662
100
AcDbArc
 50
181.7875531852355
 51
269.9996111843215
  0
ARC
  5
21A5
330
1A
100
AcDbEntity
  8
NOKITOI
  6
PHANTOM
 62
     8
100
AcDbCircle
 10
87.04445208928076
 20
111.0744369276825
 30
0.0
 40
1.499965146287778
100
AcDbArc
 50
181.7866280217766
 51
269.9986264296971
  0
ARC
  5
21A6
330
1A
100
AcDbEntity
  8
NOKITOI
  6
PHANTOM
 62
     8
100
AcDbCircle
 10
90.60565401157658
 20
115.5745155643511
 30
0.0
 40
3.999989731271038
100
AcDbArc
 50
96.47731142013284
 51
181.7899836067311
  0
LINE
  5
21A7
330
1A
100
AcDbEntity
  8
NOKITOI
  6
PHANTOM
 62
     8
100
AcDbLine
 10
90.37211613012971
 20
116.6452717818259
 30
0.0
 11
90.70581613012985
 21
118.9814717818259
 31
0.0
  0
LINE
  5
21A8
330
1A
100
AcDbEntity
  8
NOKITOI
  6
PHANTOM
 62
     8
100
AcDbLine
 10
86.69311613012963
 20
112.7120717818258
 30
0.0
 11
86.60761613012994
 21
115.4495717818257
 31
0.0
  0
ARC
  5
21A9
330
1A
100
AcDbEntity
  8
NOKITOI
  6
PHANTOM
 62
     8
100
AcDbCircle
 10
90.86704273072758
 20
116.5744411049437
 30
0.0
 40
0.4999693238254178
100
AcDbArc
 50
171.8555038770531
 51
269.9969516090372
  0
ARC
  5
21AA
330
1A
100
AcDbEntity
  8
NOKITOI
  6
PHANTOM
 62
     8
100
AcDbCircle
 10
90.6057363427991
 20
115.5745305102058
 30
0.0
 40
5.2000412730095
100
AcDbArc
 50
90.0013245430618
 51
142.0757990790551
  0
ARC
  5
21AB
330
1A
100
AcDbEntity
  8
NOKITOI
  6
PHANTOM
 62
     8
100
AcDbCircle
 10
90.2108303485453
 20
119.0521571475248
 30
0.0
 40
0.5000073448410256
100
AcDbArc
 50
351.8729478641237
 51
96.47829282996752
  0
LINE
  5
21AC
330
1A
100
AcDbEntity
  8
NOKITOI
  6
PHANTOM
 62
     8
100
AcDbLine
 10
91.06751613013022
 20
120.7744717818258
 30
0.0
 11
90.60561613012998
 21
120.7744717818258
 31
0.0
  0
ARC
  5
21AD
330
1A
100
AcDbEntity
  8
NOKITOI
  6
PHANTOM
 62
     8
100
AcDbCircle
 10
94.7330286998382
 20
110.2744601570961
 30
0.0
 40
0.5000116248877111
100
AcDbArc
 50
4.47484680834223
 51
90.00144034898383
  0
ARC
  5
21AE
330
1A
100
AcDbEntity
  8
NOKITOI
  6
PHANTOM
 62
     8
100
AcDbCircle
 10
93.18910770596733
 20
108.5744792968823
 30
0.0
 40
0.9999924849789756
100
AcDbArc
 50
6.528264606673934
 51
89.99951732741129
  0
LINE
  5
21AF
330
1A
100
AcDbEntity
  8
NOKITOI
  6
PHANTOM
 62
     8
100
AcDbLine
 10
93.61551613013
 20
116.5482717818257
 30
0.0
 11
93.93131613012986
 21
122.5481717818258
 31
0.0
  0
ARC
  5
21B0
330
1A
100
AcDbEntity
  8
NOKITOI
  6
PHANTOM
 62
     8
100
AcDbCircle
 10
93.11610924313493
 20
116.5744652467403
 30
0.0
 40
0.499993464961963
100
AcDbArc
 50
270.0007892017869
 51
356.997036131742
  0
LINE
  5
21B1
330
1A
100
AcDbEntity
  8
NOKITOI
  6
PHANTOM
 62
     8
100
AcDbLine
 10
92.45201613012989
 20
117.2744717818258
 30
0.0
 11
92.63321613012989
 21
120.7159717818259
 31
0.0
  0
LINE
  5
21B2
330
1A
100
AcDbEntity
  8
NOKITOI
  6
PHANTOM
 62
     8
100
AcDbLine
 10
92.07821613013004
 20
120.1028717818257
 30
0.0
 11
92.63321613012989
 21
120.7159717818259
 31
0.0
  0
LINE
  5
21B3
330
1A
100
AcDbEntity
  8
NOKITOI
  6
PHANTOM
 62
     8
100
AcDbLine
 10
91.6741161301303
 20
117.2744717818258
 30
0.0
 11
92.07821613013004
 21
120.1028717818257
 31
0.0
  0
LINE
  5
21B4
330
1A
100
AcDbEntity
  8
NOKITOI
  6
PHANTOM
 62
     8
100
AcDbLine
 10
92.45201613012989
 20
117.2744717818258
 30
0.0
 11
91.6741161301303
 21
117.2744717818258
 31
0.0
  0
LINE
  5
21B5
330
1A
100
AcDbEntity
  8
NOKITOI
  6
PHANTOM
 62
     8
100
AcDbLine
 10
93.43191613012971
 20
123.0744717818258
 30
0.0
 11
91.20041613012984
 21
123.0744717818258
 31
0.0
  0
LINE
  5
21B6
330
1A
100
AcDbEntity
  8
NOKITOI
  6
PHANTOM
 62
     8
100
AcDbLine
 10
87.15401613012966
 20
125.5744717818258
 30
0.0
 11
90.48061613012999
 21
125.5744717818258
 31
0.0
  0
LINE
  5
21B7
330
1A
100
AcDbEntity
  8
NOKITOI
  6
PHANTOM
 62
     8
100
AcDbLine
 10
87.15401613012966
 20
124.3744717818259
 30
0.0
 11
89.62681613013012
 21
124.3744717818259
 31
0.0
  0
ARC
  5
21B8
330
1A
100
AcDbEntity
  8
NOKITOI
  6
PHANTOM
 62
     8
100
AcDbCircle
 10
87.15402888097981
 20
123.5744849369122
 30
0.0
 40
1.999986844954076
100
AcDbArc
 50
90.00036528735288
 51
181.7883072882704
  0
ARC
  5
21B9
330
1A
100
AcDbEntity
  8
NOKITOI
  6
PHANTOM
 62
     8
100
AcDbCircle
 10
87.15402062492797
 20
123.5744764193527
 30
0.0
 40
0.7999953624857498
100
AcDbArc
 50
90.00032191805264
 51
181.7911273464193
  0
ARC
  5
21BA
330
1A
100
AcDbEntity
  8
NOKITOI
  6
PHANTOM
 62
     8
100
AcDbCircle
 10
90.48061534712145
 20
125.0744727368275
 30
0.0
 40
0.4999990449987349
100
AcDbArc
 50
348.6967198015451
 51
89.99991027369329
  0
ARC
  5
21BB
330
1A
100
AcDbEntity
  8
NOKITOI
  6
PHANTOM
 62
     8
100
AcDbCircle
 10
91.20040887557445
 20
123.5744806316692
 30
0.0
 40
0.5000088498959383
100
AcDbArc
 50
168.6864043304889
 51
270.0008312961425
  0
LINE
  5
21BC
330
1A
100
AcDbEntity
  8
NOKITOI
  6
PHANTOM
 62
     8
100
AcDbLine
 10
90.7101161301299
 20
123.6725717818257
 30
0.0
 11
90.97091613012992
 21
124.9764717818258
 31
0.0
  0
LINE
  5
21BD
330
1A
100
AcDbEntity
  8
NOKITOI
  6
PHANTOM
 62
     8
100
AcDbLine
 10
196.0005161301302
 20
108.6739717818258
 30
0.0
 11
193.13171613013
 21
79.98657178182579
 31
0.0
  0
LINE
  5
21BE
330
1A
100
AcDbEntity
  8
NOKITOI
  6
PHANTOM
 62
     8
100
AcDbLine
 10
194.95951613013
 20
110.3242717818258
 30
0.0
 11
191.9665161301296
 21
80.39447178182571
 31
0.0
  0
LINE
  5
21BF
330
1A
100
AcDbEntity
  8
NOKITOI
  6
PHANTOM
 62
     8
100
AcDbLine
 10
177.7335161301299
 20
70.5743717818258
 30
0.0
 11
157.5756161301302
 21
70.5743717818258
 31
0.0
  0
LINE
  5
21C0
330
1A
100
AcDbEntity
  8
NOKITOI
  6
PHANTOM
 62
     8
100
AcDbLine
 10
177.4837161301299
 20
71.77437178182585
 30
0.0
 11
157.5756161301302
 21
71.77437178182585
 31
0.0
  0
LINE
  5
21C1
330
1A
100
AcDbEntity
  8
NOKITOI
  6
PHANTOM
 62
     8
100
AcDbLine
 10
192.7699161301299
 20
79.31207178182593
 30
0.0
 11
182.3668161301299
 21
70.80037178182592
 31
0.0
  0
LINE
  5
21C2
330
1A
100
AcDbEntity
  8
NOKITOI
  6
PHANTOM
 62
     8
100
AcDbLine
 10
191.7856161301302
 20
80.0571717818258
 30
0.0
 11
181.80031613013
 21
71.88737178182567
 31
0.0
  0
ARC
  5
21C3
330
1A
100
AcDbEntity
  8
NOKITOI
  6
PHANTOM
 62
     8
100
AcDbCircle
 10
181.7335091975525
 20
71.57436930681969
 30
0.0
 40
0.9999975250179316
100
AcDbArc
 50
270.0003972084019
 51
309.2946416752284
  0
ARC
  5
21C4
330
1A
100
AcDbEntity
  8
NOKITOI
  6
PHANTOM
 62
     8
100
AcDbCircle
 10
181.4837225178786
 20
72.27437406181538
 30
0.0
 40
0.5000022800304047
100
AcDbArc
 50
269.9992680212791
 51
309.2854498596055
  0
ARC
  5
21C5
330
1A
100
AcDbEntity
  8
NOKITOI
  6
PHANTOM
 62
     8
100
AcDbCircle
 10
192.136693557261
 20
80.08602971015319
 30
0.0
 40
0.9999908507640039
100
AcDbArc
 50
309.288709223069
 51
354.286232947753
  0
ARC
  5
21C6
330
1A
100
AcDbEntity
  8
NOKITOI
  6
PHANTOM
 62
     8
100
AcDbCircle
 10
191.4689987042517
 20
80.44413929543784
 30
0.0
 40
0.4999904508696396
100
AcDbArc
 50
309.2900846377946
 51
354.2990110749239
  0
LINE
  5
21C7
330
1A
100
AcDbEntity
  8
NOKITOI
  6
PHANTOM
 62
     8
100
AcDbLine
 10
200.5543161301299
 20
124.3744717818259
 30
0.0
 11
201.0543161301299
 21
121.8744717818259
 31
0.0
  0
ARC
  5
21C8
330
1A
100
AcDbEntity
  8
NOKITOI
  6
PHANTOM
 62
     8
100
AcDbCircle
 10
196.7491198396252
 20
122.5744756918565
 30
0.0
 40
0.4999960899831856
100
AcDbArc
 50
90.00042508014919
 51
183.0156217414647
  0
LINE
  5
21C9
330
1A
100
AcDbEntity
  8
NOKITOI
  6
PHANTOM
 62
     8
100
AcDbLine
 10
203.8266161301295
 20
123.5494717818257
 30
0.0
 11
203.6773161301299
 21
118.7704717818259
 31
0.0
  0
LINE
  5
21CA
330
1A
100
AcDbEntity
  8
NOKITOI
  6
PHANTOM
 62
     8
100
AcDbLine
 10
205.0260161301299
 20
123.5119717818258
 30
0.0
 11
204.6359161301298
 21
111.0275717818257
 31
0.0
  0
ARC
  5
21CB
330
1A
100
AcDbEntity
  8
NOKITOI
  6
PHANTOM
 62
     8
100
AcDbCircle
 10
201.4889541179542
 20
112.774408602398
 30
0.0
 40
2.000036820932882
100
AcDbArc
 50
269.9989117490344
 51
358.2110591274195
  0
ARC
  5
21CC
330
1A
100
AcDbEntity
  8
NOKITOI
  6
PHANTOM
 62
     8
100
AcDbCircle
 10
203.136633343308
 20
111.0744884649736
 30
0.0
 40
1.500016683246579
100
AcDbArc
 50
269.999342512336
 51
358.2076423244113
  0
LINE
  5
21CD
330
1A
100
AcDbEntity
  8
NOKITOI
  6
PHANTOM
 62
     8
100
AcDbLine
 10
203.1366161301299
 20
109.5744717818257
 30
0.0
 11
196.9955161301301
 21
109.5744717818257
 31
0.0
  0
LINE
  5
21CE
330
1A
100
AcDbEntity
  8
NOKITOI
  6
PHANTOM
 62
     8
100
AcDbLine
 10
195.4570161301295
 20
110.7744717818258
 30
0.0
 11
201.4889161301299
 21
110.7744717818258
 31
0.0
  0
ARC
  5
21CF
330
1A
100
AcDbEntity
  8
NOKITOI
  6
PHANTOM
 62
     8
100
AcDbCircle
 10
195.4570292011345
 20
110.2744836121057
 30
0.0
 40
0.499988169890889
100
AcDbArc
 50
90.00149786226472
 51
174.2966061377164
  0
ARC
  5
21D0
330
1A
100
AcDbEntity
  8
NOKITOI
  6
PHANTOM
 62
     8
100
AcDbCircle
 10
196.9955367799708
 20
108.574490469675
 30
0.0
 40
0.9999813123640345
100
AcDbArc
 50
90.00118317084911
 51
174.2905900333514
  0
LINE
  5
21D1
330
1A
100
AcDbEntity
  8
NOKITOI
  6
PHANTOM
 62
     8
100
AcDbLine
 10
198.5069161301295
 20
117.2744717818258
 30
0.0
 11
198.1029161301299
 21
120.1028717818257
 31
0.0
  0
LINE
  5
21D2
330
1A
100
AcDbEntity
  8
NOKITOI
  6
PHANTOM
 62
     8
100
AcDbLine
 10
197.7290161301299
 20
117.2744717818258
 30
0.0
 11
198.5069161301295
 21
117.2744717818258
 31
0.0
  0
LINE
  5
21D3
330
1A
100
AcDbEntity
  8
NOKITOI
  6
PHANTOM
 62
     8
100
AcDbLine
 10
201.0543161301299
 20
121.8744717818259
 30
0.0
 11
198.1177161301299
 21
121.8744717818259
 31
0.0
  0
LINE
  5
21D4
330
1A
100
AcDbEntity
  8
NOKITOI
  6
PHANTOM
 62
     8
100
AcDbLine
 10
197.0649161301299
 20
116.0744717818258
 30
0.0
 11
199.3140161301295
 21
116.0744717818258
 31
0.0
  0
LINE
  5
21D5
330
1A
100
AcDbEntity
  8
NOKITOI
  6
PHANTOM
 62
     8
100
AcDbLine
 10
199.11351613013
 20
120.7744717818258
 30
0.0
 11
198.1177161301299
 21
121.8744717818259
 31
0.0
  0
LINE
  5
21D6
330
1A
100
AcDbEntity
  8
NOKITOI
  6
PHANTOM
 62
     8
100
AcDbLine
 10
196.56561613013
 20
116.5481717818258
 30
0.0
 11
196.2498161301297
 21
122.5481717818258
 31
0.0
  0
ARC
  5
21D7
330
1A
100
AcDbEntity
  8
NOKITOI
  6
PHANTOM
 62
     8
100
AcDbCircle
 10
197.0649202515365
 20
116.5744678717953
 30
0.0
 40
0.4999960899864752
100
AcDbArc
 50
183.014724379174
 51
269.9995277178578
  0
LINE
  5
21D8
330
1A
100
AcDbEntity
  8
NOKITOI
  6
PHANTOM
 62
     8
100
AcDbLine
 10
197.7290161301299
 20
117.2744717818258
 30
0.0
 11
197.5479161301296
 21
120.7158717818257
 31
0.0
  0
LINE
  5
21D9
330
1A
100
AcDbEntity
  8
NOKITOI
  6
PHANTOM
 62
     8
100
AcDbLine
 10
198.1029161301299
 20
120.1028717818257
 30
0.0
 11
197.5479161301296
 21
120.7158717818257
 31
0.0
  0
ARC
  5
21DA
330
1A
100
AcDbEntity
  8
NOKITOI
  6
PHANTOM
 62
     8
100
AcDbCircle
 10
199.5754852031938
 20
115.5745075264896
 30
0.0
 40
3.99998565374706
100
AcDbArc
 50
358.208696659101
 51
83.5242238046835
  0
LINE
  5
21DB
330
1A
100
AcDbEntity
  8
NOKITOI
  6
PHANTOM
 62
     8
100
AcDbLine
 10
199.8090161301298
 20
116.6451717818258
 30
0.0
 11
199.4752161301299
 21
118.9813717818259
 31
0.0
  0
ARC
  5
21DC
330
1A
100
AcDbEntity
  8
NOKITOI
  6
PHANTOM
 62
     8
100
AcDbCircle
 10
199.3140263165661
 20
116.5744835265499
 30
0.0
 40
0.5000117448278309
100
AcDbArc
 50
269.9988327478
 51
8.12731460871532
  0
LINE
  5
21DD
330
1A
100
AcDbEntity
  8
NOKITOI
  6
PHANTOM
 62
     8
100
AcDbLine
 10
203.4880161301299
 20
112.7118717818258
 30
0.0
 11
203.5735161301296
 21
115.4494717818258
 31
0.0
  0
ARC
  5
21DE
330
1A
100
AcDbEntity
  8
NOKITOI
  6
PHANTOM
 62
     8
100
AcDbCircle
 10
199.5754982637787
 20
115.5744805102057
 30
0.0
 40
5.199991271650611
100
AcDbArc
 50
37.92532860473223
 51
89.99980314072399
  0
ARC
  5
21DF
330
1A
100
AcDbEntity
  8
NOKITOI
  6
PHANTOM
 62
     8
100
AcDbCircle
 10
199.9702455026296
 20
119.0521020143207
 30
0.0
 40
0.4999578477751074
100
AcDbArc
 50
83.52609071220751
 51
188.1330561712932
  0
LINE
  5
21E0
330
1A
100
AcDbEntity
  8
NOKITOI
  6
PHANTOM
 62
     8
100
AcDbLine
 10
199.11351613013
 20
120.7744717818258
 30
0.0
 11
199.57551613013
 21
120.7744717818258
 31
0.0
  0
LINE
  5
21E1
330
1A
100
AcDbEntity
  8
NOKITOI
  6
PHANTOM
 62
     8
100
AcDbLine
 10
196.7491161301301
 20
123.0744717818258
 30
0.0
 11
198.9806161301299
 21
123.0744717818258
 31
0.0
  0
LINE
  5
21E2
330
1A
100
AcDbEntity
  8
NOKITOI
  6
PHANTOM
 62
     8
100
AcDbLine
 10
203.0270161301301
 20
125.5743717818258
 30
0.0
 11
199.7004161301298
 21
125.5744717818258
 31
0.0
  0
LINE
  5
21E3
330
1A
100
AcDbEntity
  8
NOKITOI
  6
PHANTOM
 62
     8
100
AcDbLine
 10
203.0270161301301
 20
124.3743717818257
 30
0.0
 11
200.5543161301299
 21
124.3744717818259
 31
0.0
  0
ARC
  5
21E4
330
1A
100
AcDbEntity
  8
NOKITOI
  6
PHANTOM
 62
     8
100
AcDbCircle
 10
199.7004088755744
 20
125.0744629319823
 30
0.0
 40
0.500008849895925
100
AcDbArc
 50
89.99916870385415
 51
191.3135956695126
  0
ARC
  5
21E5
330
1A
100
AcDbEntity
  8
NOKITOI
  6
PHANTOM
 62
     8
100
AcDbCircle
 10
198.9806153471214
 20
123.574470826824
 30
0.0
 40
0.4999990449987399
100
AcDbArc
 50
270.0000897263034
 51
11.30328019845489
  0
LINE
  5
21E6
330
1A
100
AcDbEntity
  8
NOKITOI
  6
PHANTOM
 62
     8
100
AcDbLine
 10
199.4709161301299
 20
123.6724717818259
 30
0.0
 11
199.2101161301299
 21
124.9764717818258
 31
0.0
  0
ARC
  5
21E7
330
1A
100
AcDbEntity
  8
NOKITOI
  6
PHANTOM
 62
     8
100
AcDbCircle
 10
203.0270600964828
 20
123.5744264193528
 30
0.0
 40
0.7999453636812564
100
AcDbArc
 50
358.2123436447881
 51
90.00314907315425
  0
ARC
  5
21E8
330
1A
100
AcDbEntity
  8
NOKITOI
  6
PHANTOM
 62
     8
100
AcDbCircle
 10
203.0270048931357
 20
123.5744833756429
 30
0.0
 40
1.999988406214315
100
AcDbArc
 50
358.2088726535938
 51
89.99967808195389
  0
LINE
  5
221F
330
1A
100
AcDbEntity
  8
CENTER_L
  6
CENTER
100
AcDbLine
 10
306.2192468673798
 20
60.10089457762585
 30
0.0
 11
306.2192468673798
 21
138.645644840515
 31
0.0
  0
LINE
  5
2220
330
1A
100
AcDbEntity
  8
SEIHIN
  6
CONTINUOUS
100
AcDbLine
 10
196.7653918985798
 20
200.6308053366258
 30
0.0
 11
196.7653918985798
 21
203.1308053366258
 31
0.0
  0
LINE
  5
2221
330
1A
100
AcDbEntity
  8
SEIHIN
  6
CONTINUOUS
100
AcDbLine
 10
184.4641578679799
 20
200.6308053366258
 30
0.0
 11
184.4641578679799
 21
220.6308053366258
 31
0.0
  0
LINE
  5
2222
330
1A
100
AcDbEntity
  8
SEIHIN
  6
CONTINUOUS
100
AcDbLine
 10
196.7653918985799
 20
218.1308053366258
 30
0.0
 11
196.7653918985799
 21
220.6308053366258
 31
0.0
  0
DIMENSION
  5
228A
330
1A
100
AcDbEntity
  8
SUNPOU
  6
CONTINUOUS
100
AcDbDimension
  2
*D11
 10
58.91870928064665
 20
65.10089457762589
 30
0.0
 11
56.41870928064665
 21
96.05472158187588
 31
0.0
 70
    32
  3
STANDARD
100
AcDbAlignedDimension
 13
80.91579256027989
 23
127.0085485861258
 33
0.0
 14
214.5330674335799
 24
65.10089457762585
 34
0.0
 50
90.0
100
AcDbRotatedDimension
1001
ACAD
1000
DSTYLE
1002
{
1070
    41
1040
3.0
1070
    42
1040
3.0
1070
    43
1040
7.0
1070
    44
1040
1.5
1070
    73
1070
     0
1070
    74
1070
     0
1070
    77
1070
     3
1070
   140
1040
3.0
1070
   141
1040
3.0
1070
   147
1040
1.0
1070
   172
1070
     1
1070
   173
1070
     1
1070
   176
1070
   256
1070
   177
1070
   256
1070
   178
1070
   256
1070
   271
1070
     0
1070
   272
1070
     0
1070
   341
1005
B2
1070
     6
1000
OPEN
1070
     7
1000
OPEN
1070
   371
1070
    -1
1070
   372
1070
    -1
1002
}
  0
LWPOLYLINE
  5
23AE
330
1A
100
AcDbEntity
  8
ZUWAKU
100
AcDbPolyline
 90
        4
 70
     1
 43
0.0
 10
0.3999996404098738
 20
275.3999999323703
 10
0.3999996404098738
 20
0.3999999323703491
 10
398.3999996404098
 20
0.3999999323703491
 10
398.3999996404098
 20
275.3999999323703
  0
LWPOLYLINE
  5
23AF
330
1A
100
AcDbEntity
  8
ZUWAKU
100
AcDbPolyline
 90
        4
 70
     1
 43
0.0
 10
0.1999996404098851
 20
275.5999999323703
 10
0.1999996404098851
 20
0.1999999323703605
 10
398.5999996404099
 20
0.199999932370349
 10
398.5999996404099
 20
275.5999999323703
  0
LWPOLYLINE
  5
23B0
330
1A
100
AcDbEntity
  8
ZUWAKU
100
AcDbPolyline
 90
        4
 70
     1
 43
0.0
 10
-0.0000003595901035
 20
275.7999999323703
 10
-0.0000003595901035
 20
-0.000000067629685
 10
398.7999996404099
 20
-0.0000000676296512
 10
398.7999996404099
 20
275.7999999323704
  0
LWPOLYLINE
  5
23B1
330
1A
100
AcDbEntity
  8
ZUWAKU
100
AcDbPolyline
 90
        4
 70
     1
 43
0.0
 10
0.299999640409851
 20
275.4999999323703
 10
0.299999640409851
 20
0.2999999323703264
 10
398.49999964041
 20
0.2999999323703495
 10
398.4999996404098
 20
275.4999999323703
  0
LWPOLYLINE
  5
23B2
330
1A
100
AcDbEntity
  8
ZUWAKU
100
AcDbPolyline
 90
        4
 70
     1
 43
0.0
 10
0.0999996404098624
 20
275.6999999323703
 10
0.0999996404098624
 20
0.0999999323703378
 10
398.6999996404098
 20
0.0999999323703493
 10
398.6999996404099
 20
275.6999999323703
  0
LINE
  5
23B3
330
1A
100
AcDbEntity
  8
ZUWAKU
100
AcDbLine
 10
-0.0000003595901035
 20
14.99999993237031
 30
0.0
 11
398.6999996404098
 21
14.99999993237031
 31
0.0
  0
LINE
  5
23B4
330
1A
100
AcDbEntity
  8
ZUWAKU
100
AcDbLine
 10
-0.0000003595901035
 20
15.09999993237031
 30
0.0
 11
398.6999996404098
 21
15.09999993237031
 31
0.0
  0
LINE
  5
23B5
330
1A
100
AcDbEntity
  8
ZUWAKU
100
AcDbLine
 10
-0.0000003595901035
 20
15.19999993237031
 30
0.0
 11
398.6999996404098
 21
15.19999993237031
 31
0.0
  0
LINE
  5
23B6
330
1A
100
AcDbEntity
  8
ZUWAKU
100
AcDbLine
 10
-0.0000003595901035
 20
15.29999993237032
 30
0.0
 11
398.6999996404098
 21
15.29999993237032
 31
0.0
  0
LINE
  5
23B7
330
1A
100
AcDbEntity
  8
ZUWAKU
100
AcDbLine
 10
-0.0000003595901035
 20
15.39999993237032
 30
0.0
 11
398.6999996404098
 21
15.39999993237032
 31
0.0
  0
LINE
  5
23B8
330
1A
100
AcDbEntity
  8
ZUWAKU
100
AcDbLine
 10
104.3233002854438
 20
7.699999932370332
 30
0.0
 11
223.7121816259056
 21
7.699999932370332
 31
0.0
  0
LINE
  5
23B9
330
1A
100
AcDbEntity
  8
ZUWAKU
100
AcDbLine
 10
104.3233002854438
 20
7.799999932370331
 30
0.0
 11
223.7121816259056
 21
7.799999932370335
 31
0.0
  0
LINE
  5
23BA
330
1A
100
AcDbEntity
  8
ZUWAKU
100
AcDbLine
 10
104.3233002854438
 20
7.599999932370334
 30
0.0
 11
223.7121816259056
 21
7.59999993237033
 31
0.0
  0
TEXT
  5
23BB
330
1A
100
AcDbEntity
  8
MOJI
100
AcDbText
 10
46.47889443449446
 20
6.370588997507695
 30
0.0
 40
3.0
  1
新・丸トップＲＶ１０５
 41
0.9
  7
ｽﾀｲﾙ1
100
AcDbText
  0
CIRCLE
  5
23BC
330
1A
100
AcDbEntity
  8
ZUWAKU
100
AcDbCircle
 10
12.99610571780044
 20
7.599999932370316
 30
0.0
 40
0.875
  0
LINE
  5
23BD
330
1A
100
AcDbEntity
  8
ZUWAKU
100
AcDbLine
 10
13.43360571780044
 20
3.574999932370317
 30
0.0
 11
12.47110571780047
 21
3.574999932370317
 31
0.0
  0
LINE
  5
23BE
330
1A
100
AcDbEntity
  8
ZUWAKU
100
AcDbLine
 10
12.47110571780047
 20
4.974999932370316
 30
0.0
 11
13.43360571780044
 21
4.974999932370316
 31
0.0
  0
LINE
  5
23BF
330
1A
100
AcDbEntity
  8
ZUWAKU
100
AcDbLine
 10
13.43360571780044
 20
10.22499993237031
 30
0.0
 11
12.47110571780047
 21
10.22499993237031
 31
0.0
  0
LINE
  5
23C0
330
1A
100
AcDbEntity
  8
ZUWAKU
100
AcDbLine
 10
12.47110571780047
 20
11.62499993237029
 30
0.0
 11
13.43360571780044
 21
11.62499993237031
 31
0.0
  0
HATCH
  5
23C1
330
1A
100
AcDbEntity
  8
ZUWAKU
100
AcDbHatch
 10
0.0
 20
0.0
 30
0.0
210
0.0
220
0.0
230
1.0
  2
ANSI37
 70
     0
 71
     0
 91
        8
 92
        7
 72
     1
 73
     1
 93
       24
 10
7.251130970969825
 20
8.822424172862106
 42
-0.1989123673796348
 10
7.046105717800458
 20
9.317398919692632
 42
0.0
 10
7.046105717800458
 20
9.96249993237032
 42
-0.4142135623730912
 10
7.308605717800446
 20
10.22499993237031
 42
0.0
 10
8.796105717800401
 20
10.22499993237031
 42
0.4142135623731546
 10
9.058605717800446
 20
10.48749993237031
 42
0.0
 10
9.058605717800446
 20
11.36249993237032
 42
0.4142135623731586
 10
8.796105717800401
 20
11.62499993237031
 42
0.0
 10
7.046105717800458
 20
11.62499993237031
 42
0.4142135623730928
 10
5.64610571780048
 20
10.22499993237033
 42
0.0
 10
5.64610571780048
 20
9.317398919692696
 42
0.1989123673796619
 10
6.261181477308696
 20
7.832474679200892
 42
0.0
 10
7.716080464631033
 20
6.377575691878563
 42
-0.1989123673796613
 10
7.921105717800458
 20
5.88260094504797
 42
0.0
 10
7.921105717800458
 20
5.237499932370312
 42
-0.4142135623730911
 10
7.658605717800469
 20
4.974999932370316
 42
0.0
 10
6.171105717800514
 20
4.974999932370316
 42
0.4142135623731526
 10
5.908605717800469
 20
4.712499932370322
 42
0.0
 10
5.908605717800469
 20
3.837499932370311
 42
0.4142135623731526
 10
6.171105717800514
 20
3.574999932370317
 42
0.0
 10
7.921105717800458
 20
3.574999932370317
 42
0.4142135623731044
 10
9.321105717800492
 20
4.974999932370305
 42
0.0
 10
9.321105717800492
 20
5.882600945047942
 42
0.1989123673796604
 10
8.706029958292219
 20
7.367525185539712
 42
0.0
 97
        0
 92
        7
 72
     1
 73
     1
 93
       16
 10
11.77110571780048
 20
9.52499993237032
 42
-0.4142135623730935
 10
12.47110571780047
 20
10.22499993237031
 42
0.0
 10
13.43360571780044
 20
10.22499993237031
 42
0.4142135623731546
 10
13.69610571780049
 20
10.48749993237031
 42
0.0
 10
13.69610571780049
 20
11.36249993237032
 42
0.4142135623730951
 10
13.4336057178005
 20
11.62499993237031
 42
0.0
 10
12.47110571780041
 20
11.62499993237029
 42
0.4142135623730892
 10
10.37110571780044
 20
9.524999932370285
 42
0.0
 10
10.37110571780044
 20
5.674999932370329
 42
0.4142135623730969
 10
12.47110571780047
 20
3.574999932370317
 42
0.0
 10
13.43360571780044
 20
3.574999932370317
 42
0.4142135623731526
 10
13.69610571780049
 20
3.837499932370311
 42
0.0
 10
13.69610571780049
 20
4.712499932370322
 42
0.4142135623730891
 10
13.4336057178005
 20
4.974999932370316
 42
0.0
 10
12.47110571780047
 20
4.974999932370316
 42
-0.4142135623730928
 10
11.77110571780048
 20
5.67499993237031
 42
0.0
 97
        0
 92
        7
 72
     1
 73
     1
 93
        2
 10
12.12110571780044
 20
7.599999932370316
 42
1.0
 10
13.87110571780044
 20
7.599999932370316
 42
1.0
 97
        0
 92
        7
 72
     1
 73
     1
 93
       26
 10
18.65742895888945
 20
9.60252352915203
 42
0.0
 10
19.18824877545836
 20
11.28345294828682
 42
0.5069206636600134
 10
18.93793332586068
 20
11.62499993237031
 42
0.0
 10
18.08848863605606
 20
11.62499993237031
 42
0.3272098845218764
 10
17.83817318645839
 20
11.4415469164538
 42
0.0
 10
16.9040382491425
 20
8.483452948286856
 42
-0.3272098845219541
 10
16.65372279954476
 20
8.299999932370315
 42
0.0
 10
16.58360571780053
 20
8.299999932370315
 42
-0.4142135623731526
 10
16.32110571780049
 20
8.562499932370309
 42
0.0
 10
16.32110571780049
 20
11.36249993237032
 42
0.4142135623730951
 10
16.0586057178005
 20
11.62499993237031
 42
0.0
 10
15.18360571780044
 20
11.62499993237031
 42
0.4142135623730871
 10
14.92110571780045
 20
11.36249993237032
 42
0.0
 10
14.92110571780045
 20
3.837499932370311
 42
0.4142135623730891
 10
15.18360571780044
 20
3.574999932370317
 42
0.0
 10
16.05860571780044
 20
3.574999932370317
 42
0.4142135623731526
 10
16.32110571780049
 20
3.837499932370311
 42
0.0
 10
16.32110571780049
 20
6.637499932370323
 42
-0.4142135623731526
 10
16.58360571780053
 20
6.899999932370317
 42
0.0
 10
16.65372279954482
 20
6.899999932370317
 42
-0.3272098845218915
 10
16.9040382491425
 20
6.716546916453779
 42
0.0
 10
17.83817318645839
 20
3.758452948286853
 42
0.3272098845218902
 10
18.08848863605606
 20
3.574999932370317
 42
0.0
 10
18.93793332586068
 20
3.574999932370317
 42
0.5069206636600335
 10
19.18824877545836
 20
3.916546916453821
 42
0.0
 10
18.02505308622153
 20
7.599999932370385
 42
0.0
 97
        0
 92
        7
 72
     1
 73
     1
 93
        8
 10
21.74610571780044
 20
11.36249993237032
 42
0.4142135623731546
 10
21.4836057178004
 20
11.62499993237031
 42
0.0
 10
20.60860571780051
 20
11.62499993237031
 42
0.4142135623731507
 10
20.34610571780047
 20
11.36249993237032
 42
0.0
 10
20.34610571780047
 20
3.837499932370311
 42
0.4142135623731526
 10
20.60860571780051
 20
3.574999932370317
 42
0.0
 10
21.4836057178004
 20
3.574999932370317
 42
0.4142135623731526
 10
21.74610571780044
 20
3.837499932370311
 42
0.0
 97
        0
 92
        7
 72
     1
 73
     1
 93
       24
 10
24.19610571780049
 20
9.96249993237032
 42
-0.4142135623731546
 10
24.45860571780054
 20
10.22499993237031
 42
0.0
 10
25.94610571780049
 20
10.22499993237031
 42
0.4142135623730911
 10
26.20860571780048
 20
10.48749993237031
 42
0.0
 10
26.20860571780048
 20
11.36249993237032
 42
0.4142135623730952
 10
25.94610571780049
 20
11.62499993237031
 42
0.0
 10
24.19610571780049
 20
11.62499993237031
 42
0.4142135623731048
 10
22.79610571780045
 20
10.22499993237033
 42
0.0
 10
22.79610571780045
 20
9.317398919692696
 42
0.1989123673796613
 10
23.41118147730873
 20
7.83247467920092
 42
0.0
 10
24.86608046463107
 20
6.377575691878586
 42
-0.1989123673796402
 10
25.07110571780049
 20
5.88260094504805
 42
0.0
 10
25.07110571780049
 20
5.237499932370312
 42
-0.4142135623730911
 10
24.8086057178005
 20
4.974999932370316
 42
0.0
 10
23.32110571780049
 20
4.974999932370316
 42
0.4142135623731526
 10
23.05860571780044
 20
4.712499932370322
 42
0.0
 10
23.05860571780044
 20
3.837499932370311
 42
0.4142135623730891
 10
23.32110571780043
 20
3.574999932370317
 42
0.0
 10
25.07110571780049
 20
3.574999932370317
 42
0.4142135623730925
 10
26.47110571780046
 20
4.974999932370305
 42
0.0
 10
26.47110571780046
 20
5.882600945047942
 42
0.1989123673796675
 10
25.85602995829219
 20
7.367525185539768
 42
0.0
 10
24.40113097096991
 20
8.822424172862026
 42
-0.1989123673796652
 10
24.19610571780049
 20
9.31739891969261
 42
0.0
 97
        0
 92
        7
 72
     1
 73
     1
 93
       16
 10
28.92110571780046
 20
11.36249993237031
 42
0.414213562373103
 10
28.65860571780046
 20
11.62499993237031
 42
0.0
 10
27.78360571780047
 20
11.62499993237031
 42
0.4142135623730871
 10
27.52110571780048
 20
11.36249993237032
 42
0.0
 10
27.52110571780048
 20
4.974999932370305
 42
0.4142135623730926
 10
28.92110571780046
 20
3.574999932370317
 42
0.0
 10
30.67110571780045
 20
3.574999932370317
 42
0.4142135623731044
 10
32.07110571780049
 20
4.974999932370305
 42
0.0
 10
32.07110571780049
 20
11.36249993237032
 42
0.4142135623730951
 10
31.8086057178005
 20
11.62499993237031
 42
0.0
 10
30.93360571780044
 20
11.62499993237031
 42
0.4142135623730871
 10
30.67110571780045
 20
11.36249993237032
 42
0.0
 10
30.67110571780045
 20
5.499999932370304
 42
-0.414213562373088
 10
30.14610571780048
 20
4.974999932370316
 42
0.0
 10
29.44610571780049
 20
4.974999932370316
 42
-0.4142135623731197
 10
28.92110571780046
 20
5.499999932370304
 42
0.0
 97
        0
 92
        7
 72
     1
 73
     1
 93
        8
 10
34.52110571780048
 20
11.36249993237032
 42
0.4142135623730871
 10
34.25860571780049
 20
11.62499993237031
 42
0.0
 10
33.38360571780049
 20
11.62499993237031
 42
0.4142135623731507
 10
33.12110571780044
 20
11.36249993237032
 42
0.0
 10
33.12110571780044
 20
3.837499932370311
 42
0.4142135623730891
 10
33.38360571780043
 20
3.574999932370317
 42
0.0
 10
34.25860571780049
 20
3.574999932370317
 42
0.4142135623730891
 10
34.52110571780048
 20
3.837499932370311
 42
0.0
 97
        0
 75
     0
 76
     1
 52
0.0
 41
0.1
 77
     0
 78
     2
 53
45.0
 43
-450.4711525269295
 44
-6.60000006762965
 45
-0.2245064030267288
 46
0.2245064030267288
 79
     0
 53
135.0
 43
-450.4711525269295
 44
-6.60000006762965
 45
-0.2245064030267288
 46
-0.2245064030267288
 79
     0
 47
0.057451373970553
 98
        8
 10
8.03992712192155
 20
7.583586755313092
 10
11.20225714362948
 20
9.42203102359582
 10
12.58218358323972
 20
7.755940755405674
 10
15.45702963122846
 20
8.100648755591066
 10
20.91923564988826
 20
8.330454889361874
 10
23.44910008797467
 20
9.70928809057392
 10
28.27884262661007
 20
9.364578889917822
 10
33.91353945022126
 20
9.59438502368863
  0
ARC
  5
23C2
330
1A
100
AcDbEntity
  8
ZUWAKU
100
AcDbCircle
 10
7.746105717800446
 20
9.317398919692667
 30
0.0
 40
2.099999999999999
100
AcDbArc
 50
180.0
 51
225.0
  0
LINE
  5
23C3
330
1A
100
AcDbEntity
  8
ZUWAKU
100
AcDbLine
 10
10.37110571780044
 20
5.674999932370319
 30
0.0
 11
10.37110571780044
 21
9.524999932370295
 31
0.0
  0
LINE
  5
23C4
330
1A
100
AcDbEntity
  8
ZUWAKU
100
AcDbLine
 10
11.77110571780048
 20
9.524999932370317
 30
0.0
 11
11.77110571780048
 21
5.674999932370319
 31
0.0
  0
ARC
  5
23C5
330
1A
100
AcDbEntity
  8
ZUWAKU
100
AcDbCircle
 10
7.746105717800446
 20
9.317398919692667
 30
0.0
 40
0.7
100
AcDbArc
 50
180.0000000000016
 51
224.9999999999988
  0
ARC
  5
23C6
330
1A
100
AcDbEntity
  8
ZUWAKU
100
AcDbCircle
 10
12.47110571780047
 20
5.674999932370319
 30
0.0
 40
2.099999999999999
100
AcDbArc
 50
180.0
 51
270.0
  0
ARC
  5
23C7
330
1A
100
AcDbEntity
  8
ZUWAKU
100
AcDbCircle
 10
7.921105717800458
 20
4.974999932370316
 30
0.0
 40
1.399999999999999
100
AcDbArc
 50
270.0
 51
0.0
  0
ARC
  5
23C8
330
1A
100
AcDbEntity
  8
ZUWAKU
100
AcDbCircle
 10
7.221105717800469
 20
5.882600945047968
 30
0.0
 40
2.099999999999999
100
AcDbArc
 50
0.0
 51
45.0
  0
LINE
  5
23C9
330
1A
100
AcDbEntity
  8
ZUWAKU
100
AcDbLine
 10
6.261181477308696
 20
7.832474679200906
 30
0.0
 11
7.716080464631033
 21
6.377575691878575
 31
0.0
  0
LINE
  5
23CA
330
1A
100
AcDbEntity
  8
ZUWAKU
100
AcDbLine
 10
6.171105717800458
 20
4.974999932370316
 30
0.0
 11
7.658605717800469
 21
4.974999932370316
 31
0.0
  0
LINE
  5
23CB
330
1A
100
AcDbEntity
  8
ZUWAKU
100
AcDbLine
 10
6.171105717800458
 20
3.574999932370317
 30
0.0
 11
7.921105717800458
 21
3.574999932370317
 31
0.0
  0
ARC
  5
23CC
330
1A
100
AcDbEntity
  8
ZUWAKU
100
AcDbCircle
 10
6.171105717800458
 20
4.712499932370317
 30
0.0
 40
0.2625
100
AcDbArc
 50
90.0
 51
180.0
  0
ARC
  5
23CD
330
1A
100
AcDbEntity
  8
ZUWAKU
100
AcDbCircle
 10
6.171105717800458
 20
3.837499932370317
 30
0.0
 40
0.2625
100
AcDbArc
 50
180.0
 51
270.0
  0
LINE
  5
23CE
330
1A
100
AcDbEntity
  8
ZUWAKU
100
AcDbLine
 10
5.908605717800469
 20
3.837499932370317
 30
0.0
 11
5.908605717800469
 21
4.712499932370317
 31
0.0
  0
ARC
  5
23CF
330
1A
100
AcDbEntity
  8
ZUWAKU
100
AcDbCircle
 10
7.221105717800469
 20
5.88260094504799
 30
0.0
 40
0.7
100
AcDbArc
 50
0.0
 51
45.0
  0
ARC
  5
23D0
330
1A
100
AcDbEntity
  8
ZUWAKU
100
AcDbCircle
 10
7.658605717800469
 20
5.237499932370319
 30
0.0
 40
0.2625
100
AcDbArc
 50
270.0
 51
0.0
  0
LINE
  5
23D1
330
1A
100
AcDbEntity
  8
ZUWAKU
100
AcDbLine
 10
7.921105717800458
 20
5.237499932370319
 30
0.0
 11
7.921105717800458
 21
5.88260094504799
 31
0.0
  0
LINE
  5
23D2
330
1A
100
AcDbEntity
  8
ZUWAKU
100
AcDbLine
 10
8.706029958292219
 20
7.367525185539729
 30
0.0
 11
7.251130970969882
 21
8.822424172862067
 31
0.0
  0
ARC
  5
23D3
330
1A
100
AcDbEntity
  8
ZUWAKU
100
AcDbCircle
 10
12.47110571780047
 20
5.674999932370319
 30
0.0
 40
0.7
100
AcDbArc
 50
180.0
 51
270.0
  0
LINE
  5
23D4
330
1A
100
AcDbEntity
  8
ZUWAKU
100
AcDbLine
 10
9.321105717800492
 20
4.974999932370316
 30
0.0
 11
9.321105717800492
 21
5.88260094504799
 31
0.0
  0
ARC
  5
23D5
330
1A
100
AcDbEntity
  8
ZUWAKU
100
AcDbCircle
 10
8.796105717800458
 20
10.48749993237031
 30
0.0
 40
0.2625
100
AcDbArc
 50
270.0
 51
0.0
  0
ARC
  5
23D6
330
1A
100
AcDbEntity
  8
ZUWAKU
100
AcDbCircle
 10
8.796105717800458
 20
11.36249993237031
 30
0.0
 40
0.2625
100
AcDbArc
 50
0.0
 51
90.0
  0
ARC
  5
23D7
330
1A
100
AcDbEntity
  8
ZUWAKU
100
AcDbCircle
 10
7.046105717800458
 20
10.22499993237031
 30
0.0
 40
1.399999999999999
100
AcDbArc
 50
90.0
 51
180.0
  0
LINE
  5
23D8
330
1A
100
AcDbEntity
  8
ZUWAKU
100
AcDbLine
 10
5.64610571780048
 20
10.22499993237031
 30
0.0
 11
5.64610571780048
 21
9.317398919692646
 31
0.0
  0
LINE
  5
23D9
330
1A
100
AcDbEntity
  8
ZUWAKU
100
AcDbLine
 10
8.796105717800458
 20
10.22499993237031
 30
0.0
 11
7.308605717800446
 21
10.22499993237031
 31
0.0
  0
LINE
  5
23DA
330
1A
100
AcDbEntity
  8
ZUWAKU
100
AcDbLine
 10
7.046105717800458
 20
9.962499932370317
 30
0.0
 11
7.046105717800458
 21
9.317398919692646
 31
0.0
  0
ARC
  5
23DB
330
1A
100
AcDbEntity
  8
ZUWAKU
100
AcDbCircle
 10
7.308605717800446
 20
9.962499932370317
 30
0.0
 40
0.2625
100
AcDbArc
 50
90.0
 51
180.0
  0
LINE
  5
23DC
330
1A
100
AcDbEntity
  8
ZUWAKU
100
AcDbLine
 10
7.046105717800458
 20
11.62499993237031
 30
0.0
 11
8.796105717800458
 21
11.62499993237031
 31
0.0
  0
ARC
  5
23DD
330
1A
100
AcDbEntity
  8
ZUWAKU
100
AcDbCircle
 10
12.47110571780047
 20
9.524999932370295
 30
0.0
 40
2.099999999999999
100
AcDbArc
 50
90.0
 51
180.0
  0
ARC
  5
23DE
330
1A
100
AcDbEntity
  8
ZUWAKU
100
AcDbCircle
 10
12.47110571780047
 20
9.524999932370317
 30
0.0
 40
0.7
100
AcDbArc
 50
90.0
 51
180.0
  0
LINE
  5
23DF
330
1A
100
AcDbEntity
  8
ZUWAKU
100
AcDbLine
 10
9.058605717800446
 20
11.36249993237031
 30
0.0
 11
9.058605717800446
 21
10.48749993237031
 31
0.0
  0
LINE
  5
23E0
330
1A
100
AcDbEntity
  8
ZUWAKU
100
AcDbLine
 10
17.83817318645839
 20
11.4415469164538
 30
0.0
 11
16.9040382491425
 21
8.483452948286831
 31
0.0
  0
LINE
  5
23E1
330
1A
100
AcDbEntity
  8
ZUWAKU
100
AcDbLine
 10
14.92110571780045
 20
11.36249993237031
 30
0.0
 11
14.92110571780045
 21
3.837499932370317
 31
0.0
  0
LINE
  5
23E2
330
1A
100
AcDbEntity
  8
ZUWAKU
100
AcDbLine
 10
16.32110571780049
 20
8.562499932370318
 30
0.0
 11
16.32110571780049
 21
11.36249993237031
 31
0.0
  0
LINE
  5
23E3
330
1A
100
AcDbEntity
  8
ZUWAKU
100
AcDbLine
 10
28.92110571780046
 20
5.499999932370315
 30
0.0
 11
28.92110571780046
 21
11.36249993237031
 31
0.0
  0
LINE
  5
23E4
330
1A
100
AcDbEntity
  8
ZUWAKU
100
AcDbLine
 10
27.52110571780048
 20
11.36249993237031
 30
0.0
 11
27.52110571780048
 21
4.974999932370316
 31
0.0
  0
LINE
  5
23E5
330
1A
100
AcDbEntity
  8
ZUWAKU
100
AcDbLine
 10
21.74610571780044
 20
3.837499932370317
 30
0.0
 11
21.74610571780044
 21
11.36249993237031
 31
0.0
  0
LINE
  5
23E6
330
1A
100
AcDbEntity
  8
ZUWAKU
100
AcDbLine
 10
20.34610571780047
 20
11.36249993237031
 30
0.0
 11
20.34610571780047
 21
3.837499932370317
 31
0.0
  0
LINE
  5
23E7
330
1A
100
AcDbEntity
  8
ZUWAKU
100
AcDbLine
 10
18.65742895888945
 20
9.60252352915203
 30
0.0
 11
18.02505308622153
 21
7.599999932370327
 31
0.0
  0
ARC
  5
23E8
330
1A
100
AcDbEntity
  8
ZUWAKU
100
AcDbCircle
 10
24.89610571780048
 20
9.317398919692667
 30
0.0
 40
2.099999999999999
100
AcDbArc
 50
180.0
 51
225.0
  0
ARC
  5
23E9
330
1A
100
AcDbEntity
  8
ZUWAKU
100
AcDbCircle
 10
24.89610571780048
 20
9.317398919692667
 30
0.0
 40
0.7
100
AcDbArc
 50
180.0000000000016
 51
224.9999999999988
  0
LINE
  5
23EA
330
1A
100
AcDbEntity
  8
ZUWAKU
100
AcDbLine
 10
33.12110571780044
 20
11.36249993237031
 30
0.0
 11
33.12110571780044
 21
3.837499932370317
 31
0.0
  0
LINE
  5
23EB
330
1A
100
AcDbEntity
  8
ZUWAKU
100
AcDbLine
 10
34.52110571780048
 20
3.837499932370317
 30
0.0
 11
34.52110571780048
 21
11.36249993237031
 31
0.0
  0
LINE
  5
23EC
330
1A
100
AcDbEntity
  8
ZUWAKU
100
AcDbLine
 10
30.67110571780045
 20
11.36249993237031
 30
0.0
 11
30.67110571780045
 21
5.499999932370315
 31
0.0
  0
LINE
  5
23ED
330
1A
100
AcDbEntity
  8
ZUWAKU
100
AcDbLine
 10
32.07110571780049
 20
4.974999932370316
 30
0.0
 11
32.07110571780049
 21
11.36249993237031
 31
0.0
  0
LINE
  5
23EE
330
1A
100
AcDbEntity
  8
ZUWAKU
100
AcDbLine
 10
39.56331441440409
 20
14.99999993237031
 30
0.0
 11
39.56331441440409
 21
0.3999999323703491
 31
0.0
  0
LINE
  5
23EF
330
1A
100
AcDbEntity
  8
ZUWAKU
100
AcDbLine
 10
39.76331441440402
 20
14.99999993237031
 30
0.0
 11
39.76331441440413
 21
0.3999999323703491
 31
0.0
  0
LINE
  5
23F0
330
1A
100
AcDbEntity
  8
ZUWAKU
100
AcDbLine
 10
39.663314414404
 20
14.99999993237031
 30
0.0
 11
39.66331441440411
 21
0.3999999323703491
 31
0.0
  0
LINE
  5
23F1
330
1A
100
AcDbEntity
  8
ZUWAKU
100
AcDbLine
 10
28.92110571780046
 20
3.574999932370317
 30
0.0
 11
30.67110571780045
 21
3.574999932370317
 31
0.0
  0
LINE
  5
23F2
330
1A
100
AcDbEntity
  8
ZUWAKU
100
AcDbLine
 10
30.14610571780048
 20
4.974999932370316
 30
0.0
 11
29.44610571780049
 21
4.974999932370316
 31
0.0
  0
LINE
  5
23F3
330
1A
100
AcDbEntity
  8
ZUWAKU
100
AcDbLine
 10
20.60860571780045
 20
3.574999932370317
 30
0.0
 11
21.48360571780045
 21
3.574999932370317
 31
0.0
  0
LINE
  5
23F4
330
1A
100
AcDbEntity
  8
ZUWAKU
100
AcDbLine
 10
17.83817318645839
 20
3.75845294828683
 30
0.0
 11
16.9040382491425
 21
6.7165469164538
 31
0.0
  0
ARC
  5
23F5
330
1A
100
AcDbEntity
  8
ZUWAKU
100
AcDbCircle
 10
16.58360571780048
 20
6.637499932370317
 30
0.0
 40
0.2625
100
AcDbArc
 50
90.0
 51
180.0
  0
ARC
  5
23F6
330
1A
100
AcDbEntity
  8
ZUWAKU
100
AcDbCircle
 10
16.65372279954482
 20
6.637499932370317
 30
0.0
 40
0.2625
100
AcDbArc
 50
17.52556837372303
 51
90.0
  0
ARC
  5
23F7
330
1A
100
AcDbEntity
  8
ZUWAKU
100
AcDbCircle
 10
15.18360571780044
 20
3.837499932370317
 30
0.0
 40
0.2625
100
AcDbArc
 50
180.0
 51
270.0
  0
ARC
  5
23F8
330
1A
100
AcDbEntity
  8
ZUWAKU
100
AcDbCircle
 10
13.43360571780044
 20
4.712499932370317
 30
0.0
 40
0.2625
100
AcDbArc
 50
0.0
 51
90.0
  0
ARC
  5
23F9
330
1A
100
AcDbEntity
  8
ZUWAKU
100
AcDbCircle
 10
13.43360571780044
 20
3.837499932370317
 30
0.0
 40
0.2625
100
AcDbArc
 50
270.0
 51
0.0
  0
LINE
  5
23FA
330
1A
100
AcDbEntity
  8
ZUWAKU
100
AcDbLine
 10
13.69610571780049
 20
4.712499932370317
 30
0.0
 11
13.69610571780049
 21
3.837499932370317
 31
0.0
  0
LINE
  5
23FB
330
1A
100
AcDbEntity
  8
ZUWAKU
100
AcDbLine
 10
16.32110571780049
 20
3.837499932370317
 30
0.0
 11
16.32110571780049
 21
6.637499932370317
 31
0.0
  0
ARC
  5
23FC
330
1A
100
AcDbEntity
  8
ZUWAKU
100
AcDbCircle
 10
16.05860571780044
 20
3.837499932370317
 30
0.0
 40
0.2625
100
AcDbArc
 50
270.0
 51
0.0
  0
LINE
  5
23FD
330
1A
100
AcDbEntity
  8
ZUWAKU
100
AcDbLine
 10
15.18360571780044
 20
3.574999932370317
 30
0.0
 11
16.05860571780044
 21
3.574999932370317
 31
0.0
  0
ARC
  5
23FE
330
1A
100
AcDbEntity
  8
ZUWAKU
100
AcDbCircle
 10
16.58360571780048
 20
8.562499932370318
 30
0.0
 40
0.2625
100
AcDbArc
 50
180.0
 51
270.0
  0
LINE
  5
23FF
330
1A
100
AcDbEntity
  8
ZUWAKU
100
AcDbLine
 10
16.58360571780048
 20
6.899999932370317
 30
0.0
 11
16.65372279954482
 21
6.899999932370317
 31
0.0
  0
LINE
  5
2400
330
1A
100
AcDbEntity
  8
ZUWAKU
100
AcDbLine
 10
16.65372279954482
 20
8.299999932370315
 30
0.0
 11
16.58360571780048
 21
8.299999932370315
 31
0.0
  0
ARC
  5
2401
330
1A
100
AcDbEntity
  8
ZUWAKU
100
AcDbCircle
 10
16.65372279954482
 20
8.562499932370318
 30
0.0
 40
0.2625
100
AcDbArc
 50
270.0
 51
342.4744316262769
  0
ARC
  5
2402
330
1A
100
AcDbEntity
  8
ZUWAKU
100
AcDbCircle
 10
18.08848863605612
 20
3.837499932370317
 30
0.0
 40
0.2625
100
AcDbArc
 50
197.525568373723
 51
270.0
  0
LINE
  5
2403
330
1A
100
AcDbEntity
  8
ZUWAKU
100
AcDbLine
 10
19.18824877545836
 20
3.916546916453803
 30
0.0
 11
18.02505308622153
 21
7.599999932370327
 31
0.0
  0
ARC
  5
2404
330
1A
100
AcDbEntity
  8
ZUWAKU
100
AcDbCircle
 10
18.93793332586062
 20
3.837499932370317
 30
0.0
 40
0.2625
100
AcDbArc
 50
270.0
 51
17.52556837372303
  0
LINE
  5
2405
330
1A
100
AcDbEntity
  8
ZUWAKU
100
AcDbLine
 10
18.08848863605612
 20
3.574999932370317
 30
0.0
 11
18.93793332586062
 21
3.574999932370317
 31
0.0
  0
ARC
  5
2406
330
1A
100
AcDbEntity
  8
ZUWAKU
100
AcDbCircle
 10
20.60860571780045
 20
3.837499932370317
 30
0.0
 40
0.2625
100
AcDbArc
 50
180.0
 51
270.0
  0
ARC
  5
2407
330
1A
100
AcDbEntity
  8
ZUWAKU
100
AcDbCircle
 10
25.07110571780049
 20
4.974999932370316
 30
0.0
 40
1.399999999999999
100
AcDbArc
 50
270.0
 51
0.0
  0
ARC
  5
2408
330
1A
100
AcDbEntity
  8
ZUWAKU
100
AcDbCircle
 10
28.92110571780046
 20
4.974999932370316
 30
0.0
 40
1.399999999999999
100
AcDbArc
 50
180.0
 51
270.0
  0
LINE
  5
2409
330
1A
100
AcDbEntity
  8
ZUWAKU
100
AcDbLine
 10
25.85602995829225
 20
7.367525185539729
 30
0.0
 11
24.40113097096986
 21
8.822424172862067
 31
0.0
  0
LINE
  5
240A
330
1A
100
AcDbEntity
  8
ZUWAKU
100
AcDbLine
 10
23.41118147730873
 20
7.832474679200906
 30
0.0
 11
24.86608046463107
 21
6.377575691878575
 31
0.0
  0
LINE
  5
240B
330
1A
100
AcDbEntity
  8
ZUWAKU
100
AcDbLine
 10
23.32110571780049
 20
3.574999932370317
 30
0.0
 11
25.07110571780049
 21
3.574999932370317
 31
0.0
  0
LINE
  5
240C
330
1A
100
AcDbEntity
  8
ZUWAKU
100
AcDbLine
 10
23.32110571780049
 20
4.974999932370316
 30
0.0
 11
24.80860571780044
 21
4.974999932370316
 31
0.0
  0
ARC
  5
240D
330
1A
100
AcDbEntity
  8
ZUWAKU
100
AcDbCircle
 10
23.32110571780049
 20
4.712499932370317
 30
0.0
 40
0.2625
100
AcDbArc
 50
90.0
 51
180.0
  0
ARC
  5
240E
330
1A
100
AcDbEntity
  8
ZUWAKU
100
AcDbCircle
 10
21.48360571780045
 20
3.837499932370317
 30
0.0
 40
0.2625
100
AcDbArc
 50
270.0
 51
0.0
  0
ARC
  5
240F
330
1A
100
AcDbEntity
  8
ZUWAKU
100
AcDbCircle
 10
23.32110571780049
 20
3.837499932370317
 30
0.0
 40
0.2625
100
AcDbArc
 50
180.0
 51
270.0
  0
LINE
  5
2410
330
1A
100
AcDbEntity
  8
ZUWAKU
100
AcDbLine
 10
23.05860571780044
 20
3.837499932370317
 30
0.0
 11
23.05860571780044
 21
4.712499932370317
 31
0.0
  0
ARC
  5
2411
330
1A
100
AcDbEntity
  8
ZUWAKU
100
AcDbCircle
 10
24.80860571780044
 20
5.237499932370319
 30
0.0
 40
0.2625
100
AcDbArc
 50
270.0
 51
0.0
  0
ARC
  5
2412
330
1A
100
AcDbEntity
  8
ZUWAKU
100
AcDbCircle
 10
24.37110571780044
 20
5.88260094504799
 30
0.0
 40
0.7
100
AcDbArc
 50
0.0
 51
45.0
  0
LINE
  5
2413
330
1A
100
AcDbEntity
  8
ZUWAKU
100
AcDbLine
 10
25.07110571780049
 20
5.237499932370319
 30
0.0
 11
25.07110571780049
 21
5.88260094504799
 31
0.0
  0
ARC
  5
2414
330
1A
100
AcDbEntity
  8
ZUWAKU
100
AcDbCircle
 10
29.44610571780049
 20
5.499999932370315
 30
0.0
 40
0.525
100
AcDbArc
 50
180.0
 51
270.0
  0
ARC
  5
2415
330
1A
100
AcDbEntity
  8
ZUWAKU
100
AcDbCircle
 10
24.37110571780044
 20
5.882600945047968
 30
0.0
 40
2.099999999999999
100
AcDbArc
 50
0.0
 51
45.0
  0
LINE
  5
2416
330
1A
100
AcDbEntity
  8
ZUWAKU
100
AcDbLine
 10
26.47110571780046
 20
4.974999932370316
 30
0.0
 11
26.47110571780046
 21
5.88260094504799
 31
0.0
  0
ARC
  5
2417
330
1A
100
AcDbEntity
  8
ZUWAKU
100
AcDbCircle
 10
30.67110571780045
 20
4.974999932370316
 30
0.0
 40
1.399999999999999
100
AcDbArc
 50
270.0
 51
0.0
  0
LINE
  5
2418
330
1A
100
AcDbEntity
  8
ZUWAKU
100
AcDbLine
 10
33.38360571780049
 20
3.574999932370317
 30
0.0
 11
34.25860571780049
 21
3.574999932370317
 31
0.0
  0
ARC
  5
2419
330
1A
100
AcDbEntity
  8
ZUWAKU
100
AcDbCircle
 10
30.14610571780048
 20
5.499999932370315
 30
0.0
 40
0.525
100
AcDbArc
 50
270.0
 51
0.0
  0
ARC
  5
241A
330
1A
100
AcDbEntity
  8
ZUWAKU
100
AcDbCircle
 10
33.38360571780049
 20
3.837499932370317
 30
0.0
 40
0.2625
100
AcDbArc
 50
180.0
 51
270.0
  0
ARC
  5
241B
330
1A
100
AcDbEntity
  8
ZUWAKU
100
AcDbCircle
 10
34.25860571780049
 20
3.837499932370317
 30
0.0
 40
0.2625
100
AcDbArc
 50
270.0
 51
0.0
  0
LINE
  5
241C
330
1A
100
AcDbEntity
  8
ZUWAKU
100
AcDbLine
 10
21.48360571780045
 20
11.62499993237031
 30
0.0
 11
20.60860571780045
 21
11.62499993237031
 31
0.0
  0
LINE
  5
241D
330
1A
100
AcDbEntity
  8
ZUWAKU
100
AcDbLine
 10
13.69610571780049
 20
11.36249993237031
 30
0.0
 11
13.69610571780049
 21
10.48749993237031
 31
0.0
  0
ARC
  5
241E
330
1A
100
AcDbEntity
  8
ZUWAKU
100
AcDbCircle
 10
13.43360571780044
 20
10.48749993237031
 30
0.0
 40
0.2625
100
AcDbArc
 50
270.0
 51
0.0
  0
ARC
  5
241F
330
1A
100
AcDbEntity
  8
ZUWAKU
100
AcDbCircle
 10
15.18360571780044
 20
11.36249993237031
 30
0.0
 40
0.2625
100
AcDbArc
 50
90.0
 51
180.0
  0
ARC
  5
2420
330
1A
100
AcDbEntity
  8
ZUWAKU
100
AcDbCircle
 10
13.43360571780044
 20
11.36249993237031
 30
0.0
 40
0.2625
100
AcDbArc
 50
0.0
 51
90.0
  0
LINE
  5
2421
330
1A
100
AcDbEntity
  8
ZUWAKU
100
AcDbLine
 10
16.05860571780044
 20
11.62499993237031
 30
0.0
 11
15.18360571780044
 21
11.62499993237031
 31
0.0
  0
ARC
  5
2422
330
1A
100
AcDbEntity
  8
ZUWAKU
100
AcDbCircle
 10
16.05860571780044
 20
11.36249993237031
 30
0.0
 40
0.2625
100
AcDbArc
 50
0.0
 51
90.0
  0
ARC
  5
2423
330
1A
100
AcDbEntity
  8
ZUWAKU
100
AcDbCircle
 10
18.08848863605612
 20
11.36249993237031
 30
0.0
 40
0.2625
100
AcDbArc
 50
90.0
 51
162.4744316262769
  0
LINE
  5
2424
330
1A
100
AcDbEntity
  8
ZUWAKU
100
AcDbLine
 10
19.18824877545836
 20
11.28345294828683
 30
0.0
 11
18.65742895888945
 21
9.60252352915203
 31
0.0
  0
ARC
  5
2425
330
1A
100
AcDbEntity
  8
ZUWAKU
100
AcDbCircle
 10
18.93793332586062
 20
11.36249993237031
 30
0.0
 40
0.2625
100
AcDbArc
 50
342.4744316262769
 51
90.0
  0
LINE
  5
2426
330
1A
100
AcDbEntity
  8
ZUWAKU
100
AcDbLine
 10
18.08848863605612
 20
11.62499993237031
 30
0.0
 11
18.93793332586062
 21
11.62499993237031
 31
0.0
  0
ARC
  5
2427
330
1A
100
AcDbEntity
  8
ZUWAKU
100
AcDbCircle
 10
20.60860571780045
 20
11.36249993237031
 30
0.0
 40
0.2625
100
AcDbArc
 50
90.0
 51
180.0
  0
LINE
  5
2428
330
1A
100
AcDbEntity
  8
ZUWAKU
100
AcDbLine
 10
25.94610571780049
 20
10.22499993237031
 30
0.0
 11
24.45860571780048
 21
10.22499993237031
 31
0.0
  0
LINE
  5
2429
330
1A
100
AcDbEntity
  8
ZUWAKU
100
AcDbLine
 10
24.19610571780049
 20
11.62499993237031
 30
0.0
 11
25.94610571780049
 21
11.62499993237031
 31
0.0
  0
ARC
  5
242A
330
1A
100
AcDbEntity
  8
ZUWAKU
100
AcDbCircle
 10
24.19610571780049
 20
10.22499993237031
 30
0.0
 40
1.399999999999999
100
AcDbArc
 50
90.0
 51
180.0
  0
LINE
  5
242B
330
1A
100
AcDbEntity
  8
ZUWAKU
100
AcDbLine
 10
22.79610571780045
 20
10.22499993237031
 30
0.0
 11
22.79610571780045
 21
9.317398919692646
 31
0.0
  0
ARC
  5
242C
330
1A
100
AcDbEntity
  8
ZUWAKU
100
AcDbCircle
 10
21.48360571780045
 20
11.36249993237031
 30
0.0
 40
0.2625
100
AcDbArc
 50
0.0
 51
90.0
  0
LINE
  5
242D
330
1A
100
AcDbEntity
  8
ZUWAKU
100
AcDbLine
 10
24.19610571780049
 20
9.962499932370317
 30
0.0
 11
24.19610571780049
 21
9.317398919692646
 31
0.0
  0
ARC
  5
242E
330
1A
100
AcDbEntity
  8
ZUWAKU
100
AcDbCircle
 10
24.45860571780048
 20
9.962499932370317
 30
0.0
 40
0.2625
100
AcDbArc
 50
90.0
 51
180.0
  0
LINE
  5
242F
330
1A
100
AcDbEntity
  8
ZUWAKU
100
AcDbLine
 10
26.20860571780048
 20
11.36249993237031
 30
0.0
 11
26.20860571780048
 21
10.48749993237031
 31
0.0
  0
ARC
  5
2430
330
1A
100
AcDbEntity
  8
ZUWAKU
100
AcDbCircle
 10
25.94610571780049
 20
10.48749993237031
 30
0.0
 40
0.2625
100
AcDbArc
 50
270.0
 51
0.0
  0
ARC
  5
2431
330
1A
100
AcDbEntity
  8
ZUWAKU
100
AcDbCircle
 10
25.94610571780049
 20
11.36249993237031
 30
0.0
 40
0.2625
100
AcDbArc
 50
0.0
 51
90.0
  0
LINE
  5
2432
330
1A
100
AcDbEntity
  8
ZUWAKU
100
AcDbLine
 10
28.65860571780046
 20
11.62499993237031
 30
0.0
 11
27.78360571780047
 21
11.62499993237031
 31
0.0
  0
ARC
  5
2433
330
1A
100
AcDbEntity
  8
ZUWAKU
100
AcDbCircle
 10
27.78360571780047
 20
11.36249993237031
 30
0.0
 40
0.2625
100
AcDbArc
 50
90.0
 51
180.0
  0
ARC
  5
2434
330
1A
100
AcDbEntity
  8
ZUWAKU
100
AcDbCircle
 10
28.65860571780046
 20
11.36249993237031
 30
0.0
 40
0.2625
100
AcDbArc
 50
0.0
 51
90.0
  0
LINE
  5
2435
330
1A
100
AcDbEntity
  8
ZUWAKU
100
AcDbLine
 10
34.25860571780049
 20
11.62499993237031
 30
0.0
 11
33.38360571780049
 21
11.62499993237031
 31
0.0
  0
ARC
  5
2436
330
1A
100
AcDbEntity
  8
ZUWAKU
100
AcDbCircle
 10
30.93360571780044
 20
11.36249993237031
 30
0.0
 40
0.2625
100
AcDbArc
 50
90.0
 51
180.0
  0
LINE
  5
2437
330
1A
100
AcDbEntity
  8
ZUWAKU
100
AcDbLine
 10
31.80860571780044
 20
11.62499993237031
 30
0.0
 11
30.93360571780044
 21
11.62499993237031
 31
0.0
  0
ARC
  5
2438
330
1A
100
AcDbEntity
  8
ZUWAKU
100
AcDbCircle
 10
31.80860571780044
 20
11.36249993237031
 30
0.0
 40
0.2625
100
AcDbArc
 50
0.0
 51
90.0
  0
ARC
  5
2439
330
1A
100
AcDbEntity
  8
ZUWAKU
100
AcDbCircle
 10
33.38360571780049
 20
11.36249993237031
 30
0.0
 40
0.2625
100
AcDbArc
 50
90.0
 51
180.0
  0
ARC
  5
243A
330
1A
100
AcDbEntity
  8
ZUWAKU
100
AcDbCircle
 10
34.25860571780049
 20
11.36249993237031
 30
0.0
 40
0.2625
100
AcDbArc
 50
0.0
 51
90.0
  0
TEXT
  5
243B
330
1A
100
AcDbEntity
  8
MOJI
100
AcDbText
 10
119.9136009808354
 20
1.602460461074025
 30
0.0
 40
2.799999999999999
  1
ＲＶ１０５－０－１０
 41
0.9
  7
ｽﾀｲﾙ1
100
AcDbText
  0
TEXT
  5
243C
330
1A
100
AcDbEntity
  8
MOJI
100
AcDbText
 10
119.9136009808354
 20
9.002460461074008
 30
0.0
 40
2.799999999999999
  1
亜鉛メッキ金具正面打（受）ストロング高強度金具丸使い
 41
0.9
  7
ｽﾀｲﾙ1
100
AcDbText
  0
LINE
  5
243D
330
1A
100
AcDbEntity
  8
ZUWAKU
100
AcDbLine
 10
104.2233002854437
 20
14.99999993237031
 30
0.0
 11
104.2233002854438
 21
0.3999999323703491
 31
0.0
  0
LINE
  5
243E
330
1A
100
AcDbEntity
  8
ZUWAKU
100
AcDbLine
 10
104.3233002854437
 20
14.99999993237031
 30
0.0
 11
104.3233002854438
 21
0.3999999323703491
 31
0.0
  0
LINE
  5
243F
330
1A
100
AcDbEntity
  8
ZUWAKU
100
AcDbLine
 10
104.1233002854438
 20
14.99999993237031
 30
0.0
 11
104.1233002854438
 21
0.3999999323703491
 31
0.0
  0
TEXT
  5
2440
330
1A
100
AcDbEntity
  8
ZUWAKU
100
AcDbText
 10
104.8620227965486
 20
4.827678201563124
 30
0.0
 40
2.0
  1
サイズ
 41
0.9
  7
ｽﾀｲﾙ1
100
AcDbText
  0
TEXT
  5
2441
330
1A
100
AcDbEntity
  8
ZUWAKU
100
AcDbText
 10
104.8620227965485
 20
12.0276782015631
 30
0.0
 40
2.0
  1
品名
 41
0.9
  7
ｽﾀｲﾙ1
100
AcDbText
  0
TEXT
  5
2442
330
1A
100
AcDbEntity
  8
ZUWAKU
100
AcDbText
 10
329.1019684840611
 20
9.002460461074008
 30
0.0
 40
2.799999999999999
  1
　　．　　．　　
 41
0.9
  7
ｽﾀｲﾙ1
100
AcDbText
  0
LINE
  5
2443
330
1A
100
AcDbEntity
  8
ZUWAKU
100
AcDbLine
 10
324.408600895512
 20
7.799999932370331
 30
0.0
 11
348.6245049146805
 21
7.799999932370331
 31
0.0
  0
LINE
  5
2444
330
1A
100
AcDbEntity
  8
ZUWAKU
100
AcDbLine
 10
324.4086008955121
 20
7.699999932370333
 30
0.0
 11
348.6245049146805
 21
7.699999932370332
 31
0.0
  0
LINE
  5
2445
330
1A
100
AcDbEntity
  8
ZUWAKU
100
AcDbLine
 10
324.408600895512
 20
7.59999993237033
 30
0.0
 11
348.6245049146805
 21
7.599999932370332
 31
0.0
  0
LINE
  5
2446
330
1A
100
AcDbEntity
  8
ZUWAKU
100
AcDbLine
 10
252.5995893894803
 20
7.799999932370331
 30
0.0
 11
276.2634775234661
 21
7.799999932370331
 31
0.0
  0
LINE
  5
2447
330
1A
100
AcDbEntity
  8
ZUWAKU
100
AcDbLine
 10
252.5995893894803
 20
7.699999932370332
 30
0.0
 11
276.2634775234661
 21
7.699999932370332
 31
0.0
  0
LINE
  5
2448
330
1A
100
AcDbEntity
  8
ZUWAKU
100
AcDbLine
 10
252.5995893894803
 20
7.599999932370334
 30
0.0
 11
276.2634775234661
 21
7.599999932370334
 31
0.0
  0
LINE
  5
2449
330
1A
100
AcDbEntity
  8
ZUWAKU
100
AcDbLine
 10
252.3995893894804
 20
14.99999993237031
 30
0.0
 11
252.3995893894804
 21
0.3999999323703491
 31
0.0
  0
LINE
  5
244A
330
1A
100
AcDbEntity
  8
ZUWAKU
100
AcDbLine
 10
252.5995893894803
 20
14.99999993237031
 30
0.0
 11
252.5995893894804
 21
0.3999999323703491
 31
0.0
  0
LINE
  5
244B
330
1A
100
AcDbEntity
  8
ZUWAKU
100
AcDbLine
 10
252.4995893894803
 20
14.99999993237031
 30
0.0
 11
252.4995893894804
 21
0.3999999323703491
 31
0.0
  0
TEXT
  5
244C
330
1A
100
AcDbEntity
  8
MOJI
100
AcDbText
 10
264.0204536265663
 20
9.002460461074008
 30
0.0
 40
2.799999999999999
  1
Ａ３
 41
0.9
  7
ｽﾀｲﾙ1
100
AcDbText
  0
LINE
  5
244D
330
1A
100
AcDbEntity
  8
ZUWAKU
100
AcDbLine
 10
223.7121816259056
 20
14.99999993237031
 30
0.0
 11
223.7121816259056
 21
0.3999999323703491
 31
0.0
  0
LINE
  5
244E
330
1A
100
AcDbEntity
  8
ZUWAKU
100
AcDbLine
 10
223.9121816259055
 20
14.99999993237031
 30
0.0
 11
223.9121816259056
 21
0.3999999323703491
 31
0.0
  0
LINE
  5
244F
330
1A
100
AcDbEntity
  8
ZUWAKU
100
AcDbLine
 10
223.8121816259055
 20
14.99999993237031
 30
0.0
 11
223.8121816259056
 21
0.3999999323703491
 31
0.0
  0
TEXT
  5
2450
330
1A
100
AcDbEntity
  8
MOJI
100
AcDbText
 10
231.2836388014042
 20
5.971308793200307
 30
0.0
 40
2.799999999999999
  1
ＬＬ３９Ｇ
 41
0.9
  7
ｽﾀｲﾙ1
100
AcDbText
  0
TEXT
  5
2452
330
1A
100
AcDbEntity
  8
ZUWAKU
100
AcDbText
 10
253.3383119005852
 20
4.827678201563124
 30
0.0
 40
2.0
  1
縮尺
 41
0.9
  7
ｽﾀｲﾙ1
100
AcDbText
  0
TEXT
  5
2453
330
1A
100
AcDbEntity
  8
MOJI
100
AcDbText
 10
264.0204536265663
 20
1.602460461074025
 30
0.0
 40
2.799999999999999
  1
１/１
 41
0.9
  7
ｽﾀｲﾙ1
100
AcDbText
  0
TEXT
  5
2454
330
1A
100
AcDbEntity
  8
ZUWAKU
100
AcDbText
 10
224.6509041370103
 20
12.0276782015631
 30
0.0
 40
2.0
  1
品番
 41
0.9
  7
ｽﾀｲﾙ1
100
AcDbText
  0
TEXT
  5
2455
330
1A
100
AcDbEntity
  8
ZUWAKU
100
AcDbText
 10
253.3383119005851
 20
12.0276782015631
 30
0.0
 40
2.0
  1
用紙
 41
0.9
  7
ｽﾀｲﾙ1
100
AcDbText
  0
LINE
  5
2456
330
1A
100
AcDbEntity
  8
ZUWAKU
100
AcDbLine
 10
276.2634775234661
 20
14.99999993237031
 30
0.0
 11
276.2634775234661
 21
0.3999999323703491
 31
0.0
  0
LINE
  5
2457
330
1A
100
AcDbEntity
  8
ZUWAKU
100
AcDbLine
 10
276.463477523466
 20
14.99999993237031
 30
0.0
 11
276.4634775234661
 21
0.3999999323703491
 31
0.0
  0
LINE
  5
2458
330
1A
100
AcDbEntity
  8
ZUWAKU
100
AcDbLine
 10
276.363477523466
 20
14.99999993237031
 30
0.0
 11
276.3634775234661
 21
0.3999999323703491
 31
0.0
  0
LINE
  5
2459
330
1A
100
AcDbEntity
  8
ZUWAKU
100
AcDbLine
 10
324.2086008955122
 20
14.99999993237031
 30
0.0
 11
324.2086008955122
 21
0.3999999323703491
 31
0.0
  0
LINE
  5
245A
330
1A
100
AcDbEntity
  8
ZUWAKU
100
AcDbLine
 10
324.4086008955121
 20
14.99999993237031
 30
0.0
 11
324.4086008955122
 21
0.3999999323703491
 31
0.0
  0
LINE
  5
245B
330
1A
100
AcDbEntity
  8
ZUWAKU
100
AcDbLine
 10
324.3086008955121
 20
14.99999993237031
 30
0.0
 11
324.3086008955121
 21
0.3999999323703491
 31
0.0
  0
TEXT
  5
245C
330
1A
100
AcDbEntity
  8
ZUWAKU
100
AcDbText
 10
325.1473234066169
 20
12.0276782015631
 30
0.0
 40
2.0
  1
DATE
 41
0.9
  7
ｽﾀｲﾙ1
100
AcDbText
  0
TEXT
  5
245D
330
1A
100
AcDbEntity
  8
ZUWAKU
100
AcDbText
 10
354.2640417365317
 20
8.776919600213716
 30
0.0
 40
3.0
  1
積水化学工業株式会社
 41
0.9
  7
ｽﾀｲﾙ1
100
AcDbText
  0
LINE
  5
245E
330
1A
100
AcDbEntity
  8
ZUWAKU
100
AcDbLine
 10
348.9245049146804
 20
14.99999993237031
 30
0.0
 11
348.9245049146806
 21
0.3999999323703491
 31
0.0
  0
LINE
  5
245F
330
1A
100
AcDbEntity
  8
ZUWAKU
100
AcDbLine
 10
348.8245049146804
 20
14.99999993237031
 30
0.0
 11
348.8245049146805
 21
0.3999999323703491
 31
0.0
  0
LINE
  5
2460
330
1A
100
AcDbEntity
  8
ZUWAKU
100
AcDbLine
 10
348.7245049146805
 20
14.99999993237031
 30
0.0
 11
348.7245049146805
 21
0.3999999323703491
 31
0.0
  0
LINE
  5
2461
330
1A
100
AcDbEntity
  8
ZUWAKU
100
AcDbLine
 10
348.6245049146805
 20
14.99999993237031
 30
0.0
 11
348.6245049146805
 21
0.3999999323703491
 31
0.0
  0
TEXT
  5
2462
330
1A
100
AcDbEntity
  8
ZUWAKU
100
AcDbText
 10
354.2640417365317
 20
3.324420089297348
 30
0.0
 40
3.0
  1
建材事業部
 41
0.9
  7
ｽﾀｲﾙ1
100
AcDbText
  0
VIEWPORT
  5
22
330
17
100
AcDbEntity
 67
     1
  8
0
100
AcDbViewport
 10
313.6808219178082
 20
148.5
 30
0.0
 40
627.3616438356165
 41
297.0
 68
     2
 69
     1
1001
ACAD
1000
MVIEW
1002
{
1070
    16
1010
0.0
1020
0.0
1030
0.0
1010
0.0
1020
0.0
1030
1.0
1040
0.0
1040
297.0
1040
313.6808219178082
1040
148.5
1040
50.0
1040
0.0
1040
0.0
1070
     0
1070
   100
1070
     1
1070
     0
1070
     0
1070
     0
1070
     0
1070
     0
1040
0.0
1040
0.0
1040
0.0
1040
1.0
1040
1.0
1040
10.0
1040
10.0
1070
     0
1002
{
1002
}
1002
}
  0
VIEWPORT
  5
64
330
17
100
AcDbEntity
 67
     1
  8
VIEWPORT
100
AcDbViewport
 10
210.0
 20
148.5
 30
0.0
 40
420.0
 41
297.0
 68
     1
 69
     2
1001
ACAD
1000
MVIEW
1002
{
1070
    16
1010
0.0
1020
0.0
1030
0.0
1010
0.0
1020
0.0
1030
1.0
1040
0.0
1040
302.9399999999998
1040
210.0
1040
148.5
1040
50.0
1040
0.0
1040
0.0
1070
     0
1070
   100
1070
     1
1070
     0
1070
     0
1070
     0
1070
     0
1070
     0
1040
0.0
1040
0.0
1040
0.0
1040
5.0
1040
5.0
1040
0.0
1040
0.0
1070
     0
1002
{
1002
}
1002
}
  0
ENDSEC
  0
SECTION
  2
OBJECTS
  0
DICTIONARY
  5
C
330
0
100
AcDbDictionary
  3
ACAD_GROUP
350
D
  3
ACAD_LAYOUT
350
141
  3
ACAD_MLINESTYLE
350
E
  3
ACAD_PLOTSETTINGS
350
142
  3
ACAD_PLOTSTYLENAME
350
2136
  3
ACDBHEADERROUNDTRIPXREC
350
246B
1001
ACAD
1000
TREAT_AS_HARD
1070
     0
  0
DICTIONARY
  5
73C
330
1A
100
AcDbDictionary
280
     1
  3
ACAD_LAYOUTSELFREF
360
248D
1001
ACAD
1000
TREAT_AS_HARD
1070
     1
  0
DICTIONARY
  5
73A
330
17
100
AcDbDictionary
280
     1
  3
ACAD_LAYOUTSELFREF
360
248C
1001
ACAD
1000
TREAT_AS_HARD
1070
     1
  0
DICTIONARY
  5
D
102
{ACAD_REACTORS
330
C
102
}
330
C
100
AcDbDictionary
1001
ACAD
1000
TREAT_AS_HARD
1070
     0
  0
DICTIONARY
  5
141
102
{ACAD_REACTORS
330
C
102
}
330
C
100
AcDbDictionary
1001
ACAD
1000
TREAT_AS_HARD
1070
     0
  0
DICTIONARY
  5
E
102
{ACAD_REACTORS
330
C
102
}
330
C
100
AcDbDictionary
  3
STANDARD
350
13
1001
ACAD
1000
TREAT_AS_HARD
1070
     0
  0
DICTIONARY
  5
142
102
{ACAD_REACTORS
330
C
102
}
330
C
100
AcDbDictionary
1001
ACAD
1000
TREAT_AS_HARD
1070
     0
  0
ACDBDICTIONARYWDFLT
  5
2136
102
{ACAD_REACTORS
330
C
102
}
330
C
100
AcDbDictionary
281
     1
  3
Normal
350
2137
100
AcDbDictionaryWithDefault
340
2137
1001
ACAD
1000
TREAT_AS_HARD
1070
     0
1000
TREAT_AS_HARD
1070
     0
  0
DICTIONARY
  5
246B
102
{ACAD_REACTORS
330
C
102
}
330
C
100
AcDbDictionary
  3
TSTACKALIGN
350
246C
  3
TSTACKSIZE
350
246D
  3
HYPERLINKBASE
350
246E
  3
STYLESHEET
350
246F
  3
LAYOUTDICT
350
2470
  3
PLOTSETDICT
350
2471
  3
PLOTSTYLNAMDICT
350
2472
  3
LWETCUNION
350
2473
  3
INSUNITS
350
2474
  3
CEPSNTYPE
350
2475
  3
FINGERPRINTGUID
350
2476
  3
VERSIONGUID
350
2477
  3
PSVPSCALE
350
2478
  3
DIMSTYLEDATA
350
2479
  3
PUCSORTHOREF
350
247A
  3
PUCSORTHOVIEW
350
247B
  3
PUCSBASE
350
247C
  3
PUCSORGTOP
350
247D
  3
PUCSORGBOTTOM
350
247E
  3
PUCSORGLEFT
350
247F
  3
PUCSORGRIGHT
350
2480
  3
PUCSORGFRONT
350
2481
  3
PUCSORGBACK
350
2482
  3
UCSORTHOREF
350
2483
  3
UCSORTHOVIEW
350
2484
  3
UCSBASE
350
2485
  3
UCSORGTOP
350
2486
  3
UCSORGBOTTOM
350
2487
  3
UCSORGLEFT
350
2488
  3
UCSORGRIGHT
350
2489
  3
UCSORGFRONT
350
248A
  3
UCSORGBACK
350
248B
  0
XRECORD
  5
248D
102
{ACAD_REACTORS
330
73C
102
}
330
73C
100
AcDbXrecord
340
1A
  0
XRECORD
  5
248C
102
{ACAD_REACTORS
330
73A
102
}
330
73A
100
AcDbXrecord
340
17
  0
MLINESTYLE
  5
13
102
{ACAD_REACTORS
330
E
102
}
330
E
100
AcDbMlineStyle
  2
STANDARD
 70
     0
  3

 62
     0
 51
90.0
 52
90.0
 71
     2
 49
0.5
 62
   256
  6
BYLAYER
 49
-0.5
 62
   256
  6
BYLAYER
  0
ACDBPLACEHOLDER
  5
2137
102
{ACAD_REACTORS
330
2136
102
}
330
2136
100
AcDbPlaceHolder
280
     0
  0
XRECORD
  5
246C
102
{ACAD_REACTORS
330
246B
102
}
330
246B
100
AcDbXrecord
 90
        1
  0
XRECORD
  5
246D
102
{ACAD_REACTORS
330
246B
102
}
330
246B
100
AcDbXrecord
 90
       70
  0
XRECORD
  5
246E
102
{ACAD_REACTORS
330
246B
102
}
330
246B
100
AcDbXrecord
  1

  0
XRECORD
  5
246F
102
{ACAD_REACTORS
330
246B
102
}
330
246B
100
AcDbXrecord
  1
systemprinter.ctb
  0
XRECORD
  5
2470
102
{ACAD_REACTORS
330
246B
102
}
330
246B
100
AcDbXrecord
340
141
  0
XRECORD
  5
2471
102
{ACAD_REACTORS
330
246B
102
}
330
246B
100
AcDbXrecord
340
142
  0
XRECORD
  5
2472
102
{ACAD_REACTORS
330
246B
102
}
330
246B
100
AcDbXrecord
340
2136
  0
XRECORD
  5
2473
102
{ACAD_REACTORS
330
246B
102
}
330
246B
100
AcDbXrecord
 90
    10781
  0
XRECORD
  5
2474
102
{ACAD_REACTORS
330
246B
102
}
330
246B
100
AcDbXrecord
 90
        0
  0
XRECORD
  5
2475
102
{ACAD_REACTORS
330
246B
102
}
330
246B
100
AcDbXrecord
 90
        0
  0
XRECORD
  5
2476
102
{ACAD_REACTORS
330
246B
102
}
330
246B
100
AcDbXrecord
  1
{7FE1DDE5-2061-4501-A53F-29B0586A10DB}
  0
XRECORD
  5
2477
102
{ACAD_REACTORS
330
246B
102
}
330
246B
100
AcDbXrecord
  1
{AEA7E192-A782-40AD-A782-FDBD0795FAE5}
  0
XRECORD
  5
2478
102
{ACAD_REACTORS
330
246B
102
}
330
246B
100
AcDbXrecord
 40
0.0
  0
XRECORD
  5
2479
102
{ACAD_REACTORS
330
246B
102
}
330
246B
100
AcDbXrecord
1000
DSTYLE
1002
{
1070
   341
340
B2
1070
   343
340
B2
1070
   344
340
B2
1070
   371
 70
    -1
1070
   372
 70
    -1
1002
}
  0
XRECORD
  5
247A
102
{ACAD_REACTORS
330
246B
102
}
330
246B
100
AcDbXrecord
340
0
  0
XRECORD
  5
247B
102
{ACAD_REACTORS
330
246B
102
}
330
246B
100
AcDbXrecord
 70
     0
  0
XRECORD
  5
247C
102
{ACAD_REACTORS
330
246B
102
}
330
246B
100
AcDbXrecord
340
0
  0
XRECORD
  5
247D
102
{ACAD_REACTORS
330
246B
102
}
330
246B
100
AcDbXrecord
 10
0.0
 20
0.0
 30
0.0
  0
XRECORD
  5
247E
102
{ACAD_REACTORS
330
246B
102
}
330
246B
100
AcDbXrecord
 10
0.0
 20
0.0
 30
0.0
  0
XRECORD
  5
247F
102
{ACAD_REACTORS
330
246B
102
}
330
246B
100
AcDbXrecord
 10
0.0
 20
0.0
 30
0.0
  0
XRECORD
  5
2480
102
{ACAD_REACTORS
330
246B
102
}
330
246B
100
AcDbXrecord
 10
0.0
 20
0.0
 30
0.0
  0
XRECORD
  5
2481
102
{ACAD_REACTORS
330
246B
102
}
330
246B
100
AcDbXrecord
 10
0.0
 20
0.0
 30
0.0
  0
XRECORD
  5
2482
102
{ACAD_REACTORS
330
246B
102
}
330
246B
100
AcDbXrecord
 10
0.0
 20
0.0
 30
0.0
  0
XRECORD
  5
2483
102
{ACAD_REACTORS
330
246B
102
}
330
246B
100
AcDbXrecord
340
0
  0
XRECORD
  5
2484
102
{ACAD_REACTORS
330
246B
102
}
330
246B
100
AcDbXrecord
 70
     0
  0
XRECORD
  5
2485
102
{ACAD_REACTORS
330
246B
102
}
330
246B
100
AcDbXrecord
340
0
  0
XRECORD
  5
2486
102
{ACAD_REACTORS
330
246B
102
}
330
246B
100
AcDbXrecord
 10
0.0
 20
0.0
 30
0.0
  0
XRECORD
  5
2487
102
{ACAD_REACTORS
330
246B
102
}
330
246B
100
AcDbXrecord
 10
0.0
 20
0.0
 30
0.0
  0
XRECORD
  5
2488
102
{ACAD_REACTORS
330
246B
102
}
330
246B
100
AcDbXrecord
 10
0.0
 20
0.0
 30
0.0
  0
XRECORD
  5
2489
102
{ACAD_REACTORS
330
246B
102
}
330
246B
100
AcDbXrecord
 10
0.0
 20
0.0
 30
0.0
  0
XRECORD
  5
248A
102
{ACAD_REACTORS
330
246B
102
}
330
246B
100
AcDbXrecord
 10
0.0
 20
0.0
 30
0.0
  0
XRECORD
  5
248B
102
{ACAD_REACTORS
330
246B
102
}
330
246B
100
AcDbXrecord
 10
0.0
 20
0.0
 30
0.0
  0
ENDSEC
  0
EOF
