  0
SECTION
  2
HEADER
  9
$ACADVER
  1
AC1014
  9
$ACADMAINTVER
 70
     9
  9
$DWGCODEPAGE
  3
ANSI_932
  9
$INSBASE
 10
0.0
 20
0.0
 30
0.0
  9
$EXTMIN
 10
-0.0128164052688362
 20
-0.0090631832831605
 30
-0.0015258207003583
  9
$EXTMAX
 10
398.800049781317
 20
275.8226172330157
 30
0.0000000349246037
  9
$LIMMIN
 10
0.0
 20
0.0
  9
$LIMMAX
 10
420.0
 20
297.0
  9
$ORTHOMODE
 70
     0
  9
$REGENMODE
 70
     1
  9
$FILLMODE
 70
     1
  9
$QTEXTMODE
 70
     0
  9
$MIRRTEXT
 70
     1
  9
$DRAGMODE
 70
     2
  9
$LTSCALE
 40
5.0
  9
$OSMODE
 70
    35
  9
$ATTMODE
 70
     1
  9
$TEXTSIZE
 40
4.0
  9
$TRACEWID
 40
1.0
  9
$TEXTSTYLE
  7
STANDARD
  9
$CLAYER
  8
SUNPOU
  9
$CELTYPE
  6
BYLAYER
  9
$CECOLOR
 62
   256
  9
$CELTSCALE
 40
1.0
  9
$DELOBJ
 70
     1
  9
$DISPSILH
 70
     0
  9
$DIMSCALE
 40
1.0
  9
$DIMASZ
 40
3.0
  9
$DIMEXO
 40
3.0
  9
$DIMDLI
 40
7.0
  9
$DIMRND
 40
0.0
  9
$DIMDLE
 40
0.0
  9
$DIMEXE
 40
1.5
  9
$DIMTP
 40
0.0
  9
$DIMTM
 40
0.0
  9
$DIMTXT
 40
3.0
  9
$DIMCEN
 40
3.0
  9
$DIMTSZ
 40
0.0
  9
$DIMTOL
 70
     0
  9
$DIMLIM
 70
     0
  9
$DIMTIH
 70
     0
  9
$DIMTOH
 70
     0
  9
$DIMSE1
 70
     0
  9
$DIMSE2
 70
     0
  9
$DIMTAD
 70
     3
  9
$DIMZIN
 70
     0
  9
$DIMBLK
  1

  9
$DIMASO
 70
     1
  9
$DIMSHO
 70
     1
  9
$DIMPOST
  1

  9
$DIMAPOST
  1

  9
$DIMALT
 70
     0
  9
$DIMALTD
 70
     2
  9
$DIMALTF
 40
25.4
  9
$DIMLFAC
 40
1.0
  9
$DIMTOFL
 70
     1
  9
$DIMTVP
 40
0.0
  9
$DIMTIX
 70
     0
  9
$DIMSOXD
 70
     0
  9
$DIMSAH
 70
     1
  9
$DIMBLK1
  1
OPEN
  9
$DIMBLK2
  1
OPEN
  9
$DIMSTYLE
  2
STANDARD
  9
$DIMCLRD
 70
     4
  9
$DIMCLRE
 70
     4
  9
$DIMCLRT
 70
     4
  9
$DIMTFAC
 40
1.0
  9
$DIMGAP
 40
1.0
  9
$DIMJUST
 70
     0
  9
$DIMSD1
 70
     0
  9
$DIMSD2
 70
     0
  9
$DIMTOLJ
 70
     1
  9
$DIMTZIN
 70
     0
  9
$DIMALTZ
 70
     0
  9
$DIMALTTZ
 70
     0
  9
$DIMFIT
 70
     3
  9
$DIMUPT
 70
     0
  9
$DIMUNIT
 70
     2
  9
$DIMDEC
 70
     0
  9
$DIMTDEC
 70
     0
  9
$DIMALTU
 70
     2
  9
$DIMALTTD
 70
     2
  9
$DIMTXSTY
  7
STANDARD
  9
$DIMAUNIT
 70
     0
  9
$LUNITS
 70
     2
  9
$LUPREC
 70
     4
  9
$SKETCHINC
 40
1.0
  9
$FILLETRAD
 40
10.0
  9
$AUNITS
 70
     0
  9
$AUPREC
 70
     0
  9
$MENU
  1
.
  9
$ELEVATION
 40
0.0
  9
$PELEVATION
 40
0.0
  9
$THICKNESS
 40
0.0
  9
$LIMCHECK
 70
     0
  9
$BLIPMODE
 70
     0
  9
$CHAMFERA
 40
10.0
  9
$CHAMFERB
 40
10.0
  9
$CHAMFERC
 40
20.0
  9
$CHAMFERD
 40
0.0
  9
$SKPOLY
 70
     0
  9
$TDCREATE
 40
2451569.441154629
  9
$TDUPDATE
 40
2453805.437747210
  9
$TDINDWG
 40
0.3633645602
  9
$TDUSRTIMER
 40
0.3633645602
  9
$USRTIMER
 70
     1
  9
$ANGBASE
 50
0.0
  9
$ANGDIR
 70
     0
  9
$PDMODE
 70
     0
  9
$PDSIZE
 40
0.0
  9
$PLINEWID
 40
0.0
  9
$COORDS
 70
     1
  9
$SPLFRAME
 70
     0
  9
$SPLINETYPE
 70
     6
  9
$SPLINESEGS
 70
     8
  9
$ATTDIA
 70
     0
  9
$ATTREQ
 70
     1
  9
$HANDLING
 70
 10241
  9
$HANDSEED
  5
287F
  9
$SURFTAB1
 70
     6
  9
$SURFTAB2
 70
     6
  9
$SURFTYPE
 70
     6
  9
$SURFU
 70
     6
  9
$SURFV
 70
     6
  9
$UCSNAME
  2

  9
$UCSORG
 10
0.0
 20
0.0
 30
0.0
  9
$UCSXDIR
 10
1.0
 20
0.0
 30
0.0
  9
$UCSYDIR
 10
0.0
 20
1.0
 30
0.0
  9
$PUCSNAME
  2

  9
$PUCSORG
 10
0.0
 20
0.0
 30
0.0
  9
$PUCSXDIR
 10
1.0
 20
0.0
 30
0.0
  9
$PUCSYDIR
 10
0.0
 20
1.0
 30
0.0
  9
$USERI1
 70
     0
  9
$USERI2
 70
     0
  9
$USERI3
 70
     0
  9
$USERI4
 70
     0
  9
$USERI5
 70
     0
  9
$USERR1
 40
0.0
  9
$USERR2
 40
0.0
  9
$USERR3
 40
0.0
  9
$USERR4
 40
0.0
  9
$USERR5
 40
0.0
  9
$WORLDVIEW
 70
     1
  9
$SHADEDGE
 70
     3
  9
$SHADEDIF
 70
    70
  9
$TILEMODE
 70
     1
  9
$MAXACTVP
 70
    16
  9
$PINSBASE
 10
0.0
 20
0.0
 30
0.0
  9
$PLIMCHECK
 70
     0
  9
$PEXTMIN
 10
0.0
 20
0.0
 30
0.0
  9
$PEXTMAX
 10
420.0
 20
297.0
 30
0.0
  9
$PLIMMIN
 10
0.0
 20
0.0
  9
$PLIMMAX
 10
420.0
 20
297.0
  9
$UNITMODE
 70
     0
  9
$VISRETAIN
 70
     0
  9
$PLINEGEN
 70
     0
  9
$PSLTSCALE
 70
     1
  9
$TREEDEPTH
 70
  3020
  9
$PICKSTYLE
 70
     1
  9
$CMLSTYLE
  2
STANDARD
  9
$CMLJUST
 70
     0
  9
$CMLSCALE
 40
1.0
  9
$PROXYGRAPHICS
 70
     1
  9
$MEASUREMENT
 70
     1
  0
ENDSEC
  0
SECTION
  2
CLASSES
  0
CLASS
  1
ACDBDICTIONARYWDFLT
  2
AcDbDictionaryWithDefault
  3
AutoCAD 2000
 90
        0
280
     0
281
     0
  0
CLASS
  1
ACDBPLACEHOLDER
  2
AcDbPlaceHolder
  3
AutoCAD 2000
 90
        0
280
     0
281
     0
  0
CLASS
  1
LAYOUT
  2
AcDbLayout
  3
AutoCAD 2000
 90
        0
280
     0
281
     0
  0
CLASS
  1
LONG_TRANSACTION
  2
AcDbLongTransaction
  3
AutoCAD 2000
 90
        0
280
     0
281
     0
  0
CLASS
  1
LWPOLYLINE
  2
AcDbPolyline
  3
AutoCAD 2000
 90
        0
280
     0
281
     1
  0
CLASS
  1
HATCH
  2
AcDbHatch
  3
AutoCAD 2000
 90
        0
280
     0
281
     1
  0
CLASS
  1
XRECORD
  2
AcDbXrecord
  3
AutoCAD 2000
 90
        0
280
     0
281
     0
  0
CLASS
  1
LONG_TRANSACTION
  2
AcDbLongTransaction
  3
AutoCAD 2000
 90
        0
280
     0
281
     0
  0
CLASS
  1
LWPOLYLINE
  2
AcDbPolyline
  3
AutoCAD 2000
 90
        0
280
     0
281
     1
  0
CLASS
  1
HATCH
  2
AcDbHatch
  3
AutoCAD 2000
 90
        0
280
     0
281
     1
  0
CLASS
  1
XRECORD
  2
AcDbXrecord
  3
AutoCAD 2000
 90
        0
280
     0
281
     0
  0
CLASS
  1
LONG_TRANSACTION
  2
AcDbLongTransaction
  3
AutoCAD 2000
 90
        0
280
     0
281
     0
  0
CLASS
  1
LWPOLYLINE
  2
AcDbPolyline
  3
AutoCAD 2000
 90
        0
280
     0
281
     1
  0
CLASS
  1
HATCH
  2
AcDbHatch
  3
AutoCAD 2000
 90
        0
280
     0
281
     1
  0
CLASS
  1
XRECORD
  2
AcDbXrecord
  3
AutoCAD 2000
 90
        0
280
     0
281
     0
  0
CLASS
  1
LONG_TRANSACTION
  2
AcDbLongTransaction
  3
AutoCAD 2000
 90
        0
280
     0
281
     0
  0
CLASS
  1
LWPOLYLINE
  2
AcDbPolyline
  3
AutoCAD 2000
 90
        0
280
     0
281
     1
  0
CLASS
  1
HATCH
  2
AcDbHatch
  3
AutoCAD 2000
 90
        0
280
     0
281
     1
  0
CLASS
  1
XRECORD
  2
AcDbXrecord
  3
AutoCAD 2000
 90
        0
280
     0
281
     0
  0
CLASS
  1
LONG_TRANSACTION
  2
AcDbLongTransaction
  3
AutoCAD 2000
 90
        0
280
     0
281
     0
  0
CLASS
  1
LWPOLYLINE
  2
AcDbPolyline
  3
AutoCAD 2000
 90
        0
280
     0
281
     1
  0
CLASS
  1
HATCH
  2
AcDbHatch
  3
AutoCAD 2000
 90
        0
280
     0
281
     1
  0
CLASS
  1
XRECORD
  2
AcDbXrecord
  3
AutoCAD 2000
 90
        0
280
     0
281
     0
  0
CLASS
  1
LONG_TRANSACTION
  2
AcDbLongTransaction
  3
AutoCAD 2000
 90
        0
280
     0
281
     0
  0
CLASS
  1
LWPOLYLINE
  2
AcDbPolyline
  3
AutoCAD 2000
 90
        0
280
     0
281
     1
  0
CLASS
  1
HATCH
  2
AcDbHatch
  3
AutoCAD 2000
 90
        0
280
     0
281
     1
  0
CLASS
  1
XRECORD
  2
AcDbXrecord
  3
AutoCAD 2000
 90
        0
280
     0
281
     0
  0
CLASS
  1
LONG_TRANSACTION
  2
AcDbLongTransaction
  3
AutoCAD 2000
 90
        0
280
     0
281
     0
  0
CLASS
  1
LWPOLYLINE
  2
AcDbPolyline
  3
AutoCAD 2000
 90
        0
280
     0
281
     1
  0
CLASS
  1
HATCH
  2
AcDbHatch
  3
AutoCAD 2000
 90
        0
280
     0
281
     1
  0
CLASS
  1
XRECORD
  2
AcDbXrecord
  3
AutoCAD 2000
 90
        0
280
     0
281
     0
  0
CLASS
  1
LONG_TRANSACTION
  2
AcDbLongTransaction
  3
AutoCAD 2000
 90
        0
280
     0
281
     0
  0
CLASS
  1
LWPOLYLINE
  2
AcDbPolyline
  3
AutoCAD 2000
 90
        0
280
     0
281
     1
  0
CLASS
  1
HATCH
  2
AcDbHatch
  3
AutoCAD 2000
 90
        0
280
     0
281
     1
  0
CLASS
  1
XRECORD
  2
AcDbXrecord
  3
AutoCAD 2000
 90
        0
280
     0
281
     0
  0
CLASS
  1
LONG_TRANSACTION
  2
AcDbLongTransaction
  3
AutoCAD 2000
 90
        0
280
     0
281
     0
  0
CLASS
  1
LWPOLYLINE
  2
AcDbPolyline
  3
AutoCAD 2000
 90
        0
280
     0
281
     1
  0
CLASS
  1
HATCH
  2
AcDbHatch
  3
AutoCAD 2000
 90
        0
280
     0
281
     1
  0
CLASS
  1
XRECORD
  2
AcDbXrecord
  3
AutoCAD 2000
 90
        0
280
     0
281
     0
  0
ENDSEC
  0
SECTION
  2
TABLES
  0
TABLE
  2
VPORT
  5
8
330
0
100
AcDbSymbolTable
 70
     2
  0
VPORT
  5
285B
330
8
100
AcDbSymbolTableRecord
100
AcDbViewportTableRecord
  2
*ACTIVE
 70
     0
 10
0.0
 20
0.0
 11
1.0
 21
1.0
 12
226.1156495180248
 22
140.8045645976221
 13
0.0
 23
0.0
 14
5.0
 24
5.0
 15
0.0
 25
0.0
 16
0.0
 26
0.0
 36
1.0
 17
0.0
 27
0.0
 37
0.0
 40
314.0411404682697
 41
1.795454545454545
 42
50.0
 43
0.0
 44
0.0
 50
0.0
 51
0.0
 71
     0
 72
   100
 73
     1
 74
     0
 75
     0
 76
     0
 77
     0
 78
     0
  0
ENDTAB
  0
TABLE
  2
LTYPE
  5
5
330
0
100
AcDbSymbolTable
 70
     3
  0
LTYPE
  5
14
330
5
100
AcDbSymbolTableRecord
100
AcDbLinetypeTableRecord
  2
BYBLOCK
 70
     0
  3

 72
    65
 73
     0
 40
0.0
  0
LTYPE
  5
15
330
5
100
AcDbSymbolTableRecord
100
AcDbLinetypeTableRecord
  2
BYLAYER
 70
     0
  3

 72
    65
 73
     0
 40
0.0
  0
LTYPE
  5
16
330
5
100
AcDbSymbolTableRecord
100
AcDbLinetypeTableRecord
  2
CONTINUOUS
 70
     0
  3
Solid line
 72
    65
 73
     0
 40
0.0
  0
LTYPE
  5
120
330
5
100
AcDbSymbolTableRecord
100
AcDbLinetypeTableRecord
  2
CENTER
 70
     0
  3
____ _ ____ _ ____ _ ____ _ ____ _ ____ _ ____ 
 72
    65
 73
     4
 40
2.0
 49
1.25
 74
     0
 49
-0.25
 74
     0
 49
0.25
 74
     0
 49
-0.25
 74
     0
  0
LTYPE
  5
253A
330
5
100
AcDbSymbolTableRecord
100
AcDbLinetypeTableRecord
  2
PHANTOM
 70
     0
  3
______  __  __  ______  __  __  ______  __  __ 
 72
    65
 73
     6
 40
2.5
 49
1.25
 74
     0
 49
-0.25
 74
     0
 49
0.25
 74
     0
 49
-0.25
 74
     0
 49
0.25
 74
     0
 49
-0.25
 74
     0
  0
ENDTAB
  0
TABLE
  2
LAYER
  5
2
330
0
100
AcDbSymbolTable
 70
     9
  0
LAYER
  5
F
330
2
100
AcDbSymbolTableRecord
100
AcDbLayerTableRecord
  2
0
 70
     0
 62
     7
  6
CONTINUOUS
  0
LAYER
  5
62
330
2
100
AcDbSymbolTableRecord
100
AcDbLayerTableRecord
  2
VIEWPORT
 70
     0
 62
     7
  6
CONTINUOUS
  0
LAYER
  5
6B
330
2
100
AcDbSymbolTableRecord
100
AcDbLayerTableRecord
  2
ZUWAKU
 70
     0
 62
     7
  6
CONTINUOUS
  0
LAYER
  5
48C
330
2
100
AcDbSymbolTableRecord
100
AcDbLayerTableRecord
  2
DEFPOINTS
 70
     0
 62
     7
  6
CONTINUOUS
  0
LAYER
  5
629
330
2
100
AcDbSymbolTableRecord
100
AcDbLayerTableRecord
  2
SEIHIN
 70
     0
 62
     3
  6
CONTINUOUS
  0
LAYER
  5
62A
330
2
100
AcDbSymbolTableRecord
100
AcDbLayerTableRecord
  2
SUNPOU
 70
     0
 62
     4
  6
CONTINUOUS
  0
LAYER
  5
62B
330
2
100
AcDbSymbolTableRecord
100
AcDbLayerTableRecord
  2
CENTER_L
 70
     0
 62
     1
  6
CENTER
  0
LAYER
  5
253B
330
2
100
AcDbSymbolTableRecord
100
AcDbLayerTableRecord
  2
NOKITOI
 70
     0
 62
     8
  6
PHANTOM
  0
LAYER
  5
2681
330
2
100
AcDbSymbolTableRecord
100
AcDbLayerTableRecord
  2
MOJI
 70
     0
 62
     2
  6
CONTINUOUS
  0
ENDTAB
  0
TABLE
  2
STYLE
  5
3
330
0
100
AcDbSymbolTable
 70
     2
  0
STYLE
  5
10
330
3
100
AcDbSymbolTableRecord
100
AcDbTextStyleTableRecord
  2
STANDARD
 70
     0
 40
0.0
 41
1.0
 50
0.0
 71
     0
 42
4.0
  3
TXT
  4
bigfont.shx
  0
STYLE
  5
2682
330
3
100
AcDbSymbolTableRecord
100
AcDbTextStyleTableRecord
  2
ｽﾀｲﾙ1
 70
     0
 40
0.0
 41
1.0
 50
0.0
 71
     0
 42
2.5
  3
MS PGothic.ttf
  4

1001
ACAD
1000
MS PGothic
1071
    32818
  0
ENDTAB
  0
TABLE
  2
VIEW
  5
6
330
0
100
AcDbSymbolTable
 70
     0
  0
ENDTAB
  0
TABLE
  2
UCS
  5
7
330
0
100
AcDbSymbolTable
 70
     0
  0
ENDTAB
  0
TABLE
  2
APPID
  5
9
330
0
100
AcDbSymbolTable
 70
     1
  0
APPID
  5
11
330
9
100
AcDbSymbolTableRecord
100
AcDbRegAppTableRecord
  2
ACAD
 70
     0
  0
ENDTAB
  0
TABLE
  2
DIMSTYLE
  5
A
330
0
100
AcDbSymbolTable
 70
     1
  0
DIMSTYLE
105
1D
102
{ACAD_REACTORS
330
2453
330
2454
330
2456
330
2457
330
2458
330
245A
330
24F9
330
2506
330
2514
330
2521
330
261E
102
}
330
A
100
AcDbSymbolTableRecord
100
AcDbDimStyleTableRecord
  2
STANDARD
 70
     0
  3

  4

  5

  6

  7

 40
1.0
 41
0.18
 42
0.0625
 43
0.38
 44
0.18
 45
0.0
 46
0.0
 47
0.0
 48
0.0
140
0.18
141
0.09
142
0.0
143
25.4
144
1.0
145
0.0
146
1.0
147
0.09
 71
     0
 72
     0
 73
     1
 74
     1
 75
     0
 76
     0
 77
     0
 78
     0
170
     0
171
     2
172
     0
173
     0
174
     0
175
     0
176
     0
177
     0
178
     0
270
     2
271
     4
272
     4
273
     2
274
     2
340
10
275
     0
280
     0
281
     0
282
     0
283
     1
284
     0
285
     0
286
     0
287
     3
288
     0
  0
ENDTAB
  0
TABLE
  2
BLOCK_RECORD
  5
1
330
0
100
AcDbSymbolTable
 70
    12
  0
BLOCK_RECORD
  5
1A
102
{ACAD_XDICTIONARY
360
73C
102
}
330
1
100
AcDbSymbolTableRecord
100
AcDbBlockTableRecord
  2
*MODEL_SPACE
  0
BLOCK_RECORD
  5
17
102
{ACAD_XDICTIONARY
360
73A
102
}
330
1
100
AcDbSymbolTableRecord
100
AcDbBlockTableRecord
  2
*PAPER_SPACE
  0
BLOCK_RECORD
  5
B2
330
1
100
AcDbSymbolTableRecord
100
AcDbBlockTableRecord
  2
_OPEN
  0
BLOCK_RECORD
  5
245B
330
1
100
AcDbSymbolTableRecord
100
AcDbBlockTableRecord
  2
*D1
  0
BLOCK_RECORD
  5
2467
330
1
100
AcDbSymbolTableRecord
100
AcDbBlockTableRecord
  2
*D2
  0
BLOCK_RECORD
  5
2473
330
1
100
AcDbSymbolTableRecord
100
AcDbBlockTableRecord
  2
*D3
  0
BLOCK_RECORD
  5
2481
330
1
100
AcDbSymbolTableRecord
100
AcDbBlockTableRecord
  2
*D4
  0
BLOCK_RECORD
  5
248F
330
1
100
AcDbSymbolTableRecord
100
AcDbBlockTableRecord
  2
*D5
  0
BLOCK_RECORD
  5
249B
330
1
100
AcDbSymbolTableRecord
100
AcDbBlockTableRecord
  2
*D6
  0
BLOCK_RECORD
  5
24ED
330
1
100
AcDbSymbolTableRecord
100
AcDbBlockTableRecord
  2
*D7
  0
BLOCK_RECORD
  5
24FA
330
1
100
AcDbSymbolTableRecord
100
AcDbBlockTableRecord
  2
*D8
  0
BLOCK_RECORD
  5
2508
330
1
100
AcDbSymbolTableRecord
100
AcDbBlockTableRecord
  2
*D9
  0
BLOCK_RECORD
  5
2515
330
1
100
AcDbSymbolTableRecord
100
AcDbBlockTableRecord
  2
*D10
  0
BLOCK_RECORD
  5
261F
330
1
100
AcDbSymbolTableRecord
100
AcDbBlockTableRecord
  2
*D11
  0
ENDTAB
  0
ENDSEC
  0
SECTION
  2
BLOCKS
  0
BLOCK
  5
1B
330
1A
100
AcDbEntity
  8
0
100
AcDbBlockBegin
  2
*MODEL_SPACE
 70
     0
 10
0.0
 20
0.0
 30
0.0
  3
*MODEL_SPACE
  1

  0
ENDBLK
  5
1C
330
1A
100
AcDbEntity
  8
0
100
AcDbBlockEnd
  0
BLOCK
  5
18
330
17
100
AcDbEntity
 67
     1
  8
0
100
AcDbBlockBegin
  2
*PAPER_SPACE
 70
     0
 10
0.0
 20
0.0
 30
0.0
  3
*PAPER_SPACE
  1

  0
ENDBLK
  5
19
330
17
100
AcDbEntity
 67
     1
  8
0
100
AcDbBlockEnd
  0
BLOCK
  5
B3
330
B2
100
AcDbEntity
  8
0
100
AcDbBlockBegin
  2
_OPEN
 70
     0
 10
0.0
 20
0.0
 30
0.0
  3
_OPEN
  1

  0
LINE
  5
B4
330
B2
100
AcDbEntity
  8
0
  6
BYBLOCK
 62
     0
100
AcDbLine
 10
-1.0
 20
0.1666666666666666
 30
0.0
 11
0.0
 21
0.0
 31
0.0
  0
LINE
  5
B5
330
B2
100
AcDbEntity
  8
0
  6
BYBLOCK
 62
     0
100
AcDbLine
 10
0.0
 20
0.0
 30
0.0
 11
-1.0
 21
-0.1666666666666666
 31
0.0
  0
LINE
  5
B6
330
B2
100
AcDbEntity
  8
0
  6
BYBLOCK
 62
     0
100
AcDbLine
 10
0.0
 20
0.0
 30
0.0
 11
-1.0
 21
0.0
 31
0.0
  0
ENDBLK
  5
B7
330
B2
100
AcDbEntity
  8
0
100
AcDbBlockEnd
  0
BLOCK
  5
24A7
330
245B
100
AcDbEntity
  8
0
100
AcDbBlockBegin
  2
*D1
 70
     1
 10
0.0
 20
0.0
 30
0.0
  3
*D1
  1

  0
LINE
  5
281D
330
245B
100
AcDbEntity
  8
SUNPOU
  6
CONTINUOUS
100
AcDbLine
 10
279.4479489328666
 20
99.95055038240781
 30
0.0
 11
279.4479489328666
 21
164.9561564921787
 31
0.0
  0
LINE
  5
281E
330
245B
100
AcDbEntity
  8
SUNPOU
  6
CONTINUOUS
100
AcDbLine
 10
340.4479489328666
 20
99.95055047180779
 30
0.0
 11
340.4479489328666
 21
164.9561564921787
 31
0.0
  0
LINE
  5
281F
330
245B
100
AcDbEntity
  8
SUNPOU
  6
CONTINUOUS
100
AcDbLine
 10
282.4479489328666
 20
163.4561564921787
 30
0.0
 11
337.4479489328666
 21
163.4561564921787
 31
0.0
  0
INSERT
  5
2820
330
245B
100
AcDbEntity
  8
SUNPOU
  6
CONTINUOUS
100
AcDbBlockReference
  2
_OPEN
 10
279.4479489328666
 20
163.4561564921787
 30
0.0
 41
3.0
 42
3.0
 43
3.0
 50
180.0
  0
INSERT
  5
2821
330
245B
100
AcDbEntity
  8
SUNPOU
  6
CONTINUOUS
100
AcDbBlockReference
  2
_OPEN
 10
340.4479489328666
 20
163.4561564921787
 30
0.0
 41
3.0
 42
3.0
 43
3.0
  0
MTEXT
  5
2822
330
245B
100
AcDbEntity
  8
SUNPOU
  6
CONTINUOUS
100
AcDbMText
 10
309.9479489328666
 20
165.9561564921787
 30
0.0
 40
3.0
 41
0.0
 71
     5
 72
     1
  1
\A1;61
1001
ACAD
1000
MTEXTBEGIN
1070
    73
1070
     1
1070
    44
1040
1.0
1070
    74
1070
     0
1000
MTEXTEND
  0
POINT
  5
2823
330
245B
100
AcDbEntity
  8
DEFPOINTS
  6
CONTINUOUS
 62
     0
100
AcDbPoint
 10
279.4479489328666
 20
96.95055038240781
 30
0.0
  0
POINT
  5
2824
330
245B
100
AcDbEntity
  8
DEFPOINTS
  6
CONTINUOUS
 62
     0
100
AcDbPoint
 10
340.4479489328666
 20
96.9505504718078
 30
0.0
  0
POINT
  5
2825
330
245B
100
AcDbEntity
  8
DEFPOINTS
  6
CONTINUOUS
 62
     0
100
AcDbPoint
 10
340.4479489328666
 20
163.4561564921787
 30
0.0
  0
ENDBLK
  5
24B1
330
245B
100
AcDbEntity
  8
0
100
AcDbBlockEnd
  0
BLOCK
  5
24B2
330
2467
100
AcDbEntity
  8
0
100
AcDbBlockBegin
  2
*D2
 70
     1
 10
0.0
 20
0.0
 30
0.0
  3
*D2
  1

  0
LINE
  5
2814
330
2467
100
AcDbEntity
  8
SUNPOU
  6
CONTINUOUS
100
AcDbLine
 10
288.4479489328666
 20
99.95055038240781
 30
0.0
 11
288.4479489328666
 21
154.4575706029234
 31
0.0
  0
LINE
  5
2815
330
2467
100
AcDbEntity
  8
SUNPOU
  6
CONTINUOUS
100
AcDbLine
 10
331.4479489328666
 20
99.95055038240781
 30
0.0
 11
331.4479489328666
 21
154.4575706029234
 31
0.0
  0
LINE
  5
2816
330
2467
100
AcDbEntity
  8
SUNPOU
  6
CONTINUOUS
100
AcDbLine
 10
291.4479489328666
 20
152.9575706029234
 30
0.0
 11
328.4479489328666
 21
152.9575706029234
 31
0.0
  0
INSERT
  5
2817
330
2467
100
AcDbEntity
  8
SUNPOU
  6
CONTINUOUS
100
AcDbBlockReference
  2
_OPEN
 10
288.4479489328666
 20
152.9575706029234
 30
0.0
 41
3.0
 42
3.0
 43
3.0
 50
180.0
  0
INSERT
  5
2818
330
2467
100
AcDbEntity
  8
SUNPOU
  6
CONTINUOUS
100
AcDbBlockReference
  2
_OPEN
 10
331.4479489328666
 20
152.9575706029234
 30
0.0
 41
3.0
 42
3.0
 43
3.0
  0
MTEXT
  5
2819
330
2467
100
AcDbEntity
  8
SUNPOU
  6
CONTINUOUS
100
AcDbMText
 10
309.9479489328666
 20
155.4575706029234
 30
0.0
 40
3.0
 41
0.0
 71
     5
 72
     1
  1
\A1;43
1001
ACAD
1000
MTEXTBEGIN
1070
    73
1070
     1
1070
    44
1040
1.0
1070
    74
1070
     0
1000
MTEXTEND
  0
POINT
  5
281A
330
2467
100
AcDbEntity
  8
DEFPOINTS
  6
CONTINUOUS
 62
     0
100
AcDbPoint
 10
288.4479489328666
 20
96.95055038240781
 30
0.0
  0
POINT
  5
281B
330
2467
100
AcDbEntity
  8
DEFPOINTS
  6
CONTINUOUS
 62
     0
100
AcDbPoint
 10
331.4479489328666
 20
96.95055038240781
 30
0.0
  0
POINT
  5
281C
330
2467
100
AcDbEntity
  8
DEFPOINTS
  6
CONTINUOUS
 62
     0
100
AcDbPoint
 10
331.4479489328666
 20
152.9575706029234
 30
0.0
  0
ENDBLK
  5
24BC
330
2467
100
AcDbEntity
  8
0
100
AcDbBlockEnd
  0
BLOCK
  5
24BD
330
2473
100
AcDbEntity
  8
0
100
AcDbBlockBegin
  2
*D3
 70
     1
 10
0.0
 20
0.0
 30
0.0
  3
*D3
  1

  0
LINE
  5
2838
330
2473
100
AcDbEntity
  8
SUNPOU
  6
CONTINUOUS
100
AcDbLine
 10
280.4479489328666
 20
72.95055038240781
 30
0.0
 11
270.2697927067489
 21
72.95055038240781
 31
0.0
  0
LINE
  5
2839
330
2473
100
AcDbEntity
  8
SUNPOU
  6
CONTINUOUS
100
AcDbLine
 10
279.4479489347149
 20
64.95055038240781
 30
0.0
 11
270.2697927067489
 21
64.95055038240781
 31
0.0
  0
LINE
  5
283A
330
2473
100
AcDbEntity
  8
SUNPOU
  6
CONTINUOUS
100
AcDbLine
 10
271.7697927067489
 20
75.95055038240781
 30
0.0
 11
271.7697927067489
 21
78.95055038240781
 31
0.0
  0
LINE
  5
283B
330
2473
100
AcDbEntity
  8
SUNPOU
  6
CONTINUOUS
100
AcDbLine
 10
271.7697927067489
 20
61.95055038240781
 30
0.0
 11
271.7697927067489
 21
58.95055038240781
 31
0.0
  0
LINE
  5
283C
330
2473
100
AcDbEntity
  8
SUNPOU
  6
CONTINUOUS
100
AcDbLine
 10
271.7697927067489
 20
72.95055038240781
 30
0.0
 11
271.7697927067489
 21
64.95055038240781
 31
0.0
  0
INSERT
  5
283D
330
2473
100
AcDbEntity
  8
SUNPOU
  6
CONTINUOUS
100
AcDbBlockReference
  2
_OPEN
 10
271.7697927067489
 20
72.95055038240781
 30
0.0
 41
3.0
 42
3.0
 43
3.0
 50
270.0
  0
INSERT
  5
283E
330
2473
100
AcDbEntity
  8
SUNPOU
  6
CONTINUOUS
100
AcDbBlockReference
  2
_OPEN
 10
271.7697927067489
 20
64.95055038240781
 30
0.0
 41
3.0
 42
3.0
 43
3.0
 50
90.0
  0
MTEXT
  5
283F
330
2473
100
AcDbEntity
  8
SUNPOU
  6
CONTINUOUS
100
AcDbMText
 10
269.2697927067489
 20
68.95055038240785
 30
0.0
 40
3.0
 41
0.0
 71
     5
 72
     1
  1
\A1;8
 11
0.0000000000000001
 21
1.0
 31
0.0
1001
ACAD
1000
MTEXTBEGIN
1070
    73
1070
     1
1070
    44
1040
1.0
1070
    74
1070
     0
1000
MTEXTEND
  0
POINT
  5
2840
330
2473
100
AcDbEntity
  8
DEFPOINTS
  6
CONTINUOUS
 62
     0
100
AcDbPoint
 10
283.4479489328666
 20
72.95055038240781
 30
0.0
  0
POINT
  5
2841
330
2473
100
AcDbEntity
  8
DEFPOINTS
  6
CONTINUOUS
 62
     0
100
AcDbPoint
 10
282.447948934715
 20
64.95055038240781
 30
0.0
  0
POINT
  5
2842
330
2473
100
AcDbEntity
  8
DEFPOINTS
  6
CONTINUOUS
 62
     0
100
AcDbPoint
 10
271.7697927067489
 20
64.95055038240781
 30
0.0
  0
ENDBLK
  5
24C9
330
2473
100
AcDbEntity
  8
0
100
AcDbBlockEnd
  0
BLOCK
  5
24CA
330
2481
100
AcDbEntity
  8
0
100
AcDbBlockBegin
  2
*D4
 70
     1
 10
0.0
 20
0.0
 30
0.0
  3
*D4
  1

  0
LINE
  5
282F
330
2481
100
AcDbEntity
  8
SUNPOU
  6
CONTINUOUS
100
AcDbLine
 10
279.4479489328666
 20
99.95055038240781
 30
0.0
 11
270.2697927067489
 21
99.95055038240781
 31
0.0
  0
LINE
  5
2830
330
2481
100
AcDbEntity
  8
SUNPOU
  6
CONTINUOUS
100
AcDbLine
 10
280.4479489328666
 20
91.95055038240779
 30
0.0
 11
270.2697927067489
 21
91.95055038240779
 31
0.0
  0
LINE
  5
2831
330
2481
100
AcDbEntity
  8
SUNPOU
  6
CONTINUOUS
100
AcDbLine
 10
271.7697927067489
 20
96.95055038240781
 30
0.0
 11
271.7697927067489
 21
94.9505503824078
 31
0.0
  0
INSERT
  5
2832
330
2481
100
AcDbEntity
  8
SUNPOU
  6
CONTINUOUS
100
AcDbBlockReference
  2
_OPEN
 10
271.7697927067489
 20
99.95055038240781
 30
0.0
 41
3.0
 42
3.0
 43
3.0
 50
90.0
  0
INSERT
  5
2833
330
2481
100
AcDbEntity
  8
SUNPOU
  6
CONTINUOUS
100
AcDbBlockReference
  2
_OPEN
 10
271.7697927067489
 20
91.95055038240779
 30
0.0
 41
3.0
 42
3.0
 43
3.0
 50
270.0
  0
MTEXT
  5
2834
330
2481
100
AcDbEntity
  8
SUNPOU
  6
CONTINUOUS
100
AcDbMText
 10
269.2697927067489
 20
95.95055038240785
 30
0.0
 40
3.0
 41
0.0
 71
     5
 72
     1
  1
\A1;8
 11
0.0000000000000001
 21
1.0
 31
0.0
1001
ACAD
1000
MTEXTBEGIN
1070
    73
1070
     1
1070
    44
1040
1.0
1070
    74
1070
     0
1000
MTEXTEND
  0
POINT
  5
2835
330
2481
100
AcDbEntity
  8
DEFPOINTS
  6
CONTINUOUS
 62
     0
100
AcDbPoint
 10
282.4479489328666
 20
99.95055038240781
 30
0.0
  0
POINT
  5
2836
330
2481
100
AcDbEntity
  8
DEFPOINTS
  6
CONTINUOUS
 62
     0
100
AcDbPoint
 10
283.4479489328666
 20
91.95055038240779
 30
0.0
  0
POINT
  5
2837
330
2481
100
AcDbEntity
  8
DEFPOINTS
  6
CONTINUOUS
 62
     0
100
AcDbPoint
 10
271.7697927067489
 20
91.95055038240779
 30
0.0
  0
ENDBLK
  5
24D6
330
2481
100
AcDbEntity
  8
0
100
AcDbBlockEnd
  0
BLOCK
  5
24D7
330
248F
100
AcDbEntity
  8
0
100
AcDbBlockBegin
  2
*D5
 70
     1
 10
0.0
 20
0.0
 30
0.0
  3
*D5
  1

  0
LINE
  5
2826
330
248F
100
AcDbEntity
  8
SUNPOU
  6
CONTINUOUS
100
AcDbLine
 10
279.4479489328666
 20
99.95055038240781
 30
0.0
 11
261.4177229686437
 21
99.95055038240781
 31
0.0
  0
LINE
  5
2827
330
248F
100
AcDbEntity
  8
SUNPOU
  6
CONTINUOUS
100
AcDbLine
 10
279.4479489347149
 20
64.95055038240781
 30
0.0
 11
261.4177229686437
 21
64.95055038240781
 31
0.0
  0
LINE
  5
2828
330
248F
100
AcDbEntity
  8
SUNPOU
  6
CONTINUOUS
100
AcDbLine
 10
262.9177229686437
 20
96.95055038240781
 30
0.0
 11
262.9177229686437
 21
67.95055038240781
 31
0.0
  0
INSERT
  5
2829
330
248F
100
AcDbEntity
  8
SUNPOU
  6
CONTINUOUS
100
AcDbBlockReference
  2
_OPEN
 10
262.9177229686437
 20
99.95055038240781
 30
0.0
 41
3.0
 42
3.0
 43
3.0
 50
90.0
  0
INSERT
  5
282A
330
248F
100
AcDbEntity
  8
SUNPOU
  6
CONTINUOUS
100
AcDbBlockReference
  2
_OPEN
 10
262.9177229686437
 20
64.95055038240781
 30
0.0
 41
3.0
 42
3.0
 43
3.0
 50
270.0
  0
MTEXT
  5
282B
330
248F
100
AcDbEntity
  8
SUNPOU
  6
CONTINUOUS
100
AcDbMText
 10
260.4177229686437
 20
82.45055038240785
 30
0.0
 40
3.0
 41
0.0
 71
     5
 72
     1
  1
\A1;35
 11
0.0000000000000001
 21
1.0
 31
0.0
1001
ACAD
1000
MTEXTBEGIN
1070
    73
1070
     1
1070
    44
1040
1.0
1070
    74
1070
     0
1000
MTEXTEND
  0
POINT
  5
282C
330
248F
100
AcDbEntity
  8
DEFPOINTS
  6
CONTINUOUS
 62
     0
100
AcDbPoint
 10
282.4479489328666
 20
99.95055038240781
 30
0.0
  0
POINT
  5
282D
330
248F
100
AcDbEntity
  8
DEFPOINTS
  6
CONTINUOUS
 62
     0
100
AcDbPoint
 10
282.447948934715
 20
64.95055038240781
 30
0.0
  0
POINT
  5
282E
330
248F
100
AcDbEntity
  8
DEFPOINTS
  6
CONTINUOUS
 62
     0
100
AcDbPoint
 10
262.9177229686437
 20
64.95055038240781
 30
0.0
  0
ENDBLK
  5
24E1
330
248F
100
AcDbEntity
  8
0
100
AcDbBlockEnd
  0
BLOCK
  5
24E2
330
249B
100
AcDbEntity
  8
0
100
AcDbBlockBegin
  2
*D6
 70
     1
 10
0.0
 20
0.0
 30
0.0
  3
*D6
  1

  0
LINE
  5
2843
330
249B
100
AcDbEntity
  8
SUNPOU
  6
CONTINUOUS
100
AcDbLine
 10
234.4834331442666
 20
99.95055038240781
 30
0.0
 11
246.5185415679028
 21
99.95055038240781
 31
0.0
  0
LINE
  5
2844
330
249B
100
AcDbEntity
  8
SUNPOU
  6
CONTINUOUS
100
AcDbLine
 10
234.4834331442666
 20
64.95055038240781
 30
0.0
 11
246.5185415679028
 21
64.95055038240781
 31
0.0
  0
LINE
  5
2845
330
249B
100
AcDbEntity
  8
SUNPOU
  6
CONTINUOUS
100
AcDbLine
 10
245.0185415679027
 20
96.95055038240781
 30
0.0
 11
245.0185415679027
 21
67.95055038240781
 31
0.0
  0
INSERT
  5
2846
330
249B
100
AcDbEntity
  8
SUNPOU
  6
CONTINUOUS
100
AcDbBlockReference
  2
_OPEN
 10
245.0185415679027
 20
99.95055038240781
 30
0.0
 41
3.0
 42
3.0
 43
3.0
 50
90.0
  0
INSERT
  5
2847
330
249B
100
AcDbEntity
  8
SUNPOU
  6
CONTINUOUS
100
AcDbBlockReference
  2
_OPEN
 10
245.0185415679027
 20
64.95055038240781
 30
0.0
 41
3.0
 42
3.0
 43
3.0
 50
270.0
  0
MTEXT
  5
2848
330
249B
100
AcDbEntity
  8
SUNPOU
  6
CONTINUOUS
100
AcDbMText
 10
242.5185415679027
 20
82.45055038240785
 30
0.0
 40
3.0
 41
0.0
 71
     5
 72
     1
  1
\A1;35
 11
0.0000000000000001
 21
1.0
 31
0.0
1001
ACAD
1000
MTEXTBEGIN
1070
    73
1070
     1
1070
    44
1040
1.0
1070
    74
1070
     0
1000
MTEXTEND
  0
POINT
  5
2849
330
249B
100
AcDbEntity
  8
DEFPOINTS
  6
CONTINUOUS
 62
     0
100
AcDbPoint
 10
231.4834331442666
 20
99.95055038240781
 30
0.0
  0
POINT
  5
284A
330
249B
100
AcDbEntity
  8
DEFPOINTS
  6
CONTINUOUS
 62
     0
100
AcDbPoint
 10
231.4834331442666
 20
64.95055038240781
 30
0.0
  0
POINT
  5
284B
330
249B
100
AcDbEntity
  8
DEFPOINTS
  6
CONTINUOUS
 62
     0
100
AcDbPoint
 10
245.0185415679027
 20
64.95055038240781
 30
0.0
  0
ENDBLK
  5
24EC
330
249B
100
AcDbEntity
  8
0
100
AcDbBlockEnd
  0
BLOCK
  5
24EE
330
24ED
100
AcDbEntity
  8
0
100
AcDbBlockBegin
  2
*D7
 70
     1
 10
0.0
 20
0.0
 30
0.0
  3
*D7
  1

  0
LINE
  5
284C
330
24ED
100
AcDbEntity
  8
SUNPOU
  6
CONTINUOUS
 62
     4
100
AcDbLine
 10
237.4834331442666
 20
240.4150542485077
 30
0.0
 11
249.3051130392339
 21
240.4150542485077
 31
0.0
  0
LINE
  5
284D
330
24ED
100
AcDbEntity
  8
SUNPOU
  6
CONTINUOUS
 62
     4
100
AcDbLine
 10
237.4834331442666
 20
179.4150542485077
 30
0.0
 11
249.3051130392339
 21
179.4150542485077
 31
0.0
  0
LINE
  5
284E
330
24ED
100
AcDbEntity
  8
SUNPOU
  6
CONTINUOUS
 62
     4
100
AcDbLine
 10
247.8051130392339
 20
237.4150542485077
 30
0.0
 11
247.8051130392338
 21
182.4150542485077
 31
0.0
  0
INSERT
  5
284F
330
24ED
100
AcDbEntity
  8
SUNPOU
  6
CONTINUOUS
 62
     4
100
AcDbBlockReference
  2
_OPEN
 10
247.8051130392339
 20
240.4150542485077
 30
0.0
 41
3.0
 42
3.0
 43
3.0
 50
90.0
  0
INSERT
  5
2850
330
24ED
100
AcDbEntity
  8
SUNPOU
  6
CONTINUOUS
 62
     4
100
AcDbBlockReference
  2
_OPEN
 10
247.8051130392338
 20
179.4150542485077
 30
0.0
 41
3.0
 42
3.0
 43
3.0
 50
270.0
  0
MTEXT
  5
2851
330
24ED
100
AcDbEntity
  8
SUNPOU
  6
CONTINUOUS
 62
     4
100
AcDbMText
 10
245.3051130392338
 20
209.9150542485078
 30
0.0
 40
3.0
 41
0.0
 71
     5
 72
     1
  1
\A1;61
 11
0.0000000000000001
 21
1.0
 31
0.0
1001
ACAD
1000
MTEXTBEGIN
1070
    73
1070
     1
1070
    44
1040
1.0
1070
    74
1070
     0
1000
MTEXTEND
  0
POINT
  5
2852
330
24ED
100
AcDbEntity
  8
DEFPOINTS
  6
CONTINUOUS
 62
     0
100
AcDbPoint
 10
234.4834331442666
 20
240.4150542485077
 30
0.0
  0
POINT
  5
2853
330
24ED
100
AcDbEntity
  8
DEFPOINTS
  6
CONTINUOUS
 62
     0
100
AcDbPoint
 10
234.4834331442666
 20
179.4150542485077
 30
0.0
  0
POINT
  5
2854
330
24ED
100
AcDbEntity
  8
DEFPOINTS
  6
CONTINUOUS
 62
     0
100
AcDbPoint
 10
247.8051130392338
 20
179.4150542485077
 30
0.0
  0
ENDBLK
  5
24F8
330
24ED
100
AcDbEntity
  8
0
100
AcDbBlockEnd
  0
BLOCK
  5
24FB
330
24FA
100
AcDbEntity
  8
0
100
AcDbBlockBegin
  2
*D8
 70
     1
 10
0.0
 20
0.0
 30
0.0
  3
*D8
  1

  0
LINE
  5
280B
330
24FA
100
AcDbEntity
  8
SUNPOU
  6
CONTINUOUS
 62
     4
100
AcDbLine
 10
73.5788172107666
 20
219.9150542485077
 30
0.0
 11
57.41066054524573
 21
219.9150542485078
 31
0.0
  0
LINE
  5
280C
330
24FA
100
AcDbEntity
  8
SUNPOU
  6
CONTINUOUS
 62
     4
100
AcDbLine
 10
73.5788172107666
 20
199.9150542485077
 30
0.0
 11
57.41066054524572
 21
199.9150542485077
 31
0.0
  0
LINE
  5
280D
330
24FA
100
AcDbEntity
  8
SUNPOU
  6
CONTINUOUS
 62
     4
100
AcDbLine
 10
58.91066054524572
 20
216.9150542485077
 30
0.0
 11
58.91066054524571
 21
202.9150542485078
 31
0.0
  0
INSERT
  5
280E
330
24FA
100
AcDbEntity
  8
SUNPOU
  6
CONTINUOUS
 62
     4
100
AcDbBlockReference
  2
_OPEN
 10
58.91066054524572
 20
219.9150542485078
 30
0.0
 41
3.0
 42
3.0
 43
3.0
 50
90.0
  0
INSERT
  5
280F
330
24FA
100
AcDbEntity
  8
SUNPOU
  6
CONTINUOUS
 62
     4
100
AcDbBlockReference
  2
_OPEN
 10
58.91066054524571
 20
199.9150542485077
 30
0.0
 41
3.0
 42
3.0
 43
3.0
 50
270.0
  0
MTEXT
  5
2810
330
24FA
100
AcDbEntity
  8
SUNPOU
  6
CONTINUOUS
 62
     4
100
AcDbMText
 10
56.41066054524569
 20
209.9150542485078
 30
0.0
 40
3.0
 41
0.0
 71
     5
 72
     1
  1
\A1;20
 11
0.0000000000000001
 21
1.0
 31
0.0
1001
ACAD
1000
MTEXTBEGIN
1070
    73
1070
     1
1070
    44
1040
1.0
1070
    74
1070
     0
1000
MTEXTEND
  0
POINT
  5
2811
330
24FA
100
AcDbEntity
  8
DEFPOINTS
  6
CONTINUOUS
 62
     0
100
AcDbPoint
 10
76.5788172107666
 20
219.9150542485077
 30
0.0
  0
POINT
  5
2812
330
24FA
100
AcDbEntity
  8
DEFPOINTS
  6
CONTINUOUS
 62
     0
100
AcDbPoint
 10
76.5788172107666
 20
199.9150542485077
 30
0.0
  0
POINT
  5
2813
330
24FA
100
AcDbEntity
  8
DEFPOINTS
  6
CONTINUOUS
 62
     0
100
AcDbPoint
 10
58.91066054524571
 20
199.9150542485077
 30
0.0
  0
ENDBLK
  5
2505
330
24FA
100
AcDbEntity
  8
0
100
AcDbBlockEnd
  0
BLOCK
  5
2509
330
2508
100
AcDbEntity
  8
0
100
AcDbBlockBegin
  2
*D9
 70
     1
 10
0.0
 20
0.0
 30
0.0
  3
*D9
  1

  0
LINE
  5
2802
330
2508
100
AcDbEntity
  8
SUNPOU
  6
CONTINUOUS
 62
     4
100
AcDbLine
 10
231.4834331442666
 20
102.9505503824078
 30
0.0
 11
231.4834331442666
 21
154.3260359940934
 31
0.0
  0
LINE
  5
2803
330
2508
100
AcDbEntity
  8
SUNPOU
  6
CONTINUOUS
 62
     4
100
AcDbLine
 10
205.7960920840665
 20
127.0763754444077
 30
0.0
 11
205.7960920840665
 21
154.3260359940934
 31
0.0
  0
LINE
  5
2804
330
2508
100
AcDbEntity
  8
SUNPOU
  6
CONTINUOUS
 62
     4
100
AcDbLine
 10
228.4834331442666
 20
152.8260359940934
 30
0.0
 11
208.7960920840665
 21
152.8260359940934
 31
0.0
  0
INSERT
  5
2805
330
2508
100
AcDbEntity
  8
SUNPOU
  6
CONTINUOUS
 62
     4
100
AcDbBlockReference
  2
_OPEN
 10
231.4834331442666
 20
152.8260359940934
 30
0.0
 41
3.0
 42
3.0
 43
3.0
  0
INSERT
  5
2806
330
2508
100
AcDbEntity
  8
SUNPOU
  6
CONTINUOUS
 62
     4
100
AcDbBlockReference
  2
_OPEN
 10
205.7960920840665
 20
152.8260359940934
 30
0.0
 41
3.0
 42
3.0
 43
3.0
 50
180.0
  0
MTEXT
  5
2807
330
2508
100
AcDbEntity
  8
SUNPOU
  6
CONTINUOUS
 62
     4
100
AcDbMText
 10
218.6397626141665
 20
155.3260359940934
 30
0.0
 40
3.0
 41
0.0
 71
     5
 72
     1
  1
\A1;26
1001
ACAD
1000
MTEXTBEGIN
1070
    73
1070
     1
1070
    44
1040
1.0
1070
    74
1070
     0
1000
MTEXTEND
  0
POINT
  5
2808
330
2508
100
AcDbEntity
  8
DEFPOINTS
  6
CONTINUOUS
 62
     0
100
AcDbPoint
 10
231.4834331442666
 20
99.95055038240781
 30
0.0
  0
POINT
  5
2809
330
2508
100
AcDbEntity
  8
DEFPOINTS
  6
CONTINUOUS
 62
     0
100
AcDbPoint
 10
205.7960920840665
 20
124.0763754444077
 30
0.0
  0
POINT
  5
280A
330
2508
100
AcDbEntity
  8
DEFPOINTS
  6
CONTINUOUS
 62
     0
100
AcDbPoint
 10
205.7960920840665
 20
152.8260359940934
 30
0.0
  0
ENDBLK
  5
2513
330
2508
100
AcDbEntity
  8
0
100
AcDbBlockEnd
  0
BLOCK
  5
2516
330
2515
100
AcDbEntity
  8
0
100
AcDbBlockBegin
  2
*D10
 70
     1
 10
0.0
 20
0.0
 30
0.0
  3
*D10
  1

  0
LINE
  5
27F9
330
2515
100
AcDbEntity
  8
SUNPOU
  6
CONTINUOUS
 62
     4
100
AcDbLine
 10
231.4834331442666
 20
102.9505503824078
 30
0.0
 11
231.4834331442666
 21
165.0693380171704
 31
0.0
  0
LINE
  5
27FA
330
2515
100
AcDbEntity
  8
SUNPOU
  6
CONTINUOUS
 62
     4
100
AcDbLine
 10
76.17881721076662
 20
156.4431853613077
 30
0.0
 11
76.17881721076662
 21
165.0693380171704
 31
0.0
  0
LINE
  5
27FB
330
2515
100
AcDbEntity
  8
SUNPOU
  6
CONTINUOUS
 62
     4
100
AcDbLine
 10
228.4834331442666
 20
163.5693380171704
 30
0.0
 11
79.17881721076662
 21
163.5693380171704
 31
0.0
  0
INSERT
  5
27FC
330
2515
100
AcDbEntity
  8
SUNPOU
  6
CONTINUOUS
 62
     4
100
AcDbBlockReference
  2
_OPEN
 10
231.4834331442666
 20
163.5693380171704
 30
0.0
 41
3.0
 42
3.0
 43
3.0
  0
INSERT
  5
27FD
330
2515
100
AcDbEntity
  8
SUNPOU
  6
CONTINUOUS
 62
     4
100
AcDbBlockReference
  2
_OPEN
 10
76.17881721076662
 20
163.5693380171704
 30
0.0
 41
3.0
 42
3.0
 43
3.0
 50
180.0
  0
MTEXT
  5
27FE
330
2515
100
AcDbEntity
  8
SUNPOU
  6
CONTINUOUS
 62
     4
100
AcDbMText
 10
153.8311251775166
 20
166.0693380171704
 30
0.0
 40
3.0
 41
0.0
 71
     5
 72
     1
  1
\A1;155
1001
ACAD
1000
MTEXTBEGIN
1070
    73
1070
     1
1070
    44
1040
1.0
1070
    74
1070
     0
1000
MTEXTEND
  0
POINT
  5
27FF
330
2515
100
AcDbEntity
  8
DEFPOINTS
  6
CONTINUOUS
 62
     0
100
AcDbPoint
 10
231.4834331442666
 20
99.95055038240781
 30
0.0
  0
POINT
  5
2800
330
2515
100
AcDbEntity
  8
DEFPOINTS
  6
CONTINUOUS
 62
     0
100
AcDbPoint
 10
76.17881721076662
 20
153.4431853613077
 30
0.0
  0
POINT
  5
2801
330
2515
100
AcDbEntity
  8
DEFPOINTS
  6
CONTINUOUS
 62
     0
100
AcDbPoint
 10
76.17881721076662
 20
163.5693380171704
 30
0.0
  0
ENDBLK
  5
2520
330
2515
100
AcDbEntity
  8
0
100
AcDbBlockEnd
  0
BLOCK
  5
2629
330
261F
100
AcDbEntity
  8
0
100
AcDbBlockBegin
  2
*D11
 70
     1
 10
0.0
 20
0.0
 30
0.0
  3
*D11
  1

  0
LINE
  5
27F0
330
261F
100
AcDbEntity
  8
SUNPOU
 62
     4
100
AcDbLine
 10
73.5788172107666
 20
124.9037349980077
 30
0.0
 11
57.9106605452457
 21
124.9037349980077
 31
0.0
  0
LINE
  5
27F1
330
261F
100
AcDbEntity
  8
SUNPOU
 62
     4
100
AcDbLine
 10
221.8834331442666
 20
64.95055038240782
 30
0.0
 11
57.91066054524567
 21
64.95055038240787
 31
0.0
  0
LINE
  5
27F2
330
261F
100
AcDbEntity
  8
SUNPOU
 62
     4
100
AcDbLine
 10
59.41066054524569
 20
121.9037349980077
 30
0.0
 11
59.41066054524569
 21
67.95055038240787
 31
0.0
  0
INSERT
  5
27F3
330
261F
100
AcDbEntity
  8
SUNPOU
 62
     4
100
AcDbBlockReference
  2
_OPEN
 10
59.41066054524569
 20
124.9037349980077
 30
0.0
 41
3.0
 42
3.0
 43
3.0
 50
90.0
  0
INSERT
  5
27F4
330
261F
100
AcDbEntity
  8
SUNPOU
 62
     4
100
AcDbBlockReference
  2
_OPEN
 10
59.41066054524569
 20
64.95055038240787
 30
0.0
 41
3.0
 42
3.0
 43
3.0
 50
270.0
  0
MTEXT
  5
27F5
330
261F
100
AcDbEntity
  8
SUNPOU
 62
     4
100
AcDbMText
 10
56.91066054524568
 20
94.92714269020785
 30
0.0
 40
3.0
 41
0.0
 71
     5
 72
     1
  1
\A1;60
 11
0.0000000000000001
 21
1.0
 31
0.0
1001
ACAD
1000
MTEXTBEGIN
1070
    73
1070
     1
1070
    44
1040
1.0
1070
    74
1070
     0
1000
MTEXTEND
  0
POINT
  5
27F6
330
261F
100
AcDbEntity
  8
DEFPOINTS
 62
     0
100
AcDbPoint
 10
76.5788172107666
 20
124.9037349980077
 30
0.0
  0
POINT
  5
27F7
330
261F
100
AcDbEntity
  8
DEFPOINTS
 62
     0
100
AcDbPoint
 10
224.8834331442666
 20
64.95055038240781
 30
0.0
  0
POINT
  5
27F8
330
261F
100
AcDbEntity
  8
DEFPOINTS
 62
     0
100
AcDbPoint
 10
59.41066054524569
 20
64.95055038240787
 30
0.0
  0
ENDBLK
  5
262A
330
261F
100
AcDbEntity
  8
0
100
AcDbBlockEnd
  0
ENDSEC
  0
SECTION
  2
ENTITIES
  0
LINE
  5
2360
330
1A
100
AcDbEntity
  8
SEIHIN
  6
CONTINUOUS
 62
     3
100
AcDbLine
 10
76.5788172107666
 20
124.9037349980077
 30
0.0
 11
76.5788172107666
 21
153.4431853613077
 31
0.0
  0
LINE
  5
2361
330
1A
100
AcDbEntity
  8
SEIHIN
  6
CONTINUOUS
 62
     3
100
AcDbLine
 10
76.17881721076662
 20
111.1499539259077
 30
0.0
 11
76.17881721076662
 21
153.4431853613077
 31
0.0
  0
LINE
  5
2362
330
1A
100
AcDbEntity
  8
SEIHIN
  6
CONTINUOUS
 62
     3
100
AcDbLine
 10
76.17881721076662
 20
153.4431853613077
 30
0.0
 11
76.5788172107666
 21
153.4431853613077
 31
0.0
  0
LINE
  5
2363
330
1A
100
AcDbEntity
  8
SEIHIN
  6
CONTINUOUS
 62
     3
100
AcDbLine
 10
81.0788172107666
 20
219.9150542485077
 30
0.0
 11
230.9834331442666
 21
219.9150542485077
 31
0.0
  0
LINE
  5
2364
330
1A
100
AcDbEntity
  8
SEIHIN
  6
CONTINUOUS
 62
     3
100
AcDbLine
 10
81.0788172107666
 20
199.9150542485077
 30
0.0
 11
230.9834331442666
 21
199.9150542485077
 31
0.0
  0
ARC
  5
2365
330
1A
100
AcDbEntity
  8
SEIHIN
  6
CONTINUOUS
 62
     3
100
AcDbCircle
 10
133.3615139150665
 20
111.4696144234077
 30
0.0
 40
48.5000144765
100
AcDbArc
 50
193.1630520442999
 51
258.3451994240999
  0
ARC
  5
2366
330
1A
100
AcDbEntity
  8
SEIHIN
  6
CONTINUOUS
 62
     3
100
AcDbCircle
 10
84.18833902086658
 20
99.9695999470078
 30
0.0
 40
6.5
100
AcDbArc
 50
13.1630502727
 51
90.0000000118
  0
LINE
  5
2367
330
1A
100
AcDbEntity
  8
SEIHIN
  6
CONTINUOUS
 62
     3
100
AcDbLine
 10
81.0788172107666
 20
108.4695999470078
 30
0.0
 11
81.0788172107666
 21
124.9037349980077
 31
0.0
  0
LINE
  5
2368
330
1A
100
AcDbEntity
  8
SEIHIN
  6
CONTINUOUS
 62
     3
100
AcDbLine
 10
76.5788172107666
 20
108.4695999470078
 30
0.0
 11
76.5788172107666
 21
124.9037349980077
 31
0.0
  0
ARC
  5
2369
330
1A
100
AcDbEntity
  8
SEIHIN
  6
CONTINUOUS
 62
     3
100
AcDbCircle
 10
83.07881721076659
 20
108.4695999470078
 30
0.0
 40
6.5
100
AcDbArc
 50
180.0000000234999
 51
270.0000000353
  0
ARC
  5
236A
330
1A
100
AcDbEntity
  8
SEIHIN
  6
CONTINUOUS
 62
     3
100
AcDbCircle
 10
83.07881721076659
 20
108.4695999470078
 30
0.0
 40
2.0
100
AcDbArc
 50
180.0000000234999
 51
270.0000000353
  0
LINE
  5
236B
330
1A
100
AcDbEntity
  8
SEIHIN
  6
CONTINUOUS
 62
     3
100
AcDbLine
 10
76.5788172107666
 20
111.1499539259077
 30
0.0
 11
76.17881721076662
 21
111.1499539259077
 31
0.0
  0
ARC
  5
236C
330
1A
100
AcDbEntity
  8
SEIHIN
  6
CONTINUOUS
 62
     3
100
AcDbCircle
 10
84.18833902086658
 20
99.9695999470078
 30
0.0
 40
2.0
100
AcDbArc
 50
13.1630474015
 51
90.0000000118
  0
LINE
  5
236D
330
1A
100
AcDbEntity
  8
SEIHIN
  6
CONTINUOUS
 62
     3
100
AcDbLine
 10
83.07881721076659
 20
101.9695999470078
 30
0.0
 11
84.18833902086658
 21
101.9695999470078
 31
0.0
  0
LINE
  5
236E
330
1A
100
AcDbEntity
  8
SEIHIN
  6
CONTINUOUS
 62
     3
100
AcDbLine
 10
83.07881721076659
 20
106.4695999470077
 30
0.0
 11
84.18833902086658
 21
106.4695999470077
 31
0.0
  0
LINE
  5
236F
330
1A
100
AcDbEntity
  8
SEIHIN
  6
CONTINUOUS
 62
     3
100
AcDbLine
 10
81.0788172107666
 20
124.9037349980077
 30
0.0
 11
76.5788172107666
 21
124.9037349980077
 31
0.0
  0
ARC
  5
2370
330
1A
100
AcDbEntity
  8
SEIHIN
  6
CONTINUOUS
 62
     3
100
AcDbCircle
 10
133.3615139150665
 20
111.4696144234077
 30
0.0
 40
44.0000144765
100
AcDbArc
 50
193.1630520925999
 51
257.7611184768
  0
LINE
  5
2371
330
1A
100
AcDbEntity
  8
SEIHIN
  6
CONTINUOUS
 62
     3
100
AcDbLine
 10
231.4834331442666
 20
64.95055038240781
 30
0.0
 11
224.8834331442666
 21
64.95055038240781
 31
0.0
  0
LINE
  5
2372
330
1A
100
AcDbEntity
  8
SEIHIN
  6
CONTINUOUS
 62
     3
100
AcDbLine
 10
231.4834331442666
 20
99.95055038240781
 30
0.0
 11
231.4834331442666
 21
64.95055038240781
 31
0.0
  0
LINE
  5
2373
330
1A
100
AcDbEntity
  8
SEIHIN
  6
CONTINUOUS
 62
     3
100
AcDbLine
 10
317.4479489328666
 20
107.4906383648077
 30
0.0
 11
317.4479489328666
 21
127.6763754444077
 31
0.0
  0
LINE
  5
2374
330
1A
100
AcDbEntity
  8
SEIHIN
  6
CONTINUOUS
 62
     3
100
AcDbLine
 10
123.5637958664665
 20
63.96954994700781
 30
0.0
 11
181.7335947324665
 21
63.96954994700781
 31
0.0
  0
LINE
  5
2375
330
1A
100
AcDbEntity
  8
SEIHIN
  6
CONTINUOUS
 62
     3
100
AcDbLine
 10
192.4284165489666
 20
78.53422764980774
 30
0.0
 11
180.1271825183666
 21
68.46949562780776
 31
0.0
  0
LINE
  5
2376
330
1A
100
AcDbEntity
  8
SEIHIN
  6
CONTINUOUS
 62
     3
100
AcDbLine
 10
196.7206097238665
 20
76.23175789480774
 30
0.0
 11
181.7335947324665
 21
63.96954994700781
 31
0.0
  0
ARC
  5
2377
330
1A
100
AcDbEntity
  8
SEIHIN
  6
CONTINUOUS
 62
     3
100
AcDbCircle
 10
337.4479489328666
 20
67.95055038240781
 30
0.0
 40
3.0
100
AcDbArc
 50
270.0000000353
 51
0.0000050269
  0
LINE
  5
2378
330
1A
100
AcDbEntity
  8
SEIHIN
  6
CONTINUOUS
 62
     3
100
AcDbLine
 10
296.4479489328666
 20
89.95055038240781
 30
0.0
 11
296.4479489328666
 21
74.95055038240781
 31
0.0
  0
LINE
  5
2379
330
1A
100
AcDbEntity
  8
SEIHIN
  6
CONTINUOUS
 62
     3
100
AcDbLine
 10
320.4479489328666
 20
74.95055038240781
 30
0.0
 11
324.9479489328666
 21
74.95055038240781
 31
0.0
  0
LINE
  5
237A
330
1A
100
AcDbEntity
  8
SEIHIN
  6
CONTINUOUS
 62
     3
100
AcDbLine
 10
197.7868803805665
 20
104.9763754444077
 30
0.0
 11
203.7960920840665
 21
104.9763754444077
 31
0.0
  0
LINE
  5
237B
330
1A
100
AcDbEntity
  8
SEIHIN
  6
CONTINUOUS
 62
     3
100
AcDbLine
 10
197.7868803805665
 20
106.5763754444077
 30
0.0
 11
203.7960920840665
 21
106.5763754444077
 31
0.0
  0
LINE
  5
237C
330
1A
100
AcDbEntity
  8
SEIHIN
  6
CONTINUOUS
 62
     3
100
AcDbLine
 10
323.4479489328666
 20
89.95055038240781
 30
0.0
 11
323.4479489328666
 21
74.95055038240781
 31
0.0
  0
LINE
  5
237D
330
1A
100
AcDbEntity
  8
SEIHIN
  6
CONTINUOUS
 62
     3
100
AcDbLine
 10
194.4653479480666
 20
98.90311562270779
 30
0.0
 11
192.4284165489666
 21
78.53422764980774
 31
0.0
  0
LINE
  5
237E
330
1A
100
AcDbEntity
  8
SEIHIN
  6
CONTINUOUS
 62
     3
100
AcDbLine
 10
340.4479489328666
 20
96.9505504718078
 30
0.0
 11
340.4479489328666
 21
67.95055064560779
 31
0.0
  0
CIRCLE
  5
237F
330
1A
100
AcDbEntity
  8
SEIHIN
  6
CONTINUOUS
 62
     3
100
AcDbCircle
 10
288.4479489328666
 20
91.95055038240781
 30
0.0
 40
2.1
  0
LINE
  5
2380
330
1A
100
AcDbEntity
  8
SEIHIN
  6
CONTINUOUS
 62
     3
100
AcDbLine
 10
299.4479489328666
 20
93.95055038240782
 30
0.0
 11
294.9479489328666
 21
93.95055038240782
 31
0.0
  0
LINE
  5
2381
330
1A
100
AcDbEntity
  8
SEIHIN
  6
CONTINUOUS
 62
     3
100
AcDbLine
 10
320.4479489328666
 20
89.95055038240781
 30
0.0
 11
324.9479489328666
 21
89.95055038240781
 31
0.0
  0
CIRCLE
  5
2382
330
1A
100
AcDbEntity
  8
SEIHIN
  6
CONTINUOUS
 62
     3
100
AcDbCircle
 10
288.4479489328666
 20
72.95055038240781
 30
0.0
 40
2.1
  0
LINE
  5
2383
330
1A
100
AcDbEntity
  8
SEIHIN
  6
CONTINUOUS
 62
     3
100
AcDbLine
 10
319.9479489328666
 20
107.4906383648077
 30
0.0
 11
319.9479489328666
 21
64.95055038240781
 31
0.0
  0
LINE
  5
2384
330
1A
100
AcDbEntity
  8
SEIHIN
  6
CONTINUOUS
 62
     3
100
AcDbLine
 10
302.4479489328666
 20
107.4906383648077
 30
0.0
 11
302.4479489328666
 21
127.6763754444077
 31
0.0
  0
ARC
  5
2385
330
1A
100
AcDbEntity
  8
SEIHIN
  6
CONTINUOUS
 62
     3
100
AcDbCircle
 10
200.9330883450666
 20
98.25632805560781
 30
0.0
 40
6.5
100
AcDbArc
 50
96.0000000125
 51
174.289288237
  0
LINE
  5
2386
330
1A
100
AcDbEntity
  8
SEIHIN
  6
CONTINUOUS
 62
     3
100
AcDbLine
 10
124.0340374148665
 20
68.46962074810779
 30
0.0
 11
180.1271825183666
 21
68.46949562780776
 31
0.0
  0
ARC
  5
2387
330
1A
100
AcDbEntity
  8
SEIHIN
  6
CONTINUOUS
 62
     3
100
AcDbCircle
 10
193.8871540330666
 20
124.0763754444077
 30
0.0
 40
3.6
100
AcDbArc
 50
90.00000001169999
 51
135.0000000175999
  0
ARC
  5
2388
330
1A
100
AcDbEntity
  8
SEIHIN
  6
CONTINUOUS
 62
     3
100
AcDbCircle
 10
193.8871540330666
 20
124.0763754444077
 30
0.0
 40
2.0
100
AcDbArc
 50
90.0000000118
 51
135.0000000175999
  0
LINE
  5
2389
330
1A
100
AcDbEntity
  8
SEIHIN
  6
CONTINUOUS
 62
     3
100
AcDbLine
 10
324.9479489328666
 20
89.95055038240781
 30
0.0
 11
324.9479489328666
 21
93.95055038240782
 31
0.0
  0
LINE
  5
238A
330
1A
100
AcDbEntity
  8
SEIHIN
  6
CONTINUOUS
 62
     3
100
AcDbLine
 10
299.4479489328666
 20
89.95055038240781
 30
0.0
 11
294.9479489328666
 21
89.95055038240781
 31
0.0
  0
LINE
  5
238B
330
1A
100
AcDbEntity
  8
SEIHIN
  6
CONTINUOUS
 62
     3
100
AcDbLine
 10
299.9479489328667
 20
107.4906383648077
 30
0.0
 11
299.9479489328667
 21
64.95055038240781
 31
0.0
  0
LINE
  5
238C
330
1A
100
AcDbEntity
  8
SEIHIN
  6
CONTINUOUS
 62
     3
100
AcDbLine
 10
296.4479489328666
 20
70.95055038240781
 30
0.0
 11
296.4479489328666
 21
64.95055038240781
 31
0.0
  0
ARC
  5
238D
330
1A
100
AcDbEntity
  8
SEIHIN
  6
CONTINUOUS
 62
     3
100
AcDbCircle
 10
282.4479489328666
 20
67.95055038240781
 30
0.0
 40
3.0
100
AcDbArc
 50
180.0000000234999
 51
270.0000000353
  0
ARC
  5
238E
330
1A
100
AcDbEntity
  8
SEIHIN
  6
CONTINUOUS
 62
     3
100
AcDbCircle
 10
203.7960920840665
 20
108.5763754444077
 30
0.0
 40
3.6
100
AcDbArc
 50
270.0000000353
 51
0.0
  0
LINE
  5
238F
330
1A
100
AcDbEntity
  8
SEIHIN
  6
CONTINUOUS
 62
     3
100
AcDbLine
 10
302.4479489328666
 20
64.95055038240781
 30
0.0
 11
302.4479489328666
 21
63.96954994700781
 31
0.0
  0
LINE
  5
2390
330
1A
100
AcDbEntity
  8
SEIHIN
  6
CONTINUOUS
 62
     3
100
AcDbLine
 10
226.4834331442666
 20
100.7315690360077
 30
0.0
 11
226.4834331442666
 21
99.95055038240781
 31
0.0
  0
LINE
  5
2391
330
1A
100
AcDbEntity
  8
SEIHIN
  6
CONTINUOUS
 62
     3
100
AcDbLine
 10
230.9834331442666
 20
100.7315690360077
 30
0.0
 11
230.9834331442666
 21
99.95055038240781
 31
0.0
  0
ARC
  5
2392
330
1A
100
AcDbEntity
  8
SEIHIN
  6
CONTINUOUS
 62
     3
100
AcDbCircle
 10
197.7868803805665
 20
101.9763754444077
 30
0.0
 40
4.599999999999999
100
AcDbArc
 50
90.0000000118
 51
173.0000000225999
  0
LINE
  5
2393
330
1A
100
AcDbEntity
  8
SEIHIN
  6
CONTINUOUS
 62
     3
100
AcDbLine
 10
317.4479489328666
 20
64.95055038240781
 30
0.0
 11
317.4479489328666
 21
63.96954994700781
 31
0.0
  0
LINE
  5
2394
330
1A
100
AcDbEntity
  8
SEIHIN
  6
CONTINUOUS
 62
     3
100
AcDbLine
 10
224.8834331442666
 20
99.95055038240781
 30
0.0
 11
224.8834331442666
 21
64.95055038240781
 31
0.0
  0
LINE
  5
2395
330
1A
100
AcDbEntity
  8
SEIHIN
  6
CONTINUOUS
 62
     3
100
AcDbLine
 10
282.4479489328666
 20
64.95055038240781
 30
0.0
 11
337.4479489328666
 21
64.95055038240781
 31
0.0
  0
LINE
  5
2396
330
1A
100
AcDbEntity
  8
SEIHIN
  6
CONTINUOUS
 62
     3
100
AcDbLine
 10
319.9479489328666
 20
99.95055038240781
 30
0.0
 11
337.4479489328666
 21
99.95055038240781
 31
0.0
  0
LINE
  5
2397
330
1A
100
AcDbEntity
  8
SEIHIN
  6
CONTINUOUS
 62
     3
100
AcDbLine
 10
299.4479489328666
 20
99.95055038240781
 30
0.0
 11
299.4479489328666
 21
64.95055038240781
 31
0.0
  0
ARC
  5
2398
330
1A
100
AcDbEntity
  8
SEIHIN
  6
CONTINUOUS
 62
     3
100
AcDbCircle
 10
282.4479489328666
 20
96.95055038240781
 30
0.0
 40
3.0
100
AcDbArc
 50
90.0000000118
 51
180.0000000234999
  0
LINE
  5
2399
330
1A
100
AcDbEntity
  8
SEIHIN
  6
CONTINUOUS
 62
     3
100
AcDbLine
 10
294.9479489328666
 20
70.95055038240781
 30
0.0
 11
294.9479489328666
 21
74.95055038240781
 31
0.0
  0
LINE
  5
239A
330
1A
100
AcDbEntity
  8
SEIHIN
  6
CONTINUOUS
 62
     3
100
AcDbLine
 10
229.8834331442666
 20
99.95055038240781
 30
0.0
 11
229.8834331442666
 21
64.95055038240781
 31
0.0
  0
LINE
  5
239B
330
1A
100
AcDbEntity
  8
SEIHIN
  6
CONTINUOUS
 62
     3
100
AcDbLine
 10
323.4479489328666
 20
99.95055038240781
 30
0.0
 11
323.4479489328666
 21
93.95055038240782
 31
0.0
  0
LINE
  5
239C
330
1A
100
AcDbEntity
  8
SEIHIN
  6
CONTINUOUS
 62
     3
100
AcDbLine
 10
282.4479489328666
 20
99.95055038240781
 30
0.0
 11
299.9479489328667
 21
99.95055038240781
 31
0.0
  0
LINE
  5
239D
330
1A
100
AcDbEntity
  8
SEIHIN
  6
CONTINUOUS
 62
     3
100
AcDbLine
 10
320.4479489328666
 20
99.95055038240781
 30
0.0
 11
320.4479489328666
 21
64.95055038240781
 31
0.0
  0
LINE
  5
239E
330
1A
100
AcDbEntity
  8
SEIHIN
  6
CONTINUOUS
 62
     3
100
AcDbLine
 10
296.4479489328666
 20
99.95055038240781
 30
0.0
 11
296.4479489328666
 21
93.95055038240782
 31
0.0
  0
LINE
  5
239F
330
1A
100
AcDbEntity
  8
SEIHIN
  6
CONTINUOUS
 62
     3
100
AcDbLine
 10
302.4479489328666
 20
127.6763754444077
 30
0.0
 11
317.4479489328666
 21
127.6763754444077
 31
0.0
  0
LINE
  5
23A0
330
1A
100
AcDbEntity
  8
SEIHIN
  6
CONTINUOUS
 62
     3
100
AcDbLine
 10
188.3090724063665
 20
121.3267209425078
 30
0.0
 11
187.1777015564665
 21
122.4580917923077
 31
0.0
  0
ARC
  5
23A1
330
1A
100
AcDbEntity
  8
SEIHIN
  6
CONTINUOUS
 62
     3
100
AcDbCircle
 10
197.7868803805665
 20
101.9763754444077
 30
0.0
 40
3.0
100
AcDbArc
 50
90.0000000118
 51
173.0000000225999
  0
ARC
  5
23A2
330
1A
100
AcDbEntity
  8
SEIHIN
  6
CONTINUOUS
 62
     3
100
AcDbCircle
 10
203.7960920840665
 20
124.0763754444077
 30
0.0
 40
3.6
100
AcDbArc
 50
0.0
 51
90.0000000118
  0
ARC
  5
23A3
330
1A
100
AcDbEntity
  8
SEIHIN
  6
CONTINUOUS
 62
     3
100
AcDbCircle
 10
203.7960920840665
 20
124.0763754444077
 30
0.0
 40
2.0
100
AcDbArc
 50
0.0
 51
90.0000000118
  0
LINE
  5
23A4
330
1A
100
AcDbEntity
  8
SEIHIN
  6
CONTINUOUS
 62
     3
100
AcDbLine
 10
299.4479489328666
 20
70.95055038240781
 30
0.0
 11
294.9479489328666
 21
70.95055038240781
 31
0.0
  0
LINE
  5
23A5
330
1A
100
AcDbEntity
  8
SEIHIN
  6
CONTINUOUS
 62
     3
100
AcDbLine
 10
320.4479489328666
 20
93.95055038240782
 30
0.0
 11
324.9479489328666
 21
93.95055038240782
 31
0.0
  0
LINE
  5
23A6
330
1A
100
AcDbEntity
  8
SEIHIN
  6
CONTINUOUS
 62
     3
100
AcDbLine
 10
193.8871540330666
 20
127.6763754444077
 30
0.0
 11
203.7960920840665
 21
127.6763754444077
 31
0.0
  0
LINE
  5
23A7
330
1A
100
AcDbEntity
  8
SEIHIN
  6
CONTINUOUS
 62
     3
100
AcDbLine
 10
200.2536533337665
 20
104.7207203755077
 30
0.0
 11
213.8039981330666
 21
106.1449190032077
 31
0.0
  0
ARC
  5
23A8
330
1A
100
AcDbEntity
  8
SEIHIN
  6
CONTINUOUS
 62
     3
100
AcDbCircle
 10
200.9330883450666
 20
98.25632805560781
 30
0.0
 40
2.0
100
AcDbArc
 50
96.0000000125
 51
174.289288237
  0
LINE
  5
23A9
330
1A
100
AcDbEntity
  8
SEIHIN
  6
CONTINUOUS
 62
     3
100
AcDbLine
 10
191.7165905931666
 20
90.28317411920779
 30
0.0
 11
193.3046644358665
 21
90.0881831697078
 31
0.0
  0
ARC
  5
23AA
330
1A
100
AcDbEntity
  8
SEIHIN
  6
CONTINUOUS
 62
     3
100
AcDbCircle
 10
-224.4834331442666
 20
100.7315690360077
 30
0.0
 40
2.0
210
0.0
220
0.0
230
-1.0
100
AcDbArc
 50
84.0
 51
180.0
  0
LINE
  5
23AB
330
1A
100
AcDbEntity
  8
SEIHIN
  6
CONTINUOUS
 62
     3
100
AcDbLine
 10
209.9702479692666
 20
105.7419756241077
 30
0.0
 11
223.8039981330666
 21
107.1959613559078
 31
0.0
  0
LINE
  5
23AC
330
1A
100
AcDbEntity
  8
SEIHIN
  6
CONTINUOUS
 62
     3
100
AcDbLine
 10
194.8092419256665
 20
102.3419834746077
 30
0.0
 11
193.3046644358665
 21
90.0881831697078
 31
0.0
  0
LINE
  5
23AD
330
1A
100
AcDbEntity
  8
SEIHIN
  6
CONTINUOUS
 62
     3
100
AcDbLine
 10
299.4479489328666
 20
74.95055038240781
 30
0.0
 11
294.9479489328666
 21
74.95055038240781
 31
0.0
  0
LINE
  5
23AE
330
1A
100
AcDbEntity
  8
SEIHIN
  6
CONTINUOUS
 62
     3
100
AcDbLine
 10
323.4479489328666
 20
70.95055038240781
 30
0.0
 11
323.4479489328666
 21
64.95055038240781
 31
0.0
  0
LINE
  5
23AF
330
1A
100
AcDbEntity
  8
SEIHIN
  6
CONTINUOUS
 62
     3
100
AcDbLine
 10
302.4479489328666
 20
63.96954994700781
 30
0.0
 11
317.4479489328666
 21
63.96954994700781
 31
0.0
  0
CIRCLE
  5
23B0
330
1A
100
AcDbEntity
  8
SEIHIN
  6
CONTINUOUS
 62
     3
100
AcDbCircle
 10
331.4479489328666
 20
91.95055038240781
 30
0.0
 40
2.1
  0
LINE
  5
23B1
330
1A
100
AcDbEntity
  8
SEIHIN
  6
CONTINUOUS
 62
     3
100
AcDbLine
 10
279.4479489328666
 20
96.95055038240781
 30
0.0
 11
279.4479489328666
 21
67.95055038240781
 31
0.0
  0
ARC
  5
23B2
330
1A
100
AcDbEntity
  8
SEIHIN
  6
CONTINUOUS
 62
     3
100
AcDbCircle
 10
337.4479489328666
 20
96.95055038240781
 30
0.0
 40
3.0
100
AcDbArc
 50
0.0000017075
 51
90.0000000118
  0
LINE
  5
23B3
330
1A
100
AcDbEntity
  8
SEIHIN
  6
CONTINUOUS
 62
     3
100
AcDbLine
 10
299.9479489328667
 20
107.4906383648077
 30
0.0
 11
319.9479489328666
 21
107.4906383648077
 31
0.0
  0
LINE
  5
23B4
330
1A
100
AcDbEntity
  8
SEIHIN
  6
CONTINUOUS
 62
     3
100
AcDbLine
 10
207.3960920840665
 20
124.0763754444077
 30
0.0
 11
207.3960920840665
 21
108.5763754444077
 31
0.0
  0
ARC
  5
23B5
330
1A
100
AcDbEntity
  8
SEIHIN
  6
CONTINUOUS
 62
     3
100
AcDbCircle
 10
203.7960920840665
 20
108.5763754444077
 30
0.0
 40
2.0
100
AcDbArc
 50
270.0000000353
 51
0.0
  0
LINE
  5
23B6
330
1A
100
AcDbEntity
  8
SEIHIN
  6
CONTINUOUS
 62
     3
100
AcDbLine
 10
205.7960920840665
 20
124.0763754444077
 30
0.0
 11
205.7960920840665
 21
108.5763754444077
 31
0.0
  0
LINE
  5
23B7
330
1A
100
AcDbEntity
  8
SEIHIN
  6
CONTINUOUS
 62
     3
100
AcDbLine
 10
76.17881721076662
 20
202.4150542485077
 30
0.0
 11
76.17881721076662
 21
217.4150542485077
 31
0.0
  0
LINE
  5
23B8
330
1A
100
AcDbEntity
  8
SEIHIN
  6
CONTINUOUS
 62
     3
100
AcDbLine
 10
76.5788172107666
 20
199.9150542485077
 30
0.0
 11
76.5788172107666
 21
219.9150542485077
 31
0.0
  0
LINE
  5
23B9
330
1A
100
AcDbEntity
  8
SEIHIN
  6
CONTINUOUS
 62
     3
100
AcDbLine
 10
76.5788172107666
 20
219.9150542485077
 30
0.0
 11
81.0788172107666
 21
219.9150542485077
 31
0.0
  0
LINE
  5
23BA
330
1A
100
AcDbEntity
  8
SEIHIN
  6
CONTINUOUS
 62
     3
100
AcDbLine
 10
76.5788172107666
 20
199.9150542485077
 30
0.0
 11
81.0788172107666
 21
199.9150542485077
 31
0.0
  0
LINE
  5
23BB
330
1A
100
AcDbEntity
  8
SEIHIN
  6
CONTINUOUS
 62
     3
100
AcDbLine
 10
81.0788172107666
 20
199.9150542485077
 30
0.0
 11
81.0788172107666
 21
219.9150542485077
 31
0.0
  0
LINE
  5
23BC
330
1A
100
AcDbEntity
  8
SEIHIN
  6
CONTINUOUS
 62
     3
100
AcDbLine
 10
76.17881721076662
 20
217.4150542485077
 30
0.0
 11
76.5788172107666
 21
217.4150542485077
 31
0.0
  0
LINE
  5
23BD
330
1A
100
AcDbEntity
  8
SEIHIN
  6
CONTINUOUS
 62
     3
100
AcDbLine
 10
76.17881721076662
 20
202.4150542485077
 30
0.0
 11
76.5788172107666
 21
202.4150542485077
 31
0.0
  0
LINE
  5
23BE
330
1A
100
AcDbEntity
  8
SEIHIN
  6
CONTINUOUS
 62
     3
100
AcDbLine
 10
320.4479489328666
 20
70.95055038240781
 30
0.0
 11
324.9479489328666
 21
70.95055038240781
 31
0.0
  0
LINE
  5
23BF
330
1A
100
AcDbEntity
  8
SEIHIN
  6
CONTINUOUS
 62
     3
100
AcDbLine
 10
324.9479489328666
 20
70.95055038240781
 30
0.0
 11
324.9479489328666
 21
74.95055038240781
 31
0.0
  0
LINE
  5
23C0
330
1A
100
AcDbEntity
  8
SEIHIN
  6
CONTINUOUS
 62
     3
100
AcDbLine
 10
193.8871540330666
 20
126.0763754444077
 30
0.0
 11
203.7960920840665
 21
126.0763754444077
 31
0.0
  0
LINE
  5
23C1
330
1A
100
AcDbEntity
  8
SEIHIN
  6
CONTINUOUS
 62
     3
100
AcDbLine
 10
192.4729404706665
 20
125.4905890067078
 30
0.0
 11
188.3090724063665
 21
121.3267209425078
 31
0.0
  0
LINE
  5
23C2
330
1A
100
AcDbEntity
  8
SEIHIN
  6
CONTINUOUS
 62
     3
100
AcDbLine
 10
191.3415696207665
 20
126.6219598566077
 30
0.0
 11
187.1777015564665
 21
122.4580917923077
 31
0.0
  0
CIRCLE
  5
23C3
330
1A
100
AcDbEntity
  8
SEIHIN
  6
CONTINUOUS
 62
     3
100
AcDbCircle
 10
331.4479489328666
 20
72.95055038240781
 30
0.0
 40
2.1
  0
LINE
  5
23C4
330
1A
100
AcDbEntity
  8
SEIHIN
  6
CONTINUOUS
 62
     3
100
AcDbLine
 10
193.2211680829666
 20
102.5369744240077
 30
0.0
 11
191.7165905931666
 21
90.28317411920779
 31
0.0
  0
LINE
  5
23C5
330
1A
100
AcDbEntity
  8
SEIHIN
  6
CONTINUOUS
 62
     3
100
AcDbLine
 10
200.7240314184666
 20
100.2453718464077
 30
0.0
 11
224.2743762177666
 21
102.7206128267077
 31
0.0
  0
LINE
  5
23C6
330
1A
100
AcDbEntity
  8
SEIHIN
  6
CONTINUOUS
 62
     3
100
AcDbLine
 10
294.9479489328666
 20
89.95055038240781
 30
0.0
 11
294.9479489328666
 21
93.95055038240782
 31
0.0
  0
LINE
  5
23C7
330
1A
100
AcDbEntity
  8
SEIHIN
  6
CONTINUOUS
 62
     3
100
AcDbLine
 10
198.9430143767666
 20
98.45533961470778
 30
0.0
 11
196.7206097238665
 21
76.23175789480774
 31
0.0
  0
ARC
  5
23C8
330
1A
100
AcDbEntity
  8
SEIHIN
  6
CONTINUOUS
 62
     3
100
AcDbCircle
 10
-224.4834331442666
 20
100.7315690360077
 30
0.0
 40
6.5
210
0.0
220
0.0
230
-1.0
100
AcDbArc
 50
84.0
 51
180.0
  0
LINE
  5
23C9
330
1A
100
AcDbEntity
  8
SEIHIN
  6
CONTINUOUS
 62
     3
100
AcDbLine
 10
231.4834331442666
 20
99.95055038240781
 30
0.0
 11
224.8834331442666
 21
99.95055038240781
 31
0.0
  0
LINE
  5
23CA
330
1A
100
AcDbEntity
  8
SEIHIN
  6
CONTINUOUS
 62
     3
100
AcDbLine
 10
231.4834331442666
 20
223.6981492822077
 30
0.0
 11
231.4834331442666
 21
240.4150542485077
 31
0.0
  0
LINE
  5
23CB
330
1A
100
AcDbEntity
  8
SEIHIN
  6
CONTINUOUS
 62
     3
100
AcDbLine
 10
229.8834331442666
 20
223.6981494380078
 30
0.0
 11
229.8834331442666
 21
240.4150542485077
 31
0.0
  0
LINE
  5
23CC
330
1A
100
AcDbEntity
  8
SEIHIN
  6
CONTINUOUS
 62
     3
100
AcDbLine
 10
229.8834331442666
 20
240.4150542485077
 30
0.0
 11
231.4834331442666
 21
240.4150542485077
 31
0.0
  0
LINE
  5
23CD
330
1A
100
AcDbEntity
  8
SEIHIN
  6
CONTINUOUS
 62
     3
100
AcDbLine
 10
226.4834331442666
 20
197.6103484173078
 30
0.0
 11
229.8834331442666
 21
194.9150542485077
 31
0.0
  0
ARC
  5
23CE
330
1A
100
AcDbEntity
  8
SEIHIN
  6
CONTINUOUS
 62
     3
100
AcDbCircle
 10
226.9834331442666
 20
199.6040540443077
 30
0.0
 40
0.5
100
AcDbArc
 50
180.0000000118
 51
239.0362434874
  0
ARC
  5
23CF
330
1A
100
AcDbEntity
  8
SEIHIN
  6
CONTINUOUS
 62
     3
100
AcDbCircle
 10
229.3834331442666
 20
196.1319590590077
 30
0.0
 40
2.1
100
AcDbArc
 50
359.9999957868
 51
59.0362435109
  0
ARC
  5
23D0
330
1A
100
AcDbEntity
  8
SEIHIN
  6
CONTINUOUS
 62
     3
100
AcDbCircle
 10
229.3834331442666
 20
196.1319590590077
 30
0.0
 40
0.5
100
AcDbArc
 50
0.0000000352
 51
59.03624930149998
  0
ARC
  5
23D1
330
1A
100
AcDbEntity
  8
SEIHIN
  6
CONTINUOUS
 62
     3
100
AcDbCircle
 10
226.9834331442666
 20
199.6040540443077
 30
0.0
 40
2.1
100
AcDbArc
 50
180.0000042601999
 51
239.0362434874
  0
LINE
  5
23D2
330
1A
100
AcDbEntity
  8
SEIHIN
  6
CONTINUOUS
 62
     3
100
AcDbLine
 10
225.9029920578666
 20
197.8033189003077
 30
0.0
 11
229.6406809786665
 21
196.5607055478077
 31
0.0
  0
LINE
  5
23D3
330
1A
100
AcDbEntity
  8
SEIHIN
  6
CONTINUOUS
 62
     3
100
AcDbLine
 10
230.4638742306666
 20
197.9326942030078
 30
0.0
 11
226.7261852665665
 21
199.1753075814077
 31
0.0
  0
LINE
  5
23D4
330
1A
100
AcDbEntity
  8
SEIHIN
  6
CONTINUOUS
 62
     3
100
AcDbLine
 10
231.4834331442666
 20
179.4150542485077
 30
0.0
 11
231.4834331442666
 21
196.1319589033078
 31
0.0
  0
LINE
  5
23D5
330
1A
100
AcDbEntity
  8
SEIHIN
  6
CONTINUOUS
 62
     3
100
AcDbLine
 10
229.8834331442666
 20
179.4150542485077
 30
0.0
 11
231.4834331442666
 21
179.4150542485077
 31
0.0
  0
LINE
  5
23D6
330
1A
100
AcDbEntity
  8
SEIHIN
  6
CONTINUOUS
 62
     3
100
AcDbLine
 10
207.3960920840665
 20
202.4150542485077
 30
0.0
 11
207.3960920840665
 21
217.4150542485077
 31
0.0
  0
LINE
  5
23D7
330
1A
100
AcDbEntity
  8
SEIHIN
  6
CONTINUOUS
 62
     3
100
AcDbLine
 10
187.1777015564665
 20
217.4150542485077
 30
0.0
 11
207.3960920840665
 21
217.4150542485077
 31
0.0
  0
LINE
  5
23D8
330
1A
100
AcDbEntity
  8
SEIHIN
  6
CONTINUOUS
 62
     3
100
AcDbLine
 10
187.1777015564665
 20
202.4150542485077
 30
0.0
 11
207.3960920840665
 21
202.4150542485077
 31
0.0
  0
LINE
  5
23D9
330
1A
100
AcDbEntity
  8
SEIHIN
  6
CONTINUOUS
 62
     3
100
AcDbLine
 10
180.1271825183666
 20
218.2609135617077
 30
0.0
 11
180.1271825183666
 21
201.6755254339077
 31
0.0
  0
LINE
  5
23DA
330
1A
100
AcDbEntity
  8
SEIHIN
  6
CONTINUOUS
 62
     3
100
AcDbLine
 10
192.5094936756665
 20
202.4150542485077
 30
0.0
 11
192.5094936756665
 21
217.4150542485077
 31
0.0
  0
LINE
  5
23DB
330
1A
100
AcDbEntity
  8
SEIHIN
  6
CONTINUOUS
 62
     3
100
AcDbLine
 10
187.1777015564665
 20
202.4150542485077
 30
0.0
 11
187.1777015564665
 21
217.4150542485077
 31
0.0
  0
LINE
  5
23DC
330
1A
100
AcDbEntity
  8
SEIHIN
  6
CONTINUOUS
 62
     3
100
AcDbLine
 10
88.22744193076664
 20
218.2609135617077
 30
0.0
 11
88.22744193076664
 21
201.6755254339077
 31
0.0
  0
LINE
  5
23DD
330
1A
100
AcDbEntity
  8
SEIHIN
  6
CONTINUOUS
 62
     3
100
AcDbLine
 10
229.8834331442666
 20
179.4150542485077
 30
0.0
 11
229.8834331442666
 21
196.1319590590077
 31
0.0
  0
ARC
  5
23DE
330
1A
100
AcDbEntity
  8
SEIHIN
  6
CONTINUOUS
 62
     3
100
AcDbCircle
 10
229.3834331442666
 20
223.6981494380078
 30
0.0
 40
2.1
100
AcDbArc
 50
300.963749999
 51
359.9999957868
  0
LINE
  5
23DF
330
1A
100
AcDbEntity
  8
SEIHIN
  6
CONTINUOUS
 62
     3
100
AcDbLine
 10
225.9029918178666
 20
222.0267894526077
 30
0.0
 11
229.6406809460666
 21
223.2694029296077
 31
0.0
  0
LINE
  5
23E0
330
1A
100
AcDbEntity
  8
SEIHIN
  6
CONTINUOUS
 62
     3
100
AcDbLine
 10
226.4834331442666
 20
222.2197600797077
 30
0.0
 11
229.8834331442666
 21
224.9150542485077
 31
0.0
  0
ARC
  5
23E1
330
1A
100
AcDbEntity
  8
SEIHIN
  6
CONTINUOUS
 62
     3
100
AcDbCircle
 10
226.9834331442666
 20
220.2260544526077
 30
0.0
 40
2.1
100
AcDbArc
 50
120.9637641725
 51
180.0000042601999
  0
LINE
  5
23E2
330
1A
100
AcDbEntity
  8
SEIHIN
  6
CONTINUOUS
 62
     3
100
AcDbLine
 10
226.7261851694665
 20
220.6548008572077
 30
0.0
 11
230.4638740244665
 21
221.8974141702077
 31
0.0
  0
ARC
  5
23E3
330
1A
100
AcDbEntity
  8
SEIHIN
  6
CONTINUOUS
 62
     3
100
AcDbCircle
 10
226.9834331442666
 20
220.2260544526077
 30
0.0
 40
0.5
100
AcDbArc
 50
120.9637695122999
 51
180.0000000118
  0
LINE
  5
23E4
330
1A
100
AcDbEntity
  8
SEIHIN
  6
CONTINUOUS
 62
     3
100
AcDbLine
 10
224.8834331442666
 20
220.2260542965078
 30
0.0
 11
224.8834331442666
 21
219.9150542485077
 31
0.0
  0
LINE
  5
23E5
330
1A
100
AcDbEntity
  8
SEIHIN
  6
CONTINUOUS
 62
     3
100
AcDbLine
 10
226.4834331442666
 20
220.2260544525077
 30
0.0
 11
226.4834331442666
 21
219.9150542485077
 31
0.0
  0
LINE
  5
23E6
330
1A
100
AcDbEntity
  8
SEIHIN
  6
CONTINUOUS
 62
     3
100
AcDbLine
 10
226.4834331442666
 20
199.6040540442077
 30
0.0
 11
226.4834331442666
 21
199.9150542485077
 31
0.0
  0
LINE
  5
23E7
330
1A
100
AcDbEntity
  8
SEIHIN
  6
CONTINUOUS
 62
     3
100
AcDbLine
 10
224.8834331442666
 20
199.6040538882077
 30
0.0
 11
224.8834331442666
 21
199.9150542485077
 31
0.0
  0
LINE
  5
23E8
330
1A
100
AcDbEntity
  8
SEIHIN
  6
CONTINUOUS
 62
     3
100
AcDbLine
 10
230.9834331442666
 20
199.9150542485077
 30
0.0
 11
230.9834331442666
 21
219.9150542485077
 31
0.0
  0
ARC
  5
23E9
330
1A
100
AcDbEntity
  8
SEIHIN
  6
CONTINUOUS
 62
     3
100
AcDbCircle
 10
229.3834331442666
 20
223.6981494380078
 30
0.0
 40
0.5
100
AcDbArc
 50
300.9637464215999
 51
0.0000000353
  0
LINE
  5
23EA
330
1A
100
AcDbEntity
  8
CENTER_L
  6
CENTER
100
AcDbLine
 10
288.4479489328666
 20
86.95055038240781
 30
0.0
 11
288.4479489328666
 21
96.95055038240781
 31
0.0
  0
LINE
  5
23EB
330
1A
100
AcDbEntity
  8
CENTER_L
  6
CENTER
100
AcDbLine
 10
283.4479489328666
 20
91.95055038240781
 30
0.0
 11
293.4479489328666
 21
91.95055038240781
 31
0.0
  0
LINE
  5
23EC
330
1A
100
AcDbEntity
  8
CENTER_L
  6
CENTER
100
AcDbLine
 10
288.4479489328666
 20
67.95055038240781
 30
0.0
 11
288.4479489328666
 21
77.95055038240781
 31
0.0
  0
LINE
  5
23ED
330
1A
100
AcDbEntity
  8
CENTER_L
  6
CENTER
100
AcDbLine
 10
283.4479489328666
 20
72.95055038240781
 30
0.0
 11
293.4479489328666
 21
72.95055038240781
 31
0.0
  0
LINE
  5
23EE
330
1A
100
AcDbEntity
  8
CENTER_L
  6
CENTER
100
AcDbLine
 10
326.4479489328666
 20
72.95055038240781
 30
0.0
 11
336.4479489328666
 21
72.95055038240781
 31
0.0
  0
LINE
  5
23EF
330
1A
100
AcDbEntity
  8
CENTER_L
  6
CENTER
100
AcDbLine
 10
331.4479489328666
 20
67.95055038240781
 30
0.0
 11
331.4479489328666
 21
77.95055038240781
 31
0.0
  0
LINE
  5
23F0
330
1A
100
AcDbEntity
  8
CENTER_L
  6
CENTER
100
AcDbLine
 10
326.4479489328666
 20
91.95055038240781
 30
0.0
 11
336.4479489328666
 21
91.95055038240781
 31
0.0
  0
LINE
  5
23F1
330
1A
100
AcDbEntity
  8
CENTER_L
  6
CENTER
100
AcDbLine
 10
331.4479489328666
 20
86.95055038240781
 30
0.0
 11
331.4479489328666
 21
96.95055038240781
 31
0.0
  0
LINE
  5
23F4
330
1A
100
AcDbEntity
  8
CENTER_L
  6
CENTER
100
AcDbLine
 10
214.8034843462588
 20
72.95051951845625
 30
0.0
 11
241.4034843462589
 21
72.95051951845625
 31
0.0
  0
LINE
  5
23F5
330
1A
100
AcDbEntity
  8
CENTER_L
  6
CENTER
100
AcDbLine
 10
214.8034843462588
 20
91.95051951845625
 30
0.0
 11
241.4034843462589
 21
91.95051951845625
 31
0.0
  0
DIMENSION
  5
2453
330
1A
100
AcDbEntity
  8
SUNPOU
  6
CONTINUOUS
100
AcDbDimension
  2
*D1
 10
340.4479489328666
 20
163.4561564921787
 30
0.0
 11
309.9479489328666
 21
165.9561564921787
 31
0.0
 70
    32
  3
STANDARD
100
AcDbAlignedDimension
 13
279.4479489328666
 23
96.95055038240781
 33
0.0
 14
340.4479489328666
 24
96.9505504718078
 34
0.0
100
AcDbRotatedDimension
1001
ACAD
1000
DSTYLE
1002
{
1070
   140
1040
3.0
1070
    74
1070
     0
1070
   172
1070
     1
1070
    73
1070
     0
1070
   272
1070
     0
1070
    77
1070
     3
1070
   173
1070
     1
1070
   147
1040
1.0
1070
    42
1040
3.0
1070
    44
1040
1.5
1070
    43
1040
7.0
1070
   271
1070
     0
1070
   178
1070
   256
1070
   177
1070
   256
1070
   176
1070
   256
1070
   141
1040
3.0
1070
     7
1000
OPEN
1070
     6
1000
OPEN
1070
    41
1040
3.0
1002
}
  0
DIMENSION
  5
2454
330
1A
100
AcDbEntity
  8
SUNPOU
  6
CONTINUOUS
100
AcDbDimension
  2
*D2
 10
331.4479489328666
 20
152.9575706029234
 30
0.0
 11
309.9479489328666
 21
155.4575706029234
 31
0.0
 70
    32
  3
STANDARD
100
AcDbAlignedDimension
 13
288.4479489328666
 23
96.95055038240781
 33
0.0
 14
331.4479489328666
 24
96.95055038240781
 34
0.0
100
AcDbRotatedDimension
1001
ACAD
1000
DSTYLE
1002
{
1070
   140
1040
3.0
1070
    74
1070
     0
1070
   172
1070
     1
1070
    73
1070
     0
1070
   272
1070
     0
1070
    77
1070
     3
1070
   173
1070
     1
1070
   147
1040
1.0
1070
    42
1040
3.0
1070
    44
1040
1.5
1070
    43
1040
7.0
1070
   271
1070
     0
1070
   178
1070
   256
1070
   177
1070
   256
1070
   176
1070
   256
1070
   141
1040
3.0
1070
     7
1000
OPEN
1070
     6
1000
OPEN
1070
    41
1040
3.0
1002
}
  0
LEADER
  5
2455
330
1A
100
AcDbEntity
  8
SUNPOU
  6
CONTINUOUS
100
AcDbLeader
  3
STANDARD
 76
     3
 10
287.3860260985717
 20
93.76226777041372
 30
0.0
 10
271.1565340778896
 20
116.4024014547901
 30
0.0
 10
246.4031779037183
 20
116.4024014547901
 30
0.0
1001
ACAD
1000
DSTYLE
1002
{
1070
     6
1000
OPEN
1070
    41
1040
3.0
1070
    42
1040
3.0
1070
    43
1040
7.0
1070
    44
1040
1.5
1070
    73
1070
     0
1070
    74
1070
     0
1070
    77
1070
     3
1070
   140
1040
3.0
1070
   141
1040
3.0
1070
   147
1040
1.0
1070
   172
1070
     1
1070
   173
1070
     1
1070
   176
1070
   256
1070
   177
1070
   256
1070
   178
1070
   256
1070
   271
1070
     0
1070
   272
1070
     0
1070
   341
1005
B2
1070
   343
1005
B2
1070
   344
1005
B2
1002
}
  0
DIMENSION
  5
2456
330
1A
100
AcDbEntity
  8
SUNPOU
  6
CONTINUOUS
100
AcDbDimension
  2
*D3
 10
271.7697927067489
 20
64.95055038240781
 30
0.0
 11
269.2697927067489
 21
68.95055038240785
 31
0.0
 70
    32
  3
STANDARD
100
AcDbAlignedDimension
 13
283.4479489328666
 23
72.95055038240781
 33
0.0
 14
282.447948934715
 24
64.95055038240781
 34
0.0
 50
90.0
100
AcDbRotatedDimension
1001
ACAD
1000
DSTYLE
1002
{
1070
   140
1040
3.0
1070
    74
1070
     0
1070
   172
1070
     1
1070
    73
1070
     0
1070
   272
1070
     0
1070
    77
1070
     3
1070
   173
1070
     1
1070
   147
1040
1.0
1070
    42
1040
3.0
1070
    44
1040
1.5
1070
    43
1040
7.0
1070
   271
1070
     0
1070
   178
1070
   256
1070
   177
1070
   256
1070
   176
1070
   256
1070
   141
1040
3.0
1070
     7
1000
OPEN
1070
     6
1000
OPEN
1070
    41
1040
3.0
1002
}
  0
DIMENSION
  5
2457
330
1A
100
AcDbEntity
  8
SUNPOU
  6
CONTINUOUS
100
AcDbDimension
  2
*D4
 10
271.7697927067489
 20
91.95055038240779
 30
0.0
 11
269.2697927067489
 21
95.95055038240785
 31
0.0
 70
    32
  3
STANDARD
100
AcDbAlignedDimension
 13
282.4479489328666
 23
99.95055038240781
 33
0.0
 14
283.4479489328666
 24
91.95055038240779
 34
0.0
 50
90.0
100
AcDbRotatedDimension
1001
ACAD
1000
DSTYLE
1002
{
1070
   140
1040
3.0
1070
    74
1070
     0
1070
   172
1070
     1
1070
    73
1070
     0
1070
   272
1070
     0
1070
    77
1070
     3
1070
   173
1070
     1
1070
   147
1040
1.0
1070
    42
1040
3.0
1070
    44
1040
1.5
1070
    43
1040
7.0
1070
   271
1070
     0
1070
   178
1070
   256
1070
   177
1070
   256
1070
   176
1070
   256
1070
   141
1040
3.0
1070
     7
1000
OPEN
1070
     6
1000
OPEN
1070
    41
1040
3.0
1002
}
  0
DIMENSION
  5
2458
330
1A
100
AcDbEntity
  8
SUNPOU
  6
CONTINUOUS
100
AcDbDimension
  2
*D5
 10
262.9177229686437
 20
64.95055038240781
 30
0.0
 11
260.4177229686437
 21
82.45055038240785
 31
0.0
 70
    32
  3
STANDARD
100
AcDbAlignedDimension
 13
282.4479489328666
 23
99.95055038240781
 33
0.0
 14
282.447948934715
 24
64.95055038240781
 34
0.0
 50
90.0
100
AcDbRotatedDimension
1001
ACAD
1000
DSTYLE
1002
{
1070
   140
1040
3.0
1070
    74
1070
     0
1070
   172
1070
     1
1070
    73
1070
     0
1070
   272
1070
     0
1070
    77
1070
     3
1070
   173
1070
     1
1070
   147
1040
1.0
1070
    42
1040
3.0
1070
    44
1040
1.5
1070
    43
1040
7.0
1070
   271
1070
     0
1070
   178
1070
   256
1070
   177
1070
   256
1070
   176
1070
   256
1070
   141
1040
3.0
1070
     7
1000
OPEN
1070
     6
1000
OPEN
1070
    41
1040
3.0
1002
}
  0
TEXT
  5
2459
330
1A
100
AcDbEntity
  8
SUNPOU
  6
CONTINUOUS
100
AcDbText
 10
247.7411969555211
 20
117.7391665861623
 30
0.0
 40
4.0
  1
4-φ4.2
100
AcDbText
  0
DIMENSION
  5
245A
330
1A
100
AcDbEntity
  8
SUNPOU
  6
CONTINUOUS
100
AcDbDimension
  2
*D6
 10
245.0185415679027
 20
64.95055038240781
 30
0.0
 11
242.5185415679027
 21
82.45055038240785
 31
0.0
 70
    32
  3
STANDARD
100
AcDbAlignedDimension
 13
231.4834331442666
 23
99.95055038240781
 33
0.0
 14
231.4834331442666
 24
64.95055038240781
 34
0.0
 50
90.0
100
AcDbRotatedDimension
1001
ACAD
1000
DSTYLE
1002
{
1070
   140
1040
3.0
1070
    74
1070
     0
1070
   172
1070
     1
1070
    73
1070
     0
1070
   272
1070
     0
1070
    77
1070
     3
1070
   173
1070
     1
1070
   147
1040
1.0
1070
    42
1040
3.0
1070
    44
1040
1.5
1070
    43
1040
7.0
1070
   271
1070
     0
1070
   178
1070
   256
1070
   177
1070
   256
1070
   176
1070
   256
1070
   141
1040
3.0
1070
     7
1000
OPEN
1070
     6
1000
OPEN
1070
    41
1040
3.0
1002
}
  0
DIMENSION
  5
24F9
330
1A
100
AcDbEntity
  8
SUNPOU
  6
CONTINUOUS
100
AcDbDimension
  2
*D7
 10
247.8051130392338
 20
179.4150542485077
 30
0.0
 11
245.3051130392338
 21
209.9150542485078
 31
0.0
 70
    32
  3
STANDARD
100
AcDbAlignedDimension
 13
234.4834331442666
 23
240.4150542485077
 33
0.0
 14
234.4834331442666
 24
179.4150542485077
 34
0.0
 50
90.0
100
AcDbRotatedDimension
1001
ACAD
1000
DSTYLE
1002
{
1070
   140
1040
3.0
1070
    74
1070
     0
1070
   172
1070
     1
1070
    73
1070
     0
1070
   272
1070
     0
1070
    77
1070
     3
1070
   173
1070
     1
1070
   147
1040
1.0
1070
    42
1040
3.0
1070
    44
1040
1.5
1070
    43
1040
7.0
1070
   271
1070
     0
1070
   178
1070
     4
1070
   177
1070
     4
1070
   176
1070
     4
1070
   141
1040
3.0
1070
     7
1000
_OPEN
1070
     6
1000
_OPEN
1070
    41
1040
3.0
1002
}
  0
DIMENSION
  5
2506
330
1A
100
AcDbEntity
  8
SUNPOU
  6
CONTINUOUS
100
AcDbDimension
  2
*D8
 10
58.91066054524571
 20
199.9150542485077
 30
0.0
 11
56.41066054524569
 21
209.9150542485078
 31
0.0
 70
    32
  3
STANDARD
100
AcDbAlignedDimension
 13
76.5788172107666
 23
219.9150542485077
 33
0.0
 14
76.5788172107666
 24
199.9150542485077
 34
0.0
 50
90.0
100
AcDbRotatedDimension
1001
ACAD
1000
DSTYLE
1002
{
1070
   140
1040
3.0
1070
    74
1070
     0
1070
   172
1070
     1
1070
    73
1070
     0
1070
   272
1070
     0
1070
    77
1070
     3
1070
   173
1070
     1
1070
   147
1040
1.0
1070
    42
1040
3.0
1070
    44
1040
1.5
1070
    43
1040
7.0
1070
   271
1070
     0
1070
   178
1070
     4
1070
   177
1070
     4
1070
   176
1070
     4
1070
   141
1040
3.0
1070
     7
1000
_OPEN
1070
     6
1000
_OPEN
1070
    41
1040
3.0
1002
}
  0
DIMENSION
  5
2514
330
1A
100
AcDbEntity
  8
SUNPOU
  6
CONTINUOUS
100
AcDbDimension
  2
*D9
 10
205.7960920840665
 20
152.8260359940934
 30
0.0
 11
218.6397626141665
 21
155.3260359940934
 31
0.0
 70
    32
  3
STANDARD
100
AcDbAlignedDimension
 13
231.4834331442666
 23
99.95055038240781
 33
0.0
 14
205.7960920840665
 24
124.0763754444077
 34
0.0
100
AcDbRotatedDimension
1001
ACAD
1000
DSTYLE
1002
{
1070
   140
1040
3.0
1070
    74
1070
     0
1070
   172
1070
     1
1070
    73
1070
     0
1070
   272
1070
     0
1070
    77
1070
     3
1070
   173
1070
     1
1070
   147
1040
1.0
1070
    42
1040
3.0
1070
    44
1040
1.5
1070
    43
1040
7.0
1070
   271
1070
     0
1070
   178
1070
     4
1070
   177
1070
     4
1070
   176
1070
     4
1070
   141
1040
3.0
1070
     7
1000
_OPEN
1070
     6
1000
_OPEN
1070
    41
1040
3.0
1002
}
  0
DIMENSION
  5
2521
330
1A
100
AcDbEntity
  8
SUNPOU
  6
CONTINUOUS
100
AcDbDimension
  2
*D10
 10
76.17881721076662
 20
163.5693380171704
 30
0.0
 11
153.8311251775166
 21
166.0693380171704
 31
0.0
 70
    32
  3
STANDARD
100
AcDbAlignedDimension
 13
231.4834331442666
 23
99.95055038240781
 33
0.0
 14
76.17881721076662
 24
153.4431853613077
 34
0.0
100
AcDbRotatedDimension
1001
ACAD
1000
DSTYLE
1002
{
1070
   140
1040
3.0
1070
    74
1070
     0
1070
   172
1070
     1
1070
    73
1070
     0
1070
   272
1070
     0
1070
    77
1070
     3
1070
   173
1070
     1
1070
   147
1040
1.0
1070
    42
1040
3.0
1070
    44
1040
1.5
1070
    43
1040
7.0
1070
   271
1070
     0
1070
   178
1070
     4
1070
   177
1070
     4
1070
   176
1070
     4
1070
   141
1040
3.0
1070
     7
1000
_OPEN
1070
     6
1000
_OPEN
1070
    41
1040
3.0
1002
}
  0
LINE
  5
2527
330
1A
100
AcDbEntity
  8
CENTER_L
  6
CENTER
 62
     1
100
AcDbLine
 10
219.8834331442666
 20
188.4150542485078
 30
0.0
 11
241.4834331442666
 21
188.4150542485077
 31
0.0
  0
LINE
  5
2528
330
1A
100
AcDbEntity
  8
CENTER_L
  6
CENTER
 62
     1
100
AcDbLine
 10
219.8834331442666
 20
231.4150542485077
 30
0.0
 11
241.4834331442666
 21
231.4150542485077
 31
0.0
  0
LINE
  5
2532
330
1A
100
AcDbEntity
  8
CENTER_L
  6
CENTER
100
AcDbLine
 10
240.9834331442666
 20
209.9150542485077
 30
0.0
 11
66.5788172107666
 21
209.9150542485077
 31
0.0
  0
LINE
  5
2594
330
1A
100
AcDbEntity
  8
NOKITOI
  6
PHANTOM
 62
     8
100
AcDbLine
 10
177.3965407806166
 20
68.4695581937078
 30
0.0
 11
132.5671407806165
 21
68.46965819370777
 31
0.0
  0
LINE
  5
2595
330
1A
100
AcDbEntity
  8
NOKITOI
  6
PHANTOM
 62
     8
100
AcDbLine
 10
132.5671407806165
 20
69.66965819370781
 30
0.0
 11
177.1467407806166
 21
69.66955819370785
 31
0.0
  0
ARC
  5
2597
330
1A
100
AcDbEntity
  8
NOKITOI
  6
PHANTOM
 62
     8
100
AcDbCircle
 10
132.5671245541592
 20
111.4696726700779
 30
0.0
 40
43.00001447645168
100
AcDbArc
 50
186.5249107071174
 51
269.9998883751437
  0
ARC
  5
2598
330
1A
100
AcDbEntity
  8
NOKITOI
  6
PHANTOM
 62
     8
100
AcDbCircle
 10
132.5671468625845
 20
111.4696525690515
 30
0.0
 40
41.79999437547816
100
AcDbArc
 50
184.4742952125247
 51
269.999854592109
  0
LINE
  5
259A
330
1A
100
AcDbEntity
  8
NOKITOI
  6
PHANTOM
 62
     8
100
AcDbLine
 10
80.81804078061656
 20
121.4071581937077
 30
0.0
 11
81.20824078061639
 21
108.9228581937077
 31
0.0
  0
LINE
  5
259B
330
1A
100
AcDbEntity
  8
NOKITOI
  6
PHANTOM
 62
     8
100
AcDbLine
 10
82.01744078061699
 20
121.4446581937077
 30
0.0
 11
82.16684078061632
 21
116.6657581937079
 31
0.0
  0
LINE
  5
259C
330
1A
100
AcDbEntity
  8
NOKITOI
  6
PHANTOM
 62
     8
100
AcDbLine
 10
85.28984078061682
 20
122.2696581937079
 30
0.0
 11
84.78984078061683
 21
119.7696581937079
 31
0.0
  0
ARC
  5
259D
330
1A
100
AcDbEntity
  8
NOKITOI
  6
PHANTOM
 62
     8
100
AcDbCircle
 10
89.0949345794587
 20
120.469664728793
 30
0.0
 40
0.4999934649531607
100
AcDbArc
 50
356.9955363203376
 51
89.99928939038239
  0
LINE
  5
259E
330
1A
100
AcDbEntity
  8
NOKITOI
  6
PHANTOM
 62
     8
100
AcDbLine
 10
88.77914078061655
 20
113.9696581937078
 30
0.0
 11
86.53004078061655
 21
113.9696581937078
 31
0.0
  0
LINE
  5
259F
330
1A
100
AcDbEntity
  8
NOKITOI
  6
PHANTOM
 62
     8
100
AcDbLine
 10
84.78984078061683
 20
119.7696581937079
 30
0.0
 11
87.72634078061662
 21
119.7696581937079
 31
0.0
  0
LINE
  5
25A0
330
1A
100
AcDbEntity
  8
NOKITOI
  6
PHANTOM
 62
     8
100
AcDbLine
 10
86.73054078061694
 20
118.6696581937078
 30
0.0
 11
87.72634078061662
 21
119.7696581937079
 31
0.0
  0
LINE
  5
25A1
330
1A
100
AcDbEntity
  8
NOKITOI
  6
PHANTOM
 62
     8
100
AcDbLine
 10
82.70744078061659
 20
107.4696581937077
 30
0.0
 11
88.85214078061641
 21
107.4696581937077
 31
0.0
  0
LINE
  5
25A2
330
1A
100
AcDbEntity
  8
NOKITOI
  6
PHANTOM
 62
     8
100
AcDbLine
 10
90.39604078061699
 20
108.6696581937078
 30
0.0
 11
84.35514078061657
 21
108.6696581937078
 31
0.0
  0
ARC
  5
25A3
330
1A
100
AcDbEntity
  8
NOKITOI
  6
PHANTOM
 62
     8
100
AcDbCircle
 10
84.35515435275499
 20
110.6696450386214
 30
0.0
 40
1.999986844959662
100
AcDbArc
 50
181.7875531852355
 51
269.9996111843215
  0
ARC
  5
25A4
330
1A
100
AcDbEntity
  8
NOKITOI
  6
PHANTOM
 62
     8
100
AcDbCircle
 10
82.70747673976746
 20
108.9696233395645
 30
0.0
 40
1.499965146287778
100
AcDbArc
 50
181.7866280217766
 51
269.9986264296971
  0
ARC
  5
25A5
330
1A
100
AcDbEntity
  8
NOKITOI
  6
PHANTOM
 62
     8
100
AcDbCircle
 10
86.26867866206328
 20
113.4697019762331
 30
0.0
 40
3.999989731271038
100
AcDbArc
 50
96.47731142013284
 51
181.7899836067311
  0
LINE
  5
25A6
330
1A
100
AcDbEntity
  8
NOKITOI
  6
PHANTOM
 62
     8
100
AcDbLine
 10
86.03514078061641
 20
114.5404581937079
 30
0.0
 11
86.36884078061655
 21
116.8766581937079
 31
0.0
  0
LINE
  5
25A7
330
1A
100
AcDbEntity
  8
NOKITOI
  6
PHANTOM
 62
     8
100
AcDbLine
 10
82.35614078061633
 20
110.6072581937078
 30
0.0
 11
82.27064078061664
 21
113.3447581937077
 31
0.0
  0
ARC
  5
25A8
330
1A
100
AcDbEntity
  8
NOKITOI
  6
PHANTOM
 62
     8
100
AcDbCircle
 10
86.53006738121428
 20
114.4696275168257
 30
0.0
 40
0.4999693238254178
100
AcDbArc
 50
171.8555038770531
 51
269.9969516090372
  0
ARC
  5
25A9
330
1A
100
AcDbEntity
  8
NOKITOI
  6
PHANTOM
 62
     8
100
AcDbCircle
 10
86.26876099328582
 20
113.4697169220878
 30
0.0
 40
5.2000412730095
100
AcDbArc
 50
90.0013245430618
 51
142.0757990790551
  0
ARC
  5
25AA
330
1A
100
AcDbEntity
  8
NOKITOI
  6
PHANTOM
 62
     8
100
AcDbCircle
 10
85.873854999032
 20
116.9473435594068
 30
0.0
 40
0.5000073448410256
100
AcDbArc
 50
351.8729478641237
 51
96.47829282996752
  0
LINE
  5
25AB
330
1A
100
AcDbEntity
  8
NOKITOI
  6
PHANTOM
 62
     8
100
AcDbLine
 10
86.73054078061694
 20
118.6696581937078
 30
0.0
 11
86.2686407806167
 21
118.6696581937078
 31
0.0
  0
ARC
  5
25AC
330
1A
100
AcDbEntity
  8
NOKITOI
  6
PHANTOM
 62
     8
100
AcDbCircle
 10
90.3960533503249
 20
108.1696465689781
 30
0.0
 40
0.5000116248877111
100
AcDbArc
 50
4.47484680834223
 51
90.00144034898383
  0
ARC
  5
25AD
330
1A
100
AcDbEntity
  8
NOKITOI
  6
PHANTOM
 62
     8
100
AcDbCircle
 10
88.85213235645403
 20
106.4696657087643
 30
0.0
 40
0.9999924849789756
100
AcDbArc
 50
6.528264606673934
 51
89.99951732741129
  0
LINE
  5
25AE
330
1A
100
AcDbEntity
  8
NOKITOI
  6
PHANTOM
 62
     8
100
AcDbLine
 10
89.2785407806167
 20
114.4434581937077
 30
0.0
 11
89.59434078061656
 21
120.4433581937078
 31
0.0
  0
ARC
  5
25AF
330
1A
100
AcDbEntity
  8
NOKITOI
  6
PHANTOM
 62
     8
100
AcDbCircle
 10
88.77913389362163
 20
114.4696516586223
 30
0.0
 40
0.499993464961963
100
AcDbArc
 50
270.0007892017869
 51
356.997036131742
  0
LINE
  5
25B0
330
1A
100
AcDbEntity
  8
NOKITOI
  6
PHANTOM
 62
     8
100
AcDbLine
 10
88.11504078061659
 20
115.1696581937078
 30
0.0
 11
88.29624078061659
 21
118.6111581937079
 31
0.0
  0
LINE
  5
25B1
330
1A
100
AcDbEntity
  8
NOKITOI
  6
PHANTOM
 62
     8
100
AcDbLine
 10
87.74124078061674
 20
117.9980581937077
 30
0.0
 11
88.29624078061659
 21
118.6111581937079
 31
0.0
  0
LINE
  5
25B2
330
1A
100
AcDbEntity
  8
NOKITOI
  6
PHANTOM
 62
     8
100
AcDbLine
 10
87.337140780617
 20
115.1696581937078
 30
0.0
 11
87.74124078061674
 21
117.9980581937077
 31
0.0
  0
LINE
  5
25B3
330
1A
100
AcDbEntity
  8
NOKITOI
  6
PHANTOM
 62
     8
100
AcDbLine
 10
88.11504078061659
 20
115.1696581937078
 30
0.0
 11
87.337140780617
 21
115.1696581937078
 31
0.0
  0
LINE
  5
25B4
330
1A
100
AcDbEntity
  8
NOKITOI
  6
PHANTOM
 62
     8
100
AcDbLine
 10
89.09494078061641
 20
120.9696581937077
 30
0.0
 11
86.86344078061654
 21
120.9696581937077
 31
0.0
  0
LINE
  5
25B5
330
1A
100
AcDbEntity
  8
NOKITOI
  6
PHANTOM
 62
     8
100
AcDbLine
 10
82.81704078061636
 20
123.4696581937078
 30
0.0
 11
86.14364078061669
 21
123.4696581937078
 31
0.0
  0
LINE
  5
25B6
330
1A
100
AcDbEntity
  8
NOKITOI
  6
PHANTOM
 62
     8
100
AcDbLine
 10
82.81704078061636
 20
122.2696581937079
 30
0.0
 11
85.28984078061682
 21
122.2696581937079
 31
0.0
  0
ARC
  5
25B7
330
1A
100
AcDbEntity
  8
NOKITOI
  6
PHANTOM
 62
     8
100
AcDbCircle
 10
82.81705353146652
 20
121.4696713487942
 30
0.0
 40
1.999986844954076
100
AcDbArc
 50
90.00036528735288
 51
181.7883072882704
  0
ARC
  5
25B8
330
1A
100
AcDbEntity
  8
NOKITOI
  6
PHANTOM
 62
     8
100
AcDbCircle
 10
82.81704527541467
 20
121.4696628312347
 30
0.0
 40
0.7999953624857498
100
AcDbArc
 50
90.00032191805264
 51
181.7911273464193
  0
ARC
  5
25B9
330
1A
100
AcDbEntity
  8
NOKITOI
  6
PHANTOM
 62
     8
100
AcDbCircle
 10
86.14363999760815
 20
122.9696591487095
 30
0.0
 40
0.4999990449987349
100
AcDbArc
 50
348.6967198015451
 51
89.99991027369329
  0
ARC
  5
25BA
330
1A
100
AcDbEntity
  8
NOKITOI
  6
PHANTOM
 62
     8
100
AcDbCircle
 10
86.86343352606115
 20
121.4696670435512
 30
0.0
 40
0.5000088498959383
100
AcDbArc
 50
168.6864043304889
 51
270.0008312961425
  0
LINE
  5
25BB
330
1A
100
AcDbEntity
  8
NOKITOI
  6
PHANTOM
 62
     8
100
AcDbLine
 10
86.37314078061661
 20
121.5677581937077
 30
0.0
 11
86.63394078061662
 21
122.8716581937078
 31
0.0
  0
LINE
  5
25BC
330
1A
100
AcDbEntity
  8
NOKITOI
  6
PHANTOM
 62
     8
100
AcDbLine
 10
191.6635407806169
 20
106.5691581937078
 30
0.0
 11
188.7947407806167
 21
77.88175819370778
 31
0.0
  0
LINE
  5
25BD
330
1A
100
AcDbEntity
  8
NOKITOI
  6
PHANTOM
 62
     8
100
AcDbLine
 10
190.6225407806167
 20
108.2194581937078
 30
0.0
 11
187.6295407806163
 21
78.28965819370771
 31
0.0
  0
LINE
  5
25BE
330
1A
100
AcDbEntity
  8
NOKITOI
  6
PHANTOM
 62
     8
100
AcDbLine
 10
173.3965407806166
 20
68.4695581937078
 30
0.0
 11
153.2386407806169
 21
68.4695581937078
 31
0.0
  0
LINE
  5
25BF
330
1A
100
AcDbEntity
  8
NOKITOI
  6
PHANTOM
 62
     8
100
AcDbLine
 10
173.1467407806166
 20
69.66955819370785
 30
0.0
 11
153.2386407806169
 21
69.66955819370785
 31
0.0
  0
LINE
  5
25C0
330
1A
100
AcDbEntity
  8
NOKITOI
  6
PHANTOM
 62
     8
100
AcDbLine
 10
188.4329407806166
 20
77.20725819370793
 30
0.0
 11
178.0298407806166
 21
68.69555819370791
 31
0.0
  0
LINE
  5
25C1
330
1A
100
AcDbEntity
  8
NOKITOI
  6
PHANTOM
 62
     8
100
AcDbLine
 10
187.4486407806169
 20
77.9523581937078
 30
0.0
 11
177.4633407806167
 21
69.78255819370767
 31
0.0
  0
ARC
  5
25C2
330
1A
100
AcDbEntity
  8
NOKITOI
  6
PHANTOM
 62
     8
100
AcDbCircle
 10
177.3965338480392
 20
69.46955571870168
 30
0.0
 40
0.9999975250179316
100
AcDbArc
 50
270.0003972084019
 51
309.2946416752284
  0
ARC
  5
25C3
330
1A
100
AcDbEntity
  8
NOKITOI
  6
PHANTOM
 62
     8
100
AcDbCircle
 10
177.1467471683653
 20
70.16956047369737
 30
0.0
 40
0.5000022800304047
100
AcDbArc
 50
269.9992680212791
 51
309.2854498596055
  0
ARC
  5
25C4
330
1A
100
AcDbEntity
  8
NOKITOI
  6
PHANTOM
 62
     8
100
AcDbCircle
 10
187.7997182077477
 20
77.98121612203519
 30
0.0
 40
0.9999908507640039
100
AcDbArc
 50
309.288709223069
 51
354.286232947753
  0
ARC
  5
25C5
330
1A
100
AcDbEntity
  8
NOKITOI
  6
PHANTOM
 62
     8
100
AcDbCircle
 10
187.1320233547384
 20
78.33932570731983
 30
0.0
 40
0.4999904508696396
100
AcDbArc
 50
309.2900846377946
 51
354.2990110749239
  0
LINE
  5
25C6
330
1A
100
AcDbEntity
  8
NOKITOI
  6
PHANTOM
 62
     8
100
AcDbLine
 10
196.2173407806166
 20
122.2696581937079
 30
0.0
 11
196.7173407806166
 21
119.7696581937079
 31
0.0
  0
ARC
  5
25C7
330
1A
100
AcDbEntity
  8
NOKITOI
  6
PHANTOM
 62
     8
100
AcDbCircle
 10
192.4121444901119
 20
120.4696621037385
 30
0.0
 40
0.4999960899831856
100
AcDbArc
 50
90.00042508014919
 51
183.0156217414647
  0
LINE
  5
25C8
330
1A
100
AcDbEntity
  8
NOKITOI
  6
PHANTOM
 62
     8
100
AcDbLine
 10
199.4896407806162
 20
121.4446581937077
 30
0.0
 11
199.3403407806166
 21
116.6656581937079
 31
0.0
  0
LINE
  5
25C9
330
1A
100
AcDbEntity
  8
NOKITOI
  6
PHANTOM
 62
     8
100
AcDbLine
 10
200.6890407806166
 20
121.4071581937077
 30
0.0
 11
200.2989407806166
 21
108.9227581937077
 31
0.0
  0
ARC
  5
25CA
330
1A
100
AcDbEntity
  8
NOKITOI
  6
PHANTOM
 62
     8
100
AcDbCircle
 10
197.1519787684409
 20
110.66959501428
 30
0.0
 40
2.000036820932882
100
AcDbArc
 50
269.9989117490344
 51
358.2110591274195
  0
ARC
  5
25CB
330
1A
100
AcDbEntity
  8
NOKITOI
  6
PHANTOM
 62
     8
100
AcDbCircle
 10
198.7996579937947
 20
108.9696748768556
 30
0.0
 40
1.500016683246579
100
AcDbArc
 50
269.999342512336
 51
358.2076423244113
  0
LINE
  5
25CC
330
1A
100
AcDbEntity
  8
NOKITOI
  6
PHANTOM
 62
     8
100
AcDbLine
 10
198.7996407806166
 20
107.4696581937077
 30
0.0
 11
192.6585407806168
 21
107.4696581937077
 31
0.0
  0
LINE
  5
25CD
330
1A
100
AcDbEntity
  8
NOKITOI
  6
PHANTOM
 62
     8
100
AcDbLine
 10
191.1200407806162
 20
108.6696581937078
 30
0.0
 11
197.1519407806166
 21
108.6696581937078
 31
0.0
  0
ARC
  5
25CE
330
1A
100
AcDbEntity
  8
NOKITOI
  6
PHANTOM
 62
     8
100
AcDbCircle
 10
191.1200538516212
 20
108.1696700239876
 30
0.0
 40
0.499988169890889
100
AcDbArc
 50
90.00149786226472
 51
174.2966061377164
  0
ARC
  5
25CF
330
1A
100
AcDbEntity
  8
NOKITOI
  6
PHANTOM
 62
     8
100
AcDbCircle
 10
192.6585614304575
 20
106.469676881557
 30
0.0
 40
0.9999813123640345
100
AcDbArc
 50
90.00118317084911
 51
174.2905900333514
  0
LINE
  5
25D0
330
1A
100
AcDbEntity
  8
NOKITOI
  6
PHANTOM
 62
     8
100
AcDbLine
 10
194.1699407806162
 20
115.1696581937078
 30
0.0
 11
193.7659407806166
 21
117.9980581937077
 31
0.0
  0
LINE
  5
25D1
330
1A
100
AcDbEntity
  8
NOKITOI
  6
PHANTOM
 62
     8
100
AcDbLine
 10
193.3920407806166
 20
115.1696581937078
 30
0.0
 11
194.1699407806162
 21
115.1696581937078
 31
0.0
  0
LINE
  5
25D2
330
1A
100
AcDbEntity
  8
NOKITOI
  6
PHANTOM
 62
     8
100
AcDbLine
 10
196.7173407806166
 20
119.7696581937079
 30
0.0
 11
193.7807407806166
 21
119.7696581937079
 31
0.0
  0
LINE
  5
25D3
330
1A
100
AcDbEntity
  8
NOKITOI
  6
PHANTOM
 62
     8
100
AcDbLine
 10
192.7279407806166
 20
113.9696581937078
 30
0.0
 11
194.9770407806162
 21
113.9696581937078
 31
0.0
  0
LINE
  5
25D4
330
1A
100
AcDbEntity
  8
NOKITOI
  6
PHANTOM
 62
     8
100
AcDbLine
 10
194.7765407806167
 20
118.6696581937078
 30
0.0
 11
193.7807407806166
 21
119.7696581937079
 31
0.0
  0
LINE
  5
25D5
330
1A
100
AcDbEntity
  8
NOKITOI
  6
PHANTOM
 62
     8
100
AcDbLine
 10
192.2286407806167
 20
114.4433581937078
 30
0.0
 11
191.9128407806164
 21
120.4433581937078
 31
0.0
  0
ARC
  5
25D6
330
1A
100
AcDbEntity
  8
NOKITOI
  6
PHANTOM
 62
     8
100
AcDbCircle
 10
192.7279449020232
 20
114.4696542836773
 30
0.0
 40
0.4999960899864752
100
AcDbArc
 50
183.014724379174
 51
269.9995277178578
  0
LINE
  5
25D7
330
1A
100
AcDbEntity
  8
NOKITOI
  6
PHANTOM
 62
     8
100
AcDbLine
 10
193.3920407806166
 20
115.1696581937078
 30
0.0
 11
193.2109407806164
 21
118.6110581937077
 31
0.0
  0
LINE
  5
25D8
330
1A
100
AcDbEntity
  8
NOKITOI
  6
PHANTOM
 62
     8
100
AcDbLine
 10
193.7659407806166
 20
117.9980581937077
 30
0.0
 11
193.2109407806164
 21
118.6110581937077
 31
0.0
  0
ARC
  5
25D9
330
1A
100
AcDbEntity
  8
NOKITOI
  6
PHANTOM
 62
     8
100
AcDbCircle
 10
195.2385098536805
 20
113.4696939383716
 30
0.0
 40
3.99998565374706
100
AcDbArc
 50
358.208696659101
 51
83.5242238046835
  0
LINE
  5
25DA
330
1A
100
AcDbEntity
  8
NOKITOI
  6
PHANTOM
 62
     8
100
AcDbLine
 10
195.4720407806165
 20
114.5403581937077
 30
0.0
 11
195.1382407806166
 21
116.8765581937079
 31
0.0
  0
ARC
  5
25DB
330
1A
100
AcDbEntity
  8
NOKITOI
  6
PHANTOM
 62
     8
100
AcDbCircle
 10
194.9770509670528
 20
114.4696699384319
 30
0.0
 40
0.5000117448278309
100
AcDbArc
 50
269.9988327478
 51
8.12731460871532
  0
LINE
  5
25DC
330
1A
100
AcDbEntity
  8
NOKITOI
  6
PHANTOM
 62
     8
100
AcDbLine
 10
199.1510407806166
 20
110.6070581937078
 30
0.0
 11
199.2365407806163
 21
113.3446581937078
 31
0.0
  0
ARC
  5
25DD
330
1A
100
AcDbEntity
  8
NOKITOI
  6
PHANTOM
 62
     8
100
AcDbCircle
 10
195.2385229142654
 20
113.4696669220877
 30
0.0
 40
5.199991271650611
100
AcDbArc
 50
37.92532860473223
 51
89.99980314072399
  0
ARC
  5
25DE
330
1A
100
AcDbEntity
  8
NOKITOI
  6
PHANTOM
 62
     8
100
AcDbCircle
 10
195.6332701531163
 20
116.9472884262027
 30
0.0
 40
0.4999578477751074
100
AcDbArc
 50
83.52609071220751
 51
188.1330561712932
  0
LINE
  5
25DF
330
1A
100
AcDbEntity
  8
NOKITOI
  6
PHANTOM
 62
     8
100
AcDbLine
 10
194.7765407806167
 20
118.6696581937078
 30
0.0
 11
195.2385407806167
 21
118.6696581937078
 31
0.0
  0
LINE
  5
25E0
330
1A
100
AcDbEntity
  8
NOKITOI
  6
PHANTOM
 62
     8
100
AcDbLine
 10
192.4121407806168
 20
120.9696581937077
 30
0.0
 11
194.6436407806166
 21
120.9696581937077
 31
0.0
  0
LINE
  5
25E1
330
1A
100
AcDbEntity
  8
NOKITOI
  6
PHANTOM
 62
     8
100
AcDbLine
 10
198.6900407806168
 20
123.4695581937078
 30
0.0
 11
195.3634407806165
 21
123.4696581937078
 31
0.0
  0
LINE
  5
25E2
330
1A
100
AcDbEntity
  8
NOKITOI
  6
PHANTOM
 62
     8
100
AcDbLine
 10
198.6900407806168
 20
122.2695581937077
 30
0.0
 11
196.2173407806166
 21
122.2696581937079
 31
0.0
  0
ARC
  5
25E3
330
1A
100
AcDbEntity
  8
NOKITOI
  6
PHANTOM
 62
     8
100
AcDbCircle
 10
195.3634335260611
 20
122.9696493438643
 30
0.0
 40
0.500008849895925
100
AcDbArc
 50
89.99916870385415
 51
191.3135956695126
  0
ARC
  5
25E4
330
1A
100
AcDbEntity
  8
NOKITOI
  6
PHANTOM
 62
     8
100
AcDbCircle
 10
194.6436399976081
 20
121.469657238706
 30
0.0
 40
0.4999990449987399
100
AcDbArc
 50
270.0000897263034
 51
11.30328019845489
  0
LINE
  5
25E5
330
1A
100
AcDbEntity
  8
NOKITOI
  6
PHANTOM
 62
     8
100
AcDbLine
 10
195.1339407806166
 20
121.5676581937079
 30
0.0
 11
194.8731407806166
 21
122.8716581937078
 31
0.0
  0
ARC
  5
25E6
330
1A
100
AcDbEntity
  8
NOKITOI
  6
PHANTOM
 62
     8
100
AcDbCircle
 10
198.6900847469695
 20
121.4696128312348
 30
0.0
 40
0.7999453636812564
100
AcDbArc
 50
358.2123436447881
 51
90.00314907315425
  0
ARC
  5
25E7
330
1A
100
AcDbEntity
  8
NOKITOI
  6
PHANTOM
 62
     8
100
AcDbCircle
 10
198.6900295436224
 20
121.4696697875249
 30
0.0
 40
1.999988406214315
100
AcDbArc
 50
358.2088726535938
 51
89.99967808195389
  0
DIMENSION
  5
261E
330
1A
100
AcDbEntity
  8
SUNPOU
100
AcDbDimension
  2
*D11
 10
59.41066054524569
 20
64.95055038240787
 30
0.0
 11
56.91066054524568
 21
94.92714269020785
 31
0.0
 70
    32
  3
STANDARD
100
AcDbAlignedDimension
 13
76.5788172107666
 23
124.9037349980077
 33
0.0
 14
224.8834331442666
 24
64.95055038240781
 34
0.0
 50
90.0
100
AcDbRotatedDimension
1001
ACAD
1000
DSTYLE
1002
{
1070
    41
1040
3.0
1070
    42
1040
3.0
1070
    43
1040
7.0
1070
    44
1040
1.5
1070
    73
1070
     0
1070
    74
1070
     0
1070
    77
1070
     3
1070
   140
1040
3.0
1070
   141
1040
3.0
1070
   147
1040
1.0
1070
   172
1070
     1
1070
   173
1070
     1
1070
   176
1070
     4
1070
   177
1070
     4
1070
   178
1070
     4
1070
   271
1070
     0
1070
   272
1070
     0
1070
   341
1005
B2
1070
     6
1000
OPEN
1070
     7
1000
OPEN
1002
}
  0
LINE
  5
262B
330
1A
100
AcDbEntity
  8
CENTER_L
  6
CENTER
100
AcDbLine
 10
309.9479489328666
 20
59.95055038240781
 30
0.0
 11
309.9479489328666
 21
140.8842533698952
 31
0.0
  0
LINE
  5
273C
330
1A
100
AcDbEntity
  8
ZUWAKU
100
AcDbLine
 10
104.3233006447038
 20
7.599999845928206
 30
0.0
 11
223.7121819851655
 21
7.599999845928202
 31
0.0
  0
LINE
  5
273D
330
1A
100
AcDbEntity
  8
ZUWAKU
100
AcDbLine
 10
104.3233006447038
 20
7.799999845928203
 30
0.0
 11
223.7121819851655
 21
7.799999845928207
 31
0.0
  0
LINE
  5
273E
330
1A
100
AcDbEntity
  8
ZUWAKU
100
AcDbLine
 10
104.3233006447038
 20
7.699999845928203
 30
0.0
 11
223.7121819851655
 21
7.699999845928203
 31
0.0
  0
LINE
  5
273F
330
1A
100
AcDbEntity
  8
ZUWAKU
100
AcDbLine
 10
-0.0000000003301466
 20
15.39999984592819
 30
0.0
 11
398.6999999996697
 21
15.39999984592819
 31
0.0
  0
LINE
  5
2740
330
1A
100
AcDbEntity
  8
ZUWAKU
100
AcDbLine
 10
-0.0000000003301466
 20
15.29999984592819
 30
0.0
 11
398.6999999996697
 21
15.29999984592819
 31
0.0
  0
LINE
  5
2741
330
1A
100
AcDbEntity
  8
ZUWAKU
100
AcDbLine
 10
-0.0000000003301466
 20
15.19999984592819
 30
0.0
 11
398.6999999996697
 21
15.19999984592819
 31
0.0
  0
LINE
  5
2742
330
1A
100
AcDbEntity
  8
ZUWAKU
100
AcDbLine
 10
-0.0000000003301466
 20
15.09999984592818
 30
0.0
 11
398.6999999996697
 21
15.09999984592818
 31
0.0
  0
LINE
  5
2743
330
1A
100
AcDbEntity
  8
ZUWAKU
100
AcDbLine
 10
-0.0000000003301466
 20
14.99999984592818
 30
0.0
 11
398.6999999996697
 21
14.99999984592818
 31
0.0
  0
LWPOLYLINE
  5
2744
330
1A
100
AcDbEntity
  8
ZUWAKU
100
AcDbPolyline
 90
        4
 70
     1
 43
0.0
 10
0.0999999996698193
 20
275.6999998459282
 10
0.0999999996698193
 20
0.0999998459282097
 10
398.6999999996697
 20
0.0999998459282212
 10
398.6999999996699
 20
275.6999998459282
  0
LWPOLYLINE
  5
2745
330
1A
100
AcDbEntity
  8
ZUWAKU
100
AcDbPolyline
 90
        4
 70
     1
 43
0.0
 10
0.2999999996698079
 20
275.4999998459282
 10
0.2999999996698079
 20
0.2999998459281983
 10
398.4999999996699
 20
0.2999998459282214
 10
398.4999999996698
 20
275.4999998459282
  0
LWPOLYLINE
  5
2746
330
1A
100
AcDbEntity
  8
ZUWAKU
100
AcDbPolyline
 90
        4
 70
     1
 43
0.0
 10
-0.0000000003301466
 20
275.7999998459282
 10
-0.0000000003301466
 20
-0.0000001540718131
 10
398.7999999996699
 20
-0.0000001540717793
 10
398.7999999996699
 20
275.7999998459282
  0
LWPOLYLINE
  5
2747
330
1A
100
AcDbEntity
  8
ZUWAKU
100
AcDbPolyline
 90
        4
 70
     1
 43
0.0
 10
0.199999999669842
 20
275.5999998459282
 10
0.199999999669842
 20
0.1999998459282324
 10
398.5999999996698
 20
0.1999998459282208
 10
398.5999999996698
 20
275.5999998459282
  0
LWPOLYLINE
  5
2748
330
1A
100
AcDbEntity
  8
ZUWAKU
100
AcDbPolyline
 90
        4
 70
     1
 43
0.0
 10
0.3999999996698307
 20
275.3999998459282
 10
0.3999999996698307
 20
0.399999845928221
 10
398.3999999996698
 20
0.399999845928221
 10
398.3999999996698
 20
275.3999998459282
  0
TEXT
  5
2749
330
1A
100
AcDbEntity
  8
MOJI
100
AcDbText
 10
46.47889479375442
 20
6.370588911065567
 30
0.0
 40
3.0
  1
新・丸トップＲＶ１０５
 41
0.9
  7
ｽﾀｲﾙ1
100
AcDbText
  0
HATCH
  5
274A
330
1A
100
AcDbEntity
  8
ZUWAKU
100
AcDbHatch
 10
0.0
 20
0.0
 30
0.0
210
0.0
220
0.0
230
1.0
  2
ANSI37
 70
     0
 71
     0
 91
        8
 92
        7
 72
     1
 73
     1
 93
       24
 10
7.251131330229782
 20
8.822424086419978
 42
-0.1989123673796348
 10
7.046106077060414
 20
9.317398833250503
 42
0.0
 10
7.046106077060414
 20
9.962499845928192
 42
-0.4142135623730912
 10
7.308606077060403
 20
10.22499984592818
 42
0.0
 10
8.796106077060358
 20
10.22499984592818
 42
0.4142135623731546
 10
9.058606077060403
 20
10.48749984592818
 42
0.0
 10
9.058606077060403
 20
11.36249984592819
 42
0.4142135623731586
 10
8.796106077060358
 20
11.62499984592819
 42
0.0
 10
7.046106077060414
 20
11.62499984592819
 42
0.4142135623730928
 10
5.646106077060437
 20
10.2249998459282
 42
0.0
 10
5.646106077060437
 20
9.317398833250567
 42
0.1989123673796619
 10
6.261181836568653
 20
7.832474592758764
 42
0.0
 10
7.71608082389099
 20
6.377575605436435
 42
-0.1989123673796613
 10
7.921106077060414
 20
5.882600858605842
 42
0.0
 10
7.921106077060414
 20
5.237499845928184
 42
-0.4142135623730911
 10
7.658606077060426
 20
4.974999845928188
 42
0.0
 10
6.171106077060471
 20
4.974999845928188
 42
0.4142135623731526
 10
5.908606077060426
 20
4.712499845928194
 42
0.0
 10
5.908606077060426
 20
3.837499845928183
 42
0.4142135623731526
 10
6.171106077060471
 20
3.574999845928189
 42
0.0
 10
7.921106077060414
 20
3.574999845928189
 42
0.4142135623731044
 10
9.321106077060449
 20
4.974999845928177
 42
0.0
 10
9.321106077060449
 20
5.882600858605814
 42
0.1989123673796604
 10
8.706030317552176
 20
7.367525099097584
 42
0.0
 97
        0
 92
        7
 72
     1
 73
     1
 93
       16
 10
11.77110607706043
 20
9.524999845928192
 42
-0.4142135623730935
 10
12.47110607706042
 20
10.22499984592818
 42
0.0
 10
13.4336060770604
 20
10.22499984592818
 42
0.4142135623731546
 10
13.69610607706045
 20
10.48749984592818
 42
0.0
 10
13.69610607706045
 20
11.36249984592819
 42
0.4142135623730951
 10
13.43360607706046
 20
11.62499984592819
 42
0.0
 10
12.47110607706036
 20
11.62499984592817
 42
0.4142135623730892
 10
10.3711060770604
 20
9.524999845928157
 42
0.0
 10
10.3711060770604
 20
5.674999845928201
 42
0.4142135623730969
 10
12.47110607706042
 20
3.574999845928189
 42
0.0
 10
13.4336060770604
 20
3.574999845928189
 42
0.4142135623731526
 10
13.69610607706045
 20
3.837499845928183
 42
0.0
 10
13.69610607706045
 20
4.712499845928194
 42
0.4142135623730891
 10
13.43360607706046
 20
4.974999845928188
 42
0.0
 10
12.47110607706042
 20
4.974999845928188
 42
-0.4142135623730928
 10
11.77110607706043
 20
5.674999845928182
 42
0.0
 97
        0
 92
        7
 72
     1
 73
     1
 93
        2
 10
12.1211060770604
 20
7.599999845928188
 42
1.0
 10
13.8711060770604
 20
7.599999845928188
 42
1.0
 97
        0
 92
        7
 72
     1
 73
     1
 93
       26
 10
18.65742931814941
 20
9.602523442709902
 42
0.0
 10
19.18824913471832
 20
11.28345286184469
 42
0.5069206636600134
 10
18.93793368512064
 20
11.62499984592819
 42
0.0
 10
18.08848899531602
 20
11.62499984592819
 42
0.3272098845218764
 10
17.83817354571834
 20
11.44154683001167
 42
0.0
 10
16.90403860840246
 20
8.483452861844728
 42
-0.3272098845219541
 10
16.65372315880472
 20
8.299999845928187
 42
0.0
 10
16.58360607706049
 20
8.299999845928187
 42
-0.4142135623731526
 10
16.32110607706044
 20
8.562499845928181
 42
0.0
 10
16.32110607706044
 20
11.36249984592819
 42
0.4142135623730951
 10
16.05860607706046
 20
11.62499984592819
 42
0.0
 10
15.1836060770604
 20
11.62499984592819
 42
0.4142135623730871
 10
14.92110607706041
 20
11.36249984592819
 42
0.0
 10
14.92110607706041
 20
3.837499845928183
 42
0.4142135623730891
 10
15.1836060770604
 20
3.574999845928189
 42
0.0
 10
16.0586060770604
 20
3.574999845928189
 42
0.4142135623731526
 10
16.32110607706044
 20
3.837499845928183
 42
0.0
 10
16.32110607706044
 20
6.637499845928195
 42
-0.4142135623731526
 10
16.58360607706049
 20
6.899999845928189
 42
0.0
 10
16.65372315880478
 20
6.899999845928189
 42
-0.3272098845218915
 10
16.90403860840246
 20
6.716546830011651
 42
0.0
 10
17.83817354571834
 20
3.758452861844725
 42
0.3272098845218902
 10
18.08848899531602
 20
3.574999845928189
 42
0.0
 10
18.93793368512064
 20
3.574999845928189
 42
0.5069206636600335
 10
19.18824913471832
 20
3.916546830011693
 42
0.0
 10
18.02505344548149
 20
7.599999845928257
 42
0.0
 97
        0
 92
        7
 72
     1
 73
     1
 93
        8
 10
21.7461060770604
 20
11.36249984592819
 42
0.4142135623731546
 10
21.48360607706035
 20
11.62499984592819
 42
0.0
 10
20.60860607706047
 20
11.62499984592819
 42
0.4142135623731507
 10
20.34610607706042
 20
11.36249984592819
 42
0.0
 10
20.34610607706042
 20
3.837499845928183
 42
0.4142135623731526
 10
20.60860607706047
 20
3.574999845928189
 42
0.0
 10
21.48360607706035
 20
3.574999845928189
 42
0.4142135623731526
 10
21.7461060770604
 20
3.837499845928183
 42
0.0
 97
        0
 92
        7
 72
     1
 73
     1
 93
       24
 10
24.19610607706045
 20
9.962499845928192
 42
-0.4142135623731546
 10
24.45860607706049
 20
10.22499984592818
 42
0.0
 10
25.94610607706044
 20
10.22499984592818
 42
0.4142135623730911
 10
26.20860607706044
 20
10.48749984592818
 42
0.0
 10
26.20860607706044
 20
11.36249984592819
 42
0.4142135623730952
 10
25.94610607706044
 20
11.62499984592819
 42
0.0
 10
24.19610607706045
 20
11.62499984592819
 42
0.4142135623731048
 10
22.79610607706041
 20
10.2249998459282
 42
0.0
 10
22.79610607706041
 20
9.317398833250567
 42
0.1989123673796613
 10
23.41118183656868
 20
7.832474592758792
 42
0.0
 10
24.86608082389102
 20
6.377575605436458
 42
-0.1989123673796402
 10
25.07110607706044
 20
5.882600858605922
 42
0.0
 10
25.07110607706044
 20
5.237499845928184
 42
-0.4142135623730911
 10
24.80860607706046
 20
4.974999845928188
 42
0.0
 10
23.32110607706045
 20
4.974999845928188
 42
0.4142135623731526
 10
23.0586060770604
 20
4.712499845928194
 42
0.0
 10
23.0586060770604
 20
3.837499845928183
 42
0.4142135623730891
 10
23.32110607706039
 20
3.574999845928189
 42
0.0
 10
25.07110607706044
 20
3.574999845928189
 42
0.4142135623730925
 10
26.47110607706042
 20
4.974999845928177
 42
0.0
 10
26.47110607706042
 20
5.882600858605814
 42
0.1989123673796675
 10
25.85603031755215
 20
7.36752509909764
 42
0.0
 10
24.40113133022987
 20
8.822424086419898
 42
-0.1989123673796652
 10
24.19610607706045
 20
9.317398833250482
 42
0.0
 97
        0
 92
        7
 72
     1
 73
     1
 93
       16
 10
28.92110607706041
 20
11.36249984592818
 42
0.414213562373103
 10
28.65860607706042
 20
11.62499984592819
 42
0.0
 10
27.78360607706042
 20
11.62499984592819
 42
0.4142135623730871
 10
27.52110607706043
 20
11.36249984592819
 42
0.0
 10
27.52110607706043
 20
4.974999845928177
 42
0.4142135623730926
 10
28.92110607706041
 20
3.574999845928189
 42
0.0
 10
30.67110607706041
 20
3.574999845928189
 42
0.4142135623731044
 10
32.07110607706045
 20
4.974999845928177
 42
0.0
 10
32.07110607706045
 20
11.36249984592819
 42
0.4142135623730951
 10
31.80860607706046
 20
11.62499984592819
 42
0.0
 10
30.9336060770604
 20
11.62499984592819
 42
0.4142135623730871
 10
30.67110607706041
 20
11.36249984592819
 42
0.0
 10
30.67110607706041
 20
5.499999845928176
 42
-0.414213562373088
 10
30.14610607706043
 20
4.974999845928188
 42
0.0
 10
29.44610607706044
 20
4.974999845928188
 42
-0.4142135623731197
 10
28.92110607706041
 20
5.499999845928176
 42
0.0
 97
        0
 92
        7
 72
     1
 73
     1
 93
        8
 10
34.52110607706043
 20
11.36249984592819
 42
0.4142135623730871
 10
34.25860607706045
 20
11.62499984592819
 42
0.0
 10
33.38360607706045
 20
11.62499984592819
 42
0.4142135623731507
 10
33.1211060770604
 20
11.36249984592819
 42
0.0
 10
33.1211060770604
 20
3.837499845928183
 42
0.4142135623730891
 10
33.38360607706039
 20
3.574999845928189
 42
0.0
 10
34.25860607706045
 20
3.574999845928189
 42
0.4142135623730891
 10
34.52110607706043
 20
3.837499845928183
 42
0.0
 97
        0
 75
     0
 76
     1
 52
0.0
 41
0.1
 77
     0
 78
     2
 53
45.0
 43
-450.4711521676695
 44
-6.600000154071778
 45
-0.2245064030267288
 46
0.2245064030267288
 79
     0
 53
135.0
 43
-450.4711521676695
 44
-6.600000154071778
 45
-0.2245064030267288
 46
-0.2245064030267288
 79
     0
 47
0.057451373970553
 98
        8
 10
8.039927481181507
 20
7.583586668870964
 10
11.20225750288943
 20
9.422030937153692
 10
12.58218394249968
 20
7.755940668963546
 10
15.45702999048842
 20
8.100648669148938
 10
20.91923600914822
 20
8.330454802919746
 10
23.44910044723462
 20
9.709288004131792
 10
28.27884298587003
 20
9.364578803475694
 10
33.91353980948122
 20
9.594384937246502
  0
LINE
  5
274B
330
1A
100
AcDbEntity
  8
ZUWAKU
100
AcDbLine
 10
12.47110607706042
 20
11.62499984592817
 30
0.0
 11
13.4336060770604
 21
11.62499984592819
 31
0.0
  0
LINE
  5
274C
330
1A
100
AcDbEntity
  8
ZUWAKU
100
AcDbLine
 10
13.4336060770604
 20
10.22499984592818
 30
0.0
 11
12.47110607706042
 21
10.22499984592818
 31
0.0
  0
LINE
  5
274D
330
1A
100
AcDbEntity
  8
ZUWAKU
100
AcDbLine
 10
12.47110607706042
 20
4.974999845928188
 30
0.0
 11
13.4336060770604
 21
4.974999845928188
 31
0.0
  0
LINE
  5
274E
330
1A
100
AcDbEntity
  8
ZUWAKU
100
AcDbLine
 10
13.4336060770604
 20
3.574999845928189
 30
0.0
 11
12.47110607706042
 21
3.574999845928189
 31
0.0
  0
CIRCLE
  5
274F
330
1A
100
AcDbEntity
  8
ZUWAKU
100
AcDbCircle
 10
12.9961060770604
 20
7.599999845928188
 30
0.0
 40
0.875
  0
ARC
  5
2750
330
1A
100
AcDbEntity
  8
ZUWAKU
100
AcDbCircle
 10
7.746106077060403
 20
9.317398833250539
 30
0.0
 40
0.7
100
AcDbArc
 50
180.0000000000016
 51
224.9999999999988
  0
LINE
  5
2751
330
1A
100
AcDbEntity
  8
ZUWAKU
100
AcDbLine
 10
11.77110607706043
 20
9.524999845928189
 30
0.0
 11
11.77110607706043
 21
5.674999845928191
 31
0.0
  0
LINE
  5
2752
330
1A
100
AcDbEntity
  8
ZUWAKU
100
AcDbLine
 10
10.3711060770604
 20
5.674999845928191
 30
0.0
 11
10.3711060770604
 21
9.524999845928167
 31
0.0
  0
ARC
  5
2753
330
1A
100
AcDbEntity
  8
ZUWAKU
100
AcDbCircle
 10
7.746106077060403
 20
9.317398833250539
 30
0.0
 40
2.099999999999999
100
AcDbArc
 50
180.0
 51
225.0
  0
ARC
  5
2754
330
1A
100
AcDbEntity
  8
ZUWAKU
100
AcDbCircle
 10
7.921106077060414
 20
4.974999845928188
 30
0.0
 40
1.399999999999999
100
AcDbArc
 50
270.0
 51
0.0
  0
ARC
  5
2755
330
1A
100
AcDbEntity
  8
ZUWAKU
100
AcDbCircle
 10
12.47110607706042
 20
5.674999845928191
 30
0.0
 40
2.099999999999999
100
AcDbArc
 50
180.0
 51
270.0
  0
ARC
  5
2756
330
1A
100
AcDbEntity
  8
ZUWAKU
100
AcDbCircle
 10
7.221106077060426
 20
5.88260085860584
 30
0.0
 40
2.099999999999999
100
AcDbArc
 50
0.0
 51
45.0
  0
LINE
  5
2757
330
1A
100
AcDbEntity
  8
ZUWAKU
100
AcDbLine
 10
8.706030317552176
 20
7.367525099097601
 30
0.0
 11
7.251131330229839
 21
8.822424086419939
 31
0.0
  0
LINE
  5
2758
330
1A
100
AcDbEntity
  8
ZUWAKU
100
AcDbLine
 10
7.921106077060414
 20
5.237499845928191
 30
0.0
 11
7.921106077060414
 21
5.882600858605862
 31
0.0
  0
ARC
  5
2759
330
1A
100
AcDbEntity
  8
ZUWAKU
100
AcDbCircle
 10
7.658606077060426
 20
5.237499845928191
 30
0.0
 40
0.2625
100
AcDbArc
 50
270.0
 51
0.0
  0
ARC
  5
275A
330
1A
100
AcDbEntity
  8
ZUWAKU
100
AcDbCircle
 10
7.221106077060426
 20
5.882600858605862
 30
0.0
 40
0.7
100
AcDbArc
 50
0.0
 51
45.0
  0
LINE
  5
275B
330
1A
100
AcDbEntity
  8
ZUWAKU
100
AcDbLine
 10
5.908606077060426
 20
3.837499845928189
 30
0.0
 11
5.908606077060426
 21
4.712499845928189
 31
0.0
  0
ARC
  5
275C
330
1A
100
AcDbEntity
  8
ZUWAKU
100
AcDbCircle
 10
6.171106077060414
 20
3.837499845928189
 30
0.0
 40
0.2625
100
AcDbArc
 50
180.0
 51
270.0
  0
ARC
  5
275D
330
1A
100
AcDbEntity
  8
ZUWAKU
100
AcDbCircle
 10
6.171106077060414
 20
4.712499845928189
 30
0.0
 40
0.2625
100
AcDbArc
 50
90.0
 51
180.0
  0
LINE
  5
275E
330
1A
100
AcDbEntity
  8
ZUWAKU
100
AcDbLine
 10
6.171106077060414
 20
3.574999845928189
 30
0.0
 11
7.921106077060414
 21
3.574999845928189
 31
0.0
  0
LINE
  5
275F
330
1A
100
AcDbEntity
  8
ZUWAKU
100
AcDbLine
 10
6.171106077060414
 20
4.974999845928188
 30
0.0
 11
7.658606077060426
 21
4.974999845928188
 31
0.0
  0
LINE
  5
2760
330
1A
100
AcDbEntity
  8
ZUWAKU
100
AcDbLine
 10
6.261181836568653
 20
7.832474592758778
 30
0.0
 11
7.71608082389099
 21
6.377575605436447
 31
0.0
  0
LINE
  5
2761
330
1A
100
AcDbEntity
  8
ZUWAKU
100
AcDbLine
 10
9.321106077060449
 20
4.974999845928188
 30
0.0
 11
9.321106077060449
 21
5.882600858605862
 31
0.0
  0
ARC
  5
2762
330
1A
100
AcDbEntity
  8
ZUWAKU
100
AcDbCircle
 10
12.47110607706042
 20
5.674999845928191
 30
0.0
 40
0.7
100
AcDbArc
 50
180.0
 51
270.0
  0
ARC
  5
2763
330
1A
100
AcDbEntity
  8
ZUWAKU
100
AcDbCircle
 10
8.796106077060414
 20
11.36249984592818
 30
0.0
 40
0.2625
100
AcDbArc
 50
0.0
 51
90.0
  0
ARC
  5
2764
330
1A
100
AcDbEntity
  8
ZUWAKU
100
AcDbCircle
 10
8.796106077060414
 20
10.48749984592818
 30
0.0
 40
0.2625
100
AcDbArc
 50
270.0
 51
0.0
  0
LINE
  5
2765
330
1A
100
AcDbEntity
  8
ZUWAKU
100
AcDbLine
 10
7.046106077060414
 20
11.62499984592819
 30
0.0
 11
8.796106077060414
 21
11.62499984592819
 31
0.0
  0
ARC
  5
2766
330
1A
100
AcDbEntity
  8
ZUWAKU
100
AcDbCircle
 10
7.308606077060403
 20
9.962499845928189
 30
0.0
 40
0.2625
100
AcDbArc
 50
90.0
 51
180.0
  0
LINE
  5
2767
330
1A
100
AcDbEntity
  8
ZUWAKU
100
AcDbLine
 10
7.046106077060414
 20
9.962499845928189
 30
0.0
 11
7.046106077060414
 21
9.317398833250518
 31
0.0
  0
LINE
  5
2768
330
1A
100
AcDbEntity
  8
ZUWAKU
100
AcDbLine
 10
8.796106077060414
 20
10.22499984592818
 30
0.0
 11
7.308606077060403
 21
10.22499984592818
 31
0.0
  0
LINE
  5
2769
330
1A
100
AcDbEntity
  8
ZUWAKU
100
AcDbLine
 10
5.646106077060437
 20
10.22499984592818
 30
0.0
 11
5.646106077060437
 21
9.317398833250518
 31
0.0
  0
ARC
  5
276A
330
1A
100
AcDbEntity
  8
ZUWAKU
100
AcDbCircle
 10
7.046106077060414
 20
10.22499984592818
 30
0.0
 40
1.399999999999999
100
AcDbArc
 50
90.0
 51
180.0
  0
LINE
  5
276B
330
1A
100
AcDbEntity
  8
ZUWAKU
100
AcDbLine
 10
9.058606077060403
 20
11.36249984592818
 30
0.0
 11
9.058606077060403
 21
10.48749984592818
 31
0.0
  0
ARC
  5
276C
330
1A
100
AcDbEntity
  8
ZUWAKU
100
AcDbCircle
 10
12.47110607706042
 20
9.524999845928189
 30
0.0
 40
0.7
100
AcDbArc
 50
90.0
 51
180.0
  0
ARC
  5
276D
330
1A
100
AcDbEntity
  8
ZUWAKU
100
AcDbCircle
 10
12.47110607706042
 20
9.524999845928167
 30
0.0
 40
2.099999999999999
100
AcDbArc
 50
90.0
 51
180.0
  0
LINE
  5
276E
330
1A
100
AcDbEntity
  8
ZUWAKU
100
AcDbLine
 10
39.66331477366395
 20
14.99999984592818
 30
0.0
 11
39.66331477366407
 21
0.399999845928221
 31
0.0
  0
LINE
  5
276F
330
1A
100
AcDbEntity
  8
ZUWAKU
100
AcDbLine
 10
39.76331477366398
 20
14.99999984592818
 30
0.0
 11
39.76331477366409
 21
0.399999845928221
 31
0.0
  0
LINE
  5
2770
330
1A
100
AcDbEntity
  8
ZUWAKU
100
AcDbLine
 10
39.56331477366404
 20
14.99999984592818
 30
0.0
 11
39.56331477366404
 21
0.399999845928221
 31
0.0
  0
LINE
  5
2771
330
1A
100
AcDbEntity
  8
ZUWAKU
100
AcDbLine
 10
32.07110607706045
 20
4.974999845928188
 30
0.0
 11
32.07110607706045
 21
11.36249984592818
 31
0.0
  0
LINE
  5
2772
330
1A
100
AcDbEntity
  8
ZUWAKU
100
AcDbLine
 10
30.67110607706041
 20
11.36249984592818
 30
0.0
 11
30.67110607706041
 21
5.499999845928186
 31
0.0
  0
LINE
  5
2773
330
1A
100
AcDbEntity
  8
ZUWAKU
100
AcDbLine
 10
34.52110607706043
 20
3.837499845928189
 30
0.0
 11
34.52110607706043
 21
11.36249984592818
 31
0.0
  0
LINE
  5
2774
330
1A
100
AcDbEntity
  8
ZUWAKU
100
AcDbLine
 10
33.1211060770604
 20
11.36249984592818
 30
0.0
 11
33.1211060770604
 21
3.837499845928189
 31
0.0
  0
ARC
  5
2775
330
1A
100
AcDbEntity
  8
ZUWAKU
100
AcDbCircle
 10
24.89610607706044
 20
9.317398833250539
 30
0.0
 40
0.7
100
AcDbArc
 50
180.0000000000016
 51
224.9999999999988
  0
ARC
  5
2776
330
1A
100
AcDbEntity
  8
ZUWAKU
100
AcDbCircle
 10
24.89610607706044
 20
9.317398833250539
 30
0.0
 40
2.099999999999999
100
AcDbArc
 50
180.0
 51
225.0
  0
LINE
  5
2777
330
1A
100
AcDbEntity
  8
ZUWAKU
100
AcDbLine
 10
18.65742931814941
 20
9.602523442709902
 30
0.0
 11
18.02505344548149
 21
7.599999845928198
 31
0.0
  0
LINE
  5
2778
330
1A
100
AcDbEntity
  8
ZUWAKU
100
AcDbLine
 10
20.34610607706042
 20
11.36249984592818
 30
0.0
 11
20.34610607706042
 21
3.837499845928189
 31
0.0
  0
LINE
  5
2779
330
1A
100
AcDbEntity
  8
ZUWAKU
100
AcDbLine
 10
21.7461060770604
 20
3.837499845928189
 30
0.0
 11
21.7461060770604
 21
11.36249984592818
 31
0.0
  0
LINE
  5
277A
330
1A
100
AcDbEntity
  8
ZUWAKU
100
AcDbLine
 10
27.52110607706043
 20
11.36249984592818
 30
0.0
 11
27.52110607706043
 21
4.974999845928188
 31
0.0
  0
LINE
  5
277B
330
1A
100
AcDbEntity
  8
ZUWAKU
100
AcDbLine
 10
28.92110607706041
 20
5.499999845928186
 30
0.0
 11
28.92110607706041
 21
11.36249984592818
 31
0.0
  0
LINE
  5
277C
330
1A
100
AcDbEntity
  8
ZUWAKU
100
AcDbLine
 10
16.32110607706044
 20
8.56249984592819
 30
0.0
 11
16.32110607706044
 21
11.36249984592818
 31
0.0
  0
LINE
  5
277D
330
1A
100
AcDbEntity
  8
ZUWAKU
100
AcDbLine
 10
14.92110607706041
 20
11.36249984592818
 30
0.0
 11
14.92110607706041
 21
3.837499845928189
 31
0.0
  0
LINE
  5
277E
330
1A
100
AcDbEntity
  8
ZUWAKU
100
AcDbLine
 10
17.83817354571834
 20
11.44154683001167
 30
0.0
 11
16.90403860840246
 21
8.483452861844703
 31
0.0
  0
LINE
  5
277F
330
1A
100
AcDbEntity
  8
ZUWAKU
100
AcDbLine
 10
30.14610607706043
 20
4.974999845928188
 30
0.0
 11
29.44610607706044
 21
4.974999845928188
 31
0.0
  0
LINE
  5
2780
330
1A
100
AcDbEntity
  8
ZUWAKU
100
AcDbLine
 10
28.92110607706041
 20
3.574999845928189
 30
0.0
 11
30.67110607706041
 21
3.574999845928189
 31
0.0
  0
LINE
  5
2781
330
1A
100
AcDbEntity
  8
ZUWAKU
100
AcDbLine
 10
20.60860607706041
 20
3.574999845928189
 30
0.0
 11
21.48360607706041
 21
3.574999845928189
 31
0.0
  0
LINE
  5
2782
330
1A
100
AcDbEntity
  8
ZUWAKU
100
AcDbLine
 10
17.83817354571834
 20
3.758452861844702
 30
0.0
 11
16.90403860840246
 21
6.716546830011672
 31
0.0
  0
ARC
  5
2783
330
1A
100
AcDbEntity
  8
ZUWAKU
100
AcDbCircle
 10
16.65372315880478
 20
8.56249984592819
 30
0.0
 40
0.2625
100
AcDbArc
 50
270.0
 51
342.4744316262769
  0
LINE
  5
2784
330
1A
100
AcDbEntity
  8
ZUWAKU
100
AcDbLine
 10
16.65372315880478
 20
8.299999845928187
 30
0.0
 11
16.58360607706043
 21
8.299999845928187
 31
0.0
  0
LINE
  5
2785
330
1A
100
AcDbEntity
  8
ZUWAKU
100
AcDbLine
 10
16.58360607706043
 20
6.899999845928189
 30
0.0
 11
16.65372315880478
 21
6.899999845928189
 31
0.0
  0
ARC
  5
2786
330
1A
100
AcDbEntity
  8
ZUWAKU
100
AcDbCircle
 10
16.58360607706043
 20
8.56249984592819
 30
0.0
 40
0.2625
100
AcDbArc
 50
180.0
 51
270.0
  0
LINE
  5
2787
330
1A
100
AcDbEntity
  8
ZUWAKU
100
AcDbLine
 10
15.1836060770604
 20
3.574999845928189
 30
0.0
 11
16.0586060770604
 21
3.574999845928189
 31
0.0
  0
ARC
  5
2788
330
1A
100
AcDbEntity
  8
ZUWAKU
100
AcDbCircle
 10
16.0586060770604
 20
3.837499845928189
 30
0.0
 40
0.2625
100
AcDbArc
 50
270.0
 51
0.0
  0
LINE
  5
2789
330
1A
100
AcDbEntity
  8
ZUWAKU
100
AcDbLine
 10
16.32110607706044
 20
3.837499845928189
 30
0.0
 11
16.32110607706044
 21
6.637499845928189
 31
0.0
  0
LINE
  5
278A
330
1A
100
AcDbEntity
  8
ZUWAKU
100
AcDbLine
 10
13.69610607706045
 20
4.712499845928189
 30
0.0
 11
13.69610607706045
 21
3.837499845928189
 31
0.0
  0
ARC
  5
278B
330
1A
100
AcDbEntity
  8
ZUWAKU
100
AcDbCircle
 10
13.4336060770604
 20
3.837499845928189
 30
0.0
 40
0.2625
100
AcDbArc
 50
270.0
 51
0.0
  0
ARC
  5
278C
330
1A
100
AcDbEntity
  8
ZUWAKU
100
AcDbCircle
 10
13.4336060770604
 20
4.712499845928189
 30
0.0
 40
0.2625
100
AcDbArc
 50
0.0
 51
90.0
  0
ARC
  5
278D
330
1A
100
AcDbEntity
  8
ZUWAKU
100
AcDbCircle
 10
15.1836060770604
 20
3.837499845928189
 30
0.0
 40
0.2625
100
AcDbArc
 50
180.0
 51
270.0
  0
ARC
  5
278E
330
1A
100
AcDbEntity
  8
ZUWAKU
100
AcDbCircle
 10
16.65372315880478
 20
6.637499845928189
 30
0.0
 40
0.2625
100
AcDbArc
 50
17.52556837372303
 51
90.0
  0
ARC
  5
278F
330
1A
100
AcDbEntity
  8
ZUWAKU
100
AcDbCircle
 10
16.58360607706043
 20
6.637499845928189
 30
0.0
 40
0.2625
100
AcDbArc
 50
90.0
 51
180.0
  0
ARC
  5
2790
330
1A
100
AcDbEntity
  8
ZUWAKU
100
AcDbCircle
 10
20.60860607706041
 20
3.837499845928189
 30
0.0
 40
0.2625
100
AcDbArc
 50
180.0
 51
270.0
  0
LINE
  5
2791
330
1A
100
AcDbEntity
  8
ZUWAKU
100
AcDbLine
 10
18.08848899531608
 20
3.574999845928189
 30
0.0
 11
18.93793368512058
 21
3.574999845928189
 31
0.0
  0
ARC
  5
2792
330
1A
100
AcDbEntity
  8
ZUWAKU
100
AcDbCircle
 10
18.93793368512058
 20
3.837499845928189
 30
0.0
 40
0.2625
100
AcDbArc
 50
270.0
 51
17.52556837372303
  0
LINE
  5
2793
330
1A
100
AcDbEntity
  8
ZUWAKU
100
AcDbLine
 10
19.18824913471832
 20
3.916546830011675
 30
0.0
 11
18.02505344548149
 21
7.599999845928198
 31
0.0
  0
ARC
  5
2794
330
1A
100
AcDbEntity
  8
ZUWAKU
100
AcDbCircle
 10
18.08848899531608
 20
3.837499845928189
 30
0.0
 40
0.2625
100
AcDbArc
 50
197.525568373723
 51
270.0
  0
ARC
  5
2795
330
1A
100
AcDbEntity
  8
ZUWAKU
100
AcDbCircle
 10
28.92110607706041
 20
4.974999845928188
 30
0.0
 40
1.399999999999999
100
AcDbArc
 50
180.0
 51
270.0
  0
ARC
  5
2796
330
1A
100
AcDbEntity
  8
ZUWAKU
100
AcDbCircle
 10
25.07110607706044
 20
4.974999845928188
 30
0.0
 40
1.399999999999999
100
AcDbArc
 50
270.0
 51
0.0
  0
LINE
  5
2797
330
1A
100
AcDbEntity
  8
ZUWAKU
100
AcDbLine
 10
25.85603031755221
 20
7.367525099097601
 30
0.0
 11
24.40113133022981
 21
8.822424086419939
 31
0.0
  0
LINE
  5
2798
330
1A
100
AcDbEntity
  8
ZUWAKU
100
AcDbLine
 10
25.07110607706044
 20
5.237499845928191
 30
0.0
 11
25.07110607706044
 21
5.882600858605862
 31
0.0
  0
ARC
  5
2799
330
1A
100
AcDbEntity
  8
ZUWAKU
100
AcDbCircle
 10
24.3711060770604
 20
5.882600858605862
 30
0.0
 40
0.7
100
AcDbArc
 50
0.0
 51
45.0
  0
ARC
  5
279A
330
1A
100
AcDbEntity
  8
ZUWAKU
100
AcDbCircle
 10
24.8086060770604
 20
5.237499845928191
 30
0.0
 40
0.2625
100
AcDbArc
 50
270.0
 51
0.0
  0
LINE
  5
279B
330
1A
100
AcDbEntity
  8
ZUWAKU
100
AcDbLine
 10
23.0586060770604
 20
3.837499845928189
 30
0.0
 11
23.0586060770604
 21
4.712499845928189
 31
0.0
  0
ARC
  5
279C
330
1A
100
AcDbEntity
  8
ZUWAKU
100
AcDbCircle
 10
23.32110607706045
 20
3.837499845928189
 30
0.0
 40
0.2625
100
AcDbArc
 50
180.0
 51
270.0
  0
ARC
  5
279D
330
1A
100
AcDbEntity
  8
ZUWAKU
100
AcDbCircle
 10
21.48360607706041
 20
3.837499845928189
 30
0.0
 40
0.2625
100
AcDbArc
 50
270.0
 51
0.0
  0
ARC
  5
279E
330
1A
100
AcDbEntity
  8
ZUWAKU
100
AcDbCircle
 10
23.32110607706045
 20
4.712499845928189
 30
0.0
 40
0.2625
100
AcDbArc
 50
90.0
 51
180.0
  0
LINE
  5
279F
330
1A
100
AcDbEntity
  8
ZUWAKU
100
AcDbLine
 10
23.32110607706045
 20
4.974999845928188
 30
0.0
 11
24.8086060770604
 21
4.974999845928188
 31
0.0
  0
LINE
  5
27A0
330
1A
100
AcDbEntity
  8
ZUWAKU
100
AcDbLine
 10
23.32110607706045
 20
3.574999845928189
 30
0.0
 11
25.07110607706044
 21
3.574999845928189
 31
0.0
  0
LINE
  5
27A1
330
1A
100
AcDbEntity
  8
ZUWAKU
100
AcDbLine
 10
23.41118183656868
 20
7.832474592758778
 30
0.0
 11
24.86608082389102
 21
6.377575605436447
 31
0.0
  0
LINE
  5
27A2
330
1A
100
AcDbEntity
  8
ZUWAKU
100
AcDbLine
 10
26.47110607706042
 20
4.974999845928188
 30
0.0
 11
26.47110607706042
 21
5.882600858605862
 31
0.0
  0
ARC
  5
27A3
330
1A
100
AcDbEntity
  8
ZUWAKU
100
AcDbCircle
 10
24.3711060770604
 20
5.88260085860584
 30
0.0
 40
2.099999999999999
100
AcDbArc
 50
0.0
 51
45.0
  0
ARC
  5
27A4
330
1A
100
AcDbEntity
  8
ZUWAKU
100
AcDbCircle
 10
29.44610607706044
 20
5.499999845928186
 30
0.0
 40
0.525
100
AcDbArc
 50
180.0
 51
270.0
  0
ARC
  5
27A5
330
1A
100
AcDbEntity
  8
ZUWAKU
100
AcDbCircle
 10
30.67110607706041
 20
4.974999845928188
 30
0.0
 40
1.399999999999999
100
AcDbArc
 50
270.0
 51
0.0
  0
LINE
  5
27A6
330
1A
100
AcDbEntity
  8
ZUWAKU
100
AcDbLine
 10
33.38360607706045
 20
3.574999845928189
 30
0.0
 11
34.25860607706045
 21
3.574999845928189
 31
0.0
  0
ARC
  5
27A7
330
1A
100
AcDbEntity
  8
ZUWAKU
100
AcDbCircle
 10
33.38360607706045
 20
3.837499845928189
 30
0.0
 40
0.2625
100
AcDbArc
 50
180.0
 51
270.0
  0
ARC
  5
27A8
330
1A
100
AcDbEntity
  8
ZUWAKU
100
AcDbCircle
 10
30.14610607706043
 20
5.499999845928186
 30
0.0
 40
0.525
100
AcDbArc
 50
270.0
 51
0.0
  0
ARC
  5
27A9
330
1A
100
AcDbEntity
  8
ZUWAKU
100
AcDbCircle
 10
34.25860607706045
 20
3.837499845928189
 30
0.0
 40
0.2625
100
AcDbArc
 50
270.0
 51
0.0
  0
LINE
  5
27AA
330
1A
100
AcDbEntity
  8
ZUWAKU
100
AcDbLine
 10
21.48360607706041
 20
11.62499984592819
 30
0.0
 11
20.60860607706041
 21
11.62499984592819
 31
0.0
  0
ARC
  5
27AB
330
1A
100
AcDbEntity
  8
ZUWAKU
100
AcDbCircle
 10
16.0586060770604
 20
11.36249984592818
 30
0.0
 40
0.2625
100
AcDbArc
 50
0.0
 51
90.0
  0
LINE
  5
27AC
330
1A
100
AcDbEntity
  8
ZUWAKU
100
AcDbLine
 10
16.0586060770604
 20
11.62499984592819
 30
0.0
 11
15.1836060770604
 21
11.62499984592819
 31
0.0
  0
ARC
  5
27AD
330
1A
100
AcDbEntity
  8
ZUWAKU
100
AcDbCircle
 10
13.4336060770604
 20
11.36249984592818
 30
0.0
 40
0.2625
100
AcDbArc
 50
0.0
 51
90.0
  0
ARC
  5
27AE
330
1A
100
AcDbEntity
  8
ZUWAKU
100
AcDbCircle
 10
15.1836060770604
 20
11.36249984592818
 30
0.0
 40
0.2625
100
AcDbArc
 50
90.0
 51
180.0
  0
ARC
  5
27AF
330
1A
100
AcDbEntity
  8
ZUWAKU
100
AcDbCircle
 10
13.4336060770604
 20
10.48749984592818
 30
0.0
 40
0.2625
100
AcDbArc
 50
270.0
 51
0.0
  0
LINE
  5
27B0
330
1A
100
AcDbEntity
  8
ZUWAKU
100
AcDbLine
 10
13.69610607706045
 20
11.36249984592818
 30
0.0
 11
13.69610607706045
 21
10.48749984592818
 31
0.0
  0
ARC
  5
27B1
330
1A
100
AcDbEntity
  8
ZUWAKU
100
AcDbCircle
 10
20.60860607706041
 20
11.36249984592818
 30
0.0
 40
0.2625
100
AcDbArc
 50
90.0
 51
180.0
  0
LINE
  5
27B2
330
1A
100
AcDbEntity
  8
ZUWAKU
100
AcDbLine
 10
18.08848899531608
 20
11.62499984592819
 30
0.0
 11
18.93793368512058
 21
11.62499984592819
 31
0.0
  0
ARC
  5
27B3
330
1A
100
AcDbEntity
  8
ZUWAKU
100
AcDbCircle
 10
18.93793368512058
 20
11.36249984592818
 30
0.0
 40
0.2625
100
AcDbArc
 50
342.4744316262769
 51
90.0
  0
LINE
  5
27B4
330
1A
100
AcDbEntity
  8
ZUWAKU
100
AcDbLine
 10
19.18824913471832
 20
11.2834528618447
 30
0.0
 11
18.65742931814941
 21
9.602523442709902
 31
0.0
  0
ARC
  5
27B5
330
1A
100
AcDbEntity
  8
ZUWAKU
100
AcDbCircle
 10
18.08848899531608
 20
11.36249984592818
 30
0.0
 40
0.2625
100
AcDbArc
 50
90.0
 51
162.4744316262769
  0
LINE
  5
27B6
330
1A
100
AcDbEntity
  8
ZUWAKU
100
AcDbLine
 10
24.19610607706045
 20
11.62499984592819
 30
0.0
 11
25.94610607706044
 21
11.62499984592819
 31
0.0
  0
LINE
  5
27B7
330
1A
100
AcDbEntity
  8
ZUWAKU
100
AcDbLine
 10
25.94610607706044
 20
10.22499984592818
 30
0.0
 11
24.45860607706043
 21
10.22499984592818
 31
0.0
  0
ARC
  5
27B8
330
1A
100
AcDbEntity
  8
ZUWAKU
100
AcDbCircle
 10
24.45860607706043
 20
9.962499845928189
 30
0.0
 40
0.2625
100
AcDbArc
 50
90.0
 51
180.0
  0
LINE
  5
27B9
330
1A
100
AcDbEntity
  8
ZUWAKU
100
AcDbLine
 10
24.19610607706045
 20
9.962499845928189
 30
0.0
 11
24.19610607706045
 21
9.317398833250518
 31
0.0
  0
ARC
  5
27BA
330
1A
100
AcDbEntity
  8
ZUWAKU
100
AcDbCircle
 10
21.48360607706041
 20
11.36249984592818
 30
0.0
 40
0.2625
100
AcDbArc
 50
0.0
 51
90.0
  0
LINE
  5
27BB
330
1A
100
AcDbEntity
  8
ZUWAKU
100
AcDbLine
 10
22.79610607706041
 20
10.22499984592818
 30
0.0
 11
22.79610607706041
 21
9.317398833250518
 31
0.0
  0
ARC
  5
27BC
330
1A
100
AcDbEntity
  8
ZUWAKU
100
AcDbCircle
 10
24.19610607706045
 20
10.22499984592818
 30
0.0
 40
1.399999999999999
100
AcDbArc
 50
90.0
 51
180.0
  0
ARC
  5
27BD
330
1A
100
AcDbEntity
  8
ZUWAKU
100
AcDbCircle
 10
28.65860607706042
 20
11.36249984592818
 30
0.0
 40
0.2625
100
AcDbArc
 50
0.0
 51
90.0
  0
ARC
  5
27BE
330
1A
100
AcDbEntity
  8
ZUWAKU
100
AcDbCircle
 10
27.78360607706042
 20
11.36249984592818
 30
0.0
 40
0.2625
100
AcDbArc
 50
90.0
 51
180.0
  0
LINE
  5
27BF
330
1A
100
AcDbEntity
  8
ZUWAKU
100
AcDbLine
 10
28.65860607706042
 20
11.62499984592819
 30
0.0
 11
27.78360607706042
 21
11.62499984592819
 31
0.0
  0
ARC
  5
27C0
330
1A
100
AcDbEntity
  8
ZUWAKU
100
AcDbCircle
 10
25.94610607706044
 20
11.36249984592818
 30
0.0
 40
0.2625
100
AcDbArc
 50
0.0
 51
90.0
  0
ARC
  5
27C1
330
1A
100
AcDbEntity
  8
ZUWAKU
100
AcDbCircle
 10
25.94610607706044
 20
10.48749984592818
 30
0.0
 40
0.2625
100
AcDbArc
 50
270.0
 51
0.0
  0
LINE
  5
27C2
330
1A
100
AcDbEntity
  8
ZUWAKU
100
AcDbLine
 10
26.20860607706044
 20
11.36249984592818
 30
0.0
 11
26.20860607706044
 21
10.48749984592818
 31
0.0
  0
LINE
  5
27C3
330
1A
100
AcDbEntity
  8
ZUWAKU
100
AcDbLine
 10
34.25860607706045
 20
11.62499984592819
 30
0.0
 11
33.38360607706045
 21
11.62499984592819
 31
0.0
  0
ARC
  5
27C4
330
1A
100
AcDbEntity
  8
ZUWAKU
100
AcDbCircle
 10
33.38360607706045
 20
11.36249984592818
 30
0.0
 40
0.2625
100
AcDbArc
 50
90.0
 51
180.0
  0
ARC
  5
27C5
330
1A
100
AcDbEntity
  8
ZUWAKU
100
AcDbCircle
 10
31.8086060770604
 20
11.36249984592818
 30
0.0
 40
0.2625
100
AcDbArc
 50
0.0
 51
90.0
  0
LINE
  5
27C6
330
1A
100
AcDbEntity
  8
ZUWAKU
100
AcDbLine
 10
31.8086060770604
 20
11.62499984592819
 30
0.0
 11
30.9336060770604
 21
11.62499984592819
 31
0.0
  0
ARC
  5
27C7
330
1A
100
AcDbEntity
  8
ZUWAKU
100
AcDbCircle
 10
30.9336060770604
 20
11.36249984592818
 30
0.0
 40
0.2625
100
AcDbArc
 50
90.0
 51
180.0
  0
ARC
  5
27C8
330
1A
100
AcDbEntity
  8
ZUWAKU
100
AcDbCircle
 10
34.25860607706045
 20
11.36249984592818
 30
0.0
 40
0.2625
100
AcDbArc
 50
0.0
 51
90.0
  0
TEXT
  5
27C9
330
1A
100
AcDbEntity
  8
MOJI
100
AcDbText
 10
119.9136013400954
 20
9.00246037463188
 30
0.0
 40
2.799999999999999
  1
亜鉛メッキ金具正面打（受）ストロング高強度金具丸使い
 41
0.9
  7
ｽﾀｲﾙ1
100
AcDbText
  0
TEXT
  5
27CA
330
1A
100
AcDbEntity
  8
MOJI
100
AcDbText
 10
119.9136013400954
 20
1.602460374631897
 30
0.0
 40
2.799999999999999
  1
ＲＶ１０５－０－３０
 41
0.9
  7
ｽﾀｲﾙ1
100
AcDbText
  0
LINE
  5
27CB
330
1A
100
AcDbEntity
  8
ZUWAKU
100
AcDbLine
 10
104.1233006447038
 20
14.99999984592818
 30
0.0
 11
104.1233006447038
 21
0.399999845928221
 31
0.0
  0
LINE
  5
27CC
330
1A
100
AcDbEntity
  8
ZUWAKU
100
AcDbLine
 10
104.3233006447037
 20
14.99999984592818
 30
0.0
 11
104.3233006447038
 21
0.399999845928221
 31
0.0
  0
LINE
  5
27CD
330
1A
100
AcDbEntity
  8
ZUWAKU
100
AcDbLine
 10
104.2233006447037
 20
14.99999984592818
 30
0.0
 11
104.2233006447038
 21
0.399999845928221
 31
0.0
  0
TEXT
  5
27CE
330
1A
100
AcDbEntity
  8
ZUWAKU
100
AcDbText
 10
104.8620231558086
 20
4.827678115120995
 30
0.0
 40
2.0
  1
サイズ
 41
0.9
  7
ｽﾀｲﾙ1
100
AcDbText
  0
TEXT
  5
27CF
330
1A
100
AcDbEntity
  8
ZUWAKU
100
AcDbText
 10
104.8620231558085
 20
12.02767811512097
 30
0.0
 40
2.0
  1
品名
 41
0.9
  7
ｽﾀｲﾙ1
100
AcDbText
  0
LINE
  5
27D0
330
1A
100
AcDbEntity
  8
ZUWAKU
100
AcDbLine
 10
324.4086012547719
 20
7.599999845928202
 30
0.0
 11
348.6245052739405
 21
7.599999845928204
 31
0.0
  0
LINE
  5
27D1
330
1A
100
AcDbEntity
  8
ZUWAKU
100
AcDbLine
 10
324.408601254772
 20
7.699999845928205
 30
0.0
 11
348.6245052739405
 21
7.699999845928203
 31
0.0
  0
LINE
  5
27D2
330
1A
100
AcDbEntity
  8
ZUWAKU
100
AcDbLine
 10
324.4086012547719
 20
7.799999845928203
 30
0.0
 11
348.6245052739405
 21
7.799999845928203
 31
0.0
  0
TEXT
  5
27D3
330
1A
100
AcDbEntity
  8
ZUWAKU
100
AcDbText
 10
329.101968843321
 20
9.00246037463188
 30
0.0
 40
2.799999999999999
  1
　　．　　．　　
 41
0.9
  7
ｽﾀｲﾙ1
100
AcDbText
  0
LINE
  5
27D4
330
1A
100
AcDbEntity
  8
ZUWAKU
100
AcDbLine
 10
252.5995897487403
 20
7.599999845928206
 30
0.0
 11
276.263477882726
 21
7.599999845928206
 31
0.0
  0
LINE
  5
27D5
330
1A
100
AcDbEntity
  8
ZUWAKU
100
AcDbLine
 10
252.5995897487403
 20
7.699999845928203
 30
0.0
 11
276.263477882726
 21
7.699999845928203
 31
0.0
  0
LINE
  5
27D6
330
1A
100
AcDbEntity
  8
ZUWAKU
100
AcDbLine
 10
252.5995897487403
 20
7.799999845928203
 30
0.0
 11
276.263477882726
 21
7.799999845928203
 31
0.0
  0
TEXT
  5
27D7
330
1A
100
AcDbEntity
  8
MOJI
100
AcDbText
 10
231.2836391606641
 20
5.971308706758179
 30
0.0
 40
2.799999999999999
  1
ＬＬ４１Ｇ
 41
0.9
  7
ｽﾀｲﾙ1
100
AcDbText
  0
LINE
  5
27D8
330
1A
100
AcDbEntity
  8
ZUWAKU
100
AcDbLine
 10
223.8121819851654
 20
14.99999984592818
 30
0.0
 11
223.8121819851655
 21
0.399999845928221
 31
0.0
  0
LINE
  5
27D9
330
1A
100
AcDbEntity
  8
ZUWAKU
100
AcDbLine
 10
223.9121819851654
 20
14.99999984592818
 30
0.0
 11
223.9121819851656
 21
0.399999845928221
 31
0.0
  0
LINE
  5
27DA
330
1A
100
AcDbEntity
  8
ZUWAKU
100
AcDbLine
 10
223.7121819851655
 20
14.99999984592818
 30
0.0
 11
223.7121819851655
 21
0.399999845928221
 31
0.0
  0
TEXT
  5
27DB
330
1A
100
AcDbEntity
  8
MOJI
100
AcDbText
 10
264.0204539858263
 20
9.00246037463188
 30
0.0
 40
2.799999999999999
  1
Ａ３
 41
0.9
  7
ｽﾀｲﾙ1
100
AcDbText
  0
LINE
  5
27DC
330
1A
100
AcDbEntity
  8
ZUWAKU
100
AcDbLine
 10
252.4995897487402
 20
14.99999984592818
 30
0.0
 11
252.4995897487404
 21
0.399999845928221
 31
0.0
  0
LINE
  5
27DD
330
1A
100
AcDbEntity
  8
ZUWAKU
100
AcDbLine
 10
252.5995897487403
 20
14.99999984592818
 30
0.0
 11
252.5995897487404
 21
0.399999845928221
 31
0.0
  0
LINE
  5
27DE
330
1A
100
AcDbEntity
  8
ZUWAKU
100
AcDbLine
 10
252.3995897487403
 20
14.99999984592818
 30
0.0
 11
252.3995897487403
 21
0.399999845928221
 31
0.0
  0
TEXT
  5
27DF
330
1A
100
AcDbEntity
  8
ZUWAKU
100
AcDbText
 10
253.3383122598452
 20
4.827678115120995
 30
0.0
 40
2.0
  1
縮尺
 41
0.9
  7
ｽﾀｲﾙ1
100
AcDbText
  0
TEXT
  5
27E0
330
1A
100
AcDbEntity
  8
MOJI
100
AcDbText
 10
264.0204539858263
 20
1.602460374631897
 30
0.0
 40
2.799999999999999
  1
１/１
 41
0.9
  7
ｽﾀｲﾙ1
100
AcDbText
  0
TEXT
  5
27E1
330
1A
100
AcDbEntity
  8
ZUWAKU
100
AcDbText
 10
224.6509044962702
 20
12.02767811512097
 30
0.0
 40
2.0
  1
品番
 41
0.9
  7
ｽﾀｲﾙ1
100
AcDbText
  0
TEXT
  5
27E2
330
1A
100
AcDbEntity
  8
ZUWAKU
100
AcDbText
 10
253.3383122598451
 20
12.02767811512097
 30
0.0
 40
2.0
  1
用紙
 41
0.9
  7
ｽﾀｲﾙ1
100
AcDbText
  0
LINE
  5
27E3
330
1A
100
AcDbEntity
  8
ZUWAKU
100
AcDbLine
 10
324.308601254772
 20
14.99999984592818
 30
0.0
 11
324.3086012547721
 21
0.399999845928221
 31
0.0
  0
LINE
  5
27E4
330
1A
100
AcDbEntity
  8
ZUWAKU
100
AcDbLine
 10
324.408601254772
 20
14.99999984592818
 30
0.0
 11
324.4086012547721
 21
0.399999845928221
 31
0.0
  0
LINE
  5
27E5
330
1A
100
AcDbEntity
  8
ZUWAKU
100
AcDbLine
 10
324.2086012547721
 20
14.99999984592818
 30
0.0
 11
324.2086012547721
 21
0.399999845928221
 31
0.0
  0
LINE
  5
27E6
330
1A
100
AcDbEntity
  8
ZUWAKU
100
AcDbLine
 10
276.3634778827259
 20
14.99999984592818
 30
0.0
 11
276.3634778827261
 21
0.399999845928221
 31
0.0
  0
LINE
  5
27E7
330
1A
100
AcDbEntity
  8
ZUWAKU
100
AcDbLine
 10
276.463477882726
 20
14.99999984592818
 30
0.0
 11
276.4634778827261
 21
0.399999845928221
 31
0.0
  0
LINE
  5
27E8
330
1A
100
AcDbEntity
  8
ZUWAKU
100
AcDbLine
 10
276.263477882726
 20
14.99999984592818
 30
0.0
 11
276.263477882726
 21
0.399999845928221
 31
0.0
  0
TEXT
  5
27E9
330
1A
100
AcDbEntity
  8
ZUWAKU
100
AcDbText
 10
325.1473237658768
 20
12.02767811512097
 30
0.0
 40
2.0
  1
DATE
 41
0.9
  7
ｽﾀｲﾙ1
100
AcDbText
  0
LINE
  5
27EA
330
1A
100
AcDbEntity
  8
ZUWAKU
100
AcDbLine
 10
348.6245052739405
 20
14.99999984592818
 30
0.0
 11
348.6245052739405
 21
0.399999845928221
 31
0.0
  0
LINE
  5
27EB
330
1A
100
AcDbEntity
  8
ZUWAKU
100
AcDbLine
 10
348.7245052739404
 20
14.99999984592818
 30
0.0
 11
348.7245052739404
 21
0.399999845928221
 31
0.0
  0
LINE
  5
27EC
330
1A
100
AcDbEntity
  8
ZUWAKU
100
AcDbLine
 10
348.8245052739404
 20
14.99999984592818
 30
0.0
 11
348.8245052739405
 21
0.399999845928221
 31
0.0
  0
LINE
  5
27ED
330
1A
100
AcDbEntity
  8
ZUWAKU
100
AcDbLine
 10
348.9245052739404
 20
14.99999984592818
 30
0.0
 11
348.9245052739405
 21
0.399999845928221
 31
0.0
  0
TEXT
  5
27EE
330
1A
100
AcDbEntity
  8
ZUWAKU
100
AcDbText
 10
354.2640420957917
 20
8.776919513771588
 30
0.0
 40
3.0
  1
積水化学工業株式会社
 41
0.9
  7
ｽﾀｲﾙ1
100
AcDbText
  0
TEXT
  5
27EF
330
1A
100
AcDbEntity
  8
ZUWAKU
100
AcDbText
 10
354.2640420957917
 20
3.324420002855219
 30
0.0
 40
3.0
  1
建材事業部
 41
0.9
  7
ｽﾀｲﾙ1
100
AcDbText
  0
VIEWPORT
  5
22
330
17
100
AcDbEntity
 67
     1
  8
0
100
AcDbViewport
 10
313.6808219178082
 20
148.5
 30
0.0
 40
627.3616438356165
 41
297.0
 68
     2
 69
     1
1001
ACAD
1000
MVIEW
1002
{
1070
    16
1010
0.0
1020
0.0
1030
0.0
1010
0.0
1020
0.0
1030
1.0
1040
0.0
1040
297.0
1040
313.6808219178082
1040
148.5
1040
50.0
1040
0.0
1040
0.0
1070
     0
1070
   100
1070
     1
1070
     0
1070
     0
1070
     0
1070
     0
1070
     0
1040
0.0
1040
0.0
1040
0.0
1040
1.0
1040
1.0
1040
10.0
1040
10.0
1070
     0
1002
{
1002
}
1002
}
  0
VIEWPORT
  5
64
330
17
100
AcDbEntity
 67
     1
  8
VIEWPORT
100
AcDbViewport
 10
210.0
 20
148.5
 30
0.0
 40
420.0
 41
297.0
 68
     1
 69
     2
1001
ACAD
1000
MVIEW
1002
{
1070
    16
1010
0.0
1020
0.0
1030
0.0
1010
0.0
1020
0.0
1030
1.0
1040
0.0
1040
302.9399999999998
1040
210.0
1040
148.5
1040
50.0
1040
0.0
1040
0.0
1070
     0
1070
   100
1070
     1
1070
     0
1070
     0
1070
     0
1070
     0
1070
     0
1040
0.0
1040
0.0
1040
0.0
1040
5.0
1040
5.0
1040
0.0
1040
0.0
1070
     0
1002
{
1002
}
1002
}
  0
ENDSEC
  0
SECTION
  2
OBJECTS
  0
DICTIONARY
  5
C
330
0
100
AcDbDictionary
  3
ACAD_GROUP
350
D
  3
ACAD_LAYOUT
350
141
  3
ACAD_MLINESTYLE
350
E
  3
ACAD_PLOTSETTINGS
350
142
  3
ACAD_PLOTSTYLENAME
350
13F
  3
ACDBHEADERROUNDTRIPXREC
350
285C
  0
DICTIONARY
  5
73C
330
1A
100
AcDbDictionary
280
     1
  3
ACAD_LAYOUTSELFREF
360
287E
  0
DICTIONARY
  5
73A
330
17
100
AcDbDictionary
280
     1
  3
ACAD_LAYOUTSELFREF
360
287D
  0
DICTIONARY
  5
D
102
{ACAD_REACTORS
330
C
102
}
330
C
100
AcDbDictionary
  0
DICTIONARY
  5
141
102
{ACAD_REACTORS
330
C
102
}
330
C
100
AcDbDictionary
  0
DICTIONARY
  5
E
102
{ACAD_REACTORS
330
C
102
}
330
C
100
AcDbDictionary
  3
STANDARD
350
13
  0
DICTIONARY
  5
142
102
{ACAD_REACTORS
330
C
102
}
330
C
100
AcDbDictionary
  0
ACDBDICTIONARYWDFLT
  5
13F
102
{ACAD_REACTORS
330
C
102
}
330
C
100
AcDbDictionary
281
     1
  3
Normal
350
140
100
AcDbDictionaryWithDefault
340
140
1001
ACAD
1000
TREAT_AS_HARD
1070
     0
1000
TREAT_AS_HARD
1070
     0
1000
TREAT_AS_HARD
1070
     0
1000
TREAT_AS_HARD
1070
     0
1000
TREAT_AS_HARD
1070
     0
1000
TREAT_AS_HARD
1070
     0
1000
TREAT_AS_HARD
1070
     0
1000
TREAT_AS_HARD
1070
     0
  0
DICTIONARY
  5
285C
102
{ACAD_REACTORS
330
C
102
}
330
C
100
AcDbDictionary
  3
TSTACKALIGN
350
285D
  3
TSTACKSIZE
350
285E
  3
HYPERLINKBASE
350
285F
  3
STYLESHEET
350
2860
  3
LAYOUTDICT
350
2861
  3
PLOTSETDICT
350
2862
  3
PLOTSTYLNAMDICT
350
2863
  3
LWETCUNION
350
2864
  3
INSUNITS
350
2865
  3
CEPSNTYPE
350
2866
  3
FINGERPRINTGUID
350
2867
  3
VERSIONGUID
350
2868
  3
PSVPSCALE
350
2869
  3
DIMSTYLEDATA
350
286A
  3
PUCSORTHOREF
350
286B
  3
PUCSORTHOVIEW
350
286C
  3
PUCSBASE
350
286D
  3
PUCSORGTOP
350
286E
  3
PUCSORGBOTTOM
350
286F
  3
PUCSORGLEFT
350
2870
  3
PUCSORGRIGHT
350
2871
  3
PUCSORGFRONT
350
2872
  3
PUCSORGBACK
350
2873
  3
UCSORTHOREF
350
2874
  3
UCSORTHOVIEW
350
2875
  3
UCSBASE
350
2876
  3
UCSORGTOP
350
2877
  3
UCSORGBOTTOM
350
2878
  3
UCSORGLEFT
350
2879
  3
UCSORGRIGHT
350
287A
  3
UCSORGFRONT
350
287B
  3
UCSORGBACK
350
287C
  0
XRECORD
  5
287E
102
{ACAD_REACTORS
330
73C
102
}
330
73C
100
AcDbXrecord
340
1A
  0
XRECORD
  5
287D
102
{ACAD_REACTORS
330
73A
102
}
330
73A
100
AcDbXrecord
340
17
  0
MLINESTYLE
  5
13
102
{ACAD_REACTORS
330
E
102
}
330
E
100
AcDbMlineStyle
  2
STANDARD
 70
     0
  3

 62
     0
 51
90.0
 52
90.0
 71
     2
 49
0.5
 62
   256
  6
BYLAYER
 49
-0.5
 62
   256
  6
BYLAYER
  0
ACDBPLACEHOLDER
  5
140
102
{ACAD_REACTORS
330
13F
102
}
330
13F
100
AcDbPlaceHolder
280
     0
  0
XRECORD
  5
285D
102
{ACAD_REACTORS
330
285C
102
}
330
285C
100
AcDbXrecord
 90
        1
  0
XRECORD
  5
285E
102
{ACAD_REACTORS
330
285C
102
}
330
285C
100
AcDbXrecord
 90
       70
  0
XRECORD
  5
285F
102
{ACAD_REACTORS
330
285C
102
}
330
285C
100
AcDbXrecord
  1

  0
XRECORD
  5
2860
102
{ACAD_REACTORS
330
285C
102
}
330
285C
100
AcDbXrecord
  1
systemprinter.ctb
  0
XRECORD
  5
2861
102
{ACAD_REACTORS
330
285C
102
}
330
285C
100
AcDbXrecord
340
141
  0
XRECORD
  5
2862
102
{ACAD_REACTORS
330
285C
102
}
330
285C
100
AcDbXrecord
340
142
  0
XRECORD
  5
2863
102
{ACAD_REACTORS
330
285C
102
}
330
285C
100
AcDbXrecord
340
13F
  0
XRECORD
  5
2864
102
{ACAD_REACTORS
330
285C
102
}
330
285C
100
AcDbXrecord
 90
    10781
  0
XRECORD
  5
2865
102
{ACAD_REACTORS
330
285C
102
}
330
285C
100
AcDbXrecord
 90
        0
  0
XRECORD
  5
2866
102
{ACAD_REACTORS
330
285C
102
}
330
285C
100
AcDbXrecord
 90
        0
  0
XRECORD
  5
2867
102
{ACAD_REACTORS
330
285C
102
}
330
285C
100
AcDbXrecord
  1
{4E8D0500-CDD1-11D3-932C-444553540000}
  0
XRECORD
  5
2868
102
{ACAD_REACTORS
330
285C
102
}
330
285C
100
AcDbXrecord
  1
{461891C5-0375-47E4-AD5B-74818C1821C5}
  0
XRECORD
  5
2869
102
{ACAD_REACTORS
330
285C
102
}
330
285C
100
AcDbXrecord
 40
0.0
  0
XRECORD
  5
286A
102
{ACAD_REACTORS
330
285C
102
}
330
285C
100
AcDbXrecord
1000
DSTYLE
1002
{
1070
   341
340
B2
1070
   343
340
B2
1070
   344
340
B2
1002
}
  0
XRECORD
  5
286B
102
{ACAD_REACTORS
330
285C
102
}
330
285C
100
AcDbXrecord
340
0
  0
XRECORD
  5
286C
102
{ACAD_REACTORS
330
285C
102
}
330
285C
100
AcDbXrecord
 70
     0
  0
XRECORD
  5
286D
102
{ACAD_REACTORS
330
285C
102
}
330
285C
100
AcDbXrecord
340
0
  0
XRECORD
  5
286E
102
{ACAD_REACTORS
330
285C
102
}
330
285C
100
AcDbXrecord
 10
0.0
 20
0.0
 30
0.0
  0
XRECORD
  5
286F
102
{ACAD_REACTORS
330
285C
102
}
330
285C
100
AcDbXrecord
 10
0.0
 20
0.0
 30
0.0
  0
XRECORD
  5
2870
102
{ACAD_REACTORS
330
285C
102
}
330
285C
100
AcDbXrecord
 10
0.0
 20
0.0
 30
0.0
  0
XRECORD
  5
2871
102
{ACAD_REACTORS
330
285C
102
}
330
285C
100
AcDbXrecord
 10
0.0
 20
0.0
 30
0.0
  0
XRECORD
  5
2872
102
{ACAD_REACTORS
330
285C
102
}
330
285C
100
AcDbXrecord
 10
0.0
 20
0.0
 30
0.0
  0
XRECORD
  5
2873
102
{ACAD_REACTORS
330
285C
102
}
330
285C
100
AcDbXrecord
 10
0.0
 20
0.0
 30
0.0
  0
XRECORD
  5
2874
102
{ACAD_REACTORS
330
285C
102
}
330
285C
100
AcDbXrecord
340
0
  0
XRECORD
  5
2875
102
{ACAD_REACTORS
330
285C
102
}
330
285C
100
AcDbXrecord
 70
     0
  0
XRECORD
  5
2876
102
{ACAD_REACTORS
330
285C
102
}
330
285C
100
AcDbXrecord
340
0
  0
XRECORD
  5
2877
102
{ACAD_REACTORS
330
285C
102
}
330
285C
100
AcDbXrecord
 10
0.0
 20
0.0
 30
0.0
  0
XRECORD
  5
2878
102
{ACAD_REACTORS
330
285C
102
}
330
285C
100
AcDbXrecord
 10
0.0
 20
0.0
 30
0.0
  0
XRECORD
  5
2879
102
{ACAD_REACTORS
330
285C
102
}
330
285C
100
AcDbXrecord
 10
0.0
 20
0.0
 30
0.0
  0
XRECORD
  5
287A
102
{ACAD_REACTORS
330
285C
102
}
330
285C
100
AcDbXrecord
 10
0.0
 20
0.0
 30
0.0
  0
XRECORD
  5
287B
102
{ACAD_REACTORS
330
285C
102
}
330
285C
100
AcDbXrecord
 10
0.0
 20
0.0
 30
0.0
  0
XRECORD
  5
287C
102
{ACAD_REACTORS
330
285C
102
}
330
285C
100
AcDbXrecord
 10
0.0
 20
0.0
 30
0.0
  0
ENDSEC
  0
EOF
