  0
SECTION
  2
HEADER
  9
$ACADVER
  1
AC1014
  9
$ACADMAINTVER
 70
     9
  9
$DWGCODEPAGE
  3
ANSI_932
  9
$INSBASE
 10
0.0
 20
0.0
 30
0.0
  9
$EXTMIN
 10
-0.0128164052688362
 20
-0.0090631832831605
 30
-0.0000000100021362
  9
$EXTMAX
 10
398.800049781317
 20
275.8226172330157
 30
0.0000000100021363
  9
$LIMMIN
 10
0.0
 20
0.0
  9
$LIMMAX
 10
420.0
 20
297.0
  9
$ORTHOMODE
 70
     0
  9
$REGENMODE
 70
     1
  9
$FILLMODE
 70
     1
  9
$QTEXTMODE
 70
     0
  9
$MIRRTEXT
 70
     1
  9
$DRAGMODE
 70
     2
  9
$LTSCALE
 40
5.0
  9
$OSMODE
 70
    35
  9
$ATTMODE
 70
     1
  9
$TEXTSIZE
 40
4.0
  9
$TRACEWID
 40
1.0
  9
$TEXTSTYLE
  7
STANDARD
  9
$CLAYER
  8
SUNPOU
  9
$CELTYPE
  6
BYLAYER
  9
$CECOLOR
 62
   256
  9
$CELTSCALE
 40
1.0
  9
$DELOBJ
 70
     1
  9
$DISPSILH
 70
     0
  9
$DIMSCALE
 40
1.0
  9
$DIMASZ
 40
3.0
  9
$DIMEXO
 40
3.0
  9
$DIMDLI
 40
7.0
  9
$DIMRND
 40
0.0
  9
$DIMDLE
 40
0.0
  9
$DIMEXE
 40
1.5
  9
$DIMTP
 40
0.0
  9
$DIMTM
 40
0.0
  9
$DIMTXT
 40
3.0
  9
$DIMCEN
 40
3.0
  9
$DIMTSZ
 40
0.0
  9
$DIMTOL
 70
     0
  9
$DIMLIM
 70
     0
  9
$DIMTIH
 70
     0
  9
$DIMTOH
 70
     0
  9
$DIMSE1
 70
     0
  9
$DIMSE2
 70
     0
  9
$DIMTAD
 70
     3
  9
$DIMZIN
 70
     0
  9
$DIMBLK
  1

  9
$DIMASO
 70
     1
  9
$DIMSHO
 70
     1
  9
$DIMPOST
  1

  9
$DIMAPOST
  1

  9
$DIMALT
 70
     0
  9
$DIMALTD
 70
     2
  9
$DIMALTF
 40
25.4
  9
$DIMLFAC
 40
1.0
  9
$DIMTOFL
 70
     1
  9
$DIMTVP
 40
0.0
  9
$DIMTIX
 70
     0
  9
$DIMSOXD
 70
     0
  9
$DIMSAH
 70
     1
  9
$DIMBLK1
  1
OPEN
  9
$DIMBLK2
  1
OPEN
  9
$DIMSTYLE
  2
STANDARD
  9
$DIMCLRD
 70
     4
  9
$DIMCLRE
 70
     4
  9
$DIMCLRT
 70
     4
  9
$DIMTFAC
 40
1.0
  9
$DIMGAP
 40
1.0
  9
$DIMJUST
 70
     0
  9
$DIMSD1
 70
     0
  9
$DIMSD2
 70
     0
  9
$DIMTOLJ
 70
     1
  9
$DIMTZIN
 70
     0
  9
$DIMALTZ
 70
     0
  9
$DIMALTTZ
 70
     0
  9
$DIMFIT
 70
     3
  9
$DIMUPT
 70
     0
  9
$DIMUNIT
 70
     2
  9
$DIMDEC
 70
     0
  9
$DIMTDEC
 70
     2
  9
$DIMALTU
 70
     2
  9
$DIMALTTD
 70
     2
  9
$DIMTXSTY
  7
STANDARD
  9
$DIMAUNIT
 70
     0
  9
$LUNITS
 70
     2
  9
$LUPREC
 70
     4
  9
$SKETCHINC
 40
1.0
  9
$FILLETRAD
 40
10.0
  9
$AUNITS
 70
     0
  9
$AUPREC
 70
     2
  9
$MENU
  1
.
  9
$ELEVATION
 40
0.0
  9
$PELEVATION
 40
0.0
  9
$THICKNESS
 40
0.0
  9
$LIMCHECK
 70
     0
  9
$BLIPMODE
 70
     0
  9
$CHAMFERA
 40
10.0
  9
$CHAMFERB
 40
10.0
  9
$CHAMFERC
 40
20.0
  9
$CHAMFERD
 40
0.0
  9
$SKPOLY
 70
     0
  9
$TDCREATE
 40
2451569.441154629
  9
$TDUPDATE
 40
2453805.460467477
  9
$TDINDWG
 40
0.4954602315
  9
$TDUSRTIMER
 40
0.4954596528
  9
$USRTIMER
 70
     1
  9
$ANGBASE
 50
0.0
  9
$ANGDIR
 70
     0
  9
$PDMODE
 70
     0
  9
$PDSIZE
 40
0.0
  9
$PLINEWID
 40
0.0
  9
$COORDS
 70
     1
  9
$SPLFRAME
 70
     0
  9
$SPLINETYPE
 70
     6
  9
$SPLINESEGS
 70
     8
  9
$ATTDIA
 70
     0
  9
$ATTREQ
 70
     1
  9
$HANDLING
 70
 10241
  9
$HANDSEED
  5
323A
  9
$SURFTAB1
 70
     6
  9
$SURFTAB2
 70
     6
  9
$SURFTYPE
 70
     6
  9
$SURFU
 70
     6
  9
$SURFV
 70
     6
  9
$UCSNAME
  2

  9
$UCSORG
 10
0.0
 20
0.0
 30
0.0
  9
$UCSXDIR
 10
1.0
 20
0.0
 30
0.0
  9
$UCSYDIR
 10
0.0
 20
1.0
 30
0.0
  9
$PUCSNAME
  2

  9
$PUCSORG
 10
0.0
 20
0.0
 30
0.0
  9
$PUCSXDIR
 10
1.0
 20
0.0
 30
0.0
  9
$PUCSYDIR
 10
0.0
 20
1.0
 30
0.0
  9
$USERI1
 70
     0
  9
$USERI2
 70
     0
  9
$USERI3
 70
     0
  9
$USERI4
 70
     0
  9
$USERI5
 70
     0
  9
$USERR1
 40
0.0
  9
$USERR2
 40
0.0
  9
$USERR3
 40
0.0
  9
$USERR4
 40
0.0
  9
$USERR5
 40
0.0
  9
$WORLDVIEW
 70
     1
  9
$SHADEDGE
 70
     3
  9
$SHADEDIF
 70
    70
  9
$TILEMODE
 70
     1
  9
$MAXACTVP
 70
    16
  9
$PINSBASE
 10
0.0
 20
0.0
 30
0.0
  9
$PLIMCHECK
 70
     0
  9
$PEXTMIN
 10
0.0
 20
0.0
 30
0.0
  9
$PEXTMAX
 10
420.0
 20
297.0
 30
0.0
  9
$PLIMMIN
 10
0.0
 20
0.0
  9
$PLIMMAX
 10
420.0
 20
297.0
  9
$UNITMODE
 70
     0
  9
$VISRETAIN
 70
     0
  9
$PLINEGEN
 70
     0
  9
$PSLTSCALE
 70
     1
  9
$TREEDEPTH
 70
  3020
  9
$PICKSTYLE
 70
     1
  9
$CMLSTYLE
  2
STANDARD
  9
$CMLJUST
 70
     0
  9
$CMLSCALE
 40
1.0
  9
$PROXYGRAPHICS
 70
     1
  9
$MEASUREMENT
 70
     0
  0
ENDSEC
  0
SECTION
  2
CLASSES
  0
CLASS
  1
ACDBDICTIONARYWDFLT
  2
AcDbDictionaryWithDefault
  3
AutoCAD 2000
 90
        0
280
     0
281
     0
  0
CLASS
  1
ACDBPLACEHOLDER
  2
AcDbPlaceHolder
  3
AutoCAD 2000
 90
        0
280
     0
281
     0
  0
CLASS
  1
LAYOUT
  2
AcDbLayout
  3
AutoCAD 2000
 90
        0
280
     0
281
     0
  0
CLASS
  1
LONG_TRANSACTION
  2
AcDbLongTransaction
  3
AutoCAD 2000
 90
        0
280
     0
281
     0
  0
CLASS
  1
LWPOLYLINE
  2
AcDbPolyline
  3
AutoCAD 2000
 90
        0
280
     0
281
     1
  0
CLASS
  1
HATCH
  2
AcDbHatch
  3
AutoCAD 2000
 90
        0
280
     0
281
     1
  0
CLASS
  1
XRECORD
  2
AcDbXrecord
  3
AutoCAD 2000
 90
        0
280
     0
281
     0
  0
CLASS
  1
LONG_TRANSACTION
  2
AcDbLongTransaction
  3
AutoCAD 2000
 90
        0
280
     0
281
     0
  0
CLASS
  1
LWPOLYLINE
  2
AcDbPolyline
  3
AutoCAD 2000
 90
        0
280
     0
281
     1
  0
CLASS
  1
HATCH
  2
AcDbHatch
  3
AutoCAD 2000
 90
        0
280
     0
281
     1
  0
CLASS
  1
XRECORD
  2
AcDbXrecord
  3
AutoCAD 2000
 90
        0
280
     0
281
     0
  0
CLASS
  1
LONG_TRANSACTION
  2
AcDbLongTransaction
  3
AutoCAD 2000
 90
        0
280
     0
281
     0
  0
CLASS
  1
LWPOLYLINE
  2
AcDbPolyline
  3
AutoCAD 2000
 90
        0
280
     0
281
     1
  0
CLASS
  1
HATCH
  2
AcDbHatch
  3
AutoCAD 2000
 90
        0
280
     0
281
     1
  0
CLASS
  1
XRECORD
  2
AcDbXrecord
  3
AutoCAD 2000
 90
        0
280
     0
281
     0
  0
CLASS
  1
LONG_TRANSACTION
  2
AcDbLongTransaction
  3
AutoCAD 2000
 90
        0
280
     0
281
     0
  0
CLASS
  1
LWPOLYLINE
  2
AcDbPolyline
  3
AutoCAD 2000
 90
        0
280
     0
281
     1
  0
CLASS
  1
HATCH
  2
AcDbHatch
  3
AutoCAD 2000
 90
        0
280
     0
281
     1
  0
CLASS
  1
XRECORD
  2
AcDbXrecord
  3
AutoCAD 2000
 90
        0
280
     0
281
     0
  0
CLASS
  1
LONG_TRANSACTION
  2
AcDbLongTransaction
  3
AutoCAD 2000
 90
        0
280
     0
281
     0
  0
CLASS
  1
LWPOLYLINE
  2
AcDbPolyline
  3
AutoCAD 2000
 90
        0
280
     0
281
     1
  0
CLASS
  1
HATCH
  2
AcDbHatch
  3
AutoCAD 2000
 90
        0
280
     0
281
     1
  0
CLASS
  1
XRECORD
  2
AcDbXrecord
  3
AutoCAD 2000
 90
        0
280
     0
281
     0
  0
CLASS
  1
LONG_TRANSACTION
  2
AcDbLongTransaction
  3
AutoCAD 2000
 90
        0
280
     0
281
     0
  0
CLASS
  1
LWPOLYLINE
  2
AcDbPolyline
  3
AutoCAD 2000
 90
        0
280
     0
281
     1
  0
CLASS
  1
HATCH
  2
AcDbHatch
  3
AutoCAD 2000
 90
        0
280
     0
281
     1
  0
CLASS
  1
XRECORD
  2
AcDbXrecord
  3
AutoCAD 2000
 90
        0
280
     0
281
     0
  0
CLASS
  1
LONG_TRANSACTION
  2
AcDbLongTransaction
  3
AutoCAD 2000
 90
        0
280
     0
281
     0
  0
CLASS
  1
LWPOLYLINE
  2
AcDbPolyline
  3
AutoCAD 2000
 90
        0
280
     0
281
     1
  0
CLASS
  1
HATCH
  2
AcDbHatch
  3
AutoCAD 2000
 90
        0
280
     0
281
     1
  0
CLASS
  1
XRECORD
  2
AcDbXrecord
  3
AutoCAD 2000
 90
        0
280
     0
281
     0
  0
CLASS
  1
LONG_TRANSACTION
  2
AcDbLongTransaction
  3
AutoCAD 2000
 90
        0
280
     0
281
     0
  0
CLASS
  1
LWPOLYLINE
  2
AcDbPolyline
  3
AutoCAD 2000
 90
        0
280
     0
281
     1
  0
CLASS
  1
HATCH
  2
AcDbHatch
  3
AutoCAD 2000
 90
        0
280
     0
281
     1
  0
CLASS
  1
XRECORD
  2
AcDbXrecord
  3
AutoCAD 2000
 90
        0
280
     0
281
     0
  0
CLASS
  1
LONG_TRANSACTION
  2
AcDbLongTransaction
  3
AutoCAD 2000
 90
        0
280
     0
281
     0
  0
CLASS
  1
LWPOLYLINE
  2
AcDbPolyline
  3
AutoCAD 2000
 90
        0
280
     0
281
     1
  0
CLASS
  1
HATCH
  2
AcDbHatch
  3
AutoCAD 2000
 90
        0
280
     0
281
     1
  0
CLASS
  1
XRECORD
  2
AcDbXrecord
  3
AutoCAD 2000
 90
        0
280
     0
281
     0
  0
CLASS
  1
LONG_TRANSACTION
  2
AcDbLongTransaction
  3
AutoCAD 2000
 90
        0
280
     0
281
     0
  0
CLASS
  1
LWPOLYLINE
  2
AcDbPolyline
  3
AutoCAD 2000
 90
        0
280
     0
281
     1
  0
CLASS
  1
HATCH
  2
AcDbHatch
  3
AutoCAD 2000
 90
        0
280
     0
281
     1
  0
CLASS
  1
XRECORD
  2
AcDbXrecord
  3
AutoCAD 2000
 90
        0
280
     0
281
     0
  0
ENDSEC
  0
SECTION
  2
TABLES
  0
TABLE
  2
VPORT
  5
8
330
0
100
AcDbSymbolTable
 70
     2
  0
VPORT
  5
3216
330
8
100
AcDbSymbolTableRecord
100
AcDbViewportTableRecord
  2
*ACTIVE
 70
     0
 10
0.0
 20
0.0
 11
1.0
 21
1.0
 12
229.0947357259846
 22
134.3865058885672
 13
0.0
 23
0.0
 14
5.0
 24
5.0
 15
0.0
 25
0.0
 16
0.0
 26
0.0
 36
1.0
 17
0.0
 27
0.0
 37
0.0
 40
329.9722013962866
 41
1.795454545454545
 42
50.0
 43
0.0
 44
0.0
 50
0.0
 51
0.0
 71
     0
 72
   100
 73
     1
 74
     0
 75
     0
 76
     0
 77
     0
 78
     0
  0
ENDTAB
  0
TABLE
  2
LTYPE
  5
5
330
0
100
AcDbSymbolTable
 70
     3
  0
LTYPE
  5
14
330
5
100
AcDbSymbolTableRecord
100
AcDbLinetypeTableRecord
  2
BYBLOCK
 70
     0
  3

 72
    65
 73
     0
 40
0.0
  0
LTYPE
  5
15
330
5
100
AcDbSymbolTableRecord
100
AcDbLinetypeTableRecord
  2
BYLAYER
 70
     0
  3

 72
    65
 73
     0
 40
0.0
  0
LTYPE
  5
16
330
5
100
AcDbSymbolTableRecord
100
AcDbLinetypeTableRecord
  2
CONTINUOUS
 70
     0
  3
Solid line
 72
    65
 73
     0
 40
0.0
  0
LTYPE
  5
120
330
5
100
AcDbSymbolTableRecord
100
AcDbLinetypeTableRecord
  2
CENTER
 70
     0
  3
____ _ ____ _ ____ _ ____ _ ____ _ ____ _ ____ 
 72
    65
 73
     4
 40
2.0
 49
1.25
 74
     0
 49
-0.25
 74
     0
 49
0.25
 74
     0
 49
-0.25
 74
     0
  0
LTYPE
  5
2ED1
330
5
100
AcDbSymbolTableRecord
100
AcDbLinetypeTableRecord
  2
PHANTOM
 70
     0
  3
______  __  __  ______  __  __  ______  __  __ 
 72
    65
 73
     6
 40
2.5
 49
1.25
 74
     0
 49
-0.25
 74
     0
 49
0.25
 74
     0
 49
-0.25
 74
     0
 49
0.25
 74
     0
 49
-0.25
 74
     0
  0
ENDTAB
  0
TABLE
  2
LAYER
  5
2
330
0
100
AcDbSymbolTable
 70
     9
  0
LAYER
  5
F
330
2
100
AcDbSymbolTableRecord
100
AcDbLayerTableRecord
  2
0
 70
     0
 62
     7
  6
CONTINUOUS
  0
LAYER
  5
62
330
2
100
AcDbSymbolTableRecord
100
AcDbLayerTableRecord
  2
VIEWPORT
 70
     0
 62
     7
  6
CONTINUOUS
  0
LAYER
  5
6B
330
2
100
AcDbSymbolTableRecord
100
AcDbLayerTableRecord
  2
ZUWAKU
 70
     0
 62
     7
  6
CONTINUOUS
  0
LAYER
  5
48C
330
2
100
AcDbSymbolTableRecord
100
AcDbLayerTableRecord
  2
DEFPOINTS
 70
     0
 62
     7
  6
CONTINUOUS
  0
LAYER
  5
629
330
2
100
AcDbSymbolTableRecord
100
AcDbLayerTableRecord
  2
SEIHIN
 70
     0
 62
     3
  6
CONTINUOUS
  0
LAYER
  5
62A
330
2
100
AcDbSymbolTableRecord
100
AcDbLayerTableRecord
  2
SUNPOU
 70
     0
 62
     4
  6
CONTINUOUS
  0
LAYER
  5
62B
330
2
100
AcDbSymbolTableRecord
100
AcDbLayerTableRecord
  2
CENTER_L
 70
     0
 62
     1
  6
CENTER
  0
LAYER
  5
2ED2
330
2
100
AcDbSymbolTableRecord
100
AcDbLayerTableRecord
  2
NOKITOI
 70
     0
 62
     8
  6
PHANTOM
  0
LAYER
  5
303C
330
2
100
AcDbSymbolTableRecord
100
AcDbLayerTableRecord
  2
MOJI
 70
     0
 62
     2
  6
CONTINUOUS
  0
ENDTAB
  0
TABLE
  2
STYLE
  5
3
330
0
100
AcDbSymbolTable
 70
     2
  0
STYLE
  5
10
330
3
100
AcDbSymbolTableRecord
100
AcDbTextStyleTableRecord
  2
STANDARD
 70
     0
 40
0.0
 41
1.0
 50
0.0
 71
     0
 42
4.0
  3
TXT
  4
bigfont.shx
  0
STYLE
  5
303D
330
3
100
AcDbSymbolTableRecord
100
AcDbTextStyleTableRecord
  2
ｽﾀｲﾙ1
 70
     0
 40
0.0
 41
1.0
 50
0.0
 71
     0
 42
2.5
  3
MS PGothic.ttf
  4

1001
ACAD
1000
MS PGothic
1071
    32818
  0
ENDTAB
  0
TABLE
  2
VIEW
  5
6
330
0
100
AcDbSymbolTable
 70
     0
  0
ENDTAB
  0
TABLE
  2
UCS
  5
7
330
0
100
AcDbSymbolTable
 70
     0
  0
ENDTAB
  0
TABLE
  2
APPID
  5
9
330
0
100
AcDbSymbolTable
 70
     1
  0
APPID
  5
11
330
9
100
AcDbSymbolTableRecord
100
AcDbRegAppTableRecord
  2
ACAD
 70
     0
  0
ENDTAB
  0
TABLE
  2
DIMSTYLE
  5
A
330
0
100
AcDbSymbolTable
 70
     1
  0
DIMSTYLE
105
1D
102
{ACAD_REACTORS
330
2DEB
330
2DEF
330
2DF0
330
2DF1
330
2E3E
330
2E65
330
2E80
330
2E8D
330
2EBC
330
2F7D
330
2F9D
102
}
330
A
100
AcDbSymbolTableRecord
100
AcDbDimStyleTableRecord
  2
STANDARD
 70
     0
  3

  4

  5

  6

  7

 40
1.0
 41
0.18
 42
0.0625
 43
0.38
 44
0.18
 45
0.0
 46
0.0
 47
0.0
 48
0.0
140
0.18
141
0.09
142
0.0
143
25.4
144
1.0
145
0.0
146
1.0
147
0.09
 71
     0
 72
     0
 73
     1
 74
     1
 75
     0
 76
     0
 77
     0
 78
     0
170
     0
171
     2
172
     0
173
     0
174
     0
175
     0
176
     0
177
     0
178
     0
270
     2
271
     4
272
     4
273
     2
274
     2
340
10
275
     0
280
     0
281
     0
282
     0
283
     1
284
     0
285
     0
286
     0
287
     3
288
     0
  0
ENDTAB
  0
TABLE
  2
BLOCK_RECORD
  5
1
330
0
100
AcDbSymbolTable
 70
    12
  0
BLOCK_RECORD
  5
1A
102
{ACAD_XDICTIONARY
360
73C
102
}
330
1
100
AcDbSymbolTableRecord
100
AcDbBlockTableRecord
  2
*MODEL_SPACE
  0
BLOCK_RECORD
  5
17
102
{ACAD_XDICTIONARY
360
73A
102
}
330
1
100
AcDbSymbolTableRecord
100
AcDbBlockTableRecord
  2
*PAPER_SPACE
  0
BLOCK_RECORD
  5
B2
330
1
100
AcDbSymbolTableRecord
100
AcDbBlockTableRecord
  2
_OPEN
  0
BLOCK_RECORD
  5
2DFA
330
1
100
AcDbSymbolTableRecord
100
AcDbBlockTableRecord
  2
*D1
  0
BLOCK_RECORD
  5
2E12
330
1
100
AcDbSymbolTableRecord
100
AcDbBlockTableRecord
  2
*D2
  0
BLOCK_RECORD
  5
2E1E
330
1
100
AcDbSymbolTableRecord
100
AcDbBlockTableRecord
  2
*D3
  0
BLOCK_RECORD
  5
2E2C
330
1
100
AcDbSymbolTableRecord
100
AcDbBlockTableRecord
  2
*D4
  0
BLOCK_RECORD
  5
2E43
330
1
100
AcDbSymbolTableRecord
100
AcDbBlockTableRecord
  2
*D5
  0
BLOCK_RECORD
  5
2E68
330
1
100
AcDbSymbolTableRecord
100
AcDbBlockTableRecord
  2
*D6
  0
BLOCK_RECORD
  5
2E74
330
1
100
AcDbSymbolTableRecord
100
AcDbBlockTableRecord
  2
*D7
  0
BLOCK_RECORD
  5
2E81
330
1
100
AcDbSymbolTableRecord
100
AcDbBlockTableRecord
  2
*D8
  0
BLOCK_RECORD
  5
2EB0
330
1
100
AcDbSymbolTableRecord
100
AcDbBlockTableRecord
  2
*D9
  0
BLOCK_RECORD
  5
2F7E
330
1
100
AcDbSymbolTableRecord
100
AcDbBlockTableRecord
  2
*D10
  0
BLOCK_RECORD
  5
2F9E
330
1
100
AcDbSymbolTableRecord
100
AcDbBlockTableRecord
  2
*D11
  0
ENDTAB
  0
ENDSEC
  0
SECTION
  2
BLOCKS
  0
BLOCK
  5
1B
330
1A
100
AcDbEntity
  8
0
100
AcDbBlockBegin
  2
*MODEL_SPACE
 70
     0
 10
0.0
 20
0.0
 30
0.0
  3
*MODEL_SPACE
  1

  0
ENDBLK
  5
1C
330
1A
100
AcDbEntity
  8
0
100
AcDbBlockEnd
  0
BLOCK
  5
18
330
17
100
AcDbEntity
 67
     1
  8
0
100
AcDbBlockBegin
  2
*PAPER_SPACE
 70
     0
 10
0.0
 20
0.0
 30
0.0
  3
*PAPER_SPACE
  1

  0
ENDBLK
  5
19
330
17
100
AcDbEntity
 67
     1
  8
0
100
AcDbBlockEnd
  0
BLOCK
  5
B3
330
B2
100
AcDbEntity
  8
0
100
AcDbBlockBegin
  2
_OPEN
 70
     0
 10
0.0
 20
0.0
 30
0.0
  3
_OPEN
  1

  0
LINE
  5
B4
330
B2
100
AcDbEntity
  8
0
  6
BYBLOCK
 62
     0
100
AcDbLine
 10
-1.0
 20
0.1666666666666666
 30
0.0
 11
0.0
 21
0.0
 31
0.0
  0
LINE
  5
B5
330
B2
100
AcDbEntity
  8
0
  6
BYBLOCK
 62
     0
100
AcDbLine
 10
0.0
 20
0.0
 30
0.0
 11
-1.0
 21
-0.1666666666666666
 31
0.0
  0
LINE
  5
B6
330
B2
100
AcDbEntity
  8
0
  6
BYBLOCK
 62
     0
100
AcDbLine
 10
0.0
 20
0.0
 30
0.0
 11
-1.0
 21
0.0
 31
0.0
  0
ENDBLK
  5
B7
330
B2
100
AcDbEntity
  8
0
100
AcDbBlockEnd
  0
BLOCK
  5
2DFB
330
2DFA
100
AcDbEntity
  8
0
100
AcDbBlockBegin
  2
*D1
 70
     1
 10
0.0
 20
0.0
 30
0.0
  3
*D1
  1

  0
LINE
  5
31D8
330
2DFA
100
AcDbEntity
  8
SUNPOU
  6
CONTINUOUS
100
AcDbLine
 10
283.5949603989259
 20
118.3193481920709
 30
0.0
 11
262.4859407293299
 21
171.0956624184529
 31
0.0
  0
LINE
  5
31D9
330
2DFA
100
AcDbEntity
  8
SUNPOU
  6
CONTINUOUS
100
AcDbLine
 10
340.2325958054614
 20
140.9727862436418
 30
0.0
 11
319.1235761690657
 21
193.7491003870171
 31
0.0
  0
LINE
  5
31DA
330
2DFA
100
AcDbEntity
  8
SUNPOU
  6
CONTINUOUS
100
AcDbLine
 10
265.8284499632979
 20
170.8170371847823
 30
0.0
 11
316.8951704417482
 21
191.242268140045
 31
0.0
  0
INSERT
  5
31DB
330
2DFA
100
AcDbEntity
  8
SUNPOU
  6
CONTINUOUS
100
AcDbBlockReference
  2
_OPEN
 10
263.0429924826552
 20
169.7029336781316
 30
0.0
 41
3.0
 42
3.0
 43
3.0
 50
201.7999999999998
  0
INSERT
  5
31DC
330
2DFA
100
AcDbEntity
  8
SUNPOU
  6
CONTINUOUS
100
AcDbBlockReference
  2
_OPEN
 10
319.680627922391
 20
192.3563716466957
 30
0.0
 41
3.0
 42
3.0
 43
3.0
 50
21.79999999999982
  0
MTEXT
  5
31DD
330
2DFA
100
AcDbEntity
  8
SUNPOU
  6
CONTINUOUS
100
AcDbMText
 10
290.4333906136475
 20
183.3508672296159
 30
0.0
 40
3.0
 41
0.0
 71
     5
 72
     1
  1
\A1;61
 11
0.9284858268809148
 21
0.3713678355502321
 31
0.0
1001
ACAD
1000
MTEXTBEGIN
1070
    73
1070
     1
1070
    44
1040
1.0
1070
    74
1070
     0
1000
MTEXTEND
  0
POINT
  5
31DE
330
2DFA
100
AcDbEntity
  8
DEFPOINTS
  6
CONTINUOUS
 62
     0
100
AcDbPoint
 10
284.7090639055766
 20
115.5338907114281
 30
0.0
  0
POINT
  5
31DF
330
2DFA
100
AcDbEntity
  8
DEFPOINTS
  6
CONTINUOUS
 62
     0
100
AcDbPoint
 10
341.3466993121121
 20
138.1873287629991
 30
0.0
  0
POINT
  5
31E0
330
2DFA
100
AcDbEntity
  8
DEFPOINTS
  6
CONTINUOUS
 62
     0
100
AcDbPoint
 10
319.680627922391
 20
192.3563716466957
 30
0.0
  0
ENDBLK
  5
2E05
330
2DFA
100
AcDbEntity
  8
0
100
AcDbBlockEnd
  0
BLOCK
  5
2E13
330
2E12
100
AcDbEntity
  8
0
100
AcDbBlockBegin
  2
*D2
 70
     1
 10
0.0
 20
0.0
 30
0.0
  3
*D2
  1

  0
LINE
  5
31EC
330
2E12
100
AcDbEntity
  8
SUNPOU
  6
CONTINUOUS
100
AcDbLine
 10
283.8499540288267
 20
117.7773398193286
 30
0.0
 11
267.1091447655855
 21
111.0814938285136
 31
0.0
  0
LINE
  5
31ED
330
2E12
100
AcDbEntity
  8
SUNPOU
  6
CONTINUOUS
100
AcDbLine
 10
296.847828274801
 20
85.28033587918312
 30
0.0
 11
280.1070190098436
 21
78.58448988768166
 31
0.0
  0
LINE
  5
31EE
330
2E12
100
AcDbEntity
  8
SUNPOU
  6
CONTINUOUS
100
AcDbLine
 10
269.6159770125576
 20
108.8530881011962
 30
0.0
 11
280.3856442435143
 21
81.92699912164973
 31
0.0
  0
INSERT
  5
31EF
330
2E12
100
AcDbEntity
  8
SUNPOU
  6
CONTINUOUS
100
AcDbBlockReference
  2
_OPEN
 10
268.5018735059069
 20
111.6385455818389
 30
0.0
 41
3.0
 42
3.0
 43
3.0
 50
111.7999999999997
  0
INSERT
  5
31F0
330
2E12
100
AcDbEntity
  8
SUNPOU
  6
CONTINUOUS
100
AcDbBlockReference
  2
_OPEN
 10
281.499747750165
 20
79.141541641007
 30
0.0
 41
3.0
 42
3.0
 43
3.0
 50
291.7999999999997
  0
MTEXT
  5
31F1
330
2E12
100
AcDbEntity
  8
SUNPOU
  6
CONTINUOUS
100
AcDbMText
 10
277.3220251952382
 20
96.31846320029854
 30
0.0
 40
3.0
 41
0.0
 71
     5
 72
     1
  1
\A1;35
 11
0.371367835550231
 21
-0.928485826880915
 31
0.0
1001
ACAD
1000
MTEXTBEGIN
1070
    73
1070
     1
1070
    44
1040
1.0
1070
    74
1070
     0
1000
MTEXTEND
  0
POINT
  5
31F2
330
2E12
100
AcDbEntity
  8
DEFPOINTS
  6
CONTINUOUS
 62
     0
100
AcDbPoint
 10
286.6354115094694
 20
118.8914433259793
 30
0.0
  0
POINT
  5
31F3
330
2E12
100
AcDbEntity
  8
DEFPOINTS
  6
CONTINUOUS
 62
     0
100
AcDbPoint
 10
299.6332857554438
 20
86.39443938583381
 30
0.0
  0
POINT
  5
31F4
330
2E12
100
AcDbEntity
  8
DEFPOINTS
  6
CONTINUOUS
 62
     0
100
AcDbPoint
 10
281.499747750165
 20
79.141541641007
 30
0.0
  0
ENDBLK
  5
2E1D
330
2E12
100
AcDbEntity
  8
0
100
AcDbBlockEnd
  0
BLOCK
  5
2E1F
330
2E1E
100
AcDbEntity
  8
0
100
AcDbBlockBegin
  2
*D3
 70
     1
 10
0.0
 20
0.0
 30
0.0
  3
*D3
  1

  0
LINE
  5
31E1
330
2E1E
100
AcDbEntity
  8
SUNPOU
  6
CONTINUOUS
100
AcDbLine
 10
283.8499540288267
 20
117.7773398193286
 30
0.0
 11
275.3281660559776
 21
114.3688678072934
 31
0.0
  0
LINE
  5
31E2
330
2E1E
100
AcDbEntity
  8
SUNPOU
  6
CONTINUOUS
100
AcDbLine
 10
287.7493825401093
 20
110.7208210398315
 30
0.0
 11
278.2991087403794
 21
106.9409811922461
 31
0.0
  0
LINE
  5
31E3
330
2E1E
100
AcDbEntity
  8
SUNPOU
  6
CONTINUOUS
100
AcDbLine
 10
275.6067912896483
 20
117.7113770412615
 30
0.0
 11
274.4926877829976
 21
120.4968345219042
 31
0.0
  0
LINE
  5
31E4
330
2E1E
100
AcDbEntity
  8
SUNPOU
  6
CONTINUOUS
100
AcDbLine
 10
280.8059409873515
 20
104.7125754649287
 30
0.0
 11
281.9200444940022
 21
101.9271179842859
 31
0.0
  0
LINE
  5
31E5
330
2E1E
100
AcDbEntity
  8
SUNPOU
  6
CONTINUOUS
100
AcDbLine
 10
276.7208947962989
 20
114.9259195606187
 30
0.0
 11
279.6918374807008
 21
107.4980329455714
 31
0.0
  0
INSERT
  5
31E6
330
2E1E
100
AcDbEntity
  8
SUNPOU
  6
CONTINUOUS
100
AcDbBlockReference
  2
_OPEN
 10
276.7208947962989
 20
114.9259195606187
 30
0.0
 41
3.0
 42
3.0
 43
3.0
 50
291.7999999999997
  0
INSERT
  5
31E7
330
2E1E
100
AcDbEntity
  8
SUNPOU
  6
CONTINUOUS
100
AcDbBlockReference
  2
_OPEN
 10
279.6918374807008
 20
107.4980329455714
 30
0.0
 41
3.0
 42
3.0
 43
3.0
 50
111.7999999999997
  0
MTEXT
  5
31E8
330
2E1E
100
AcDbEntity
  8
SUNPOU
  6
CONTINUOUS
100
AcDbMText
 10
280.5275807057021
 20
112.1403958419706
 30
0.0
 40
3.0
 41
0.0
 71
     5
 72
     1
  1
\A1;8
 11
0.371367835550231
 21
-0.928485826880915
 31
0.0
1001
ACAD
1000
MTEXTBEGIN
1070
    73
1070
     1
1070
    44
1040
1.0
1070
    74
1070
     0
1000
MTEXTEND
  0
POINT
  5
31E9
330
2E1E
100
AcDbEntity
  8
DEFPOINTS
  6
CONTINUOUS
 62
     0
100
AcDbPoint
 10
286.6354115094694
 20
118.8914433259793
 30
0.0
  0
POINT
  5
31EA
330
2E1E
100
AcDbEntity
  8
DEFPOINTS
  6
CONTINUOUS
 62
     0
100
AcDbPoint
 10
290.5348400207521
 20
111.8349245464822
 30
0.0
  0
POINT
  5
31EB
330
2E1E
100
AcDbEntity
  8
DEFPOINTS
  6
CONTINUOUS
 62
     0
100
AcDbPoint
 10
279.6918374807008
 20
107.4980329455714
 30
0.0
  0
ENDBLK
  5
2E2B
330
2E1E
100
AcDbEntity
  8
0
100
AcDbBlockEnd
  0
BLOCK
  5
2E2D
330
2E2C
100
AcDbEntity
  8
0
100
AcDbBlockBegin
  2
*D4
 70
     1
 10
0.0
 20
0.0
 30
0.0
  3
*D4
  1

  0
LINE
  5
31FE
330
2E2C
100
AcDbEntity
  8
SUNPOU
  6
CONTINUOUS
100
AcDbLine
 10
294.8053714155638
 20
93.07959032909426
 30
0.0
 11
285.3550976158339
 21
89.29975048150888
 31
0.0
  0
LINE
  5
31FF
330
2E2C
100
AcDbEntity
  8
SUNPOU
  6
CONTINUOUS
100
AcDbLine
 10
296.847828274801
 20
85.28033587918312
 30
0.0
 11
288.3260403002358
 21
81.87186386646152
 31
0.0
  0
LINE
  5
3200
330
2E2C
100
AcDbEntity
  8
SUNPOU
  6
CONTINUOUS
100
AcDbLine
 10
287.861929862806
 20
87.07134475419149
 30
0.0
 11
288.6046655339065
 21
85.2143731004296
 31
0.0
  0
INSERT
  5
3201
330
2E2C
100
AcDbEntity
  8
SUNPOU
  6
CONTINUOUS
100
AcDbBlockReference
  2
_OPEN
 10
286.7478263561553
 20
89.85680223483422
 30
0.0
 41
3.0
 42
3.0
 43
3.0
 50
111.7999999999997
  0
INSERT
  5
3202
330
2E2C
100
AcDbEntity
  8
SUNPOU
  6
CONTINUOUS
100
AcDbBlockReference
  2
_OPEN
 10
289.7187690405572
 20
82.42891561978685
 30
0.0
 41
3.0
 42
3.0
 43
3.0
 50
291.7999999999997
  0
MTEXT
  5
3203
330
2E2C
100
AcDbEntity
  8
SUNPOU
  6
CONTINUOUS
100
AcDbMText
 10
290.5545122655585
 20
87.07127851618608
 30
0.0
 40
3.0
 41
0.0
 71
     5
 72
     1
  1
\A1;8
 11
0.371367835550231
 21
-0.928485826880915
 31
0.0
1001
ACAD
1000
MTEXTBEGIN
1070
    73
1070
     1
1070
    44
1040
1.0
1070
    74
1070
     0
1000
MTEXTEND
  0
POINT
  5
3204
330
2E2C
100
AcDbEntity
  8
DEFPOINTS
  6
CONTINUOUS
 62
     0
100
AcDbPoint
 10
297.5908288962066
 20
94.19369383574496
 30
0.0
  0
POINT
  5
3205
330
2E2C
100
AcDbEntity
  8
DEFPOINTS
  6
CONTINUOUS
 62
     0
100
AcDbPoint
 10
299.6332857554438
 20
86.39443938583381
 30
0.0
  0
POINT
  5
3206
330
2E2C
100
AcDbEntity
  8
DEFPOINTS
  6
CONTINUOUS
 62
     0
100
AcDbPoint
 10
289.7187690405572
 20
82.42891561978685
 30
0.0
  0
ENDBLK
  5
2E39
330
2E2C
100
AcDbEntity
  8
0
100
AcDbBlockEnd
  0
BLOCK
  5
2E44
330
2E43
100
AcDbEntity
  8
0
100
AcDbBlockBegin
  2
*D5
 70
     1
 10
0.0
 20
0.0
 30
0.0
  3
*D5
  1

  0
LINE
  5
3207
330
2E43
100
AcDbEntity
  8
SUNPOU
  6
CONTINUOUS
 62
     4
100
AcDbLine
 10
250.3655044896472
 20
240.1515066020791
 30
0.0
 11
264.9509808481909
 21
240.1515066020791
 31
0.0
  0
LINE
  5
3208
330
2E43
100
AcDbEntity
  8
SUNPOU
  6
CONTINUOUS
 62
     4
100
AcDbLine
 10
250.3655044896472
 20
179.1515066020792
 30
0.0
 11
264.9509808481909
 21
179.1515066020792
 31
0.0
  0
LINE
  5
3209
330
2E43
100
AcDbEntity
  8
SUNPOU
  6
CONTINUOUS
 62
     4
100
AcDbLine
 10
263.4509808481908
 20
237.1515066020791
 30
0.0
 11
263.4509808481908
 21
182.1515066020793
 31
0.0
  0
INSERT
  5
320A
330
2E43
100
AcDbEntity
  8
SUNPOU
  6
CONTINUOUS
 62
     4
100
AcDbBlockReference
  2
_OPEN
 10
263.4509808481908
 20
240.1515066020791
 30
0.0
 41
3.0
 42
3.0
 43
3.0
 50
90.0
  0
INSERT
  5
320B
330
2E43
100
AcDbEntity
  8
SUNPOU
  6
CONTINUOUS
 62
     4
100
AcDbBlockReference
  2
_OPEN
 10
263.4509808481908
 20
179.1515066020792
 30
0.0
 41
3.0
 42
3.0
 43
3.0
 50
270.0
  0
MTEXT
  5
320C
330
2E43
100
AcDbEntity
  8
SUNPOU
  6
CONTINUOUS
 62
     4
100
AcDbMText
 10
260.9509808481908
 20
209.6515066020792
 30
0.0
 40
3.0
 41
0.0
 71
     5
 72
     1
  1
\A1;61
 11
0.0000000000000001
 21
1.0
 31
0.0
1001
ACAD
1000
MTEXTBEGIN
1070
    73
1070
     1
1070
    44
1040
1.0
1070
    74
1070
     0
1000
MTEXTEND
  0
POINT
  5
320D
330
2E43
100
AcDbEntity
  8
DEFPOINTS
  6
CONTINUOUS
 62
     0
100
AcDbPoint
 10
247.3655044896471
 20
240.1515066020791
 30
0.0
  0
POINT
  5
320E
330
2E43
100
AcDbEntity
  8
DEFPOINTS
  6
CONTINUOUS
 62
     0
100
AcDbPoint
 10
247.3655044896471
 20
179.1515066020792
 30
0.0
  0
POINT
  5
320F
330
2E43
100
AcDbEntity
  8
DEFPOINTS
  6
CONTINUOUS
 62
     0
100
AcDbPoint
 10
263.4509808481908
 20
179.1515066020792
 30
0.0
  0
ENDBLK
  5
2E4E
330
2E43
100
AcDbEntity
  8
0
100
AcDbBlockEnd
  0
BLOCK
  5
2E69
330
2E68
100
AcDbEntity
  8
0
100
AcDbBlockBegin
  2
*D6
 70
     1
 10
0.0
 20
0.0
 30
0.0
  3
*D6
  1

  0
LINE
  5
31F5
330
2E68
100
AcDbEntity
  8
SUNPOU
  6
CONTINUOUS
 62
     4
100
AcDbLine
 10
238.4939484947249
 20
99.48245900754159
 30
0.0
 11
252.0577922017579
 21
104.9079964903549
 31
0.0
  0
LINE
  5
31F6
330
2E68
100
AcDbEntity
  8
SUNPOU
  6
CONTINUOUS
 62
     4
100
AcDbLine
 10
251.4926221671251
 20
66.98577482654167
 30
0.0
 11
265.0564658741581
 21
72.41131230935497
 31
0.0
  0
LINE
  5
31F7
330
2E68
100
AcDbEntity
  8
SUNPOU
  6
CONTINUOUS
 62
     4
100
AcDbLine
 10
251.7792491944924
 20
101.5654804031679
 30
0.0
 11
262.5495788087679
 21
74.63965636747957
 31
0.0
  0
INSERT
  5
31F8
330
2E68
100
AcDbEntity
  8
SUNPOU
  6
CONTINUOUS
 62
     4
100
AcDbBlockReference
  2
_OPEN
 10
250.6650771654301
 20
104.3509104758237
 30
0.0
 41
3.0
 42
3.0
 43
3.0
 50
111.8014094863521
  0
INSERT
  5
31F9
330
2E68
100
AcDbEntity
  8
SUNPOU
  6
CONTINUOUS
 62
     4
100
AcDbBlockReference
  2
_OPEN
 10
263.6637508378303
 20
71.8542262948238
 30
0.0
 41
3.0
 42
3.0
 43
3.0
 50
291.801409486352
  0
MTEXT
  5
31FA
330
2E68
100
AcDbEntity
  8
SUNPOU
  6
CONTINUOUS
 62
     4
100
AcDbMText
 10
259.4856057288434
 20
89.03104507620907
 30
0.0
 40
3.0
 41
0.0
 71
     5
 72
     1
  1
\A1;35
 11
0.3713906763541088
 21
-0.9284766908852573
 31
0.0
1001
ACAD
1000
MTEXTBEGIN
1070
    73
1070
     1
1070
    44
1040
1.0
1070
    74
1070
     0
1000
MTEXTEND
  0
POINT
  5
31FB
330
2E68
100
AcDbEntity
  8
DEFPOINTS
  6
CONTINUOUS
 62
     0
100
AcDbPoint
 10
235.7085184220691
 20
98.36828697847927
 30
0.0
  0
POINT
  5
31FC
330
2E68
100
AcDbEntity
  8
DEFPOINTS
  6
CONTINUOUS
 62
     0
100
AcDbPoint
 10
248.7071920944693
 20
65.87160279747934
 30
0.0
  0
POINT
  5
31FD
330
2E68
100
AcDbEntity
  8
DEFPOINTS
  6
CONTINUOUS
 62
     0
100
AcDbPoint
 10
263.6637508378303
 20
71.8542262948238
 30
0.0
  0
ENDBLK
  5
2E73
330
2E68
100
AcDbEntity
  8
0
100
AcDbBlockEnd
  0
BLOCK
  5
2E75
330
2E74
100
AcDbEntity
  8
0
100
AcDbBlockBegin
  2
*D7
 70
     1
 10
0.0
 20
0.0
 30
0.0
  3
*D7
  1

  0
LINE
  5
31BD
330
2E74
100
AcDbEntity
  8
SUNPOU
  6
CONTINUOUS
 62
     4
100
AcDbLine
 10
210.5604987048693
 20
125.2383362714792
 30
0.0
 11
210.5604987048693
 21
141.7763390052642
 31
0.0
  0
LINE
  5
31BE
330
2E74
100
AcDbEntity
  8
SUNPOU
  6
CONTINUOUS
 62
     4
100
AcDbLine
 10
225.3604987034692
 20
127.2383362748792
 30
0.0
 11
225.3604987034692
 21
141.7763390052642
 31
0.0
  0
LINE
  5
31BF
330
2E74
100
AcDbEntity
  8
SUNPOU
  6
CONTINUOUS
 62
     4
100
AcDbLine
 10
213.5604987048693
 20
140.2763390052642
 30
0.0
 11
222.3604987034693
 21
140.2763390052642
 31
0.0
  0
INSERT
  5
31C0
330
2E74
100
AcDbEntity
  8
SUNPOU
  6
CONTINUOUS
 62
     4
100
AcDbBlockReference
  2
_OPEN
 10
210.5604987048693
 20
140.2763390052642
 30
0.0
 41
3.0
 42
3.0
 43
3.0
 50
180.0
  0
INSERT
  5
31C1
330
2E74
100
AcDbEntity
  8
SUNPOU
  6
CONTINUOUS
 62
     4
100
AcDbBlockReference
  2
_OPEN
 10
225.3604987034692
 20
140.2763390052642
 30
0.0
 41
3.0
 42
3.0
 43
3.0
  0
MTEXT
  5
31C2
330
2E74
100
AcDbEntity
  8
SUNPOU
  6
CONTINUOUS
 62
     4
100
AcDbMText
 10
217.9604987041693
 20
142.7763390052642
 30
0.0
 40
3.0
 41
0.0
 71
     5
 72
     1
  1
\A1;15
1001
ACAD
1000
MTEXTBEGIN
1070
    73
1070
     1
1070
    44
1040
1.0
1070
    74
1070
     0
1000
MTEXTEND
  0
POINT
  5
31C3
330
2E74
100
AcDbEntity
  8
DEFPOINTS
  6
CONTINUOUS
 62
     0
100
AcDbPoint
 10
210.5604987048693
 20
122.2383362714792
 30
0.0
  0
POINT
  5
31C4
330
2E74
100
AcDbEntity
  8
DEFPOINTS
  6
CONTINUOUS
 62
     0
100
AcDbPoint
 10
225.3604987034692
 20
124.2383362748792
 30
0.0
  0
POINT
  5
31C5
330
2E74
100
AcDbEntity
  8
DEFPOINTS
  6
CONTINUOUS
 62
     0
100
AcDbPoint
 10
225.3604987034692
 20
140.2763390052642
 30
0.0
  0
ENDBLK
  5
2E7F
330
2E74
100
AcDbEntity
  8
0
100
AcDbBlockEnd
  0
BLOCK
  5
2E82
330
2E81
100
AcDbEntity
  8
0
100
AcDbBlockBegin
  2
*D8
 70
     1
 10
0.0
 20
0.0
 30
0.0
  3
*D8
  1

  0
LINE
  5
31B4
330
2E81
100
AcDbEntity
  8
SUNPOU
  6
CONTINUOUS
 62
     4
100
AcDbLine
 10
225.3604987034692
 20
127.2383362748792
 30
0.0
 11
225.3604987034692
 21
170.2328132391402
 31
0.0
  0
LINE
  5
31B5
330
2E81
100
AcDbEntity
  8
SUNPOU
  6
CONTINUOUS
 62
     4
100
AcDbLine
 10
80.9432238315694
 20
154.6051461883792
 30
0.0
 11
80.9432238315694
 21
170.2328132391402
 31
0.0
  0
LINE
  5
31B6
330
2E81
100
AcDbEntity
  8
SUNPOU
  6
CONTINUOUS
 62
     4
100
AcDbLine
 10
222.3604987034693
 20
168.7328132391401
 30
0.0
 11
83.94322383156941
 21
168.7328132391401
 31
0.0
  0
INSERT
  5
31B7
330
2E81
100
AcDbEntity
  8
SUNPOU
  6
CONTINUOUS
 62
     4
100
AcDbBlockReference
  2
_OPEN
 10
225.3604987034692
 20
168.7328132391401
 30
0.0
 41
3.0
 42
3.0
 43
3.0
  0
INSERT
  5
31B8
330
2E81
100
AcDbEntity
  8
SUNPOU
  6
CONTINUOUS
 62
     4
100
AcDbBlockReference
  2
_OPEN
 10
80.9432238315694
 20
168.7328132391401
 30
0.0
 41
3.0
 42
3.0
 43
3.0
 50
180.0
  0
MTEXT
  5
31B9
330
2E81
100
AcDbEntity
  8
SUNPOU
  6
CONTINUOUS
 62
     4
100
AcDbMText
 10
153.1518612675193
 20
171.2328132391402
 30
0.0
 40
3.0
 41
0.0
 71
     5
 72
     1
  1
\A1;144
1001
ACAD
1000
MTEXTBEGIN
1070
    73
1070
     1
1070
    44
1040
1.0
1070
    74
1070
     0
1000
MTEXTEND
  0
POINT
  5
31BA
330
2E81
100
AcDbEntity
  8
DEFPOINTS
  6
CONTINUOUS
 62
     0
100
AcDbPoint
 10
225.3604987034692
 20
124.2383362748792
 30
0.0
  0
POINT
  5
31BB
330
2E81
100
AcDbEntity
  8
DEFPOINTS
  6
CONTINUOUS
 62
     0
100
AcDbPoint
 10
80.9432238315694
 20
151.6051461883792
 30
0.0
  0
POINT
  5
31BC
330
2E81
100
AcDbEntity
  8
DEFPOINTS
  6
CONTINUOUS
 62
     0
100
AcDbPoint
 10
80.9432238315694
 20
168.7328132391401
 30
0.0
  0
ENDBLK
  5
2E8C
330
2E81
100
AcDbEntity
  8
0
100
AcDbBlockEnd
  0
BLOCK
  5
2EB1
330
2EB0
100
AcDbEntity
  8
0
100
AcDbBlockBegin
  2
*D9
 70
     1
 10
0.0
 20
0.0
 30
0.0
  3
*D9
  1

  0
LINE
  5
31C6
330
2EB0
100
AcDbEntity
  8
SUNPOU
  6
CONTINUOUS
 62
     4
100
AcDbLine
 10
78.34322383156939
 20
219.6515066020793
 30
0.0
 11
54.7761583680815
 21
219.6515066020793
 31
0.0
  0
LINE
  5
31C7
330
2EB0
100
AcDbEntity
  8
SUNPOU
  6
CONTINUOUS
 62
     4
100
AcDbLine
 10
78.34322383156939
 20
199.6515066020793
 30
0.0
 11
54.7761583680815
 21
199.6515066020793
 31
0.0
  0
LINE
  5
31C8
330
2EB0
100
AcDbEntity
  8
SUNPOU
  6
CONTINUOUS
 62
     4
100
AcDbLine
 10
56.2761583680815
 20
216.6515066020793
 30
0.0
 11
56.2761583680815
 21
202.6515066020793
 31
0.0
  0
INSERT
  5
31C9
330
2EB0
100
AcDbEntity
  8
SUNPOU
  6
CONTINUOUS
 62
     4
100
AcDbBlockReference
  2
_OPEN
 10
56.2761583680815
 20
219.6515066020793
 30
0.0
 41
3.0
 42
3.0
 43
3.0
 50
90.0
  0
INSERT
  5
31CA
330
2EB0
100
AcDbEntity
  8
SUNPOU
  6
CONTINUOUS
 62
     4
100
AcDbBlockReference
  2
_OPEN
 10
56.2761583680815
 20
199.6515066020793
 30
0.0
 41
3.0
 42
3.0
 43
3.0
 50
270.0
  0
MTEXT
  5
31CB
330
2EB0
100
AcDbEntity
  8
SUNPOU
  6
CONTINUOUS
 62
     4
100
AcDbMText
 10
53.77615836808146
 20
209.6515066020793
 30
0.0
 40
3.0
 41
0.0
 71
     5
 72
     1
  1
\A1;20
 11
0.0000000000000001
 21
1.0
 31
0.0
1001
ACAD
1000
MTEXTBEGIN
1070
    73
1070
     1
1070
    44
1040
1.0
1070
    74
1070
     0
1000
MTEXTEND
  0
POINT
  5
31CC
330
2EB0
100
AcDbEntity
  8
DEFPOINTS
  6
CONTINUOUS
 62
     0
100
AcDbPoint
 10
81.3432238315694
 20
219.6515066020793
 30
0.0
  0
POINT
  5
31CD
330
2EB0
100
AcDbEntity
  8
DEFPOINTS
  6
CONTINUOUS
 62
     0
100
AcDbPoint
 10
81.3432238315694
 20
199.6515066020793
 30
0.0
  0
POINT
  5
31CE
330
2EB0
100
AcDbEntity
  8
DEFPOINTS
  6
CONTINUOUS
 62
     0
100
AcDbPoint
 10
56.2761583680815
 20
199.6515066020793
 30
0.0
  0
ENDBLK
  5
2EBB
330
2EB0
100
AcDbEntity
  8
0
100
AcDbBlockEnd
  0
BLOCK
  5
2F88
330
2F7E
100
AcDbEntity
  8
0
100
AcDbBlockBegin
  2
*D10
 70
     1
 10
0.0
 20
0.0
 30
0.0
  3
*D10
  1

  0
LINE
  5
31AB
330
2F7E
100
AcDbEntity
  8
SUNPOU
 62
     4
100
AcDbLine
 10
78.34322383156939
 20
123.0656958250792
 30
0.0
 11
54.77615836808148
 21
123.0656958250792
 31
0.0
  0
LINE
  5
31AC
330
2F7E
100
AcDbEntity
  8
SUNPOU
 62
     4
100
AcDbLine
 10
245.7071920944693
 20
65.87160279747934
 30
0.0
 11
54.77615836808145
 21
65.8716027974794
 31
0.0
  0
LINE
  5
31AD
330
2F7E
100
AcDbEntity
  8
SUNPOU
 62
     4
100
AcDbLine
 10
56.27615836808148
 20
120.0656958250792
 30
0.0
 11
56.27615836808146
 21
68.8716027974794
 31
0.0
  0
INSERT
  5
31AE
330
2F7E
100
AcDbEntity
  8
SUNPOU
 62
     4
100
AcDbBlockReference
  2
_OPEN
 10
56.27615836808148
 20
123.0656958250792
 30
0.0
 41
3.0
 42
3.0
 43
3.0
 50
90.0
  0
INSERT
  5
31AF
330
2F7E
100
AcDbEntity
  8
SUNPOU
 62
     4
100
AcDbBlockReference
  2
_OPEN
 10
56.27615836808146
 20
65.8716027974794
 30
0.0
 41
3.0
 42
3.0
 43
3.0
 50
270.0
  0
MTEXT
  5
31B0
330
2F7E
100
AcDbEntity
  8
SUNPOU
 62
     4
100
AcDbMText
 10
53.77615836808146
 20
94.46864931127937
 30
0.0
 40
3.0
 41
0.0
 71
     5
 72
     1
  1
\A1;57
 11
0.0000000000000001
 21
1.0
 31
0.0
1001
ACAD
1000
MTEXTBEGIN
1070
    73
1070
     1
1070
    44
1040
1.0
1070
    74
1070
     0
1000
MTEXTEND
  0
POINT
  5
31B1
330
2F7E
100
AcDbEntity
  8
DEFPOINTS
 62
     0
100
AcDbPoint
 10
81.3432238315694
 20
123.0656958250792
 30
0.0
  0
POINT
  5
31B2
330
2F7E
100
AcDbEntity
  8
DEFPOINTS
 62
     0
100
AcDbPoint
 10
248.7071920944693
 20
65.87160279747934
 30
0.0
  0
POINT
  5
31B3
330
2F7E
100
AcDbEntity
  8
DEFPOINTS
 62
     0
100
AcDbPoint
 10
56.27615836808146
 20
65.8716027974794
 30
0.0
  0
ENDBLK
  5
2F89
330
2F7E
100
AcDbEntity
  8
0
100
AcDbBlockEnd
  0
BLOCK
  5
2FA8
330
2F9E
100
AcDbEntity
  8
0
100
AcDbBlockBegin
  2
*D11
 70
     1
 10
0.0
 20
0.0
 30
0.0
  3
*D11
  1

  0
LINE
  5
31CF
330
2F9E
100
AcDbEntity
  8
SUNPOU
 62
     4
100
AcDbLine
 10
292.206495508734
 20
121.1210162106038
 30
0.0
 11
274.1574761765705
 21
166.2467838048371
 31
0.0
  0
LINE
  5
31D0
330
2F9E
100
AcDbEntity
  8
SUNPOU
 62
     4
100
AcDbLine
 10
332.131386064613
 20
137.0898331392639
 30
0.0
 11
314.0823667324494
 21
182.2156007334972
 31
0.0
  0
LINE
  5
31D1
330
2F9E
100
AcDbEntity
  8
SUNPOU
 62
     4
100
AcDbLine
 10
277.4999854105386
 20
165.9681585711664
 30
0.0
 11
311.8539610051321
 21
179.7087684865251
 31
0.0
  0
INSERT
  5
31D2
330
2F9E
100
AcDbEntity
  8
SUNPOU
 62
     4
100
AcDbBlockReference
  2
_OPEN
 10
274.7145279298958
 20
164.8540550645157
 30
0.0
 41
3.0
 42
3.0
 43
3.0
 50
201.8000000000002
  0
INSERT
  5
31D3
330
2F9E
100
AcDbEntity
  8
SUNPOU
 62
     4
100
AcDbBlockReference
  2
_OPEN
 10
314.6394184857748
 20
180.8228719931758
 30
0.0
 41
3.0
 42
3.0
 43
3.0
 50
21.80000000000017
  0
MTEXT
  5
31D4
330
2F9E
100
AcDbEntity
  8
SUNPOU
 62
     4
100
AcDbMText
 10
293.7485536189597
 20
175.159678096048
 30
0.0
 40
3.0
 41
0.0
 71
     5
 72
     1
  1
\A1;43
 11
0.9284858268809125
 21
0.3713678355502376
 31
0.0
1001
ACAD
1000
MTEXTBEGIN
1070
    73
1070
     1
1070
    44
1040
1.0
1070
    74
1070
     0
1000
MTEXTEND
  0
POINT
  5
31D5
330
2F9E
100
AcDbEntity
  8
DEFPOINTS
 62
     0
100
AcDbPoint
 10
293.3205990153847
 20
118.335558729961
 30
0.0
  0
POINT
  5
31D6
330
2F9E
100
AcDbEntity
  8
DEFPOINTS
 62
     0
100
AcDbPoint
 10
333.2454895712637
 20
134.3043756586212
 30
0.0
  0
POINT
  5
31D7
330
2F9E
100
AcDbEntity
  8
DEFPOINTS
 62
     0
100
AcDbPoint
 10
314.6394184857748
 20
180.8228719931758
 30
0.0
  0
ENDBLK
  5
2FA9
330
2F9E
100
AcDbEntity
  8
0
100
AcDbBlockEnd
  0
ENDSEC
  0
SECTION
  2
ENTITIES
  0
LINE
  5
2D46
330
1A
100
AcDbEntity
  8
SEIHIN
  6
CONTINUOUS
 62
     3
100
AcDbLine
 10
210.5604987048693
 20
122.2383362714792
 30
0.0
 11
210.5604987048693
 21
106.7383362714792
 31
0.0
  0
ARC
  5
2D47
330
1A
100
AcDbEntity
  8
SEIHIN
  6
CONTINUOUS
 62
     3
100
AcDbCircle
 10
205.6974949658693
 20
96.41828888267935
 30
0.0
 40
6.5
100
AcDbArc
 50
96.0000000125
 51
174.289288237
  0
LINE
  5
2D48
330
1A
100
AcDbEntity
  8
SEIHIN
  6
CONTINUOUS
 62
     3
100
AcDbLine
 10
197.9855747038693
 20
100.6989352510792
 30
0.0
 11
196.4809972140693
 21
88.4451349462793
 31
0.0
  0
LINE
  5
2D49
330
1A
100
AcDbEntity
  8
SEIHIN
  6
CONTINUOUS
 62
     3
100
AcDbLine
 10
193.0734790272692
 20
119.4886817695792
 30
0.0
 11
191.9421081773693
 21
120.6200526193792
 31
0.0
  0
LINE
  5
2D4A
330
1A
100
AcDbEntity
  8
SEIHIN
  6
CONTINUOUS
 62
     3
100
AcDbLine
 10
191.9421081773693
 20
202.1515066020793
 30
0.0
 11
212.1604987048694
 21
202.1515066020793
 31
0.0
  0
LINE
  5
2D4B
330
1A
100
AcDbEntity
  8
SEIHIN
  6
CONTINUOUS
 62
     3
100
AcDbLine
 10
191.9421081773693
 20
217.1515066020793
 30
0.0
 11
212.1604987048694
 21
217.1515066020793
 31
0.0
  0
LINE
  5
2D4C
330
1A
100
AcDbEntity
  8
SEIHIN
  6
CONTINUOUS
 62
     3
100
AcDbLine
 10
85.84322383156944
 20
199.6515066020793
 30
0.0
 11
248.2071920944693
 21
199.6515066020793
 31
0.0
  0
LINE
  5
2D4D
330
1A
100
AcDbEntity
  8
SEIHIN
  6
CONTINUOUS
 62
     3
100
AcDbLine
 10
85.84322383156944
 20
219.6515066020793
 30
0.0
 11
248.2071920944693
 21
219.6515066020793
 31
0.0
  0
ARC
  5
2D4E
330
1A
100
AcDbEntity
  8
SEIHIN
  6
CONTINUOUS
 62
     3
100
AcDbCircle
 10
208.5604987048693
 20
122.2383362714792
 30
0.0
 40
3.6
100
AcDbArc
 50
0.0
 51
90.0000000118
  0
LINE
  5
2D4F
330
1A
100
AcDbEntity
  8
SEIHIN
  6
CONTINUOUS
 62
     3
100
AcDbLine
 10
205.0180599546693
 20
102.8826812025792
 30
0.0
 11
227.3317467255693
 21
105.2279441865792
 31
0.0
  0
LINE
  5
2D50
330
1A
100
AcDbEntity
  8
SEIHIN
  6
CONTINUOUS
 62
     3
100
AcDbLine
 10
212.1604987048694
 20
122.2383362714792
 30
0.0
 11
212.1604987048694
 21
106.7383362714792
 31
0.0
  0
LINE
  5
2D51
330
1A
100
AcDbEntity
  8
SEIHIN
  6
CONTINUOUS
 62
     3
100
AcDbLine
 10
205.4884380393692
 20
98.40733267347928
 30
0.0
 11
227.7389637155693
 21
100.8796892574792
 31
0.0
  0
LINE
  5
2D52
330
1A
100
AcDbEntity
  8
SEIHIN
  6
CONTINUOUS
 62
     3
100
AcDbLine
 10
202.5512870013693
 20
103.1383362714792
 30
0.0
 11
208.5604987048693
 21
103.1383362714792
 31
0.0
  0
ARC
  5
2D53
330
1A
100
AcDbEntity
  8
SEIHIN
  6
CONTINUOUS
 62
     3
100
AcDbCircle
 10
198.6515606538693
 20
122.2383362714792
 30
0.0
 40
2.0
100
AcDbArc
 50
90.0000000118
 51
135.0000000175999
  0
LINE
  5
2D54
330
1A
100
AcDbEntity
  8
SEIHIN
  6
CONTINUOUS
 62
     3
100
AcDbLine
 10
201.4850163447693
 20
74.39371872187933
 30
0.0
 11
186.4980013532692
 21
62.13151077407935
 31
0.0
  0
LINE
  5
2D55
330
1A
100
AcDbEntity
  8
SEIHIN
  6
CONTINUOUS
 62
     3
100
AcDbLine
 10
197.1928231698692
 20
76.69618847687935
 30
0.0
 11
184.8915891392693
 21
66.63145645487936
 31
0.0
  0
ARC
  5
2D56
330
1A
100
AcDbEntity
  8
SEIHIN
  6
CONTINUOUS
 62
     3
100
AcDbCircle
 10
202.5512870013693
 20
100.1383362714793
 30
0.0
 40
3.0
100
AcDbArc
 50
90.0000000118
 51
173.0000000225999
  0
LINE
  5
2D57
330
1A
100
AcDbEntity
  8
SEIHIN
  6
CONTINUOUS
 62
     3
100
AcDbLine
 10
198.6515606538693
 20
124.2383362714792
 30
0.0
 11
208.5604987048693
 21
124.2383362714792
 31
0.0
  0
LINE
  5
2D58
330
1A
100
AcDbEntity
  8
SEIHIN
  6
CONTINUOUS
 62
     3
100
AcDbLine
 10
202.5512870013693
 20
104.7383362714792
 30
0.0
 11
208.5604987048693
 21
104.7383362714792
 31
0.0
  0
LINE
  5
2D59
330
1A
100
AcDbEntity
  8
SEIHIN
  6
CONTINUOUS
 62
     3
100
AcDbLine
 10
199.5736485464693
 20
100.5039443016792
 30
0.0
 11
198.0690710566692
 21
88.25014399677932
 31
0.0
  0
LINE
  5
2D5A
330
1A
100
AcDbEntity
  8
SEIHIN
  6
CONTINUOUS
 62
     3
100
AcDbLine
 10
198.6515606538693
 20
125.8383362714792
 30
0.0
 11
208.5604987048693
 21
125.8383362714792
 31
0.0
  0
LINE
  5
2D5B
330
1A
100
AcDbEntity
  8
SEIHIN
  6
CONTINUOUS
 62
     3
100
AcDbLine
 10
203.7074209975693
 20
96.61730044177934
 30
0.0
 11
201.4850163447693
 21
74.39371872187933
 31
0.0
  0
LINE
  5
2D5C
330
1A
100
AcDbEntity
  8
SEIHIN
  6
CONTINUOUS
 62
     3
100
AcDbLine
 10
199.2297545688693
 20
97.06507644977932
 30
0.0
 11
197.1928231698692
 21
76.69618847687935
 31
0.0
  0
LINE
  5
2D5D
330
1A
100
AcDbEntity
  8
SEIHIN
  6
CONTINUOUS
 62
     3
100
AcDbLine
 10
197.2373470915693
 20
123.6525498337793
 30
0.0
 11
193.0734790272692
 21
119.4886817695792
 31
0.0
  0
LINE
  5
2D5E
330
1A
100
AcDbEntity
  8
SEIHIN
  6
CONTINUOUS
 62
     3
100
AcDbLine
 10
196.1059762416692
 20
124.7839206836792
 30
0.0
 11
191.9421081773693
 21
120.6200526193792
 31
0.0
  0
ARC
  5
2D5F
330
1A
100
AcDbEntity
  8
SEIHIN
  6
CONTINUOUS
 62
     3
100
AcDbCircle
 10
208.5604987048693
 20
122.2383362714792
 30
0.0
 40
2.0
100
AcDbArc
 50
0.0
 51
90.0000000118
  0
ARC
  5
2D60
330
1A
100
AcDbEntity
  8
SEIHIN
  6
CONTINUOUS
 62
     3
100
AcDbCircle
 10
202.5512870013693
 20
100.1383362714793
 30
0.0
 40
4.599999999999998
100
AcDbArc
 50
90.0000000118
 51
173.0000000225999
  0
ARC
  5
2D61
330
1A
100
AcDbEntity
  8
SEIHIN
  6
CONTINUOUS
 62
     3
100
AcDbCircle
 10
198.6515606538693
 20
122.2383362714792
 30
0.0
 40
3.6
100
AcDbArc
 50
90.00000001169999
 51
135.0000000175999
  0
LINE
  5
2D62
330
1A
100
AcDbEntity
  8
SEIHIN
  6
CONTINUOUS
 62
     3
100
AcDbLine
 10
196.4809972140693
 20
88.4451349462793
 30
0.0
 11
198.0690710566692
 21
88.25014399677932
 31
0.0
  0
ARC
  5
2D63
330
1A
100
AcDbEntity
  8
SEIHIN
  6
CONTINUOUS
 62
     3
100
AcDbCircle
 10
205.6974949658693
 20
96.41828888267935
 30
0.0
 40
2.0
100
AcDbArc
 50
96.0000000125
 51
174.289288237
  0
ARC
  5
2D64
330
1A
100
AcDbEntity
  8
SEIHIN
  6
CONTINUOUS
 62
     3
100
AcDbCircle
 10
208.5604987048693
 20
106.7383362714792
 30
0.0
 40
2.0
100
AcDbArc
 50
270.0000000353
 51
0.0
  0
LINE
  5
2D65
330
1A
100
AcDbEntity
  8
SUNPOU
  6
CONTINUOUS
 62
     4
100
AcDbLine
 10
208.5604987044693
 20
124.2383362714792
 30
0.0
 11
225.3604987034692
 21
124.2383362748792
 31
0.0
  0
ARC
  5
2D66
330
1A
100
AcDbEntity
  8
SEIHIN
  6
CONTINUOUS
 62
     3
100
AcDbCircle
 10
208.5604987048693
 20
106.7383362714792
 30
0.0
 40
3.6
100
AcDbArc
 50
270.0000000353
 51
0.0
  0
MTEXT
  5
2D67
330
1A
100
AcDbEntity
  8
SUNPOU
  6
CONTINUOUS
 62
     4
100
AcDbMText
 10
255.3833764724693
 20
40.64354917847935
 30
0.0
 40
3.5983331442
 41
8.626259690899999
 71
     1
 72
     5
  1
\W0.8;4
1001
ACAD
1000
MTEXTBEGIN
1070
    73
1070
     1
1070
    44
1040
1.0
1070
    74
1070
     0
1000
MTEXTEND
1000
MTEXTBEGIN
1070
    73
1070
     1
1070
    44
1040
1.0
1070
    74
1070
     0
1000
MTEXTEND
1000
MTEXTBEGIN
1070
    73
1070
     1
1070
    44
1040
1.0
1070
    74
1070
     0
1000
MTEXTEND
  0
LINE
  5
2D68
330
1A
100
AcDbEntity
  8
SUNPOU
  6
CONTINUOUS
 62
     4
100
AcDbLine
 10
254.0544708167693
 20
42.50340599177934
 30
0.0
 11
254.0544708167693
 21
52.50340599177935
 31
0.0
  0
LINE
  5
2D69
330
1A
100
AcDbEntity
  8
SUNPOU
  6
CONTINUOUS
 62
     4
100
AcDbLine
 10
258.0544708167693
 20
42.50340599177934
 30
0.0
 11
254.0544708167693
 21
42.50340599177934
 31
0.0
  0
LINE
  5
2D6A
330
1A
100
AcDbEntity
  8
SUNPOU
  6
CONTINUOUS
 62
     4
100
AcDbLine
 10
248.7071920944693
 20
65.87160279747934
 30
0.0
 11
258.0544708167693
 21
42.50340599177934
 31
0.0
  0
LINE
  5
2D6B
330
1A
100
AcDbEntity
  8
SEIHIN
  6
CONTINUOUS
 62
     3
100
AcDbLine
 10
235.7085184220693
 20
237.6515066020793
 30
0.0
 11
235.7085184220693
 21
223.3214530342793
 31
0.0
  0
ELLIPSE
  5
2D6C
330
1A
100
AcDbEntity
  8
SEIHIN
  6
CONTINUOUS
 62
     3
100
AcDbEllipse
 10
245.7358516224693
 20
231.6515066020793
 30
0.0
 11
0.0
 21
-2.099999999999993
 31
0.0
210
0.0
220
0.0
230
-1.0
 40
0.3712875744
 41
-1.570796326794896
 42
4.712388980384688
  0
ELLIPSE
  5
2D6D
330
1A
100
AcDbEntity
  8
SEIHIN
  6
CONTINUOUS
 62
     3
100
AcDbEllipse
 10
238.6794275164693
 20
231.6515066020793
 30
0.0
 11
0.0
 21
-2.099999999999993
 31
0.0
210
0.0
220
0.0
230
-1.0
 40
0.3712875744
 41
-1.570796326794896
 42
4.712388980384688
  0
LINE
  5
2D6E
330
1A
100
AcDbEntity
  8
SEIHIN
  6
CONTINUOUS
 62
     3
100
AcDbLine
 10
234.1085184220694
 20
237.6515066020793
 30
0.0
 11
234.1085184220694
 21
223.2810120414792
 31
0.0
  0
LINE
  5
2D6F
330
1A
100
AcDbEntity
  8
SEIHIN
  6
CONTINUOUS
 62
     3
100
AcDbLine
 10
248.7071920944693
 20
237.6515066020793
 30
0.0
 11
248.7071920944693
 21
223.3214530342793
 31
0.0
  0
LINE
  5
2D70
330
1A
100
AcDbEntity
  8
SEIHIN
  6
CONTINUOUS
 62
     3
100
AcDbLine
 10
92.99184855156942
 20
217.9973659152792
 30
0.0
 11
92.99184855156942
 21
201.4119777874793
 31
0.0
  0
LINE
  5
2D71
330
1A
100
AcDbEntity
  8
SEIHIN
  6
CONTINUOUS
 62
     3
100
AcDbLine
 10
81.3432238315694
 20
199.6515066020793
 30
0.0
 11
85.84322383156944
 21
199.6515066020793
 31
0.0
  0
LINE
  5
2D72
330
1A
100
AcDbEntity
  8
SEIHIN
  6
CONTINUOUS
 62
     3
100
AcDbLine
 10
80.9432238315694
 20
202.1515066020793
 30
0.0
 11
81.3432238315694
 21
202.1515066020793
 31
0.0
  0
LINE
  5
2D73
330
1A
100
AcDbEntity
  8
SEIHIN
  6
CONTINUOUS
 62
     3
100
AcDbLine
 10
81.3432238315694
 20
219.6515066020793
 30
0.0
 11
85.84322383156944
 21
219.6515066020793
 31
0.0
  0
ARC
  5
2D74
330
1A
100
AcDbEntity
  8
SEIHIN
  6
CONTINUOUS
 62
     3
100
AcDbCircle
 10
87.84322383156945
 20
106.6315607740792
 30
0.0
 40
6.5
100
AcDbArc
 50
180.0000000234999
 51
270.0000000353
  0
LINE
  5
2D75
330
1A
100
AcDbEntity
  8
SEIHIN
  6
CONTINUOUS
 62
     3
100
AcDbLine
 10
87.84322383156945
 20
104.6315607740792
 30
0.0
 11
88.95274564176942
 21
104.6315607740792
 31
0.0
  0
LINE
  5
2D76
330
1A
100
AcDbEntity
  8
SEIHIN
  6
CONTINUOUS
 62
     3
100
AcDbLine
 10
85.84322383156944
 20
123.0656958250792
 30
0.0
 11
81.3432238315694
 21
123.0656958250792
 31
0.0
  0
LINE
  5
2D77
330
1A
100
AcDbEntity
  8
SEIHIN
  6
CONTINUOUS
 62
     3
100
AcDbLine
 10
87.84322383156945
 20
100.1315607740792
 30
0.0
 11
88.95274564176942
 21
100.1315607740792
 31
0.0
  0
ARC
  5
2D78
330
1A
100
AcDbEntity
  8
SEIHIN
  6
CONTINUOUS
 62
     3
100
AcDbCircle
 10
88.95274564176942
 20
98.1315607740793
 30
0.0
 40
6.5
100
AcDbArc
 50
13.1630502727
 51
90.0000000118
  0
LINE
  5
2D79
330
1A
100
AcDbEntity
  8
SEIHIN
  6
CONTINUOUS
 62
     3
100
AcDbLine
 10
85.84322383156944
 20
106.6315607740792
 30
0.0
 11
85.84322383156944
 21
123.0656958250792
 31
0.0
  0
LINE
  5
2D7A
330
1A
100
AcDbEntity
  8
SEIHIN
  6
CONTINUOUS
 62
     3
100
AcDbLine
 10
80.9432238315694
 20
109.3119147529793
 30
0.0
 11
80.9432238315694
 21
151.6051461883792
 31
0.0
  0
ARC
  5
2D7B
330
1A
100
AcDbEntity
  8
SEIHIN
  6
CONTINUOUS
 62
     3
100
AcDbCircle
 10
88.95274564176942
 20
98.1315607740793
 30
0.0
 40
2.0
100
AcDbArc
 50
13.1630474015
 51
90.0000000118
  0
LINE
  5
2D7C
330
1A
100
AcDbEntity
  8
SEIHIN
  6
CONTINUOUS
 62
     3
100
AcDbLine
 10
81.3432238315694
 20
106.6315607740792
 30
0.0
 11
81.3432238315694
 21
123.0656958250792
 31
0.0
  0
LINE
  5
2D7D
330
1A
100
AcDbEntity
  8
SEIHIN
  6
CONTINUOUS
 62
     3
100
AcDbLine
 10
81.3432238315694
 20
109.3119147529793
 30
0.0
 11
80.9432238315694
 21
109.3119147529793
 31
0.0
  0
ARC
  5
2D7E
330
1A
100
AcDbEntity
  8
SEIHIN
  6
CONTINUOUS
 62
     3
100
AcDbCircle
 10
87.84322383156945
 20
106.6315607740792
 30
0.0
 40
2.0
100
AcDbArc
 50
180.0000000234999
 51
270.0000000353
  0
LINE
  5
2D7F
330
1A
100
AcDbEntity
  8
SEIHIN
  6
CONTINUOUS
 62
     3
100
AcDbLine
 10
81.3432238315694
 20
123.0656958250792
 30
0.0
 11
81.3432238315694
 21
151.6051461883792
 31
0.0
  0
LINE
  5
2D80
330
1A
100
AcDbEntity
  8
SEIHIN
  6
CONTINUOUS
 62
     3
100
AcDbLine
 10
80.9432238315694
 20
151.6051461883792
 30
0.0
 11
81.3432238315694
 21
151.6051461883792
 31
0.0
  0
LINE
  5
2D81
330
1A
100
AcDbEntity
  8
SEIHIN
  6
CONTINUOUS
 62
     3
100
AcDbLine
 10
80.9432238315694
 20
217.1515066020793
 30
0.0
 11
81.3432238315694
 21
217.1515066020793
 31
0.0
  0
LINE
  5
2D82
330
1A
100
AcDbEntity
  8
SEIHIN
  6
CONTINUOUS
 62
     3
100
AcDbLine
 10
80.9432238315694
 20
202.1515066020793
 30
0.0
 11
80.9432238315694
 21
217.1515066020793
 31
0.0
  0
LINE
  5
2D83
330
1A
100
AcDbEntity
  8
SEIHIN
  6
CONTINUOUS
 62
     3
100
AcDbLine
 10
81.3432238315694
 20
199.6515066020793
 30
0.0
 11
81.3432238315694
 21
219.6515066020793
 31
0.0
  0
LINE
  5
2D84
330
1A
100
AcDbEntity
  8
SEIHIN
  6
CONTINUOUS
 62
     3
100
AcDbLine
 10
85.84322383156944
 20
199.6515066020793
 30
0.0
 11
85.84322383156944
 21
219.6515066020793
 31
0.0
  0
LINE
  5
2D85
330
1A
100
AcDbEntity
  8
SEIHIN
  6
CONTINUOUS
 62
     3
100
AcDbLine
 10
184.8915891392693
 20
217.9973659152792
 30
0.0
 11
184.8915891392693
 21
201.4119777874793
 31
0.0
  0
LINE
  5
2D86
330
1A
100
AcDbEntity
  8
SEIHIN
  6
CONTINUOUS
 62
     3
100
AcDbLine
 10
197.2739002965693
 20
202.1515066020793
 30
0.0
 11
197.2739002965693
 21
217.1515066020793
 31
0.0
  0
LINE
  5
2D87
330
1A
100
AcDbEntity
  8
SEIHIN
  6
CONTINUOUS
 62
     3
100
AcDbLine
 10
191.9421081773693
 20
202.1515066020793
 30
0.0
 11
191.9421081773693
 21
217.1515066020793
 31
0.0
  0
LINE
  5
2D88
330
1A
100
AcDbEntity
  8
SEIHIN
  6
CONTINUOUS
 62
     3
100
AcDbLine
 10
128.3282024873694
 20
62.13151077407935
 30
0.0
 11
186.4980013532692
 21
62.13151077407935
 31
0.0
  0
LINE
  5
2D89
330
1A
100
AcDbEntity
  8
SEIHIN
  6
CONTINUOUS
 62
     3
100
AcDbLine
 10
128.7984440356693
 20
66.63158157517933
 30
0.0
 11
184.8915891392693
 21
66.63145645487936
 31
0.0
  0
ARC
  5
2D8A
330
1A
100
AcDbEntity
  8
SEIHIN
  6
CONTINUOUS
 62
     3
100
AcDbCircle
 10
138.1259205358694
 20
109.6315752504793
 30
0.0
 40
44.0000144765
100
AcDbArc
 50
193.1630520925999
 51
257.7611184768
  0
ARC
  5
2D8B
330
1A
100
AcDbEntity
  8
SEIHIN
  6
CONTINUOUS
 62
     3
100
AcDbCircle
 10
138.1259205358694
 20
109.6315752504793
 30
0.0
 40
48.5000144765
100
AcDbArc
 50
193.1630520442998
 51
258.3451994240999
  0
LINE
  5
2D8C
330
1A
100
AcDbEntity
  8
SEIHIN
  6
CONTINUOUS
 62
     3
100
AcDbLine
 10
229.6085184220693
 20
219.9625066500793
 30
0.0
 11
229.6085184220693
 21
219.6515066020793
 31
0.0
  0
LINE
  5
2D8D
330
1A
100
AcDbEntity
  8
SEIHIN
  6
CONTINUOUS
 62
     3
100
AcDbLine
 10
248.7071920944693
 20
181.6515066020793
 30
0.0
 11
248.7071920944693
 21
195.9815601697792
 31
0.0
  0
LINE
  5
2D8E
330
1A
100
AcDbEntity
  8
SEIHIN
  6
CONTINUOUS
 62
     3
100
AcDbLine
 10
248.2071920944693
 20
199.6515066020793
 30
0.0
 11
248.2071920944693
 21
219.6515066020793
 31
0.0
  0
ARC
  5
2D8F
330
1A
100
AcDbEntity
  8
SEIHIN
  6
CONTINUOUS
 62
     3
100
AcDbCircle
 10
246.6071920944693
 20
223.3214528794792
 30
0.0
 40
2.1
100
AcDbArc
 50
288.3896487477998
 51
0.0000042603
  0
ARC
  5
2D90
330
1A
100
AcDbEntity
  8
SEIHIN
  6
CONTINUOUS
 62
     3
100
AcDbCircle
 10
246.6071920944693
 20
195.9815603245793
 30
0.0
 40
2.1
100
AcDbArc
 50
359.9999958101999
 51
71.6103513227
  0
LINE
  5
2D91
330
1A
100
AcDbEntity
  8
SEIHIN
  6
CONTINUOUS
 62
     3
100
AcDbLine
 10
230.6280770956693
 20
221.7632418061793
 30
0.0
 11
233.7662571930693
 21
222.8065455022793
 31
0.0
  0
LINE
  5
2D92
330
1A
100
AcDbEntity
  8
SEIHIN
  6
CONTINUOUS
 62
     3
100
AcDbLine
 10
233.6981202606692
 20
203.8512172873792
 30
0.0
 11
233.6981202606692
 21
215.6019243580792
 31
0.0
  0
LINE
  5
2D93
330
1A
100
AcDbEntity
  8
SEIHIN
  6
CONTINUOUS
 62
     3
100
AcDbLine
 10
235.7085184220693
 20
222.0928879742793
 30
0.0
 11
247.6295418281693
 21
222.0928879742793
 31
0.0
  0
ARC
  5
2D94
330
1A
100
AcDbEntity
  8
SEIHIN
  6
CONTINUOUS
 62
     3
100
AcDbCircle
 10
244.7071920944693
 20
219.9625068061793
 30
0.0
 40
0.5
100
AcDbArc
 50
120.9637695122999
 51
180.0000000117
  0
LINE
  5
2D95
330
1A
100
AcDbEntity
  8
SEIHIN
  6
CONTINUOUS
 62
     3
100
AcDbLine
 10
244.4499441196693
 20
220.3912532107792
 30
0.0
 11
247.2696950775694
 21
221.3286934888793
 31
0.0
  0
LINE
  5
2D96
330
1A
100
AcDbEntity
  8
SEIHIN
  6
CONTINUOUS
 62
     3
100
AcDbLine
 10
244.2071920944693
 20
219.9625068060792
 30
0.0
 11
244.2071920944693
 21
219.6515066020793
 31
0.0
  0
LINE
  5
2D97
330
1A
100
AcDbEntity
  8
SEIHIN
  6
CONTINUOUS
 62
     3
100
AcDbLine
 10
234.1085184220694
 20
181.6515066020793
 30
0.0
 11
234.1085184220694
 21
196.0220011626792
 31
0.0
  0
ARC
  5
2D98
330
1A
100
AcDbEntity
  8
SEIHIN
  6
CONTINUOUS
 62
     3
100
AcDbCircle
 10
244.7071920944693
 20
199.3405063978792
 30
0.0
 40
0.5
100
AcDbArc
 50
180.0000000117
 51
239.0362434874
  0
LINE
  5
2D99
330
1A
100
AcDbEntity
  8
SEIHIN
  6
CONTINUOUS
 62
     3
100
AcDbLine
 10
247.2696950632694
 20
197.9743196719793
 30
0.0
 11
244.4499442167693
 21
198.9117599349793
 31
0.0
  0
LINE
  5
2D9A
330
1A
100
AcDbEntity
  8
SEIHIN
  6
CONTINUOUS
 62
     3
100
AcDbLine
 10
244.2071920944693
 20
199.3405063977793
 30
0.0
 11
244.2071920944693
 21
199.6515066020793
 31
0.0
  0
ARC
  5
2D9B
330
1A
100
AcDbEntity
  8
SEIHIN
  6
CONTINUOUS
 62
     3
100
AcDbCircle
 10
245.7071920944693
 20
181.6515066020793
 30
0.0
 40
3.0
100
AcDbArc
 50
303.5573097619213
 51
0.0
  0
ELLIPSE
  5
2D9D
330
1A
100
AcDbEntity
  8
SEIHIN
  6
CONTINUOUS
 62
     3
100
AcDbEllipse
 10
245.7358516224693
 20
187.6515066020793
 30
0.0
 11
0.0
 21
2.099999999999993
 31
0.0
210
0.0
220
0.0
230
1.0
 40
0.3712875744
 41
-1.570796326794896
 42
4.712388980384688
  0
ELLIPSE
  5
2D9E
330
1A
100
AcDbEntity
  8
SEIHIN
  6
CONTINUOUS
 62
     3
100
AcDbEllipse
 10
238.6794275164693
 20
187.6515066020793
 30
0.0
 11
0.0
 21
2.099999999999993
 31
0.0
210
0.0
220
0.0
230
1.0
 40
0.3712875744
 41
-1.570796326794896
 42
4.712388980384688
  0
ARC
  5
2D9F
330
1A
100
AcDbEntity
  8
SEIHIN
  6
CONTINUOUS
 62
     3
100
AcDbCircle
 10
237.1085184220694
 20
181.6515066020793
 30
0.0
 40
3.0
100
AcDbArc
 50
180.0
 51
236.4426902380782
  0
LINE
  5
2DA0
330
1A
100
AcDbEntity
  8
SEIHIN
  6
CONTINUOUS
 62
     3
100
AcDbLine
 10
235.7085184220693
 20
197.2101252297792
 30
0.0
 11
247.6295418281693
 21
197.2101252297792
 31
0.0
  0
LINE
  5
2DA1
330
1A
100
AcDbEntity
  8
SEIHIN
  6
CONTINUOUS
 62
     3
100
AcDbLine
 10
230.6280773356693
 20
197.5397712538793
 30
0.0
 11
233.7662571878694
 21
196.4964676859793
 31
0.0
  0
ARC
  5
2DA2
330
1A
100
AcDbEntity
  8
SEIHIN
  6
CONTINUOUS
 62
     3
100
AcDbCircle
 10
231.7085184220693
 20
199.3405063978792
 30
0.0
 40
0.5
100
AcDbArc
 50
180.0000000117
 51
239.0362434874
  0
LINE
  5
2DA3
330
1A
100
AcDbEntity
  8
SEIHIN
  6
CONTINUOUS
 62
     3
100
AcDbLine
 10
235.7085184220693
 20
98.36828697847929
 30
0.0
 11
229.5805722622693
 21
95.9171085145793
 31
0.0
  0
LINE
  5
2DA4
330
1A
100
AcDbEntity
  8
SEIHIN
  6
CONTINUOUS
 62
     3
100
AcDbLine
 10
332.6878553774694
 20
106.0784649917792
 30
0.0
 11
336.8660004863694
 21
107.7497230353792
 31
0.0
  0
LINE
  5
2DA5
330
1A
100
AcDbEntity
  8
SEIHIN
  6
CONTINUOUS
 62
     3
100
AcDbLine
 10
313.1898448688692
 20
98.27926078837929
 30
0.0
 11
309.0116997598694
 21
96.60800274477935
 31
0.0
  0
LINE
  5
2DA6
330
1A
100
AcDbEntity
  8
SEIHIN
  6
CONTINUOUS
 62
     3
100
AcDbLine
 10
300.0834352244694
 20
132.3915761010793
 30
0.0
 11
318.6529690421694
 21
139.8193896281793
 31
0.0
  0
LINE
  5
2DA7
330
1A
100
AcDbEntity
  8
SEIHIN
  6
CONTINUOUS
 62
     3
100
AcDbLine
 10
321.4532874176693
 20
132.8185936892792
 30
0.0
 11
337.7016295081692
 21
139.3179305254793
 31
0.0
  0
CIRCLE
  5
2DA8
330
1A
100
AcDbEntity
  8
SEIHIN
  6
CONTINUOUS
 62
     3
100
AcDbCircle
 10
342.1583176244694
 20
112.0207158134792
 30
0.0
 40
2.1
  0
CIRCLE
  5
2DA9
330
1A
100
AcDbEntity
  8
SEIHIN
  6
CONTINUOUS
 62
     3
100
AcDbCircle
 10
295.1773970656694
 20
113.6919738570792
 30
0.0
 40
2.1
  0
LINE
  5
2DAA
330
1A
100
AcDbEntity
  8
SEIHIN
  6
CONTINUOUS
 62
     3
100
AcDbLine
 10
304.6478593126694
 20
119.6342246786793
 30
0.0
 11
300.4697142036694
 21
117.9629666350792
 31
0.0
  0
LINE
  5
2DAB
330
1A
100
AcDbEntity
  8
SEIHIN
  6
CONTINUOUS
 62
     3
100
AcDbLine
 10
212.1604987048694
 20
202.1515066020793
 30
0.0
 11
212.1604987048694
 21
217.1515066020793
 31
0.0
  0
ARC
  5
2DAC
330
1A
100
AcDbEntity
  8
SEIHIN
  6
CONTINUOUS
 62
     3
100
AcDbCircle
 10
233.6085184220693
 20
195.9815603245793
 30
0.0
 40
2.1
100
AcDbArc
 50
359.9999958101999
 51
71.6103513227
  0
LINE
  5
2DAD
330
1A
100
AcDbEntity
  8
SEIHIN
  6
CONTINUOUS
 62
     3
100
AcDbLine
 10
231.2085184220693
 20
197.3468007708792
 30
0.0
 11
234.1085184220694
 21
195.0478733915793
 31
0.0
  0
ARC
  5
2DAE
330
1A
100
AcDbEntity
  8
SEIHIN
  6
CONTINUOUS
 62
     3
100
AcDbCircle
 10
233.6085184220693
 20
196.0220011626792
 30
0.0
 40
0.5
100
AcDbArc
 50
0.0000000353
 51
71.6103557078
  0
LINE
  5
2DAF
330
1A
100
AcDbEntity
  8
SEIHIN
  6
CONTINUOUS
 62
     3
100
AcDbLine
 10
234.2710213908693
 20
197.9743196719793
 30
0.0
 11
231.4512705443694
 21
198.9117599349793
 31
0.0
  0
ARC
  5
2DB0
330
1A
100
AcDbEntity
  8
SEIHIN
  6
CONTINUOUS
 62
     3
100
AcDbCircle
 10
231.7085184220693
 20
199.3405063978792
 30
0.0
 40
2.1
100
AcDbArc
 50
180.0000042601999
 51
239.0362434874
  0
LINE
  5
2DB1
330
1A
100
AcDbEntity
  8
SEIHIN
  6
CONTINUOUS
 62
     3
100
AcDbLine
 10
231.2085184220693
 20
199.3405063977793
 30
0.0
 11
231.2085184220693
 21
199.6515066020793
 31
0.0
  0
LINE
  5
2DB2
330
1A
100
AcDbEntity
  8
SEIHIN
  6
CONTINUOUS
 62
     3
100
AcDbLine
 10
229.6085184220693
 20
199.3405062417792
 30
0.0
 11
229.6085184220693
 21
199.6515066020793
 31
0.0
  0
LINE
  5
2DB3
330
1A
100
AcDbEntity
  8
SEIHIN
  6
CONTINUOUS
 62
     3
100
AcDbLine
 10
235.7085184220693
 20
181.6515066020793
 30
0.0
 11
235.7085184220693
 21
195.9815601697792
 31
0.0
  0
ARC
  5
2DB4
330
1A
100
AcDbEntity
  8
SEIHIN
  6
CONTINUOUS
 62
     3
100
AcDbCircle
 10
238.7085184220694
 20
181.6515066020793
 30
0.0
 40
3.0
100
AcDbArc
 50
180.0
 51
236.4426902380782
  0
ARC
  5
2DB5
330
1A
100
AcDbEntity
  8
SEIHIN
  6
CONTINUOUS
 62
     3
100
AcDbCircle
 10
231.7085184220693
 20
219.9625068061793
 30
0.0
 40
0.5
100
AcDbArc
 50
120.9637695122999
 51
180.0000000117
  0
LINE
  5
2DB6
330
1A
100
AcDbEntity
  8
SEIHIN
  6
CONTINUOUS
 62
     3
100
AcDbLine
 10
231.2085184220693
 20
221.9562124332792
 30
0.0
 11
234.1085184220694
 21
224.2551398124793
 31
0.0
  0
LINE
  5
2DB7
330
1A
100
AcDbEntity
  8
SEIHIN
  6
CONTINUOUS
 62
     3
100
AcDbLine
 10
231.4512704472693
 20
220.3912532107792
 30
0.0
 11
234.2710214051693
 21
221.3286934888793
 31
0.0
  0
ARC
  5
2DB8
330
1A
100
AcDbEntity
  8
SEIHIN
  6
CONTINUOUS
 62
     3
100
AcDbCircle
 10
233.6085184220693
 20
223.3214528794792
 30
0.0
 40
2.1
100
AcDbArc
 50
288.3896487477998
 51
0.0000042603
  0
ARC
  5
2DB9
330
1A
100
AcDbEntity
  8
SEIHIN
  6
CONTINUOUS
 62
     3
100
AcDbCircle
 10
233.6085184220693
 20
223.2810120414792
 30
0.0
 40
0.5
100
AcDbArc
 50
288.3896443627
 51
0.0000000353
  0
ARC
  5
2DBA
330
1A
100
AcDbEntity
  8
SEIHIN
  6
CONTINUOUS
 62
     3
100
AcDbCircle
 10
231.7085184220693
 20
219.9625068061793
 30
0.0
 40
2.1
100
AcDbArc
 50
120.9637641725
 51
180.0000042601999
  0
LINE
  5
2DBB
330
1A
100
AcDbEntity
  8
SEIHIN
  6
CONTINUOUS
 62
     3
100
AcDbLine
 10
231.2085184220693
 20
219.9625068060792
 30
0.0
 11
231.2085184220693
 21
219.6515066020793
 31
0.0
  0
LINE
  5
2DBC
330
1A
100
AcDbEntity
  8
SEIHIN
  6
CONTINUOUS
 62
     3
100
AcDbLine
 10
321.9175257631694
 20
133.0042890274792
 30
0.0
 11
334.9161994355694
 21
100.5076048464792
 31
0.0
  0
LINE
  5
2DBD
330
1A
100
AcDbEntity
  8
SEIHIN
  6
CONTINUOUS
 62
     3
100
AcDbLine
 10
335.4732854500692
 20
107.1926370208792
 30
0.0
 11
337.7016295081692
 21
101.6217768755792
 31
0.0
  0
LINE
  5
2DBE
330
1A
100
AcDbEntity
  8
SEIHIN
  6
CONTINUOUS
 62
     3
100
AcDbLine
 10
318.6529690421694
 20
139.8193896281793
 30
0.0
 11
334.4519610900693
 21
100.3219095082792
 31
0.0
  0
ARC
  5
2DBF
330
1A
100
AcDbEntity
  8
SEIHIN
  6
CONTINUOUS
 62
     3
100
AcDbCircle
 10
349.5861311515692
 20
109.6066764171792
 30
0.0
 40
3.0
100
AcDbArc
 50
291.8014095216
 51
21.8014145132
  0
LINE
  5
2DC0
330
1A
100
AcDbEntity
  8
SEIHIN
  6
CONTINUOUS
 62
     3
100
AcDbLine
 10
302.4046269516694
 20
133.3200527919792
 30
0.0
 11
291.1907797661695
 21
161.3546707558792
 31
0.0
  0
LINE
  5
2DC1
330
1A
100
AcDbEntity
  8
SEIHIN
  6
CONTINUOUS
 62
     3
100
AcDbLine
 10
294.5434979897694
 20
152.9728751966793
 30
0.0
 11
308.4706483530694
 21
158.5437353420792
 31
0.0
  0
LINE
  5
2DC2
330
1A
100
AcDbEntity
  8
SEIHIN
  6
CONTINUOUS
 62
     3
100
AcDbLine
 10
316.3317773149695
 20
138.8909129372793
 30
0.0
 11
305.1179301293693
 21
166.9255309011792
 31
0.0
  0
LINE
  5
2DC3
330
1A
100
AcDbEntity
  8
SEIHIN
  6
CONTINUOUS
 62
     3
100
AcDbLine
 10
328.4168625993693
 20
124.8336941476793
 30
0.0
 11
333.9877227446694
 21
110.9065437843792
 31
0.0
  0
LINE
  5
2DC4
330
1A
100
AcDbEntity
  8
SEIHIN
  6
CONTINUOUS
 62
     3
100
AcDbLine
 10
309.0116997598694
 20
96.60800274477935
 30
0.0
 11
307.5261370544694
 21
100.3219095082792
 31
0.0
  0
LINE
  5
2DC5
330
1A
100
AcDbEntity
  8
SEIHIN
  6
CONTINUOUS
 62
     3
100
AcDbLine
 10
329.8095776356694
 20
125.3907801621793
 30
0.0
 11
328.3240149302694
 21
129.1046869257792
 31
0.0
  0
LINE
  5
2DC6
330
1A
100
AcDbEntity
  8
SEIHIN
  6
CONTINUOUS
 62
     3
100
AcDbLine
 10
306.1334220180694
 20
115.9203179151792
 30
0.0
 11
301.9552769091694
 21
114.2490598715792
 31
0.0
  0
LINE
  5
2DC7
330
1A
100
AcDbEntity
  8
SEIHIN
  6
CONTINUOUS
 62
     3
100
AcDbLine
 10
291.1907797661695
 20
161.3546707558792
 30
0.0
 11
305.1179301293693
 21
166.9255309011792
 31
0.0
  0
CIRCLE
  5
2DC8
330
1A
100
AcDbEntity
  8
SEIHIN
  6
CONTINUOUS
 62
     3
100
AcDbCircle
 10
302.2338199163692
 20
96.05091673017932
 30
0.0
 40
2.1
  0
LINE
  5
2DC9
330
1A
100
AcDbEntity
  8
SEIHIN
  6
CONTINUOUS
 62
     3
100
AcDbLine
 10
299.6340851818694
 20
124.0909127949793
 30
0.0
 11
301.8624292400694
 21
118.5200526496793
 31
0.0
  0
LINE
  5
2DCA
330
1A
100
AcDbEntity
  8
SEIHIN
  6
CONTINUOUS
 62
     3
100
AcDbLine
 10
324.1458698212694
 20
127.4334288821793
 30
0.0
 11
328.3240149302694
 21
129.1046869257792
 31
0.0
  0
LINE
  5
2DCB
330
1A
100
AcDbEntity
  8
SEIHIN
  6
CONTINUOUS
 62
     3
100
AcDbLine
 10
303.3479919454693
 20
114.8061458860792
 30
0.0
 11
308.9188520907694
 21
100.8789955227793
 31
0.0
  0
LINE
  5
2DCC
330
1A
100
AcDbEntity
  8
SEIHIN
  6
CONTINUOUS
 62
     3
100
AcDbLine
 10
331.2022926719694
 20
109.7923717552792
 30
0.0
 11
335.3804377809694
 21
111.4636297988792
 31
0.0
  0
LINE
  5
2DCD
330
1A
100
AcDbEntity
  8
SEIHIN
  6
CONTINUOUS
 62
     3
100
AcDbLine
 10
234.0462802275694
 20
101.1775912629793
 30
0.0
 11
235.2442800766694
 21
98.1825916402793
 31
0.0
  0
LINE
  5
2DCE
330
1A
100
AcDbEntity
  8
SEIHIN
  6
CONTINUOUS
 62
     3
100
AcDbLine
 10
311.7042821633694
 20
101.9931675518793
 30
0.0
 11
307.5261370544694
 21
100.3219095082792
 31
0.0
  0
LINE
  5
2DCF
330
1A
100
AcDbEntity
  8
SEIHIN
  6
CONTINUOUS
 62
     3
100
AcDbLine
 10
286.6354115094694
 20
118.8914433259792
 30
0.0
 11
302.8837535999694
 21
125.3907801621793
 31
0.0
  0
LINE
  5
2DD0
330
1A
100
AcDbEntity
  8
SEIHIN
  6
CONTINUOUS
 62
     3
100
AcDbLine
 10
336.8660004863694
 20
107.7497230353792
 30
0.0
 11
335.3804377809694
 21
111.4636297988792
 31
0.0
  0
LINE
  5
2DD1
330
1A
100
AcDbEntity
  8
SEIHIN
  6
CONTINUOUS
 62
     3
100
AcDbLine
 10
341.6012315767694
 20
137.6466725648792
 30
0.0
 11
352.3715611264694
 21
110.7208486905792
 31
0.0
  0
CIRCLE
  5
2DD2
330
1A
100
AcDbEntity
  8
SEIHIN
  6
CONTINUOUS
 62
     3
100
AcDbCircle
 10
335.1018947737693
 20
129.6617729402792
 30
0.0
 40
2.1
  0
LINE
  5
2DD3
330
1A
100
AcDbEntity
  8
SEIHIN
  6
CONTINUOUS
 62
     3
100
AcDbLine
 10
324.7029558357694
 20
134.1184610564792
 30
0.0
 11
326.9312998939694
 21
128.5476009111792
 31
0.0
  0
LINE
  5
2DD4
330
1A
100
AcDbEntity
  8
SEIHIN
  6
CONTINUOUS
 62
     3
100
AcDbLine
 10
229.8167868520694
 20
99.63470388557929
 30
0.0
 11
231.0661349676693
 21
96.51133359667941
 31
0.0
  0
MTEXT
  5
2DD5
330
1A
100
AcDbEntity
  8
SUNPOU
  6
CONTINUOUS
 62
     4
100
AcDbMText
 10
248.0206324219693
 20
49.34079010447938
 30
0.0
 40
3.5983331442
 41
11.8309251626
 71
     1
 72
     5
  1
\W0.8;10
1001
ACAD
1000
MTEXTBEGIN
1070
    73
1070
     1
1070
    44
1040
1.0
1070
    74
1070
     0
1000
MTEXTEND
1000
MTEXTBEGIN
1070
    73
1070
     1
1070
    44
1040
1.0
1070
    74
1070
     0
1000
MTEXTEND
1000
MTEXTBEGIN
1070
    73
1070
     1
1070
    44
1040
1.0
1070
    74
1070
     0
1000
MTEXTEND
  0
LINE
  5
2DD6
330
1A
100
AcDbEntity
  8
SUNPOU
  6
CONTINUOUS
 62
     4
100
AcDbLine
 10
235.7085184220693
 20
98.36828697847929
 30
0.0
 11
225.3604987034692
 21
124.2383362748792
 31
0.0
  0
ARC
  5
2DD7
330
1A
100
AcDbEntity
  8
SEIHIN
  6
CONTINUOUS
 62
     3
100
AcDbCircle
 10
298.5199131528694
 20
89.18018921767936
 30
0.0
 40
3.0
100
AcDbArc
 50
201.8014095099
 51
291.8014095216
  0
LINE
  5
2DD8
330
1A
100
AcDbEntity
  8
SEIHIN
  6
CONTINUOUS
 62
     3
100
AcDbLine
 10
248.7071920944693
 20
65.87160279747934
 30
0.0
 11
242.5792459346693
 21
63.42042433357931
 31
0.0
  0
LINE
  5
2DD9
330
1A
100
AcDbEntity
  8
SEIHIN
  6
CONTINUOUS
 62
     3
100
AcDbLine
 10
299.6340851818694
 20
86.39475914497934
 30
0.0
 11
350.7003031805694
 21
106.8212463444792
 31
0.0
  0
LINE
  5
2DDA
330
1A
100
AcDbEntity
  8
SEIHIN
  6
CONTINUOUS
 62
     3
100
AcDbLine
 10
235.7085184220693
 20
98.36828697847929
 30
0.0
 11
248.7071920944693
 21
65.87160279747934
 31
0.0
  0
LINE
  5
2DDB
330
1A
100
AcDbEntity
  8
SEIHIN
  6
CONTINUOUS
 62
     3
100
AcDbLine
 10
284.9641534659695
 20
114.9918412242792
 30
0.0
 11
295.7344830801694
 21
88.06601718857935
 31
0.0
  0
ARC
  5
2DDC
330
1A
100
AcDbEntity
  8
SEIHIN
  6
CONTINUOUS
 62
     3
100
AcDbCircle
 10
-228.0111817367693
 20
98.76355186667929
 30
0.0
 40
6.5
210
0.0
220
0.0
230
-1.0
100
AcDbArc
 50
84.0
 51
158.1985905136
  0
LINE
  5
2DDD
330
1A
100
AcDbEntity
  8
SEIHIN
  6
CONTINUOUS
 62
     3
100
AcDbLine
 10
229.5805722622693
 20
95.9171085145793
 30
0.0
 11
242.5792459346693
 21
63.42042433357931
 31
0.0
  0
LINE
  5
2DDE
330
1A
100
AcDbEntity
  8
SEIHIN
  6
CONTINUOUS
 62
     3
100
AcDbLine
 10
234.2229557166694
 20
97.77406189637929
 30
0.0
 11
247.2216293890693
 21
65.2773777153793
 31
0.0
  0
ARC
  5
2DDF
330
1A
100
AcDbEntity
  8
SEIHIN
  6
CONTINUOUS
 62
     3
100
AcDbCircle
 10
-227.9598334702694
 20
98.8919225328793
 30
0.0
 40
2.0
210
0.0
220
0.0
230
-1.0
100
AcDbArc
 50
83.65961505699997
 51
158.1985905136
  0
ARC
  5
2DE0
330
1A
100
AcDbEntity
  8
SEIHIN
  6
CONTINUOUS
 62
     3
100
AcDbCircle
 10
287.7495835385693
 20
116.1060132533792
 30
0.0
 40
3.0
100
AcDbArc
 50
111.8014094981
 51
201.8014095099
  0
LINE
  5
2DE1
330
1A
100
AcDbEntity
  8
SEIHIN
  6
CONTINUOUS
 62
     3
100
AcDbLine
 10
302.4195152545694
 20
125.2050848239792
 30
0.0
 11
315.4181889269693
 21
92.70840064307936
 31
0.0
  0
LINE
  5
2DE2
330
1A
100
AcDbEntity
  8
SEIHIN
  6
CONTINUOUS
 62
     3
100
AcDbLine
 10
310.4044147961694
 20
97.16508875927935
 30
0.0
 11
312.6327588542693
 21
91.59422861397933
 31
0.0
  0
ARC
  5
2DE3
330
1A
100
AcDbEntity
  8
SEIHIN
  6
CONTINUOUS
 62
     3
100
AcDbCircle
 10
338.8158015372694
 20
136.5325004527792
 30
0.0
 40
3.0
100
AcDbArc
 50
21.80141119389998
 51
111.8014094981
  0
LINE
  5
2DE4
330
1A
100
AcDbEntity
  8
SEIHIN
  6
CONTINUOUS
 62
     3
100
AcDbLine
 10
301.9552769091694
 20
114.2490598715792
 30
0.0
 11
300.4697142036694
 21
117.9629666350792
 31
0.0
  0
LINE
  5
2DE5
330
1A
100
AcDbEntity
  8
SEIHIN
  6
CONTINUOUS
 62
     3
100
AcDbLine
 10
325.6314325266694
 20
123.7195221185792
 30
0.0
 11
329.8095776356694
 21
125.3907801621793
 31
0.0
  0
LINE
  5
2DE6
330
1A
100
AcDbEntity
  8
SEIHIN
  6
CONTINUOUS
 62
     3
100
AcDbLine
 10
300.0834352244694
 20
132.3915761010793
 30
0.0
 11
315.8824272723694
 21
92.89409598117934
 31
0.0
  0
ARC
  5
2DE7
330
1A
100
AcDbEntity
  8
SEIHIN
  6
CONTINUOUS
 62
     3
100
AcDbCircle
 10
-238.7085184220694
 20
237.6515066020793
 30
0.0
 40
3.0
210
0.0
220
0.0
230
-1.0
100
AcDbArc
 50
0.0
 51
56.44269023807857
  0
ARC
  5
2DE8
330
1A
100
AcDbEntity
  8
SEIHIN
  6
CONTINUOUS
 62
     3
100
AcDbCircle
 10
-237.1085184220694
 20
237.6515066020793
 30
0.0
 40
3.0
210
0.0
220
0.0
230
-1.0
100
AcDbArc
 50
0.0
 51
56.44269023807857
  0
ARC
  5
2DEA
330
1A
100
AcDbEntity
  8
SEIHIN
  6
CONTINUOUS
 62
     3
100
AcDbCircle
 10
-245.7071920944693
 20
237.6515066020793
 30
0.0
 40
3.0
210
0.0
220
0.0
230
-1.0
100
AcDbArc
 50
123.5573097619189
 51
180.0
  0
DIMENSION
  5
2DEB
330
1A
100
AcDbEntity
  8
SUNPOU
  6
CONTINUOUS
100
AcDbDimension
  2
*D1
 10
319.680627922391
 20
192.3563716466957
 30
0.0
 11
290.4333906136475
 21
183.3508672296159
 31
0.0
 70
    32
  3
STANDARD
100
AcDbAlignedDimension
 13
284.7090639055767
 23
115.5338907114282
 33
0.0
 14
341.3466993121121
 24
138.1873287629991
 34
0.0
 50
21.79999999999983
100
AcDbRotatedDimension
1001
ACAD
1000
DSTYLE
1002
{
1070
   140
1040
3.0
1070
    74
1070
     0
1070
   172
1070
     1
1070
    73
1070
     0
1070
   272
1070
     0
1070
    77
1070
     3
1070
   173
1070
     1
1070
   147
1040
1.0
1070
    42
1040
3.0
1070
    44
1040
1.5
1070
    43
1040
7.0
1070
   271
1070
     0
1070
   178
1070
   256
1070
   177
1070
   256
1070
   176
1070
   256
1070
   141
1040
3.0
1070
     7
1000
OPEN
1070
     6
1000
OPEN
1070
    41
1040
3.0
1002
}
  0
LEADER
  5
2DED
330
1A
100
AcDbEntity
  8
SUNPOU
  6
CONTINUOUS
100
AcDbLeader
  3
STANDARD
 76
     3
 10
293.2634816593596
 20
115.5215620295594
 30
0.0
 10
269.7868108977445
 20
130.5154939503916
 30
0.0
 10
246.8036705222913
 20
121.3228936453855
 30
0.0
211
0.9284858268809136
221
0.3713678355502348
231
0.0
1001
ACAD
1000
DSTYLE
1002
{
1070
     6
1000
OPEN
1070
    41
1040
3.0
1070
    42
1040
3.0
1070
    43
1040
7.0
1070
    44
1040
1.5
1070
    73
1070
     0
1070
    74
1070
     0
1070
    77
1070
     3
1070
   140
1040
3.0
1070
   141
1040
3.0
1070
   147
1040
1.0
1070
   172
1070
     1
1070
   173
1070
     1
1070
   176
1070
   256
1070
   177
1070
   256
1070
   178
1070
   256
1070
   271
1070
     0
1070
   272
1070
     0
1070
   341
1005
B2
1070
   343
1005
B2
1070
   344
1005
B2
1002
}
1000
LEANOF
1010
0.0
1020
0.0
1030
0.0
  0
TEXT
  5
2DEE
330
1A
100
AcDbEntity
  8
SUNPOU
  6
CONTINUOUS
100
AcDbText
 10
247.5495706745101
 20
123.0609583629262
 30
0.0
 40
4.0
  1
4-φ4.2
 50
21.79999999999982
100
AcDbText
  0
DIMENSION
  5
2DEF
330
1A
100
AcDbEntity
  8
SUNPOU
  6
CONTINUOUS
100
AcDbDimension
  2
*D2
 10
281.499747750165
 20
79.141541641007
 30
0.0
 11
277.3220251952382
 21
96.31846320029854
 31
0.0
 70
    32
  3
STANDARD
100
AcDbAlignedDimension
 13
286.6354115094694
 23
118.8914433259792
 33
0.0
 14
299.6332857554438
 24
86.39443938583381
 34
0.0
 50
111.7999999999997
100
AcDbRotatedDimension
1001
ACAD
1000
DSTYLE
1002
{
1070
   140
1040
3.0
1070
    74
1070
     0
1070
   172
1070
     1
1070
    73
1070
     0
1070
   272
1070
     0
1070
    77
1070
     3
1070
   173
1070
     1
1070
   147
1040
1.0
1070
    42
1040
3.0
1070
    44
1040
1.5
1070
    43
1040
7.0
1070
   271
1070
     0
1070
   178
1070
   256
1070
   177
1070
   256
1070
   176
1070
   256
1070
   141
1040
3.0
1070
     7
1000
OPEN
1070
     6
1000
OPEN
1070
    41
1040
3.0
1002
}
  0
DIMENSION
  5
2DF0
330
1A
100
AcDbEntity
  8
SUNPOU
  6
CONTINUOUS
100
AcDbDimension
  2
*D3
 10
279.6918374807008
 20
107.4980329455714
 30
0.0
 11
280.5275807057021
 21
112.1403958419706
 31
0.0
 70
    32
  3
STANDARD
100
AcDbAlignedDimension
 13
286.6354115094694
 23
118.8914433259792
 33
0.0
 14
290.5348400207521
 24
111.8349245464822
 34
0.0
 50
111.7999999999997
100
AcDbRotatedDimension
1001
ACAD
1000
DSTYLE
1002
{
1070
   140
1040
3.0
1070
    74
1070
     0
1070
   172
1070
     1
1070
    73
1070
     0
1070
   272
1070
     0
1070
    77
1070
     3
1070
   173
1070
     1
1070
   147
1040
1.0
1070
    42
1040
3.0
1070
    44
1040
1.5
1070
    43
1040
7.0
1070
   271
1070
     0
1070
   178
1070
   256
1070
   177
1070
   256
1070
   176
1070
   256
1070
   141
1040
3.0
1070
     7
1000
OPEN
1070
     6
1000
OPEN
1070
    41
1040
3.0
1002
}
  0
DIMENSION
  5
2DF1
330
1A
100
AcDbEntity
  8
SUNPOU
  6
CONTINUOUS
100
AcDbDimension
  2
*D4
 10
289.7187690405572
 20
82.42891561978685
 30
0.0
 11
290.5545122655585
 21
87.07127851618608
 31
0.0
 70
    32
  3
STANDARD
100
AcDbAlignedDimension
 13
297.5908288962065
 23
94.19369383574496
 33
0.0
 14
299.6332857554438
 24
86.39443938583381
 34
0.0
 50
111.7999999999997
100
AcDbRotatedDimension
1001
ACAD
1000
DSTYLE
1002
{
1070
   140
1040
3.0
1070
    74
1070
     0
1070
   172
1070
     1
1070
    73
1070
     0
1070
   272
1070
     0
1070
    77
1070
     3
1070
   173
1070
     1
1070
   147
1040
1.0
1070
    42
1040
3.0
1070
    44
1040
1.5
1070
    43
1040
7.0
1070
   271
1070
     0
1070
   178
1070
   256
1070
   177
1070
   256
1070
   176
1070
   256
1070
   141
1040
3.0
1070
     7
1000
OPEN
1070
     6
1000
OPEN
1070
    41
1040
3.0
1002
}
  0
LINE
  5
2DF2
330
1A
100
AcDbEntity
  8
CENTER_L
  6
CENTER
100
AcDbLine
 10
290.5350090587313
 20
111.8362904178054
 30
0.0
 11
299.8198673275404
 21
115.5499687733077
 31
0.0
  0
LINE
  5
2DF3
330
1A
100
AcDbEntity
  8
CENTER_L
  6
CENTER
100
AcDbLine
 10
297.0342773708869
 20
109.050700461152
 30
0.0
 11
293.3205990153847
 21
118.3355587299611
 31
0.0
  0
LINE
  5
2DF4
330
1A
100
AcDbEntity
  8
CENTER_L
  6
CENTER
100
AcDbLine
 10
297.5909979341856
 20
94.19505970706813
 30
0.0
 11
306.8758562029949
 21
97.90873806257041
 31
0.0
  0
LINE
  5
2DF5
330
1A
100
AcDbEntity
  8
CENTER_L
  6
CENTER
100
AcDbLine
 10
304.0902662463413
 20
91.40946975041471
 30
0.0
 11
300.3765878908391
 21
100.6943280192237
 31
0.0
  0
LINE
  5
2DF6
330
1A
100
AcDbEntity
  8
CENTER_L
  6
CENTER
100
AcDbLine
 10
344.0151568022206
 20
107.3782866790746
 30
0.0
 11
340.3014784467182
 21
116.6631449478839
 31
0.0
  0
LINE
  5
2DF7
330
1A
100
AcDbEntity
  8
CENTER_L
  6
CENTER
100
AcDbLine
 10
337.5158884900649
 20
110.1638766357281
 30
0.0
 11
346.8007467588741
 21
113.8775549912304
 31
0.0
  0
LINE
  5
2DF8
330
1A
100
AcDbEntity
  8
CENTER_L
  6
CENTER
100
AcDbLine
 10
330.4598996146105
 20
127.8051073464654
 30
0.0
 11
339.7447578834196
 21
131.5187857019677
 31
0.0
  0
LINE
  5
2DF9
330
1A
100
AcDbEntity
  8
CENTER_L
  6
CENTER
100
AcDbLine
 10
336.9591679267661
 20
125.0195173898121
 30
0.0
 11
333.2454895712637
 21
134.3043756586212
 31
0.0
  0
LINE
  5
2E3A
330
1A
100
AcDbEntity
  8
CENTER_L
  6
CENTER
100
AcDbLine
 10
238.6794275164693
 20
228.6515066020793
 30
0.0
 11
238.6794275164693
 21
234.6515066020792
 31
0.0
  0
LINE
  5
2E3B
330
1A
100
AcDbEntity
  8
CENTER_L
  6
CENTER
100
AcDbLine
 10
235.6794275164693
 20
231.6515066020791
 30
0.0
 11
241.6794275164692
 21
231.6515066020793
 31
0.0
  0
LINE
  5
2E3C
330
1A
100
AcDbEntity
  8
CENTER_L
  6
CENTER
100
AcDbLine
 10
245.7358516223693
 20
228.6515066020793
 30
0.0
 11
245.7358516223693
 21
234.6515066020792
 31
0.0
  0
LINE
  5
2E3D
330
1A
100
AcDbEntity
  8
CENTER_L
  6
CENTER
100
AcDbLine
 10
242.7358516223693
 20
231.6515066020791
 30
0.0
 11
248.7358516223692
 21
231.6515066020793
 31
0.0
  0
DIMENSION
  5
2E3E
330
1A
100
AcDbEntity
  8
SUNPOU
  6
CONTINUOUS
100
AcDbDimension
  2
*D5
 10
263.4509808481908
 20
179.1515066020792
 30
0.0
 11
260.9509808481908
 21
209.6515066020792
 31
0.0
 70
    32
  3
STANDARD
100
AcDbAlignedDimension
 13
247.3655044896471
 23
240.1515066020791
 33
0.0
 14
247.3655044896471
 24
179.1515066020792
 34
0.0
 50
90.0
100
AcDbRotatedDimension
1001
ACAD
1000
DSTYLE
1002
{
1070
   140
1040
3.0
1070
    74
1070
     0
1070
   172
1070
     1
1070
    73
1070
     0
1070
   272
1070
     2
1070
    77
1070
     3
1070
   173
1070
     1
1070
   147
1040
1.0
1070
    42
1040
3.0
1070
    44
1040
1.5
1070
    43
1040
7.0
1070
   271
1070
     0
1070
   178
1070
     4
1070
   177
1070
     4
1070
   176
1070
     4
1070
   141
1040
3.0
1070
     7
1000
_OPEN
1070
     6
1000
_OPEN
1070
    41
1040
3.0
1002
}
  0
LINE
  5
2E3F
330
1A
100
AcDbEntity
  8
CENTER_L
  6
CENTER
100
AcDbLine
 10
238.6794275164693
 20
184.6515066020793
 30
0.0
 11
238.6794275164693
 21
190.6515066020793
 31
0.0
  0
LINE
  5
2E40
330
1A
100
AcDbEntity
  8
CENTER_L
  6
CENTER
100
AcDbLine
 10
235.6794275164693
 20
187.6515066020793
 30
0.0
 11
241.6794275164692
 21
187.6515066020793
 31
0.0
  0
LINE
  5
2E41
330
1A
100
AcDbEntity
  8
CENTER_L
  6
CENTER
100
AcDbLine
 10
245.7358516223693
 20
184.6515066020793
 30
0.0
 11
245.7358516223693
 21
190.6515066020793
 31
0.0
  0
LINE
  5
2E42
330
1A
100
AcDbEntity
  8
CENTER_L
  6
CENTER
100
AcDbLine
 10
242.7358516223693
 20
187.6515066020793
 30
0.0
 11
248.7358516223692
 21
187.6515066020793
 31
0.0
  0
LINE
  5
2E4F
330
1A
100
AcDbEntity
  8
SEIHIN
  6
CONTINUOUS
 62
     3
100
AcDbLine
 10
235.4502060268916
 20
240.1515066020793
 30
0.0
 11
247.365504489647
 21
240.1515066020793
 31
0.0
  0
LINE
  5
2E52
330
1A
100
AcDbEntity
  8
SEIHIN
  6
CONTINUOUS
 62
     3
100
AcDbLine
 10
235.4502060268916
 20
179.1515066020792
 30
0.0
 11
247.3655044896471
 21
179.1515066020792
 31
0.0
  0
DIMENSION
  5
2E65
330
1A
100
AcDbEntity
  8
SUNPOU
  6
CONTINUOUS
100
AcDbDimension
  2
*D6
 10
263.6637508378303
 20
71.8542262948238
 30
0.0
 11
259.4856057288434
 21
89.03104507620907
 31
0.0
 70
    33
  3
STANDARD
100
AcDbAlignedDimension
 13
235.7085184220692
 23
98.36828697847929
 33
0.0
 14
248.7071920944693
 24
65.87160279747934
 34
0.0
1001
ACAD
1000
DSTYLE
1002
{
1070
   140
1040
3.0
1070
    74
1070
     0
1070
   172
1070
     1
1070
    73
1070
     0
1070
   272
1070
     2
1070
    77
1070
     3
1070
   173
1070
     1
1070
   147
1040
1.0
1070
    42
1040
3.0
1070
    44
1040
1.5
1070
    43
1040
7.0
1070
   271
1070
     0
1070
   178
1070
     4
1070
   177
1070
     4
1070
   176
1070
     4
1070
   141
1040
3.0
1070
     7
1000
_OPEN
1070
     6
1000
_OPEN
1070
    41
1040
3.0
1002
}
  0
LINE
  5
2E66
330
1A
100
AcDbEntity
  8
CENTER_L
  6
CENTER
 62
     1
100
AcDbLine
 10
250.7498408146068
 20
95.76855224394224
 30
0.0
 11
226.6094468515084
 21
86.11239465893966
 31
0.0
  0
LINE
  5
2E67
330
1A
100
AcDbEntity
  8
CENTER_L
  6
CENTER
 62
     1
100
AcDbLine
 10
257.8062636651857
 20
78.12749511706265
 30
0.0
 11
233.6658697020873
 21
68.47133753206009
 31
0.0
  0
DIMENSION
  5
2E80
330
1A
100
AcDbEntity
  8
SUNPOU
  6
CONTINUOUS
100
AcDbDimension
  2
*D7
 10
225.3604987034692
 20
140.2763390052642
 30
0.0
 11
217.9604987041693
 21
142.7763390052642
 31
0.0
 70
    32
  3
STANDARD
100
AcDbAlignedDimension
 13
210.5604987048693
 23
122.2383362714792
 33
0.0
 14
225.3604987034692
 24
124.2383362748792
 34
0.0
100
AcDbRotatedDimension
1001
ACAD
1000
DSTYLE
1002
{
1070
   140
1040
3.0
1070
    74
1070
     0
1070
   172
1070
     1
1070
    73
1070
     0
1070
   272
1070
     2
1070
    77
1070
     3
1070
   173
1070
     1
1070
   147
1040
1.0
1070
    42
1040
3.0
1070
    44
1040
1.5
1070
    43
1040
7.0
1070
   271
1070
     0
1070
   178
1070
     4
1070
   177
1070
     4
1070
   176
1070
     4
1070
   141
1040
3.0
1070
     7
1000
_OPEN
1070
     6
1000
_OPEN
1070
    41
1040
3.0
1002
}
  0
DIMENSION
  5
2E8D
330
1A
100
AcDbEntity
  8
SUNPOU
  6
CONTINUOUS
100
AcDbDimension
  2
*D8
 10
80.9432238315694
 20
168.7328132391401
 30
0.0
 11
153.1518612675193
 21
171.2328132391402
 31
0.0
 70
    32
  3
STANDARD
100
AcDbAlignedDimension
 13
225.3604987034692
 23
124.2383362748792
 33
0.0
 14
80.9432238315694
 24
151.6051461883792
 34
0.0
100
AcDbRotatedDimension
1001
ACAD
1000
DSTYLE
1002
{
1070
   140
1040
3.0
1070
    74
1070
     0
1070
   172
1070
     1
1070
    73
1070
     0
1070
   272
1070
     2
1070
    77
1070
     3
1070
   173
1070
     1
1070
   147
1040
1.0
1070
    42
1040
3.0
1070
    44
1040
1.5
1070
    43
1040
7.0
1070
   271
1070
     0
1070
   178
1070
     4
1070
   177
1070
     4
1070
   176
1070
     4
1070
   141
1040
3.0
1070
     7
1000
_OPEN
1070
     6
1000
_OPEN
1070
    41
1040
3.0
1002
}
  0
LINE
  5
2EAD
330
1A
100
AcDbEntity
  8
CENTER_L
  6
CENTER
100
AcDbLine
 10
71.34322383156939
 20
209.6515066020792
 30
0.0
 11
258.2071920944692
 21
209.6515066020792
 31
0.0
  0
DIMENSION
  5
2EBC
330
1A
100
AcDbEntity
  8
SUNPOU
  6
CONTINUOUS
100
AcDbDimension
  2
*D9
 10
56.2761583680815
 20
199.6515066020793
 30
0.0
 11
53.77615836808146
 21
209.6515066020793
 31
0.0
 70
    32
  3
STANDARD
100
AcDbAlignedDimension
 13
81.3432238315694
 23
219.6515066020793
 33
0.0
 14
81.3432238315694
 24
199.6515066020793
 34
0.0
 50
90.0
100
AcDbRotatedDimension
1001
ACAD
1000
DSTYLE
1002
{
1070
   140
1040
3.0
1070
    74
1070
     0
1070
   172
1070
     1
1070
    73
1070
     0
1070
   272
1070
     2
1070
    77
1070
     3
1070
   173
1070
     1
1070
   147
1040
1.0
1070
    42
1040
3.0
1070
    44
1040
1.5
1070
    43
1040
7.0
1070
   271
1070
     0
1070
   178
1070
     4
1070
   177
1070
     4
1070
   176
1070
     4
1070
   141
1040
3.0
1070
     7
1000
_OPEN
1070
     6
1000
_OPEN
1070
    41
1040
3.0
1002
}
  0
LINE
  5
2F2A
330
1A
100
AcDbEntity
  8
NOKITOI
  6
PHANTOM
 62
     8
100
AcDbLine
 10
137.3315474014194
 20
67.83161902077932
 30
0.0
 11
181.9111474014193
 21
67.83151902077934
 31
0.0
  0
LINE
  5
2F2B
330
1A
100
AcDbEntity
  8
NOKITOI
  6
PHANTOM
 62
     8
100
AcDbLine
 10
182.1609474014192
 20
66.63151902077929
 30
0.0
 11
137.3315474014194
 21
66.63161902077927
 31
0.0
  0
ARC
  5
2F2C
330
1A
100
AcDbEntity
  8
NOKITOI
  6
PHANTOM
 62
     8
100
AcDbCircle
 10
137.3315534833873
 20
109.6316133961229
 30
0.0
 40
41.79999437547816
100
AcDbArc
 50
184.4742952125247
 51
269.999854592109
  0
ARC
  5
2F2D
330
1A
100
AcDbEntity
  8
NOKITOI
  6
PHANTOM
 62
     8
100
AcDbCircle
 10
137.3315311749618
 20
109.6316334971493
 30
0.0
 40
43.00001447645168
100
AcDbArc
 50
186.5249107071174
 51
269.9998883751437
  0
ARC
  5
2F2F
330
1A
100
AcDbEntity
  8
NOKITOI
  6
PHANTOM
 62
     8
100
AcDbCircle
 10
93.85934120026155
 20
118.6316255558644
 30
0.0
 40
0.4999934649531607
100
AcDbArc
 50
356.9955363203376
 51
89.99928939038239
  0
LINE
  5
2F30
330
1A
100
AcDbEntity
  8
NOKITOI
  6
PHANTOM
 62
     8
100
AcDbLine
 10
90.05424740141966
 20
120.4316190207793
 30
0.0
 11
89.55424740141967
 21
117.9316190207793
 31
0.0
  0
LINE
  5
2F31
330
1A
100
AcDbEntity
  8
NOKITOI
  6
PHANTOM
 62
     8
100
AcDbLine
 10
86.78184740141984
 20
119.606619020779
 30
0.0
 11
86.93124740141916
 21
114.8277190207793
 31
0.0
  0
LINE
  5
2F32
330
1A
100
AcDbEntity
  8
NOKITOI
  6
PHANTOM
 62
     8
100
AcDbLine
 10
85.58244740141942
 20
119.5691190207792
 30
0.0
 11
85.97264740141923
 21
107.084819020779
 31
0.0
  0
LINE
  5
2F33
330
1A
100
AcDbEntity
  8
NOKITOI
  6
PHANTOM
 62
     8
100
AcDbLine
 10
95.16044740141984
 20
106.8316190207792
 30
0.0
 11
89.11954740141942
 21
106.8316190207792
 31
0.0
  0
LINE
  5
2F34
330
1A
100
AcDbEntity
  8
NOKITOI
  6
PHANTOM
 62
     8
100
AcDbLine
 10
91.49494740141978
 20
116.8316190207792
 30
0.0
 11
92.49074740141947
 21
117.9316190207793
 31
0.0
  0
LINE
  5
2F35
330
1A
100
AcDbEntity
  8
NOKITOI
  6
PHANTOM
 62
     8
100
AcDbLine
 10
89.55424740141967
 20
117.9316190207793
 30
0.0
 11
92.49074740141947
 21
117.9316190207793
 31
0.0
  0
LINE
  5
2F36
330
1A
100
AcDbEntity
  8
NOKITOI
  6
PHANTOM
 62
     8
100
AcDbLine
 10
93.54354740141941
 20
112.1316190207793
 30
0.0
 11
91.2944474014194
 21
112.1316190207793
 31
0.0
  0
LINE
  5
2F37
330
1A
100
AcDbEntity
  8
NOKITOI
  6
PHANTOM
 62
     8
100
AcDbLine
 10
87.47184740141944
 20
105.6316190207792
 30
0.0
 11
93.61654740141927
 21
105.6316190207792
 31
0.0
  0
ARC
  5
2F38
330
1A
100
AcDbEntity
  8
NOKITOI
  6
PHANTOM
 62
     8
100
AcDbCircle
 10
87.4718833605703
 20
107.1315841666359
 30
0.0
 40
1.499965146287778
100
AcDbArc
 50
181.7866280217766
 51
269.9986264296971
  0
ARC
  5
2F39
330
1A
100
AcDbEntity
  8
NOKITOI
  6
PHANTOM
 62
     8
100
AcDbCircle
 10
89.11956097355783
 20
108.8316058656928
 30
0.0
 40
1.999986844959662
100
AcDbArc
 50
181.7875531852355
 51
269.9996111843215
  0
LINE
  5
2F3A
330
1A
100
AcDbEntity
  8
NOKITOI
  6
PHANTOM
 62
     8
100
AcDbLine
 10
90.79954740141927
 20
112.7024190207793
 30
0.0
 11
91.13324740141939
 21
115.0386190207793
 31
0.0
  0
ARC
  5
2F3B
330
1A
100
AcDbEntity
  8
NOKITOI
  6
PHANTOM
 62
     8
100
AcDbCircle
 10
91.03308528286612
 20
111.6316628033044
 30
0.0
 40
3.999989731271038
100
AcDbArc
 50
96.47731142013284
 51
181.7899836067311
  0
LINE
  5
2F3C
330
1A
100
AcDbEntity
  8
NOKITOI
  6
PHANTOM
 62
     8
100
AcDbLine
 10
87.12054740141917
 20
108.7692190207792
 30
0.0
 11
87.0350474014195
 21
111.506719020779
 31
0.0
  0
ARC
  5
2F3D
330
1A
100
AcDbEntity
  8
NOKITOI
  6
PHANTOM
 62
     8
100
AcDbCircle
 10
91.29447400201712
 20
112.6315883438971
 30
0.0
 40
0.4999693238254178
100
AcDbArc
 50
171.8555038770531
 51
269.9969516090372
  0
ARC
  5
2F3E
330
1A
100
AcDbEntity
  8
NOKITOI
  6
PHANTOM
 62
     8
100
AcDbCircle
 10
91.03316761408866
 20
111.6316777491592
 30
0.0
 40
5.2000412730095
100
AcDbArc
 50
90.0013245430618
 51
142.0757990790538
  0
LINE
  5
2F3F
330
1A
100
AcDbEntity
  8
NOKITOI
  6
PHANTOM
 62
     8
100
AcDbLine
 10
91.49494740141978
 20
116.8316190207792
 30
0.0
 11
91.03304740141954
 21
116.8316190207792
 31
0.0
  0
ARC
  5
2F40
330
1A
100
AcDbEntity
  8
NOKITOI
  6
PHANTOM
 62
     8
100
AcDbCircle
 10
90.63826161983485
 20
115.1093043864781
 30
0.0
 40
0.5000073448410256
100
AcDbArc
 50
351.8729478641237
 51
96.47829282996752
  0
ARC
  5
2F41
330
1A
100
AcDbEntity
  8
NOKITOI
  6
PHANTOM
 62
     8
100
AcDbCircle
 10
93.61653897725688
 20
104.6316265358357
 30
0.0
 40
0.9999924849789756
100
AcDbArc
 50
6.528264606673934
 51
89.99951732741129
  0
ARC
  5
2F42
330
1A
100
AcDbEntity
  8
NOKITOI
  6
PHANTOM
 62
     8
100
AcDbCircle
 10
95.16045997112774
 20
106.3316073960495
 30
0.0
 40
0.5000116248877112
100
AcDbArc
 50
4.47484680834223
 51
90.00144034898383
  0
LINE
  5
2F43
330
1A
100
AcDbEntity
  8
NOKITOI
  6
PHANTOM
 62
     8
100
AcDbLine
 10
94.04294740141954
 20
112.6054190207793
 30
0.0
 11
94.3587474014194
 21
118.6053190207791
 31
0.0
  0
ARC
  5
2F44
330
1A
100
AcDbEntity
  8
NOKITOI
  6
PHANTOM
 62
     8
100
AcDbCircle
 10
93.54354051442447
 20
112.6316124856936
 30
0.0
 40
0.4999934649619629
100
AcDbArc
 50
270.0007892017869
 51
356.997036131742
  0
LINE
  5
2F45
330
1A
100
AcDbEntity
  8
NOKITOI
  6
PHANTOM
 62
     8
100
AcDbLine
 10
92.87944740141943
 20
113.3316190207791
 30
0.0
 11
92.10154740141986
 21
113.3316190207791
 31
0.0
  0
LINE
  5
2F46
330
1A
100
AcDbEntity
  8
NOKITOI
  6
PHANTOM
 62
     8
100
AcDbLine
 10
92.10154740141986
 20
113.3316190207791
 30
0.0
 11
92.50564740141959
 21
116.160019020779
 31
0.0
  0
LINE
  5
2F47
330
1A
100
AcDbEntity
  8
NOKITOI
  6
PHANTOM
 62
     8
100
AcDbLine
 10
92.50564740141959
 20
116.160019020779
 30
0.0
 11
93.06064740141943
 21
116.7731190207795
 31
0.0
  0
LINE
  5
2F48
330
1A
100
AcDbEntity
  8
NOKITOI
  6
PHANTOM
 62
     8
100
AcDbLine
 10
92.87944740141943
 20
113.3316190207791
 30
0.0
 11
93.06064740141943
 21
116.7731190207795
 31
0.0
  0
LINE
  5
2F49
330
1A
100
AcDbEntity
  8
NOKITOI
  6
PHANTOM
 62
     8
100
AcDbLine
 10
93.85934740141925
 20
119.1316190207792
 30
0.0
 11
91.62784740141939
 21
119.1316190207792
 31
0.0
  0
LINE
  5
2F4A
330
1A
100
AcDbEntity
  8
NOKITOI
  6
PHANTOM
 62
     8
100
AcDbLine
 10
87.5814474014192
 20
120.4316190207793
 30
0.0
 11
90.05424740141966
 21
120.4316190207793
 31
0.0
  0
LINE
  5
2F4B
330
1A
100
AcDbEntity
  8
NOKITOI
  6
PHANTOM
 62
     8
100
AcDbLine
 10
87.5814474014192
 20
121.6316190207793
 30
0.0
 11
90.90804740141953
 21
121.6316190207793
 31
0.0
  0
ARC
  5
2F4C
330
1A
100
AcDbEntity
  8
NOKITOI
  6
PHANTOM
 62
     8
100
AcDbCircle
 10
87.58145189621751
 20
119.6316236583061
 30
0.0
 40
0.7999953624857498
100
AcDbArc
 50
90.00032191805264
 51
181.7911273464193
  0
ARC
  5
2F4D
330
1A
100
AcDbEntity
  8
NOKITOI
  6
PHANTOM
 62
     8
100
AcDbCircle
 10
87.58146015226936
 20
119.6316321758655
 30
0.0
 40
1.999986844954074
100
AcDbArc
 50
90.00036528735288
 51
181.7883072882704
  0
LINE
  5
2F4E
330
1A
100
AcDbEntity
  8
NOKITOI
  6
PHANTOM
 62
     8
100
AcDbLine
 10
91.13754740141946
 20
119.729719020779
 30
0.0
 11
91.39834740141948
 21
121.0336190207793
 31
0.0
  0
ARC
  5
2F4F
330
1A
100
AcDbEntity
  8
NOKITOI
  6
PHANTOM
 62
     8
100
AcDbCircle
 10
91.62784014686399
 20
119.6316278706226
 30
0.0
 40
0.5000088498959383
100
AcDbArc
 50
168.6864043304889
 51
270.0008312961425
  0
ARC
  5
2F50
330
1A
100
AcDbEntity
  8
NOKITOI
  6
PHANTOM
 62
     8
100
AcDbCircle
 10
90.90804661841099
 20
121.1316199757809
 30
0.0
 40
0.4999990449987349
100
AcDbArc
 50
348.6967198015451
 51
89.99991027369329
  0
LINE
  5
2F51
330
1A
100
AcDbEntity
  8
NOKITOI
  6
PHANTOM
 62
     8
100
AcDbLine
 10
195.3869474014196
 20
106.3814190207792
 30
0.0
 11
192.3939474014191
 21
76.4516190207792
 31
0.0
  0
LINE
  5
2F52
330
1A
100
AcDbEntity
  8
NOKITOI
  6
PHANTOM
 62
     8
100
AcDbLine
 10
196.4279474014196
 20
104.7311190207792
 30
0.0
 11
193.5591474014195
 21
76.04371902077928
 31
0.0
  0
LINE
  5
2F53
330
1A
100
AcDbEntity
  8
NOKITOI
  6
PHANTOM
 62
     8
100
AcDbLine
 10
177.9111474014193
 20
67.83151902077934
 30
0.0
 11
158.0030474014196
 21
67.83151902077934
 31
0.0
  0
LINE
  5
2F54
330
1A
100
AcDbEntity
  8
NOKITOI
  6
PHANTOM
 62
     8
100
AcDbLine
 10
178.1609474014195
 20
66.63151902077929
 30
0.0
 11
158.0030474014196
 21
66.63151902077929
 31
0.0
  0
LINE
  5
2F55
330
1A
100
AcDbEntity
  8
NOKITOI
  6
PHANTOM
 62
     8
100
AcDbLine
 10
192.2130474014198
 20
76.11431902077929
 30
0.0
 11
182.2277474014195
 21
67.94451902077916
 31
0.0
  0
LINE
  5
2F56
330
1A
100
AcDbEntity
  8
NOKITOI
  6
PHANTOM
 62
     8
100
AcDbLine
 10
193.1973474014193
 20
75.36921902077942
 30
0.0
 11
182.7942474014193
 21
66.85751902077938
 31
0.0
  0
ARC
  5
2F57
330
1A
100
AcDbEntity
  8
NOKITOI
  6
PHANTOM
 62
     8
100
AcDbCircle
 10
182.1609404688418
 20
67.63151654577318
 30
0.0
 40
0.9999975250179316
100
AcDbArc
 50
270.0003972084019
 51
309.2946416752284
  0
ARC
  5
2F58
330
1A
100
AcDbEntity
  8
NOKITOI
  6
PHANTOM
 62
     8
100
AcDbCircle
 10
181.911153789168
 20
68.33152130076887
 30
0.0
 40
0.5000022800304047
100
AcDbArc
 50
269.9992680212791
 51
309.2854498596055
  0
ARC
  5
2F59
330
1A
100
AcDbEntity
  8
NOKITOI
  6
PHANTOM
 62
     8
100
AcDbCircle
 10
191.8964299755411
 20
76.50128653439132
 30
0.0
 40
0.4999904508696396
100
AcDbArc
 50
309.2900846377946
 51
354.2990110749239
  0
ARC
  5
2F5A
330
1A
100
AcDbEntity
  8
NOKITOI
  6
PHANTOM
 62
     8
100
AcDbCircle
 10
192.5641248285506
 20
76.14317694910669
 30
0.0
 40
0.9999908507640039
100
AcDbArc
 50
309.288709223069
 51
354.286232947753
  0
LINE
  5
2F5B
330
1A
100
AcDbEntity
  8
NOKITOI
  6
PHANTOM
 62
     8
100
AcDbLine
 10
205.4534474014195
 20
119.5691190207792
 30
0.0
 11
205.0633474014193
 21
107.084719020779
 31
0.0
  0
LINE
  5
2F5C
330
1A
100
AcDbEntity
  8
NOKITOI
  6
PHANTOM
 62
     8
100
AcDbLine
 10
204.254047401419
 20
119.606619020779
 30
0.0
 11
204.1047474014194
 21
114.8276190207794
 31
0.0
  0
ARC
  5
2F5D
330
1A
100
AcDbEntity
  8
NOKITOI
  6
PHANTOM
 62
     8
100
AcDbCircle
 10
197.1765511109146
 20
118.6316229308099
 30
0.0
 40
0.4999960899831856
100
AcDbArc
 50
90.00042508014919
 51
183.0156217414647
  0
LINE
  5
2F5E
330
1A
100
AcDbEntity
  8
NOKITOI
  6
PHANTOM
 62
     8
100
AcDbLine
 10
200.9817474014192
 20
120.4316190207793
 30
0.0
 11
201.4817474014193
 21
117.9316190207793
 31
0.0
  0
ARC
  5
2F5F
330
1A
100
AcDbEntity
  8
NOKITOI
  6
PHANTOM
 62
     8
100
AcDbCircle
 10
203.5640646145976
 20
107.131635703927
 30
0.0
 40
1.500016683246579
100
AcDbArc
 50
269.999342512336
 51
358.2076423244113
  0
ARC
  5
2F60
330
1A
100
AcDbEntity
  8
NOKITOI
  6
PHANTOM
 62
     8
100
AcDbCircle
 10
201.9163853892435
 20
108.8315558413515
 30
0.0
 40
2.00003682093288
100
AcDbArc
 50
269.9989117490344
 51
358.2110591274195
  0
LINE
  5
2F61
330
1A
100
AcDbEntity
  8
NOKITOI
  6
PHANTOM
 62
     8
100
AcDbLine
 10
195.884447401419
 20
106.8316190207792
 30
0.0
 11
201.9163474014194
 21
106.8316190207792
 31
0.0
  0
LINE
  5
2F62
330
1A
100
AcDbEntity
  8
NOKITOI
  6
PHANTOM
 62
     8
100
AcDbLine
 10
203.5640474014192
 20
105.6316190207792
 30
0.0
 11
197.4229474014195
 21
105.6316190207792
 31
0.0
  0
ARC
  5
2F63
330
1A
100
AcDbEntity
  8
NOKITOI
  6
PHANTOM
 62
     8
100
AcDbCircle
 10
197.4229680512602
 20
104.6316377086284
 30
0.0
 40
0.9999813123640343
100
AcDbArc
 50
90.00118317084911
 51
174.2905900333514
  0
ARC
  5
2F64
330
1A
100
AcDbEntity
  8
NOKITOI
  6
PHANTOM
 62
     8
100
AcDbCircle
 10
195.8844604724239
 20
106.3316308510591
 30
0.0
 40
0.4999881698908891
100
AcDbArc
 50
90.00149786226472
 51
174.2966061377164
  0
LINE
  5
2F65
330
1A
100
AcDbEntity
  8
NOKITOI
  6
PHANTOM
 62
     8
100
AcDbLine
 10
199.5409474014196
 20
116.8316190207792
 30
0.0
 11
198.5451474014192
 21
117.9316190207793
 31
0.0
  0
LINE
  5
2F66
330
1A
100
AcDbEntity
  8
NOKITOI
  6
PHANTOM
 62
     8
100
AcDbLine
 10
197.4923474014195
 20
112.1316190207793
 30
0.0
 11
199.7414474014188
 21
112.1316190207793
 31
0.0
  0
LINE
  5
2F67
330
1A
100
AcDbEntity
  8
NOKITOI
  6
PHANTOM
 62
     8
100
AcDbLine
 10
198.1564474014192
 20
113.3316190207791
 30
0.0
 11
198.9343474014188
 21
113.3316190207791
 31
0.0
  0
LINE
  5
2F68
330
1A
100
AcDbEntity
  8
NOKITOI
  6
PHANTOM
 62
     8
100
AcDbLine
 10
198.9343474014188
 20
113.3316190207791
 30
0.0
 11
198.5303474014195
 21
116.160019020779
 31
0.0
  0
LINE
  5
2F69
330
1A
100
AcDbEntity
  8
NOKITOI
  6
PHANTOM
 62
     8
100
AcDbLine
 10
201.4817474014193
 20
117.9316190207793
 30
0.0
 11
198.5451474014192
 21
117.9316190207793
 31
0.0
  0
LINE
  5
2F6A
330
1A
100
AcDbEntity
  8
NOKITOI
  6
PHANTOM
 62
     8
100
AcDbLine
 10
196.9930474014195
 20
112.6053190207792
 30
0.0
 11
196.6772474014191
 21
118.6053190207791
 31
0.0
  0
ARC
  5
2F6B
330
1A
100
AcDbEntity
  8
NOKITOI
  6
PHANTOM
 62
     8
100
AcDbCircle
 10
197.4923515228261
 20
112.6316151107487
 30
0.0
 40
0.4999960899864754
100
AcDbArc
 50
183.014724379174
 51
269.9995277178578
  0
LINE
  5
2F6C
330
1A
100
AcDbEntity
  8
NOKITOI
  6
PHANTOM
 62
     8
100
AcDbLine
 10
198.5303474014195
 20
116.160019020779
 30
0.0
 11
197.9753474014191
 21
116.7730190207791
 31
0.0
  0
LINE
  5
2F6D
330
1A
100
AcDbEntity
  8
NOKITOI
  6
PHANTOM
 62
     8
100
AcDbLine
 10
198.1564474014192
 20
113.3316190207791
 30
0.0
 11
197.9753474014191
 21
116.7730190207791
 31
0.0
  0
LINE
  5
2F6E
330
1A
100
AcDbEntity
  8
NOKITOI
  6
PHANTOM
 62
     8
100
AcDbLine
 10
200.2364474014192
 20
112.7023190207792
 30
0.0
 11
199.9026474014195
 21
115.0385190207793
 31
0.0
  0
ARC
  5
2F6F
330
1A
100
AcDbEntity
  8
NOKITOI
  6
PHANTOM
 62
     8
100
AcDbCircle
 10
200.0029164744832
 20
111.6316547654431
 30
0.0
 40
3.99998565374706
100
AcDbArc
 50
358.208696659101
 51
83.5242238046835
  0
ARC
  5
2F70
330
1A
100
AcDbEntity
  8
NOKITOI
  6
PHANTOM
 62
     8
100
AcDbCircle
 10
199.7414575878556
 20
112.6316307655032
 30
0.0
 40
0.5000117448278311
100
AcDbArc
 50
269.9988327478
 51
8.12731460871532
  0
LINE
  5
2F71
330
1A
100
AcDbEntity
  8
NOKITOI
  6
PHANTOM
 62
     8
100
AcDbLine
 10
203.9154474014194
 20
108.7690190207792
 30
0.0
 11
204.000947401419
 21
111.5066190207792
 31
0.0
  0
ARC
  5
2F72
330
1A
100
AcDbEntity
  8
NOKITOI
  6
PHANTOM
 62
     8
100
AcDbCircle
 10
200.0029295350681
 20
111.631627749159
 30
0.0
 40
5.199991271650611
100
AcDbArc
 50
37.92532860473223
 51
89.99980314072399
  0
LINE
  5
2F73
330
1A
100
AcDbEntity
  8
NOKITOI
  6
PHANTOM
 62
     8
100
AcDbLine
 10
199.5409474014196
 20
116.8316190207792
 30
0.0
 11
200.0029474014195
 21
116.8316190207792
 31
0.0
  0
ARC
  5
2F74
330
1A
100
AcDbEntity
  8
NOKITOI
  6
PHANTOM
 62
     8
100
AcDbCircle
 10
200.3976767739189
 20
115.1092492532741
 30
0.0
 40
0.4999578477751074
100
AcDbArc
 50
83.52609071220751
 51
188.1330561712932
  0
LINE
  5
2F75
330
1A
100
AcDbEntity
  8
NOKITOI
  6
PHANTOM
 62
     8
100
AcDbLine
 10
197.1765474014196
 20
119.1316190207792
 30
0.0
 11
199.4080474014195
 21
119.1316190207792
 31
0.0
  0
LINE
  5
2F76
330
1A
100
AcDbEntity
  8
NOKITOI
  6
PHANTOM
 62
     8
100
AcDbLine
 10
203.4544474014196
 20
120.431519020779
 30
0.0
 11
200.9817474014192
 21
120.4316190207793
 31
0.0
  0
LINE
  5
2F77
330
1A
100
AcDbEntity
  8
NOKITOI
  6
PHANTOM
 62
     8
100
AcDbLine
 10
203.4544474014196
 20
121.6315190207792
 30
0.0
 11
200.1278474014193
 21
121.6316190207793
 31
0.0
  0
LINE
  5
2F78
330
1A
100
AcDbEntity
  8
NOKITOI
  6
PHANTOM
 62
     8
100
AcDbLine
 10
199.8983474014193
 20
119.7296190207794
 30
0.0
 11
199.6375474014193
 21
121.0336190207793
 31
0.0
  0
ARC
  5
2F79
330
1A
100
AcDbEntity
  8
NOKITOI
  6
PHANTOM
 62
     8
100
AcDbCircle
 10
199.408046618411
 20
119.6316180657774
 30
0.0
 40
0.4999990449987399
100
AcDbArc
 50
270.0000897263034
 51
11.30328019845489
  0
ARC
  5
2F7A
330
1A
100
AcDbEntity
  8
NOKITOI
  6
PHANTOM
 62
     8
100
AcDbCircle
 10
200.127840146864
 20
121.1316101709356
 30
0.0
 40
0.500008849895925
100
AcDbArc
 50
89.99916870385415
 51
191.3135956695126
  0
ARC
  5
2F7B
330
1A
100
AcDbEntity
  8
NOKITOI
  6
PHANTOM
 62
     8
100
AcDbCircle
 10
203.4544361644252
 20
119.6316306145962
 30
0.0
 40
1.999988406214314
100
AcDbArc
 50
358.2088726535938
 51
89.99967808195389
  0
ARC
  5
2F7C
330
1A
100
AcDbEntity
  8
NOKITOI
  6
PHANTOM
 62
     8
100
AcDbCircle
 10
203.4544913677721
 20
119.6315736583061
 30
0.0
 40
0.7999453636812564
100
AcDbArc
 50
358.2123436447881
 51
90.00314907315425
  0
DIMENSION
  5
2F7D
330
1A
100
AcDbEntity
  8
SUNPOU
100
AcDbDimension
  2
*D10
 10
56.27615836808146
 20
65.8716027974794
 30
0.0
 11
53.77615836808146
 21
94.46864931127937
 31
0.0
 70
    32
  3
STANDARD
100
AcDbAlignedDimension
 13
81.3432238315694
 23
123.0656958250792
 33
0.0
 14
248.7071920944693
 24
65.87160279747934
 34
0.0
 50
90.0
100
AcDbRotatedDimension
1001
ACAD
1000
DSTYLE
1002
{
1070
    41
1040
3.0
1070
    42
1040
3.0
1070
    43
1040
7.0
1070
    44
1040
1.5
1070
    73
1070
     0
1070
    74
1070
     0
1070
    77
1070
     3
1070
   140
1040
3.0
1070
   141
1040
3.0
1070
   147
1040
1.0
1070
   172
1070
     1
1070
   173
1070
     1
1070
   176
1070
     4
1070
   177
1070
     4
1070
   178
1070
     4
1070
   271
1070
     0
1070
   272
1070
     2
1070
   341
1005
B2
1070
     6
1000
OPEN
1070
     7
1000
OPEN
1002
}
  0
LINE
  5
2F9C
330
1A
100
AcDbEntity
  8
CENTER_L
  6
CENTER
100
AcDbLine
 10
327.0240333589705
 20
91.96557361032475
 30
0.0
 11
296.3623808204146
 21
168.6251738382656
 31
0.0
  0
DIMENSION
  5
2F9D
330
1A
100
AcDbEntity
  8
SUNPOU
100
AcDbDimension
  2
*D11
 10
314.6394184857748
 20
180.8228719931758
 30
0.0
 11
293.7485536189597
 21
175.159678096048
 31
0.0
 70
    33
  3
STANDARD
100
AcDbAlignedDimension
 13
293.3205990153847
 23
118.3355587299611
 33
0.0
 14
333.2454895712637
 24
134.3043756586212
 34
0.0
1001
ACAD
1000
DSTYLE
1002
{
1070
    41
1040
3.0
1070
    42
1040
3.0
1070
    43
1040
7.0
1070
    44
1040
1.5
1070
    73
1070
     0
1070
    74
1070
     0
1070
    77
1070
     3
1070
   140
1040
3.0
1070
   141
1040
3.0
1070
   147
1040
1.0
1070
   172
1070
     1
1070
   173
1070
     1
1070
   176
1070
     4
1070
   177
1070
     4
1070
   178
1070
     4
1070
   271
1070
     0
1070
   272
1070
     2
1070
   341
1005
B2
1070
     6
1000
OPEN
1070
     7
1000
OPEN
1002
}
  0
LINE
  5
30F7
330
1A
100
AcDbEntity
  8
ZUWAKU
100
AcDbLine
 10
104.3233006447038
 20
7.599999845928206
 30
0.0
 11
223.7121819851655
 21
7.599999845928202
 31
0.0
  0
LINE
  5
30F8
330
1A
100
AcDbEntity
  8
ZUWAKU
100
AcDbLine
 10
104.3233006447038
 20
7.799999845928203
 30
0.0
 11
223.7121819851655
 21
7.799999845928207
 31
0.0
  0
LINE
  5
30F9
330
1A
100
AcDbEntity
  8
ZUWAKU
100
AcDbLine
 10
104.3233006447038
 20
7.699999845928203
 30
0.0
 11
223.7121819851655
 21
7.699999845928203
 31
0.0
  0
LINE
  5
30FA
330
1A
100
AcDbEntity
  8
ZUWAKU
100
AcDbLine
 10
-0.0000000003301466
 20
15.39999984592819
 30
0.0
 11
398.6999999996697
 21
15.39999984592819
 31
0.0
  0
LINE
  5
30FB
330
1A
100
AcDbEntity
  8
ZUWAKU
100
AcDbLine
 10
-0.0000000003301466
 20
15.29999984592819
 30
0.0
 11
398.6999999996697
 21
15.29999984592819
 31
0.0
  0
LINE
  5
30FC
330
1A
100
AcDbEntity
  8
ZUWAKU
100
AcDbLine
 10
-0.0000000003301466
 20
15.19999984592819
 30
0.0
 11
398.6999999996697
 21
15.19999984592819
 31
0.0
  0
LINE
  5
30FD
330
1A
100
AcDbEntity
  8
ZUWAKU
100
AcDbLine
 10
-0.0000000003301466
 20
15.09999984592818
 30
0.0
 11
398.6999999996697
 21
15.09999984592818
 31
0.0
  0
LINE
  5
30FE
330
1A
100
AcDbEntity
  8
ZUWAKU
100
AcDbLine
 10
-0.0000000003301466
 20
14.99999984592818
 30
0.0
 11
398.6999999996697
 21
14.99999984592818
 31
0.0
  0
LWPOLYLINE
  5
30FF
330
1A
100
AcDbEntity
  8
ZUWAKU
100
AcDbPolyline
 90
        4
 70
     1
 43
0.0
 10
0.0999999996698193
 20
275.6999998459282
 10
0.0999999996698193
 20
0.0999998459282097
 10
398.6999999996697
 20
0.0999998459282212
 10
398.6999999996699
 20
275.6999998459282
  0
LWPOLYLINE
  5
3100
330
1A
100
AcDbEntity
  8
ZUWAKU
100
AcDbPolyline
 90
        4
 70
     1
 43
0.0
 10
0.2999999996698079
 20
275.4999998459282
 10
0.2999999996698079
 20
0.2999998459281983
 10
398.4999999996699
 20
0.2999998459282214
 10
398.4999999996698
 20
275.4999998459282
  0
LWPOLYLINE
  5
3101
330
1A
100
AcDbEntity
  8
ZUWAKU
100
AcDbPolyline
 90
        4
 70
     1
 43
0.0
 10
-0.0000000003301466
 20
275.7999998459282
 10
-0.0000000003301466
 20
-0.0000001540718131
 10
398.7999999996699
 20
-0.0000001540717793
 10
398.7999999996699
 20
275.7999998459282
  0
LWPOLYLINE
  5
3102
330
1A
100
AcDbEntity
  8
ZUWAKU
100
AcDbPolyline
 90
        4
 70
     1
 43
0.0
 10
0.199999999669842
 20
275.5999998459282
 10
0.199999999669842
 20
0.1999998459282324
 10
398.5999999996698
 20
0.1999998459282208
 10
398.5999999996698
 20
275.5999998459282
  0
LWPOLYLINE
  5
3103
330
1A
100
AcDbEntity
  8
ZUWAKU
100
AcDbPolyline
 90
        4
 70
     1
 43
0.0
 10
0.3999999996698307
 20
275.3999998459282
 10
0.3999999996698307
 20
0.399999845928221
 10
398.3999999996698
 20
0.399999845928221
 10
398.3999999996698
 20
275.3999998459282
  0
TEXT
  5
3104
330
1A
100
AcDbEntity
  8
MOJI
100
AcDbText
 10
46.47889479375442
 20
6.370588911065567
 30
0.0
 40
3.0
  1
新・丸トップＲＶ１０５
 41
0.9
  7
ｽﾀｲﾙ1
100
AcDbText
  0
HATCH
  5
3105
330
1A
100
AcDbEntity
  8
ZUWAKU
100
AcDbHatch
 10
0.0
 20
0.0
 30
0.0
210
0.0
220
0.0
230
1.0
  2
ANSI37
 70
     0
 71
     0
 91
        8
 92
        7
 72
     1
 73
     1
 93
       24
 10
7.251131330229782
 20
8.822424086419978
 42
-0.1989123673796348
 10
7.046106077060414
 20
9.317398833250503
 42
0.0
 10
7.046106077060414
 20
9.962499845928192
 42
-0.4142135623730912
 10
7.308606077060403
 20
10.22499984592818
 42
0.0
 10
8.796106077060358
 20
10.22499984592818
 42
0.4142135623731546
 10
9.058606077060403
 20
10.48749984592818
 42
0.0
 10
9.058606077060403
 20
11.36249984592819
 42
0.4142135623731586
 10
8.796106077060358
 20
11.62499984592819
 42
0.0
 10
7.046106077060414
 20
11.62499984592819
 42
0.4142135623730928
 10
5.646106077060437
 20
10.2249998459282
 42
0.0
 10
5.646106077060437
 20
9.317398833250567
 42
0.1989123673796619
 10
6.261181836568653
 20
7.832474592758764
 42
0.0
 10
7.71608082389099
 20
6.377575605436435
 42
-0.1989123673796613
 10
7.921106077060414
 20
5.882600858605842
 42
0.0
 10
7.921106077060414
 20
5.237499845928184
 42
-0.4142135623730911
 10
7.658606077060426
 20
4.974999845928188
 42
0.0
 10
6.171106077060471
 20
4.974999845928188
 42
0.4142135623731526
 10
5.908606077060426
 20
4.712499845928194
 42
0.0
 10
5.908606077060426
 20
3.837499845928183
 42
0.4142135623731526
 10
6.171106077060471
 20
3.574999845928189
 42
0.0
 10
7.921106077060414
 20
3.574999845928189
 42
0.4142135623731044
 10
9.321106077060449
 20
4.974999845928177
 42
0.0
 10
9.321106077060449
 20
5.882600858605814
 42
0.1989123673796604
 10
8.706030317552176
 20
7.367525099097584
 42
0.0
 97
        0
 92
        7
 72
     1
 73
     1
 93
       16
 10
11.77110607706043
 20
9.524999845928192
 42
-0.4142135623730935
 10
12.47110607706042
 20
10.22499984592818
 42
0.0
 10
13.4336060770604
 20
10.22499984592818
 42
0.4142135623731546
 10
13.69610607706045
 20
10.48749984592818
 42
0.0
 10
13.69610607706045
 20
11.36249984592819
 42
0.4142135623730951
 10
13.43360607706046
 20
11.62499984592819
 42
0.0
 10
12.47110607706036
 20
11.62499984592817
 42
0.4142135623730892
 10
10.3711060770604
 20
9.524999845928157
 42
0.0
 10
10.3711060770604
 20
5.674999845928201
 42
0.4142135623730969
 10
12.47110607706042
 20
3.574999845928189
 42
0.0
 10
13.4336060770604
 20
3.574999845928189
 42
0.4142135623731526
 10
13.69610607706045
 20
3.837499845928183
 42
0.0
 10
13.69610607706045
 20
4.712499845928194
 42
0.4142135623730891
 10
13.43360607706046
 20
4.974999845928188
 42
0.0
 10
12.47110607706042
 20
4.974999845928188
 42
-0.4142135623730928
 10
11.77110607706043
 20
5.674999845928182
 42
0.0
 97
        0
 92
        7
 72
     1
 73
     1
 93
        2
 10
12.1211060770604
 20
7.599999845928188
 42
1.0
 10
13.8711060770604
 20
7.599999845928188
 42
1.0
 97
        0
 92
        7
 72
     1
 73
     1
 93
       26
 10
18.65742931814941
 20
9.602523442709902
 42
0.0
 10
19.18824913471832
 20
11.28345286184469
 42
0.5069206636600134
 10
18.93793368512064
 20
11.62499984592819
 42
0.0
 10
18.08848899531602
 20
11.62499984592819
 42
0.3272098845218764
 10
17.83817354571834
 20
11.44154683001167
 42
0.0
 10
16.90403860840246
 20
8.483452861844728
 42
-0.3272098845219541
 10
16.65372315880472
 20
8.299999845928187
 42
0.0
 10
16.58360607706049
 20
8.299999845928187
 42
-0.4142135623731526
 10
16.32110607706044
 20
8.562499845928181
 42
0.0
 10
16.32110607706044
 20
11.36249984592819
 42
0.4142135623730951
 10
16.05860607706046
 20
11.62499984592819
 42
0.0
 10
15.1836060770604
 20
11.62499984592819
 42
0.4142135623730871
 10
14.92110607706041
 20
11.36249984592819
 42
0.0
 10
14.92110607706041
 20
3.837499845928183
 42
0.4142135623730891
 10
15.1836060770604
 20
3.574999845928189
 42
0.0
 10
16.0586060770604
 20
3.574999845928189
 42
0.4142135623731526
 10
16.32110607706044
 20
3.837499845928183
 42
0.0
 10
16.32110607706044
 20
6.637499845928195
 42
-0.4142135623731526
 10
16.58360607706049
 20
6.899999845928189
 42
0.0
 10
16.65372315880478
 20
6.899999845928189
 42
-0.3272098845218915
 10
16.90403860840246
 20
6.716546830011651
 42
0.0
 10
17.83817354571834
 20
3.758452861844725
 42
0.3272098845218902
 10
18.08848899531602
 20
3.574999845928189
 42
0.0
 10
18.93793368512064
 20
3.574999845928189
 42
0.5069206636600335
 10
19.18824913471832
 20
3.916546830011693
 42
0.0
 10
18.02505344548149
 20
7.599999845928257
 42
0.0
 97
        0
 92
        7
 72
     1
 73
     1
 93
        8
 10
21.7461060770604
 20
11.36249984592819
 42
0.4142135623731546
 10
21.48360607706035
 20
11.62499984592819
 42
0.0
 10
20.60860607706047
 20
11.62499984592819
 42
0.4142135623731507
 10
20.34610607706042
 20
11.36249984592819
 42
0.0
 10
20.34610607706042
 20
3.837499845928183
 42
0.4142135623731526
 10
20.60860607706047
 20
3.574999845928189
 42
0.0
 10
21.48360607706035
 20
3.574999845928189
 42
0.4142135623731526
 10
21.7461060770604
 20
3.837499845928183
 42
0.0
 97
        0
 92
        7
 72
     1
 73
     1
 93
       24
 10
24.19610607706045
 20
9.962499845928192
 42
-0.4142135623731546
 10
24.45860607706049
 20
10.22499984592818
 42
0.0
 10
25.94610607706044
 20
10.22499984592818
 42
0.4142135623730911
 10
26.20860607706044
 20
10.48749984592818
 42
0.0
 10
26.20860607706044
 20
11.36249984592819
 42
0.4142135623730952
 10
25.94610607706044
 20
11.62499984592819
 42
0.0
 10
24.19610607706045
 20
11.62499984592819
 42
0.4142135623731048
 10
22.79610607706041
 20
10.2249998459282
 42
0.0
 10
22.79610607706041
 20
9.317398833250567
 42
0.1989123673796613
 10
23.41118183656868
 20
7.832474592758792
 42
0.0
 10
24.86608082389102
 20
6.377575605436458
 42
-0.1989123673796402
 10
25.07110607706044
 20
5.882600858605922
 42
0.0
 10
25.07110607706044
 20
5.237499845928184
 42
-0.4142135623730911
 10
24.80860607706046
 20
4.974999845928188
 42
0.0
 10
23.32110607706045
 20
4.974999845928188
 42
0.4142135623731526
 10
23.0586060770604
 20
4.712499845928194
 42
0.0
 10
23.0586060770604
 20
3.837499845928183
 42
0.4142135623730891
 10
23.32110607706039
 20
3.574999845928189
 42
0.0
 10
25.07110607706044
 20
3.574999845928189
 42
0.4142135623730925
 10
26.47110607706042
 20
4.974999845928177
 42
0.0
 10
26.47110607706042
 20
5.882600858605814
 42
0.1989123673796675
 10
25.85603031755215
 20
7.36752509909764
 42
0.0
 10
24.40113133022987
 20
8.822424086419898
 42
-0.1989123673796652
 10
24.19610607706045
 20
9.317398833250482
 42
0.0
 97
        0
 92
        7
 72
     1
 73
     1
 93
       16
 10
28.92110607706041
 20
11.36249984592818
 42
0.414213562373103
 10
28.65860607706042
 20
11.62499984592819
 42
0.0
 10
27.78360607706042
 20
11.62499984592819
 42
0.4142135623730871
 10
27.52110607706043
 20
11.36249984592819
 42
0.0
 10
27.52110607706043
 20
4.974999845928177
 42
0.4142135623730926
 10
28.92110607706041
 20
3.574999845928189
 42
0.0
 10
30.67110607706041
 20
3.574999845928189
 42
0.4142135623731044
 10
32.07110607706045
 20
4.974999845928177
 42
0.0
 10
32.07110607706045
 20
11.36249984592819
 42
0.4142135623730951
 10
31.80860607706046
 20
11.62499984592819
 42
0.0
 10
30.9336060770604
 20
11.62499984592819
 42
0.4142135623730871
 10
30.67110607706041
 20
11.36249984592819
 42
0.0
 10
30.67110607706041
 20
5.499999845928176
 42
-0.414213562373088
 10
30.14610607706043
 20
4.974999845928188
 42
0.0
 10
29.44610607706044
 20
4.974999845928188
 42
-0.4142135623731197
 10
28.92110607706041
 20
5.499999845928176
 42
0.0
 97
        0
 92
        7
 72
     1
 73
     1
 93
        8
 10
34.52110607706043
 20
11.36249984592819
 42
0.4142135623730871
 10
34.25860607706045
 20
11.62499984592819
 42
0.0
 10
33.38360607706045
 20
11.62499984592819
 42
0.4142135623731507
 10
33.1211060770604
 20
11.36249984592819
 42
0.0
 10
33.1211060770604
 20
3.837499845928183
 42
0.4142135623730891
 10
33.38360607706039
 20
3.574999845928189
 42
0.0
 10
34.25860607706045
 20
3.574999845928189
 42
0.4142135623730891
 10
34.52110607706043
 20
3.837499845928183
 42
0.0
 97
        0
 75
     0
 76
     1
 52
0.0
 41
0.1
 77
     0
 78
     2
 53
45.0
 43
-450.4711521676695
 44
-6.600000154071778
 45
-0.2245064030267288
 46
0.2245064030267288
 79
     0
 53
135.0
 43
-450.4711521676695
 44
-6.600000154071778
 45
-0.2245064030267288
 46
-0.2245064030267288
 79
     0
 47
0.057451373970553
 98
        8
 10
8.039927481181507
 20
7.583586668870964
 10
11.20225750288943
 20
9.422030937153692
 10
12.58218394249968
 20
7.755940668963546
 10
15.45702999048842
 20
8.100648669148938
 10
20.91923600914822
 20
8.330454802919746
 10
23.44910044723462
 20
9.709288004131792
 10
28.27884298587003
 20
9.364578803475694
 10
33.91353980948122
 20
9.594384937246502
  0
LINE
  5
3106
330
1A
100
AcDbEntity
  8
ZUWAKU
100
AcDbLine
 10
12.47110607706042
 20
11.62499984592817
 30
0.0
 11
13.4336060770604
 21
11.62499984592819
 31
0.0
  0
LINE
  5
3107
330
1A
100
AcDbEntity
  8
ZUWAKU
100
AcDbLine
 10
13.4336060770604
 20
10.22499984592818
 30
0.0
 11
12.47110607706042
 21
10.22499984592818
 31
0.0
  0
LINE
  5
3108
330
1A
100
AcDbEntity
  8
ZUWAKU
100
AcDbLine
 10
12.47110607706042
 20
4.974999845928188
 30
0.0
 11
13.4336060770604
 21
4.974999845928188
 31
0.0
  0
LINE
  5
3109
330
1A
100
AcDbEntity
  8
ZUWAKU
100
AcDbLine
 10
13.4336060770604
 20
3.574999845928189
 30
0.0
 11
12.47110607706042
 21
3.574999845928189
 31
0.0
  0
CIRCLE
  5
310A
330
1A
100
AcDbEntity
  8
ZUWAKU
100
AcDbCircle
 10
12.9961060770604
 20
7.599999845928188
 30
0.0
 40
0.875
  0
ARC
  5
310B
330
1A
100
AcDbEntity
  8
ZUWAKU
100
AcDbCircle
 10
7.746106077060403
 20
9.317398833250539
 30
0.0
 40
0.7
100
AcDbArc
 50
180.0000000000016
 51
224.9999999999988
  0
LINE
  5
310C
330
1A
100
AcDbEntity
  8
ZUWAKU
100
AcDbLine
 10
11.77110607706043
 20
9.524999845928189
 30
0.0
 11
11.77110607706043
 21
5.674999845928191
 31
0.0
  0
LINE
  5
310D
330
1A
100
AcDbEntity
  8
ZUWAKU
100
AcDbLine
 10
10.3711060770604
 20
5.674999845928191
 30
0.0
 11
10.3711060770604
 21
9.524999845928167
 31
0.0
  0
ARC
  5
310E
330
1A
100
AcDbEntity
  8
ZUWAKU
100
AcDbCircle
 10
7.746106077060403
 20
9.317398833250539
 30
0.0
 40
2.099999999999999
100
AcDbArc
 50
180.0
 51
225.0
  0
ARC
  5
310F
330
1A
100
AcDbEntity
  8
ZUWAKU
100
AcDbCircle
 10
7.921106077060414
 20
4.974999845928188
 30
0.0
 40
1.399999999999999
100
AcDbArc
 50
270.0
 51
0.0
  0
ARC
  5
3110
330
1A
100
AcDbEntity
  8
ZUWAKU
100
AcDbCircle
 10
12.47110607706042
 20
5.674999845928191
 30
0.0
 40
2.099999999999999
100
AcDbArc
 50
180.0
 51
270.0
  0
ARC
  5
3111
330
1A
100
AcDbEntity
  8
ZUWAKU
100
AcDbCircle
 10
7.221106077060426
 20
5.88260085860584
 30
0.0
 40
2.099999999999999
100
AcDbArc
 50
0.0
 51
45.0
  0
LINE
  5
3112
330
1A
100
AcDbEntity
  8
ZUWAKU
100
AcDbLine
 10
8.706030317552176
 20
7.367525099097601
 30
0.0
 11
7.251131330229839
 21
8.822424086419939
 31
0.0
  0
LINE
  5
3113
330
1A
100
AcDbEntity
  8
ZUWAKU
100
AcDbLine
 10
7.921106077060414
 20
5.237499845928191
 30
0.0
 11
7.921106077060414
 21
5.882600858605862
 31
0.0
  0
ARC
  5
3114
330
1A
100
AcDbEntity
  8
ZUWAKU
100
AcDbCircle
 10
7.658606077060426
 20
5.237499845928191
 30
0.0
 40
0.2625
100
AcDbArc
 50
270.0
 51
0.0
  0
ARC
  5
3115
330
1A
100
AcDbEntity
  8
ZUWAKU
100
AcDbCircle
 10
7.221106077060426
 20
5.882600858605862
 30
0.0
 40
0.7
100
AcDbArc
 50
0.0
 51
45.0
  0
LINE
  5
3116
330
1A
100
AcDbEntity
  8
ZUWAKU
100
AcDbLine
 10
5.908606077060426
 20
3.837499845928189
 30
0.0
 11
5.908606077060426
 21
4.712499845928189
 31
0.0
  0
ARC
  5
3117
330
1A
100
AcDbEntity
  8
ZUWAKU
100
AcDbCircle
 10
6.171106077060414
 20
3.837499845928189
 30
0.0
 40
0.2625
100
AcDbArc
 50
180.0
 51
270.0
  0
ARC
  5
3118
330
1A
100
AcDbEntity
  8
ZUWAKU
100
AcDbCircle
 10
6.171106077060414
 20
4.712499845928189
 30
0.0
 40
0.2625
100
AcDbArc
 50
90.0
 51
180.0
  0
LINE
  5
3119
330
1A
100
AcDbEntity
  8
ZUWAKU
100
AcDbLine
 10
6.171106077060414
 20
3.574999845928189
 30
0.0
 11
7.921106077060414
 21
3.574999845928189
 31
0.0
  0
LINE
  5
311A
330
1A
100
AcDbEntity
  8
ZUWAKU
100
AcDbLine
 10
6.171106077060414
 20
4.974999845928188
 30
0.0
 11
7.658606077060426
 21
4.974999845928188
 31
0.0
  0
LINE
  5
311B
330
1A
100
AcDbEntity
  8
ZUWAKU
100
AcDbLine
 10
6.261181836568653
 20
7.832474592758778
 30
0.0
 11
7.71608082389099
 21
6.377575605436447
 31
0.0
  0
LINE
  5
311C
330
1A
100
AcDbEntity
  8
ZUWAKU
100
AcDbLine
 10
9.321106077060449
 20
4.974999845928188
 30
0.0
 11
9.321106077060449
 21
5.882600858605862
 31
0.0
  0
ARC
  5
311D
330
1A
100
AcDbEntity
  8
ZUWAKU
100
AcDbCircle
 10
12.47110607706042
 20
5.674999845928191
 30
0.0
 40
0.7
100
AcDbArc
 50
180.0
 51
270.0
  0
ARC
  5
311E
330
1A
100
AcDbEntity
  8
ZUWAKU
100
AcDbCircle
 10
8.796106077060414
 20
11.36249984592818
 30
0.0
 40
0.2625
100
AcDbArc
 50
0.0
 51
90.0
  0
ARC
  5
311F
330
1A
100
AcDbEntity
  8
ZUWAKU
100
AcDbCircle
 10
8.796106077060414
 20
10.48749984592818
 30
0.0
 40
0.2625
100
AcDbArc
 50
270.0
 51
0.0
  0
LINE
  5
3120
330
1A
100
AcDbEntity
  8
ZUWAKU
100
AcDbLine
 10
7.046106077060414
 20
11.62499984592819
 30
0.0
 11
8.796106077060414
 21
11.62499984592819
 31
0.0
  0
ARC
  5
3121
330
1A
100
AcDbEntity
  8
ZUWAKU
100
AcDbCircle
 10
7.308606077060403
 20
9.962499845928189
 30
0.0
 40
0.2625
100
AcDbArc
 50
90.0
 51
180.0
  0
LINE
  5
3122
330
1A
100
AcDbEntity
  8
ZUWAKU
100
AcDbLine
 10
7.046106077060414
 20
9.962499845928189
 30
0.0
 11
7.046106077060414
 21
9.317398833250518
 31
0.0
  0
LINE
  5
3123
330
1A
100
AcDbEntity
  8
ZUWAKU
100
AcDbLine
 10
8.796106077060414
 20
10.22499984592818
 30
0.0
 11
7.308606077060403
 21
10.22499984592818
 31
0.0
  0
LINE
  5
3124
330
1A
100
AcDbEntity
  8
ZUWAKU
100
AcDbLine
 10
5.646106077060437
 20
10.22499984592818
 30
0.0
 11
5.646106077060437
 21
9.317398833250518
 31
0.0
  0
ARC
  5
3125
330
1A
100
AcDbEntity
  8
ZUWAKU
100
AcDbCircle
 10
7.046106077060414
 20
10.22499984592818
 30
0.0
 40
1.399999999999999
100
AcDbArc
 50
90.0
 51
180.0
  0
LINE
  5
3126
330
1A
100
AcDbEntity
  8
ZUWAKU
100
AcDbLine
 10
9.058606077060403
 20
11.36249984592818
 30
0.0
 11
9.058606077060403
 21
10.48749984592818
 31
0.0
  0
ARC
  5
3127
330
1A
100
AcDbEntity
  8
ZUWAKU
100
AcDbCircle
 10
12.47110607706042
 20
9.524999845928189
 30
0.0
 40
0.7
100
AcDbArc
 50
90.0
 51
180.0
  0
ARC
  5
3128
330
1A
100
AcDbEntity
  8
ZUWAKU
100
AcDbCircle
 10
12.47110607706042
 20
9.524999845928167
 30
0.0
 40
2.099999999999999
100
AcDbArc
 50
90.0
 51
180.0
  0
LINE
  5
3129
330
1A
100
AcDbEntity
  8
ZUWAKU
100
AcDbLine
 10
39.66331477366395
 20
14.99999984592818
 30
0.0
 11
39.66331477366407
 21
0.399999845928221
 31
0.0
  0
LINE
  5
312A
330
1A
100
AcDbEntity
  8
ZUWAKU
100
AcDbLine
 10
39.76331477366398
 20
14.99999984592818
 30
0.0
 11
39.76331477366409
 21
0.399999845928221
 31
0.0
  0
LINE
  5
312B
330
1A
100
AcDbEntity
  8
ZUWAKU
100
AcDbLine
 10
39.56331477366404
 20
14.99999984592818
 30
0.0
 11
39.56331477366404
 21
0.399999845928221
 31
0.0
  0
LINE
  5
312C
330
1A
100
AcDbEntity
  8
ZUWAKU
100
AcDbLine
 10
32.07110607706045
 20
4.974999845928188
 30
0.0
 11
32.07110607706045
 21
11.36249984592818
 31
0.0
  0
LINE
  5
312D
330
1A
100
AcDbEntity
  8
ZUWAKU
100
AcDbLine
 10
30.67110607706041
 20
11.36249984592818
 30
0.0
 11
30.67110607706041
 21
5.499999845928186
 31
0.0
  0
LINE
  5
312E
330
1A
100
AcDbEntity
  8
ZUWAKU
100
AcDbLine
 10
34.52110607706043
 20
3.837499845928189
 30
0.0
 11
34.52110607706043
 21
11.36249984592818
 31
0.0
  0
LINE
  5
312F
330
1A
100
AcDbEntity
  8
ZUWAKU
100
AcDbLine
 10
33.1211060770604
 20
11.36249984592818
 30
0.0
 11
33.1211060770604
 21
3.837499845928189
 31
0.0
  0
ARC
  5
3130
330
1A
100
AcDbEntity
  8
ZUWAKU
100
AcDbCircle
 10
24.89610607706044
 20
9.317398833250539
 30
0.0
 40
0.7
100
AcDbArc
 50
180.0000000000016
 51
224.9999999999988
  0
ARC
  5
3131
330
1A
100
AcDbEntity
  8
ZUWAKU
100
AcDbCircle
 10
24.89610607706044
 20
9.317398833250539
 30
0.0
 40
2.099999999999999
100
AcDbArc
 50
180.0
 51
225.0
  0
LINE
  5
3132
330
1A
100
AcDbEntity
  8
ZUWAKU
100
AcDbLine
 10
18.65742931814941
 20
9.602523442709902
 30
0.0
 11
18.02505344548149
 21
7.599999845928198
 31
0.0
  0
LINE
  5
3133
330
1A
100
AcDbEntity
  8
ZUWAKU
100
AcDbLine
 10
20.34610607706042
 20
11.36249984592818
 30
0.0
 11
20.34610607706042
 21
3.837499845928189
 31
0.0
  0
LINE
  5
3134
330
1A
100
AcDbEntity
  8
ZUWAKU
100
AcDbLine
 10
21.7461060770604
 20
3.837499845928189
 30
0.0
 11
21.7461060770604
 21
11.36249984592818
 31
0.0
  0
LINE
  5
3135
330
1A
100
AcDbEntity
  8
ZUWAKU
100
AcDbLine
 10
27.52110607706043
 20
11.36249984592818
 30
0.0
 11
27.52110607706043
 21
4.974999845928188
 31
0.0
  0
LINE
  5
3136
330
1A
100
AcDbEntity
  8
ZUWAKU
100
AcDbLine
 10
28.92110607706041
 20
5.499999845928186
 30
0.0
 11
28.92110607706041
 21
11.36249984592818
 31
0.0
  0
LINE
  5
3137
330
1A
100
AcDbEntity
  8
ZUWAKU
100
AcDbLine
 10
16.32110607706044
 20
8.56249984592819
 30
0.0
 11
16.32110607706044
 21
11.36249984592818
 31
0.0
  0
LINE
  5
3138
330
1A
100
AcDbEntity
  8
ZUWAKU
100
AcDbLine
 10
14.92110607706041
 20
11.36249984592818
 30
0.0
 11
14.92110607706041
 21
3.837499845928189
 31
0.0
  0
LINE
  5
3139
330
1A
100
AcDbEntity
  8
ZUWAKU
100
AcDbLine
 10
17.83817354571834
 20
11.44154683001167
 30
0.0
 11
16.90403860840246
 21
8.483452861844703
 31
0.0
  0
LINE
  5
313A
330
1A
100
AcDbEntity
  8
ZUWAKU
100
AcDbLine
 10
30.14610607706043
 20
4.974999845928188
 30
0.0
 11
29.44610607706044
 21
4.974999845928188
 31
0.0
  0
LINE
  5
313B
330
1A
100
AcDbEntity
  8
ZUWAKU
100
AcDbLine
 10
28.92110607706041
 20
3.574999845928189
 30
0.0
 11
30.67110607706041
 21
3.574999845928189
 31
0.0
  0
LINE
  5
313C
330
1A
100
AcDbEntity
  8
ZUWAKU
100
AcDbLine
 10
20.60860607706041
 20
3.574999845928189
 30
0.0
 11
21.48360607706041
 21
3.574999845928189
 31
0.0
  0
LINE
  5
313D
330
1A
100
AcDbEntity
  8
ZUWAKU
100
AcDbLine
 10
17.83817354571834
 20
3.758452861844702
 30
0.0
 11
16.90403860840246
 21
6.716546830011672
 31
0.0
  0
ARC
  5
313E
330
1A
100
AcDbEntity
  8
ZUWAKU
100
AcDbCircle
 10
16.65372315880478
 20
8.56249984592819
 30
0.0
 40
0.2625
100
AcDbArc
 50
270.0
 51
342.4744316262769
  0
LINE
  5
313F
330
1A
100
AcDbEntity
  8
ZUWAKU
100
AcDbLine
 10
16.65372315880478
 20
8.299999845928187
 30
0.0
 11
16.58360607706043
 21
8.299999845928187
 31
0.0
  0
LINE
  5
3140
330
1A
100
AcDbEntity
  8
ZUWAKU
100
AcDbLine
 10
16.58360607706043
 20
6.899999845928189
 30
0.0
 11
16.65372315880478
 21
6.899999845928189
 31
0.0
  0
ARC
  5
3141
330
1A
100
AcDbEntity
  8
ZUWAKU
100
AcDbCircle
 10
16.58360607706043
 20
8.56249984592819
 30
0.0
 40
0.2625
100
AcDbArc
 50
180.0
 51
270.0
  0
LINE
  5
3142
330
1A
100
AcDbEntity
  8
ZUWAKU
100
AcDbLine
 10
15.1836060770604
 20
3.574999845928189
 30
0.0
 11
16.0586060770604
 21
3.574999845928189
 31
0.0
  0
ARC
  5
3143
330
1A
100
AcDbEntity
  8
ZUWAKU
100
AcDbCircle
 10
16.0586060770604
 20
3.837499845928189
 30
0.0
 40
0.2625
100
AcDbArc
 50
270.0
 51
0.0
  0
LINE
  5
3144
330
1A
100
AcDbEntity
  8
ZUWAKU
100
AcDbLine
 10
16.32110607706044
 20
3.837499845928189
 30
0.0
 11
16.32110607706044
 21
6.637499845928189
 31
0.0
  0
LINE
  5
3145
330
1A
100
AcDbEntity
  8
ZUWAKU
100
AcDbLine
 10
13.69610607706045
 20
4.712499845928189
 30
0.0
 11
13.69610607706045
 21
3.837499845928189
 31
0.0
  0
ARC
  5
3146
330
1A
100
AcDbEntity
  8
ZUWAKU
100
AcDbCircle
 10
13.4336060770604
 20
3.837499845928189
 30
0.0
 40
0.2625
100
AcDbArc
 50
270.0
 51
0.0
  0
ARC
  5
3147
330
1A
100
AcDbEntity
  8
ZUWAKU
100
AcDbCircle
 10
13.4336060770604
 20
4.712499845928189
 30
0.0
 40
0.2625
100
AcDbArc
 50
0.0
 51
90.0
  0
ARC
  5
3148
330
1A
100
AcDbEntity
  8
ZUWAKU
100
AcDbCircle
 10
15.1836060770604
 20
3.837499845928189
 30
0.0
 40
0.2625
100
AcDbArc
 50
180.0
 51
270.0
  0
ARC
  5
3149
330
1A
100
AcDbEntity
  8
ZUWAKU
100
AcDbCircle
 10
16.65372315880478
 20
6.637499845928189
 30
0.0
 40
0.2625
100
AcDbArc
 50
17.52556837372303
 51
90.0
  0
ARC
  5
314A
330
1A
100
AcDbEntity
  8
ZUWAKU
100
AcDbCircle
 10
16.58360607706043
 20
6.637499845928189
 30
0.0
 40
0.2625
100
AcDbArc
 50
90.0
 51
180.0
  0
ARC
  5
314B
330
1A
100
AcDbEntity
  8
ZUWAKU
100
AcDbCircle
 10
20.60860607706041
 20
3.837499845928189
 30
0.0
 40
0.2625
100
AcDbArc
 50
180.0
 51
270.0
  0
LINE
  5
314C
330
1A
100
AcDbEntity
  8
ZUWAKU
100
AcDbLine
 10
18.08848899531608
 20
3.574999845928189
 30
0.0
 11
18.93793368512058
 21
3.574999845928189
 31
0.0
  0
ARC
  5
314D
330
1A
100
AcDbEntity
  8
ZUWAKU
100
AcDbCircle
 10
18.93793368512058
 20
3.837499845928189
 30
0.0
 40
0.2625
100
AcDbArc
 50
270.0
 51
17.52556837372303
  0
LINE
  5
314E
330
1A
100
AcDbEntity
  8
ZUWAKU
100
AcDbLine
 10
19.18824913471832
 20
3.916546830011675
 30
0.0
 11
18.02505344548149
 21
7.599999845928198
 31
0.0
  0
ARC
  5
314F
330
1A
100
AcDbEntity
  8
ZUWAKU
100
AcDbCircle
 10
18.08848899531608
 20
3.837499845928189
 30
0.0
 40
0.2625
100
AcDbArc
 50
197.525568373723
 51
270.0
  0
ARC
  5
3150
330
1A
100
AcDbEntity
  8
ZUWAKU
100
AcDbCircle
 10
28.92110607706041
 20
4.974999845928188
 30
0.0
 40
1.399999999999999
100
AcDbArc
 50
180.0
 51
270.0
  0
ARC
  5
3151
330
1A
100
AcDbEntity
  8
ZUWAKU
100
AcDbCircle
 10
25.07110607706044
 20
4.974999845928188
 30
0.0
 40
1.399999999999999
100
AcDbArc
 50
270.0
 51
0.0
  0
LINE
  5
3152
330
1A
100
AcDbEntity
  8
ZUWAKU
100
AcDbLine
 10
25.85603031755221
 20
7.367525099097601
 30
0.0
 11
24.40113133022981
 21
8.822424086419939
 31
0.0
  0
LINE
  5
3153
330
1A
100
AcDbEntity
  8
ZUWAKU
100
AcDbLine
 10
25.07110607706044
 20
5.237499845928191
 30
0.0
 11
25.07110607706044
 21
5.882600858605862
 31
0.0
  0
ARC
  5
3154
330
1A
100
AcDbEntity
  8
ZUWAKU
100
AcDbCircle
 10
24.3711060770604
 20
5.882600858605862
 30
0.0
 40
0.7
100
AcDbArc
 50
0.0
 51
45.0
  0
ARC
  5
3155
330
1A
100
AcDbEntity
  8
ZUWAKU
100
AcDbCircle
 10
24.8086060770604
 20
5.237499845928191
 30
0.0
 40
0.2625
100
AcDbArc
 50
270.0
 51
0.0
  0
LINE
  5
3156
330
1A
100
AcDbEntity
  8
ZUWAKU
100
AcDbLine
 10
23.0586060770604
 20
3.837499845928189
 30
0.0
 11
23.0586060770604
 21
4.712499845928189
 31
0.0
  0
ARC
  5
3157
330
1A
100
AcDbEntity
  8
ZUWAKU
100
AcDbCircle
 10
23.32110607706045
 20
3.837499845928189
 30
0.0
 40
0.2625
100
AcDbArc
 50
180.0
 51
270.0
  0
ARC
  5
3158
330
1A
100
AcDbEntity
  8
ZUWAKU
100
AcDbCircle
 10
21.48360607706041
 20
3.837499845928189
 30
0.0
 40
0.2625
100
AcDbArc
 50
270.0
 51
0.0
  0
ARC
  5
3159
330
1A
100
AcDbEntity
  8
ZUWAKU
100
AcDbCircle
 10
23.32110607706045
 20
4.712499845928189
 30
0.0
 40
0.2625
100
AcDbArc
 50
90.0
 51
180.0
  0
LINE
  5
315A
330
1A
100
AcDbEntity
  8
ZUWAKU
100
AcDbLine
 10
23.32110607706045
 20
4.974999845928188
 30
0.0
 11
24.8086060770604
 21
4.974999845928188
 31
0.0
  0
LINE
  5
315B
330
1A
100
AcDbEntity
  8
ZUWAKU
100
AcDbLine
 10
23.32110607706045
 20
3.574999845928189
 30
0.0
 11
25.07110607706044
 21
3.574999845928189
 31
0.0
  0
LINE
  5
315C
330
1A
100
AcDbEntity
  8
ZUWAKU
100
AcDbLine
 10
23.41118183656868
 20
7.832474592758778
 30
0.0
 11
24.86608082389102
 21
6.377575605436447
 31
0.0
  0
LINE
  5
315D
330
1A
100
AcDbEntity
  8
ZUWAKU
100
AcDbLine
 10
26.47110607706042
 20
4.974999845928188
 30
0.0
 11
26.47110607706042
 21
5.882600858605862
 31
0.0
  0
ARC
  5
315E
330
1A
100
AcDbEntity
  8
ZUWAKU
100
AcDbCircle
 10
24.3711060770604
 20
5.88260085860584
 30
0.0
 40
2.099999999999999
100
AcDbArc
 50
0.0
 51
45.0
  0
ARC
  5
315F
330
1A
100
AcDbEntity
  8
ZUWAKU
100
AcDbCircle
 10
29.44610607706044
 20
5.499999845928186
 30
0.0
 40
0.525
100
AcDbArc
 50
180.0
 51
270.0
  0
ARC
  5
3160
330
1A
100
AcDbEntity
  8
ZUWAKU
100
AcDbCircle
 10
30.67110607706041
 20
4.974999845928188
 30
0.0
 40
1.399999999999999
100
AcDbArc
 50
270.0
 51
0.0
  0
LINE
  5
3161
330
1A
100
AcDbEntity
  8
ZUWAKU
100
AcDbLine
 10
33.38360607706045
 20
3.574999845928189
 30
0.0
 11
34.25860607706045
 21
3.574999845928189
 31
0.0
  0
ARC
  5
3162
330
1A
100
AcDbEntity
  8
ZUWAKU
100
AcDbCircle
 10
33.38360607706045
 20
3.837499845928189
 30
0.0
 40
0.2625
100
AcDbArc
 50
180.0
 51
270.0
  0
ARC
  5
3163
330
1A
100
AcDbEntity
  8
ZUWAKU
100
AcDbCircle
 10
30.14610607706043
 20
5.499999845928186
 30
0.0
 40
0.525
100
AcDbArc
 50
270.0
 51
0.0
  0
ARC
  5
3164
330
1A
100
AcDbEntity
  8
ZUWAKU
100
AcDbCircle
 10
34.25860607706045
 20
3.837499845928189
 30
0.0
 40
0.2625
100
AcDbArc
 50
270.0
 51
0.0
  0
LINE
  5
3165
330
1A
100
AcDbEntity
  8
ZUWAKU
100
AcDbLine
 10
21.48360607706041
 20
11.62499984592819
 30
0.0
 11
20.60860607706041
 21
11.62499984592819
 31
0.0
  0
ARC
  5
3166
330
1A
100
AcDbEntity
  8
ZUWAKU
100
AcDbCircle
 10
16.0586060770604
 20
11.36249984592818
 30
0.0
 40
0.2625
100
AcDbArc
 50
0.0
 51
90.0
  0
LINE
  5
3167
330
1A
100
AcDbEntity
  8
ZUWAKU
100
AcDbLine
 10
16.0586060770604
 20
11.62499984592819
 30
0.0
 11
15.1836060770604
 21
11.62499984592819
 31
0.0
  0
ARC
  5
3168
330
1A
100
AcDbEntity
  8
ZUWAKU
100
AcDbCircle
 10
13.4336060770604
 20
11.36249984592818
 30
0.0
 40
0.2625
100
AcDbArc
 50
0.0
 51
90.0
  0
ARC
  5
3169
330
1A
100
AcDbEntity
  8
ZUWAKU
100
AcDbCircle
 10
15.1836060770604
 20
11.36249984592818
 30
0.0
 40
0.2625
100
AcDbArc
 50
90.0
 51
180.0
  0
ARC
  5
316A
330
1A
100
AcDbEntity
  8
ZUWAKU
100
AcDbCircle
 10
13.4336060770604
 20
10.48749984592818
 30
0.0
 40
0.2625
100
AcDbArc
 50
270.0
 51
0.0
  0
LINE
  5
316B
330
1A
100
AcDbEntity
  8
ZUWAKU
100
AcDbLine
 10
13.69610607706045
 20
11.36249984592818
 30
0.0
 11
13.69610607706045
 21
10.48749984592818
 31
0.0
  0
ARC
  5
316C
330
1A
100
AcDbEntity
  8
ZUWAKU
100
AcDbCircle
 10
20.60860607706041
 20
11.36249984592818
 30
0.0
 40
0.2625
100
AcDbArc
 50
90.0
 51
180.0
  0
LINE
  5
316D
330
1A
100
AcDbEntity
  8
ZUWAKU
100
AcDbLine
 10
18.08848899531608
 20
11.62499984592819
 30
0.0
 11
18.93793368512058
 21
11.62499984592819
 31
0.0
  0
ARC
  5
316E
330
1A
100
AcDbEntity
  8
ZUWAKU
100
AcDbCircle
 10
18.93793368512058
 20
11.36249984592818
 30
0.0
 40
0.2625
100
AcDbArc
 50
342.4744316262769
 51
90.0
  0
LINE
  5
316F
330
1A
100
AcDbEntity
  8
ZUWAKU
100
AcDbLine
 10
19.18824913471832
 20
11.2834528618447
 30
0.0
 11
18.65742931814941
 21
9.602523442709902
 31
0.0
  0
ARC
  5
3170
330
1A
100
AcDbEntity
  8
ZUWAKU
100
AcDbCircle
 10
18.08848899531608
 20
11.36249984592818
 30
0.0
 40
0.2625
100
AcDbArc
 50
90.0
 51
162.4744316262769
  0
LINE
  5
3171
330
1A
100
AcDbEntity
  8
ZUWAKU
100
AcDbLine
 10
24.19610607706045
 20
11.62499984592819
 30
0.0
 11
25.94610607706044
 21
11.62499984592819
 31
0.0
  0
LINE
  5
3172
330
1A
100
AcDbEntity
  8
ZUWAKU
100
AcDbLine
 10
25.94610607706044
 20
10.22499984592818
 30
0.0
 11
24.45860607706043
 21
10.22499984592818
 31
0.0
  0
ARC
  5
3173
330
1A
100
AcDbEntity
  8
ZUWAKU
100
AcDbCircle
 10
24.45860607706043
 20
9.962499845928189
 30
0.0
 40
0.2625
100
AcDbArc
 50
90.0
 51
180.0
  0
LINE
  5
3174
330
1A
100
AcDbEntity
  8
ZUWAKU
100
AcDbLine
 10
24.19610607706045
 20
9.962499845928189
 30
0.0
 11
24.19610607706045
 21
9.317398833250518
 31
0.0
  0
ARC
  5
3175
330
1A
100
AcDbEntity
  8
ZUWAKU
100
AcDbCircle
 10
21.48360607706041
 20
11.36249984592818
 30
0.0
 40
0.2625
100
AcDbArc
 50
0.0
 51
90.0
  0
LINE
  5
3176
330
1A
100
AcDbEntity
  8
ZUWAKU
100
AcDbLine
 10
22.79610607706041
 20
10.22499984592818
 30
0.0
 11
22.79610607706041
 21
9.317398833250518
 31
0.0
  0
ARC
  5
3177
330
1A
100
AcDbEntity
  8
ZUWAKU
100
AcDbCircle
 10
24.19610607706045
 20
10.22499984592818
 30
0.0
 40
1.399999999999999
100
AcDbArc
 50
90.0
 51
180.0
  0
ARC
  5
3178
330
1A
100
AcDbEntity
  8
ZUWAKU
100
AcDbCircle
 10
28.65860607706042
 20
11.36249984592818
 30
0.0
 40
0.2625
100
AcDbArc
 50
0.0
 51
90.0
  0
ARC
  5
3179
330
1A
100
AcDbEntity
  8
ZUWAKU
100
AcDbCircle
 10
27.78360607706042
 20
11.36249984592818
 30
0.0
 40
0.2625
100
AcDbArc
 50
90.0
 51
180.0
  0
LINE
  5
317A
330
1A
100
AcDbEntity
  8
ZUWAKU
100
AcDbLine
 10
28.65860607706042
 20
11.62499984592819
 30
0.0
 11
27.78360607706042
 21
11.62499984592819
 31
0.0
  0
ARC
  5
317B
330
1A
100
AcDbEntity
  8
ZUWAKU
100
AcDbCircle
 10
25.94610607706044
 20
11.36249984592818
 30
0.0
 40
0.2625
100
AcDbArc
 50
0.0
 51
90.0
  0
ARC
  5
317C
330
1A
100
AcDbEntity
  8
ZUWAKU
100
AcDbCircle
 10
25.94610607706044
 20
10.48749984592818
 30
0.0
 40
0.2625
100
AcDbArc
 50
270.0
 51
0.0
  0
LINE
  5
317D
330
1A
100
AcDbEntity
  8
ZUWAKU
100
AcDbLine
 10
26.20860607706044
 20
11.36249984592818
 30
0.0
 11
26.20860607706044
 21
10.48749984592818
 31
0.0
  0
LINE
  5
317E
330
1A
100
AcDbEntity
  8
ZUWAKU
100
AcDbLine
 10
34.25860607706045
 20
11.62499984592819
 30
0.0
 11
33.38360607706045
 21
11.62499984592819
 31
0.0
  0
ARC
  5
317F
330
1A
100
AcDbEntity
  8
ZUWAKU
100
AcDbCircle
 10
33.38360607706045
 20
11.36249984592818
 30
0.0
 40
0.2625
100
AcDbArc
 50
90.0
 51
180.0
  0
ARC
  5
3180
330
1A
100
AcDbEntity
  8
ZUWAKU
100
AcDbCircle
 10
31.8086060770604
 20
11.36249984592818
 30
0.0
 40
0.2625
100
AcDbArc
 50
0.0
 51
90.0
  0
LINE
  5
3181
330
1A
100
AcDbEntity
  8
ZUWAKU
100
AcDbLine
 10
31.8086060770604
 20
11.62499984592819
 30
0.0
 11
30.9336060770604
 21
11.62499984592819
 31
0.0
  0
ARC
  5
3182
330
1A
100
AcDbEntity
  8
ZUWAKU
100
AcDbCircle
 10
30.9336060770604
 20
11.36249984592818
 30
0.0
 40
0.2625
100
AcDbArc
 50
90.0
 51
180.0
  0
ARC
  5
3183
330
1A
100
AcDbEntity
  8
ZUWAKU
100
AcDbCircle
 10
34.25860607706045
 20
11.36249984592818
 30
0.0
 40
0.2625
100
AcDbArc
 50
0.0
 51
90.0
  0
TEXT
  5
3184
330
1A
100
AcDbEntity
  8
MOJI
100
AcDbText
 10
119.9136013400954
 20
9.00246037463188
 30
0.0
 40
2.799999999999999
  1
亜鉛メッキ金具正面打（受）ストロング高強度金具丸使い
 41
0.9
  7
ｽﾀｲﾙ1
100
AcDbText
  0
TEXT
  5
3185
330
1A
100
AcDbEntity
  8
MOJI
100
AcDbText
 10
119.9136013400954
 20
1.602460374631897
 30
0.0
 40
2.799999999999999
  1
ＲＶ１０５－４－２０
 41
0.9
  7
ｽﾀｲﾙ1
100
AcDbText
  0
LINE
  5
3186
330
1A
100
AcDbEntity
  8
ZUWAKU
100
AcDbLine
 10
104.1233006447038
 20
14.99999984592818
 30
0.0
 11
104.1233006447038
 21
0.399999845928221
 31
0.0
  0
LINE
  5
3187
330
1A
100
AcDbEntity
  8
ZUWAKU
100
AcDbLine
 10
104.3233006447037
 20
14.99999984592818
 30
0.0
 11
104.3233006447038
 21
0.399999845928221
 31
0.0
  0
LINE
  5
3188
330
1A
100
AcDbEntity
  8
ZUWAKU
100
AcDbLine
 10
104.2233006447037
 20
14.99999984592818
 30
0.0
 11
104.2233006447038
 21
0.399999845928221
 31
0.0
  0
TEXT
  5
3189
330
1A
100
AcDbEntity
  8
ZUWAKU
100
AcDbText
 10
104.8620231558086
 20
4.827678115120995
 30
0.0
 40
2.0
  1
サイズ
 41
0.9
  7
ｽﾀｲﾙ1
100
AcDbText
  0
TEXT
  5
318A
330
1A
100
AcDbEntity
  8
ZUWAKU
100
AcDbText
 10
104.8620231558085
 20
12.02767811512097
 30
0.0
 40
2.0
  1
品名
 41
0.9
  7
ｽﾀｲﾙ1
100
AcDbText
  0
LINE
  5
318B
330
1A
100
AcDbEntity
  8
ZUWAKU
100
AcDbLine
 10
324.4086012547719
 20
7.599999845928202
 30
0.0
 11
348.6245052739405
 21
7.599999845928204
 31
0.0
  0
LINE
  5
318C
330
1A
100
AcDbEntity
  8
ZUWAKU
100
AcDbLine
 10
324.408601254772
 20
7.699999845928205
 30
0.0
 11
348.6245052739405
 21
7.699999845928203
 31
0.0
  0
LINE
  5
318D
330
1A
100
AcDbEntity
  8
ZUWAKU
100
AcDbLine
 10
324.4086012547719
 20
7.799999845928203
 30
0.0
 11
348.6245052739405
 21
7.799999845928203
 31
0.0
  0
TEXT
  5
318E
330
1A
100
AcDbEntity
  8
ZUWAKU
100
AcDbText
 10
329.101968843321
 20
9.00246037463188
 30
0.0
 40
2.799999999999999
  1
　　．　　．　　
 41
0.9
  7
ｽﾀｲﾙ1
100
AcDbText
  0
LINE
  5
318F
330
1A
100
AcDbEntity
  8
ZUWAKU
100
AcDbLine
 10
252.5995897487403
 20
7.599999845928206
 30
0.0
 11
276.263477882726
 21
7.599999845928206
 31
0.0
  0
LINE
  5
3190
330
1A
100
AcDbEntity
  8
ZUWAKU
100
AcDbLine
 10
252.5995897487403
 20
7.699999845928203
 30
0.0
 11
276.263477882726
 21
7.699999845928203
 31
0.0
  0
LINE
  5
3191
330
1A
100
AcDbEntity
  8
ZUWAKU
100
AcDbLine
 10
252.5995897487403
 20
7.799999845928203
 30
0.0
 11
276.263477882726
 21
7.799999845928203
 31
0.0
  0
TEXT
  5
3192
330
1A
100
AcDbEntity
  8
MOJI
100
AcDbText
 10
231.2836391606641
 20
5.971308706758179
 30
0.0
 40
2.799999999999999
  1
ＬＬ４６Ｇ
 41
0.9
  7
ｽﾀｲﾙ1
100
AcDbText
  0
LINE
  5
3193
330
1A
100
AcDbEntity
  8
ZUWAKU
100
AcDbLine
 10
223.8121819851654
 20
14.99999984592818
 30
0.0
 11
223.8121819851655
 21
0.399999845928221
 31
0.0
  0
LINE
  5
3194
330
1A
100
AcDbEntity
  8
ZUWAKU
100
AcDbLine
 10
223.9121819851654
 20
14.99999984592818
 30
0.0
 11
223.9121819851656
 21
0.399999845928221
 31
0.0
  0
LINE
  5
3195
330
1A
100
AcDbEntity
  8
ZUWAKU
100
AcDbLine
 10
223.7121819851655
 20
14.99999984592818
 30
0.0
 11
223.7121819851655
 21
0.399999845928221
 31
0.0
  0
TEXT
  5
3196
330
1A
100
AcDbEntity
  8
MOJI
100
AcDbText
 10
264.0204539858263
 20
9.00246037463188
 30
0.0
 40
2.799999999999999
  1
Ａ３
 41
0.9
  7
ｽﾀｲﾙ1
100
AcDbText
  0
LINE
  5
3197
330
1A
100
AcDbEntity
  8
ZUWAKU
100
AcDbLine
 10
252.4995897487402
 20
14.99999984592818
 30
0.0
 11
252.4995897487404
 21
0.399999845928221
 31
0.0
  0
LINE
  5
3198
330
1A
100
AcDbEntity
  8
ZUWAKU
100
AcDbLine
 10
252.5995897487403
 20
14.99999984592818
 30
0.0
 11
252.5995897487404
 21
0.399999845928221
 31
0.0
  0
LINE
  5
3199
330
1A
100
AcDbEntity
  8
ZUWAKU
100
AcDbLine
 10
252.3995897487403
 20
14.99999984592818
 30
0.0
 11
252.3995897487403
 21
0.399999845928221
 31
0.0
  0
TEXT
  5
319A
330
1A
100
AcDbEntity
  8
ZUWAKU
100
AcDbText
 10
253.3383122598452
 20
4.827678115120995
 30
0.0
 40
2.0
  1
縮尺
 41
0.9
  7
ｽﾀｲﾙ1
100
AcDbText
  0
TEXT
  5
319B
330
1A
100
AcDbEntity
  8
MOJI
100
AcDbText
 10
264.0204539858263
 20
1.602460374631897
 30
0.0
 40
2.799999999999999
  1
１/１
 41
0.9
  7
ｽﾀｲﾙ1
100
AcDbText
  0
TEXT
  5
319C
330
1A
100
AcDbEntity
  8
ZUWAKU
100
AcDbText
 10
224.6509044962702
 20
12.02767811512097
 30
0.0
 40
2.0
  1
品番
 41
0.9
  7
ｽﾀｲﾙ1
100
AcDbText
  0
TEXT
  5
319D
330
1A
100
AcDbEntity
  8
ZUWAKU
100
AcDbText
 10
253.3383122598451
 20
12.02767811512097
 30
0.0
 40
2.0
  1
用紙
 41
0.9
  7
ｽﾀｲﾙ1
100
AcDbText
  0
LINE
  5
319E
330
1A
100
AcDbEntity
  8
ZUWAKU
100
AcDbLine
 10
324.308601254772
 20
14.99999984592818
 30
0.0
 11
324.3086012547721
 21
0.399999845928221
 31
0.0
  0
LINE
  5
319F
330
1A
100
AcDbEntity
  8
ZUWAKU
100
AcDbLine
 10
324.408601254772
 20
14.99999984592818
 30
0.0
 11
324.4086012547721
 21
0.399999845928221
 31
0.0
  0
LINE
  5
31A0
330
1A
100
AcDbEntity
  8
ZUWAKU
100
AcDbLine
 10
324.2086012547721
 20
14.99999984592818
 30
0.0
 11
324.2086012547721
 21
0.399999845928221
 31
0.0
  0
LINE
  5
31A1
330
1A
100
AcDbEntity
  8
ZUWAKU
100
AcDbLine
 10
276.3634778827259
 20
14.99999984592818
 30
0.0
 11
276.3634778827261
 21
0.399999845928221
 31
0.0
  0
LINE
  5
31A2
330
1A
100
AcDbEntity
  8
ZUWAKU
100
AcDbLine
 10
276.463477882726
 20
14.99999984592818
 30
0.0
 11
276.4634778827261
 21
0.399999845928221
 31
0.0
  0
LINE
  5
31A3
330
1A
100
AcDbEntity
  8
ZUWAKU
100
AcDbLine
 10
276.263477882726
 20
14.99999984592818
 30
0.0
 11
276.263477882726
 21
0.399999845928221
 31
0.0
  0
TEXT
  5
31A4
330
1A
100
AcDbEntity
  8
ZUWAKU
100
AcDbText
 10
325.1473237658768
 20
12.02767811512097
 30
0.0
 40
2.0
  1
DATE
 41
0.9
  7
ｽﾀｲﾙ1
100
AcDbText
  0
LINE
  5
31A5
330
1A
100
AcDbEntity
  8
ZUWAKU
100
AcDbLine
 10
348.6245052739405
 20
14.99999984592818
 30
0.0
 11
348.6245052739405
 21
0.399999845928221
 31
0.0
  0
LINE
  5
31A6
330
1A
100
AcDbEntity
  8
ZUWAKU
100
AcDbLine
 10
348.7245052739404
 20
14.99999984592818
 30
0.0
 11
348.7245052739404
 21
0.399999845928221
 31
0.0
  0
LINE
  5
31A7
330
1A
100
AcDbEntity
  8
ZUWAKU
100
AcDbLine
 10
348.8245052739404
 20
14.99999984592818
 30
0.0
 11
348.8245052739405
 21
0.399999845928221
 31
0.0
  0
LINE
  5
31A8
330
1A
100
AcDbEntity
  8
ZUWAKU
100
AcDbLine
 10
348.9245052739404
 20
14.99999984592818
 30
0.0
 11
348.9245052739405
 21
0.399999845928221
 31
0.0
  0
TEXT
  5
31A9
330
1A
100
AcDbEntity
  8
ZUWAKU
100
AcDbText
 10
354.2640420957917
 20
8.776919513771588
 30
0.0
 40
3.0
  1
積水化学工業株式会社
 41
0.9
  7
ｽﾀｲﾙ1
100
AcDbText
  0
TEXT
  5
31AA
330
1A
100
AcDbEntity
  8
ZUWAKU
100
AcDbText
 10
354.2640420957917
 20
3.324420002855219
 30
0.0
 40
3.0
  1
建材事業部
 41
0.9
  7
ｽﾀｲﾙ1
100
AcDbText
  0
VIEWPORT
  5
22
330
17
100
AcDbEntity
 67
     1
  8
0
100
AcDbViewport
 10
313.6808219178082
 20
148.5
 30
0.0
 40
627.3616438356165
 41
297.0
 68
     2
 69
     1
1001
ACAD
1000
MVIEW
1002
{
1070
    16
1010
0.0
1020
0.0
1030
0.0
1010
0.0
1020
0.0
1030
1.0
1040
0.0
1040
297.0
1040
313.6808219178082
1040
148.5
1040
50.0
1040
0.0
1040
0.0
1070
     0
1070
   100
1070
     1
1070
     0
1070
     0
1070
     0
1070
     0
1070
     0
1040
0.0
1040
0.0
1040
0.0
1040
1.0
1040
1.0
1040
10.0
1040
10.0
1070
     0
1002
{
1002
}
1002
}
  0
VIEWPORT
  5
64
330
17
100
AcDbEntity
 67
     1
  8
VIEWPORT
100
AcDbViewport
 10
210.0
 20
148.5
 30
0.0
 40
420.0
 41
297.0
 68
     1
 69
     2
1001
ACAD
1000
MVIEW
1002
{
1070
    16
1010
0.0
1020
0.0
1030
0.0
1010
0.0
1020
0.0
1030
1.0
1040
0.0
1040
302.9399999999998
1040
210.0
1040
148.5
1040
50.0
1040
0.0
1040
0.0
1070
     0
1070
   100
1070
     1
1070
     0
1070
     0
1070
     0
1070
     0
1070
     0
1040
0.0
1040
0.0
1040
0.0
1040
5.0
1040
5.0
1040
0.0
1040
0.0
1070
     0
1002
{
1002
}
1002
}
  0
ENDSEC
  0
SECTION
  2
OBJECTS
  0
DICTIONARY
  5
C
330
0
100
AcDbDictionary
  3
ACAD_GROUP
350
D
  3
ACAD_LAYOUT
350
141
  3
ACAD_MLINESTYLE
350
E
  3
ACAD_PLOTSETTINGS
350
142
  3
ACAD_PLOTSTYLENAME
350
2ECC
  3
ACDBHEADERROUNDTRIPXREC
350
3217
1001
ACAD
1000
TREAT_AS_HARD
1070
     0
  0
DICTIONARY
  5
73C
330
1A
100
AcDbDictionary
280
     1
  3
ACAD_LAYOUTSELFREF
360
3239
1001
ACAD
1000
TREAT_AS_HARD
1070
     0
  0
DICTIONARY
  5
73A
330
17
100
AcDbDictionary
280
     1
  3
ACAD_LAYOUTSELFREF
360
3238
1001
ACAD
1000
TREAT_AS_HARD
1070
     0
  0
DICTIONARY
  5
D
102
{ACAD_REACTORS
330
C
102
}
330
C
100
AcDbDictionary
1001
ACAD
1000
TREAT_AS_HARD
1070
     0
  0
DICTIONARY
  5
141
102
{ACAD_REACTORS
330
C
102
}
330
C
100
AcDbDictionary
1001
ACAD
1000
TREAT_AS_HARD
1070
     0
  0
DICTIONARY
  5
E
102
{ACAD_REACTORS
330
C
102
}
330
C
100
AcDbDictionary
  3
STANDARD
350
13
1001
ACAD
1000
TREAT_AS_HARD
1070
     0
  0
DICTIONARY
  5
142
102
{ACAD_REACTORS
330
C
102
}
330
C
100
AcDbDictionary
1001
ACAD
1000
TREAT_AS_HARD
1070
     0
  0
ACDBDICTIONARYWDFLT
  5
2ECC
102
{ACAD_REACTORS
330
C
102
}
330
C
100
AcDbDictionary
281
     1
  3
Normal
350
2ECD
100
AcDbDictionaryWithDefault
340
2ECD
1001
ACAD
1000
TREAT_AS_HARD
1070
     0
  0
DICTIONARY
  5
3217
102
{ACAD_REACTORS
330
C
102
}
330
C
100
AcDbDictionary
  3
TSTACKALIGN
350
3218
  3
TSTACKSIZE
350
3219
  3
HYPERLINKBASE
350
321A
  3
STYLESHEET
350
321B
  3
LAYOUTDICT
350
321C
  3
PLOTSETDICT
350
321D
  3
PLOTSTYLNAMDICT
350
321E
  3
LWETCUNION
350
321F
  3
INSUNITS
350
3220
  3
CEPSNTYPE
350
3221
  3
FINGERPRINTGUID
350
3222
  3
VERSIONGUID
350
3223
  3
PSVPSCALE
350
3224
  3
DIMSTYLEDATA
350
3225
  3
PUCSORTHOREF
350
3226
  3
PUCSORTHOVIEW
350
3227
  3
PUCSBASE
350
3228
  3
PUCSORGTOP
350
3229
  3
PUCSORGBOTTOM
350
322A
  3
PUCSORGLEFT
350
322B
  3
PUCSORGRIGHT
350
322C
  3
PUCSORGFRONT
350
322D
  3
PUCSORGBACK
350
322E
  3
UCSORTHOREF
350
322F
  3
UCSORTHOVIEW
350
3230
  3
UCSBASE
350
3231
  3
UCSORGTOP
350
3232
  3
UCSORGBOTTOM
350
3233
  3
UCSORGLEFT
350
3234
  3
UCSORGRIGHT
350
3235
  3
UCSORGFRONT
350
3236
  3
UCSORGBACK
350
3237
  0
XRECORD
  5
3239
102
{ACAD_REACTORS
330
73C
102
}
330
73C
100
AcDbXrecord
340
1A
  0
XRECORD
  5
3238
102
{ACAD_REACTORS
330
73A
102
}
330
73A
100
AcDbXrecord
340
17
  0
MLINESTYLE
  5
13
102
{ACAD_REACTORS
330
E
102
}
330
E
100
AcDbMlineStyle
  2
STANDARD
 70
     0
  3

 62
     0
 51
90.0
 52
90.0
 71
     2
 49
0.5
 62
   256
  6
BYLAYER
 49
-0.5
 62
   256
  6
BYLAYER
  0
ACDBPLACEHOLDER
  5
2ECD
102
{ACAD_REACTORS
330
2ECC
102
}
330
2ECC
100
AcDbPlaceHolder
280
     0
  0
XRECORD
  5
3218
102
{ACAD_REACTORS
330
3217
102
}
330
3217
100
AcDbXrecord
 90
        1
  0
XRECORD
  5
3219
102
{ACAD_REACTORS
330
3217
102
}
330
3217
100
AcDbXrecord
 90
       70
  0
XRECORD
  5
321A
102
{ACAD_REACTORS
330
3217
102
}
330
3217
100
AcDbXrecord
  1

  0
XRECORD
  5
321B
102
{ACAD_REACTORS
330
3217
102
}
330
3217
100
AcDbXrecord
  1
systemprinter.ctb
  0
XRECORD
  5
321C
102
{ACAD_REACTORS
330
3217
102
}
330
3217
100
AcDbXrecord
340
141
  0
XRECORD
  5
321D
102
{ACAD_REACTORS
330
3217
102
}
330
3217
100
AcDbXrecord
340
142
  0
XRECORD
  5
321E
102
{ACAD_REACTORS
330
3217
102
}
330
3217
100
AcDbXrecord
340
2ECC
  0
XRECORD
  5
321F
102
{ACAD_REACTORS
330
3217
102
}
330
3217
100
AcDbXrecord
 90
    10781
  0
XRECORD
  5
3220
102
{ACAD_REACTORS
330
3217
102
}
330
3217
100
AcDbXrecord
 90
        0
  0
XRECORD
  5
3221
102
{ACAD_REACTORS
330
3217
102
}
330
3217
100
AcDbXrecord
 90
        0
  0
XRECORD
  5
3222
102
{ACAD_REACTORS
330
3217
102
}
330
3217
100
AcDbXrecord
  1
{33C9BAF8-8A00-11D6-9330-0050DA99388B}
  0
XRECORD
  5
3223
102
{ACAD_REACTORS
330
3217
102
}
330
3217
100
AcDbXrecord
  1
{B25073B1-520A-4A1D-9A7C-E5009FC61F5B}
  0
XRECORD
  5
3224
102
{ACAD_REACTORS
330
3217
102
}
330
3217
100
AcDbXrecord
 40
0.0
  0
XRECORD
  5
3225
102
{ACAD_REACTORS
330
3217
102
}
330
3217
100
AcDbXrecord
1000
DSTYLE
1002
{
1070
   341
340
B2
1070
   343
340
B2
1070
   344
340
B2
1002
}
  0
XRECORD
  5
3226
102
{ACAD_REACTORS
330
3217
102
}
330
3217
100
AcDbXrecord
340
0
  0
XRECORD
  5
3227
102
{ACAD_REACTORS
330
3217
102
}
330
3217
100
AcDbXrecord
 70
     0
  0
XRECORD
  5
3228
102
{ACAD_REACTORS
330
3217
102
}
330
3217
100
AcDbXrecord
340
0
  0
XRECORD
  5
3229
102
{ACAD_REACTORS
330
3217
102
}
330
3217
100
AcDbXrecord
 10
0.0
 20
0.0
 30
0.0
  0
XRECORD
  5
322A
102
{ACAD_REACTORS
330
3217
102
}
330
3217
100
AcDbXrecord
 10
0.0
 20
0.0
 30
0.0
  0
XRECORD
  5
322B
102
{ACAD_REACTORS
330
3217
102
}
330
3217
100
AcDbXrecord
 10
0.0
 20
0.0
 30
0.0
  0
XRECORD
  5
322C
102
{ACAD_REACTORS
330
3217
102
}
330
3217
100
AcDbXrecord
 10
0.0
 20
0.0
 30
0.0
  0
XRECORD
  5
322D
102
{ACAD_REACTORS
330
3217
102
}
330
3217
100
AcDbXrecord
 10
0.0
 20
0.0
 30
0.0
  0
XRECORD
  5
322E
102
{ACAD_REACTORS
330
3217
102
}
330
3217
100
AcDbXrecord
 10
0.0
 20
0.0
 30
0.0
  0
XRECORD
  5
322F
102
{ACAD_REACTORS
330
3217
102
}
330
3217
100
AcDbXrecord
340
0
  0
XRECORD
  5
3230
102
{ACAD_REACTORS
330
3217
102
}
330
3217
100
AcDbXrecord
 70
     0
  0
XRECORD
  5
3231
102
{ACAD_REACTORS
330
3217
102
}
330
3217
100
AcDbXrecord
340
0
  0
XRECORD
  5
3232
102
{ACAD_REACTORS
330
3217
102
}
330
3217
100
AcDbXrecord
 10
0.0
 20
0.0
 30
0.0
  0
XRECORD
  5
3233
102
{ACAD_REACTORS
330
3217
102
}
330
3217
100
AcDbXrecord
 10
0.0
 20
0.0
 30
0.0
  0
XRECORD
  5
3234
102
{ACAD_REACTORS
330
3217
102
}
330
3217
100
AcDbXrecord
 10
0.0
 20
0.0
 30
0.0
  0
XRECORD
  5
3235
102
{ACAD_REACTORS
330
3217
102
}
330
3217
100
AcDbXrecord
 10
0.0
 20
0.0
 30
0.0
  0
XRECORD
  5
3236
102
{ACAD_REACTORS
330
3217
102
}
330
3217
100
AcDbXrecord
 10
0.0
 20
0.0
 30
0.0
  0
XRECORD
  5
3237
102
{ACAD_REACTORS
330
3217
102
}
330
3217
100
AcDbXrecord
 10
0.0
 20
0.0
 30
0.0
  0
ENDSEC
  0
EOF
