  0
SECTION
  2
HEADER
  9
$ACADVER
  1
AC1014
  9
$ACADMAINTVER
 70
     9
  9
$DWGCODEPAGE
  3
ANSI_932
  9
$INSBASE
 10
0.0
 20
0.0
 30
0.0
  9
$EXTMIN
 10
-0.0128099507776369
 20
-0.0090584651927657
 30
-0.0000000100018307
  9
$EXTMAX
 10
797.6616026615272
 20
551.6426495160594
 30
0.0000000100018311
  9
$LIMMIN
 10
0.0
 20
0.0
  9
$LIMMAX
 10
840.0
 20
594.0
  9
$ORTHOMODE
 70
     0
  9
$REGENMODE
 70
     1
  9
$FILLMODE
 70
     1
  9
$QTEXTMODE
 70
     0
  9
$MIRRTEXT
 70
     1
  9
$DRAGMODE
 70
     2
  9
$LTSCALE
 40
2.0
  9
$OSMODE
 70
    35
  9
$ATTMODE
 70
     1
  9
$TEXTSIZE
 40
5.0
  9
$TRACEWID
 40
1.0
  9
$TEXTSTYLE
  7
STANDARD
  9
$CLAYER
  8
SUNPOU
  9
$CELTYPE
  6
BYLAYER
  9
$CECOLOR
 62
   256
  9
$CELTSCALE
 40
1.0
  9
$DELOBJ
 70
     1
  9
$DISPSILH
 70
     0
  9
$DIMSCALE
 40
1.0
  9
$DIMASZ
 40
7.0
  9
$DIMEXO
 40
6.0
  9
$DIMDLI
 40
14.0
  9
$DIMRND
 40
0.0
  9
$DIMDLE
 40
0.0
  9
$DIMEXE
 40
3.0
  9
$DIMTP
 40
0.0
  9
$DIMTM
 40
0.0
  9
$DIMTXT
 40
6.0
  9
$DIMCEN
 40
150.0
  9
$DIMTSZ
 40
0.0
  9
$DIMTOL
 70
     0
  9
$DIMLIM
 70
     0
  9
$DIMTIH
 70
     0
  9
$DIMTOH
 70
     0
  9
$DIMSE1
 70
     0
  9
$DIMSE2
 70
     0
  9
$DIMTAD
 70
     3
  9
$DIMZIN
 70
     0
  9
$DIMBLK
  1

  9
$DIMASO
 70
     1
  9
$DIMSHO
 70
     1
  9
$DIMPOST
  1

  9
$DIMAPOST
  1

  9
$DIMALT
 70
     0
  9
$DIMALTD
 70
     2
  9
$DIMALTF
 40
25.4
  9
$DIMLFAC
 40
1.0
  9
$DIMTOFL
 70
     1
  9
$DIMTVP
 40
0.0
  9
$DIMTIX
 70
     0
  9
$DIMSOXD
 70
     0
  9
$DIMSAH
 70
     1
  9
$DIMBLK1
  1
OPEN
  9
$DIMBLK2
  1
OPEN
  9
$DIMSTYLE
  2
STANDARD
  9
$DIMCLRD
 70
   256
  9
$DIMCLRE
 70
   256
  9
$DIMCLRT
 70
   256
  9
$DIMTFAC
 40
1.0
  9
$DIMGAP
 40
2.0
  9
$DIMJUST
 70
     0
  9
$DIMSD1
 70
     0
  9
$DIMSD2
 70
     0
  9
$DIMTOLJ
 70
     1
  9
$DIMTZIN
 70
     0
  9
$DIMALTZ
 70
     0
  9
$DIMALTTZ
 70
     0
  9
$DIMFIT
 70
     3
  9
$DIMUPT
 70
     0
  9
$DIMUNIT
 70
     2
  9
$DIMDEC
 70
     0
  9
$DIMTDEC
 70
     0
  9
$DIMALTU
 70
     2
  9
$DIMALTTD
 70
     2
  9
$DIMTXSTY
  7
STANDARD
  9
$DIMAUNIT
 70
     0
  9
$LUNITS
 70
     2
  9
$LUPREC
 70
     4
  9
$SKETCHINC
 40
1.0
  9
$FILLETRAD
 40
20.0
  9
$AUNITS
 70
     0
  9
$AUPREC
 70
     0
  9
$MENU
  1
.
  9
$ELEVATION
 40
0.0
  9
$PELEVATION
 40
0.0
  9
$THICKNESS
 40
0.0
  9
$LIMCHECK
 70
     0
  9
$BLIPMODE
 70
     0
  9
$CHAMFERA
 40
0.0
  9
$CHAMFERB
 40
0.0
  9
$CHAMFERC
 40
40.0
  9
$CHAMFERD
 40
0.0
  9
$SKPOLY
 70
     0
  9
$TDCREATE
 40
2450994.354346065
  9
$TDUPDATE
 40
2453504.466473518
  9
$TDINDWG
 40
0.0518967014
  9
$TDUSRTIMER
 40
0.0518967014
  9
$USRTIMER
 70
     1
  9
$ANGBASE
 50
0.0
  9
$ANGDIR
 70
     0
  9
$PDMODE
 70
     1
  9
$PDSIZE
 40
0.0
  9
$PLINEWID
 40
0.0
  9
$COORDS
 70
     1
  9
$SPLFRAME
 70
     0
  9
$SPLINETYPE
 70
     6
  9
$SPLINESEGS
 70
     8
  9
$ATTDIA
 70
     0
  9
$ATTREQ
 70
     1
  9
$HANDLING
 70
 10241
  9
$HANDSEED
  5
5511
  9
$SURFTAB1
 70
     6
  9
$SURFTAB2
 70
     6
  9
$SURFTYPE
 70
     6
  9
$SURFU
 70
     6
  9
$SURFV
 70
     6
  9
$UCSNAME
  2

  9
$UCSORG
 10
0.0
 20
0.0
 30
0.0
  9
$UCSXDIR
 10
1.0
 20
0.0
 30
0.0
  9
$UCSYDIR
 10
0.0
 20
1.0
 30
0.0
  9
$PUCSNAME
  2

  9
$PUCSORG
 10
0.0
 20
0.0
 30
0.0
  9
$PUCSXDIR
 10
1.0
 20
0.0
 30
0.0
  9
$PUCSYDIR
 10
0.0
 20
1.0
 30
0.0
  9
$USERI1
 70
     0
  9
$USERI2
 70
     0
  9
$USERI3
 70
     0
  9
$USERI4
 70
     0
  9
$USERI5
 70
     0
  9
$USERR1
 40
0.0
  9
$USERR2
 40
0.0
  9
$USERR3
 40
0.0
  9
$USERR4
 40
0.0
  9
$USERR5
 40
0.0
  9
$WORLDVIEW
 70
     1
  9
$SHADEDGE
 70
     3
  9
$SHADEDIF
 70
    70
  9
$TILEMODE
 70
     1
  9
$MAXACTVP
 70
    16
  9
$PINSBASE
 10
0.0
 20
0.0
 30
0.0
  9
$PLIMCHECK
 70
     0
  9
$PEXTMIN
 10
0.0
 20
0.0
 30
0.0
  9
$PEXTMAX
 10
420.0
 20
297.0
 30
0.0
  9
$PLIMMIN
 10
0.0
 20
0.0
  9
$PLIMMAX
 10
420.0
 20
297.0
  9
$UNITMODE
 70
     0
  9
$VISRETAIN
 70
     0
  9
$PLINEGEN
 70
     0
  9
$PSLTSCALE
 70
     1
  9
$TREEDEPTH
 70
  3020
  9
$PICKSTYLE
 70
     1
  9
$CMLSTYLE
  2
STANDARD
  9
$CMLJUST
 70
     0
  9
$CMLSCALE
 40
1.0
  9
$PROXYGRAPHICS
 70
     1
  9
$MEASUREMENT
 70
     1
  0
ENDSEC
  0
SECTION
  2
CLASSES
  0
CLASS
  1
XRECORD
  2
AcDbXrecord
  3
AutoCAD 2000
 90
        0
280
     0
281
     0
  0
CLASS
  1
ACDBDICTIONARYWDFLT
  2
AcDbDictionaryWithDefault
  3
AutoCAD 2000
 90
        0
280
     0
281
     0
  0
CLASS
  1
ACDBPLACEHOLDER
  2
AcDbPlaceHolder
  3
AutoCAD 2000
 90
        0
280
     0
281
     0
  0
CLASS
  1
LAYOUT
  2
AcDbLayout
  3
AutoCAD 2000
 90
        0
280
     0
281
     0
  0
CLASS
  1
LONG_TRANSACTION
  2
AcDbLongTransaction
  3
AutoCAD 2000
 90
        0
280
     0
281
     0
  0
CLASS
  1
LWPOLYLINE
  2
AcDbPolyline
  3
AutoCAD 2000
 90
        0
280
     0
281
     1
  0
CLASS
  1
HATCH
  2
AcDbHatch
  3
AutoCAD 2000
 90
        0
280
     0
281
     1
  0
CLASS
  1
XRECORD
  2
AcDbXrecord
  3
AutoCAD 2000
 90
        0
280
     0
281
     0
  0
CLASS
  1
LONG_TRANSACTION
  2
AcDbLongTransaction
  3
AutoCAD 2000
 90
        0
280
     0
281
     0
  0
CLASS
  1
LWPOLYLINE
  2
AcDbPolyline
  3
AutoCAD 2000
 90
        0
280
     0
281
     1
  0
CLASS
  1
HATCH
  2
AcDbHatch
  3
AutoCAD 2000
 90
        0
280
     0
281
     1
  0
CLASS
  1
XRECORD
  2
AcDbXrecord
  3
AutoCAD 2000
 90
        0
280
     0
281
     0
  0
CLASS
  1
LONG_TRANSACTION
  2
AcDbLongTransaction
  3
AutoCAD 2000
 90
        0
280
     0
281
     0
  0
CLASS
  1
LWPOLYLINE
  2
AcDbPolyline
  3
AutoCAD 2000
 90
        0
280
     0
281
     1
  0
CLASS
  1
HATCH
  2
AcDbHatch
  3
AutoCAD 2000
 90
        0
280
     0
281
     1
  0
CLASS
  1
XRECORD
  2
AcDbXrecord
  3
AutoCAD 2000
 90
        0
280
     0
281
     0
  0
CLASS
  1
LONG_TRANSACTION
  2
AcDbLongTransaction
  3
AutoCAD 2000
 90
        0
280
     0
281
     0
  0
CLASS
  1
LWPOLYLINE
  2
AcDbPolyline
  3
AutoCAD 2000
 90
        0
280
     0
281
     1
  0
CLASS
  1
HATCH
  2
AcDbHatch
  3
AutoCAD 2000
 90
        0
280
     0
281
     1
  0
CLASS
  1
XRECORD
  2
AcDbXrecord
  3
AutoCAD 2000
 90
        0
280
     0
281
     0
  0
CLASS
  1
LONG_TRANSACTION
  2
AcDbLongTransaction
  3
AutoCAD 2000
 90
        0
280
     0
281
     0
  0
CLASS
  1
LWPOLYLINE
  2
AcDbPolyline
  3
AutoCAD 2000
 90
        0
280
     0
281
     1
  0
CLASS
  1
HATCH
  2
AcDbHatch
  3
AutoCAD 2000
 90
        0
280
     0
281
     1
  0
CLASS
  1
XRECORD
  2
AcDbXrecord
  3
AutoCAD 2000
 90
        0
280
     0
281
     0
  0
ENDSEC
  0
SECTION
  2
TABLES
  0
TABLE
  2
VPORT
  5
8
330
0
100
AcDbSymbolTable
 70
     6
  0
VPORT
  5
54ED
330
8
100
AcDbSymbolTableRecord
100
AcDbViewportTableRecord
  2
*ACTIVE
 70
     0
 10
0.0
 20
0.0
 11
1.0
 21
1.0
 12
427.7645616776392
 22
271.4622900677386
 13
0.0
 23
0.0
 14
5.0
 24
5.0
 15
0.0
 25
0.0
 16
0.0
 26
0.0
 36
1.0
 17
0.0
 27
0.0
 37
0.0
 40
600.5848043044893
 41
1.752310536044362
 42
50.0
 43
0.0
 44
0.0
 50
0.0
 51
0.0
 71
     0
 72
   100
 73
     1
 74
     0
 75
     0
 76
     0
 77
     0
 78
     0
  0
ENDTAB
  0
TABLE
  2
LTYPE
  5
5
330
0
100
AcDbSymbolTable
 70
     3
  0
LTYPE
  5
14
330
5
100
AcDbSymbolTableRecord
100
AcDbLinetypeTableRecord
  2
BYBLOCK
 70
     0
  3

 72
    65
 73
     0
 40
0.0
  0
LTYPE
  5
15
330
5
100
AcDbSymbolTableRecord
100
AcDbLinetypeTableRecord
  2
BYLAYER
 70
     0
  3

 72
    65
 73
     0
 40
0.0
  0
LTYPE
  5
16
330
5
100
AcDbSymbolTableRecord
100
AcDbLinetypeTableRecord
  2
CONTINUOUS
 70
     0
  3
Solid line
 72
    65
 73
     0
 40
0.0
  0
LTYPE
  5
135
330
5
100
AcDbSymbolTableRecord
100
AcDbLinetypeTableRecord
  2
CENTER
 70
     0
  3
____ _ ____ _ ____ _ ____ _ ____ _ ____ _ ____ 
 72
    65
 73
     4
 40
2.0
 49
1.25
 74
     0
 49
-0.25
 74
     0
 49
0.25
 74
     0
 49
-0.25
 74
     0
  0
LTYPE
  5
3A86
330
5
100
AcDbSymbolTableRecord
100
AcDbLinetypeTableRecord
  2
PHANTOM
 70
     0
  3
______  __  __  ______  __  __  ______  __  __ 
 72
    65
 73
     6
 40
2.5
 49
1.25
 74
     0
 49
-0.25
 74
     0
 49
0.25
 74
     0
 49
-0.25
 74
     0
 49
0.25
 74
     0
 49
-0.25
 74
     0
  0
ENDTAB
  0
TABLE
  2
LAYER
  5
2
330
0
100
AcDbSymbolTable
 70
     9
  0
LAYER
  5
F
330
2
100
AcDbSymbolTableRecord
100
AcDbLayerTableRecord
  2
0
 70
     0
 62
     7
  6
CONTINUOUS
  0
LAYER
  5
62
330
2
100
AcDbSymbolTableRecord
100
AcDbLayerTableRecord
  2
VIEWPORT
 70
     0
 62
     7
  6
CONTINUOUS
  0
LAYER
  5
159
330
2
100
AcDbSymbolTableRecord
100
AcDbLayerTableRecord
  2
SEIHIN
 70
     0
 62
     3
  6
CONTINUOUS
  0
LAYER
  5
15A
330
2
100
AcDbSymbolTableRecord
100
AcDbLayerTableRecord
  2
SUNPOU
 70
     0
 62
     4
  6
CONTINUOUS
  0
LAYER
  5
15B
330
2
100
AcDbSymbolTableRecord
100
AcDbLayerTableRecord
  2
CENTER_L
 70
     0
 62
     1
  6
CENTER
  0
LAYER
  5
214
330
2
100
AcDbSymbolTableRecord
100
AcDbLayerTableRecord
  2
DEFPOINTS
 70
     0
 62
     7
  6
CONTINUOUS
  0
LAYER
  5
3A88
330
2
100
AcDbSymbolTableRecord
100
AcDbLayerTableRecord
  2
S120
 70
     0
 62
     8
  6
PHANTOM
  0
LAYER
  5
51F4
330
2
100
AcDbSymbolTableRecord
100
AcDbLayerTableRecord
  2
ZUWAKU
 70
     0
 62
     7
  6
CONTINUOUS
  0
LAYER
  5
51F5
330
2
100
AcDbSymbolTableRecord
100
AcDbLayerTableRecord
  2
MOJI
 70
     0
 62
     2
  6
CONTINUOUS
  0
ENDTAB
  0
TABLE
  2
STYLE
  5
3
330
0
100
AcDbSymbolTable
 70
     2
  0
STYLE
  5
10
330
3
100
AcDbSymbolTableRecord
100
AcDbTextStyleTableRecord
  2
STANDARD
 70
     0
 40
0.0
 41
1.0
 50
0.0
 71
     0
 42
5.0
  3
TXT
  4
bigfont.shx
  0
STYLE
  5
51F6
330
3
100
AcDbSymbolTableRecord
100
AcDbTextStyleTableRecord
  2
ｽﾀｲﾙ1
 70
     0
 40
0.0
 41
1.0
 50
0.0
 71
     0
 42
2.5
  3
MS PGothic.ttf
  4

1001
ACAD
1000
MS PGothic
1071
    32818
  0
ENDTAB
  0
TABLE
  2
VIEW
  5
6
330
0
100
AcDbSymbolTable
 70
     0
  0
ENDTAB
  0
TABLE
  2
UCS
  5
7
330
0
100
AcDbSymbolTable
 70
     0
  0
ENDTAB
  0
TABLE
  2
APPID
  5
9
330
0
100
AcDbSymbolTable
 70
     1
  0
APPID
  5
11
330
9
100
AcDbSymbolTableRecord
100
AcDbRegAppTableRecord
  2
ACAD
 70
     0
  0
ENDTAB
  0
TABLE
  2
DIMSTYLE
  5
A
330
0
100
AcDbSymbolTable
 70
     1
  0
DIMSTYLE
105
1D
102
{ACAD_REACTORS
330
386D
330
385C
330
385D
330
3851
330
3852
330
386E
330
35F4
330
35EE
330
35A6
330
35A7
330
35A0
330
35A1
330
35A2
102
}
330
A
100
AcDbSymbolTableRecord
100
AcDbDimStyleTableRecord
  2
STANDARD
 70
     0
  3

  4

  5

  6

  7

 40
1.0
 41
0.18
 42
0.0625
 43
0.38
 44
0.18
 45
0.0
 46
0.0
 47
0.0
 48
0.0
140
0.18
141
0.09
142
0.0
143
25.4
144
1.0
145
0.0
146
1.0
147
0.09
 71
     0
 72
     0
 73
     1
 74
     1
 75
     0
 76
     0
 77
     0
 78
     0
170
     0
171
     2
172
     0
173
     0
174
     0
175
     0
176
     0
177
     0
178
     0
270
     2
271
     4
272
     4
273
     2
274
     2
340
10
275
     0
280
     0
281
     0
282
     0
283
     1
284
     0
285
     0
286
     0
287
     3
288
     0
  0
ENDTAB
  0
TABLE
  2
BLOCK_RECORD
  5
1
330
0
100
AcDbSymbolTable
 70
    14
  0
BLOCK_RECORD
  5
1A
102
{ACAD_XDICTIONARY
360
3D5B
102
}
330
1
100
AcDbSymbolTableRecord
100
AcDbBlockTableRecord
  2
*MODEL_SPACE
  0
BLOCK_RECORD
  5
17
102
{ACAD_XDICTIONARY
360
3D59
102
}
330
1
100
AcDbSymbolTableRecord
100
AcDbBlockTableRecord
  2
*PAPER_SPACE
  0
BLOCK_RECORD
  5
6D
330
1
100
AcDbSymbolTableRecord
100
AcDbBlockTableRecord
  2
_OPEN
  0
BLOCK_RECORD
  5
3937
330
1
100
AcDbSymbolTableRecord
100
AcDbBlockTableRecord
  2
*D1
  0
BLOCK_RECORD
  5
3943
330
1
100
AcDbSymbolTableRecord
100
AcDbBlockTableRecord
  2
*D2
  0
BLOCK_RECORD
  5
3951
330
1
100
AcDbSymbolTableRecord
100
AcDbBlockTableRecord
  2
*D3
  0
BLOCK_RECORD
  5
395D
330
1
100
AcDbSymbolTableRecord
100
AcDbBlockTableRecord
  2
*D4
  0
BLOCK_RECORD
  5
396B
330
1
100
AcDbSymbolTableRecord
100
AcDbBlockTableRecord
  2
*D5
  0
BLOCK_RECORD
  5
3977
330
1
100
AcDbSymbolTableRecord
100
AcDbBlockTableRecord
  2
*D6
  0
BLOCK_RECORD
  5
3985
330
1
100
AcDbSymbolTableRecord
100
AcDbBlockTableRecord
  2
*D7
  0
BLOCK_RECORD
  5
3993
330
1
100
AcDbSymbolTableRecord
100
AcDbBlockTableRecord
  2
*D8
  0
BLOCK_RECORD
  5
399F
330
1
100
AcDbSymbolTableRecord
100
AcDbBlockTableRecord
  2
*D9
  0
BLOCK_RECORD
  5
39AB
330
1
100
AcDbSymbolTableRecord
100
AcDbBlockTableRecord
  2
*D10
  0
BLOCK_RECORD
  5
39B9
330
1
100
AcDbSymbolTableRecord
100
AcDbBlockTableRecord
  2
*D11
  0
BLOCK_RECORD
  5
39C5
330
1
100
AcDbSymbolTableRecord
100
AcDbBlockTableRecord
  2
*D12
  0
BLOCK_RECORD
  5
39D1
330
1
100
AcDbSymbolTableRecord
100
AcDbBlockTableRecord
  2
*D13
  0
ENDTAB
  0
ENDSEC
  0
SECTION
  2
BLOCKS
  0
BLOCK
  5
1B
330
1A
100
AcDbEntity
  8
0
100
AcDbBlockBegin
  2
*MODEL_SPACE
 70
     0
 10
0.0
 20
0.0
 30
0.0
  3
*MODEL_SPACE
  1

  0
ENDBLK
  5
1C
330
1A
100
AcDbEntity
  8
0
100
AcDbBlockEnd
  0
BLOCK
  5
18
330
17
100
AcDbEntity
 67
     1
  8
0
100
AcDbBlockBegin
  2
*PAPER_SPACE
 70
     0
 10
0.0
 20
0.0
 30
0.0
  3
*PAPER_SPACE
  1

  0
ENDBLK
  5
19
330
17
100
AcDbEntity
 67
     1
  8
0
100
AcDbBlockEnd
  0
BLOCK
  5
6E
330
6D
100
AcDbEntity
  8
0
100
AcDbBlockBegin
  2
_OPEN
 70
     0
 10
0.0
 20
0.0
 30
0.0
  3
_OPEN
  1

  0
LINE
  5
6F
330
6D
100
AcDbEntity
  8
0
  6
BYBLOCK
 62
     0
100
AcDbLine
 10
-1.0
 20
0.1666666666666666
 30
0.0
 11
0.0
 21
0.0
 31
0.0
  0
LINE
  5
70
330
6D
100
AcDbEntity
  8
0
  6
BYBLOCK
 62
     0
100
AcDbLine
 10
0.0
 20
0.0
 30
0.0
 11
-1.0
 21
-0.1666666666666666
 31
0.0
  0
LINE
  5
71
330
6D
100
AcDbEntity
  8
0
  6
BYBLOCK
 62
     0
100
AcDbLine
 10
0.0
 20
0.0
 30
0.0
 11
-1.0
 21
0.0
 31
0.0
  0
ENDBLK
  5
72
330
6D
100
AcDbEntity
  8
0
100
AcDbBlockEnd
  0
BLOCK
  5
39DF
330
3937
100
AcDbEntity
  8
0
100
AcDbBlockBegin
  2
*D1
 70
     1
 10
0.0
 20
0.0
 30
0.0
  3
*D1
  1

  0
LINE
  5
52D0
330
3937
100
AcDbEntity
  8
SUNPOU
 62
     4
100
AcDbLine
 10
432.2076228069153
 20
255.055426087181
 30
0.0
 11
457.2764934608172
 21
265.0829743487363
 31
0.0
  0
LINE
  5
52D1
330
3937
100
AcDbEntity
  8
SUNPOU
 62
     4
100
AcDbLine
 10
461.7144566238495
 20
181.2883415448049
 30
0.0
 11
486.7833272777515
 21
191.3158898063601
 31
0.0
  0
LINE
  5
52D2
330
3937
100
AcDbEntity
  8
SUNPOU
 62
     4
100
AcDbLine
 10
457.0907981226388
 20
257.4694654834771
 30
0.0
 11
481.398162470618
 21
196.7010546134956
 31
0.0
  0
INSERT
  5
52D3
330
3937
100
AcDbEntity
  8
SUNPOU
 62
     4
100
AcDbBlockReference
  2
_OPEN
 10
454.4910633881612
 20
263.9688023196744
 30
0.0
 41
7.0
 42
7.0
 43
7.0
 50
111.8014094863409
  0
INSERT
  5
52D4
330
3937
100
AcDbEntity
  8
SUNPOU
 62
     4
100
AcDbBlockReference
  2
_OPEN
 10
483.9978972050955
 20
190.2017177772983
 30
0.0
 41
7.0
 42
7.0
 43
7.0
 50
291.8014094863409
  0
MTEXT
  5
52D5
330
3937
100
AcDbEntity
  8
SUNPOU
 62
     4
100
AcDbMText
 10
473.886863751055
 20
228.942213430256
 30
0.0
 40
6.0
 41
0.0
 71
     5
 72
     1
  1
\A1;79
 11
0.3713906763539273
 21
-0.9284766908853299
 31
0.0
1001
ACAD
1000
MTEXTBEGIN
1070
    73
1070
     1
1070
    44
1040
1.0
1070
    74
1070
     0
1000
MTEXTEND
  0
POINT
  5
52D6
330
3937
100
AcDbEntity
  8
DEFPOINTS
 62
     0
100
AcDbPoint
 10
426.6367626616034
 20
252.8270820290574
 30
0.0
  0
POINT
  5
52D7
330
3937
100
AcDbEntity
  8
DEFPOINTS
 62
     0
100
AcDbPoint
 10
456.1435964785376
 20
179.0599974866813
 30
0.0
  0
POINT
  5
52D8
330
3937
100
AcDbEntity
  8
DEFPOINTS
 62
     0
100
AcDbPoint
 10
483.9978972050955
 20
190.2017177772983
 30
0.0
  0
ENDBLK
  5
39E9
330
3937
100
AcDbEntity
  8
0
100
AcDbBlockEnd
  0
BLOCK
  5
39EA
330
3943
100
AcDbEntity
  8
0
100
AcDbBlockBegin
  2
*D2
 70
     1
 10
0.0
 20
0.0
 30
0.0
  3
*D2
  1

  0
LINE
  5
52C5
330
3943
100
AcDbEntity
  8
SUNPOU
 62
     4
100
AcDbLine
 10
451.8726037004164
 20
170.8894026069412
 30
0.0
 11
456.3292918167008
 21
159.7476823161629
 31
0.0
  0
LINE
  5
52C6
330
3943
100
AcDbEntity
  8
SUNPOU
 62
     4
100
AcDbLine
 10
458.3719405366318
 20
173.4891373414118
 30
0.0
 11
462.8286286529163
 21
162.3474170506334
 31
0.0
  0
LINE
  5
52C7
330
3943
100
AcDbEntity
  8
SUNPOU
 62
     4
100
AcDbLine
 10
448.7157829514422
 20
159.9333776543557
 30
0.0
 11
442.21644611524
 21
157.3336429198904
 31
0.0
  0
LINE
  5
52C8
330
3943
100
AcDbEntity
  8
SUNPOU
 62
     4
100
AcDbLine
 10
468.2137934600619
 20
167.7325818577568
 30
0.0
 11
494.2111408048711
 21
178.131520795618
 31
0.0
  0
LINE
  5
52C9
330
3943
100
AcDbEntity
  8
SUNPOU
 62
     4
100
AcDbLine
 10
455.2151197876443
 20
162.5331123888209
 30
0.0
 11
461.7144566238597
 21
165.1328471232915
 31
0.0
  0
INSERT
  5
52CA
330
3943
100
AcDbEntity
  8
SUNPOU
 62
     4
100
AcDbBlockReference
  2
_OPEN
 10
455.2151197876443
 20
162.5331123888209
 30
0.0
 41
7.0
 42
7.0
 43
7.0
 50
21.80140948623313
  0
INSERT
  5
52CB
330
3943
100
AcDbEntity
  8
SUNPOU
 62
     4
100
AcDbBlockReference
  2
_OPEN
 10
461.7144566238597
 20
165.1328471232915
 30
0.0
 41
7.0
 42
7.0
 43
7.0
 50
201.8014094862331
  0
MTEXT
  5
52CC
330
3943
100
AcDbEntity
  8
SUNPOU
 62
     4
100
AcDbMText
 10
482.605182168807
 20
178.8743021483502
 30
0.0
 40
6.0
 41
0.0
 71
     5
 72
     1
  1
\A1;t7.0
 11
0.9284766908860285
 21
0.3713906763521806
 31
0.0
1001
ACAD
1000
MTEXTBEGIN
1070
    73
1070
     1
1070
    44
1040
1.0
1070
    74
1070
     0
1000
MTEXTEND
  0
POINT
  5
52CD
330
3943
100
AcDbEntity
  8
DEFPOINTS
 62
     0
100
AcDbPoint
 10
449.6442596423032
 20
176.4602627522574
 30
0.0
  0
POINT
  5
52CE
330
3943
100
AcDbEntity
  8
DEFPOINTS
 62
     0
100
AcDbPoint
 10
456.1435964785187
 20
179.0599974867279
 30
0.0
  0
POINT
  5
52CF
330
3943
100
AcDbEntity
  8
DEFPOINTS
 62
     0
100
AcDbPoint
 10
461.7144566238597
 20
165.1328471232915
 30
0.0
  0
ENDBLK
  5
39F6
330
3943
100
AcDbEntity
  8
0
100
AcDbBlockEnd
  0
BLOCK
  5
39F7
330
3951
100
AcDbEntity
  8
0
100
AcDbBlockBegin
  2
*D3
 70
     1
 10
0.0
 20
0.0
 30
0.0
  3
*D3
  1

  0
LINE
  5
52BC
330
3951
100
AcDbEntity
  8
SUNPOU
 62
     4
100
AcDbLine
 10
284.2715328124033
 20
252.7913822601574
 30
0.0
 11
218.4589269251849
 21
252.7913822601574
 31
0.0
  0
LINE
  5
52BD
330
3951
100
AcDbEntity
  8
SUNPOU
 62
     4
100
AcDbLine
 10
443.7022894354834
 20
176.4834746695296
 30
0.0
 11
218.4589269251849
 21
176.4834746695296
 31
0.0
  0
LINE
  5
52BE
330
3951
100
AcDbEntity
  8
SUNPOU
 62
     4
100
AcDbLine
 10
221.4589269251849
 20
245.7913822601574
 30
0.0
 11
221.4589269251848
 21
183.4834746695296
 31
0.0
  0
INSERT
  5
52BF
330
3951
100
AcDbEntity
  8
SUNPOU
 62
     4
100
AcDbBlockReference
  2
_OPEN
 10
221.4589269251849
 20
252.7913822601574
 30
0.0
 41
7.0
 42
7.0
 43
7.0
 50
90.0
  0
INSERT
  5
52C0
330
3951
100
AcDbEntity
  8
SUNPOU
 62
     4
100
AcDbBlockReference
  2
_OPEN
 10
221.4589269251848
 20
176.4834746695296
 30
0.0
 41
7.0
 42
7.0
 43
7.0
 50
270.0
  0
MTEXT
  5
52C1
330
3951
100
AcDbEntity
  8
SUNPOU
 62
     4
100
AcDbMText
 10
216.4589269251848
 20
219.4066719818028
 30
0.0
 40
6.0
 41
0.0
 71
     5
 72
     1
  1
\A1;76
 11
0.0000000000000001
 21
1.0
 31
0.0
1001
ACAD
1000
MTEXTBEGIN
1070
    73
1070
     1
1070
    44
1040
1.0
1070
    74
1070
     0
1000
MTEXTEND
  0
POINT
  5
52C2
330
3951
100
AcDbEntity
  8
DEFPOINTS
 62
     0
100
AcDbPoint
 10
290.2715328124033
 20
252.7913822601574
 30
0.0
  0
POINT
  5
52C3
330
3951
100
AcDbEntity
  8
DEFPOINTS
 62
     0
100
AcDbPoint
 10
449.7022894354834
 20
176.4834746695296
 30
0.0
  0
POINT
  5
52C4
330
3951
100
AcDbEntity
  8
DEFPOINTS
 62
     0
100
AcDbPoint
 10
221.4589269251848
 20
176.4834746695296
 30
0.0
  0
ENDBLK
  5
3A01
330
3951
100
AcDbEntity
  8
0
100
AcDbBlockEnd
  0
BLOCK
  5
3A02
330
395D
100
AcDbEntity
  8
0
100
AcDbBlockBegin
  2
*D4
 70
     1
 10
0.0
 20
0.0
 30
0.0
  3
*D4
  1

  0
LINE
  5
52B1
330
395D
100
AcDbEntity
  8
SUNPOU
 62
     4
100
AcDbLine
 10
419.1710425691033
 20
222.8913822601574
 30
0.0
 11
419.1710425691033
 21
300.8895820290574
 31
0.0
  0
LINE
  5
52B2
330
395D
100
AcDbEntity
  8
SUNPOU
 62
     4
100
AcDbLine
 10
426.6367626616033
 20
258.8895820290574
 30
0.0
 11
426.6367626616033
 21
300.8895820290574
 31
0.0
  0
LINE
  5
52B3
330
395D
100
AcDbEntity
  8
SUNPOU
 62
     4
100
AcDbLine
 10
412.1710425691032
 20
297.8895820290574
 30
0.0
 11
405.1710425691032
 21
297.8895820290574
 31
0.0
  0
LINE
  5
52B4
330
395D
100
AcDbEntity
  8
SUNPOU
 62
     4
100
AcDbLine
 10
433.6367626616033
 20
297.8895820290574
 30
0.0
 11
448.6367626616034
 21
297.8895820290574
 31
0.0
  0
LINE
  5
52B5
330
395D
100
AcDbEntity
  8
SUNPOU
 62
     4
100
AcDbLine
 10
419.1710425691033
 20
297.8895820290574
 30
0.0
 11
426.6367626616033
 21
297.8895820290574
 31
0.0
  0
INSERT
  5
52B6
330
395D
100
AcDbEntity
  8
SUNPOU
 62
     4
100
AcDbBlockReference
  2
_OPEN
 10
419.1710425691033
 20
297.8895820290574
 30
0.0
 41
7.0
 42
7.0
 43
7.0
  0
INSERT
  5
52B7
330
395D
100
AcDbEntity
  8
SUNPOU
 62
     4
100
AcDbBlockReference
  2
_OPEN
 10
426.6367626616033
 20
297.8895820290574
 30
0.0
 41
7.0
 42
7.0
 43
7.0
 50
180.0
  0
MTEXT
  5
52B8
330
395D
100
AcDbEntity
  8
SUNPOU
 62
     4
100
AcDbMText
 10
444.6367626616034
 20
302.8895820290574
 30
0.0
 40
6.0
 41
0.0
 71
     5
 72
     1
  1
\A1;7
1001
ACAD
1000
MTEXTBEGIN
1070
    73
1070
     1
1070
    44
1040
1.0
1070
    74
1070
     0
1000
MTEXTEND
  0
POINT
  5
52B9
330
395D
100
AcDbEntity
  8
DEFPOINTS
 62
     0
100
AcDbPoint
 10
419.1710425691033
 20
216.8913822601574
 30
0.0
  0
POINT
  5
52BA
330
395D
100
AcDbEntity
  8
DEFPOINTS
 62
     0
100
AcDbPoint
 10
426.6367626616033
 20
252.8895820290574
 30
0.0
  0
POINT
  5
52BB
330
395D
100
AcDbEntity
  8
DEFPOINTS
 62
     0
100
AcDbPoint
 10
426.6367626616033
 20
297.8895820290574
 30
0.0
  0
ENDBLK
  5
3A0E
330
395D
100
AcDbEntity
  8
0
100
AcDbBlockEnd
  0
BLOCK
  5
3A0F
330
396B
100
AcDbEntity
  8
0
100
AcDbBlockBegin
  2
*D5
 70
     1
 10
0.0
 20
0.0
 30
0.0
  3
*D5
  1

  0
LINE
  5
52D9
330
396B
100
AcDbEntity
  8
SUNPOU
 62
     4
100
AcDbLine
 10
419.1710425691033
 20
222.8913822601574
 30
0.0
 11
419.1710425691033
 21
300.8895820290574
 31
0.0
  0
LINE
  5
52DA
330
396B
100
AcDbEntity
  8
SUNPOU
 62
     4
100
AcDbLine
 10
286.0710425691033
 20
252.5413822601574
 30
0.0
 11
286.0710425691033
 21
300.8895820290574
 31
0.0
  0
LINE
  5
52DB
330
396B
100
AcDbEntity
  8
SUNPOU
 62
     4
100
AcDbLine
 10
412.1710425691032
 20
297.8895820290574
 30
0.0
 11
293.0710425691033
 21
297.8895820290574
 31
0.0
  0
INSERT
  5
52DC
330
396B
100
AcDbEntity
  8
SUNPOU
 62
     4
100
AcDbBlockReference
  2
_OPEN
 10
419.1710425691033
 20
297.8895820290574
 30
0.0
 41
7.0
 42
7.0
 43
7.0
  0
INSERT
  5
52DD
330
396B
100
AcDbEntity
  8
SUNPOU
 62
     4
100
AcDbBlockReference
  2
_OPEN
 10
286.0710425691033
 20
297.8895820290574
 30
0.0
 41
7.0
 42
7.0
 43
7.0
 50
180.0
  0
MTEXT
  5
52DE
330
396B
100
AcDbEntity
  8
SUNPOU
 62
     4
100
AcDbMText
 10
352.6210425691033
 20
302.8895820290574
 30
0.0
 40
6.0
 41
0.0
 71
     5
 72
     1
  1
\A1;133
1001
ACAD
1000
MTEXTBEGIN
1070
    73
1070
     1
1070
    44
1040
1.0
1070
    74
1070
     0
1000
MTEXTEND
  0
POINT
  5
52DF
330
396B
100
AcDbEntity
  8
DEFPOINTS
 62
     0
100
AcDbPoint
 10
419.1710425691033
 20
216.8913822601574
 30
0.0
  0
POINT
  5
52E0
330
396B
100
AcDbEntity
  8
DEFPOINTS
 62
     0
100
AcDbPoint
 10
286.0710425691033
 20
246.5413822601574
 30
0.0
  0
POINT
  5
52E1
330
396B
100
AcDbEntity
  8
DEFPOINTS
 62
     0
100
AcDbPoint
 10
286.0710425691033
 20
297.8895820290574
 30
0.0
  0
ENDBLK
  5
3A19
330
396B
100
AcDbEntity
  8
0
100
AcDbBlockEnd
  0
BLOCK
  5
3A1A
330
3977
100
AcDbEntity
  8
0
100
AcDbBlockBegin
  2
*D6
 70
     1
 10
0.0
 20
0.0
 30
0.0
  3
*D6
  1

  0
LINE
  5
52E2
330
3977
100
AcDbEntity
  8
SUNPOU
 62
     4
100
AcDbLine
 10
413.638088989174
 20
258.3979421743671
 30
0.0
 11
409.1814008729157
 21
269.5396624649867
 31
0.0
  0
LINE
  5
52E3
330
3977
100
AcDbEntity
  8
SUNPOU
 62
     4
100
AcDbLine
 10
422.9228558980473
 20
262.1118489379252
 30
0.0
 11
418.466167781789
 21
273.2535692285448
 31
0.0
  0
LINE
  5
52E4
330
3977
100
AcDbEntity
  8
SUNPOU
 62
     4
100
AcDbLine
 10
403.7962360657855
 20
264.1544976578478
 30
0.0
 11
397.2968992295908
 21
261.5547629233639
 31
0.0
  0
LINE
  5
52E5
330
3977
100
AcDbEntity
  8
SUNPOU
 62
     4
100
AcDbLine
 10
426.0796766470483
 20
273.0678738903739
 30
0.0
 11
442.7922570829779
 21
279.7529060647614
 31
0.0
  0
LINE
  5
52E6
330
3977
100
AcDbEntity
  8
SUNPOU
 62
     4
100
AcDbLine
 10
410.2955729019803
 20
266.7542323923318
 30
0.0
 11
419.5803398108536
 21
270.4681391558899
 31
0.0
  0
INSERT
  5
52E7
330
3977
100
AcDbEntity
  8
SUNPOU
 62
     4
100
AcDbBlockReference
  2
_OPEN
 10
410.2955729019803
 20
266.7542323923318
 30
0.0
 41
7.0
 42
7.0
 43
7.0
 50
21.80140948639829
  0
INSERT
  5
52E8
330
3977
100
AcDbEntity
  8
SUNPOU
 62
     4
100
AcDbBlockReference
  2
_OPEN
 10
419.5803398108536
 20
270.4681391558899
 30
0.0
 41
7.0
 42
7.0
 43
7.0
 50
201.8014094863982
  0
MTEXT
  5
52E9
330
3977
100
AcDbEntity
  8
SUNPOU
 62
     4
100
AcDbMText
 10
435.8286819013364
 20
282.3526407992345
 30
0.0
 40
6.0
 41
0.0
 71
     5
 72
     1
  1
\A1;10
 11
0.9284766908849581
 21
0.3713906763548564
 31
0.0
1001
ACAD
1000
MTEXTBEGIN
1070
    73
1070
     1
1070
    44
1040
1.0
1070
    74
1070
     0
1000
MTEXTEND
  0
POINT
  5
52EA
330
3977
100
AcDbEntity
  8
DEFPOINTS
 62
     0
100
AcDbPoint
 10
415.8664330473031
 20
252.8270820290574
 30
0.0
  0
POINT
  5
52EB
330
3977
100
AcDbEntity
  8
DEFPOINTS
 62
     0
100
AcDbPoint
 10
425.1511999561765
 20
256.5409887926155
 30
0.0
  0
POINT
  5
52EC
330
3977
100
AcDbEntity
  8
DEFPOINTS
 62
     0
100
AcDbPoint
 10
419.5803398108536
 20
270.4681391558899
 30
0.0
  0
ENDBLK
  5
3A26
330
3977
100
AcDbEntity
  8
0
100
AcDbBlockEnd
  0
BLOCK
  5
3A27
330
3985
100
AcDbEntity
  8
0
100
AcDbBlockBegin
  2
*D7
 70
     1
 10
0.0
 20
0.0
 30
0.0
  3
*D7
  1

  0
LINE
  5
54DA
330
3985
100
AcDbEntity
  8
SUNPOU
 62
     4
100
AcDbLine
 10
283.6526840864032
 20
405.3667161660901
 30
0.0
 11
218.458926925185
 21
405.3667161660901
 31
0.0
  0
LINE
  5
54DB
330
3985
100
AcDbEntity
  8
SUNPOU
 62
     4
100
AcDbLine
 10
283.6526840864032
 20
377.3667161660901
 30
0.0
 11
218.458926925185
 21
377.3667161660901
 31
0.0
  0
LINE
  5
54DC
330
3985
100
AcDbEntity
  8
SUNPOU
 62
     4
100
AcDbLine
 10
221.458926925185
 20
412.36671616609
 30
0.0
 11
221.458926925185
 21
419.3667161660901
 31
0.0
  0
LINE
  5
54DD
330
3985
100
AcDbEntity
  8
SUNPOU
 62
     4
100
AcDbLine
 10
221.458926925185
 20
370.36671616609
 30
0.0
 11
221.458926925185
 21
363.3667161660901
 31
0.0
  0
LINE
  5
54DE
330
3985
100
AcDbEntity
  8
SUNPOU
 62
     4
100
AcDbLine
 10
221.458926925185
 20
405.3667161660901
 30
0.0
 11
221.458926925185
 21
377.3667161660901
 31
0.0
  0
INSERT
  5
54DF
330
3985
100
AcDbEntity
  8
SUNPOU
 62
     4
100
AcDbBlockReference
  2
_OPEN
 10
221.458926925185
 20
405.3667161660901
 30
0.0
 41
7.0
 42
7.0
 43
7.0
 50
270.0
  0
INSERT
  5
54E0
330
3985
100
AcDbEntity
  8
SUNPOU
 62
     4
100
AcDbBlockReference
  2
_OPEN
 10
221.458926925185
 20
377.3667161660901
 30
0.0
 41
7.0
 42
7.0
 43
7.0
 50
90.0
  0
MTEXT
  5
54E1
330
3985
100
AcDbEntity
  8
SUNPOU
 62
     4
100
AcDbMText
 10
216.458926925185
 20
391.36671616609
 30
0.0
 40
6.0
 41
0.0
 71
     5
 72
     1
  1
\A1;28
 11
0.0000000000000001
 21
1.0
 31
0.0
1001
ACAD
1000
MTEXTBEGIN
1070
    73
1070
     1
1070
    44
1040
1.0
1070
    74
1070
     0
1000
MTEXTEND
  0
POINT
  5
54E2
330
3985
100
AcDbEntity
  8
DEFPOINTS
 62
     0
100
AcDbPoint
 10
289.6526840864032
 20
405.3667161660901
 30
0.0
  0
POINT
  5
54E3
330
3985
100
AcDbEntity
  8
DEFPOINTS
 62
     0
100
AcDbPoint
 10
289.6526840864032
 20
377.3667161660901
 30
0.0
  0
POINT
  5
54E4
330
3985
100
AcDbEntity
  8
DEFPOINTS
 62
     0
100
AcDbPoint
 10
221.458926925185
 20
377.3667161660901
 30
0.0
  0
ENDBLK
  5
3A33
330
3985
100
AcDbEntity
  8
0
100
AcDbBlockEnd
  0
BLOCK
  5
3A34
330
3993
100
AcDbEntity
  8
0
100
AcDbBlockBegin
  2
*D8
 70
     1
 10
0.0
 20
0.0
 30
0.0
  3
*D8
  1

  0
LINE
  5
5301
330
3993
100
AcDbEntity
  8
SUNPOU
 62
     4
100
AcDbLine
 10
528.9960939973849
 20
277.1311060212715
 30
0.0
 11
511.002710775566
 21
322.1145640759705
 31
0.0
  0
LINE
  5
5302
330
3993
100
AcDbEntity
  8
SUNPOU
 62
     4
100
AcDbLine
 10
588.4186022140848
 20
300.9001093078714
 30
0.0
 11
570.425218992266
 21
345.8835673625705
 31
0.0
  0
LINE
  5
5303
330
3993
100
AcDbEntity
  8
SUNPOU
 62
     4
100
AcDbLine
 10
518.616219640825
 20
321.9288687377846
 30
0.0
 11
565.0400541851252
 21
340.4984025554422
 31
0.0
  0
INSERT
  5
5304
330
3993
100
AcDbEntity
  8
SUNPOU
 62
     4
100
AcDbBlockReference
  2
_OPEN
 10
512.116882804625
 20
319.3291340033134
 30
0.0
 41
7.0
 42
7.0
 43
7.0
 50
201.8014094862853
  0
INSERT
  5
5305
330
3993
100
AcDbEntity
  8
SUNPOU
 62
     4
100
AcDbBlockReference
  2
_OPEN
 10
571.5393910213249
 20
343.0981372899134
 30
0.0
 41
7.0
 42
7.0
 43
7.0
 50
21.8014094862853
  0
MTEXT
  5
5306
330
3993
100
AcDbEntity
  8
SUNPOU
 62
     4
100
AcDbMText
 10
539.9711835312099
 20
335.8560191010418
 30
0.0
 40
6.0
 41
0.0
 71
     5
 72
     1
  1
\A1;64
 11
0.9284766908856903
 21
0.3713906763530259
 31
0.0
1001
ACAD
1000
MTEXTBEGIN
1070
    73
1070
     1
1070
    44
1040
1.0
1070
    74
1070
     0
1000
MTEXTEND
  0
POINT
  5
5307
330
3993
100
AcDbEntity
  8
DEFPOINTS
 62
     0
100
AcDbPoint
 10
531.2244380555031
 20
271.5602458759573
 30
0.0
  0
POINT
  5
5308
330
3993
100
AcDbEntity
  8
DEFPOINTS
 62
     0
100
AcDbPoint
 10
590.646946272203
 20
295.3292491625573
 30
0.0
  0
POINT
  5
5309
330
3993
100
AcDbEntity
  8
DEFPOINTS
 62
     0
100
AcDbPoint
 10
571.5393910213249
 20
343.0981372899134
 30
0.0
  0
ENDBLK
  5
3A3E
330
3993
100
AcDbEntity
  8
0
100
AcDbBlockEnd
  0
BLOCK
  5
3A3F
330
399F
100
AcDbEntity
  8
0
100
AcDbBlockBegin
  2
*D9
 70
     1
 10
0.0
 20
0.0
 30
0.0
  3
*D9
  1

  0
LINE
  5
52F8
330
399F
100
AcDbEntity
  8
SUNPOU
 62
     4
100
AcDbLine
 10
517.7444657374606
 20
283.8269965867579
 30
0.0
 11
498.2826705519427
 21
333.4360782068411
 31
0.0
  0
LINE
  5
52F9
330
399F
100
AcDbEntity
  8
SUNPOU
 62
     4
100
AcDbLine
 10
592.2202681769051
 20
313.0440827737917
 30
0.0
 11
572.7584729913871
 21
362.653164393875
 31
0.0
  0
LINE
  5
52FA
330
399F
100
AcDbEntity
  8
SUNPOU
 62
     4
100
AcDbLine
 10
505.8947755372871
 20
333.1997358871145
 30
0.0
 11
567.3376009768648
 21
357.3039451422301
 31
0.0
  0
INSERT
  5
52FB
330
399F
100
AcDbEntity
  8
SUNPOU
 62
     4
100
AcDbBlockReference
  2
_OPEN
 10
499.3782870373537
 20
330.6432974211554
 30
0.0
 41
7.0
 42
7.0
 43
7.0
 50
201.4202297699554
  0
INSERT
  5
52FC
330
399F
100
AcDbEntity
  8
SUNPOU
 62
     4
100
AcDbBlockReference
  2
_OPEN
 10
573.8540894767981
 20
359.8603836081892
 30
0.0
 41
7.0
 42
7.0
 43
7.0
 50
21.42022976995547
  0
MTEXT
  5
52FD
330
399F
100
AcDbEntity
  8
SUNPOU
 62
     4
100
AcDbMText
 10
534.7901607813908
 20
349.9064751574819
 30
0.0
 40
6.0
 41
0.0
 71
     5
 72
     1
  1
\A1;80
 11
0.9309269285619164
 21
0.3652054951370205
 31
0.0
1001
ACAD
1000
MTEXTBEGIN
1070
    73
1070
     1
1070
    44
1040
1.0
1070
    74
1070
     0
1000
MTEXTEND
  0
POINT
  5
52FE
330
399F
100
AcDbEntity
  8
DEFPOINTS
 62
     0
100
AcDbPoint
 10
519.9356987082827
 20
278.2414350153863
 30
0.0
  0
POINT
  5
52FF
330
399F
100
AcDbEntity
  8
DEFPOINTS
 62
     0
100
AcDbPoint
 10
594.4115011477273
 20
307.4585212024202
 30
0.0
  0
POINT
  5
5300
330
399F
100
AcDbEntity
  8
DEFPOINTS
 62
     0
100
AcDbPoint
 10
573.8540894767981
 20
359.8603836081892
 30
0.0
  0
ENDBLK
  5
3A49
330
399F
100
AcDbEntity
  8
0
100
AcDbBlockEnd
  0
BLOCK
  5
3A4A
330
39AB
100
AcDbEntity
  8
0
100
AcDbBlockBegin
  2
*D10
 70
     1
 10
0.0
 20
0.0
 30
0.0
  3
*D10
  1

  0
LINE
  5
5313
330
39AB
100
AcDbEntity
  8
SUNPOU
 62
     4
100
AcDbLine
 10
573.9343658346314
 20
234.7925689204934
 30
0.0
 11
521.0018297024054
 21
213.6195544668868
 31
0.0
  0
LINE
  5
5314
330
39AB
100
AcDbEntity
  8
SUNPOU
 62
     4
100
AcDbLine
 10
576.9054912455535
 20
227.3647553934396
 30
0.0
 11
523.9729551133274
 21
206.1917409398331
 31
0.0
  0
LINE
  5
5315
330
39AB
100
AcDbEntity
  8
SUNPOU
 62
     4
100
AcDbLine
 10
521.1875250404936
 20
221.2330633321481
 30
0.0
 11
518.5877903059391
 21
227.7324001683146
 31
0.0
  0
LINE
  5
5316
330
39AB
100
AcDbEntity
  8
SUNPOU
 62
     4
100
AcDbLine
 10
529.3581199205248
 20
200.8065761327614
 30
0.0
 11
531.9578546550793
 21
194.3072392965948
 31
0.0
  0
LINE
  5
5317
330
39AB
100
AcDbEntity
  8
SUNPOU
 62
     4
100
AcDbLine
 10
523.7872597750482
 20
214.7337264959816
 30
0.0
 11
526.7583851859702
 21
207.3059129689279
 31
0.0
  0
INSERT
  5
5318
330
39AB
100
AcDbEntity
  8
SUNPOU
 62
     4
100
AcDbBlockReference
  2
_OPEN
 10
523.7872597750482
 20
214.7337264959816
 30
0.0
 41
7.0
 42
7.0
 43
7.0
 50
291.80140948702
  0
INSERT
  5
5319
330
39AB
100
AcDbEntity
  8
SUNPOU
 62
     4
100
AcDbBlockReference
  2
_OPEN
 10
526.7583851859702
 20
207.3059129689279
 30
0.0
 41
7.0
 42
7.0
 43
7.0
 50
111.80140948702
  0
MTEXT
  5
531A
330
39AB
100
AcDbEntity
  8
SUNPOU
 62
     4
100
AcDbMText
 10
529.9152059349138
 20
212.8767731142794
 30
0.0
 40
6.0
 41
0.0
 71
     5
 72
     1
  1
\A1;8
 11
0.3713906763649327
 21
-0.9284766908809277
 31
0.0
1001
ACAD
1000
MTEXTBEGIN
1070
    73
1070
     1
1070
    44
1040
1.0
1070
    74
1070
     0
1000
MTEXTEND
  0
POINT
  5
531B
330
39AB
100
AcDbEntity
  8
DEFPOINTS
 62
     0
100
AcDbPoint
 10
579.5052259799169
 20
237.0209129786829
 30
0.0
  0
POINT
  5
531C
330
39AB
100
AcDbEntity
  8
DEFPOINTS
 62
     0
100
AcDbPoint
 10
582.4763513908391
 20
229.5930994516292
 30
0.0
  0
POINT
  5
531D
330
39AB
100
AcDbEntity
  8
DEFPOINTS
 62
     0
100
AcDbPoint
 10
526.7583851859702
 20
207.3059129689279
 30
0.0
  0
ENDBLK
  5
3A56
330
39AB
100
AcDbEntity
  8
0
100
AcDbBlockEnd
  0
BLOCK
  5
3A57
330
39B9
100
AcDbEntity
  8
0
100
AcDbBlockBegin
  2
*D11
 70
     1
 10
0.0
 20
0.0
 30
0.0
  3
*D11
  1

  0
LINE
  5
530A
330
39B9
100
AcDbEntity
  8
SUNPOU
 62
     4
100
AcDbLine
 10
570.5142673205921
 20
221.6374335666399
 30
0.0
 11
580.3356128854205
 21
196.3390317493082
 31
0.0
  0
LINE
  5
530B
330
39B9
100
AcDbEntity
  8
SUNPOU
 62
     4
100
AcDbLine
 10
596.6176483955921
 20
231.7712881792399
 30
0.0
 11
606.4389939604206
 21
206.4728863619082
 31
0.0
  0
LINE
  5
530C
330
39B9
100
AcDbEntity
  8
SUNPOU
 62
     4
100
AcDbLine
 10
585.7754052355466
 20
201.6690091589704
 30
0.0
 11
598.8277742154058
 21
206.7361998501635
 31
0.0
  0
INSERT
  5
530D
330
39B9
100
AcDbEntity
  8
SUNPOU
 62
     4
100
AcDbBlockReference
  2
_OPEN
 10
579.2498991879762
 20
199.1356771982669
 30
0.0
 41
7.0
 42
7.0
 43
7.0
 50
201.2172080863605
  0
INSERT
  5
530E
330
39B9
100
AcDbEntity
  8
SUNPOU
 62
     4
100
AcDbBlockReference
  2
_OPEN
 10
605.3532802629762
 20
209.269531810867
 30
0.0
 41
7.0
 42
7.0
 43
7.0
 50
21.21720808636057
  0
MTEXT
  5
530F
330
39B9
100
AcDbEntity
  8
SUNPOU
 62
     4
100
AcDbMText
 10
590.4920668964023
 20
208.8636802528315
 30
0.0
 40
6.0
 41
0.0
 71
     5
 72
     1
  1
\A1;28
 11
0.9322151496529162
 21
0.361904565814789
 31
0.0
1001
ACAD
1000
MTEXTBEGIN
1070
    73
1070
     1
1070
    44
1040
1.0
1070
    74
1070
     0
1000
MTEXTEND
  0
POINT
  5
5310
330
39B9
100
AcDbEntity
  8
DEFPOINTS
 62
     0
100
AcDbPoint
 10
568.3428399257033
 20
227.2307244645574
 30
0.0
  0
POINT
  5
5311
330
39B9
100
AcDbEntity
  8
DEFPOINTS
 62
     0
100
AcDbPoint
 10
594.4462210007034
 20
237.3645790771575
 30
0.0
  0
POINT
  5
5312
330
39B9
100
AcDbEntity
  8
DEFPOINTS
 62
     0
100
AcDbPoint
 10
605.3532802629762
 20
209.269531810867
 30
0.0
  0
ENDBLK
  5
3A61
330
39B9
100
AcDbEntity
  8
0
100
AcDbBlockEnd
  0
BLOCK
  5
3A62
330
39C5
100
AcDbEntity
  8
0
100
AcDbBlockBegin
  2
*D12
 70
     1
 10
0.0
 20
0.0
 30
0.0
  3
*D12
  1

  0
LINE
  5
5327
330
39C5
100
AcDbEntity
  8
SUNPOU
 62
     4
100
AcDbLine
 10
525.6276108442453
 20
269.3968318695075
 30
0.0
 11
502.4254842938171
 21
260.1492937018101
 31
0.0
  0
LINE
  5
5328
330
39C5
100
AcDbEntity
  8
SUNPOU
 62
     4
100
AcDbLine
 10
544.1512519144898
 20
222.9209096843133
 30
0.0
 11
520.9491253640615
 21
213.6733715166159
 31
0.0
  0
LINE
  5
5329
330
39C5
100
AcDbEntity
  8
SUNPOU
 62
     4
100
AcDbLine
 10
507.8039763736744
 20
254.757464425311
 30
0.0
 11
521.1442485781765
 21
221.2866445927188
 31
0.0
  0
INSERT
  5
532A
330
39C5
100
AcDbEntity
  8
SUNPOU
 62
     4
100
AcDbBlockReference
  2
_OPEN
 10
505.2122919408033
 20
261.260015601612
 30
0.0
 41
7.0
 42
7.0
 43
7.0
 50
111.7304585219163
  0
INSERT
  5
532B
330
39C5
100
AcDbEntity
  8
SUNPOU
 62
     4
100
AcDbBlockReference
  2
_OPEN
 10
523.7359330110477
 20
214.7840934164177
 30
0.0
 41
7.0
 42
7.0
 43
7.0
 50
291.7304585219163
  0
MTEXT
  5
532C
330
39C5
100
AcDbEntity
  8
SUNPOU
 62
     4
100
AcDbMText
 10
519.118791887569
 20
239.8732576753514
 30
0.0
 40
6.0
 41
0.0
 71
     5
 72
     1
  1
\A1;50
 11
0.3702406332672957
 21
-0.9289358823287171
 31
0.0
1001
ACAD
1000
MTEXTBEGIN
1070
    73
1070
     1
1070
    44
1040
1.0
1070
    74
1070
     0
1000
MTEXTEND
  0
POINT
  5
532D
330
39C5
100
AcDbEntity
  8
DEFPOINTS
 62
     0
100
AcDbPoint
 10
531.2012261382176
 20
271.6182756691113
 30
0.0
  0
POINT
  5
532E
330
39C5
100
AcDbEntity
  8
DEFPOINTS
 62
     0
100
AcDbPoint
 10
549.7248672084621
 20
225.1423534839171
 30
0.0
  0
POINT
  5
532F
330
39C5
100
AcDbEntity
  8
DEFPOINTS
 62
     0
100
AcDbPoint
 10
523.7359330110477
 20
214.7840934164177
 30
0.0
  0
ENDBLK
  5
3A6C
330
39C5
100
AcDbEntity
  8
0
100
AcDbBlockEnd
  0
BLOCK
  5
3A6D
330
39D1
100
AcDbEntity
  8
0
100
AcDbBlockBegin
  2
*D13
 70
     1
 10
0.0
 20
0.0
 30
0.0
  3
*D13
  1

  0
LINE
  5
531E
330
39D1
100
AcDbEntity
  8
SUNPOU
 62
     4
100
AcDbLine
 10
517.6842670837295
 20
289.2551788839599
 30
0.0
 11
494.4723498116142
 21
279.9704119751286
 31
0.0
  0
LINE
  5
531F
330
39D1
100
AcDbEntity
  8
SUNPOU
 62
     4
100
AcDbLine
 10
525.6303659929049
 20
269.3899316109897
 30
0.0
 11
502.4184487207896
 21
260.1051647021585
 31
0.0
  0
LINE
  5
5320
330
39D1
100
AcDbEntity
  8
SUNPOU
 62
     4
100
AcDbLine
 10
499.8575146187457
 20
274.5852471679911
 30
0.0
 11
502.6041440589708
 21
267.7186735674175
 31
0.0
  0
INSERT
  5
5321
330
39D1
100
AcDbEntity
  8
SUNPOU
 62
     4
100
AcDbBlockReference
  2
_OPEN
 10
497.2577798842706
 20
281.0845840041893
 30
0.0
 41
7.0
 42
7.0
 43
7.0
 50
111.8014094863202
  0
INSERT
  5
5322
330
39D1
100
AcDbEntity
  8
SUNPOU
 62
     4
100
AcDbBlockReference
  2
_OPEN
 10
505.203878793446
 20
261.2193367312192
 30
0.0
 41
7.0
 42
7.0
 43
7.0
 50
291.8014094863202
  0
MTEXT
  5
5323
330
39D1
100
AcDbEntity
  8
SUNPOU
 62
     4
100
AcDbMText
 10
505.8732127932856
 20
273.0089137494724
 30
0.0
 40
6.0
 41
0.0
 71
     5
 72
     1
  1
\A1;21
 11
0.3713906763535925
 21
-0.9284766908854638
 31
0.0
1001
ACAD
1000
MTEXTBEGIN
1070
    73
1070
     1
1070
    44
1040
1.0
1070
    74
1070
     0
1000
MTEXTEND
  0
POINT
  5
5324
330
39D1
100
AcDbEntity
  8
DEFPOINTS
 62
     0
100
AcDbPoint
 10
523.2551272290423
 20
291.4835229420814
 30
0.0
  0
POINT
  5
5325
330
39D1
100
AcDbEntity
  8
DEFPOINTS
 62
     0
100
AcDbPoint
 10
531.2012261382177
 20
271.6182756691113
 30
0.0
  0
POINT
  5
5326
330
39D1
100
AcDbEntity
  8
DEFPOINTS
 62
     0
100
AcDbPoint
 10
505.203878793446
 20
261.2193367312192
 30
0.0
  0
ENDBLK
  5
3A79
330
39D1
100
AcDbEntity
  8
0
100
AcDbBlockEnd
  0
ENDSEC
  0
SECTION
  2
ENTITIES
  0
LINE
  5
3596
330
1A
100
AcDbEntity
  8
CENTER_L
 48
5.0
100
AcDbLine
 10
457.8148545220601
 20
188.3447643957042
 30
0.0
 11
439.2453207043463
 21
180.9169508686438
 31
0.0
  0
LINE
  5
3597
330
1A
100
AcDbEntity
  8
CENTER_L
 48
5.0
100
AcDbLine
 10
275.6103229753032
 20
391.36671616609
 30
0.0
 11
465.1339285100139
 21
391.36671616609
 31
0.0
  0
LINE
  5
3599
330
1A
100
AcDbEntity
  8
SEIHIN
100
AcDbLine
 10
450.5558297901743
 20
406.3667161660903
 30
0.0
 11
442.0759080415328
 21
406.3667161660905
 31
0.0
  0
LINE
  5
359A
330
1A
100
AcDbEntity
  8
SEIHIN
100
AcDbLine
 10
451.037403859822
 20
403.3667161660904
 30
0.0
 11
434.627263251687
 21
403.3667161660908
 31
0.0
  0
LINE
  5
359B
330
1A
100
AcDbEntity
  8
SUNPOU
100
AcDbLine
 10
438.4452389909204
 20
351.36671616609
 30
0.0
 11
481.5761326697236
 21
351.36671616609
 31
0.0
  0
LINE
  5
359C
330
1A
100
AcDbEntity
  8
SUNPOU
100
AcDbLine
 10
437.2856443892898
 20
431.3667161660902
 30
0.0
 11
481.5761326697236
 21
431.3667161660902
 31
0.0
  0
LINE
  5
359D
330
1A
100
AcDbEntity
  8
SEIHIN
100
AcDbLine
 10
449.8927508243926
 20
388.8667161660898
 30
0.0
 11
434.5993933885229
 21
388.8667161660898
 31
0.0
  0
LINE
  5
359E
330
1A
100
AcDbEntity
  8
SEIHIN
100
AcDbLine
 10
450.5558297901741
 20
376.36671616609
 30
0.0
 11
442.0759080415325
 21
376.36671616609
 31
0.0
  0
LINE
  5
359F
330
1A
100
AcDbEntity
  8
SEIHIN
100
AcDbLine
 10
451.0374038598217
 20
379.3667161660899
 30
0.0
 11
434.6272632516868
 21
379.3667161660899
 31
0.0
  0
DIMENSION
  5
35A0
330
1A
100
AcDbEntity
  8
SUNPOU
100
AcDbDimension
  2
*D1
 10
483.9978972050955
 20
190.2017177772983
 30
0.0
 11
473.886863751055
 21
228.942213430256
 31
0.0
 70
    33
  3
STANDARD
100
AcDbAlignedDimension
 13
426.6367626616033
 23
252.8270820290574
 33
0.0
 14
456.1435964785375
 24
179.0599974866813
 34
0.0
1001
ACAD
1000
DSTYLE
1002
{
1070
    41
1040
7.0
1070
    42
1040
6.0
1070
    43
1040
14.0
1070
    44
1040
3.0
1070
    73
1070
     0
1070
    74
1070
     0
1070
    77
1070
     3
1070
   140
1040
6.0
1070
   141
1040
150.0
1070
   147
1040
2.0
1070
   172
1070
     1
1070
   173
1070
     1
1070
   176
1070
     4
1070
   177
1070
     4
1070
   178
1070
     4
1070
   271
1070
     0
1070
   272
1070
     0
1070
   341
1005
6D
1070
     6
1000
OPEN
1070
     7
1000
OPEN
1002
}
  0
DIMENSION
  5
35A1
330
1A
100
AcDbEntity
  8
SUNPOU
100
AcDbDimension
  2
*D2
 10
461.7144566238597
 20
165.1328471232915
 30
0.0
 11
484.4621355505679
 21
174.2319186939201
 31
0.0
 70
   161
  1
t7.0
  3
STANDARD
100
AcDbAlignedDimension
 13
449.6442596423032
 23
176.4602627522574
 33
0.0
 14
456.1435964785187
 24
179.0599974867279
 34
0.0
1001
ACAD
1000
DSTYLE
1002
{
1070
    41
1040
7.0
1070
    42
1040
6.0
1070
    43
1040
14.0
1070
    44
1040
3.0
1070
    73
1070
     0
1070
    74
1070
     0
1070
    77
1070
     3
1070
   140
1040
6.0
1070
   141
1040
150.0
1070
   147
1040
2.0
1070
   172
1070
     1
1070
   173
1070
     1
1070
   176
1070
     4
1070
   177
1070
     4
1070
   178
1070
     4
1070
   271
1070
     0
1070
   272
1070
     0
1070
   341
1005
6D
1070
     6
1000
OPEN
1070
     7
1000
OPEN
1002
}
  0
DIMENSION
  5
35A2
330
1A
100
AcDbEntity
  8
SUNPOU
100
AcDbDimension
  2
*D3
 10
221.4589269251848
 20
176.4834746695296
 30
0.0
 11
221.4589269251848
 21
219.4066719818028
 31
0.0
 70
   160
  3
STANDARD
100
AcDbAlignedDimension
 13
290.2715328124033
 23
252.7913822601574
 33
0.0
 14
449.7022894354834
 24
176.4834746695296
 34
0.0
 50
90.0
100
AcDbRotatedDimension
1001
ACAD
1000
DSTYLE
1002
{
1070
    41
1040
7.0
1070
    42
1040
6.0
1070
    43
1040
14.0
1070
    44
1040
3.0
1070
    73
1070
     0
1070
    74
1070
     0
1070
    77
1070
     3
1070
   140
1040
6.0
1070
   141
1040
150.0
1070
   147
1040
2.0
1070
   172
1070
     1
1070
   173
1070
     1
1070
   176
1070
     4
1070
   177
1070
     4
1070
   178
1070
     4
1070
   271
1070
     0
1070
   272
1070
     0
1070
   341
1005
6D
1070
     6
1000
OPEN
1070
     7
1000
OPEN
1002
}
  0
LINE
  5
35A3
330
1A
100
AcDbEntity
  8
SEIHIN
100
AcDbLine
 10
441.2549044176032
 20
205.5113980248574
 30
0.0
 11
451.8354646328032
 21
179.0599974866574
 31
0.0
  0
LINE
  5
35A4
330
1A
100
AcDbEntity
  8
SEIHIN
100
AcDbLine
 10
438.5025393517032
 20
204.3145634787574
 30
0.0
 11
449.6442596423032
 21
176.4602627522574
 31
0.0
  0
LINE
  5
35A5
330
1A
100
AcDbEntity
  8
SEIHIN
100
AcDbLine
 10
426.6367626616033
 20
252.8270820290574
 30
0.0
 11
454.6580337731033
 21
182.7739042502574
 31
0.0
  0
DIMENSION
  5
35A6
330
1A
100
AcDbEntity
  8
SUNPOU
100
AcDbDimension
  2
*D4
 10
426.6367626616033
 20
297.8895820290574
 30
0.0
 11
444.6367626616034
 21
297.8895820290574
 31
0.0
 70
   160
  3
STANDARD
100
AcDbAlignedDimension
 13
419.1710425691033
 23
216.8913822601574
 33
0.0
 14
426.6367626616033
 24
252.8895820290574
 34
0.0
100
AcDbRotatedDimension
1001
ACAD
1000
DSTYLE
1002
{
1070
    41
1040
7.0
1070
    42
1040
6.0
1070
    43
1040
14.0
1070
    44
1040
3.0
1070
    73
1070
     0
1070
    74
1070
     0
1070
    77
1070
     3
1070
   140
1040
6.0
1070
   141
1040
150.0
1070
   147
1040
2.0
1070
   172
1070
     1
1070
   173
1070
     1
1070
   176
1070
     4
1070
   177
1070
     4
1070
   178
1070
     4
1070
   271
1070
     0
1070
   272
1070
     0
1070
   341
1005
6D
1070
     6
1000
OPEN
1070
     7
1000
OPEN
1002
}
  0
DIMENSION
  5
35A7
330
1A
100
AcDbEntity
  8
SUNPOU
100
AcDbDimension
  2
*D5
 10
286.0710425691033
 20
297.8895820290574
 30
0.0
 11
352.6210425691033
 21
297.8895820290574
 31
0.0
 70
   160
  3
STANDARD
100
AcDbAlignedDimension
 13
419.1710425691033
 23
216.8913822601574
 33
0.0
 14
286.0710425691033
 24
246.5413822601574
 34
0.0
100
AcDbRotatedDimension
1001
ACAD
1000
DSTYLE
1002
{
1070
    41
1040
7.0
1070
    42
1040
6.0
1070
    43
1040
14.0
1070
    44
1040
3.0
1070
    73
1070
     0
1070
    74
1070
     0
1070
    77
1070
     3
1070
   140
1040
6.0
1070
   141
1040
150.0
1070
   147
1040
2.0
1070
   172
1070
     1
1070
   173
1070
     1
1070
   176
1070
     4
1070
   177
1070
     4
1070
   178
1070
     4
1070
   271
1070
     0
1070
   272
1070
     0
1070
   341
1005
6D
1070
     6
1000
OPEN
1070
     7
1000
OPEN
1002
}
  0
ARC
  5
35AA
330
1A
100
AcDbEntity
  8
SEIHIN
100
AcDbCircle
 10
354.9730756114033
 20
286.7599298829574
 30
0.0
 40
62.99061073449999
100
AcDbArc
 50
231.3055937370978
 51
314.4052601452975
  0
ARC
  5
35AB
330
1A
100
AcDbEntity
  8
SEIHIN
100
AcDbCircle
 10
354.9730756114033
 20
286.7599298829574
 30
0.0
 40
59.4906107345
100
AcDbArc
 50
228.2657563722006
 51
314.4052601452975
  0
ARC
  5
35AC
330
1A
100
AcDbEntity
  8
SEIHIN
100
AcDbCircle
 10
292.8210425691034
 20
246.5413822601574
 30
0.0
 40
6.75
100
AcDbArc
 50
112.1916065662975
 51
270.0
  0
ARC
  5
35AD
330
1A
100
AcDbEntity
  8
SEIHIN
100
AcDbCircle
 10
294.1900045792033
 20
247.7913822601574
 30
0.0
 40
2.0
100
AcDbArc
 50
160.7099537807992
 51
270.0
  0
ARC
  5
35AE
330
1A
100
AcDbEntity
  8
SEIHIN
100
AcDbCircle
 10
293.5710425691033
 20
226.4913822601574
 30
0.0
 40
4.5
100
AcDbArc
 50
117.8966750511002
 51
270.0
  0
LINE
  5
35AF
330
1A
100
AcDbEntity
  8
SEIHIN
100
AcDbLine
 10
293.5710425691033
 20
221.9913822601574
 30
0.0
 11
314.5627338644032
 21
221.9913822601574
 31
0.0
  0
LINE
  5
35B0
330
1A
100
AcDbEntity
  8
SEIHIN
100
AcDbLine
 10
306.3849435556032
 20
245.7913822601574
 30
0.0
 11
294.1900045792033
 21
245.7913822601574
 31
0.0
  0
ARC
  5
35B1
330
1A
100
AcDbEntity
  8
SEIHIN
100
AcDbCircle
 10
292.9710425691034
 20
235.7913822601574
 30
0.0
 40
7.5
100
AcDbArc
 50
297.8966750511002
 51
0.0000024778990097
  0
LINE
  5
35B2
330
1A
100
AcDbEntity
  8
SEIHIN
100
AcDbLine
 10
293.5710425691033
 20
225.4913822601574
 30
0.0
 11
314.5627324249033
 21
225.4913822601574
 31
0.0
  0
LINE
  5
35B3
330
1A
100
AcDbEntity
  8
SEIHIN
100
AcDbLine
 10
309.3417942669032
 20
239.7913822601574
 30
0.0
 11
292.8210425691034
 21
239.7913822601574
 31
0.0
  0
ARC
  5
35B4
330
1A
100
AcDbEntity
  8
SEIHIN
100
AcDbCircle
 10
292.9710425691034
 20
235.7913822601574
 30
0.0
 40
4.0
100
AcDbArc
 50
297.8966750511002
 51
90.0
  0
LINE
  5
35B5
330
1A
100
AcDbEntity
  8
SEIHIN
100
AcDbLine
 10
291.4655891958034
 20
230.4684497844574
 30
0.0
 11
294.8425566787034
 21
232.2562111274574
 31
0.0
  0
ARC
  5
35B6
330
1A
100
AcDbEntity
  8
SEIHIN
100
AcDbCircle
 10
293.5710425691033
 20
226.4913822601574
 30
0.0
 40
1.0
100
AcDbArc
 50
117.8966750511002
 51
270.0
  0
LINE
  5
35B7
330
1A
100
AcDbEntity
  8
SEIHIN
100
AcDbLine
 10
293.1031640417034
 20
227.3751750433574
 30
0.0
 11
296.4801315246034
 21
229.1629363863574
 31
0.0
  0
LINE
  5
35B9
330
1A
100
AcDbEntity
  8
SEIHIN
100
AcDbLine
 10
300.4710425691034
 20
235.7913825845574
 30
0.0
 11
300.4710425691034
 21
238.7913822601574
 31
0.0
  0
LINE
  5
35BC
330
1A
100
AcDbEntity
  8
SEIHIN
100
AcDbLine
 10
293.1163020666033
 20
252.7913822601574
 30
0.0
 11
290.2715328124033
 21
252.7913822601574
 31
0.0
  0
LINE
  5
35BE
330
1A
100
AcDbEntity
  8
SEIHIN
100
AcDbLine
 10
293.5882312448031
 20
252.1262070477575
 30
0.0
 11
292.3022878665033
 21
248.4520831096574
 31
0.0
  0
ARC
  5
35BF
330
1A
100
AcDbEntity
  8
SEIHIN
100
AcDbCircle
 10
439.0347788777033
 20
200.2913822601573
 30
0.0
 40
1.0
100
AcDbArc
 50
270.0
 51
21.80140948639929
  0
LINE
  5
35C0
330
1A
100
AcDbEntity
  8
SEIHIN
100
AcDbLine
 10
421.1710425691032
 20
201.7052324546574
 30
0.0
 11
421.1710425691032
 21
199.8775320656573
 31
0.0
  0
ARC
  5
35C1
330
1A
100
AcDbEntity
  8
SEIHIN
100
AcDbCircle
 10
404.8201896081033
 20
205.4913822601574
 30
0.0
 40
5.0
100
AcDbArc
 50
270.0
 51
329.9999932511005
  0
LINE
  5
35C2
330
1A
100
AcDbEntity
  8
SEIHIN
100
AcDbLine
 10
426.3614269776033
 20
219.0150768253574
 30
0.0
 11
427.5210137487033
 21
200.2297711348574
 31
0.0
  0
LINE
  5
35C3
330
1A
100
AcDbEntity
  8
SEIHIN
100
AcDbLine
 10
422.8680761724033
 20
218.7994378867574
 30
0.0
 11
424.0276629435034
 21
200.0141321962574
 31
0.0
  0
LINE
  5
35C6
330
1A
100
AcDbEntity
  8
SEIHIN
100
AcDbLine
 10
404.8201896081033
 20
200.4913822601574
 30
0.0
 11
386.1710395125033
 21
200.4913822601574
 31
0.0
  0
LINE
  5
35C7
330
1A
100
AcDbEntity
  8
SEIHIN
100
AcDbLine
 10
428.5191139787031
 20
199.2913822601574
 30
0.0
 11
439.0347788777033
 21
199.2913822601574
 31
0.0
  0
LINE
  5
35C8
330
1A
100
AcDbEntity
  8
SEIHIN
100
AcDbLine
 10
425.0761674071034
 20
195.7913822601574
 30
0.0
 11
439.8807129549034
 21
195.7913822601574
 31
0.0
  0
LINE
  5
35C9
330
1A
100
AcDbEntity
  8
SEIHIN
100
AcDbLine
 10
421.8663789541032
 20
197.9569785981574
 30
0.0
 11
422.7715035683034
 21
196.8708290611574
 31
0.0
  0
ARC
  5
35CA
330
1A
100
AcDbEntity
  8
SEIHIN
100
AcDbCircle
 10
425.0761674071034
 20
198.7913822601574
 30
0.0
 40
3.0
100
AcDbArc
 50
219.8055710922989
 51
270.0
  0
ARC
  5
35CB
330
1A
100
AcDbEntity
  8
SEIHIN
100
AcDbCircle
 10
424.1710425691032
 20
199.8775320656573
 30
0.0
 40
3.0
100
AcDbArc
 50
180.0
 51
219.8055777680007
  0
ARC
  5
35CC
330
1A
100
AcDbEntity
  8
SEIHIN
100
AcDbCircle
 10
428.5191139787031
 20
200.2913822601573
 30
0.0
 40
1.0
100
AcDbArc
 50
183.5322945839
 51
270.0
  0
ARC
  5
35CD
330
1A
100
AcDbEntity
  8
SEIHIN
100
AcDbCircle
 10
428.5191139787031
 20
200.2913822601573
 30
0.0
 40
4.5
100
AcDbArc
 50
183.5322945839
 51
270.0
  0
ARC
  5
35CF
330
1A
100
AcDbEntity
  8
SEIHIN
100
AcDbCircle
 10
-386.1710425691033
 20
320.4913822601574
 30
0.0
 40
116.5
210
0.0
220
0.0
230
-1.0
100
AcDbArc
 50
303.4241891158988
 51
303.4241893624983
  0
ARC
  5
35D0
330
1A
100
AcDbEntity
  8
SEIHIN
100
AcDbCircle
 10
-386.1710425691033
 20
320.4913822601574
 30
0.0
 40
120.0
210
0.0
220
0.0
230
-1.0
100
AcDbArc
 50
303.4241893819004
 51
303.4241894726982
  0
LINE
  5
35D4
330
1A
100
AcDbEntity
  8
SEIHIN
100
AcDbLine
 10
417.1349482121033
 20
250.1084667056574
 30
0.0
 11
438.5025393517032
 21
204.3145634787574
 31
0.0
  0
LINE
  5
35D5
330
1A
100
AcDbEntity
  8
SEIHIN
100
AcDbLine
 10
418.9887069550033
 20
252.8270820290574
 30
0.0
 11
441.2549044176032
 21
205.5113980248574
 31
0.0
  0
LINE
  5
35D6
330
1A
100
AcDbEntity
  8
SEIHIN
100
AcDbLine
 10
417.8775750222032
 20
226.9913822601574
 30
0.0
 11
411.5628132047033
 21
226.9913822601574
 31
0.0
  0
LINE
  5
35D7
330
1A
100
AcDbEntity
  8
SEIHIN
100
AcDbLine
 10
417.8775750222032
 20
223.4913822601574
 30
0.0
 11
411.5628137804033
 21
223.4913822601575
 31
0.0
  0
ARC
  5
35DA
330
1A
100
AcDbEntity
  8
SEIHIN
100
AcDbCircle
 10
398.1103759687032
 20
204.9913822601574
 30
0.0
 40
1.0
100
AcDbArc
 50
270.0
 51
344.9999999999992
  0
LINE
  5
35DB
330
1A
100
AcDbEntity
  8
SEIHIN
100
AcDbLine
 10
398.1103759687032
 20
203.9913822601574
 30
0.0
 11
386.1710396960034
 21
203.9913822601574
 31
0.0
  0
LINE
  5
35DC
330
1A
100
AcDbEntity
  8
SEIHIN
100
AcDbLine
 10
399.0763017949032
 20
204.7325632150574
 30
0.0
 11
403.3524444010033
 21
220.6913446811574
 31
0.0
  0
LINE
  5
35DD
330
1A
100
AcDbEntity
  8
SEIHIN
100
AcDbLine
 10
403.3396923424033
 20
207.1207917827574
 30
0.0
 11
406.7331845456033
 21
219.7854770999574
 31
0.0
  0
LINE
  5
35DE
330
1A
100
AcDbEntity
  8
SEIHIN
100
AcDbLine
 10
410.3050171654033
 20
206.4913822601574
 30
0.0
 11
403.8226552556031
 21
206.4913822601574
 31
0.0
  0
ARC
  5
35DF
330
1A
100
AcDbEntity
  8
SEIHIN
100
AcDbCircle
 10
403.8226552556031
 20
206.9913822601574
 30
0.0
 40
0.5
100
AcDbArc
 50
164.9999999999992
 51
270.0
  0
LINE
  5
35E0
330
1A
100
AcDbEntity
  8
SEIHIN
100
AcDbLine
 10
410.7380299327032
 20
205.7413823734574
 30
0.0
 11
409.1503163325032
 21
202.9913817501574
 31
0.0
  0
ARC
  5
35E1
330
1A
100
AcDbEntity
  8
SEIHIN
100
AcDbCircle
 10
-410.3050171654033
 20
205.9913822601574
 30
0.0
 40
0.5
210
0.0
220
0.0
230
-1.0
100
AcDbArc
 50
90.0
 51
209.9999850071002
  0
LINE
  5
35E5
330
1A
100
AcDbEntity
  8
SEIHIN
100
AcDbLine
 10
421.8663789080032
 20
203.6257858667574
 30
0.0
 11
422.9079676515032
 21
204.8756923589574
 31
0.0
  0
ARC
  5
35E7
330
1A
100
AcDbEntity
  8
SEIHIN
100
AcDbCircle
 10
420.6033038127031
 20
206.7962455579574
 30
0.0
 40
3.0
100
AcDbArc
 50
320.194428907701
 51
3.532294583900077
  0
LINE
  5
35EA
330
1A
100
AcDbEntity
  8
SEIHIN
100
AcDbLine
 10
419.1710425691033
 20
218.8232904343574
 30
0.0
 11
419.1710425691033
 21
219.0340231760574
 31
0.0
  0
LINE
  5
35EB
330
1A
100
AcDbEntity
  8
SEIHIN
100
AcDbLine
 10
419.1710425691033
 20
218.3913822601574
 30
0.0
 11
419.1710425691033
 21
220.4913827071574
 31
0.0
  0
ARC
  5
35EC
330
1A
100
AcDbEntity
  8
SEIHIN
100
AcDbCircle
 10
422.1710425691033
 20
218.3913822601574
 30
0.0
 40
3.0
100
AcDbArc
 50
180.0
 51
233.1301023542021
  0
LINE
  5
35ED
330
1A
100
AcDbEntity
  8
CENTER_L
 48
5.0
100
AcDbLine
 10
439.2453207058647
 20
234.768598936226
 30
0.0
 11
420.6757868881509
 21
227.3407854091655
 31
0.0
  0
DIMENSION
  5
35EE
330
1A
100
AcDbEntity
  8
SUNPOU
100
AcDbDimension
  2
*D6
 10
419.5803398108536
 20
270.4681391558899
 30
0.0
 11
437.6856352831106
 21
277.7102573448097
 31
0.0
 70
   161
  3
STANDARD
100
AcDbAlignedDimension
 13
415.8664330473031
 23
252.8270820290574
 33
0.0
 14
425.1511999561764
 24
256.5409887926155
 34
0.0
1001
ACAD
1000
DSTYLE
1002
{
1070
    41
1040
7.0
1070
    42
1040
6.0
1070
    43
1040
14.0
1070
    44
1040
3.0
1070
    73
1070
     0
1070
    74
1070
     0
1070
    77
1070
     3
1070
   140
1040
6.0
1070
   141
1040
150.0
1070
   147
1040
2.0
1070
   172
1070
     1
1070
   173
1070
     1
1070
   176
1070
     4
1070
   177
1070
     4
1070
   178
1070
     4
1070
   271
1070
     0
1070
   272
1070
     0
1070
   341
1005
6D
1070
     6
1000
OPEN
1070
     7
1000
OPEN
1002
}
  0
LINE
  5
35EF
330
1A
100
AcDbEntity
  8
SEIHIN
100
AcDbLine
 10
417.1349482121033
 20
250.1084667056574
 30
0.0
 11
412.6374089856033
 21
251.6060217003574
 31
0.0
  0
LINE
  5
35F0
330
1A
100
AcDbEntity
  8
SEIHIN
100
AcDbLine
 10
426.6367626616033
 20
252.8270820290574
 30
0.0
 11
417.5922431732033
 21
252.8270820290574
 31
0.0
  0
LINE
  5
35F1
330
1A
100
AcDbEntity
  8
SEIHIN
100
AcDbLine
 10
418.9887069550033
 20
252.8270820290574
 30
0.0
 11
417.1349482121033
 21
250.1084667056574
 31
0.0
  0
LINE
  5
35F2
330
1A
100
AcDbEntity
  8
SEIHIN
100
AcDbLine
 10
289.6526840864032
 20
377.3667161660901
 30
0.0
 11
415.3036364528031
 21
377.3667161660901
 31
0.0
  0
LINE
  5
35F3
330
1A
100
AcDbEntity
  8
SEIHIN
100
AcDbLine
 10
289.6526840864032
 20
405.3667161660901
 30
0.0
 11
415.3036364528031
 21
405.3667161660901
 31
0.0
  0
DIMENSION
  5
35F4
330
1A
100
AcDbEntity
  8
SUNPOU
100
AcDbDimension
  2
*D7
 10
221.458926925185
 20
377.3667161660901
 30
0.0
 11
221.4589269251849
 21
391.36671616609
 31
0.0
 70
   160
  3
STANDARD
100
AcDbAlignedDimension
 13
289.6526840864032
 23
405.3667161660901
 33
0.0
 14
289.6526840864032
 24
377.3667161660901
 34
0.0
 50
90.0
100
AcDbRotatedDimension
1001
ACAD
1000
DSTYLE
1002
{
1070
    41
1040
7.0
1070
    42
1040
6.0
1070
    43
1040
14.0
1070
    44
1040
3.0
1070
    73
1070
     0
1070
    74
1070
     0
1070
    77
1070
     3
1070
   140
1040
6.0
1070
   141
1040
150.0
1070
   147
1040
2.0
1070
   172
1070
     1
1070
   173
1070
     1
1070
   176
1070
     4
1070
   177
1070
     4
1070
   178
1070
     4
1070
   271
1070
     0
1070
   272
1070
     0
1070
   341
1005
6D
1070
     6
1000
OPEN
1070
     7
1000
OPEN
1002
}
  0
LINE
  5
35F5
330
1A
100
AcDbEntity
  8
SEIHIN
100
AcDbLine
 10
315.4187591442032
 20
405.3667161660901
 30
0.0
 11
315.4187591442032
 21
377.3667161660901
 31
0.0
  0
LINE
  5
35F6
330
1A
100
AcDbEntity
  8
SEIHIN
100
AcDbLine
 10
297.7526840864031
 20
377.3667161660901
 30
0.0
 11
297.7526840864031
 21
405.3667161660901
 31
0.0
  0
LINE
  5
35F7
330
1A
100
AcDbEntity
  8
SEIHIN
100
AcDbLine
 10
289.6526840864032
 20
377.3667161660901
 30
0.0
 11
289.6526840864032
 21
405.3667161660901
 31
0.0
  0
LINE
  5
35F8
330
1A
100
AcDbEntity
  8
SEIHIN
100
AcDbLine
 10
426.6367626616033
 20
359.3667161660895
 30
0.0
 11
426.6367626616033
 21
391.3667161660895
 31
0.0
  0
LINE
  5
35F9
330
1A
100
AcDbEntity
  8
SEIHIN
100
AcDbLine
 10
429.3495473092122
 20
359.3667161660901
 30
0.0
 11
429.3495473092122
 21
391.36671616609
 31
0.0
  0
LWPOLYLINE
  5
35FA
330
1A
100
AcDbEntity
  8
SEIHIN
100
AcDbPolyline
 90
        9
 70
   128
 43
0.0
 10
431.7646176082892
 20
388.8667161660898
 10
431.6195561285892
 20
388.8064902799899
 10
431.4803189529891
 20
388.6282307264898
 10
431.3524965362891
 20
388.3390947319899
 10
431.2412210241891
 20
387.9506912774899
 10
431.150960194089
 20
387.4786149910899
 10
431.0853380716891
 20
386.9418200146899
 10
431.0469894239893
 20
386.3618589836899
 10
431.0374539717892
 20
385.7620176759898
  0
LWPOLYLINE
  5
3605
330
1A
100
AcDbEntity
  8
SEIHIN
100
AcDbPolyline
 90
        8
 70
   128
 43
0.0
 10
431.5583734087856
 20
388.7281605934883
 10
431.6364278645819
 20
388.6282307264898
 10
431.764250281282
 20
388.3390947319899
 10
431.8755257933819
 20
387.9506912774899
 10
431.965786623482
 20
387.4786149910899
 10
432.0314087458821
 20
386.9418200146899
 10
432.0697573935819
 20
386.3618589836899
 10
432.0792928457819
 20
385.7620176759898
  0
LWPOLYLINE
  5
360F
330
1A
100
AcDbEntity
  8
SEIHIN
100
AcDbPolyline
 90
        9
 70
   128
 43
0.0
 10
432.4875292092819
 20
388.8667161660898
 10
432.6325906889819
 20
388.8064902799899
 10
432.7718278645821
 20
388.6282307264898
 10
432.8996502812819
 20
388.3390947319899
 10
433.010925793382
 20
387.9506912774899
 10
433.1011866234819
 20
387.4786149910899
 10
433.166808745882
 20
386.9418200146899
 10
433.2051573935821
 20
386.3618589836899
 10
433.2146928457821
 20
385.7620176759898
  0
LWPOLYLINE
  5
361A
330
1A
100
AcDbEntity
  8
SEIHIN
100
AcDbPolyline
 90
        9
 70
   128
 43
0.0
 10
434.5993933885231
 20
388.86671616609
 10
434.4543319088229
 20
388.80649027999
 10
434.315094733223
 20
388.6282307264899
 10
434.1872723165231
 20
388.33909473199
 10
434.075996804423
 20
387.95069127749
 10
433.985735974323
 20
387.47861499109
 10
433.9201138519231
 20
386.94182001469
 10
433.881765204223
 20
386.36185898369
 10
433.872229752023
 20
385.76201767599
  0
LINE
  5
3627
330
1A
100
AcDbEntity
  8
CENTER_L
 48
5.0
100
AcDbLine
 10
434.6029372514363
 20
348.5138573235523
 30
0.0
 11
434.6029372514363
 21
370.2870837201249
 31
0.0
  0
LINE
  5
3628
330
1A
100
AcDbEntity
  8
SEIHIN
100
AcDbLine
 10
417.6515857816196
 20
359.3667161660901
 30
0.0
 11
417.685984367403
 21
372.3667161660902
 31
0.0
  0
LINE
  5
3629
330
1A
100
AcDbEntity
  8
SEIHIN
100
AcDbLine
 10
419.2919702187725
 20
359.0056117337494
 30
0.0
 11
419.2554761096032
 21
372.3667161660902
 31
0.0
  0
LINE
  5
362A
330
1A
100
AcDbEntity
  8
SEIHIN
100
AcDbLine
 10
433.1925285121351
 20
373.8618589836901
 30
0.0
 11
433.0382275114441
 21
352.5043023649534
 31
0.0
  0
LINE
  5
362B
330
1A
100
AcDbEntity
  8
SEIHIN
100
AcDbLine
 10
432.0571581424487
 20
373.8700616441033
 30
0.0
 11
431.9224233819209
 21
355.2207640789736
 31
0.0
  0
LINE
  5
362C
330
1A
100
AcDbEntity
  8
SEIHIN
100
AcDbLine
 10
431.1121051325449
 20
362.9575381659184
 30
0.0
 11
431.0248289637058
 21
373.2622613354728
 31
0.0
  0
LINE
  5
362D
330
1A
100
AcDbEntity
  8
SEIHIN
100
AcDbLine
 10
437.2080634996453
 20
363.41216790599
 30
0.0
 11
437.3553177542453
 21
362.2127576515901
 31
0.0
  0
LINE
  5
362E
330
1A
100
AcDbEntity
  8
SEIHIN
100
AcDbLine
 10
439.3350622719647
 20
366.58952427909
 30
0.0
 11
439.2868029715648
 21
360.89153434489
 31
0.0
  0
LINE
  5
362F
330
1A
100
AcDbEntity
  8
SEIHIN
100
AcDbLine
 10
438.1997029925694
 20
366.5991402393074
 30
0.0
 11
438.1514436921695
 21
360.9011503051074
 31
0.0
  0
LINE
  5
3630
330
1A
100
AcDbEntity
  8
CENTER_L
 48
5.0
100
AcDbLine
 10
427.3495473092123
 20
359.3667161660901
 30
0.0
 11
441.4812591442032
 21
359.3667161660901
 31
0.0
  0
ARC
  5
3631
330
1A
100
AcDbEntity
  8
SEIHIN
100
AcDbCircle
 10
431.5654135523488
 20
356.0191568133801
 30
0.0
 40
4.663760224123682
100
AcDbArc
 50
221.0219881136528
 51
273.9927535001244
  0
LINE
  5
3632
330
1A
100
AcDbEntity
  8
SEIHIN
100
AcDbLine
 10
422.903866509984
 20
351.3780357429229
 30
0.0
 11
434.6029372514364
 21
351.36671616609
 31
0.0
  0
ARC
  5
3633
330
1A
100
AcDbEntity
  8
SEIHIN
100
AcDbCircle
 10
434.2781981999576
 20
356.0191568133808
 30
0.0
 40
4.663760224123682
100
AcDbArc
 50
221.0219881136528
 51
273.9927535001244
  0
LINE
  5
3634
330
1A
100
AcDbEntity
  8
SEIHIN
100
AcDbLine
 10
435.5446175305496
 20
351.36671616609
 30
0.0
 11
428.243016944521
 21
351.36671616609
 31
0.0
  0
ARC
  5
3635
330
1A
100
AcDbEntity
  8
SEIHIN
100
AcDbCircle
 10
422.5791274585053
 20
356.0304763902137
 30
0.0
 40
4.663760224123682
100
AcDbArc
 50
221.0219881136541
 51
273.9927535001257
  0
ARC
  5
3636
330
1A
100
AcDbEntity
  8
SEIHIN
100
AcDbCircle
 10
424.1841270003489
 20
356.0304763902137
 30
0.0
 40
4.663760224123682
100
AcDbArc
 50
221.0219881136541
 51
273.9927535001257
  0
LWPOLYLINE
  5
3637
330
1A
100
AcDbEntity
  8
SEIHIN
100
AcDbPolyline
 90
       11
 70
   128
 43
0.0
 10
417.6130971968639
 20
359.7594938874398
 10
417.6130971968639
 20
359.7594938874398
 10
417.6130971968639
 20
359.7594938874398
 10
417.7608441569939
 20
358.2517295800588
 10
417.9568110406871
 20
356.8522461049643
 10
418.1954901143298
 20
355.5926567842998
 10
418.4689075924791
 20
354.5040076860713
 10
418.7646824720411
 20
353.6179810300469
 10
419.0605174031345
 20
352.9694238414387
 10
419.0605174031345
 20
352.9694238414387
 10
418.912599937588
 20
353.2937024357428
  0
LWPOLYLINE
  5
3644
330
1A
100
AcDbEntity
  8
SEIHIN
100
AcDbPolyline
 90
       11
 70
   128
 43
0.0
 10
419.2180967387075
 20
359.7594938874398
 10
419.2180967387075
 20
359.7594938874398
 10
419.2180967387075
 20
359.7594938874398
 10
419.3658436988376
 20
358.2517295800588
 10
419.5618105825308
 20
356.8522461049643
 10
419.8004896561736
 20
355.5926567842998
 10
420.0739071343227
 20
354.5040076860713
 10
420.369682013885
 20
353.6179810300469
 10
420.6655169449784
 20
352.9694238414387
 10
420.6655169449784
 20
352.9694238414387
 10
420.5175994794317
 20
353.2937024357428
  0
LWPOLYLINE
  5
3651
330
1A
100
AcDbEntity
  8
SEIHIN
100
AcDbPolyline
 90
       11
 70
   128
 43
0.0
 10
426.5993832907074
 20
359.7481743106063
 10
426.5993832907074
 20
359.7481743106063
 10
426.5993832907074
 20
359.7481743106063
 10
426.7471302508375
 20
358.2404100032253
 10
426.9430971345307
 20
356.8409265281309
 10
427.1817762081735
 20
355.5813372074664
 10
427.4551936863224
 20
354.4926881092378
 10
427.7509685658847
 20
353.6066614532135
 10
428.046803496978
 20
352.9581042646051
 10
428.046803496978
 20
352.9581042646051
 10
427.8988860314314
 20
353.2823828589092
  0
LWPOLYLINE
  5
365E
330
1A
100
AcDbEntity
  8
SEIHIN
100
AcDbPolyline
 90
       11
 70
   128
 43
0.0
 10
429.3121679383164
 20
359.748174310607
 10
429.3121679383164
 20
359.748174310607
 10
429.3121679383164
 20
359.748174310607
 10
429.4599148984464
 20
358.2404100032261
 10
429.6558817821394
 20
356.8409265281315
 10
429.8945608557821
 20
355.5813372074669
 10
430.1679783339311
 20
354.4926881092384
 10
430.4637532134936
 20
353.6066614532141
 10
430.759588144587
 20
352.9581042646058
 10
430.759588144587
 20
352.9581042646058
 10
430.6116706790401
 20
353.2823828589099
  0
ARC
  5
366B
330
1A
100
AcDbEntity
  8
SEIHIN
100
AcDbCircle
 10
434.9832240856078
 20
355.678078304688
 30
0.0
 40
4.328101381250355
100
AcDbArc
 50
264.95922988764
 51
316.0867912445078
  0
LINE
  5
366C
330
1A
100
AcDbEntity
  8
SEIHIN
100
AcDbLine
 10
439.1477491140649
 20
357.88601361449
 30
0.0
 11
439.2453207058647
 21
359.3667161660901
 31
0.0
  0
LWPOLYLINE
  5
366D
330
1A
100
AcDbEntity
  8
SEIHIN
100
AcDbPolyline
 90
       11
 70
   128
 43
0.0
 10
431.1117771313545
 20
362.9768558797802
 10
431.1537150024965
 20
361.3316864713171
 10
431.2494714444351
 20
359.748174310607
 10
431.3972184045651
 20
358.2404100032261
 10
431.5931852882584
 20
356.8409265281315
 10
431.8318643619011
 20
355.5813372074669
 10
432.1052818400501
 20
354.4926881092384
 10
432.4010567196124
 20
353.6066614532141
 10
432.6968916507057
 20
352.9581042646058
 10
432.9446232442917
 20
352.5863365039854
 10
433.0382275114441
 20
352.5043023649534
  0
LINE
  5
367A
330
1A
100
AcDbEntity
  8
SEIHIN
100
AcDbLine
 10
435.2462212482655
 20
358.6064616279901
 30
0.0
 11
435.2704964955655
 21
359.3667161660901
 31
0.0
  0
LINE
  5
367B
330
1A
100
AcDbEntity
  8
SEIHIN
100
AcDbLine
 10
435.1750498243655
 20
357.8980171801901
 30
0.0
 11
435.2462212482655
 21
358.6064616279901
 31
0.0
  0
LINE
  5
367C
330
1A
100
AcDbEntity
  8
SEIHIN
100
AcDbLine
 10
435.0618324387656
 20
357.2896621411901
 30
0.0
 11
435.1750498243655
 21
357.8980171801901
 31
0.0
  0
LINE
  5
367D
330
1A
100
AcDbEntity
  8
SEIHIN
100
AcDbLine
 10
434.9142846691656
 20
356.8228549014901
 30
0.0
 11
435.0618324387656
 21
357.2896621411901
 31
0.0
  0
LINE
  5
367E
330
1A
100
AcDbEntity
  8
SEIHIN
100
AcDbLine
 10
434.7424616522655
 20
356.5294076030901
 30
0.0
 11
434.9142846691656
 21
356.8228549014901
 31
0.0
  0
LINE
  5
367F
330
1A
100
AcDbEntity
  8
SEIHIN
100
AcDbLine
 10
434.5580728427655
 20
356.4293181943901
 30
0.0
 11
434.7424616522655
 21
356.5294076030901
 31
0.0
  0
LINE
  5
3680
330
1A
100
AcDbEntity
  8
SEIHIN
100
AcDbLine
 10
434.3736840331655
 20
356.5294076030901
 30
0.0
 11
434.5580728427655
 21
356.4293181943901
 31
0.0
  0
LINE
  5
3681
330
1A
100
AcDbEntity
  8
SEIHIN
100
AcDbLine
 10
434.2018610162654
 20
356.8228549014901
 30
0.0
 11
434.3736840331655
 21
356.5294076030901
 31
0.0
  0
LINE
  5
3682
330
1A
100
AcDbEntity
  8
SEIHIN
100
AcDbLine
 10
434.0543132467655
 20
357.2896621411901
 30
0.0
 11
434.2018610162654
 21
356.8228549014901
 31
0.0
  0
LINE
  5
3683
330
1A
100
AcDbEntity
  8
SEIHIN
100
AcDbLine
 10
433.9410958610655
 20
357.8980171801901
 30
0.0
 11
434.0543132467655
 21
357.2896621411901
 31
0.0
  0
LINE
  5
3684
330
1A
100
AcDbEntity
  8
SEIHIN
100
AcDbLine
 10
433.8699244371655
 20
358.6064616279901
 30
0.0
 11
433.9410958610655
 21
357.8980171801901
 31
0.0
  0
LINE
  5
3685
330
1A
100
AcDbEntity
  8
SEIHIN
100
AcDbLine
 10
433.8456491898655
 20
359.3667161660901
 30
0.0
 11
433.8699244371655
 21
358.6064616279901
 31
0.0
  0
LINE
  5
3686
330
1A
100
AcDbEntity
  8
SEIHIN
100
AcDbLine
 10
433.8699244371655
 20
360.1269707041901
 30
0.0
 11
433.8456491898655
 21
359.3667161660901
 31
0.0
  0
LINE
  5
3687
330
1A
100
AcDbEntity
  8
SEIHIN
100
AcDbLine
 10
433.9410958610655
 20
360.83541515199
 30
0.0
 11
433.8699244371655
 21
360.1269707041901
 31
0.0
  0
LINE
  5
3688
330
1A
100
AcDbEntity
  8
SEIHIN
100
AcDbLine
 10
434.0543132467655
 20
361.44377019099
 30
0.0
 11
433.9410958610655
 21
360.83541515199
 31
0.0
  0
LINE
  5
3689
330
1A
100
AcDbEntity
  8
SEIHIN
100
AcDbLine
 10
434.2018610162654
 20
361.9105774305901
 30
0.0
 11
434.0543132467655
 21
361.44377019099
 31
0.0
  0
LINE
  5
368A
330
1A
100
AcDbEntity
  8
SEIHIN
100
AcDbLine
 10
434.3736840331655
 20
362.2040247290901
 30
0.0
 11
434.2018610162654
 21
361.9105774305901
 31
0.0
  0
LINE
  5
368B
330
1A
100
AcDbEntity
  8
SEIHIN
100
AcDbLine
 10
434.5580728427655
 20
362.3041141377902
 30
0.0
 11
434.3736840331655
 21
362.2040247290901
 31
0.0
  0
LINE
  5
368C
330
1A
100
AcDbEntity
  8
SEIHIN
100
AcDbLine
 10
434.7424616522655
 20
362.2040247290901
 30
0.0
 11
434.5580728427655
 21
362.3041141377902
 31
0.0
  0
LINE
  5
368D
330
1A
100
AcDbEntity
  8
SEIHIN
100
AcDbLine
 10
434.9142846691656
 20
361.9105774305901
 30
0.0
 11
434.7424616522655
 21
362.2040247290901
 31
0.0
  0
LINE
  5
368E
330
1A
100
AcDbEntity
  8
SEIHIN
100
AcDbLine
 10
435.0618324387656
 20
361.44377019099
 30
0.0
 11
434.9142846691656
 21
361.9105774305901
 31
0.0
  0
LINE
  5
368F
330
1A
100
AcDbEntity
  8
SEIHIN
100
AcDbLine
 10
435.1750498243655
 20
360.83541515199
 30
0.0
 11
435.0618324387656
 21
361.44377019099
 31
0.0
  0
LINE
  5
3690
330
1A
100
AcDbEntity
  8
SEIHIN
100
AcDbLine
 10
435.2462212482655
 20
360.1269707041901
 30
0.0
 11
435.1750498243655
 21
360.83541515199
 31
0.0
  0
LINE
  5
3691
330
1A
100
AcDbEntity
  8
SEIHIN
100
AcDbLine
 10
435.2704964955655
 20
359.3667161660901
 30
0.0
 11
435.2462212482655
 21
360.1269707041901
 31
0.0
  0
LINE
  5
3692
330
1A
100
AcDbEntity
  8
SEIHIN
100
AcDbLine
 10
438.1109366586017
 20
359.4195021448675
 30
0.0
 11
438.1518228917264
 21
360.922411170659
 31
0.0
  0
LINE
  5
3693
330
1A
100
AcDbEntity
  8
SEIHIN
100
AcDbLine
 10
438.0163654784994
 20
357.9843324904401
 30
0.0
 11
438.1109366586017
 21
359.4195021448675
 31
0.0
  0
LINE
  5
3694
330
1A
100
AcDbEntity
  8
SEIHIN
100
AcDbLine
 10
437.8704421622494
 20
356.6329881903815
 30
0.0
 11
438.0163654784994
 21
357.9843324904401
 31
0.0
  0
LINE
  5
3695
330
1A
100
AcDbEntity
  8
SEIHIN
100
AcDbLine
 10
437.6780157903477
 20
355.4018812902115
 30
0.0
 11
437.8704421622494
 21
356.6329881903815
 31
0.0
  0
LINE
  5
3696
330
1A
100
AcDbEntity
  8
SEIHIN
100
AcDbLine
 10
437.4464985499766
 20
354.3267231821433
 30
0.0
 11
437.6780157903477
 21
355.4018812902115
 31
0.0
  0
LINE
  5
3697
330
1A
100
AcDbEntity
  8
SEIHIN
100
AcDbLine
 10
437.18761675175
 20
353.443695589842
 30
0.0
 11
437.4464985499766
 21
354.3267231821433
 31
0.0
  0
LINE
  5
3698
330
1A
100
AcDbEntity
  8
SEIHIN
100
AcDbLine
 10
436.9226984627182
 20
352.7925623996518
 30
0.0
 11
437.18761675175
 21
353.443695589842
 31
0.0
  0
LINE
  5
3699
330
1A
100
AcDbEntity
  8
SEIHIN
100
AcDbLine
 10
436.6996543107645
 20
352.4210059040103
 30
0.0
 11
436.9226984627182
 21
352.7925623996518
 31
0.0
  0
LINE
  5
369A
330
1A
100
AcDbEntity
  8
SEIHIN
100
AcDbLine
 10
436.6363975022257
 20
352.359832414545
 30
0.0
 11
436.6996543107645
 21
352.4210059040103
 31
0.0
  0
LINE
  5
369B
330
1A
100
AcDbEntity
  8
SEIHIN
100
AcDbLine
 10
436.5195770257105
 20
352.3227704539407
 30
0.0
 11
436.6363975022257
 21
352.359832414545
 31
0.0
  0
LINE
  5
369C
330
1A
100
AcDbEntity
  8
SEIHIN
100
AcDbLine
 10
438.9963853470649
 20
356.48428722129
 30
0.0
 11
439.1477491140649
 21
357.88601361449
 31
0.0
  0
LINE
  5
369D
330
1A
100
AcDbEntity
  8
SEIHIN
100
AcDbLine
 10
438.7947929980648
 20
355.1945381633901
 30
0.0
 11
438.9963853470649
 21
356.48428722129
 31
0.0
  0
LINE
  5
369E
330
1A
100
AcDbEntity
  8
SEIHIN
100
AcDbLine
 10
438.5477182035649
 20
354.04713130859
 30
0.0
 11
438.7947929980648
 21
355.1945381633901
 31
0.0
  0
LINE
  5
369F
330
1A
100
AcDbEntity
  8
SEIHIN
100
AcDbLine
 10
438.2609779038648
 20
353.06908032859
 30
0.0
 11
438.5477182035649
 21
354.04713130859
 31
0.0
  0
LINE
  5
36A0
330
1A
100
AcDbEntity
  8
SEIHIN
100
AcDbLine
 10
438.1011503989646
 20
352.6762460190899
 30
0.0
 11
438.2609779038648
 21
353.06908032859
 31
0.0
  0
LINE
  5
36A1
330
1A
100
AcDbEntity
  8
SEIHIN
100
AcDbLine
 10
437.4125212337453
 20
356.93688877469
 30
0.0
 11
437.2918116598452
 21
355.68808686879
 31
0.0
  0
LINE
  5
36A2
330
1A
100
AcDbEntity
  8
SEIHIN
100
AcDbLine
 10
437.4803864191453
 20
358.25177021579
 30
0.0
 11
437.4125212337453
 21
356.93688877469
 31
0.0
  0
LINE
  5
36A3
330
1A
100
AcDbEntity
  8
SEIHIN
100
AcDbLine
 10
437.4934605146452
 20
359.59501404259
 30
0.0
 11
437.4803864191453
 21
358.25177021579
 31
0.0
  0
LINE
  5
36A4
330
1A
100
AcDbEntity
  8
SEIHIN
100
AcDbLine
 10
437.4513684922454
 20
360.92808953539
 30
0.0
 11
437.4934605146452
 21
359.59501404259
 31
0.0
  0
LINE
  5
36A5
330
1A
100
AcDbEntity
  8
SEIHIN
100
AcDbLine
 10
437.3553177542453
 20
362.2127576515901
 30
0.0
 11
437.4513684922454
 21
360.92808953539
 31
0.0
  0
LINE
  5
36A6
330
1A
100
AcDbEntity
  8
SEIHIN
100
AcDbLine
 10
437.2918116598452
 20
355.68808686879
 30
0.0
 11
436.6996543107645
 21
352.4210059040103
 31
0.0
  0
LINE
  5
36A7
330
1A
100
AcDbEntity
  8
SEIHIN
100
AcDbLine
 10
439.2453207058647
 20
359.3667161660901
 30
0.0
 11
439.2868029715648
 21
360.89153434489
 31
0.0
  0
LWPOLYLINE
  5
36A8
330
1A
100
AcDbEntity
  8
SEIHIN
100
AcDbPolyline
 90
        9
 70
   128
 43
0.0
 10
431.7519887268424
 20
376.36671616609
 10
431.6069272471424
 20
376.3064902799901
 10
431.4676900715424
 20
376.12823072649
 10
431.3398676548424
 20
375.8390947319901
 10
431.2285921427424
 20
375.4506912774901
 10
431.1383313126425
 20
374.9786149910901
 10
431.0727091902424
 20
374.4418200146901
 10
431.0343605425423
 20
373.8618589836901
 10
431.0248250903423
 20
373.2620176759901
  0
LWPOLYLINE
  5
36B3
330
1A
100
AcDbEntity
  8
SEIHIN
100
AcDbPolyline
 90
        6
 70
   128
 43
0.0
 10
431.7651562037542
 20
376.36671616609
 10
431.8533910900486
 20
376.0587352456033
 10
431.9436519201487
 20
375.5866589592033
 10
432.0092740425486
 20
375.0498639828033
 10
432.0476226902488
 20
374.4699029518033
 10
432.0571581424487
 20
373.8700616441033
  0
LWPOLYLINE
  5
36BB
330
1A
100
AcDbEntity
  8
SEIHIN
100
AcDbPolyline
 90
        9
 70
   128
 43
0.0
 10
432.4749003278352
 20
376.36671616609
 10
432.6199618075352
 20
376.3064902799901
 10
432.7591989831353
 20
376.12823072649
 10
432.8870213998352
 20
375.8390947319901
 10
432.9982969119352
 20
375.4506912774901
 10
433.0885577420353
 20
374.9786149910901
 10
433.1541798644352
 20
374.4418200146901
 10
433.1925285121351
 20
373.8618589836901
 10
433.2020639643351
 20
373.2620176759901
  0
LINE
  5
36C6
330
1A
100
AcDbEntity
  8
SEIHIN
100
AcDbLine
 10
438.9729273863791
 20
373.7135191889376
 30
0.0
 11
439.2875261874471
 21
374.7865935566518
 31
0.0
  0
LINE
  5
36C7
330
1A
100
AcDbEntity
  8
SEIHIN
100
AcDbLine
 10
440.3608873395649
 20
374.4119782953901
 30
0.0
 11
440.6805423494647
 21
375.1976469143901
 31
0.0
  0
LINE
  5
36C8
330
1A
100
AcDbEntity
  8
SEIHIN
100
AcDbLine
 10
433.9731070928762
 20
374.9786149910901
 30
0.0
 11
433.9074849704761
 21
374.4418200146901
 31
0.0
  0
LINE
  5
36C9
330
1A
100
AcDbEntity
  8
SEIHIN
100
AcDbLine
 10
437.8717077327933
 20
373.9931110624849
 30
0.0
 11
438.2141650353294
 21
375.1612088179139
 31
0.0
  0
LINE
  5
36CA
330
1A
100
AcDbEntity
  8
SEIHIN
100
AcDbLine
 10
438.7102950376458
 20
372.493863587416
 30
0.0
 11
438.9729273863791
 21
373.7135191889376
 31
0.0
  0
LINE
  5
36CB
330
1A
100
AcDbEntity
  8
SEIHIN
100
AcDbLine
 10
438.4995367116446
 20
371.1454723717381
 30
0.0
 11
438.7102950376458
 21
372.493863587416
 31
0.0
  0
LINE
  5
36CC
330
1A
100
AcDbEntity
  8
SEIHIN
100
AcDbLine
 10
438.3427324939034
 20
369.6933638854787
 30
0.0
 11
438.4995367116446
 21
371.1454723717381
 31
0.0
  0
LINE
  5
36CD
330
1A
100
AcDbEntity
  8
SEIHIN
100
AcDbLine
 10
438.2421604903004
 20
368.1671284366686
 30
0.0
 11
438.3427324939034
 21
369.6933638854787
 31
0.0
  0
LINE
  5
36CE
330
1A
100
AcDbEntity
  8
SEIHIN
100
AcDbLine
 10
438.2000821921242
 20
366.6204011047846
 30
0.0
 11
438.2421604903004
 21
368.1671284366686
 31
0.0
  0
LINE
  5
36CF
330
1A
100
AcDbEntity
  8
SEIHIN
100
AcDbLine
 10
433.8691363227763
 20
373.8618589836901
 30
0.0
 11
433.8456491898655
 21
372.3843671748294
 31
0.0
  0
LINE
  5
36D0
330
1A
100
AcDbEntity
  8
SEIHIN
100
AcDbLine
 10
433.9074849704761
 20
374.4418200146901
 30
0.0
 11
433.8691363227763
 21
373.8618589836901
 31
0.0
  0
LINE
  5
36D1
330
1A
100
AcDbEntity
  8
SEIHIN
100
AcDbLine
 10
437.5935178299268
 20
372.701206714242
 30
0.0
 11
437.8717077327933
 21
373.9931110624849
 31
0.0
  0
LINE
  5
36D2
330
1A
100
AcDbEntity
  8
SEIHIN
100
AcDbLine
 10
437.3735935268245
 20
371.2941733407863
 30
0.0
 11
437.5935178299268
 21
372.701206714242
 31
0.0
  0
LINE
  5
36D3
330
1A
100
AcDbEntity
  8
SEIHIN
100
AcDbLine
 10
437.211348858342
 20
369.7916827614674
 30
0.0
 11
437.3735935268245
 21
371.2941733407863
 31
0.0
  0
LINE
  5
36D4
330
1A
100
AcDbEntity
  8
SEIHIN
100
AcDbLine
 10
437.107776443036
 20
368.2199144154472
 30
0.0
 11
437.211348858342
 21
369.7916827614674
 31
0.0
  0
LINE
  5
36D5
330
1A
100
AcDbEntity
  8
SEIHIN
100
AcDbLine
 10
437.0651021122837
 20
366.651277930479
 30
0.0
 11
437.107776443036
 21
368.2199144154472
 31
0.0
  0
LINE
  5
36D6
330
1A
100
AcDbEntity
  8
SEIHIN
100
AcDbLine
 10
437.0138296917453
 20
364.49191542029
 30
0.0
 11
437.2080634996453
 21
363.41216790599
 31
0.0
  0
LINE
  5
36D7
330
1A
100
AcDbEntity
  8
SEIHIN
100
AcDbLine
 10
436.7781878939451
 20
365.4210278216901
 30
0.0
 11
437.0138296917453
 21
364.49191542029
 31
0.0
  0
LINE
  5
36D8
330
1A
100
AcDbEntity
  8
SEIHIN
100
AcDbLine
 10
436.5078974509454
 20
366.17285367959
 30
0.0
 11
436.7781878939451
 21
365.4210278216901
 31
0.0
  0
LINE
  5
36D9
330
1A
100
AcDbEntity
  8
SEIHIN
100
AcDbLine
 10
436.2107115980454
 20
366.7258269979901
 30
0.0
 11
436.5078974509454
 21
366.17285367959
 31
0.0
  0
LINE
  5
36DA
330
1A
100
AcDbEntity
  8
SEIHIN
100
AcDbLine
 10
435.8951550605454
 20
367.0640858316901
 30
0.0
 11
436.2107115980454
 21
366.7258269979901
 31
0.0
  0
LINE
  5
36DB
330
1A
100
AcDbEntity
  8
SEIHIN
100
AcDbLine
 10
434.5580728427655
 20
367.3041141377901
 30
0.0
 11
435.8951550605454
 21
367.0640858316901
 31
0.0
  0
LINE
  5
36DC
330
1A
100
AcDbEntity
  8
SEIHIN
100
AcDbLine
 10
433.8456491898655
 20
367.3041141377901
 30
0.0
 11
433.8456491898655
 21
372.3843671748286
 31
0.0
  0
LINE
  5
36DD
330
1A
100
AcDbEntity
  8
SEIHIN
100
AcDbLine
 10
433.8456491898655
 20
367.3041141377901
 30
0.0
 11
434.5580728427655
 21
367.3041141377901
 31
0.0
  0
LINE
  5
36DE
330
1A
100
AcDbEntity
  8
SEIHIN
100
AcDbLine
 10
437.0643437131741
 20
366.6087561995248
 30
0.0
 11
437.0449498594036
 21
364.3189181236958
 31
0.0
  0
LINE
  5
36DF
330
1A
100
AcDbEntity
  8
SEIHIN
100
AcDbLine
 10
440.0741470399648
 20
373.43392731539
 30
0.0
 11
440.3608873395649
 21
374.4119782953901
 31
0.0
  0
LINE
  5
36E0
330
1A
100
AcDbEntity
  8
SEIHIN
100
AcDbLine
 10
439.8270722453649
 20
372.28652046059
 30
0.0
 11
440.0741470399648
 21
373.43392731539
 31
0.0
  0
LINE
  5
36E1
330
1A
100
AcDbEntity
  8
SEIHIN
100
AcDbLine
 10
439.6254798964648
 20
370.99677140269
 30
0.0
 11
439.8270722453649
 21
372.28652046059
 31
0.0
  0
LINE
  5
36E2
330
1A
100
AcDbEntity
  8
SEIHIN
100
AcDbLine
 10
439.4741161294648
 20
369.59504500949
 30
0.0
 11
439.6254798964648
 21
370.99677140269
 31
0.0
  0
LINE
  5
36E3
330
1A
100
AcDbEntity
  8
SEIHIN
100
AcDbLine
 10
439.3765445375647
 20
368.11434245789
 30
0.0
 11
439.4741161294648
 21
369.59504500949
 31
0.0
  0
LINE
  5
36E4
330
1A
100
AcDbEntity
  8
SEIHIN
100
AcDbLine
 10
439.3350622719647
 20
366.58952427909
 30
0.0
 11
439.3765445375647
 21
368.11434245789
 31
0.0
  0
LINE
  5
36E5
330
1A
100
AcDbEntity
  8
SEIHIN
100
AcDbLine
 10
440.05806487727
 20
376.36671616609
 30
0.0
 11
434.5867645070761
 21
376.36671616609
 31
0.0
  0
LINE
  5
36E6
330
1A
100
AcDbEntity
  8
SEIHIN
100
AcDbLine
 10
432.4749003278352
 20
376.3667161660902
 30
0.0
 11
431.7519887268424
 21
376.36671616609
 31
0.0
  0
LINE
  5
36E7
330
1A
100
AcDbEntity
  8
SEIHIN
100
AcDbLine
 10
432.4875292092822
 20
379.3667161660899
 30
0.0
 11
431.7646176082889
 21
379.3667161660899
 31
0.0
  0
LINE
  5
36E8
330
1A
100
AcDbEntity
  8
SEIHIN
100
AcDbLine
 10
431.0374539717892
 20
385.7620176759898
 30
0.0
 11
431.0653238349535
 21
382.4714146561899
 31
0.0
  0
LINE
  5
36E9
330
1A
100
AcDbEntity
  8
SEIHIN
100
AcDbLine
 10
432.0792928457819
 20
385.7620176759898
 30
0.0
 11
432.0792928457819
 21
382.4714146561897
 31
0.0
  0
LWPOLYLINE
  5
36EA
330
1A
100
AcDbEntity
  8
SEIHIN
100
AcDbPolyline
 90
        9
 70
   128
 43
0.0
 10
431.7924874714533
 20
379.3667161660897
 10
431.6474259917534
 20
379.4269420521897
 10
431.5081888161532
 20
379.6052016056898
 10
431.3803663994533
 20
379.8943376001897
 10
431.2690908873532
 20
380.2827410546897
 10
431.1788300572532
 20
380.7548173410897
 10
431.1132079348533
 20
381.2916123174897
 10
431.0748592871534
 20
381.8715733484897
 10
431.0653238349535
 20
382.4714146561897
  0
LWPOLYLINE
  5
36F5
330
1A
100
AcDbEntity
  8
SEIHIN
100
AcDbPolyline
 90
        8
 70
   128
 43
0.0
 10
431.5723083403677
 20
379.5231120508864
 10
431.6364278645819
 20
379.6052016056898
 10
431.764250281282
 20
379.8943376001897
 10
431.8755257933819
 20
380.2827410546897
 10
431.965786623482
 20
380.7548173410897
 10
432.0314087458821
 20
381.2916123174897
 10
432.0697573935819
 20
381.8715733484897
 10
432.0792928457819
 20
382.4714146561897
  0
LINE
  5
36FF
330
1A
100
AcDbEntity
  8
SEIHIN
100
AcDbLine
 10
433.2146928457821
 20
385.7620176759898
 30
0.0
 11
433.2146928457821
 21
382.4714146561897
 31
0.0
  0
LWPOLYLINE
  5
3700
330
1A
100
AcDbEntity
  8
SEIHIN
100
AcDbPolyline
 90
        9
 70
   128
 43
0.0
 10
432.4875292092819
 20
379.3667161660897
 10
432.6325906889819
 20
379.4269420521897
 10
432.7718278645821
 20
379.6052016056898
 10
432.8996502812819
 20
379.8943376001897
 10
433.010925793382
 20
380.2827410546897
 10
433.1011866234819
 20
380.7548173410897
 10
433.166808745882
 20
381.2916123174897
 10
433.2051573935821
 20
381.8715733484897
 10
433.2146928457821
 20
382.4714146561897
  0
LINE
  5
370B
330
1A
100
AcDbEntity
  8
SEIHIN
100
AcDbLine
 10
434.0633679229763
 20
375.4506912774901
 30
0.0
 11
433.9731070928762
 21
374.9786149910901
 31
0.0
  0
LINE
  5
370C
330
1A
100
AcDbEntity
  8
SEIHIN
100
AcDbLine
 10
434.1746434350762
 20
375.8390947319901
 30
0.0
 11
434.0633679229763
 21
375.4506912774901
 31
0.0
  0
LINE
  5
370D
330
1A
100
AcDbEntity
  8
SEIHIN
100
AcDbLine
 10
434.3024658517763
 20
376.12823072649
 30
0.0
 11
434.1746434350762
 21
375.8390947319901
 31
0.0
  0
LINE
  5
370E
330
1A
100
AcDbEntity
  8
SEIHIN
100
AcDbLine
 10
434.4417030273762
 20
376.3064902799901
 30
0.0
 11
434.3024658517763
 21
376.12823072649
 31
0.0
  0
LINE
  5
370F
330
1A
100
AcDbEntity
  8
SEIHIN
100
AcDbLine
 10
434.5867645070761
 20
376.36671616609
 30
0.0
 11
434.4417030273762
 21
376.3064902799901
 31
0.0
  0
LINE
  5
3710
330
1A
100
AcDbEntity
  8
SEIHIN
100
AcDbLine
 10
438.6432934867807
 20
376.2159482944852
 30
0.0
 11
438.7337989481266
 21
376.36671616609
 31
0.0
  0
LINE
  5
3711
330
1A
100
AcDbEntity
  8
SEIHIN
100
AcDbLine
 10
438.2141650353294
 20
375.1612088179139
 30
0.0
 11
438.6432934867807
 21
376.2159482944852
 31
0.0
  0
LINE
  5
3712
330
1A
100
AcDbEntity
  8
SEIHIN
100
AcDbLine
 10
433.872229752023
 20
385.76201767599
 30
0.0
 11
433.9000996151871
 21
382.4714146561899
 31
0.0
  0
LWPOLYLINE
  5
3713
330
1A
100
AcDbEntity
  8
SEIHIN
100
AcDbPolyline
 90
        9
 70
   128
 43
0.0
 10
434.6272632516872
 20
379.3667161660899
 10
434.482201771987
 20
379.4269420521898
 10
434.3429645963872
 20
379.6052016056898
 10
434.2151421796873
 20
379.8943376001898
 10
434.1038666675872
 20
380.2827410546898
 10
434.0136058374871
 20
380.7548173410898
 10
433.9479837150872
 20
381.2916123174898
 10
433.9096350673871
 20
381.8715733484898
 10
433.9000996151871
 20
382.4714146561898
  0
LINE
  5
371E
330
1A
100
AcDbEntity
  8
SEIHIN
100
AcDbLine
 10
439.6619179181227
 20
375.7067976044377
 30
0.0
 11
440.05806487727
 21
376.36671616609
 31
0.0
  0
LINE
  5
371F
330
1A
100
AcDbEntity
  8
SEIHIN
100
AcDbLine
 10
439.2875261874471
 20
374.7865935566518
 30
0.0
 11
439.6619179181227
 21
375.7067976044377
 31
0.0
  0
LINE
  5
3720
330
1A
100
AcDbEntity
  8
SEIHIN
100
AcDbLine
 10
441.3878959059648
 20
376.12281312649
 30
0.0
 11
442.0759080415325
 21
376.36671616609
 31
0.0
  0
LINE
  5
3721
330
1A
100
AcDbEntity
  8
SEIHIN
100
AcDbLine
 10
441.0255863558647
 20
375.77243598989
 30
0.0
 11
441.3878959059648
 21
376.12281312649
 31
0.0
  0
LINE
  5
3722
330
1A
100
AcDbEntity
  8
SEIHIN
100
AcDbLine
 10
440.6805423494647
 20
375.1976469143901
 30
0.0
 11
441.0255863558647
 21
375.77243598989
 31
0.0
  0
LINE
  5
3723
330
1A
100
AcDbEntity
  8
CENTER_L
 48
5.0
100
AcDbLine
 10
434.6029372514363
 20
434.2195750086278
 30
0.0
 11
434.6029372514363
 21
412.4463486120553
 31
0.0
  0
ARC
  5
3724
330
1A
100
AcDbEntity
  8
SEIHIN
100
AcDbCircle
 10
414.2554761096032
 20
410.3667161660901
 30
0.0
 40
5.0
100
AcDbArc
 50
270.0
 51
0.0
  0
ARC
  5
3725
330
1A
100
AcDbEntity
  8
SEIHIN
100
AcDbCircle
 10
412.685984367403
 20
410.3667161660901
 30
0.0
 40
5.0
100
AcDbArc
 50
270.0
 51
0.0
  0
LINE
  5
3726
330
1A
100
AcDbEntity
  8
SEIHIN
100
AcDbLine
 10
426.636762661604
 20
423.3667161660901
 30
0.0
 11
426.6367626616033
 21
391.36671616609
 31
0.0
  0
LINE
  5
3727
330
1A
100
AcDbEntity
  8
SEIHIN
100
AcDbLine
 10
429.3495473092128
 20
423.3667161660908
 30
0.0
 11
429.3495473092122
 21
391.3667161660908
 31
0.0
  0
LINE
  5
3728
330
1A
100
AcDbEntity
  8
SEIHIN
100
AcDbLine
 10
433.1925285121354
 20
408.8715733484906
 30
0.0
 11
433.038227511445
 21
430.2291299672274
 31
0.0
  0
LINE
  5
3729
330
1A
100
AcDbEntity
  8
SEIHIN
100
AcDbLine
 10
432.057158142449
 20
408.8633706880775
 30
0.0
 11
431.9224233819215
 21
427.5126682532072
 31
0.0
  0
LWPOLYLINE
  5
372A
330
1A
100
AcDbEntity
  8
SEIHIN
100
AcDbPolyline
 90
        9
 70
   128
 43
0.0
 10
431.7519887268426
 20
406.3667161660906
 10
431.6069272471427
 20
406.4269420521906
 10
431.4676900715426
 20
406.6052016056906
 10
431.3398676548427
 20
406.8943376001906
 10
431.2285921427426
 20
407.2827410546906
 10
431.1383313126428
 20
407.7548173410906
 10
431.0727091902426
 20
408.2916123174905
 10
431.0343605425425
 20
408.8715733484906
 10
431.0248250903425
 20
409.4714146561906
  0
LWPOLYLINE
  5
3735
330
1A
100
AcDbEntity
  8
SEIHIN
100
AcDbPolyline
 90
        9
 70
   128
 43
0.0
 10
432.4749003278355
 20
406.3667161660906
 10
432.6199618075354
 20
406.4269420521906
 10
432.7591989831355
 20
406.6052016056906
 10
432.8870213998355
 20
406.8943376001906
 10
432.9982969119355
 20
407.2827410546906
 10
433.0885577420356
 20
407.7548173410906
 10
433.1541798644354
 20
408.2916123174905
 10
433.1925285121354
 20
408.8715733484906
 10
433.2020639643353
 20
409.4714146561906
  0
LINE
  5
3740
330
1A
100
AcDbEntity
  8
SEIHIN
100
AcDbLine
 10
438.7102950376463
 20
410.2395687447645
 30
0.0
 11
438.9729273863792
 21
409.019913143243
 31
0.0
  0
LINE
  5
3741
330
1A
100
AcDbEntity
  8
SEIHIN
100
AcDbLine
 10
439.8270722453651
 20
410.4469118715906
 30
0.0
 11
440.074147039965
 21
409.2995050167905
 31
0.0
  0
LINE
  5
3742
330
1A
100
AcDbEntity
  8
SEIHIN
100
AcDbLine
 10
433.8691363227765
 20
408.8715733484906
 30
0.0
 11
433.8456491898657
 21
410.3490651573513
 31
0.0
  0
LINE
  5
3743
330
1A
100
AcDbEntity
  8
SEIHIN
100
AcDbLine
 10
437.5935178299271
 20
410.0322256179386
 30
0.0
 11
437.8717077327935
 21
408.7403212696957
 31
0.0
  0
LINE
  5
3744
330
1A
100
AcDbEntity
  8
SEIHIN
100
AcDbLine
 10
431.0374539717892
 20
396.9714146561908
 30
0.0
 11
431.0653238349535
 21
400.2620176759908
 31
0.0
  0
LINE
  5
3745
330
1A
100
AcDbEntity
  8
SEIHIN
100
AcDbLine
 10
432.0792928457819
 20
396.9714146561908
 30
0.0
 11
432.0792928457819
 21
400.262017675991
 31
0.0
  0
LINE
  5
3746
330
1A
100
AcDbEntity
  8
SEIHIN
100
AcDbLine
 10
433.2146928457821
 20
396.9714146561908
 30
0.0
 11
433.2146928457821
 21
400.262017675991
 31
0.0
  0
LINE
  5
3747
330
1A
100
AcDbEntity
  8
SEIHIN
100
AcDbLine
 10
433.872229752023
 20
396.9714146561907
 30
0.0
 11
433.9000996151874
 21
400.2620176759908
 31
0.0
  0
LINE
  5
3748
330
1A
100
AcDbEntity
  8
SEIHIN
100
AcDbLine
 10
432.4875292092819
 20
393.8667161660909
 30
0.0
 11
431.7646176082892
 21
393.8667161660909
 31
0.0
  0
LWPOLYLINE
  5
3749
330
1A
100
AcDbEntity
  8
SEIHIN
100
AcDbPolyline
 90
        9
 70
   128
 43
0.0
 10
431.7646176082892
 20
393.8667161660909
 10
431.6195561285892
 20
393.9269420521908
 10
431.4803189529891
 20
394.1052016056909
 10
431.3524965362891
 20
394.3943376001908
 10
431.2412210241891
 20
394.7827410546908
 10
431.150960194089
 20
395.2548173410908
 10
431.0853380716891
 20
395.7916123174908
 10
431.0469894239893
 20
396.3715733484908
 10
431.0374539717892
 20
396.9714146561908
  0
LWPOLYLINE
  5
3754
330
1A
100
AcDbEntity
  8
SEIHIN
100
AcDbPolyline
 90
        8
 70
   128
 43
0.0
 10
431.5583734087856
 20
394.0052717386923
 10
431.6364278645819
 20
394.1052016056909
 10
431.764250281282
 20
394.3943376001908
 10
431.8755257933819
 20
394.7827410546908
 10
431.965786623482
 20
395.2548173410908
 10
432.0314087458821
 20
395.7916123174908
 10
432.0697573935819
 20
396.3715733484908
 10
432.0792928457819
 20
396.9714146561908
  0
LWPOLYLINE
  5
375E
330
1A
100
AcDbEntity
  8
SEIHIN
100
AcDbPolyline
 90
        9
 70
   128
 43
0.0
 10
432.4875292092819
 20
393.8667161660909
 10
432.6325906889819
 20
393.9269420521908
 10
432.7718278645821
 20
394.1052016056909
 10
432.8996502812819
 20
394.3943376001908
 10
433.010925793382
 20
394.7827410546908
 10
433.1011866234819
 20
395.2548173410908
 10
433.166808745882
 20
395.7916123174908
 10
433.2051573935821
 20
396.3715733484908
 10
433.2146928457821
 20
396.9714146561908
  0
LWPOLYLINE
  5
3769
330
1A
100
AcDbEntity
  8
SEIHIN
100
AcDbPolyline
 90
        9
 70
   128
 43
0.0
 10
434.5993933885231
 20
393.8667161660907
 10
434.4543319088229
 20
393.9269420521907
 10
434.315094733223
 20
394.1052016056908
 10
434.1872723165231
 20
394.3943376001907
 10
434.075996804423
 20
394.7827410546907
 10
433.985735974323
 20
395.2548173410907
 10
433.9201138519231
 20
395.7916123174907
 10
433.881765204223
 20
396.3715733484907
 10
433.872229752023
 20
396.9714146561907
  0
LINE
  5
3774
330
1A
100
AcDbEntity
  8
SEIHIN
100
AcDbLine
 10
432.4875292092819
 20
388.86671616609
 30
0.0
 11
431.7646176082892
 21
388.8667161660898
 31
0.0
  0
LINE
  5
3775
330
1A
100
AcDbEntity
  8
SEIHIN
100
AcDbLine
 10
438.9729273863792
 20
409.019913143243
 30
0.0
 11
439.2875261874474
 21
407.9468387755288
 31
0.0
  0
LINE
  5
3776
330
1A
100
AcDbEntity
  8
SEIHIN
100
AcDbLine
 10
440.0580648772701
 20
406.3667161660905
 30
0.0
 11
434.5867645070764
 21
406.3667161660906
 31
0.0
  0
LINE
  5
3777
330
1A
100
AcDbEntity
  8
SEIHIN
100
AcDbLine
 10
432.4749003278355
 20
406.3667161660906
 30
0.0
 11
431.7519887268426
 21
406.3667161660906
 31
0.0
  0
LWPOLYLINE
  5
3778
330
1A
100
AcDbEntity
  8
SEIHIN
100
AcDbPolyline
 90
        6
 70
   128
 43
0.0
 10
431.7651562037545
 20
406.3667161660906
 10
431.8533910900489
 20
406.6746970865775
 10
431.943651920149
 20
407.1467733729775
 10
432.0092740425488
 20
407.6835683493775
 10
432.0476226902489
 20
408.2635293803775
 10
432.057158142449
 20
408.8633706880775
  0
LINE
  5
3780
330
1A
100
AcDbEntity
  8
SEIHIN
100
AcDbLine
 10
432.4875292092825
 20
403.3667161660908
 30
0.0
 11
431.7646176082892
 21
403.3667161660908
 31
0.0
  0
LWPOLYLINE
  5
3781
330
1A
100
AcDbEntity
  8
SEIHIN
100
AcDbPolyline
 90
        9
 70
   128
 43
0.0
 10
431.7924874714536
 20
403.3667161660909
 10
431.6474259917535
 20
403.306490279991
 10
431.5081888161535
 20
403.1282307264909
 10
431.3803663994535
 20
402.839094731991
 10
431.2690908873535
 20
402.450691277491
 10
431.1788300572534
 20
401.978614991091
 10
431.1132079348535
 20
401.441820014691
 10
431.0748592871534
 20
400.861858983691
 10
431.0653238349535
 20
400.262017675991
  0
LWPOLYLINE
  5
378C
330
1A
100
AcDbEntity
  8
SEIHIN
100
AcDbPolyline
 90
        8
 70
   128
 43
0.0
 10
431.5723083403679
 20
403.2103202812944
 10
431.6364278645822
 20
403.1282307264909
 10
431.7642502812823
 20
402.839094731991
 10
431.8755257933822
 20
402.450691277491
 10
431.9657866234822
 20
401.978614991091
 10
432.0314087458823
 20
401.441820014691
 10
432.0697573935819
 20
400.861858983691
 10
432.0792928457819
 20
400.262017675991
  0
LWPOLYLINE
  5
3796
330
1A
100
AcDbEntity
  8
SEIHIN
100
AcDbPolyline
 90
        9
 70
   128
 43
0.0
 10
432.4875292092822
 20
403.3667161660909
 10
432.6325906889821
 20
403.306490279991
 10
432.7718278645822
 20
403.1282307264909
 10
432.8996502812822
 20
402.839094731991
 10
433.0109257933822
 20
402.450691277491
 10
433.1011866234821
 20
401.978614991091
 10
433.1668087458822
 20
401.441820014691
 10
433.2051573935821
 20
400.861858983691
 10
433.2146928457821
 20
400.262017675991
  0
LINE
  5
37A1
330
1A
100
AcDbEntity
  8
SEIHIN
100
AcDbLine
 10
433.9074849704764
 20
408.2916123174905
 30
0.0
 11
433.8691363227765
 21
408.8715733484906
 31
0.0
  0
LINE
  5
37A2
330
1A
100
AcDbEntity
  8
SEIHIN
100
AcDbLine
 10
433.9731070928764
 20
407.7548173410906
 30
0.0
 11
433.9074849704764
 21
408.2916123174905
 31
0.0
  0
LINE
  5
37A3
330
1A
100
AcDbEntity
  8
SEIHIN
100
AcDbLine
 10
434.0633679229766
 20
407.2827410546906
 30
0.0
 11
433.9731070928764
 21
407.7548173410906
 31
0.0
  0
LINE
  5
37A4
330
1A
100
AcDbEntity
  8
SEIHIN
100
AcDbLine
 10
434.1746434350763
 20
406.8943376001906
 30
0.0
 11
434.0633679229766
 21
407.2827410546906
 31
0.0
  0
LINE
  5
37A5
330
1A
100
AcDbEntity
  8
SEIHIN
100
AcDbLine
 10
434.3024658517765
 20
406.6052016056906
 30
0.0
 11
434.1746434350763
 21
406.8943376001906
 31
0.0
  0
LINE
  5
37A6
330
1A
100
AcDbEntity
  8
SEIHIN
100
AcDbLine
 10
434.4417030273764
 20
406.4269420521906
 30
0.0
 11
434.3024658517765
 21
406.6052016056906
 31
0.0
  0
LINE
  5
37A7
330
1A
100
AcDbEntity
  8
SEIHIN
100
AcDbLine
 10
434.5867645070764
 20
406.3667161660906
 30
0.0
 11
434.4417030273764
 21
406.4269420521906
 31
0.0
  0
LINE
  5
37A8
330
1A
100
AcDbEntity
  8
SEIHIN
100
AcDbLine
 10
438.6432934867809
 20
406.5174840376954
 30
0.0
 11
438.7337989481268
 21
406.3667161660905
 31
0.0
  0
LINE
  5
37A9
330
1A
100
AcDbEntity
  8
SEIHIN
100
AcDbLine
 10
438.2141650353296
 20
407.5722235142667
 30
0.0
 11
438.6432934867809
 21
406.5174840376954
 31
0.0
  0
LINE
  5
37AA
330
1A
100
AcDbEntity
  8
SEIHIN
100
AcDbLine
 10
437.8717077327935
 20
408.7403212696957
 30
0.0
 11
438.2141650353296
 21
407.5722235142667
 31
0.0
  0
LWPOLYLINE
  5
37AB
330
1A
100
AcDbEntity
  8
SEIHIN
100
AcDbPolyline
 90
        9
 70
   128
 43
0.0
 10
434.6272632516875
 20
403.3667161660908
 10
434.4822017719873
 20
403.3064902799909
 10
434.3429645963874
 20
403.1282307264908
 10
434.2151421796875
 20
402.8390947319909
 10
434.1038666675874
 20
402.4506912774909
 10
434.0136058374874
 20
401.9786149910909
 10
433.9479837150874
 20
401.4418200146909
 10
433.9096350673874
 20
400.8618589836909
 10
433.9000996151874
 20
400.2620176759909
  0
LINE
  5
37B6
330
1A
100
AcDbEntity
  8
SEIHIN
100
AcDbLine
 10
439.661917918123
 20
407.0266347277429
 30
0.0
 11
440.0580648772701
 21
406.3667161660905
 31
0.0
  0
LINE
  5
37B7
330
1A
100
AcDbEntity
  8
SEIHIN
100
AcDbLine
 10
439.2875261874474
 20
407.9468387755288
 30
0.0
 11
439.661917918123
 21
407.0266347277429
 31
0.0
  0
LINE
  5
37B8
330
1A
100
AcDbEntity
  8
SEIHIN
100
AcDbLine
 10
441.387895905965
 20
406.6106192056905
 30
0.0
 11
442.0759080415328
 21
406.3667161660905
 31
0.0
  0
LINE
  5
37B9
330
1A
100
AcDbEntity
  8
SEIHIN
100
AcDbLine
 10
441.025586355865
 20
406.9609963422904
 30
0.0
 11
441.387895905965
 21
406.6106192056905
 31
0.0
  0
LINE
  5
37BA
330
1A
100
AcDbEntity
  8
SEIHIN
100
AcDbLine
 10
440.680542349465
 20
407.5357854177905
 30
0.0
 11
441.025586355865
 21
406.9609963422904
 31
0.0
  0
LINE
  5
37BB
330
1A
100
AcDbEntity
  8
SEIHIN
100
AcDbLine
 10
440.3608873395651
 20
408.3214540367905
 30
0.0
 11
440.680542349465
 21
407.5357854177905
 31
0.0
  0
LINE
  5
37BC
330
1A
100
AcDbEntity
  8
SEIHIN
100
AcDbLine
 10
440.074147039965
 20
409.2995050167905
 30
0.0
 11
440.3608873395651
 21
408.3214540367905
 31
0.0
  0
LINE
  5
37BD
330
1A
100
AcDbEntity
  8
CENTER_L
 48
5.0
100
AcDbLine
 10
427.3495473092127
 20
423.3667161660902
 30
0.0
 11
441.4812591442032
 21
423.3667161660902
 31
0.0
  0
ARC
  5
37BE
330
1A
100
AcDbEntity
  8
SEIHIN
100
AcDbCircle
 10
431.5654135523495
 20
426.7142755187993
 30
0.0
 40
4.663760224123682
100
AcDbArc
 50
86.00724649987432
 51
138.9780118863459
  0
LINE
  5
37BF
330
1A
100
AcDbEntity
  8
SEIHIN
100
AcDbLine
 10
422.903866509984
 20
431.3553965892572
 30
0.0
 11
434.6029372514363
 21
431.3667161660902
 31
0.0
  0
ARC
  5
37C0
330
1A
100
AcDbEntity
  8
SEIHIN
100
AcDbCircle
 10
434.2781981999585
 20
426.7142755187999
 30
0.0
 40
4.663760224123682
100
AcDbArc
 50
86.00724649987432
 51
138.9780118863459
  0
LINE
  5
37C1
330
1A
100
AcDbEntity
  8
SEIHIN
100
AcDbLine
 10
417.6515857816196
 20
423.3667161660902
 30
0.0
 11
417.685984367403
 21
410.3667161660901
 31
0.0
  0
LINE
  5
37C2
330
1A
100
AcDbEntity
  8
SEIHIN
100
AcDbLine
 10
419.2919702187725
 20
423.7278205984308
 30
0.0
 11
419.2554761096032
 21
410.3667161660901
 31
0.0
  0
ARC
  5
37C3
330
1A
100
AcDbEntity
  8
SEIHIN
100
AcDbCircle
 10
422.5791274585051
 20
426.7029559419665
 30
0.0
 40
4.663760224123682
100
AcDbArc
 50
86.00724649987432
 51
138.9780118863459
  0
ARC
  5
37C4
330
1A
100
AcDbEntity
  8
SEIHIN
100
AcDbCircle
 10
424.1841270003489
 20
426.7029559419665
 30
0.0
 40
4.663760224123682
100
AcDbArc
 50
86.00724649987432
 51
138.9780118863459
  0
LWPOLYLINE
  5
37C5
330
1A
100
AcDbEntity
  8
SEIHIN
100
AcDbPolyline
 90
       11
 70
   128
 43
0.0
 10
417.6130971968639
 20
422.9739384447404
 10
417.6130971968639
 20
422.9739384447404
 10
417.6130971968639
 20
422.9739384447404
 10
417.7608441569939
 20
424.4817027521213
 10
417.9568110406871
 20
425.8811862272158
 10
418.1954901143298
 20
427.1407755478803
 10
418.4689075924788
 20
428.2294246461089
 10
418.7646824720411
 20
429.1154513021332
 10
419.0605174031345
 20
429.7640084907414
 10
419.0605174031345
 20
429.7640084907414
 10
418.9125999375878
 20
429.4397298964374
  0
LWPOLYLINE
  5
37D2
330
1A
100
AcDbEntity
  8
SEIHIN
100
AcDbPolyline
 90
       11
 70
   128
 43
0.0
 10
419.2180967387075
 20
422.9739384447404
 10
419.2180967387075
 20
422.9739384447404
 10
419.2180967387075
 20
422.9739384447404
 10
419.3658436988376
 20
424.4817027521213
 10
419.5618105825308
 20
425.8811862272158
 10
419.8004896561736
 20
427.1407755478803
 10
420.0739071343225
 20
428.2294246461089
 10
420.3696820138848
 20
429.1154513021332
 10
420.6655169449781
 20
429.7640084907414
 10
420.6655169449781
 20
429.7640084907414
 10
420.5175994794315
 20
429.4397298964374
  0
LWPOLYLINE
  5
37DF
330
1A
100
AcDbEntity
  8
SEIHIN
100
AcDbPolyline
 90
       11
 70
   128
 43
0.0
 10
426.5993832907081
 20
422.9852580215732
 10
426.5993832907081
 20
422.9852580215732
 10
426.5993832907081
 20
422.9852580215732
 10
426.7471302508381
 20
424.4930223289542
 10
426.9430971345314
 20
425.8925058040487
 10
427.1817762081741
 20
427.1520951247132
 10
427.4551936863231
 20
428.2407442229417
 10
427.7509685658854
 20
429.1267708789661
 10
428.0468034969787
 20
429.7753280675744
 10
428.0468034969787
 20
429.7753280675744
 10
427.8988860314321
 20
429.4510494732702
  0
LWPOLYLINE
  5
37EC
330
1A
100
AcDbEntity
  8
SEIHIN
100
AcDbPolyline
 90
       11
 70
   128
 43
0.0
 10
429.3121679383168
 20
422.9852580215738
 10
429.3121679383168
 20
422.9852580215738
 10
429.3121679383168
 20
422.9852580215738
 10
429.4599148984469
 20
424.4930223289547
 10
429.6558817821403
 20
425.8925058040492
 10
429.894560855783
 20
427.1520951247139
 10
430.167978333932
 20
428.2407442229424
 10
430.4637532134943
 20
429.1267708789667
 10
430.7595881445877
 20
429.775328067575
 10
430.7595881445877
 20
429.775328067575
 10
430.611670679041
 20
429.4510494732709
  0
LWPOLYLINE
  5
37F9
330
1A
100
AcDbEntity
  8
SEIHIN
100
AcDbPolyline
 90
       11
 70
   128
 43
0.0
 10
431.111777131355
 20
419.7565764524005
 10
431.1537150024971
 20
421.4017458608636
 10
431.2494714444357
 20
422.9852580215738
 10
431.3972184045658
 20
424.4930223289547
 10
431.5931852882591
 20
425.8925058040492
 10
431.8318643619018
 20
427.1520951247138
 10
432.1052818400508
 20
428.2407442229423
 10
432.401056719613
 20
429.1267708789667
 10
432.6968916507064
 20
429.775328067575
 10
432.9446232442926
 20
430.1470958281954
 10
433.038227511445
 20
430.2291299672274
  0
LINE
  5
3806
330
1A
100
AcDbEntity
  8
SEIHIN
100
AcDbLine
 10
434.2018610162661
 20
420.8228549015906
 30
0.0
 11
434.0543132467662
 21
421.2896621411906
 31
0.0
  0
LINE
  5
3807
330
1A
100
AcDbEntity
  8
SEIHIN
100
AcDbLine
 10
435.0618324387662
 20
421.2896621411906
 30
0.0
 11
434.9142846691663
 21
420.8228549015906
 31
0.0
  0
LINE
  5
3808
330
1A
100
AcDbEntity
  8
SEIHIN
100
AcDbLine
 10
437.355317754246
 20
420.5206746805905
 30
0.0
 11
437.451368492246
 21
421.8053427967905
 31
0.0
  0
LINE
  5
3809
330
1A
100
AcDbEntity
  8
SEIHIN
100
AcDbLine
 10
439.3350622719651
 20
416.1439080530906
 30
0.0
 11
439.2868029715653
 21
421.8418979872906
 31
0.0
  0
LINE
  5
380A
330
1A
100
AcDbEntity
  8
SEIHIN
100
AcDbLine
 10
438.1997029925698
 20
416.1342920928732
 30
0.0
 11
438.1514436921699
 21
421.8322820270732
 31
0.0
  0
LINE
  5
380B
330
1A
100
AcDbEntity
  8
SEIHIN
100
AcDbLine
 10
431.1121051325455
 20
419.7758941662624
 30
0.0
 11
431.0248289637063
 21
409.471170996708
 31
0.0
  0
LINE
  5
380C
330
1A
100
AcDbEntity
  8
SEIHIN
100
AcDbLine
 10
438.499536711645
 20
411.5879599604425
 30
0.0
 11
438.7102950376463
 21
410.2395687447645
 31
0.0
  0
LINE
  5
380D
330
1A
100
AcDbEntity
  8
SEIHIN
100
AcDbLine
 10
438.3427324939039
 20
413.0400684467018
 30
0.0
 11
438.499536711645
 21
411.5879599604425
 31
0.0
  0
LINE
  5
380E
330
1A
100
AcDbEntity
  8
SEIHIN
100
AcDbLine
 10
438.2421604903008
 20
414.5663038955119
 30
0.0
 11
438.3427324939039
 21
413.0400684467018
 31
0.0
  0
LINE
  5
380F
330
1A
100
AcDbEntity
  8
SEIHIN
100
AcDbLine
 10
438.2000821921247
 20
416.1130312273961
 30
0.0
 11
438.2421604903008
 21
414.5663038955119
 31
0.0
  0
LINE
  5
3810
330
1A
100
AcDbEntity
  8
SEIHIN
100
AcDbLine
 10
437.3735935268248
 20
411.4392589913943
 30
0.0
 11
437.5935178299271
 21
410.0322256179386
 31
0.0
  0
LINE
  5
3811
330
1A
100
AcDbEntity
  8
SEIHIN
100
AcDbLine
 10
437.2113488583424
 20
412.9417495707132
 30
0.0
 11
437.3735935268248
 21
411.4392589913943
 31
0.0
  0
LINE
  5
3812
330
1A
100
AcDbEntity
  8
SEIHIN
100
AcDbLine
 10
437.1077764430365
 20
414.5135179167334
 30
0.0
 11
437.2113488583424
 21
412.9417495707132
 31
0.0
  0
LINE
  5
3813
330
1A
100
AcDbEntity
  8
SEIHIN
100
AcDbLine
 10
437.0651021122841
 20
416.0821544017015
 30
0.0
 11
437.1077764430365
 21
414.5135179167334
 31
0.0
  0
LINE
  5
3814
330
1A
100
AcDbEntity
  8
SEIHIN
100
AcDbLine
 10
434.373684033166
 20
420.5294076030906
 30
0.0
 11
434.2018610162661
 21
420.8228549015906
 31
0.0
  0
LINE
  5
3815
330
1A
100
AcDbEntity
  8
SEIHIN
100
AcDbLine
 10
434.558072842766
 20
420.4293181943905
 30
0.0
 11
434.373684033166
 21
420.5294076030906
 31
0.0
  0
LINE
  5
3816
330
1A
100
AcDbEntity
  8
SEIHIN
100
AcDbLine
 10
434.7424616522659
 20
420.5294076030906
 30
0.0
 11
434.558072842766
 21
420.4293181943905
 31
0.0
  0
LINE
  5
3817
330
1A
100
AcDbEntity
  8
SEIHIN
100
AcDbLine
 10
434.9142846691663
 20
420.8228549015906
 30
0.0
 11
434.7424616522659
 21
420.5294076030906
 31
0.0
  0
LINE
  5
3818
330
1A
100
AcDbEntity
  8
SEIHIN
100
AcDbLine
 10
437.2080634996457
 20
419.3212644261905
 30
0.0
 11
437.355317754246
 21
420.5206746805905
 31
0.0
  0
LINE
  5
3819
330
1A
100
AcDbEntity
  8
SEIHIN
100
AcDbLine
 10
437.0138296917457
 20
418.2415169118906
 30
0.0
 11
437.2080634996457
 21
419.3212644261905
 31
0.0
  0
LINE
  5
381A
330
1A
100
AcDbEntity
  8
SEIHIN
100
AcDbLine
 10
436.7781878939456
 20
417.3124045104905
 30
0.0
 11
437.0138296917457
 21
418.2415169118906
 31
0.0
  0
LINE
  5
381B
330
1A
100
AcDbEntity
  8
SEIHIN
100
AcDbLine
 10
436.5078974509458
 20
416.5605786525905
 30
0.0
 11
436.7781878939456
 21
417.3124045104905
 31
0.0
  0
LINE
  5
381C
330
1A
100
AcDbEntity
  8
SEIHIN
100
AcDbLine
 10
436.2107115980458
 20
416.0076053341905
 30
0.0
 11
436.5078974509458
 21
416.5605786525905
 31
0.0
  0
LINE
  5
381D
330
1A
100
AcDbEntity
  8
SEIHIN
100
AcDbLine
 10
435.8951550605459
 20
415.6693465004905
 30
0.0
 11
436.2107115980458
 21
416.0076053341905
 31
0.0
  0
LINE
  5
381E
330
1A
100
AcDbEntity
  8
SEIHIN
100
AcDbLine
 10
434.558072842766
 20
415.4293181943906
 30
0.0
 11
435.8951550605459
 21
415.6693465004905
 31
0.0
  0
LINE
  5
381F
330
1A
100
AcDbEntity
  8
SEIHIN
100
AcDbLine
 10
433.845649189866
 20
415.4293181943906
 30
0.0
 11
433.8456491898657
 21
410.3490651573521
 31
0.0
  0
LINE
  5
3820
330
1A
100
AcDbEntity
  8
SEIHIN
100
AcDbLine
 10
433.845649189866
 20
415.4293181943906
 30
0.0
 11
434.558072842766
 21
415.4293181943906
 31
0.0
  0
LINE
  5
3821
330
1A
100
AcDbEntity
  8
SEIHIN
100
AcDbLine
 10
437.0643437131746
 20
416.1246761326558
 30
0.0
 11
437.0449498594041
 21
418.4145142084847
 31
0.0
  0
LINE
  5
3822
330
1A
100
AcDbEntity
  8
SEIHIN
100
AcDbLine
 10
439.6254798964653
 20
411.7366609294906
 30
0.0
 11
439.8270722453651
 21
410.4469118715906
 31
0.0
  0
LINE
  5
3823
330
1A
100
AcDbEntity
  8
SEIHIN
100
AcDbLine
 10
439.4741161294652
 20
413.1383873226906
 30
0.0
 11
439.6254798964653
 21
411.7366609294906
 31
0.0
  0
LINE
  5
3824
330
1A
100
AcDbEntity
  8
SEIHIN
100
AcDbLine
 10
439.3765445375652
 20
414.6190898742905
 30
0.0
 11
439.4741161294652
 21
413.1383873226906
 31
0.0
  0
LINE
  5
3825
330
1A
100
AcDbEntity
  8
SEIHIN
100
AcDbLine
 10
439.3350622719651
 20
416.1439080530906
 30
0.0
 11
439.3765445375652
 21
414.6190898742905
 31
0.0
  0
LINE
  5
3826
330
1A
100
AcDbEntity
  8
SEIHIN
100
AcDbLine
 10
439.1477491140656
 20
424.8474187176906
 30
0.0
 11
439.2453207058654
 21
423.3667161660905
 31
0.0
  0
ARC
  5
3827
330
1A
100
AcDbEntity
  8
SEIHIN
100
AcDbCircle
 10
434.9832240856087
 20
427.0553540274927
 30
0.0
 40
4.328101381250355
100
AcDbArc
 50
43.91320875549086
 51
95.04077011235873
  0
LINE
  5
3828
330
1A
100
AcDbEntity
  8
SEIHIN
100
AcDbLine
 10
435.2462212482662
 20
424.1269707041906
 30
0.0
 11
435.2704964955662
 21
423.3667161660906
 31
0.0
  0
LINE
  5
3829
330
1A
100
AcDbEntity
  8
SEIHIN
100
AcDbLine
 10
435.1750498243661
 20
424.8354151519906
 30
0.0
 11
435.2462212482662
 21
424.1269707041906
 31
0.0
  0
LINE
  5
382A
330
1A
100
AcDbEntity
  8
SEIHIN
100
AcDbLine
 10
435.0618324387662
 20
425.4437701909906
 30
0.0
 11
435.1750498243661
 21
424.8354151519906
 31
0.0
  0
LINE
  5
382B
330
1A
100
AcDbEntity
  8
SEIHIN
100
AcDbLine
 10
434.9142846691663
 20
425.9105774306906
 30
0.0
 11
435.0618324387662
 21
425.4437701909906
 31
0.0
  0
LINE
  5
382C
330
1A
100
AcDbEntity
  8
SEIHIN
100
AcDbLine
 10
434.7424616522662
 20
426.2040247290906
 30
0.0
 11
434.9142846691663
 21
425.9105774306906
 31
0.0
  0
LINE
  5
382D
330
1A
100
AcDbEntity
  8
SEIHIN
100
AcDbLine
 10
434.5580728427662
 20
426.3041141377906
 30
0.0
 11
434.7424616522662
 21
426.2040247290906
 31
0.0
  0
LINE
  5
382E
330
1A
100
AcDbEntity
  8
SEIHIN
100
AcDbLine
 10
434.3736840331662
 20
426.2040247290906
 30
0.0
 11
434.5580728427662
 21
426.3041141377906
 31
0.0
  0
LINE
  5
382F
330
1A
100
AcDbEntity
  8
SEIHIN
100
AcDbLine
 10
434.2018610162661
 20
425.9105774306906
 30
0.0
 11
434.3736840331662
 21
426.2040247290906
 31
0.0
  0
LINE
  5
3830
330
1A
100
AcDbEntity
  8
SEIHIN
100
AcDbLine
 10
434.0543132467662
 20
425.4437701909906
 30
0.0
 11
434.2018610162661
 21
425.9105774306906
 31
0.0
  0
LINE
  5
3831
330
1A
100
AcDbEntity
  8
SEIHIN
100
AcDbLine
 10
433.9410958610662
 20
424.8354151519906
 30
0.0
 11
434.0543132467662
 21
425.4437701909906
 31
0.0
  0
LINE
  5
3832
330
1A
100
AcDbEntity
  8
SEIHIN
100
AcDbLine
 10
433.8699244371662
 20
424.1269707041906
 30
0.0
 11
433.9410958610662
 21
424.8354151519906
 31
0.0
  0
LINE
  5
3833
330
1A
100
AcDbEntity
  8
SEIHIN
100
AcDbLine
 10
433.8456491898662
 20
423.3667161660906
 30
0.0
 11
433.8699244371662
 21
424.1269707041906
 31
0.0
  0
LINE
  5
3834
330
1A
100
AcDbEntity
  8
SEIHIN
100
AcDbLine
 10
433.8699244371662
 20
422.6064616279906
 30
0.0
 11
433.8456491898662
 21
423.3667161660906
 31
0.0
  0
LINE
  5
3835
330
1A
100
AcDbEntity
  8
SEIHIN
100
AcDbLine
 10
433.9410958610662
 20
421.8980171801907
 30
0.0
 11
433.8699244371662
 21
422.6064616279906
 31
0.0
  0
LINE
  5
3836
330
1A
100
AcDbEntity
  8
SEIHIN
100
AcDbLine
 10
434.0543132467662
 20
421.2896621411906
 30
0.0
 11
433.9410958610662
 21
421.8980171801907
 31
0.0
  0
LINE
  5
3837
330
1A
100
AcDbEntity
  8
SEIHIN
100
AcDbLine
 10
435.1750498243661
 20
421.8980171801907
 30
0.0
 11
435.0618324387662
 21
421.2896621411906
 31
0.0
  0
LINE
  5
3838
330
1A
100
AcDbEntity
  8
SEIHIN
100
AcDbLine
 10
435.2462212482662
 20
422.6064616279906
 30
0.0
 11
435.1750498243661
 21
421.8980171801907
 31
0.0
  0
LINE
  5
3839
330
1A
100
AcDbEntity
  8
SEIHIN
100
AcDbLine
 10
435.2704964955662
 20
423.3667161660906
 30
0.0
 11
435.2462212482662
 21
422.6064616279906
 31
0.0
  0
LINE
  5
383A
330
1A
100
AcDbEntity
  8
SEIHIN
100
AcDbLine
 10
438.1109366586024
 20
423.3139301873132
 30
0.0
 11
438.1518228917268
 21
421.8110211615217
 31
0.0
  0
LINE
  5
383B
330
1A
100
AcDbEntity
  8
SEIHIN
100
AcDbLine
 10
438.0163654785
 20
424.7490998417406
 30
0.0
 11
438.1109366586024
 21
423.3139301873132
 31
0.0
  0
LINE
  5
383C
330
1A
100
AcDbEntity
  8
SEIHIN
100
AcDbLine
 10
437.8704421622501
 20
426.1004441417992
 30
0.0
 11
438.0163654785
 21
424.7490998417406
 31
0.0
  0
LINE
  5
383D
330
1A
100
AcDbEntity
  8
SEIHIN
100
AcDbLine
 10
437.6780157903483
 20
427.3315510419691
 30
0.0
 11
437.8704421622501
 21
426.1004441417992
 31
0.0
  0
LINE
  5
383E
330
1A
100
AcDbEntity
  8
SEIHIN
100
AcDbLine
 10
437.4464985499773
 20
428.4067091500373
 30
0.0
 11
437.6780157903483
 21
427.3315510419691
 31
0.0
  0
LINE
  5
383F
330
1A
100
AcDbEntity
  8
SEIHIN
100
AcDbLine
 10
437.1876167517507
 20
429.2897367423385
 30
0.0
 11
437.4464985499773
 21
428.4067091500373
 31
0.0
  0
LINE
  5
3840
330
1A
100
AcDbEntity
  8
SEIHIN
100
AcDbLine
 10
436.9226984627191
 20
429.9408699325289
 30
0.0
 11
437.1876167517507
 21
429.2897367423385
 31
0.0
  0
LINE
  5
3841
330
1A
100
AcDbEntity
  8
SEIHIN
100
AcDbLine
 10
436.6996543107655
 20
430.3124264281704
 30
0.0
 11
436.9226984627191
 21
429.9408699325289
 31
0.0
  0
LINE
  5
3842
330
1A
100
AcDbEntity
  8
SEIHIN
100
AcDbLine
 10
436.6363975022266
 20
430.3735999176357
 30
0.0
 11
436.6996543107655
 21
430.3124264281704
 31
0.0
  0
LINE
  5
3843
330
1A
100
AcDbEntity
  8
SEIHIN
100
AcDbLine
 10
436.5195770257112
 20
430.41066187824
 30
0.0
 11
436.6363975022266
 21
430.3735999176357
 31
0.0
  0
LINE
  5
3844
330
1A
100
AcDbEntity
  8
SEIHIN
100
AcDbLine
 10
438.9963853470655
 20
426.2491451108905
 30
0.0
 11
439.1477491140656
 21
424.8474187176906
 31
0.0
  0
LINE
  5
3845
330
1A
100
AcDbEntity
  8
SEIHIN
100
AcDbLine
 10
438.7947929980655
 20
427.5388941687905
 30
0.0
 11
438.9963853470655
 21
426.2491451108905
 31
0.0
  0
LINE
  5
3846
330
1A
100
AcDbEntity
  8
SEIHIN
100
AcDbLine
 10
438.5477182035656
 20
428.6863010235906
 30
0.0
 11
438.7947929980655
 21
427.5388941687905
 31
0.0
  0
LINE
  5
3847
330
1A
100
AcDbEntity
  8
SEIHIN
100
AcDbLine
 10
438.2609779038655
 20
429.6643520035906
 30
0.0
 11
438.5477182035656
 21
428.6863010235906
 31
0.0
  0
LINE
  5
3848
330
1A
100
AcDbEntity
  8
SEIHIN
100
AcDbLine
 10
438.1011503989655
 20
430.0571863130906
 30
0.0
 11
438.2609779038655
 21
429.6643520035906
 31
0.0
  0
LINE
  5
3849
330
1A
100
AcDbEntity
  8
SEIHIN
100
AcDbLine
 10
437.4125212337459
 20
425.7965435574906
 30
0.0
 11
437.291811659846
 21
427.0453454633906
 31
0.0
  0
LINE
  5
384A
330
1A
100
AcDbEntity
  8
SEIHIN
100
AcDbLine
 10
437.480386419146
 20
424.4816621163905
 30
0.0
 11
437.4125212337459
 21
425.7965435574906
 31
0.0
  0
LINE
  5
384B
330
1A
100
AcDbEntity
  8
SEIHIN
100
AcDbLine
 10
437.4934605146458
 20
423.1384182895906
 30
0.0
 11
437.480386419146
 21
424.4816621163905
 31
0.0
  0
LINE
  5
384C
330
1A
100
AcDbEntity
  8
SEIHIN
100
AcDbLine
 10
437.451368492246
 20
421.8053427967905
 30
0.0
 11
437.4934605146458
 21
423.1384182895906
 31
0.0
  0
LINE
  5
384D
330
1A
100
AcDbEntity
  8
SEIHIN
100
AcDbLine
 10
437.291811659846
 20
427.0453454633906
 30
0.0
 11
436.6996543107655
 21
430.3124264281704
 31
0.0
  0
LINE
  5
384E
330
1A
100
AcDbEntity
  8
SEIHIN
100
AcDbLine
 10
439.2453207058654
 20
423.3667161660905
 30
0.0
 11
439.2868029715653
 21
421.8418979872906
 31
0.0
  0
LINE
  5
384F
330
1A
100
AcDbEntity
  8
CENTER_L
 48
5.0
100
AcDbLine
 10
552.0565909639032
 20
305.6425005191574
 30
0.0
 11
584.3461009023033
 21
224.9187256729574
 31
0.0
  0
DIMENSION
  5
3851
330
1A
100
AcDbEntity
  8
SUNPOU
100
AcDbDimension
  2
*D8
 10
571.5393910213249
 20
343.0981372899134
 30
0.0
 11
539.9711835312099
 21
335.8560191010418
 31
0.0
 70
    33
  3
STANDARD
100
AcDbAlignedDimension
 13
531.2244380555032
 23
271.5602458759574
 33
0.0
 14
590.6469462722031
 24
295.3292491625574
 34
0.0
1001
ACAD
1000
DSTYLE
1002
{
1070
    41
1040
7.0
1070
    42
1040
6.0
1070
    43
1040
14.0
1070
    44
1040
3.0
1070
    73
1070
     0
1070
    74
1070
     0
1070
    77
1070
     3
1070
   140
1040
6.0
1070
   141
1040
150.0
1070
   147
1040
2.0
1070
   172
1070
     1
1070
   173
1070
     1
1070
   176
1070
     4
1070
   177
1070
     4
1070
   178
1070
     4
1070
   271
1070
     0
1070
   272
1070
     0
1070
   341
1005
6D
1070
     6
1000
OPEN
1070
     7
1000
OPEN
1002
}
  0
DIMENSION
  5
3852
330
1A
100
AcDbEntity
  8
SUNPOU
100
AcDbDimension
  2
*D9
 10
573.8540894767981
 20
359.8603836081892
 30
0.0
 11
534.7901607813908
 21
349.9064751574819
 31
0.0
 70
    33
  3
STANDARD
100
AcDbAlignedDimension
 13
519.9356987082828
 23
278.2414350153863
 33
0.0
 14
594.4115011477272
 24
307.4585212024202
 34
0.0
1001
ACAD
1000
DSTYLE
1002
{
1070
    41
1040
7.0
1070
    42
1040
6.0
1070
    43
1040
14.0
1070
    44
1040
3.0
1070
    73
1070
     0
1070
    74
1070
     0
1070
    77
1070
     3
1070
   140
1040
6.0
1070
   141
1040
150.0
1070
   147
1040
2.0
1070
   172
1070
     1
1070
   173
1070
     1
1070
   176
1070
     4
1070
   177
1070
     4
1070
   178
1070
     4
1070
   271
1070
     0
1070
   272
1070
     0
1070
   341
1005
6D
1070
     6
1000
OPEN
1070
     7
1000
OPEN
1002
}
  0
ARC
  5
3853
330
1A
100
AcDbEntity
  8
SEIHIN
100
AcDbCircle
 10
574.7885643919014
 20
291.8938854062401
 30
0.0
 40
2.0
100
AcDbArc
 50
111.8014094866249
 51
201.8014094862415
  0
ARC
  5
3854
330
1A
100
AcDbEntity
  8
SEIHIN
100
AcDbCircle
 10
561.5113477122702
 20
294.1222294643168
 30
0.0
 40
2.0
100
AcDbArc
 50
201.8014094863143
 51
291.8014094866249
  0
LINE
  5
3855
330
1A
100
AcDbEntity
  8
SEIHIN
100
AcDbLine
 10
555.0120108760673
 20
291.5224947298515
 30
0.0
 11
553.3080068967032
 21
295.7825046782575
 31
0.0
  0
LINE
  5
3856
330
1A
100
AcDbEntity
  8
SEIHIN
100
AcDbLine
 10
562.2541290649872
 20
292.2652760825499
 30
0.0
 11
566.4322741739572
 21
293.9365341261609
 31
0.0
  0
ARC
  5
3857
330
1A
100
AcDbEntity
  8
SEIHIN
100
AcDbCircle
 10
590.6469462722031
 20
289.9440843554574
 30
0.0
 40
10.0
100
AcDbArc
 50
291.8014095216013
 51
21.80140948629858
  0
CIRCLE
  5
3858
330
1A
100
AcDbEntity
  8
SEIHIN
100
AcDbCircle
 10
590.6469462722031
 20
295.3292491625574
 30
0.0
 40
2.7
  0
ARC
  5
3859
330
1A
100
AcDbEntity
  8
SEIHIN
100
AcDbCircle
 10
590.6469462722031
 20
295.3292491625574
 30
0.0
 40
7.7
100
AcDbArc
 50
176.6325560021855
 51
312.8556410836003
  0
ARC
  5
385A
330
1A
100
AcDbEntity
  8
SEIHIN
100
AcDbCircle
 10
547.3312699777031
 20
293.2225613524574
 30
0.0
 40
2.0
100
AcDbArc
 50
113.8014094983978
 51
201.8014265484979
  0
LINE
  5
385B
330
1A
100
AcDbEntity
  8
SEIHIN
100
AcDbLine
 10
525.1847868036033
 20
291.1048411055574
 30
0.0
 11
552.9695175739032
 21
303.3601839940574
 31
0.0
  0
DIMENSION
  5
385C
330
1A
100
AcDbEntity
  8
SUNPOU
100
AcDbDimension
  2
*D10
 10
526.7583851859702
 20
207.3059129689279
 30
0.0
 11
529.9152059349138
 21
212.8767731142794
 31
0.0
 70
    33
  3
STANDARD
100
AcDbAlignedDimension
 13
579.5052259799169
 23
237.0209129786829
 33
0.0
 14
582.476351390839
 24
229.5930994516292
 34
0.0
1001
ACAD
1000
DSTYLE
1002
{
1070
    41
1040
7.0
1070
    42
1040
6.0
1070
    43
1040
14.0
1070
    44
1040
3.0
1070
    73
1070
     0
1070
    74
1070
     0
1070
    77
1070
     3
1070
   140
1040
6.0
1070
   141
1040
150.0
1070
   147
1040
2.0
1070
   172
1070
     1
1070
   173
1070
     1
1070
   176
1070
     4
1070
   177
1070
     4
1070
   178
1070
     4
1070
   271
1070
     0
1070
   272
1070
     0
1070
   341
1005
6D
1070
     6
1000
OPEN
1070
     7
1000
OPEN
1002
}
  0
DIMENSION
  5
385D
330
1A
100
AcDbEntity
  8
SUNPOU
100
AcDbDimension
  2
*D11
 10
605.3532802629762
 20
209.269531810867
 30
0.0
 11
590.4920668964023
 21
208.8636802528315
 31
0.0
 70
    33
  3
STANDARD
100
AcDbAlignedDimension
 13
568.3428399257033
 23
227.2307244645574
 33
0.0
 14
594.4462210007034
 24
237.3645790771575
 34
0.0
1001
ACAD
1000
DSTYLE
1002
{
1070
    41
1040
7.0
1070
    42
1040
6.0
1070
    43
1040
14.0
1070
    44
1040
3.0
1070
    73
1070
     0
1070
    74
1070
     0
1070
    77
1070
     3
1070
   140
1040
6.0
1070
   141
1040
150.0
1070
   147
1040
2.0
1070
   172
1070
     1
1070
   173
1070
     1
1070
   176
1070
     4
1070
   177
1070
     4
1070
   178
1070
     4
1070
   271
1070
     0
1070
   272
1070
     0
1070
   341
1005
6D
1070
     6
1000
OPEN
1070
     7
1000
OPEN
1002
}
  0
LINE
  5
385E
330
1A
100
AcDbEntity
  8
SEIHIN
100
AcDbLine
 10
572.9316110101295
 20
291.1511040535355
 30
0.0
 11
579.6467443844033
 21
274.3632706177574
 31
0.0
  0
LINE
  5
385F
330
1A
100
AcDbEntity
  8
SEIHIN
100
AcDbLine
 10
562.2541290649735
 20
286.8801112754113
 30
0.0
 11
578.8683195298033
 21
245.3446351132575
 31
0.0
  0
LINE
  5
3860
330
1A
100
AcDbEntity
  8
SEIHIN
100
AcDbLine
 10
571.6675321844034
 20
225.9131805317574
 30
0.0
 11
582.4763513909033
 21
229.5930994516575
 31
0.0
  0
LINE
  5
3861
330
1A
100
AcDbEntity
  8
SEIHIN
100
AcDbLine
 10
571.3924186368033
 20
226.6009644006574
 30
0.0
 11
582.1049607145032
 21
230.5215761425575
 31
0.0
  0
CIRCLE
  5
3862
330
1A
100
AcDbEntity
  8
SEIHIN
100
AcDbCircle
 10
579.5052259801032
 20
237.0209129787574
 30
0.0
 40
2.7
  0
LINE
  5
3863
330
1A
100
AcDbEntity
  8
SEIHIN
100
AcDbLine
 10
580.9907886855032
 20
233.3070062151574
 30
0.0
 11
567.7196223648032
 21
228.7887683669574
 31
0.0
  0
LINE
  5
3864
330
1A
100
AcDbEntity
  8
SEIHIN
100
AcDbLine
 10
589.587871581503
 20
241.4327054143574
 30
0.0
 11
570.1461809374875
 21
290.0369320244379
 31
0.0
  0
LINE
  5
3865
330
1A
100
AcDbEntity
  8
SUNPOU
100
AcDbLine
 10
454.6580337731033
 20
182.7739042502574
 30
0.0
 11
470.8000796985033
 21
142.4187894368574
 31
0.0
  0
MTEXT
  5
3866
330
1A
100
AcDbEntity
  8
SUNPOU
100
AcDbMText
 10
457.4576673689205
 20
149.5271712354672
 30
0.0
 40
6.0
 41
11.39957131979999
 71
     1
 72
     5
  1
\W0.8;\FMS PGothic.ttf;\W1.0;10
1001
ACAD
1000
MTEXTBEGIN
1070
    73
1070
     1
1070
    44
1040
1.0
1070
    74
1070
     0
1000
MTEXTEND
1000
MTEXTBEGIN
1070
    73
1070
     1
1070
    44
1040
1.0
1070
    74
1070
     0
1000
MTEXTEND
1000
MTEXTBEGIN
1070
    73
1070
     1
1070
    44
1040
1.0
1070
    74
1070
     0
1000
MTEXTEND
1000
MTEXTBEGIN
1070
    73
1070
     1
1070
    44
1040
1.0
1070
    74
1070
     0
1000
MTEXTEND
1000
MTEXTBEGIN
1070
    73
1070
     1
1070
    44
1040
1.0
1070
    74
1070
     0
1000
MTEXTEND
1000
MTEXTBEGIN
1070
    73
1070
     1
1070
    44
1040
1.0
1070
    74
1070
     0
1000
MTEXTEND
  0
LINE
  5
3867
330
1A
100
AcDbEntity
  8
SUNPOU
100
AcDbLine
 10
466.8000796985033
 20
152.4187894368574
 30
0.0
 11
466.8000796985033
 21
142.4187894368574
 31
0.0
  0
LINE
  5
3868
330
1A
100
AcDbEntity
  8
SUNPOU
100
AcDbLine
 10
466.8000796985033
 20
142.4187894368574
 30
0.0
 11
470.8000796985033
 21
142.4187894368574
 31
0.0
  0
MTEXT
  5
3869
330
1A
100
AcDbEntity
  8
SUNPOU
100
AcDbMText
 10
466.3578435586717
 20
140.2988750527128
 30
0.0
 40
6.0
 41
11.39957131979999
 71
     1
 72
     5
  1
\W0.8;\FMS PGothic.ttf;\W1.0;4
1001
ACAD
1000
MTEXTBEGIN
1070
    73
1070
     1
1070
    44
1040
1.0
1070
    74
1070
     0
1000
MTEXTEND
1000
MTEXTBEGIN
1070
    73
1070
     1
1070
    44
1040
1.0
1070
    74
1070
     0
1000
MTEXTEND
1000
MTEXTBEGIN
1070
    73
1070
     1
1070
    44
1040
1.0
1070
    74
1070
     0
1000
MTEXTEND
1000
MTEXTBEGIN
1070
    73
1070
     1
1070
    44
1040
1.0
1070
    74
1070
     0
1000
MTEXTEND
1000
MTEXTBEGIN
1070
    73
1070
     1
1070
    44
1040
1.0
1070
    74
1070
     0
1000
MTEXTEND
1000
MTEXTBEGIN
1070
    73
1070
     1
1070
    44
1040
1.0
1070
    74
1070
     0
1000
MTEXTEND
  0
LINE
  5
386A
330
1A
100
AcDbEntity
  8
SEIHIN
100
AcDbLine
 10
451.1298223477033
 20
178.1315207958574
 30
0.0
 11
451.5012130241031
 21
177.2030441049574
 31
0.0
  0
LINE
  5
386B
330
1A
100
AcDbEntity
  8
SEIHIN
100
AcDbLine
 10
451.5012130241031
 20
177.2030441049574
 30
0.0
 11
449.6442596423032
 21
176.4602627522574
 31
0.0
  0
LINE
  5
386C
330
1A
100
AcDbEntity
  8
SEIHIN
100
AcDbLine
 10
454.6580337731033
 20
182.7739042502574
 30
0.0
 11
451.1298223477033
 21
178.1315207958574
 31
0.0
  0
DIMENSION
  5
386D
330
1A
100
AcDbEntity
  8
SUNPOU
100
AcDbDimension
  2
*D12
 10
523.7359330110477
 20
214.7840934164177
 30
0.0
 11
519.118791887569
 21
239.8732576753514
 31
0.0
 70
    33
  3
STANDARD
100
AcDbAlignedDimension
 13
531.2012261382176
 23
271.6182756691113
 33
0.0
 14
549.7248672084619
 24
225.142353483917
 34
0.0
1001
ACAD
1000
DSTYLE
1002
{
1070
    41
1040
7.0
1070
    42
1040
6.0
1070
    43
1040
14.0
1070
    44
1040
3.0
1070
    73
1070
     0
1070
    74
1070
     0
1070
    77
1070
     3
1070
   140
1040
6.0
1070
   141
1040
150.0
1070
   147
1040
2.0
1070
   172
1070
     1
1070
   173
1070
     1
1070
   176
1070
     4
1070
   177
1070
     4
1070
   178
1070
     4
1070
   271
1070
     0
1070
   272
1070
     0
1070
   341
1005
6D
1070
     6
1000
OPEN
1070
     7
1000
OPEN
1002
}
  0
DIMENSION
  5
386E
330
1A
100
AcDbEntity
  8
SUNPOU
100
AcDbDimension
  2
*D13
 10
505.203878793446
 20
261.2193367312192
 30
0.0
 11
505.8732127932856
 21
273.0089137494724
 31
0.0
 70
    33
  3
STANDARD
100
AcDbAlignedDimension
 13
523.2551272290423
 23
291.4835229420814
 33
0.0
 14
531.2012261382176
 24
271.6182756691113
 34
0.0
1001
ACAD
1000
DSTYLE
1002
{
1070
    41
1040
7.0
1070
    42
1040
6.0
1070
    43
1040
14.0
1070
    44
1040
3.0
1070
    73
1070
     0
1070
    74
1070
     0
1070
    77
1070
     3
1070
   140
1040
6.0
1070
   141
1040
150.0
1070
   147
1040
2.0
1070
   172
1070
     1
1070
   173
1070
     1
1070
   176
1070
     4
1070
   177
1070
     4
1070
   178
1070
     4
1070
   271
1070
     0
1070
   272
1070
     0
1070
   341
1005
6D
1070
     6
1000
OPEN
1070
     7
1000
OPEN
1002
}
  0
LINE
  5
386F
330
1A
100
AcDbEntity
  8
SEIHIN
100
AcDbLine
 10
549.7196937379669
 20
281.8663371446431
 30
0.0
 11
569.0953060684032
 21
233.4273063187574
 31
0.0
  0
LINE
  5
3870
330
1A
100
AcDbEntity
  8
SEIHIN
100
AcDbLine
 10
567.7196223648032
 20
228.7887683669574
 30
0.0
 11
558.3359574294034
 21
252.2479307055574
 31
0.0
  0
LINE
  5
3871
330
1A
100
AcDbEntity
  8
SEIHIN
100
AcDbLine
 10
574.2259360754032
 20
243.4876817315574
 30
0.0
 11
557.611745610548
 21
285.0231578936554
 31
0.0
  0
ARC
  5
3872
330
1A
100
AcDbEntity
  8
SEIHIN
100
AcDbCircle
 10
579.5052259801032
 20
237.0209129787574
 30
0.0
 40
7.7
100
AcDbArc
 50
135.5233790934014
 51
198.7653074729008
  0
LINE
  5
3873
330
1A
100
AcDbEntity
  8
SEIHIN
100
AcDbLine
 10
570.3460717421032
 20
232.8520556630575
 30
0.0
 11
571.5899702657034
 21
233.2755474084574
 31
0.0
  0
LINE
  5
3874
330
1A
100
AcDbEntity
  8
SEIHIN
100
AcDbLine
 10
568.3428399257033
 20
227.2307244645574
 30
0.0
 11
571.3924186368033
 21
226.6009644006574
 31
0.0
  0
ARC
  5
3875
330
1A
100
AcDbEntity
  8
SEIHIN
100
AcDbCircle
 10
570.0237827592034
 20
233.7986969950575
 30
0.0
 40
1.0
100
AcDbArc
 50
201.8014094862985
 51
288.8014094856984
  0
LINE
  5
3876
330
1A
100
AcDbEntity
  8
SEIHIN
100
AcDbLine
 10
568.3428399257033
 20
227.2307244645574
 30
0.0
 11
567.7196223648032
 21
228.7887683669574
 31
0.0
  0
ARC
  5
3877
330
1A
100
AcDbEntity
  8
SEIHIN
100
AcDbCircle
 10
571.2676812829033
 20
234.2221887404574
 30
0.0
 40
1.0
100
AcDbArc
 50
288.8014094856984
 51
18.76530747289932
  0
LINE
  5
3878
330
1A
100
AcDbEntity
  8
SEIHIN
100
AcDbLine
 10
571.3924186368033
 20
226.6009644006574
 30
0.0
 11
571.6675321844034
 21
225.9131805317574
 31
0.0
  0
ARC
  5
3879
330
1A
100
AcDbEntity
  8
SEIHIN
100
AcDbCircle
 10
573.2974593845033
 20
243.1162910551575
 30
0.0
 40
1.0
100
AcDbArc
 50
315.5233790934015
 51
21.80140948639929
  0
ARC
  5
387A
330
1A
100
AcDbEntity
  8
SEIHIN
100
AcDbCircle
 10
545.0773102835398
 20
280.0093837629126
 30
0.0
 40
2.0
100
AcDbArc
 50
21.80140948631554
 51
111.8014094860691
  0
ARC
  5
387B
330
1A
100
AcDbEntity
  8
SEIHIN
100
AcDbCircle
 10
546.2657604479034
 20
247.4198519129574
 30
0.0
 40
13.0
100
AcDbArc
 50
21.80140948639929
 51
111.8014094980998
  0
ARC
  5
387C
330
1A
100
AcDbEntity
  8
SEIHIN
100
AcDbCircle
 10
546.8228464624032
 20
248.7197192801575
 30
0.0
 40
15.0
100
AcDbArc
 50
68.36887293459965
 51
111.8014094980998
  0
LINE
  5
387D
330
1A
100
AcDbEntity
  8
SEIHIN
100
AcDbLine
 10
545.4743168171033
 20
292.4797794467574
 30
0.0
 11
547.1199590034786
 21
288.3656739808361
 31
0.0
  0
CIRCLE
  5
387E
330
1A
100
AcDbEntity
  8
SEIHIN
100
AcDbCircle
 10
531.2244380555032
 20
271.5602458759574
 30
0.0
 40
2.7
  0
ARC
  5
387F
330
1A
100
AcDbEntity
  8
SEIHIN
100
AcDbCircle
 10
531.2244380555032
 20
271.5602458759574
 30
0.0
 40
7.7
100
AcDbArc
 50
270.7471779596991
 51
46.97026297010228
  0
LINE
  5
3880
330
1A
100
AcDbEntity
  8
SEIHIN
100
AcDbLine
 10
525.6535779102032
 20
263.9467370106574
 30
0.0
 11
519.9356987083033
 21
278.2414350153574
 31
0.0
  0
ARC
  5
3881
330
1A
100
AcDbEntity
  8
SEIHIN
100
AcDbCircle
 10
534.9383448191033
 20
267.6606437742574
 30
0.0
 40
10.0
100
AcDbArc
 50
201.8014095098998
 51
291.8014095216013
  0
LINE
  5
3882
330
1A
100
AcDbEntity
  8
SEIHIN
100
AcDbLine
 10
541.4376816552032
 20
259.4900488944574
 30
0.0
 11
538.6522515826034
 21
258.3758768653574
 31
0.0
  0
LINE
  5
3883
330
1A
100
AcDbEntity
  8
SEIHIN
100
AcDbLine
 10
537.5380795535034
 20
261.1613069380574
 30
0.0
 11
541.2519863171032
 21
262.6468696434574
 31
0.0
  0
ARC
  5
3884
330
1A
100
AcDbEntity
  8
SEIHIN
100
AcDbCircle
 10
531.3378890597034
 20
262.8609856274574
 30
0.0
 40
1.0
100
AcDbArc
 50
90.74717793620191
 51
233.1246619618016
  0
ARC
  5
3885
330
1A
100
AcDbEntity
  8
SEIHIN
100
AcDbCircle
 10
534.9383448191033
 20
267.6606437742574
 30
0.0
 40
7.0
100
AcDbArc
 50
233.1246619618016
 51
291.8014095216013
  0
LINE
  5
3886
330
1A
100
AcDbEntity
  8
SEIHIN
100
AcDbLine
 10
540.1155822702032
 20
292.2257642549574
 30
0.0
 11
523.5428268645032
 21
284.9158211865574
 31
0.0
  0
LINE
  5
3887
330
1A
100
AcDbEntity
  8
SEIHIN
100
AcDbLine
 10
524.8779753038034
 20
277.3148145782574
 30
0.0
 11
543.2203569017643
 21
284.6517672173368
 31
0.0
  0
ARC
  5
3888
330
1A
100
AcDbEntity
  8
SEIHIN
100
AcDbCircle
 10
529.2204648476033
 20
281.9553437027574
 30
0.0
 40
10.0
100
AcDbArc
 50
113.8014094983978
 51
201.8014213582001
  0
ARC
  5
3889
330
1A
100
AcDbEntity
  8
SEIHIN
100
AcDbCircle
 10
529.2204648476033
 20
281.9553437027574
 30
0.0
 40
7.0
100
AcDbArc
 50
166.9315118595009
 51
218.2194699648986
  0
ARC
  5
388A
330
1A
100
AcDbEntity
  8
SEIHIN
100
AcDbCircle
 10
524.5065846275033
 20
278.2432912691574
 30
0.0
 40
1.0
100
AcDbArc
 50
218.2194699648986
 51
291.8014094863977
  0
ARC
  5
388B
330
1A
100
AcDbEntity
  8
SEIHIN
100
AcDbCircle
 10
524.3499624733033
 20
283.0859217060574
 30
0.0
 40
2.0
100
AcDbArc
 50
113.8014094983978
 51
166.9315118595009
  0
LINE
  5
388C
330
1A
100
AcDbEntity
  8
SEIHIN
100
AcDbLine
 10
536.7897346515621
 20
278.8484194330186
 30
0.0
 11
544.3345289308409
 21
281.8663371446869
 31
0.0
  0
ARC
  5
388D
330
1A
100
AcDbEntity
  8
SEIHIN
100
AcDbCircle
 10
537.1611253279118
 20
277.9199427421315
 30
0.0
 40
1.0
100
AcDbArc
 50
111.8014094860675
 51
226.9702629701018
  0
ARC
  5
388E
330
1A
100
AcDbEntity
  8
SEIHIN
100
AcDbCircle
 10
542.4775755490652
 20
286.508720599111
 30
0.0
 40
2.0
100
AcDbArc
 50
291.8014094860692
 51
21.80140948631583
  0
LINE
  5
388F
330
1A
100
AcDbEntity
  8
SEIHIN
100
AcDbLine
 10
544.3345289308361
 20
287.2515019518181
 30
0.0
 11
542.7796714651033
 21
291.1386456161574
 31
0.0
  0
ARC
  5
3890
330
1A
100
AcDbEntity
  8
SEIHIN
100
AcDbCircle
 10
540.9227178790033
 20
290.3958647744574
 30
0.0
 40
2.0
100
AcDbArc
 50
21.80139371949959
 51
113.8014094983978
  0
LINE
  5
3891
330
1A
100
AcDbEntity
  8
SEIHIN
100
AcDbLine
 10
553.6493970396033
 20
263.9643316798574
 30
0.0
 11
546.9342636653107
 21
280.7521651156197
 31
0.0
  0
ARC
  5
3892
330
1A
100
AcDbEntity
  8
SEIHIN
100
AcDbCircle
 10
552.7209203488032
 20
263.5929410034574
 30
0.0
 40
1.0
100
AcDbArc
 50
248.3688729581998
 51
21.80140948629858
  0
ARC
  5
3893
330
1A
100
AcDbEntity
  8
SEIHIN
100
AcDbCircle
 10
564.1110824467445
 20
287.6228926281182
 30
0.0
 40
2.0
100
AcDbArc
 50
111.8014094866248
 51
201.8014094863139
  0
ARC
  5
3894
330
1A
100
AcDbEntity
  8
SEIHIN
100
AcDbCircle
 10
553.1550574942971
 20
290.7797133771426
 30
0.0
 40
2.0
100
AcDbArc
 50
291.8014094860688
 51
21.80140948636961
  0
LINE
  5
3895
330
1A
100
AcDbEntity
  8
SEIHIN
100
AcDbLine
 10
550.8338657670374
 20
284.4660718791282
 30
0.0
 11
555.0120108760788
 21
286.1373299227208
 31
0.0
  0
ARC
  5
3896
330
1A
100
AcDbEntity
  8
SEIHIN
100
AcDbCircle
 10
551.5766471197364
 20
282.6091184973539
 30
0.0
 40
2.0
100
AcDbArc
 50
111.8014094860692
 51
201.8014094864354
  0
ARC
  5
3897
330
1A
100
AcDbEntity
  8
SEIHIN
100
AcDbCircle
 10
548.9769123852481
 20
289.108455333547
 30
0.0
 40
2.0
100
AcDbArc
 50
201.8014094864349
 51
291.8014094860692
  0
LINE
  5
3898
330
1A
100
AcDbEntity
  8
SEIHIN
100
AcDbLine
 10
549.7196937379471
 20
287.2515019517728
 30
0.0
 11
553.8978388469961
 21
288.9227599953684
 31
0.0
  0
ARC
  5
3899
330
1A
100
AcDbEntity
  8
SEIHIN
100
AcDbCircle
 10
555.7547922287779
 20
284.2803765409466
 30
0.0
 40
2.0
100
AcDbArc
 50
21.80140948637073
 51
111.8014094860695
  0
ARC
  5
389A
330
1A
100
AcDbEntity
  8
SEIHIN
100
AcDbCircle
 10
568.2892275557169
 20
289.2941506717303
 30
0.0
 40
2.0
100
AcDbArc
 50
21.80140948633498
 51
111.801409486625
  0
LINE
  5
389B
330
1A
100
AcDbEntity
  8
SEIHIN
100
AcDbLine
 10
563.3683010940274
 20
289.4798460098852
 30
0.0
 11
567.5464462029997
 21
291.1511040534973
 31
0.0
  0
LINE
  5
389C
330
1A
100
AcDbEntity
  8
SEIHIN
100
AcDbLine
 10
584.3333047741032
 20
262.6468696434574
 30
0.0
 11
593.807892883103
 21
238.9603993711574
 31
0.0
  0
LINE
  5
389D
330
1A
100
AcDbEntity
  8
SEIHIN
100
AcDbLine
 10
592.7855885015031
 20
235.0407433683574
 30
0.0
 11
594.4462210007034
 21
237.3645790771575
 31
0.0
  0
LINE
  5
389E
330
1A
100
AcDbEntity
  8
SEIHIN
100
AcDbLine
 10
580.9907886855032
 20
233.3070062151574
 30
0.0
 11
593.807892883103
 21
238.9603993711574
 31
0.0
  0
LINE
  5
389F
330
1A
100
AcDbEntity
  8
SEIHIN
100
AcDbLine
 10
592.7855885015031
 20
235.0407433683574
 30
0.0
 11
582.1049607145032
 21
230.5215761425575
 31
0.0
  0
LINE
  5
38A0
330
1A
100
AcDbEntity
  8
SEIHIN
100
AcDbLine
 10
593.091743057703
 20
234.2753569780575
 30
0.0
 11
582.4763513909033
 21
229.5930994516575
 31
0.0
  0
LINE
  5
38A1
330
1A
100
AcDbEntity
  8
SEIHIN
100
AcDbLine
 10
593.091743057703
 20
234.2753569780575
 30
0.0
 11
592.7855885015031
 21
235.0407433683574
 31
0.0
  0
ARC
  5
38A2
330
1A
100
AcDbEntity
  8
SEIHIN
100
AcDbCircle
 10
579.5052259801032
 20
237.0209129787574
 30
0.0
 40
7.7
100
AcDbArc
 50
23.81745686150138
 51
88.07943987929828
  0
ARC
  5
38A3
330
1A
100
AcDbEntity
  8
SEIHIN
100
AcDbCircle
 10
587.4643050379034
 20
240.5341821899575
 30
0.0
 40
1.0
100
AcDbArc
 50
203.8174568615013
 51
293.8014094868997
  0
ARC
  5
38A4
330
1A
100
AcDbEntity
  8
SEIHIN
100
AcDbCircle
 10
579.7967962207033
 20
245.7160257896574
 30
0.0
 40
1.0
100
AcDbArc
 50
201.8014094863992
 51
268.0794398792982
  0
ARC
  5
38A5
330
1A
100
AcDbEntity
  8
SEIHIN
100
AcDbCircle
 10
588.6593948906034
 20
241.0613147379574
 30
0.0
 40
1.0
100
AcDbArc
 50
293.8014094868997
 51
21.80140948639929
  0
LINE
  5
38A6
330
1A
100
AcDbEntity
  8
SEIHIN
100
AcDbLine
 10
594.4462210007034
 20
237.3645790771575
 30
0.0
 11
593.807892883103
 21
238.9603993711574
 31
0.0
  0
LINE
  5
38A7
330
1A
100
AcDbEntity
  8
SEIHIN
100
AcDbLine
 10
587.8678728424033
 20
239.6192324496575
 30
0.0
 11
589.0629626950032
 21
240.1463649976574
 31
0.0
  0
ARC
  5
38A8
330
1A
100
AcDbEntity
  8
SEIHIN
100
AcDbCircle
 10
596.4035017557032
 20
267.4749484360575
 30
0.0
 40
13.0
100
AcDbArc
 50
111.8014094980998
 51
201.8014095098998
  0
ARC
  5
38A9
330
1A
100
AcDbEntity
  8
SEIHIN
100
AcDbCircle
 10
590.6469462722031
 20
289.9440843554574
 30
0.0
 40
7.0
100
AcDbArc
 50
291.8014095216013
 51
350.4781570813991
  0
ARC
  5
38AA
330
1A
100
AcDbEntity
  8
SEIHIN
100
AcDbCircle
 10
595.1036343884031
 20
268.0320344505574
 30
0.0
 40
15.0
100
AcDbArc
 50
111.8014094980998
 51
155.2339460616003
  0
ARC
  5
38AB
330
1A
100
AcDbEntity
  8
SEIHIN
100
AcDbCircle
 10
580.5752210753032
 20
274.7346612940574
 30
0.0
 40
1.0
100
AcDbArc
 50
201.8014095098998
 51
335.2339460851
  0
LINE
  5
38AC
330
1A
100
AcDbEntity
  8
SEIHIN
100
AcDbLine
 10
594.360853035703
 20
280.6593174466574
 30
0.0
 11
591.5754229631032
 21
279.5451454175574
 31
0.0
  0
LINE
  5
38AD
330
1A
100
AcDbEntity
  8
SEIHIN
100
AcDbLine
 10
589.5327742431033
 20
281.9591848138573
 30
0.0
 11
593.2466810066032
 21
283.4447475192575
 31
0.0
  0
ARC
  5
38AE
330
1A
100
AcDbEntity
  8
SEIHIN
100
AcDbCircle
 10
596.5642819231032
 20
288.9515427728574
 30
0.0
 40
1.0
100
AcDbArc
 50
350.4781570813991
 51
132.8556410600992
  0
LINE
  5
38AF
330
1A
100
AcDbEntity
  8
SEIHIN
100
AcDbLine
 10
574.0457830391845
 20
293.7508387880071
 30
0.0
 11
581.5905773184672
 21
296.7687564997619
 31
0.0
  0
LINE
  5
38B0
330
1A
100
AcDbEntity
  8
SEIHIN
100
AcDbLine
 10
572.9316110101522
 20
296.5362688606749
 30
0.0
 11
591.395375904103
 21
303.9217748183574
 31
0.0
  0
LINE
  5
38B1
330
1A
100
AcDbEntity
  8
SEIHIN
100
AcDbLine
 10
587.3018550607032
 20
309.7669760101574
 30
0.0
 11
570.0952893019032
 21
303.9089108809574
 31
0.0
  0
LINE
  5
38B2
330
1A
100
AcDbEntity
  8
SEIHIN
100
AcDbLine
 10
581.9038448182034
 20
313.2110267388574
 30
0.0
 11
552.9695175739032
 21
303.3601839940574
 31
0.0
  0
LINE
  5
38B3
330
1A
100
AcDbEntity
  8
SUNPOU
100
AcDbLine
 10
478.5761326697236
 20
424.3667161660901
 30
0.0
 11
478.5761326697236
 21
358.3667161660901
 31
0.0
  0
ARC
  5
38B4
330
1A
100
AcDbEntity
  8
SEIHIN
100
AcDbCircle
 10
352.0452116032463
 20
391.36671616609
 30
0.0
 40
101.1272594643853
100
AcDbArc
 50
356.0308285751275
 51
0.0000000000000322
  0
ELLIPSE
  5
38B6
330
1A
100
AcDbEntity
  8
SEIHIN
100
AcDbEllipse
 10
452.3451550434153
 20
391.2088348743225
 30
0.0
 11
0.5091598755672509
 21
8.030211518536034
 31
0.0
210
0.0
220
0.0
230
0.9999999999999996
 40
0.3005395739229371
 41
1.885759924007489
 42
3.143846711997332
  0
ELLIPSE
  5
38B7
330
1A
100
AcDbEntity
  8
SEIHIN
100
AcDbEllipse
 10
451.215678489661
 20
391.2088348743225
 30
0.0
 11
0.5091598755672509
 21
8.030211518536034
 31
0.0
210
0.0
220
0.0
230
0.9999999999999996
 40
0.3005395739229371
 41
1.885759924007489
 42
3.143846711997332
  0
INSERT
  5
38B8
330
1A
100
AcDbEntity
  8
SUNPOU
100
AcDbBlockReference
  2
_OPEN
 10
478.5761326697236
 20
351.36671616609
 30
0.0
 41
7.0
 42
7.0
 43
7.0
 50
270.0
  0
LWPOLYLINE
  5
38B9
330
1A
100
AcDbEntity
  8
SEIHIN
100
AcDbPolyline
 90
       10
 70
   128
 43
0.0
 10
450.5558297901741
 20
376.36671616609
 10
450.9268749442742
 20
376.4844323515901
 10
451.2891844943742
 20
376.8348094881901
 10
451.634228500874
 20
377.40959856369
 10
451.9538835106741
 20
378.1952671826901
 10
452.2406238103742
 20
379.17331816269
 10
452.4876986048741
 20
380.3207250174902
 10
452.6892909538742
 20
381.6104740753901
 10
452.8406547208742
 20
383.01220046859
 10
452.9299111705104
 20
384.3667161660903
  0
LINE
  5
38C5
330
1A
100
AcDbEntity
  8
SEIHIN
100
AcDbLine
 10
450.7119598392807
 20
383.1782988338506
 30
0.0
 11
451.8414363930351
 21
383.1782988338506
 31
0.0
  0
LWPOLYLINE
  5
38C6
330
1A
100
AcDbEntity
  8
SEIHIN
100
AcDbPolyline
 90
        8
 70
   128
 43
0.0
 10
449.9020038598216
 20
379.3667161660899
 10
450.0470653395216
 20
379.4269420521898
 10
450.1863025151217
 20
379.6052016056898
 10
450.3141249318217
 20
379.8943376001898
 10
450.4254004439214
 20
380.2827410546898
 10
450.5156612740215
 20
380.7548173410898
 10
450.5812833964216
 20
381.2916123174898
 10
450.7060363930349
 20
383.1782988338506
  0
LWPOLYLINE
  5
38D0
330
1A
100
AcDbEntity
  8
SEIHIN
100
AcDbPolyline
 90
        8
 70
   128
 43
0.0
 10
451.0374038598215
 20
379.3667161660899
 10
451.1824653395217
 20
379.4269420521898
 10
451.3217025151216
 20
379.6052016056898
 10
451.4495249318215
 20
379.8943376001898
 10
451.5608004439216
 20
380.2827410546898
 10
451.6510612740217
 20
380.7548173410898
 10
451.7166833964215
 20
381.2916123174898
 10
451.8414363930351
 20
383.1782988338506
  0
LINE
  5
38DA
330
1A
100
AcDbEntity
  8
SEIHIN
100
AcDbLine
 10
563.4597061416031
 20
301.6497919567574
 30
0.0
 11
559.1939741099033
 21
300.1975012198574
 31
0.0
  0
LINE
  5
38DB
330
1A
100
AcDbEntity
  8
SEIHIN
100
AcDbLine
 10
550.6439178610032
 20
296.8696229188574
 30
0.0
 11
546.5241343689033
 21
295.0524608329574
 31
0.0
  0
ARC
  5
38DC
330
1A
100
AcDbEntity
  8
SEIHIN
100
AcDbCircle
 10
551.4510534698033
 20
295.0397234382575
 30
0.0
 40
2.0
100
AcDbArc
 50
21.80140600750103
 51
113.8014094983978
  0
ARC
  5
38DD
330
1A
100
AcDbEntity
  8
SEIHIN
100
AcDbCircle
 10
559.8385520756032
 20
298.3042185558574
 30
0.0
 40
2.0
100
AcDbArc
 50
108.8014094976987
 51
201.8016734877008
  0
LINE
  5
38DE
330
1A
100
AcDbEntity
  8
SEIHIN
100
AcDbLine
 10
557.9816021164033
 20
297.5614286468575
 30
0.0
 11
559.6543943304991
 21
293.3794481116099
 31
0.0
  0
ARC
  5
38DF
330
1A
100
AcDbEntity
  8
SEIHIN
100
AcDbCircle
 10
572.1888296574349
 20
298.3932222424418
 30
0.0
 40
2.0
100
AcDbArc
 50
201.8014094862425
 51
291.8014094866249
  0
ARC
  5
38E0
330
1A
100
AcDbEntity
  8
SEIHIN
100
AcDbCircle
 10
565.68949282124
 20
295.7934875079279
 30
0.0
 40
2.0
100
AcDbArc
 50
291.8014094866247
 51
21.80140948633559
  0
LINE
  5
38E1
330
1A
100
AcDbEntity
  8
SEIHIN
100
AcDbLine
 10
567.5464462030109
 20
296.5362688606357
 30
0.0
 11
565.9612370482034
 21
300.4992917476574
 31
0.0
  0
LINE
  5
38E2
330
1A
100
AcDbEntity
  8
SEIHIN
100
AcDbLine
 10
568.8829137749032
 20
301.2728471416575
 30
0.0
 11
570.331876275663
 21
297.6504408897373
 31
0.0
  0
ARC
  5
38E3
330
1A
100
AcDbEntity
  8
SEIHIN
100
AcDbCircle
 10
564.1042841073033
 20
299.7565092926574
 30
0.0
 40
2.0
100
AcDbArc
 50
21.80144349720119
 51
108.8014094976987
  0
ARC
  5
38E4
330
1A
100
AcDbEntity
  8
SEIHIN
100
AcDbCircle
 10
570.7398672676033
 20
302.0156282168574
 30
0.0
 40
2.0
100
AcDbArc
 50
108.8014094976987
 51
201.8014009233003
  0
ARC
  5
38E5
330
1A
100
AcDbEntity
  8
SEIHIN
100
AcDbCircle
 10
352.0452116032463
 20
391.3667161660926
 30
0.0
 40
101.1272594643853
100
AcDbArc
 50
359.9999999999987
 51
3.969171424871258
  0
LWPOLYLINE
  5
38E9
330
1A
100
AcDbEntity
  8
SEIHIN
100
AcDbPolyline
 90
       14
 70
   128
 43
0.0
 10
451.4898806428105
 20
391.3667161660903
 10
451.4898806428105
 20
391.3667161660903
 10
451.5141558901104
 20
392.1269707041902
 10
451.5853273140103
 20
392.8354151519903
 10
451.6985446996105
 20
393.4437701909903
 10
451.8460924692103
 20
393.9105774305902
 10
452.0179154861104
 20
394.2040247290902
 10
452.2023042956105
 20
394.3041141377903
 10
452.3866931052104
 20
394.2040247290902
 10
452.5585161220103
 20
393.9105774305902
 10
452.7060638916104
 20
393.4437701909903
 10
452.8192812772103
 20
392.8354151519903
 10
452.8904527012103
 20
392.1269707041902
 10
452.9147279485105
 20
391.3667161660903
  0
LWPOLYLINE
  5
38F9
330
1A
100
AcDbEntity
  8
SEIHIN
100
AcDbPolyline
 90
       14
 70
   128
 43
0.0
 10
451.4898806428105
 20
391.36671616609
 10
451.4898806428105
 20
391.36671616609
 10
451.5141558901104
 20
390.6064616279901
 10
451.5853273140103
 20
389.89801718019
 10
451.6985446996105
 20
389.28966214119
 10
451.8460924692103
 20
388.8228549015901
 10
452.0179154861104
 20
388.5294076030901
 10
452.2023042956105
 20
388.4293181943901
 10
452.3866931052104
 20
388.5294076030901
 10
452.5585161220103
 20
388.8228549015901
 10
452.7060638916104
 20
389.28966214119
 10
452.8192812772103
 20
389.89801718019
 10
452.8904527012103
 20
390.6064616279901
 10
452.9147279485105
 20
391.36671616609
  0
LWPOLYLINE
  5
3909
330
1A
100
AcDbEntity
  8
SEIHIN
100
AcDbPolyline
 90
       10
 70
   128
 43
0.0
 10
450.5558297901743
 20
406.3667161660903
 10
450.9268749442744
 20
406.2489999805903
 10
451.2891844943744
 20
405.8986228439903
 10
451.6342285008743
 20
405.3238337684903
 10
451.9538835106743
 20
404.5381651494903
 10
452.2406238103744
 20
403.5601141694903
 10
452.4876986048743
 20
402.4127073146902
 10
452.6892909538744
 20
401.1229582567903
 10
452.8406547208744
 20
399.7212318635903
 10
452.9299111705106
 20
398.3667161660901
  0
LINE
  5
3915
330
1A
100
AcDbEntity
  8
SEIHIN
100
AcDbLine
 10
450.711959839281
 20
399.5551334983298
 30
0.0
 11
451.8414363930353
 21
399.5551334983298
 31
0.0
  0
LWPOLYLINE
  5
3916
330
1A
100
AcDbEntity
  8
SEIHIN
100
AcDbPolyline
 90
        8
 70
   128
 43
0.0
 10
449.9020038598218
 20
403.3667161660905
 10
450.0470653395218
 20
403.3064902799906
 10
450.1863025151219
 20
403.1282307264905
 10
450.3141249318218
 20
402.8390947319905
 10
450.4254004439217
 20
402.4506912774906
 10
450.5156612740218
 20
401.9786149910905
 10
450.5812833964219
 20
401.4418200146906
 10
450.7060363930352
 20
399.5551334983298
  0
MTEXT
  5
392A
330
1A
100
AcDbEntity
  8
SUNPOU
100
AcDbMText
 10
473.8402121436063
 20
391.3667161660903
 30
0.0
 40
6.0
 41
0.0
 71
     5
 72
     5
  1
\A1;80
 11
0.0000000000000001
 21
1.0
 31
0.0
1001
ACAD
1000
MTEXTBEGIN
1070
    73
1070
     1
1070
    44
1040
1.0
1070
    74
1070
     0
1000
MTEXTEND
1000
MTEXTBEGIN
1070
    73
1070
     1
1070
    44
1040
1.0
1070
    74
1070
     0
1000
MTEXTEND
1000
MTEXTBEGIN
1070
    73
1070
     1
1070
    44
1040
1.0
1070
    74
1070
     0
1000
MTEXTEND
1000
MTEXTBEGIN
1070
    73
1070
     1
1070
    44
1040
1.0
1070
    74
1070
     0
1000
MTEXTEND
1000
MTEXTBEGIN
1070
    73
1070
     1
1070
    44
1040
1.0
1070
    74
1070
     0
1000
MTEXTEND
1000
MTEXTBEGIN
1070
    73
1070
     1
1070
    44
1040
1.0
1070
    74
1070
     0
1000
MTEXTEND
  0
INSERT
  5
392B
330
1A
100
AcDbEntity
  8
SUNPOU
100
AcDbBlockReference
  2
_OPEN
 10
478.5761326697236
 20
431.3667161660902
 30
0.0
 41
7.0
 42
7.0
 43
7.0
 50
90.0
  0
ARC
  5
392D
330
1A
100
AcDbEntity
  8
SEIHIN
100
AcDbCircle
 10
585.1267346470033
 20
303.7446134185575
 30
0.0
 40
10.0
100
AcDbArc
 50
21.80141578270037
 51
108.8014094976987
  0
LINE
  5
392E
330
1A
100
AcDbEntity
  8
SEIHIN
100
AcDbLine
 10
599.9317131810032
 20
293.6579911190574
 30
0.0
 11
594.411501147703
 21
307.4585212023574
 31
0.0
  0
ARC
  5
392F
330
1A
100
AcDbEntity
  8
SEIHIN
100
AcDbCircle
 10
591.0239852277034
 20
304.8502515092574
 30
0.0
 40
1.0
100
AcDbArc
 50
291.8014094862998
 51
10.61875055509937
  0
ARC
  5
3930
330
1A
100
AcDbEntity
  8
SEIHIN
100
AcDbCircle
 10
581.9619679948257
 20
295.8402798088784
 30
0.0
 40
1.0
100
AcDbArc
 50
356.632556002185
 51
111.8014094866227
  0
ARC
  5
3931
330
1A
100
AcDbEntity
  8
SEIHIN
100
AcDbCircle
 10
587.9464330264034
 20
307.8736933460573
 30
0.0
 40
2.0
100
AcDbArc
 50
55.67130713659798
 51
108.8014094976987
  0
ARC
  5
3932
330
1A
100
AcDbEntity
  8
SEIHIN
100
AcDbCircle
 10
585.1267346470033
 20
303.7446134185575
 30
0.0
 40
7.0
100
AcDbArc
 50
10.61875055509937
 51
55.67130713659798
  0
MTEXT
  5
3933
330
1A
100
AcDbEntity
  8
SUNPOU
100
AcDbMText
 10
601.5405805861648
 20
346.18057867676
 30
0.0
 40
6.0
 41
33.36028036838114
 71
     1
 72
     5
  1
3-φ4.2
1001
ACAD
1000
MTEXTBEGIN
1070
    73
1070
     1
1070
    44
1040
1.0
1070
    74
1070
     0
1000
MTEXTEND
1000
MTEXTBEGIN
1070
    73
1070
     1
1070
    44
1040
1.0
1070
    74
1070
     0
1000
MTEXTEND
1000
MTEXTBEGIN
1070
    73
1070
     1
1070
    44
1040
1.0
1070
    74
1070
     0
1000
MTEXTEND
1000
MTEXTBEGIN
1070
    73
1070
     1
1070
    44
1040
1.0
1070
    74
1070
     0
1000
MTEXTEND
1000
MTEXTBEGIN
1070
    73
1070
     1
1070
    44
1040
1.0
1070
    74
1070
     0
1000
MTEXTEND
1000
MTEXTBEGIN
1070
    73
1070
     1
1070
    44
1040
1.0
1070
    74
1070
     0
1000
MTEXTEND
  0
POINT
  5
3BFF
330
1A
100
AcDbEntity
  8
S120
  6
PHANTOM
 62
     8
 48
5.0
100
AcDbPoint
 10
714.6859080407375
 20
234.4793545558317
 30
0.0
  0
POINT
  5
3C25
330
1A
100
AcDbEntity
  8
S120
  6
PHANTOM
 62
     8
 48
5.0
100
AcDbPoint
 10
684.6859080407376
 20
250.9795545558318
 30
0.0
  0
POINT
  5
3C28
330
1A
100
AcDbEntity
  8
S120
  6
PHANTOM
 62
     8
 48
5.0
100
AcDbPoint
 10
691.6859080407375
 20
252.4795545558316
 30
0.0
  0
POINT
  5
3CC2
330
1A
100
AcDbEntity
  8
S120
  6
PHANTOM
 62
     8
 48
5.0
100
AcDbPoint
 10
714.6860080407375
 20
332.4795545558318
 30
0.0
  0
POINT
  5
3CC6
330
1A
100
AcDbEntity
  8
S120
  6
PHANTOM
 62
     8
 48
5.0
100
AcDbPoint
 10
726.0266080407375
 20
325.6537545558318
 30
0.0
  0
POINT
  5
3CEB
330
1A
100
AcDbEntity
  8
S120
  6
PHANTOM
 62
     8
 48
5.0
100
AcDbPoint
 10
776.6859080407376
 20
232.4794545558316
 30
0.0
  0
POINT
  5
3CEC
330
1A
100
AcDbEntity
  8
S120
  6
PHANTOM
 62
     8
 48
5.0
100
AcDbPoint
 10
841.6845080407375
 20
232.4793545558317
 30
0.0
  0
POINT
  5
3D06
330
1A
100
AcDbEntity
  8
S120
  6
PHANTOM
 62
     8
 48
5.0
100
AcDbPoint
 10
832.5142080407374
 20
277.4794545558317
 30
0.0
  0
POINT
  5
3D21
330
1A
100
AcDbEntity
  8
S120
  6
PHANTOM
 62
     8
 48
5.0
100
AcDbPoint
 10
837.5142080407377
 20
292.4794545558317
 30
0.0
  0
LINE
  5
4B5D
330
1A
100
AcDbEntity
  8
SEIHIN
100
AcDbLine
 10
435.747761283148
 20
217.2140807462096
 30
0.0
 11
440.1737973965919
 21
218.9844951915619
 31
0.0
  0
LINE
  5
4B5E
330
1A
100
AcDbEntity
  8
SEIHIN
100
AcDbLine
 10
435.747761283148
 20
217.2140807462096
 30
0.0
 11
432.3728638565685
 21
217.4513632519562
 31
0.0
  0
LINE
  5
4B5F
330
1A
100
AcDbEntity
  8
CENTER_L
 48
5.0
100
AcDbLine
 10
525.5633671204275
 20
269.2959790458241
 30
0.0
 11
537.4378652089903
 21
274.0454394314596
 31
0.0
  0
LINE
  5
4B60
330
1A
100
AcDbEntity
  8
CENTER_L
 48
5.0
100
AcDbLine
 10
529.125578459324
 20
276.8077692237404
 30
0.0
 11
533.5584106283692
 21
265.7248981511763
 31
0.0
  0
LINE
  5
4B61
330
1A
100
AcDbEntity
  8
CENTER_L
 48
5.0
100
AcDbLine
 10
584.9864600408061
 20
293.0635205210389
 30
0.0
 11
596.8609581293687
 21
297.8129809066744
 31
0.0
  0
LINE
  5
4B62
330
1A
100
AcDbEntity
  8
CENTER_L
 48
5.0
100
AcDbLine
 10
588.5486713797026
 20
300.5753106989553
 30
0.0
 11
592.9815035487479
 21
289.4924396263912
 31
0.0
  0
LINE
  5
4B63
330
1A
100
AcDbEntity
  8
CENTER_L
 48
5.0
100
AcDbLine
 10
585.3387955321583
 20
239.3533264745496
 30
0.0
 11
573.6700499028325
 21
234.6861612012721
 31
0.0
  0
LINE
  5
53EA
330
1A
100
AcDbEntity
  8
ZUWAKU
100
AcDbLine
 10
208.6466015554762
 20
15.19999954755268
 30
0.0
 11
447.4243642363996
 21
15.19999954755267
 31
0.0
  0
LINE
  5
53EB
330
1A
100
AcDbEntity
  8
ZUWAKU
100
AcDbLine
 10
208.6466015554762
 20
15.59999954755267
 30
0.0
 11
447.4243642363996
 21
15.59999954755268
 31
0.0
  0
LINE
  5
53EC
330
1A
100
AcDbEntity
  8
ZUWAKU
100
AcDbLine
 10
208.6466015554762
 20
15.39999954755267
 30
0.0
 11
447.4243642363996
 21
15.39999954755267
 31
0.0
  0
LINE
  5
53ED
330
1A
100
AcDbEntity
  8
ZUWAKU
100
AcDbLine
 10
0.0000002654082891
 20
30.79999954755265
 30
0.0
 11
797.4000002654081
 21
30.79999954755265
 31
0.0
  0
LINE
  5
53EE
330
1A
100
AcDbEntity
  8
ZUWAKU
100
AcDbLine
 10
0.0000002654082891
 20
30.59999954755266
 30
0.0
 11
797.4000002654081
 21
30.59999954755266
 31
0.0
  0
LINE
  5
53EF
330
1A
100
AcDbEntity
  8
ZUWAKU
100
AcDbLine
 10
0.0000002654082891
 20
30.39999954755265
 30
0.0
 11
797.4000002654081
 21
30.39999954755265
 31
0.0
  0
LINE
  5
53F0
330
1A
100
AcDbEntity
  8
ZUWAKU
100
AcDbLine
 10
0.0000002654082891
 20
30.19999954755264
 30
0.0
 11
797.4000002654081
 21
30.19999954755264
 31
0.0
  0
LINE
  5
53F1
330
1A
100
AcDbEntity
  8
ZUWAKU
100
AcDbLine
 10
0.0000002654082891
 20
29.99999954755264
 30
0.0
 11
797.4000002654081
 21
29.99999954755264
 31
0.0
  0
LWPOLYLINE
  5
53F2
330
1A
100
AcDbEntity
  8
ZUWAKU
100
AcDbPolyline
 90
        4
 70
     1
 43
0.0
 10
0.2000002654082209
 20
551.3999995475526
 10
0.2000002654082209
 20
0.199999547552693
 10
797.4000002654081
 20
0.199999547552716
 10
797.4000002654084
 20
551.3999995475526
  0
LWPOLYLINE
  5
53F3
330
1A
100
AcDbEntity
  8
ZUWAKU
100
AcDbPolyline
 90
        4
 70
     1
 43
0.0
 10
0.6000002654081982
 20
550.9999995475527
 10
0.6000002654081982
 20
0.5999995475526704
 10
797.0000002654085
 20
0.5999995475527166
 10
797.0000002654082
 20
550.9999995475527
  0
LWPOLYLINE
  5
53F4
330
1A
100
AcDbEntity
  8
ZUWAKU
100
AcDbPolyline
 90
        4
 70
     1
 43
0.0
 10
0.0000002654082891
 20
551.5999995475526
 10
0.0000002654082891
 20
-0.0000004524473525
 10
797.6000002654083
 20
-0.000000452447285
 10
797.6000002654083
 20
551.5999995475527
  0
LWPOLYLINE
  5
53F5
330
1A
100
AcDbEntity
  8
ZUWAKU
100
AcDbPolyline
 90
        4
 70
     1
 43
0.0
 10
0.4000002654082664
 20
551.1999995475526
 10
0.4000002654082664
 20
0.3999995475527384
 10
797.2000002654083
 20
0.3999995475527153
 10
797.2000002654083
 20
551.1999995475526
  0
LWPOLYLINE
  5
53F6
330
1A
100
AcDbEntity
  8
ZUWAKU
100
AcDbPolyline
 90
        4
 70
     1
 43
0.0
 10
0.8000002654082436
 20
550.7999995475525
 10
0.8000002654082436
 20
0.7999995475527158
 10
796.8000002654081
 20
0.7999995475527158
 10
796.8000002654081
 20
550.7999995475525
  0
TEXT
  5
53F7
330
1A
100
AcDbEntity
  8
MOJI
100
AcDbText
 10
129.5810009082394
 20
8.55422296308302
 30
0.0
 40
5.799999999999999
  1
Ｓ１２０Ｈ・Ｍ１２０Ｈ
 41
0.9
  7
ｽﾀｲﾙ1
100
AcDbText
  0
TEXT
  5
53F8
330
1A
100
AcDbEntity
  8
MOJI
100
AcDbText
 10
81.66226421957366
 20
17.85856749647905
 30
0.0
 40
5.799999999999999
  1
アートフェイスＴ１２０・Ｈ１２０・
 41
0.9
  7
ｽﾀｲﾙ1
100
AcDbText
  0
HATCH
  5
53F9
330
1A
100
AcDbEntity
  8
ZUWAKU
100
AcDbHatch
 10
0.0
 20
0.0
 30
0.0
210
0.0
220
0.0
230
1.0
  2
ANSI37
 70
     0
 71
     0
 91
        8
 92
        7
 72
     1
 73
     1
 93
       24
 10
14.50226292652814
 20
17.64484802853622
 42
-0.1989123673796348
 10
14.09221242018941
 20
18.63479752219727
 42
0.0
 10
14.09221242018941
 20
19.92499954755265
 42
-0.4142135623730912
 10
14.61721242018938
 20
20.44999954755264
 42
0.0
 10
17.59221242018928
 20
20.44999954755264
 42
0.4142135623731546
 10
18.11721242018939
 20
20.97499954755263
 42
0.0
 10
18.11721242018939
 20
22.72499954755266
 42
0.4142135623731586
 10
17.59221242018928
 20
23.24999954755264
 42
0.0
 10
14.09221242018941
 20
23.24999954755264
 42
0.4142135623730928
 10
11.29221242018945
 20
20.44999954755267
 42
0.0
 10
11.29221242018945
 20
18.6347975221974
 42
0.1989123673796619
 10
12.52236393920588
 20
15.66494904121379
 42
0.0
 10
15.43216191385055
 20
12.75515106656914
 42
-0.1989123673796613
 10
15.84221242018941
 20
11.76520157290795
 42
0.0
 10
15.84221242018941
 20
10.47499954755263
 42
-0.4142135623730911
 10
15.31721242018942
 20
9.949999547552648
 42
0.0
 10
12.34221242018952
 20
9.949999547552648
 42
0.4142135623731526
 10
11.81721242018942
 20
9.42499954755266
 42
0.0
 10
11.81721242018942
 20
7.67499954755264
 42
0.4142135623731526
 10
12.34221242018952
 20
7.149999547552652
 42
0.0
 10
15.84221242018941
 20
7.149999547552652
 42
0.4142135623731045
 10
18.64221242018948
 20
9.949999547552629
 42
0.0
 10
18.64221242018948
 20
11.76520157290789
 42
0.1989123673796604
 10
17.41206090117293
 20
14.73505005389143
 42
0.0
 97
        0
 92
        7
 72
     1
 73
     1
 93
       16
 10
23.54221242018945
 20
19.04999954755265
 42
-0.4142135623730935
 10
24.94221242018943
 20
20.44999954755264
 42
0.0
 10
26.86721242018939
 20
20.44999954755264
 42
0.4142135623731546
 10
27.39221242018948
 20
20.97499954755263
 42
0.0
 10
27.39221242018948
 20
22.72499954755266
 42
0.4142135623730951
 10
26.8672124201895
 20
23.24999954755264
 42
0.0
 10
24.94221242018932
 20
23.2499995475526
 42
0.4142135623730893
 10
20.74221242018937
 20
19.04999954755258
 42
0.0
 10
20.74221242018937
 20
11.34999954755267
 42
0.4142135623730969
 10
24.94221242018943
 20
7.149999547552652
 42
0.0
 10
26.86721242018939
 20
7.149999547552652
 42
0.4142135623731526
 10
27.39221242018948
 20
7.67499954755264
 42
0.0
 10
27.39221242018948
 20
9.42499954755266
 42
0.4142135623730891
 10
26.8672124201895
 20
9.949999547552648
 42
0.0
 10
24.94221242018943
 20
9.949999547552648
 42
-0.4142135623730928
 10
23.54221242018945
 20
11.34999954755263
 42
0.0
 97
        0
 92
        7
 72
     1
 73
     1
 93
        2
 10
24.24221242018939
 20
15.19999954755264
 42
1.0
 10
27.74221242018939
 20
15.19999954755264
 42
1.0
 97
        0
 92
        7
 72
     1
 73
     1
 93
       26
 10
37.3148589023674
 20
19.20504674111607
 42
0.0
 10
38.37649853550523
 20
22.56690557938566
 42
0.5069206636600134
 10
37.87586763630986
 20
23.24999954755264
 42
0.0
 10
36.17697825670063
 20
23.24999954755264
 42
0.3272098845218764
 10
35.67634735750527
 20
22.88309351571961
 42
0.0
 10
33.80807748287348
 20
16.96690557938572
 42
-0.3272098845219541
 10
33.30744658367802
 20
16.59999954755264
 42
0.0
 10
33.16721242018957
 20
16.59999954755264
 42
-0.4142135623731526
 10
32.64221242018948
 20
17.12499954755263
 42
0.0
 10
32.64221242018948
 20
22.72499954755266
 42
0.4142135623730951
 10
32.1172124201895
 20
23.24999954755264
 42
0.0
 10
30.36721242018938
 20
23.24999954755264
 42
0.4142135623730871
 10
29.84221242018941
 20
22.72499954755266
 42
0.0
 10
29.84221242018941
 20
7.67499954755264
 42
0.4142135623730891
 10
30.36721242018938
 20
7.149999547552652
 42
0.0
 10
32.11721242018938
 20
7.149999547552652
 42
0.4142135623731526
 10
32.64221242018948
 20
7.67499954755264
 42
0.0
 10
32.64221242018948
 20
13.27499954755265
 42
-0.4142135623731526
 10
33.16721242018957
 20
13.79999954755264
 42
0.0
 10
33.30744658367814
 20
13.79999954755264
 42
-0.3272098845218915
 10
33.80807748287348
 20
13.43309351571957
 42
0.0
 10
35.67634735750527
 20
7.516905579385723
 42
0.3272098845218902
 10
36.17697825670063
 20
7.149999547552652
 42
0.0
 10
37.87586763630986
 20
7.149999547552652
 42
0.5069206636600336
 10
38.37649853550523
 20
7.83309351571966
 42
0.0
 10
36.05010715703156
 20
15.19999954755278
 42
0.0
 97
        0
 92
        7
 72
     1
 73
     1
 93
        8
 10
43.49221242018937
 20
22.72499954755266
 42
0.4142135623731546
 10
42.96721242018929
 20
23.24999954755264
 42
0.0
 10
41.21721242018953
 20
23.24999954755264
 42
0.4142135623731507
 10
40.69221242018943
 20
22.72499954755266
 42
0.0
 10
40.69221242018943
 20
7.67499954755264
 42
0.4142135623731526
 10
41.21721242018953
 20
7.149999547552652
 42
0.0
 10
42.96721242018929
 20
7.149999547552652
 42
0.4142135623731526
 10
43.49221242018937
 20
7.67499954755264
 42
0.0
 97
        0
 92
        7
 72
     1
 73
     1
 93
       24
 10
48.39221242018947
 20
19.92499954755265
 42
-0.4142135623731546
 10
48.91721242018957
 20
20.44999954755264
 42
0.0
 10
51.89221242018948
 20
20.44999954755264
 42
0.4142135623730911
 10
52.41721242018945
 20
20.97499954755263
 42
0.0
 10
52.41721242018945
 20
22.72499954755266
 42
0.4142135623730952
 10
51.89221242018948
 20
23.24999954755264
 42
0.0
 10
48.39221242018947
 20
23.24999954755264
 42
0.4142135623731048
 10
45.59221242018941
 20
20.44999954755267
 42
0.0
 10
45.59221242018941
 20
18.6347975221974
 42
0.1989123673796613
 10
46.82236393920595
 20
15.66494904121385
 42
0.0
 10
49.73216191385063
 20
12.75515106656918
 42
-0.1989123673796402
 10
50.14221242018948
 20
11.76520157290811
 42
0.0
 10
50.14221242018948
 20
10.47499954755263
 42
-0.4142135623730911
 10
49.6172124201895
 20
9.949999547552648
 42
0.0
 10
46.64221242018948
 20
9.949999547552648
 42
0.4142135623731526
 10
46.11721242018939
 20
9.42499954755266
 42
0.0
 10
46.11721242018939
 20
7.67499954755264
 42
0.4142135623730891
 10
46.64221242018936
 20
7.149999547552652
 42
0.0
 10
50.14221242018948
 20
7.149999547552652
 42
0.4142135623730925
 10
52.94221242018942
 20
9.949999547552629
 42
0.0
 10
52.94221242018942
 20
11.76520157290789
 42
0.1989123673796675
 10
51.71206090117289
 20
14.73505005389155
 42
0.0
 10
48.80226292652832
 20
17.64484802853606
 42
-0.1989123673796652
 10
48.39221242018947
 20
18.63479752219723
 42
0.0
 97
        0
 92
        7
 72
     1
 73
     1
 93
       16
 10
57.84221242018941
 20
22.72499954755263
 42
0.414213562373103
 10
57.31721242018942
 20
23.24999954755264
 42
0.0
 10
55.56721242018943
 20
23.24999954755264
 42
0.4142135623730871
 10
55.04221242018945
 20
22.72499954755266
 42
0.0
 10
55.04221242018945
 20
9.949999547552629
 42
0.4142135623730927
 10
57.84221242018941
 20
7.149999547552652
 42
0.0
 10
61.34221242018941
 20
7.149999547552652
 42
0.4142135623731045
 10
64.14221242018948
 20
9.949999547552629
 42
0.0
 10
64.14221242018948
 20
22.72499954755266
 42
0.4142135623730951
 10
63.6172124201895
 20
23.24999954755264
 42
0.0
 10
61.86721242018939
 20
23.24999954755264
 42
0.4142135623730871
 10
61.34221242018941
 20
22.72499954755266
 42
0.0
 10
61.34221242018941
 20
10.99999954755262
 42
-0.4142135623730879
 10
60.29221242018945
 20
9.949999547552648
 42
0.0
 10
58.89221242018948
 20
9.949999547552648
 42
-0.4142135623731197
 10
57.84221242018941
 20
10.99999954755262
 42
0.0
 97
        0
 92
        7
 72
     1
 73
     1
 93
        8
 10
69.04221242018945
 20
22.72499954755266
 42
0.4142135623730871
 10
68.51721242018948
 20
23.24999954755264
 42
0.0
 10
66.76721242018948
 20
23.24999954755264
 42
0.4142135623731507
 10
66.24221242018939
 20
22.72499954755266
 42
0.0
 10
66.24221242018939
 20
7.67499954755264
 42
0.4142135623730891
 10
66.76721242018937
 20
7.149999547552652
 42
0.0
 10
68.51721242018948
 20
7.149999547552652
 42
0.4142135623730891
 10
69.04221242018945
 20
7.67499954755264
 42
0.0
 97
        0
 75
     0
 76
     1
 52
0.0
 41
0.2
 77
     0
 78
     2
 53
45.0
 43
-900.9423040692707
 44
-13.20000045244727
 45
-0.4490128060534576
 46
0.4490128060534577
 79
     0
 53
135.0
 43
-900.9423040692707
 44
-13.20000045244727
 45
-0.4490128060534577
 46
-0.4490128060534576
 79
     0
 47
0.057451373970553
 98
        8
 10
16.07985522843159
 20
15.16717319343819
 10
22.40451527184746
 20
18.84406173000365
 10
25.16436815106794
 20
15.51188119362336
 10
30.91406024704542
 20
16.20129719399414
 10
41.83847228436501
 20
16.66090946153576
 10
46.89820116053783
 20
19.41857586395985
 10
56.55768623780863
 20
18.72915746264765
 10
67.82707988503102
 20
19.18876973018927
  0
LINE
  5
53FA
330
1A
100
AcDbEntity
  8
ZUWAKU
100
AcDbLine
 10
24.94221242018943
 20
23.2499995475526
 30
0.0
 11
26.86721242018939
 21
23.24999954755264
 31
0.0
  0
LINE
  5
53FB
330
1A
100
AcDbEntity
  8
ZUWAKU
100
AcDbLine
 10
26.86721242018939
 20
20.44999954755264
 30
0.0
 11
24.94221242018943
 21
20.44999954755264
 31
0.0
  0
LINE
  5
53FC
330
1A
100
AcDbEntity
  8
ZUWAKU
100
AcDbLine
 10
24.94221242018943
 20
9.949999547552648
 30
0.0
 11
26.86721242018939
 21
9.949999547552648
 31
0.0
  0
LINE
  5
53FD
330
1A
100
AcDbEntity
  8
ZUWAKU
100
AcDbLine
 10
26.86721242018939
 20
7.149999547552652
 30
0.0
 11
24.94221242018943
 21
7.149999547552652
 31
0.0
  0
CIRCLE
  5
53FE
330
1A
100
AcDbEntity
  8
ZUWAKU
100
AcDbCircle
 10
25.99221242018938
 20
15.19999954755264
 30
0.0
 40
1.75
  0
ARC
  5
53FF
330
1A
100
AcDbEntity
  8
ZUWAKU
100
AcDbCircle
 10
15.49221242018939
 20
18.63479752219734
 30
0.0
 40
1.399999999999999
100
AcDbArc
 50
180.0000000000015
 51
224.9999999999988
  0
LINE
  5
5400
330
1A
100
AcDbEntity
  8
ZUWAKU
100
AcDbLine
 10
23.54221242018945
 20
19.04999954755264
 30
0.0
 11
23.54221242018945
 21
11.34999954755265
 31
0.0
  0
LINE
  5
5401
330
1A
100
AcDbEntity
  8
ZUWAKU
100
AcDbLine
 10
20.74221242018937
 20
11.34999954755265
 30
0.0
 11
20.74221242018937
 21
19.0499995475526
 31
0.0
  0
ARC
  5
5402
330
1A
100
AcDbEntity
  8
ZUWAKU
100
AcDbCircle
 10
15.49221242018939
 20
18.63479752219734
 30
0.0
 40
4.199999999999998
100
AcDbArc
 50
180.0
 51
225.0
  0
ARC
  5
5403
330
1A
100
AcDbEntity
  8
ZUWAKU
100
AcDbCircle
 10
15.84221242018941
 20
9.949999547552648
 30
0.0
 40
2.799999999999998
100
AcDbArc
 50
270.0
 51
0.0
  0
ARC
  5
5404
330
1A
100
AcDbEntity
  8
ZUWAKU
100
AcDbCircle
 10
24.94221242018943
 20
11.34999954755265
 30
0.0
 40
4.199999999999998
100
AcDbArc
 50
180.0
 51
270.0
  0
ARC
  5
5405
330
1A
100
AcDbEntity
  8
ZUWAKU
100
AcDbCircle
 10
14.44221242018943
 20
11.76520157290795
 30
0.0
 40
4.199999999999998
100
AcDbArc
 50
0.0
 51
45.0
  0
LINE
  5
5406
330
1A
100
AcDbEntity
  8
ZUWAKU
100
AcDbLine
 10
17.41206090117293
 20
14.73505005389147
 30
0.0
 11
14.50226292652825
 21
17.64484802853614
 31
0.0
  0
LINE
  5
5407
330
1A
100
AcDbEntity
  8
ZUWAKU
100
AcDbLine
 10
15.84221242018941
 20
10.47499954755265
 30
0.0
 11
15.84221242018941
 21
11.76520157290799
 31
0.0
  0
ARC
  5
5408
330
1A
100
AcDbEntity
  8
ZUWAKU
100
AcDbCircle
 10
15.31721242018942
 20
10.47499954755265
 30
0.0
 40
0.525
100
AcDbArc
 50
270.0
 51
0.0
  0
ARC
  5
5409
330
1A
100
AcDbEntity
  8
ZUWAKU
100
AcDbCircle
 10
14.44221242018943
 20
11.76520157290799
 30
0.0
 40
1.399999999999999
100
AcDbArc
 50
0.0
 51
45.0
  0
LINE
  5
540A
330
1A
100
AcDbEntity
  8
ZUWAKU
100
AcDbLine
 10
11.81721242018942
 20
7.67499954755265
 30
0.0
 11
11.81721242018942
 21
9.42499954755265
 31
0.0
  0
ARC
  5
540B
330
1A
100
AcDbEntity
  8
ZUWAKU
100
AcDbCircle
 10
12.34221242018941
 20
7.67499954755265
 30
0.0
 40
0.525
100
AcDbArc
 50
180.0
 51
270.0
  0
ARC
  5
540C
330
1A
100
AcDbEntity
  8
ZUWAKU
100
AcDbCircle
 10
12.34221242018941
 20
9.42499954755265
 30
0.0
 40
0.525
100
AcDbArc
 50
90.0
 51
180.0
  0
LINE
  5
540D
330
1A
100
AcDbEntity
  8
ZUWAKU
100
AcDbLine
 10
12.34221242018941
 20
7.149999547552652
 30
0.0
 11
15.84221242018941
 21
7.149999547552652
 31
0.0
  0
LINE
  5
540E
330
1A
100
AcDbEntity
  8
ZUWAKU
100
AcDbLine
 10
12.34221242018941
 20
9.949999547552648
 30
0.0
 11
15.31721242018942
 21
9.949999547552648
 31
0.0
  0
LINE
  5
540F
330
1A
100
AcDbEntity
  8
ZUWAKU
100
AcDbLine
 10
12.52236393920588
 20
15.66494904121382
 30
0.0
 11
15.43216191385055
 21
12.75515106656916
 31
0.0
  0
LINE
  5
5410
330
1A
100
AcDbEntity
  8
ZUWAKU
100
AcDbLine
 10
18.64221242018948
 20
9.949999547552648
 30
0.0
 11
18.64221242018948
 21
11.76520157290799
 31
0.0
  0
ARC
  5
5411
330
1A
100
AcDbEntity
  8
ZUWAKU
100
AcDbCircle
 10
24.94221242018943
 20
11.34999954755265
 30
0.0
 40
1.399999999999999
100
AcDbArc
 50
180.0
 51
270.0
  0
ARC
  5
5412
330
1A
100
AcDbEntity
  8
ZUWAKU
100
AcDbCircle
 10
17.59221242018941
 20
22.72499954755264
 30
0.0
 40
0.525
100
AcDbArc
 50
0.0
 51
90.0
  0
ARC
  5
5413
330
1A
100
AcDbEntity
  8
ZUWAKU
100
AcDbCircle
 10
17.59221242018941
 20
20.97499954755264
 30
0.0
 40
0.525
100
AcDbArc
 50
270.0
 51
0.0
  0
LINE
  5
5414
330
1A
100
AcDbEntity
  8
ZUWAKU
100
AcDbLine
 10
14.09221242018941
 20
23.24999954755264
 30
0.0
 11
17.59221242018941
 21
23.24999954755264
 31
0.0
  0
ARC
  5
5415
330
1A
100
AcDbEntity
  8
ZUWAKU
100
AcDbCircle
 10
14.61721242018938
 20
19.92499954755264
 30
0.0
 40
0.525
100
AcDbArc
 50
90.0
 51
180.0
  0
LINE
  5
5416
330
1A
100
AcDbEntity
  8
ZUWAKU
100
AcDbLine
 10
14.09221242018941
 20
19.92499954755264
 30
0.0
 11
14.09221242018941
 21
18.6347975221973
 31
0.0
  0
LINE
  5
5417
330
1A
100
AcDbEntity
  8
ZUWAKU
100
AcDbLine
 10
17.59221242018941
 20
20.44999954755264
 30
0.0
 11
14.61721242018938
 21
20.44999954755264
 31
0.0
  0
LINE
  5
5418
330
1A
100
AcDbEntity
  8
ZUWAKU
100
AcDbLine
 10
11.29221242018945
 20
20.44999954755264
 30
0.0
 11
11.29221242018945
 21
18.6347975221973
 31
0.0
  0
ARC
  5
5419
330
1A
100
AcDbEntity
  8
ZUWAKU
100
AcDbCircle
 10
14.09221242018941
 20
20.44999954755264
 30
0.0
 40
2.799999999999998
100
AcDbArc
 50
90.0
 51
180.0
  0
LINE
  5
541A
330
1A
100
AcDbEntity
  8
ZUWAKU
100
AcDbLine
 10
18.11721242018939
 20
22.72499954755264
 30
0.0
 11
18.11721242018939
 21
20.97499954755264
 31
0.0
  0
ARC
  5
541B
330
1A
100
AcDbEntity
  8
ZUWAKU
100
AcDbCircle
 10
24.94221242018943
 20
19.04999954755264
 30
0.0
 40
1.399999999999999
100
AcDbArc
 50
90.0
 51
180.0
  0
ARC
  5
541C
330
1A
100
AcDbEntity
  8
ZUWAKU
100
AcDbCircle
 10
24.94221242018943
 20
19.0499995475526
 30
0.0
 40
4.199999999999998
100
AcDbArc
 50
90.0
 51
180.0
  0
LINE
  5
541D
330
1A
100
AcDbEntity
  8
ZUWAKU
100
AcDbLine
 10
79.3266298133965
 20
29.99999954755264
 30
0.0
 11
79.32662981339672
 21
0.7999995475527158
 31
0.0
  0
LINE
  5
541E
330
1A
100
AcDbEntity
  8
ZUWAKU
100
AcDbLine
 10
79.52662981339654
 20
29.99999954755264
 30
0.0
 11
79.52662981339675
 21
0.7999995475527158
 31
0.0
  0
LINE
  5
541F
330
1A
100
AcDbEntity
  8
ZUWAKU
100
AcDbLine
 10
79.12662981339668
 20
29.99999954755264
 30
0.0
 11
79.12662981339668
 21
0.7999995475527158
 31
0.0
  0
LINE
  5
5420
330
1A
100
AcDbEntity
  8
ZUWAKU
100
AcDbLine
 10
64.14221242018948
 20
9.949999547552648
 30
0.0
 11
64.14221242018948
 21
22.72499954755264
 31
0.0
  0
LINE
  5
5421
330
1A
100
AcDbEntity
  8
ZUWAKU
100
AcDbLine
 10
61.34221242018941
 20
22.72499954755264
 30
0.0
 11
61.34221242018941
 21
10.99999954755264
 31
0.0
  0
LINE
  5
5422
330
1A
100
AcDbEntity
  8
ZUWAKU
100
AcDbLine
 10
69.04221242018945
 20
7.67499954755265
 30
0.0
 11
69.04221242018945
 21
22.72499954755264
 31
0.0
  0
LINE
  5
5423
330
1A
100
AcDbEntity
  8
ZUWAKU
100
AcDbLine
 10
66.24221242018939
 20
22.72499954755264
 30
0.0
 11
66.24221242018939
 21
7.67499954755265
 31
0.0
  0
ARC
  5
5424
330
1A
100
AcDbEntity
  8
ZUWAKU
100
AcDbCircle
 10
49.79221242018945
 20
18.63479752219734
 30
0.0
 40
1.399999999999999
100
AcDbArc
 50
180.0000000000015
 51
224.9999999999988
  0
ARC
  5
5425
330
1A
100
AcDbEntity
  8
ZUWAKU
100
AcDbCircle
 10
49.79221242018945
 20
18.63479752219734
 30
0.0
 40
4.199999999999998
100
AcDbArc
 50
180.0
 51
225.0
  0
LINE
  5
5426
330
1A
100
AcDbEntity
  8
ZUWAKU
100
AcDbLine
 10
37.3148589023674
 20
19.20504674111607
 30
0.0
 11
36.05010715703156
 21
15.19999954755266
 31
0.0
  0
LINE
  5
5427
330
1A
100
AcDbEntity
  8
ZUWAKU
100
AcDbLine
 10
40.69221242018943
 20
22.72499954755264
 30
0.0
 11
40.69221242018943
 21
7.67499954755265
 31
0.0
  0
LINE
  5
5428
330
1A
100
AcDbEntity
  8
ZUWAKU
100
AcDbLine
 10
43.49221242018937
 20
7.67499954755265
 30
0.0
 11
43.49221242018937
 21
22.72499954755264
 31
0.0
  0
LINE
  5
5429
330
1A
100
AcDbEntity
  8
ZUWAKU
100
AcDbLine
 10
55.04221242018945
 20
22.72499954755264
 30
0.0
 11
55.04221242018945
 21
9.949999547552648
 31
0.0
  0
LINE
  5
542A
330
1A
100
AcDbEntity
  8
ZUWAKU
100
AcDbLine
 10
57.84221242018941
 20
10.99999954755264
 30
0.0
 11
57.84221242018941
 21
22.72499954755264
 31
0.0
  0
LINE
  5
542B
330
1A
100
AcDbEntity
  8
ZUWAKU
100
AcDbLine
 10
32.64221242018948
 20
17.12499954755265
 30
0.0
 11
32.64221242018948
 21
22.72499954755264
 31
0.0
  0
LINE
  5
542C
330
1A
100
AcDbEntity
  8
ZUWAKU
100
AcDbLine
 10
29.84221242018941
 20
22.72499954755264
 30
0.0
 11
29.84221242018941
 21
7.67499954755265
 31
0.0
  0
LINE
  5
542D
330
1A
100
AcDbEntity
  8
ZUWAKU
100
AcDbLine
 10
35.67634735750527
 20
22.88309351571961
 30
0.0
 11
33.80807748287348
 21
16.96690557938567
 31
0.0
  0
LINE
  5
542E
330
1A
100
AcDbEntity
  8
ZUWAKU
100
AcDbLine
 10
60.29221242018945
 20
9.949999547552648
 30
0.0
 11
58.89221242018948
 21
9.949999547552648
 31
0.0
  0
LINE
  5
542F
330
1A
100
AcDbEntity
  8
ZUWAKU
100
AcDbLine
 10
57.84221242018941
 20
7.149999547552652
 30
0.0
 11
61.34221242018941
 21
7.149999547552652
 31
0.0
  0
LINE
  5
5430
330
1A
100
AcDbEntity
  8
ZUWAKU
100
AcDbLine
 10
41.21721242018941
 20
7.149999547552652
 30
0.0
 11
42.96721242018941
 21
7.149999547552652
 31
0.0
  0
LINE
  5
5431
330
1A
100
AcDbEntity
  8
ZUWAKU
100
AcDbLine
 10
35.67634735750527
 20
7.516905579385677
 30
0.0
 11
33.80807748287348
 21
13.43309351571961
 31
0.0
  0
ARC
  5
5432
330
1A
100
AcDbEntity
  8
ZUWAKU
100
AcDbCircle
 10
33.30744658367814
 20
17.12499954755265
 30
0.0
 40
0.525
100
AcDbArc
 50
270.0
 51
342.4744316262769
  0
LINE
  5
5433
330
1A
100
AcDbEntity
  8
ZUWAKU
100
AcDbLine
 10
33.30744658367814
 20
16.59999954755264
 30
0.0
 11
33.16721242018945
 21
16.59999954755264
 31
0.0
  0
LINE
  5
5434
330
1A
100
AcDbEntity
  8
ZUWAKU
100
AcDbLine
 10
33.16721242018945
 20
13.79999954755264
 30
0.0
 11
33.30744658367814
 21
13.79999954755264
 31
0.0
  0
ARC
  5
5435
330
1A
100
AcDbEntity
  8
ZUWAKU
100
AcDbCircle
 10
33.16721242018945
 20
17.12499954755265
 30
0.0
 40
0.525
100
AcDbArc
 50
180.0
 51
270.0
  0
LINE
  5
5436
330
1A
100
AcDbEntity
  8
ZUWAKU
100
AcDbLine
 10
30.36721242018938
 20
7.149999547552652
 30
0.0
 11
32.11721242018938
 21
7.149999547552652
 31
0.0
  0
ARC
  5
5437
330
1A
100
AcDbEntity
  8
ZUWAKU
100
AcDbCircle
 10
32.11721242018938
 20
7.67499954755265
 30
0.0
 40
0.525
100
AcDbArc
 50
270.0
 51
0.0
  0
LINE
  5
5438
330
1A
100
AcDbEntity
  8
ZUWAKU
100
AcDbLine
 10
32.64221242018948
 20
7.67499954755265
 30
0.0
 11
32.64221242018948
 21
13.27499954755264
 31
0.0
  0
LINE
  5
5439
330
1A
100
AcDbEntity
  8
ZUWAKU
100
AcDbLine
 10
27.39221242018948
 20
9.42499954755265
 30
0.0
 11
27.39221242018948
 21
7.67499954755265
 31
0.0
  0
ARC
  5
543A
330
1A
100
AcDbEntity
  8
ZUWAKU
100
AcDbCircle
 10
26.86721242018939
 20
7.67499954755265
 30
0.0
 40
0.525
100
AcDbArc
 50
270.0
 51
0.0
  0
ARC
  5
543B
330
1A
100
AcDbEntity
  8
ZUWAKU
100
AcDbCircle
 10
26.86721242018939
 20
9.42499954755265
 30
0.0
 40
0.525
100
AcDbArc
 50
0.0
 51
90.0
  0
ARC
  5
543C
330
1A
100
AcDbEntity
  8
ZUWAKU
100
AcDbCircle
 10
30.36721242018938
 20
7.67499954755265
 30
0.0
 40
0.525
100
AcDbArc
 50
180.0
 51
270.0
  0
ARC
  5
543D
330
1A
100
AcDbEntity
  8
ZUWAKU
100
AcDbCircle
 10
33.30744658367814
 20
13.27499954755264
 30
0.0
 40
0.525
100
AcDbArc
 50
17.52556837372303
 51
90.0
  0
ARC
  5
543E
330
1A
100
AcDbEntity
  8
ZUWAKU
100
AcDbCircle
 10
33.16721242018945
 20
13.27499954755264
 30
0.0
 40
0.525
100
AcDbArc
 50
90.0
 51
180.0
  0
ARC
  5
543F
330
1A
100
AcDbEntity
  8
ZUWAKU
100
AcDbCircle
 10
41.21721242018941
 20
7.67499954755265
 30
0.0
 40
0.525
100
AcDbArc
 50
180.0
 51
270.0
  0
LINE
  5
5440
330
1A
100
AcDbEntity
  8
ZUWAKU
100
AcDbLine
 10
36.17697825670074
 20
7.149999547552652
 30
0.0
 11
37.87586763630975
 21
7.149999547552652
 31
0.0
  0
ARC
  5
5441
330
1A
100
AcDbEntity
  8
ZUWAKU
100
AcDbCircle
 10
37.87586763630975
 20
7.67499954755265
 30
0.0
 40
0.525
100
AcDbArc
 50
270.0
 51
17.52556837372303
  0
LINE
  5
5442
330
1A
100
AcDbEntity
  8
ZUWAKU
100
AcDbLine
 10
38.37649853550523
 20
7.833093515719625
 30
0.0
 11
36.05010715703156
 21
15.19999954755266
 31
0.0
  0
ARC
  5
5443
330
1A
100
AcDbEntity
  8
ZUWAKU
100
AcDbCircle
 10
36.17697825670074
 20
7.67499954755265
 30
0.0
 40
0.525
100
AcDbArc
 50
197.5255683737229
 51
270.0
  0
ARC
  5
5444
330
1A
100
AcDbEntity
  8
ZUWAKU
100
AcDbCircle
 10
57.84221242018941
 20
9.949999547552648
 30
0.0
 40
2.799999999999998
100
AcDbArc
 50
180.0
 51
270.0
  0
ARC
  5
5445
330
1A
100
AcDbEntity
  8
ZUWAKU
100
AcDbCircle
 10
50.14221242018948
 20
9.949999547552648
 30
0.0
 40
2.799999999999998
100
AcDbArc
 50
270.0
 51
0.0
  0
LINE
  5
5446
330
1A
100
AcDbEntity
  8
ZUWAKU
100
AcDbLine
 10
51.712060901173
 20
14.73505005389147
 30
0.0
 11
48.80226292652822
 21
17.64484802853614
 31
0.0
  0
LINE
  5
5447
330
1A
100
AcDbEntity
  8
ZUWAKU
100
AcDbLine
 10
50.14221242018948
 20
10.47499954755265
 30
0.0
 11
50.14221242018948
 21
11.76520157290799
 31
0.0
  0
ARC
  5
5448
330
1A
100
AcDbEntity
  8
ZUWAKU
100
AcDbCircle
 10
48.74221242018939
 20
11.76520157290799
 30
0.0
 40
1.399999999999999
100
AcDbArc
 50
0.0
 51
45.0
  0
ARC
  5
5449
330
1A
100
AcDbEntity
  8
ZUWAKU
100
AcDbCircle
 10
49.61721242018938
 20
10.47499954755265
 30
0.0
 40
0.525
100
AcDbArc
 50
270.0
 51
0.0
  0
LINE
  5
544A
330
1A
100
AcDbEntity
  8
ZUWAKU
100
AcDbLine
 10
46.11721242018939
 20
7.67499954755265
 30
0.0
 11
46.11721242018939
 21
9.42499954755265
 31
0.0
  0
ARC
  5
544B
330
1A
100
AcDbEntity
  8
ZUWAKU
100
AcDbCircle
 10
46.64221242018948
 20
7.67499954755265
 30
0.0
 40
0.525
100
AcDbArc
 50
180.0
 51
270.0
  0
ARC
  5
544C
330
1A
100
AcDbEntity
  8
ZUWAKU
100
AcDbCircle
 10
42.96721242018941
 20
7.67499954755265
 30
0.0
 40
0.525
100
AcDbArc
 50
270.0
 51
0.0
  0
ARC
  5
544D
330
1A
100
AcDbEntity
  8
ZUWAKU
100
AcDbCircle
 10
46.64221242018948
 20
9.42499954755265
 30
0.0
 40
0.525
100
AcDbArc
 50
90.0
 51
180.0
  0
LINE
  5
544E
330
1A
100
AcDbEntity
  8
ZUWAKU
100
AcDbLine
 10
46.64221242018948
 20
9.949999547552648
 30
0.0
 11
49.61721242018938
 21
9.949999547552648
 31
0.0
  0
LINE
  5
544F
330
1A
100
AcDbEntity
  8
ZUWAKU
100
AcDbLine
 10
46.64221242018948
 20
7.149999547552652
 30
0.0
 11
50.14221242018948
 21
7.149999547552652
 31
0.0
  0
LINE
  5
5450
330
1A
100
AcDbEntity
  8
ZUWAKU
100
AcDbLine
 10
46.82236393920595
 20
15.66494904121382
 30
0.0
 11
49.73216191385063
 21
12.75515106656916
 31
0.0
  0
LINE
  5
5451
330
1A
100
AcDbEntity
  8
ZUWAKU
100
AcDbLine
 10
52.94221242018942
 20
9.949999547552648
 30
0.0
 11
52.94221242018942
 21
11.76520157290799
 31
0.0
  0
ARC
  5
5452
330
1A
100
AcDbEntity
  8
ZUWAKU
100
AcDbCircle
 10
48.74221242018939
 20
11.76520157290795
 30
0.0
 40
4.199999999999998
100
AcDbArc
 50
0.0
 51
45.0
  0
ARC
  5
5453
330
1A
100
AcDbEntity
  8
ZUWAKU
100
AcDbCircle
 10
58.89221242018948
 20
10.99999954755264
 30
0.0
 40
1.049999999999998
100
AcDbArc
 50
180.0
 51
270.0
  0
ARC
  5
5454
330
1A
100
AcDbEntity
  8
ZUWAKU
100
AcDbCircle
 10
61.34221242018941
 20
9.949999547552648
 30
0.0
 40
2.799999999999998
100
AcDbArc
 50
270.0
 51
0.0
  0
LINE
  5
5455
330
1A
100
AcDbEntity
  8
ZUWAKU
100
AcDbLine
 10
66.76721242018948
 20
7.149999547552652
 30
0.0
 11
68.51721242018948
 21
7.149999547552652
 31
0.0
  0
ARC
  5
5456
330
1A
100
AcDbEntity
  8
ZUWAKU
100
AcDbCircle
 10
66.76721242018948
 20
7.67499954755265
 30
0.0
 40
0.525
100
AcDbArc
 50
180.0
 51
270.0
  0
ARC
  5
5457
330
1A
100
AcDbEntity
  8
ZUWAKU
100
AcDbCircle
 10
60.29221242018945
 20
10.99999954755264
 30
0.0
 40
1.049999999999998
100
AcDbArc
 50
270.0
 51
0.0
  0
ARC
  5
5458
330
1A
100
AcDbEntity
  8
ZUWAKU
100
AcDbCircle
 10
68.51721242018948
 20
7.67499954755265
 30
0.0
 40
0.525
100
AcDbArc
 50
270.0
 51
0.0
  0
LINE
  5
5459
330
1A
100
AcDbEntity
  8
ZUWAKU
100
AcDbLine
 10
42.96721242018941
 20
23.24999954755264
 30
0.0
 11
41.21721242018941
 21
23.24999954755264
 31
0.0
  0
ARC
  5
545A
330
1A
100
AcDbEntity
  8
ZUWAKU
100
AcDbCircle
 10
32.11721242018938
 20
22.72499954755264
 30
0.0
 40
0.525
100
AcDbArc
 50
0.0
 51
90.0
  0
LINE
  5
545B
330
1A
100
AcDbEntity
  8
ZUWAKU
100
AcDbLine
 10
32.11721242018938
 20
23.24999954755264
 30
0.0
 11
30.36721242018938
 21
23.24999954755264
 31
0.0
  0
ARC
  5
545C
330
1A
100
AcDbEntity
  8
ZUWAKU
100
AcDbCircle
 10
26.86721242018939
 20
22.72499954755264
 30
0.0
 40
0.525
100
AcDbArc
 50
0.0
 51
90.0
  0
ARC
  5
545D
330
1A
100
AcDbEntity
  8
ZUWAKU
100
AcDbCircle
 10
30.36721242018938
 20
22.72499954755264
 30
0.0
 40
0.525
100
AcDbArc
 50
90.0
 51
180.0
  0
ARC
  5
545E
330
1A
100
AcDbEntity
  8
ZUWAKU
100
AcDbCircle
 10
26.86721242018939
 20
20.97499954755264
 30
0.0
 40
0.525
100
AcDbArc
 50
270.0
 51
0.0
  0
LINE
  5
545F
330
1A
100
AcDbEntity
  8
ZUWAKU
100
AcDbLine
 10
27.39221242018948
 20
22.72499954755264
 30
0.0
 11
27.39221242018948
 21
20.97499954755264
 31
0.0
  0
ARC
  5
5460
330
1A
100
AcDbEntity
  8
ZUWAKU
100
AcDbCircle
 10
41.21721242018941
 20
22.72499954755264
 30
0.0
 40
0.525
100
AcDbArc
 50
90.0
 51
180.0
  0
LINE
  5
5461
330
1A
100
AcDbEntity
  8
ZUWAKU
100
AcDbLine
 10
36.17697825670074
 20
23.24999954755264
 30
0.0
 11
37.87586763630975
 21
23.24999954755264
 31
0.0
  0
ARC
  5
5462
330
1A
100
AcDbEntity
  8
ZUWAKU
100
AcDbCircle
 10
37.87586763630975
 20
22.72499954755264
 30
0.0
 40
0.525
100
AcDbArc
 50
342.4744316262769
 51
90.0
  0
LINE
  5
5463
330
1A
100
AcDbEntity
  8
ZUWAKU
100
AcDbLine
 10
38.37649853550523
 20
22.56690557938568
 30
0.0
 11
37.3148589023674
 21
19.20504674111607
 31
0.0
  0
ARC
  5
5464
330
1A
100
AcDbEntity
  8
ZUWAKU
100
AcDbCircle
 10
36.17697825670074
 20
22.72499954755264
 30
0.0
 40
0.525
100
AcDbArc
 50
90.0
 51
162.4744316262769
  0
LINE
  5
5465
330
1A
100
AcDbEntity
  8
ZUWAKU
100
AcDbLine
 10
48.39221242018947
 20
23.24999954755264
 30
0.0
 11
51.89221242018948
 21
23.24999954755264
 31
0.0
  0
LINE
  5
5466
330
1A
100
AcDbEntity
  8
ZUWAKU
100
AcDbLine
 10
51.89221242018948
 20
20.44999954755264
 30
0.0
 11
48.91721242018945
 21
20.44999954755264
 31
0.0
  0
ARC
  5
5467
330
1A
100
AcDbEntity
  8
ZUWAKU
100
AcDbCircle
 10
48.91721242018945
 20
19.92499954755264
 30
0.0
 40
0.525
100
AcDbArc
 50
90.0
 51
180.0
  0
LINE
  5
5468
330
1A
100
AcDbEntity
  8
ZUWAKU
100
AcDbLine
 10
48.39221242018947
 20
19.92499954755264
 30
0.0
 11
48.39221242018947
 21
18.6347975221973
 31
0.0
  0
ARC
  5
5469
330
1A
100
AcDbEntity
  8
ZUWAKU
100
AcDbCircle
 10
42.96721242018941
 20
22.72499954755264
 30
0.0
 40
0.525
100
AcDbArc
 50
0.0
 51
90.0
  0
LINE
  5
546A
330
1A
100
AcDbEntity
  8
ZUWAKU
100
AcDbLine
 10
45.59221242018941
 20
20.44999954755264
 30
0.0
 11
45.59221242018941
 21
18.6347975221973
 31
0.0
  0
ARC
  5
546B
330
1A
100
AcDbEntity
  8
ZUWAKU
100
AcDbCircle
 10
48.39221242018947
 20
20.44999954755264
 30
0.0
 40
2.799999999999998
100
AcDbArc
 50
90.0
 51
180.0
  0
ARC
  5
546C
330
1A
100
AcDbEntity
  8
ZUWAKU
100
AcDbCircle
 10
57.31721242018942
 20
22.72499954755264
 30
0.0
 40
0.525
100
AcDbArc
 50
0.0
 51
90.0
  0
ARC
  5
546D
330
1A
100
AcDbEntity
  8
ZUWAKU
100
AcDbCircle
 10
55.56721242018943
 20
22.72499954755264
 30
0.0
 40
0.525
100
AcDbArc
 50
90.0
 51
180.0
  0
LINE
  5
546E
330
1A
100
AcDbEntity
  8
ZUWAKU
100
AcDbLine
 10
57.31721242018942
 20
23.24999954755264
 30
0.0
 11
55.56721242018943
 21
23.24999954755264
 31
0.0
  0
ARC
  5
546F
330
1A
100
AcDbEntity
  8
ZUWAKU
100
AcDbCircle
 10
51.89221242018948
 20
22.72499954755264
 30
0.0
 40
0.525
100
AcDbArc
 50
0.0
 51
90.0
  0
ARC
  5
5470
330
1A
100
AcDbEntity
  8
ZUWAKU
100
AcDbCircle
 10
51.89221242018948
 20
20.97499954755264
 30
0.0
 40
0.525
100
AcDbArc
 50
270.0
 51
0.0
  0
LINE
  5
5471
330
1A
100
AcDbEntity
  8
ZUWAKU
100
AcDbLine
 10
52.41721242018945
 20
22.72499954755264
 30
0.0
 11
52.41721242018945
 21
20.97499954755264
 31
0.0
  0
LINE
  5
5472
330
1A
100
AcDbEntity
  8
ZUWAKU
100
AcDbLine
 10
68.51721242018948
 20
23.24999954755264
 30
0.0
 11
66.76721242018948
 21
23.24999954755264
 31
0.0
  0
ARC
  5
5473
330
1A
100
AcDbEntity
  8
ZUWAKU
100
AcDbCircle
 10
66.76721242018948
 20
22.72499954755264
 30
0.0
 40
0.525
100
AcDbArc
 50
90.0
 51
180.0
  0
ARC
  5
5474
330
1A
100
AcDbEntity
  8
ZUWAKU
100
AcDbCircle
 10
63.61721242018939
 20
22.72499954755264
 30
0.0
 40
0.525
100
AcDbArc
 50
0.0
 51
90.0
  0
LINE
  5
5475
330
1A
100
AcDbEntity
  8
ZUWAKU
100
AcDbLine
 10
63.61721242018939
 20
23.24999954755264
 30
0.0
 11
61.86721242018939
 21
23.24999954755264
 31
0.0
  0
ARC
  5
5476
330
1A
100
AcDbEntity
  8
ZUWAKU
100
AcDbCircle
 10
61.86721242018939
 20
22.72499954755264
 30
0.0
 40
0.525
100
AcDbArc
 50
90.0
 51
180.0
  0
ARC
  5
5477
330
1A
100
AcDbEntity
  8
ZUWAKU
100
AcDbCircle
 10
68.51721242018948
 20
22.72499954755264
 30
0.0
 40
0.525
100
AcDbArc
 50
0.0
 51
90.0
  0
TEXT
  5
5478
330
1A
100
AcDbEntity
  8
MOJI
100
AcDbText
 10
239.8272029462592
 20
18.00492060496003
 30
0.0
 40
5.599999999999998
  1
ブラケット正面打（吊）固定式
 41
0.9
  7
ｽﾀｲﾙ1
100
AcDbText
  0
TEXT
  5
5479
330
1A
100
AcDbEntity
  8
MOJI
100
AcDbText
 10
239.8272029462592
 20
3.204920604960068
 30
0.0
 40
5.599999999999998
  1
１２０－４－２０
 41
0.9
  7
ｽﾀｲﾙ1
100
AcDbText
  0
LINE
  5
547A
330
1A
100
AcDbEntity
  8
ZUWAKU
100
AcDbLine
 10
208.2466015554762
 20
29.99999954755264
 30
0.0
 11
208.2466015554762
 21
0.7999995475527158
 31
0.0
  0
LINE
  5
547B
330
1A
100
AcDbEntity
  8
ZUWAKU
100
AcDbLine
 10
208.646601555476
 20
29.99999954755264
 30
0.0
 11
208.6466015554762
 21
0.7999995475527158
 31
0.0
  0
LINE
  5
547C
330
1A
100
AcDbEntity
  8
ZUWAKU
100
AcDbLine
 10
208.4466015554759
 20
29.99999954755264
 30
0.0
 11
208.4466015554762
 21
0.7999995475527158
 31
0.0
  0
TEXT
  5
547D
330
1A
100
AcDbEntity
  8
ZUWAKU
100
AcDbText
 10
209.7240465776857
 20
9.655356085938265
 30
0.0
 40
4.0
  1
サイズ
 41
0.9
  7
ｽﾀｲﾙ1
100
AcDbText
  0
TEXT
  5
547E
330
1A
100
AcDbEntity
  8
ZUWAKU
100
AcDbText
 10
209.7240465776855
 20
24.05535608593822
 30
0.0
 40
4.0
  1
品名
 41
0.9
  7
ｽﾀｲﾙ1
100
AcDbText
  0
TEXT
  5
547F
330
1A
100
AcDbEntity
  8
ZUWAKU
100
AcDbText
 10
654.5120762650951
 20
18.00492060496003
 30
0.0
 40
5.599999999999998
  1
　　．　．　　
 41
0.9
  7
ｽﾀｲﾙ1
100
AcDbText
  0
LINE
  5
5480
330
1A
100
AcDbEntity
  8
ZUWAKU
100
AcDbLine
 10
648.8172027756125
 20
15.19999954755267
 30
0.0
 11
697.2490108139496
 21
15.19999954755267
 31
0.0
  0
LINE
  5
5481
330
1A
100
AcDbEntity
  8
ZUWAKU
100
AcDbLine
 10
648.8172027756125
 20
15.39999954755268
 30
0.0
 11
697.2490108139496
 21
15.39999954755267
 31
0.0
  0
LINE
  5
5482
330
1A
100
AcDbEntity
  8
ZUWAKU
100
AcDbLine
 10
648.8172027756125
 20
15.59999954755267
 30
0.0
 11
697.2490108139496
 21
15.59999954755267
 31
0.0
  0
LINE
  5
5483
330
1A
100
AcDbEntity
  8
ZUWAKU
100
AcDbLine
 10
505.1991797635491
 20
15.19999954755268
 30
0.0
 11
552.5269560315207
 21
15.19999954755268
 31
0.0
  0
LINE
  5
5484
330
1A
100
AcDbEntity
  8
ZUWAKU
100
AcDbLine
 10
505.1991797635491
 20
15.39999954755267
 30
0.0
 11
552.5269560315207
 21
15.39999954755267
 31
0.0
  0
LINE
  5
5485
330
1A
100
AcDbEntity
  8
ZUWAKU
100
AcDbLine
 10
505.1991797635491
 20
15.59999954755267
 30
0.0
 11
552.5269560315207
 21
15.59999954755267
 31
0.0
  0
LINE
  5
5486
330
1A
100
AcDbEntity
  8
ZUWAKU
100
AcDbLine
 10
447.6243642363995
 20
29.99999954755264
 30
0.0
 11
447.6243642363995
 21
0.7999995475527158
 31
0.0
  0
LINE
  5
5487
330
1A
100
AcDbEntity
  8
ZUWAKU
100
AcDbLine
 10
447.8243642363994
 20
29.99999954755264
 30
0.0
 11
447.8243642363998
 21
0.7999995475527158
 31
0.0
  0
LINE
  5
5488
330
1A
100
AcDbEntity
  8
ZUWAKU
100
AcDbLine
 10
447.4243642363996
 20
29.99999954755264
 30
0.0
 11
447.4243642363996
 21
0.7999995475527158
 31
0.0
  0
TEXT
  5
5489
330
1A
100
AcDbEntity
  8
MOJI
100
AcDbText
 10
528.0409082377211
 20
18.00492060496003
 30
0.0
 40
5.599999999999998
  1
Ａ３
 41
0.9
  7
ｽﾀｲﾙ1
100
AcDbText
  0
LINE
  5
548A
330
1A
100
AcDbEntity
  8
ZUWAKU
100
AcDbLine
 10
504.9991797635491
 20
29.99999954755264
 30
0.0
 11
504.9991797635492
 21
0.7999995475527158
 31
0.0
  0
LINE
  5
548B
330
1A
100
AcDbEntity
  8
ZUWAKU
100
AcDbLine
 10
505.1991797635491
 20
29.99999954755264
 30
0.0
 11
505.1991797635493
 21
0.7999995475527158
 31
0.0
  0
LINE
  5
548C
330
1A
100
AcDbEntity
  8
ZUWAKU
100
AcDbLine
 10
504.7991797635492
 20
29.99999954755264
 30
0.0
 11
504.7991797635492
 21
0.7999995475527158
 31
0.0
  0
TEXT
  5
548D
330
1A
100
AcDbEntity
  8
MOJI
100
AcDbText
 10
463.2464322564103
 20
11.94261726921262
 30
0.0
 40
5.599999999999998
  1
ＬＬ６６Ｔ
 41
0.9
  7
ｽﾀｲﾙ1
100
AcDbText
  0
TEXT
  5
548E
330
1A
100
AcDbEntity
  8
ZUWAKU
100
AcDbText
 10
506.6766247857589
 20
9.655356085938265
 30
0.0
 40
4.0
  1
縮尺
 41
0.9
  7
ｽﾀｲﾙ1
100
AcDbText
  0
TEXT
  5
548F
330
1A
100
AcDbEntity
  8
MOJI
100
AcDbText
 10
528.0409082377211
 20
3.204920604960068
 30
0.0
 40
5.599999999999998
  1
１/２
 41
0.9
  7
ｽﾀｲﾙ1
100
AcDbText
  0
TEXT
  5
5490
330
1A
100
AcDbEntity
  8
ZUWAKU
100
AcDbText
 10
449.3018092586091
 20
24.05535608593822
 30
0.0
 40
4.0
  1
品番
 41
0.9
  7
ｽﾀｲﾙ1
100
AcDbText
  0
TEXT
  5
5491
330
1A
100
AcDbEntity
  8
ZUWAKU
100
AcDbText
 10
506.6766247857587
 20
24.05535608593822
 30
0.0
 40
4.0
  1
用紙
 41
0.9
  7
ｽﾀｲﾙ1
100
AcDbText
  0
LINE
  5
5492
330
1A
100
AcDbEntity
  8
ZUWAKU
100
AcDbLine
 10
648.6172027756124
 20
29.99999954755264
 30
0.0
 11
648.6172027756128
 21
0.7999995475527158
 31
0.0
  0
LINE
  5
5493
330
1A
100
AcDbEntity
  8
ZUWAKU
100
AcDbLine
 10
648.8172027756125
 20
29.99999954755264
 30
0.0
 11
648.817202775613
 21
0.7999995475527158
 31
0.0
  0
LINE
  5
5494
330
1A
100
AcDbEntity
  8
ZUWAKU
100
AcDbLine
 10
648.4172027756128
 20
29.99999954755264
 30
0.0
 11
648.4172027756128
 21
0.7999995475527158
 31
0.0
  0
LINE
  5
5495
330
1A
100
AcDbEntity
  8
ZUWAKU
100
AcDbLine
 10
552.7269560315207
 20
29.99999954755264
 30
0.0
 11
552.7269560315207
 21
0.7999995475527158
 31
0.0
  0
LINE
  5
5496
330
1A
100
AcDbEntity
  8
ZUWAKU
100
AcDbLine
 10
552.9269560315206
 20
29.99999954755264
 30
0.0
 11
552.9269560315206
 21
0.7999995475527158
 31
0.0
  0
LINE
  5
5497
330
1A
100
AcDbEntity
  8
ZUWAKU
100
AcDbLine
 10
552.5269560315207
 20
29.99999954755264
 30
0.0
 11
552.5269560315207
 21
0.7999995475527158
 31
0.0
  0
TEXT
  5
5498
330
1A
100
AcDbEntity
  8
ZUWAKU
100
AcDbText
 10
650.2946477978222
 20
24.05535608593822
 30
0.0
 40
4.0
  1
DATE
 41
0.9
  7
ｽﾀｲﾙ1
100
AcDbText
  0
LINE
  5
5499
330
1A
100
AcDbEntity
  8
ZUWAKU
100
AcDbLine
 10
697.2490108139496
 20
29.99999954755264
 30
0.0
 11
697.2490108139496
 21
0.7999995475527158
 31
0.0
  0
LINE
  5
549A
330
1A
100
AcDbEntity
  8
ZUWAKU
100
AcDbLine
 10
697.4490108139495
 20
29.99999954755264
 30
0.0
 11
697.4490108139495
 21
0.7999995475527158
 31
0.0
  0
LINE
  5
549B
330
1A
100
AcDbEntity
  8
ZUWAKU
100
AcDbLine
 10
697.6490108139493
 20
29.99999954755264
 30
0.0
 11
697.6490108139496
 21
0.7999995475527158
 31
0.0
  0
LINE
  5
549C
330
1A
100
AcDbEntity
  8
ZUWAKU
100
AcDbLine
 10
697.8490108139496
 20
29.99999954755264
 30
0.0
 11
697.8490108139496
 21
0.7999995475527158
 31
0.0
  0
TEXT
  5
549D
330
1A
100
AcDbEntity
  8
ZUWAKU
100
AcDbText
 10
708.5280844576519
 20
17.55383888323944
 30
0.0
 40
6.0
  1
積水化学工業株式会社
 41
0.9
  7
ｽﾀｲﾙ1
100
AcDbText
  0
TEXT
  5
549E
330
1A
100
AcDbEntity
  8
ZUWAKU
100
AcDbText
 10
708.5280844576519
 20
6.648839861406712
 30
0.0
 40
6.0
  1
建材事業部
 41
0.9
  7
ｽﾀｲﾙ1
100
AcDbText
  0
ARC
  5
54AD
330
1A
100
AcDbEntity
  8
SEIHIN
100
AcDbCircle
 10
414.2554761096032
 20
372.36671616609
 30
0.0
 40
5.0
100
AcDbArc
 50
0.0000000000012977
 51
90.0
  0
ARC
  5
54AE
330
1A
100
AcDbEntity
  8
SEIHIN
100
AcDbCircle
 10
412.685984367403
 20
372.36671616609
 30
0.0
 40
5.0
100
AcDbArc
 50
0.0
 51
90.0
  0
ELLIPSE
  5
54AF
330
1A
100
AcDbEntity
  8
SEIHIN
100
AcDbEllipse
 10
452.2175704789216
 20
393.8667161660905
 30
0.0
 11
-0.3761340858862923
 21
5.688417332239339
 31
0.0
210
0.0
220
0.0
230
1.0
 40
0.4078030508792099
 41
6.283185307179586
 42
7.827023086819158
  0
LINE
  5
54B0
330
1A
100
AcDbEntity
  8
SEIHIN
100
AcDbLine
 10
451.0374038598217
 20
403.3667161660905
 30
0.0
 11
451.1824653395219
 21
403.3064902799906
 31
0.0
  0
LINE
  5
54B1
330
1A
100
AcDbEntity
  8
SEIHIN
100
AcDbLine
 10
451.1824653395219
 20
403.3064902799906
 30
0.0
 11
451.3217025151218
 21
403.1282307264905
 31
0.0
  0
LINE
  5
54B2
330
1A
100
AcDbEntity
  8
SEIHIN
100
AcDbLine
 10
451.3217025151218
 20
403.1282307264905
 30
0.0
 11
451.4495249318217
 21
402.8390947319905
 31
0.0
  0
LINE
  5
54B3
330
1A
100
AcDbEntity
  8
SEIHIN
100
AcDbLine
 10
451.4495249318217
 20
402.8390947319905
 30
0.0
 11
451.5608004439218
 21
402.4506912774906
 31
0.0
  0
LINE
  5
54B4
330
1A
100
AcDbEntity
  8
SEIHIN
100
AcDbLine
 10
451.5608004439218
 20
402.4506912774906
 30
0.0
 11
451.6510612740218
 21
401.9786149910905
 31
0.0
  0
LINE
  5
54B5
330
1A
100
AcDbEntity
  8
SEIHIN
100
AcDbLine
 10
451.6510612740218
 20
401.9786149910905
 30
0.0
 11
451.7166833964218
 21
401.4418200146906
 31
0.0
  0
LINE
  5
54B6
330
1A
100
AcDbEntity
  8
SEIHIN
100
AcDbLine
 10
451.7166833964218
 20
401.4418200146906
 30
0.0
 11
451.8414363930353
 21
399.5551334983298
 31
0.0
  0
LINE
  5
54B7
330
1A
100
AcDbEntity
  8
SEIHIN
100
AcDbLine
 10
449.8885206407811
 20
393.8667161660905
 30
0.0
 11
434.5993933885229
 21
393.8667161660909
 31
0.0
  0
ELLIPSE
  5
54B8
330
1A
100
AcDbEntity
  8
SEIHIN
100
AcDbEllipse
 10
451.0880939251673
 20
393.8667161660905
 30
0.0
 11
-0.3761340858862923
 21
5.688417332239339
 31
0.0
210
0.0
220
0.0
230
1.0
 40
0.4078030508792099
 41
6.283185307179586
 42
7.827023086819158
  0
ARC
  5
54B9
330
1A
100
AcDbEntity
  8
SEIHIN
100
AcDbCircle
 10
293.1163020665863
 20
252.2913822601244
 30
0.0
 40
0.5000000000329408
100
AcDbArc
 50
340.7099537855062
 51
89.99999999805236
  0
ARC
  5
54BA
330
1A
100
AcDbEntity
  8
SEIHIN
100
AcDbCircle
 10
306.3849435702515
 20
232.2913822604183
 30
0.0
 40
13.49999999973906
100
AcDbArc
 50
48.2657586056382
 51
90.00000000020408
  0
ARC
  5
54BB
330
1A
100
AcDbEntity
  8
SEIHIN
100
AcDbCircle
 10
309.3417942669032
 20
229.7913822601574
 30
0.0
 40
10.00000000000002
100
AcDbArc
 50
51.3055968678994
 51
90.0
  0
ARC
  5
54BC
330
1A
100
AcDbEntity
  8
SEIHIN
100
AcDbCircle
 10
417.5922450001031
 20
222.8270820290573
 30
0.0
 40
30.00000000000001
100
AcDbArc
 50
90.00000230820202
 51
134.4052601452974
  0
ARC
  5
54BE
330
1A
100
AcDbEntity
  8
SEIHIN
100
AcDbCircle
 10
417.5922450003326
 20
222.8270820285056
 30
0.0
 40
26.50000000059276
100
AcDbArc
 50
105.3008506698625
 51
134.4052601449432
  0
ARC
  5
54BF
330
1A
100
AcDbEntity
  8
SEIHIN
100
AcDbCircle
 10
412.7103286420354
 20
240.6713217907896
 30
0.0
 40
7.999999999957212
100
AcDbArc
 50
25.01391694378977
 51
105.3008506702206
  0
ARC
  5
54C0
330
1A
100
AcDbEntity
  8
SEIHIN
100
AcDbCircle
 10
417.8775750222563
 20
218.4913822602913
 30
0.0
 40
8.499999999866133
100
AcDbArc
 50
3.532294583361181
 51
90.00000000035747
  0
ARC
  5
54C1
330
1A
100
AcDbEntity
  8
SEIHIN
100
AcDbCircle
 10
417.8775750222031
 20
218.4913822601573
 30
0.0
 40
5.000000000000113
100
AcDbArc
 50
3.532294583901469
 51
89.99999999999872
  0
ARC
  5
54C2
330
1A
100
AcDbEntity
  8
SEIHIN
100
AcDbCircle
 10
411.5628137804034
 20
218.4913822601574
 30
0.0
 40
8.499999999999962
100
AcDbArc
 50
90.00000388070004
 51
164.9999962478004
  0
ARC
  5
54C3
330
1A
100
AcDbEntity
  8
SEIHIN
100
AcDbCircle
 10
411.562813780406
 20
218.4913822601497
 30
0.0
 40
5.000000000007759
100
AcDbArc
 50
90.00000000003192
 51
165.000004575792
  0
ARC
  5
54C4
330
1A
100
AcDbEntity
  8
SEIHIN
100
AcDbCircle
 10
386.1710425691035
 20
320.4913822601583
 30
0.0
 40
116.5000000000008
100
AcDbArc
 50
236.5758103176016
 51
269.9999985869013
  0
ARC
  5
54C5
330
1A
100
AcDbEntity
  8
SEIHIN
100
AcDbCircle
 10
386.1710425691032
 20
320.4913822601571
 30
0.0
 40
119.9999999999996
100
AcDbArc
 50
236.5758105273017
 51
269.9999985406015
  0
ARC
  5
54C6
330
1A
100
AcDbEntity
  8
SEIHIN
100
AcDbCircle
 10
314.5627329955033
 20
211.9913822601572
 30
0.0
 40
13.50000000000025
100
AcDbArc
 50
56.57581331630243
 51
90.000002421702
  0
ARC
  5
54C7
330
1A
100
AcDbEntity
  8
SEIHIN
100
AcDbCircle
 10
314.56273299558
 20
211.9913822606791
 30
0.0
 40
9.999999999478276
100
AcDbArc
 50
56.57581184809195
 51
89.9999950220379
  0
ARC
  5
54C9
330
1A
100
AcDbEntity
  8
SEIHIN
100
AcDbCircle
 10
301.4710425691034
 20
238.7913822601574
 30
0.0
 40
1.0
100
AcDbArc
 50
90.0
 51
180.0
  0
ARC
  5
54CA
330
1A
100
AcDbEntity
  8
SEIHIN
100
AcDbCircle
 10
416.1710425691032
 20
220.4913822601573
 30
0.0
 40
3.000000000000056
100
AcDbArc
 50
0.0000085370720893
 51
90.0
  0
ARC
  5
54CB
330
1A
100
AcDbEntity
  8
SEIHIN
100
AcDbCircle
 10
418.044070205295
 20
211.1271899117558
 30
0.0
 40
5.392139425507763
100
AcDbArc
 50
14.83628858106013
 51
64.43409635113265
  0
ARC
  5
54CC
330
1A
100
AcDbEntity
  8
SEIHIN
100
AcDbCircle
 10
424.1710425691037
 20
201.7052324546572
 30
0.0
 40
3.00000000000045
100
AcDbArc
 50
140.1944236084033
 51
179.9999999999972
  0
ARC
  5
54CD
330
1A
100
AcDbEntity
  8
SEIHIN
100
AcDbCircle
 10
439.8807129549034
 20
192.7913822601575
 30
0.0
 40
2.999999999999879
100
AcDbArc
 50
21.80140948639756
 51
90.00000000000104
  0
LINE
  5
54E8
330
1A
100
AcDbEntity
  8
SUNPOU
100
AcDbLine
 10
593.1542779129069
 20
302.017321218974
 30
0.0
 11
590.6237343549312
 21
295.3872789557377
 31
0.0
  0
LINE
  5
54E9
330
1A
100
AcDbEntity
  8
SUNPOU
100
AcDbLine
 10
590.6237343549312
 20
295.3872789557377
 30
0.0
 11
590.867207797372
 21
302.4796573857101
 31
0.0
  0
LINE
  5
54EA
330
1A
100
AcDbEntity
  8
SUNPOU
100
AcDbLine
 10
590.6237343549312
 20
295.3872789557377
 30
0.0
 11
592.0107428551395
 21
302.248489302342
 31
0.0
  0
LINE
  5
54EB
330
1A
100
AcDbEntity
  8
SUNPOU
100
AcDbLine
 10
592.0107428551395
 20
302.248489302342
 30
0.0
 11
599.0872402461079
 21
337.2542856686524
 31
0.0
1001
ACAD
1000
DSTYLE
1002
{
1070
     6
1000
OPEN
1070
    41
1040
7.0
1070
    42
1040
6.0
1070
    43
1040
14.0
1070
    44
1040
3.0
1070
    73
1070
     0
1070
    74
1070
     0
1070
    77
1070
     0
1070
   140
1040
6.0
1070
   141
1040
150.0
1070
   147
1040
2.0
1070
   172
1070
     1
1070
   173
1070
     1
1070
   176
1070
     4
1070
   177
1070
     4
1070
   178
1070
     4
1070
   271
1070
     0
1070
   272
1070
     0
1070
   341
1005
6D
1070
   343
1005
6D
1070
   344
1005
6D
1002
}
  0
LINE
  5
54EC
330
1A
100
AcDbEntity
  8
SUNPOU
100
AcDbLine
 10
599.0872402461079
 20
337.2542856686524
 30
0.0
 11
634.0599057130582
 21
337.2542856686524
 31
0.0
1001
ACAD
1000
DSTYLE
1002
{
1070
     6
1000
OPEN
1070
    41
1040
7.0
1070
    42
1040
6.0
1070
    43
1040
14.0
1070
    44
1040
3.0
1070
    73
1070
     0
1070
    74
1070
     0
1070
    77
1070
     0
1070
   140
1040
6.0
1070
   141
1040
150.0
1070
   147
1040
2.0
1070
   172
1070
     1
1070
   173
1070
     1
1070
   176
1070
     4
1070
   177
1070
     4
1070
   178
1070
     4
1070
   271
1070
     0
1070
   272
1070
     0
1070
   341
1005
6D
1070
   343
1005
6D
1070
   344
1005
6D
1002
}
  0
VIEWPORT
  5
22
330
17
100
AcDbEntity
 67
     1
  8
0
100
AcDbViewport
 10
313.6808219178082
 20
148.5
 30
0.0
 40
627.3616438356165
 41
297.0
 68
     2
 69
     1
1001
ACAD
1000
MVIEW
1002
{
1070
    16
1010
0.0
1020
0.0
1030
0.0
1010
0.0
1020
0.0
1030
1.0
1040
0.0
1040
297.0
1040
313.6808219178082
1040
148.5
1040
50.0
1040
0.0
1040
0.0
1070
     0
1070
   100
1070
     1
1070
     0
1070
     0
1070
     0
1070
     0
1070
     0
1040
0.0
1040
0.0
1040
0.0
1040
1.0
1040
1.0
1040
10.0
1040
10.0
1070
     0
1002
{
1002
}
1002
}
  0
VIEWPORT
  5
64
330
17
100
AcDbEntity
 67
     1
  8
VIEWPORT
100
AcDbViewport
 10
210.0
 20
148.5
 30
0.0
 40
420.0
 41
297.0
 68
     1
 69
     2
1001
ACAD
1000
MVIEW
1002
{
1070
    16
1010
0.0
1020
0.0
1030
0.0
1010
0.0
1020
0.0
1030
1.0
1040
0.0
1040
605.8799999999998
1040
420.0
1040
297.0
1040
50.0
1040
0.0
1040
0.0
1070
     0
1070
   100
1070
     1
1070
     0
1070
     0
1070
     0
1070
     0
1070
     0
1040
0.0
1040
0.0
1040
0.0
1040
10.0
1040
10.0
1040
0.0
1040
0.0
1070
     0
1002
{
1002
}
1002
}
  0
ENDSEC
  0
SECTION
  2
OBJECTS
  0
DICTIONARY
  5
C
330
0
100
AcDbDictionary
  3
ACAD_GROUP
350
D
  3
ACAD_LAYOUT
350
3A7E
  3
ACAD_MLINESTYLE
350
E
  3
ACAD_PLOTSETTINGS
350
3A7F
  3
ACAD_PLOTSTYLENAME
350
3A7C
  3
ACDBHEADERROUNDTRIPXREC
350
54EE
  0
DICTIONARY
  5
3D5B
330
1A
100
AcDbDictionary
280
     1
  3
ACAD_LAYOUTSELFREF
360
5510
  0
DICTIONARY
  5
3D59
330
17
100
AcDbDictionary
280
     1
  3
ACAD_LAYOUTSELFREF
360
550F
  0
DICTIONARY
  5
D
102
{ACAD_REACTORS
330
C
102
}
330
C
100
AcDbDictionary
  0
DICTIONARY
  5
3A7E
102
{ACAD_REACTORS
330
C
102
}
330
C
100
AcDbDictionary
  0
DICTIONARY
  5
E
102
{ACAD_REACTORS
330
C
102
}
330
C
100
AcDbDictionary
  3
STANDARD
350
13
  0
DICTIONARY
  5
3A7F
102
{ACAD_REACTORS
330
C
102
}
330
C
100
AcDbDictionary
  0
ACDBDICTIONARYWDFLT
  5
3A7C
102
{ACAD_REACTORS
330
C
102
}
330
C
100
AcDbDictionary
281
     1
  3
Normal
350
3A7D
100
AcDbDictionaryWithDefault
340
3A7D
1001
ACAD
1000
TREAT_AS_HARD
1070
     0
1000
TREAT_AS_HARD
1070
     0
1000
TREAT_AS_HARD
1070
     0
1000
TREAT_AS_HARD
1070
     0
  0
DICTIONARY
  5
54EE
102
{ACAD_REACTORS
330
C
102
}
330
C
100
AcDbDictionary
  3
TSTACKALIGN
350
54EF
  3
TSTACKSIZE
350
54F0
  3
HYPERLINKBASE
350
54F1
  3
STYLESHEET
350
54F2
  3
LAYOUTDICT
350
54F3
  3
PLOTSETDICT
350
54F4
  3
PLOTSTYLNAMDICT
350
54F5
  3
LWETCUNION
350
54F6
  3
INSUNITS
350
54F7
  3
CEPSNTYPE
350
54F8
  3
FINGERPRINTGUID
350
54F9
  3
VERSIONGUID
350
54FA
  3
PSVPSCALE
350
54FB
  3
DIMSTYLEDATA
350
54FC
  3
PUCSORTHOREF
350
54FD
  3
PUCSORTHOVIEW
350
54FE
  3
PUCSBASE
350
54FF
  3
PUCSORGTOP
350
5500
  3
PUCSORGBOTTOM
350
5501
  3
PUCSORGLEFT
350
5502
  3
PUCSORGRIGHT
350
5503
  3
PUCSORGFRONT
350
5504
  3
PUCSORGBACK
350
5505
  3
UCSORTHOREF
350
5506
  3
UCSORTHOVIEW
350
5507
  3
UCSBASE
350
5508
  3
UCSORGTOP
350
5509
  3
UCSORGBOTTOM
350
550A
  3
UCSORGLEFT
350
550B
  3
UCSORGRIGHT
350
550C
  3
UCSORGFRONT
350
550D
  3
UCSORGBACK
350
550E
  0
XRECORD
  5
5510
102
{ACAD_REACTORS
330
3D5B
102
}
330
3D5B
100
AcDbXrecord
340
1A
  0
XRECORD
  5
550F
102
{ACAD_REACTORS
330
3D59
102
}
330
3D59
100
AcDbXrecord
340
17
  0
MLINESTYLE
  5
13
102
{ACAD_REACTORS
330
E
102
}
330
E
100
AcDbMlineStyle
  2
STANDARD
 70
     0
  3

 62
     0
 51
90.0
 52
90.0
 71
     2
 49
0.5
 62
   256
  6
BYLAYER
 49
-0.5
 62
   256
  6
BYLAYER
  0
ACDBPLACEHOLDER
  5
3A7D
102
{ACAD_REACTORS
330
3A7C
102
}
330
3A7C
100
AcDbPlaceHolder
280
     0
  0
XRECORD
  5
54EF
102
{ACAD_REACTORS
330
54EE
102
}
330
54EE
100
AcDbXrecord
 90
        1
  0
XRECORD
  5
54F0
102
{ACAD_REACTORS
330
54EE
102
}
330
54EE
100
AcDbXrecord
 90
       70
  0
XRECORD
  5
54F1
102
{ACAD_REACTORS
330
54EE
102
}
330
54EE
100
AcDbXrecord
  1

  0
XRECORD
  5
54F2
102
{ACAD_REACTORS
330
54EE
102
}
330
54EE
100
AcDbXrecord
  1

  0
XRECORD
  5
54F3
102
{ACAD_REACTORS
330
54EE
102
}
330
54EE
100
AcDbXrecord
340
3A7E
  0
XRECORD
  5
54F4
102
{ACAD_REACTORS
330
54EE
102
}
330
54EE
100
AcDbXrecord
340
3A7F
  0
XRECORD
  5
54F5
102
{ACAD_REACTORS
330
54EE
102
}
330
54EE
100
AcDbXrecord
340
3A7C
  0
XRECORD
  5
54F6
102
{ACAD_REACTORS
330
54EE
102
}
330
54EE
100
AcDbXrecord
 90
    14877
  0
XRECORD
  5
54F7
102
{ACAD_REACTORS
330
54EE
102
}
330
54EE
100
AcDbXrecord
 90
        0
  0
XRECORD
  5
54F8
102
{ACAD_REACTORS
330
54EE
102
}
330
54EE
100
AcDbXrecord
 90
        0
  0
XRECORD
  5
54F9
102
{ACAD_REACTORS
330
54EE
102
}
330
54EE
100
AcDbXrecord
  1
{E39ACA80-11F2-4F43-A000-D85984D7BAE3}
  0
XRECORD
  5
54FA
102
{ACAD_REACTORS
330
54EE
102
}
330
54EE
100
AcDbXrecord
  1
{D8EE2783-1DD0-4CC1-BA03-4E376A2DE00E}
  0
XRECORD
  5
54FB
102
{ACAD_REACTORS
330
54EE
102
}
330
54EE
100
AcDbXrecord
 40
0.0
  0
XRECORD
  5
54FC
102
{ACAD_REACTORS
330
54EE
102
}
330
54EE
100
AcDbXrecord
1000
DSTYLE
1002
{
1070
   341
340
6D
1070
   343
340
6D
1070
   344
340
6D
1070
   371
 70
    -1
1070
   372
 70
    -1
1002
}
  0
XRECORD
  5
54FD
102
{ACAD_REACTORS
330
54EE
102
}
330
54EE
100
AcDbXrecord
340
0
  0
XRECORD
  5
54FE
102
{ACAD_REACTORS
330
54EE
102
}
330
54EE
100
AcDbXrecord
 70
     0
  0
XRECORD
  5
54FF
102
{ACAD_REACTORS
330
54EE
102
}
330
54EE
100
AcDbXrecord
340
0
  0
XRECORD
  5
5500
102
{ACAD_REACTORS
330
54EE
102
}
330
54EE
100
AcDbXrecord
 10
0.0
 20
0.0
 30
0.0
  0
XRECORD
  5
5501
102
{ACAD_REACTORS
330
54EE
102
}
330
54EE
100
AcDbXrecord
 10
0.0
 20
0.0
 30
0.0
  0
XRECORD
  5
5502
102
{ACAD_REACTORS
330
54EE
102
}
330
54EE
100
AcDbXrecord
 10
0.0
 20
0.0
 30
0.0
  0
XRECORD
  5
5503
102
{ACAD_REACTORS
330
54EE
102
}
330
54EE
100
AcDbXrecord
 10
0.0
 20
0.0
 30
0.0
  0
XRECORD
  5
5504
102
{ACAD_REACTORS
330
54EE
102
}
330
54EE
100
AcDbXrecord
 10
0.0
 20
0.0
 30
0.0
  0
XRECORD
  5
5505
102
{ACAD_REACTORS
330
54EE
102
}
330
54EE
100
AcDbXrecord
 10
0.0
 20
0.0
 30
0.0
  0
XRECORD
  5
5506
102
{ACAD_REACTORS
330
54EE
102
}
330
54EE
100
AcDbXrecord
340
0
  0
XRECORD
  5
5507
102
{ACAD_REACTORS
330
54EE
102
}
330
54EE
100
AcDbXrecord
 70
     0
  0
XRECORD
  5
5508
102
{ACAD_REACTORS
330
54EE
102
}
330
54EE
100
AcDbXrecord
340
0
  0
XRECORD
  5
5509
102
{ACAD_REACTORS
330
54EE
102
}
330
54EE
100
AcDbXrecord
 10
0.0
 20
0.0
 30
0.0
  0
XRECORD
  5
550A
102
{ACAD_REACTORS
330
54EE
102
}
330
54EE
100
AcDbXrecord
 10
0.0
 20
0.0
 30
0.0
  0
XRECORD
  5
550B
102
{ACAD_REACTORS
330
54EE
102
}
330
54EE
100
AcDbXrecord
 10
0.0
 20
0.0
 30
0.0
  0
XRECORD
  5
550C
102
{ACAD_REACTORS
330
54EE
102
}
330
54EE
100
AcDbXrecord
 10
0.0
 20
0.0
 30
0.0
  0
XRECORD
  5
550D
102
{ACAD_REACTORS
330
54EE
102
}
330
54EE
100
AcDbXrecord
 10
0.0
 20
0.0
 30
0.0
  0
XRECORD
  5
550E
102
{ACAD_REACTORS
330
54EE
102
}
330
54EE
100
AcDbXrecord
 10
0.0
 20
0.0
 30
0.0
  0
ENDSEC
  0
EOF
