  0
SECTION
  2
HEADER
  9
$ACADVER
  1
AC1014
  9
$ACADMAINTVER
 70
     9
  9
$DWGCODEPAGE
  3
ANSI_932
  9
$INSBASE
 10
0.0
 20
0.0
 30
0.0
  9
$EXTMIN
 10
-0.0256328098773793
 20
-0.018126510874481
 30
-0.0000000100021362
  9
$EXTMAX
 10
797.6000995626677
 20
551.6452344557421
 30
0.0000000100021363
  9
$LIMMIN
 10
0.0
 20
0.0
  9
$LIMMAX
 10
840.0
 20
594.0
  9
$ORTHOMODE
 70
     0
  9
$REGENMODE
 70
     1
  9
$FILLMODE
 70
     1
  9
$QTEXTMODE
 70
     0
  9
$MIRRTEXT
 70
     1
  9
$DRAGMODE
 70
     2
  9
$LTSCALE
 40
2.0
  9
$OSMODE
 70
    35
  9
$ATTMODE
 70
     1
  9
$TEXTSIZE
 40
5.0
  9
$TRACEWID
 40
1.0
  9
$TEXTSTYLE
  7
STANDARD
  9
$CLAYER
  8
SUNPOU
  9
$CELTYPE
  6
BYLAYER
  9
$CECOLOR
 62
   256
  9
$CELTSCALE
 40
1.0
  9
$DELOBJ
 70
     1
  9
$DISPSILH
 70
     0
  9
$DIMSCALE
 40
1.0
  9
$DIMASZ
 40
7.0
  9
$DIMEXO
 40
6.0
  9
$DIMDLI
 40
14.0
  9
$DIMRND
 40
0.0
  9
$DIMDLE
 40
0.0
  9
$DIMEXE
 40
3.0
  9
$DIMTP
 40
0.0
  9
$DIMTM
 40
0.0
  9
$DIMTXT
 40
6.0
  9
$DIMCEN
 40
150.0
  9
$DIMTSZ
 40
0.0
  9
$DIMTOL
 70
     0
  9
$DIMLIM
 70
     0
  9
$DIMTIH
 70
     0
  9
$DIMTOH
 70
     0
  9
$DIMSE1
 70
     0
  9
$DIMSE2
 70
     0
  9
$DIMTAD
 70
     3
  9
$DIMZIN
 70
     0
  9
$DIMBLK
  1

  9
$DIMASO
 70
     1
  9
$DIMSHO
 70
     1
  9
$DIMPOST
  1

  9
$DIMAPOST
  1

  9
$DIMALT
 70
     0
  9
$DIMALTD
 70
     2
  9
$DIMALTF
 40
25.4
  9
$DIMLFAC
 40
1.0
  9
$DIMTOFL
 70
     1
  9
$DIMTVP
 40
0.0
  9
$DIMTIX
 70
     0
  9
$DIMSOXD
 70
     0
  9
$DIMSAH
 70
     1
  9
$DIMBLK1
  1
OPEN
  9
$DIMBLK2
  1
OPEN
  9
$DIMSTYLE
  2
STANDARD
  9
$DIMCLRD
 70
   256
  9
$DIMCLRE
 70
   256
  9
$DIMCLRT
 70
   256
  9
$DIMTFAC
 40
1.0
  9
$DIMGAP
 40
2.0
  9
$DIMJUST
 70
     0
  9
$DIMSD1
 70
     0
  9
$DIMSD2
 70
     0
  9
$DIMTOLJ
 70
     1
  9
$DIMTZIN
 70
     0
  9
$DIMALTZ
 70
     0
  9
$DIMALTTZ
 70
     0
  9
$DIMFIT
 70
     3
  9
$DIMUPT
 70
     0
  9
$DIMUNIT
 70
     2
  9
$DIMDEC
 70
     0
  9
$DIMTDEC
 70
     0
  9
$DIMALTU
 70
     2
  9
$DIMALTTD
 70
     2
  9
$DIMTXSTY
  7
STANDARD
  9
$DIMAUNIT
 70
     0
  9
$LUNITS
 70
     2
  9
$LUPREC
 70
     4
  9
$SKETCHINC
 40
1.0
  9
$FILLETRAD
 40
20.0
  9
$AUNITS
 70
     0
  9
$AUPREC
 70
     0
  9
$MENU
  1
.
  9
$ELEVATION
 40
0.0
  9
$PELEVATION
 40
0.0
  9
$THICKNESS
 40
0.0
  9
$LIMCHECK
 70
     0
  9
$BLIPMODE
 70
     0
  9
$CHAMFERA
 40
0.0
  9
$CHAMFERB
 40
0.0
  9
$CHAMFERC
 40
40.0
  9
$CHAMFERD
 40
0.0
  9
$SKPOLY
 70
     0
  9
$TDCREATE
 40
2450994.354346065
  9
$TDUPDATE
 40
2453504.449542824
  9
$TDINDWG
 40
0.0737705208
  9
$TDUSRTIMER
 40
0.0737705208
  9
$USRTIMER
 70
     1
  9
$ANGBASE
 50
0.0
  9
$ANGDIR
 70
     0
  9
$PDMODE
 70
     1
  9
$PDSIZE
 40
0.0
  9
$PLINEWID
 40
0.0
  9
$COORDS
 70
     1
  9
$SPLFRAME
 70
     0
  9
$SPLINETYPE
 70
     6
  9
$SPLINESEGS
 70
     8
  9
$ATTDIA
 70
     0
  9
$ATTREQ
 70
     1
  9
$HANDLING
 70
 10241
  9
$HANDSEED
  5
4583
  9
$SURFTAB1
 70
     6
  9
$SURFTAB2
 70
     6
  9
$SURFTYPE
 70
     6
  9
$SURFU
 70
     6
  9
$SURFV
 70
     6
  9
$UCSNAME
  2

  9
$UCSORG
 10
0.0
 20
0.0
 30
0.0
  9
$UCSXDIR
 10
1.0
 20
0.0
 30
0.0
  9
$UCSYDIR
 10
0.0
 20
1.0
 30
0.0
  9
$PUCSNAME
  2

  9
$PUCSORG
 10
0.0
 20
0.0
 30
0.0
  9
$PUCSXDIR
 10
1.0
 20
0.0
 30
0.0
  9
$PUCSYDIR
 10
0.0
 20
1.0
 30
0.0
  9
$USERI1
 70
     0
  9
$USERI2
 70
     0
  9
$USERI3
 70
     0
  9
$USERI4
 70
     0
  9
$USERI5
 70
     0
  9
$USERR1
 40
0.0
  9
$USERR2
 40
0.0
  9
$USERR3
 40
0.0
  9
$USERR4
 40
0.0
  9
$USERR5
 40
0.0
  9
$WORLDVIEW
 70
     1
  9
$SHADEDGE
 70
     3
  9
$SHADEDIF
 70
    70
  9
$TILEMODE
 70
     1
  9
$MAXACTVP
 70
    16
  9
$PINSBASE
 10
0.0
 20
0.0
 30
0.0
  9
$PLIMCHECK
 70
     0
  9
$PEXTMIN
 10
0.0
 20
0.0
 30
0.0
  9
$PEXTMAX
 10
420.0
 20
297.0
 30
0.0
  9
$PLIMMIN
 10
0.0
 20
0.0
  9
$PLIMMAX
 10
420.0
 20
297.0
  9
$UNITMODE
 70
     0
  9
$VISRETAIN
 70
     0
  9
$PLINEGEN
 70
     0
  9
$PSLTSCALE
 70
     1
  9
$TREEDEPTH
 70
  3020
  9
$PICKSTYLE
 70
     1
  9
$CMLSTYLE
  2
STANDARD
  9
$CMLJUST
 70
     0
  9
$CMLSCALE
 40
1.0
  9
$PROXYGRAPHICS
 70
     1
  9
$MEASUREMENT
 70
     1
  0
ENDSEC
  0
SECTION
  2
CLASSES
  0
CLASS
  1
XRECORD
  2
AcDbXrecord
  3
AutoCAD 2000
 90
        0
280
     0
281
     0
  0
CLASS
  1
ACDBDICTIONARYWDFLT
  2
AcDbDictionaryWithDefault
  3
AutoCAD 2000
 90
        0
280
     0
281
     0
  0
CLASS
  1
ACDBPLACEHOLDER
  2
AcDbPlaceHolder
  3
AutoCAD 2000
 90
        0
280
     0
281
     0
  0
CLASS
  1
LAYOUT
  2
AcDbLayout
  3
AutoCAD 2000
 90
        0
280
     0
281
     0
  0
CLASS
  1
LONG_TRANSACTION
  2
AcDbLongTransaction
  3
AutoCAD 2000
 90
        0
280
     0
281
     0
  0
CLASS
  1
LWPOLYLINE
  2
AcDbPolyline
  3
AutoCAD 2000
 90
        0
280
     0
281
     1
  0
CLASS
  1
HATCH
  2
AcDbHatch
  3
AutoCAD 2000
 90
        0
280
     0
281
     1
  0
CLASS
  1
XRECORD
  2
AcDbXrecord
  3
AutoCAD 2000
 90
        0
280
     0
281
     0
  0
CLASS
  1
LONG_TRANSACTION
  2
AcDbLongTransaction
  3
AutoCAD 2000
 90
        0
280
     0
281
     0
  0
CLASS
  1
LWPOLYLINE
  2
AcDbPolyline
  3
AutoCAD 2000
 90
        0
280
     0
281
     1
  0
CLASS
  1
HATCH
  2
AcDbHatch
  3
AutoCAD 2000
 90
        0
280
     0
281
     1
  0
CLASS
  1
XRECORD
  2
AcDbXrecord
  3
AutoCAD 2000
 90
        0
280
     0
281
     0
  0
CLASS
  1
LONG_TRANSACTION
  2
AcDbLongTransaction
  3
AutoCAD 2000
 90
        0
280
     0
281
     0
  0
CLASS
  1
LWPOLYLINE
  2
AcDbPolyline
  3
AutoCAD 2000
 90
        0
280
     0
281
     1
  0
CLASS
  1
HATCH
  2
AcDbHatch
  3
AutoCAD 2000
 90
        0
280
     0
281
     1
  0
CLASS
  1
XRECORD
  2
AcDbXrecord
  3
AutoCAD 2000
 90
        0
280
     0
281
     0
  0
ENDSEC
  0
SECTION
  2
TABLES
  0
TABLE
  2
VPORT
  5
8
330
0
100
AcDbSymbolTable
 70
     5
  0
VPORT
  5
455F
330
8
100
AcDbSymbolTableRecord
100
AcDbViewportTableRecord
  2
*ACTIVE
 70
     0
 10
0.0
 20
0.0
 11
1.0
 21
1.0
 12
423.3176493948201
 22
275.8979873140217
 13
0.0
 23
0.0
 14
5.0
 24
5.0
 15
0.0
 25
0.0
 16
0.0
 26
0.0
 36
1.0
 17
0.0
 27
0.0
 37
0.0
 40
600.593972878153
 41
1.752310536044362
 42
50.0
 43
0.0
 44
0.0
 50
0.0
 51
0.0
 71
     0
 72
   100
 73
     1
 74
     0
 75
     0
 76
     0
 77
     0
 78
     0
  0
ENDTAB
  0
TABLE
  2
LTYPE
  5
5
330
0
100
AcDbSymbolTable
 70
     3
  0
LTYPE
  5
14
330
5
100
AcDbSymbolTableRecord
100
AcDbLinetypeTableRecord
  2
BYBLOCK
 70
     0
  3

 72
    65
 73
     0
 40
0.0
  0
LTYPE
  5
15
330
5
100
AcDbSymbolTableRecord
100
AcDbLinetypeTableRecord
  2
BYLAYER
 70
     0
  3

 72
    65
 73
     0
 40
0.0
  0
LTYPE
  5
16
330
5
100
AcDbSymbolTableRecord
100
AcDbLinetypeTableRecord
  2
CONTINUOUS
 70
     0
  3
Solid line
 72
    65
 73
     0
 40
0.0
  0
LTYPE
  5
135
330
5
100
AcDbSymbolTableRecord
100
AcDbLinetypeTableRecord
  2
CENTER
 70
     0
  3
____ _ ____ _ ____ _ ____ _ ____ _ ____ _ ____ 
 72
    65
 73
     4
 40
2.0
 49
1.25
 74
     0
 49
-0.25
 74
     0
 49
0.25
 74
     0
 49
-0.25
 74
     0
  0
LTYPE
  5
314E
330
5
100
AcDbSymbolTableRecord
100
AcDbLinetypeTableRecord
  2
PHANTOM
 70
     0
  3
______  __  __  ______  __  __  ______  __  __ 
 72
    65
 73
     6
 40
2.5
 49
1.25
 74
     0
 49
-0.25
 74
     0
 49
0.25
 74
     0
 49
-0.25
 74
     0
 49
0.25
 74
     0
 49
-0.25
 74
     0
  0
ENDTAB
  0
TABLE
  2
LAYER
  5
2
330
0
100
AcDbSymbolTable
 70
     9
  0
LAYER
  5
F
330
2
100
AcDbSymbolTableRecord
100
AcDbLayerTableRecord
  2
0
 70
     0
 62
     7
  6
CONTINUOUS
  0
LAYER
  5
62
330
2
100
AcDbSymbolTableRecord
100
AcDbLayerTableRecord
  2
VIEWPORT
 70
     0
 62
     7
  6
CONTINUOUS
  0
LAYER
  5
65
330
2
100
AcDbSymbolTableRecord
100
AcDbLayerTableRecord
  2
ZUWAKU
 70
     0
 62
     7
  6
CONTINUOUS
  0
LAYER
  5
159
330
2
100
AcDbSymbolTableRecord
100
AcDbLayerTableRecord
  2
SEIHIN
 70
     0
 62
     3
  6
CONTINUOUS
  0
LAYER
  5
15A
330
2
100
AcDbSymbolTableRecord
100
AcDbLayerTableRecord
  2
SUNPOU
 70
     0
 62
     4
  6
CONTINUOUS
  0
LAYER
  5
15B
330
2
100
AcDbSymbolTableRecord
100
AcDbLayerTableRecord
  2
CENTER_L
 70
     0
 62
     1
  6
CENTER
  0
LAYER
  5
214
330
2
100
AcDbSymbolTableRecord
100
AcDbLayerTableRecord
  2
DEFPOINTS
 70
     0
 62
     7
  6
CONTINUOUS
  0
LAYER
  5
3150
330
2
100
AcDbSymbolTableRecord
100
AcDbLayerTableRecord
  2
S120
 70
     0
 62
     8
  6
PHANTOM
  0
LAYER
  5
4337
330
2
100
AcDbSymbolTableRecord
100
AcDbLayerTableRecord
  2
MOJI
 70
     0
 62
     2
  6
CONTINUOUS
  0
ENDTAB
  0
TABLE
  2
STYLE
  5
3
330
0
100
AcDbSymbolTable
 70
     2
  0
STYLE
  5
10
330
3
100
AcDbSymbolTableRecord
100
AcDbTextStyleTableRecord
  2
STANDARD
 70
     0
 40
0.0
 41
1.0
 50
0.0
 71
     0
 42
5.0
  3
TXT
  4
bigfont.shx
  0
STYLE
  5
4338
330
3
100
AcDbSymbolTableRecord
100
AcDbTextStyleTableRecord
  2
ｽﾀｲﾙ1
 70
     0
 40
0.0
 41
1.0
 50
0.0
 71
     0
 42
2.5
  3
MS PGothic.ttf
  4

1001
ACAD
1000
MS PGothic
1071
    32818
  0
ENDTAB
  0
TABLE
  2
VIEW
  5
6
330
0
100
AcDbSymbolTable
 70
     0
  0
ENDTAB
  0
TABLE
  2
UCS
  5
7
330
0
100
AcDbSymbolTable
 70
     0
  0
ENDTAB
  0
TABLE
  2
APPID
  5
9
330
0
100
AcDbSymbolTable
 70
     1
  0
APPID
  5
11
330
9
100
AcDbSymbolTableRecord
100
AcDbRegAppTableRecord
  2
ACAD
 70
     0
  0
ENDTAB
  0
TABLE
  2
DIMSTYLE
  5
A
330
0
100
AcDbSymbolTable
 70
     1
  0
DIMSTYLE
105
1D
102
{ACAD_REACTORS
330
2C6E
330
2C6F
330
2C75
330
2C76
330
2CBC
330
2CFD
330
2CFE
330
2CFF
330
2D0D
330
2D0E
330
2D10
330
2D15
330
2D20
102
}
330
A
100
AcDbSymbolTableRecord
100
AcDbDimStyleTableRecord
  2
STANDARD
 70
     0
  3

  4

  5

  6

  7

 40
1.0
 41
0.18
 42
0.0625
 43
0.38
 44
0.18
 45
0.0
 46
0.0
 47
0.0
 48
0.0
140
0.18
141
0.09
142
0.0
143
25.4
144
1.0
145
0.0
146
1.0
147
0.09
 71
     0
 72
     0
 73
     1
 74
     1
 75
     0
 76
     0
 77
     0
 78
     0
170
     0
171
     2
172
     0
173
     0
174
     0
175
     0
176
     0
177
     0
178
     0
270
     2
271
     4
272
     4
273
     2
274
     2
340
10
275
     0
280
     0
281
     0
282
     0
283
     1
284
     0
285
     0
286
     0
287
     3
288
     0
  0
ENDTAB
  0
TABLE
  2
BLOCK_RECORD
  5
1
330
0
100
AcDbSymbolTable
 70
    14
  0
BLOCK_RECORD
  5
1A
102
{ACAD_XDICTIONARY
360
3422
102
}
330
1
100
AcDbSymbolTableRecord
100
AcDbBlockTableRecord
  2
*MODEL_SPACE
  0
BLOCK_RECORD
  5
17
102
{ACAD_XDICTIONARY
360
3420
102
}
330
1
100
AcDbSymbolTableRecord
100
AcDbBlockTableRecord
  2
*PAPER_SPACE
  0
BLOCK_RECORD
  5
6D
330
1
100
AcDbSymbolTableRecord
100
AcDbBlockTableRecord
  2
_OPEN
  0
BLOCK_RECORD
  5
3002
330
1
100
AcDbSymbolTableRecord
100
AcDbBlockTableRecord
  2
*D1
  0
BLOCK_RECORD
  5
300E
330
1
100
AcDbSymbolTableRecord
100
AcDbBlockTableRecord
  2
*D2
  0
BLOCK_RECORD
  5
301C
330
1
100
AcDbSymbolTableRecord
100
AcDbBlockTableRecord
  2
*D3
  0
BLOCK_RECORD
  5
3028
330
1
100
AcDbSymbolTableRecord
100
AcDbBlockTableRecord
  2
*D4
  0
BLOCK_RECORD
  5
3034
330
1
100
AcDbSymbolTableRecord
100
AcDbBlockTableRecord
  2
*D5
  0
BLOCK_RECORD
  5
3042
330
1
100
AcDbSymbolTableRecord
100
AcDbBlockTableRecord
  2
*D6
  0
BLOCK_RECORD
  5
3050
330
1
100
AcDbSymbolTableRecord
100
AcDbBlockTableRecord
  2
*D7
  0
BLOCK_RECORD
  5
305C
330
1
100
AcDbSymbolTableRecord
100
AcDbBlockTableRecord
  2
*D8
  0
BLOCK_RECORD
  5
3068
330
1
100
AcDbSymbolTableRecord
100
AcDbBlockTableRecord
  2
*D9
  0
BLOCK_RECORD
  5
3076
330
1
100
AcDbSymbolTableRecord
100
AcDbBlockTableRecord
  2
*D10
  0
BLOCK_RECORD
  5
3082
330
1
100
AcDbSymbolTableRecord
100
AcDbBlockTableRecord
  2
*D11
  0
BLOCK_RECORD
  5
308E
330
1
100
AcDbSymbolTableRecord
100
AcDbBlockTableRecord
  2
*D12
  0
BLOCK_RECORD
  5
309C
330
1
100
AcDbSymbolTableRecord
100
AcDbBlockTableRecord
  2
*D13
  0
ENDTAB
  0
ENDSEC
  0
SECTION
  2
BLOCKS
  0
BLOCK
  5
1B
330
1A
100
AcDbEntity
  8
0
100
AcDbBlockBegin
  2
*MODEL_SPACE
 70
     0
 10
0.0
 20
0.0
 30
0.0
  3
*MODEL_SPACE
  1

  0
ENDBLK
  5
1C
330
1A
100
AcDbEntity
  8
0
100
AcDbBlockEnd
  0
BLOCK
  5
18
330
17
100
AcDbEntity
 67
     1
  8
0
100
AcDbBlockBegin
  2
*PAPER_SPACE
 70
     0
 10
0.0
 20
0.0
 30
0.0
  3
*PAPER_SPACE
  1

  0
ENDBLK
  5
19
330
17
100
AcDbEntity
 67
     1
  8
0
100
AcDbBlockEnd
  0
BLOCK
  5
6E
330
6D
100
AcDbEntity
  8
0
100
AcDbBlockBegin
  2
_OPEN
 70
     0
 10
0.0
 20
0.0
 30
0.0
  3
_OPEN
  1

  0
LINE
  5
6F
330
6D
100
AcDbEntity
  8
0
  6
BYBLOCK
 62
     0
100
AcDbLine
 10
-1.0
 20
0.1666666666666666
 30
0.0
 11
0.0
 21
0.0
 31
0.0
  0
LINE
  5
70
330
6D
100
AcDbEntity
  8
0
  6
BYBLOCK
 62
     0
100
AcDbLine
 10
0.0
 20
0.0
 30
0.0
 11
-1.0
 21
-0.1666666666666666
 31
0.0
  0
LINE
  5
71
330
6D
100
AcDbEntity
  8
0
  6
BYBLOCK
 62
     0
100
AcDbLine
 10
0.0
 20
0.0
 30
0.0
 11
-1.0
 21
0.0
 31
0.0
  0
ENDBLK
  5
72
330
6D
100
AcDbEntity
  8
0
100
AcDbBlockEnd
  0
BLOCK
  5
30A8
330
3002
100
AcDbEntity
  8
0
100
AcDbBlockBegin
  2
*D1
 70
     1
 10
0.0
 20
0.0
 30
0.0
  3
*D1
  1

  0
LINE
  5
4407
330
3002
100
AcDbEntity
  8
SUNPOU
 62
     4
100
AcDbLine
 10
400.655883361529
 20
250.1160639081699
 30
0.0
 11
400.655883361529
 21
292.1160639081699
 31
0.0
  0
LINE
  5
4408
330
3002
100
AcDbEntity
  8
SUNPOU
 62
     4
100
AcDbLine
 10
368.2526632690289
 20
214.2428641392699
 30
0.0
 11
368.2526632690289
 21
292.1160639081699
 31
0.0
  0
LINE
  5
4409
330
3002
100
AcDbEntity
  8
SUNPOU
 62
     4
100
AcDbLine
 10
393.655883361529
 20
289.1160639081699
 30
0.0
 11
375.2526632690289
 21
289.1160639081699
 31
0.0
  0
INSERT
  5
440A
330
3002
100
AcDbEntity
  8
SUNPOU
 62
     4
100
AcDbBlockReference
  2
_OPEN
 10
400.655883361529
 20
289.1160639081699
 30
0.0
 41
7.0
 42
7.0
 43
7.0
  0
INSERT
  5
440B
330
3002
100
AcDbEntity
  8
SUNPOU
 62
     4
100
AcDbBlockReference
  2
_OPEN
 10
368.2526632690289
 20
289.1160639081699
 30
0.0
 41
7.0
 42
7.0
 43
7.0
 50
180.0
  0
MTEXT
  5
440C
330
3002
100
AcDbEntity
  8
SUNPOU
 62
     4
100
AcDbMText
 10
384.4542733152791
 20
294.1160639081699
 30
0.0
 40
6.0
 41
0.0
 71
     5
 72
     1
  1
\A1;32
1001
ACAD
1000
MTEXTBEGIN
1070
    73
1070
     1
1070
    44
1040
1.0
1070
    74
1070
     0
1000
MTEXTEND
  0
POINT
  5
440D
330
3002
100
AcDbEntity
  8
DEFPOINTS
 62
     0
100
AcDbPoint
 10
400.655883361529
 20
244.1160639081699
 30
0.0
  0
POINT
  5
440E
330
3002
100
AcDbEntity
  8
DEFPOINTS
 62
     0
100
AcDbPoint
 10
368.2526632690289
 20
208.2428641392699
 30
0.0
  0
POINT
  5
440F
330
3002
100
AcDbEntity
  8
DEFPOINTS
 62
     0
100
AcDbPoint
 10
368.2526632690289
 20
289.1160639081699
 30
0.0
  0
ENDBLK
  5
30B2
330
3002
100
AcDbEntity
  8
0
100
AcDbBlockEnd
  0
BLOCK
  5
30B3
330
300E
100
AcDbEntity
  8
0
100
AcDbBlockBegin
  2
*D2
 70
     1
 10
0.0
 20
0.0
 30
0.0
  3
*D2
  1

  0
LINE
  5
43FC
330
300E
100
AcDbEntity
  8
SUNPOU
 62
     4
100
AcDbLine
 10
387.6572096890999
 20
249.6869240534796
 30
0.0
 11
383.2005215728565
 21
260.8286443440618
 31
0.0
  0
LINE
  5
43FD
330
300E
100
AcDbEntity
  8
SUNPOU
 62
     4
100
AcDbLine
 10
396.9419765979731
 20
253.4008308170377
 30
0.0
 11
392.4852884817298
 21
264.5425511076199
 31
0.0
  0
LINE
  5
43FE
330
300E
100
AcDbEntity
  8
SUNPOU
 62
     4
100
AcDbLine
 10
377.8153567657263
 20
255.4434795369229
 30
0.0
 11
371.3160199295316
 21
252.8437448024388
 31
0.0
  0
LINE
  5
43FF
330
300E
100
AcDbEntity
  8
SUNPOU
 62
     4
100
AcDbLine
 10
400.098797346989
 20
264.3568557694491
 30
0.0
 11
416.8113777829184
 21
271.0418879438366
 31
0.0
  0
LINE
  5
4400
330
300E
100
AcDbEntity
  8
SUNPOU
 62
     4
100
AcDbLine
 10
384.3146936019211
 20
258.0432142714069
 30
0.0
 11
393.5994605107943
 21
261.757121034965
 31
0.0
  0
INSERT
  5
4401
330
300E
100
AcDbEntity
  8
SUNPOU
 62
     4
100
AcDbBlockReference
  2
_OPEN
 10
384.3146936019211
 20
258.0432142714069
 30
0.0
 41
7.0
 42
7.0
 43
7.0
 50
21.80140948639852
  0
INSERT
  5
4402
330
300E
100
AcDbEntity
  8
SUNPOU
 62
     4
100
AcDbBlockReference
  2
_OPEN
 10
393.5994605107943
 20
261.757121034965
 30
0.0
 41
7.0
 42
7.0
 43
7.0
 50
201.8014094863985
  0
MTEXT
  5
4403
330
300E
100
AcDbEntity
  8
SUNPOU
 62
     4
100
AcDbMText
 10
409.8478026012768
 20
273.6416226783096
 30
0.0
 40
6.0
 41
0.0
 71
     5
 72
     1
  1
\A1;10
 11
0.9284766908849563
 21
0.3713906763548612
 31
0.0
1001
ACAD
1000
MTEXTBEGIN
1070
    73
1070
     1
1070
    44
1040
1.0
1070
    74
1070
     0
1000
MTEXTEND
  0
POINT
  5
4404
330
300E
100
AcDbEntity
  8
DEFPOINTS
 62
     0
100
AcDbPoint
 10
389.885553747229
 20
244.1160639081699
 30
0.0
  0
POINT
  5
4405
330
300E
100
AcDbEntity
  8
DEFPOINTS
 62
     0
100
AcDbPoint
 10
399.1703206561023
 20
247.829970671728
 30
0.0
  0
POINT
  5
4406
330
300E
100
AcDbEntity
  8
DEFPOINTS
 62
     0
100
AcDbPoint
 10
393.5994605107943
 20
261.757121034965
 30
0.0
  0
ENDBLK
  5
30BF
330
300E
100
AcDbEntity
  8
0
100
AcDbBlockEnd
  0
BLOCK
  5
30C0
330
301C
100
AcDbEntity
  8
0
100
AcDbBlockBegin
  2
*D3
 70
     1
 10
0.0
 20
0.0
 30
0.0
  3
*D3
  1

  0
LINE
  5
43F3
330
301C
100
AcDbEntity
  8
SUNPOU
 62
     4
100
AcDbLine
 10
233.353153512329
 20
244.1428641392699
 30
0.0
 11
202.1526632690291
 21
244.1428641392699
 31
0.0
  0
LINE
  5
43F4
330
301C
100
AcDbEntity
  8
SUNPOU
 62
     4
100
AcDbLine
 10
417.6633803422289
 20
167.8117446313699
 30
0.0
 11
202.152663269029
 21
167.8117446313699
 31
0.0
  0
LINE
  5
43F5
330
301C
100
AcDbEntity
  8
SUNPOU
 62
     4
100
AcDbLine
 10
205.1526632690291
 20
237.1428641392699
 30
0.0
 11
205.152663269029
 21
174.8117446313699
 31
0.0
  0
INSERT
  5
43F6
330
301C
100
AcDbEntity
  8
SUNPOU
 62
     4
100
AcDbBlockReference
  2
_OPEN
 10
205.1526632690291
 20
244.1428641392699
 30
0.0
 41
7.0
 42
7.0
 43
7.0
 50
90.0
  0
INSERT
  5
43F7
330
301C
100
AcDbEntity
  8
SUNPOU
 62
     4
100
AcDbBlockReference
  2
_OPEN
 10
205.152663269029
 20
167.8117446313699
 30
0.0
 41
7.0
 42
7.0
 43
7.0
 50
270.0
  0
MTEXT
  5
43F8
330
301C
100
AcDbEntity
  8
SUNPOU
 62
     4
100
AcDbMText
 10
200.152663269029
 20
205.9773043853199
 30
0.0
 40
6.0
 41
0.0
 71
     5
 72
     1
  1
\A1;76
 11
0.0000000000000001
 21
1.0
 31
0.0
1001
ACAD
1000
MTEXTBEGIN
1070
    73
1070
     1
1070
    44
1040
1.0
1070
    74
1070
     0
1000
MTEXTEND
  0
POINT
  5
43F9
330
301C
100
AcDbEntity
  8
DEFPOINTS
 62
     0
100
AcDbPoint
 10
239.353153512329
 20
244.1428641392699
 30
0.0
  0
POINT
  5
43FA
330
301C
100
AcDbEntity
  8
DEFPOINTS
 62
     0
100
AcDbPoint
 10
423.6633803422289
 20
167.8117446313699
 30
0.0
  0
POINT
  5
43FB
330
301C
100
AcDbEntity
  8
DEFPOINTS
 62
     0
100
AcDbPoint
 10
205.152663269029
 20
167.8117446313699
 30
0.0
  0
ENDBLK
  5
30CA
330
301C
100
AcDbEntity
  8
0
100
AcDbBlockEnd
  0
BLOCK
  5
30CB
330
3028
100
AcDbEntity
  8
0
100
AcDbBlockBegin
  2
*D4
 70
     1
 10
0.0
 20
0.0
 30
0.0
  3
*D4
  1

  0
LINE
  5
4410
330
3028
100
AcDbEntity
  8
SUNPOU
 62
     4
100
AcDbLine
 10
368.2526632690289
 20
214.2428641392699
 30
0.0
 11
368.2526632690289
 21
292.1160639081699
 31
0.0
  0
LINE
  5
4411
330
3028
100
AcDbEntity
  8
SUNPOU
 62
     4
100
AcDbLine
 10
235.090163269029
 20
243.8928641392699
 30
0.0
 11
235.090163269029
 21
292.1160639081699
 31
0.0
  0
LINE
  5
4412
330
3028
100
AcDbEntity
  8
SUNPOU
 62
     4
100
AcDbLine
 10
361.2526632690289
 20
289.1160639081699
 30
0.0
 11
242.090163269029
 21
289.1160639081699
 31
0.0
  0
INSERT
  5
4413
330
3028
100
AcDbEntity
  8
SUNPOU
 62
     4
100
AcDbBlockReference
  2
_OPEN
 10
368.2526632690289
 20
289.1160639081699
 30
0.0
 41
7.0
 42
7.0
 43
7.0
  0
INSERT
  5
4414
330
3028
100
AcDbEntity
  8
SUNPOU
 62
     4
100
AcDbBlockReference
  2
_OPEN
 10
235.090163269029
 20
289.1160639081699
 30
0.0
 41
7.0
 42
7.0
 43
7.0
 50
180.0
  0
MTEXT
  5
4415
330
3028
100
AcDbEntity
  8
SUNPOU
 62
     4
100
AcDbMText
 10
301.671413269029
 20
294.1160639081699
 30
0.0
 40
6.0
 41
0.0
 71
     5
 72
     1
  1
\A1;133
1001
ACAD
1000
MTEXTBEGIN
1070
    73
1070
     1
1070
    44
1040
1.0
1070
    74
1070
     0
1000
MTEXTEND
  0
POINT
  5
4416
330
3028
100
AcDbEntity
  8
DEFPOINTS
 62
     0
100
AcDbPoint
 10
368.2526632690289
 20
208.2428641392699
 30
0.0
  0
POINT
  5
4417
330
3028
100
AcDbEntity
  8
DEFPOINTS
 62
     0
100
AcDbPoint
 10
235.090163269029
 20
237.8928641392699
 30
0.0
  0
POINT
  5
4418
330
3028
100
AcDbEntity
  8
DEFPOINTS
 62
     0
100
AcDbPoint
 10
235.090163269029
 20
289.1160639081699
 30
0.0
  0
ENDBLK
  5
30D5
330
3028
100
AcDbEntity
  8
0
100
AcDbBlockEnd
  0
BLOCK
  5
30D6
330
3034
100
AcDbEntity
  8
0
100
AcDbBlockBegin
  2
*D5
 70
     1
 10
0.0
 20
0.0
 30
0.0
  3
*D5
  1

  0
LINE
  5
4419
330
3034
100
AcDbEntity
  8
SUNPOU
 62
     4
100
AcDbLine
 10
229.090163269029
 20
396.7181980452026
 30
0.0
 11
202.0901632690291
 21
396.7181980452026
 31
0.0
  0
LINE
  5
441A
330
3034
100
AcDbEntity
  8
SUNPOU
 62
     4
100
AcDbLine
 10
229.090163269029
 20
368.7181980452026
 30
0.0
 11
202.0901632690291
 21
368.7181980452026
 31
0.0
  0
LINE
  5
441B
330
3034
100
AcDbEntity
  8
SUNPOU
 62
     4
100
AcDbLine
 10
205.0901632690291
 20
403.7181980452026
 30
0.0
 11
205.0901632690291
 21
410.7181980452026
 31
0.0
  0
LINE
  5
441C
330
3034
100
AcDbEntity
  8
SUNPOU
 62
     4
100
AcDbLine
 10
205.0901632690291
 20
361.7181980452026
 30
0.0
 11
205.0901632690291
 21
354.7181980452026
 31
0.0
  0
LINE
  5
441D
330
3034
100
AcDbEntity
  8
SUNPOU
 62
     4
100
AcDbLine
 10
205.0901632690291
 20
396.7181980452026
 30
0.0
 11
205.0901632690291
 21
368.7181980452026
 31
0.0
  0
INSERT
  5
441E
330
3034
100
AcDbEntity
  8
SUNPOU
 62
     4
100
AcDbBlockReference
  2
_OPEN
 10
205.0901632690291
 20
396.7181980452026
 30
0.0
 41
7.0
 42
7.0
 43
7.0
 50
270.0
  0
INSERT
  5
441F
330
3034
100
AcDbEntity
  8
SUNPOU
 62
     4
100
AcDbBlockReference
  2
_OPEN
 10
205.0901632690291
 20
368.7181980452026
 30
0.0
 41
7.0
 42
7.0
 43
7.0
 50
90.0
  0
MTEXT
  5
4420
330
3034
100
AcDbEntity
  8
SUNPOU
 62
     4
100
AcDbMText
 10
200.090163269029
 20
382.7181980452026
 30
0.0
 40
6.0
 41
0.0
 71
     5
 72
     1
  1
\A1;28
 11
0.0000000000000001
 21
1.0
 31
0.0
1001
ACAD
1000
MTEXTBEGIN
1070
    73
1070
     1
1070
    44
1040
1.0
1070
    74
1070
     0
1000
MTEXTEND
  0
POINT
  5
4421
330
3034
100
AcDbEntity
  8
DEFPOINTS
 62
     0
100
AcDbPoint
 10
235.090163269029
 20
396.7181980452026
 30
0.0
  0
POINT
  5
4422
330
3034
100
AcDbEntity
  8
DEFPOINTS
 62
     0
100
AcDbPoint
 10
235.090163269029
 20
368.7181980452026
 30
0.0
  0
POINT
  5
4423
330
3034
100
AcDbEntity
  8
DEFPOINTS
 62
     0
100
AcDbPoint
 10
205.0901632690291
 20
368.7181980452026
 30
0.0
  0
ENDBLK
  5
30E2
330
3034
100
AcDbEntity
  8
0
100
AcDbBlockEnd
  0
BLOCK
  5
30E3
330
3042
100
AcDbEntity
  8
0
100
AcDbBlockBegin
  2
*D6
 70
     1
 10
0.0
 20
0.0
 30
0.0
  3
*D6
  1

  0
LINE
  5
4436
330
3042
100
AcDbEntity
  8
SUNPOU
 62
     4
100
AcDbLine
 10
523.0554908327698
 20
293.1475019827025
 30
0.0
 11
499.8435735606625
 21
283.8627350738519
 31
0.0
  0
LINE
  5
4437
330
3042
100
AcDbEntity
  8
SUNPOU
 62
     4
100
AcDbLine
 10
531.0015897419618
 20
273.2822547097391
 30
0.0
 11
507.7896724698544
 21
263.9974878008884
 31
0.0
  0
LINE
  5
4438
330
3042
100
AcDbEntity
  8
SUNPOU
 62
     4
100
AcDbLine
 10
505.2287383677985
 20
278.4775702667189
 30
0.0
 11
507.9753678080293
 21
271.6109966661476
 31
0.0
  0
INSERT
  5
4439
330
3042
100
AcDbEntity
  8
SUNPOU
 62
     4
100
AcDbBlockReference
  2
_OPEN
 10
502.6290036333179
 20
284.976907102915
 30
0.0
 41
7.0
 42
7.0
 43
7.0
 50
111.8014094863681
  0
INSERT
  5
443A
330
3042
100
AcDbEntity
  8
SUNPOU
 62
     4
100
AcDbBlockReference
  2
_OPEN
 10
510.5751025425099
 20
265.1116598299515
 30
0.0
 41
7.0
 42
7.0
 43
7.0
 50
291.801409486368
  0
MTEXT
  5
443B
330
3042
100
AcDbEntity
  8
SUNPOU
 62
     4
100
AcDbMText
 10
511.2444365423398
 20
276.9012368482051
 30
0.0
 40
6.0
 41
0.0
 71
     5
 72
     1
  1
\A1;21
 11
0.3713906763543681
 21
-0.9284766908851535
 31
0.0
1001
ACAD
1000
MTEXTBEGIN
1070
    73
1070
     1
1070
    44
1040
1.0
1070
    74
1070
     0
1000
MTEXTEND
  0
POINT
  5
443C
330
3042
100
AcDbEntity
  8
DEFPOINTS
 62
     0
100
AcDbPoint
 10
528.6263509780808
 20
295.3758460408287
 30
0.0
  0
POINT
  5
443D
330
3042
100
AcDbEntity
  8
DEFPOINTS
 62
     0
100
AcDbPoint
 10
536.5724498872728
 20
275.5105987678653
 30
0.0
  0
POINT
  5
443E
330
3042
100
AcDbEntity
  8
DEFPOINTS
 62
     0
100
AcDbPoint
 10
510.5751025425099
 20
265.1116598299515
 30
0.0
  0
ENDBLK
  5
30EF
330
3042
100
AcDbEntity
  8
0
100
AcDbBlockEnd
  0
BLOCK
  5
30F0
330
3050
100
AcDbEntity
  8
0
100
AcDbBlockBegin
  2
*D7
 70
     1
 10
0.0
 20
0.0
 30
0.0
  3
*D7
  1

  0
LINE
  5
442D
330
3050
100
AcDbEntity
  8
SUNPOU
 62
     4
100
AcDbLine
 10
534.367317746479
 20
281.0234291200698
 30
0.0
 11
516.3735948950469
 21
326.0077362488014
 31
0.0
  0
LINE
  5
442E
330
3050
100
AcDbEntity
  8
SUNPOU
 62
     4
100
AcDbLine
 10
593.789825963179
 20
304.7924324066697
 30
0.0
 11
575.796103111747
 21
349.7767395354013
 31
0.0
  0
LINE
  5
442F
330
3050
100
AcDbEntity
  8
SUNPOU
 62
     4
100
AcDbLine
 10
523.9871037603058
 20
325.8220409106154
 30
0.0
 11
570.4109383046064
 21
344.3915747282731
 31
0.0
  0
INSERT
  5
4430
330
3050
100
AcDbEntity
  8
SUNPOU
 62
     4
100
AcDbBlockReference
  2
_OPEN
 10
517.487766924106
 20
323.2223061761443
 30
0.0
 41
7.0
 42
7.0
 43
7.0
 50
201.8014094862852
  0
INSERT
  5
4431
330
3050
100
AcDbEntity
  8
SUNPOU
 62
     4
100
AcDbBlockReference
  2
_OPEN
 10
576.9102751408061
 20
346.9913094627443
 30
0.0
 41
7.0
 42
7.0
 43
7.0
 50
21.80140948628522
  0
MTEXT
  5
4432
330
3050
100
AcDbEntity
  8
SUNPOU
 62
     4
100
AcDbMText
 10
545.3420676506911
 20
339.7491912738727
 30
0.0
 40
6.0
 41
0.0
 71
     5
 72
     1
  1
\A1;64
 11
0.9284766908856909
 21
0.3713906763530247
 31
0.0
1001
ACAD
1000
MTEXTBEGIN
1070
    73
1070
     1
1070
    44
1040
1.0
1070
    74
1070
     0
1000
MTEXTEND
  0
POINT
  5
4433
330
3050
100
AcDbEntity
  8
DEFPOINTS
 62
     0
100
AcDbPoint
 10
536.5956618045971
 20
275.4525689747556
 30
0.0
  0
POINT
  5
4434
330
3050
100
AcDbEntity
  8
DEFPOINTS
 62
     0
100
AcDbPoint
 10
596.0181700212972
 20
299.2215722613556
 30
0.0
  0
POINT
  5
4435
330
3050
100
AcDbEntity
  8
DEFPOINTS
 62
     0
100
AcDbPoint
 10
576.9102751408061
 20
346.9913094627443
 30
0.0
  0
ENDBLK
  5
30FA
330
3050
100
AcDbEntity
  8
0
100
AcDbBlockEnd
  0
BLOCK
  5
30FB
330
305C
100
AcDbEntity
  8
0
100
AcDbBlockBegin
  2
*D8
 70
     1
 10
0.0
 20
0.0
 30
0.0
  3
*D8
  1

  0
LINE
  5
4424
330
305C
100
AcDbEntity
  8
SUNPOU
 62
     4
100
AcDbLine
 10
523.1156894865545
 20
287.7193196855563
 30
0.0
 11
503.6479020998251
 21
337.3436757238602
 31
0.0
  0
LINE
  5
4425
330
305C
100
AcDbEntity
  8
SUNPOU
 62
     4
100
AcDbLine
 10
597.591491925999
 20
316.9364058725899
 30
0.0
 11
578.1237045392694
 21
366.5607619108937
 31
0.0
  0
LINE
  5
4426
330
305C
100
AcDbEntity
  8
SUNPOU
 62
     4
100
AcDbLine
 10
511.2600070851696
 20
337.1073334041336
 30
0.0
 11
572.7028325247472
 21
361.2115426592489
 31
0.0
  0
INSERT
  5
4427
330
305C
100
AcDbEntity
  8
SUNPOU
 62
     4
100
AcDbBlockReference
  2
_OPEN
 10
504.7435185852362
 20
334.5508949381745
 30
0.0
 41
7.0
 42
7.0
 43
7.0
 50
201.4202297699553
  0
INSERT
  5
4428
330
305C
100
AcDbEntity
  8
SUNPOU
 62
     4
100
AcDbBlockReference
  2
_OPEN
 10
579.2193210246806
 20
363.767981125208
 30
0.0
 41
7.0
 42
7.0
 43
7.0
 50
21.42022976995528
  0
MTEXT
  5
4429
330
305C
100
AcDbEntity
  8
SUNPOU
 62
     4
100
AcDbMText
 10
540.1553923292733
 20
353.8140726745008
 30
0.0
 40
6.0
 41
0.0
 71
     5
 72
     1
  1
\A1;80
 11
0.930926928561918
 21
0.3652054951370175
 31
0.0
1001
ACAD
1000
MTEXTBEGIN
1070
    73
1070
     1
1070
    44
1040
1.0
1070
    74
1070
     0
1000
MTEXTEND
  0
POINT
  5
442A
330
305C
100
AcDbEntity
  8
DEFPOINTS
 62
     0
100
AcDbPoint
 10
525.3069224573766
 20
282.1337581141849
 30
0.0
  0
POINT
  5
442B
330
305C
100
AcDbEntity
  8
DEFPOINTS
 62
     0
100
AcDbPoint
 10
599.782724896821
 20
311.3508443012183
 30
0.0
  0
POINT
  5
442C
330
305C
100
AcDbEntity
  8
DEFPOINTS
 62
     0
100
AcDbPoint
 10
579.2193210246806
 20
363.767981125208
 30
0.0
  0
ENDBLK
  5
3105
330
305C
100
AcDbEntity
  8
0
100
AcDbBlockEnd
  0
BLOCK
  5
3106
330
3068
100
AcDbEntity
  8
0
100
AcDbBlockBegin
  2
*D9
 70
     1
 10
0.0
 20
0.0
 30
0.0
  3
*D9
  1

  0
LINE
  5
4465
330
3068
100
AcDbEntity
  8
SUNPOU
 62
     4
100
AcDbLine
 10
579.3055895837169
 20
238.6848920192828
 30
0.0
 11
526.3730534515087
 21
217.5118775656311
 31
0.0
  0
LINE
  5
4466
330
3068
100
AcDbEntity
  8
SUNPOU
 62
     4
100
AcDbLine
 10
582.2767149946454
 20
231.2570784922315
 30
0.0
 11
529.3441788624371
 21
210.0840640385797
 31
0.0
  0
LINE
  5
4467
330
3068
100
AcDbEntity
  8
SUNPOU
 62
     4
100
AcDbLine
 10
526.5587487895905
 20
225.1253864308926
 30
0.0
 11
523.9590140550304
 21
231.6247232670569
 31
0.0
  0
LINE
  5
4468
330
3068
100
AcDbEntity
  8
SUNPOU
 62
     4
100
AcDbLine
 10
534.729343669639
 20
204.6988992315126
 30
0.0
 11
537.3290784041991
 21
198.1995623953483
 31
0.0
  0
LINE
  5
4469
330
3068
100
AcDbEntity
  8
SUNPOU
 62
     4
100
AcDbLine
 10
529.1584835241506
 20
218.6260495947283
 30
0.0
 11
532.129608935079
 21
211.1982360676769
 31
0.0
  0
INSERT
  5
446A
330
3068
100
AcDbEntity
  8
SUNPOU
 62
     4
100
AcDbBlockReference
  2
_OPEN
 10
529.1584835241506
 20
218.6260495947283
 30
0.0
 41
7.0
 42
7.0
 43
7.0
 50
291.8014094870688
  0
INSERT
  5
446B
330
3068
100
AcDbEntity
  8
SUNPOU
 62
     4
100
AcDbBlockReference
  2
_OPEN
 10
532.129608935079
 20
211.1982360676769
 30
0.0
 41
7.0
 42
7.0
 43
7.0
 50
111.8014094870687
  0
MTEXT
  5
446C
330
3068
100
AcDbEntity
  8
SUNPOU
 62
     4
100
AcDbMText
 10
535.2864296840179
 20
216.7690962130312
 30
0.0
 40
6.0
 41
0.0
 71
     5
 72
     1
  1
\A1;8
 11
0.3713906763657223
 21
-0.9284766908806119
 31
0.0
1001
ACAD
1000
MTEXTBEGIN
1070
    73
1070
     1
1070
    44
1040
1.0
1070
    74
1070
     0
1000
MTEXTEND
  0
POINT
  5
446D
330
3068
100
AcDbEntity
  8
DEFPOINTS
 62
     0
100
AcDbPoint
 10
584.8764497290006
 20
240.9132360774771
 30
0.0
  0
POINT
  5
446E
330
3068
100
AcDbEntity
  8
DEFPOINTS
 62
     0
100
AcDbPoint
 10
587.8475751399292
 20
233.4854225504258
 30
0.0
  0
POINT
  5
446F
330
3068
100
AcDbEntity
  8
DEFPOINTS
 62
     0
100
AcDbPoint
 10
532.129608935079
 20
211.1982360676769
 30
0.0
  0
ENDBLK
  5
3112
330
3068
100
AcDbEntity
  8
0
100
AcDbBlockEnd
  0
BLOCK
  5
3113
330
3076
100
AcDbEntity
  8
0
100
AcDbBlockBegin
  2
*D10
 70
     1
 10
0.0
 20
0.0
 30
0.0
  3
*D10
  1

  0
LINE
  5
443F
330
3076
100
AcDbEntity
  8
SUNPOU
 62
     4
100
AcDbLine
 10
530.9988345933024
 20
273.2891549682568
 30
0.0
 11
507.7967080428818
 21
264.0416168005399
 31
0.0
  0
LINE
  5
4440
330
3076
100
AcDbEntity
  8
SUNPOU
 62
     4
100
AcDbLine
 10
549.5224756635856
 20
226.8132327830779
 30
0.0
 11
526.320349113165
 21
217.5656946153611
 31
0.0
  0
LINE
  5
4441
330
3076
100
AcDbEntity
  8
SUNPOU
 62
     4
100
AcDbLine
 10
513.1752001227434
 20
258.6497875240453
 30
0.0
 11
526.5154723272737
 21
225.1789676914641
 31
0.0
  0
INSERT
  5
4442
330
3076
100
AcDbEntity
  8
SUNPOU
 62
     4
100
AcDbBlockReference
  2
_OPEN
 10
510.5835156898669
 20
265.1523387003442
 30
0.0
 41
7.0
 42
7.0
 43
7.0
 50
111.7304585219643
  0
INSERT
  5
4443
330
3076
100
AcDbEntity
  8
SUNPOU
 62
     4
100
AcDbBlockReference
  2
_OPEN
 10
529.1071567601502
 20
218.6764165151653
 30
0.0
 41
7.0
 42
7.0
 43
7.0
 50
291.7304585219643
  0
MTEXT
  5
4444
330
3076
100
AcDbEntity
  8
SUNPOU
 62
     4
100
AcDbMText
 10
524.4900156366506
 20
243.7655807740951
 30
0.0
 40
6.0
 41
0.0
 71
     5
 72
     1
  1
\A1;50
 11
0.3702406332680729
 21
-0.9289358823284072
 31
0.0
1001
ACAD
1000
MTEXTBEGIN
1070
    73
1070
     1
1070
    44
1040
1.0
1070
    74
1070
     0
1000
MTEXTEND
  0
POINT
  5
4445
330
3076
100
AcDbEntity
  8
DEFPOINTS
 62
     0
100
AcDbPoint
 10
536.5724498872728
 20
275.5105987678653
 30
0.0
  0
POINT
  5
4446
330
3076
100
AcDbEntity
  8
DEFPOINTS
 62
     0
100
AcDbPoint
 10
555.096090957556
 20
229.0346765826864
 30
0.0
  0
POINT
  5
4447
330
3076
100
AcDbEntity
  8
DEFPOINTS
 62
     0
100
AcDbPoint
 10
529.1071567601502
 20
218.6764165151653
 30
0.0
  0
ENDBLK
  5
311D
330
3076
100
AcDbEntity
  8
0
100
AcDbBlockEnd
  0
BLOCK
  5
311E
330
3082
100
AcDbEntity
  8
0
100
AcDbBlockBegin
  2
*D11
 70
     1
 10
0.0
 20
0.0
 30
0.0
  3
*D11
  1

  0
LINE
  5
4448
330
3082
100
AcDbEntity
  8
SUNPOU
 62
     4
100
AcDbLine
 10
406.2517089355584
 20
246.3444943925561
 30
0.0
 11
431.3313418502805
 21
256.3767989014114
 31
0.0
  0
LINE
  5
4449
330
3082
100
AcDbEntity
  8
SUNPOU
 62
     4
100
AcDbLine
 10
435.7346862081274
 20
172.6403672324949
 30
0.0
 11
460.8143191228496
 21
182.6726717413503
 31
0.0
  0
LINE
  5
444A
330
3082
100
AcDbEntity
  8
SUNPOU
 62
     4
100
AcDbLine
 10
431.1457646283829
 20
248.7632871561841
 30
0.0
 11
455.4290707707178
 21
188.0577530021913
 31
0.0
  0
INSERT
  5
444B
330
3082
100
AcDbEntity
  8
SUNPOU
 62
     4
100
AcDbBlockReference
  2
_OPEN
 10
428.5459290632658
 20
255.2625836592183
 30
0.0
 41
7.0
 42
7.0
 43
7.0
 50
111.8022983751875
  0
INSERT
  5
444C
330
3082
100
AcDbEntity
  8
SUNPOU
 62
     4
100
AcDbBlockReference
  2
_OPEN
 10
458.0289063358349
 20
181.5584564991572
 30
0.0
 41
7.0
 42
7.0
 43
7.0
 50
291.8022983751875
  0
MTEXT
  5
444D
330
3082
100
AcDbEntity
  8
SUNPOU
 62
     4
100
AcDbMText
 10
447.9297723445748
 20
220.2675454828428
 30
0.0
 40
6.0
 41
0.0
 71
     5
 72
     1
  1
\A1;79
 11
0.3714050807310218
 21
-0.9284709290048789
 31
0.0
1001
ACAD
1000
MTEXTBEGIN
1070
    73
1070
     1
1070
    44
1040
1.0
1070
    74
1070
     0
1000
MTEXTEND
  0
POINT
  5
444E
330
3082
100
AcDbEntity
  8
DEFPOINTS
 62
     0
100
AcDbPoint
 10
400.6808833615291
 20
244.1160639081699
 30
0.0
  0
POINT
  5
444F
330
3082
100
AcDbEntity
  8
DEFPOINTS
 62
     0
100
AcDbPoint
 10
430.1638606340982
 20
170.4119367481088
 30
0.0
  0
POINT
  5
4450
330
3082
100
AcDbEntity
  8
DEFPOINTS
 62
     0
100
AcDbPoint
 10
458.0289063358349
 20
181.5584564991572
 30
0.0
  0
ENDBLK
  5
3128
330
3082
100
AcDbEntity
  8
0
100
AcDbBlockEnd
  0
BLOCK
  5
3129
330
308E
100
AcDbEntity
  8
0
100
AcDbBlockBegin
  2
*D12
 70
     1
 10
0.0
 20
0.0
 30
0.0
  3
*D12
  1

  0
LINE
  5
4451
330
308E
100
AcDbEntity
  8
SUNPOU
 62
     4
100
AcDbLine
 10
425.891724400342
 20
162.2408844860536
 30
0.0
 11
430.34841251656
 21
151.0991641954411
 31
0.0
  0
LINE
  5
4452
330
308E
100
AcDbEntity
  8
SUNPOU
 62
     4
100
AcDbLine
 10
432.3910612365576
 20
164.8406192205242
 30
0.0
 11
436.8477493527757
 21
153.6988989299117
 31
0.0
  0
LINE
  5
4453
330
308E
100
AcDbEntity
  8
SUNPOU
 62
     4
100
AcDbLine
 10
422.7349036513013
 20
151.284859533634
 30
0.0
 11
416.2355668150991
 21
148.6851247991689
 31
0.0
  0
LINE
  5
4454
330
308E
100
AcDbEntity
  8
SUNPOU
 62
     4
100
AcDbLine
 10
442.2329141599213
 20
159.084063737035
 30
0.0
 11
468.2302615047303
 21
169.4830026748957
 31
0.0
  0
LINE
  5
4455
330
308E
100
AcDbEntity
  8
SUNPOU
 62
     4
100
AcDbLine
 10
429.2342404875035
 20
153.8845942680992
 30
0.0
 11
435.7335773237192
 21
156.4843290025698
 31
0.0
  0
INSERT
  5
4456
330
308E
100
AcDbEntity
  8
SUNPOU
 62
     4
100
AcDbBlockReference
  2
_OPEN
 10
429.2342404875035
 20
153.8845942680992
 30
0.0
 41
7.0
 42
7.0
 43
7.0
 50
21.80140948623241
  0
INSERT
  5
4457
330
308E
100
AcDbEntity
  8
SUNPOU
 62
     4
100
AcDbBlockReference
  2
_OPEN
 10
435.7335773237192
 20
156.4843290025698
 30
0.0
 41
7.0
 42
7.0
 43
7.0
 50
201.8014094862324
  0
MTEXT
  5
4458
330
308E
100
AcDbEntity
  8
SUNPOU
 62
     4
100
AcDbMText
 10
456.6243028686661
 20
170.2257840276281
 30
0.0
 40
6.0
 41
0.0
 71
     5
 72
     1
  1
\A1;t7.0
 11
0.928476690886033
 21
0.3713906763521695
 31
0.0
1001
ACAD
1000
MTEXTBEGIN
1070
    73
1070
     1
1070
    44
1040
1.0
1070
    74
1070
     0
1000
MTEXTEND
  0
POINT
  5
4459
330
308E
100
AcDbEntity
  8
DEFPOINTS
 62
     0
100
AcDbPoint
 10
423.6633803422289
 20
167.8117446313699
 30
0.0
  0
POINT
  5
445A
330
308E
100
AcDbEntity
  8
DEFPOINTS
 62
     0
100
AcDbPoint
 10
430.1627171784446
 20
170.4114793658404
 30
0.0
  0
POINT
  5
445B
330
308E
100
AcDbEntity
  8
DEFPOINTS
 62
     0
100
AcDbPoint
 10
435.7335773237192
 20
156.4843290025698
 30
0.0
  0
ENDBLK
  5
3135
330
308E
100
AcDbEntity
  8
0
100
AcDbBlockEnd
  0
BLOCK
  5
3136
330
309C
100
AcDbEntity
  8
0
100
AcDbBlockBegin
  2
*D13
 70
     1
 10
0.0
 20
0.0
 30
0.0
  3
*D13
  1

  0
LINE
  5
445C
330
309C
100
AcDbEntity
  8
SUNPOU
 62
     4
100
AcDbLine
 10
575.885491069686
 20
225.5297566654382
 30
0.0
 11
585.604787910628
 21
200.4942179766648
 31
0.0
  0
LINE
  5
445D
330
309C
100
AcDbEntity
  8
SUNPOU
 62
     4
100
AcDbLine
 10
601.9888721446861
 20
235.6636112780382
 30
0.0
 11
611.708168985628
 21
210.6280725892648
 31
0.0
  0
LINE
  5
445E
330
309C
100
AcDbEntity
  8
SUNPOU
 62
     4
100
AcDbLine
 10
591.044580260754
 20
205.824195386327
 30
0.0
 11
604.0969492406133
 21
210.89138607752
 31
0.0
  0
INSERT
  5
445F
330
309C
100
AcDbEntity
  8
SUNPOU
 62
     4
100
AcDbBlockReference
  2
_OPEN
 10
584.5190742131836
 20
203.2908634256235
 30
0.0
 41
7.0
 42
7.0
 43
7.0
 50
201.2172080863605
  0
INSERT
  5
4460
330
309C
100
AcDbEntity
  8
SUNPOU
 62
     4
100
AcDbBlockReference
  2
_OPEN
 10
610.6224552881837
 20
213.4247180382235
 30
0.0
 41
7.0
 42
7.0
 43
7.0
 50
21.21720808636052
  0
MTEXT
  5
4461
330
309C
100
AcDbEntity
  8
SUNPOU
 62
     4
100
AcDbMText
 10
595.7612419216096
 20
213.0188664801881
 30
0.0
 40
6.0
 41
0.0
 71
     5
 72
     1
  1
\A1;28
 11
0.9322151496529166
 21
0.3619045658147881
 31
0.0
1001
ACAD
1000
MTEXTBEGIN
1070
    73
1070
     1
1070
    44
1040
1.0
1070
    74
1070
     0
1000
MTEXTEND
  0
POINT
  5
4462
330
309C
100
AcDbEntity
  8
DEFPOINTS
 62
     0
100
AcDbPoint
 10
573.7140636747973
 20
231.1230475633557
 30
0.0
  0
POINT
  5
4463
330
309C
100
AcDbEntity
  8
DEFPOINTS
 62
     0
100
AcDbPoint
 10
599.8174447497973
 20
241.2569021759557
 30
0.0
  0
POINT
  5
4464
330
309C
100
AcDbEntity
  8
DEFPOINTS
 62
     0
100
AcDbPoint
 10
610.6224552881837
 20
213.4247180382235
 30
0.0
  0
ENDBLK
  5
3140
330
309C
100
AcDbEntity
  8
0
100
AcDbBlockEnd
  0
ENDSEC
  0
SECTION
  2
ENTITIES
  0
LINE
  5
2C66
330
1A
100
AcDbEntity
  8
CENTER_L
 48
5.0
100
AcDbLine
 10
413.2644414057694
 20
226.1200808153909
 30
0.0
 11
394.6949075880556
 21
218.6922672883305
 31
0.0
  0
LINE
  5
2C67
330
1A
100
AcDbEntity
  8
CENTER_L
 48
5.0
100
AcDbLine
 10
394.7668819832829
 20
350.7181980452026
 30
0.0
 11
424.7668819832829
 21
350.7181980452026
 31
0.0
  0
LINE
  5
2C68
330
1A
100
AcDbEntity
  8
CENTER_L
 48
5.0
100
AcDbLine
 10
221.047802157929
 20
382.7181980452026
 30
0.0
 11
439.7887137950822
 21
382.7181980452026
 31
0.0
  0
LINE
  5
2C69
330
1A
100
AcDbEntity
  8
CENTER_L
 48
5.0
100
AcDbLine
 10
394.7668819832829
 20
414.7181980452026
 30
0.0
 11
424.7668819832829
 21
414.7181980452026
 31
0.0
  0
ARC
  5
2C6A
330
1A
100
AcDbEntity
  8
SEIHIN
100
AcDbCircle
 10
396.2267488813608
 20
347.3819582693264
 30
0.0
 40
4.663760224123682
100
AcDbArc
 50
221.0219881136546
 51
273.9927535001271
  0
ARC
  5
2C6B
330
1A
100
AcDbEntity
  8
SEIHIN
100
AcDbCircle
 10
397.8317484232045
 20
347.3819582693264
 30
0.0
 40
4.663760224123682
100
AcDbArc
 50
221.0219881136546
 51
273.9927535001271
  0
ARC
  5
2C6C
330
1A
100
AcDbEntity
  8
SEIHIN
100
AcDbCircle
 10
396.2267488813608
 20
418.0544378210788
 30
0.0
 40
4.663760224123682
100
AcDbArc
 50
86.00724649987304
 51
138.9780118863455
  0
ARC
  5
2C6D
330
1A
100
AcDbEntity
  8
SEIHIN
100
AcDbCircle
 10
397.8317484232045
 20
418.0544378210788
 30
0.0
 40
4.663760224123682
100
AcDbArc
 50
86.00724649987304
 51
138.9780118863455
  0
DIMENSION
  5
2C6E
330
1A
100
AcDbEntity
  8
SUNPOU
100
AcDbDimension
  2
*D1
 10
368.2526632690289
 20
289.1160639081699
 30
0.0
 11
384.4542733152791
 21
289.1160639081699
 31
0.0
 70
   160
  3
STANDARD
100
AcDbAlignedDimension
 13
400.655883361529
 23
244.1160639081699
 33
0.0
 14
368.2526632690289
 24
208.2428641392699
 34
0.0
100
AcDbRotatedDimension
1001
ACAD
1000
DSTYLE
1002
{
1070
    41
1040
7.0
1070
    42
1040
6.0
1070
    43
1040
14.0
1070
    44
1040
3.0
1070
    73
1070
     0
1070
    74
1070
     0
1070
    77
1070
     3
1070
   140
1040
6.0
1070
   141
1040
150.0
1070
   147
1040
2.0
1070
   172
1070
     1
1070
   173
1070
     1
1070
   176
1070
     4
1070
   177
1070
     4
1070
   178
1070
     4
1070
   271
1070
     0
1070
   272
1070
     0
1070
   341
1005
6D
1070
     6
1000
OPEN
1070
     7
1000
OPEN
1002
}
  0
DIMENSION
  5
2C6F
330
1A
100
AcDbEntity
  8
SUNPOU
100
AcDbDimension
  2
*D2
 10
393.5994605107943
 20
261.757121034965
 30
0.0
 11
411.7047559830511
 21
268.9992392238849
 31
0.0
 70
   161
  3
STANDARD
100
AcDbAlignedDimension
 13
389.885553747229
 23
244.1160639081699
 33
0.0
 14
399.1703206561023
 24
247.829970671728
 34
0.0
1001
ACAD
1000
DSTYLE
1002
{
1070
    41
1040
7.0
1070
    42
1040
6.0
1070
    43
1040
14.0
1070
    44
1040
3.0
1070
    73
1070
     0
1070
    74
1070
     0
1070
    77
1070
     3
1070
   140
1040
6.0
1070
   141
1040
150.0
1070
   147
1040
2.0
1070
   172
1070
     1
1070
   173
1070
     1
1070
   176
1070
     4
1070
   177
1070
     4
1070
   178
1070
     4
1070
   271
1070
     0
1070
   272
1070
     0
1070
   341
1005
6D
1070
     6
1000
OPEN
1070
     7
1000
OPEN
1002
}
  0
LINE
  5
2C70
330
1A
100
AcDbEntity
  8
SEIHIN
100
AcDbLine
 10
391.154068912029
 20
241.4599485847698
 30
0.0
 11
412.5216600516289
 21
195.6660453578699
 31
0.0
  0
LINE
  5
2C71
330
1A
100
AcDbEntity
  8
SEIHIN
100
AcDbLine
 10
393.007827654929
 20
244.1785639081699
 30
0.0
 11
415.2740251175289
 21
196.8628799039699
 31
0.0
  0
LINE
  5
2C72
330
1A
100
AcDbEntity
  8
SEIHIN
100
AcDbLine
 10
400.655883361529
 20
244.1785639081699
 30
0.0
 11
366.6113641638289
 21
244.1785639081699
 31
0.0
  0
LINE
  5
2C73
330
1A
100
AcDbEntity
  8
SEIHIN
100
AcDbLine
 10
374.0952881070291
 20
187.1428641392699
 30
0.0
 11
413.899834022129
 21
187.1428641392699
 31
0.0
  0
LINE
  5
2C74
330
1A
100
AcDbEntity
  8
SEIHIN
100
AcDbLine
 10
377.5382346786289
 20
190.6428641392699
 30
0.0
 11
413.0538997338289
 21
190.6428641392699
 31
0.0
  0
DIMENSION
  5
2C75
330
1A
100
AcDbEntity
  8
SUNPOU
100
AcDbDimension
  2
*D3
 10
205.152663269029
 20
167.8117446313699
 30
0.0
 11
205.152663269029
 21
205.9773043853199
 31
0.0
 70
   160
  3
STANDARD
100
AcDbAlignedDimension
 13
239.353153512329
 23
244.1428641392699
 33
0.0
 14
423.6633803422289
 24
167.8117446313699
 34
0.0
 50
90.0
100
AcDbRotatedDimension
1001
ACAD
1000
DSTYLE
1002
{
1070
    41
1040
7.0
1070
    42
1040
6.0
1070
    43
1040
14.0
1070
    44
1040
3.0
1070
    73
1070
     0
1070
    74
1070
     0
1070
    77
1070
     3
1070
   140
1040
6.0
1070
   141
1040
150.0
1070
   147
1040
2.0
1070
   172
1070
     1
1070
   173
1070
     1
1070
   176
1070
     4
1070
   177
1070
     4
1070
   178
1070
     4
1070
   271
1070
     0
1070
   272
1070
     0
1070
   341
1005
6D
1070
     6
1000
OPEN
1070
     7
1000
OPEN
1002
}
  0
DIMENSION
  5
2C76
330
1A
100
AcDbEntity
  8
SUNPOU
100
AcDbDimension
  2
*D4
 10
235.090163269029
 20
289.1160639081699
 30
0.0
 11
301.671413269029
 21
289.1160639081699
 31
0.0
 70
   160
  3
STANDARD
100
AcDbAlignedDimension
 13
368.2526632690289
 23
208.2428641392699
 33
0.0
 14
235.090163269029
 24
237.8928641392699
 34
0.0
100
AcDbRotatedDimension
1001
ACAD
1000
DSTYLE
1002
{
1070
    41
1040
7.0
1070
    42
1040
6.0
1070
    43
1040
14.0
1070
    44
1040
3.0
1070
    73
1070
     0
1070
    74
1070
     0
1070
    77
1070
     3
1070
   140
1040
6.0
1070
   141
1040
150.0
1070
   147
1040
2.0
1070
   172
1070
     1
1070
   173
1070
     1
1070
   176
1070
     4
1070
   177
1070
     4
1070
   178
1070
     4
1070
   271
1070
     0
1070
   272
1070
     0
1070
   341
1005
6D
1070
     6
1000
OPEN
1070
     7
1000
OPEN
1002
}
  0
ARC
  5
2C79
330
1A
100
AcDbEntity
  8
SEIHIN
100
AcDbCircle
 10
303.992196311329
 20
278.1114117620699
 30
0.0
 40
62.99061073449999
100
AcDbArc
 50
231.3055937370978
 51
314.4052601452981
  0
ARC
  5
2C7A
330
1A
100
AcDbEntity
  8
SEIHIN
100
AcDbCircle
 10
303.992196311329
 20
278.1114117620699
 30
0.0
 40
59.4906107345
100
AcDbArc
 50
228.2657563722006
 51
314.4052601452981
  0
ARC
  5
2C7B
330
1A
100
AcDbEntity
  8
SEIHIN
100
AcDbCircle
 10
241.840163269029
 20
237.8928641392699
 30
0.0
 40
6.75
100
AcDbArc
 50
112.1916065662975
 51
270.0
  0
ARC
  5
2C7C
330
1A
100
AcDbEntity
  8
SEIHIN
100
AcDbCircle
 10
243.209125279129
 20
239.1428641392699
 30
0.0
 40
2.0
100
AcDbArc
 50
160.7099537807992
 51
270.0
  0
ARC
  5
2C7D
330
1A
100
AcDbEntity
  8
SEIHIN
100
AcDbCircle
 10
242.590163269029
 20
217.8428641392699
 30
0.0
 40
4.5
100
AcDbArc
 50
117.8966750511002
 51
270.0
  0
LINE
  5
2C7E
330
1A
100
AcDbEntity
  8
SEIHIN
100
AcDbLine
 10
242.590163269029
 20
213.3428641392699
 30
0.0
 11
263.5818545643289
 21
213.3428641392699
 31
0.0
  0
LINE
  5
2C7F
330
1A
100
AcDbEntity
  8
SEIHIN
100
AcDbLine
 10
258.3609149668288
 20
231.1428641392699
 30
0.0
 11
241.840163269029
 21
231.1428641392699
 31
0.0
  0
LINE
  5
2C80
330
1A
100
AcDbEntity
  8
SEIHIN
100
AcDbLine
 10
255.4040642555289
 20
237.1428641392699
 30
0.0
 11
243.209125279129
 21
237.1428641392699
 31
0.0
  0
ARC
  5
2C81
330
1A
100
AcDbEntity
  8
SEIHIN
100
AcDbCircle
 10
241.9901632690291
 20
227.1428641392699
 30
0.0
 40
7.5
100
AcDbArc
 50
297.8966750511002
 51
0.0000024778998239
  0
LINE
  5
2C82
330
1A
100
AcDbEntity
  8
SEIHIN
100
AcDbLine
 10
242.590163269029
 20
216.8428641392699
 30
0.0
 11
263.5818531248289
 21
216.8428641392699
 31
0.0
  0
ARC
  5
2C83
330
1A
100
AcDbEntity
  8
SEIHIN
100
AcDbCircle
 10
241.9901632690291
 20
227.1428641392699
 30
0.0
 40
4.0
100
AcDbArc
 50
297.8966750511002
 51
90.0
  0
LINE
  5
2C84
330
1A
100
AcDbEntity
  8
SEIHIN
100
AcDbLine
 10
240.484709895729
 20
221.8199316635699
 30
0.0
 11
243.8616773786291
 21
223.6076930065699
 31
0.0
  0
ARC
  5
2C85
330
1A
100
AcDbEntity
  8
SEIHIN
100
AcDbCircle
 10
242.590163269029
 20
217.8428641392699
 30
0.0
 40
1.0
100
AcDbArc
 50
117.8966750511002
 51
270.0
  0
LINE
  5
2C86
330
1A
100
AcDbEntity
  8
SEIHIN
100
AcDbLine
 10
242.122284741629
 20
218.7266569224699
 30
0.0
 11
245.499252224529
 21
220.5144182654699
 31
0.0
  0
LINE
  5
2C88
330
1A
100
AcDbEntity
  8
SEIHIN
100
AcDbLine
 10
249.4901632690291
 20
227.1428644636699
 30
0.0
 11
249.4901632690291
 21
230.1428641392699
 31
0.0
  0
LINE
  5
2C8B
330
1A
100
AcDbEntity
  8
SEIHIN
100
AcDbLine
 10
242.135422766529
 20
244.1428641392699
 30
0.0
 11
239.290653512329
 21
244.1428641392699
 31
0.0
  0
LINE
  5
2C8D
330
1A
100
AcDbEntity
  8
SEIHIN
100
AcDbLine
 10
242.6073519447288
 20
243.4776889268699
 30
0.0
 11
241.3214085664289
 21
239.8035649887699
 31
0.0
  0
LINE
  5
2C8E
330
1A
100
AcDbEntity
  8
SEIHIN
100
AcDbLine
 10
370.1901632690289
 20
193.0567143337699
 30
0.0
 11
370.1901632690289
 21
191.2290139447699
 31
0.0
  0
ARC
  5
2C8F
330
1A
100
AcDbEntity
  8
SEIHIN
100
AcDbCircle
 10
353.8393103080291
 20
196.8428641392699
 30
0.0
 40
5.0
100
AcDbArc
 50
270.0
 51
329.9999932511005
  0
LINE
  5
2C90
330
1A
100
AcDbEntity
  8
SEIHIN
100
AcDbLine
 10
375.3805476775289
 20
210.3665587044699
 30
0.0
 11
376.540134448629
 21
191.5812530139699
 31
0.0
  0
LINE
  5
2C91
330
1A
100
AcDbEntity
  8
SEIHIN
100
AcDbLine
 10
371.887196872329
 20
210.1509197658699
 30
0.0
 11
373.046783643429
 21
191.3656140753699
 31
0.0
  0
LINE
  5
2C94
330
1A
100
AcDbEntity
  8
SEIHIN
100
AcDbLine
 10
353.8393103080291
 20
191.8428641392699
 30
0.0
 11
335.1901602124289
 21
191.8428641392699
 31
0.0
  0
ARC
  5
2C95
330
1A
100
AcDbEntity
  8
SEIHIN
100
AcDbCircle
 10
374.0952881070291
 20
190.1428641392699
 30
0.0
 40
3.0
100
AcDbArc
 50
219.8055710922989
 51
270.0
  0
LINE
  5
2C96
330
1A
100
AcDbEntity
  8
SEIHIN
100
AcDbLine
 10
370.8854996540289
 20
189.3084604772699
 30
0.0
 11
371.790624268229
 21
188.2223109402699
 31
0.0
  0
ARC
  5
2C97
330
1A
100
AcDbEntity
  8
SEIHIN
100
AcDbCircle
 10
373.1901632690289
 20
191.2290139447699
 30
0.0
 40
3.0
100
AcDbArc
 50
180.0
 51
219.8055777680007
  0
ARC
  5
2C98
330
1A
100
AcDbEntity
  8
SEIHIN
100
AcDbCircle
 10
377.5382346786289
 20
191.6428641392699
 30
0.0
 40
1.0
100
AcDbArc
 50
183.5322945839
 51
270.0
  0
ARC
  5
2C99
330
1A
100
AcDbEntity
  8
SEIHIN
100
AcDbCircle
 10
377.5382346786289
 20
191.6428641392699
 30
0.0
 40
4.5
100
AcDbArc
 50
183.5322945839
 51
270.0
  0
ARC
  5
2C9A
330
1A
100
AcDbEntity
  8
SEIHIN
100
AcDbCircle
 10
-335.1901632690289
 20
311.84286413927
 30
0.0
 40
116.5
210
0.0
220
0.0
230
-1.0
100
AcDbArc
 50
303.4241891158988
 51
303.4241893624987
  0
ARC
  5
2C9B
330
1A
100
AcDbEntity
  8
SEIHIN
100
AcDbCircle
 10
-335.1901632690289
 20
311.84286413927
 30
0.0
 40
120.0
210
0.0
220
0.0
230
-1.0
100
AcDbArc
 50
303.4241893819
 51
303.4241894726986
  0
LINE
  5
2C9F
330
1A
100
AcDbEntity
  8
SEIHIN
100
AcDbLine
 10
366.8966957221289
 20
218.3428641392699
 30
0.0
 11
360.581933904629
 21
218.3428641392699
 31
0.0
  0
LINE
  5
2CA0
330
1A
100
AcDbEntity
  8
SEIHIN
100
AcDbLine
 10
366.8966957221289
 20
214.8428641392699
 30
0.0
 11
360.5819344803289
 21
214.8428641392699
 31
0.0
  0
ARC
  5
2CA3
330
1A
100
AcDbEntity
  8
SEIHIN
100
AcDbCircle
 10
347.1294966686289
 20
196.3428641392699
 30
0.0
 40
1.0
100
AcDbArc
 50
270.0
 51
345.0
  0
LINE
  5
2CA4
330
1A
100
AcDbEntity
  8
SEIHIN
100
AcDbLine
 10
347.1294966686289
 20
195.3428641392699
 30
0.0
 11
335.190160395929
 21
195.3428641392699
 31
0.0
  0
LINE
  5
2CA5
330
1A
100
AcDbEntity
  8
SEIHIN
100
AcDbLine
 10
348.0954224948288
 20
196.0840450941699
 30
0.0
 11
352.371565100929
 21
212.0428265602699
 31
0.0
  0
LINE
  5
2CA6
330
1A
100
AcDbEntity
  8
SEIHIN
100
AcDbLine
 10
352.358813042329
 20
198.4722736618699
 30
0.0
 11
355.752305245529
 21
211.1369589790699
 31
0.0
  0
LINE
  5
2CA7
330
1A
100
AcDbEntity
  8
SEIHIN
100
AcDbLine
 10
359.324137865329
 20
197.8428641392699
 30
0.0
 11
352.8417759555291
 21
197.8428641392699
 31
0.0
  0
ARC
  5
2CA8
330
1A
100
AcDbEntity
  8
SEIHIN
100
AcDbCircle
 10
352.8417759555289
 20
198.3428641392699
 30
0.0
 40
0.5
100
AcDbArc
 50
165.0
 51
270.0
  0
LINE
  5
2CAA
330
1A
100
AcDbEntity
  8
SEIHIN
100
AcDbLine
 10
359.7571506326289
 20
197.0928642525699
 30
0.0
 11
358.1694370324289
 21
194.3428636292699
 31
0.0
  0
LINE
  5
2CAE
330
1A
100
AcDbEntity
  8
SEIHIN
100
AcDbLine
 10
370.8854996079289
 20
194.9772677458699
 30
0.0
 11
371.9270883514289
 21
196.2271742380699
 31
0.0
  0
ARC
  5
2CB0
330
1A
100
AcDbEntity
  8
SEIHIN
100
AcDbCircle
 10
369.6224245126288
 20
198.1477274370699
 30
0.0
 40
3.0
100
AcDbArc
 50
320.194428907701
 51
3.532294583900077
  0
LINE
  5
2CB2
330
1A
100
AcDbEntity
  8
SEIHIN
100
AcDbLine
 10
368.1901632690289
 20
209.7428641392699
 30
0.0
 11
368.1901632690289
 21
211.8428645862699
 31
0.0
  0
LINE
  5
2CB3
330
1A
100
AcDbEntity
  8
SEIHIN
100
AcDbLine
 10
368.1901632690289
 20
210.1747723134699
 30
0.0
 11
368.1901632690289
 21
210.3855050551699
 31
0.0
  0
LINE
  5
2CB4
330
1A
100
AcDbEntity
  8
SEIHIN
100
AcDbLine
 10
369.390163269029
 20
207.3428641392699
 30
0.0
 11
371.081263297729
 21
206.0745391177699
 31
0.0
  0
ARC
  5
2CB5
330
1A
100
AcDbEntity
  8
SEIHIN
100
AcDbCircle
 10
371.1901632690289
 20
209.7428641392699
 30
0.0
 40
3.0
100
AcDbArc
 50
180.0
 51
233.1301023542021
  0
LINE
  5
2CB6
330
1A
100
AcDbEntity
  8
SEIHIN
100
AcDbLine
 10
386.4234693824289
 20
240.6785639081699
 30
0.0
 11
366.6113641611289
 21
240.6785639081699
 31
0.0
  0
LINE
  5
2CB7
330
1A
100
AcDbEntity
  8
SEIHIN
100
AcDbLine
 10
366.611364734829
 20
244.1785639081699
 30
0.0
 11
366.6113641638289
 21
244.1785639081699
 31
0.0
  0
LINE
  5
2CB8
330
1A
100
AcDbEntity
  8
SEIHIN
100
AcDbLine
 10
391.154068912029
 20
241.4599485847698
 30
0.0
 11
386.656529685529
 21
242.9575035794699
 31
0.0
  0
LINE
  5
2CB9
330
1A
100
AcDbEntity
  8
SEIHIN
100
AcDbLine
 10
393.007827654929
 20
244.1785639081699
 30
0.0
 11
391.154068912029
 21
241.4599485847698
 31
0.0
  0
LINE
  5
2CBA
330
1A
100
AcDbEntity
  8
SEIHIN
100
AcDbLine
 10
235.090163269029
 20
368.7181980452026
 30
0.0
 11
388.9523670895184
 21
368.7181980452026
 31
0.0
  0
LINE
  5
2CBB
330
1A
100
AcDbEntity
  8
SEIHIN
100
AcDbLine
 10
235.090163269029
 20
396.7181980452026
 30
0.0
 11
388.9523670895184
 21
396.7181980452026
 31
0.0
  0
DIMENSION
  5
2CBC
330
1A
100
AcDbEntity
  8
SUNPOU
100
AcDbDimension
  2
*D5
 10
205.0901632690291
 20
368.7181980452026
 30
0.0
 11
205.090163269029
 21
382.7181980452026
 31
0.0
 70
   160
  3
STANDARD
100
AcDbAlignedDimension
 13
235.090163269029
 23
396.7181980452026
 33
0.0
 14
235.090163269029
 24
368.7181980452026
 34
0.0
 50
90.0
100
AcDbRotatedDimension
1001
ACAD
1000
DSTYLE
1002
{
1070
    41
1040
7.0
1070
    42
1040
6.0
1070
    43
1040
14.0
1070
    44
1040
3.0
1070
    73
1070
     0
1070
    74
1070
     0
1070
    77
1070
     3
1070
   140
1040
6.0
1070
   141
1040
150.0
1070
   147
1040
2.0
1070
   172
1070
     1
1070
   173
1070
     1
1070
   176
1070
     4
1070
   177
1070
     4
1070
   178
1070
     4
1070
   271
1070
     0
1070
   272
1070
     0
1070
   341
1005
6D
1070
     6
1000
OPEN
1070
     7
1000
OPEN
1002
}
  0
LINE
  5
2CBD
330
1A
100
AcDbEntity
  8
SEIHIN
100
AcDbLine
 10
255.404064270129
 20
396.7181980452027
 30
0.0
 11
255.404064270129
 21
368.7181980452027
 31
0.0
  0
LINE
  5
2CBE
330
1A
100
AcDbEntity
  8
SEIHIN
100
AcDbLine
 10
243.1901632690289
 20
368.7181980452026
 30
0.0
 11
243.1901632690289
 21
396.7181980452026
 31
0.0
  0
LINE
  5
2CBF
330
1A
100
AcDbEntity
  8
SEIHIN
100
AcDbLine
 10
235.090163269029
 20
368.7181980452026
 30
0.0
 11
235.090163269029
 21
396.7181980452026
 31
0.0
  0
LINE
  5
2CC0
330
1A
100
AcDbEntity
  8
SEIHIN
100
AcDbLine
 10
391.3347150041186
 20
350.355839368659
 30
0.0
 11
391.3347150041186
 21
363.7181980452027
 31
0.0
  0
LINE
  5
2CC1
330
1A
100
AcDbEntity
  8
SEIHIN
100
AcDbLine
 10
393.1114485635396
 20
348.9034697216243
 30
0.0
 11
392.9042067463187
 21
363.7181980452027
 31
0.0
  0
LWPOLYLINE
  5
2CC2
330
1A
100
AcDbEntity
  8
SEIHIN
100
AcDbPolyline
 90
       11
 70
   128
 43
0.0
 10
391.2607186197194
 20
351.1109757665525
 10
391.2607186197194
 20
351.1109757665525
 10
391.2607186197194
 20
351.1109757665525
 10
391.4084655798494
 20
349.6032114591715
 10
391.6044324635427
 20
348.2037279840771
 10
391.8431115371854
 20
346.9441386634124
 10
392.1165290153344
 20
345.8554895651839
 10
392.4123038948966
 20
344.9694629091597
 10
392.70813882599
 20
344.3209057205513
 10
392.70813882599
 20
344.3209057205513
 10
392.5602213604434
 20
344.6451843148555
  0
LWPOLYLINE
  5
2CCF
330
1A
100
AcDbEntity
  8
SEIHIN
100
AcDbPolyline
 90
       11
 70
   128
 43
0.0
 10
392.8657181615631
 20
351.1109757665525
 10
392.8657181615631
 20
351.1109757665525
 10
392.8657181615631
 20
351.1109757665525
 10
393.0134651216931
 20
349.6032114591715
 10
393.2094320053863
 20
348.2037279840771
 10
393.448111079029
 20
346.9441386634124
 10
393.7215285571781
 20
345.8554895651839
 10
394.0173034367406
 20
344.9694629091597
 10
394.3131383678339
 20
344.3209057205513
 10
394.3131383678339
 20
344.3209057205513
 10
394.165220902287
 20
344.6451843148555
  0
ARC
  5
2CDC
330
1A
100
AcDbEntity
  8
SEIHIN
100
AcDbCircle
 10
386.3347150041186
 20
363.7181980452026
 30
0.0
 40
5.0
100
AcDbArc
 50
0.0000000000001225
 51
90.00000000000012
  0
ARC
  5
2CDD
330
1A
100
AcDbEntity
  8
SEIHIN
100
AcDbCircle
 10
387.9042067463188
 20
363.7181980452027
 30
0.0
 40
5.0
100
AcDbArc
 50
0.0000000000001225
 51
90.00000000000012
  0
ARC
  5
2CDE
330
1A
100
AcDbEntity
  8
SEIHIN
100
AcDbCircle
 10
386.3347150041184
 20
401.7181980452027
 30
0.0
 40
5.0
100
AcDbArc
 50
270.0
 51
0.0
  0
ARC
  5
2CDF
330
1A
100
AcDbEntity
  8
SEIHIN
100
AcDbCircle
 10
387.9042067463185
 20
401.7181980452027
 30
0.0
 40
5.0
100
AcDbArc
 50
270.0
 51
0.0
  0
LINE
  5
2CE0
330
1A
100
AcDbEntity
  8
SEIHIN
100
AcDbLine
 10
391.3347150041183
 20
415.0805567217463
 30
0.0
 11
391.3347150041183
 21
401.7181980452027
 31
0.0
  0
LINE
  5
2CE1
330
1A
100
AcDbEntity
  8
SEIHIN
100
AcDbLine
 10
393.0134651216929
 20
415.8331846312337
 30
0.0
 11
392.9042067463185
 21
401.7181980452027
 31
0.0
  0
LWPOLYLINE
  5
2CE2
330
1A
100
AcDbEntity
  8
SEIHIN
100
AcDbPolyline
 90
       11
 70
   128
 43
0.0
 10
391.2607186197192
 20
414.3254203238527
 10
391.2607186197192
 20
414.3254203238527
 10
391.2607186197192
 20
414.3254203238527
 10
391.4084655798492
 20
415.8331846312337
 10
391.6044324635425
 20
417.2326681063283
 10
391.8431115371852
 20
418.4922574269928
 10
392.1165290153341
 20
419.5809065252213
 10
392.4123038948964
 20
420.4669331812456
 10
392.7081388259898
 20
421.115490369854
 10
392.7081388259898
 20
421.115490369854
 10
392.5602213604431
 20
420.7912117755499
  0
LWPOLYLINE
  5
2CEF
330
1A
100
AcDbEntity
  8
SEIHIN
100
AcDbPolyline
 90
       11
 70
   128
 43
0.0
 10
392.8657181615628
 20
414.3254203238527
 10
392.8657181615628
 20
414.3254203238527
 10
392.8657181615628
 20
414.3254203238527
 10
393.0134651216929
 20
415.8331846312337
 10
393.2094320053861
 20
417.2326681063283
 10
393.4481110790288
 20
418.4922574269928
 10
393.7215285571778
 20
419.5809065252213
 10
394.0173034367403
 20
420.4669331812456
 10
394.3131383678337
 20
421.115490369854
 10
394.3131383678337
 20
421.115490369854
 10
394.1652209022868
 20
420.7912117755499
  0
LINE
  5
2CFC
330
1A
100
AcDbEntity
  8
CENTER_L
 48
5.0
100
AcDbLine
 10
557.4278147129971
 20
309.5348236179556
 30
0.0
 11
589.7173246513971
 21
228.8110487717556
 31
0.0
  0
DIMENSION
  5
2CFD
330
1A
100
AcDbEntity
  8
SUNPOU
100
AcDbDimension
  2
*D6
 10
510.5751025425099
 20
265.1116598299515
 30
0.0
 11
511.2444365423398
 21
276.9012368482051
 31
0.0
 70
    33
  3
STANDARD
100
AcDbAlignedDimension
 13
528.6263509780808
 23
295.3758460408288
 33
0.0
 14
536.5724498872728
 24
275.5105987678653
 34
0.0
1001
ACAD
1000
DSTYLE
1002
{
1070
    41
1040
7.0
1070
    42
1040
6.0
1070
    43
1040
14.0
1070
    44
1040
3.0
1070
    73
1070
     0
1070
    74
1070
     0
1070
    77
1070
     3
1070
   140
1040
6.0
1070
   141
1040
150.0
1070
   147
1040
2.0
1070
   172
1070
     1
1070
   173
1070
     1
1070
   176
1070
     4
1070
   177
1070
     4
1070
   178
1070
     4
1070
   271
1070
     0
1070
   272
1070
     0
1070
   341
1005
6D
1070
     6
1000
OPEN
1070
     7
1000
OPEN
1002
}
  0
DIMENSION
  5
2CFE
330
1A
100
AcDbEntity
  8
SUNPOU
100
AcDbDimension
  2
*D7
 10
576.9102751408061
 20
346.9913094627443
 30
0.0
 11
545.3420676506911
 21
339.7491912738727
 31
0.0
 70
    33
  3
STANDARD
100
AcDbAlignedDimension
 13
536.595661804597
 23
275.4525689747556
 33
0.0
 14
596.0181700212972
 24
299.2215722613556
 34
0.0
1001
ACAD
1000
DSTYLE
1002
{
1070
    41
1040
7.0
1070
    42
1040
6.0
1070
    43
1040
14.0
1070
    44
1040
3.0
1070
    73
1070
     0
1070
    74
1070
     0
1070
    77
1070
     3
1070
   140
1040
6.0
1070
   141
1040
150.0
1070
   147
1040
2.0
1070
   172
1070
     1
1070
   173
1070
     1
1070
   176
1070
     4
1070
   177
1070
     4
1070
   178
1070
     4
1070
   271
1070
     0
1070
   272
1070
     0
1070
   341
1005
6D
1070
     6
1000
OPEN
1070
     7
1000
OPEN
1002
}
  0
DIMENSION
  5
2CFF
330
1A
100
AcDbEntity
  8
SUNPOU
100
AcDbDimension
  2
*D8
 10
579.2193210246806
 20
363.767981125208
 30
0.0
 11
540.1553923292733
 21
353.8140726745008
 31
0.0
 70
    33
  3
STANDARD
100
AcDbAlignedDimension
 13
525.3069224573766
 23
282.1337581141849
 33
0.0
 14
599.782724896821
 24
311.3508443012184
 34
0.0
1001
ACAD
1000
DSTYLE
1002
{
1070
    41
1040
7.0
1070
    42
1040
6.0
1070
    43
1040
14.0
1070
    44
1040
3.0
1070
    73
1070
     0
1070
    74
1070
     0
1070
    77
1070
     3
1070
   140
1040
6.0
1070
   141
1040
150.0
1070
   147
1040
2.0
1070
   172
1070
     1
1070
   173
1070
     1
1070
   176
1070
     4
1070
   177
1070
     4
1070
   178
1070
     4
1070
   271
1070
     0
1070
   272
1070
     0
1070
   341
1005
6D
1070
     6
1000
OPEN
1070
     7
1000
OPEN
1002
}
  0
ARC
  5
2D00
330
1A
100
AcDbEntity
  8
SEIHIN
100
AcDbCircle
 10
600.4748581374969
 20
271.9243575493556
 30
0.0
 40
15.0
100
AcDbArc
 50
111.8014094980992
 51
155.2339460616003
  0
ARC
  5
2D01
330
1A
100
AcDbEntity
  8
SEIHIN
100
AcDbCircle
 10
601.7747255047971
 20
271.3672715348557
 30
0.0
 40
13.0
100
AcDbArc
 50
111.8014094980992
 51
201.8014095098998
  0
LINE
  5
2D02
330
1A
100
AcDbEntity
  8
SEIHIN
100
AcDbLine
 10
542.1609584006562
 20
282.7407425318168
 30
0.0
 11
549.7057526799347
 21
285.7586602434851
 31
0.0
  0
ARC
  5
2D03
330
1A
100
AcDbEntity
  8
SEIHIN
100
AcDbCircle
 10
534.5916885966971
 20
285.8476668015557
 30
0.0
 40
7.0
100
AcDbArc
 50
166.9315118594993
 51
218.2194699648974
  0
ARC
  5
2D04
330
1A
100
AcDbEntity
  8
SEIHIN
100
AcDbCircle
 10
534.5916885966971
 20
285.8476668015557
 30
0.0
 40
10.0
100
AcDbArc
 50
113.8014094983971
 51
201.8014213581986
  0
LINE
  5
2D05
330
1A
100
AcDbEntity
  8
SEIHIN
100
AcDbLine
 10
530.2491990528972
 20
281.2071376770557
 30
0.0
 11
548.5915806508581
 21
288.5440903161351
 31
0.0
  0
ARC
  5
2D06
330
1A
100
AcDbEntity
  8
SEIHIN
100
AcDbCircle
 10
550.4485340326336
 20
283.9017068617109
 30
0.0
 40
2.0
100
AcDbArc
 50
21.80140948631613
 51
111.8014094860675
  0
LINE
  5
2D07
330
1A
100
AcDbEntity
  8
SEIHIN
100
AcDbLine
 10
555.0909174870607
 20
285.7586602434413
 30
0.0
 11
574.4665298174971
 21
237.3196294175556
 31
0.0
  0
LINE
  5
2D08
330
1A
100
AcDbEntity
  8
SEIHIN
100
AcDbLine
 10
579.5971598244971
 20
247.3800048303556
 30
0.0
 11
562.9829693596421
 21
288.9154809924537
 31
0.0
  0
LINE
  5
2D09
330
1A
100
AcDbEntity
  8
SEIHIN
100
AcDbLine
 10
567.6253528140673
 20
290.7724343742095
 30
0.0
 11
584.2395432788971
 21
249.2369582120557
 31
0.0
  0
LINE
  5
2D0A
330
1A
100
AcDbEntity
  8
SEIHIN
100
AcDbLine
 10
594.9590953305971
 20
245.3250285131557
 30
0.0
 11
575.5174046865813
 21
293.9292551232362
 31
0.0
  0
LINE
  5
2D0B
330
1A
100
AcDbEntity
  8
SEIHIN
100
AcDbLine
 10
578.3028347592234
 20
295.0434271523338
 30
0.0
 11
585.0179681334971
 21
278.2555937165557
 31
0.0
  0
ARC
  5
2D0C
330
1A
100
AcDbEntity
  8
SEIHIN
100
AcDbCircle
 10
596.0181700212972
 20
293.8364074542556
 30
0.0
 40
10.0
100
AcDbArc
 50
291.8014095216013
 51
21.80140948629858
  0
DIMENSION
  5
2D0D
330
1A
100
AcDbEntity
  8
SUNPOU
100
AcDbDimension
  2
*D9
 10
532.129608935079
 20
211.1982360676769
 30
0.0
 11
535.2864296840179
 21
216.7690962130312
 31
0.0
 70
    33
  3
STANDARD
100
AcDbAlignedDimension
 13
584.8764497290008
 23
240.9132360774772
 33
0.0
 14
587.8475751399292
 24
233.4854225504258
 34
0.0
1001
ACAD
1000
DSTYLE
1002
{
1070
    41
1040
7.0
1070
    42
1040
6.0
1070
    43
1040
14.0
1070
    44
1040
3.0
1070
    73
1070
     0
1070
    74
1070
     0
1070
    77
1070
     3
1070
   140
1040
6.0
1070
   141
1040
150.0
1070
   147
1040
2.0
1070
   172
1070
     1
1070
   173
1070
     1
1070
   176
1070
     4
1070
   177
1070
     4
1070
   178
1070
     4
1070
   271
1070
     0
1070
   272
1070
     0
1070
   341
1005
6D
1070
     6
1000
OPEN
1070
     7
1000
OPEN
1002
}
  0
DIMENSION
  5
2D0E
330
1A
100
AcDbEntity
  8
SUNPOU
100
AcDbDimension
  2
*D10
 10
529.1071567601502
 20
218.6764165151653
 30
0.0
 11
524.4900156366506
 21
243.7655807740951
 31
0.0
 70
    33
  3
STANDARD
100
AcDbAlignedDimension
 13
536.5724498872728
 23
275.5105987678653
 33
0.0
 14
555.096090957556
 24
229.0346765826864
 34
0.0
1001
ACAD
1000
DSTYLE
1002
{
1070
    41
1040
7.0
1070
    42
1040
6.0
1070
    43
1040
14.0
1070
    44
1040
3.0
1070
    73
1070
     0
1070
    74
1070
     0
1070
    77
1070
     3
1070
   140
1040
6.0
1070
   141
1040
150.0
1070
   147
1040
2.0
1070
   172
1070
     1
1070
   173
1070
     1
1070
   176
1070
     4
1070
   177
1070
     4
1070
   178
1070
     4
1070
   271
1070
     0
1070
   272
1070
     0
1070
   341
1005
6D
1070
     6
1000
OPEN
1070
     7
1000
OPEN
1002
}
  0
LINE
  5
2D0F
330
1A
100
AcDbEntity
  8
SEIHIN
100
AcDbLine
 10
531.0248016592971
 20
267.8390601094556
 30
0.0
 11
525.3069224573971
 21
282.1337581141556
 31
0.0
  0
DIMENSION
  5
2D10
330
1A
100
AcDbEntity
  8
SUNPOU
100
AcDbDimension
  2
*D11
 10
458.0289063358349
 20
181.5584564991572
 30
0.0
 11
447.9297723445748
 21
220.2675454828428
 31
0.0
 70
    33
  3
STANDARD
100
AcDbAlignedDimension
 13
400.6808833615291
 23
244.1160639081699
 33
0.0
 14
430.1638606340982
 24
170.4119367481088
 34
0.0
1001
ACAD
1000
DSTYLE
1002
{
1070
    41
1040
7.0
1070
    42
1040
6.0
1070
    43
1040
14.0
1070
    44
1040
3.0
1070
    73
1070
     0
1070
    74
1070
     0
1070
    77
1070
     3
1070
   140
1040
6.0
1070
   141
1040
150.0
1070
   147
1040
2.0
1070
   172
1070
     1
1070
   173
1070
     1
1070
   176
1070
     4
1070
   177
1070
     4
1070
   178
1070
     4
1070
   271
1070
     0
1070
   272
1070
     0
1070
   341
1005
6D
1070
     6
1000
OPEN
1070
     7
1000
OPEN
1002
}
  0
ARC
  5
2D11
330
1A
100
AcDbEntity
  8
SEIHIN
100
AcDbCircle
 10
413.0538995776289
 20
191.6428641392699
 30
0.0
 40
1.0
100
AcDbArc
 50
270.0000089454988
 51
21.80140948639929
  0
LINE
  5
2D12
330
1A
100
AcDbEntity
  8
SEIHIN
100
AcDbLine
 10
415.2740251175289
 20
196.8628799039699
 30
0.0
 11
425.8545853327289
 21
170.4114793657699
 31
0.0
  0
LINE
  5
2D13
330
1A
100
AcDbEntity
  8
SEIHIN
100
AcDbLine
 10
412.5216600516289
 20
195.6660453578699
 30
0.0
 11
423.6633803422289
 21
167.8117446313699
 31
0.0
  0
LINE
  5
2D14
330
1A
100
AcDbEntity
  8
SEIHIN
100
AcDbLine
 10
400.655883361529
 20
244.1785639081699
 30
0.0
 11
428.677154473029
 21
174.1253861293699
 31
0.0
  0
DIMENSION
  5
2D15
330
1A
100
AcDbEntity
  8
SUNPOU
100
AcDbDimension
  2
*D12
 10
435.7335773237192
 20
156.4843290025698
 30
0.0
 11
458.481256250427
 21
165.5834005731979
 31
0.0
 70
   161
  1
t7.0
  3
STANDARD
100
AcDbAlignedDimension
 13
423.6633803422289
 23
167.8117446313699
 33
0.0
 14
430.1627171784446
 24
170.4114793658404
 34
0.0
1001
ACAD
1000
DSTYLE
1002
{
1070
    41
1040
7.0
1070
    42
1040
6.0
1070
    43
1040
14.0
1070
    44
1040
3.0
1070
    73
1070
     0
1070
    74
1070
     0
1070
    77
1070
     3
1070
   140
1040
6.0
1070
   141
1040
150.0
1070
   147
1040
2.0
1070
   172
1070
     1
1070
   173
1070
     1
1070
   176
1070
     4
1070
   177
1070
     4
1070
   178
1070
     4
1070
   271
1070
     0
1070
   272
1070
     0
1070
   341
1005
6D
1070
     6
1000
OPEN
1070
     7
1000
OPEN
1002
}
  0
LINE
  5
2D16
330
1A
100
AcDbEntity
  8
SUNPOU
100
AcDbLine
 10
428.677154473029
 20
174.1253861293699
 30
0.0
 11
444.819200398429
 21
133.7702713159699
 31
0.0
  0
LINE
  5
2D17
330
1A
100
AcDbEntity
  8
SUNPOU
100
AcDbLine
 10
440.819200398429
 20
143.7702713159699
 30
0.0
 11
440.819200398429
 21
133.7702713159699
 31
0.0
  0
LINE
  5
2D18
330
1A
100
AcDbEntity
  8
SUNPOU
100
AcDbLine
 10
440.819200398429
 20
133.7702713159699
 30
0.0
 11
444.819200398429
 21
133.7702713159699
 31
0.0
  0
MTEXT
  5
2D19
330
1A
100
AcDbEntity
  8
SUNPOU
100
AcDbMText
 10
440.9519829774251
 20
131.284749219985
 30
0.0
 40
6.0
 41
11.39957131979999
 71
     1
 72
     5
  1
\W0.8;\FMS Gothic.ttf;\W1.0;4
1001
ACAD
1000
MTEXTBEGIN
1070
    73
1070
     1
1070
    44
1040
1.0
1070
    74
1070
     0
1000
MTEXTEND
1000
MTEXTBEGIN
1070
    73
1070
     1
1070
    44
1040
1.0
1070
    74
1070
     0
1000
MTEXTEND
1000
MTEXTBEGIN
1070
    73
1070
     1
1070
    44
1040
1.0
1070
    74
1070
     0
1000
MTEXTEND
1000
MTEXTBEGIN
1070
    73
1070
     1
1070
    44
1040
1.0
1070
    74
1070
     0
1000
MTEXTEND
  0
MTEXT
  5
2D1A
330
1A
100
AcDbEntity
  8
SUNPOU
100
AcDbMText
 10
431.2363011176219
 20
140.741320907322
 30
0.0
 40
6.0
 41
11.39957131979999
 71
     1
 72
     5
  1
\W0.8;\FMS Gothic.ttf;\W1.0;10
1001
ACAD
1000
MTEXTBEGIN
1070
    73
1070
     1
1070
    44
1040
1.0
1070
    74
1070
     0
1000
MTEXTEND
1000
MTEXTBEGIN
1070
    73
1070
     1
1070
    44
1040
1.0
1070
    74
1070
     0
1000
MTEXTEND
1000
MTEXTBEGIN
1070
    73
1070
     1
1070
    44
1040
1.0
1070
    74
1070
     0
1000
MTEXTEND
1000
MTEXTBEGIN
1070
    73
1070
     1
1070
    44
1040
1.0
1070
    74
1070
     0
1000
MTEXTEND
  0
LINE
  5
2D1B
330
1A
100
AcDbEntity
  8
CENTER_L
 48
5.0
100
AcDbLine
 10
413.2644414042511
 20
172.2684327478086
 30
0.0
 11
431.8339752219649
 21
179.6962462748691
 31
0.0
  0
LINE
  5
2D1C
330
1A
100
AcDbEntity
  8
SEIHIN
100
AcDbLine
 10
425.148943047629
 20
169.4830026749699
 30
0.0
 11
425.5203337240288
 21
168.5545259840699
 31
0.0
  0
LINE
  5
2D1D
330
1A
100
AcDbEntity
  8
SEIHIN
100
AcDbLine
 10
425.5203337240288
 20
168.5545259840699
 30
0.0
 11
423.6633803422289
 21
167.8117446313699
 31
0.0
  0
LINE
  5
2D1E
330
1A
100
AcDbEntity
  8
SEIHIN
100
AcDbLine
 10
428.677154473029
 20
174.1253861293699
 30
0.0
 11
425.148943047629
 21
169.4830026749699
 31
0.0
  0
DIMENSION
  5
2D20
330
1A
100
AcDbEntity
  8
SUNPOU
100
AcDbDimension
  2
*D13
 10
610.6224552881837
 20
213.4247180382235
 30
0.0
 11
595.7612419216096
 21
213.0188664801881
 31
0.0
 70
    33
  3
STANDARD
100
AcDbAlignedDimension
 13
573.7140636747972
 23
231.1230475633556
 33
0.0
 14
599.8174447497972
 24
241.2569021759557
 34
0.0
1001
ACAD
1000
DSTYLE
1002
{
1070
    41
1040
7.0
1070
    42
1040
6.0
1070
    43
1040
14.0
1070
    44
1040
3.0
1070
    73
1070
     0
1070
    74
1070
     0
1070
    77
1070
     3
1070
   140
1040
6.0
1070
   141
1040
150.0
1070
   147
1040
2.0
1070
   172
1070
     1
1070
   173
1070
     1
1070
   176
1070
     4
1070
   177
1070
     4
1070
   178
1070
     4
1070
   271
1070
     0
1070
   272
1070
     0
1070
   341
1005
6D
1070
     6
1000
OPEN
1070
     7
1000
OPEN
1002
}
  0
LINE
  5
2D21
330
1A
100
AcDbEntity
  8
SEIHIN
100
AcDbLine
 10
593.2390965914971
 20
243.5115555484557
 30
0.0
 11
594.434186444097
 21
244.0386880964556
 31
0.0
  0
LINE
  5
2D22
330
1A
100
AcDbEntity
  8
SEIHIN
100
AcDbLine
 10
598.4629668067971
 20
238.1676800768557
 30
0.0
 11
587.8475751399971
 21
233.4854225504557
 31
0.0
  0
LINE
  5
2D23
330
1A
100
AcDbEntity
  8
SEIHIN
100
AcDbLine
 10
598.156812250597
 20
238.9330664671556
 30
0.0
 11
587.476184463597
 21
234.4138992413557
 31
0.0
  0
LINE
  5
2D24
330
1A
100
AcDbEntity
  8
SEIHIN
100
AcDbLine
 10
586.362012434597
 20
237.1993293139556
 30
0.0
 11
599.179116632197
 21
242.8527224699556
 31
0.0
  0
LINE
  5
2D25
330
1A
100
AcDbEntity
  8
SEIHIN
100
AcDbLine
 10
589.704528523197
 20
266.5391927422557
 30
0.0
 11
599.179116632197
 21
242.8527224699556
 31
0.0
  0
ARC
  5
2D26
330
1A
100
AcDbEntity
  8
SEIHIN
100
AcDbCircle
 10
576.6389050319971
 20
238.1145118392556
 30
0.0
 40
1.0
100
AcDbArc
 50
288.8014094856984
 51
18.76530747289932
  0
LINE
  5
2D27
330
1A
100
AcDbEntity
  8
SEIHIN
100
AcDbLine
 10
573.090846113897
 20
232.6810914657556
 30
0.0
 11
563.7071811784972
 21
256.1402538043556
 31
0.0
  0
CIRCLE
  5
2D28
330
1A
100
AcDbEntity
  8
SEIHIN
100
AcDbCircle
 10
584.876449729197
 20
240.9132360775556
 30
0.0
 40
2.7
  0
LINE
  5
2D29
330
1A
100
AcDbEntity
  8
SEIHIN
100
AcDbLine
 10
576.7636423858971
 20
230.4932874994556
 30
0.0
 11
577.0387559334972
 21
229.8055036305556
 31
0.0
  0
LINE
  5
2D2A
330
1A
100
AcDbEntity
  8
SEIHIN
100
AcDbLine
 10
575.7172954911971
 20
236.7443787618557
 30
0.0
 11
576.9611940147972
 21
237.1678705072557
 31
0.0
  0
LINE
  5
2D2B
330
1A
100
AcDbEntity
  8
SEIHIN
100
AcDbLine
 10
586.362012434597
 20
237.1993293139556
 30
0.0
 11
573.090846113897
 21
232.6810914657556
 31
0.0
  0
LINE
  5
2D2C
330
1A
100
AcDbEntity
  8
SEIHIN
100
AcDbLine
 10
576.7636423858971
 20
230.4932874994556
 30
0.0
 11
587.476184463597
 21
234.4138992413557
 31
0.0
  0
LINE
  5
2D2D
330
1A
100
AcDbEntity
  8
SEIHIN
100
AcDbLine
 10
573.7140636747972
 20
231.1230475633556
 30
0.0
 11
573.090846113897
 21
232.6810914657556
 31
0.0
  0
ARC
  5
2D2E
330
1A
100
AcDbEntity
  8
SEIHIN
100
AcDbCircle
 10
575.3950065082972
 20
237.6910200938557
 30
0.0
 40
1.0
100
AcDbArc
 50
201.8014094862985
 51
288.8014094856984
  0
LINE
  5
2D2F
330
1A
100
AcDbEntity
  8
SEIHIN
100
AcDbLine
 10
573.7140636747972
 20
231.1230475633556
 30
0.0
 11
576.7636423858971
 21
230.4932874994556
 31
0.0
  0
LINE
  5
2D30
330
1A
100
AcDbEntity
  8
SEIHIN
100
AcDbLine
 10
577.0387559334972
 20
229.8055036305556
 30
0.0
 11
587.8475751399971
 21
233.4854225504557
 31
0.0
  0
ARC
  5
2D31
330
1A
100
AcDbEntity
  8
SEIHIN
100
AcDbCircle
 10
551.6369841969972
 20
251.3121750117556
 30
0.0
 40
13.0
100
AcDbArc
 50
21.80140948639777
 51
111.8014094980992
  0
ARC
  5
2D32
330
1A
100
AcDbEntity
  8
SEIHIN
100
AcDbCircle
 10
540.3095685681972
 20
271.5529668730556
 30
0.0
 40
10.0
100
AcDbArc
 50
201.8014095098998
 51
291.8014095216013
  0
LINE
  5
2D33
330
1A
100
AcDbEntity
  8
SEIHIN
100
AcDbLine
 10
542.9093033025972
 20
265.0536300368556
 30
0.0
 11
546.623210066197
 21
266.5391927422557
 31
0.0
  0
LINE
  5
2D34
330
1A
100
AcDbEntity
  8
SEIHIN
100
AcDbLine
 10
546.808905404297
 20
263.3823719932556
 30
0.0
 11
544.0234753316972
 21
262.2681999641556
 31
0.0
  0
ARC
  5
2D35
330
1A
100
AcDbEntity
  8
SEIHIN
100
AcDbCircle
 10
536.595661804597
 20
275.4525689747556
 30
0.0
 40
7.7
100
AcDbArc
 50
270.7471779596991
 51
46.97026297010221
  0
LINE
  5
2D36
330
1A
100
AcDbEntity
  8
CENTER_L
 48
5.0
100
AcDbLine
 10
534.4968022084176
 20
280.7000923225388
 30
0.0
 11
538.929634377463
 21
269.6172212499746
 31
0.0
  0
CIRCLE
  5
2D37
330
1A
100
AcDbEntity
  8
SEIHIN
100
AcDbCircle
 10
536.595661804597
 20
275.4525689747556
 30
0.0
 40
2.7
  0
ARC
  5
2D38
330
1A
100
AcDbEntity
  8
SEIHIN
100
AcDbCircle
 10
536.7091128087972
 20
266.7533087262556
 30
0.0
 40
1.0
100
AcDbArc
 50
90.74717793620191
 51
233.1246619618025
  0
ARC
  5
2D39
330
1A
100
AcDbEntity
  8
SEIHIN
100
AcDbCircle
 10
540.3095685681972
 20
271.5529668730556
 30
0.0
 40
7.0
100
AcDbArc
 50
233.1246619618025
 51
291.8014095216013
  0
LINE
  5
2D3A
330
1A
100
AcDbEntity
  8
CENTER_L
 48
5.0
100
AcDbLine
 10
530.9345908695213
 20
273.1883021446224
 30
0.0
 11
542.809088958084
 21
277.9377625302578
 31
0.0
  0
ARC
  5
2D3B
330
1A
100
AcDbEntity
  8
SEIHIN
100
AcDbCircle
 10
529.8778083765971
 20
282.1356143679557
 30
0.0
 40
1.0
100
AcDbArc
 50
218.2194699648974
 51
291.8014094863977
  0
ARC
  5
2D3C
330
1A
100
AcDbEntity
  8
SEIHIN
100
AcDbCircle
 10
542.5323490770056
 20
281.8122658409297
 30
0.0
 40
1.0
100
AcDbArc
 50
111.8014094860675
 51
226.9702629701022
  0
LINE
  5
2D3D
330
1A
100
AcDbEntity
  8
SEIHIN
100
AcDbLine
 10
559.0206207886971
 20
267.8566547786557
 30
0.0
 11
552.3054874144045
 21
284.6444882144179
 31
0.0
  0
ARC
  5
2D3E
330
1A
100
AcDbEntity
  8
SEIHIN
100
AcDbCircle
 10
552.1940702114971
 20
252.6120423789557
 30
0.0
 40
15.0
100
AcDbArc
 50
68.36887293459906
 51
111.8014094980992
  0
ARC
  5
2D3F
330
1A
100
AcDbEntity
  8
SEIHIN
100
AcDbCircle
 10
558.092144097897
 20
267.4852641022557
 30
0.0
 40
1.0
100
AcDbArc
 50
248.3688729581992
 51
21.80140948629858
  0
ARC
  5
2D40
330
1A
100
AcDbEntity
  8
SEIHIN
100
AcDbCircle
 10
584.876449729197
 20
240.9132360775556
 30
0.0
 40
7.7
100
AcDbArc
 50
135.5233790934038
 51
198.7653074729024
  0
LINE
  5
2D41
330
1A
100
AcDbEntity
  8
CENTER_L
 48
5.0
100
AcDbLine
 10
590.7100192812522
 20
243.245649573348
 30
0.0
 11
579.0412736519265
 21
238.5784843000706
 31
0.0
  0
ARC
  5
2D42
330
1A
100
AcDbEntity
  8
SEIHIN
100
AcDbCircle
 10
585.1680199697971
 20
249.6083488884556
 30
0.0
 40
1.0
100
AcDbArc
 50
201.8014094863977
 51
268.0794398792982
  0
ARC
  5
2D43
330
1A
100
AcDbEntity
  8
SEIHIN
100
AcDbCircle
 10
578.6686831335971
 20
247.0086141539557
 30
0.0
 40
1.0
100
AcDbArc
 50
315.5233790934037
 51
21.80140948639777
  0
ARC
  5
2D44
330
1A
100
AcDbEntity
  8
SEIHIN
100
AcDbCircle
 10
592.8355287869972
 20
244.4265052887557
 30
0.0
 40
1.0
100
AcDbArc
 50
203.8174568615028
 51
293.8014094869004
  0
ARC
  5
2D45
330
1A
100
AcDbEntity
  8
SEIHIN
100
AcDbCircle
 10
584.876449729197
 20
240.9132360775556
 30
0.0
 40
7.7
100
AcDbArc
 50
23.81745686150286
 51
88.07943987929821
  0
ARC
  5
2D46
330
1A
100
AcDbEntity
  8
SEIHIN
100
AcDbCircle
 10
585.946444824397
 20
278.6269843928556
 30
0.0
 40
1.0
100
AcDbArc
 50
201.8014095098998
 51
335.2339460851
  0
LINE
  5
2D47
330
1A
100
AcDbEntity
  8
SEIHIN
100
AcDbLine
 10
598.4629668067971
 20
238.1676800768557
 30
0.0
 11
598.156812250597
 21
238.9330664671556
 31
0.0
  0
LINE
  5
2D48
330
1A
100
AcDbEntity
  8
SEIHIN
100
AcDbLine
 10
599.8174447497972
 20
241.2569021759557
 30
0.0
 11
599.179116632197
 21
242.8527224699556
 31
0.0
  0
ARC
  5
2D49
330
1A
100
AcDbEntity
  8
SEIHIN
100
AcDbCircle
 10
594.0306186396972
 20
244.9536378367556
 30
0.0
 40
1.0
100
AcDbArc
 50
293.8014094869004
 51
21.80140948639777
  0
LINE
  5
2D4A
330
1A
100
AcDbEntity
  8
SEIHIN
100
AcDbLine
 10
598.156812250597
 20
238.9330664671556
 30
0.0
 11
599.8174447497972
 21
241.2569021759557
 31
0.0
  0
LINE
  5
2D4B
330
1A
100
AcDbEntity
  8
SEIHIN
100
AcDbLine
 10
599.7320767847971
 20
284.5516405454556
 30
0.0
 11
596.9466467121971
 21
283.4374685163556
 31
0.0
  0
ARC
  5
2D4C
330
1A
100
AcDbEntity
  8
SEIHIN
100
AcDbCircle
 10
529.7211862223971
 20
286.9782448048557
 30
0.0
 40
2.0
100
AcDbArc
 50
113.8014094983971
 51
166.9315118594993
  0
LINE
  5
2D4D
330
1A
100
AcDbEntity
  8
SEIHIN
100
AcDbLine
 10
400.3686680091139
 20
350.7181980452026
 30
0.0
 11
400.3686680091139
 21
382.7181980452026
 31
0.0
  0
ARC
  5
2D4E
330
1A
100
AcDbEntity
  8
SEIHIN
100
AcDbCircle
 10
327.2091563350929
 20
382.7181980452025
 30
0.0
 40
101.1272594643853
100
AcDbArc
 50
356.0308285751273
 51
0.0
  0
LINE
  5
2D4F
330
1A
100
AcDbEntity
  8
SUNPOU
100
AcDbLine
 10
464.7059226562355
 20
415.7181980452027
 30
0.0
 11
464.7059226562355
 21
349.7181980452026
 31
0.0
  0
LWPOLYLINE
  5
2D51
330
1A
100
AcDbEntity
  8
SEIHIN
100
AcDbPolyline
 90
        9
 70
   128
 43
0.0
 10
409.7633381203698
 20
380.2181980452024
 10
409.6182766406696
 20
380.1579721591025
 10
409.4790394650697
 20
379.9797126056024
 10
409.3512170483697
 20
379.6905766111025
 10
409.2399415362697
 20
379.3021731566025
 10
409.1496807061696
 20
378.8300968702025
 10
409.0840585837697
 20
378.2933018938025
 10
409.0457099360696
 20
377.7133408628025
 10
409.0361744838697
 20
377.1134995551025
  0
LWPOLYLINE
  5
2D5C
330
1A
100
AcDbEntity
  8
SEIHIN
100
AcDbPolyline
 90
        9
 70
   128
 43
0.0
 10
406.5066499091836
 20
380.2181980452024
 10
406.6517113888835
 20
380.1579721591025
 10
406.7909485644836
 20
379.9797126056024
 10
406.9187709811835
 20
379.6905766111024
 10
407.0300464932836
 20
379.3021731566024
 10
407.1203073233834
 20
378.8300968702024
 10
407.1859294457835
 20
378.2933018938024
 10
407.2242780934836
 20
377.7133408628024
 10
407.2338135456837
 20
377.1134995551024
  0
LWPOLYLINE
  5
2D67
330
1A
100
AcDbEntity
  8
SEIHIN
100
AcDbPolyline
 90
        8
 70
   128
 43
0.0
 10
405.5774941086871
 20
380.0796424726009
 10
405.6555485644834
 20
379.9797126056024
 10
405.7833709811836
 20
379.6905766111024
 10
405.8946464932835
 20
379.3021731566024
 10
405.9849073233835
 20
378.8300968702024
 10
406.0505294457836
 20
378.2933018938024
 10
406.0888780934836
 20
377.7133408628024
 10
406.0984135456835
 20
377.1134995551024
  0
LWPOLYLINE
  5
2D71
330
1A
100
AcDbEntity
  8
SEIHIN
100
AcDbPolyline
 90
        9
 70
   128
 43
0.0
 10
405.7837383081907
 20
380.2181980452024
 10
405.6386768284908
 20
380.1579721591025
 10
405.4994396528907
 20
379.9797126056024
 10
405.3716172361907
 20
379.6905766111024
 10
405.2603417240907
 20
379.3021731566024
 10
405.1700808939906
 20
378.8300968702024
 10
405.1044587715908
 20
378.2933018938024
 10
405.0661101238908
 20
377.7133408628024
 10
405.0565746716909
 20
377.1134995551024
  0
LINE
  5
2D7C
330
1A
100
AcDbEntity
  8
SEIHIN
100
AcDbLine
 10
403.3686680091139
 20
350.7181980452026
 30
0.0
 11
403.3686680091139
 21
382.7181980452026
 31
0.0
  0
ELLIPSE
  5
2D7D
330
1A
100
AcDbEntity
  8
SEIHIN
100
AcDbEllipse
 10
426.3796232215076
 20
382.560316753435
 30
0.0
 11
0.5091598755672184
 21
8.030211518536036
 31
0.0
210
0.0
220
0.0
230
1.0
 40
0.3005395739229382
 41
1.885759924007487
 42
3.143846711997412
  0
ELLIPSE
  5
2D7E
330
1A
100
AcDbEntity
  8
SEIHIN
100
AcDbEllipse
 10
427.509099775262
 20
382.560316753435
 30
0.0
 11
0.5091598755672184
 21
8.030211518536036
 31
0.0
210
0.0
220
0.0
230
1.0
 40
0.3005395739229382
 41
1.885759924007487
 42
3.143846711997319
  0
LINE
  5
2D7F
330
1A
100
AcDbEntity
  8
SUNPOU
100
AcDbLine
 10
425.7198530093774
 20
342.7181980452026
 30
0.0
 11
467.7059226562355
 21
342.7181980452026
 31
0.0
  0
LINE
  5
2D80
330
1A
100
AcDbEntity
  8
CENTER_L
 48
5.0
100
AcDbLine
 10
409.7668819832829
 20
339.8653392026648
 30
0.0
 11
409.7668819832829
 21
361.6385655992374
 31
0.0
  0
LINE
  5
2D81
330
1A
100
AcDbEntity
  8
SEIHIN
100
AcDbLine
 10
412.3720082314918
 20
354.7636497851025
 30
0.0
 11
412.5192624860919
 21
353.5642395307026
 31
0.0
  0
LINE
  5
2D82
330
1A
100
AcDbEntity
  8
SEIHIN
100
AcDbLine
 10
413.363647724416
 20
357.9506221184199
 30
0.0
 11
413.3153884240162
 21
352.25263218422
 31
0.0
  0
LINE
  5
2D83
330
1A
100
AcDbEntity
  8
SEIHIN
100
AcDbLine
 10
414.4990070038113
 20
357.9410061582025
 30
0.0
 11
414.4507477034115
 21
352.2430162240025
 31
0.0
  0
LINE
  5
2D84
330
1A
100
AcDbEntity
  8
SEIHIN
100
AcDbLine
 10
405.1312258324465
 20
354.3090200450309
 30
0.0
 11
405.0439496636074
 21
364.6137432145853
 31
0.0
  0
LINE
  5
2D85
330
1A
100
AcDbEntity
  8
SEIHIN
100
AcDbLine
 10
406.0762788423503
 20
365.2215435232158
 30
0.0
 11
405.9415440818225
 21
346.5722459580861
 31
0.0
  0
LINE
  5
2D86
330
1A
100
AcDbEntity
  8
SEIHIN
100
AcDbLine
 10
407.2116492120366
 20
365.2133408628027
 30
0.0
 11
407.0573482113457
 21
343.8557842440659
 31
0.0
  0
LINE
  5
2D87
330
1A
100
AcDbEntity
  8
SEIHIN
100
AcDbLine
 10
412.8419605221942
 20
346.753363169324
 30
0.0
 11
413.034386894096
 21
347.984470069494
 31
0.0
  0
ARC
  5
2D88
330
1A
100
AcDbEntity
  8
SEIHIN
100
AcDbCircle
 10
410.1471688174544
 20
347.0295601838005
 30
0.0
 40
4.328101381250355
100
AcDbArc
 50
264.9592298876391
 51
316.0867912445086
  0
LWPOLYLINE
  5
2D89
330
1A
100
AcDbEntity
  8
SEIHIN
100
AcDbPolyline
 90
        7
 70
   128
 43
0.0
 10
400.3455890156215
 20
350.8070852348683
 10
400.4993995729424
 20
349.2374416481388
 10
400.7140055504528
 20
347.7048484184966
 10
400.9825565796809
 20
346.287614794674
 10
401.3052912743648
 20
345.0026024512304
 10
401.687520945642
 20
343.8575908194914
 10
402.2120797721251
 20
342.7076035732041
  0
ARC
  5
2D92
330
1A
100
AcDbEntity
  8
SEIHIN
100
AcDbCircle
 10
409.3263006751028
 20
349.9505619388125
 30
0.0
 40
7.245771137616057
100
AcDbArc
 50
231.1252424430387
 51
273.4860376238343
  0
LINE
  5
2D93
330
1A
100
AcDbEntity
  8
SEIHIN
100
AcDbLine
 10
396.5514879328397
 20
342.7295176220358
 30
0.0
 11
409.326300675104
 21
342.7047908011961
 31
0.0
  0
LWPOLYLINE
  5
2D94
330
1A
100
AcDbEntity
  8
SEIHIN
100
AcDbPolyline
 90
       11
 70
   128
 43
0.0
 10
403.3312886382179
 20
351.0996561897195
 10
403.3312886382179
 20
351.0996561897195
 10
403.3312886382179
 20
351.0996561897195
 10
403.479035598348
 20
349.5918918823385
 10
403.6750024820412
 20
348.1924084072441
 10
403.9136815556839
 20
346.9328190865795
 10
404.1870990338329
 20
345.8441699883509
 10
404.4828739133952
 20
344.9581433323266
 10
404.7787088444886
 20
344.3095861437183
 10
404.7787088444886
 20
344.3095861437183
 10
404.6307913789418
 20
344.6338647380224
  0
LINE
  5
2DA1
330
1A
100
AcDbEntity
  8
SEIHIN
100
AcDbLine
 10
412.5192624860919
 20
353.5642395307026
 30
0.0
 11
412.6153132240919
 21
352.2795714145026
 31
0.0
  0
LINE
  5
2DA2
330
1A
100
AcDbEntity
  8
SEIHIN
100
AcDbLine
 10
412.6153132240919
 20
352.2795714145026
 30
0.0
 11
412.6574052464918
 21
350.9464959217026
 31
0.0
  0
LINE
  5
2DA3
330
1A
100
AcDbEntity
  8
SEIHIN
100
AcDbLine
 10
412.6574052464918
 20
350.9464959217026
 30
0.0
 11
412.644331150992
 21
349.6032520949026
 31
0.0
  0
LINE
  5
2DA4
330
1A
100
AcDbEntity
  8
SEIHIN
100
AcDbLine
 10
412.644331150992
 20
349.6032520949026
 30
0.0
 11
412.5764659655919
 21
348.2883706538026
 31
0.0
  0
LINE
  5
2DA5
330
1A
100
AcDbEntity
  8
SEIHIN
100
AcDbLine
 10
412.5764659655919
 20
348.2883706538026
 30
0.0
 11
412.4557563916919
 21
347.0395687479026
 31
0.0
  0
LINE
  5
2DA6
330
1A
100
AcDbEntity
  8
SEIHIN
100
AcDbLine
 10
412.0866431945648
 20
344.1440442787643
 30
0.0
 11
412.3515614835967
 21
344.7951774689546
 31
0.0
  0
LINE
  5
2DA7
330
1A
100
AcDbEntity
  8
SEIHIN
100
AcDbLine
 10
412.3515614835967
 20
344.7951774689546
 30
0.0
 11
412.6104432818233
 21
345.6782050612559
 31
0.0
  0
LINE
  5
2DA8
330
1A
100
AcDbEntity
  8
SEIHIN
100
AcDbLine
 10
412.6104432818233
 20
345.6782050612559
 30
0.0
 11
412.8419605221942
 21
346.753363169324
 31
0.0
  0
LINE
  5
2DA9
330
1A
100
AcDbEntity
  8
SEIHIN
100
AcDbLine
 10
411.6835217575571
 20
343.6742523330532
 30
0.0
 11
411.8003422340723
 21
343.7113142936575
 31
0.0
  0
LINE
  5
2DAA
330
1A
100
AcDbEntity
  8
SEIHIN
100
AcDbLine
 10
411.8003422340723
 20
343.7113142936575
 30
0.0
 11
411.8635990426112
 21
343.7724877831228
 31
0.0
  0
LINE
  5
2DAB
330
1A
100
AcDbEntity
  8
SEIHIN
100
AcDbLine
 10
412.4557563916919
 20
347.0395687479026
 30
0.0
 11
411.8635990426112
 21
343.7724877831228
 31
0.0
  0
LINE
  5
2DAC
330
1A
100
AcDbEntity
  8
SEIHIN
100
AcDbLine
 10
411.8635990426112
 20
343.7724877831228
 30
0.0
 11
412.0866431945648
 21
344.1440442787643
 31
0.0
  0
LINE
  5
2DAD
330
1A
100
AcDbEntity
  8
SEIHIN
100
AcDbLine
 10
410.4344412274121
 20
350.7181980452025
 30
0.0
 11
410.4101659801122
 21
351.4784525833026
 31
0.0
  0
LINE
  5
2DAE
330
1A
100
AcDbEntity
  8
SEIHIN
100
AcDbLine
 10
410.4101659801122
 20
351.4784525833026
 30
0.0
 11
410.338994556212
 21
352.1868970311026
 31
0.0
  0
LINE
  5
2DAF
330
1A
100
AcDbEntity
  8
SEIHIN
100
AcDbLine
 10
410.338994556212
 20
352.1868970311026
 30
0.0
 11
410.2257771706121
 21
352.7952520701026
 31
0.0
  0
LINE
  5
2DB0
330
1A
100
AcDbEntity
  8
SEIHIN
100
AcDbLine
 10
410.2257771706121
 20
352.7952520701026
 30
0.0
 11
410.0782294010123
 21
353.2620593097026
 31
0.0
  0
LINE
  5
2DB1
330
1A
100
AcDbEntity
  8
SEIHIN
100
AcDbLine
 10
410.0782294010123
 20
353.2620593097026
 30
0.0
 11
409.9064063841121
 21
353.5555066082026
 31
0.0
  0
LINE
  5
2DB2
330
1A
100
AcDbEntity
  8
SEIHIN
100
AcDbLine
 10
409.9064063841121
 20
353.5555066082026
 30
0.0
 11
409.7220175746121
 21
353.6555960169026
 31
0.0
  0
LINE
  5
2DB3
330
1A
100
AcDbEntity
  8
SEIHIN
100
AcDbLine
 10
409.7220175746121
 20
353.6555960169026
 30
0.0
 11
409.5376287650122
 21
353.5555066082026
 31
0.0
  0
LINE
  5
2DB4
330
1A
100
AcDbEntity
  8
SEIHIN
100
AcDbLine
 10
409.5376287650122
 20
353.5555066082026
 30
0.0
 11
409.365805748112
 21
353.2620593097026
 31
0.0
  0
LINE
  5
2DB5
330
1A
100
AcDbEntity
  8
SEIHIN
100
AcDbLine
 10
409.365805748112
 20
353.2620593097026
 30
0.0
 11
409.2182579786122
 21
352.7952520701026
 31
0.0
  0
LINE
  5
2DB6
330
1A
100
AcDbEntity
  8
SEIHIN
100
AcDbLine
 10
409.2182579786122
 20
352.7952520701026
 30
0.0
 11
409.1050405929122
 21
352.1868970311026
 31
0.0
  0
LINE
  5
2DB7
330
1A
100
AcDbEntity
  8
SEIHIN
100
AcDbLine
 10
409.1050405929122
 20
352.1868970311026
 30
0.0
 11
409.0338691690122
 21
351.4784525833026
 31
0.0
  0
LINE
  5
2DB8
330
1A
100
AcDbEntity
  8
SEIHIN
100
AcDbLine
 10
409.0338691690122
 20
351.4784525833026
 30
0.0
 11
409.0095939217121
 21
350.7181980452025
 31
0.0
  0
LINE
  5
2DB9
330
1A
100
AcDbEntity
  8
SEIHIN
100
AcDbLine
 10
409.0095939217121
 20
350.7181980452025
 30
0.0
 11
409.0338691690122
 21
349.9579435071026
 31
0.0
  0
LINE
  5
2DBA
330
1A
100
AcDbEntity
  8
SEIHIN
100
AcDbLine
 10
409.0338691690122
 20
349.9579435071026
 30
0.0
 11
409.1050405929122
 21
349.2494990593026
 31
0.0
  0
LINE
  5
2DBB
330
1A
100
AcDbEntity
  8
SEIHIN
100
AcDbLine
 10
409.1050405929122
 20
349.2494990593026
 30
0.0
 11
409.2182579786122
 21
348.6411440203025
 31
0.0
  0
LINE
  5
2DBC
330
1A
100
AcDbEntity
  8
SEIHIN
100
AcDbLine
 10
409.2182579786122
 20
348.6411440203025
 30
0.0
 11
409.365805748112
 21
348.1743367806026
 31
0.0
  0
LINE
  5
2DBD
330
1A
100
AcDbEntity
  8
SEIHIN
100
AcDbLine
 10
409.365805748112
 20
348.1743367806026
 30
0.0
 11
409.5376287650122
 21
347.8808894822026
 31
0.0
  0
LINE
  5
2DBE
330
1A
100
AcDbEntity
  8
SEIHIN
100
AcDbLine
 10
409.5376287650122
 20
347.8808894822026
 30
0.0
 11
409.7220175746121
 21
347.7808000735026
 31
0.0
  0
LINE
  5
2DBF
330
1A
100
AcDbEntity
  8
SEIHIN
100
AcDbLine
 10
409.7220175746121
 20
347.7808000735026
 30
0.0
 11
409.9064063841121
 21
347.8808894822026
 31
0.0
  0
LINE
  5
2DC0
330
1A
100
AcDbEntity
  8
SEIHIN
100
AcDbLine
 10
409.9064063841121
 20
347.8808894822026
 30
0.0
 11
410.0782294010123
 21
348.1743367806026
 31
0.0
  0
LINE
  5
2DC1
330
1A
100
AcDbEntity
  8
SEIHIN
100
AcDbLine
 10
410.0782294010123
 20
348.1743367806026
 30
0.0
 11
410.2257771706121
 21
348.6411440203025
 31
0.0
  0
LINE
  5
2DC2
330
1A
100
AcDbEntity
  8
SEIHIN
100
AcDbLine
 10
410.2257771706121
 20
348.6411440203025
 30
0.0
 11
410.338994556212
 21
349.2494990593026
 31
0.0
  0
LINE
  5
2DC3
330
1A
100
AcDbEntity
  8
SEIHIN
100
AcDbLine
 10
410.338994556212
 20
349.2494990593026
 30
0.0
 11
410.4101659801122
 21
349.9579435071026
 31
0.0
  0
LINE
  5
2DC4
330
1A
100
AcDbEntity
  8
SEIHIN
100
AcDbLine
 10
410.4101659801122
 20
349.9579435071026
 30
0.0
 11
410.4344412274121
 21
350.7181980452025
 31
0.0
  0
LWPOLYLINE
  5
2DC5
330
1A
100
AcDbEntity
  8
SEIHIN
100
AcDbPolyline
 90
       11
 70
   128
 43
0.0
 10
405.1308978312561
 20
354.3283377588927
 10
405.172835702398
 20
352.6831683504296
 10
405.2685921443367
 20
351.0996561897195
 10
405.4163391044666
 20
349.5918918823385
 10
405.6123059881599
 20
348.1924084072441
 10
405.8509850618027
 20
346.9328190865795
 10
406.1244025399516
 20
345.8441699883509
 10
406.4201774195139
 20
344.9581433323266
 10
406.7160123506073
 20
344.3095861437183
 10
406.9637439441932
 20
343.9378183830979
 10
407.0573482113457
 20
343.8557842440659
  0
LINE
  5
2DD2
330
1A
100
AcDbEntity
  8
SEIHIN
100
AcDbLine
 10
413.2650951308112
 20
344.0277278982025
 30
0.0
 11
413.4249226357114
 21
344.4205622077026
 31
0.0
  0
LINE
  5
2DD3
330
1A
100
AcDbEntity
  8
SEIHIN
100
AcDbLine
 10
413.4249226357114
 20
344.4205622077026
 30
0.0
 11
413.7116629354116
 21
345.3986131877025
 31
0.0
  0
LINE
  5
2DD4
330
1A
100
AcDbEntity
  8
SEIHIN
100
AcDbLine
 10
413.7116629354116
 20
345.3986131877025
 30
0.0
 11
413.9587377299115
 21
346.5460200425027
 31
0.0
  0
LINE
  5
2DD5
330
1A
100
AcDbEntity
  8
SEIHIN
100
AcDbLine
 10
413.9587377299115
 20
346.5460200425027
 30
0.0
 11
414.1603300789115
 21
347.8357691004026
 31
0.0
  0
LINE
  5
2DD6
330
1A
100
AcDbEntity
  8
SEIHIN
100
AcDbLine
 10
414.1603300789115
 20
347.8357691004026
 30
0.0
 11
414.3116938459115
 21
349.2374954936025
 31
0.0
  0
LINE
  5
2DD7
330
1A
100
AcDbEntity
  8
SEIHIN
100
AcDbLine
 10
414.3116938459115
 20
349.2374954936025
 30
0.0
 11
414.4092654377113
 21
350.7181980452026
 31
0.0
  0
LINE
  5
2DD8
330
1A
100
AcDbEntity
  8
SEIHIN
100
AcDbLine
 10
414.4092654377113
 20
350.7181980452026
 30
0.0
 11
414.4507477034115
 21
352.2430162240025
 31
0.0
  0
LINE
  5
2DD9
330
1A
100
AcDbEntity
  8
SEIHIN
100
AcDbLine
 10
413.034386894096
 20
347.984470069494
 30
0.0
 11
413.180310210346
 21
349.3358143695526
 31
0.0
  0
LINE
  5
2DDA
330
1A
100
AcDbEntity
  8
SEIHIN
100
AcDbLine
 10
413.180310210346
 20
349.3358143695526
 30
0.0
 11
413.2748813904483
 21
350.7709840239801
 31
0.0
  0
LINE
  5
2DDB
330
1A
100
AcDbEntity
  8
SEIHIN
100
AcDbLine
 10
413.2748813904483
 20
350.7709840239801
 30
0.0
 11
413.315767623573
 21
352.2738930497715
 31
0.0
  0
LINE
  5
2DDC
330
1A
100
AcDbEntity
  8
SEIHIN
100
AcDbLine
 10
412.7574625617735
 20
364.0526885933546
 30
0.0
 11
413.03565246464
 21
365.3445929415974
 31
0.0
  0
LINE
  5
2DDD
330
1A
100
AcDbEntity
  8
SEIHIN
100
AcDbLine
 10
426.2013485916684
 20
370.7181980452024
 30
0.0
 11
409.7912079835334
 21
370.7181980452023
 31
0.0
  0
LINE
  5
2DDE
330
1A
100
AcDbEntity
  8
SEIHIN
100
AcDbLine
 10
415.2220096091166
 20
367.7181980452026
 30
0.0
 11
409.7507092389228
 21
367.7181980452026
 31
0.0
  0
LINE
  5
2DDF
330
1A
100
AcDbEntity
  8
SEIHIN
100
AcDbLine
 10
409.1370518247229
 20
366.3300968702026
 30
0.0
 11
409.0714297023228
 21
365.7933018938026
 31
0.0
  0
LWPOLYLINE
  5
2DE0
330
1A
100
AcDbEntity
  8
SEIHIN
100
AcDbPolyline
 90
        9
 70
   128
 43
0.0
 10
406.4940210277368
 20
367.7181980452026
 10
406.6390825074368
 20
367.6579721591027
 10
406.7783196830369
 20
367.4797126056026
 10
406.9061420997368
 20
367.1905766111027
 10
407.0174176118369
 20
366.8021731566026
 10
407.107678441937
 20
366.3300968702027
 10
407.1733005643368
 20
365.7933018938027
 10
407.2116492120366
 20
365.2133408628027
 10
407.2211846642367
 20
364.6134995551026
  0
LWPOLYLINE
  5
2DEB
330
1A
100
AcDbEntity
  8
SEIHIN
100
AcDbPolyline
 90
        6
 70
   128
 43
0.0
 10
405.7842769036558
 20
367.7181980452026
 10
405.8725117899503
 20
367.4102171247158
 10
405.9627726200504
 20
366.9381408383157
 10
406.0283947424502
 20
366.4013458619158
 10
406.0667433901503
 20
365.8213848309157
 10
406.0762788423503
 20
365.2215435232158
  0
LWPOLYLINE
  5
2DF3
330
1A
100
AcDbEntity
  8
SEIHIN
100
AcDbPolyline
 90
        9
 70
   128
 43
0.0
 10
405.771109426744
 20
367.7181980452026
 10
405.6260479470441
 20
367.6579721591027
 10
405.4868107714439
 20
367.4797126056026
 10
405.358988354744
 20
367.1905766111027
 10
405.2477128426439
 20
366.8021731566026
 10
405.157452012544
 20
366.3300968702027
 10
405.091829890144
 20
365.7933018938027
 10
405.0534812424439
 20
365.2133408628027
 10
405.0439457902439
 20
364.6134995551026
  0
LINE
  5
2DFE
330
1A
100
AcDbEntity
  8
SEIHIN
100
AcDbLine
 10
412.2282884450207
 20
357.9602380786373
 30
0.0
 11
412.2088945912503
 21
355.6704000028084
 31
0.0
  0
LINE
  5
2DFF
330
1A
100
AcDbEntity
  8
SEIHIN
100
AcDbLine
 10
411.3746563298921
 20
358.0773088771026
 30
0.0
 11
411.671842182792
 21
357.5243355587025
 31
0.0
  0
LINE
  5
2E00
330
1A
100
AcDbEntity
  8
SEIHIN
100
AcDbLine
 10
411.671842182792
 20
357.5243355587025
 30
0.0
 11
411.9421326257918
 21
356.7725097008026
 31
0.0
  0
LINE
  5
2E01
330
1A
100
AcDbEntity
  8
SEIHIN
100
AcDbLine
 10
411.9421326257918
 20
356.7725097008026
 30
0.0
 11
412.1777744235918
 21
355.8433972994026
 31
0.0
  0
LINE
  5
2E02
330
1A
100
AcDbEntity
  8
SEIHIN
100
AcDbLine
 10
412.2290468441303
 20
358.0027598095916
 30
0.0
 11
412.2717211748827
 21
359.5713962945597
 31
0.0
  0
LINE
  5
2E03
330
1A
100
AcDbEntity
  8
SEIHIN
100
AcDbLine
 10
412.2717211748827
 20
359.5713962945597
 30
0.0
 11
412.3752935901887
 21
361.14316464058
 31
0.0
  0
LINE
  5
2E04
330
1A
100
AcDbEntity
  8
SEIHIN
100
AcDbLine
 10
412.3752935901887
 20
361.14316464058
 30
0.0
 11
412.5375382586712
 21
362.6456552198988
 31
0.0
  0
LINE
  5
2E05
330
1A
100
AcDbEntity
  8
SEIHIN
100
AcDbLine
 10
412.5375382586712
 20
362.6456552198988
 30
0.0
 11
412.7574625617735
 21
364.0526885933546
 31
0.0
  0
LINE
  5
2E06
330
1A
100
AcDbEntity
  8
SEIHIN
100
AcDbLine
 10
409.0095939217121
 20
358.6555960169026
 30
0.0
 11
409.7220175746121
 21
358.6555960169026
 31
0.0
  0
LINE
  5
2E07
330
1A
100
AcDbEntity
  8
SEIHIN
100
AcDbLine
 10
409.0095939217121
 20
358.6555960169026
 30
0.0
 11
409.0095939217121
 21
363.7358490539411
 31
0.0
  0
LINE
  5
2E08
330
1A
100
AcDbEntity
  8
SEIHIN
100
AcDbLine
 10
409.7220175746121
 20
358.6555960169026
 30
0.0
 11
411.059099792392
 21
358.4155677108026
 31
0.0
  0
LINE
  5
2E09
330
1A
100
AcDbEntity
  8
SEIHIN
100
AcDbLine
 10
409.0714297023228
 20
365.7933018938026
 30
0.0
 11
409.0330810546229
 21
365.2133408628026
 31
0.0
  0
LINE
  5
2E0A
330
1A
100
AcDbEntity
  8
SEIHIN
100
AcDbLine
 10
409.0330810546229
 20
365.2133408628026
 30
0.0
 11
409.0095939217121
 21
363.735849053942
 31
0.0
  0
LINE
  5
2E0B
330
1A
100
AcDbEntity
  8
SEIHIN
100
AcDbLine
 10
411.059099792392
 20
358.4155677108026
 30
0.0
 11
411.3746563298921
 21
358.0773088771026
 31
0.0
  0
LINE
  5
2E0C
330
1A
100
AcDbEntity
  8
SEIHIN
100
AcDbLine
 10
412.1777744235918
 20
355.8433972994026
 30
0.0
 11
412.3720082314918
 21
354.7636497851025
 31
0.0
  0
LWPOLYLINE
  5
2E0D
330
1A
100
AcDbEntity
  8
SEIHIN
100
AcDbPolyline
 90
        9
 70
   128
 43
0.0
 10
409.7912079835339
 20
370.7181980452023
 10
409.6461465038337
 20
370.7784239313023
 10
409.5069093282338
 20
370.9566834848024
 10
409.3790869115339
 20
371.2458194793023
 10
409.2678113994338
 20
371.6342229338023
 10
409.1775505693338
 20
372.1062992202023
 10
409.1119284469339
 20
372.6430941966023
 10
409.0735797992338
 20
373.2230552276023
 10
409.0640443470338
 20
373.8228965353023
  0
LINE
  5
2E18
330
1A
100
AcDbEntity
  8
SEIHIN
100
AcDbLine
 10
409.0361744838697
 20
377.1134995551025
 30
0.0
 11
409.0640443470338
 21
373.8228965353024
 31
0.0
  0
LINE
  5
2E19
330
1A
100
AcDbEntity
  8
SEIHIN
100
AcDbLine
 10
409.7507092389228
 20
367.7181980452026
 30
0.0
 11
409.6056477592228
 21
367.6579721591026
 31
0.0
  0
LINE
  5
2E1A
330
1A
100
AcDbEntity
  8
SEIHIN
100
AcDbLine
 10
409.6056477592228
 20
367.6579721591026
 30
0.0
 11
409.4664105836229
 21
367.4797126056025
 31
0.0
  0
LINE
  5
2E1B
330
1A
100
AcDbEntity
  8
SEIHIN
100
AcDbLine
 10
409.4664105836229
 20
367.4797126056025
 30
0.0
 11
409.3385881669227
 21
367.1905766111026
 31
0.0
  0
LWPOLYLINE
  5
2E1C
330
1A
100
AcDbEntity
  8
SEIHIN
100
AcDbPolyline
 90
        9
 70
   128
 43
0.0
 10
406.5066499091836
 20
370.7181980452023
 10
406.6517113888835
 20
370.7784239313022
 10
406.7909485644836
 20
370.9566834848023
 10
406.9187709811835
 20
371.2458194793022
 10
407.0300464932836
 20
371.6342229338022
 10
407.1203073233834
 20
372.1062992202023
 10
407.1859294457835
 20
372.6430941966022
 10
407.2242780934836
 20
373.2230552276023
 10
407.2338135456837
 20
373.8228965353022
  0
LINE
  5
2E27
330
1A
100
AcDbEntity
  8
SEIHIN
100
AcDbLine
 10
407.2338135456837
 20
377.1134995551024
 30
0.0
 11
407.2338135456837
 21
373.8228965353022
 31
0.0
  0
LWPOLYLINE
  5
2E28
330
1A
100
AcDbEntity
  8
SEIHIN
100
AcDbPolyline
 90
        8
 70
   128
 43
0.0
 10
405.5914290402693
 20
370.8745939299989
 10
405.6555485644834
 20
370.9566834848023
 10
405.7833709811836
 20
371.2458194793022
 10
405.8946464932835
 20
371.6342229338022
 10
405.9849073233835
 20
372.1062992202023
 10
406.0505294457836
 20
372.6430941966022
 10
406.0888780934836
 20
373.2230552276023
 10
406.0984135456835
 20
373.8228965353022
  0
LWPOLYLINE
  5
2E32
330
1A
100
AcDbEntity
  8
SEIHIN
100
AcDbPolyline
 90
        9
 70
   128
 43
0.0
 10
405.8116081713548
 20
370.7181980452023
 10
405.6665466916549
 20
370.7784239313022
 10
405.5273095160548
 20
370.9566834848023
 10
405.3994870993549
 20
371.2458194793022
 10
405.2882115872548
 20
371.6342229338022
 10
405.1979507571547
 20
372.1062992202023
 10
405.1323286347549
 20
372.6430941966022
 10
405.093979987055
 20
373.2230552276023
 10
405.084444534855
 20
373.8228965353022
  0
LINE
  5
2E3D
330
1A
100
AcDbEntity
  8
SEIHIN
100
AcDbLine
 10
406.0984135456835
 20
377.1134995551024
 30
0.0
 11
406.0984135456835
 21
373.8228965353022
 31
0.0
  0
LINE
  5
2E3E
330
1A
100
AcDbEntity
  8
SEIHIN
100
AcDbLine
 10
405.0565746716909
 20
377.1134995551024
 30
0.0
 11
405.084444534855
 21
373.8228965353024
 31
0.0
  0
LINE
  5
2E3F
330
1A
100
AcDbEntity
  8
SEIHIN
100
AcDbLine
 10
406.5066499091837
 20
370.7181980452024
 30
0.0
 11
405.7837383081905
 21
370.7181980452024
 31
0.0
  0
LINE
  5
2E40
330
1A
100
AcDbEntity
  8
SEIHIN
100
AcDbLine
 10
406.4940210277368
 20
367.7181980452027
 30
0.0
 11
405.771109426744
 21
367.7181980452026
 31
0.0
  0
LINE
  5
2E41
330
1A
100
AcDbEntity
  8
SEIHIN
100
AcDbLine
 10
409.227312654823
 20
366.8021731566026
 30
0.0
 11
409.1370518247229
 21
366.3300968702026
 31
0.0
  0
LINE
  5
2E42
330
1A
100
AcDbEntity
  8
SEIHIN
100
AcDbLine
 10
409.3385881669227
 20
367.1905766111026
 30
0.0
 11
409.227312654823
 21
366.8021731566026
 31
0.0
  0
LINE
  5
2E43
330
1A
100
AcDbEntity
  8
SEIHIN
100
AcDbLine
 10
413.03565246464
 20
365.3445929415974
 30
0.0
 11
413.378109767176
 21
366.5126906970264
 31
0.0
  0
LINE
  5
2E44
330
1A
100
AcDbEntity
  8
SEIHIN
100
AcDbLine
 10
415.5248320714115
 20
365.7634601745026
 30
0.0
 11
415.8444870813114
 21
366.5491287935026
 31
0.0
  0
LINE
  5
2E45
330
1A
100
AcDbEntity
  8
SEIHIN
100
AcDbLine
 10
414.1368721182256
 20
365.0650010680501
 30
0.0
 11
414.4514709192938
 21
366.1380754357644
 31
0.0
  0
LINE
  5
2E46
330
1A
100
AcDbEntity
  8
SEIHIN
100
AcDbLine
 10
414.4990070038113
 20
357.9410061582025
 30
0.0
 11
414.5404892694114
 21
359.4658243370026
 31
0.0
  0
LINE
  5
2E47
330
1A
100
AcDbEntity
  8
SEIHIN
100
AcDbLine
 10
414.5404892694114
 20
359.4658243370026
 30
0.0
 11
414.6380608613115
 21
360.9465268886026
 31
0.0
  0
LINE
  5
2E48
330
1A
100
AcDbEntity
  8
SEIHIN
100
AcDbLine
 10
414.6380608613115
 20
360.9465268886026
 30
0.0
 11
414.7894246283114
 21
362.3482532818025
 31
0.0
  0
LINE
  5
2E49
330
1A
100
AcDbEntity
  8
SEIHIN
100
AcDbLine
 10
414.7894246283114
 20
362.3482532818025
 30
0.0
 11
414.9910169772115
 21
363.6380023397026
 31
0.0
  0
LINE
  5
2E4A
330
1A
100
AcDbEntity
  8
SEIHIN
100
AcDbLine
 10
414.9910169772115
 20
363.6380023397026
 30
0.0
 11
415.2380917718114
 21
364.7854091945026
 31
0.0
  0
LINE
  5
2E4B
330
1A
100
AcDbEntity
  8
SEIHIN
100
AcDbLine
 10
415.2380917718114
 20
364.7854091945026
 30
0.0
 11
415.5248320714115
 21
365.7634601745026
 31
0.0
  0
LINE
  5
2E4C
330
1A
100
AcDbEntity
  8
SEIHIN
100
AcDbLine
 10
413.3640269239708
 20
357.9718829838971
 30
0.0
 11
413.406105222147
 21
359.5186103157812
 31
0.0
  0
LINE
  5
2E4D
330
1A
100
AcDbEntity
  8
SEIHIN
100
AcDbLine
 10
413.406105222147
 20
359.5186103157812
 30
0.0
 11
413.50667722575
 21
361.0448457645913
 31
0.0
  0
LINE
  5
2E4E
330
1A
100
AcDbEntity
  8
SEIHIN
100
AcDbLine
 10
413.50667722575
 20
361.0448457645913
 30
0.0
 11
413.6634814434912
 21
362.4969542508507
 31
0.0
  0
LINE
  5
2E4F
330
1A
100
AcDbEntity
  8
SEIHIN
100
AcDbLine
 10
413.6634814434912
 20
362.4969542508507
 30
0.0
 11
413.8742397694925
 21
363.8453454665286
 31
0.0
  0
LINE
  5
2E50
330
1A
100
AcDbEntity
  8
SEIHIN
100
AcDbLine
 10
413.8742397694925
 20
363.8453454665286
 30
0.0
 11
414.1368721182256
 21
365.0650010680501
 31
0.0
  0
LINE
  5
2E51
330
1A
100
AcDbEntity
  8
SEIHIN
100
AcDbLine
 10
425.7197745220207
 20
367.7181980452026
 30
0.0
 11
417.2398527733792
 21
367.7181980452026
 31
0.0
  0
LINE
  5
2E52
330
1A
100
AcDbEntity
  8
SEIHIN
100
AcDbLine
 10
413.8072382186273
 20
367.5674301735977
 30
0.0
 11
413.8977436799732
 21
367.7181980452026
 31
0.0
  0
LINE
  5
2E53
330
1A
100
AcDbEntity
  8
SEIHIN
100
AcDbLine
 10
416.1895310877114
 20
367.1239178690025
 30
0.0
 11
416.5518406378114
 21
367.4742950056026
 31
0.0
  0
LINE
  5
2E54
330
1A
100
AcDbEntity
  8
SEIHIN
100
AcDbLine
 10
416.5518406378114
 20
367.4742950056026
 30
0.0
 11
417.2398527733792
 21
367.7181980452026
 31
0.0
  0
LINE
  5
2E55
330
1A
100
AcDbEntity
  8
SEIHIN
100
AcDbLine
 10
414.8258626499694
 20
367.0582794835502
 30
0.0
 11
415.2220096091166
 21
367.7181980452026
 31
0.0
  0
LINE
  5
2E56
330
1A
100
AcDbEntity
  8
SEIHIN
100
AcDbLine
 10
413.378109767176
 20
366.5126906970264
 30
0.0
 11
413.8072382186273
 21
367.5674301735977
 31
0.0
  0
LINE
  5
2E57
330
1A
100
AcDbEntity
  8
SEIHIN
100
AcDbLine
 10
415.8444870813114
 20
366.5491287935026
 30
0.0
 11
416.1895310877114
 21
367.1239178690025
 31
0.0
  0
LINE
  5
2E58
330
1A
100
AcDbEntity
  8
SEIHIN
100
AcDbLine
 10
414.4514709192938
 20
366.1380754357644
 30
0.0
 11
414.8258626499694
 21
367.0582794835502
 31
0.0
  0
LWPOLYLINE
  5
2E59
330
1A
100
AcDbEntity
  8
SEIHIN
100
AcDbPolyline
 90
        8
 70
   128
 43
0.0
 10
426.2013485916681
 20
370.7181980452023
 10
426.3464100713683
 20
370.7784239313023
 10
426.4856472469682
 20
370.9566834848024
 10
426.6134696636681
 20
371.2458194793023
 10
426.7247451757682
 20
371.6342229338023
 10
426.8150060058683
 20
372.1062992202023
 10
426.8806281282682
 20
372.6430941966023
 10
427.0053811248817
 20
374.5297807129631
  0
LWPOLYLINE
  5
2E63
330
1A
100
AcDbEntity
  8
SEIHIN
100
AcDbPolyline
 90
        8
 70
   128
 43
0.0
 10
425.0659485916683
 20
370.7181980452023
 10
425.2110100713682
 20
370.7784239313023
 10
425.3502472469683
 20
370.9566834848024
 10
425.4780696636682
 20
371.2458194793023
 10
425.5893451757681
 20
371.6342229338023
 10
425.6796060058682
 20
372.1062992202023
 10
425.7452281282683
 20
372.6430941966023
 10
425.8699811248816
 20
374.5297807129631
  0
LINE
  5
2E6D
330
1A
100
AcDbEntity
  8
SEIHIN
100
AcDbLine
 10
425.8759045711274
 20
374.5297807129631
 30
0.0
 11
427.0053811248817
 21
374.5297807129631
 31
0.0
  0
LWPOLYLINE
  5
2E6E
330
1A
100
AcDbEntity
  8
SEIHIN
100
AcDbPolyline
 90
       10
 70
   128
 43
0.0
 10
425.7197745220207
 20
367.7181980452026
 10
426.0908196761208
 20
367.8359142307026
 10
426.4531292262208
 20
368.1862913673025
 10
426.7981732327207
 20
368.7610804428026
 10
427.1178282425207
 20
369.5467490618026
 10
427.4045685422208
 20
370.5248000418025
 10
427.6516433367207
 20
371.6722068966026
 10
427.8532356857208
 20
372.9619559545026
 10
428.0045994527208
 20
374.3636823477026
 10
428.093855902357
 20
375.7181980452028
  0
INSERT
  5
2E7A
330
1A
100
AcDbEntity
  8
SUNPOU
100
AcDbBlockReference
  2
_OPEN
 10
464.7059226562355
 20
342.7181980452026
 30
0.0
 41
7.0
 42
7.0
 43
7.0
 50
270.0
  0
MTEXT
  5
2E7B
330
1A
100
AcDbEntity
  8
SUNPOU
100
AcDbMText
 10
459.9700021301182
 20
382.7181980452028
 30
0.0
 40
6.0
 41
0.0
 71
     5
 72
     5
  1
\A1;80
 11
0.0000000000000001
 21
1.0
 31
0.0
1001
ACAD
1000
MTEXTBEGIN
1070
    73
1070
     1
1070
    44
1040
1.0
1070
    74
1070
     0
1000
MTEXTEND
1000
MTEXTBEGIN
1070
    73
1070
     1
1070
    44
1040
1.0
1070
    74
1070
     0
1000
MTEXTEND
1000
MTEXTBEGIN
1070
    73
1070
     1
1070
    44
1040
1.0
1070
    74
1070
     0
1000
MTEXTEND
1000
MTEXTBEGIN
1070
    73
1070
     1
1070
    44
1040
1.0
1070
    74
1070
     0
1000
MTEXTEND
  0
LINE
  5
2E7C
330
1A
100
AcDbEntity
  8
SUNPOU
100
AcDbLine
 10
424.5602584077467
 20
422.7181980452026
 30
0.0
 11
467.7059226562355
 21
422.7181980452026
 31
0.0
  0
LINE
  5
2E7D
330
1A
100
AcDbEntity
  8
CENTER_L
 48
5.0
100
AcDbLine
 10
409.7668819832829
 20
425.5710568877404
 30
0.0
 11
409.7668819832829
 21
403.7978304911678
 31
0.0
  0
LINE
  5
2E7E
330
1A
100
AcDbEntity
  8
SEIHIN
100
AcDbLine
 10
400.3686680091146
 20
414.7181980452033
 30
0.0
 11
400.3686680091139
 21
382.7181980452032
 31
0.0
  0
LINE
  5
2E7F
330
1A
100
AcDbEntity
  8
SEIHIN
100
AcDbLine
 10
412.7574625617739
 20
401.3837074970511
 30
0.0
 11
413.0356524646401
 21
400.0918031488082
 31
0.0
  0
LINE
  5
2E80
330
1A
100
AcDbEntity
  8
SEIHIN
100
AcDbLine
 10
413.874239769493
 20
401.591050623877
 30
0.0
 11
414.1368721182259
 21
400.3713950223555
 31
0.0
  0
LINE
  5
2E81
330
1A
100
AcDbEntity
  8
SEIHIN
100
AcDbLine
 10
409.0330810546231
 20
400.2230552276031
 30
0.0
 11
409.0095939217126
 21
401.7005470364638
 31
0.0
  0
LWPOLYLINE
  5
2E82
330
1A
100
AcDbEntity
  8
SEIHIN
100
AcDbPolyline
 90
        9
 70
   128
 43
0.0
 10
406.494021027737
 20
397.7181980452032
 10
406.6390825074369
 20
397.7784239313031
 10
406.7783196830371
 20
397.9566834848032
 10
406.906142099737
 20
398.2458194793031
 10
407.0174176118373
 20
398.6342229338032
 10
407.1076784419371
 20
399.1062992202031
 10
407.1733005643371
 20
399.6430941966031
 10
407.2116492120369
 20
400.2230552276031
 10
407.2211846642371
 20
400.8228965353031
  0
LWPOLYLINE
  5
2E8D
330
1A
100
AcDbEntity
  8
SEIHIN
100
AcDbPolyline
 90
        9
 70
   128
 43
0.0
 10
405.7711094267443
 20
397.7181980452032
 10
405.6260479470442
 20
397.7784239313031
 10
405.4868107714444
 20
397.9566834848032
 10
405.3589883547444
 20
398.2458194793031
 10
405.2477128426442
 20
398.6342229338032
 10
405.1574520125443
 20
399.1062992202031
 10
405.0918298901445
 20
399.6430941966031
 10
405.0534812424441
 20
400.2230552276031
 10
405.0439457902443
 20
400.8228965353032
  0
LINE
  5
2E98
330
1A
100
AcDbEntity
  8
SEIHIN
100
AcDbLine
 10
414.991016977212
 20
401.7983937507031
 30
0.0
 11
415.2380917718119
 21
400.6509868959031
 31
0.0
  0
LINE
  5
2E99
330
1A
100
AcDbEntity
  8
SEIHIN
100
AcDbLine
 10
406.0762788423505
 20
400.21485256719
 30
0.0
 11
405.9415440818232
 21
418.8641501323197
 31
0.0
  0
LINE
  5
2E9A
330
1A
100
AcDbEntity
  8
SEIHIN
100
AcDbLine
 10
407.2116492120369
 20
400.2230552276031
 30
0.0
 11
407.0573482113466
 21
421.5806118463399
 31
0.0
  0
LINE
  5
2E9B
330
1A
100
AcDbEntity
  8
SEIHIN
100
AcDbLine
 10
403.3686680091145
 20
414.7181980452033
 30
0.0
 11
403.3686680091139
 21
382.7181980452032
 31
0.0
  0
LINE
  5
2E9C
330
1A
100
AcDbEntity
  8
SEIHIN
100
AcDbLine
 10
425.0566955562391
 20
380.2181980452024
 30
0.0
 11
409.7633381203695
 21
380.2181980452023
 31
0.0
  0
LINE
  5
2E9D
330
1A
100
AcDbEntity
  8
SEIHIN
100
AcDbLine
 10
426.2013485916686
 20
394.7181980452029
 30
0.0
 11
409.7912079835337
 21
394.7181980452034
 31
0.0
  0
LINE
  5
2E9E
330
1A
100
AcDbEntity
  8
SEIHIN
100
AcDbLine
 10
415.2220096091168
 20
397.718198045203
 30
0.0
 11
409.750709238923
 21
397.7181980452032
 31
0.0
  0
LINE
  5
2EA0
330
1A
100
AcDbEntity
  8
SEIHIN
100
AcDbLine
 10
409.0361744838698
 20
388.3228965353032
 30
0.0
 11
409.064044347034
 21
391.6134995551033
 31
0.0
  0
LINE
  5
2EA1
330
1A
100
AcDbEntity
  8
SEIHIN
100
AcDbLine
 10
407.2338135456837
 20
388.3228965353033
 30
0.0
 11
407.2338135456838
 21
391.6134995551035
 31
0.0
  0
LINE
  5
2EA2
330
1A
100
AcDbEntity
  8
SEIHIN
100
AcDbLine
 10
406.0984135456835
 20
388.3228965353034
 30
0.0
 11
406.0984135456838
 21
391.6134995551036
 31
0.0
  0
LINE
  5
2EA3
330
1A
100
AcDbEntity
  8
SEIHIN
100
AcDbLine
 10
405.0565746716909
 20
388.3228965353034
 30
0.0
 11
405.0844445348552
 21
391.6134995551033
 31
0.0
  0
LINE
  5
2EA4
330
1A
100
AcDbEntity
  8
SEIHIN
100
AcDbLine
 10
406.5066499091836
 20
380.2181980452024
 30
0.0
 11
405.7837383081907
 21
380.2181980452024
 31
0.0
  0
LWPOLYLINE
  5
2EA5
330
1A
100
AcDbEntity
  8
SEIHIN
100
AcDbPolyline
 90
        9
 70
   128
 43
0.0
 10
409.7633381203698
 20
385.2181980452033
 10
409.6182766406696
 20
385.2784239313032
 10
409.4790394650697
 20
385.4566834848033
 10
409.3512170483697
 20
385.7458194793033
 10
409.2399415362697
 20
386.1342229338033
 10
409.1496807061696
 20
386.6062992202033
 10
409.0840585837697
 20
387.1430941966032
 10
409.0457099360699
 20
387.7230552276033
 10
409.0361744838698
 20
388.3228965353032
  0
LWPOLYLINE
  5
2EB0
330
1A
100
AcDbEntity
  8
SEIHIN
100
AcDbPolyline
 90
        9
 70
   128
 43
0.0
 10
406.5066499091836
 20
385.2181980452034
 10
406.6517113888835
 20
385.2784239313034
 10
406.7909485644836
 20
385.4566834848034
 10
406.9187709811835
 20
385.7458194793034
 10
407.0300464932836
 20
386.1342229338034
 10
407.1203073233834
 20
386.6062992202033
 10
407.1859294457835
 20
387.1430941966033
 10
407.2242780934836
 20
387.7230552276033
 10
407.2338135456837
 20
388.3228965353033
  0
LWPOLYLINE
  5
2EBB
330
1A
100
AcDbEntity
  8
SEIHIN
100
AcDbPolyline
 90
        8
 70
   128
 43
0.0
 10
405.5774941086871
 20
385.3567536178049
 10
405.6555485644834
 20
385.4566834848034
 10
405.7833709811836
 20
385.7458194793034
 10
405.8946464932835
 20
386.1342229338034
 10
405.9849073233835
 20
386.6062992202034
 10
406.0505294457836
 20
387.1430941966033
 10
406.0888780934836
 20
387.7230552276034
 10
406.0984135456835
 20
388.3228965353034
  0
LWPOLYLINE
  5
2EC5
330
1A
100
AcDbEntity
  8
SEIHIN
100
AcDbPolyline
 90
        9
 70
   128
 43
0.0
 10
405.7837383081907
 20
385.2181980452034
 10
405.6386768284908
 20
385.2784239313034
 10
405.4994396528907
 20
385.4566834848034
 10
405.3716172361907
 20
385.7458194793034
 10
405.2603417240907
 20
386.1342229338034
 10
405.1700808939906
 20
386.6062992202034
 10
405.1044587715908
 20
387.1430941966033
 10
405.0661101238908
 20
387.7230552276034
 10
405.0565746716909
 20
388.3228965353034
  0
LINE
  5
2ED0
330
1A
100
AcDbEntity
  8
SEIHIN
100
AcDbLine
 10
406.5066499091836
 20
385.2181980452034
 30
0.0
 11
405.7837383081907
 21
385.2181980452034
 31
0.0
  0
LWPOLYLINE
  5
2ED1
330
1A
100
AcDbEntity
  8
SEIHIN
100
AcDbPolyline
 90
        9
 70
   128
 43
0.0
 10
409.7912079835341
 20
394.7181980452034
 10
409.6461465038339
 20
394.6579721591035
 10
409.506909328234
 20
394.4797126056034
 10
409.3790869115341
 20
394.1905766111034
 10
409.2678113994341
 20
393.8021731566034
 10
409.1775505693339
 20
393.3300968702035
 10
409.1119284469341
 20
392.7933018938034
 10
409.073579799234
 20
392.2133408628035
 10
409.064044347034
 20
391.6134995551034
  0
LINE
  5
2EDC
330
1A
100
AcDbEntity
  8
SEIHIN
100
AcDbLine
 10
409.750709238923
 20
397.7181980452032
 30
0.0
 11
409.605647759223
 21
397.7784239313031
 31
0.0
  0
LINE
  5
2EDD
330
1A
100
AcDbEntity
  8
SEIHIN
100
AcDbLine
 10
409.605647759223
 20
397.7784239313031
 30
0.0
 11
409.4664105836234
 21
397.9566834848032
 31
0.0
  0
LINE
  5
2EDE
330
1A
100
AcDbEntity
  8
SEIHIN
100
AcDbLine
 10
409.4664105836234
 20
397.9566834848032
 30
0.0
 11
409.338588166923
 21
398.2458194793031
 31
0.0
  0
LINE
  5
2EDF
330
1A
100
AcDbEntity
  8
SEIHIN
100
AcDbLine
 10
409.338588166923
 20
398.2458194793031
 30
0.0
 11
409.2273126548231
 21
398.6342229338032
 31
0.0
  0
LINE
  5
2EE0
330
1A
100
AcDbEntity
  8
SEIHIN
100
AcDbLine
 10
409.2273126548231
 20
398.6342229338032
 30
0.0
 11
409.1370518247233
 21
399.1062992202031
 31
0.0
  0
LINE
  5
2EE1
330
1A
100
AcDbEntity
  8
SEIHIN
100
AcDbLine
 10
409.1370518247233
 20
399.1062992202031
 30
0.0
 11
409.071429702323
 21
399.6430941966031
 31
0.0
  0
LINE
  5
2EE2
330
1A
100
AcDbEntity
  8
SEIHIN
100
AcDbLine
 10
409.071429702323
 20
399.6430941966031
 30
0.0
 11
409.0330810546231
 21
400.2230552276031
 31
0.0
  0
LWPOLYLINE
  5
2EE3
330
1A
100
AcDbEntity
  8
SEIHIN
100
AcDbPolyline
 90
        9
 70
   128
 43
0.0
 10
406.5066499091837
 20
394.7181980452035
 10
406.6517113888838
 20
394.6579721591036
 10
406.7909485644838
 20
394.4797126056035
 10
406.9187709811838
 20
394.1905766111036
 10
407.0300464932838
 20
393.8021731566036
 10
407.1203073233837
 20
393.3300968702035
 10
407.1859294457838
 20
392.7933018938036
 10
407.2242780934839
 20
392.2133408628035
 10
407.2338135456838
 20
391.6134995551035
  0
LWPOLYLINE
  5
2EEE
330
1A
100
AcDbEntity
  8
SEIHIN
100
AcDbPolyline
 90
        8
 70
   128
 43
0.0
 10
405.5914290402695
 20
394.5618021604069
 10
405.6555485644837
 20
394.4797126056035
 10
405.7833709811839
 20
394.1905766111036
 10
405.8946464932837
 20
393.8021731566036
 10
405.9849073233838
 20
393.3300968702035
 10
406.0505294457839
 20
392.7933018938036
 10
406.0888780934837
 20
392.2133408628035
 10
406.0984135456838
 20
391.6134995551036
  0
LWPOLYLINE
  5
2EF8
330
1A
100
AcDbEntity
  8
SEIHIN
100
AcDbPolyline
 90
        9
 70
   128
 43
0.0
 10
405.8116081713551
 20
394.7181980452035
 10
405.6665466916552
 20
394.6579721591036
 10
405.5273095160551
 20
394.4797126056035
 10
405.3994870993551
 20
394.1905766111036
 10
405.288211587255
 20
393.8021731566036
 10
405.197950757155
 20
393.3300968702035
 10
405.1323286347551
 20
392.7933018938036
 10
405.0939799870552
 20
392.2133408628035
 10
405.0844445348552
 20
391.6134995551036
  0
LINE
  5
2F03
330
1A
100
AcDbEntity
  8
SEIHIN
100
AcDbLine
 10
406.506649909184
 20
394.7181980452034
 30
0.0
 11
405.7837383081907
 21
394.7181980452034
 31
0.0
  0
LWPOLYLINE
  5
2F04
330
1A
100
AcDbEntity
  8
SEIHIN
100
AcDbPolyline
 90
        6
 70
   128
 43
0.0
 10
405.784276903656
 20
397.7181980452032
 10
405.8725117899505
 20
398.02617896569
 10
405.9627726200508
 20
398.49825525209
 10
406.0283947424506
 20
399.03505022849
 10
406.0667433901505
 20
399.61501125949
 10
406.0762788423505
 20
400.21485256719
  0
LINE
  5
2F0C
330
1A
100
AcDbEntity
  8
SEIHIN
100
AcDbLine
 10
406.494021027737
 20
397.7181980452031
 30
0.0
 11
405.7711094267443
 21
397.7181980452032
 31
0.0
  0
ARC
  5
2F0D
330
1A
100
AcDbEntity
  8
SEIHIN
100
AcDbCircle
 10
327.2091563350929
 20
382.7181980452051
 30
0.0
 40
101.1272594643853
100
AcDbArc
 50
359.9999999999987
 51
3.969171424871205
  0
LWPOLYLINE
  5
2F11
330
1A
100
AcDbEntity
  8
SEIHIN
100
AcDbPolyline
 90
       14
 70
   128
 43
0.0
 10
426.6538253746571
 20
382.7181980452026
 10
426.6538253746571
 20
382.7181980452026
 10
426.6781006219571
 20
381.9579435071026
 10
426.7492720458569
 20
381.2494990593025
 10
426.862489431457
 20
380.6411440203025
 10
427.010037201057
 20
380.1743367807026
 10
427.1818602179571
 20
379.8808894822026
 10
427.3662490274571
 20
379.7808000735026
 10
427.5506378370571
 20
379.8808894822026
 10
427.722460853857
 20
380.1743367807026
 10
427.8700086234571
 20
380.6411440203025
 10
427.983226009057
 20
381.2494990593025
 10
428.0543974330568
 20
381.9579435071026
 10
428.0786726803571
 20
382.7181980452026
  0
LWPOLYLINE
  5
2F21
330
1A
100
AcDbEntity
  8
SEIHIN
100
AcDbPolyline
 90
       14
 70
   128
 43
0.0
 10
426.6538253746571
 20
382.7181980452028
 10
426.6538253746571
 20
382.7181980452028
 10
426.6781006219571
 20
383.4784525833027
 10
426.7492720458569
 20
384.1868970311028
 10
426.862489431457
 20
384.7952520701028
 10
427.0100372010572
 20
385.2620593097027
 10
427.1818602179571
 20
385.5555066082028
 10
427.3662490274571
 20
385.6555960169028
 10
427.5506378370571
 20
385.5555066082028
 10
427.722460853857
 20
385.2620593097027
 10
427.8700086234571
 20
384.7952520701028
 10
427.983226009057
 20
384.1868970311028
 10
428.0543974330568
 20
383.4784525833027
 10
428.0786726803571
 20
382.7181980452028
  0
LINE
  5
2F31
330
1A
100
AcDbEntity
  8
SEIHIN
100
AcDbLine
 10
425.7197745220212
 20
397.7181980452028
 30
0.0
 11
417.2398527733794
 21
397.718198045203
 31
0.0
  0
LINE
  5
2F32
330
1A
100
AcDbEntity
  8
SEIHIN
100
AcDbLine
 10
413.0356524646401
 20
400.0918031488082
 30
0.0
 11
413.3781097671764
 21
398.9237053933793
 31
0.0
  0
LINE
  5
2F33
330
1A
100
AcDbEntity
  8
SEIHIN
100
AcDbLine
 10
413.3781097671764
 20
398.9237053933793
 30
0.0
 11
413.8072382186276
 21
397.8689659168079
 31
0.0
  0
LINE
  5
2F34
330
1A
100
AcDbEntity
  8
SEIHIN
100
AcDbLine
 10
413.8072382186276
 20
397.8689659168079
 30
0.0
 11
413.8977436799734
 21
397.718198045203
 31
0.0
  0
LINE
  5
2F35
330
1A
100
AcDbEntity
  8
SEIHIN
100
AcDbLine
 10
415.2380917718119
 20
400.6509868959031
 30
0.0
 11
415.524832071412
 21
399.672935915903
 31
0.0
  0
LINE
  5
2F36
330
1A
100
AcDbEntity
  8
SEIHIN
100
AcDbLine
 10
415.524832071412
 20
399.672935915903
 30
0.0
 11
415.8444870813116
 21
398.887267296903
 31
0.0
  0
LINE
  5
2F37
330
1A
100
AcDbEntity
  8
SEIHIN
100
AcDbLine
 10
415.8444870813116
 20
398.887267296903
 30
0.0
 11
416.1895310877119
 21
398.312478221403
 31
0.0
  0
LINE
  5
2F38
330
1A
100
AcDbEntity
  8
SEIHIN
100
AcDbLine
 10
416.1895310877119
 20
398.312478221403
 30
0.0
 11
416.5518406378116
 21
397.962101084803
 31
0.0
  0
LINE
  5
2F39
330
1A
100
AcDbEntity
  8
SEIHIN
100
AcDbLine
 10
416.5518406378116
 20
397.962101084803
 30
0.0
 11
417.2398527733794
 21
397.718198045203
 31
0.0
  0
LINE
  5
2F3A
330
1A
100
AcDbEntity
  8
SEIHIN
100
AcDbLine
 10
414.1368721182259
 20
400.3713950223555
 30
0.0
 11
414.4514709192942
 21
399.2983206546412
 31
0.0
  0
LINE
  5
2F3B
330
1A
100
AcDbEntity
  8
SEIHIN
100
AcDbLine
 10
414.4514709192942
 20
399.2983206546412
 30
0.0
 11
414.8258626499698
 21
398.3781166068554
 31
0.0
  0
LINE
  5
2F3C
330
1A
100
AcDbEntity
  8
SEIHIN
100
AcDbLine
 10
414.8258626499698
 20
398.3781166068554
 30
0.0
 11
415.2220096091168
 21
397.718198045203
 31
0.0
  0
LWPOLYLINE
  5
2F47
330
1A
100
AcDbEntity
  8
SEIHIN
100
AcDbPolyline
 90
        8
 70
   128
 43
0.0
 10
425.0659485916685
 20
394.7181980452031
 10
425.2110100713684
 20
394.6579721591031
 10
425.3502472469685
 20
394.479712605603
 10
425.4780696636685
 20
394.1905766111031
 10
425.5893451757684
 20
393.8021731566031
 10
425.6796060058684
 20
393.3300968702031
 10
425.7452281282685
 20
392.7933018938031
 10
425.8699811248818
 20
390.9066153774423
  0
LINE
  5
2F51
330
1A
100
AcDbEntity
  8
SEIHIN
100
AcDbLine
 10
425.8759045711276
 20
390.9066153774423
 30
0.0
 11
427.0053811248819
 21
390.9066153774423
 31
0.0
  0
LWPOLYLINE
  5
2F52
330
1A
100
AcDbEntity
  8
SEIHIN
100
AcDbPolyline
 90
       10
 70
   128
 43
0.0
 10
425.7197745220212
 20
397.7181980452028
 10
426.0908196761213
 20
397.6004818597028
 10
426.453129226221
 20
397.2501047231028
 10
426.7981732327209
 20
396.6753156476028
 10
427.117828242521
 20
395.8896470286028
 10
427.4045685422211
 20
394.9115960486028
 10
427.651643336721
 20
393.7641891938027
 10
427.853235685721
 20
392.4744401359028
 10
428.0045994527211
 20
391.0727137427028
 10
428.0938559023573
 20
389.7181980452026
  0
LINE
  5
2F5E
330
1A
100
AcDbEntity
  8
SEIHIN
100
AcDbLine
 10
412.8419605221949
 20
418.6830329210817
 30
0.0
 11
413.0343868940967
 21
417.4519260209117
 31
0.0
  0
ARC
  5
2F5F
330
1A
100
AcDbEntity
  8
SEIHIN
100
AcDbCircle
 10
410.1471688174553
 20
418.4068359066052
 30
0.0
 40
4.328101381250355
100
AcDbArc
 50
43.91320875549076
 51
95.04077011236084
  0
LINE
  5
2F60
330
1A
100
AcDbEntity
  8
SEIHIN
100
AcDbLine
 10
412.5192624860926
 20
411.8721565597031
 30
0.0
 11
412.6153132240927
 21
413.1568246759031
 31
0.0
  0
LINE
  5
2F61
330
1A
100
AcDbEntity
  8
SEIHIN
100
AcDbLine
 10
410.2257771706129
 20
412.6411440203032
 30
0.0
 11
410.0782294010129
 21
412.1743367807032
 31
0.0
  0
LINE
  5
2F62
330
1A
100
AcDbEntity
  8
SEIHIN
100
AcDbLine
 10
409.3658057481126
 20
412.1743367807032
 30
0.0
 11
409.2182579786128
 21
412.6411440203032
 31
0.0
  0
LWPOLYLINE
  5
2F63
330
1A
100
AcDbEntity
  8
SEIHIN
100
AcDbPolyline
 90
       11
 70
   128
 43
0.0
 10
405.1308978312567
 20
411.1080583315131
 10
405.1728357023987
 20
412.7532277399762
 10
405.2685921443374
 20
414.3367399006863
 10
405.4163391044673
 20
415.8445042080672
 10
405.6123059881606
 20
417.2439876831617
 10
405.8509850618033
 20
418.5035770038263
 10
406.1244025399526
 20
419.5922261020548
 10
406.4201774195145
 20
420.4782527580792
 10
406.716012350608
 20
421.1268099466876
 10
406.9637439441942
 20
421.498577707308
 10
407.0573482113466
 20
421.5806118463399
  0
LINE
  5
2F70
330
1A
100
AcDbEntity
  8
SEIHIN
100
AcDbLine
 10
412.2282884450212
 20
407.4761580117684
 30
0.0
 11
412.2088945912508
 21
409.7659960875973
 31
0.0
  0
LINE
  5
2F71
330
1A
100
AcDbEntity
  8
SEIHIN
100
AcDbLine
 10
411.3746563298925
 20
407.359087213303
 30
0.0
 11
411.6718421827925
 21
407.9120605317031
 31
0.0
  0
LINE
  5
2F72
330
1A
100
AcDbEntity
  8
SEIHIN
100
AcDbLine
 10
411.6718421827925
 20
407.9120605317031
 30
0.0
 11
411.9421326257922
 21
408.663886389603
 31
0.0
  0
LINE
  5
2F73
330
1A
100
AcDbEntity
  8
SEIHIN
100
AcDbLine
 10
411.9421326257922
 20
408.663886389603
 30
0.0
 11
412.1777744235926
 21
409.5929987910031
 31
0.0
  0
LINE
  5
2F74
330
1A
100
AcDbEntity
  8
SEIHIN
100
AcDbLine
 10
412.1777744235926
 20
409.5929987910031
 30
0.0
 11
412.3720082314923
 21
410.6727463053031
 31
0.0
  0
LINE
  5
2F75
330
1A
100
AcDbEntity
  8
SEIHIN
100
AcDbLine
 10
412.3720082314923
 20
410.6727463053031
 30
0.0
 11
412.5192624860926
 21
411.8721565597031
 31
0.0
  0
LINE
  5
2F76
330
1A
100
AcDbEntity
  8
SEIHIN
100
AcDbLine
 10
412.2290468441308
 20
407.4336362808141
 30
0.0
 11
412.2717211748831
 21
405.8649997958459
 31
0.0
  0
LINE
  5
2F77
330
1A
100
AcDbEntity
  8
SEIHIN
100
AcDbLine
 10
412.2717211748831
 20
405.8649997958459
 30
0.0
 11
412.3752935901891
 21
404.2932314498258
 31
0.0
  0
LINE
  5
2F78
330
1A
100
AcDbEntity
  8
SEIHIN
100
AcDbLine
 10
412.3752935901891
 20
404.2932314498258
 30
0.0
 11
412.5375382586716
 21
402.7907408705068
 31
0.0
  0
LINE
  5
2F79
330
1A
100
AcDbEntity
  8
SEIHIN
100
AcDbLine
 10
409.0095939217126
 20
406.7808000735031
 30
0.0
 11
409.7220175746127
 21
406.7808000735031
 31
0.0
  0
LINE
  5
2F7A
330
1A
100
AcDbEntity
  8
SEIHIN
100
AcDbLine
 10
409.7220175746127
 20
406.7808000735031
 30
0.0
 11
411.0590997923925
 21
407.0208283796031
 31
0.0
  0
LINE
  5
2F7B
330
1A
100
AcDbEntity
  8
SEIHIN
100
AcDbLine
 10
410.0782294010129
 20
412.1743367807032
 30
0.0
 11
409.9064063841129
 21
411.8808894822031
 31
0.0
  0
LINE
  5
2F7C
330
1A
100
AcDbEntity
  8
SEIHIN
100
AcDbLine
 10
409.9064063841129
 20
411.8808894822031
 30
0.0
 11
409.7220175746128
 21
411.7808000735031
 31
0.0
  0
LINE
  5
2F7D
330
1A
100
AcDbEntity
  8
SEIHIN
100
AcDbLine
 10
409.7220175746128
 20
411.7808000735031
 30
0.0
 11
409.5376287650128
 21
411.8808894822031
 31
0.0
  0
LINE
  5
2F7E
330
1A
100
AcDbEntity
  8
SEIHIN
100
AcDbLine
 10
409.5376287650128
 20
411.8808894822031
 30
0.0
 11
409.3658057481126
 21
412.1743367807032
 31
0.0
  0
LINE
  5
2F7F
330
1A
100
AcDbEntity
  8
SEIHIN
100
AcDbLine
 10
411.0590997923925
 20
407.0208283796031
 30
0.0
 11
411.3746563298925
 21
407.359087213303
 31
0.0
  0
LINE
  5
2F80
330
1A
100
AcDbEntity
  8
SEIHIN
100
AcDbLine
 10
409.0095939217126
 20
406.7808000735031
 30
0.0
 11
409.0095939217126
 21
401.7005470364646
 31
0.0
  0
LINE
  5
2F81
330
1A
100
AcDbEntity
  8
SEIHIN
100
AcDbLine
 10
412.5375382586716
 20
402.7907408705068
 30
0.0
 11
412.7574625617739
 21
401.3837074970511
 31
0.0
  0
LINE
  5
2F82
330
1A
100
AcDbEntity
  8
SEIHIN
100
AcDbLine
 10
405.1312258324471
 20
411.1273760453749
 30
0.0
 11
405.0439496636078
 21
400.8226528758205
 31
0.0
  0
ARC
  5
2F83
330
1A
100
AcDbEntity
  8
SEIHIN
100
AcDbCircle
 10
409.3263006751037
 20
415.4858341515931
 30
0.0
 40
7.245771137616154
100
AcDbArc
 50
86.51396237616525
 51
128.87475755696
  0
LWPOLYLINE
  5
2F84
330
1A
100
AcDbEntity
  8
SEIHIN
100
AcDbPolyline
 90
       11
 70
   128
 43
0.0
 10
403.3312886382186
 20
414.3367399006863
 10
403.3312886382186
 20
414.3367399006863
 10
403.3312886382186
 20
414.3367399006863
 10
403.4790355983487
 20
415.8445042080673
 10
403.6750024820419
 20
417.2439876831618
 10
403.9136815556847
 20
418.5035770038264
 10
404.1870990338336
 20
419.5922261020549
 10
404.4828739133959
 20
420.4782527580792
 10
404.7787088444892
 20
421.1268099466876
 10
404.7787088444892
 20
421.1268099466876
 10
404.6307913789426
 20
420.8025313523834
  0
LINE
  5
2F91
330
1A
100
AcDbEntity
  8
SEIHIN
100
AcDbLine
 10
396.5514879328395
 20
422.7068784683695
 30
0.0
 11
409.3263006751037
 21
422.7316052892093
 31
0.0
  0
LWPOLYLINE
  5
2F92
330
1A
100
AcDbEntity
  8
SEIHIN
100
AcDbPolyline
 90
        7
 70
   128
 43
0.0
 10
400.3455890156215
 20
414.629310855537
 10
400.4993995729424
 20
416.1989544422664
 10
400.7140055504528
 20
417.7315476719086
 10
400.9825565796809
 20
419.1487812957312
 10
401.3052912743648
 20
420.4337936391748
 10
401.687520945642
 20
421.5788052709139
 10
402.2120797721251
 20
422.7287925172011
  0
LINE
  5
2F9B
330
1A
100
AcDbEntity
  8
SEIHIN
100
AcDbLine
 10
412.4557563916925
 20
418.3968273425032
 30
0.0
 11
411.863599042612
 21
421.6639083072829
 31
0.0
  0
LINE
  5
2F9C
330
1A
100
AcDbEntity
  8
SEIHIN
100
AcDbLine
 10
412.6574052464925
 20
414.4899001687031
 30
0.0
 11
412.6443311509927
 21
415.8331439955031
 31
0.0
  0
LINE
  5
2F9D
330
1A
100
AcDbEntity
  8
SEIHIN
100
AcDbLine
 10
412.6443311509927
 20
415.8331439955031
 30
0.0
 11
412.5764659655926
 21
417.1480254366032
 31
0.0
  0
LINE
  5
2F9E
330
1A
100
AcDbEntity
  8
SEIHIN
100
AcDbLine
 10
412.5764659655926
 20
417.1480254366032
 30
0.0
 11
412.4557563916925
 21
418.3968273425032
 31
0.0
  0
LINE
  5
2F9F
330
1A
100
AcDbEntity
  8
SEIHIN
100
AcDbLine
 10
411.683521757558
 20
421.7621437573525
 30
0.0
 11
411.8003422340732
 21
421.7250817967482
 31
0.0
  0
LINE
  5
2FA0
330
1A
100
AcDbEntity
  8
SEIHIN
100
AcDbLine
 10
411.8003422340732
 20
421.7250817967482
 30
0.0
 11
411.863599042612
 21
421.6639083072829
 31
0.0
  0
LINE
  5
2FA1
330
1A
100
AcDbEntity
  8
SEIHIN
100
AcDbLine
 10
411.863599042612
 20
421.6639083072829
 30
0.0
 11
412.0866431945658
 21
421.2923518116414
 31
0.0
  0
LINE
  5
2FA2
330
1A
100
AcDbEntity
  8
SEIHIN
100
AcDbLine
 10
412.0866431945658
 20
421.2923518116414
 30
0.0
 11
412.3515614835976
 21
420.6412186214511
 31
0.0
  0
LINE
  5
2FA3
330
1A
100
AcDbEntity
  8
SEIHIN
100
AcDbLine
 10
412.3515614835976
 20
420.6412186214511
 30
0.0
 11
412.610443281824
 21
419.7581910291498
 31
0.0
  0
LINE
  5
2FA4
330
1A
100
AcDbEntity
  8
SEIHIN
100
AcDbLine
 10
412.610443281824
 20
419.7581910291498
 30
0.0
 11
412.8419605221949
 21
418.6830329210817
 31
0.0
  0
LINE
  5
2FA5
330
1A
100
AcDbEntity
  8
SEIHIN
100
AcDbLine
 10
412.6153132240927
 20
413.1568246759031
 30
0.0
 11
412.6574052464925
 21
414.4899001687031
 31
0.0
  0
LINE
  5
2FA6
330
1A
100
AcDbEntity
  8
SEIHIN
100
AcDbLine
 10
410.4344412274128
 20
414.7181980452032
 30
0.0
 11
410.4101659801129
 21
413.9579435071031
 31
0.0
  0
LINE
  5
2FA7
330
1A
100
AcDbEntity
  8
SEIHIN
100
AcDbLine
 10
409.0338691690128
 20
413.9579435071031
 30
0.0
 11
409.0095939217128
 21
414.7181980452032
 31
0.0
  0
LINE
  5
2FA8
330
1A
100
AcDbEntity
  8
SEIHIN
100
AcDbLine
 10
409.0095939217128
 20
414.7181980452032
 30
0.0
 11
409.0338691690128
 21
415.4784525833031
 31
0.0
  0
LINE
  5
2FA9
330
1A
100
AcDbEntity
  8
SEIHIN
100
AcDbLine
 10
409.0338691690128
 20
415.4784525833031
 30
0.0
 11
409.1050405929129
 21
416.1868970311032
 31
0.0
  0
LINE
  5
2FAA
330
1A
100
AcDbEntity
  8
SEIHIN
100
AcDbLine
 10
409.1050405929129
 20
416.1868970311032
 30
0.0
 11
409.2182579786128
 21
416.7952520701032
 31
0.0
  0
LINE
  5
2FAB
330
1A
100
AcDbEntity
  8
SEIHIN
100
AcDbLine
 10
409.2182579786128
 20
416.7952520701032
 30
0.0
 11
409.3658057481126
 21
417.2620593098032
 31
0.0
  0
LINE
  5
2FAC
330
1A
100
AcDbEntity
  8
SEIHIN
100
AcDbLine
 10
409.3658057481126
 20
417.2620593098032
 30
0.0
 11
409.5376287650128
 21
417.5555066082031
 31
0.0
  0
LINE
  5
2FAD
330
1A
100
AcDbEntity
  8
SEIHIN
100
AcDbLine
 10
409.5376287650128
 20
417.5555066082031
 30
0.0
 11
409.7220175746128
 21
417.6555960169031
 31
0.0
  0
LINE
  5
2FAE
330
1A
100
AcDbEntity
  8
SEIHIN
100
AcDbLine
 10
409.7220175746128
 20
417.6555960169031
 30
0.0
 11
409.9064063841129
 21
417.5555066082031
 31
0.0
  0
LINE
  5
2FAF
330
1A
100
AcDbEntity
  8
SEIHIN
100
AcDbLine
 10
409.9064063841129
 20
417.5555066082031
 30
0.0
 11
410.0782294010129
 21
417.2620593098032
 31
0.0
  0
LINE
  5
2FB0
330
1A
100
AcDbEntity
  8
SEIHIN
100
AcDbLine
 10
410.0782294010129
 20
417.2620593098032
 30
0.0
 11
410.2257771706129
 21
416.7952520701032
 31
0.0
  0
LINE
  5
2FB1
330
1A
100
AcDbEntity
  8
SEIHIN
100
AcDbLine
 10
410.2257771706129
 20
416.7952520701032
 30
0.0
 11
410.3389945562128
 21
416.1868970311032
 31
0.0
  0
LINE
  5
2FB2
330
1A
100
AcDbEntity
  8
SEIHIN
100
AcDbLine
 10
410.3389945562128
 20
416.1868970311032
 30
0.0
 11
410.4101659801129
 21
415.4784525833031
 31
0.0
  0
LINE
  5
2FB3
330
1A
100
AcDbEntity
  8
SEIHIN
100
AcDbLine
 10
410.4101659801129
 20
415.4784525833031
 30
0.0
 11
410.4344412274128
 21
414.7181980452032
 31
0.0
  0
LINE
  5
2FB4
330
1A
100
AcDbEntity
  8
SEIHIN
100
AcDbLine
 10
410.3389945562128
 20
413.2494990593031
 30
0.0
 11
410.2257771706129
 21
412.6411440203032
 31
0.0
  0
LINE
  5
2FB5
330
1A
100
AcDbEntity
  8
SEIHIN
100
AcDbLine
 10
409.2182579786128
 20
412.6411440203032
 30
0.0
 11
409.1050405929129
 21
413.2494990593031
 31
0.0
  0
LINE
  5
2FB6
330
1A
100
AcDbEntity
  8
SEIHIN
100
AcDbLine
 10
410.4101659801129
 20
413.9579435071031
 30
0.0
 11
410.3389945562128
 21
413.2494990593031
 31
0.0
  0
LINE
  5
2FB7
330
1A
100
AcDbEntity
  8
SEIHIN
100
AcDbLine
 10
409.1050405929129
 20
413.2494990593031
 30
0.0
 11
409.0338691690128
 21
413.9579435071031
 31
0.0
  0
LINE
  5
2FB8
330
1A
100
AcDbEntity
  8
SEIHIN
100
AcDbLine
 10
413.3636477244165
 20
407.4857739719858
 30
0.0
 11
413.3153884240169
 21
413.1837639061857
 31
0.0
  0
LINE
  5
2FB9
330
1A
100
AcDbEntity
  8
SEIHIN
100
AcDbLine
 10
414.4990070038118
 20
407.495389932203
 30
0.0
 11
414.4507477034121
 21
413.193379866403
 31
0.0
  0
LINE
  5
2FBA
330
1A
100
AcDbEntity
  8
SEIHIN
100
AcDbLine
 10
414.4990070038118
 20
407.495389932203
 30
0.0
 11
414.5404892694118
 21
405.970571753403
 31
0.0
  0
LINE
  5
2FBB
330
1A
100
AcDbEntity
  8
SEIHIN
100
AcDbLine
 10
414.5404892694118
 20
405.970571753403
 30
0.0
 11
414.6380608613119
 21
404.4898692018031
 31
0.0
  0
LINE
  5
2FBC
330
1A
100
AcDbEntity
  8
SEIHIN
100
AcDbLine
 10
414.6380608613119
 20
404.4898692018031
 30
0.0
 11
414.789424628312
 21
403.0881428086031
 31
0.0
  0
LINE
  5
2FBD
330
1A
100
AcDbEntity
  8
SEIHIN
100
AcDbLine
 10
414.789424628312
 20
403.0881428086031
 30
0.0
 11
414.991016977212
 21
401.7983937507031
 31
0.0
  0
LINE
  5
2FBE
330
1A
100
AcDbEntity
  8
SEIHIN
100
AcDbLine
 10
413.3640269239712
 20
407.4645131065087
 30
0.0
 11
413.4061052221475
 21
405.9177857746245
 31
0.0
  0
LINE
  5
2FBF
330
1A
100
AcDbEntity
  8
SEIHIN
100
AcDbLine
 10
413.4061052221475
 20
405.9177857746245
 30
0.0
 11
413.5066772257505
 21
404.3915503258144
 31
0.0
  0
LINE
  5
2FC0
330
1A
100
AcDbEntity
  8
SEIHIN
100
AcDbLine
 10
413.5066772257505
 20
404.3915503258144
 30
0.0
 11
413.6634814434917
 21
402.939441839555
 31
0.0
  0
LINE
  5
2FC1
330
1A
100
AcDbEntity
  8
SEIHIN
100
AcDbLine
 10
413.6634814434917
 20
402.939441839555
 30
0.0
 11
413.874239769493
 21
401.591050623877
 31
0.0
  0
LINE
  5
2FC2
330
1A
100
AcDbEntity
  8
SEIHIN
100
AcDbLine
 10
413.2650951308121
 20
421.4086681922032
 30
0.0
 11
413.4249226357121
 21
421.0158338827031
 31
0.0
  0
LINE
  5
2FC3
330
1A
100
AcDbEntity
  8
SEIHIN
100
AcDbLine
 10
413.4249226357121
 20
421.0158338827031
 30
0.0
 11
413.7116629354125
 21
420.0377829027031
 31
0.0
  0
LINE
  5
2FC4
330
1A
100
AcDbEntity
  8
SEIHIN
100
AcDbLine
 10
413.7116629354125
 20
420.0377829027031
 30
0.0
 11
413.9587377299124
 21
418.890376047903
 31
0.0
  0
LINE
  5
2FC5
330
1A
100
AcDbEntity
  8
SEIHIN
100
AcDbLine
 10
413.9587377299124
 20
418.890376047903
 30
0.0
 11
414.1603300789122
 21
417.6006269900031
 31
0.0
  0
LINE
  5
2FC6
330
1A
100
AcDbEntity
  8
SEIHIN
100
AcDbLine
 10
414.1603300789122
 20
417.6006269900031
 30
0.0
 11
414.3116938459122
 21
416.1989005968031
 31
0.0
  0
LINE
  5
2FC7
330
1A
100
AcDbEntity
  8
SEIHIN
100
AcDbLine
 10
414.3116938459122
 20
416.1989005968031
 30
0.0
 11
414.4092654377121
 21
414.718198045203
 31
0.0
  0
LINE
  5
2FC8
330
1A
100
AcDbEntity
  8
SEIHIN
100
AcDbLine
 10
413.0343868940967
 20
417.4519260209117
 30
0.0
 11
413.1803102103467
 21
416.1005817208531
 31
0.0
  0
LINE
  5
2FC9
330
1A
100
AcDbEntity
  8
SEIHIN
100
AcDbLine
 10
413.1803102103467
 20
416.1005817208531
 30
0.0
 11
413.274881390449
 21
414.6654120664257
 31
0.0
  0
LINE
  5
2FCA
330
1A
100
AcDbEntity
  8
SEIHIN
100
AcDbLine
 10
414.4092654377121
 20
414.718198045203
 30
0.0
 11
414.4507477034121
 21
413.193379866403
 31
0.0
  0
LINE
  5
2FCB
330
1A
100
AcDbEntity
  8
SEIHIN
100
AcDbLine
 10
413.274881390449
 20
414.6654120664257
 30
0.0
 11
413.3157676235737
 21
413.1625030406341
 31
0.0
  0
INSERT
  5
2FCC
330
1A
100
AcDbEntity
  8
SUNPOU
100
AcDbBlockReference
  2
_OPEN
 10
464.7059226562355
 20
422.7181980452026
 30
0.0
 41
7.0
 42
7.0
 43
7.0
 50
90.0
  0
LINE
  5
2FCD
330
1A
100
AcDbEntity
  8
CENTER_L
 48
5.0
100
AcDbLine
 10
590.3576837899
 20
296.9558436198374
 30
0.0
 11
602.2321818784625
 21
301.7053040054728
 31
0.0
  0
ARC
  5
2FCE
330
1A
100
AcDbEntity
  8
SEIHIN
100
AcDbCircle
 10
593.3176567754972
 20
311.7660164448556
 30
0.0
 40
2.0
100
AcDbArc
 50
55.67130713659798
 51
108.8014094976982
  0
ARC
  5
2FCF
330
1A
100
AcDbEntity
  8
SEIHIN
100
AcDbCircle
 10
590.4979583960972
 20
307.6369365173557
 30
0.0
 40
10.0
100
AcDbArc
 50
21.80141578270037
 51
108.8014094976982
  0
LINE
  5
2FD0
330
1A
100
AcDbEntity
  8
SEIHIN
100
AcDbLine
 10
578.302834759246
 20
300.4285919594731
 30
0.0
 11
596.766599653197
 21
307.8140979171556
 31
0.0
  0
CIRCLE
  5
2FD1
330
1A
100
AcDbEntity
  8
SEIHIN
100
AcDbCircle
 10
596.0181700212972
 20
299.2215722613556
 30
0.0
 40
2.7
  0
ARC
  5
2FD2
330
1A
100
AcDbEntity
  8
SEIHIN
100
AcDbCircle
 10
596.0181700212972
 20
299.2215722613556
 30
0.0
 40
7.7
100
AcDbArc
 50
176.6325560021879
 51
312.8556410836003
  0
LINE
  5
2FD3
330
1A
100
AcDbEntity
  8
SEIHIN
100
AcDbLine
 10
587.2750685672972
 20
317.1033498376556
 30
0.0
 11
558.340741322997
 21
307.2525070928556
 31
0.0
  0
ARC
  5
2FD4
330
1A
100
AcDbEntity
  8
SEIHIN
100
AcDbCircle
 10
561.1260159778717
 20
288.1726996397448
 30
0.0
 40
2.0
100
AcDbArc
 50
21.80140948637116
 51
111.8014094860675
  0
ARC
  5
2FD5
330
1A
100
AcDbEntity
  8
SEIHIN
100
AcDbCircle
 10
558.5262812433909
 20
294.6720364759408
 30
0.0
 40
2.0
100
AcDbArc
 50
291.8014094860675
 51
21.80140948636875
  0
LINE
  5
2FD6
330
1A
100
AcDbEntity
  8
SEIHIN
100
AcDbLine
 10
545.486806019297
 20
296.1180873537557
 30
0.0
 11
528.9140506135971
 21
288.8081442853557
 31
0.0
  0
LINE
  5
2FD7
330
1A
100
AcDbEntity
  8
SEIHIN
100
AcDbLine
 10
530.5560105526971
 20
294.9971642043556
 30
0.0
 11
558.340741322997
 21
307.2525070928556
 31
0.0
  0
ARC
  5
2FD8
330
1A
100
AcDbEntity
  8
SEIHIN
100
AcDbCircle
 10
546.2939416280971
 20
294.2881878732557
 30
0.0
 40
2.0
100
AcDbArc
 50
21.80139371950111
 51
113.8014094983971
  0
LINE
  5
2FD9
330
1A
100
AcDbEntity
  8
SEIHIN
100
AcDbLine
 10
550.8455405661971
 20
296.3721025455556
 30
0.0
 11
552.4911827525725
 21
292.2579970796344
 31
0.0
  0
LINE
  5
2FDA
330
1A
100
AcDbEntity
  8
SEIHIN
100
AcDbLine
 10
560.3832346251611
 20
295.4148178286497
 30
0.0
 11
558.6792306457971
 21
299.6748277770557
 31
0.0
  0
ARC
  5
2FDB
330
1A
100
AcDbEntity
  8
SEIHIN
100
AcDbCircle
 10
554.3481361343419
 20
293.0007784323453
 30
0.0
 40
2.0
100
AcDbArc
 50
201.8014094864328
 51
291.8014094860675
  0
ARC
  5
2FDC
330
1A
100
AcDbEntity
  8
SEIHIN
100
AcDbCircle
 10
547.848799298159
 20
290.4010436979092
 30
0.0
 40
2.0
100
AcDbArc
 50
291.8014094860675
 51
21.80140948631613
  0
LINE
  5
2FDD
330
1A
100
AcDbEntity
  8
SEIHIN
100
AcDbLine
 10
549.7057526799299
 20
291.1438250506163
 30
0.0
 11
548.1508952141971
 21
295.0309687149557
 31
0.0
  0
LINE
  5
2FDE
330
1A
100
AcDbEntity
  8
SEIHIN
100
AcDbLine
 10
555.090917487041
 20
291.1438250505711
 30
0.0
 11
559.2690625960899
 21
292.8150830941667
 31
0.0
  0
ARC
  5
2FDF
330
1A
100
AcDbEntity
  8
SEIHIN
100
AcDbCircle
 10
556.9478708688302
 20
286.5014415961522
 30
0.0
 40
2.0
100
AcDbArc
 50
111.8014094860675
 51
201.8014094864328
  0
LINE
  5
2FE0
330
1A
100
AcDbEntity
  8
SEIHIN
100
AcDbLine
 10
556.2050895161312
 20
288.3583949779264
 30
0.0
 11
560.3832346251727
 21
290.029653021519
 31
0.0
  0
LINE
  5
2FE1
330
1A
100
AcDbEntity
  8
SEIHIN
100
AcDbLine
 10
556.015141610097
 20
300.7619460176556
 30
0.0
 11
551.8953581179971
 21
298.9447839317556
 31
0.0
  0
ARC
  5
2FE2
330
1A
100
AcDbEntity
  8
SEIHIN
100
AcDbCircle
 10
552.7024937267969
 20
297.1148844512557
 30
0.0
 40
2.0
100
AcDbArc
 50
113.8014094983971
 51
201.8014265484994
  0
ARC
  5
2FE3
330
1A
100
AcDbEntity
  8
SEIHIN
100
AcDbCircle
 10
556.8222772188971
 20
298.9320465370557
 30
0.0
 40
2.0
100
AcDbArc
 50
21.80140600750254
 51
113.8014094983971
  0
ARC
  5
2FE4
330
1A
100
AcDbEntity
  8
SEIHIN
100
AcDbCircle
 10
576.1110910166971
 20
305.9079513156556
 30
0.0
 40
2.0
100
AcDbArc
 50
108.8014094976982
 51
201.8014009233003
  0
LINE
  5
2FE5
330
1A
100
AcDbEntity
  8
SEIHIN
100
AcDbLine
 10
592.673078809797
 20
313.6592991089556
 30
0.0
 11
575.466513050997
 21
307.8012339797556
 31
0.0
  0
ARC
  5
2FE6
330
1A
100
AcDbEntity
  8
SEIHIN
100
AcDbCircle
 10
577.5600534065288
 20
302.2855453412401
 30
0.0
 40
2.0
100
AcDbArc
 50
201.8014094862399
 51
291.8014094866227
  0
ARC
  5
2FE7
330
1A
100
AcDbEntity
  8
SEIHIN
100
AcDbCircle
 10
566.882571461364
 20
298.0145525631151
 30
0.0
 40
2.0
100
AcDbArc
 50
201.8014094863131
 51
291.8014094866227
  0
LINE
  5
2FE8
330
1A
100
AcDbEntity
  8
SEIHIN
100
AcDbLine
 10
567.625352814081
 20
296.1575991813481
 30
0.0
 11
571.803497923051
 21
297.8288572249592
 31
0.0
  0
ARC
  5
2FE9
330
1A
100
AcDbEntity
  8
SEIHIN
100
AcDbCircle
 10
569.4823061958384
 20
291.5152157269165
 30
0.0
 40
2.0
100
AcDbArc
 50
111.8014094866227
 51
201.8014094863131
  0
ARC
  5
2FEA
330
1A
100
AcDbEntity
  8
SEIHIN
100
AcDbCircle
 10
573.6604513048107
 20
293.1864737705286
 30
0.0
 40
2.0
100
AcDbArc
 50
21.80140948633366
 51
111.8014094866227
  0
LINE
  5
2FEB
330
1A
100
AcDbEntity
  8
SEIHIN
100
AcDbLine
 10
568.7395248431212
 20
293.3721691086835
 30
0.0
 11
572.9176699520935
 21
295.0434271522955
 31
0.0
  0
LINE
  5
2FEC
330
1A
100
AcDbEntity
  8
SEIHIN
100
AcDbLine
 10
568.830929890697
 20
305.5421150555556
 30
0.0
 11
564.5651978589971
 21
304.0898243186556
 31
0.0
  0
ARC
  5
2FED
330
1A
100
AcDbEntity
  8
SEIHIN
100
AcDbCircle
 10
565.2097758246971
 20
302.1965416546557
 30
0.0
 40
2.0
100
AcDbArc
 50
108.8014094976982
 51
201.8016734877008
  0
LINE
  5
2FEE
330
1A
100
AcDbEntity
  8
SEIHIN
100
AcDbLine
 10
563.3528258654971
 20
301.4537517456557
 30
0.0
 11
565.0256180795931
 21
297.2717712104081
 31
0.0
  0
ARC
  5
2FEF
330
1A
100
AcDbEntity
  8
SEIHIN
100
AcDbCircle
 10
569.4755078563971
 20
303.6488323914557
 30
0.0
 40
2.0
100
AcDbArc
 50
21.8014434972027
 51
108.8014094976982
  0
ARC
  5
2FF0
330
1A
100
AcDbEntity
  8
SEIHIN
100
AcDbCircle
 10
571.0607165703341
 20
299.6858106067262
 30
0.0
 40
2.0
100
AcDbArc
 50
291.8014094866227
 51
21.80140948633608
  0
LINE
  5
2FF1
330
1A
100
AcDbEntity
  8
SEIHIN
100
AcDbLine
 10
572.9176699521047
 20
300.4285919594339
 30
0.0
 11
571.3324607972972
 21
304.3916148464556
 31
0.0
  0
LINE
  5
2FF2
330
1A
100
AcDbEntity
  8
SEIHIN
100
AcDbLine
 10
574.254137523997
 20
305.1651702404557
 30
0.0
 11
575.7031000247571
 21
301.5427639885355
 31
0.0
  0
ARC
  5
2FF3
330
1A
100
AcDbEntity
  8
SEIHIN
100
AcDbCircle
 10
580.1597881409953
 20
295.7862085050384
 30
0.0
 40
2.0
100
AcDbArc
 50
111.8014094866227
 51
201.8014094862399
  0
LINE
  5
2FF4
330
1A
100
AcDbEntity
  8
SEIHIN
100
AcDbLine
 10
579.4170067882783
 20
297.6431618868053
 30
0.0
 11
586.961801067561
 21
300.6610795985602
 31
0.0
  0
ARC
  5
2FF5
330
1A
100
AcDbEntity
  8
SEIHIN
100
AcDbCircle
 10
587.3331917439195
 20
299.7326029076767
 30
0.0
 40
1.0
100
AcDbArc
 50
356.6325560021847
 51
111.8014094866227
  0
ARC
  5
2FF7
330
1A
100
AcDbEntity
  8
SEIHIN
100
AcDbCircle
 10
596.3952089767972
 20
308.7425746080556
 30
0.0
 40
1.0
100
AcDbArc
 50
291.8014094862998
 51
10.61875055510097
  0
LINE
  5
2FF8
330
1A
100
AcDbEntity
  8
SEIHIN
100
AcDbLine
 10
605.302936930097
 20
297.5503142178556
 30
0.0
 11
599.7827248967971
 21
311.3508443011557
 31
0.0
  0
LINE
  5
2FF9
330
1A
100
AcDbEntity
  8
CENTER_L
 48
5.0
100
AcDbLine
 10
593.9198951287962
 20
304.4676337977538
 30
0.0
 11
598.3527272978417
 21
293.3847627251897
 31
0.0
  0
ARC
  5
2FFA
330
1A
100
AcDbEntity
  8
SEIHIN
100
AcDbCircle
 10
601.935505672197
 20
292.8438658716556
 30
0.0
 40
1.0
100
AcDbArc
 50
350.4781570813991
 51
132.8556410600982
  0
ARC
  5
2FFB
330
1A
100
AcDbEntity
  8
SEIHIN
100
AcDbCircle
 10
596.0181700212972
 20
293.8364074542556
 30
0.0
 40
7.0
100
AcDbArc
 50
291.8014095216013
 51
350.4781570813991
  0
LINE
  5
2FFC
330
1A
100
AcDbEntity
  8
SEIHIN
100
AcDbLine
 10
594.9039979921971
 20
285.8515079126556
 30
0.0
 11
598.617904755697
 21
287.3370706180557
 31
0.0
  0
ARC
  5
2FFD
330
1A
100
AcDbEntity
  8
SEIHIN
100
AcDbCircle
 10
590.4979583960972
 20
307.6369365173557
 30
0.0
 40
7.0
100
AcDbArc
 50
10.61875055510097
 51
55.67130713659798
  0
MTEXT
  5
2FFE
330
1A
100
AcDbEntity
  8
SUNPOU
100
AcDbMText
 10
606.9118043352586
 20
350.0729017755582
 30
0.0
 40
6.0
 41
33.36028036838114
 71
     1
 72
     5
  1
3-φ4.2
1001
ACAD
1000
MTEXTBEGIN
1070
    73
1070
     1
1070
    44
1040
1.0
1070
    74
1070
     0
1000
MTEXTEND
1000
MTEXTBEGIN
1070
    73
1070
     1
1070
    44
1040
1.0
1070
    74
1070
     0
1000
MTEXTEND
1000
MTEXTBEGIN
1070
    73
1070
     1
1070
    44
1040
1.0
1070
    74
1070
     0
1000
MTEXTEND
1000
MTEXTBEGIN
1070
    73
1070
     1
1070
    44
1040
1.0
1070
    74
1070
     0
1000
MTEXTEND
  0
POINT
  5
32C7
330
1A
100
AcDbEntity
  8
S120
  6
PHANTOM
 62
     8
 48
5.0
100
AcDbPoint
 10
739.5315781845779
 20
221.1681391734829
 30
0.0
  0
POINT
  5
32ED
330
1A
100
AcDbEntity
  8
S120
  6
PHANTOM
 62
     8
 48
5.0
100
AcDbPoint
 10
709.5315781845779
 20
237.6683391734829
 30
0.0
  0
POINT
  5
32F0
330
1A
100
AcDbEntity
  8
S120
  6
PHANTOM
 62
     8
 48
5.0
100
AcDbPoint
 10
716.5315781845779
 20
239.1683391734829
 30
0.0
  0
POINT
  5
338A
330
1A
100
AcDbEntity
  8
S120
  6
PHANTOM
 62
     8
 48
5.0
100
AcDbPoint
 10
739.5316781845779
 20
319.168339173483
 30
0.0
  0
POINT
  5
338E
330
1A
100
AcDbEntity
  8
S120
  6
PHANTOM
 62
     8
 48
5.0
100
AcDbPoint
 10
750.8722781845778
 20
312.342539173483
 30
0.0
  0
POINT
  5
33B3
330
1A
100
AcDbEntity
  8
S120
  6
PHANTOM
 62
     8
 48
5.0
100
AcDbPoint
 10
801.531578184578
 20
219.1682391734829
 30
0.0
  0
POINT
  5
33B4
330
1A
100
AcDbEntity
  8
S120
  6
PHANTOM
 62
     8
 48
5.0
100
AcDbPoint
 10
866.5301781845778
 20
219.1681391734829
 30
0.0
  0
POINT
  5
33CE
330
1A
100
AcDbEntity
  8
S120
  6
PHANTOM
 62
     8
 48
5.0
100
AcDbPoint
 10
857.3598781845777
 20
264.1682391734828
 30
0.0
  0
POINT
  5
33E9
330
1A
100
AcDbEntity
  8
S120
  6
PHANTOM
 62
     8
 48
5.0
100
AcDbPoint
 10
862.359878184578
 20
279.1682391734829
 30
0.0
  0
LINE
  5
33F9
330
1A
100
AcDbEntity
  8
SEIHIN
100
AcDbLine
 10
409.7668819830012
 20
208.5655626254763
 30
0.0
 11
414.1929180964543
 21
210.3359770708322
 31
0.0
  0
LINE
  5
4066
330
1A
100
AcDbEntity
  8
SEIHIN
100
AcDbLine
 10
409.7668819830011
 20
208.5655626254763
 30
0.0
 11
406.4728744163544
 21
208.6294862161456
 31
0.0
  0
LINE
  5
4471
330
1A
100
AcDbEntity
  8
ZUWAKU
100
AcDbLine
 10
208.6466015554762
 20
15.19999954755268
 30
0.0
 11
447.4243642363996
 21
15.19999954755267
 31
0.0
  0
LINE
  5
4472
330
1A
100
AcDbEntity
  8
ZUWAKU
100
AcDbLine
 10
208.6466015554762
 20
15.59999954755267
 30
0.0
 11
447.4243642363996
 21
15.59999954755268
 31
0.0
  0
LINE
  5
4473
330
1A
100
AcDbEntity
  8
ZUWAKU
100
AcDbLine
 10
208.6466015554762
 20
15.39999954755267
 30
0.0
 11
447.4243642363996
 21
15.39999954755267
 31
0.0
  0
LINE
  5
4474
330
1A
100
AcDbEntity
  8
ZUWAKU
100
AcDbLine
 10
0.0000002654082891
 20
30.79999954755265
 30
0.0
 11
797.4000002654081
 21
30.79999954755265
 31
0.0
  0
LINE
  5
4475
330
1A
100
AcDbEntity
  8
ZUWAKU
100
AcDbLine
 10
0.0000002654082891
 20
30.59999954755266
 30
0.0
 11
797.4000002654081
 21
30.59999954755266
 31
0.0
  0
LINE
  5
4476
330
1A
100
AcDbEntity
  8
ZUWAKU
100
AcDbLine
 10
0.0000002654082891
 20
30.39999954755265
 30
0.0
 11
797.4000002654081
 21
30.39999954755265
 31
0.0
  0
LINE
  5
4477
330
1A
100
AcDbEntity
  8
ZUWAKU
100
AcDbLine
 10
0.0000002654082891
 20
30.19999954755264
 30
0.0
 11
797.4000002654081
 21
30.19999954755264
 31
0.0
  0
LINE
  5
4478
330
1A
100
AcDbEntity
  8
ZUWAKU
100
AcDbLine
 10
0.0000002654082891
 20
29.99999954755264
 30
0.0
 11
797.4000002654081
 21
29.99999954755264
 31
0.0
  0
LWPOLYLINE
  5
4479
330
1A
100
AcDbEntity
  8
ZUWAKU
100
AcDbPolyline
 90
        4
 70
     1
 43
0.0
 10
0.2000002654082209
 20
551.3999995475526
 10
0.2000002654082209
 20
0.199999547552693
 10
797.4000002654081
 20
0.199999547552716
 10
797.4000002654084
 20
551.3999995475526
  0
LWPOLYLINE
  5
447A
330
1A
100
AcDbEntity
  8
ZUWAKU
100
AcDbPolyline
 90
        4
 70
     1
 43
0.0
 10
0.6000002654081982
 20
550.9999995475527
 10
0.6000002654081982
 20
0.5999995475526704
 10
797.0000002654085
 20
0.5999995475527166
 10
797.0000002654082
 20
550.9999995475527
  0
LWPOLYLINE
  5
447B
330
1A
100
AcDbEntity
  8
ZUWAKU
100
AcDbPolyline
 90
        4
 70
     1
 43
0.0
 10
0.0000002654082891
 20
551.5999995475526
 10
0.0000002654082891
 20
-0.0000004524473525
 10
797.6000002654083
 20
-0.000000452447285
 10
797.6000002654083
 20
551.5999995475527
  0
LWPOLYLINE
  5
447C
330
1A
100
AcDbEntity
  8
ZUWAKU
100
AcDbPolyline
 90
        4
 70
     1
 43
0.0
 10
0.4000002654082664
 20
551.1999995475526
 10
0.4000002654082664
 20
0.3999995475527384
 10
797.2000002654083
 20
0.3999995475527153
 10
797.2000002654083
 20
551.1999995475526
  0
LWPOLYLINE
  5
447D
330
1A
100
AcDbEntity
  8
ZUWAKU
100
AcDbPolyline
 90
        4
 70
     1
 43
0.0
 10
0.8000002654082436
 20
550.7999995475525
 10
0.8000002654082436
 20
0.7999995475527158
 10
796.8000002654081
 20
0.7999995475527158
 10
796.8000002654081
 20
550.7999995475525
  0
TEXT
  5
447E
330
1A
100
AcDbEntity
  8
MOJI
100
AcDbText
 10
129.5810009082394
 20
8.55422296308302
 30
0.0
 40
5.799999999999999
  1
Ｓ１２０Ｈ・Ｍ１２０Ｈ
 41
0.9
  7
ｽﾀｲﾙ1
100
AcDbText
  0
TEXT
  5
447F
330
1A
100
AcDbEntity
  8
MOJI
100
AcDbText
 10
81.66226421957366
 20
17.85856749647905
 30
0.0
 40
5.799999999999999
  1
アートフェイスＴ１２０・Ｈ１２０・
 41
0.9
  7
ｽﾀｲﾙ1
100
AcDbText
  0
HATCH
  5
4480
330
1A
100
AcDbEntity
  8
ZUWAKU
100
AcDbHatch
 10
0.0
 20
0.0
 30
0.0
210
0.0
220
0.0
230
1.0
  2
ANSI37
 70
     0
 71
     0
 91
        8
 92
        7
 72
     1
 73
     1
 93
       24
 10
14.50226292652814
 20
17.64484802853622
 42
-0.1989123673796348
 10
14.09221242018941
 20
18.63479752219727
 42
0.0
 10
14.09221242018941
 20
19.92499954755265
 42
-0.4142135623730912
 10
14.61721242018938
 20
20.44999954755264
 42
0.0
 10
17.59221242018928
 20
20.44999954755264
 42
0.4142135623731546
 10
18.11721242018939
 20
20.97499954755263
 42
0.0
 10
18.11721242018939
 20
22.72499954755266
 42
0.4142135623731586
 10
17.59221242018928
 20
23.24999954755264
 42
0.0
 10
14.09221242018941
 20
23.24999954755264
 42
0.4142135623730928
 10
11.29221242018945
 20
20.44999954755267
 42
0.0
 10
11.29221242018945
 20
18.6347975221974
 42
0.1989123673796619
 10
12.52236393920588
 20
15.66494904121379
 42
0.0
 10
15.43216191385055
 20
12.75515106656914
 42
-0.1989123673796613
 10
15.84221242018941
 20
11.76520157290795
 42
0.0
 10
15.84221242018941
 20
10.47499954755263
 42
-0.4142135623730911
 10
15.31721242018942
 20
9.949999547552648
 42
0.0
 10
12.34221242018952
 20
9.949999547552648
 42
0.4142135623731526
 10
11.81721242018942
 20
9.42499954755266
 42
0.0
 10
11.81721242018942
 20
7.67499954755264
 42
0.4142135623731526
 10
12.34221242018952
 20
7.149999547552652
 42
0.0
 10
15.84221242018941
 20
7.149999547552652
 42
0.4142135623731045
 10
18.64221242018948
 20
9.949999547552629
 42
0.0
 10
18.64221242018948
 20
11.76520157290789
 42
0.1989123673796604
 10
17.41206090117293
 20
14.73505005389143
 42
0.0
 97
        0
 92
        7
 72
     1
 73
     1
 93
       16
 10
23.54221242018945
 20
19.04999954755265
 42
-0.4142135623730935
 10
24.94221242018943
 20
20.44999954755264
 42
0.0
 10
26.86721242018939
 20
20.44999954755264
 42
0.4142135623731546
 10
27.39221242018948
 20
20.97499954755263
 42
0.0
 10
27.39221242018948
 20
22.72499954755266
 42
0.4142135623730951
 10
26.8672124201895
 20
23.24999954755264
 42
0.0
 10
24.94221242018932
 20
23.2499995475526
 42
0.4142135623730893
 10
20.74221242018937
 20
19.04999954755258
 42
0.0
 10
20.74221242018937
 20
11.34999954755267
 42
0.4142135623730969
 10
24.94221242018943
 20
7.149999547552652
 42
0.0
 10
26.86721242018939
 20
7.149999547552652
 42
0.4142135623731526
 10
27.39221242018948
 20
7.67499954755264
 42
0.0
 10
27.39221242018948
 20
9.42499954755266
 42
0.4142135623730891
 10
26.8672124201895
 20
9.949999547552648
 42
0.0
 10
24.94221242018943
 20
9.949999547552648
 42
-0.4142135623730928
 10
23.54221242018945
 20
11.34999954755263
 42
0.0
 97
        0
 92
        7
 72
     1
 73
     1
 93
        2
 10
24.24221242018939
 20
15.19999954755264
 42
1.0
 10
27.74221242018939
 20
15.19999954755264
 42
1.0
 97
        0
 92
        7
 72
     1
 73
     1
 93
       26
 10
37.3148589023674
 20
19.20504674111607
 42
0.0
 10
38.37649853550523
 20
22.56690557938566
 42
0.5069206636600134
 10
37.87586763630986
 20
23.24999954755264
 42
0.0
 10
36.17697825670063
 20
23.24999954755264
 42
0.3272098845218764
 10
35.67634735750527
 20
22.88309351571961
 42
0.0
 10
33.80807748287348
 20
16.96690557938572
 42
-0.3272098845219541
 10
33.30744658367802
 20
16.59999954755264
 42
0.0
 10
33.16721242018957
 20
16.59999954755264
 42
-0.4142135623731526
 10
32.64221242018948
 20
17.12499954755263
 42
0.0
 10
32.64221242018948
 20
22.72499954755266
 42
0.4142135623730951
 10
32.1172124201895
 20
23.24999954755264
 42
0.0
 10
30.36721242018938
 20
23.24999954755264
 42
0.4142135623730871
 10
29.84221242018941
 20
22.72499954755266
 42
0.0
 10
29.84221242018941
 20
7.67499954755264
 42
0.4142135623730891
 10
30.36721242018938
 20
7.149999547552652
 42
0.0
 10
32.11721242018938
 20
7.149999547552652
 42
0.4142135623731526
 10
32.64221242018948
 20
7.67499954755264
 42
0.0
 10
32.64221242018948
 20
13.27499954755265
 42
-0.4142135623731526
 10
33.16721242018957
 20
13.79999954755264
 42
0.0
 10
33.30744658367814
 20
13.79999954755264
 42
-0.3272098845218915
 10
33.80807748287348
 20
13.43309351571957
 42
0.0
 10
35.67634735750527
 20
7.516905579385723
 42
0.3272098845218902
 10
36.17697825670063
 20
7.149999547552652
 42
0.0
 10
37.87586763630986
 20
7.149999547552652
 42
0.5069206636600336
 10
38.37649853550523
 20
7.83309351571966
 42
0.0
 10
36.05010715703156
 20
15.19999954755278
 42
0.0
 97
        0
 92
        7
 72
     1
 73
     1
 93
        8
 10
43.49221242018937
 20
22.72499954755266
 42
0.4142135623731546
 10
42.96721242018929
 20
23.24999954755264
 42
0.0
 10
41.21721242018953
 20
23.24999954755264
 42
0.4142135623731507
 10
40.69221242018943
 20
22.72499954755266
 42
0.0
 10
40.69221242018943
 20
7.67499954755264
 42
0.4142135623731526
 10
41.21721242018953
 20
7.149999547552652
 42
0.0
 10
42.96721242018929
 20
7.149999547552652
 42
0.4142135623731526
 10
43.49221242018937
 20
7.67499954755264
 42
0.0
 97
        0
 92
        7
 72
     1
 73
     1
 93
       24
 10
48.39221242018947
 20
19.92499954755265
 42
-0.4142135623731546
 10
48.91721242018957
 20
20.44999954755264
 42
0.0
 10
51.89221242018948
 20
20.44999954755264
 42
0.4142135623730911
 10
52.41721242018945
 20
20.97499954755263
 42
0.0
 10
52.41721242018945
 20
22.72499954755266
 42
0.4142135623730952
 10
51.89221242018948
 20
23.24999954755264
 42
0.0
 10
48.39221242018947
 20
23.24999954755264
 42
0.4142135623731048
 10
45.59221242018941
 20
20.44999954755267
 42
0.0
 10
45.59221242018941
 20
18.6347975221974
 42
0.1989123673796613
 10
46.82236393920595
 20
15.66494904121385
 42
0.0
 10
49.73216191385063
 20
12.75515106656918
 42
-0.1989123673796402
 10
50.14221242018948
 20
11.76520157290811
 42
0.0
 10
50.14221242018948
 20
10.47499954755263
 42
-0.4142135623730911
 10
49.6172124201895
 20
9.949999547552648
 42
0.0
 10
46.64221242018948
 20
9.949999547552648
 42
0.4142135623731526
 10
46.11721242018939
 20
9.42499954755266
 42
0.0
 10
46.11721242018939
 20
7.67499954755264
 42
0.4142135623730891
 10
46.64221242018936
 20
7.149999547552652
 42
0.0
 10
50.14221242018948
 20
7.149999547552652
 42
0.4142135623730925
 10
52.94221242018942
 20
9.949999547552629
 42
0.0
 10
52.94221242018942
 20
11.76520157290789
 42
0.1989123673796675
 10
51.71206090117289
 20
14.73505005389155
 42
0.0
 10
48.80226292652832
 20
17.64484802853606
 42
-0.1989123673796652
 10
48.39221242018947
 20
18.63479752219723
 42
0.0
 97
        0
 92
        7
 72
     1
 73
     1
 93
       16
 10
57.84221242018941
 20
22.72499954755263
 42
0.414213562373103
 10
57.31721242018942
 20
23.24999954755264
 42
0.0
 10
55.56721242018943
 20
23.24999954755264
 42
0.4142135623730871
 10
55.04221242018945
 20
22.72499954755266
 42
0.0
 10
55.04221242018945
 20
9.949999547552629
 42
0.4142135623730927
 10
57.84221242018941
 20
7.149999547552652
 42
0.0
 10
61.34221242018941
 20
7.149999547552652
 42
0.4142135623731045
 10
64.14221242018948
 20
9.949999547552629
 42
0.0
 10
64.14221242018948
 20
22.72499954755266
 42
0.4142135623730951
 10
63.6172124201895
 20
23.24999954755264
 42
0.0
 10
61.86721242018939
 20
23.24999954755264
 42
0.4142135623730871
 10
61.34221242018941
 20
22.72499954755266
 42
0.0
 10
61.34221242018941
 20
10.99999954755262
 42
-0.4142135623730879
 10
60.29221242018945
 20
9.949999547552648
 42
0.0
 10
58.89221242018948
 20
9.949999547552648
 42
-0.4142135623731197
 10
57.84221242018941
 20
10.99999954755262
 42
0.0
 97
        0
 92
        7
 72
     1
 73
     1
 93
        8
 10
69.04221242018945
 20
22.72499954755266
 42
0.4142135623730871
 10
68.51721242018948
 20
23.24999954755264
 42
0.0
 10
66.76721242018948
 20
23.24999954755264
 42
0.4142135623731507
 10
66.24221242018939
 20
22.72499954755266
 42
0.0
 10
66.24221242018939
 20
7.67499954755264
 42
0.4142135623730891
 10
66.76721242018937
 20
7.149999547552652
 42
0.0
 10
68.51721242018948
 20
7.149999547552652
 42
0.4142135623730891
 10
69.04221242018945
 20
7.67499954755264
 42
0.0
 97
        0
 75
     0
 76
     1
 52
0.0
 41
0.2
 77
     0
 78
     2
 53
45.0
 43
-900.9423040692707
 44
-13.20000045244727
 45
-0.4490128060534576
 46
0.4490128060534577
 79
     0
 53
135.0
 43
-900.9423040692707
 44
-13.20000045244727
 45
-0.4490128060534577
 46
-0.4490128060534576
 79
     0
 47
0.057451373970553
 98
        8
 10
16.07985522843159
 20
15.16717319343819
 10
22.40451527184746
 20
18.84406173000365
 10
25.16436815106794
 20
15.51188119362336
 10
30.91406024704542
 20
16.20129719399414
 10
41.83847228436501
 20
16.66090946153576
 10
46.89820116053783
 20
19.41857586395985
 10
56.55768623780863
 20
18.72915746264765
 10
67.82707988503102
 20
19.18876973018927
  0
LINE
  5
4481
330
1A
100
AcDbEntity
  8
ZUWAKU
100
AcDbLine
 10
24.94221242018943
 20
23.2499995475526
 30
0.0
 11
26.86721242018939
 21
23.24999954755264
 31
0.0
  0
LINE
  5
4482
330
1A
100
AcDbEntity
  8
ZUWAKU
100
AcDbLine
 10
26.86721242018939
 20
20.44999954755264
 30
0.0
 11
24.94221242018943
 21
20.44999954755264
 31
0.0
  0
LINE
  5
4483
330
1A
100
AcDbEntity
  8
ZUWAKU
100
AcDbLine
 10
24.94221242018943
 20
9.949999547552648
 30
0.0
 11
26.86721242018939
 21
9.949999547552648
 31
0.0
  0
LINE
  5
4484
330
1A
100
AcDbEntity
  8
ZUWAKU
100
AcDbLine
 10
26.86721242018939
 20
7.149999547552652
 30
0.0
 11
24.94221242018943
 21
7.149999547552652
 31
0.0
  0
CIRCLE
  5
4485
330
1A
100
AcDbEntity
  8
ZUWAKU
100
AcDbCircle
 10
25.99221242018938
 20
15.19999954755264
 30
0.0
 40
1.75
  0
ARC
  5
4486
330
1A
100
AcDbEntity
  8
ZUWAKU
100
AcDbCircle
 10
15.49221242018939
 20
18.63479752219734
 30
0.0
 40
1.399999999999999
100
AcDbArc
 50
180.0000000000015
 51
224.9999999999988
  0
LINE
  5
4487
330
1A
100
AcDbEntity
  8
ZUWAKU
100
AcDbLine
 10
23.54221242018945
 20
19.04999954755264
 30
0.0
 11
23.54221242018945
 21
11.34999954755265
 31
0.0
  0
LINE
  5
4488
330
1A
100
AcDbEntity
  8
ZUWAKU
100
AcDbLine
 10
20.74221242018937
 20
11.34999954755265
 30
0.0
 11
20.74221242018937
 21
19.0499995475526
 31
0.0
  0
ARC
  5
4489
330
1A
100
AcDbEntity
  8
ZUWAKU
100
AcDbCircle
 10
15.49221242018939
 20
18.63479752219734
 30
0.0
 40
4.199999999999998
100
AcDbArc
 50
180.0
 51
225.0
  0
ARC
  5
448A
330
1A
100
AcDbEntity
  8
ZUWAKU
100
AcDbCircle
 10
15.84221242018941
 20
9.949999547552648
 30
0.0
 40
2.799999999999998
100
AcDbArc
 50
270.0
 51
0.0
  0
ARC
  5
448B
330
1A
100
AcDbEntity
  8
ZUWAKU
100
AcDbCircle
 10
24.94221242018943
 20
11.34999954755265
 30
0.0
 40
4.199999999999998
100
AcDbArc
 50
180.0
 51
270.0
  0
ARC
  5
448C
330
1A
100
AcDbEntity
  8
ZUWAKU
100
AcDbCircle
 10
14.44221242018943
 20
11.76520157290795
 30
0.0
 40
4.199999999999998
100
AcDbArc
 50
0.0
 51
45.0
  0
LINE
  5
448D
330
1A
100
AcDbEntity
  8
ZUWAKU
100
AcDbLine
 10
17.41206090117293
 20
14.73505005389147
 30
0.0
 11
14.50226292652825
 21
17.64484802853614
 31
0.0
  0
LINE
  5
448E
330
1A
100
AcDbEntity
  8
ZUWAKU
100
AcDbLine
 10
15.84221242018941
 20
10.47499954755265
 30
0.0
 11
15.84221242018941
 21
11.76520157290799
 31
0.0
  0
ARC
  5
448F
330
1A
100
AcDbEntity
  8
ZUWAKU
100
AcDbCircle
 10
15.31721242018942
 20
10.47499954755265
 30
0.0
 40
0.525
100
AcDbArc
 50
270.0
 51
0.0
  0
ARC
  5
4490
330
1A
100
AcDbEntity
  8
ZUWAKU
100
AcDbCircle
 10
14.44221242018943
 20
11.76520157290799
 30
0.0
 40
1.399999999999999
100
AcDbArc
 50
0.0
 51
45.0
  0
LINE
  5
4491
330
1A
100
AcDbEntity
  8
ZUWAKU
100
AcDbLine
 10
11.81721242018942
 20
7.67499954755265
 30
0.0
 11
11.81721242018942
 21
9.42499954755265
 31
0.0
  0
ARC
  5
4492
330
1A
100
AcDbEntity
  8
ZUWAKU
100
AcDbCircle
 10
12.34221242018941
 20
7.67499954755265
 30
0.0
 40
0.525
100
AcDbArc
 50
180.0
 51
270.0
  0
ARC
  5
4493
330
1A
100
AcDbEntity
  8
ZUWAKU
100
AcDbCircle
 10
12.34221242018941
 20
9.42499954755265
 30
0.0
 40
0.525
100
AcDbArc
 50
90.0
 51
180.0
  0
LINE
  5
4494
330
1A
100
AcDbEntity
  8
ZUWAKU
100
AcDbLine
 10
12.34221242018941
 20
7.149999547552652
 30
0.0
 11
15.84221242018941
 21
7.149999547552652
 31
0.0
  0
LINE
  5
4495
330
1A
100
AcDbEntity
  8
ZUWAKU
100
AcDbLine
 10
12.34221242018941
 20
9.949999547552648
 30
0.0
 11
15.31721242018942
 21
9.949999547552648
 31
0.0
  0
LINE
  5
4496
330
1A
100
AcDbEntity
  8
ZUWAKU
100
AcDbLine
 10
12.52236393920588
 20
15.66494904121382
 30
0.0
 11
15.43216191385055
 21
12.75515106656916
 31
0.0
  0
LINE
  5
4497
330
1A
100
AcDbEntity
  8
ZUWAKU
100
AcDbLine
 10
18.64221242018948
 20
9.949999547552648
 30
0.0
 11
18.64221242018948
 21
11.76520157290799
 31
0.0
  0
ARC
  5
4498
330
1A
100
AcDbEntity
  8
ZUWAKU
100
AcDbCircle
 10
24.94221242018943
 20
11.34999954755265
 30
0.0
 40
1.399999999999999
100
AcDbArc
 50
180.0
 51
270.0
  0
ARC
  5
4499
330
1A
100
AcDbEntity
  8
ZUWAKU
100
AcDbCircle
 10
17.59221242018941
 20
22.72499954755264
 30
0.0
 40
0.525
100
AcDbArc
 50
0.0
 51
90.0
  0
ARC
  5
449A
330
1A
100
AcDbEntity
  8
ZUWAKU
100
AcDbCircle
 10
17.59221242018941
 20
20.97499954755264
 30
0.0
 40
0.525
100
AcDbArc
 50
270.0
 51
0.0
  0
LINE
  5
449B
330
1A
100
AcDbEntity
  8
ZUWAKU
100
AcDbLine
 10
14.09221242018941
 20
23.24999954755264
 30
0.0
 11
17.59221242018941
 21
23.24999954755264
 31
0.0
  0
ARC
  5
449C
330
1A
100
AcDbEntity
  8
ZUWAKU
100
AcDbCircle
 10
14.61721242018938
 20
19.92499954755264
 30
0.0
 40
0.525
100
AcDbArc
 50
90.0
 51
180.0
  0
LINE
  5
449D
330
1A
100
AcDbEntity
  8
ZUWAKU
100
AcDbLine
 10
14.09221242018941
 20
19.92499954755264
 30
0.0
 11
14.09221242018941
 21
18.6347975221973
 31
0.0
  0
LINE
  5
449E
330
1A
100
AcDbEntity
  8
ZUWAKU
100
AcDbLine
 10
17.59221242018941
 20
20.44999954755264
 30
0.0
 11
14.61721242018938
 21
20.44999954755264
 31
0.0
  0
LINE
  5
449F
330
1A
100
AcDbEntity
  8
ZUWAKU
100
AcDbLine
 10
11.29221242018945
 20
20.44999954755264
 30
0.0
 11
11.29221242018945
 21
18.6347975221973
 31
0.0
  0
ARC
  5
44A0
330
1A
100
AcDbEntity
  8
ZUWAKU
100
AcDbCircle
 10
14.09221242018941
 20
20.44999954755264
 30
0.0
 40
2.799999999999998
100
AcDbArc
 50
90.0
 51
180.0
  0
LINE
  5
44A1
330
1A
100
AcDbEntity
  8
ZUWAKU
100
AcDbLine
 10
18.11721242018939
 20
22.72499954755264
 30
0.0
 11
18.11721242018939
 21
20.97499954755264
 31
0.0
  0
ARC
  5
44A2
330
1A
100
AcDbEntity
  8
ZUWAKU
100
AcDbCircle
 10
24.94221242018943
 20
19.04999954755264
 30
0.0
 40
1.399999999999999
100
AcDbArc
 50
90.0
 51
180.0
  0
ARC
  5
44A3
330
1A
100
AcDbEntity
  8
ZUWAKU
100
AcDbCircle
 10
24.94221242018943
 20
19.0499995475526
 30
0.0
 40
4.199999999999998
100
AcDbArc
 50
90.0
 51
180.0
  0
LINE
  5
44A4
330
1A
100
AcDbEntity
  8
ZUWAKU
100
AcDbLine
 10
79.3266298133965
 20
29.99999954755264
 30
0.0
 11
79.32662981339672
 21
0.7999995475527158
 31
0.0
  0
LINE
  5
44A5
330
1A
100
AcDbEntity
  8
ZUWAKU
100
AcDbLine
 10
79.52662981339654
 20
29.99999954755264
 30
0.0
 11
79.52662981339675
 21
0.7999995475527158
 31
0.0
  0
LINE
  5
44A6
330
1A
100
AcDbEntity
  8
ZUWAKU
100
AcDbLine
 10
79.12662981339668
 20
29.99999954755264
 30
0.0
 11
79.12662981339668
 21
0.7999995475527158
 31
0.0
  0
LINE
  5
44A7
330
1A
100
AcDbEntity
  8
ZUWAKU
100
AcDbLine
 10
64.14221242018948
 20
9.949999547552648
 30
0.0
 11
64.14221242018948
 21
22.72499954755264
 31
0.0
  0
LINE
  5
44A8
330
1A
100
AcDbEntity
  8
ZUWAKU
100
AcDbLine
 10
61.34221242018941
 20
22.72499954755264
 30
0.0
 11
61.34221242018941
 21
10.99999954755264
 31
0.0
  0
LINE
  5
44A9
330
1A
100
AcDbEntity
  8
ZUWAKU
100
AcDbLine
 10
69.04221242018945
 20
7.67499954755265
 30
0.0
 11
69.04221242018945
 21
22.72499954755264
 31
0.0
  0
LINE
  5
44AA
330
1A
100
AcDbEntity
  8
ZUWAKU
100
AcDbLine
 10
66.24221242018939
 20
22.72499954755264
 30
0.0
 11
66.24221242018939
 21
7.67499954755265
 31
0.0
  0
ARC
  5
44AB
330
1A
100
AcDbEntity
  8
ZUWAKU
100
AcDbCircle
 10
49.79221242018945
 20
18.63479752219734
 30
0.0
 40
1.399999999999999
100
AcDbArc
 50
180.0000000000015
 51
224.9999999999988
  0
ARC
  5
44AC
330
1A
100
AcDbEntity
  8
ZUWAKU
100
AcDbCircle
 10
49.79221242018945
 20
18.63479752219734
 30
0.0
 40
4.199999999999998
100
AcDbArc
 50
180.0
 51
225.0
  0
LINE
  5
44AD
330
1A
100
AcDbEntity
  8
ZUWAKU
100
AcDbLine
 10
37.3148589023674
 20
19.20504674111607
 30
0.0
 11
36.05010715703156
 21
15.19999954755266
 31
0.0
  0
LINE
  5
44AE
330
1A
100
AcDbEntity
  8
ZUWAKU
100
AcDbLine
 10
40.69221242018943
 20
22.72499954755264
 30
0.0
 11
40.69221242018943
 21
7.67499954755265
 31
0.0
  0
LINE
  5
44AF
330
1A
100
AcDbEntity
  8
ZUWAKU
100
AcDbLine
 10
43.49221242018937
 20
7.67499954755265
 30
0.0
 11
43.49221242018937
 21
22.72499954755264
 31
0.0
  0
LINE
  5
44B0
330
1A
100
AcDbEntity
  8
ZUWAKU
100
AcDbLine
 10
55.04221242018945
 20
22.72499954755264
 30
0.0
 11
55.04221242018945
 21
9.949999547552648
 31
0.0
  0
LINE
  5
44B1
330
1A
100
AcDbEntity
  8
ZUWAKU
100
AcDbLine
 10
57.84221242018941
 20
10.99999954755264
 30
0.0
 11
57.84221242018941
 21
22.72499954755264
 31
0.0
  0
LINE
  5
44B2
330
1A
100
AcDbEntity
  8
ZUWAKU
100
AcDbLine
 10
32.64221242018948
 20
17.12499954755265
 30
0.0
 11
32.64221242018948
 21
22.72499954755264
 31
0.0
  0
LINE
  5
44B3
330
1A
100
AcDbEntity
  8
ZUWAKU
100
AcDbLine
 10
29.84221242018941
 20
22.72499954755264
 30
0.0
 11
29.84221242018941
 21
7.67499954755265
 31
0.0
  0
LINE
  5
44B4
330
1A
100
AcDbEntity
  8
ZUWAKU
100
AcDbLine
 10
35.67634735750527
 20
22.88309351571961
 30
0.0
 11
33.80807748287348
 21
16.96690557938567
 31
0.0
  0
LINE
  5
44B5
330
1A
100
AcDbEntity
  8
ZUWAKU
100
AcDbLine
 10
60.29221242018945
 20
9.949999547552648
 30
0.0
 11
58.89221242018948
 21
9.949999547552648
 31
0.0
  0
LINE
  5
44B6
330
1A
100
AcDbEntity
  8
ZUWAKU
100
AcDbLine
 10
57.84221242018941
 20
7.149999547552652
 30
0.0
 11
61.34221242018941
 21
7.149999547552652
 31
0.0
  0
LINE
  5
44B7
330
1A
100
AcDbEntity
  8
ZUWAKU
100
AcDbLine
 10
41.21721242018941
 20
7.149999547552652
 30
0.0
 11
42.96721242018941
 21
7.149999547552652
 31
0.0
  0
LINE
  5
44B8
330
1A
100
AcDbEntity
  8
ZUWAKU
100
AcDbLine
 10
35.67634735750527
 20
7.516905579385677
 30
0.0
 11
33.80807748287348
 21
13.43309351571961
 31
0.0
  0
ARC
  5
44B9
330
1A
100
AcDbEntity
  8
ZUWAKU
100
AcDbCircle
 10
33.30744658367814
 20
17.12499954755265
 30
0.0
 40
0.525
100
AcDbArc
 50
270.0
 51
342.4744316262769
  0
LINE
  5
44BA
330
1A
100
AcDbEntity
  8
ZUWAKU
100
AcDbLine
 10
33.30744658367814
 20
16.59999954755264
 30
0.0
 11
33.16721242018945
 21
16.59999954755264
 31
0.0
  0
LINE
  5
44BB
330
1A
100
AcDbEntity
  8
ZUWAKU
100
AcDbLine
 10
33.16721242018945
 20
13.79999954755264
 30
0.0
 11
33.30744658367814
 21
13.79999954755264
 31
0.0
  0
ARC
  5
44BC
330
1A
100
AcDbEntity
  8
ZUWAKU
100
AcDbCircle
 10
33.16721242018945
 20
17.12499954755265
 30
0.0
 40
0.525
100
AcDbArc
 50
180.0
 51
270.0
  0
LINE
  5
44BD
330
1A
100
AcDbEntity
  8
ZUWAKU
100
AcDbLine
 10
30.36721242018938
 20
7.149999547552652
 30
0.0
 11
32.11721242018938
 21
7.149999547552652
 31
0.0
  0
ARC
  5
44BE
330
1A
100
AcDbEntity
  8
ZUWAKU
100
AcDbCircle
 10
32.11721242018938
 20
7.67499954755265
 30
0.0
 40
0.525
100
AcDbArc
 50
270.0
 51
0.0
  0
LINE
  5
44BF
330
1A
100
AcDbEntity
  8
ZUWAKU
100
AcDbLine
 10
32.64221242018948
 20
7.67499954755265
 30
0.0
 11
32.64221242018948
 21
13.27499954755264
 31
0.0
  0
LINE
  5
44C0
330
1A
100
AcDbEntity
  8
ZUWAKU
100
AcDbLine
 10
27.39221242018948
 20
9.42499954755265
 30
0.0
 11
27.39221242018948
 21
7.67499954755265
 31
0.0
  0
ARC
  5
44C1
330
1A
100
AcDbEntity
  8
ZUWAKU
100
AcDbCircle
 10
26.86721242018939
 20
7.67499954755265
 30
0.0
 40
0.525
100
AcDbArc
 50
270.0
 51
0.0
  0
ARC
  5
44C2
330
1A
100
AcDbEntity
  8
ZUWAKU
100
AcDbCircle
 10
26.86721242018939
 20
9.42499954755265
 30
0.0
 40
0.525
100
AcDbArc
 50
0.0
 51
90.0
  0
ARC
  5
44C3
330
1A
100
AcDbEntity
  8
ZUWAKU
100
AcDbCircle
 10
30.36721242018938
 20
7.67499954755265
 30
0.0
 40
0.525
100
AcDbArc
 50
180.0
 51
270.0
  0
ARC
  5
44C4
330
1A
100
AcDbEntity
  8
ZUWAKU
100
AcDbCircle
 10
33.30744658367814
 20
13.27499954755264
 30
0.0
 40
0.525
100
AcDbArc
 50
17.52556837372303
 51
90.0
  0
ARC
  5
44C5
330
1A
100
AcDbEntity
  8
ZUWAKU
100
AcDbCircle
 10
33.16721242018945
 20
13.27499954755264
 30
0.0
 40
0.525
100
AcDbArc
 50
90.0
 51
180.0
  0
ARC
  5
44C6
330
1A
100
AcDbEntity
  8
ZUWAKU
100
AcDbCircle
 10
41.21721242018941
 20
7.67499954755265
 30
0.0
 40
0.525
100
AcDbArc
 50
180.0
 51
270.0
  0
LINE
  5
44C7
330
1A
100
AcDbEntity
  8
ZUWAKU
100
AcDbLine
 10
36.17697825670074
 20
7.149999547552652
 30
0.0
 11
37.87586763630975
 21
7.149999547552652
 31
0.0
  0
ARC
  5
44C8
330
1A
100
AcDbEntity
  8
ZUWAKU
100
AcDbCircle
 10
37.87586763630975
 20
7.67499954755265
 30
0.0
 40
0.525
100
AcDbArc
 50
270.0
 51
17.52556837372303
  0
LINE
  5
44C9
330
1A
100
AcDbEntity
  8
ZUWAKU
100
AcDbLine
 10
38.37649853550523
 20
7.833093515719625
 30
0.0
 11
36.05010715703156
 21
15.19999954755266
 31
0.0
  0
ARC
  5
44CA
330
1A
100
AcDbEntity
  8
ZUWAKU
100
AcDbCircle
 10
36.17697825670074
 20
7.67499954755265
 30
0.0
 40
0.525
100
AcDbArc
 50
197.5255683737229
 51
270.0
  0
ARC
  5
44CB
330
1A
100
AcDbEntity
  8
ZUWAKU
100
AcDbCircle
 10
57.84221242018941
 20
9.949999547552648
 30
0.0
 40
2.799999999999998
100
AcDbArc
 50
180.0
 51
270.0
  0
ARC
  5
44CC
330
1A
100
AcDbEntity
  8
ZUWAKU
100
AcDbCircle
 10
50.14221242018948
 20
9.949999547552648
 30
0.0
 40
2.799999999999998
100
AcDbArc
 50
270.0
 51
0.0
  0
LINE
  5
44CD
330
1A
100
AcDbEntity
  8
ZUWAKU
100
AcDbLine
 10
51.712060901173
 20
14.73505005389147
 30
0.0
 11
48.80226292652822
 21
17.64484802853614
 31
0.0
  0
LINE
  5
44CE
330
1A
100
AcDbEntity
  8
ZUWAKU
100
AcDbLine
 10
50.14221242018948
 20
10.47499954755265
 30
0.0
 11
50.14221242018948
 21
11.76520157290799
 31
0.0
  0
ARC
  5
44CF
330
1A
100
AcDbEntity
  8
ZUWAKU
100
AcDbCircle
 10
48.74221242018939
 20
11.76520157290799
 30
0.0
 40
1.399999999999999
100
AcDbArc
 50
0.0
 51
45.0
  0
ARC
  5
44D0
330
1A
100
AcDbEntity
  8
ZUWAKU
100
AcDbCircle
 10
49.61721242018938
 20
10.47499954755265
 30
0.0
 40
0.525
100
AcDbArc
 50
270.0
 51
0.0
  0
LINE
  5
44D1
330
1A
100
AcDbEntity
  8
ZUWAKU
100
AcDbLine
 10
46.11721242018939
 20
7.67499954755265
 30
0.0
 11
46.11721242018939
 21
9.42499954755265
 31
0.0
  0
ARC
  5
44D2
330
1A
100
AcDbEntity
  8
ZUWAKU
100
AcDbCircle
 10
46.64221242018948
 20
7.67499954755265
 30
0.0
 40
0.525
100
AcDbArc
 50
180.0
 51
270.0
  0
ARC
  5
44D3
330
1A
100
AcDbEntity
  8
ZUWAKU
100
AcDbCircle
 10
42.96721242018941
 20
7.67499954755265
 30
0.0
 40
0.525
100
AcDbArc
 50
270.0
 51
0.0
  0
ARC
  5
44D4
330
1A
100
AcDbEntity
  8
ZUWAKU
100
AcDbCircle
 10
46.64221242018948
 20
9.42499954755265
 30
0.0
 40
0.525
100
AcDbArc
 50
90.0
 51
180.0
  0
LINE
  5
44D5
330
1A
100
AcDbEntity
  8
ZUWAKU
100
AcDbLine
 10
46.64221242018948
 20
9.949999547552648
 30
0.0
 11
49.61721242018938
 21
9.949999547552648
 31
0.0
  0
LINE
  5
44D6
330
1A
100
AcDbEntity
  8
ZUWAKU
100
AcDbLine
 10
46.64221242018948
 20
7.149999547552652
 30
0.0
 11
50.14221242018948
 21
7.149999547552652
 31
0.0
  0
LINE
  5
44D7
330
1A
100
AcDbEntity
  8
ZUWAKU
100
AcDbLine
 10
46.82236393920595
 20
15.66494904121382
 30
0.0
 11
49.73216191385063
 21
12.75515106656916
 31
0.0
  0
LINE
  5
44D8
330
1A
100
AcDbEntity
  8
ZUWAKU
100
AcDbLine
 10
52.94221242018942
 20
9.949999547552648
 30
0.0
 11
52.94221242018942
 21
11.76520157290799
 31
0.0
  0
ARC
  5
44D9
330
1A
100
AcDbEntity
  8
ZUWAKU
100
AcDbCircle
 10
48.74221242018939
 20
11.76520157290795
 30
0.0
 40
4.199999999999998
100
AcDbArc
 50
0.0
 51
45.0
  0
ARC
  5
44DA
330
1A
100
AcDbEntity
  8
ZUWAKU
100
AcDbCircle
 10
58.89221242018948
 20
10.99999954755264
 30
0.0
 40
1.049999999999998
100
AcDbArc
 50
180.0
 51
270.0
  0
ARC
  5
44DB
330
1A
100
AcDbEntity
  8
ZUWAKU
100
AcDbCircle
 10
61.34221242018941
 20
9.949999547552648
 30
0.0
 40
2.799999999999998
100
AcDbArc
 50
270.0
 51
0.0
  0
LINE
  5
44DC
330
1A
100
AcDbEntity
  8
ZUWAKU
100
AcDbLine
 10
66.76721242018948
 20
7.149999547552652
 30
0.0
 11
68.51721242018948
 21
7.149999547552652
 31
0.0
  0
ARC
  5
44DD
330
1A
100
AcDbEntity
  8
ZUWAKU
100
AcDbCircle
 10
66.76721242018948
 20
7.67499954755265
 30
0.0
 40
0.525
100
AcDbArc
 50
180.0
 51
270.0
  0
ARC
  5
44DE
330
1A
100
AcDbEntity
  8
ZUWAKU
100
AcDbCircle
 10
60.29221242018945
 20
10.99999954755264
 30
0.0
 40
1.049999999999998
100
AcDbArc
 50
270.0
 51
0.0
  0
ARC
  5
44DF
330
1A
100
AcDbEntity
  8
ZUWAKU
100
AcDbCircle
 10
68.51721242018948
 20
7.67499954755265
 30
0.0
 40
0.525
100
AcDbArc
 50
270.0
 51
0.0
  0
LINE
  5
44E0
330
1A
100
AcDbEntity
  8
ZUWAKU
100
AcDbLine
 10
42.96721242018941
 20
23.24999954755264
 30
0.0
 11
41.21721242018941
 21
23.24999954755264
 31
0.0
  0
ARC
  5
44E1
330
1A
100
AcDbEntity
  8
ZUWAKU
100
AcDbCircle
 10
32.11721242018938
 20
22.72499954755264
 30
0.0
 40
0.525
100
AcDbArc
 50
0.0
 51
90.0
  0
LINE
  5
44E2
330
1A
100
AcDbEntity
  8
ZUWAKU
100
AcDbLine
 10
32.11721242018938
 20
23.24999954755264
 30
0.0
 11
30.36721242018938
 21
23.24999954755264
 31
0.0
  0
ARC
  5
44E3
330
1A
100
AcDbEntity
  8
ZUWAKU
100
AcDbCircle
 10
26.86721242018939
 20
22.72499954755264
 30
0.0
 40
0.525
100
AcDbArc
 50
0.0
 51
90.0
  0
ARC
  5
44E4
330
1A
100
AcDbEntity
  8
ZUWAKU
100
AcDbCircle
 10
30.36721242018938
 20
22.72499954755264
 30
0.0
 40
0.525
100
AcDbArc
 50
90.0
 51
180.0
  0
ARC
  5
44E5
330
1A
100
AcDbEntity
  8
ZUWAKU
100
AcDbCircle
 10
26.86721242018939
 20
20.97499954755264
 30
0.0
 40
0.525
100
AcDbArc
 50
270.0
 51
0.0
  0
LINE
  5
44E6
330
1A
100
AcDbEntity
  8
ZUWAKU
100
AcDbLine
 10
27.39221242018948
 20
22.72499954755264
 30
0.0
 11
27.39221242018948
 21
20.97499954755264
 31
0.0
  0
ARC
  5
44E7
330
1A
100
AcDbEntity
  8
ZUWAKU
100
AcDbCircle
 10
41.21721242018941
 20
22.72499954755264
 30
0.0
 40
0.525
100
AcDbArc
 50
90.0
 51
180.0
  0
LINE
  5
44E8
330
1A
100
AcDbEntity
  8
ZUWAKU
100
AcDbLine
 10
36.17697825670074
 20
23.24999954755264
 30
0.0
 11
37.87586763630975
 21
23.24999954755264
 31
0.0
  0
ARC
  5
44E9
330
1A
100
AcDbEntity
  8
ZUWAKU
100
AcDbCircle
 10
37.87586763630975
 20
22.72499954755264
 30
0.0
 40
0.525
100
AcDbArc
 50
342.4744316262769
 51
90.0
  0
LINE
  5
44EA
330
1A
100
AcDbEntity
  8
ZUWAKU
100
AcDbLine
 10
38.37649853550523
 20
22.56690557938568
 30
0.0
 11
37.3148589023674
 21
19.20504674111607
 31
0.0
  0
ARC
  5
44EB
330
1A
100
AcDbEntity
  8
ZUWAKU
100
AcDbCircle
 10
36.17697825670074
 20
22.72499954755264
 30
0.0
 40
0.525
100
AcDbArc
 50
90.0
 51
162.4744316262769
  0
LINE
  5
44EC
330
1A
100
AcDbEntity
  8
ZUWAKU
100
AcDbLine
 10
48.39221242018947
 20
23.24999954755264
 30
0.0
 11
51.89221242018948
 21
23.24999954755264
 31
0.0
  0
LINE
  5
44ED
330
1A
100
AcDbEntity
  8
ZUWAKU
100
AcDbLine
 10
51.89221242018948
 20
20.44999954755264
 30
0.0
 11
48.91721242018945
 21
20.44999954755264
 31
0.0
  0
ARC
  5
44EE
330
1A
100
AcDbEntity
  8
ZUWAKU
100
AcDbCircle
 10
48.91721242018945
 20
19.92499954755264
 30
0.0
 40
0.525
100
AcDbArc
 50
90.0
 51
180.0
  0
LINE
  5
44EF
330
1A
100
AcDbEntity
  8
ZUWAKU
100
AcDbLine
 10
48.39221242018947
 20
19.92499954755264
 30
0.0
 11
48.39221242018947
 21
18.6347975221973
 31
0.0
  0
ARC
  5
44F0
330
1A
100
AcDbEntity
  8
ZUWAKU
100
AcDbCircle
 10
42.96721242018941
 20
22.72499954755264
 30
0.0
 40
0.525
100
AcDbArc
 50
0.0
 51
90.0
  0
LINE
  5
44F1
330
1A
100
AcDbEntity
  8
ZUWAKU
100
AcDbLine
 10
45.59221242018941
 20
20.44999954755264
 30
0.0
 11
45.59221242018941
 21
18.6347975221973
 31
0.0
  0
ARC
  5
44F2
330
1A
100
AcDbEntity
  8
ZUWAKU
100
AcDbCircle
 10
48.39221242018947
 20
20.44999954755264
 30
0.0
 40
2.799999999999998
100
AcDbArc
 50
90.0
 51
180.0
  0
ARC
  5
44F3
330
1A
100
AcDbEntity
  8
ZUWAKU
100
AcDbCircle
 10
57.31721242018942
 20
22.72499954755264
 30
0.0
 40
0.525
100
AcDbArc
 50
0.0
 51
90.0
  0
ARC
  5
44F4
330
1A
100
AcDbEntity
  8
ZUWAKU
100
AcDbCircle
 10
55.56721242018943
 20
22.72499954755264
 30
0.0
 40
0.525
100
AcDbArc
 50
90.0
 51
180.0
  0
LINE
  5
44F5
330
1A
100
AcDbEntity
  8
ZUWAKU
100
AcDbLine
 10
57.31721242018942
 20
23.24999954755264
 30
0.0
 11
55.56721242018943
 21
23.24999954755264
 31
0.0
  0
ARC
  5
44F6
330
1A
100
AcDbEntity
  8
ZUWAKU
100
AcDbCircle
 10
51.89221242018948
 20
22.72499954755264
 30
0.0
 40
0.525
100
AcDbArc
 50
0.0
 51
90.0
  0
ARC
  5
44F7
330
1A
100
AcDbEntity
  8
ZUWAKU
100
AcDbCircle
 10
51.89221242018948
 20
20.97499954755264
 30
0.0
 40
0.525
100
AcDbArc
 50
270.0
 51
0.0
  0
LINE
  5
44F8
330
1A
100
AcDbEntity
  8
ZUWAKU
100
AcDbLine
 10
52.41721242018945
 20
22.72499954755264
 30
0.0
 11
52.41721242018945
 21
20.97499954755264
 31
0.0
  0
LINE
  5
44F9
330
1A
100
AcDbEntity
  8
ZUWAKU
100
AcDbLine
 10
68.51721242018948
 20
23.24999954755264
 30
0.0
 11
66.76721242018948
 21
23.24999954755264
 31
0.0
  0
ARC
  5
44FA
330
1A
100
AcDbEntity
  8
ZUWAKU
100
AcDbCircle
 10
66.76721242018948
 20
22.72499954755264
 30
0.0
 40
0.525
100
AcDbArc
 50
90.0
 51
180.0
  0
ARC
  5
44FB
330
1A
100
AcDbEntity
  8
ZUWAKU
100
AcDbCircle
 10
63.61721242018939
 20
22.72499954755264
 30
0.0
 40
0.525
100
AcDbArc
 50
0.0
 51
90.0
  0
LINE
  5
44FC
330
1A
100
AcDbEntity
  8
ZUWAKU
100
AcDbLine
 10
63.61721242018939
 20
23.24999954755264
 30
0.0
 11
61.86721242018939
 21
23.24999954755264
 31
0.0
  0
ARC
  5
44FD
330
1A
100
AcDbEntity
  8
ZUWAKU
100
AcDbCircle
 10
61.86721242018939
 20
22.72499954755264
 30
0.0
 40
0.525
100
AcDbArc
 50
90.0
 51
180.0
  0
ARC
  5
44FE
330
1A
100
AcDbEntity
  8
ZUWAKU
100
AcDbCircle
 10
68.51721242018948
 20
22.72499954755264
 30
0.0
 40
0.525
100
AcDbArc
 50
0.0
 51
90.0
  0
TEXT
  5
44FF
330
1A
100
AcDbEntity
  8
MOJI
100
AcDbText
 10
239.8272029462592
 20
18.00492060496003
 30
0.0
 40
5.599999999999998
  1
ブラケット正面打（吊）固定式
 41
0.9
  7
ｽﾀｲﾙ1
100
AcDbText
  0
TEXT
  5
4500
330
1A
100
AcDbEntity
  8
MOJI
100
AcDbText
 10
239.8272029462592
 20
3.204920604960068
 30
0.0
 40
5.599999999999998
  1
１２０－４－４５
 41
0.9
  7
ｽﾀｲﾙ1
100
AcDbText
  0
LINE
  5
4501
330
1A
100
AcDbEntity
  8
ZUWAKU
100
AcDbLine
 10
208.2466015554762
 20
29.99999954755264
 30
0.0
 11
208.2466015554762
 21
0.7999995475527158
 31
0.0
  0
LINE
  5
4502
330
1A
100
AcDbEntity
  8
ZUWAKU
100
AcDbLine
 10
208.646601555476
 20
29.99999954755264
 30
0.0
 11
208.6466015554762
 21
0.7999995475527158
 31
0.0
  0
LINE
  5
4503
330
1A
100
AcDbEntity
  8
ZUWAKU
100
AcDbLine
 10
208.4466015554759
 20
29.99999954755264
 30
0.0
 11
208.4466015554762
 21
0.7999995475527158
 31
0.0
  0
TEXT
  5
4504
330
1A
100
AcDbEntity
  8
ZUWAKU
100
AcDbText
 10
209.7240465776857
 20
9.655356085938265
 30
0.0
 40
4.0
  1
サイズ
 41
0.9
  7
ｽﾀｲﾙ1
100
AcDbText
  0
TEXT
  5
4505
330
1A
100
AcDbEntity
  8
ZUWAKU
100
AcDbText
 10
209.7240465776855
 20
24.05535608593822
 30
0.0
 40
4.0
  1
品名
 41
0.9
  7
ｽﾀｲﾙ1
100
AcDbText
  0
TEXT
  5
4506
330
1A
100
AcDbEntity
  8
ZUWAKU
100
AcDbText
 10
654.5120762650951
 20
18.00492060496003
 30
0.0
 40
5.599999999999998
  1
　　．　．　　
 41
0.9
  7
ｽﾀｲﾙ1
100
AcDbText
  0
LINE
  5
4507
330
1A
100
AcDbEntity
  8
ZUWAKU
100
AcDbLine
 10
648.8172027756125
 20
15.19999954755267
 30
0.0
 11
697.2490108139496
 21
15.19999954755267
 31
0.0
  0
LINE
  5
4508
330
1A
100
AcDbEntity
  8
ZUWAKU
100
AcDbLine
 10
648.8172027756125
 20
15.39999954755268
 30
0.0
 11
697.2490108139496
 21
15.39999954755267
 31
0.0
  0
LINE
  5
4509
330
1A
100
AcDbEntity
  8
ZUWAKU
100
AcDbLine
 10
648.8172027756125
 20
15.59999954755267
 30
0.0
 11
697.2490108139496
 21
15.59999954755267
 31
0.0
  0
LINE
  5
450A
330
1A
100
AcDbEntity
  8
ZUWAKU
100
AcDbLine
 10
505.1991797635491
 20
15.19999954755268
 30
0.0
 11
552.5269560315207
 21
15.19999954755268
 31
0.0
  0
LINE
  5
450B
330
1A
100
AcDbEntity
  8
ZUWAKU
100
AcDbLine
 10
505.1991797635491
 20
15.39999954755267
 30
0.0
 11
552.5269560315207
 21
15.39999954755267
 31
0.0
  0
LINE
  5
450C
330
1A
100
AcDbEntity
  8
ZUWAKU
100
AcDbLine
 10
505.1991797635491
 20
15.59999954755267
 30
0.0
 11
552.5269560315207
 21
15.59999954755267
 31
0.0
  0
LINE
  5
450D
330
1A
100
AcDbEntity
  8
ZUWAKU
100
AcDbLine
 10
447.6243642363995
 20
29.99999954755264
 30
0.0
 11
447.6243642363995
 21
0.7999995475527158
 31
0.0
  0
LINE
  5
450E
330
1A
100
AcDbEntity
  8
ZUWAKU
100
AcDbLine
 10
447.8243642363994
 20
29.99999954755264
 30
0.0
 11
447.8243642363998
 21
0.7999995475527158
 31
0.0
  0
LINE
  5
450F
330
1A
100
AcDbEntity
  8
ZUWAKU
100
AcDbLine
 10
447.4243642363996
 20
29.99999954755264
 30
0.0
 11
447.4243642363996
 21
0.7999995475527158
 31
0.0
  0
TEXT
  5
4510
330
1A
100
AcDbEntity
  8
MOJI
100
AcDbText
 10
528.0409082377211
 20
18.00492060496003
 30
0.0
 40
5.599999999999998
  1
Ａ３
 41
0.9
  7
ｽﾀｲﾙ1
100
AcDbText
  0
LINE
  5
4511
330
1A
100
AcDbEntity
  8
ZUWAKU
100
AcDbLine
 10
504.9991797635491
 20
29.99999954755264
 30
0.0
 11
504.9991797635492
 21
0.7999995475527158
 31
0.0
  0
LINE
  5
4512
330
1A
100
AcDbEntity
  8
ZUWAKU
100
AcDbLine
 10
505.1991797635491
 20
29.99999954755264
 30
0.0
 11
505.1991797635493
 21
0.7999995475527158
 31
0.0
  0
LINE
  5
4513
330
1A
100
AcDbEntity
  8
ZUWAKU
100
AcDbLine
 10
504.7991797635492
 20
29.99999954755264
 30
0.0
 11
504.7991797635492
 21
0.7999995475527158
 31
0.0
  0
TEXT
  5
4514
330
1A
100
AcDbEntity
  8
MOJI
100
AcDbText
 10
463.2464322564103
 20
11.94261726921262
 30
0.0
 40
5.599999999999998
  1
ＬＬ６７Ｔ
 41
0.9
  7
ｽﾀｲﾙ1
100
AcDbText
  0
TEXT
  5
4515
330
1A
100
AcDbEntity
  8
ZUWAKU
100
AcDbText
 10
506.6766247857589
 20
9.655356085938265
 30
0.0
 40
4.0
  1
縮尺
 41
0.9
  7
ｽﾀｲﾙ1
100
AcDbText
  0
TEXT
  5
4516
330
1A
100
AcDbEntity
  8
MOJI
100
AcDbText
 10
528.0409082377211
 20
3.204920604960068
 30
0.0
 40
5.599999999999998
  1
１/２
 41
0.9
  7
ｽﾀｲﾙ1
100
AcDbText
  0
TEXT
  5
4517
330
1A
100
AcDbEntity
  8
ZUWAKU
100
AcDbText
 10
449.3018092586091
 20
24.05535608593822
 30
0.0
 40
4.0
  1
品番
 41
0.9
  7
ｽﾀｲﾙ1
100
AcDbText
  0
TEXT
  5
4518
330
1A
100
AcDbEntity
  8
ZUWAKU
100
AcDbText
 10
506.6766247857587
 20
24.05535608593822
 30
0.0
 40
4.0
  1
用紙
 41
0.9
  7
ｽﾀｲﾙ1
100
AcDbText
  0
LINE
  5
4519
330
1A
100
AcDbEntity
  8
ZUWAKU
100
AcDbLine
 10
648.6172027756124
 20
29.99999954755264
 30
0.0
 11
648.6172027756128
 21
0.7999995475527158
 31
0.0
  0
LINE
  5
451A
330
1A
100
AcDbEntity
  8
ZUWAKU
100
AcDbLine
 10
648.8172027756125
 20
29.99999954755264
 30
0.0
 11
648.817202775613
 21
0.7999995475527158
 31
0.0
  0
LINE
  5
451B
330
1A
100
AcDbEntity
  8
ZUWAKU
100
AcDbLine
 10
648.4172027756128
 20
29.99999954755264
 30
0.0
 11
648.4172027756128
 21
0.7999995475527158
 31
0.0
  0
LINE
  5
451C
330
1A
100
AcDbEntity
  8
ZUWAKU
100
AcDbLine
 10
552.7269560315207
 20
29.99999954755264
 30
0.0
 11
552.7269560315207
 21
0.7999995475527158
 31
0.0
  0
LINE
  5
451D
330
1A
100
AcDbEntity
  8
ZUWAKU
100
AcDbLine
 10
552.9269560315206
 20
29.99999954755264
 30
0.0
 11
552.9269560315206
 21
0.7999995475527158
 31
0.0
  0
LINE
  5
451E
330
1A
100
AcDbEntity
  8
ZUWAKU
100
AcDbLine
 10
552.5269560315207
 20
29.99999954755264
 30
0.0
 11
552.5269560315207
 21
0.7999995475527158
 31
0.0
  0
TEXT
  5
451F
330
1A
100
AcDbEntity
  8
ZUWAKU
100
AcDbText
 10
650.2946477978222
 20
24.05535608593822
 30
0.0
 40
4.0
  1
DATE
 41
0.9
  7
ｽﾀｲﾙ1
100
AcDbText
  0
LINE
  5
4520
330
1A
100
AcDbEntity
  8
ZUWAKU
100
AcDbLine
 10
697.2490108139496
 20
29.99999954755264
 30
0.0
 11
697.2490108139496
 21
0.7999995475527158
 31
0.0
  0
LINE
  5
4521
330
1A
100
AcDbEntity
  8
ZUWAKU
100
AcDbLine
 10
697.4490108139495
 20
29.99999954755264
 30
0.0
 11
697.4490108139495
 21
0.7999995475527158
 31
0.0
  0
LINE
  5
4522
330
1A
100
AcDbEntity
  8
ZUWAKU
100
AcDbLine
 10
697.6490108139493
 20
29.99999954755264
 30
0.0
 11
697.6490108139496
 21
0.7999995475527158
 31
0.0
  0
LINE
  5
4523
330
1A
100
AcDbEntity
  8
ZUWAKU
100
AcDbLine
 10
697.8490108139496
 20
29.99999954755264
 30
0.0
 11
697.8490108139496
 21
0.7999995475527158
 31
0.0
  0
TEXT
  5
4524
330
1A
100
AcDbEntity
  8
ZUWAKU
100
AcDbText
 10
708.5280844576519
 20
17.55383888323944
 30
0.0
 40
6.0
  1
積水化学工業株式会社
 41
0.9
  7
ｽﾀｲﾙ1
100
AcDbText
  0
TEXT
  5
4525
330
1A
100
AcDbEntity
  8
ZUWAKU
100
AcDbText
 10
708.5280844576519
 20
6.648839861406712
 30
0.0
 40
6.0
  1
建材事業部
 41
0.9
  7
ｽﾀｲﾙ1
100
AcDbText
  0
ELLIPSE
  5
4537
330
1A
100
AcDbEntity
  8
SEIHIN
100
AcDbEllipse
 10
427.3815152107681
 20
385.218198045203
 30
0.0
 11
-0.3761340858862355
 21
5.68841733223934
 31
0.0
210
0.0
220
0.0
230
1.0
 40
0.4078030508792001
 41
6.283185307179586
 42
7.827063925232665
  0
ELLIPSE
  5
4538
330
1A
100
AcDbEntity
  8
SEIHIN
100
AcDbEllipse
 10
426.2520386570138
 20
385.218198045203
 30
0.0
 11
-0.3761340858862355
 21
5.68841733223934
 31
0.0
210
0.0
220
0.0
230
1.0
 40
0.4078030508792001
 41
6.283185307179586
 42
7.827063925232665
  0
LINE
  5
4539
330
1A
100
AcDbEntity
  8
SEIHIN
100
AcDbLine
 10
426.2013485916684
 20
394.7181980452031
 30
0.0
 11
426.3464100713686
 21
394.6579721591031
 31
0.0
  0
LINE
  5
453A
330
1A
100
AcDbEntity
  8
SEIHIN
100
AcDbLine
 10
426.3464100713686
 20
394.6579721591031
 30
0.0
 11
426.4856472469684
 21
394.479712605603
 31
0.0
  0
LINE
  5
453B
330
1A
100
AcDbEntity
  8
SEIHIN
100
AcDbLine
 10
426.4856472469684
 20
394.479712605603
 30
0.0
 11
426.6134696636684
 21
394.1905766111031
 31
0.0
  0
LINE
  5
453C
330
1A
100
AcDbEntity
  8
SEIHIN
100
AcDbLine
 10
426.6134696636684
 20
394.1905766111031
 30
0.0
 11
426.7247451757684
 21
393.802173156603
 31
0.0
  0
LINE
  5
453D
330
1A
100
AcDbEntity
  8
SEIHIN
100
AcDbLine
 10
426.7247451757684
 20
393.802173156603
 30
0.0
 11
426.8150060058685
 21
393.3300968702031
 31
0.0
  0
LINE
  5
453E
330
1A
100
AcDbEntity
  8
SEIHIN
100
AcDbLine
 10
426.8150060058685
 20
393.3300968702031
 30
0.0
 11
426.8806281282684
 21
392.7933018938031
 31
0.0
  0
LINE
  5
453F
330
1A
100
AcDbEntity
  8
SEIHIN
100
AcDbLine
 10
426.8806281282684
 20
392.7933018938031
 30
0.0
 11
427.0053811248819
 21
390.9066153774423
 31
0.0
  0
LINE
  5
4540
330
1A
100
AcDbEntity
  8
SEIHIN
100
AcDbLine
 10
425.0524653726277
 20
385.218198045203
 30
0.0
 11
409.7633381203695
 21
385.2181980452034
 31
0.0
  0
ARC
  5
4542
330
1A
100
AcDbEntity
  8
SEIHIN
100
AcDbCircle
 10
386.423469382429
 20
232.67856390817
 30
0.0
 40
7.999999999999913
100
AcDbArc
 50
25.01391694390047
 51
90.0000000000004
  0
ARC
  5
4543
330
1A
100
AcDbEntity
  8
SEIHIN
100
AcDbCircle
 10
366.6113657000289
 20
214.1785639081698
 30
0.0
 40
30.00000000000011
100
AcDbArc
 50
89.99999571069794
 51
134.4052601452979
  0
ARC
  5
4544
330
1A
100
AcDbEntity
  8
SEIHIN
100
AcDbCircle
 10
366.6113657000792
 20
214.1785639079136
 30
0.0
 40
26.50000000025625
100
AcDbArc
 50
90.00000000010862
 51
134.4052601451124
  0
ARC
  5
4545
330
1A
100
AcDbEntity
  8
SEIHIN
100
AcDbCircle
 10
255.4040642701771
 20
223.6428641395307
 30
0.0
 40
13.49999999973915
100
AcDbArc
 50
48.26575860563841
 51
90.00000000020397
  0
ARC
  5
4546
330
1A
100
AcDbEntity
  8
SEIHIN
100
AcDbCircle
 10
258.3609149668288
 20
221.1428641392698
 30
0.0
 40
10.00000000000013
100
AcDbArc
 50
51.30559686789945
 51
89.99999999999969
  0
ARC
  5
4547
330
1A
100
AcDbEntity
  8
SEIHIN
100
AcDbCircle
 10
242.1354227665119
 20
243.6428641392369
 30
0.0
 40
0.5000000000329692
100
AcDbArc
 50
340.7099537855104
 51
89.99999999804588
  0
ARC
  5
4548
330
1A
100
AcDbEntity
  8
SUNPOU
100
AcDbCircle
 10
250.4901632690291
 20
230.1428641392699
 30
0.0
 40
0.9999999999999431
100
AcDbArc
 50
89.99999999999674
 51
180.0000000000032
  0
ARC
  5
4549
330
1A
100
AcDbEntity
  8
SEIHIN
100
AcDbCircle
 10
263.5818536954292
 20
203.3428641392702
 30
0.0
 40
13.4999999999997
100
AcDbArc
 50
56.57581331630228
 51
90.00000242169868
  0
ARC
  5
454A
330
1A
100
AcDbEntity
  8
SEIHIN
100
AcDbCircle
 10
263.581853695506
 20
203.3428641397934
 30
0.0
 40
9.999999999476557
100
AcDbArc
 50
56.575811848094
 51
90.00000000044101
  0
ARC
  5
454B
330
1A
100
AcDbEntity
  8
SEIHIN
100
AcDbCircle
 10
335.1901632690291
 20
311.8428641392707
 30
0.0
 40
116.5000000000008
100
AcDbArc
 50
236.5758103176016
 51
269.9999985869013
  0
ARC
  5
454C
330
1A
100
AcDbEntity
  8
SEIHIN
100
AcDbCircle
 10
335.1901632690292
 20
311.8428641392706
 30
0.0
 40
120.0000000000007
100
AcDbArc
 50
236.5758105273013
 51
269.9999985405808
  0
ARC
  5
454D
330
1A
100
AcDbEntity
  8
SEIHIN
100
AcDbCircle
 10
359.324137865329
 20
197.3428641392699
 30
0.0
 40
0.4999999999999661
100
AcDbArc
 50
330.0000149928964
 51
90.00000000000651
  0
ARC
  5
454E
330
1A
100
AcDbEntity
  8
SEIHIN
100
AcDbCircle
 10
360.5819344803289
 20
209.84286413927
 30
0.0
 40
5.0
100
AcDbArc
 50
89.99999999999934
 51
165.0000045757
  0
ARC
  5
454F
330
1A
100
AcDbEntity
  8
SEIHIN
100
AcDbCircle
 10
360.5819344803288
 20
209.8428641392699
 30
0.0
 40
8.500000000000047
100
AcDbArc
 50
90.00000388069851
 51
164.9999962477986
  0
ARC
  5
4550
330
1A
100
AcDbEntity
  8
SEIHIN
100
AcDbCircle
 10
366.8966957221851
 20
209.842864139412
 30
0.0
 40
4.999999999857919
100
AcDbArc
 50
3.532294582813619
 51
90.00000000064428
  0
ARC
  5
4551
330
1A
100
AcDbEntity
  8
SEIHIN
100
AcDbCircle
 10
366.8966957221819
 20
209.8428641394038
 30
0.0
 40
8.499999999866162
100
AcDbArc
 50
3.532294583361341
 51
90.00000000035747
  0
ARC
  5
4552
330
1A
100
AcDbEntity
  8
SEIHIN
100
AcDbCircle
 10
365.190163269029
 20
211.8428641392699
 30
0.0
 40
3.000000000000085
100
AcDbArc
 50
0.0000085370715297
 51
90.0
  0
ARC
  5
4553
330
1A
100
AcDbEntity
  8
SEIHIN
100
AcDbCircle
 10
369.2812632976243
 20
203.6745391176796
 30
0.0
 40
3.000000000135073
100
AcDbArc
 50
3.532294585736594
 51
53.13010235359048
  0
ARC
  5
4554
330
1A
100
AcDbEntity
  8
SEIHIN
100
AcDbCircle
 10
373.1901632690292
 20
193.0567143337699
 30
0.0
 40
3.000000000000228
100
AcDbArc
 50
140.1944236084033
 51
180.0
  0
ARC
  5
4556
330
1A
100
AcDbEntity
  8
SEIHIN
100
AcDbCircle
 10
413.899833654829
 20
184.1428641392699
 30
0.0
 40
2.999999999999937
100
AcDbArc
 50
21.80140948639868
 51
89.99999298459814
  0
LINE
  5
455A
330
1A
100
AcDbEntity
  8
SUNPOU
100
AcDbLine
 10
597.3819666042333
 20
306.1408124011403
 30
0.0
 11
604.4584639952018
 21
341.1466087674506
 31
0.0
1001
ACAD
1000
DSTYLE
1002
{
1070
     6
1000
OPEN
1070
    41
1040
7.0
1070
    42
1040
6.0
1070
    43
1040
14.0
1070
    44
1040
3.0
1070
    73
1070
     0
1070
    74
1070
     0
1070
    77
1070
     0
1070
   140
1040
6.0
1070
   141
1040
150.0
1070
   147
1040
2.0
1070
   172
1070
     1
1070
   173
1070
     1
1070
   176
1070
     4
1070
   177
1070
     4
1070
   178
1070
     4
1070
   271
1070
     0
1070
   272
1070
     0
1070
   341
1005
6D
1070
   343
1005
6D
1070
   344
1005
6D
1002
}
  0
LINE
  5
455B
330
1A
100
AcDbEntity
  8
SUNPOU
100
AcDbLine
 10
604.4584639952018
 20
341.1466087674506
 30
0.0
 11
639.4311294621521
 21
341.1466087674506
 31
0.0
1001
ACAD
1000
DSTYLE
1002
{
1070
     6
1000
OPEN
1070
    41
1040
7.0
1070
    42
1040
6.0
1070
    43
1040
14.0
1070
    44
1040
3.0
1070
    73
1070
     0
1070
    74
1070
     0
1070
    77
1070
     0
1070
   140
1040
6.0
1070
   141
1040
150.0
1070
   147
1040
2.0
1070
   172
1070
     1
1070
   173
1070
     1
1070
   176
1070
     4
1070
   177
1070
     4
1070
   178
1070
     4
1070
   271
1070
     0
1070
   272
1070
     0
1070
   341
1005
6D
1070
   343
1005
6D
1070
   344
1005
6D
1002
}
  0
LINE
  5
455C
330
1A
100
AcDbEntity
  8
SUNPOU
100
AcDbLine
 10
598.5255016620007
 20
305.9096443177722
 30
0.0
 11
595.994958104025
 21
299.2796020545359
 31
0.0
  0
LINE
  5
455D
330
1A
100
AcDbEntity
  8
SUNPOU
100
AcDbLine
 10
595.994958104025
 20
299.2796020545359
 30
0.0
 11
596.2384315464658
 21
306.3719804845083
 31
0.0
  0
LINE
  5
455E
330
1A
100
AcDbEntity
  8
SUNPOU
100
AcDbLine
 10
595.994958104025
 20
299.2796020545359
 30
0.0
 11
597.3819666042333
 21
306.1408124011403
 31
0.0
  0
VIEWPORT
  5
22
330
17
100
AcDbEntity
 67
     1
  8
0
100
AcDbViewport
 10
313.6808219178082
 20
148.5
 30
0.0
 40
627.3616438356165
 41
297.0
 68
     2
 69
     1
1001
ACAD
1000
MVIEW
1002
{
1070
    16
1010
0.0
1020
0.0
1030
0.0
1010
0.0
1020
0.0
1030
1.0
1040
0.0
1040
297.0
1040
313.6808219178082
1040
148.5
1040
50.0
1040
0.0
1040
0.0
1070
     0
1070
   100
1070
     1
1070
     0
1070
     0
1070
     0
1070
     0
1070
     0
1040
0.0
1040
0.0
1040
0.0
1040
1.0
1040
1.0
1040
10.0
1040
10.0
1070
     0
1002
{
1002
}
1002
}
  0
VIEWPORT
  5
64
330
17
100
AcDbEntity
 67
     1
  8
VIEWPORT
100
AcDbViewport
 10
210.0
 20
148.5
 30
0.0
 40
420.0
 41
297.0
 68
     1
 69
     2
1001
ACAD
1000
MVIEW
1002
{
1070
    16
1010
0.0
1020
0.0
1030
0.0
1010
0.0
1020
0.0
1030
1.0
1040
0.0
1040
605.8799999999998
1040
420.0
1040
297.0
1040
50.0
1040
0.0
1040
0.0
1070
     0
1070
   100
1070
     1
1070
     0
1070
     0
1070
     0
1070
     0
1070
     0
1040
0.0
1040
0.0
1040
0.0
1040
10.0
1040
10.0
1040
0.0
1040
0.0
1070
     0
1002
{
1002
}
1002
}
  0
ENDSEC
  0
SECTION
  2
OBJECTS
  0
DICTIONARY
  5
C
330
0
100
AcDbDictionary
  3
ACAD_GROUP
350
D
  3
ACAD_LAYOUT
350
3146
  3
ACAD_MLINESTYLE
350
E
  3
ACAD_PLOTSETTINGS
350
3147
  3
ACAD_PLOTSTYLENAME
350
3144
  3
ACDBHEADERROUNDTRIPXREC
350
4560
  0
DICTIONARY
  5
3422
330
1A
100
AcDbDictionary
280
     1
  3
ACAD_LAYOUTSELFREF
360
4582
  0
DICTIONARY
  5
3420
330
17
100
AcDbDictionary
280
     1
  3
ACAD_LAYOUTSELFREF
360
4581
  0
DICTIONARY
  5
D
102
{ACAD_REACTORS
330
C
102
}
330
C
100
AcDbDictionary
  0
DICTIONARY
  5
3146
102
{ACAD_REACTORS
330
C
102
}
330
C
100
AcDbDictionary
  0
DICTIONARY
  5
E
102
{ACAD_REACTORS
330
C
102
}
330
C
100
AcDbDictionary
  3
STANDARD
350
13
  0
DICTIONARY
  5
3147
102
{ACAD_REACTORS
330
C
102
}
330
C
100
AcDbDictionary
  0
ACDBDICTIONARYWDFLT
  5
3144
102
{ACAD_REACTORS
330
C
102
}
330
C
100
AcDbDictionary
281
     1
  3
Normal
350
3145
100
AcDbDictionaryWithDefault
340
3145
1001
ACAD
1000
TREAT_AS_HARD
1070
     0
1000
TREAT_AS_HARD
1070
     0
  0
DICTIONARY
  5
4560
102
{ACAD_REACTORS
330
C
102
}
330
C
100
AcDbDictionary
  3
TSTACKALIGN
350
4561
  3
TSTACKSIZE
350
4562
  3
HYPERLINKBASE
350
4563
  3
STYLESHEET
350
4564
  3
LAYOUTDICT
350
4565
  3
PLOTSETDICT
350
4566
  3
PLOTSTYLNAMDICT
350
4567
  3
LWETCUNION
350
4568
  3
INSUNITS
350
4569
  3
CEPSNTYPE
350
456A
  3
FINGERPRINTGUID
350
456B
  3
VERSIONGUID
350
456C
  3
PSVPSCALE
350
456D
  3
DIMSTYLEDATA
350
456E
  3
PUCSORTHOREF
350
456F
  3
PUCSORTHOVIEW
350
4570
  3
PUCSBASE
350
4571
  3
PUCSORGTOP
350
4572
  3
PUCSORGBOTTOM
350
4573
  3
PUCSORGLEFT
350
4574
  3
PUCSORGRIGHT
350
4575
  3
PUCSORGFRONT
350
4576
  3
PUCSORGBACK
350
4577
  3
UCSORTHOREF
350
4578
  3
UCSORTHOVIEW
350
4579
  3
UCSBASE
350
457A
  3
UCSORGTOP
350
457B
  3
UCSORGBOTTOM
350
457C
  3
UCSORGLEFT
350
457D
  3
UCSORGRIGHT
350
457E
  3
UCSORGFRONT
350
457F
  3
UCSORGBACK
350
4580
  0
XRECORD
  5
4582
102
{ACAD_REACTORS
330
3422
102
}
330
3422
100
AcDbXrecord
340
1A
  0
XRECORD
  5
4581
102
{ACAD_REACTORS
330
3420
102
}
330
3420
100
AcDbXrecord
340
17
  0
MLINESTYLE
  5
13
102
{ACAD_REACTORS
330
E
102
}
330
E
100
AcDbMlineStyle
  2
STANDARD
 70
     0
  3

 62
     0
 51
90.0
 52
90.0
 71
     2
 49
0.5
 62
   256
  6
BYLAYER
 49
-0.5
 62
   256
  6
BYLAYER
  0
ACDBPLACEHOLDER
  5
3145
102
{ACAD_REACTORS
330
3144
102
}
330
3144
100
AcDbPlaceHolder
280
     0
  0
XRECORD
  5
4561
102
{ACAD_REACTORS
330
4560
102
}
330
4560
100
AcDbXrecord
 90
        1
  0
XRECORD
  5
4562
102
{ACAD_REACTORS
330
4560
102
}
330
4560
100
AcDbXrecord
 90
       70
  0
XRECORD
  5
4563
102
{ACAD_REACTORS
330
4560
102
}
330
4560
100
AcDbXrecord
  1

  0
XRECORD
  5
4564
102
{ACAD_REACTORS
330
4560
102
}
330
4560
100
AcDbXrecord
  1

  0
XRECORD
  5
4565
102
{ACAD_REACTORS
330
4560
102
}
330
4560
100
AcDbXrecord
340
3146
  0
XRECORD
  5
4566
102
{ACAD_REACTORS
330
4560
102
}
330
4560
100
AcDbXrecord
340
3147
  0
XRECORD
  5
4567
102
{ACAD_REACTORS
330
4560
102
}
330
4560
100
AcDbXrecord
340
3144
  0
XRECORD
  5
4568
102
{ACAD_REACTORS
330
4560
102
}
330
4560
100
AcDbXrecord
 90
    14877
  0
XRECORD
  5
4569
102
{ACAD_REACTORS
330
4560
102
}
330
4560
100
AcDbXrecord
 90
        0
  0
XRECORD
  5
456A
102
{ACAD_REACTORS
330
4560
102
}
330
4560
100
AcDbXrecord
 90
        0
  0
XRECORD
  5
456B
102
{ACAD_REACTORS
330
4560
102
}
330
4560
100
AcDbXrecord
  1
{1D17C8CF-A617-4A50-ADA4-0FCBC125D8CE}
  0
XRECORD
  5
456C
102
{ACAD_REACTORS
330
4560
102
}
330
4560
100
AcDbXrecord
  1
{A9841869-47E5-404D-977B-B2412AA4950B}
  0
XRECORD
  5
456D
102
{ACAD_REACTORS
330
4560
102
}
330
4560
100
AcDbXrecord
 40
0.0
  0
XRECORD
  5
456E
102
{ACAD_REACTORS
330
4560
102
}
330
4560
100
AcDbXrecord
1000
DSTYLE
1002
{
1070
   341
340
6D
1070
   343
340
6D
1070
   344
340
6D
1070
   371
 70
    -1
1070
   372
 70
    -1
1002
}
  0
XRECORD
  5
456F
102
{ACAD_REACTORS
330
4560
102
}
330
4560
100
AcDbXrecord
340
0
  0
XRECORD
  5
4570
102
{ACAD_REACTORS
330
4560
102
}
330
4560
100
AcDbXrecord
 70
     0
  0
XRECORD
  5
4571
102
{ACAD_REACTORS
330
4560
102
}
330
4560
100
AcDbXrecord
340
0
  0
XRECORD
  5
4572
102
{ACAD_REACTORS
330
4560
102
}
330
4560
100
AcDbXrecord
 10
0.0
 20
0.0
 30
0.0
  0
XRECORD
  5
4573
102
{ACAD_REACTORS
330
4560
102
}
330
4560
100
AcDbXrecord
 10
0.0
 20
0.0
 30
0.0
  0
XRECORD
  5
4574
102
{ACAD_REACTORS
330
4560
102
}
330
4560
100
AcDbXrecord
 10
0.0
 20
0.0
 30
0.0
  0
XRECORD
  5
4575
102
{ACAD_REACTORS
330
4560
102
}
330
4560
100
AcDbXrecord
 10
0.0
 20
0.0
 30
0.0
  0
XRECORD
  5
4576
102
{ACAD_REACTORS
330
4560
102
}
330
4560
100
AcDbXrecord
 10
0.0
 20
0.0
 30
0.0
  0
XRECORD
  5
4577
102
{ACAD_REACTORS
330
4560
102
}
330
4560
100
AcDbXrecord
 10
0.0
 20
0.0
 30
0.0
  0
XRECORD
  5
4578
102
{ACAD_REACTORS
330
4560
102
}
330
4560
100
AcDbXrecord
340
0
  0
XRECORD
  5
4579
102
{ACAD_REACTORS
330
4560
102
}
330
4560
100
AcDbXrecord
 70
     0
  0
XRECORD
  5
457A
102
{ACAD_REACTORS
330
4560
102
}
330
4560
100
AcDbXrecord
340
0
  0
XRECORD
  5
457B
102
{ACAD_REACTORS
330
4560
102
}
330
4560
100
AcDbXrecord
 10
0.0
 20
0.0
 30
0.0
  0
XRECORD
  5
457C
102
{ACAD_REACTORS
330
4560
102
}
330
4560
100
AcDbXrecord
 10
0.0
 20
0.0
 30
0.0
  0
XRECORD
  5
457D
102
{ACAD_REACTORS
330
4560
102
}
330
4560
100
AcDbXrecord
 10
0.0
 20
0.0
 30
0.0
  0
XRECORD
  5
457E
102
{ACAD_REACTORS
330
4560
102
}
330
4560
100
AcDbXrecord
 10
0.0
 20
0.0
 30
0.0
  0
XRECORD
  5
457F
102
{ACAD_REACTORS
330
4560
102
}
330
4560
100
AcDbXrecord
 10
0.0
 20
0.0
 30
0.0
  0
XRECORD
  5
4580
102
{ACAD_REACTORS
330
4560
102
}
330
4560
100
AcDbXrecord
 10
0.0
 20
0.0
 30
0.0
  0
ENDSEC
  0
EOF
