  0
SECTION
  2
HEADER
  9
$ACADVER
  1
AC1014
  9
$ACADMAINTVER
 70
     9
  9
$DWGCODEPAGE
  3
ANSI_932
  9
$INSBASE
 10
0.0
 20
0.0
 30
0.0
  9
$EXTMIN
 10
-0.0128099507776369
 20
-0.0090591147240957
 30
-0.0000000100018307
  9
$EXTMAX
 10
797.6616026615272
 20
551.6426494697427
 30
0.0000000100018311
  9
$LIMMIN
 10
0.0
 20
0.0
  9
$LIMMAX
 10
840.0
 20
594.0
  9
$ORTHOMODE
 70
     0
  9
$REGENMODE
 70
     1
  9
$FILLMODE
 70
     1
  9
$QTEXTMODE
 70
     0
  9
$MIRRTEXT
 70
     1
  9
$DRAGMODE
 70
     2
  9
$LTSCALE
 40
2.0
  9
$OSMODE
 70
    35
  9
$ATTMODE
 70
     1
  9
$TEXTSIZE
 40
5.0
  9
$TRACEWID
 40
1.0
  9
$TEXTSTYLE
  7
STANDARD
  9
$CLAYER
  8
SUNPOU
  9
$CELTYPE
  6
BYLAYER
  9
$CECOLOR
 62
   256
  9
$CELTSCALE
 40
1.0
  9
$DELOBJ
 70
     1
  9
$DISPSILH
 70
     0
  9
$DIMSCALE
 40
1.0
  9
$DIMASZ
 40
7.0
  9
$DIMEXO
 40
6.0
  9
$DIMDLI
 40
14.0
  9
$DIMRND
 40
0.0
  9
$DIMDLE
 40
0.0
  9
$DIMEXE
 40
3.0
  9
$DIMTP
 40
0.0
  9
$DIMTM
 40
0.0
  9
$DIMTXT
 40
6.0
  9
$DIMCEN
 40
150.0
  9
$DIMTSZ
 40
0.0
  9
$DIMTOL
 70
     0
  9
$DIMLIM
 70
     0
  9
$DIMTIH
 70
     0
  9
$DIMTOH
 70
     0
  9
$DIMSE1
 70
     0
  9
$DIMSE2
 70
     0
  9
$DIMTAD
 70
     3
  9
$DIMZIN
 70
     0
  9
$DIMBLK
  1

  9
$DIMASO
 70
     1
  9
$DIMSHO
 70
     1
  9
$DIMPOST
  1

  9
$DIMAPOST
  1

  9
$DIMALT
 70
     0
  9
$DIMALTD
 70
     2
  9
$DIMALTF
 40
25.4
  9
$DIMLFAC
 40
1.0
  9
$DIMTOFL
 70
     1
  9
$DIMTVP
 40
0.0
  9
$DIMTIX
 70
     0
  9
$DIMSOXD
 70
     0
  9
$DIMSAH
 70
     1
  9
$DIMBLK1
  1
OPEN
  9
$DIMBLK2
  1
OPEN
  9
$DIMSTYLE
  2
STANDARD
  9
$DIMCLRD
 70
   256
  9
$DIMCLRE
 70
   256
  9
$DIMCLRT
 70
   256
  9
$DIMTFAC
 40
1.0
  9
$DIMGAP
 40
2.0
  9
$DIMJUST
 70
     0
  9
$DIMSD1
 70
     0
  9
$DIMSD2
 70
     0
  9
$DIMTOLJ
 70
     1
  9
$DIMTZIN
 70
     0
  9
$DIMALTZ
 70
     0
  9
$DIMALTTZ
 70
     0
  9
$DIMFIT
 70
     3
  9
$DIMUPT
 70
     0
  9
$DIMUNIT
 70
     2
  9
$DIMDEC
 70
     0
  9
$DIMTDEC
 70
     0
  9
$DIMALTU
 70
     2
  9
$DIMALTTD
 70
     2
  9
$DIMTXSTY
  7
STANDARD
  9
$DIMAUNIT
 70
     0
  9
$LUNITS
 70
     2
  9
$LUPREC
 70
     4
  9
$SKETCHINC
 40
1.0
  9
$FILLETRAD
 40
20.0
  9
$AUNITS
 70
     0
  9
$AUPREC
 70
     0
  9
$MENU
  1
.
  9
$ELEVATION
 40
0.0
  9
$PELEVATION
 40
0.0
  9
$THICKNESS
 40
0.0
  9
$LIMCHECK
 70
     0
  9
$BLIPMODE
 70
     0
  9
$CHAMFERA
 40
0.0
  9
$CHAMFERB
 40
0.0
  9
$CHAMFERC
 40
40.0
  9
$CHAMFERD
 40
0.0
  9
$SKPOLY
 70
     0
  9
$TDCREATE
 40
2450994.354346065
  9
$TDUPDATE
 40
2453504.368117037
  9
$TDINDWG
 40
0.0525039120
  9
$TDUSRTIMER
 40
0.0525039120
  9
$USRTIMER
 70
     1
  9
$ANGBASE
 50
0.0
  9
$ANGDIR
 70
     0
  9
$PDMODE
 70
     1
  9
$PDSIZE
 40
0.0
  9
$PLINEWID
 40
0.0
  9
$COORDS
 70
     1
  9
$SPLFRAME
 70
     0
  9
$SPLINETYPE
 70
     6
  9
$SPLINESEGS
 70
     8
  9
$ATTDIA
 70
     0
  9
$ATTREQ
 70
     1
  9
$HANDLING
 70
 10241
  9
$HANDSEED
  5
34B0
  9
$SURFTAB1
 70
     6
  9
$SURFTAB2
 70
     6
  9
$SURFTYPE
 70
     6
  9
$SURFU
 70
     6
  9
$SURFV
 70
     6
  9
$UCSNAME
  2

  9
$UCSORG
 10
0.0
 20
0.0
 30
0.0
  9
$UCSXDIR
 10
1.0
 20
0.0
 30
0.0
  9
$UCSYDIR
 10
0.0
 20
1.0
 30
0.0
  9
$PUCSNAME
  2

  9
$PUCSORG
 10
0.0
 20
0.0
 30
0.0
  9
$PUCSXDIR
 10
1.0
 20
0.0
 30
0.0
  9
$PUCSYDIR
 10
0.0
 20
1.0
 30
0.0
  9
$USERI1
 70
     0
  9
$USERI2
 70
     0
  9
$USERI3
 70
     0
  9
$USERI4
 70
     0
  9
$USERI5
 70
     0
  9
$USERR1
 40
0.0
  9
$USERR2
 40
0.0
  9
$USERR3
 40
0.0
  9
$USERR4
 40
0.0
  9
$USERR5
 40
0.0
  9
$WORLDVIEW
 70
     1
  9
$SHADEDGE
 70
     3
  9
$SHADEDIF
 70
    70
  9
$TILEMODE
 70
     1
  9
$MAXACTVP
 70
    16
  9
$PINSBASE
 10
0.0
 20
0.0
 30
0.0
  9
$PLIMCHECK
 70
     0
  9
$PEXTMIN
 10
0.0
 20
0.0
 30
0.0
  9
$PEXTMAX
 10
420.0
 20
297.0
 30
0.0
  9
$PLIMMIN
 10
0.0
 20
0.0
  9
$PLIMMAX
 10
420.0
 20
297.0
  9
$UNITMODE
 70
     0
  9
$VISRETAIN
 70
     0
  9
$PLINEGEN
 70
     0
  9
$PSLTSCALE
 70
     1
  9
$TREEDEPTH
 70
  3020
  9
$PICKSTYLE
 70
     1
  9
$CMLSTYLE
  2
STANDARD
  9
$CMLJUST
 70
     0
  9
$CMLSCALE
 40
1.0
  9
$PROXYGRAPHICS
 70
     1
  9
$MEASUREMENT
 70
     1
  0
ENDSEC
  0
SECTION
  2
CLASSES
  0
CLASS
  1
XRECORD
  2
AcDbXrecord
  3
AutoCAD 2000
 90
        0
280
     0
281
     0
  0
CLASS
  1
ACDBDICTIONARYWDFLT
  2
AcDbDictionaryWithDefault
  3
AutoCAD 2000
 90
        0
280
     0
281
     0
  0
CLASS
  1
ACDBPLACEHOLDER
  2
AcDbPlaceHolder
  3
AutoCAD 2000
 90
        0
280
     0
281
     0
  0
CLASS
  1
LAYOUT
  2
AcDbLayout
  3
AutoCAD 2000
 90
        0
280
     0
281
     0
  0
CLASS
  1
LONG_TRANSACTION
  2
AcDbLongTransaction
  3
AutoCAD 2000
 90
        0
280
     0
281
     0
  0
CLASS
  1
LWPOLYLINE
  2
AcDbPolyline
  3
AutoCAD 2000
 90
        0
280
     0
281
     1
  0
CLASS
  1
HATCH
  2
AcDbHatch
  3
AutoCAD 2000
 90
        0
280
     0
281
     1
  0
CLASS
  1
XRECORD
  2
AcDbXrecord
  3
AutoCAD 2000
 90
        0
280
     0
281
     0
  0
CLASS
  1
LONG_TRANSACTION
  2
AcDbLongTransaction
  3
AutoCAD 2000
 90
        0
280
     0
281
     0
  0
CLASS
  1
LWPOLYLINE
  2
AcDbPolyline
  3
AutoCAD 2000
 90
        0
280
     0
281
     1
  0
CLASS
  1
HATCH
  2
AcDbHatch
  3
AutoCAD 2000
 90
        0
280
     0
281
     1
  0
CLASS
  1
XRECORD
  2
AcDbXrecord
  3
AutoCAD 2000
 90
        0
280
     0
281
     0
  0
CLASS
  1
LONG_TRANSACTION
  2
AcDbLongTransaction
  3
AutoCAD 2000
 90
        0
280
     0
281
     0
  0
CLASS
  1
LWPOLYLINE
  2
AcDbPolyline
  3
AutoCAD 2000
 90
        0
280
     0
281
     1
  0
CLASS
  1
HATCH
  2
AcDbHatch
  3
AutoCAD 2000
 90
        0
280
     0
281
     1
  0
CLASS
  1
XRECORD
  2
AcDbXrecord
  3
AutoCAD 2000
 90
        0
280
     0
281
     0
  0
CLASS
  1
LONG_TRANSACTION
  2
AcDbLongTransaction
  3
AutoCAD 2000
 90
        0
280
     0
281
     0
  0
CLASS
  1
LWPOLYLINE
  2
AcDbPolyline
  3
AutoCAD 2000
 90
        0
280
     0
281
     1
  0
CLASS
  1
HATCH
  2
AcDbHatch
  3
AutoCAD 2000
 90
        0
280
     0
281
     1
  0
CLASS
  1
XRECORD
  2
AcDbXrecord
  3
AutoCAD 2000
 90
        0
280
     0
281
     0
  0
ENDSEC
  0
SECTION
  2
TABLES
  0
TABLE
  2
VPORT
  5
8
330
0
100
AcDbSymbolTable
 70
     2
  0
VPORT
  5
348C
330
8
100
AcDbSymbolTableRecord
100
AcDbViewportTableRecord
  2
*ACTIVE
 70
     0
 10
0.0
 20
0.0
 11
1.0
 21
1.0
 12
400.0111061863482
 22
272.5724291766703
 13
0.0
 23
0.0
 14
5.0
 24
5.0
 15
0.0
 25
0.0
 16
0.0
 26
0.0
 36
1.0
 17
0.0
 27
0.0
 37
0.0
 40
600.5848052283973
 41
1.752310536044362
 42
50.0
 43
0.0
 44
0.0
 50
0.0
 51
0.0
 71
     0
 72
   100
 73
     1
 74
     0
 75
     0
 76
     0
 77
     0
 78
     0
  0
ENDTAB
  0
TABLE
  2
LTYPE
  5
5
330
0
100
AcDbSymbolTable
 70
     3
  0
LTYPE
  5
14
330
5
100
AcDbSymbolTableRecord
100
AcDbLinetypeTableRecord
  2
BYBLOCK
 70
     0
  3

 72
    65
 73
     0
 40
0.0
  0
LTYPE
  5
15
330
5
100
AcDbSymbolTableRecord
100
AcDbLinetypeTableRecord
  2
BYLAYER
 70
     0
  3

 72
    65
 73
     0
 40
0.0
  0
LTYPE
  5
16
330
5
100
AcDbSymbolTableRecord
100
AcDbLinetypeTableRecord
  2
CONTINUOUS
 70
     0
  3
Solid line
 72
    65
 73
     0
 40
0.0
  0
LTYPE
  5
135
330
5
100
AcDbSymbolTableRecord
100
AcDbLinetypeTableRecord
  2
CENTER
 70
     0
  3
____ _ ____ _ ____ _ ____ _ ____ _ ____ _ ____ 
 72
    65
 73
     4
 40
2.0
 49
1.25
 74
     0
 49
-0.25
 74
     0
 49
0.25
 74
     0
 49
-0.25
 74
     0
  0
LTYPE
  5
1EEA
330
5
100
AcDbSymbolTableRecord
100
AcDbLinetypeTableRecord
  2
PHANTOM
 70
     0
  3
______  __  __  ______  __  __  ______  __  __ 
 72
    65
 73
     6
 40
2.5
 49
1.25
 74
     0
 49
-0.25
 74
     0
 49
0.25
 74
     0
 49
-0.25
 74
     0
 49
0.25
 74
     0
 49
-0.25
 74
     0
  0
ENDTAB
  0
TABLE
  2
LAYER
  5
2
330
0
100
AcDbSymbolTable
 70
     9
  0
LAYER
  5
F
330
2
100
AcDbSymbolTableRecord
100
AcDbLayerTableRecord
  2
0
 70
     0
 62
     7
  6
CONTINUOUS
  0
LAYER
  5
62
330
2
100
AcDbSymbolTableRecord
100
AcDbLayerTableRecord
  2
VIEWPORT
 70
     0
 62
     7
  6
CONTINUOUS
  0
LAYER
  5
65
330
2
100
AcDbSymbolTableRecord
100
AcDbLayerTableRecord
  2
ZUWAKU
 70
     0
 62
     7
  6
CONTINUOUS
  0
LAYER
  5
159
330
2
100
AcDbSymbolTableRecord
100
AcDbLayerTableRecord
  2
SEIHIN
 70
     0
 62
     3
  6
CONTINUOUS
  0
LAYER
  5
15A
330
2
100
AcDbSymbolTableRecord
100
AcDbLayerTableRecord
  2
SUNPOU
 70
     0
 62
     4
  6
CONTINUOUS
  0
LAYER
  5
15B
330
2
100
AcDbSymbolTableRecord
100
AcDbLayerTableRecord
  2
CENTER_L
 70
     0
 62
     1
  6
CENTER
  0
LAYER
  5
214
330
2
100
AcDbSymbolTableRecord
100
AcDbLayerTableRecord
  2
DEFPOINTS
 70
     0
 62
     7
  6
CONTINUOUS
  0
LAYER
  5
1EEC
330
2
100
AcDbSymbolTableRecord
100
AcDbLayerTableRecord
  2
S120
 70
     0
 62
     8
  6
PHANTOM
  0
LAYER
  5
3246
330
2
100
AcDbSymbolTableRecord
100
AcDbLayerTableRecord
  2
MOJI
 70
     0
 62
     2
  6
CONTINUOUS
  0
ENDTAB
  0
TABLE
  2
STYLE
  5
3
330
0
100
AcDbSymbolTable
 70
     2
  0
STYLE
  5
10
330
3
100
AcDbSymbolTableRecord
100
AcDbTextStyleTableRecord
  2
STANDARD
 70
     0
 40
0.0
 41
1.0
 50
0.0
 71
     0
 42
5.0
  3
TXT
  4
bigfont.shx
  0
STYLE
  5
3247
330
3
100
AcDbSymbolTableRecord
100
AcDbTextStyleTableRecord
  2
ｽﾀｲﾙ1
 70
     0
 40
0.0
 41
1.0
 50
0.0
 71
     0
 42
2.5
  3
MS PGothic.ttf
  4

1001
ACAD
1000
MS PGothic
1071
    32818
  0
ENDTAB
  0
TABLE
  2
VIEW
  5
6
330
0
100
AcDbSymbolTable
 70
     0
  0
ENDTAB
  0
TABLE
  2
UCS
  5
7
330
0
100
AcDbSymbolTable
 70
     0
  0
ENDTAB
  0
TABLE
  2
APPID
  5
9
330
0
100
AcDbSymbolTable
 70
     1
  0
APPID
  5
11
330
9
100
AcDbSymbolTableRecord
100
AcDbRegAppTableRecord
  2
ACAD
 70
     0
  0
ENDTAB
  0
TABLE
  2
DIMSTYLE
  5
A
330
0
100
AcDbSymbolTable
 70
     1
  0
DIMSTYLE
105
1D
102
{ACAD_REACTORS
330
19A5
330
19AE
330
19AF
330
19B0
330
19F6
330
1A3E
330
1A3F
330
1A4A
330
1A4C
330
1A51
330
1A5B
330
1A7F
330
1A80
330
1AB4
102
}
330
A
100
AcDbSymbolTableRecord
100
AcDbDimStyleTableRecord
  2
STANDARD
 70
     0
  3

  4

  5

  6

  7

 40
1.0
 41
0.18
 42
0.0625
 43
0.38
 44
0.18
 45
0.0
 46
0.0
 47
0.0
 48
0.0
140
0.18
141
0.09
142
0.0
143
25.4
144
1.0
145
0.0
146
1.0
147
0.09
 71
     0
 72
     0
 73
     1
 74
     1
 75
     0
 76
     0
 77
     0
 78
     0
170
     0
171
     2
172
     0
173
     0
174
     0
175
     0
176
     0
177
     0
178
     0
270
     2
271
     4
272
     4
273
     2
274
     2
340
10
275
     0
280
     0
281
     0
282
     0
283
     1
284
     0
285
     0
286
     0
287
     3
288
     0
  0
ENDTAB
  0
TABLE
  2
BLOCK_RECORD
  5
1
330
0
100
AcDbSymbolTable
 70
    15
  0
BLOCK_RECORD
  5
1A
102
{ACAD_XDICTIONARY
360
21D3
102
}
330
1
100
AcDbSymbolTableRecord
100
AcDbBlockTableRecord
  2
*MODEL_SPACE
  0
BLOCK_RECORD
  5
17
102
{ACAD_XDICTIONARY
360
21D1
102
}
330
1
100
AcDbSymbolTableRecord
100
AcDbBlockTableRecord
  2
*PAPER_SPACE
  0
BLOCK_RECORD
  5
6D
330
1
100
AcDbSymbolTableRecord
100
AcDbBlockTableRecord
  2
_OPEN
  0
BLOCK_RECORD
  5
1D88
330
1
100
AcDbSymbolTableRecord
100
AcDbBlockTableRecord
  2
*D1
  0
BLOCK_RECORD
  5
1D94
330
1
100
AcDbSymbolTableRecord
100
AcDbBlockTableRecord
  2
*D2
  0
BLOCK_RECORD
  5
1DA2
330
1
100
AcDbSymbolTableRecord
100
AcDbBlockTableRecord
  2
*D3
  0
BLOCK_RECORD
  5
1DAE
330
1
100
AcDbSymbolTableRecord
100
AcDbBlockTableRecord
  2
*D4
  0
BLOCK_RECORD
  5
1DBA
330
1
100
AcDbSymbolTableRecord
100
AcDbBlockTableRecord
  2
*D5
  0
BLOCK_RECORD
  5
1DC8
330
1
100
AcDbSymbolTableRecord
100
AcDbBlockTableRecord
  2
*D6
  0
BLOCK_RECORD
  5
1DD4
330
1
100
AcDbSymbolTableRecord
100
AcDbBlockTableRecord
  2
*D7
  0
BLOCK_RECORD
  5
1DE2
330
1
100
AcDbSymbolTableRecord
100
AcDbBlockTableRecord
  2
*D8
  0
BLOCK_RECORD
  5
1DF0
330
1
100
AcDbSymbolTableRecord
100
AcDbBlockTableRecord
  2
*D9
  0
BLOCK_RECORD
  5
1DFC
330
1
100
AcDbSymbolTableRecord
100
AcDbBlockTableRecord
  2
*D10
  0
BLOCK_RECORD
  5
1E0A
330
1
100
AcDbSymbolTableRecord
100
AcDbBlockTableRecord
  2
*D11
  0
BLOCK_RECORD
  5
1E16
330
1
100
AcDbSymbolTableRecord
100
AcDbBlockTableRecord
  2
*D12
  0
BLOCK_RECORD
  5
1E22
330
1
100
AcDbSymbolTableRecord
100
AcDbBlockTableRecord
  2
*D13
  0
BLOCK_RECORD
  5
1E2E
330
1
100
AcDbSymbolTableRecord
100
AcDbBlockTableRecord
  2
*D14
  0
ENDTAB
  0
ENDSEC
  0
SECTION
  2
BLOCKS
  0
BLOCK
  5
1B
330
1A
100
AcDbEntity
  8
0
100
AcDbBlockBegin
  2
*MODEL_SPACE
 70
     0
 10
0.0
 20
0.0
 30
0.0
  3
*MODEL_SPACE
  1

  0
ENDBLK
  5
1C
330
1A
100
AcDbEntity
  8
0
100
AcDbBlockEnd
  0
BLOCK
  5
18
330
17
100
AcDbEntity
 67
     1
  8
0
100
AcDbBlockBegin
  2
*PAPER_SPACE
 70
     0
 10
0.0
 20
0.0
 30
0.0
  3
*PAPER_SPACE
  1

  0
ENDBLK
  5
19
330
17
100
AcDbEntity
 67
     1
  8
0
100
AcDbBlockEnd
  0
BLOCK
  5
6E
330
6D
100
AcDbEntity
  8
0
100
AcDbBlockBegin
  2
_OPEN
 70
     0
 10
0.0
 20
0.0
 30
0.0
  3
_OPEN
  1

  0
LINE
  5
6F
330
6D
100
AcDbEntity
  8
0
  6
BYBLOCK
 62
     0
100
AcDbLine
 10
-1.0
 20
0.1666666666666666
 30
0.0
 11
0.0
 21
0.0
 31
0.0
  0
LINE
  5
70
330
6D
100
AcDbEntity
  8
0
  6
BYBLOCK
 62
     0
100
AcDbLine
 10
0.0
 20
0.0
 30
0.0
 11
-1.0
 21
-0.1666666666666666
 31
0.0
  0
LINE
  5
71
330
6D
100
AcDbEntity
  8
0
  6
BYBLOCK
 62
     0
100
AcDbLine
 10
0.0
 20
0.0
 30
0.0
 11
-1.0
 21
0.0
 31
0.0
  0
ENDBLK
  5
72
330
6D
100
AcDbEntity
  8
0
100
AcDbBlockEnd
  0
BLOCK
  5
1E3A
330
1D88
100
AcDbEntity
  8
0
100
AcDbBlockBegin
  2
*D1
 70
     1
 10
0.0
 20
0.0
 30
0.0
  3
*D1
  1

  0
LINE
  5
3316
330
1D88
100
AcDbEntity
  8
SUNPOU
 62
     4
100
AcDbLine
 10
401.181656991042
 20
215.2909404532875
 30
0.0
 11
401.181656991042
 21
293.2276211940255
 31
0.0
  0
LINE
  5
3317
330
1D88
100
AcDbEntity
  8
SUNPOU
 62
     4
100
AcDbLine
 10
430.2636738483347
 20
251.2276211940255
 30
0.0
 11
430.2636738483347
 21
293.2276211940255
 31
0.0
  0
LINE
  5
3318
330
1D88
100
AcDbEntity
  8
SUNPOU
 62
     4
100
AcDbLine
 10
408.181656991042
 20
290.2276211940255
 30
0.0
 11
423.2636738483347
 21
290.2276211940255
 31
0.0
  0
INSERT
  5
3319
330
1D88
100
AcDbEntity
  8
SUNPOU
 62
     4
100
AcDbBlockReference
  2
_OPEN
 10
401.181656991042
 20
290.2276211940255
 30
0.0
 41
7.0
 42
7.0
 43
7.0
 50
180.0
  0
INSERT
  5
331A
330
1D88
100
AcDbEntity
  8
SUNPOU
 62
     4
100
AcDbBlockReference
  2
_OPEN
 10
430.2636738483347
 20
290.2276211940255
 30
0.0
 41
7.0
 42
7.0
 43
7.0
  0
MTEXT
  5
331B
330
1D88
100
AcDbEntity
  8
SUNPOU
 62
     4
100
AcDbMText
 10
415.181656991042
 20
295.2276211940255
 30
0.0
 40
6.0
 41
0.0
 71
     5
 72
     1
  1
\A1;29
1001
ACAD
1000
MTEXTBEGIN
1070
    73
1070
     1
1070
    44
1040
1.0
1070
    74
1070
     0
1000
MTEXTEND
  0
POINT
  5
331C
330
1D88
100
AcDbEntity
  8
DEFPOINTS
 62
     0
100
AcDbPoint
 10
401.181656991042
 20
209.2909404532875
 30
0.0
  0
POINT
  5
331D
330
1D88
100
AcDbEntity
  8
DEFPOINTS
 62
     0
100
AcDbPoint
 10
430.2636738483347
 20
245.2276211940255
 30
0.0
  0
POINT
  5
331E
330
1D88
100
AcDbEntity
  8
DEFPOINTS
 62
     0
100
AcDbPoint
 10
430.2636738483347
 20
290.2276211940255
 30
0.0
  0
ENDBLK
  5
1E44
330
1D88
100
AcDbEntity
  8
0
100
AcDbBlockEnd
  0
BLOCK
  5
1E45
330
1D94
100
AcDbEntity
  8
0
100
AcDbBlockBegin
  2
*D2
 70
     1
 10
0.0
 20
0.0
 30
0.0
  3
*D2
  1

  0
LINE
  5
330B
330
1D94
100
AcDbEntity
  8
SUNPOU
 62
     4
100
AcDbLine
 10
416.4559540872726
 20
250.6221351897436
 30
0.0
 11
411.089390941273
 21
261.355261481743
 31
0.0
  0
LINE
  5
330C
330
1D94
100
AcDbEntity
  8
SUNPOU
 62
     4
100
AcDbLine
 10
425.400225997271
 20
255.0942711447429
 30
0.0
 11
420.0336628512714
 21
265.8273974367421
 31
0.0
  0
LINE
  5
330D
330
1D94
100
AcDbEntity
  8
SUNPOU
 62
     4
100
AcDbLine
 10
406.1700413907734
 20
255.5414847402435
 30
0.0
 11
399.909051053774
 21
252.4109895717439
 31
0.0
  0
LINE
  5
330E
330
1D94
100
AcDbEntity
  8
SUNPOU
 62
     4
100
AcDbLine
 10
427.6362939747707
 20
266.274611032242
 30
0.0
 11
443.7359834127692
 21
274.3244557512412
 31
0.0
  0
LINE
  5
330F
330
1D94
100
AcDbEntity
  8
SUNPOU
 62
     4
100
AcDbLine
 10
412.4310317277729
 20
258.6719799087432
 30
0.0
 11
421.3753036377713
 21
263.1441158637424
 31
0.0
  0
INSERT
  5
3310
330
1D94
100
AcDbEntity
  8
SUNPOU
 62
     4
100
AcDbBlockReference
  2
_OPEN
 10
412.4310317277729
 20
258.6719799087432
 30
0.0
 41
7.0
 42
7.0
 43
7.0
 50
26.5650511770777
  0
INSERT
  5
3311
330
1D94
100
AcDbEntity
  8
SUNPOU
 62
     4
100
AcDbBlockReference
  2
_OPEN
 10
421.3753036377713
 20
263.1441158637424
 30
0.0
 41
7.0
 42
7.0
 43
7.0
 50
206.5650511770776
  0
MTEXT
  5
3312
330
1D94
100
AcDbEntity
  8
SUNPOU
 62
     4
100
AcDbMText
 10
436.5805658847699
 20
276.336916930991
 30
0.0
 40
6.0
 41
0.0
 71
     5
 72
     1
  1
\A1;10
 11
0.8944271909999182
 21
0.4472135954999534
 31
0.0
1001
ACAD
1000
MTEXTBEGIN
1070
    73
1070
     1
1070
    44
1040
1.0
1070
    74
1070
     0
1000
MTEXTEND
  0
POINT
  5
3313
330
1D94
100
AcDbEntity
  8
DEFPOINTS
 62
     0
100
AcDbPoint
 10
419.1392356602723
 20
245.2555720437441
 30
0.0
  0
POINT
  5
3314
330
1D94
100
AcDbEntity
  8
DEFPOINTS
 62
     0
100
AcDbPoint
 10
428.0835075702707
 20
249.7277079987433
 30
0.0
  0
POINT
  5
3315
330
1D94
100
AcDbEntity
  8
DEFPOINTS
 62
     0
100
AcDbPoint
 10
421.3753036377713
 20
263.1441158637424
 30
0.0
  0
ENDBLK
  5
1E51
330
1D94
100
AcDbEntity
  8
0
100
AcDbBlockEnd
  0
BLOCK
  5
1E52
330
1DA2
100
AcDbEntity
  8
0
100
AcDbBlockBegin
  2
*D3
 70
     1
 10
0.0
 20
0.0
 30
0.0
  3
*D3
  1

  0
LINE
  5
3302
330
1DA2
100
AcDbEntity
  8
SUNPOU
 62
     4
100
AcDbLine
 10
266.2821472343421
 20
245.1909404532875
 30
0.0
 11
201.4010728337514
 21
245.1909404532875
 31
0.0
  0
LINE
  5
3303
330
1DA2
100
AcDbEntity
  8
SUNPOU
 62
     4
100
AcDbLine
 10
454.1081947101347
 20
169.8861036279255
 30
0.0
 11
201.4010728337514
 21
169.8861036279256
 31
0.0
  0
LINE
  5
3304
330
1DA2
100
AcDbEntity
  8
SUNPOU
 62
     4
100
AcDbLine
 10
204.4010728337514
 20
238.1909404532875
 30
0.0
 11
204.4010728337514
 21
176.8861036279256
 31
0.0
  0
INSERT
  5
3305
330
1DA2
100
AcDbEntity
  8
SUNPOU
 62
     4
100
AcDbBlockReference
  2
_OPEN
 10
204.4010728337514
 20
245.1909404532875
 30
0.0
 41
7.0
 42
7.0
 43
7.0
 50
90.0
  0
INSERT
  5
3306
330
1DA2
100
AcDbEntity
  8
SUNPOU
 62
     4
100
AcDbBlockReference
  2
_OPEN
 10
204.4010728337514
 20
169.8861036279256
 30
0.0
 41
7.0
 42
7.0
 43
7.0
 50
270.0
  0
MTEXT
  5
3307
330
1DA2
100
AcDbEntity
  8
SUNPOU
 62
     4
100
AcDbMText
 10
199.4010728337514
 20
204.640176699544
 30
0.0
 40
6.0
 41
0.0
 71
     5
 72
     1
  1
\A1;75
 11
0.0000000000000001
 21
1.0
 31
0.0
1001
ACAD
1000
MTEXTBEGIN
1070
    73
1070
     1
1070
    44
1040
1.0
1070
    74
1070
     0
1000
MTEXTEND
  0
POINT
  5
3308
330
1DA2
100
AcDbEntity
  8
DEFPOINTS
 62
     0
100
AcDbPoint
 10
272.2821472343421
 20
245.1909404532875
 30
0.0
  0
POINT
  5
3309
330
1DA2
100
AcDbEntity
  8
DEFPOINTS
 62
     0
100
AcDbPoint
 10
460.1081947101347
 20
169.8861036279255
 30
0.0
  0
POINT
  5
330A
330
1DA2
100
AcDbEntity
  8
DEFPOINTS
 62
     0
100
AcDbPoint
 10
204.4010728337514
 20
169.8861036279256
 30
0.0
  0
ENDBLK
  5
1E5C
330
1DA2
100
AcDbEntity
  8
0
100
AcDbBlockEnd
  0
BLOCK
  5
1E5D
330
1DAE
100
AcDbEntity
  8
0
100
AcDbBlockBegin
  2
*D4
 70
     1
 10
0.0
 20
0.0
 30
0.0
  3
*D4
  1

  0
LINE
  5
331F
330
1DAE
100
AcDbEntity
  8
SUNPOU
 62
     4
100
AcDbLine
 10
401.181656991042
 20
215.2909404532875
 30
0.0
 11
401.181656991042
 21
293.2276211940255
 31
0.0
  0
LINE
  5
3320
330
1DAE
100
AcDbEntity
  8
SUNPOU
 62
     4
100
AcDbLine
 10
267.8315237327349
 20
244.9419214251255
 30
0.0
 11
267.8315237327349
 21
293.2276211940255
 31
0.0
  0
LINE
  5
3321
330
1DAE
100
AcDbEntity
  8
SUNPOU
 62
     4
100
AcDbLine
 10
394.181656991042
 20
290.2276211940255
 30
0.0
 11
274.8315237327349
 21
290.2276211940255
 31
0.0
  0
INSERT
  5
3322
330
1DAE
100
AcDbEntity
  8
SUNPOU
 62
     4
100
AcDbBlockReference
  2
_OPEN
 10
401.181656991042
 20
290.2276211940255
 30
0.0
 41
7.0
 42
7.0
 43
7.0
  0
INSERT
  5
3323
330
1DAE
100
AcDbEntity
  8
SUNPOU
 62
     4
100
AcDbBlockReference
  2
_OPEN
 10
267.8315237327349
 20
290.2276211940255
 30
0.0
 41
7.0
 42
7.0
 43
7.0
 50
180.0
  0
MTEXT
  5
3324
330
1DAE
100
AcDbEntity
  8
SUNPOU
 62
     4
100
AcDbMText
 10
334.5065903618883
 20
295.2276211940255
 30
0.0
 40
6.0
 41
0.0
 71
     5
 72
     1
  1
\A1;133
1001
ACAD
1000
MTEXTBEGIN
1070
    73
1070
     1
1070
    44
1040
1.0
1070
    74
1070
     0
1000
MTEXTEND
  0
POINT
  5
3325
330
1DAE
100
AcDbEntity
  8
DEFPOINTS
 62
     0
100
AcDbPoint
 10
401.181656991042
 20
209.2909404532875
 30
0.0
  0
POINT
  5
3326
330
1DAE
100
AcDbEntity
  8
DEFPOINTS
 62
     0
100
AcDbPoint
 10
267.8315237327349
 20
238.9419214251255
 30
0.0
  0
POINT
  5
3327
330
1DAE
100
AcDbEntity
  8
DEFPOINTS
 62
     0
100
AcDbPoint
 10
267.8315237327349
 20
290.2276211940255
 30
0.0
  0
ENDBLK
  5
1E67
330
1DAE
100
AcDbEntity
  8
0
100
AcDbBlockEnd
  0
BLOCK
  5
1E68
330
1DBA
100
AcDbEntity
  8
0
100
AcDbBlockBegin
  2
*D5
 70
     1
 10
0.0
 20
0.0
 30
0.0
  3
*D5
  1

  0
LINE
  5
3328
330
1DBA
100
AcDbEntity
  8
SUNPOU
 62
     4
100
AcDbLine
 10
261.8315237327349
 20
397.7662743592202
 30
0.0
 11
201.4010728337514
 21
397.7662743592202
 31
0.0
  0
LINE
  5
3329
330
1DBA
100
AcDbEntity
  8
SUNPOU
 62
     4
100
AcDbLine
 10
261.8315237327349
 20
369.7662743592203
 30
0.0
 11
201.4010728337514
 21
369.7662743592203
 31
0.0
  0
LINE
  5
332A
330
1DBA
100
AcDbEntity
  8
SUNPOU
 62
     4
100
AcDbLine
 10
204.4010728337514
 20
404.7662743592202
 30
0.0
 11
204.4010728337514
 21
411.7662743592202
 31
0.0
  0
LINE
  5
332B
330
1DBA
100
AcDbEntity
  8
SUNPOU
 62
     4
100
AcDbLine
 10
204.4010728337514
 20
362.7662743592202
 30
0.0
 11
204.4010728337514
 21
355.7662743592203
 31
0.0
  0
LINE
  5
332C
330
1DBA
100
AcDbEntity
  8
SUNPOU
 62
     4
100
AcDbLine
 10
204.4010728337514
 20
397.7662743592202
 30
0.0
 11
204.4010728337514
 21
369.7662743592203
 31
0.0
  0
INSERT
  5
332D
330
1DBA
100
AcDbEntity
  8
SUNPOU
 62
     4
100
AcDbBlockReference
  2
_OPEN
 10
204.4010728337514
 20
397.7662743592202
 30
0.0
 41
7.0
 42
7.0
 43
7.0
 50
270.0
  0
INSERT
  5
332E
330
1DBA
100
AcDbEntity
  8
SUNPOU
 62
     4
100
AcDbBlockReference
  2
_OPEN
 10
204.4010728337514
 20
369.7662743592203
 30
0.0
 41
7.0
 42
7.0
 43
7.0
 50
90.0
  0
MTEXT
  5
332F
330
1DBA
100
AcDbEntity
  8
SUNPOU
 62
     4
100
AcDbMText
 10
199.4010728337514
 20
381.3810703594267
 30
0.0
 40
6.0
 41
0.0
 71
     5
 72
     1
  1
\A1;28
 11
0.0000000000000001
 21
1.0
 31
0.0
1001
ACAD
1000
MTEXTBEGIN
1070
    73
1070
     1
1070
    44
1040
1.0
1070
    74
1070
     0
1000
MTEXTEND
  0
POINT
  5
3330
330
1DBA
100
AcDbEntity
  8
DEFPOINTS
 62
     0
100
AcDbPoint
 10
267.8315237327349
 20
397.7662743592202
 30
0.0
  0
POINT
  5
3331
330
1DBA
100
AcDbEntity
  8
DEFPOINTS
 62
     0
100
AcDbPoint
 10
267.8315237327349
 20
369.7662743592203
 30
0.0
  0
POINT
  5
3332
330
1DBA
100
AcDbEntity
  8
DEFPOINTS
 62
     0
100
AcDbPoint
 10
204.4010728337514
 20
369.7662743592203
 30
0.0
  0
ENDBLK
  5
1E74
330
1DBA
100
AcDbEntity
  8
0
100
AcDbBlockEnd
  0
BLOCK
  5
1E75
330
1DC8
100
AcDbEntity
  8
0
100
AcDbBlockBegin
  2
*D6
 70
     1
 10
0.0
 20
0.0
 30
0.0
  3
*D6
  1

  0
LINE
  5
333C
330
1DC8
100
AcDbEntity
  8
SUNPOU
 62
     4
100
AcDbLine
 10
560.4463218681352
 20
284.9011385499258
 30
0.0
 11
533.6135061381399
 21
271.4847306849281
 31
0.0
  0
LINE
  5
333D
330
1DC8
100
AcDbEntity
  8
SUNPOU
 62
     4
100
AcDbLine
 10
582.8070016413351
 20
240.1797790035259
 30
0.0
 11
555.9741859113398
 21
226.7633711385281
 31
0.0
  0
LINE
  5
333E
330
1DC8
100
AcDbEntity
  8
SUNPOU
 62
     4
100
AcDbLine
 10
539.4272828796393
 20
266.5653811344285
 30
0.0
 11
555.5269723158398
 21
234.3660022620274
 31
0.0
  0
INSERT
  5
333F
330
1DC8
100
AcDbEntity
  8
SUNPOU
 62
     4
100
AcDbBlockReference
  2
_OPEN
 10
536.2967877111396
 20
272.8263714714279
 30
0.0
 41
7.0
 42
7.0
 43
7.0
 50
116.565051177078
  0
INSERT
  5
3340
330
1DC8
100
AcDbEntity
  8
SUNPOU
 62
     4
100
AcDbBlockReference
  2
_OPEN
 10
558.6574674843395
 20
228.105011925028
 30
0.0
 41
7.0
 42
7.0
 43
7.0
 50
296.565051177078
  0
MTEXT
  5
3341
330
1DC8
100
AcDbEntity
  8
SUNPOU
 62
     4
100
AcDbMText
 10
551.9492635527391
 20
252.7017596757278
 30
0.0
 40
6.0
 41
0.0
 71
     5
 72
     1
  1
\A1;50
 11
0.4472135954999584
 21
-0.8944271909999155
 31
0.0
1001
ACAD
1000
MTEXTBEGIN
1070
    73
1070
     1
1070
    44
1040
1.0
1070
    74
1070
     0
1000
MTEXTEND
  0
POINT
  5
3342
330
1DC8
100
AcDbEntity
  8
DEFPOINTS
 62
     0
100
AcDbPoint
 10
565.8128850141347
 20
287.5844201229256
 30
0.0
  0
POINT
  5
3343
330
1DC8
100
AcDbEntity
  8
DEFPOINTS
 62
     0
100
AcDbPoint
 10
588.1735647873347
 20
242.8630605765256
 30
0.0
  0
POINT
  5
3344
330
1DC8
100
AcDbEntity
  8
DEFPOINTS
 62
     0
100
AcDbPoint
 10
558.6574674843395
 20
228.105011925028
 30
0.0
  0
ENDBLK
  5
1E7F
330
1DC8
100
AcDbEntity
  8
0
100
AcDbBlockEnd
  0
BLOCK
  5
1E80
330
1DD4
100
AcDbEntity
  8
0
100
AcDbBlockBegin
  2
*D7
 70
     1
 10
0.0
 20
0.0
 30
0.0
  3
*D7
  1

  0
LINE
  5
3333
330
1DD4
100
AcDbEntity
  8
SUNPOU
 62
     4
100
AcDbLine
 10
550.2791992065352
 20
305.2353838731257
 30
0.0
 11
523.4463834765408
 21
291.8189760081286
 31
0.0
  0
LINE
  5
3334
330
1DD4
100
AcDbEntity
  8
SUNPOU
 62
     4
100
AcDbLine
 10
560.4463218681351
 20
284.9011385499258
 30
0.0
 11
533.6135061381407
 21
271.4847306849287
 31
0.0
  0
LINE
  5
3335
330
1DD4
100
AcDbEntity
  8
SUNPOU
 62
     4
100
AcDbLine
 10
529.2601602180402
 20
286.8996264576291
 30
0.0
 11
533.1662925426407
 21
279.0873618084279
 31
0.0
  0
INSERT
  5
3336
330
1DD4
100
AcDbEntity
  8
SUNPOU
 62
     4
100
AcDbBlockReference
  2
_OPEN
 10
526.1296650495405
 20
293.1606167946285
 30
0.0
 41
7.0
 42
7.0
 43
7.0
 50
116.5650511770778
  0
INSERT
  5
3337
330
1DD4
100
AcDbEntity
  8
SUNPOU
 62
     4
100
AcDbBlockReference
  2
_OPEN
 10
536.2967877111404
 20
272.8263714714285
 30
0.0
 41
7.0
 42
7.0
 43
7.0
 50
296.5650511770778
  0
MTEXT
  5
3338
330
1DD4
100
AcDbEntity
  8
SUNPOU
 62
     4
100
AcDbMText
 10
535.68536233534
 20
285.2295621105283
 30
0.0
 40
6.0
 41
0.0
 71
     5
 72
     1
  1
\A1;23
 11
0.4472135954999557
 21
-0.8944271909999169
 31
0.0
1001
ACAD
1000
MTEXTBEGIN
1070
    73
1070
     1
1070
    44
1040
1.0
1070
    74
1070
     0
1000
MTEXTEND
  0
POINT
  5
3339
330
1DD4
100
AcDbEntity
  8
DEFPOINTS
 62
     0
100
AcDbPoint
 10
555.6457623525347
 20
307.9186654461254
 30
0.0
  0
POINT
  5
333A
330
1DD4
100
AcDbEntity
  8
DEFPOINTS
 62
     0
100
AcDbPoint
 10
565.8128850141346
 20
287.5844201229255
 30
0.0
  0
POINT
  5
333B
330
1DD4
100
AcDbEntity
  8
DEFPOINTS
 62
     0
100
AcDbPoint
 10
536.2967877111404
 20
272.8263714714285
 30
0.0
  0
ENDBLK
  5
1E8C
330
1DD4
100
AcDbEntity
  8
0
100
AcDbBlockEnd
  0
BLOCK
  5
1E8D
330
1DE2
100
AcDbEntity
  8
0
100
AcDbBlockBegin
  2
*D8
 70
     1
 10
0.0
 20
0.0
 30
0.0
  3
*D8
  1

  0
LINE
  5
3345
330
1DE2
100
AcDbEntity
  8
SUNPOU
 62
     4
100
AcDbLine
 10
611.4286717533352
 20
254.4906140595259
 30
0.0
 11
555.9741859113399
 21
226.7633711385296
 31
0.0
  0
LINE
  5
3346
330
1DE2
100
AcDbEntity
  8
SUNPOU
 62
     4
100
AcDbLine
 10
615.0063805173352
 20
247.3351965315258
 30
0.0
 11
559.5518946753399
 21
219.6079536105294
 31
0.0
  0
LINE
  5
3347
330
1DE2
100
AcDbEntity
  8
SUNPOU
 62
     4
100
AcDbLine
 10
555.5269723158402
 20
234.3660022620289
 30
0.0
 11
552.3964771473406
 21
240.6269925990283
 31
0.0
  0
LINE
  5
3348
330
1DE2
100
AcDbEntity
  8
SUNPOU
 62
     4
100
AcDbLine
 10
565.3656714168392
 20
214.6886040600298
 30
0.0
 11
568.4961665853388
 21
208.4276137230303
 31
0.0
  0
LINE
  5
3349
330
1DE2
100
AcDbEntity
  8
SUNPOU
 62
     4
100
AcDbLine
 10
558.6574674843397
 20
228.1050119250294
 30
0.0
 11
562.2351762483397
 21
220.9495943970292
 31
0.0
  0
INSERT
  5
334A
330
1DE2
100
AcDbEntity
  8
SUNPOU
 62
     4
100
AcDbBlockReference
  2
_OPEN
 10
558.6574674843397
 20
228.1050119250294
 30
0.0
 41
7.0
 42
7.0
 43
7.0
 50
296.5650511770768
  0
INSERT
  5
334B
330
1DE2
100
AcDbEntity
  8
SUNPOU
 62
     4
100
AcDbBlockReference
  2
_OPEN
 10
562.2351762483397
 20
220.9495943970292
 30
0.0
 41
7.0
 42
7.0
 43
7.0
 50
116.5650511770768
  0
MTEXT
  5
334C
330
1DE2
100
AcDbEntity
  8
SUNPOU
 62
     4
100
AcDbMText
 10
564.9184578213392
 20
226.7633711385291
 30
0.0
 40
6.0
 41
0.0
 71
     5
 72
     1
  1
\A1;8
 11
0.4472135954999409
 21
-0.8944271909999244
 31
0.0
1001
ACAD
1000
MTEXTBEGIN
1070
    73
1070
     1
1070
    44
1040
1.0
1070
    74
1070
     0
1000
MTEXTEND
  0
POINT
  5
334D
330
1DE2
100
AcDbEntity
  8
DEFPOINTS
 62
     0
100
AcDbPoint
 10
616.7952348993349
 20
257.1738956325256
 30
0.0
  0
POINT
  5
334E
330
1DE2
100
AcDbEntity
  8
DEFPOINTS
 62
     0
100
AcDbPoint
 10
620.3729436633348
 20
250.0184781045254
 30
0.0
  0
POINT
  5
334F
330
1DE2
100
AcDbEntity
  8
DEFPOINTS
 62
     0
100
AcDbPoint
 10
562.2351762483397
 20
220.9495943970292
 30
0.0
  0
ENDBLK
  5
1E99
330
1DE2
100
AcDbEntity
  8
0
100
AcDbBlockEnd
  0
BLOCK
  5
1E9A
330
1DF0
100
AcDbEntity
  8
0
100
AcDbBlockBegin
  2
*D9
 70
     1
 10
0.0
 20
0.0
 30
0.0
  3
*D9
  1

  0
LINE
  5
3350
330
1DF0
100
AcDbEntity
  8
SUNPOU
 62
     4
100
AcDbLine
 10
435.7300107786818
 20
247.9133418637737
 30
0.0
 11
459.8012545078093
 21
259.962643833695
 31
0.0
  0
LINE
  5
3351
330
1DF0
100
AcDbEntity
  8
SUNPOU
 62
     4
100
AcDbLine
 10
471.8420560809216
 20
175.7712504631732
 30
0.0
 11
495.913299810049
 21
187.8205524330946
 31
0.0
  0
LINE
  5
3352
330
1DF0
100
AcDbEntity
  8
SUNPOU
 62
     4
100
AcDbLine
 10
460.2519238368754
 20
252.3602167767718
 30
0.0
 11
490.0972875763693
 21
192.7372588202696
 31
0.0
  0
INSERT
  5
3353
330
1DF0
100
AcDbEntity
  8
SUNPOU
 62
     4
100
AcDbBlockReference
  2
_OPEN
 10
457.1185830555025
 20
258.6197834988209
 30
0.0
 41
7.0
 42
7.0
 43
7.0
 50
116.5910950031131
  0
INSERT
  5
3354
330
1DF0
100
AcDbEntity
  8
SUNPOU
 62
     4
100
AcDbBlockReference
  2
_OPEN
 10
493.2306283577422
 20
186.4776920982205
 30
0.0
 41
7.0
 42
7.0
 43
7.0
 50
296.5910950031131
  0
MTEXT
  5
3355
330
1DF0
100
AcDbEntity
  8
SUNPOU
 62
     4
100
AcDbMText
 10
479.6457247938004
 20
224.7868383566443
 30
0.0
 40
6.0
 41
0.0
 71
     5
 72
     1
  1
\A1;81
 11
0.4476201116246991
 21
-0.8942238174355971
 31
0.0
1001
ACAD
1000
MTEXTBEGIN
1070
    73
1070
     1
1070
    44
1040
1.0
1070
    74
1070
     0
1000
MTEXTEND
  0
POINT
  5
3356
330
1DF0
100
AcDbEntity
  8
DEFPOINTS
 62
     0
100
AcDbPoint
 10
430.3646678740683
 20
245.2276211940255
 30
0.0
  0
POINT
  5
3357
330
1DF0
100
AcDbEntity
  8
DEFPOINTS
 62
     0
100
AcDbPoint
 10
466.476713176308
 20
173.085529793425
 30
0.0
  0
POINT
  5
3358
330
1DF0
100
AcDbEntity
  8
DEFPOINTS
 62
     0
100
AcDbPoint
 10
493.2306283577422
 20
186.4776920982205
 30
0.0
  0
ENDBLK
  5
1EA4
330
1DF0
100
AcDbEntity
  8
0
100
AcDbBlockEnd
  0
BLOCK
  5
1EA5
330
1DFC
100
AcDbEntity
  8
0
100
AcDbBlockBegin
  2
*D10
 70
     1
 10
0.0
 20
0.0
 30
0.0
  3
*D10
  1

  0
LINE
  5
3359
330
1DFC
100
AcDbEntity
  8
SUNPOU
 62
     4
100
AcDbLine
 10
462.8576407750665
 20
164.5526350059824
 30
0.0
 11
468.2637725597777
 21
153.791891433971
 31
0.0
  0
LINE
  5
335A
330
1DFC
100
AcDbEntity
  8
SUNPOU
 62
     4
100
AcDbLine
 10
469.1126416072611
 20
167.6951091840936
 30
0.0
 11
474.5187733919722
 21
156.9343656120822
 31
0.0
  0
LINE
  5
335B
330
1DFC
100
AcDbEntity
  8
SUNPOU
 62
     4
100
AcDbLine
 10
460.6620109934251
 20
153.3301327433919
 30
0.0
 11
454.4070216098197
 21
150.1876643169819
 31
0.0
  0
LINE
  5
335C
330
1DFC
100
AcDbEntity
  8
SUNPOU
 62
     4
100
AcDbLine
 10
479.4269905928305
 20
162.7575437743231
 30
0.0
 11
504.4469481272526
 21
175.3274174799632
 31
0.0
  0
LINE
  5
335D
330
1DFC
100
AcDbEntity
  8
SUNPOU
 62
     4
100
AcDbLine
 10
466.9170003770305
 20
156.4726011698019
 30
0.0
 11
473.1720012092251
 21
159.6150753479131
 31
0.0
  0
INSERT
  5
335E
330
1DFC
100
AcDbEntity
  8
SUNPOU
 62
     4
100
AcDbBlockReference
  2
_OPEN
 10
466.9170003770305
 20
156.4726011698019
 30
0.0
 41
7.0
 42
7.0
 43
7.0
 50
26.67467374779548
  0
INSERT
  5
335F
330
1DFC
100
AcDbEntity
  8
SUNPOU
 62
     4
100
AcDbBlockReference
  2
_OPEN
 10
473.1720012092251
 20
159.6150753479131
 30
0.0
 41
7.0
 42
7.0
 43
7.0
 50
206.6746737477954
  0
MTEXT
  5
3360
330
1DFC
100
AcDbEntity
  8
SUNPOU
 62
     4
100
AcDbMText
 10
492.8198437472659
 20
175.0815644000665
 30
0.0
 40
6.0
 41
0.0
 71
     5
 72
     1
  1
\A1;t7.0
 11
0.8935699119436293
 21
0.4489240609157127
 31
0.0
1001
ACAD
1000
MTEXTBEGIN
1070
    73
1070
     1
1070
    44
1040
1.0
1070
    74
1070
     0
1000
MTEXTEND
  0
POINT
  5
3361
330
1DFC
100
AcDbEntity
  8
DEFPOINTS
 62
     0
100
AcDbPoint
 10
460.1640964095722
 20
169.9140544776442
 30
0.0
  0
POINT
  5
3362
330
1DFC
100
AcDbEntity
  8
DEFPOINTS
 62
     0
100
AcDbPoint
 10
466.4190972417668
 20
173.0565286557554
 30
0.0
  0
POINT
  5
3363
330
1DFC
100
AcDbEntity
  8
DEFPOINTS
 62
     0
100
AcDbPoint
 10
473.1720012092251
 20
159.6150753479131
 30
0.0
  0
ENDBLK
  5
1EB1
330
1DFC
100
AcDbEntity
  8
0
100
AcDbBlockEnd
  0
BLOCK
  5
1EB2
330
1E0A
100
AcDbEntity
  8
0
100
AcDbBlockBegin
  2
*D11
 70
     1
 10
0.0
 20
0.0
 30
0.0
  3
*D11
  1

  0
LINE
  5
3364
330
1E0A
100
AcDbEntity
  8
SUNPOU
 62
     4
100
AcDbLine
 10
609.1128616143266
 20
241.0968960011521
 30
0.0
 11
620.8805499130196
 21
216.9490782395913
 31
0.0
  0
LINE
  5
3365
330
1E0A
100
AcDbEntity
  8
SUNPOU
 62
     4
100
AcDbLine
 10
634.2845044813267
 20
253.363513637152
 30
0.0
 11
646.0521927800197
 21
229.2156958755912
 31
0.0
  0
LINE
  5
3366
330
1E0A
100
AcDbEntity
  8
SUNPOU
 62
     4
100
AcDbLine
 10
625.858921373676
 20
222.7123947847519
 30
0.0
 11
638.4453970330715
 21
228.8460224194039
 31
0.0
  0
INSERT
  5
3367
330
1E0A
100
AcDbEntity
  8
SUNPOU
 62
     4
100
AcDbBlockReference
  2
_OPEN
 10
619.5663377698736
 20
219.645899784078
 30
0.0
 41
7.0
 42
7.0
 43
7.0
 50
205.9808497770841
  0
INSERT
  5
3368
330
1E0A
100
AcDbEntity
  8
SUNPOU
 62
     4
100
AcDbBlockReference
  2
_OPEN
 10
644.7379806368737
 20
231.9125174200779
 30
0.0
 41
7.0
 42
7.0
 43
7.0
 50
25.98084977708413
  0
MTEXT
  5
3369
330
1E0A
100
AcDbEntity
  8
SUNPOU
 62
     4
100
AcDbMText
 10
629.9618056314638
 20
230.2739111762225
 30
0.0
 40
6.0
 41
0.0
 71
     5
 72
     1
  1
\A1;28
 11
0.8989405148289007
 21
0.4380707143819942
 31
0.0
1001
ACAD
1000
MTEXTBEGIN
1070
    73
1070
     1
1070
    44
1040
1.0
1070
    74
1070
     0
1000
MTEXTEND
  0
POINT
  5
336A
330
1E0A
100
AcDbEntity
  8
DEFPOINTS
 62
     0
100
AcDbPoint
 10
606.4844373280346
 20
246.4905390901255
 30
0.0
  0
POINT
  5
336B
330
1E0A
100
AcDbEntity
  8
DEFPOINTS
 62
     0
100
AcDbPoint
 10
631.6560801950347
 20
258.7571567261254
 30
0.0
  0
POINT
  5
336C
330
1E0A
100
AcDbEntity
  8
DEFPOINTS
 62
     0
100
AcDbPoint
 10
644.7379806368737
 20
231.9125174200779
 30
0.0
  0
ENDBLK
  5
1EBC
330
1E0A
100
AcDbEntity
  8
0
100
AcDbBlockEnd
  0
BLOCK
  5
1EBD
330
1E16
100
AcDbEntity
  8
0
100
AcDbBlockBegin
  2
*D12
 70
     1
 10
0.0
 20
0.0
 30
0.0
  3
*D12
  1

  0
LINE
  5
3376
330
1E16
100
AcDbEntity
  8
SUNPOU
 62
     4
100
AcDbLine
 10
563.1296034411349
 20
292.950983268925
 30
0.0
 11
540.8877137010359
 21
337.434762749123
 31
0.0
  0
LINE
  5
3377
330
1E16
100
AcDbEntity
  8
SUNPOU
 62
     4
100
AcDbLine
 10
620.3729436651349
 20
321.572653380925
 30
0.0
 11
598.1310539250359
 21
366.0564328611229
 31
0.0
  0
LINE
  5
3378
330
1E16
100
AcDbEntity
  8
SUNPOU
 62
     4
100
AcDbLine
 10
548.4903448245353
 20
337.881976344623
 30
0.0
 11
593.2117043745363
 21
360.2426561196235
 31
0.0
  0
INSERT
  5
3379
330
1E16
100
AcDbEntity
  8
SUNPOU
 62
     4
100
AcDbBlockReference
  2
_OPEN
 10
542.2293544875357
 20
334.7514811761233
 30
0.0
 41
7.0
 42
7.0
 43
7.0
 50
206.565051177078
  0
INSERT
  5
337A
330
1E16
100
AcDbEntity
  8
SUNPOU
 62
     4
100
AcDbBlockReference
  2
_OPEN
 10
599.4726947115358
 20
363.3731512881232
 30
0.0
 41
7.0
 42
7.0
 43
7.0
 50
26.56505117707799
  0
MTEXT
  5
337B
330
1E16
100
AcDbEntity
  8
SUNPOU
 62
     4
100
AcDbMText
 10
568.6149566220361
 20
353.5344521871228
 30
0.0
 40
6.0
 41
0.0
 71
     5
 72
     1
  1
\A1;64
 11
0.8944271909999159
 21
0.447213595499958
 31
0.0
1001
ACAD
1000
MTEXTBEGIN
1070
    73
1070
     1
1070
    44
1040
1.0
1070
    74
1070
     0
1000
MTEXTEND
  0
POINT
  5
337C
330
1E16
100
AcDbEntity
  8
DEFPOINTS
 62
     0
100
AcDbPoint
 10
565.8128850141347
 20
287.5844201229256
 30
0.0
  0
POINT
  5
337D
330
1E16
100
AcDbEntity
  8
DEFPOINTS
 62
     0
100
AcDbPoint
 10
623.0562252381347
 20
316.2060902349255
 30
0.0
  0
POINT
  5
337E
330
1E16
100
AcDbEntity
  8
DEFPOINTS
 62
     0
100
AcDbPoint
 10
599.4726947115358
 20
363.3731512881232
 30
0.0
  0
ENDBLK
  5
1EC7
330
1E16
100
AcDbEntity
  8
0
100
AcDbBlockEnd
  0
BLOCK
  5
1EC8
330
1E22
100
AcDbEntity
  8
0
100
AcDbBlockBegin
  2
*D13
 70
     1
 10
0.0
 20
0.0
 30
0.0
  3
*D13
  1

  0
LINE
  5
336D
330
1E22
100
AcDbEntity
  8
SUNPOU
 62
     4
100
AcDbLine
 10
550.7861982458797
 20
299.838507300876
 30
0.0
 11
527.2628192939801
 21
347.6783235089531
 31
0.0
  0
LINE
  5
336E
330
1E22
100
AcDbEntity
  8
SUNPOU
 62
     4
100
AcDbLine
 10
622.5783986909325
 20
335.1395446107682
 30
0.0
 11
599.055019739033
 21
382.9793608188452
 31
0.0
  0
LINE
  5
336F
330
1E22
100
AcDbEntity
  8
SUNPOU
 62
     4
100
AcDbLine
 10
534.8682574161144
 20
348.0749479791843
 30
0.0
 11
594.0971008229008
 21
377.1984404750714
 31
0.0
  0
INSERT
  5
3370
330
1E22
100
AcDbEntity
  8
SUNPOU
 62
     4
100
AcDbBlockReference
  2
_OPEN
 10
528.5865788969812
 20
344.9861755721817
 30
0.0
 41
7.0
 42
7.0
 43
7.0
 50
206.1838676580839
  0
INSERT
  5
3371
330
1E22
100
AcDbEntity
  8
SUNPOU
 62
     4
100
AcDbBlockReference
  2
_OPEN
 10
600.3787793420341
 20
380.2872128820739
 30
0.0
 41
7.0
 42
7.0
 43
7.0
 50
26.18386765808392
  0
MTEXT
  5
3372
330
1E22
100
AcDbEntity
  8
SUNPOU
 62
     4
100
AcDbMText
 10
562.2764131145059
 20
367.1236074550801
 30
0.0
 40
6.0
 41
0.0
 71
     5
 72
     1
  1
\A1;80
 11
0.8973826455904641
 21
0.4412532010003554
 31
0.0
1001
ACAD
1000
MTEXTBEGIN
1070
    73
1070
     1
1070
    44
1040
1.0
1070
    74
1070
     0
1000
MTEXTEND
  0
POINT
  5
3373
330
1E22
100
AcDbEntity
  8
DEFPOINTS
 62
     0
100
AcDbPoint
 10
553.4337174518818
 20
294.4542114273332
 30
0.0
  0
POINT
  5
3374
330
1E22
100
AcDbEntity
  8
DEFPOINTS
 62
     0
100
AcDbPoint
 10
625.2259178969346
 20
329.7552487372254
 30
0.0
  0
POINT
  5
3375
330
1E22
100
AcDbEntity
  8
DEFPOINTS
 62
     0
100
AcDbPoint
 10
600.3787793420341
 20
380.2872128820739
 30
0.0
  0
ENDBLK
  5
1ED2
330
1E22
100
AcDbEntity
  8
0
100
AcDbBlockEnd
  0
BLOCK
  5
1ED3
330
1E2E
100
AcDbEntity
  8
0
100
AcDbBlockBegin
  2
*D14
 70
     1
 10
0.0
 20
0.0
 30
0.0
  3
*D14
  1

  0
LINE
  5
3454
330
1E2E
100
AcDbEntity
  8
SUNPOU
 62
     4
100
AcDbLine
 10
446.9058568160348
 20
423.7662743592202
 30
0.0
 11
495.1762197466331
 21
423.7662743592202
 31
0.0
  0
LINE
  5
3455
330
1E2E
100
AcDbEntity
  8
SUNPOU
 62
     4
100
AcDbLine
 10
446.9058568160348
 20
343.7662743592202
 30
0.0
 11
495.176219746633
 21
343.7662743592202
 31
0.0
  0
LINE
  5
3456
330
1E2E
100
AcDbEntity
  8
SUNPOU
 62
     4
100
AcDbLine
 10
492.1762197466331
 20
416.7662743592202
 30
0.0
 11
492.176219746633
 21
350.7662743592202
 31
0.0
  0
INSERT
  5
3457
330
1E2E
100
AcDbEntity
  8
SUNPOU
 62
     4
100
AcDbBlockReference
  2
_OPEN
 10
492.1762197466331
 20
423.7662743592202
 30
0.0
 41
7.0
 42
7.0
 43
7.0
 50
90.0
  0
INSERT
  5
3458
330
1E2E
100
AcDbEntity
  8
SUNPOU
 62
     4
100
AcDbBlockReference
  2
_OPEN
 10
492.176219746633
 20
343.7662743592202
 30
0.0
 41
7.0
 42
7.0
 43
7.0
 50
270.0
  0
MTEXT
  5
3459
330
1E2E
100
AcDbEntity
  8
SUNPOU
 62
     4
100
AcDbMText
 10
487.176219746633
 20
383.7662743592202
 30
0.0
 40
6.0
 41
0.0
 71
     5
 72
     1
  1
\A1;80
 11
0.0000000000000001
 21
1.0
 31
0.0
1001
ACAD
1000
MTEXTBEGIN
1070
    73
1070
     1
1070
    44
1040
1.0
1070
    74
1070
     0
1000
MTEXTEND
  0
POINT
  5
345A
330
1E2E
100
AcDbEntity
  8
DEFPOINTS
 62
     0
100
AcDbPoint
 10
440.9058568160348
 20
423.7662743592202
 30
0.0
  0
POINT
  5
345B
330
1E2E
100
AcDbEntity
  8
DEFPOINTS
 62
     0
100
AcDbPoint
 10
440.9058568160348
 20
343.7662743592202
 30
0.0
  0
POINT
  5
345C
330
1E2E
100
AcDbEntity
  8
DEFPOINTS
 62
     0
100
AcDbPoint
 10
492.176219746633
 20
343.7662743592202
 30
0.0
  0
ENDBLK
  5
1EDD
330
1E2E
100
AcDbEntity
  8
0
100
AcDbBlockEnd
  0
ENDSEC
  0
SECTION
  2
ENTITIES
  0
LINE
  5
19A3
330
1A
100
AcDbEntity
  8
SEIHIN
100
AcDbLine
 10
429.3000336847349
 20
423.7662743592203
 30
0.0
 11
440.9058568160348
 21
423.7662743592203
 31
0.0
  0
LINE
  5
19A4
330
1A
100
AcDbEntity
  8
CENTER_L
 48
5.0
100
AcDbLine
 10
444.9029324649343
 20
227.1294438483253
 30
0.0
 11
427.0143886449359
 21
218.1851719383262
 31
0.0
  0
DIMENSION
  5
19A5
330
1A
100
AcDbEntity
  8
SUNPOU
100
AcDbDimension
  2
*D1
 10
430.2636738483347
 20
290.2276211940255
 30
0.0
 11
415.181656991042
 21
290.2276211940255
 31
0.0
 70
   160
  3
STANDARD
100
AcDbAlignedDimension
 13
401.181656991042
 23
209.2909404532875
 33
0.0
 14
430.2636738483347
 24
245.2276211940255
 34
0.0
100
AcDbRotatedDimension
1001
ACAD
1000
DSTYLE
1002
{
1070
    41
1040
7.0
1070
    42
1040
6.0
1070
    43
1040
14.0
1070
    44
1040
3.0
1070
    73
1070
     0
1070
    74
1070
     0
1070
    77
1070
     3
1070
   140
1040
6.0
1070
   141
1040
150.0
1070
   147
1040
2.0
1070
   172
1070
     1
1070
   173
1070
     1
1070
   176
1070
     4
1070
   177
1070
     4
1070
   178
1070
     4
1070
   271
1070
     0
1070
   272
1070
     0
1070
   341
1005
6D
1070
     6
1000
OPEN
1070
     7
1000
OPEN
1002
}
  0
LINE
  5
19A6
330
1A
100
AcDbEntity
  8
SEIHIN
100
AcDbLine
 10
429.3000336847349
 20
423.7662743592202
 30
0.0
 11
440.9058568160348
 21
423.7662743592202
 31
0.0
  0
LINE
  5
19A7
330
1A
100
AcDbEntity
  8
SEIHIN
100
AcDbLine
 10
429.3000336847349
 20
343.7662743592202
 30
0.0
 11
440.9058568160348
 21
343.7662743592202
 31
0.0
  0
LINE
  5
19A8
330
1A
100
AcDbEntity
  8
SEIHIN
100
AcDbLine
 10
422.5351925144348
 20
245.2276211940255
 30
0.0
 11
449.3389864576347
 21
198.1327240653256
 31
0.0
  0
LINE
  5
19A9
330
1A
100
AcDbEntity
  8
SEIHIN
100
AcDbLine
 10
420.5672589079349
 20
242.6203301188255
 30
0.0
 11
446.6917868451348
 21
196.7189193579255
 31
0.0
  0
LINE
  5
19AA
330
1A
100
AcDbEntity
  8
SEIHIN
100
AcDbLine
 10
430.2636738483347
 20
245.2276211940255
 30
0.0
 11
399.3527246275348
 21
245.2276211940255
 31
0.0
  0
LINE
  5
19AB
330
1A
100
AcDbEntity
  8
SEIHIN
100
AcDbLine
 10
406.8366485707349
 20
188.1919214251255
 30
0.0
 11
449.1011838452347
 21
188.1919214251255
 31
0.0
  0
LINE
  5
19AC
330
1A
100
AcDbEntity
  8
SEIHIN
100
AcDbLine
 10
410.279595142335
 20
191.6919214251255
 30
0.0
 11
447.5872518227347
 21
191.6919214251255
 31
0.0
  0
LINE
  5
19AD
330
1A
100
AcDbEntity
  8
CENTER_L
 48
5.0
100
AcDbLine
 10
253.7891626216349
 20
383.7662743592202
 30
0.0
 11
476.0349326054018
 21
383.7662743592202
 31
0.0
  0
DIMENSION
  5
19AE
330
1A
100
AcDbEntity
  8
SUNPOU
100
AcDbDimension
  2
*D2
 10
421.3753036377713
 20
263.1441158637424
 30
0.0
 11
438.8166338622697
 21
271.8647809759914
 31
0.0
 70
   161
  3
STANDARD
100
AcDbAlignedDimension
 13
419.1392356602723
 23
245.2555720437442
 33
0.0
 14
428.0835075702707
 24
249.7277079987433
 34
0.0
1001
ACAD
1000
DSTYLE
1002
{
1070
    41
1040
7.0
1070
    42
1040
6.0
1070
    43
1040
14.0
1070
    44
1040
3.0
1070
    73
1070
     0
1070
    74
1070
     0
1070
    77
1070
     3
1070
   140
1040
6.0
1070
   141
1040
150.0
1070
   147
1040
2.0
1070
   172
1070
     1
1070
   173
1070
     1
1070
   176
1070
     4
1070
   177
1070
     4
1070
   178
1070
     4
1070
   271
1070
     0
1070
   272
1070
     0
1070
   341
1005
6D
1070
     6
1000
OPEN
1070
     7
1000
OPEN
1002
}
  0
DIMENSION
  5
19AF
330
1A
100
AcDbEntity
  8
SUNPOU
100
AcDbDimension
  2
*D3
 10
204.4010728337514
 20
169.8861036279256
 30
0.0
 11
204.4010728337513
 21
204.640176699544
 31
0.0
 70
   160
  3
STANDARD
100
AcDbAlignedDimension
 13
272.2821472343421
 23
245.1909404532875
 33
0.0
 14
460.1081947101347
 24
169.8861036279255
 34
0.0
 50
90.0
100
AcDbRotatedDimension
1001
ACAD
1000
DSTYLE
1002
{
1070
    41
1040
7.0
1070
    42
1040
6.0
1070
    43
1040
14.0
1070
    44
1040
3.0
1070
    73
1070
     0
1070
    74
1070
     0
1070
    77
1070
     3
1070
   140
1040
6.0
1070
   141
1040
150.0
1070
   147
1040
2.0
1070
   172
1070
     1
1070
   173
1070
     1
1070
   176
1070
     4
1070
   177
1070
     4
1070
   178
1070
     4
1070
   271
1070
     0
1070
   272
1070
     0
1070
   341
1005
6D
1070
     6
1000
OPEN
1070
     7
1000
OPEN
1002
}
  0
DIMENSION
  5
19B0
330
1A
100
AcDbEntity
  8
SUNPOU
100
AcDbDimension
  2
*D4
 10
267.8315237327349
 20
290.2276211940255
 30
0.0
 11
334.5065903618883
 21
290.2276211940255
 31
0.0
 70
   160
  3
STANDARD
100
AcDbAlignedDimension
 13
401.181656991042
 23
209.2909404532875
 33
0.0
 14
267.8315237327349
 24
238.9419214251255
 34
0.0
100
AcDbRotatedDimension
1001
ACAD
1000
DSTYLE
1002
{
1070
    41
1040
7.0
1070
    42
1040
6.0
1070
    43
1040
14.0
1070
    44
1040
3.0
1070
    73
1070
     0
1070
    74
1070
     0
1070
    77
1070
     3
1070
   140
1040
6.0
1070
   141
1040
150.0
1070
   147
1040
2.0
1070
   172
1070
     1
1070
   173
1070
     1
1070
   176
1070
     4
1070
   177
1070
     4
1070
   178
1070
     4
1070
   271
1070
     0
1070
   272
1070
     0
1070
   341
1005
6D
1070
     6
1000
OPEN
1070
     7
1000
OPEN
1002
}
  0
ARC
  5
19B3
330
1A
100
AcDbEntity
  8
SEIHIN
100
AcDbCircle
 10
336.7335567750349
 20
279.1604690479255
 30
0.0
 40
62.99061073449999
100
AcDbArc
 50
231.3055937370978
 51
314.4052601452987
  0
ARC
  5
19B4
330
1A
100
AcDbEntity
  8
SEIHIN
100
AcDbCircle
 10
336.7335567750349
 20
279.1604690479255
 30
0.0
 40
59.4906107345
100
AcDbArc
 50
228.2657563722006
 51
314.4052601452987
  0
ARC
  5
19B6
330
1A
100
AcDbEntity
  8
SEIHIN
100
AcDbCircle
 10
275.9504857428348
 20
240.1919214251255
 30
0.0
 40
2.0
100
AcDbArc
 50
160.7099537807992
 51
270.0
  0
ARC
  5
19B7
330
1A
100
AcDbEntity
  8
SEIHIN
100
AcDbCircle
 10
275.3315237327349
 20
218.8919214251256
 30
0.0
 40
4.5
100
AcDbArc
 50
117.8966750511002
 51
270.0
  0
LINE
  5
19B8
330
1A
100
AcDbEntity
  8
SEIHIN
100
AcDbLine
 10
275.3315237327349
 20
214.3919214251255
 30
0.0
 11
296.3232150280348
 21
214.3919214251255
 31
0.0
  0
LINE
  5
19B9
330
1A
100
AcDbEntity
  8
SEIHIN
100
AcDbLine
 10
288.1454247192348
 20
238.1919214251255
 30
0.0
 11
275.9504857428348
 21
238.1919214251255
 31
0.0
  0
ARC
  5
19BA
330
1A
100
AcDbEntity
  8
SEIHIN
100
AcDbCircle
 10
274.7315237327347
 20
228.1919214251255
 30
0.0
 40
7.5
100
AcDbArc
 50
297.8966750511002
 51
0.0000024778990097
  0
LINE
  5
19BB
330
1A
100
AcDbEntity
  8
SEIHIN
100
AcDbLine
 10
275.3315237327349
 20
217.8919214251255
 30
0.0
 11
296.3232135885348
 21
217.8919214251255
 31
0.0
  0
LINE
  5
19BC
330
1A
100
AcDbEntity
  8
SEIHIN
100
AcDbLine
 10
291.1022754305349
 20
232.1919214251255
 30
0.0
 11
274.5815237327349
 21
232.1919214251255
 31
0.0
  0
LINE
  5
19BE
330
1A
100
AcDbEntity
  8
SEIHIN
100
AcDbLine
 10
273.2260703594347
 20
222.8689889494255
 30
0.0
 11
276.6030378423347
 21
224.6567502924256
 31
0.0
  0
LINE
  5
19BF
330
1A
100
AcDbEntity
  8
SEIHIN
100
AcDbLine
 10
274.8636452053347
 20
219.7757142083255
 30
0.0
 11
278.2406126882347
 21
221.5634755513256
 31
0.0
  0
ARC
  5
19C0
330
1A
100
AcDbEntity
  8
SEIHIN
100
AcDbCircle
 10
275.3315237327349
 20
218.8919214251256
 30
0.0
 40
1.0
100
AcDbArc
 50
117.8966750511002
 51
270.0
  0
LINE
  5
19C2
330
1A
100
AcDbEntity
  8
SEIHIN
100
AcDbLine
 10
282.2315237327348
 20
228.1919217495255
 30
0.0
 11
282.2315237327348
 21
231.1919214251255
 31
0.0
  0
LINE
  5
19C5
330
1A
100
AcDbEntity
  8
SEIHIN
100
AcDbLine
 10
274.8767832302348
 20
245.1919214251255
 30
0.0
 11
272.0320139760346
 21
245.1919214251255
 31
0.0
  0
LINE
  5
19C7
330
1A
100
AcDbEntity
  8
SEIHIN
100
AcDbLine
 10
275.3487124084349
 20
244.5267462127255
 30
0.0
 11
274.0627690301348
 21
240.8526222746255
 31
0.0
  0
LINE
  5
19C8
330
1A
100
AcDbEntity
  8
SEIHIN
100
AcDbLine
 10
402.9315237327348
 20
194.1057716196255
 30
0.0
 11
402.9315237327348
 21
192.2780712306255
 31
0.0
  0
ARC
  5
19C9
330
1A
100
AcDbEntity
  8
SEIHIN
100
AcDbCircle
 10
386.5806707717347
 20
197.8919214251255
 30
0.0
 40
5.0
100
AcDbArc
 50
270.0
 51
329.9999932511005
  0
LINE
  5
19CA
330
1A
100
AcDbEntity
  8
SEIHIN
100
AcDbLine
 10
404.6285573360348
 20
211.1999770517255
 30
0.0
 11
405.7881441071349
 21
192.4146713612256
 31
0.0
  0
LINE
  5
19CB
330
1A
100
AcDbEntity
  8
SEIHIN
100
AcDbLine
 10
408.1219081412347
 20
211.4156159903255
 30
0.0
 11
409.2814949123349
 21
192.6303102998256
 31
0.0
  0
LINE
  5
19CE
330
1A
100
AcDbEntity
  8
SEIHIN
100
AcDbLine
 10
386.5806707717347
 20
192.8919214251255
 30
0.0
 11
367.9315206761348
 21
192.8919214251255
 31
0.0
  0
ARC
  5
19CF
330
1A
100
AcDbEntity
  8
SEIHIN
100
AcDbCircle
 10
406.8366485707349
 20
191.1919214251255
 30
0.0
 40
3.0
100
AcDbArc
 50
219.8055710922989
 51
270.0
  0
LINE
  5
19D1
330
1A
100
AcDbEntity
  8
SEIHIN
100
AcDbLine
 10
403.6268601177348
 20
190.3575177631255
 30
0.0
 11
404.5319847319349
 21
189.2713682261255
 31
0.0
  0
ARC
  5
19D2
330
1A
100
AcDbEntity
  8
SEIHIN
100
AcDbCircle
 10
410.279595142335
 20
192.6919214251255
 30
0.0
 40
1.0
100
AcDbArc
 50
183.5322945839
 51
270.0
  0
ARC
  5
19D3
330
1A
100
AcDbEntity
  8
SEIHIN
100
AcDbCircle
 10
410.279595142335
 20
192.6919214251255
 30
0.0
 40
4.5
100
AcDbArc
 50
183.5322945839
 51
270.0
  0
ARC
  5
19D4
330
1A
100
AcDbEntity
  8
SEIHIN
100
AcDbCircle
 10
-367.9315237327348
 20
312.8919214251256
 30
0.0
 40
116.5
210
0.0
220
0.0
230
-1.0
100
AcDbArc
 50
303.4241891158988
 51
303.4241893624983
  0
ARC
  5
19D5
330
1A
100
AcDbEntity
  8
SEIHIN
100
AcDbCircle
 10
-367.9315237327348
 20
312.8919214251256
 30
0.0
 40
120.0
210
0.0
220
0.0
230
-1.0
100
AcDbArc
 50
303.4241893819004
 51
303.4241894726982
  0
LINE
  5
19D9
330
1A
100
AcDbEntity
  8
SEIHIN
100
AcDbLine
 10
399.6380561858348
 20
219.3919214251256
 30
0.0
 11
393.3232943683349
 21
219.3919214251256
 31
0.0
  0
LINE
  5
19DA
330
1A
100
AcDbEntity
  8
SEIHIN
100
AcDbLine
 10
399.6380561858348
 20
215.8919214251255
 30
0.0
 11
393.3232949440348
 21
215.8919214251255
 31
0.0
  0
ARC
  5
19DD
330
1A
100
AcDbEntity
  8
SEIHIN
100
AcDbCircle
 10
379.8708571323349
 20
197.3919214251255
 30
0.0
 40
1.0
100
AcDbArc
 50
270.0
 51
344.9999999999992
  0
LINE
  5
19DE
330
1A
100
AcDbEntity
  8
SEIHIN
100
AcDbLine
 10
379.8708571323349
 20
196.3919214251255
 30
0.0
 11
367.9315208596349
 21
196.3919214251255
 31
0.0
  0
LINE
  5
19DF
330
1A
100
AcDbEntity
  8
SEIHIN
100
AcDbLine
 10
385.1001735060349
 20
199.5213309477255
 30
0.0
 11
388.4936657092348
 21
212.1860162649255
 31
0.0
  0
LINE
  5
19E0
330
1A
100
AcDbEntity
  8
SEIHIN
100
AcDbLine
 10
380.8367829585349
 20
197.1331023800256
 30
0.0
 11
385.1129255646349
 21
213.0918838461255
 31
0.0
  0
LINE
  5
19E1
330
1A
100
AcDbEntity
  8
SEIHIN
100
AcDbLine
 10
392.0654983290349
 20
198.8919214251255
 30
0.0
 11
385.5831364192352
 21
198.8919214251255
 31
0.0
  0
LINE
  5
19E3
330
1A
100
AcDbEntity
  8
SEIHIN
100
AcDbLine
 10
392.4985110963348
 20
198.1419215384256
 30
0.0
 11
390.9107974961348
 21
195.3919209151255
 31
0.0
  0
ARC
  5
19E8
330
1A
100
AcDbEntity
  8
SEIHIN
100
AcDbCircle
 10
402.3637849763349
 20
199.1967847229256
 30
0.0
 40
3.0
100
AcDbArc
 50
320.194428907701
 51
3.532294583900077
  0
LINE
  5
19E9
330
1A
100
AcDbEntity
  8
SEIHIN
100
AcDbLine
 10
403.6268600716348
 20
196.0263250317256
 30
0.0
 11
404.6684488151349
 21
197.2762315239256
 31
0.0
  0
LINE
  5
19EC
330
1A
100
AcDbEntity
  8
SEIHIN
100
AcDbLine
 10
402.1315237327348
 20
208.3919214251255
 30
0.0
 11
403.8226237614349
 21
207.1235964036255
 31
0.0
  0
LINE
  5
19ED
330
1A
100
AcDbEntity
  8
SEIHIN
100
AcDbLine
 10
400.9315237327347
 20
211.2238295993256
 30
0.0
 11
400.9315237327347
 21
211.4345623410256
 31
0.0
  0
LINE
  5
19EE
330
1A
100
AcDbEntity
  8
SEIHIN
100
AcDbLine
 10
400.9315237327347
 20
210.7919214251255
 30
0.0
 11
400.9315237327347
 21
212.8919218721256
 31
0.0
  0
ARC
  5
19EF
330
1A
100
AcDbEntity
  8
SEIHIN
100
AcDbCircle
 10
403.9315237327348
 20
210.7919214251255
 30
0.0
 40
3.0
100
AcDbArc
 50
180.0
 51
233.1301023542021
  0
LINE
  5
19F0
330
1A
100
AcDbEntity
  8
SEIHIN
100
AcDbLine
 10
416.4235376788349
 20
241.7276211940255
 30
0.0
 11
399.3527246248349
 21
241.7276211940255
 31
0.0
  0
LINE
  5
19F1
330
1A
100
AcDbEntity
  8
SEIHIN
100
AcDbLine
 10
399.3527251985349
 20
245.2276211940255
 30
0.0
 11
399.3527246275348
 21
245.2276211940255
 31
0.0
  0
LINE
  5
19F2
330
1A
100
AcDbEntity
  8
SEIHIN
100
AcDbLine
 10
420.5672589079349
 20
242.6203301188255
 30
0.0
 11
422.5351925144348
 21
245.2276211940255
 31
0.0
  0
LINE
  5
19F3
330
1A
100
AcDbEntity
  8
SEIHIN
100
AcDbLine
 10
420.5672589079349
 20
242.6203301188255
 30
0.0
 11
416.4291401492348
 21
244.2253108653255
 31
0.0
  0
LINE
  5
19F4
330
1A
100
AcDbEntity
  8
SEIHIN
100
AcDbLine
 10
267.8315237327349
 20
369.7662743592203
 30
0.0
 11
417.1367506501349
 21
369.7662743592203
 31
0.0
  0
LINE
  5
19F5
330
1A
100
AcDbEntity
  8
SEIHIN
100
AcDbLine
 10
267.8315237327349
 20
397.7662743592203
 30
0.0
 11
417.1367506501328
 21
397.7662743592202
 31
0.0
  0
DIMENSION
  5
19F6
330
1A
100
AcDbEntity
  8
SUNPOU
100
AcDbDimension
  2
*D5
 10
204.4010728337514
 20
369.7662743592203
 30
0.0
 11
204.4010728337513
 21
381.3810703594267
 31
0.0
 70
   160
  3
STANDARD
100
AcDbAlignedDimension
 13
267.8315237327349
 23
397.7662743592202
 33
0.0
 14
267.8315237327349
 24
369.7662743592203
 34
0.0
 50
90.0
100
AcDbRotatedDimension
1001
ACAD
1000
DSTYLE
1002
{
1070
    41
1040
7.0
1070
    42
1040
6.0
1070
    43
1040
14.0
1070
    44
1040
3.0
1070
    73
1070
     0
1070
    74
1070
     0
1070
    77
1070
     3
1070
   140
1040
6.0
1070
   141
1040
150.0
1070
   147
1040
2.0
1070
   172
1070
     1
1070
   173
1070
     1
1070
   176
1070
     4
1070
   177
1070
     4
1070
   178
1070
     4
1070
   271
1070
     0
1070
   272
1070
     0
1070
   341
1005
6D
1070
     6
1000
OPEN
1070
     7
1000
OPEN
1002
}
  0
LINE
  5
19F7
330
1A
100
AcDbEntity
  8
SEIHIN
100
AcDbLine
 10
293.5975987905349
 20
394.8854609131203
 30
0.0
 11
293.5975987905349
 21
372.5092704369203
 31
0.0
  0
LINE
  5
19F8
330
1A
100
AcDbEntity
  8
SEIHIN
100
AcDbLine
 10
275.9315237327348
 20
369.7662743592203
 30
0.0
 11
275.9315237327348
 21
397.7662743592202
 31
0.0
  0
LINE
  5
19F9
330
1A
100
AcDbEntity
  8
SEIHIN
100
AcDbLine
 10
267.8315237327349
 20
369.7662743592203
 30
0.0
 11
267.8315237327349
 21
397.7662743592203
 31
0.0
  0
LINE
  5
19FA
330
1A
100
AcDbEntity
  8
SEIHIN
100
AcDbLine
 10
420.5672589078751
 20
355.3474803988202
 30
0.0
 11
420.5672589078751
 21
364.7662743592202
 31
0.0
  0
LINE
  5
19FB
330
1A
100
AcDbEntity
  8
SEIHIN
100
AcDbLine
 10
422.1367506501349
 20
355.3474803988202
 30
0.0
 11
422.1367506501349
 21
364.7662743592202
 31
0.0
  0
LWPOLYLINE
  5
19FC
330
1A
100
AcDbEntity
  8
SEIHIN
100
AcDbPolyline
 90
       12
 70
   128
 43
0.0
 10
420.5672589078751
 20
355.3474803988202
 10
420.6097018874752
 20
353.6824962272203
 10
420.7079324149751
 20
352.0580704267203
 10
420.8600385448751
 20
350.5058205977202
 10
421.0630597042752
 20
349.0559595175202
 10
421.3130443173752
 20
347.7367070829202
 10
421.605126718075
 20
346.5737410418203
 10
421.9336218544752
 20
345.5896972053202
 10
422.2921359425752
 20
344.8037288675202
 10
422.6736909133751
 20
344.2311340079202
 10
423.0708602334752
 20
343.8830575343203
 10
423.4759134536752
 20
343.7662743592202
  0
LWPOLYLINE
  5
1A0A
330
1A
100
AcDbEntity
  8
SEIHIN
100
AcDbPolyline
 90
       12
 70
   128
 43
0.0
 10
422.1367506501349
 20
355.3474803988202
 10
422.1791936297349
 20
353.6824962272203
 10
422.2774241572349
 20
352.0580704267203
 10
422.4295302871349
 20
350.5058205977202
 10
422.6325514465349
 20
349.0559595175202
 10
422.8825360596349
 20
347.7367070829202
 10
423.1746184603348
 20
346.5737410418203
 10
423.5031135967349
 20
345.5896972053202
 10
423.8616276848349
 20
344.8037288675202
 10
424.2431826556348
 20
344.2311340079202
 10
424.6403519757349
 20
343.8830575343203
 10
425.045405195935
 20
343.7662743592202
  0
LINE
  5
1A18
330
1A
100
AcDbEntity
  8
SEIHIN
100
AcDbLine
 10
423.4759134536752
 20
343.7662743592202
 30
0.0
 11
429.3000336847349
 21
343.7662743592202
 31
0.0
  0
LWPOLYLINE
  5
1A1D
330
1A
100
AcDbEntity
  8
SEIHIN
100
AcDbPolyline
 90
       12
 70
   128
 43
0.0
 10
420.5672589078721
 20
412.1850683196202
 10
420.609701887472
 20
413.8500524912202
 10
420.7079324149719
 20
415.4744782917203
 10
420.8600385448717
 20
417.0267281207203
 10
421.0630597042715
 20
418.4765892009203
 10
421.3130443173713
 20
419.7958416355204
 10
421.6051267180715
 20
420.9588076766203
 10
421.9336218544713
 20
421.9428515131204
 10
422.292135942571
 20
422.7288198509205
 10
422.673690913371
 20
423.3014147105205
 10
423.0708602334711
 20
423.6494911841204
 10
423.4759134536711
 20
423.7662743592206
  0
LWPOLYLINE
  5
1A2B
330
1A
100
AcDbEntity
  8
SEIHIN
100
AcDbPolyline
 90
       12
 70
   128
 43
0.0
 10
422.1367506501319
 20
412.1850683196204
 10
422.1791936297318
 20
413.8500524912203
 10
422.2774241572317
 20
415.4744782917204
 10
422.4295302871314
 20
417.0267281207205
 10
422.6325514465314
 20
418.4765892009204
 10
422.882536059631
 20
419.7958416355205
 10
423.1746184603312
 20
420.9588076766205
 10
423.503113596731
 20
421.9428515131205
 10
423.861627684831
 20
422.7288198509207
 10
424.2431826556307
 20
423.3014147105206
 10
424.6403519757309
 20
423.6494911841206
 10
425.0454051959309
 20
423.7662743592208
  0
LINE
  5
1A39
330
1A
100
AcDbEntity
  8
SEIHIN
100
AcDbLine
 10
420.5672589078721
 20
412.1850683196202
 30
0.0
 11
420.5672589078731
 21
402.7662743592203
 31
0.0
  0
LINE
  5
1A3A
330
1A
100
AcDbEntity
  8
SEIHIN
100
AcDbLine
 10
422.1367506501319
 20
412.1850683196204
 30
0.0
 11
422.1367506501328
 21
402.7662743592204
 31
0.0
  0
LINE
  5
1A3B
330
1A
100
AcDbEntity
  8
SEIHIN
100
AcDbLine
 10
423.4759134536711
 20
423.7662743592206
 30
0.0
 11
429.3000336847308
 21
423.7662743592211
 31
0.0
  0
LINE
  5
1A3C
330
1A
100
AcDbEntity
  8
CENTER_L
 48
5.0
100
AcDbLine
 10
563.2849313261267
 20
292.6392359495693
 30
0.0
 11
568.6240185382766
 21
281.9633668987118
 31
0.0
  0
LINE
  5
1A3D
330
1A
100
AcDbEntity
  8
CENTER_L
 48
5.0
100
AcDbLine
 10
560.3597085227022
 20
284.8572430910318
 30
0.0
 11
571.7981332601311
 21
290.5776904805435
 31
0.0
  0
DIMENSION
  5
1A3E
330
1A
100
AcDbEntity
  8
SUNPOU
100
AcDbDimension
  2
*D6
 10
558.6574674843395
 20
228.105011925028
 30
0.0
 11
551.9492635527391
 21
252.7017596757278
 31
0.0
 70
    33
  3
STANDARD
100
AcDbAlignedDimension
 13
565.8128850141347
 23
287.5844201229255
 33
0.0
 14
588.1735647873347
 24
242.8630605765256
 34
0.0
1001
ACAD
1000
DSTYLE
1002
{
1070
    41
1040
7.0
1070
    42
1040
6.0
1070
    43
1040
14.0
1070
    44
1040
3.0
1070
    73
1070
     0
1070
    74
1070
     0
1070
    77
1070
     3
1070
   140
1040
6.0
1070
   141
1040
150.0
1070
   147
1040
2.0
1070
   172
1070
     1
1070
   173
1070
     1
1070
   176
1070
     4
1070
   177
1070
     4
1070
   178
1070
     4
1070
   271
1070
     0
1070
   272
1070
     0
1070
   341
1005
6D
1070
     6
1000
OPEN
1070
     7
1000
OPEN
1002
}
  0
DIMENSION
  5
1A3F
330
1A
100
AcDbEntity
  8
SUNPOU
100
AcDbDimension
  2
*D7
 10
536.2967877111404
 20
272.8263714714285
 30
0.0
 11
535.68536233534
 21
285.2295621105283
 31
0.0
 70
    33
  3
STANDARD
100
AcDbAlignedDimension
 13
555.6457623525347
 23
307.9186654461255
 33
0.0
 14
565.8128850141347
 24
287.5844201229255
 34
0.0
1001
ACAD
1000
DSTYLE
1002
{
1070
    41
1040
7.0
1070
    42
1040
6.0
1070
    43
1040
14.0
1070
    44
1040
3.0
1070
    73
1070
     0
1070
    74
1070
     0
1070
    77
1070
     3
1070
   140
1040
6.0
1070
   141
1040
150.0
1070
   147
1040
2.0
1070
   172
1070
     1
1070
   173
1070
     1
1070
   176
1070
     4
1070
   177
1070
     4
1070
   178
1070
     4
1070
   271
1070
     0
1070
   272
1070
     0
1070
   341
1005
6D
1070
     6
1000
OPEN
1070
     7
1000
OPEN
1002
}
  0
LINE
  5
1A40
330
1A
100
AcDbEntity
  8
SEIHIN
100
AcDbLine
 10
595.463146395618
 20
305.4282425837142
 30
0.0
 11
615.4692809790347
 21
265.4159734167255
 31
0.0
  0
LINE
  5
1A41
330
1A
100
AcDbEntity
  8
SEIHIN
100
AcDbLine
 10
583.3883793170498
 20
299.3908590445952
 30
0.0
 11
606.7197061571346
 21
252.7282053644254
 31
0.0
  0
ARC
  5
1A42
330
1A
100
AcDbEntity
  8
SEIHIN
100
AcDbCircle
 10
631.1060699571346
 20
288.9260609094255
 30
0.0
 40
13.0
100
AcDbArc
 50
116.5650511887979
 51
206.5650512005987
  0
CIRCLE
  5
1A43
330
1A
100
AcDbEntity
  8
SEIHIN
100
AcDbCircle
 10
565.8128850141347
 20
287.5844201229255
 30
0.0
 40
2.7
  0
LINE
  5
1A44
330
1A
100
AcDbEntity
  8
SEIHIN
100
AcDbLine
 10
588.7911891079347
 20
281.8770355303255
 30
0.0
 11
580.7050977442495
 21
298.0492182576367
 31
0.0
  0
ARC
  5
1A45
330
1A
100
AcDbEntity
  8
SEIHIN
100
AcDbCircle
 10
565.8128850141347
 20
287.5844201229255
 30
0.0
 40
7.7
100
AcDbArc
 50
275.5108196503975
 51
51.73390466146141
  0
LINE
  5
1A46
330
1A
100
AcDbEntity
  8
SEIHIN
100
AcDbLine
 10
560.8935354636346
 20
279.5345754039255
 30
0.0
 11
553.4337174519346
 21
294.4542114273255
 31
0.0
  0
LINE
  5
1A47
330
1A
100
AcDbEntity
  8
SEIHIN
100
AcDbLine
 10
610.9971450240346
 20
263.1799054392254
 30
0.0
 11
590.9910104405441
 21
303.1921746062844
 31
0.0
  0
LINE
  5
1A48
330
1A
100
AcDbEntity
  8
CENTER_L
 48
5.0
100
AcDbLine
 10
583.7427014387347
 20
323.2789625537255
 30
0.0
 11
622.6244202214347
 21
245.5155249883254
 31
0.0
  0
LINE
  5
1A49
330
1A
100
AcDbEntity
  8
SEIHIN
100
AcDbLine
 10
626.4766731855347
 20
262.4077668126255
 30
0.0
 11
603.0657775191066
 21
309.2295581454006
 31
0.0
  0
DIMENSION
  5
1A4A
330
1A
100
AcDbEntity
  8
SUNPOU
100
AcDbDimension
  2
*D8
 10
562.2351762483397
 20
220.9495943970292
 30
0.0
 11
564.9184578213392
 21
226.7633711385291
 31
0.0
 70
    33
  3
STANDARD
100
AcDbAlignedDimension
 13
616.7952348993349
 23
257.1738956325256
 33
0.0
 14
620.3729436633348
 24
250.0184781045254
 34
0.0
1001
ACAD
1000
DSTYLE
1002
{
1070
    41
1040
7.0
1070
    42
1040
6.0
1070
    43
1040
14.0
1070
    44
1040
3.0
1070
    73
1070
     0
1070
    74
1070
     0
1070
    77
1070
     3
1070
   140
1040
6.0
1070
   141
1040
150.0
1070
   147
1040
2.0
1070
   172
1070
     1
1070
   173
1070
     1
1070
   176
1070
     4
1070
   177
1070
     4
1070
   178
1070
     4
1070
   271
1070
     0
1070
   272
1070
     0
1070
   341
1005
6D
1070
     6
1000
OPEN
1070
     7
1000
OPEN
1002
}
  0
ARC
  5
1A4B
330
1A
100
AcDbEntity
  8
SEIHIN
100
AcDbCircle
 10
569.8378073736346
 20
284.0067113589255
 30
0.0
 40
10.0
100
AcDbArc
 50
206.5650512005987
 51
296.5650512122989
  0
DIMENSION
  5
1A4C
330
1A
100
AcDbEntity
  8
SUNPOU
100
AcDbDimension
  2
*D9
 10
493.2306283577422
 20
186.4776920982205
 30
0.0
 11
479.6457247938004
 21
224.7868383566443
 31
0.0
 70
    33
  3
STANDARD
100
AcDbAlignedDimension
 13
430.3646678740683
 23
245.2276211940255
 33
0.0
 14
466.476713176308
 24
173.085529793425
 34
0.0
1001
ACAD
1000
DSTYLE
1002
{
1070
    41
1040
7.0
1070
    42
1040
6.0
1070
    43
1040
14.0
1070
    44
1040
3.0
1070
    73
1070
     0
1070
    74
1070
     0
1070
    77
1070
     3
1070
   140
1040
6.0
1070
   141
1040
150.0
1070
   147
1040
2.0
1070
   172
1070
     1
1070
   173
1070
     1
1070
   176
1070
     4
1070
   177
1070
     4
1070
   178
1070
     4
1070
   271
1070
     0
1070
   272
1070
     0
1070
   341
1005
6D
1070
     6
1000
OPEN
1070
     7
1000
OPEN
1002
}
  0
LINE
  5
1A4E
330
1A
100
AcDbEntity
  8
SEIHIN
100
AcDbLine
 10
446.6917868451348
 20
196.7189193579255
 30
0.0
 11
460.1081947101347
 21
169.8861036279255
 31
0.0
  0
LINE
  5
1A4F
330
1A
100
AcDbEntity
  8
SEIHIN
100
AcDbLine
 10
449.3389864576347
 20
198.1327240653256
 30
0.0
 11
462.0759345303349
 21
172.6588279200256
 31
0.0
  0
LINE
  5
1A50
330
1A
100
AcDbEntity
  8
SEIHIN
100
AcDbLine
 10
430.2636738483347
 20
245.2276211940255
 30
0.0
 11
464.5803306651348
 21
176.5943075604256
 31
0.0
  0
DIMENSION
  5
1A51
330
1A
100
AcDbEntity
  8
SUNPOU
100
AcDbDimension
  2
*D10
 10
473.1720012092251
 20
159.6150753479131
 30
0.0
 11
495.0644640518444
 21
170.6137148403483
 31
0.0
 70
   161
  1
t7.0
  3
STANDARD
100
AcDbAlignedDimension
 13
460.1640964095722
 23
169.9140544776441
 33
0.0
 14
466.4190972417668
 24
173.0565286557553
 34
0.0
1001
ACAD
1000
DSTYLE
1002
{
1070
    41
1040
7.0
1070
    42
1040
6.0
1070
    43
1040
14.0
1070
    44
1040
3.0
1070
    73
1070
     0
1070
    74
1070
     0
1070
    77
1070
     3
1070
   140
1040
6.0
1070
   141
1040
150.0
1070
   147
1040
2.0
1070
   172
1070
     1
1070
   173
1070
     1
1070
   176
1070
     4
1070
   177
1070
     4
1070
   178
1070
     4
1070
   271
1070
     0
1070
   272
1070
     0
1070
   341
1005
6D
1070
     6
1000
OPEN
1070
     7
1000
OPEN
1002
}
  0
LINE
  5
1A52
330
1A
100
AcDbEntity
  8
SUNPOU
100
AcDbLine
 10
479.1542975314349
 20
147.4463738278255
 30
0.0
 11
479.1542975314349
 21
137.4463738278256
 31
0.0
  0
LINE
  5
1A53
330
1A
100
AcDbEntity
  8
SUNPOU
100
AcDbLine
 10
464.5803306651348
 20
176.5943075604256
 30
0.0
 11
484.1542975314348
 21
137.4463738278256
 31
0.0
  0
LINE
  5
1A55
330
1A
100
AcDbEntity
  8
SUNPOU
100
AcDbLine
 10
479.1542975314349
 20
137.4463738278256
 30
0.0
 11
484.1542975314348
 21
137.4463738278256
 31
0.0
  0
LINE
  5
1A56
330
1A
100
AcDbEntity
  8
CENTER_L
 48
5.0
100
AcDbLine
 10
467.2636122381343
 20
182.4080843019254
 30
0.0
 11
449.3750684181361
 21
173.4638123919262
 31
0.0
  0
LINE
  5
1A57
330
1A
100
AcDbEntity
  8
SEIHIN
100
AcDbLine
 10
464.5803306651348
 20
176.5943075604256
 30
0.0
 11
461.4498354966349
 21
171.6749580099256
 31
0.0
  0
LINE
  5
1A58
330
1A
100
AcDbEntity
  8
SEIHIN
100
AcDbLine
 10
461.8970490921348
 20
170.7805308189256
 30
0.0
 11
460.1081947101347
 21
169.8861036279255
 31
0.0
  0
LINE
  5
1A59
330
1A
100
AcDbEntity
  8
SEIHIN
100
AcDbLine
 10
461.4498354966349
 20
171.6749580099256
 30
0.0
 11
461.8970490921348
 21
170.7805308189256
 31
0.0
  0
DIMENSION
  5
1A5B
330
1A
100
AcDbEntity
  8
SUNPOU
100
AcDbDimension
  2
*D11
 10
644.7379806368737
 20
231.9125174200779
 30
0.0
 11
629.9618056314638
 21
230.2739111762225
 31
0.0
 70
    33
  3
STANDARD
100
AcDbAlignedDimension
 13
606.4844373280347
 23
246.4905390901255
 33
0.0
 14
631.6560801950347
 24
258.7571567261255
 34
0.0
1001
ACAD
1000
DSTYLE
1002
{
1070
    41
1040
7.0
1070
    42
1040
6.0
1070
    43
1040
14.0
1070
    44
1040
3.0
1070
    73
1070
     0
1070
    74
1070
     0
1070
    77
1070
     3
1070
   140
1040
6.0
1070
   141
1040
150.0
1070
   147
1040
2.0
1070
   172
1070
     1
1070
   173
1070
     1
1070
   176
1070
     4
1070
   177
1070
     4
1070
   178
1070
     4
1070
   271
1070
     0
1070
   272
1070
     0
1070
   341
1005
6D
1070
     6
1000
OPEN
1070
     7
1000
OPEN
1002
}
  0
ARC
  5
1A5C
330
1A
100
AcDbEntity
  8
SEIHIN
100
AcDbCircle
 10
625.5822459945346
 20
261.9605532171255
 30
0.0
 40
1.0
100
AcDbArc
 50
298.5650511775986
 51
26.56505117709983
  0
LINE
  5
1A5D
330
1A
100
AcDbEntity
  8
SEIHIN
100
AcDbLine
 10
619.4785164741347
 20
283.1122841679255
 30
0.0
 11
630.8874313549345
 21
260.2944544062255
 31
0.0
  0
LINE
  5
1A5E
330
1A
100
AcDbEntity
  8
SEIHIN
100
AcDbLine
 10
630.1941679735346
 20
256.3034400849255
 30
0.0
 11
619.9257300678346
 21
250.9129052955255
 31
0.0
  0
LINE
  5
1A5F
330
1A
100
AcDbEntity
  8
SEIHIN
100
AcDbLine
 10
630.5628268778345
 20
255.5661222762255
 30
0.0
 11
620.3729436633348
 21
250.0184781045255
 31
0.0
  0
LINE
  5
1A60
330
1A
100
AcDbEntity
  8
SEIHIN
100
AcDbLine
 10
618.5840892813346
 20
253.5961868685255
 30
0.0
 11
630.8874313549345
 21
260.2944544062255
 31
0.0
  0
ARC
  5
1A61
330
1A
100
AcDbEntity
  8
SEIHIN
100
AcDbCircle
 10
582.8070016431347
 20
264.7765267524254
 30
0.0
 40
13.0
100
AcDbArc
 50
26.56505117709983
 51
116.5650511887979
  0
ARC
  5
1A62
330
1A
100
AcDbEntity
  8
SEIHIN
100
AcDbCircle
 10
583.2542152386347
 20
266.1181675389255
 30
0.0
 40
15.0
100
AcDbArc
 50
73.1325146253987
 51
116.5650511887979
  0
ARC
  5
1A63
330
1A
100
AcDbEntity
  8
SEIHIN
100
AcDbCircle
 10
569.8378073736346
 20
284.0067113589255
 30
0.0
 40
7.0
100
AcDbArc
 50
237.8883036526026
 51
296.5650512122989
  0
ARC
  5
1A64
330
1A
100
AcDbEntity
  8
SEIHIN
100
AcDbCircle
 10
566.6483783728347
 20
278.9246308155255
 30
0.0
 40
1.0
100
AcDbArc
 50
95.51081962689792
 51
237.8883036526026
  0
LINE
  5
1A65
330
1A
100
AcDbEntity
  8
SEIHIN
100
AcDbLine
 10
576.9932249016346
 20
276.4040802354255
 30
0.0
 11
574.3099433286347
 21
275.0624394489255
 31
0.0
  0
LINE
  5
1A66
330
1A
100
AcDbEntity
  8
SEIHIN
100
AcDbLine
 10
572.9683025421345
 20
277.7457210219254
 30
0.0
 11
576.5460113061346
 21
279.5345754039255
 31
0.0
  0
ARC
  5
1A67
330
1A
100
AcDbEntity
  8
SEIHIN
100
AcDbCircle
 10
587.8967619169348
 20
281.4298219348255
 30
0.0
 40
1.0
100
AcDbArc
 50
253.1325146489015
 51
26.56505117709983
  0
ARC
  5
1A68
330
1A
100
AcDbEntity
  8
SEIHIN
100
AcDbCircle
 10
610.1027178330346
 20
262.7326918437254
 30
0.0
 40
1.0
100
AcDbArc
 50
320.2870207841009
 51
26.56505117709983
  0
ARC
  5
1A69
330
1A
100
AcDbEntity
  8
SEIHIN
100
AcDbCircle
 10
616.7952348993346
 20
257.1738956325255
 30
0.0
 40
7.7
100
AcDbArc
 50
28.58109855220145
 51
92.84308157000102
  0
LINE
  5
1A6A
330
1A
100
AcDbEntity
  8
SEIHIN
100
AcDbLine
 10
605.7339840076346
 20
247.9914457308254
 30
0.0
 11
594.4345551261347
 21
270.5903034939255
 31
0.0
  0
ARC
  5
1A6B
330
1A
100
AcDbEntity
  8
SEIHIN
100
AcDbCircle
 10
608.8185660703348
 20
253.7007480122255
 30
0.0
 40
1.0
100
AcDbArc
 50
293.5650511764006
 51
23.52894916360047
  0
LINE
  5
1A6C
330
1A
100
AcDbEntity
  8
SEIHIN
100
AcDbLine
 10
609.5757807836346
 20
246.1162080971254
 30
0.0
 11
609.9070613640346
 21
245.4536469365255
 31
0.0
  0
LINE
  5
1A6D
330
1A
100
AcDbEntity
  8
SEIHIN
100
AcDbLine
 10
618.5840892813346
 20
253.5961868685255
 30
0.0
 11
605.7339840076346
 21
247.9914457308254
 31
0.0
  0
LINE
  5
1A6E
330
1A
100
AcDbEntity
  8
SEIHIN
100
AcDbLine
 10
609.5757807836346
 20
246.1162080971254
 30
0.0
 11
619.9257300678346
 21
250.9129052955255
 31
0.0
  0
ARC
  5
1A6F
330
1A
100
AcDbEntity
  8
SEIHIN
100
AcDbCircle
 10
616.7952348993346
 20
257.1738956325255
 30
0.0
 40
7.7
100
AcDbArc
 50
140.2870207841008
 51
203.5289491636004
  0
LINE
  5
1A70
330
1A
100
AcDbEntity
  8
SEIHIN
100
AcDbLine
 10
606.4844373280347
 20
246.4905390901255
 30
0.0
 11
609.5757807836346
 21
246.1162080971254
 31
0.0
  0
LINE
  5
1A71
330
1A
100
AcDbEntity
  8
SEIHIN
100
AcDbLine
 10
606.4844373280347
 20
246.4905390901255
 30
0.0
 11
605.7339840076346
 21
247.9914457308254
 31
0.0
  0
LINE
  5
1A72
330
1A
100
AcDbEntity
  8
SEIHIN
100
AcDbLine
 10
608.0139233506347
 20
252.2588121991255
 30
0.0
 11
609.2183560728346
 21
252.7841412514255
 31
0.0
  0
ARC
  5
1A73
330
1A
100
AcDbEntity
  8
SEIHIN
100
AcDbCircle
 10
607.6141333481346
 20
253.1754189599254
 30
0.0
 40
1.0
100
AcDbArc
 50
206.5650511770998
 51
293.5650511764006
  0
LINE
  5
1A74
330
1A
100
AcDbEntity
  8
SEIHIN
100
AcDbLine
 10
618.5840892813346
 20
253.5961868685255
 30
0.0
 11
619.9257300678346
 21
250.9129052955255
 31
0.0
  0
LINE
  5
1A75
330
1A
100
AcDbEntity
  8
SEIHIN
100
AcDbLine
 10
609.9070613640346
 20
245.4536469365255
 30
0.0
 11
620.3729436633348
 21
250.0184781045255
 31
0.0
  0
LINE
  5
1A76
330
1A
100
AcDbEntity
  8
SEIHIN
100
AcDbLine
 10
619.9257300678346
 20
250.9129052955255
 30
0.0
 11
620.3729436633348
 21
250.0184781045255
 31
0.0
  0
LINE
  5
1A77
330
1A
100
AcDbEntity
  8
CENTER_L
 48
5.0
100
AcDbLine
 10
622.4180202025664
 20
259.9889854871136
 30
0.0
 11
611.1777919701153
 21
254.3676577496115
 31
0.0
  0
CIRCLE
  5
1A78
330
1A
100
AcDbEntity
  8
SEIHIN
100
AcDbCircle
 10
616.7952348993346
 20
257.1738956325255
 30
0.0
 40
2.7
  0
ARC
  5
1A79
330
1A
100
AcDbEntity
  8
SEIHIN
100
AcDbCircle
 10
624.4350602465346
 20
261.3359947020255
 30
0.0
 40
1.0
100
AcDbArc
 50
208.5810985522014
 51
298.5650511775986
  0
LINE
  5
1A7A
330
1A
100
AcDbEntity
  8
SEIHIN
100
AcDbLine
 10
624.9132164703346
 20
260.4577199013255
 30
0.0
 11
626.0604022184345
 21
261.0822784164255
 31
0.0
  0
ARC
  5
1A7B
330
1A
100
AcDbEntity
  8
SEIHIN
100
AcDbCircle
 10
616.3637081700346
 20
265.8631870122255
 30
0.0
 40
1.0
100
AcDbArc
 50
206.5650511770998
 51
272.843081570001
  0
LINE
  5
1A7C
330
1A
100
AcDbEntity
  8
SEIHIN
100
AcDbLine
 10
631.6560801950347
 20
258.7571567261255
 30
0.0
 11
630.8874313549345
 21
260.2944544062255
 31
0.0
  0
LINE
  5
1A7D
330
1A
100
AcDbEntity
  8
SEIHIN
100
AcDbLine
 10
630.5628268778345
 20
255.5661222762255
 30
0.0
 11
630.1941679735346
 21
256.3034400849255
 31
0.0
  0
LINE
  5
1A7E
330
1A
100
AcDbEntity
  8
SEIHIN
100
AcDbLine
 10
630.1941679735346
 20
256.3034400849255
 30
0.0
 11
631.6560801950347
 21
258.7571567261255
 31
0.0
  0
DIMENSION
  5
1A7F
330
1A
100
AcDbEntity
  8
SUNPOU
100
AcDbDimension
  2
*D12
 10
599.4726947115358
 20
363.3731512881232
 30
0.0
 11
568.6149566220361
 21
353.5344521871228
 31
0.0
 70
    33
  3
STANDARD
100
AcDbAlignedDimension
 13
565.8128850141347
 23
287.5844201229255
 33
0.0
 14
623.0562252381346
 24
316.2060902349255
 34
0.0
1001
ACAD
1000
DSTYLE
1002
{
1070
    41
1040
7.0
1070
    42
1040
6.0
1070
    43
1040
14.0
1070
    44
1040
3.0
1070
    73
1070
     0
1070
    74
1070
     0
1070
    77
1070
     3
1070
   140
1040
6.0
1070
   141
1040
150.0
1070
   147
1040
2.0
1070
   172
1070
     1
1070
   173
1070
     1
1070
   176
1070
     4
1070
   177
1070
     4
1070
   178
1070
     4
1070
   271
1070
     0
1070
   272
1070
     0
1070
   341
1005
6D
1070
     6
1000
OPEN
1070
     7
1000
OPEN
1002
}
  0
DIMENSION
  5
1A80
330
1A
100
AcDbEntity
  8
SUNPOU
100
AcDbDimension
  2
*D13
 10
600.3787793420341
 20
380.2872128820739
 30
0.0
 11
562.2764131145059
 21
367.1236074550801
 31
0.0
 70
    33
  3
STANDARD
100
AcDbAlignedDimension
 13
553.4337174518818
 23
294.4542114273332
 33
0.0
 14
625.2259178969348
 24
329.7552487372255
 34
0.0
1001
ACAD
1000
DSTYLE
1002
{
1070
    41
1040
7.0
1070
    42
1040
6.0
1070
    43
1040
14.0
1070
    44
1040
3.0
1070
    73
1070
     0
1070
    74
1070
     0
1070
    77
1070
     3
1070
   140
1040
6.0
1070
   141
1040
150.0
1070
   147
1040
2.0
1070
   172
1070
     1
1070
   173
1070
     1
1070
   176
1070
     4
1070
   177
1070
     4
1070
   178
1070
     4
1070
   271
1070
     0
1070
   272
1070
     0
1070
   341
1005
6D
1070
     6
1000
OPEN
1070
     7
1000
OPEN
1002
}
  0
LINE
  5
1A81
330
1A
100
AcDbEntity
  8
SEIHIN
100
AcDbLine
 10
558.7916315647346
 20
292.6826551116255
 30
0.0
 11
576.6801753847421
 21
301.6269270216292
 31
0.0
  0
LINE
  5
1A82
330
1A
100
AcDbEntity
  8
SEIHIN
100
AcDbLine
 10
572.3825609909344
 20
310.0660805153255
 30
0.0
 11
556.4741096187346
 21
301.4050953324254
 31
0.0
  0
LINE
  5
1A83
330
1A
100
AcDbEntity
  8
SEIHIN
100
AcDbLine
 10
557.5964277022347
 20
307.7090942314254
 30
0.0
 11
584.2674324645344
 21
322.2295005021255
 31
0.0
  0
LINE
  5
1A84
330
1A
100
AcDbEntity
  8
SEIHIN
100
AcDbLine
 10
430.2636738483347
 20
351.7662743592204
 30
0.0
 11
430.2636738483347
 21
383.7662743592204
 31
0.0
  0
ARC
  5
1A85
330
1A
100
AcDbEntity
  8
SEIHIN
100
AcDbCircle
 10
363.4530712007495
 20
383.7662743592202
 30
0.0
 40
101.1272594643853
100
AcDbArc
 50
356.0308285751287
 51
0.0000000000012354
  0
LWPOLYLINE
  5
1A86
330
1A
100
AcDbEntity
  8
SEIHIN
100
AcDbPolyline
 90
        8
 70
   128
 43
0.0
 10
437.3457171735444
 20
381.1277187866187
 10
437.423771629341
 20
381.0277889196202
 10
437.5515940460409
 20
380.7386529251203
 10
437.6628695581407
 20
380.3502494706202
 10
437.7531303882411
 20
379.8781731842203
 10
437.8187525106409
 20
379.3413782078203
 10
437.8571011583408
 20
378.7614171768203
 10
437.8666366105408
 20
378.1615758691203
  0
LWPOLYLINE
  5
1A90
330
1A
100
AcDbEntity
  8
SEIHIN
100
AcDbPolyline
 90
        9
 70
   128
 43
0.0
 10
438.274872974041
 20
381.2662743592202
 10
438.4199344537409
 20
381.2060484731203
 10
438.5591716293411
 20
381.0277889196202
 10
438.686994046041
 20
380.7386529251203
 10
438.7982695581408
 20
380.3502494706202
 10
438.888530388241
 20
379.8781731842203
 10
438.954152510641
 20
379.3413782078203
 10
438.9925011583409
 20
378.7614171768203
 10
439.0020366105409
 20
378.1615758691203
  0
LWPOLYLINE
  5
1A9B
330
1A
100
AcDbEntity
  8
SEIHIN
100
AcDbPolyline
 90
        9
 70
   128
 43
0.0
 10
440.3867371532819
 20
381.2662743592202
 10
440.241675673582
 20
381.2060484731203
 10
440.1024384979819
 20
381.0277889196202
 10
439.9746160812819
 20
380.7386529251203
 10
439.8633405691821
 20
380.3502494706202
 10
439.7730797390818
 20
379.8781731842203
 10
439.7074576166819
 20
379.3413782078203
 10
439.669108968982
 20
378.7614171768203
 10
439.659573516782
 20
378.1615758691203
  0
LWPOLYLINE
  5
1AA6
330
1A
100
AcDbEntity
  8
SEIHIN
100
AcDbPolyline
 90
        9
 70
   128
 43
0.0
 10
437.551961373048
 20
381.2662743592202
 10
437.406899893348
 20
381.2060484731203
 10
437.2676627177479
 20
381.0277889196202
 10
437.139840301048
 20
380.7386529251203
 10
437.0285647889481
 20
380.3502494706202
 10
436.938303958848
 20
379.8781731842203
 10
436.8726818364479
 20
379.3413782078203
 10
436.8343331887481
 20
378.7614171768203
 10
436.8247977365481
 20
378.1615758691203
  0
ELLIPSE
  5
1AB1
330
1A
100
AcDbEntity
  8
SEIHIN
100
AcDbEllipse
 10
463.7530146409185
 20
383.6083930674501
 30
0.0
 11
0.5091598755672184
 21
8.030211518536036
 31
0.0
210
0.0
220
0.0
230
1.0
 40
0.3005395739229382
 41
1.885759924007487
 42
3.143846711997412
  0
ELLIPSE
  5
1AB2
330
1A
100
AcDbEntity
  8
SEIHIN
100
AcDbEllipse
 10
462.6235380871644
 20
383.6083930674501
 30
0.0
 11
0.5091598755672184
 21
8.030211518536036
 31
0.0
210
0.0
220
0.0
230
1.0
 40
0.3005395739229382
 41
1.885759924007487
 42
3.143846711997319
  0
LINE
  5
1AB3
330
1A
100
AcDbEntity
  8
SEIHIN
100
AcDbLine
 10
435.5089372276588
 20
351.7662743592204
 30
0.0
 11
435.5089372276588
 21
383.7662743592204
 31
0.0
  0
DIMENSION
  5
1AB4
330
1A
100
AcDbEntity
  8
SUNPOU
100
AcDbDimension
  2
*D14
 10
492.176219746633
 20
343.7662743592202
 30
0.0
 11
492.176219746633
 21
383.7662743592202
 31
0.0
 70
   160
  3
STANDARD
100
AcDbAlignedDimension
 13
440.9058568160348
 23
423.7662743592202
 33
0.0
 14
440.9058568160348
 24
343.7662743592202
 34
0.0
 50
90.0
100
AcDbRotatedDimension
1001
ACAD
1000
DSTYLE
1002
{
1070
    41
1040
7.0
1070
    42
1040
6.0
1070
    43
1040
14.0
1070
    44
1040
3.0
1070
    73
1070
     0
1070
    74
1070
     0
1070
    77
1070
     3
1070
   140
1040
6.0
1070
   141
1040
150.0
1070
   147
1040
2.0
1070
   172
1070
     1
1070
   173
1070
     1
1070
   176
1070
     4
1070
   177
1070
     4
1070
   178
1070
     4
1070
   271
1070
     0
1070
   272
1070
     0
1070
   341
1005
6D
1070
     6
1000
OPEN
1070
     7
1000
OPEN
1002
}
  0
LWPOLYLINE
  5
1AB5
330
1A
100
AcDbEntity
  8
SEIHIN
100
AcDbPolyline
 90
       10
 70
   128
 43
0.0
 10
461.9636893876772
 20
368.7662743592228
 10
462.3347345417774
 20
368.8839905447228
 10
462.6970440918776
 20
369.2343676813228
 10
463.0420880983774
 20
369.8091567568227
 10
463.3617431081774
 20
370.5948253758228
 10
463.6484834078774
 20
371.5728763558228
 10
463.8955582023773
 20
372.7202832106228
 10
464.0971505513776
 20
374.0100322685228
 10
464.2485143183775
 20
375.4117586617227
 10
464.3377707680137
 20
376.766274359223
  0
LINE
  5
1AC1
330
1A
100
AcDbEntity
  8
SEIHIN
100
AcDbLine
 10
462.1198194367839
 20
375.5778570269781
 30
0.0
 11
463.2492959905384
 21
375.5778570269781
 31
0.0
  0
LINE
  5
1AC2
330
1A
100
AcDbEntity
  8
SEIHIN
100
AcDbLine
 10
462.4452634573251
 20
371.7662743592175
 30
0.0
 11
440.4146070164459
 21
371.76627435922
 31
0.0
  0
LINE
  5
1AC3
330
1A
100
AcDbEntity
  8
SEIHIN
100
AcDbLine
 10
437.8850174009471
 20
366.2696198372334
 30
0.0
 11
437.7502826404192
 21
347.6203222721037
 31
0.0
  0
LINE
  5
1AC4
330
1A
100
AcDbEntity
  8
CENTER_L
 48
5.0
100
AcDbLine
 10
440.4307965099347
 20
340.9134155166825
 30
0.0
 11
440.4307965099347
 21
362.686641913255
 31
0.0
  0
LINE
  5
1AC5
330
1A
100
AcDbEntity
  8
SEIHIN
100
AcDbLine
 10
439.0203877706337
 20
366.2614171768203
 30
0.0
 11
438.8660867699427
 21
344.9038605580835
 31
0.0
  0
LWPOLYLINE
  5
1AC6
330
1A
100
AcDbEntity
  8
SEIHIN
100
AcDbPolyline
 90
       13
 70
   128
 43
0.0
 10
440.3859321012641
 20
359.7036723309202
 10
440.7108076379641
 20
359.5898308789204
 10
441.0263641754641
 20
359.2515720452202
 10
441.323550028364
 20
358.6985987268202
 10
441.593840471364
 20
357.9467728689203
 10
441.8294822691641
 20
357.0176604675203
 10
442.0237160770638
 20
355.9379129532201
 10
442.1709703316642
 20
354.7385026988202
 10
442.2670210696642
 20
353.4538345826202
 10
442.309113092064
 20
352.1207590898203
 10
442.2960389965642
 20
350.7775152630202
 10
442.2281738111641
 20
349.4626338219203
 10
442.1074642372641
 20
348.2138319160201
  0
LINE
  5
1AD5
330
1A
100
AcDbEntity
  8
SEIHIN
100
AcDbLine
 10
436.9399643910433
 20
355.3570963590485
 30
0.0
 11
436.8526882222044
 21
365.6618195286028
 31
0.0
  0
LINE
  5
1AD6
330
1A
100
AcDbEntity
  8
SEIHIN
100
AcDbLine
 10
443.015355569988
 20
359.1248852865376
 30
0.0
 11
442.9670962695881
 21
353.4268953523376
 31
0.0
  0
LINE
  5
1AD7
330
1A
100
AcDbEntity
  8
SEIHIN
100
AcDbLine
 10
444.1507148493835
 20
359.1152693263202
 30
0.0
 11
444.1024555489835
 21
353.4172793921202
 31
0.0
  0
LINE
  5
1AD8
330
1A
100
AcDbEntity
  8
CENTER_L
 48
5.0
100
AcDbLine
 10
429.706428468286
 20
351.7662743592202
 30
0.0
 11
448.6376695742501
 21
351.7662743592202
 31
0.0
  0
LWPOLYLINE
  5
1AD9
330
1A
100
AcDbEntity
  8
SEIHIN
100
AcDbPolyline
 90
        7
 70
   128
 43
0.0
 10
430.2405948548421
 20
351.8551615488861
 10
430.394405412163
 20
350.2855179621566
 10
430.6090113896734
 20
348.7529247325145
 10
430.8775624189017
 20
347.3356911086919
 10
431.2002971135857
 20
346.0506787652482
 10
431.5825267848627
 20
344.9056671335092
 10
432.107085611346
 20
343.7556798872219
  0
LWPOLYLINE
  5
1AE2
330
1A
100
AcDbEntity
  8
SEIHIN
100
AcDbPolyline
 90
       11
 70
   128
 43
0.0
 10
441.6785767607835
 20
343.7662743592202
 10
442.0496219148835
 20
343.8839905447203
 10
442.4119314649837
 20
344.2343676813202
 10
442.7569754714836
 20
344.8091567568202
 10
443.0766304812837
 20
345.5948253758202
 10
443.3633707809836
 20
346.5728763558202
 10
443.6104455754835
 20
347.7202832106202
 10
443.8120379244837
 20
349.0100322685203
 10
443.9634016914838
 20
350.4117586617201
 10
444.0609732832836
 20
351.8924612133203
 10
444.1024555489835
 20
353.4172793921202
  0
LWPOLYLINE
  5
1AEF
330
1A
100
AcDbEntity
  8
SEIHIN
100
AcDbPolyline
 90
        7
 70
   128
 43
0.0
 10
435.4858582341662
 20
351.8551615488861
 10
435.6396687914871
 20
350.2855179621566
 10
435.8542747689975
 20
348.7529247325145
 10
436.1228257982259
 20
347.3356911086919
 10
436.4455604929098
 20
346.0506787652482
 10
436.8277901641867
 20
344.9056671335092
 10
437.3523489906701
 20
343.7556798872219
  0
LINE
  5
1AF8
330
1A
100
AcDbEntity
  8
SEIHIN
100
AcDbLine
 10
438.7132596574481
 20
343.7662743592202
 30
0.0
 11
433.7542478603482
 21
343.7662743592202
 31
0.0
  0
LINE
  5
1AF9
330
1A
100
AcDbEntity
  8
SEIHIN
100
AcDbLine
 10
435.5639112648482
 20
343.7662743592202
 30
0.0
 11
441.6785767607835
 21
343.7662743592202
 31
0.0
  0
LINE
  5
1AFA
330
1A
100
AcDbEntity
  8
SEIHIN
100
AcDbLine
 10
432.7954027984961
 20
343.7775939360536
 30
0.0
 11
434.5014566467243
 21
343.7528671152139
 31
0.0
  0
LINE
  5
1AFB
330
1A
100
AcDbEntity
  8
SEIHIN
100
AcDbLine
 10
441.372476789048
 20
343.7662743592202
 30
0.0
 11
438.7132596574481
 21
343.7662743592202
 31
0.0
  0
LWPOLYLINE
  5
1AFC
330
1A
100
AcDbEntity
  8
SEIHIN
100
AcDbPolyline
 90
       11
 70
   128
 43
0.0
 10
436.9396363898531
 20
355.3764140729103
 10
436.9815742609948
 20
353.7312446644471
 10
437.0773307029335
 20
352.1477325037371
 10
437.2250776630635
 20
350.6399681963561
 10
437.421044546757
 20
349.2404847212617
 10
437.6597236203997
 20
347.9808954005971
 10
437.9331410985487
 20
346.8922463023685
 10
438.2289159781107
 20
346.0062196463441
 10
438.5247509092041
 20
345.3576624577359
 10
438.7724825027903
 20
344.9858946971155
 10
438.8660867699427
 20
344.9038605580835
  0
LINE
  5
1B09
330
1A
100
AcDbEntity
  8
SEIHIN
100
AcDbLine
 10
442.1074642372641
 20
348.2138319160201
 30
0.0
 11
441.5153068881831
 21
344.9467509512405
 31
0.0
  0
LWPOLYLINE
  5
1B0A
330
1A
100
AcDbEntity
  8
SEIHIN
100
AcDbPolyline
 90
       11
 70
   128
 43
0.0
 10
441.3352296031294
 20
344.8485155011709
 10
441.4520500796445
 20
344.8855774617752
 10
441.5153068881831
 20
344.9467509512405
 10
441.7383510401369
 20
345.318307446882
 10
442.0032693291687
 20
345.9694406370723
 10
442.2621511273955
 20
346.8524682293735
 10
442.4936683677665
 20
347.9276263374417
 10
442.686094739668
 20
349.1587332376116
 10
442.8320180559181
 20
350.5100775376702
 10
442.9265892360204
 20
351.9452471920977
 10
442.967475469145
 20
353.4481562178892
  0
LWPOLYLINE
  5
1B17
330
1A
100
AcDbEntity
  8
SEIHIN
100
AcDbPolyline
 90
       25
 70
   128
 43
0.0
 10
441.0983557540639
 20
351.7662743592202
 10
441.0740805067639
 20
352.5265288973203
 10
441.0029090828638
 20
353.2349733451201
 10
440.8896916972639
 20
353.8433283841202
 10
440.7421439276641
 20
354.3101356237203
 10
440.5703209107641
 20
354.6035829222203
 10
440.3859321012641
 20
354.7036723309202
 10
440.2015432916641
 20
354.6035829222203
 10
440.029720274764
 20
354.3101356237203
 10
439.882172505264
 20
353.8433283841202
 10
439.7689551195639
 20
353.2349733451201
 10
439.6977836956639
 20
352.5265288973203
 10
439.6735084483639
 20
351.7662743592202
 10
439.6977836956639
 20
351.0060198211202
 10
439.7689551195639
 20
350.2975753733201
 10
439.882172505264
 20
349.6892203343203
 10
440.029720274764
 20
349.2224130946202
 10
440.2015432916641
 20
348.9289657962202
 10
440.3859321012641
 20
348.8288763875203
 10
440.5703209107641
 20
348.9289657962202
 10
440.7421439276641
 20
349.2224130946202
 10
440.8896916972639
 20
349.6892203343203
 10
441.0029090828638
 20
350.2975753733201
 10
441.0740805067639
 20
351.0060198211202
 10
441.0983557540639
 20
351.7662743592202
  0
LWPOLYLINE
  5
1B32
330
1A
100
AcDbEntity
  8
SEIHIN
100
AcDbPolyline
 90
       11
 70
   128
 43
0.0
 10
444.1507148493835
 20
359.1152693263202
 10
444.1921971149836
 20
360.6400875051202
 10
444.2897687068835
 20
362.1207900567201
 10
444.4411324738835
 20
363.5225164499202
 10
444.6427248227837
 20
364.8122655078203
 10
444.8897996173837
 20
365.9596723626203
 10
445.1765399169835
 20
366.9377233426203
 10
445.4961949268835
 20
367.7233919616203
 10
445.8412389332834
 20
368.2981810371202
 10
446.2035484833836
 20
368.6485581737202
 10
446.5745936375835
 20
368.7662743592202
  0
LWPOLYLINE
  5
1B3F
330
1A
100
AcDbEntity
  8
SEIHIN
100
AcDbPolyline
 90
        9
 70
   128
 43
0.0
 10
441.8807546897023
 20
359.1770229777092
 10
441.9234290204549
 20
360.7456594626774
 10
442.0270014357608
 20
362.3174278086977
 10
442.1892461042435
 20
363.8199183880165
 10
442.4091704073457
 20
365.2269517614723
 10
442.6873603102121
 20
366.518856109715
 10
443.0298176127482
 20
367.686953865144
 10
443.4589460641996
 20
368.7416933417153
 10
443.4737019687958
 20
368.7662743592202
  0
LWPOLYLINE
  5
1B4A
330
1A
100
AcDbEntity
  8
SEIHIN
100
AcDbPolyline
 90
        9
 70
   128
 43
0.0
 10
443.0157347695431
 20
359.1461461520147
 10
443.057813067719
 20
360.6928734838988
 10
443.1583850713223
 20
362.2191089327089
 10
443.3151892890633
 20
363.6712174189684
 10
443.5259476150645
 20
365.0196086346462
 10
443.7885799637979
 20
366.2392642361678
 10
444.1031787648658
 20
367.3123386038819
 10
444.4775704955413
 20
368.2325426516678
 10
444.7979678979391
 20
368.7662743592202
  0
LWPOLYLINE
  5
1B55
330
1A
100
AcDbEntity
  8
SEIHIN
100
AcDbPolyline
 90
        6
 70
   128
 43
0.0
 10
437.5930154622529
 20
368.7662743592202
 10
437.6812503485471
 20
368.4582934387333
 10
437.7715111786474
 20
367.9862171523333
 10
437.8371333010472
 20
367.4494221759334
 10
437.8754819487471
 20
366.8694611449333
 10
437.8850174009471
 20
366.2696198372334
  0
LWPOLYLINE
  5
1B5D
330
1A
100
AcDbEntity
  8
SEIHIN
100
AcDbPolyline
 90
        9
 70
   128
 43
0.0
 10
437.579847985341
 20
368.7662743592202
 10
437.4347865056411
 20
368.7060484731203
 10
437.295549330041
 20
368.5277889196202
 10
437.167726913341
 20
368.2386529251203
 10
437.0564514012407
 20
367.8502494706202
 10
436.9661905711409
 20
367.3781731842203
 10
436.9005684487411
 20
366.8413782078203
 10
436.862219801041
 20
366.2614171768203
 10
436.8526843488409
 20
365.6615758691203
  0
LWPOLYLINE
  5
1B68
330
1A
100
AcDbEntity
  8
SEIHIN
100
AcDbPolyline
 90
        9
 70
   128
 43
0.0
 10
438.3027595863336
 20
368.7662743592202
 10
438.4478210660335
 20
368.7060484731203
 10
438.5870582416337
 20
368.5277889196202
 10
438.7148806583336
 20
368.2386529251203
 10
438.8261561704339
 20
367.8502494706202
 10
438.9164170005337
 20
367.3781731842203
 10
438.9820391229336
 20
366.8413782078203
 10
439.0203877706337
 20
366.2614171768203
 10
439.0299232228337
 20
365.6615758691203
  0
LWPOLYLINE
  5
1B73
330
1A
100
AcDbEntity
  8
SEIHIN
100
AcDbPolyline
 90
        9
 70
   128
 43
0.0
 10
440.4146237655748
 20
368.7662743592202
 10
440.2695622858746
 20
368.7060484731203
 10
440.1303251102749
 20
368.5277889196202
 10
440.0025026935748
 20
368.2386529251203
 10
439.8912271814747
 20
367.8502494706202
 10
439.8009663513748
 20
367.3781731842203
 10
439.7353442289747
 20
366.8413782078203
 10
439.6969955812746
 20
366.2614171768203
 10
439.6735084483639
 20
364.7839253679596
  0
LINE
  5
1B7E
330
1A
100
AcDbEntity
  8
SEIHIN
100
AcDbLine
 10
441.8799962905928
 20
359.134501246755
 30
0.0
 11
441.8606024368225
 21
356.844663170926
 31
0.0
  0
LINE
  5
1B7F
330
1A
100
AcDbEntity
  8
SEIHIN
100
AcDbLine
 10
439.6735084483639
 20
359.7036723309202
 30
0.0
 11
439.6735084483639
 21
364.7839253679588
 31
0.0
  0
LINE
  5
1B80
330
1A
100
AcDbEntity
  8
SEIHIN
100
AcDbLine
 10
439.6735084483639
 20
359.7036723309202
 30
0.0
 11
440.3859321012641
 21
359.7036723309202
 31
0.0
  0
LINE
  5
1B81
330
1A
100
AcDbEntity
  8
SEIHIN
100
AcDbLine
 10
439.0299232228335
 20
363.5647715351101
 30
0.0
 11
439.0299232228337
 21
365.6615758691206
 31
0.0
  0
LINE
  5
1B82
330
1A
100
AcDbEntity
  8
SEIHIN
100
AcDbLine
 10
438.3027595863336
 20
368.7662743592202
 30
0.0
 11
437.579847985341
 21
368.7662743592202
 31
0.0
  0
LWPOLYLINE
  5
1B83
330
1A
100
AcDbEntity
  8
SEIHIN
100
AcDbPolyline
 90
        8
 70
   128
 43
0.0
 10
437.3596521051267
 20
371.9226702440167
 10
437.423771629341
 20
372.00475979882
 10
437.5515940460409
 20
372.29389579332
 10
437.6628695581407
 20
372.6822992478201
 10
437.7531303882411
 20
373.15437553422
 10
437.8187525106409
 20
373.69117051062
 10
437.8571011583408
 20
374.27113154162
 10
437.8666366105408
 20
374.87097284932
  0
LINE
  5
1B8D
330
1A
100
AcDbEntity
  8
SEIHIN
100
AcDbLine
 10
438.274872974041
 20
371.7662743592203
 30
0.0
 11
437.551961373048
 21
371.7662743592203
 31
0.0
  0
LWPOLYLINE
  5
1B8E
330
1A
100
AcDbEntity
  8
SEIHIN
100
AcDbPolyline
 90
        9
 70
   128
 43
0.0
 10
437.5798312362121
 20
371.76627435922
 10
437.4347697565122
 20
371.82650024532
 10
437.2955325809121
 20
372.00475979882
 10
437.1677101642121
 20
372.29389579332
 10
437.0564346521123
 20
372.6822992478201
 10
436.9661738220123
 20
373.15437553422
 10
436.9005516996121
 20
373.69117051062
 10
436.8622030519122
 20
374.27113154162
 10
436.8526675997123
 20
374.87097284932
  0
LINE
  5
1B99
330
1A
100
AcDbEntity
  8
SEIHIN
100
AcDbLine
 10
436.8247977365481
 20
378.1615758691203
 30
0.0
 11
436.8526675997123
 21
374.8709728493202
 31
0.0
  0
LINE
  5
1B9A
330
1A
100
AcDbEntity
  8
SEIHIN
100
AcDbLine
 10
444.7979678979391
 20
368.7662743592202
 30
0.0
 11
440.4146237655748
 21
368.7662743592202
 31
0.0
  0
LWPOLYLINE
  5
1B9B
330
1A
100
AcDbEntity
  8
SEIHIN
100
AcDbPolyline
 90
        9
 70
   128
 43
0.0
 10
438.274872974041
 20
371.76627435922
 10
438.4199344537409
 20
371.82650024532
 10
438.5591716293411
 20
372.00475979882
 10
438.686994046041
 20
372.29389579332
 10
438.7982695581408
 20
372.6822992478201
 10
438.888530388241
 20
373.15437553422
 10
438.954152510641
 20
373.69117051062
 10
438.9925011583409
 20
374.27113154162
 10
439.0020366105409
 20
374.87097284932
  0
LINE
  5
1BA6
330
1A
100
AcDbEntity
  8
SEIHIN
100
AcDbLine
 10
437.8666366105408
 20
378.1615758691203
 30
0.0
 11
437.8666366105408
 21
374.87097284932
 31
0.0
  0
LINE
  5
1BA7
330
1A
100
AcDbEntity
  8
SEIHIN
100
AcDbLine
 10
439.0020366105409
 20
378.1615758691203
 30
0.0
 11
439.0020366105409
 21
374.87097284932
 31
0.0
  0
LINE
  5
1BA8
330
1A
100
AcDbEntity
  8
SEIHIN
100
AcDbLine
 10
439.659573516782
 20
378.1615758691203
 30
0.0
 11
439.6874433799462
 21
374.8709728493202
 31
0.0
  0
LWPOLYLINE
  5
1BA9
330
1A
100
AcDbEntity
  8
SEIHIN
100
AcDbPolyline
 90
        9
 70
   128
 43
0.0
 10
440.414607016446
 20
371.76627435922
 10
440.2695455367461
 20
371.82650024532
 10
440.130308361146
 20
372.00475979882
 10
440.0024859444461
 20
372.29389579332
 10
439.8912104323462
 20
372.6822992478201
 10
439.8009496022459
 20
373.15437553422
 10
439.7353274798461
 20
373.69117051062
 10
439.6969788321462
 20
374.27113154162
 10
439.6874433799462
 20
374.87097284932
  0
LINE
  5
1BB4
330
1A
100
AcDbEntity
  8
SEIHIN
100
AcDbLine
 10
461.9636893876772
 20
368.7662743592177
 30
0.0
 11
446.5745936375835
 21
368.7662743592202
 31
0.0
  0
LWPOLYLINE
  5
1BB5
330
1A
100
AcDbEntity
  8
SEIHIN
100
AcDbPolyline
 90
        8
 70
   128
 43
0.0
 10
461.3098634573248
 20
371.7662743592175
 10
461.4549249370248
 20
371.8265002453174
 10
461.5941621126248
 20
372.0047597988175
 10
461.7219845293248
 20
372.2938957933174
 10
461.8332600414248
 20
372.6822992478173
 10
461.9235208715249
 20
373.1543755342174
 10
461.9891429939248
 20
373.6911705106174
 10
462.1138959905383
 20
375.5778570269781
  0
LWPOLYLINE
  5
1BBF
330
1A
100
AcDbEntity
  8
SEIHIN
100
AcDbPolyline
 90
        8
 70
   128
 43
0.0
 10
462.4452634573249
 20
371.7662743592175
 10
462.5903249370248
 20
371.8265002453174
 10
462.729562112625
 20
372.0047597988175
 10
462.8573845293249
 20
372.2938957933174
 10
462.9686600414247
 20
372.6822992478173
 10
463.058920871525
 20
373.1543755342174
 10
463.1245429939249
 20
373.6911705106174
 10
463.2492959905384
 20
375.5778570269781
  0
ARC
  5
1BC9
330
1A
100
AcDbEntity
  8
SEIHIN
100
AcDbCircle
 10
562.3779899409346
 20
298.9263462242254
 30
0.0
 40
7.0
100
AcDbArc
 50
171.6951535501995
 51
206.5650433973009
  0
ARC
  5
1BCA
330
1A
100
AcDbEntity
  8
SEIHIN
100
AcDbCircle
 10
562.3779899409346
 20
298.9263462242254
 30
0.0
 40
10.0
100
AcDbArc
 50
118.5650511891012
 51
206.565043758401
  0
ARC
  5
1BCB
330
1A
100
AcDbEntity
  8
SEIHIN
100
AcDbCircle
 10
558.3444179692346
 20
293.5770823026254
 30
0.0
 40
1.0
100
AcDbArc
 50
206.5650511770998
 51
296.5650511771012
  0
LINE
  5
1BCC
330
1A
100
AcDbEntity
  8
SEIHIN
100
AcDbLine
 10
557.4499907782346
 20
293.1298687071254
 30
0.0
 11
556.1169991789348
 21
295.7958519058255
 31
0.0
  0
ARC
  5
1BCD
330
1A
100
AcDbEntity
  8
SEIHIN
100
AcDbCircle
 10
557.4304220664346
 20
299.6485457310255
 30
0.0
 40
2.0
100
AcDbArc
 50
118.5650511891012
 51
171.6951535501995
  0
LINE
  5
1BCE
330
1A
100
AcDbEntity
  8
CENTER_L
 48
5.0
100
AcDbLine
 10
440.4307965099347
 20
426.619133201758
 30
0.0
 11
440.4307965099347
 21
404.8459068051855
 31
0.0
  0
LINE
  5
1BCF
330
1A
100
AcDbEntity
  8
SEIHIN
100
AcDbLine
 10
462.4452634573251
 20
395.7662743592179
 30
0.0
 11
440.4146070164459
 21
395.7662743592205
 31
0.0
  0
LINE
  5
1BD0
330
1A
100
AcDbEntity
  8
SEIHIN
100
AcDbLine
 10
462.1198194367839
 20
391.9546916914573
 30
0.0
 11
463.2492959905384
 21
391.9546916914573
 31
0.0
  0
LWPOLYLINE
  5
1BD1
330
1A
100
AcDbEntity
  8
SEIHIN
100
AcDbPolyline
 90
       10
 70
   128
 43
0.0
 10
461.9636893876772
 20
398.7662743592177
 10
462.3347345417774
 20
398.6485581737176
 10
462.6970440918776
 20
398.2981810371177
 10
463.0420880983774
 20
397.7233919616178
 10
463.3617431081774
 20
396.9377233426178
 10
463.6484834078774
 20
395.9596723626177
 10
463.8955582023773
 20
394.8122655078177
 10
464.0971505513776
 20
393.5225164499176
 10
464.2485143183775
 20
392.1207900567178
 10
464.3377707680137
 20
390.7662743592175
  0
LINE
  5
1BDE
330
1A
100
AcDbEntity
  8
SEIHIN
100
AcDbLine
 10
430.2636738483354
 20
415.7662743592211
 30
0.0
 11
430.2636738483347
 21
383.766274359221
 31
0.0
  0
LWPOLYLINE
  5
1BDF
330
1A
100
AcDbEntity
  8
SEIHIN
100
AcDbPolyline
 90
        9
 70
   128
 43
0.0
 10
440.4146237655748
 20
398.7662743592203
 10
440.2695622858746
 20
398.8265002453202
 10
440.1303251102749
 20
399.0047597988203
 10
440.0025026935748
 20
399.2938957933202
 10
439.8912271814747
 20
399.6822992478204
 10
439.8009663513748
 20
400.1543755342202
 10
439.7353442289747
 20
400.6911705106202
 10
439.6969955812746
 20
401.2711315416202
 10
439.6735084483639
 20
402.7486233504809
  0
LWPOLYLINE
  5
1BEA
330
1A
100
AcDbEntity
  8
SEIHIN
100
AcDbPolyline
 90
        9
 70
   128
 43
0.0
 10
438.3027595863336
 20
398.7662743592203
 10
438.4478210660335
 20
398.8265002453202
 10
438.5870582416337
 20
399.0047597988203
 10
438.7148806583336
 20
399.2938957933202
 10
438.8261561704339
 20
399.6822992478204
 10
438.9164170005337
 20
400.1543755342202
 10
438.9820391229336
 20
400.6911705106202
 10
439.0203877706337
 20
401.2711315416202
 10
439.0299232228337
 20
401.8709728493202
  0
LWPOLYLINE
  5
1BF5
330
1A
100
AcDbEntity
  8
SEIHIN
100
AcDbPolyline
 90
        9
 70
   128
 43
0.0
 10
437.579847985341
 20
398.7662743592203
 10
437.4347865056411
 20
398.8265002453202
 10
437.295549330041
 20
399.0047597988203
 10
437.167726913341
 20
399.2938957933202
 10
437.0564514012407
 20
399.6822992478204
 10
436.9661905711409
 20
400.1543755342202
 10
436.9005684487411
 20
400.6911705106202
 10
436.862219801041
 20
401.2711315416202
 10
436.8526843488409
 20
401.8709728493202
  0
LWPOLYLINE
  5
1C00
330
1A
100
AcDbEntity
  8
SEIHIN
100
AcDbPolyline
 90
       11
 70
   128
 43
0.0
 10
444.1507148493835
 20
408.4172793921203
 10
444.1921971149836
 20
406.8924612133203
 10
444.2897687068835
 20
405.4117586617204
 10
444.4411324738835
 20
404.0100322685203
 10
444.6427248227837
 20
402.7202832106202
 10
444.8897996173837
 20
401.5728763558202
 10
445.1765399169835
 20
400.5948253758202
 10
445.4961949268835
 20
399.8091567568201
 10
445.8412389332834
 20
399.2343676813203
 10
446.2035484833836
 20
398.8839905447203
 10
446.5745936375835
 20
398.7662743592203
  0
LWPOLYLINE
  5
1C0D
330
1A
100
AcDbEntity
  8
SEIHIN
100
AcDbPolyline
 90
        9
 70
   128
 43
0.0
 10
443.0157347695431
 20
408.3864025664258
 10
443.057813067719
 20
406.8396752345417
 10
443.1583850713223
 20
405.3134397857316
 10
443.3151892890633
 20
403.8613312994721
 10
443.5259476150645
 20
402.5129400837943
 10
443.7885799637979
 20
401.2932844822727
 10
444.1031787648658
 20
400.2202101145585
 10
444.4775704955413
 20
399.3000060667727
 10
444.7979678979391
 20
398.7662743592203
  0
LWPOLYLINE
  5
1C18
330
1A
100
AcDbEntity
  8
SEIHIN
100
AcDbPolyline
 90
        9
 70
   128
 43
0.0
 10
441.8807546897023
 20
408.3555257407313
 10
441.9234290204549
 20
406.7868892557631
 10
442.0270014357608
 20
405.2151209097429
 10
442.1892461042435
 20
403.712630330424
 10
442.4091704073457
 20
402.3055969569682
 10
442.6873603102121
 20
401.0136926087255
 10
443.0298176127482
 20
399.8455948532965
 10
443.4589460641996
 20
398.7908553767252
 10
443.4737019687958
 20
398.7662743592203
  0
LINE
  5
1C23
330
1A
100
AcDbEntity
  8
SEIHIN
100
AcDbLine
 10
439.0203877706337
 20
401.2711315416202
 30
0.0
 11
438.8660867699427
 21
422.628688160357
 31
0.0
  0
LINE
  5
1C24
330
1A
100
AcDbEntity
  8
SEIHIN
100
AcDbLine
 10
437.8850174009471
 20
401.2629288812071
 30
0.0
 11
437.7502826404192
 21
419.9122264463368
 31
0.0
  0
LINE
  5
1C25
330
1A
100
AcDbEntity
  8
SEIHIN
100
AcDbLine
 10
435.5089372276595
 20
415.7662743592211
 30
0.0
 11
435.5089372276588
 21
383.766274359221
 31
0.0
  0
LINE
  5
1C27
330
1A
100
AcDbEntity
  8
SEIHIN
100
AcDbLine
 10
461.3006104218957
 20
381.2662743592174
 30
0.0
 11
440.3867371532819
 21
381.26627435922
 31
0.0
  0
LINE
  5
1C28
330
1A
100
AcDbEntity
  8
SEIHIN
100
AcDbLine
 10
436.8247977365481
 20
389.3709728493202
 30
0.0
 11
436.8526675997123
 21
392.6615758691203
 31
0.0
  0
LINE
  5
1C29
330
1A
100
AcDbEntity
  8
SEIHIN
100
AcDbLine
 10
439.659573516782
 20
389.3709728493202
 30
0.0
 11
439.6874433799462
 21
392.6615758691203
 31
0.0
  0
LINE
  5
1C2A
330
1A
100
AcDbEntity
  8
SEIHIN
100
AcDbLine
 10
439.0020366105409
 20
389.3709728493202
 30
0.0
 11
439.0020366105409
 21
392.6615758691205
 31
0.0
  0
LINE
  5
1C2B
330
1A
100
AcDbEntity
  8
SEIHIN
100
AcDbLine
 10
437.8666366105408
 20
389.3709728493202
 30
0.0
 11
437.8666366105408
 21
392.6615758691205
 31
0.0
  0
LINE
  5
1C2C
330
1A
100
AcDbEntity
  8
SEIHIN
100
AcDbLine
 10
438.274872974041
 20
386.2662743592203
 30
0.0
 11
437.551961373048
 21
386.2662743592203
 31
0.0
  0
LWPOLYLINE
  5
1C2D
330
1A
100
AcDbEntity
  8
SEIHIN
100
AcDbPolyline
 90
        8
 70
   128
 43
0.0
 10
437.3457171735444
 20
386.4048299318217
 10
437.423771629341
 20
386.5047597988203
 10
437.5515940460409
 20
386.7938957933202
 10
437.6628695581407
 20
387.1822992478204
 10
437.7531303882411
 20
387.6543755342202
 10
437.8187525106409
 20
388.1911705106202
 10
437.8571011583408
 20
388.7711315416202
 10
437.8666366105408
 20
389.3709728493202
  0
LINE
  5
1C37
330
1A
100
AcDbEntity
  8
SEIHIN
100
AcDbLine
 10
438.274872974041
 20
381.2662743592202
 30
0.0
 11
437.551961373048
 21
381.2662743592202
 31
0.0
  0
LWPOLYLINE
  5
1C38
330
1A
100
AcDbEntity
  8
SEIHIN
100
AcDbPolyline
 90
        9
 70
   128
 43
0.0
 10
437.551961373048
 20
386.2662743592203
 10
437.406899893348
 20
386.3265002453202
 10
437.2676627177479
 20
386.5047597988203
 10
437.139840301048
 20
386.7938957933202
 10
437.0285647889481
 20
387.1822992478204
 10
436.938303958848
 20
387.6543755342202
 10
436.8726818364479
 20
388.1911705106202
 10
436.8343331887481
 20
388.7711315416202
 10
436.8247977365481
 20
389.3709728493202
  0
LWPOLYLINE
  5
1C43
330
1A
100
AcDbEntity
  8
SEIHIN
100
AcDbPolyline
 90
        9
 70
   128
 43
0.0
 10
440.3867371532819
 20
386.2662743592203
 10
440.241675673582
 20
386.3265002453202
 10
440.1024384979819
 20
386.5047597988203
 10
439.9746160812819
 20
386.7938957933202
 10
439.8633405691821
 20
387.1822992478204
 10
439.7730797390818
 20
387.6543755342202
 10
439.7074576166819
 20
388.1911705106202
 10
439.669108968982
 20
388.7711315416202
 10
439.659573516782
 20
389.3709728493202
  0
LWPOLYLINE
  5
1C4E
330
1A
100
AcDbEntity
  8
SEIHIN
100
AcDbPolyline
 90
        9
 70
   128
 43
0.0
 10
438.274872974041
 20
386.2662743592203
 10
438.4199344537409
 20
386.3265002453202
 10
438.5591716293411
 20
386.5047597988203
 10
438.686994046041
 20
386.7938957933202
 10
438.7982695581408
 20
387.1822992478204
 10
438.888530388241
 20
387.6543755342202
 10
438.954152510641
 20
388.1911705106202
 10
438.9925011583409
 20
388.7711315416202
 10
439.0020366105409
 20
389.3709728493202
  0
LINE
  5
1C59
330
1A
100
AcDbEntity
  8
SEIHIN
100
AcDbLine
 10
438.274872974041
 20
395.7662743592202
 30
0.0
 11
437.551961373048
 21
395.7662743592202
 31
0.0
  0
LWPOLYLINE
  5
1C5A
330
1A
100
AcDbEntity
  8
SEIHIN
100
AcDbPolyline
 90
        8
 70
   128
 43
0.0
 10
437.3596521051267
 20
395.6098784744238
 10
437.423771629341
 20
395.5277889196204
 10
437.5515940460409
 20
395.2386529251205
 10
437.6628695581407
 20
394.8502494706204
 10
437.7531303882411
 20
394.3781731842205
 10
437.8187525106409
 20
393.8413782078205
 10
437.8571011583408
 20
393.2614171768205
 10
437.8666366105408
 20
392.6615758691205
  0
LINE
  5
1C64
330
1A
100
AcDbEntity
  8
SEIHIN
100
AcDbLine
 10
438.3027595863336
 20
398.7662743592203
 30
0.0
 11
437.579847985341
 21
398.7662743592203
 31
0.0
  0
LWPOLYLINE
  5
1C65
330
1A
100
AcDbEntity
  8
SEIHIN
100
AcDbPolyline
 90
        9
 70
   128
 43
0.0
 10
437.5798312362121
 20
395.7662743592205
 10
437.4347697565122
 20
395.7060484731205
 10
437.2955325809121
 20
395.5277889196204
 10
437.1677101642121
 20
395.2386529251205
 10
437.0564346521123
 20
394.8502494706204
 10
436.9661738220123
 20
394.3781731842205
 10
436.9005516996121
 20
393.8413782078205
 10
436.8622030519122
 20
393.2614171768205
 10
436.8526675997123
 20
392.6615758691205
  0
LWPOLYLINE
  5
1C70
330
1A
100
AcDbEntity
  8
SEIHIN
100
AcDbPolyline
 90
        9
 70
   128
 43
0.0
 10
440.414607016446
 20
395.7662743592205
 10
440.2695455367461
 20
395.7060484731205
 10
440.130308361146
 20
395.5277889196204
 10
440.0024859444461
 20
395.2386529251205
 10
439.8912104323462
 20
394.8502494706204
 10
439.8009496022459
 20
394.3781731842205
 10
439.7353274798461
 20
393.8413782078205
 10
439.6969788321462
 20
393.2614171768205
 10
439.6874433799462
 20
392.6615758691205
  0
LWPOLYLINE
  5
1C7B
330
1A
100
AcDbEntity
  8
SEIHIN
100
AcDbPolyline
 90
        9
 70
   128
 43
0.0
 10
438.274872974041
 20
395.7662743592205
 10
438.4199344537409
 20
395.7060484731205
 10
438.5591716293411
 20
395.5277889196204
 10
438.686994046041
 20
395.2386529251205
 10
438.7982695581408
 20
394.8502494706204
 10
438.888530388241
 20
394.3781731842205
 10
438.954152510641
 20
393.8413782078205
 10
438.9925011583409
 20
393.2614171768205
 10
439.0020366105409
 20
392.6615758691205
  0
LINE
  5
1C86
330
1A
100
AcDbEntity
  8
SEIHIN
100
AcDbLine
 10
444.7979678979391
 20
398.7662743592203
 30
0.0
 11
440.4146237655748
 21
398.7662743592203
 31
0.0
  0
LWPOLYLINE
  5
1C87
330
1A
100
AcDbEntity
  8
SEIHIN
100
AcDbPolyline
 90
        6
 70
   128
 43
0.0
 10
437.5930154622529
 20
398.7662743592203
 10
437.6812503485471
 20
399.0742552797072
 10
437.7715111786474
 20
399.5463315661071
 10
437.8371333010472
 20
400.0831265425071
 10
437.8754819487471
 20
400.6630875735072
 10
437.8850174009471
 20
401.2629288812071
  0
LINE
  5
1C90
330
1A
100
AcDbEntity
  8
SEIHIN
100
AcDbLine
 10
461.9636893876772
 20
398.7662743592177
 30
0.0
 11
446.5745936375835
 21
398.7662743592203
 31
0.0
  0
LWPOLYLINE
  5
1C91
330
1A
100
AcDbEntity
  8
SEIHIN
100
AcDbPolyline
 90
        8
 70
   128
 43
0.0
 10
461.3098634573248
 20
395.7662743592179
 10
461.4549249370248
 20
395.706048473118
 10
461.5941621126248
 20
395.5277889196179
 10
461.7219845293248
 20
395.238652925118
 10
461.8332600414248
 20
394.8502494706181
 10
461.9235208715249
 20
394.3781731842179
 10
461.9891429939248
 20
393.841378207818
 10
462.1138959905383
 20
391.9546916914573
  0
LINE
  5
1C9B
330
1A
100
AcDbEntity
  8
CENTER_L
 48
5.0
100
AcDbLine
 10
429.706428468286
 20
415.7662743592203
 30
0.0
 11
448.6376695742501
 21
415.7662743592203
 31
0.0
  0
LWPOLYLINE
  5
1C9C
330
1A
100
AcDbEntity
  8
SEIHIN
100
AcDbPolyline
 90
       25
 70
   128
 43
0.0
 10
441.0983557540639
 20
415.7662743592203
 10
441.0740805067639
 20
415.0060198211201
 10
441.0029090828638
 20
414.2975753733203
 10
440.8896916972639
 20
413.6892203343203
 10
440.7421439276641
 20
413.2224130947202
 10
440.5703209107641
 20
412.9289657962202
 10
440.3859321012641
 20
412.8288763875203
 10
440.2015432916641
 20
412.9289657962202
 10
440.029720274764
 20
413.2224130947202
 10
439.882172505264
 20
413.6892203343203
 10
439.7689551195639
 20
414.2975753733203
 10
439.6977836956639
 20
415.0060198211201
 10
439.6735084483639
 20
415.7662743592203
 10
439.6977836956639
 20
416.5265288973203
 10
439.7689551195639
 20
417.2349733451204
 10
439.882172505264
 20
417.8433283841203
 10
440.029720274764
 20
418.3101356238204
 10
440.2015432916641
 20
418.6035829222204
 10
440.3859321012641
 20
418.7036723309202
 10
440.5703209107641
 20
418.6035829222204
 10
440.7421439276641
 20
418.3101356238204
 10
440.8896916972639
 20
417.8433283841203
 10
441.0029090828638
 20
417.2349733451204
 10
441.0740805067639
 20
416.5265288973203
 10
441.0983557540639
 20
415.7662743592203
  0
LWPOLYLINE
  5
1CB7
330
1A
100
AcDbEntity
  8
SEIHIN
100
AcDbPolyline
 90
       11
 70
   128
 43
0.0
 10
436.9396363898531
 20
412.1561346455302
 10
436.9815742609948
 20
413.8013040539934
 10
437.0773307029335
 20
415.3848162147034
 10
437.2250776630635
 20
416.8925805220844
 10
437.421044546757
 20
418.2920639971788
 10
437.6597236203997
 20
419.5516533178434
 10
437.9331410985487
 20
420.640302416072
 10
438.2289159781107
 20
421.5263290720963
 10
438.5247509092041
 20
422.1748862607046
 10
438.7724825027903
 20
422.546654021325
 10
438.8660867699427
 20
422.628688160357
  0
LINE
  5
1CC4
330
1A
100
AcDbEntity
  8
SEIHIN
100
AcDbLine
 10
444.1507148493835
 20
408.4172793921203
 30
0.0
 11
444.1024555489835
 21
414.1152693263203
 31
0.0
  0
LINE
  5
1CC5
330
1A
100
AcDbEntity
  8
SEIHIN
100
AcDbLine
 10
443.015355569988
 20
408.4076634319028
 30
0.0
 11
442.9670962695881
 21
414.1056533661028
 31
0.0
  0
LWPOLYLINE
  5
1CC6
330
1A
100
AcDbEntity
  8
SEIHIN
100
AcDbPolyline
 90
       13
 70
   128
 43
0.0
 10
440.3859321012641
 20
407.8288763875203
 10
440.7108076379641
 20
407.9427178395201
 10
441.0263641754641
 20
408.2809766732203
 10
441.323550028364
 20
408.8339499916203
 10
441.593840471364
 20
409.5857758495202
 10
441.8294822691641
 20
410.5148882509202
 10
442.0237160770638
 20
411.5946357652203
 10
442.1709703316642
 20
412.7940460196203
 10
442.2670210696642
 20
414.0787141358203
 10
442.309113092064
 20
415.4117896286202
 10
442.2960389965642
 20
416.7550334554203
 10
442.2281738111641
 20
418.0699148965202
 10
442.1074642372641
 20
419.3187168024204
  0
LINE
  5
1CD5
330
1A
100
AcDbEntity
  8
SEIHIN
100
AcDbLine
 10
436.9399643910433
 20
412.175452359392
 30
0.0
 11
436.8526882222044
 21
401.8707291898377
 31
0.0
  0
LINE
  5
1CD6
330
1A
100
AcDbEntity
  8
SEIHIN
100
AcDbLine
 10
439.0299232228335
 20
403.9677771833304
 30
0.0
 11
439.0299232228337
 21
401.8709728493199
 31
0.0
  0
LINE
  5
1CD7
330
1A
100
AcDbEntity
  8
SEIHIN
100
AcDbLine
 10
439.6735084483639
 20
407.8288763875203
 30
0.0
 11
440.3859321012641
 21
407.8288763875203
 31
0.0
  0
LINE
  5
1CD8
330
1A
100
AcDbEntity
  8
SEIHIN
100
AcDbLine
 10
439.6735084483639
 20
407.8288763875203
 30
0.0
 11
439.6735084483639
 21
402.7486233504817
 31
0.0
  0
LINE
  5
1CD9
330
1A
100
AcDbEntity
  8
SEIHIN
100
AcDbLine
 10
441.8799962905928
 20
408.3980474716855
 30
0.0
 11
441.8606024368225
 21
410.6878855475145
 31
0.0
  0
LINE
  5
1CDA
330
1A
100
AcDbEntity
  8
SEIHIN
100
AcDbLine
 10
435.5639112648482
 20
423.7662743592203
 30
0.0
 11
441.6785767607835
 21
423.7662743592203
 31
0.0
  0
LINE
  5
1CDB
330
1A
100
AcDbEntity
  8
SEIHIN
100
AcDbLine
 10
438.7132596574481
 20
423.7662743592203
 30
0.0
 11
433.7542478603482
 21
423.7662743592203
 31
0.0
  0
LWPOLYLINE
  5
1CDC
330
1A
100
AcDbEntity
  8
SEIHIN
100
AcDbPolyline
 90
        7
 70
   128
 43
0.0
 10
430.2405948548421
 20
415.6773871695544
 10
430.394405412163
 20
417.2470307562838
 10
430.6090113896734
 20
418.779623985926
 10
430.8775624189017
 20
420.1968576097486
 10
431.2002971135857
 20
421.4818699531923
 10
431.5825267848627
 20
422.6268815849313
 10
432.107085611346
 20
423.7768688312185
  0
LINE
  5
1CE5
330
1A
100
AcDbEntity
  8
SEIHIN
100
AcDbLine
 10
432.7954027984961
 20
423.7549547823869
 30
0.0
 11
434.5014566467243
 21
423.7796816032266
 31
0.0
  0
LWPOLYLINE
  5
1CE6
330
1A
100
AcDbEntity
  8
SEIHIN
100
AcDbPolyline
 90
        7
 70
   128
 43
0.0
 10
435.4858582341662
 20
415.6773871695544
 10
435.6396687914871
 20
417.2470307562838
 10
435.8542747689975
 20
418.779623985926
 10
436.1228257982259
 20
420.1968576097486
 10
436.4455604929098
 20
421.4818699531923
 10
436.8277901641867
 20
422.6268815849313
 10
437.3523489906701
 20
423.7768688312185
  0
LINE
  5
1CEF
330
1A
100
AcDbEntity
  8
SEIHIN
100
AcDbLine
 10
432.7954027984961
 20
423.7549547823873
 30
0.0
 11
434.5014566467243
 21
423.7796816032271
 31
0.0
  0
LWPOLYLINE
  5
1CF0
330
1A
100
AcDbEntity
  8
SEIHIN
100
AcDbPolyline
 90
        7
 70
   128
 43
0.0
 10
435.4858582341662
 20
415.6773871695548
 10
435.6396687914871
 20
417.2470307562842
 10
435.8542747689975
 20
418.7796239859264
 10
436.1228257982259
 20
420.196857609749
 10
436.4455604929098
 20
421.4818699531926
 10
436.8277901641867
 20
422.6268815849317
 10
437.3523489906701
 20
423.7768688312189
  0
LINE
  5
1CF9
330
1A
100
AcDbEntity
  8
SEIHIN
100
AcDbLine
 10
442.1074642372641
 20
419.3187168024204
 30
0.0
 11
441.5153068881831
 21
422.5857977672
 31
0.0
  0
LWPOLYLINE
  5
1CFA
330
1A
100
AcDbEntity
  8
SEIHIN
100
AcDbPolyline
 90
       11
 70
   128
 43
0.0
 10
441.3352296031294
 20
422.6840332172697
 10
441.4520500796445
 20
422.6469712566653
 10
441.5153068881831
 20
422.5857977672
 10
441.7383510401369
 20
422.2142412715585
 10
442.0032693291687
 20
421.5631080813682
 10
442.2621511273955
 20
420.680080489067
 10
442.4936683677665
 20
419.6049223809988
 10
442.686094739668
 20
418.3738154808288
 10
442.8320180559181
 20
417.0224711807703
 10
442.9265892360204
 20
415.5873015263428
 10
442.967475469145
 20
414.0843925005513
  0
LINE
  5
1D07
330
1A
100
AcDbEntity
  8
SEIHIN
100
AcDbLine
 10
441.372476789048
 20
423.7662743592203
 30
0.0
 11
438.7132596574481
 21
423.7662743592203
 31
0.0
  0
LWPOLYLINE
  5
1D08
330
1A
100
AcDbEntity
  8
SEIHIN
100
AcDbPolyline
 90
       11
 70
   128
 43
0.0
 10
441.6785767607835
 20
423.7662743592203
 10
442.0496219148835
 20
423.6485581737202
 10
442.4119314649837
 20
423.2981810371202
 10
442.7569754714836
 20
422.7233919616203
 10
443.0766304812837
 20
421.9377233426203
 10
443.3633707809836
 20
420.9596723626203
 10
443.6104455754835
 20
419.8122655078202
 10
443.8120379244837
 20
418.5225164499202
 10
443.9634016914838
 20
417.1207900567203
 10
444.0609732832836
 20
415.6400875051202
 10
444.1024555489835
 20
414.1152693263203
  0
ARC
  5
1D15
330
1A
100
AcDbEntity
  8
SEIHIN
100
AcDbCircle
 10
363.4530712007495
 20
383.7662743592203
 30
0.0
 40
101.1272594643853
100
AcDbArc
 50
359.9999999999987
 51
3.969171424871256
  0
LWPOLYLINE
  5
1D16
330
1A
100
AcDbEntity
  8
SEIHIN
100
AcDbPolyline
 90
       25
 70
   128
 43
0.0
 10
464.3225875460139
 20
383.7662743592177
 10
464.2983122987137
 20
384.5265288973178
 10
464.2271408747137
 20
385.2349733451176
 10
464.1139234891138
 20
385.8433283841177
 10
463.9663757195135
 20
386.3101356237177
 10
463.7945527027136
 20
386.6035829222178
 10
463.6101638931136
 20
386.7036723309177
 10
463.4257750836136
 20
386.6035829222178
 10
463.2539520667137
 20
386.3101356237177
 10
463.1064042971138
 20
385.8433283841177
 10
462.9931869115134
 20
385.2349733451176
 10
462.9220154876138
 20
384.5265288973178
 10
462.8977402403138
 20
383.7662743592177
 10
462.9220154876138
 20
383.0060198211176
 10
462.9931869115134
 20
382.2975753733176
 10
463.1064042971138
 20
381.6892203343177
 10
463.2539520667137
 20
381.2224130947177
 10
463.4257750836136
 20
380.9289657962176
 10
463.6101638931136
 20
380.8288763875177
 10
463.7945527027136
 20
380.9289657962176
 10
463.9663757195135
 20
381.2224130947177
 10
464.1139234891138
 20
381.6892203343177
 10
464.2271408747137
 20
382.2975753733176
 10
464.2983122987137
 20
383.0060198211176
 10
464.3225875460139
 20
383.7662743592177
  0
LWPOLYLINE
  5
1D31
330
1A
100
AcDbEntity
  8
SEIHIN
100
AcDbPolyline
 90
       14
 70
   128
 43
0.0
 10
462.8977402403133
 20
383.766274359218
 10
462.8977402403133
 20
383.766274359218
 10
462.9220154876134
 20
384.526528897318
 10
462.9931869115134
 20
385.234973345118
 10
463.1064042971133
 20
385.8433283841181
 10
463.2539520667137
 20
386.310135623718
 10
463.4257750836136
 20
386.603582922218
 10
463.6101638931136
 20
386.703672330918
 10
463.7945527027136
 20
386.603582922218
 10
463.9663757195135
 20
386.310135623718
 10
464.1139234891134
 20
385.8433283841181
 10
464.2271408747133
 20
385.234973345118
 10
464.2983122987134
 20
384.526528897318
 10
464.3225875460134
 20
383.766274359218
  0
LINE
  5
1D4B
330
1A
100
AcDbEntity
  8
CENTER_L
 48
5.0
100
AcDbLine
 10
617.6005763863877
 20
313.4838573898292
 30
0.0
 11
629.0390011238164
 21
319.204304779341
 31
0.0
  0
LINE
  5
1D4D
330
1A
100
AcDbEntity
  8
SEIHIN
100
AcDbLine
 10
627.9755747886347
 20
301.8952551789255
 30
0.0
 11
625.2922932156345
 21
300.5536143924254
 31
0.0
  0
LINE
  5
1D4E
330
1A
100
AcDbEntity
  8
SEIHIN
100
AcDbLine
 10
623.0562252381346
 20
302.7896823699255
 30
0.0
 11
626.6339340021345
 21
304.5785367519254
 31
0.0
  0
ARC
  5
1D4F
330
1A
100
AcDbEntity
  8
SEIHIN
100
AcDbCircle
 10
623.0562252381346
 20
316.2060902349255
 30
0.0
 40
7.7
100
AcDbArc
 50
181.3961976917294
 51
317.6192827742982
  0
LINE
  5
1D50
330
1A
100
AcDbEntity
  8
SEIHIN
100
AcDbLine
 10
632.4477107436345
 20
315.3116630439255
 30
0.0
 11
625.2259178969348
 21
329.7552487372255
 31
0.0
  0
ARC
  5
1D51
330
1A
100
AcDbEntity
  8
SEIHIN
100
AcDbCircle
 10
616.2816456095347
 20
325.2831135370255
 30
0.0
 40
10.0
100
AcDbArc
 50
26.56504634180014
 51
113.5650511884028
  0
LINE
  5
1D52
330
1A
100
AcDbEntity
  8
SEIHIN
100
AcDbLine
 10
612.2837455847347
 20
334.4491811448255
 30
0.0
 11
584.2674324645344
 21
322.2295005021255
 31
0.0
  0
ARC
  5
1D53
330
1A
100
AcDbEntity
  8
SEIHIN
100
AcDbCircle
 10
594.1215056091291
 20
312.5836601117157
 30
0.0
 40
2.0
100
AcDbArc
 50
206.5650511769886
 51
296.5650511764384
  0
LINE
  5
1D54
330
1A
100
AcDbEntity
  8
SEIHIN
100
AcDbLine
 10
594.8634257122346
 20
321.3961793158254
 30
0.0
 11
590.7330347314346
 21
319.5946553787254
 31
0.0
  0
ARC
  5
1D55
330
1A
100
AcDbEntity
  8
SEIHIN
100
AcDbCircle
 10
586.0716608900488
 20
308.5587377522878
 30
0.0
 40
2.0
100
AcDbArc
 50
296.5650511764382
 51
26.56505117703415
  0
LINE
  5
1D56
330
1A
100
AcDbEntity
  8
SEIHIN
100
AcDbLine
 10
577.5746025757407
 20
304.3102085946316
 30
0.0
 11
575.1277278695347
 21
309.2039580070255
 31
0.0
  0
LINE
  5
1D57
330
1A
100
AcDbEntity
  8
SEIHIN
100
AcDbLine
 10
577.7016896597347
 20
310.7642383592255
 30
0.0
 11
580.2578841485501
 21
305.6518493815946
 31
0.0
  0
ARC
  5
1D58
330
1A
100
AcDbEntity
  8
SEIHIN
100
AcDbCircle
 10
575.7857481937421
 20
303.4157814036291
 30
0.0
 40
2.0
100
AcDbArc
 50
296.5650511770779
 51
26.56505117716259
  0
LINE
  5
1D59
330
1A
100
AcDbEntity
  8
SEIHIN
100
AcDbLine
 10
570.7537078599289
 20
295.3095912929729
 30
0.0
 11
578.0218161712514
 21
298.943645448634
 31
0.0
  0
ARC
  5
1D5A
330
1A
100
AcDbEntity
  8
SEIHIN
100
AcDbCircle
 10
571.2009214554286
 20
294.4151641019729
 30
0.0
 40
1.0
100
AcDbArc
 50
116.5650511770721
 51
231.7339046614641
  0
LINE
  5
1D5B
330
1A
100
AcDbEntity
  8
SEIHIN
100
AcDbLine
 10
584.2828065080698
 20
302.074140617605
 30
0.0
 11
588.3077288675635
 21
304.0866017972957
 31
0.0
  0
LINE
  5
1D5C
330
1A
100
AcDbEntity
  8
SEIHIN
100
AcDbLine
 10
582.9411657215298
 20
304.7574221905847
 30
0.0
 11
586.9660880810288
 21
306.769883370278
 31
0.0
  0
ARC
  5
1D5D
330
1A
100
AcDbEntity
  8
SEIHIN
100
AcDbCircle
 10
578.9162433622512
 20
297.1547910666341
 30
0.0
 40
2.0
100
AcDbArc
 50
26.56505117716191
 51
116.5650511770779
  0
ARC
  5
1D5E
330
1A
100
AcDbEntity
  8
SEIHIN
100
AcDbCircle
 10
585.1772336990498
 20
300.2852862355951
 30
0.0
 40
2.0
100
AcDbArc
 50
116.5650511764377
 51
206.5650511770778
  0
ARC
  5
1D5F
330
1A
100
AcDbEntity
  8
SEIHIN
100
AcDbCircle
 10
582.0467385305498
 20
306.5462765725945
 30
0.0
 40
2.0
100
AcDbArc
 50
206.5650511770783
 51
296.5650511764384
  0
ARC
  5
1D60
330
1A
100
AcDbEntity
  8
SEIHIN
100
AcDbCircle
 10
589.2021560585435
 20
302.2977474152859
 30
0.0
 40
2.0
100
AcDbArc
 50
26.56505117703326
 51
116.5650511764384
  0
ARC
  5
1D61
330
1A
100
AcDbEntity
  8
SEIHIN
100
AcDbCircle
 10
573.3388734386346
 20
308.3095309139254
 30
0.0
 40
2.0
100
AcDbArc
 50
26.56504804190007
 51
118.5650511891012
  0
LINE
  5
1D62
330
1A
100
AcDbEntity
  8
SEIHIN
100
AcDbLine
 10
587.8605152720492
 20
309.4531649432864
 30
0.0
 11
585.2340446508346
 21
314.7061061857255
 31
0.0
  0
ARC
  5
1D63
330
1A
100
AcDbEntity
  8
SEIHIN
100
AcDbCircle
 10
583.4451901419347
 20
313.8116792485255
 30
0.0
 40
2.0
100
AcDbArc
 50
26.56504304820114
 51
118.5650511891012
  0
LINE
  5
1D64
330
1A
100
AcDbEntity
  8
SEIHIN
100
AcDbLine
 10
582.4888776942345
 20
315.5682288499254
 30
0.0
 11
578.5342320277345
 21
313.4152142842255
 31
0.0
  0
ARC
  5
1D65
330
1A
100
AcDbEntity
  8
SEIHIN
100
AcDbCircle
 10
579.4905444754347
 20
311.6586646828255
 30
0.0
 40
2.0
100
AcDbArc
 50
118.5650511891012
 51
206.565023393701
  0
ARC
  5
1D66
330
1A
100
AcDbEntity
  8
SEIHIN
100
AcDbCircle
 10
591.5326147363345
 20
317.7614418572255
 30
0.0
 40
2.0
100
AcDbArc
 50
113.5650511884028
 51
206.5650684564999
  0
LINE
  5
1D67
330
1A
100
AcDbEntity
  8
SEIHIN
100
AcDbLine
 10
589.7437606241346
 20
316.8670141267254
 30
0.0
 11
592.332651227128
 21
311.6892329207185
 31
0.0
  0
LINE
  5
1D68
330
1A
100
AcDbEntity
  8
SEIHIN
100
AcDbLine
 10
605.7490590921518
 20
310.5711989318309
 30
0.0
 11
613.8351504559345
 21
294.3990162043255
 31
0.0
  0
LINE
  5
1D69
330
1A
100
AcDbEntity
  8
SEIHIN
100
AcDbLine
 10
596.3575735866393
 20
308.1115241567212
 30
0.0
 11
600.3824959461276
 21
310.1239853364092
 31
0.0
  0
ARC
  5
1D6A
330
1A
100
AcDbEntity
  8
SEIHIN
100
AcDbCircle
 10
597.2520007776193
 20
306.3226697747113
 30
0.0
 40
2.0
100
AcDbArc
 50
116.5650511764382
 51
206.5650511769891
  0
ARC
  5
1D6B
330
1A
100
AcDbEntity
  8
SEIHIN
100
AcDbCircle
 10
629.7644291706347
 20
289.3732745049255
 30
0.0
 40
15.0
100
AcDbArc
 50
116.5650511887979
 51
159.9975877523013
  0
ARC
  5
1D6C
330
1A
100
AcDbEntity
  8
SEIHIN
100
AcDbCircle
 10
614.7295776469345
 20
294.8462297998255
 30
0.0
 40
1.0
100
AcDbArc
 50
206.5650512005987
 51
339.9975877758012
  0
LINE
  5
1D6D
330
1A
100
AcDbEntity
  8
SEIHIN
100
AcDbLine
 10
606.6434862831702
 20
313.2544805048433
 30
0.0
 11
613.9115945946269
 21
316.88853466047
 31
0.0
  0
LINE
  5
1D6E
330
1A
100
AcDbEntity
  8
SEIHIN
100
AcDbLine
 10
605.3018454966215
 20
315.9377620778185
 30
0.0
 11
623.1903893167346
 21
324.8820339876254
 31
0.0
  0
LINE
  5
1D6F
330
1A
100
AcDbEntity
  8
SEIHIN
100
AcDbLine
 10
617.9491226402347
 20
331.4653073509255
 30
0.0
 11
601.2884783490346
 21
324.1985498847255
 31
0.0
  0
ARC
  5
1D70
330
1A
100
AcDbEntity
  8
SEIHIN
100
AcDbCircle
 10
595.6630057172346
 20
319.5629657942254
 30
0.0
 40
2.0
100
AcDbArc
 50
26.56501847080157
 51
113.5650511884028
  0
LINE
  5
1D71
330
1A
100
AcDbEntity
  8
SEIHIN
100
AcDbLine
 10
600.2992030255345
 20
321.4709110650255
 30
0.0
 11
602.6185639236432
 21
316.8321892688258
 31
0.0
  0
ARC
  5
1D72
330
1A
100
AcDbEntity
  8
SEIHIN
100
AcDbCircle
 10
601.2769231371075
 20
308.3351309543994
 30
0.0
 40
2.0
100
AcDbArc
 50
26.56505117711763
 51
116.5650511764384
  0
ARC
  5
1D73
330
1A
100
AcDbEntity
  8
SEIHIN
100
AcDbCircle
 10
598.1464279686033
 20
314.5961212913967
 30
0.0
 40
2.0
100
AcDbArc
 50
296.5650511764383
 51
26.56505117711636
  0
LINE
  5
1D74
330
1A
100
AcDbEntity
  8
SEIHIN
100
AcDbLine
 10
599.9352823506026
 20
315.4905484823978
 30
0.0
 11
597.4518606097347
 21
320.4573919641255
 31
0.0
  0
LINE
  5
1D75
330
1A
100
AcDbEntity
  8
SEIHIN
100
AcDbLine
 10
595.0159328001091
 20
310.7948057297059
 30
0.0
 11
599.0408551595833
 21
312.8072669093868
 31
0.0
  0
ARC
  5
1D76
330
1A
100
AcDbEntity
  8
SEIHIN
100
AcDbCircle
 10
607.5379134741502
 20
311.4656261228335
 30
0.0
 40
2.0
100
AcDbArc
 50
116.5650511764383
 51
206.5650511771627
  0
ARC
  5
1D77
330
1A
100
AcDbEntity
  8
SEIHIN
100
AcDbCircle
 10
604.4074183056416
 20
317.7266164598283
 30
0.0
 40
2.0
100
AcDbArc
 50
206.5650511771627
 51
296.5650511764384
  0
ARC
  5
1D78
330
1A
100
AcDbEntity
  8
SEIHIN
100
AcDbCircle
 10
602.0880583540347
 20
322.3653363631254
 30
0.0
 40
2.0
100
AcDbArc
 50
113.5650511884028
 51
206.5649905496017
  0
LINE
  5
1D79
330
1A
100
AcDbEntity
  8
CENTER_L
 48
5.0
100
AcDbLine
 10
620.525799189812
 20
321.2658502483667
 30
0.0
 11
625.8648864019619
 21
310.5899811975092
 31
0.0
  0
ARC
  5
1D7A
330
1A
100
AcDbEntity
  8
SEIHIN
100
AcDbCircle
 10
614.3588081901168
 20
315.9941074694651
 30
0.0
 40
1.0
100
AcDbArc
 50
1.396197691731441
 51
116.5650511764385
  0
CIRCLE
  5
1D7B
330
1A
100
AcDbEntity
  8
SEIHIN
100
AcDbCircle
 10
623.0562252381346
 20
316.2060902349255
 30
0.0
 40
2.7
  0
ARC
  5
1D7C
330
1A
100
AcDbEntity
  8
SEIHIN
100
AcDbCircle
 10
618.7487026452345
 20
329.6320938293254
 30
0.0
 40
2.0
100
AcDbArc
 50
60.43494882729814
 51
113.5650511884028
  0
ARC
  5
1D7D
330
1A
100
AcDbEntity
  8
SEIHIN
100
AcDbCircle
 10
616.2816456095347
 20
325.2831135370255
 30
0.0
 40
7.0
100
AcDbArc
 50
26.56504121270124
 51
60.43494882729814
  0
ARC
  5
1D7E
330
1A
100
AcDbEntity
  8
SEIHIN
100
AcDbCircle
 10
622.7431757212348
 20
325.7764611786255
 30
0.0
 40
1.0
100
AcDbArc
 50
296.5650511771012
 51
26.56505117709983
  0
LINE
  5
1D7F
330
1A
100
AcDbEntity
  8
SEIHIN
100
AcDbLine
 10
623.6376029122348
 20
326.2236747741255
 30
0.0
 11
622.5426364909346
 21
328.4136076167255
 31
0.0
  0
ARC
  5
1D80
330
1A
100
AcDbEntity
  8
SEIHIN
100
AcDbCircle
 10
623.5034388336345
 20
310.8395270889255
 30
0.0
 40
7.0
100
AcDbArc
 50
296.5650512122989
 51
355.2417987720999
  0
ARC
  5
1D81
330
1A
100
AcDbEntity
  8
SEIHIN
100
AcDbCircle
 10
623.5034388336345
 20
310.8395270889255
 30
0.0
 40
10.0
100
AcDbArc
 50
296.5650512122989
 51
26.56505117709983
  0
ARC
  5
1D82
330
1A
100
AcDbEntity
  8
SEIHIN
100
AcDbCircle
 10
629.4827606687347
 20
310.3418219635255
 30
0.0
 40
1.0
100
AcDbArc
 50
355.2417987720999
 51
137.6192827508015
  0
MTEXT
  5
1D83
330
1A
100
AcDbEntity
  8
SUNPOU
100
AcDbMText
 10
633.973071815742
 20
366.9993902121877
 30
0.0
 40
6.0
 41
33.36028036838114
 71
     1
 72
     5
  1
3-φ4.2
1001
ACAD
1000
MTEXTBEGIN
1070
    73
1070
     1
1070
    44
1040
1.0
1070
    74
1070
     0
1000
MTEXTEND
1000
MTEXTBEGIN
1070
    73
1070
     1
1070
    44
1040
1.0
1070
    74
1070
     0
1000
MTEXTEND
1000
MTEXTBEGIN
1070
    73
1070
     1
1070
    44
1040
1.0
1070
    74
1070
     0
1000
MTEXTEND
1000
MTEXTBEGIN
1070
    73
1070
     1
1070
    44
1040
1.0
1070
    74
1070
     0
1000
MTEXTEND
1000
MTEXTBEGIN
1070
    73
1070
     1
1070
    44
1040
1.0
1070
    74
1070
     0
1000
MTEXTEND
  0
POINT
  5
2063
330
1A
100
AcDbEntity
  8
S120
  6
PHANTOM
 62
     8
 48
5.0
100
AcDbPoint
 10
742.7552107762967
 20
218.9664682146266
 30
0.0
  0
POINT
  5
2089
330
1A
100
AcDbEntity
  8
S120
  6
PHANTOM
 62
     8
 48
5.0
100
AcDbPoint
 10
712.7552107762967
 20
235.4666682146266
 30
0.0
  0
POINT
  5
208C
330
1A
100
AcDbEntity
  8
S120
  6
PHANTOM
 62
     8
 48
5.0
100
AcDbPoint
 10
719.7552107762967
 20
236.9666682146265
 30
0.0
  0
POINT
  5
2126
330
1A
100
AcDbEntity
  8
S120
  6
PHANTOM
 62
     8
 48
5.0
100
AcDbPoint
 10
742.7553107762967
 20
316.9666682146266
 30
0.0
  0
POINT
  5
212A
330
1A
100
AcDbEntity
  8
S120
  6
PHANTOM
 62
     8
 48
5.0
100
AcDbPoint
 10
754.0959107762967
 20
310.1408682146267
 30
0.0
  0
POINT
  5
214F
330
1A
100
AcDbEntity
  8
S120
  6
PHANTOM
 62
     8
 48
5.0
100
AcDbPoint
 10
804.7552107762967
 20
216.9665682146265
 30
0.0
  0
POINT
  5
2150
330
1A
100
AcDbEntity
  8
S120
  6
PHANTOM
 62
     8
 48
5.0
100
AcDbPoint
 10
869.7538107762966
 20
216.9664682146266
 30
0.0
  0
POINT
  5
216A
330
1A
100
AcDbEntity
  8
S120
  6
PHANTOM
 62
     8
 48
5.0
100
AcDbPoint
 10
860.5835107762967
 20
261.9665682146266
 30
0.0
  0
POINT
  5
2185
330
1A
100
AcDbEntity
  8
S120
  6
PHANTOM
 62
     8
 48
5.0
100
AcDbPoint
 10
865.5835107762968
 20
276.9665682146265
 30
0.0
  0
LINE
  5
2195
330
1A
100
AcDbEntity
  8
SEIHIN
100
AcDbLine
 10
442.9393026961819
 20
209.3771191326998
 30
0.0
 11
447.1390004424344
 21
211.4769680058261
 31
0.0
  0
LINE
  5
2196
330
1A
100
AcDbEntity
  8
SEIHIN
100
AcDbLine
 10
442.9393026961819
 20
209.3771191326998
 30
0.0
 11
439.6415805165625
 21
209.1062978940974
 31
0.0
  0
TEXT
  5
3388
330
1A
100
AcDbEntity
  8
SUNPOU
100
AcDbText
 10
471.02814387008
 20
140.0456095834234
 30
0.0
 40
5.0
  1
10
100
AcDbText
1001
ACAD
1000
MTEXTBEGIN
1070
    73
1070
     1
1070
    44
1040
1.0
1070
    74
1070
     0
1000
MTEXTEND
1000
MTEXTBEGIN
1070
    73
1070
     1
1070
    44
1040
1.0
1070
    74
1070
     0
1000
MTEXTEND
1000
MTEXTBEGIN
1070
    73
1070
     1
1070
    44
1040
1.0
1070
    74
1070
     0
1000
MTEXTEND
1000
MTEXTBEGIN
1070
    73
1070
     1
1070
    44
1040
1.0
1070
    74
1070
     0
1000
MTEXTEND
  0
TEXT
  5
3389
330
1A
100
AcDbEntity
  8
SUNPOU
100
AcDbText
 10
479.8192813770252
 20
130.5726295367434
 30
0.0
 40
5.0
  1
5
100
AcDbText
1001
ACAD
1000
MTEXTBEGIN
1070
    73
1070
     1
1070
    44
1040
1.0
1070
    74
1070
     0
1000
MTEXTEND
1000
MTEXTBEGIN
1070
    73
1070
     1
1070
    44
1040
1.0
1070
    74
1070
     0
1000
MTEXTEND
1000
MTEXTBEGIN
1070
    73
1070
     1
1070
    44
1040
1.0
1070
    74
1070
     0
1000
MTEXTEND
1000
MTEXTBEGIN
1070
    73
1070
     1
1070
    44
1040
1.0
1070
    74
1070
     0
1000
MTEXTEND
  0
LINE
  5
338A
330
1A
100
AcDbEntity
  8
ZUWAKU
100
AcDbLine
 10
208.6466024889079
 20
15.19999935047882
 30
0.0
 11
447.4243651698313
 21
15.19999935047881
 31
0.0
  0
LINE
  5
338B
330
1A
100
AcDbEntity
  8
ZUWAKU
100
AcDbLine
 10
208.6466024889079
 20
15.59999935047881
 30
0.0
 11
447.4243651698313
 21
15.59999935047882
 31
0.0
  0
LINE
  5
338C
330
1A
100
AcDbEntity
  8
ZUWAKU
100
AcDbLine
 10
208.6466024889079
 20
15.39999935047881
 30
0.0
 11
447.4243651698313
 21
15.39999935047881
 31
0.0
  0
LINE
  5
338D
330
1A
100
AcDbEntity
  8
ZUWAKU
100
AcDbLine
 10
0.0000011988399819
 20
30.79999935047879
 30
0.0
 11
797.4000011988398
 21
30.79999935047879
 31
0.0
  0
LINE
  5
338E
330
1A
100
AcDbEntity
  8
ZUWAKU
100
AcDbLine
 10
0.0000011988399819
 20
30.5999993504788
 30
0.0
 11
797.4000011988398
 21
30.5999993504788
 31
0.0
  0
LINE
  5
338F
330
1A
100
AcDbEntity
  8
ZUWAKU
100
AcDbLine
 10
0.0000011988399819
 20
30.39999935047879
 30
0.0
 11
797.4000011988398
 21
30.39999935047879
 31
0.0
  0
LINE
  5
3390
330
1A
100
AcDbEntity
  8
ZUWAKU
100
AcDbLine
 10
0.0000011988399819
 20
30.19999935047878
 30
0.0
 11
797.4000011988398
 21
30.19999935047878
 31
0.0
  0
LINE
  5
3391
330
1A
100
AcDbEntity
  8
ZUWAKU
100
AcDbLine
 10
0.0000011988399819
 20
29.99999935047878
 30
0.0
 11
797.4000011988398
 21
29.99999935047878
 31
0.0
  0
LWPOLYLINE
  5
3392
330
1A
100
AcDbEntity
  8
ZUWAKU
100
AcDbPolyline
 90
        4
 70
     1
 43
0.0
 10
0.2000011988399137
 20
551.3999993504787
 10
0.2000011988399137
 20
0.1999993504788336
 10
797.4000011988398
 20
0.1999993504788566
 10
797.40000119884
 20
551.3999993504787
  0
LWPOLYLINE
  5
3393
330
1A
100
AcDbEntity
  8
ZUWAKU
100
AcDbPolyline
 90
        4
 70
     1
 43
0.0
 10
0.600001198839891
 20
550.9999993504789
 10
0.600001198839891
 20
0.5999993504788109
 10
797.0000011988402
 20
0.5999993504788571
 10
797.00000119884
 20
550.9999993504789
  0
LWPOLYLINE
  5
3394
330
1A
100
AcDbEntity
  8
ZUWAKU
100
AcDbPolyline
 90
        4
 70
     1
 43
0.0
 10
0.0000011988399819
 20
551.5999993504788
 10
0.0000011988399819
 20
-0.0000006495212119
 10
797.60000119884
 20
-0.0000006495211444
 10
797.60000119884
 20
551.5999993504789
  0
LWPOLYLINE
  5
3395
330
1A
100
AcDbEntity
  8
ZUWAKU
100
AcDbPolyline
 90
        4
 70
     1
 43
0.0
 10
0.4000011988399593
 20
551.1999993504787
 10
0.4000011988399593
 20
0.399999350478879
 10
797.20000119884
 20
0.3999993504788559
 10
797.20000119884
 20
551.1999993504787
  0
LWPOLYLINE
  5
3396
330
1A
100
AcDbEntity
  8
ZUWAKU
100
AcDbPolyline
 90
        4
 70
     1
 43
0.0
 10
0.8000011988399364
 20
550.7999993504787
 10
0.8000011988399364
 20
0.7999993504788563
 10
796.8000011988398
 20
0.7999993504788563
 10
796.8000011988398
 20
550.7999993504787
  0
TEXT
  5
3397
330
1A
100
AcDbEntity
  8
MOJI
100
AcDbText
 10
129.5810018416712
 20
8.554222766009161
 30
0.0
 40
5.799999999999999
  1
Ｓ１２０Ｈ・Ｍ１２０Ｈ
 41
0.9
  7
ｽﾀｲﾙ1
100
AcDbText
  0
TEXT
  5
3398
330
1A
100
AcDbEntity
  8
MOJI
100
AcDbText
 10
81.66226515300536
 20
17.85856729940519
 30
0.0
 40
5.799999999999999
  1
アートフェイスＴ１２０・Ｈ１２０・
 41
0.9
  7
ｽﾀｲﾙ1
100
AcDbText
  0
HATCH
  5
3399
330
1A
100
AcDbEntity
  8
ZUWAKU
100
AcDbHatch
 10
0.0
 20
0.0
 30
0.0
210
0.0
220
0.0
230
1.0
  2
ANSI37
 70
     0
 71
     0
 91
        8
 92
        7
 72
     1
 73
     1
 93
       24
 10
14.50226385995983
 20
17.64484783146236
 42
-0.1989123673796348
 10
14.0922133536211
 20
18.63479732512341
 42
0.0
 10
14.0922133536211
 20
19.92499935047879
 42
-0.4142135623730912
 10
14.61721335362107
 20
20.44999935047878
 42
0.0
 10
17.59221335362098
 20
20.44999935047878
 42
0.4142135623731546
 10
18.11721335362108
 20
20.97499935047877
 42
0.0
 10
18.11721335362108
 20
22.7249993504788
 42
0.4142135623731586
 10
17.59221335362098
 20
23.24999935047878
 42
0.0
 10
14.0922133536211
 20
23.24999935047878
 42
0.4142135623730928
 10
11.29221335362114
 20
20.44999935047881
 42
0.0
 10
11.29221335362114
 20
18.63479732512354
 42
0.1989123673796619
 10
12.52236487263757
 20
15.66494884413993
 42
0.0
 10
15.43216284728225
 20
12.75515086949528
 42
-0.1989123673796613
 10
15.8422133536211
 20
11.76520137583409
 42
0.0
 10
15.8422133536211
 20
10.47499935047877
 42
-0.4142135623730911
 10
15.31721335362112
 20
9.949999350478789
 42
0.0
 10
12.34221335362121
 20
9.949999350478789
 42
0.4142135623731526
 10
11.81721335362112
 20
9.424999350478801
 42
0.0
 10
11.81721335362112
 20
7.67499935047878
 42
0.4142135623731526
 10
12.34221335362121
 20
7.149999350478792
 42
0.0
 10
15.8422133536211
 20
7.149999350478792
 42
0.4142135623731045
 10
18.64221335362117
 20
9.949999350478769
 42
0.0
 10
18.64221335362117
 20
11.76520137583403
 42
0.1989123673796604
 10
17.41206183460462
 20
14.73504985681757
 42
0.0
 97
        0
 92
        7
 72
     1
 73
     1
 93
       16
 10
23.54221335362114
 20
19.04999935047879
 42
-0.4142135623730935
 10
24.94221335362112
 20
20.44999935047878
 42
0.0
 10
26.86721335362108
 20
20.44999935047878
 42
0.4142135623731546
 10
27.39221335362117
 20
20.97499935047877
 42
0.0
 10
27.39221335362117
 20
22.7249993504788
 42
0.4142135623730951
 10
26.86721335362119
 20
23.24999935047878
 42
0.0
 10
24.94221335362101
 20
23.24999935047874
 42
0.4142135623730893
 10
20.74221335362107
 20
19.04999935047873
 42
0.0
 10
20.74221335362107
 20
11.34999935047881
 42
0.4142135623730969
 10
24.94221335362112
 20
7.149999350478792
 42
0.0
 10
26.86721335362108
 20
7.149999350478792
 42
0.4142135623731526
 10
27.39221335362117
 20
7.67499935047878
 42
0.0
 10
27.39221335362117
 20
9.424999350478801
 42
0.4142135623730891
 10
26.86721335362119
 20
9.949999350478789
 42
0.0
 10
24.94221335362112
 20
9.949999350478789
 42
-0.4142135623730928
 10
23.54221335362114
 20
11.34999935047877
 42
0.0
 97
        0
 92
        7
 72
     1
 73
     1
 93
        2
 10
24.24221335362108
 20
15.19999935047878
 42
1.0
 10
27.74221335362108
 20
15.19999935047878
 42
1.0
 97
        0
 92
        7
 72
     1
 73
     1
 93
       26
 10
37.3148598357991
 20
19.20504654404221
 42
0.0
 10
38.37649946893692
 20
22.5669053823118
 42
0.5069206636600134
 10
37.87586856974155
 20
23.24999935047878
 42
0.0
 10
36.17697919013232
 20
23.24999935047878
 42
0.3272098845218764
 10
35.67634829093696
 20
22.88309331864575
 42
0.0
 10
33.80807841630518
 20
16.96690538231186
 42
-0.3272098845219541
 10
33.30744751710971
 20
16.59999935047878
 42
0.0
 10
33.16721335362126
 20
16.59999935047878
 42
-0.4142135623731526
 10
32.64221335362117
 20
17.12499935047877
 42
0.0
 10
32.64221335362117
 20
22.7249993504788
 42
0.4142135623730951
 10
32.11721335362119
 20
23.24999935047878
 42
0.0
 10
30.36721335362107
 20
23.24999935047878
 42
0.4142135623730871
 10
29.8422133536211
 20
22.7249993504788
 42
0.0
 10
29.8422133536211
 20
7.67499935047878
 42
0.4142135623730891
 10
30.36721335362107
 20
7.149999350478792
 42
0.0
 10
32.11721335362108
 20
7.149999350478792
 42
0.4142135623731526
 10
32.64221335362117
 20
7.67499935047878
 42
0.0
 10
32.64221335362117
 20
13.27499935047879
 42
-0.4142135623731526
 10
33.16721335362126
 20
13.79999935047878
 42
0.0
 10
33.30744751710983
 20
13.79999935047878
 42
-0.3272098845218915
 10
33.80807841630518
 20
13.43309331864571
 42
0.0
 10
35.67634829093696
 20
7.516905382311864
 42
0.3272098845218902
 10
36.17697919013232
 20
7.149999350478792
 42
0.0
 10
37.87586856974155
 20
7.149999350478792
 42
0.5069206636600336
 10
38.37649946893692
 20
7.833093318645801
 42
0.0
 10
36.05010809046325
 20
15.19999935047892
 42
0.0
 97
        0
 92
        7
 72
     1
 73
     1
 93
        8
 10
43.49221335362106
 20
22.7249993504788
 42
0.4142135623731546
 10
42.96721335362098
 20
23.24999935047878
 42
0.0
 10
41.21721335362122
 20
23.24999935047878
 42
0.4142135623731507
 10
40.69221335362112
 20
22.7249993504788
 42
0.0
 10
40.69221335362112
 20
7.67499935047878
 42
0.4142135623731526
 10
41.21721335362122
 20
7.149999350478792
 42
0.0
 10
42.96721335362098
 20
7.149999350478792
 42
0.4142135623731526
 10
43.49221335362106
 20
7.67499935047878
 42
0.0
 97
        0
 92
        7
 72
     1
 73
     1
 93
       24
 10
48.39221335362116
 20
19.92499935047879
 42
-0.4142135623731546
 10
48.91721335362126
 20
20.44999935047878
 42
0.0
 10
51.89221335362117
 20
20.44999935047878
 42
0.4142135623730911
 10
52.41721335362115
 20
20.97499935047877
 42
0.0
 10
52.41721335362115
 20
22.7249993504788
 42
0.4142135623730952
 10
51.89221335362117
 20
23.24999935047878
 42
0.0
 10
48.39221335362116
 20
23.24999935047878
 42
0.4142135623731048
 10
45.5922133536211
 20
20.44999935047881
 42
0.0
 10
45.5922133536211
 20
18.63479732512354
 42
0.1989123673796613
 10
46.82236487263764
 20
15.66494884413999
 42
0.0
 10
49.73216284728231
 20
12.75515086949532
 42
-0.1989123673796402
 10
50.14221335362117
 20
11.76520137583425
 42
0.0
 10
50.14221335362117
 20
10.47499935047877
 42
-0.4142135623730911
 10
49.6172133536212
 20
9.949999350478789
 42
0.0
 10
46.64221335362117
 20
9.949999350478789
 42
0.4142135623731526
 10
46.11721335362108
 20
9.424999350478801
 42
0.0
 10
46.11721335362108
 20
7.67499935047878
 42
0.4142135623730891
 10
46.64221335362106
 20
7.149999350478792
 42
0.0
 10
50.14221335362117
 20
7.149999350478792
 42
0.4142135623730925
 10
52.94221335362112
 20
9.949999350478769
 42
0.0
 10
52.94221335362112
 20
11.76520137583403
 42
0.1989123673796675
 10
51.71206183460459
 20
14.73504985681769
 42
0.0
 10
48.80226385996
 20
17.6448478314622
 42
-0.1989123673796652
 10
48.39221335362116
 20
18.63479732512337
 42
0.0
 97
        0
 92
        7
 72
     1
 73
     1
 93
       16
 10
57.84221335362111
 20
22.72499935047877
 42
0.414213562373103
 10
57.31721335362112
 20
23.24999935047878
 42
0.0
 10
55.56721335362112
 20
23.24999935047878
 42
0.4142135623730871
 10
55.04221335362114
 20
22.7249993504788
 42
0.0
 10
55.04221335362114
 20
9.949999350478769
 42
0.4142135623730927
 10
57.84221335362111
 20
7.149999350478792
 42
0.0
 10
61.3422133536211
 20
7.149999350478792
 42
0.4142135623731045
 10
64.14221335362118
 20
9.949999350478769
 42
0.0
 10
64.14221335362118
 20
22.7249993504788
 42
0.4142135623730951
 10
63.61721335362119
 20
23.24999935047878
 42
0.0
 10
61.86721335362108
 20
23.24999935047878
 42
0.4142135623730871
 10
61.3422133536211
 20
22.7249993504788
 42
0.0
 10
61.3422133536211
 20
10.99999935047876
 42
-0.4142135623730879
 10
60.29221335362114
 20
9.949999350478789
 42
0.0
 10
58.89221335362117
 20
9.949999350478789
 42
-0.4142135623731197
 10
57.84221335362111
 20
10.99999935047876
 42
0.0
 97
        0
 92
        7
 72
     1
 73
     1
 93
        8
 10
69.04221335362115
 20
22.7249993504788
 42
0.4142135623730871
 10
68.51721335362118
 20
23.24999935047878
 42
0.0
 10
66.76721335362117
 20
23.24999935047878
 42
0.4142135623731507
 10
66.24221335362108
 20
22.7249993504788
 42
0.0
 10
66.24221335362108
 20
7.67499935047878
 42
0.4142135623730891
 10
66.76721335362106
 20
7.149999350478792
 42
0.0
 10
68.51721335362118
 20
7.149999350478792
 42
0.4142135623730891
 10
69.04221335362115
 20
7.67499935047878
 42
0.0
 97
        0
 75
     0
 76
     1
 52
0.0
 41
0.2
 77
     0
 78
     2
 53
45.0
 43
-900.9423031358391
 44
-13.20000064952113
 45
-0.4490128060534576
 46
0.4490128060534577
 79
     0
 53
135.0
 43
-900.9423031358391
 44
-13.20000064952113
 45
-0.4490128060534577
 46
-0.4490128060534576
 79
     0
 47
0.057451373970553
 98
        8
 10
16.07985616186328
 20
15.16717299636433
 10
22.40451620527915
 20
18.84406153292979
 10
25.16436908449963
 20
15.5118809965495
 10
30.91406118047711
 20
16.20129699692028
 10
41.83847321779671
 20
16.6609092644619
 10
46.89820209396953
 20
19.41857566688599
 10
56.55768717124033
 20
18.72915726557379
 10
67.82708081846272
 20
19.18876953311541
  0
LINE
  5
339A
330
1A
100
AcDbEntity
  8
ZUWAKU
100
AcDbLine
 10
24.94221335362112
 20
23.24999935047874
 30
0.0
 11
26.86721335362108
 21
23.24999935047878
 31
0.0
  0
LINE
  5
339B
330
1A
100
AcDbEntity
  8
ZUWAKU
100
AcDbLine
 10
26.86721335362108
 20
20.44999935047878
 30
0.0
 11
24.94221335362112
 21
20.44999935047878
 31
0.0
  0
LINE
  5
339C
330
1A
100
AcDbEntity
  8
ZUWAKU
100
AcDbLine
 10
24.94221335362112
 20
9.949999350478789
 30
0.0
 11
26.86721335362108
 21
9.949999350478789
 31
0.0
  0
LINE
  5
339D
330
1A
100
AcDbEntity
  8
ZUWAKU
100
AcDbLine
 10
26.86721335362108
 20
7.149999350478792
 30
0.0
 11
24.94221335362112
 21
7.149999350478792
 31
0.0
  0
CIRCLE
  5
339E
330
1A
100
AcDbEntity
  8
ZUWAKU
100
AcDbCircle
 10
25.99221335362107
 20
15.19999935047878
 30
0.0
 40
1.75
  0
ARC
  5
339F
330
1A
100
AcDbEntity
  8
ZUWAKU
100
AcDbCircle
 10
15.49221335362108
 20
18.63479732512348
 30
0.0
 40
1.399999999999999
100
AcDbArc
 50
180.0000000000015
 51
224.9999999999988
  0
LINE
  5
33A0
330
1A
100
AcDbEntity
  8
ZUWAKU
100
AcDbLine
 10
23.54221335362114
 20
19.04999935047878
 30
0.0
 11
23.54221335362114
 21
11.34999935047879
 31
0.0
  0
LINE
  5
33A1
330
1A
100
AcDbEntity
  8
ZUWAKU
100
AcDbLine
 10
20.74221335362107
 20
11.34999935047879
 30
0.0
 11
20.74221335362107
 21
19.04999935047874
 31
0.0
  0
ARC
  5
33A2
330
1A
100
AcDbEntity
  8
ZUWAKU
100
AcDbCircle
 10
15.49221335362108
 20
18.63479732512348
 30
0.0
 40
4.199999999999998
100
AcDbArc
 50
180.0
 51
225.0
  0
ARC
  5
33A3
330
1A
100
AcDbEntity
  8
ZUWAKU
100
AcDbCircle
 10
15.8422133536211
 20
9.949999350478789
 30
0.0
 40
2.799999999999998
100
AcDbArc
 50
270.0
 51
0.0
  0
ARC
  5
33A4
330
1A
100
AcDbEntity
  8
ZUWAKU
100
AcDbCircle
 10
24.94221335362112
 20
11.34999935047879
 30
0.0
 40
4.199999999999998
100
AcDbArc
 50
180.0
 51
270.0
  0
ARC
  5
33A5
330
1A
100
AcDbEntity
  8
ZUWAKU
100
AcDbCircle
 10
14.44221335362112
 20
11.76520137583409
 30
0.0
 40
4.199999999999998
100
AcDbArc
 50
0.0
 51
45.0
  0
LINE
  5
33A6
330
1A
100
AcDbEntity
  8
ZUWAKU
100
AcDbLine
 10
17.41206183460462
 20
14.73504985681761
 30
0.0
 11
14.50226385995994
 21
17.64484783146228
 31
0.0
  0
LINE
  5
33A7
330
1A
100
AcDbEntity
  8
ZUWAKU
100
AcDbLine
 10
15.8422133536211
 20
10.47499935047879
 30
0.0
 11
15.8422133536211
 21
11.76520137583413
 31
0.0
  0
ARC
  5
33A8
330
1A
100
AcDbEntity
  8
ZUWAKU
100
AcDbCircle
 10
15.31721335362112
 20
10.47499935047879
 30
0.0
 40
0.525
100
AcDbArc
 50
270.0
 51
0.0
  0
ARC
  5
33A9
330
1A
100
AcDbEntity
  8
ZUWAKU
100
AcDbCircle
 10
14.44221335362112
 20
11.76520137583413
 30
0.0
 40
1.399999999999999
100
AcDbArc
 50
0.0
 51
45.0
  0
LINE
  5
33AA
330
1A
100
AcDbEntity
  8
ZUWAKU
100
AcDbLine
 10
11.81721335362112
 20
7.674999350478791
 30
0.0
 11
11.81721335362112
 21
9.42499935047879
 31
0.0
  0
ARC
  5
33AB
330
1A
100
AcDbEntity
  8
ZUWAKU
100
AcDbCircle
 10
12.3422133536211
 20
7.674999350478791
 30
0.0
 40
0.525
100
AcDbArc
 50
180.0
 51
270.0
  0
ARC
  5
33AC
330
1A
100
AcDbEntity
  8
ZUWAKU
100
AcDbCircle
 10
12.3422133536211
 20
9.42499935047879
 30
0.0
 40
0.525
100
AcDbArc
 50
90.0
 51
180.0
  0
LINE
  5
33AD
330
1A
100
AcDbEntity
  8
ZUWAKU
100
AcDbLine
 10
12.3422133536211
 20
7.149999350478792
 30
0.0
 11
15.8422133536211
 21
7.149999350478792
 31
0.0
  0
LINE
  5
33AE
330
1A
100
AcDbEntity
  8
ZUWAKU
100
AcDbLine
 10
12.3422133536211
 20
9.949999350478789
 30
0.0
 11
15.31721335362112
 21
9.949999350478789
 31
0.0
  0
LINE
  5
33AF
330
1A
100
AcDbEntity
  8
ZUWAKU
100
AcDbLine
 10
12.52236487263757
 20
15.66494884413996
 30
0.0
 11
15.43216284728225
 21
12.7551508694953
 31
0.0
  0
LINE
  5
33B0
330
1A
100
AcDbEntity
  8
ZUWAKU
100
AcDbLine
 10
18.64221335362117
 20
9.949999350478789
 30
0.0
 11
18.64221335362117
 21
11.76520137583413
 31
0.0
  0
ARC
  5
33B1
330
1A
100
AcDbEntity
  8
ZUWAKU
100
AcDbCircle
 10
24.94221335362112
 20
11.34999935047879
 30
0.0
 40
1.399999999999999
100
AcDbArc
 50
180.0
 51
270.0
  0
ARC
  5
33B2
330
1A
100
AcDbEntity
  8
ZUWAKU
100
AcDbCircle
 10
17.5922133536211
 20
22.72499935047878
 30
0.0
 40
0.525
100
AcDbArc
 50
0.0
 51
90.0
  0
ARC
  5
33B3
330
1A
100
AcDbEntity
  8
ZUWAKU
100
AcDbCircle
 10
17.5922133536211
 20
20.97499935047878
 30
0.0
 40
0.525
100
AcDbArc
 50
270.0
 51
0.0
  0
LINE
  5
33B4
330
1A
100
AcDbEntity
  8
ZUWAKU
100
AcDbLine
 10
14.0922133536211
 20
23.24999935047878
 30
0.0
 11
17.5922133536211
 21
23.24999935047878
 31
0.0
  0
ARC
  5
33B5
330
1A
100
AcDbEntity
  8
ZUWAKU
100
AcDbCircle
 10
14.61721335362107
 20
19.92499935047878
 30
0.0
 40
0.525
100
AcDbArc
 50
90.0
 51
180.0
  0
LINE
  5
33B6
330
1A
100
AcDbEntity
  8
ZUWAKU
100
AcDbLine
 10
14.0922133536211
 20
19.92499935047878
 30
0.0
 11
14.0922133536211
 21
18.63479732512344
 31
0.0
  0
LINE
  5
33B7
330
1A
100
AcDbEntity
  8
ZUWAKU
100
AcDbLine
 10
17.5922133536211
 20
20.44999935047878
 30
0.0
 11
14.61721335362107
 21
20.44999935047878
 31
0.0
  0
LINE
  5
33B8
330
1A
100
AcDbEntity
  8
ZUWAKU
100
AcDbLine
 10
11.29221335362114
 20
20.44999935047878
 30
0.0
 11
11.29221335362114
 21
18.63479732512344
 31
0.0
  0
ARC
  5
33B9
330
1A
100
AcDbEntity
  8
ZUWAKU
100
AcDbCircle
 10
14.0922133536211
 20
20.44999935047878
 30
0.0
 40
2.799999999999998
100
AcDbArc
 50
90.0
 51
180.0
  0
LINE
  5
33BA
330
1A
100
AcDbEntity
  8
ZUWAKU
100
AcDbLine
 10
18.11721335362108
 20
22.72499935047878
 30
0.0
 11
18.11721335362108
 21
20.97499935047878
 31
0.0
  0
ARC
  5
33BB
330
1A
100
AcDbEntity
  8
ZUWAKU
100
AcDbCircle
 10
24.94221335362112
 20
19.04999935047878
 30
0.0
 40
1.399999999999999
100
AcDbArc
 50
90.0
 51
180.0
  0
ARC
  5
33BC
330
1A
100
AcDbEntity
  8
ZUWAKU
100
AcDbCircle
 10
24.94221335362112
 20
19.04999935047874
 30
0.0
 40
4.199999999999998
100
AcDbArc
 50
90.0
 51
180.0
  0
LINE
  5
33BD
330
1A
100
AcDbEntity
  8
ZUWAKU
100
AcDbLine
 10
79.32663074682818
 20
29.99999935047878
 30
0.0
 11
79.32663074682841
 21
0.7999993504788563
 31
0.0
  0
LINE
  5
33BE
330
1A
100
AcDbEntity
  8
ZUWAKU
100
AcDbLine
 10
79.52663074682823
 20
29.99999935047878
 30
0.0
 11
79.52663074682845
 21
0.7999993504788563
 31
0.0
  0
LINE
  5
33BF
330
1A
100
AcDbEntity
  8
ZUWAKU
100
AcDbLine
 10
79.12663074682837
 20
29.99999935047878
 30
0.0
 11
79.12663074682837
 21
0.7999993504788563
 31
0.0
  0
LINE
  5
33C0
330
1A
100
AcDbEntity
  8
ZUWAKU
100
AcDbLine
 10
64.14221335362118
 20
9.949999350478789
 30
0.0
 11
64.14221335362118
 21
22.72499935047878
 31
0.0
  0
LINE
  5
33C1
330
1A
100
AcDbEntity
  8
ZUWAKU
100
AcDbLine
 10
61.3422133536211
 20
22.72499935047878
 30
0.0
 11
61.3422133536211
 21
10.99999935047878
 31
0.0
  0
LINE
  5
33C2
330
1A
100
AcDbEntity
  8
ZUWAKU
100
AcDbLine
 10
69.04221335362115
 20
7.674999350478791
 30
0.0
 11
69.04221335362115
 21
22.72499935047878
 31
0.0
  0
LINE
  5
33C3
330
1A
100
AcDbEntity
  8
ZUWAKU
100
AcDbLine
 10
66.24221335362108
 20
22.72499935047878
 30
0.0
 11
66.24221335362108
 21
7.674999350478791
 31
0.0
  0
ARC
  5
33C4
330
1A
100
AcDbEntity
  8
ZUWAKU
100
AcDbCircle
 10
49.79221335362114
 20
18.63479732512348
 30
0.0
 40
1.399999999999999
100
AcDbArc
 50
180.0000000000015
 51
224.9999999999988
  0
ARC
  5
33C5
330
1A
100
AcDbEntity
  8
ZUWAKU
100
AcDbCircle
 10
49.79221335362114
 20
18.63479732512348
 30
0.0
 40
4.199999999999998
100
AcDbArc
 50
180.0
 51
225.0
  0
LINE
  5
33C6
330
1A
100
AcDbEntity
  8
ZUWAKU
100
AcDbLine
 10
37.3148598357991
 20
19.20504654404221
 30
0.0
 11
36.05010809046325
 21
15.1999993504788
 31
0.0
  0
LINE
  5
33C7
330
1A
100
AcDbEntity
  8
ZUWAKU
100
AcDbLine
 10
40.69221335362112
 20
22.72499935047878
 30
0.0
 11
40.69221335362112
 21
7.674999350478791
 31
0.0
  0
LINE
  5
33C8
330
1A
100
AcDbEntity
  8
ZUWAKU
100
AcDbLine
 10
43.49221335362106
 20
7.674999350478791
 30
0.0
 11
43.49221335362106
 21
22.72499935047878
 31
0.0
  0
LINE
  5
33C9
330
1A
100
AcDbEntity
  8
ZUWAKU
100
AcDbLine
 10
55.04221335362114
 20
22.72499935047878
 30
0.0
 11
55.04221335362114
 21
9.949999350478789
 31
0.0
  0
LINE
  5
33CA
330
1A
100
AcDbEntity
  8
ZUWAKU
100
AcDbLine
 10
57.84221335362111
 20
10.99999935047878
 30
0.0
 11
57.84221335362111
 21
22.72499935047878
 31
0.0
  0
LINE
  5
33CB
330
1A
100
AcDbEntity
  8
ZUWAKU
100
AcDbLine
 10
32.64221335362117
 20
17.12499935047879
 30
0.0
 11
32.64221335362117
 21
22.72499935047878
 31
0.0
  0
LINE
  5
33CC
330
1A
100
AcDbEntity
  8
ZUWAKU
100
AcDbLine
 10
29.8422133536211
 20
22.72499935047878
 30
0.0
 11
29.8422133536211
 21
7.674999350478791
 31
0.0
  0
LINE
  5
33CD
330
1A
100
AcDbEntity
  8
ZUWAKU
100
AcDbLine
 10
35.67634829093696
 20
22.88309331864575
 30
0.0
 11
33.80807841630518
 21
16.96690538231181
 31
0.0
  0
LINE
  5
33CE
330
1A
100
AcDbEntity
  8
ZUWAKU
100
AcDbLine
 10
60.29221335362114
 20
9.949999350478789
 30
0.0
 11
58.89221335362117
 21
9.949999350478789
 31
0.0
  0
LINE
  5
33CF
330
1A
100
AcDbEntity
  8
ZUWAKU
100
AcDbLine
 10
57.84221335362111
 20
7.149999350478792
 30
0.0
 11
61.3422133536211
 21
7.149999350478792
 31
0.0
  0
LINE
  5
33D0
330
1A
100
AcDbEntity
  8
ZUWAKU
100
AcDbLine
 10
41.2172133536211
 20
7.149999350478792
 30
0.0
 11
42.9672133536211
 21
7.149999350478792
 31
0.0
  0
LINE
  5
33D1
330
1A
100
AcDbEntity
  8
ZUWAKU
100
AcDbLine
 10
35.67634829093696
 20
7.516905382311818
 30
0.0
 11
33.80807841630518
 21
13.43309331864575
 31
0.0
  0
ARC
  5
33D2
330
1A
100
AcDbEntity
  8
ZUWAKU
100
AcDbCircle
 10
33.30744751710983
 20
17.12499935047879
 30
0.0
 40
0.525
100
AcDbArc
 50
270.0
 51
342.4744316262769
  0
LINE
  5
33D3
330
1A
100
AcDbEntity
  8
ZUWAKU
100
AcDbLine
 10
33.30744751710983
 20
16.59999935047878
 30
0.0
 11
33.16721335362114
 21
16.59999935047878
 31
0.0
  0
LINE
  5
33D4
330
1A
100
AcDbEntity
  8
ZUWAKU
100
AcDbLine
 10
33.16721335362114
 20
13.79999935047878
 30
0.0
 11
33.30744751710983
 21
13.79999935047878
 31
0.0
  0
ARC
  5
33D5
330
1A
100
AcDbEntity
  8
ZUWAKU
100
AcDbCircle
 10
33.16721335362114
 20
17.12499935047879
 30
0.0
 40
0.525
100
AcDbArc
 50
180.0
 51
270.0
  0
LINE
  5
33D6
330
1A
100
AcDbEntity
  8
ZUWAKU
100
AcDbLine
 10
30.36721335362107
 20
7.149999350478792
 30
0.0
 11
32.11721335362108
 21
7.149999350478792
 31
0.0
  0
ARC
  5
33D7
330
1A
100
AcDbEntity
  8
ZUWAKU
100
AcDbCircle
 10
32.11721335362108
 20
7.674999350478791
 30
0.0
 40
0.525
100
AcDbArc
 50
270.0
 51
0.0
  0
LINE
  5
33D8
330
1A
100
AcDbEntity
  8
ZUWAKU
100
AcDbLine
 10
32.64221335362117
 20
7.674999350478791
 30
0.0
 11
32.64221335362117
 21
13.27499935047878
 31
0.0
  0
LINE
  5
33D9
330
1A
100
AcDbEntity
  8
ZUWAKU
100
AcDbLine
 10
27.39221335362117
 20
9.42499935047879
 30
0.0
 11
27.39221335362117
 21
7.674999350478791
 31
0.0
  0
ARC
  5
33DA
330
1A
100
AcDbEntity
  8
ZUWAKU
100
AcDbCircle
 10
26.86721335362108
 20
7.674999350478791
 30
0.0
 40
0.525
100
AcDbArc
 50
270.0
 51
0.0
  0
ARC
  5
33DB
330
1A
100
AcDbEntity
  8
ZUWAKU
100
AcDbCircle
 10
26.86721335362108
 20
9.42499935047879
 30
0.0
 40
0.525
100
AcDbArc
 50
0.0
 51
90.0
  0
ARC
  5
33DC
330
1A
100
AcDbEntity
  8
ZUWAKU
100
AcDbCircle
 10
30.36721335362107
 20
7.674999350478791
 30
0.0
 40
0.525
100
AcDbArc
 50
180.0
 51
270.0
  0
ARC
  5
33DD
330
1A
100
AcDbEntity
  8
ZUWAKU
100
AcDbCircle
 10
33.30744751710983
 20
13.27499935047878
 30
0.0
 40
0.525
100
AcDbArc
 50
17.52556837372303
 51
90.0
  0
ARC
  5
33DE
330
1A
100
AcDbEntity
  8
ZUWAKU
100
AcDbCircle
 10
33.16721335362114
 20
13.27499935047878
 30
0.0
 40
0.525
100
AcDbArc
 50
90.0
 51
180.0
  0
ARC
  5
33DF
330
1A
100
AcDbEntity
  8
ZUWAKU
100
AcDbCircle
 10
41.2172133536211
 20
7.674999350478791
 30
0.0
 40
0.525
100
AcDbArc
 50
180.0
 51
270.0
  0
LINE
  5
33E0
330
1A
100
AcDbEntity
  8
ZUWAKU
100
AcDbLine
 10
36.17697919013243
 20
7.149999350478792
 30
0.0
 11
37.87586856974144
 21
7.149999350478792
 31
0.0
  0
ARC
  5
33E1
330
1A
100
AcDbEntity
  8
ZUWAKU
100
AcDbCircle
 10
37.87586856974144
 20
7.674999350478791
 30
0.0
 40
0.525
100
AcDbArc
 50
270.0
 51
17.52556837372303
  0
LINE
  5
33E2
330
1A
100
AcDbEntity
  8
ZUWAKU
100
AcDbLine
 10
38.37649946893692
 20
7.833093318645765
 30
0.0
 11
36.05010809046325
 21
15.1999993504788
 31
0.0
  0
ARC
  5
33E3
330
1A
100
AcDbEntity
  8
ZUWAKU
100
AcDbCircle
 10
36.17697919013243
 20
7.674999350478791
 30
0.0
 40
0.525
100
AcDbArc
 50
197.5255683737229
 51
270.0
  0
ARC
  5
33E4
330
1A
100
AcDbEntity
  8
ZUWAKU
100
AcDbCircle
 10
57.84221335362111
 20
9.949999350478789
 30
0.0
 40
2.799999999999998
100
AcDbArc
 50
180.0
 51
270.0
  0
ARC
  5
33E5
330
1A
100
AcDbEntity
  8
ZUWAKU
100
AcDbCircle
 10
50.14221335362117
 20
9.949999350478789
 30
0.0
 40
2.799999999999998
100
AcDbArc
 50
270.0
 51
0.0
  0
LINE
  5
33E6
330
1A
100
AcDbEntity
  8
ZUWAKU
100
AcDbLine
 10
51.71206183460469
 20
14.73504985681761
 30
0.0
 11
48.80226385995992
 21
17.64484783146228
 31
0.0
  0
LINE
  5
33E7
330
1A
100
AcDbEntity
  8
ZUWAKU
100
AcDbLine
 10
50.14221335362117
 20
10.47499935047879
 30
0.0
 11
50.14221335362117
 21
11.76520137583413
 31
0.0
  0
ARC
  5
33E8
330
1A
100
AcDbEntity
  8
ZUWAKU
100
AcDbCircle
 10
48.74221335362108
 20
11.76520137583413
 30
0.0
 40
1.399999999999999
100
AcDbArc
 50
0.0
 51
45.0
  0
ARC
  5
33E9
330
1A
100
AcDbEntity
  8
ZUWAKU
100
AcDbCircle
 10
49.61721335362108
 20
10.47499935047879
 30
0.0
 40
0.525
100
AcDbArc
 50
270.0
 51
0.0
  0
LINE
  5
33EA
330
1A
100
AcDbEntity
  8
ZUWAKU
100
AcDbLine
 10
46.11721335362108
 20
7.674999350478791
 30
0.0
 11
46.11721335362108
 21
9.42499935047879
 31
0.0
  0
ARC
  5
33EB
330
1A
100
AcDbEntity
  8
ZUWAKU
100
AcDbCircle
 10
46.64221335362117
 20
7.674999350478791
 30
0.0
 40
0.525
100
AcDbArc
 50
180.0
 51
270.0
  0
ARC
  5
33EC
330
1A
100
AcDbEntity
  8
ZUWAKU
100
AcDbCircle
 10
42.9672133536211
 20
7.674999350478791
 30
0.0
 40
0.525
100
AcDbArc
 50
270.0
 51
0.0
  0
ARC
  5
33ED
330
1A
100
AcDbEntity
  8
ZUWAKU
100
AcDbCircle
 10
46.64221335362117
 20
9.42499935047879
 30
0.0
 40
0.525
100
AcDbArc
 50
90.0
 51
180.0
  0
LINE
  5
33EE
330
1A
100
AcDbEntity
  8
ZUWAKU
100
AcDbLine
 10
46.64221335362117
 20
9.949999350478789
 30
0.0
 11
49.61721335362108
 21
9.949999350478789
 31
0.0
  0
LINE
  5
33EF
330
1A
100
AcDbEntity
  8
ZUWAKU
100
AcDbLine
 10
46.64221335362117
 20
7.149999350478792
 30
0.0
 11
50.14221335362117
 21
7.149999350478792
 31
0.0
  0
LINE
  5
33F0
330
1A
100
AcDbEntity
  8
ZUWAKU
100
AcDbLine
 10
46.82236487263764
 20
15.66494884413996
 30
0.0
 11
49.73216284728231
 21
12.7551508694953
 31
0.0
  0
LINE
  5
33F1
330
1A
100
AcDbEntity
  8
ZUWAKU
100
AcDbLine
 10
52.94221335362112
 20
9.949999350478789
 30
0.0
 11
52.94221335362112
 21
11.76520137583413
 31
0.0
  0
ARC
  5
33F2
330
1A
100
AcDbEntity
  8
ZUWAKU
100
AcDbCircle
 10
48.74221335362108
 20
11.76520137583409
 30
0.0
 40
4.199999999999998
100
AcDbArc
 50
0.0
 51
45.0
  0
ARC
  5
33F3
330
1A
100
AcDbEntity
  8
ZUWAKU
100
AcDbCircle
 10
58.89221335362117
 20
10.99999935047878
 30
0.0
 40
1.049999999999998
100
AcDbArc
 50
180.0
 51
270.0
  0
ARC
  5
33F4
330
1A
100
AcDbEntity
  8
ZUWAKU
100
AcDbCircle
 10
61.3422133536211
 20
9.949999350478789
 30
0.0
 40
2.799999999999998
100
AcDbArc
 50
270.0
 51
0.0
  0
LINE
  5
33F5
330
1A
100
AcDbEntity
  8
ZUWAKU
100
AcDbLine
 10
66.76721335362117
 20
7.149999350478792
 30
0.0
 11
68.51721335362118
 21
7.149999350478792
 31
0.0
  0
ARC
  5
33F6
330
1A
100
AcDbEntity
  8
ZUWAKU
100
AcDbCircle
 10
66.76721335362117
 20
7.674999350478791
 30
0.0
 40
0.525
100
AcDbArc
 50
180.0
 51
270.0
  0
ARC
  5
33F7
330
1A
100
AcDbEntity
  8
ZUWAKU
100
AcDbCircle
 10
60.29221335362114
 20
10.99999935047878
 30
0.0
 40
1.049999999999998
100
AcDbArc
 50
270.0
 51
0.0
  0
ARC
  5
33F8
330
1A
100
AcDbEntity
  8
ZUWAKU
100
AcDbCircle
 10
68.51721335362118
 20
7.674999350478791
 30
0.0
 40
0.525
100
AcDbArc
 50
270.0
 51
0.0
  0
LINE
  5
33F9
330
1A
100
AcDbEntity
  8
ZUWAKU
100
AcDbLine
 10
42.9672133536211
 20
23.24999935047878
 30
0.0
 11
41.2172133536211
 21
23.24999935047878
 31
0.0
  0
ARC
  5
33FA
330
1A
100
AcDbEntity
  8
ZUWAKU
100
AcDbCircle
 10
32.11721335362108
 20
22.72499935047878
 30
0.0
 40
0.525
100
AcDbArc
 50
0.0
 51
90.0
  0
LINE
  5
33FB
330
1A
100
AcDbEntity
  8
ZUWAKU
100
AcDbLine
 10
32.11721335362108
 20
23.24999935047878
 30
0.0
 11
30.36721335362107
 21
23.24999935047878
 31
0.0
  0
ARC
  5
33FC
330
1A
100
AcDbEntity
  8
ZUWAKU
100
AcDbCircle
 10
26.86721335362108
 20
22.72499935047878
 30
0.0
 40
0.525
100
AcDbArc
 50
0.0
 51
90.0
  0
ARC
  5
33FD
330
1A
100
AcDbEntity
  8
ZUWAKU
100
AcDbCircle
 10
30.36721335362107
 20
22.72499935047878
 30
0.0
 40
0.525
100
AcDbArc
 50
90.0
 51
180.0
  0
ARC
  5
33FE
330
1A
100
AcDbEntity
  8
ZUWAKU
100
AcDbCircle
 10
26.86721335362108
 20
20.97499935047878
 30
0.0
 40
0.525
100
AcDbArc
 50
270.0
 51
0.0
  0
LINE
  5
33FF
330
1A
100
AcDbEntity
  8
ZUWAKU
100
AcDbLine
 10
27.39221335362117
 20
22.72499935047878
 30
0.0
 11
27.39221335362117
 21
20.97499935047878
 31
0.0
  0
ARC
  5
3400
330
1A
100
AcDbEntity
  8
ZUWAKU
100
AcDbCircle
 10
41.2172133536211
 20
22.72499935047878
 30
0.0
 40
0.525
100
AcDbArc
 50
90.0
 51
180.0
  0
LINE
  5
3401
330
1A
100
AcDbEntity
  8
ZUWAKU
100
AcDbLine
 10
36.17697919013243
 20
23.24999935047878
 30
0.0
 11
37.87586856974144
 21
23.24999935047878
 31
0.0
  0
ARC
  5
3402
330
1A
100
AcDbEntity
  8
ZUWAKU
100
AcDbCircle
 10
37.87586856974144
 20
22.72499935047878
 30
0.0
 40
0.525
100
AcDbArc
 50
342.4744316262769
 51
90.0
  0
LINE
  5
3403
330
1A
100
AcDbEntity
  8
ZUWAKU
100
AcDbLine
 10
38.37649946893692
 20
22.56690538231182
 30
0.0
 11
37.3148598357991
 21
19.20504654404221
 31
0.0
  0
ARC
  5
3404
330
1A
100
AcDbEntity
  8
ZUWAKU
100
AcDbCircle
 10
36.17697919013243
 20
22.72499935047878
 30
0.0
 40
0.525
100
AcDbArc
 50
90.0
 51
162.4744316262769
  0
LINE
  5
3405
330
1A
100
AcDbEntity
  8
ZUWAKU
100
AcDbLine
 10
48.39221335362116
 20
23.24999935047878
 30
0.0
 11
51.89221335362117
 21
23.24999935047878
 31
0.0
  0
LINE
  5
3406
330
1A
100
AcDbEntity
  8
ZUWAKU
100
AcDbLine
 10
51.89221335362117
 20
20.44999935047878
 30
0.0
 11
48.91721335362114
 21
20.44999935047878
 31
0.0
  0
ARC
  5
3407
330
1A
100
AcDbEntity
  8
ZUWAKU
100
AcDbCircle
 10
48.91721335362114
 20
19.92499935047878
 30
0.0
 40
0.525
100
AcDbArc
 50
90.0
 51
180.0
  0
LINE
  5
3408
330
1A
100
AcDbEntity
  8
ZUWAKU
100
AcDbLine
 10
48.39221335362116
 20
19.92499935047878
 30
0.0
 11
48.39221335362116
 21
18.63479732512344
 31
0.0
  0
ARC
  5
3409
330
1A
100
AcDbEntity
  8
ZUWAKU
100
AcDbCircle
 10
42.9672133536211
 20
22.72499935047878
 30
0.0
 40
0.525
100
AcDbArc
 50
0.0
 51
90.0
  0
LINE
  5
340A
330
1A
100
AcDbEntity
  8
ZUWAKU
100
AcDbLine
 10
45.5922133536211
 20
20.44999935047878
 30
0.0
 11
45.5922133536211
 21
18.63479732512344
 31
0.0
  0
ARC
  5
340B
330
1A
100
AcDbEntity
  8
ZUWAKU
100
AcDbCircle
 10
48.39221335362116
 20
20.44999935047878
 30
0.0
 40
2.799999999999998
100
AcDbArc
 50
90.0
 51
180.0
  0
ARC
  5
340C
330
1A
100
AcDbEntity
  8
ZUWAKU
100
AcDbCircle
 10
57.31721335362112
 20
22.72499935047878
 30
0.0
 40
0.525
100
AcDbArc
 50
0.0
 51
90.0
  0
ARC
  5
340D
330
1A
100
AcDbEntity
  8
ZUWAKU
100
AcDbCircle
 10
55.56721335362112
 20
22.72499935047878
 30
0.0
 40
0.525
100
AcDbArc
 50
90.0
 51
180.0
  0
LINE
  5
340E
330
1A
100
AcDbEntity
  8
ZUWAKU
100
AcDbLine
 10
57.31721335362112
 20
23.24999935047878
 30
0.0
 11
55.56721335362112
 21
23.24999935047878
 31
0.0
  0
ARC
  5
340F
330
1A
100
AcDbEntity
  8
ZUWAKU
100
AcDbCircle
 10
51.89221335362117
 20
22.72499935047878
 30
0.0
 40
0.525
100
AcDbArc
 50
0.0
 51
90.0
  0
ARC
  5
3410
330
1A
100
AcDbEntity
  8
ZUWAKU
100
AcDbCircle
 10
51.89221335362117
 20
20.97499935047878
 30
0.0
 40
0.525
100
AcDbArc
 50
270.0
 51
0.0
  0
LINE
  5
3411
330
1A
100
AcDbEntity
  8
ZUWAKU
100
AcDbLine
 10
52.41721335362115
 20
22.72499935047878
 30
0.0
 11
52.41721335362115
 21
20.97499935047878
 31
0.0
  0
LINE
  5
3412
330
1A
100
AcDbEntity
  8
ZUWAKU
100
AcDbLine
 10
68.51721335362118
 20
23.24999935047878
 30
0.0
 11
66.76721335362117
 21
23.24999935047878
 31
0.0
  0
ARC
  5
3413
330
1A
100
AcDbEntity
  8
ZUWAKU
100
AcDbCircle
 10
66.76721335362117
 20
22.72499935047878
 30
0.0
 40
0.525
100
AcDbArc
 50
90.0
 51
180.0
  0
ARC
  5
3414
330
1A
100
AcDbEntity
  8
ZUWAKU
100
AcDbCircle
 10
63.61721335362108
 20
22.72499935047878
 30
0.0
 40
0.525
100
AcDbArc
 50
0.0
 51
90.0
  0
LINE
  5
3415
330
1A
100
AcDbEntity
  8
ZUWAKU
100
AcDbLine
 10
63.61721335362108
 20
23.24999935047878
 30
0.0
 11
61.86721335362108
 21
23.24999935047878
 31
0.0
  0
ARC
  5
3416
330
1A
100
AcDbEntity
  8
ZUWAKU
100
AcDbCircle
 10
61.86721335362108
 20
22.72499935047878
 30
0.0
 40
0.525
100
AcDbArc
 50
90.0
 51
180.0
  0
ARC
  5
3417
330
1A
100
AcDbEntity
  8
ZUWAKU
100
AcDbCircle
 10
68.51721335362118
 20
22.72499935047878
 30
0.0
 40
0.525
100
AcDbArc
 50
0.0
 51
90.0
  0
TEXT
  5
3418
330
1A
100
AcDbEntity
  8
MOJI
100
AcDbText
 10
239.8272038796909
 20
18.00492040788617
 30
0.0
 40
5.599999999999998
  1
ブラケット正面打（吊）固定式
 41
0.9
  7
ｽﾀｲﾙ1
100
AcDbText
  0
TEXT
  5
3419
330
1A
100
AcDbEntity
  8
MOJI
100
AcDbText
 10
239.8272038796909
 20
3.204920407886209
 30
0.0
 40
5.599999999999998
  1
１２０－５－４５
 41
0.9
  7
ｽﾀｲﾙ1
100
AcDbText
  0
LINE
  5
341A
330
1A
100
AcDbEntity
  8
ZUWAKU
100
AcDbLine
 10
208.2466024889078
 20
29.99999935047878
 30
0.0
 11
208.2466024889078
 21
0.7999993504788563
 31
0.0
  0
LINE
  5
341B
330
1A
100
AcDbEntity
  8
ZUWAKU
100
AcDbLine
 10
208.6466024889077
 20
29.99999935047878
 30
0.0
 11
208.6466024889079
 21
0.7999993504788563
 31
0.0
  0
LINE
  5
341C
330
1A
100
AcDbEntity
  8
ZUWAKU
100
AcDbLine
 10
208.4466024889076
 20
29.99999935047878
 30
0.0
 11
208.4466024889079
 21
0.7999993504788563
 31
0.0
  0
TEXT
  5
341D
330
1A
100
AcDbEntity
  8
ZUWAKU
100
AcDbText
 10
209.7240475111174
 20
9.655355888864406
 30
0.0
 40
4.0
  1
サイズ
 41
0.9
  7
ｽﾀｲﾙ1
100
AcDbText
  0
TEXT
  5
341E
330
1A
100
AcDbEntity
  8
ZUWAKU
100
AcDbText
 10
209.7240475111172
 20
24.05535588886436
 30
0.0
 40
4.0
  1
品名
 41
0.9
  7
ｽﾀｲﾙ1
100
AcDbText
  0
LINE
  5
341F
330
1A
100
AcDbEntity
  8
ZUWAKU
100
AcDbLine
 10
648.8172037090442
 20
15.19999935047881
 30
0.0
 11
697.2490117473812
 21
15.19999935047881
 31
0.0
  0
LINE
  5
3420
330
1A
100
AcDbEntity
  8
ZUWAKU
100
AcDbLine
 10
648.8172037090443
 20
15.39999935047882
 30
0.0
 11
697.2490117473812
 21
15.39999935047881
 31
0.0
  0
LINE
  5
3421
330
1A
100
AcDbEntity
  8
ZUWAKU
100
AcDbLine
 10
648.8172037090442
 20
15.59999935047881
 30
0.0
 11
697.2490117473812
 21
15.59999935047881
 31
0.0
  0
TEXT
  5
3422
330
1A
100
AcDbEntity
  8
ZUWAKU
100
AcDbText
 10
654.5120771985268
 20
18.00492040788617
 30
0.0
 40
5.599999999999998
  1
　　．　．　　
 41
0.9
  7
ｽﾀｲﾙ1
100
AcDbText
  0
LINE
  5
3423
330
1A
100
AcDbEntity
  8
ZUWAKU
100
AcDbLine
 10
505.1991806969807
 20
15.19999935047882
 30
0.0
 11
552.5269569649524
 21
15.19999935047882
 31
0.0
  0
LINE
  5
3424
330
1A
100
AcDbEntity
  8
ZUWAKU
100
AcDbLine
 10
505.1991806969807
 20
15.39999935047881
 30
0.0
 11
552.5269569649524
 21
15.39999935047881
 31
0.0
  0
LINE
  5
3425
330
1A
100
AcDbEntity
  8
ZUWAKU
100
AcDbLine
 10
505.1991806969807
 20
15.59999935047881
 30
0.0
 11
552.5269569649524
 21
15.59999935047881
 31
0.0
  0
LINE
  5
3426
330
1A
100
AcDbEntity
  8
ZUWAKU
100
AcDbLine
 10
447.6243651698311
 20
29.99999935047878
 30
0.0
 11
447.6243651698313
 21
0.7999993504788563
 31
0.0
  0
LINE
  5
3427
330
1A
100
AcDbEntity
  8
ZUWAKU
100
AcDbLine
 10
447.8243651698311
 20
29.99999935047878
 30
0.0
 11
447.8243651698314
 21
0.7999993504788563
 31
0.0
  0
LINE
  5
3428
330
1A
100
AcDbEntity
  8
ZUWAKU
100
AcDbLine
 10
447.4243651698313
 20
29.99999935047878
 30
0.0
 11
447.4243651698313
 21
0.7999993504788563
 31
0.0
  0
TEXT
  5
3429
330
1A
100
AcDbEntity
  8
MOJI
100
AcDbText
 10
528.0409091711528
 20
18.00492040788617
 30
0.0
 40
5.599999999999998
  1
Ａ３
 41
0.9
  7
ｽﾀｲﾙ1
100
AcDbText
  0
LINE
  5
342A
330
1A
100
AcDbEntity
  8
ZUWAKU
100
AcDbLine
 10
504.9991806969808
 20
29.99999935047878
 30
0.0
 11
504.9991806969809
 21
0.7999993504788563
 31
0.0
  0
LINE
  5
342B
330
1A
100
AcDbEntity
  8
ZUWAKU
100
AcDbLine
 10
505.1991806969807
 20
29.99999935047878
 30
0.0
 11
505.1991806969811
 21
0.7999993504788563
 31
0.0
  0
LINE
  5
342C
330
1A
100
AcDbEntity
  8
ZUWAKU
100
AcDbLine
 10
504.7991806969809
 20
29.99999935047878
 30
0.0
 11
504.7991806969809
 21
0.7999993504788563
 31
0.0
  0
TEXT
  5
342D
330
1A
100
AcDbEntity
  8
MOJI
100
AcDbText
 10
463.2464331898419
 20
11.94261707213876
 30
0.0
 40
5.599999999999998
  1
ＬＬ６９Ｔ
 41
0.9
  7
ｽﾀｲﾙ1
100
AcDbText
  0
TEXT
  5
342E
330
1A
100
AcDbEntity
  8
ZUWAKU
100
AcDbText
 10
506.6766257191907
 20
9.655355888864406
 30
0.0
 40
4.0
  1
縮尺
 41
0.9
  7
ｽﾀｲﾙ1
100
AcDbText
  0
TEXT
  5
342F
330
1A
100
AcDbEntity
  8
MOJI
100
AcDbText
 10
528.0409091711528
 20
3.204920407886209
 30
0.0
 40
5.599999999999998
  1
１/２
 41
0.9
  7
ｽﾀｲﾙ1
100
AcDbText
  0
TEXT
  5
3430
330
1A
100
AcDbEntity
  8
ZUWAKU
100
AcDbText
 10
449.3018101920409
 20
24.05535588886436
 30
0.0
 40
4.0
  1
品番
 41
0.9
  7
ｽﾀｲﾙ1
100
AcDbText
  0
TEXT
  5
3431
330
1A
100
AcDbEntity
  8
ZUWAKU
100
AcDbText
 10
506.6766257191904
 20
24.05535588886436
 30
0.0
 40
4.0
  1
用紙
 41
0.9
  7
ｽﾀｲﾙ1
100
AcDbText
  0
LINE
  5
3432
330
1A
100
AcDbEntity
  8
ZUWAKU
100
AcDbLine
 10
648.6172037090441
 20
29.99999935047878
 30
0.0
 11
648.6172037090446
 21
0.7999993504788563
 31
0.0
  0
LINE
  5
3433
330
1A
100
AcDbEntity
  8
ZUWAKU
100
AcDbLine
 10
648.8172037090443
 20
29.99999935047878
 30
0.0
 11
648.8172037090447
 21
0.7999993504788563
 31
0.0
  0
LINE
  5
3434
330
1A
100
AcDbEntity
  8
ZUWAKU
100
AcDbLine
 10
648.4172037090445
 20
29.99999935047878
 30
0.0
 11
648.4172037090445
 21
0.7999993504788563
 31
0.0
  0
LINE
  5
3435
330
1A
100
AcDbEntity
  8
ZUWAKU
100
AcDbLine
 10
552.7269569649523
 20
29.99999935047878
 30
0.0
 11
552.7269569649523
 21
0.7999993504788563
 31
0.0
  0
LINE
  5
3436
330
1A
100
AcDbEntity
  8
ZUWAKU
100
AcDbLine
 10
552.9269569649523
 20
29.99999935047878
 30
0.0
 11
552.9269569649524
 21
0.7999993504788563
 31
0.0
  0
LINE
  5
3437
330
1A
100
AcDbEntity
  8
ZUWAKU
100
AcDbLine
 10
552.5269569649524
 20
29.99999935047878
 30
0.0
 11
552.5269569649524
 21
0.7999993504788563
 31
0.0
  0
TEXT
  5
3438
330
1A
100
AcDbEntity
  8
ZUWAKU
100
AcDbText
 10
650.2946487312539
 20
24.05535588886436
 30
0.0
 40
4.0
  1
DATE
 41
0.9
  7
ｽﾀｲﾙ1
100
AcDbText
  0
LINE
  5
3439
330
1A
100
AcDbEntity
  8
ZUWAKU
100
AcDbLine
 10
697.2490117473812
 20
29.99999935047878
 30
0.0
 11
697.2490117473812
 21
0.7999993504788563
 31
0.0
  0
LINE
  5
343A
330
1A
100
AcDbEntity
  8
ZUWAKU
100
AcDbLine
 10
697.4490117473813
 20
29.99999935047878
 30
0.0
 11
697.4490117473813
 21
0.7999993504788563
 31
0.0
  0
LINE
  5
343B
330
1A
100
AcDbEntity
  8
ZUWAKU
100
AcDbLine
 10
697.6490117473811
 20
29.99999935047878
 30
0.0
 11
697.6490117473813
 21
0.7999993504788563
 31
0.0
  0
LINE
  5
343C
330
1A
100
AcDbEntity
  8
ZUWAKU
100
AcDbLine
 10
697.8490117473812
 20
29.99999935047878
 30
0.0
 11
697.8490117473812
 21
0.7999993504788563
 31
0.0
  0
TEXT
  5
343D
330
1A
100
AcDbEntity
  8
ZUWAKU
100
AcDbText
 10
708.5280853910837
 20
17.55383868616558
 30
0.0
 40
6.0
  1
積水化学工業株式会社
 41
0.9
  7
ｽﾀｲﾙ1
100
AcDbText
  0
TEXT
  5
343E
330
1A
100
AcDbEntity
  8
ZUWAKU
100
AcDbText
 10
708.5280853910837
 20
6.648839664332853
 30
0.0
 40
6.0
  1
建材事業部
 41
0.9
  7
ｽﾀｲﾙ1
100
AcDbText
  0
ARC
  5
3445
330
1A
100
AcDbEntity
  8
SEIHIN
100
AcDbCircle
 10
417.1367506501328
 20
402.7662743592197
 30
0.0
 40
5.0
100
AcDbArc
 50
270.0000000000057
 51
0.0000000000077538
  0
ARC
  5
3446
330
1A
100
AcDbEntity
  8
SEIHIN
100
AcDbCircle
 10
415.5672589079328
 20
402.7662743592197
 30
0.0
 40
5.000000000000056
100
AcDbArc
 50
270.0000000000065
 51
0.0000000000051958
  0
ARC
  5
3447
330
1A
100
AcDbEntity
  8
SEIHIN
100
AcDbCircle
 10
417.1367506501347
 20
364.7662743592202
 30
0.0
 40
5.0
100
AcDbArc
 50
0.0
 51
89.99999999999863
  0
ARC
  5
3448
330
1A
100
AcDbEntity
  8
SEIHIN
100
AcDbCircle
 10
415.5672589079348
 20
364.7662743592202
 30
0.0
 40
5.0
100
AcDbArc
 50
0.0
 51
89.99999999999863
  0
ELLIPSE
  5
344A
330
1A
100
AcDbEntity
  8
SEIHIN
100
AcDbEllipse
 10
463.6254300764248
 20
386.2662743592176
 30
0.0
 11
-0.0000000000007048
 21
-5.764780640991319
 31
0.0
210
0.0
220
0.0
230
1.0
 40
0.4032798122443961
 41
9.587294492323417
 42
10.99557428756427
  0
LINE
  5
344B
330
1A
100
AcDbEntity
  8
SEIHIN
100
AcDbLine
 10
462.4452634573249
 20
395.7662743592179
 30
0.0
 11
462.5903249370248
 21
395.706048473118
 31
0.0
  0
LINE
  5
344C
330
1A
100
AcDbEntity
  8
SEIHIN
100
AcDbLine
 10
462.5903249370248
 20
395.706048473118
 30
0.0
 11
462.729562112625
 21
395.5277889196179
 31
0.0
  0
LINE
  5
344D
330
1A
100
AcDbEntity
  8
SEIHIN
100
AcDbLine
 10
462.729562112625
 20
395.5277889196179
 30
0.0
 11
462.8573845293249
 21
395.238652925118
 31
0.0
  0
LINE
  5
344E
330
1A
100
AcDbEntity
  8
SEIHIN
100
AcDbLine
 10
462.8573845293249
 20
395.238652925118
 30
0.0
 11
462.9686600414247
 21
394.8502494706181
 31
0.0
  0
LINE
  5
344F
330
1A
100
AcDbEntity
  8
SEIHIN
100
AcDbLine
 10
462.9686600414247
 20
394.8502494706181
 30
0.0
 11
463.058920871525
 21
394.3781731842179
 31
0.0
  0
LINE
  5
3450
330
1A
100
AcDbEntity
  8
SEIHIN
100
AcDbLine
 10
463.058920871525
 20
394.3781731842179
 30
0.0
 11
463.1245429939249
 21
393.841378207818
 31
0.0
  0
LINE
  5
3451
330
1A
100
AcDbEntity
  8
SEIHIN
100
AcDbLine
 10
463.1245429939249
 20
393.841378207818
 30
0.0
 11
463.2492959905384
 21
391.9546916914573
 31
0.0
  0
LINE
  5
3452
330
1A
100
AcDbEntity
  8
SEIHIN
100
AcDbLine
 10
461.3006104218957
 20
386.2662743592179
 30
0.0
 11
440.3867371532819
 21
386.2662743592205
 31
0.0
  0
ELLIPSE
  5
3453
330
1A
100
AcDbEntity
  8
SEIHIN
100
AcDbEllipse
 10
462.4900566651574
 20
386.2658722478052
 30
0.0
 11
-0.0000000000007048
 21
-5.764780640991319
 31
0.0
210
0.0
220
0.0
230
1.0
 40
0.4032798122443961
 41
9.587294492323417
 42
10.99557428756427
  0
ARC
  5
345D
330
1A
100
AcDbEntity
  8
SEIHIN
100
AcDbCircle
 10
399.3527261637853
 20
215.2276211937688
 30
0.0
 40
30.00000000025675
100
AcDbArc
 50
89.99999571079456
 51
134.4052601451326
  0
ARC
  5
345E
330
1A
100
AcDbEntity
  8
SEIHIN
100
AcDbCircle
 10
399.3527261637347
 20
215.2276211940257
 30
0.0
 40
26.49999999999984
100
AcDbArc
 50
90.00000332730179
 51
134.4052601452988
  0
ARC
  5
345F
330
1A
100
AcDbEntity
  8
SEIHIN
100
AcDbCircle
 10
288.1454247338825
 20
224.6919214253848
 30
0.0
 40
13.49999999974062
100
AcDbArc
 50
48.26575860564119
 51
90.00000000020287
  0
ARC
  5
3461
330
1A
100
AcDbEntity
  8
SEIHIN
100
AcDbCircle
 10
291.1022754305631
 20
222.191921425291
 30
0.0
 40
9.999999999834484
100
AcDbArc
 50
51.30559416554631
 51
90.00000000016154
  0
ARC
  5
3462
330
1A
100
AcDbEntity
  8
SEIHIN
100
AcDbCircle
 10
274.8767832302349
 20
244.6919214251256
 30
0.0
 40
0.4999999999999432
100
AcDbArc
 50
340.7099537807909
 51
90.00000000000648
  0
ARC
  5
3464
330
1A
100
AcDbEntity
  8
SEIHIN
100
AcDbCircle
 10
274.5815237327349
 20
238.9419214251255
 30
0.0
 40
6.75000000000001
100
AcDbArc
 50
112.1916065662972
 51
270.0
  0
ARC
  5
3465
330
1A
100
AcDbEntity
  8
SEIHIN
100
AcDbCircle
 10
274.7315237327347
 20
228.1919214251255
 30
0.0
 40
4.0
100
AcDbArc
 50
297.8966750511009
 51
89.9999999999992
  0
ARC
  5
3466
330
1A
100
AcDbEntity
  8
SEIHIN
100
AcDbCircle
 10
283.2315237327348
 20
231.1919214251255
 30
0.0
 40
1.000000000000028
100
AcDbArc
 50
90.0
 51
179.9999999999983
  0
ARC
  5
3467
330
1A
100
AcDbEntity
  8
SEIHIN
100
AcDbCircle
 10
296.3232141591347
 20
204.3919214251256
 30
0.0
 40
13.50000000000001
100
AcDbArc
 50
56.57581331630187
 51
90.00000242170107
  0
ARC
  5
3468
330
1A
100
AcDbEntity
  8
SEIHIN
100
AcDbCircle
 10
296.3232141591345
 20
204.3919214251249
 30
0.0
 40
10.00000000000066
100
AcDbArc
 50
56.57581062900365
 51
89.99999502156825
  0
ARC
  5
3469
330
1A
100
AcDbEntity
  8
SEIHIN
100
AcDbCircle
 10
367.9315237327349
 20
312.891921425126
 30
0.0
 40
116.5000000000004
100
AcDbArc
 50
236.5758103176016
 51
269.9999985869013
  0
ARC
  5
346A
330
1A
100
AcDbEntity
  8
SEIHIN
100
AcDbCircle
 10
367.9315237327349
 20
312.8919214251256
 30
0.0
 40
120.0000000000001
100
AcDbArc
 50
236.5758105273017
 51
269.9999985405809
  0
ARC
  5
346B
330
1A
100
AcDbEntity
  8
SEIHIN
100
AcDbCircle
 10
392.0654983290349
 20
198.3919214251255
 30
0.0
 40
0.5000000000000285
100
AcDbArc
 50
330.0000149929025
 51
90.0
  0
ARC
  5
346C
330
1A
100
AcDbEntity
  8
SEIHIN
100
AcDbCircle
 10
385.583136419235
 20
199.3919214251256
 30
0.0
 40
0.5000000000000555
100
AcDbArc
 50
165.0000000000072
 51
269.9999999999934
  0
ARC
  5
346D
330
1A
100
AcDbEntity
  8
SEIHIN
100
AcDbCircle
 10
393.3232949440349
 20
210.8919214251255
 30
0.0
 40
5.000000000000028
100
AcDbArc
 50
90.00000000000063
 51
165.0000045756994
  0
ARC
  5
346E
330
1A
100
AcDbEntity
  8
SEIHIN
100
AcDbCircle
 10
393.3232949440347
 20
210.8919214251255
 30
0.0
 40
8.500000000000019
100
AcDbArc
 50
90.00000388069889
 51
164.999999999753
  0
ARC
  5
346F
330
1A
100
AcDbEntity
  8
SEIHIN
100
AcDbCircle
 10
402.0226237613303
 20
204.7235964035354
 30
0.0
 40
3.000000000134923
100
AcDbArc
 50
3.532294585734083
 51
53.13010235363623
  0
ARC
  5
3470
330
1A
100
AcDbEntity
  8
SEIHIN
100
AcDbCircle
 10
397.9315237327348
 20
212.8919214251256
 30
0.0
 40
2.999999999999976
100
AcDbArc
 50
0.0000085364999265
 51
90.0
  0
ARC
  5
3472
330
1A
100
AcDbEntity
  8
SEIHIN
100
AcDbCircle
 10
399.6380561858348
 20
210.8919214251256
 30
0.0
 40
8.5
100
AcDbArc
 50
3.53229458390011
 51
90.00000000000031
  0
ARC
  5
3473
330
1A
100
AcDbEntity
  8
SEIHIN
100
AcDbCircle
 10
399.6380561858348
 20
210.8919214251256
 30
0.0
 40
5.0
100
AcDbArc
 50
3.53229458390027
 51
90.0
  0
ARC
  5
347A
330
1A
100
AcDbEntity
  8
SEIHIN
100
AcDbCircle
 10
405.9315237327342
 20
192.2780712306253
 30
0.0
 40
2.999999999999374
100
AcDbArc
 50
179.9999999999962
 51
219.8055777680059
  0
ARC
  5
347B
330
1A
100
AcDbEntity
  8
SEIHIN
100
AcDbCircle
 10
405.9315237320711
 20
194.1057716197419
 30
0.0
 40
2.999999999336298
100
AcDbArc
 50
140.1944236020641
 51
180.0000000022222
  0
ARC
  5
347C
330
1A
100
AcDbEntity
  8
SEIHIN
100
AcDbCircle
 10
447.5872518227347
 20
192.6919214251255
 30
0.0
 40
1.0
100
AcDbArc
 50
270.0000000000032
 51
26.56505117709837
  0
ARC
  5
347D
330
1A
100
AcDbEntity
  8
SEIHIN
100
AcDbCircle
 10
449.1011838451918
 20
185.1919214249745
 30
0.0
 40
3.000000000151004
100
AcDbArc
 50
26.56505117929098
 51
89.99999999918042
  0
ARC
  5
347E
330
1A
100
AcDbEntity
  8
SEIHIN
100
AcDbCircle
 10
416.4235376787602
 20
233.7276211937489
 30
0.0
 40
8.000000000276628
100
AcDbArc
 50
29.64612304866594
 51
89.99999999946545
  0
LINE
  5
3487
330
1A
100
AcDbEntity
  8
SUNPOU
100
AcDbLine
 10
624.4432340847167
 20
323.0673008377697
 30
0.0
 11
631.5197314756851
 21
358.07309720408
 31
0.0
1001
ACAD
1000
DSTYLE
1002
{
1070
     6
1000
OPEN
1070
    41
1040
7.0
1070
    42
1040
6.0
1070
    43
1040
14.0
1070
    44
1040
3.0
1070
    73
1070
     0
1070
    74
1070
     0
1070
    77
1070
     0
1070
   140
1040
6.0
1070
   141
1040
150.0
1070
   147
1040
2.0
1070
   172
1070
     1
1070
   173
1070
     1
1070
   176
1070
     4
1070
   177
1070
     4
1070
   178
1070
     4
1070
   271
1070
     0
1070
   272
1070
     0
1070
   341
1005
6D
1070
   343
1005
6D
1070
   344
1005
6D
1002
}
  0
LINE
  5
3488
330
1A
100
AcDbEntity
  8
SUNPOU
100
AcDbLine
 10
631.5197314756851
 20
358.07309720408
 30
0.0
 11
666.4923969426354
 21
358.07309720408
 31
0.0
1001
ACAD
1000
DSTYLE
1002
{
1070
     6
1000
OPEN
1070
    41
1040
7.0
1070
    42
1040
6.0
1070
    43
1040
14.0
1070
    44
1040
3.0
1070
    73
1070
     0
1070
    74
1070
     0
1070
    77
1070
     0
1070
   140
1040
6.0
1070
   141
1040
150.0
1070
   147
1040
2.0
1070
   172
1070
     1
1070
   173
1070
     1
1070
   176
1070
     4
1070
   177
1070
     4
1070
   178
1070
     4
1070
   271
1070
     0
1070
   272
1070
     0
1070
   341
1005
6D
1070
   343
1005
6D
1070
   344
1005
6D
1002
}
  0
LINE
  5
3489
330
1A
100
AcDbEntity
  8
SUNPOU
100
AcDbLine
 10
625.586769142484
 20
322.8361327544016
 30
0.0
 11
623.0562255845084
 21
316.2060904911654
 31
0.0
  0
LINE
  5
348A
330
1A
100
AcDbEntity
  8
SUNPOU
100
AcDbLine
 10
623.0562255845084
 20
316.2060904911654
 30
0.0
 11
623.2996990269493
 21
323.2984689211377
 31
0.0
  0
LINE
  5
348B
330
1A
100
AcDbEntity
  8
SUNPOU
100
AcDbLine
 10
623.0562255845084
 20
316.2060904911654
 30
0.0
 11
624.4432340847167
 21
323.0673008377697
 31
0.0
  0
VIEWPORT
  5
22
330
17
100
AcDbEntity
 67
     1
  8
0
100
AcDbViewport
 10
313.6808219178082
 20
148.5
 30
0.0
 40
627.3616438356165
 41
297.0
 68
     2
 69
     1
1001
ACAD
1000
MVIEW
1002
{
1070
    16
1010
0.0
1020
0.0
1030
0.0
1010
0.0
1020
0.0
1030
1.0
1040
0.0
1040
297.0
1040
313.6808219178082
1040
148.5
1040
50.0
1040
0.0
1040
0.0
1070
     0
1070
   100
1070
     1
1070
     0
1070
     0
1070
     0
1070
     0
1070
     0
1040
0.0
1040
0.0
1040
0.0
1040
1.0
1040
1.0
1040
10.0
1040
10.0
1070
     0
1002
{
1002
}
1002
}
  0
VIEWPORT
  5
64
330
17
100
AcDbEntity
 67
     1
  8
VIEWPORT
100
AcDbViewport
 10
210.0
 20
148.5
 30
0.0
 40
420.0
 41
297.0
 68
     1
 69
     2
1001
ACAD
1000
MVIEW
1002
{
1070
    16
1010
0.0
1020
0.0
1030
0.0
1010
0.0
1020
0.0
1030
1.0
1040
0.0
1040
605.8799999999998
1040
420.0
1040
297.0
1040
50.0
1040
0.0
1040
0.0
1070
     0
1070
   100
1070
     1
1070
     0
1070
     0
1070
     0
1070
     0
1070
     0
1040
0.0
1040
0.0
1040
0.0
1040
10.0
1040
10.0
1040
0.0
1040
0.0
1070
     0
1002
{
1002
}
1002
}
  0
ENDSEC
  0
SECTION
  2
OBJECTS
  0
DICTIONARY
  5
C
330
0
100
AcDbDictionary
  3
ACAD_GROUP
350
D
  3
ACAD_LAYOUT
350
1EE2
  3
ACAD_MLINESTYLE
350
E
  3
ACAD_PLOTSETTINGS
350
1EE3
  3
ACAD_PLOTSTYLENAME
350
1EE0
  3
ACDBHEADERROUNDTRIPXREC
350
348D
  0
DICTIONARY
  5
21D3
330
1A
100
AcDbDictionary
280
     1
  3
ACAD_LAYOUTSELFREF
360
34AF
  0
DICTIONARY
  5
21D1
330
17
100
AcDbDictionary
280
     1
  3
ACAD_LAYOUTSELFREF
360
34AE
  0
DICTIONARY
  5
D
102
{ACAD_REACTORS
330
C
102
}
330
C
100
AcDbDictionary
  0
DICTIONARY
  5
1EE2
102
{ACAD_REACTORS
330
C
102
}
330
C
100
AcDbDictionary
  0
DICTIONARY
  5
E
102
{ACAD_REACTORS
330
C
102
}
330
C
100
AcDbDictionary
  3
STANDARD
350
13
  0
DICTIONARY
  5
1EE3
102
{ACAD_REACTORS
330
C
102
}
330
C
100
AcDbDictionary
  0
ACDBDICTIONARYWDFLT
  5
1EE0
102
{ACAD_REACTORS
330
C
102
}
330
C
100
AcDbDictionary
281
     1
  3
Normal
350
1EE1
100
AcDbDictionaryWithDefault
340
1EE1
1001
ACAD
1000
TREAT_AS_HARD
1070
     0
1000
TREAT_AS_HARD
1070
     0
1000
TREAT_AS_HARD
1070
     0
  0
DICTIONARY
  5
348D
102
{ACAD_REACTORS
330
C
102
}
330
C
100
AcDbDictionary
  3
TSTACKALIGN
350
348E
  3
TSTACKSIZE
350
348F
  3
HYPERLINKBASE
350
3490
  3
STYLESHEET
350
3491
  3
LAYOUTDICT
350
3492
  3
PLOTSETDICT
350
3493
  3
PLOTSTYLNAMDICT
350
3494
  3
LWETCUNION
350
3495
  3
INSUNITS
350
3496
  3
CEPSNTYPE
350
3497
  3
FINGERPRINTGUID
350
3498
  3
VERSIONGUID
350
3499
  3
PSVPSCALE
350
349A
  3
DIMSTYLEDATA
350
349B
  3
PUCSORTHOREF
350
349C
  3
PUCSORTHOVIEW
350
349D
  3
PUCSBASE
350
349E
  3
PUCSORGTOP
350
349F
  3
PUCSORGBOTTOM
350
34A0
  3
PUCSORGLEFT
350
34A1
  3
PUCSORGRIGHT
350
34A2
  3
PUCSORGFRONT
350
34A3
  3
PUCSORGBACK
350
34A4
  3
UCSORTHOREF
350
34A5
  3
UCSORTHOVIEW
350
34A6
  3
UCSBASE
350
34A7
  3
UCSORGTOP
350
34A8
  3
UCSORGBOTTOM
350
34A9
  3
UCSORGLEFT
350
34AA
  3
UCSORGRIGHT
350
34AB
  3
UCSORGFRONT
350
34AC
  3
UCSORGBACK
350
34AD
  0
XRECORD
  5
34AF
102
{ACAD_REACTORS
330
21D3
102
}
330
21D3
100
AcDbXrecord
340
1A
  0
XRECORD
  5
34AE
102
{ACAD_REACTORS
330
21D1
102
}
330
21D1
100
AcDbXrecord
340
17
  0
MLINESTYLE
  5
13
102
{ACAD_REACTORS
330
E
102
}
330
E
100
AcDbMlineStyle
  2
STANDARD
 70
     0
  3

 62
     0
 51
90.0
 52
90.0
 71
     2
 49
0.5
 62
   256
  6
BYLAYER
 49
-0.5
 62
   256
  6
BYLAYER
  0
ACDBPLACEHOLDER
  5
1EE1
102
{ACAD_REACTORS
330
1EE0
102
}
330
1EE0
100
AcDbPlaceHolder
280
     0
  0
XRECORD
  5
348E
102
{ACAD_REACTORS
330
348D
102
}
330
348D
100
AcDbXrecord
 90
        1
  0
XRECORD
  5
348F
102
{ACAD_REACTORS
330
348D
102
}
330
348D
100
AcDbXrecord
 90
       70
  0
XRECORD
  5
3490
102
{ACAD_REACTORS
330
348D
102
}
330
348D
100
AcDbXrecord
  1

  0
XRECORD
  5
3491
102
{ACAD_REACTORS
330
348D
102
}
330
348D
100
AcDbXrecord
  1

  0
XRECORD
  5
3492
102
{ACAD_REACTORS
330
348D
102
}
330
348D
100
AcDbXrecord
340
1EE2
  0
XRECORD
  5
3493
102
{ACAD_REACTORS
330
348D
102
}
330
348D
100
AcDbXrecord
340
1EE3
  0
XRECORD
  5
3494
102
{ACAD_REACTORS
330
348D
102
}
330
348D
100
AcDbXrecord
340
1EE0
  0
XRECORD
  5
3495
102
{ACAD_REACTORS
330
348D
102
}
330
348D
100
AcDbXrecord
 90
    14877
  0
XRECORD
  5
3496
102
{ACAD_REACTORS
330
348D
102
}
330
348D
100
AcDbXrecord
 90
        0
  0
XRECORD
  5
3497
102
{ACAD_REACTORS
330
348D
102
}
330
348D
100
AcDbXrecord
 90
        0
  0
XRECORD
  5
3498
102
{ACAD_REACTORS
330
348D
102
}
330
348D
100
AcDbXrecord
  1
{0DEA2EBC-E092-4E6E-AA34-81DD97F6DFFC}
  0
XRECORD
  5
3499
102
{ACAD_REACTORS
330
348D
102
}
330
348D
100
AcDbXrecord
  1
{CEC9F876-A1EA-4B0F-ADDD-6300C097B40A}
  0
XRECORD
  5
349A
102
{ACAD_REACTORS
330
348D
102
}
330
348D
100
AcDbXrecord
 40
0.0
  0
XRECORD
  5
349B
102
{ACAD_REACTORS
330
348D
102
}
330
348D
100
AcDbXrecord
1000
DSTYLE
1002
{
1070
   341
340
6D
1070
   343
340
6D
1070
   344
340
6D
1070
   371
 70
    -1
1070
   372
 70
    -1
1002
}
  0
XRECORD
  5
349C
102
{ACAD_REACTORS
330
348D
102
}
330
348D
100
AcDbXrecord
340
0
  0
XRECORD
  5
349D
102
{ACAD_REACTORS
330
348D
102
}
330
348D
100
AcDbXrecord
 70
     0
  0
XRECORD
  5
349E
102
{ACAD_REACTORS
330
348D
102
}
330
348D
100
AcDbXrecord
340
0
  0
XRECORD
  5
349F
102
{ACAD_REACTORS
330
348D
102
}
330
348D
100
AcDbXrecord
 10
0.0
 20
0.0
 30
0.0
  0
XRECORD
  5
34A0
102
{ACAD_REACTORS
330
348D
102
}
330
348D
100
AcDbXrecord
 10
0.0
 20
0.0
 30
0.0
  0
XRECORD
  5
34A1
102
{ACAD_REACTORS
330
348D
102
}
330
348D
100
AcDbXrecord
 10
0.0
 20
0.0
 30
0.0
  0
XRECORD
  5
34A2
102
{ACAD_REACTORS
330
348D
102
}
330
348D
100
AcDbXrecord
 10
0.0
 20
0.0
 30
0.0
  0
XRECORD
  5
34A3
102
{ACAD_REACTORS
330
348D
102
}
330
348D
100
AcDbXrecord
 10
0.0
 20
0.0
 30
0.0
  0
XRECORD
  5
34A4
102
{ACAD_REACTORS
330
348D
102
}
330
348D
100
AcDbXrecord
 10
0.0
 20
0.0
 30
0.0
  0
XRECORD
  5
34A5
102
{ACAD_REACTORS
330
348D
102
}
330
348D
100
AcDbXrecord
340
0
  0
XRECORD
  5
34A6
102
{ACAD_REACTORS
330
348D
102
}
330
348D
100
AcDbXrecord
 70
     0
  0
XRECORD
  5
34A7
102
{ACAD_REACTORS
330
348D
102
}
330
348D
100
AcDbXrecord
340
0
  0
XRECORD
  5
34A8
102
{ACAD_REACTORS
330
348D
102
}
330
348D
100
AcDbXrecord
 10
0.0
 20
0.0
 30
0.0
  0
XRECORD
  5
34A9
102
{ACAD_REACTORS
330
348D
102
}
330
348D
100
AcDbXrecord
 10
0.0
 20
0.0
 30
0.0
  0
XRECORD
  5
34AA
102
{ACAD_REACTORS
330
348D
102
}
330
348D
100
AcDbXrecord
 10
0.0
 20
0.0
 30
0.0
  0
XRECORD
  5
34AB
102
{ACAD_REACTORS
330
348D
102
}
330
348D
100
AcDbXrecord
 10
0.0
 20
0.0
 30
0.0
  0
XRECORD
  5
34AC
102
{ACAD_REACTORS
330
348D
102
}
330
348D
100
AcDbXrecord
 10
0.0
 20
0.0
 30
0.0
  0
XRECORD
  5
34AD
102
{ACAD_REACTORS
330
348D
102
}
330
348D
100
AcDbXrecord
 10
0.0
 20
0.0
 30
0.0
  0
ENDSEC
  0
EOF
