  0
SECTION
  2
HEADER
  9
$ACADVER
  1
AC1014
  9
$ACADMAINTVER
 70
     9
  9
$DWGCODEPAGE
  3
ANSI_932
  9
$INSBASE
 10
0.0
 20
0.0
 30
0.0
  9
$EXTMIN
 10
0.0000011988399819
 20
-0.0000006495212119
 30
-0.00000001
  9
$EXTMAX
 10
797.60000119884
 20
551.5999993504789
 30
0.00000001
  9
$LIMMIN
 10
0.0
 20
0.0
  9
$LIMMAX
 10
840.0
 20
594.0
  9
$ORTHOMODE
 70
     0
  9
$REGENMODE
 70
     1
  9
$FILLMODE
 70
     1
  9
$QTEXTMODE
 70
     0
  9
$MIRRTEXT
 70
     1
  9
$DRAGMODE
 70
     2
  9
$LTSCALE
 40
2.0
  9
$OSMODE
 70
    35
  9
$ATTMODE
 70
     1
  9
$TEXTSIZE
 40
5.0
  9
$TRACEWID
 40
1.0
  9
$TEXTSTYLE
  7
STANDARD
  9
$CLAYER
  8
SUNPOU
  9
$CELTYPE
  6
BYLAYER
  9
$CECOLOR
 62
   256
  9
$CELTSCALE
 40
1.0
  9
$DELOBJ
 70
     1
  9
$DISPSILH
 70
     0
  9
$DIMSCALE
 40
1.0
  9
$DIMASZ
 40
7.0
  9
$DIMEXO
 40
6.0
  9
$DIMDLI
 40
14.0
  9
$DIMRND
 40
0.0
  9
$DIMDLE
 40
0.0
  9
$DIMEXE
 40
3.0
  9
$DIMTP
 40
0.0
  9
$DIMTM
 40
0.0
  9
$DIMTXT
 40
6.0
  9
$DIMCEN
 40
150.0
  9
$DIMTSZ
 40
0.0
  9
$DIMTOL
 70
     0
  9
$DIMLIM
 70
     0
  9
$DIMTIH
 70
     0
  9
$DIMTOH
 70
     0
  9
$DIMSE1
 70
     0
  9
$DIMSE2
 70
     0
  9
$DIMTAD
 70
     3
  9
$DIMZIN
 70
     0
  9
$DIMBLK
  1

  9
$DIMASO
 70
     1
  9
$DIMSHO
 70
     1
  9
$DIMPOST
  1

  9
$DIMAPOST
  1

  9
$DIMALT
 70
     0
  9
$DIMALTD
 70
     2
  9
$DIMALTF
 40
25.4
  9
$DIMLFAC
 40
1.0
  9
$DIMTOFL
 70
     1
  9
$DIMTVP
 40
0.0
  9
$DIMTIX
 70
     0
  9
$DIMSOXD
 70
     0
  9
$DIMSAH
 70
     1
  9
$DIMBLK1
  1
OPEN
  9
$DIMBLK2
  1
OPEN
  9
$DIMSTYLE
  2
STANDARD
  9
$DIMCLRD
 70
   256
  9
$DIMCLRE
 70
   256
  9
$DIMCLRT
 70
   256
  9
$DIMTFAC
 40
1.0
  9
$DIMGAP
 40
2.0
  9
$DIMJUST
 70
     0
  9
$DIMSD1
 70
     0
  9
$DIMSD2
 70
     0
  9
$DIMTOLJ
 70
     1
  9
$DIMTZIN
 70
     0
  9
$DIMALTZ
 70
     0
  9
$DIMALTTZ
 70
     0
  9
$DIMFIT
 70
     3
  9
$DIMUPT
 70
     0
  9
$DIMUNIT
 70
     2
  9
$DIMDEC
 70
     0
  9
$DIMTDEC
 70
     0
  9
$DIMALTU
 70
     2
  9
$DIMALTTD
 70
     2
  9
$DIMTXSTY
  7
STANDARD
  9
$DIMAUNIT
 70
     0
  9
$LUNITS
 70
     2
  9
$LUPREC
 70
     4
  9
$SKETCHINC
 40
1.0
  9
$FILLETRAD
 40
20.0
  9
$AUNITS
 70
     0
  9
$AUPREC
 70
     0
  9
$MENU
  1
.
  9
$ELEVATION
 40
0.0
  9
$PELEVATION
 40
0.0
  9
$THICKNESS
 40
0.0
  9
$LIMCHECK
 70
     0
  9
$BLIPMODE
 70
     0
  9
$CHAMFERA
 40
0.0
  9
$CHAMFERB
 40
0.0
  9
$CHAMFERC
 40
40.0
  9
$CHAMFERD
 40
0.0
  9
$SKPOLY
 70
     0
  9
$TDCREATE
 40
2450994.354346065
  9
$TDUPDATE
 40
2453504.393697916
  9
$TDINDWG
 40
0.0407892593
  9
$TDUSRTIMER
 40
0.0407892593
  9
$USRTIMER
 70
     1
  9
$ANGBASE
 50
0.0
  9
$ANGDIR
 70
     0
  9
$PDMODE
 70
     1
  9
$PDSIZE
 40
0.0
  9
$PLINEWID
 40
0.0
  9
$COORDS
 70
     1
  9
$SPLFRAME
 70
     0
  9
$SPLINETYPE
 70
     6
  9
$SPLINESEGS
 70
     8
  9
$ATTDIA
 70
     0
  9
$ATTREQ
 70
     1
  9
$HANDLING
 70
 10241
  9
$HANDSEED
  5
2886
  9
$SURFTAB1
 70
     6
  9
$SURFTAB2
 70
     6
  9
$SURFTYPE
 70
     6
  9
$SURFU
 70
     6
  9
$SURFV
 70
     6
  9
$UCSNAME
  2

  9
$UCSORG
 10
0.0
 20
0.0
 30
0.0
  9
$UCSXDIR
 10
1.0
 20
0.0
 30
0.0
  9
$UCSYDIR
 10
0.0
 20
1.0
 30
0.0
  9
$PUCSNAME
  2

  9
$PUCSORG
 10
0.0
 20
0.0
 30
0.0
  9
$PUCSXDIR
 10
1.0
 20
0.0
 30
0.0
  9
$PUCSYDIR
 10
0.0
 20
1.0
 30
0.0
  9
$USERI1
 70
     0
  9
$USERI2
 70
     0
  9
$USERI3
 70
     0
  9
$USERI4
 70
     0
  9
$USERI5
 70
     0
  9
$USERR1
 40
0.0
  9
$USERR2
 40
0.0
  9
$USERR3
 40
0.0
  9
$USERR4
 40
0.0
  9
$USERR5
 40
0.0
  9
$WORLDVIEW
 70
     1
  9
$SHADEDGE
 70
     3
  9
$SHADEDIF
 70
    70
  9
$TILEMODE
 70
     1
  9
$MAXACTVP
 70
    16
  9
$PINSBASE
 10
0.0
 20
0.0
 30
0.0
  9
$PLIMCHECK
 70
     0
  9
$PEXTMIN
 10
0.0
 20
0.0
 30
0.0
  9
$PEXTMAX
 10
420.0
 20
297.0
 30
0.0
  9
$PLIMMIN
 10
0.0
 20
0.0
  9
$PLIMMAX
 10
420.0
 20
297.0
  9
$UNITMODE
 70
     0
  9
$VISRETAIN
 70
     0
  9
$PLINEGEN
 70
     0
  9
$PSLTSCALE
 70
     1
  9
$TREEDEPTH
 70
  3020
  9
$PICKSTYLE
 70
     1
  9
$CMLSTYLE
  2
STANDARD
  9
$CMLJUST
 70
     0
  9
$CMLSCALE
 40
1.0
  9
$PROXYGRAPHICS
 70
     1
  9
$MEASUREMENT
 70
     1
  0
ENDSEC
  0
SECTION
  2
CLASSES
  0
CLASS
  1
XRECORD
  2
AcDbXrecord
  3
AutoCAD 2000
 90
        0
280
     0
281
     0
  0
CLASS
  1
ACDBDICTIONARYWDFLT
  2
AcDbDictionaryWithDefault
  3
AutoCAD 2000
 90
        0
280
     0
281
     0
  0
CLASS
  1
ACDBPLACEHOLDER
  2
AcDbPlaceHolder
  3
AutoCAD 2000
 90
        0
280
     0
281
     0
  0
CLASS
  1
LAYOUT
  2
AcDbLayout
  3
AutoCAD 2000
 90
        0
280
     0
281
     0
  0
CLASS
  1
LONG_TRANSACTION
  2
AcDbLongTransaction
  3
AutoCAD 2000
 90
        0
280
     0
281
     0
  0
CLASS
  1
LWPOLYLINE
  2
AcDbPolyline
  3
AutoCAD 2000
 90
        0
280
     0
281
     1
  0
CLASS
  1
HATCH
  2
AcDbHatch
  3
AutoCAD 2000
 90
        0
280
     0
281
     1
  0
CLASS
  1
XRECORD
  2
AcDbXrecord
  3
AutoCAD 2000
 90
        0
280
     0
281
     0
  0
CLASS
  1
LONG_TRANSACTION
  2
AcDbLongTransaction
  3
AutoCAD 2000
 90
        0
280
     0
281
     0
  0
CLASS
  1
LWPOLYLINE
  2
AcDbPolyline
  3
AutoCAD 2000
 90
        0
280
     0
281
     1
  0
CLASS
  1
HATCH
  2
AcDbHatch
  3
AutoCAD 2000
 90
        0
280
     0
281
     1
  0
CLASS
  1
XRECORD
  2
AcDbXrecord
  3
AutoCAD 2000
 90
        0
280
     0
281
     0
  0
CLASS
  1
LONG_TRANSACTION
  2
AcDbLongTransaction
  3
AutoCAD 2000
 90
        0
280
     0
281
     0
  0
CLASS
  1
LWPOLYLINE
  2
AcDbPolyline
  3
AutoCAD 2000
 90
        0
280
     0
281
     1
  0
CLASS
  1
HATCH
  2
AcDbHatch
  3
AutoCAD 2000
 90
        0
280
     0
281
     1
  0
CLASS
  1
XRECORD
  2
AcDbXrecord
  3
AutoCAD 2000
 90
        0
280
     0
281
     0
  0
CLASS
  1
LONG_TRANSACTION
  2
AcDbLongTransaction
  3
AutoCAD 2000
 90
        0
280
     0
281
     0
  0
CLASS
  1
LWPOLYLINE
  2
AcDbPolyline
  3
AutoCAD 2000
 90
        0
280
     0
281
     1
  0
CLASS
  1
HATCH
  2
AcDbHatch
  3
AutoCAD 2000
 90
        0
280
     0
281
     1
  0
CLASS
  1
XRECORD
  2
AcDbXrecord
  3
AutoCAD 2000
 90
        0
280
     0
281
     0
  0
ENDSEC
  0
SECTION
  2
TABLES
  0
TABLE
  2
VPORT
  5
8
330
0
100
AcDbSymbolTable
 70
     3
  0
VPORT
  5
2862
330
8
100
AcDbSymbolTableRecord
100
AcDbViewportTableRecord
  2
*ACTIVE
 70
     0
 10
0.0
 20
0.0
 11
1.0
 21
1.0
 12
403.4767923016876
 22
277.0201504109446
 13
0.0
 23
0.0
 14
5.0
 24
5.0
 15
0.0
 25
0.0
 16
0.0
 26
0.0
 36
1.0
 17
0.0
 27
0.0
 37
0.0
 40
637.8645446103671
 41
1.752310536044362
 42
50.0
 43
0.0
 44
0.0
 50
0.0
 51
0.0
 71
     0
 72
   100
 73
     1
 74
     0
 75
     0
 76
     0
 77
     0
 78
     0
  0
ENDTAB
  0
TABLE
  2
LTYPE
  5
5
330
0
100
AcDbSymbolTable
 70
     3
  0
LTYPE
  5
14
330
5
100
AcDbSymbolTableRecord
100
AcDbLinetypeTableRecord
  2
BYBLOCK
 70
     0
  3

 72
    65
 73
     0
 40
0.0
  0
LTYPE
  5
15
330
5
100
AcDbSymbolTableRecord
100
AcDbLinetypeTableRecord
  2
BYLAYER
 70
     0
  3

 72
    65
 73
     0
 40
0.0
  0
LTYPE
  5
16
330
5
100
AcDbSymbolTableRecord
100
AcDbLinetypeTableRecord
  2
CONTINUOUS
 70
     0
  3
Solid line
 72
    65
 73
     0
 40
0.0
  0
LTYPE
  5
135
330
5
100
AcDbSymbolTableRecord
100
AcDbLinetypeTableRecord
  2
CENTER
 70
     0
  3
____ _ ____ _ ____ _ ____ _ ____ _ ____ _ ____ 
 72
    65
 73
     4
 40
2.0
 49
1.25
 74
     0
 49
-0.25
 74
     0
 49
0.25
 74
     0
 49
-0.25
 74
     0
  0
LTYPE
  5
1517
330
5
100
AcDbSymbolTableRecord
100
AcDbLinetypeTableRecord
  2
PHANTOM
 70
     0
  3
______  __  __  ______  __  __  ______  __  __ 
 72
    65
 73
     6
 40
2.5
 49
1.25
 74
     0
 49
-0.25
 74
     0
 49
0.25
 74
     0
 49
-0.25
 74
     0
 49
0.25
 74
     0
 49
-0.25
 74
     0
  0
ENDTAB
  0
TABLE
  2
LAYER
  5
2
330
0
100
AcDbSymbolTable
 70
     9
  0
LAYER
  5
F
330
2
100
AcDbSymbolTableRecord
100
AcDbLayerTableRecord
  2
0
 70
     0
 62
     7
  6
CONTINUOUS
  0
LAYER
  5
62
330
2
100
AcDbSymbolTableRecord
100
AcDbLayerTableRecord
  2
VIEWPORT
 70
     0
 62
     7
  6
CONTINUOUS
  0
LAYER
  5
65
330
2
100
AcDbSymbolTableRecord
100
AcDbLayerTableRecord
  2
ZUWAKU
 70
     0
 62
     7
  6
CONTINUOUS
  0
LAYER
  5
159
330
2
100
AcDbSymbolTableRecord
100
AcDbLayerTableRecord
  2
SEIHIN
 70
     0
 62
     3
  6
CONTINUOUS
  0
LAYER
  5
15A
330
2
100
AcDbSymbolTableRecord
100
AcDbLayerTableRecord
  2
SUNPOU
 70
     0
 62
     4
  6
CONTINUOUS
  0
LAYER
  5
15B
330
2
100
AcDbSymbolTableRecord
100
AcDbLayerTableRecord
  2
CENTER_L
 70
     0
 62
     1
  6
CENTER
  0
LAYER
  5
214
330
2
100
AcDbSymbolTableRecord
100
AcDbLayerTableRecord
  2
DEFPOINTS
 70
     0
 62
     7
  6
CONTINUOUS
  0
LAYER
  5
1519
330
2
100
AcDbSymbolTableRecord
100
AcDbLayerTableRecord
  2
S120
 70
     0
 62
     8
  6
PHANTOM
  0
LAYER
  5
262B
330
2
100
AcDbSymbolTableRecord
100
AcDbLayerTableRecord
  2
MOJI
 70
     0
 62
     2
  6
CONTINUOUS
  0
ENDTAB
  0
TABLE
  2
STYLE
  5
3
330
0
100
AcDbSymbolTable
 70
     2
  0
STYLE
  5
10
330
3
100
AcDbSymbolTableRecord
100
AcDbTextStyleTableRecord
  2
STANDARD
 70
     0
 40
0.0
 41
1.0
 50
0.0
 71
     0
 42
5.0
  3
TXT
  4
bigfont.shx
  0
STYLE
  5
262C
330
3
100
AcDbSymbolTableRecord
100
AcDbTextStyleTableRecord
  2
ｽﾀｲﾙ1
 70
     0
 40
0.0
 41
1.0
 50
0.0
 71
     0
 42
2.5
  3
MS PGothic.ttf
  4

1001
ACAD
1000
MS PGothic
1071
    32818
  0
ENDTAB
  0
TABLE
  2
VIEW
  5
6
330
0
100
AcDbSymbolTable
 70
     0
  0
ENDTAB
  0
TABLE
  2
UCS
  5
7
330
0
100
AcDbSymbolTable
 70
     0
  0
ENDTAB
  0
TABLE
  2
APPID
  5
9
330
0
100
AcDbSymbolTable
 70
     1
  0
APPID
  5
11
330
9
100
AcDbSymbolTableRecord
100
AcDbRegAppTableRecord
  2
ACAD
 70
     0
  0
ENDTAB
  0
TABLE
  2
DIMSTYLE
  5
A
330
0
100
AcDbSymbolTable
 70
     1
  0
DIMSTYLE
105
1D
102
{ACAD_REACTORS
330
FD1
330
FD2
330
FDB
330
FDC
330
FDD
330
1024
330
107E
330
107F
330
108B
330
1090
330
109B
330
10A7
330
10C4
330
10F8
102
}
330
A
100
AcDbSymbolTableRecord
100
AcDbDimStyleTableRecord
  2
STANDARD
 70
     0
  3

  4

  5

  6

  7

 40
1.0
 41
0.18
 42
0.0625
 43
0.38
 44
0.18
 45
0.0
 46
0.0
 47
0.0
 48
0.0
140
0.18
141
0.09
142
0.0
143
25.4
144
1.0
145
0.0
146
1.0
147
0.09
 71
     0
 72
     0
 73
     1
 74
     1
 75
     0
 76
     0
 77
     0
 78
     0
170
     0
171
     2
172
     0
173
     0
174
     0
175
     0
176
     0
177
     0
178
     0
270
     2
271
     4
272
     4
273
     2
274
     2
340
10
275
     0
280
     0
281
     0
282
     0
283
     1
284
     0
285
     0
286
     0
287
     3
288
     0
  0
ENDTAB
  0
TABLE
  2
BLOCK_RECORD
  5
1
330
0
100
AcDbSymbolTable
 70
    15
  0
BLOCK_RECORD
  5
1A
102
{ACAD_XDICTIONARY
360
17EA
102
}
330
1
100
AcDbSymbolTableRecord
100
AcDbBlockTableRecord
  2
*MODEL_SPACE
  0
BLOCK_RECORD
  5
17
102
{ACAD_XDICTIONARY
360
17E8
102
}
330
1
100
AcDbSymbolTableRecord
100
AcDbBlockTableRecord
  2
*PAPER_SPACE
  0
BLOCK_RECORD
  5
6D
330
1
100
AcDbSymbolTableRecord
100
AcDbBlockTableRecord
  2
_OPEN
  0
BLOCK_RECORD
  5
13AF
330
1
100
AcDbSymbolTableRecord
100
AcDbBlockTableRecord
  2
*D1
  0
BLOCK_RECORD
  5
13BB
330
1
100
AcDbSymbolTableRecord
100
AcDbBlockTableRecord
  2
*D2
  0
BLOCK_RECORD
  5
13C9
330
1
100
AcDbSymbolTableRecord
100
AcDbBlockTableRecord
  2
*D3
  0
BLOCK_RECORD
  5
13D7
330
1
100
AcDbSymbolTableRecord
100
AcDbBlockTableRecord
  2
*D4
  0
BLOCK_RECORD
  5
13E3
330
1
100
AcDbSymbolTableRecord
100
AcDbBlockTableRecord
  2
*D5
  0
BLOCK_RECORD
  5
13EF
330
1
100
AcDbSymbolTableRecord
100
AcDbBlockTableRecord
  2
*D6
  0
BLOCK_RECORD
  5
13FD
330
1
100
AcDbSymbolTableRecord
100
AcDbBlockTableRecord
  2
*D7
  0
BLOCK_RECORD
  5
140B
330
1
100
AcDbSymbolTableRecord
100
AcDbBlockTableRecord
  2
*D8
  0
BLOCK_RECORD
  5
1417
330
1
100
AcDbSymbolTableRecord
100
AcDbBlockTableRecord
  2
*D9
  0
BLOCK_RECORD
  5
1425
330
1
100
AcDbSymbolTableRecord
100
AcDbBlockTableRecord
  2
*D10
  0
BLOCK_RECORD
  5
1433
330
1
100
AcDbSymbolTableRecord
100
AcDbBlockTableRecord
  2
*D11
  0
BLOCK_RECORD
  5
143F
330
1
100
AcDbSymbolTableRecord
100
AcDbBlockTableRecord
  2
*D12
  0
BLOCK_RECORD
  5
144B
330
1
100
AcDbSymbolTableRecord
100
AcDbBlockTableRecord
  2
*D13
  0
BLOCK_RECORD
  5
1457
330
1
100
AcDbSymbolTableRecord
100
AcDbBlockTableRecord
  2
*D14
  0
ENDTAB
  0
ENDSEC
  0
SECTION
  2
BLOCKS
  0
BLOCK
  5
1B
330
1A
100
AcDbEntity
  8
0
100
AcDbBlockBegin
  2
*MODEL_SPACE
 70
     0
 10
0.0
 20
0.0
 30
0.0
  3
*MODEL_SPACE
  1

  0
ENDBLK
  5
1C
330
1A
100
AcDbEntity
  8
0
100
AcDbBlockEnd
  0
BLOCK
  5
18
330
17
100
AcDbEntity
 67
     1
  8
0
100
AcDbBlockBegin
  2
*PAPER_SPACE
 70
     0
 10
0.0
 20
0.0
 30
0.0
  3
*PAPER_SPACE
  1

  0
ENDBLK
  5
19
330
17
100
AcDbEntity
 67
     1
  8
0
100
AcDbBlockEnd
  0
BLOCK
  5
6E
330
6D
100
AcDbEntity
  8
0
100
AcDbBlockBegin
  2
_OPEN
 70
     0
 10
0.0
 20
0.0
 30
0.0
  3
_OPEN
  1

  0
LINE
  5
6F
330
6D
100
AcDbEntity
  8
0
  6
BYBLOCK
 62
     0
100
AcDbLine
 10
-1.0
 20
0.1666666666666666
 30
0.0
 11
0.0
 21
0.0
 31
0.0
  0
LINE
  5
70
330
6D
100
AcDbEntity
  8
0
  6
BYBLOCK
 62
     0
100
AcDbLine
 10
0.0
 20
0.0
 30
0.0
 11
-1.0
 21
-0.1666666666666666
 31
0.0
  0
LINE
  5
71
330
6D
100
AcDbEntity
  8
0
  6
BYBLOCK
 62
     0
100
AcDbLine
 10
0.0
 20
0.0
 30
0.0
 11
-1.0
 21
0.0
 31
0.0
  0
ENDBLK
  5
72
330
6D
100
AcDbEntity
  8
0
100
AcDbBlockEnd
  0
BLOCK
  5
1463
330
13AF
100
AcDbEntity
  8
0
100
AcDbBlockBegin
  2
*D1
 70
     1
 10
0.0
 20
0.0
 30
0.0
  3
*D1
  1

  0
LINE
  5
27F5
330
13AF
100
AcDbEntity
  8
SUNPOU
 62
     4
100
AcDbLine
 10
425.8487294291439
 20
238.8169982621628
 30
0.0
 11
449.0158063842911
 21
252.7172444352614
 31
0.0
  0
LINE
  5
27F6
330
13AF
100
AcDbEntity
  8
SUNPOU
 62
     4
100
AcDbLine
 10
468.1626053136291
 20
168.2938717880728
 30
0.0
 11
491.3296822687764
 21
182.1941179611713
 31
0.0
  0
LINE
  5
27F7
330
13AF
100
AcDbEntity
  8
SUNPOU
 62
     4
100
AcDbLine
 10
450.0447978951487
 20
245.1713066889912
 30
0.0
 11
485.1557332036446
 21
186.6530811748745
 31
0.0
  0
INSERT
  5
27F8
330
13AF
100
AcDbEntity
  8
SUNPOU
 62
     4
100
AcDbBlockReference
  2
_OPEN
 10
446.443327607154
 20
251.1737571689779
 30
0.0
 41
7.0
 42
7.0
 43
7.0
 50
120.9637565320921
  0
INSERT
  5
27F9
330
13AF
100
AcDbEntity
  8
SUNPOU
 62
     4
100
AcDbBlockReference
  2
_OPEN
 10
488.7572034916392
 20
180.6506306948879
 30
0.0
 41
7.0
 42
7.0
 43
7.0
 50
300.9637565320921
  0
MTEXT
  5
27FA
330
13AF
100
AcDbEntity
  8
SUNPOU
 62
     4
100
AcDbMText
 10
471.8877301779586
 20
218.484672709072
 30
0.0
 40
6.0
 41
0.0
 71
     5
 72
     1
  1
\A1;82
 11
0.5144957554278053
 21
-0.857492925712377
 31
0.0
1001
ACAD
1000
MTEXTBEGIN
1070
    73
1070
     1
1070
    44
1040
1.0
1070
    74
1070
     0
1000
MTEXTEND
  0
POINT
  5
27FB
330
13AF
100
AcDbEntity
  8
DEFPOINTS
 62
     0
100
AcDbPoint
 10
420.7037718748696
 20
235.7300237295959
 30
0.0
  0
POINT
  5
27FC
330
13AF
100
AcDbEntity
  8
DEFPOINTS
 62
     0
100
AcDbPoint
 10
463.0176477593549
 20
165.2068972555059
 30
0.0
  0
POINT
  5
27FD
330
13AF
100
AcDbEntity
  8
DEFPOINTS
 62
     0
100
AcDbPoint
 10
488.7572034916392
 20
180.6506306948879
 30
0.0
  0
ENDBLK
  5
146D
330
13AF
100
AcDbEntity
  8
0
100
AcDbBlockEnd
  0
BLOCK
  5
146E
330
13BB
100
AcDbEntity
  8
0
100
AcDbBlockBegin
  2
*D2
 70
     1
 10
0.0
 20
0.0
 30
0.0
  3
*D2
  1

  0
LINE
  5
27B0
330
13BB
100
AcDbEntity
  8
SUNPOU
 62
     4
100
AcDbLine
 10
405.9548935526019
 20
240.8749812838699
 30
0.0
 11
399.7809444874654
 21
251.1648963924202
 31
0.0
  0
LINE
  5
27B1
330
13BB
100
AcDbEntity
  8
SUNPOU
 62
     4
100
AcDbLine
 10
414.529822809725
 20
246.0199388381489
 30
0.0
 11
408.3558737445886
 21
256.3098539466993
 31
0.0
  0
LINE
  5
27B2
330
13BB
100
AcDbEntity
  8
SUNPOU
 62
     4
100
AcDbLine
 10
395.321981273763
 20
244.9909473272879
 30
0.0
 11
389.3195307937768
 21
241.3894770392925
 31
0.0
  0
LINE
  5
27B3
330
13BB
100
AcDbEntity
  8
SUNPOU
 62
     4
100
AcDbLine
 10
415.9018114908585
 20
257.3388454575576
 30
0.0
 11
437.0883060975872
 21
270.0507422216077
 31
0.0
  0
LINE
  5
27B4
330
13BB
100
AcDbEntity
  8
SUNPOU
 62
     4
100
AcDbLine
 10
401.3244317537492
 20
248.5924176152832
 30
0.0
 11
409.8993610108723
 21
253.7373751695623
 31
0.0
  0
INSERT
  5
27B5
330
13BB
100
AcDbEntity
  8
SUNPOU
 62
     4
100
AcDbBlockReference
  2
_OPEN
 10
401.3244317537492
 20
248.5924176152832
 30
0.0
 41
7.0
 42
7.0
 43
7.0
 50
30.96375653209909
  0
INSERT
  5
27B6
330
13BB
100
AcDbEntity
  8
SUNPOU
 62
     4
100
AcDbBlockReference
  2
_OPEN
 10
409.8993610108723
 20
253.7373751695623
 30
0.0
 41
7.0
 42
7.0
 43
7.0
 50
210.963756532099
  0
MTEXT
  5
27B7
330
13BB
100
AcDbEntity
  8
SUNPOU
 62
     4
100
AcDbMText
 10
429.7996162290299
 20
271.5084801953159
 30
0.0
 40
6.0
 41
0.0
 71
     5
 72
     1
  1
\A1;10
 11
0.8574929257123148
 21
0.5144957554279087
 31
0.0
1001
ACAD
1000
MTEXTBEGIN
1070
    73
1070
     1
1070
    44
1040
1.0
1070
    74
1070
     0
1000
MTEXTEND
  0
POINT
  5
27B8
330
13BB
100
AcDbEntity
  8
DEFPOINTS
 62
     0
100
AcDbPoint
 10
409.0418680851693
 20
235.730023729596
 30
0.0
  0
POINT
  5
27B9
330
13BB
100
AcDbEntity
  8
DEFPOINTS
 62
     0
100
AcDbPoint
 10
417.6167973422924
 20
240.874981283875
 30
0.0
  0
POINT
  5
27BA
330
13BB
100
AcDbEntity
  8
DEFPOINTS
 62
     0
100
AcDbPoint
 10
409.8993610108723
 20
253.7373751695623
 30
0.0
  0
ENDBLK
  5
147A
330
13BB
100
AcDbEntity
  8
0
100
AcDbBlockEnd
  0
BLOCK
  5
147B
330
13C9
100
AcDbEntity
  8
0
100
AcDbBlockBegin
  2
*D3
 70
     1
 10
0.0
 20
0.0
 30
0.0
  3
*D3
  1

  0
LINE
  5
27A5
330
13C9
100
AcDbEntity
  8
SUNPOU
 62
     4
100
AcDbLine
 10
394.8178249944767
 20
205.7933429888581
 30
0.0
 11
394.8178249944767
 21
283.7621797143103
 31
0.0
  0
LINE
  5
27A6
330
13C9
100
AcDbEntity
  8
SUNPOU
 62
     4
100
AcDbLine
 10
420.7573651827269
 20
241.7621797143102
 30
0.0
 11
420.7573651827269
 21
283.7621797143103
 31
0.0
  0
LINE
  5
27A7
330
13C9
100
AcDbEntity
  8
SUNPOU
 62
     4
100
AcDbLine
 10
387.8178249944767
 20
280.7621797143103
 30
0.0
 11
380.8178249944767
 21
280.7621797143103
 31
0.0
  0
LINE
  5
27A8
330
13C9
100
AcDbEntity
  8
SUNPOU
 62
     4
100
AcDbLine
 10
427.7573651827269
 20
280.7621797143103
 30
0.0
 11
434.757365182727
 21
280.7621797143103
 31
0.0
  0
LINE
  5
27A9
330
13C9
100
AcDbEntity
  8
SUNPOU
 62
     4
100
AcDbLine
 10
394.8178249944767
 20
280.7621797143103
 30
0.0
 11
420.7573651827269
 21
280.7621797143103
 31
0.0
  0
INSERT
  5
27AA
330
13C9
100
AcDbEntity
  8
SUNPOU
 62
     4
100
AcDbBlockReference
  2
_OPEN
 10
394.8178249944767
 20
280.7621797143103
 30
0.0
 41
7.0
 42
7.0
 43
7.0
  0
INSERT
  5
27AB
330
13C9
100
AcDbEntity
  8
SUNPOU
 62
     4
100
AcDbBlockReference
  2
_OPEN
 10
420.7573651827269
 20
280.7621797143103
 30
0.0
 41
7.0
 42
7.0
 43
7.0
 50
180.0
  0
MTEXT
  5
27AC
330
13C9
100
AcDbEntity
  8
SUNPOU
 62
     4
100
AcDbMText
 10
407.7875950886018
 20
285.7621797143103
 30
0.0
 40
6.0
 41
0.0
 71
     5
 72
     1
  1
\A1;26
1001
ACAD
1000
MTEXTBEGIN
1070
    73
1070
     1
1070
    44
1040
1.0
1070
    74
1070
     0
1000
MTEXTEND
  0
POINT
  5
27AD
330
13C9
100
AcDbEntity
  8
DEFPOINTS
 62
     0
100
AcDbPoint
 10
394.8178249944767
 20
199.7933429888581
 30
0.0
  0
POINT
  5
27AE
330
13C9
100
AcDbEntity
  8
DEFPOINTS
 62
     0
100
AcDbPoint
 10
420.7573651827269
 20
235.7621797143102
 30
0.0
  0
POINT
  5
27AF
330
13C9
100
AcDbEntity
  8
DEFPOINTS
 62
     0
100
AcDbPoint
 10
420.7573651827269
 20
280.7621797143103
 30
0.0
  0
ENDBLK
  5
1487
330
13C9
100
AcDbEntity
  8
0
100
AcDbBlockEnd
  0
BLOCK
  5
1488
330
13D7
100
AcDbEntity
  8
0
100
AcDbBlockBegin
  2
*D4
 70
     1
 10
0.0
 20
0.0
 30
0.0
  3
*D4
  1

  0
LINE
  5
279C
330
13D7
100
AcDbEntity
  8
SUNPOU
 62
     4
100
AcDbLine
 10
259.9183152377768
 20
235.6933429888581
 30
0.0
 11
192.5868551334261
 21
235.6933429888581
 31
0.0
  0
LINE
  5
279D
330
13D7
100
AcDbEntity
  8
SUNPOU
 62
     4
100
AcDbLine
 10
451.0151972792696
 20
161.6054269675961
 30
0.0
 11
192.5868551334261
 21
161.6054269675962
 31
0.0
  0
LINE
  5
279E
330
13D7
100
AcDbEntity
  8
SUNPOU
 62
     4
100
AcDbLine
 10
195.5868551334261
 20
228.6933429888581
 30
0.0
 11
195.586855133426
 21
168.6054269675961
 31
0.0
  0
INSERT
  5
279F
330
13D7
100
AcDbEntity
  8
SUNPOU
 62
     4
100
AcDbBlockReference
  2
_OPEN
 10
195.5868551334261
 20
235.6933429888581
 30
0.0
 41
7.0
 42
7.0
 43
7.0
 50
90.0
  0
INSERT
  5
27A0
330
13D7
100
AcDbEntity
  8
SUNPOU
 62
     4
100
AcDbBlockReference
  2
_OPEN
 10
195.586855133426
 20
161.6054269675962
 30
0.0
 41
7.0
 42
7.0
 43
7.0
 50
270.0
  0
MTEXT
  5
27A1
330
13D7
100
AcDbEntity
  8
SUNPOU
 62
     4
100
AcDbMText
 10
190.586855133426
 20
196.3351812640657
 30
0.0
 40
6.0
 41
0.0
 71
     5
 72
     1
  1
\A1;74
 11
0.0000000000000001
 21
1.0
 31
0.0
1001
ACAD
1000
MTEXTBEGIN
1070
    73
1070
     1
1070
    44
1040
1.0
1070
    74
1070
     0
1000
MTEXTEND
  0
POINT
  5
27A2
330
13D7
100
AcDbEntity
  8
DEFPOINTS
 62
     0
100
AcDbPoint
 10
265.9183152377768
 20
235.6933429888581
 30
0.0
  0
POINT
  5
27A3
330
13D7
100
AcDbEntity
  8
DEFPOINTS
 62
     0
100
AcDbPoint
 10
457.0151972792696
 20
161.6054269675961
 30
0.0
  0
POINT
  5
27A4
330
13D7
100
AcDbEntity
  8
DEFPOINTS
 62
     0
100
AcDbPoint
 10
195.586855133426
 20
161.6054269675962
 30
0.0
  0
ENDBLK
  5
1492
330
13D7
100
AcDbEntity
  8
0
100
AcDbBlockEnd
  0
BLOCK
  5
1493
330
13E3
100
AcDbEntity
  8
0
100
AcDbBlockBegin
  2
*D5
 70
     1
 10
0.0
 20
0.0
 30
0.0
  3
*D5
  1

  0
LINE
  5
27BB
330
13E3
100
AcDbEntity
  8
SUNPOU
 62
     4
100
AcDbLine
 10
394.8178249944767
 20
205.7933429888581
 30
0.0
 11
394.8178249944767
 21
283.7621797143103
 31
0.0
  0
LINE
  5
27BC
330
13E3
100
AcDbEntity
  8
SUNPOU
 62
     4
100
AcDbLine
 10
261.4051917361698
 20
235.4443239606961
 30
0.0
 11
261.4051917361698
 21
283.7621797143103
 31
0.0
  0
LINE
  5
27BD
330
13E3
100
AcDbEntity
  8
SUNPOU
 62
     4
100
AcDbLine
 10
387.8178249944767
 20
280.7621797143103
 30
0.0
 11
268.4051917361698
 21
280.7621797143103
 31
0.0
  0
INSERT
  5
27BE
330
13E3
100
AcDbEntity
  8
SUNPOU
 62
     4
100
AcDbBlockReference
  2
_OPEN
 10
394.8178249944767
 20
280.7621797143103
 30
0.0
 41
7.0
 42
7.0
 43
7.0
  0
INSERT
  5
27BF
330
13E3
100
AcDbEntity
  8
SUNPOU
 62
     4
100
AcDbBlockReference
  2
_OPEN
 10
261.4051917361698
 20
280.7621797143103
 30
0.0
 41
7.0
 42
7.0
 43
7.0
 50
180.0
  0
MTEXT
  5
27C0
330
13E3
100
AcDbEntity
  8
SUNPOU
 62
     4
100
AcDbMText
 10
328.1115083653233
 20
285.7621797143103
 30
0.0
 40
6.0
 41
0.0
 71
     5
 72
     1
  1
\A1;133
1001
ACAD
1000
MTEXTBEGIN
1070
    73
1070
     1
1070
    44
1040
1.0
1070
    74
1070
     0
1000
MTEXTEND
  0
POINT
  5
27C1
330
13E3
100
AcDbEntity
  8
DEFPOINTS
 62
     0
100
AcDbPoint
 10
394.8178249944767
 20
199.7933429888581
 30
0.0
  0
POINT
  5
27C2
330
13E3
100
AcDbEntity
  8
DEFPOINTS
 62
     0
100
AcDbPoint
 10
261.4051917361698
 20
229.4443239606961
 30
0.0
  0
POINT
  5
27C3
330
13E3
100
AcDbEntity
  8
DEFPOINTS
 62
     0
100
AcDbPoint
 10
261.4051917361698
 20
280.7621797143103
 30
0.0
  0
ENDBLK
  5
149D
330
13E3
100
AcDbEntity
  8
0
100
AcDbBlockEnd
  0
BLOCK
  5
149E
330
13EF
100
AcDbEntity
  8
0
100
AcDbBlockBegin
  2
*D6
 70
     1
 10
0.0
 20
0.0
 30
0.0
  3
*D6
  1

  0
LINE
  5
27C4
330
13EF
100
AcDbEntity
  8
SUNPOU
 62
     4
100
AcDbLine
 10
255.4051917361698
 20
402.5799005448996
 30
0.0
 11
192.5868551334261
 21
402.5799005448996
 31
0.0
  0
LINE
  5
27C5
330
13EF
100
AcDbEntity
  8
SUNPOU
 62
     4
100
AcDbLine
 10
255.4051917361698
 20
374.5799005448996
 30
0.0
 11
192.5868551334261
 21
374.5799005448996
 31
0.0
  0
LINE
  5
27C6
330
13EF
100
AcDbEntity
  8
SUNPOU
 62
     4
100
AcDbLine
 10
195.5868551334261
 20
409.5799005448996
 30
0.0
 11
195.5868551334261
 21
416.5799005448995
 31
0.0
  0
LINE
  5
27C7
330
13EF
100
AcDbEntity
  8
SUNPOU
 62
     4
100
AcDbLine
 10
195.5868551334261
 20
367.5799005448996
 30
0.0
 11
195.5868551334261
 21
360.5799005448996
 31
0.0
  0
LINE
  5
27C8
330
13EF
100
AcDbEntity
  8
SUNPOU
 62
     4
100
AcDbLine
 10
195.5868551334261
 20
402.5799005448996
 30
0.0
 11
195.5868551334261
 21
374.5799005448996
 31
0.0
  0
INSERT
  5
27C9
330
13EF
100
AcDbEntity
  8
SUNPOU
 62
     4
100
AcDbBlockReference
  2
_OPEN
 10
195.5868551334261
 20
402.5799005448996
 30
0.0
 41
7.0
 42
7.0
 43
7.0
 50
270.0
  0
INSERT
  5
27CA
330
13EF
100
AcDbEntity
  8
SUNPOU
 62
     4
100
AcDbBlockReference
  2
_OPEN
 10
195.5868551334261
 20
374.5799005448996
 30
0.0
 41
7.0
 42
7.0
 43
7.0
 50
90.0
  0
MTEXT
  5
27CB
330
13EF
100
AcDbEntity
  8
SUNPOU
 62
     4
100
AcDbMText
 10
190.586855133426
 20
387.3872985740572
 30
0.0
 40
6.0
 41
0.0
 71
     5
 72
     1
  1
\A1;28
 11
0.0000000000000001
 21
1.0
 31
0.0
1001
ACAD
1000
MTEXTBEGIN
1070
    73
1070
     1
1070
    44
1040
1.0
1070
    74
1070
     0
1000
MTEXTEND
  0
POINT
  5
27CC
330
13EF
100
AcDbEntity
  8
DEFPOINTS
 62
     0
100
AcDbPoint
 10
261.4051917361698
 20
402.5799005448996
 30
0.0
  0
POINT
  5
27CD
330
13EF
100
AcDbEntity
  8
DEFPOINTS
 62
     0
100
AcDbPoint
 10
261.4051917361698
 20
374.5799005448996
 30
0.0
  0
POINT
  5
27CE
330
13EF
100
AcDbEntity
  8
DEFPOINTS
 62
     0
100
AcDbPoint
 10
195.5868551334261
 20
374.5799005448996
 30
0.0
  0
ENDBLK
  5
14AA
330
13EF
100
AcDbEntity
  8
0
100
AcDbBlockEnd
  0
BLOCK
  5
14AB
330
13FD
100
AcDbEntity
  8
0
100
AcDbBlockBegin
  2
*D7
 70
     1
 10
0.0
 20
0.0
 30
0.0
  3
*D7
  1

  0
LINE
  5
27D8
330
13FD
100
AcDbEntity
  8
SUNPOU
 62
     4
100
AcDbLine
 10
512.019371228095
 20
290.5193833416646
 30
0.0
 11
486.2945834567575
 21
275.084510678868
 31
0.0
  0
LINE
  5
27D9
330
13FD
100
AcDbEntity
  8
SUNPOU
 62
     4
100
AcDbLine
 10
524.4924932997502
 20
269.7308465555644
 30
0.0
 11
498.7677055284129
 21
254.2959738927679
 31
0.0
  0
LINE
  5
27DA
330
13FD
100
AcDbEntity
  8
SUNPOU
 62
     4
100
AcDbLine
 10
492.4685325218871
 20
270.6255474651618
 30
0.0
 11
497.7387140175591
 21
261.8419116390384
 31
0.0
  0
INSERT
  5
27DB
330
13FD
100
AcDbEntity
  8
SUNPOU
 62
     4
100
AcDbBlockReference
  2
_OPEN
 10
488.8670622338954
 20
276.6279979451502
 30
0.0
 41
7.0
 42
7.0
 43
7.0
 50
120.9637565320638
  0
INSERT
  5
27DC
330
13FD
100
AcDbEntity
  8
SUNPOU
 62
     4
100
AcDbBlockReference
  2
_OPEN
 10
501.3401843055508
 20
255.83946115905
 30
0.0
 41
7.0
 42
7.0
 43
7.0
 50
300.9637565320638
  0
MTEXT
  5
27DD
330
13FD
100
AcDbEntity
  8
SUNPOU
 62
     4
100
AcDbMText
 10
499.3910878982863
 20
268.806208329237
 30
0.0
 40
6.0
 41
0.0
 71
     5
 72
     1
  1
\A1;24
 11
0.5144957554273822
 21
-0.8574929257126308
 31
0.0
1001
ACAD
1000
MTEXTBEGIN
1070
    73
1070
     1
1070
    44
1040
1.0
1070
    74
1070
     0
1000
MTEXTEND
  0
POINT
  5
27DE
330
13FD
100
AcDbEntity
  8
DEFPOINTS
 62
     0
100
AcDbPoint
 10
517.1643287823708
 20
293.6063578742288
 30
0.0
  0
POINT
  5
27DF
330
13FD
100
AcDbEntity
  8
DEFPOINTS
 62
     0
100
AcDbPoint
 10
529.637450854026
 20
272.8178210881287
 30
0.0
  0
POINT
  5
27E0
330
13FD
100
AcDbEntity
  8
DEFPOINTS
 62
     0
100
AcDbPoint
 10
501.3401843055508
 20
255.83946115905
 30
0.0
  0
ENDBLK
  5
14B7
330
13FD
100
AcDbEntity
  8
0
100
AcDbBlockEnd
  0
BLOCK
  5
14B8
330
140B
100
AcDbEntity
  8
0
100
AcDbBlockBegin
  2
*D8
 70
     1
 10
0.0
 20
0.0
 30
0.0
  3
*D8
  1

  0
LINE
  5
27CF
330
140B
100
AcDbEntity
  8
SUNPOU
 62
     4
100
AcDbLine
 10
526.5504763215496
 20
277.9627786424036
 30
0.0
 11
500.1859688533122
 21
321.9036244227457
 31
0.0
  0
LINE
  5
27D0
330
140B
100
AcDbEntity
  8
SUNPOU
 62
     4
100
AcDbLine
 10
581.4300235671495
 20
310.8905069898036
 30
0.0
 11
555.0655160989121
 21
354.8313527701457
 31
0.0
  0
LINE
  5
27D1
330
140B
100
AcDbEntity
  8
SUNPOU
 62
     4
100
AcDbLine
 10
507.731906599582
 20
322.9326159336049
 30
0.0
 11
550.6065528852101
 21
348.657403705013
 31
0.0
  0
INSERT
  5
27D2
330
140B
100
AcDbEntity
  8
SUNPOU
 62
     4
100
AcDbBlockReference
  2
_OPEN
 10
501.7294561195962
 20
319.3311456456089
 30
0.0
 41
7.0
 42
7.0
 43
7.0
 50
210.9637565321042
  0
INSERT
  5
27D3
330
140B
100
AcDbEntity
  8
SUNPOU
 62
     4
100
AcDbBlockReference
  2
_OPEN
 10
556.609003365196
 20
352.2588739930089
 30
0.0
 41
7.0
 42
7.0
 43
7.0
 50
30.96375653210428
  0
MTEXT
  5
27D4
330
140B
100
AcDbEntity
  8
SUNPOU
 62
     4
100
AcDbMText
 10
526.5967509652561
 20
340.0824744478704
 30
0.0
 40
6.0
 41
0.0
 71
     5
 72
     1
  1
\A1;64
 11
0.8574929257122679
 21
0.5144957554279869
 31
0.0
1001
ACAD
1000
MTEXTBEGIN
1070
    73
1070
     1
1070
    44
1040
1.0
1070
    74
1070
     0
1000
MTEXTEND
  0
POINT
  5
27D5
330
140B
100
AcDbEntity
  8
DEFPOINTS
 62
     0
100
AcDbPoint
 10
529.6374508541175
 20
272.81782108813
 30
0.0
  0
POINT
  5
27D6
330
140B
100
AcDbEntity
  8
DEFPOINTS
 62
     0
100
AcDbPoint
 10
584.5169980997174
 20
305.7455494355299
 30
0.0
  0
POINT
  5
27D7
330
140B
100
AcDbEntity
  8
DEFPOINTS
 62
     0
100
AcDbPoint
 10
556.609003365196
 20
352.2588739930089
 30
0.0
  0
ENDBLK
  5
14C2
330
140B
100
AcDbEntity
  8
0
100
AcDbBlockEnd
  0
BLOCK
  5
14C3
330
1417
100
AcDbEntity
  8
0
100
AcDbBlockBegin
  2
*D9
 70
     1
 10
0.0
 20
0.0
 30
0.0
  3
*D9
  1

  0
LINE
  5
27EA
330
1417
100
AcDbEntity
  8
SUNPOU
 62
     4
100
AcDbLine
 10
577.6570546918995
 20
243.3200644470125
 30
0.0
 11
524.4924932978433
 21
211.4213276103033
 31
0.0
  0
LINE
  5
27EB
330
1417
100
AcDbEntity
  8
SUNPOU
 62
     4
100
AcDbLine
 10
581.7730207353407
 20
236.4601210413364
 30
0.0
 11
528.6084593412844
 21
204.5613842046272
 31
0.0
  0
LINE
  5
27EC
330
1417
100
AcDbEntity
  8
SUNPOU
 62
     4
100
AcDbLine
 10
523.4635017869595
 20
218.9672653565697
 30
0.0
 11
519.8620314989439
 21
224.9697158365438
 31
0.0
  0
LINE
  5
27ED
330
1417
100
AcDbEntity
  8
SUNPOU
 62
     4
100
AcDbLine
 10
534.7824084064318
 20
200.1024209909455
 30
0.0
 11
542.4998447378936
 21
187.2400271052867
 31
0.0
  0
LINE
  5
27EE
330
1417
100
AcDbEntity
  8
SUNPOU
 62
     4
100
AcDbLine
 10
527.0649720749751
 20
212.9648148765957
 30
0.0
 11
531.1809381184162
 21
206.1048714709196
 31
0.0
  0
INSERT
  5
27EF
330
1417
100
AcDbEntity
  8
SUNPOU
 62
     4
100
AcDbBlockReference
  2
_OPEN
 10
527.0649720749751
 20
212.9648148765957
 30
0.0
 41
7.0
 42
7.0
 43
7.0
 50
300.9637565322917
  0
INSERT
  5
27F0
330
1417
100
AcDbEntity
  8
SUNPOU
 62
     4
100
AcDbBlockReference
  2
_OPEN
 10
531.1809381184162
 20
206.1048714709196
 30
0.0
 41
7.0
 42
7.0
 43
7.0
 50
120.9637565322917
  0
MTEXT
  5
27F1
330
1417
100
AcDbEntity
  8
SUNPOU
 62
     4
100
AcDbMText
 10
544.7293263447234
 20
193.242477585283
 30
0.0
 40
6.0
 41
0.0
 71
     5
 72
     1
  1
\A1;8
 11
0.514495755430793
 21
-0.8574929257105843
 31
0.0
1001
ACAD
1000
MTEXTBEGIN
1070
    73
1070
     1
1070
    44
1040
1.0
1070
    74
1070
     0
1000
MTEXTEND
  0
POINT
  5
27F2
330
1417
100
AcDbEntity
  8
DEFPOINTS
 62
     0
100
AcDbPoint
 10
582.8020122461631
 20
246.4070389795973
 30
0.0
  0
POINT
  5
27F3
330
1417
100
AcDbEntity
  8
DEFPOINTS
 62
     0
100
AcDbPoint
 10
586.9179782896043
 20
239.5470955739212
 30
0.0
  0
POINT
  5
27F4
330
1417
100
AcDbEntity
  8
DEFPOINTS
 62
     0
100
AcDbPoint
 10
531.1809381184162
 20
206.1048714709196
 30
0.0
  0
ENDBLK
  5
14CF
330
1417
100
AcDbEntity
  8
0
100
AcDbBlockEnd
  0
BLOCK
  5
14D0
330
1425
100
AcDbEntity
  8
0
100
AcDbBlockBegin
  2
*D10
 70
     1
 10
0.0
 20
0.0
 30
0.0
  3
*D10
  1

  0
LINE
  5
27FE
330
1425
100
AcDbEntity
  8
SUNPOU
 62
     4
100
AcDbLine
 10
460.1021718117458
 20
156.4604694132674
 30
0.0
 11
466.2761208765259
 21
146.1705543048964
 31
0.0
  0
LINE
  5
27FF
330
1425
100
AcDbEntity
  8
SUNPOU
 62
     4
100
AcDbLine
 10
466.1046222918311
 20
160.0619397011773
 30
0.0
 11
472.2785713566113
 21
149.7720245928063
 31
0.0
  0
LINE
  5
2800
330
1425
100
AcDbEntity
  8
SUNPOU
 62
     4
100
AcDbLine
 10
458.7301831302378
 20
145.141562794172
 30
0.0
 11
452.7277326501876
 21
141.5400925062833
 31
0.0
  0
LINE
  5
2801
330
1425
100
AcDbEntity
  8
SUNPOU
 62
     4
100
AcDbLine
 10
476.7375345704235
 20
155.9459736578594
 30
0.0
 11
500.7473364906243
 21
170.3518548094145
 31
0.0
  0
LINE
  5
2802
330
1425
100
AcDbEntity
  8
SUNPOU
 62
     4
100
AcDbLine
 10
464.732633610288
 20
148.7430330820608
 30
0.0
 11
470.7350840903733
 21
152.3445033699707
 31
0.0
  0
INSERT
  5
2803
330
1425
100
AcDbEntity
  8
SUNPOU
 62
     4
100
AcDbBlockReference
  2
_OPEN
 10
464.732633610288
 20
148.7430330820608
 30
0.0
 41
7.0
 42
7.0
 43
7.0
 50
30.9637565310815
  0
INSERT
  5
2804
330
1425
100
AcDbEntity
  8
SUNPOU
 62
     4
100
AcDbBlockReference
  2
_OPEN
 10
470.7350840903733
 20
152.3445033699707
 30
0.0
 41
7.0
 42
7.0
 43
7.0
 50
210.9637565310814
  0
MTEXT
  5
2805
330
1425
100
AcDbEntity
  8
SUNPOU
 62
     4
100
AcDbMText
 10
489.1711819934856
 20
169.2371140061887
 30
0.0
 40
6.0
 41
0.0
 71
     5
 72
     1
  1
\A1;t7.0
 11
0.8574929257214524
 21
0.5144957554126794
 31
0.0
1001
ACAD
1000
MTEXTBEGIN
1070
    73
1070
     1
1070
    44
1040
1.0
1070
    74
1070
     0
1000
MTEXTEND
  0
POINT
  5
2806
330
1425
100
AcDbEntity
  8
DEFPOINTS
 62
     0
100
AcDbPoint
 10
457.0151972792697
 20
161.6054269675961
 30
0.0
  0
POINT
  5
2807
330
1425
100
AcDbEntity
  8
DEFPOINTS
 62
     0
100
AcDbPoint
 10
463.017647759355
 20
165.206897255506
 30
0.0
  0
POINT
  5
2808
330
1425
100
AcDbEntity
  8
DEFPOINTS
 62
     0
100
AcDbPoint
 10
470.7350840903733
 20
152.3445033699707
 30
0.0
  0
ENDBLK
  5
14DC
330
1425
100
AcDbEntity
  8
0
100
AcDbBlockEnd
  0
BLOCK
  5
14DD
330
1433
100
AcDbEntity
  8
0
100
AcDbBlockBegin
  2
*D11
 70
     1
 10
0.0
 20
0.0
 30
0.0
  3
*D11
  1

  0
LINE
  5
27E1
330
1433
100
AcDbEntity
  8
SUNPOU
 62
     4
100
AcDbLine
 10
524.4924932997499
 20
269.7308465555643
 30
0.0
 11
498.7677055284126
 21
254.2959738927683
 31
0.0
  0
LINE
  5
27E2
330
1433
100
AcDbEntity
  8
SUNPOU
 62
     4
100
AcDbLine
 10
550.2172810690686
 20
226.8562002733487
 30
0.0
 11
524.4924932977312
 21
211.4213276105527
 31
0.0
  0
LINE
  5
27E3
330
1433
100
AcDbEntity
  8
SUNPOU
 62
     4
100
AcDbLine
 10
504.9416545935421
 20
249.8370106790619
 30
0.0
 11
523.4635017868775
 21
218.9672653568233
 31
0.0
  0
INSERT
  5
27E4
330
1433
100
AcDbEntity
  8
SUNPOU
 62
     4
100
AcDbBlockReference
  2
_OPEN
 10
501.3401843055505
 20
255.8394611590504
 30
0.0
 41
7.0
 42
7.0
 43
7.0
 50
120.963756532063
  0
INSERT
  5
27E5
330
1433
100
AcDbEntity
  8
SUNPOU
 62
     4
100
AcDbBlockReference
  2
_OPEN
 10
527.0649720748691
 20
212.9648148768348
 30
0.0
 41
7.0
 42
7.0
 43
7.0
 50
300.963756532063
  0
MTEXT
  5
27E6
330
1433
100
AcDbEntity
  8
SUNPOU
 62
     4
100
AcDbMText
 10
518.4900428187729
 20
236.9746167950795
 30
0.0
 40
6.0
 41
0.0
 71
     5
 72
     1
  1
\A1;50
 11
0.5144957554273696
 21
-0.8574929257126383
 31
0.0
1001
ACAD
1000
MTEXTBEGIN
1070
    73
1070
     1
1070
    44
1040
1.0
1070
    74
1070
     0
1000
MTEXTEND
  0
POINT
  5
27E7
330
1433
100
AcDbEntity
  8
DEFPOINTS
 62
     0
100
AcDbPoint
 10
529.6374508540258
 20
272.8178210881285
 30
0.0
  0
POINT
  5
27E8
330
1433
100
AcDbEntity
  8
DEFPOINTS
 62
     0
100
AcDbPoint
 10
555.3622386233445
 20
229.9431748059129
 30
0.0
  0
POINT
  5
27E9
330
1433
100
AcDbEntity
  8
DEFPOINTS
 62
     0
100
AcDbPoint
 10
527.0649720748691
 20
212.9648148768348
 30
0.0
  0
ENDBLK
  5
14E7
330
1433
100
AcDbEntity
  8
0
100
AcDbBlockEnd
  0
BLOCK
  5
14E8
330
143F
100
AcDbEntity
  8
0
100
AcDbBlockBegin
  2
*D12
 70
     1
 10
0.0
 20
0.0
 30
0.0
  3
*D12
  1

  0
LINE
  5
2809
330
143F
100
AcDbEntity
  8
SUNPOU
 62
     4
100
AcDbLine
 10
576.3753170874157
 20
229.7881832497115
 30
0.0
 11
589.967629559457
 21
206.6016953065556
 31
0.0
  0
LINE
  5
280A
330
143F
100
AcDbEntity
  8
SUNPOU
 62
     4
100
AcDbLine
 10
600.5320098895154
 20
243.9492462646115
 30
0.0
 11
614.1243223615567
 21
220.7627583214557
 31
0.0
  0
LINE
  5
280B
330
143F
100
AcDbEntity
  8
SUNPOU
 62
     4
100
AcDbLine
 10
594.4893109538294
 20
212.729859580446
 30
0.0
 11
606.5682852015861
 21
219.8107591422838
 31
0.0
  0
INSERT
  5
280C
330
143F
100
AcDbEntity
  8
SUNPOU
 62
     4
100
AcDbBlockReference
  2
_OPEN
 10
588.4504516766579
 20
209.1897778539149
 30
0.0
 41
7.0
 42
7.0
 43
7.0
 50
210.3795551319833
  0
INSERT
  5
280D
330
143F
100
AcDbEntity
  8
SUNPOU
 62
     4
100
AcDbBlockReference
  2
_OPEN
 10
612.6071444787576
 20
223.3508408688149
 30
0.0
 41
7.0
 42
7.0
 43
7.0
 50
30.3795551319833
  0
MTEXT
  5
280E
330
143F
100
AcDbEntity
  8
SUNPOU
 62
     4
100
AcDbMText
 10
598.0001682730427
 20
220.5837802736301
 30
0.0
 40
6.0
 41
0.0
 71
     5
 72
     1
  1
\A1;28
 11
0.8626941824530726
 21
0.5057259609330183
 31
0.0
1001
ACAD
1000
MTEXTBEGIN
1070
    73
1070
     1
1070
    44
1040
1.0
1070
    74
1070
     0
1000
MTEXTEND
  0
POINT
  5
280F
330
143F
100
AcDbEntity
  8
DEFPOINTS
 62
     0
100
AcDbPoint
 10
573.3409613218176
 20
234.96434834443
 30
0.0
  0
POINT
  5
2810
330
143F
100
AcDbEntity
  8
DEFPOINTS
 62
     0
100
AcDbPoint
 10
597.4976541239173
 20
249.1254113593299
 30
0.0
  0
POINT
  5
2811
330
143F
100
AcDbEntity
  8
DEFPOINTS
 62
     0
100
AcDbPoint
 10
612.6071444787576
 20
223.3508408688149
 30
0.0
  0
ENDBLK
  5
14F2
330
143F
100
AcDbEntity
  8
0
100
AcDbBlockEnd
  0
BLOCK
  5
14F3
330
144B
100
AcDbEntity
  8
0
100
AcDbBlockBegin
  2
*D13
 70
     1
 10
0.0
 20
0.0
 30
0.0
  3
*D13
  1

  0
LINE
  5
2812
330
144B
100
AcDbEntity
  8
SUNPOU
 62
     4
100
AcDbLine
 10
512.9387986488953
 20
285.177289194707
 30
0.0
 11
485.8329447606382
 21
331.0426286102889
 31
0.0
  0
LINE
  5
2813
330
144B
100
AcDbEntity
  8
SUNPOU
 62
     4
100
AcDbLine
 10
581.8120722398953
 20
325.880550405707
 30
0.0
 11
554.7062183516384
 21
371.7458898212888
 31
0.0
  0
LINE
  5
2814
330
144B
100
AcDbEntity
  8
SUNPOU
 62
     4
100
AcDbLine
 10
493.3855613433393
 20
332.0213945448764
 30
0.0
 11
550.2062787989597
 21
365.6017426858243
 31
0.0
  0
INSERT
  5
2815
330
144B
100
AcDbEntity
  8
SUNPOU
 62
     4
100
AcDbBlockReference
  2
_OPEN
 10
487.3592832756494
 20
328.4599380098504
 30
0.0
 41
7.0
 42
7.0
 43
7.0
 50
210.582567331244
  0
INSERT
  5
2816
330
144B
100
AcDbEntity
  8
SUNPOU
 62
     4
100
AcDbBlockReference
  2
_OPEN
 10
556.2325568666495
 20
369.1631992208503
 30
0.0
 41
7.0
 42
7.0
 43
7.0
 50
30.58256733124402
  0
MTEXT
  5
2817
330
144B
100
AcDbEntity
  8
SUNPOU
 62
     4
100
AcDbMText
 10
519.2520225461309
 20
353.1160529494145
 30
0.0
 40
6.0
 41
0.0
 71
     5
 72
     1
  1
\A1;80
 11
0.8608968668128447
 21
0.5087795050037168
 31
0.0
1001
ACAD
1000
MTEXTBEGIN
1070
    73
1070
     1
1070
    44
1040
1.0
1070
    74
1070
     0
1000
MTEXTEND
  0
POINT
  5
2818
330
144B
100
AcDbEntity
  8
DEFPOINTS
 62
     0
100
AcDbPoint
 10
515.9914756789175
 20
280.01190799383
 30
0.0
  0
POINT
  5
2819
330
144B
100
AcDbEntity
  8
DEFPOINTS
 62
     0
100
AcDbPoint
 10
584.8647492699176
 20
320.7151692048299
 30
0.0
  0
POINT
  5
281A
330
144B
100
AcDbEntity
  8
DEFPOINTS
 62
     0
100
AcDbPoint
 10
556.2325568666495
 20
369.1631992208503
 30
0.0
  0
ENDBLK
  5
14FD
330
144B
100
AcDbEntity
  8
0
100
AcDbBlockEnd
  0
BLOCK
  5
14FE
330
1457
100
AcDbEntity
  8
0
100
AcDbBlockBegin
  2
*D14
 70
     1
 10
0.0
 20
0.0
 30
0.0
  3
*D14
  1

  0
LINE
  5
281B
330
1457
100
AcDbEntity
  8
SUNPOU
 62
     4
100
AcDbLine
 10
447.3247253772765
 20
428.5799005448995
 30
0.0
 11
487.2235910745722
 21
428.5799005448995
 31
0.0
  0
LINE
  5
281C
330
1457
100
AcDbEntity
  8
SUNPOU
 62
     4
100
AcDbLine
 10
447.3247253772765
 20
348.5799005448996
 30
0.0
 11
487.2235910745722
 21
348.5799005448996
 31
0.0
  0
LINE
  5
281D
330
1457
100
AcDbEntity
  8
SUNPOU
 62
     4
100
AcDbLine
 10
484.2235910745722
 20
421.5799005448996
 30
0.0
 11
484.2235910745722
 21
355.5799005448996
 31
0.0
  0
INSERT
  5
281E
330
1457
100
AcDbEntity
  8
SUNPOU
 62
     4
100
AcDbBlockReference
  2
_OPEN
 10
484.2235910745722
 20
428.5799005448995
 30
0.0
 41
7.0
 42
7.0
 43
7.0
 50
90.0
  0
INSERT
  5
281F
330
1457
100
AcDbEntity
  8
SUNPOU
 62
     4
100
AcDbBlockReference
  2
_OPEN
 10
484.2235910745722
 20
348.5799005448996
 30
0.0
 41
7.0
 42
7.0
 43
7.0
 50
270.0
  0
MTEXT
  5
2820
330
1457
100
AcDbEntity
  8
SUNPOU
 62
     4
100
AcDbMText
 10
479.2235910745721
 20
388.8141620461662
 30
0.0
 40
6.0
 41
0.0
 71
     5
 72
     1
  1
\A1;80
 11
0.0000000000000001
 21
1.0
 31
0.0
1001
ACAD
1000
MTEXTBEGIN
1070
    73
1070
     1
1070
    44
1040
1.0
1070
    74
1070
     0
1000
MTEXTEND
  0
POINT
  5
2821
330
1457
100
AcDbEntity
  8
DEFPOINTS
 62
     0
100
AcDbPoint
 10
441.3247253772765
 20
428.5799005448995
 30
0.0
  0
POINT
  5
2822
330
1457
100
AcDbEntity
  8
DEFPOINTS
 62
     0
100
AcDbPoint
 10
441.3247253772765
 20
348.5799005448996
 30
0.0
  0
POINT
  5
2823
330
1457
100
AcDbEntity
  8
DEFPOINTS
 62
     0
100
AcDbPoint
 10
484.2235910745722
 20
348.5799005448996
 30
0.0
  0
ENDBLK
  5
1508
330
1457
100
AcDbEntity
  8
0
100
AcDbBlockEnd
  0
ENDSEC
  0
SECTION
  2
ENTITIES
  0
LINE
  5
FD0
330
1A
100
AcDbEntity
  8
CENTER_L
 48
5.0
100
AcDbLine
 10
420.3145000608688
 20
207.2240506120584
 30
0.0
 11
437.4643585751141
 21
217.5139657206182
 31
0.0
  0
DIMENSION
  5
FD1
330
1A
100
AcDbEntity
  8
SUNPOU
100
AcDbDimension
  2
*D1
 10
488.7572034916392
 20
180.6506306948879
 30
0.0
 11
471.8877301779586
 21
218.484672709072
 31
0.0
 70
    33
  3
STANDARD
100
AcDbAlignedDimension
 13
420.7037718748697
 23
235.730023729596
 33
0.0
 14
463.017647759355
 24
165.2068972555059
 34
0.0
1001
ACAD
1000
DSTYLE
1002
{
1070
    41
1040
7.0
1070
    42
1040
6.0
1070
    43
1040
14.0
1070
    44
1040
3.0
1070
    73
1070
     0
1070
    74
1070
     0
1070
    77
1070
     3
1070
   140
1040
6.0
1070
   141
1040
150.0
1070
   147
1040
2.0
1070
   172
1070
     1
1070
   173
1070
     1
1070
   176
1070
     4
1070
   177
1070
     4
1070
   178
1070
     4
1070
   271
1070
     0
1070
   272
1070
     0
1070
   341
1005
6D
1070
     6
1000
OPEN
1070
     7
1000
OPEN
1002
}
  0
DIMENSION
  5
FD2
330
1A
100
AcDbEntity
  8
SUNPOU
100
AcDbDimension
  2
*D2
 10
409.8993610108723
 20
253.7373751695623
 30
0.0
 11
432.3720950061694
 21
267.2210155667543
 31
0.0
 70
   161
  3
STANDARD
100
AcDbAlignedDimension
 13
409.0418680851694
 23
235.730023729596
 33
0.0
 14
417.6167973422925
 24
240.8749812838751
 34
0.0
1001
ACAD
1000
DSTYLE
1002
{
1070
    41
1040
7.0
1070
    42
1040
6.0
1070
    43
1040
14.0
1070
    44
1040
3.0
1070
    73
1070
     0
1070
    74
1070
     0
1070
    77
1070
     3
1070
   140
1040
6.0
1070
   141
1040
150.0
1070
   147
1040
2.0
1070
   172
1070
     1
1070
   173
1070
     1
1070
   176
1070
     4
1070
   177
1070
     4
1070
   178
1070
     4
1070
   271
1070
     0
1070
   272
1070
     0
1070
   341
1005
6D
1070
     6
1000
OPEN
1070
     7
1000
OPEN
1002
}
  0
LINE
  5
FD3
330
1A
100
AcDbEntity
  8
SEIHIN
100
AcDbLine
 10
420.7037718748697
 20
235.730023729596
 30
0.0
 11
460.9596647375696
 21
168.6368689584961
 31
0.0
  0
LINE
  5
FD4
330
1A
100
AcDbEntity
  8
SEIHIN
100
AcDbLine
 10
441.5803246164696
 20
187.3302147389961
 30
0.0
 11
413.7724734454695
 21
228.6934147364961
 31
0.0
  0
LINE
  5
FD5
330
1A
100
AcDbEntity
  8
SEIHIN
100
AcDbLine
 10
444.1130787612697
 20
188.9399097257961
 30
0.0
 11
414.3305673505697
 21
233.240347337296
 31
0.0
  0
LINE
  5
FD6
330
1A
100
AcDbEntity
  8
SEIHIN
100
AcDbLine
 10
420.7662718748697
 20
428.5799005448995
 30
0.0
 11
430.7968413920361
 21
428.5799005448995
 31
0.0
  0
LINE
  5
FD7
330
1A
100
AcDbEntity
  8
SEIHIN
100
AcDbLine
 10
420.7662718748697
 20
348.5799005448996
 30
0.0
 11
430.7968413920361
 21
348.5799005448996
 31
0.0
  0
LINE
  5
FD8
330
1A
100
AcDbEntity
  8
SEIHIN
100
AcDbLine
 10
403.8532631457696
 20
182.1943239606961
 30
0.0
 11
442.8956689220695
 21
182.1943239606961
 31
0.0
  0
LINE
  5
FD9
330
1A
100
AcDbEntity
  8
CENTER_L
 48
5.0
100
AcDbLine
 10
247.3628306250698
 20
388.5799005448996
 30
0.0
 11
468.5532899045715
 21
388.5799005448996
 31
0.0
  0
LINE
  5
FDA
330
1A
100
AcDbEntity
  8
SEIHIN
100
AcDbLine
 10
400.4103165741699
 20
178.694323960696
 30
0.0
 11
445.0632879465697
 21
178.694323960696
 31
0.0
  0
DIMENSION
  5
FDB
330
1A
100
AcDbEntity
  8
SUNPOU
100
AcDbDimension
  2
*D3
 10
420.7573651827269
 20
280.7621797143103
 30
0.0
 11
407.7875950886018
 21
280.7621797143103
 31
0.0
 70
   160
  3
STANDARD
100
AcDbAlignedDimension
 13
394.8178249944767
 23
199.7933429888581
 33
0.0
 14
420.7573651827269
 24
235.7621797143102
 34
0.0
100
AcDbRotatedDimension
1001
ACAD
1000
DSTYLE
1002
{
1070
    41
1040
7.0
1070
    42
1040
6.0
1070
    43
1040
14.0
1070
    44
1040
3.0
1070
    73
1070
     0
1070
    74
1070
     0
1070
    77
1070
     3
1070
   140
1040
6.0
1070
   141
1040
150.0
1070
   147
1040
2.0
1070
   172
1070
     1
1070
   173
1070
     1
1070
   176
1070
     4
1070
   177
1070
     4
1070
   178
1070
     4
1070
   271
1070
     0
1070
   272
1070
     0
1070
   341
1005
6D
1070
     6
1000
OPEN
1070
     7
1000
OPEN
1002
}
  0
DIMENSION
  5
FDC
330
1A
100
AcDbEntity
  8
SUNPOU
100
AcDbDimension
  2
*D4
 10
195.586855133426
 20
161.6054269675962
 30
0.0
 11
195.586855133426
 21
196.3351812640657
 31
0.0
 70
   160
  3
STANDARD
100
AcDbAlignedDimension
 13
265.9183152377768
 23
235.6933429888581
 33
0.0
 14
457.0151972792696
 24
161.6054269675961
 34
0.0
 50
90.0
100
AcDbRotatedDimension
1001
ACAD
1000
DSTYLE
1002
{
1070
    41
1040
7.0
1070
    42
1040
6.0
1070
    43
1040
14.0
1070
    44
1040
3.0
1070
    73
1070
     0
1070
    74
1070
     0
1070
    77
1070
     3
1070
   140
1040
6.0
1070
   141
1040
150.0
1070
   147
1040
2.0
1070
   172
1070
     1
1070
   173
1070
     1
1070
   176
1070
     4
1070
   177
1070
     4
1070
   178
1070
     4
1070
   271
1070
     0
1070
   272
1070
     0
1070
   341
1005
6D
1070
     6
1000
OPEN
1070
     7
1000
OPEN
1002
}
  0
DIMENSION
  5
FDD
330
1A
100
AcDbEntity
  8
SUNPOU
100
AcDbDimension
  2
*D5
 10
261.4051917361698
 20
280.7621797143103
 30
0.0
 11
328.1115083653233
 21
280.7621797143103
 31
0.0
 70
   160
  3
STANDARD
100
AcDbAlignedDimension
 13
394.8178249944767
 23
199.7933429888581
 33
0.0
 14
261.4051917361698
 24
229.4443239606961
 34
0.0
100
AcDbRotatedDimension
1001
ACAD
1000
DSTYLE
1002
{
1070
    41
1040
7.0
1070
    42
1040
6.0
1070
    43
1040
14.0
1070
    44
1040
3.0
1070
    73
1070
     0
1070
    74
1070
     0
1070
    77
1070
     3
1070
   140
1040
6.0
1070
   141
1040
150.0
1070
   147
1040
2.0
1070
   172
1070
     1
1070
   173
1070
     1
1070
   176
1070
     4
1070
   177
1070
     4
1070
   178
1070
     4
1070
   271
1070
     0
1070
   272
1070
     0
1070
   341
1005
6D
1070
     6
1000
OPEN
1070
     7
1000
OPEN
1002
}
  0
ARC
  5
FE0
330
1A
100
AcDbEntity
  8
SEIHIN
100
AcDbCircle
 10
330.3072247784698
 20
269.6628715834961
 30
0.0
 40
62.99061073449999
100
AcDbArc
 50
231.3055937370978
 51
314.4052601452975
  0
ARC
  5
FE1
330
1A
100
AcDbEntity
  8
SEIHIN
100
AcDbCircle
 10
330.3072247784698
 20
269.6628715834961
 30
0.0
 40
59.4906107345
100
AcDbArc
 50
228.2657563722006
 51
314.4052601452975
  0
ARC
  5
FE2
330
1A
100
AcDbEntity
  8
SEIHIN
100
AcDbCircle
 10
269.5241537462698
 20
230.6943239606961
 30
0.0
 40
2.0
100
AcDbArc
 50
160.7099537807992
 51
270.0
  0
ARC
  5
FE3
330
1A
100
AcDbEntity
  8
SEIHIN
100
AcDbCircle
 10
268.1551917361698
 20
229.4443239606961
 30
0.0
 40
6.75
100
AcDbArc
 50
112.1916065662975
 51
270.0
  0
ARC
  5
FE4
330
1A
100
AcDbEntity
  8
SEIHIN
100
AcDbCircle
 10
268.9051917361698
 20
209.394323960696
 30
0.0
 40
4.5
100
AcDbArc
 50
117.8966750511002
 51
270.0
  0
LINE
  5
FE5
330
1A
100
AcDbEntity
  8
SEIHIN
100
AcDbLine
 10
268.9051917361698
 20
204.894323960696
 30
0.0
 11
289.8968830314697
 21
204.894323960696
 31
0.0
  0
LINE
  5
FE6
330
1A
100
AcDbEntity
  8
SEIHIN
100
AcDbLine
 10
281.7190927226697
 20
228.6943239606961
 30
0.0
 11
269.5241537462698
 21
228.6943239606961
 31
0.0
  0
LINE
  5
FE7
330
1A
100
AcDbEntity
  8
SEIHIN
100
AcDbLine
 10
268.9051917361698
 20
208.394323960696
 30
0.0
 11
289.8968815919697
 21
208.394323960696
 31
0.0
  0
ARC
  5
FE8
330
1A
100
AcDbEntity
  8
SEIHIN
100
AcDbCircle
 10
268.3051917361694
 20
218.6943239606961
 30
0.0
 40
7.5
100
AcDbArc
 50
297.8966750511002
 51
0.0000024779006381
  0
LINE
  5
FE9
330
1A
100
AcDbEntity
  8
SEIHIN
100
AcDbLine
 10
284.6759434339696
 20
222.6943239606961
 30
0.0
 11
268.1551917361698
 21
222.6943239606961
 31
0.0
  0
ARC
  5
FEA
330
1A
100
AcDbEntity
  8
SEIHIN
100
AcDbCircle
 10
268.3051917361694
 20
218.6943239606961
 30
0.0
 40
4.0
100
AcDbArc
 50
297.8966750511002
 51
90.0
  0
LINE
  5
FEB
330
1A
100
AcDbEntity
  8
SEIHIN
100
AcDbLine
 10
266.7997383628694
 20
213.3713914849961
 30
0.0
 11
270.1767058457694
 21
215.159152827996
 31
0.0
  0
ARC
  5
FEC
330
1A
100
AcDbEntity
  8
SEIHIN
100
AcDbCircle
 10
268.9051917361698
 20
209.394323960696
 30
0.0
 40
1.0
100
AcDbArc
 50
117.8966750511002
 51
270.0
  0
LINE
  5
FED
330
1A
100
AcDbEntity
  8
SEIHIN
100
AcDbLine
 10
268.4373132087694
 20
210.2781167438961
 30
0.0
 11
271.8142806916694
 21
212.0658780867961
 31
0.0
  0
ARC
  5
FEF
330
1A
100
AcDbEntity
  8
SEIHIN
100
AcDbCircle
 10
-276.8051917361694
 20
221.6943239606961
 30
0.0
 40
1.0
210
0.0
220
0.0
230
-1.0
100
AcDbArc
 50
0.0
 51
90.0
  0
LINE
  5
FF0
330
1A
100
AcDbEntity
  8
SEIHIN
100
AcDbLine
 10
275.8051917361695
 20
218.6943242849961
 30
0.0
 11
275.8051917361695
 21
221.6943239606961
 31
0.0
  0
LINE
  5
FF2
330
1A
100
AcDbEntity
  8
SEIHIN
100
AcDbLine
 10
268.4504512336697
 20
235.6943239606961
 30
0.0
 11
265.6056819794694
 21
235.6943239606961
 31
0.0
  0
LINE
  5
FF4
330
1A
100
AcDbEntity
  8
SEIHIN
100
AcDbLine
 10
268.9223804118696
 20
235.0291487482961
 30
0.0
 11
267.6364370335695
 21
231.355024810096
 31
0.0
  0
LINE
  5
FF5
330
1A
100
AcDbEntity
  8
SEIHIN
100
AcDbLine
 10
396.5051917361697
 20
184.6081741550961
 30
0.0
 11
396.5051917361697
 21
182.780473766196
 31
0.0
  0
ARC
  5
FF6
330
1A
100
AcDbEntity
  8
SEIHIN
100
AcDbCircle
 10
380.1543387751694
 20
188.394323960696
 30
0.0
 40
5.0
100
AcDbArc
 50
270.0
 51
329.9999932511005
  0
LINE
  5
FF7
330
1A
100
AcDbEntity
  8
SEIHIN
100
AcDbLine
 10
398.2022253394698
 20
201.7023795871961
 30
0.0
 11
399.3618121105696
 21
182.9170738967961
 31
0.0
  0
LINE
  5
FF8
330
1A
100
AcDbEntity
  8
SEIHIN
100
AcDbLine
 10
401.6955761446697
 20
201.9180185257961
 30
0.0
 11
402.8551629157695
 21
183.1327128353961
 31
0.0
  0
LINE
  5
FFB
330
1A
100
AcDbEntity
  8
SEIHIN
100
AcDbLine
 10
380.1543387751694
 20
183.394323960696
 30
0.0
 11
361.5051886795695
 21
183.394323960696
 31
0.0
  0
ARC
  5
FFC
330
1A
100
AcDbEntity
  8
SEIHIN
100
AcDbCircle
 10
400.4103165741699
 20
181.694323960696
 30
0.0
 40
3.0
100
AcDbArc
 50
219.8055710922989
 51
270.0
  0
LINE
  5
FFD
330
1A
100
AcDbEntity
  8
SEIHIN
100
AcDbLine
 10
397.2005281211695
 20
180.8599202986961
 30
0.0
 11
398.1056527353698
 21
179.7737707616961
 31
0.0
  0
ARC
  5
FFE
330
1A
100
AcDbEntity
  8
SEIHIN
100
AcDbCircle
 10
399.5051917361697
 20
182.780473766196
 30
0.0
 40
3.0
100
AcDbArc
 50
180.0
 51
219.8055777680007
  0
ARC
  5
FFF
330
1A
100
AcDbEntity
  8
SEIHIN
100
AcDbCircle
 10
403.8532631457696
 20
183.194323960696
 30
0.0
 40
1.0
100
AcDbArc
 50
183.5322945839
 51
270.0
  0
ARC
  5
1000
330
1A
100
AcDbEntity
  8
SEIHIN
100
AcDbCircle
 10
403.8532631457696
 20
183.194323960696
 30
0.0
 40
4.5
100
AcDbArc
 50
183.5322945839
 51
270.0
  0
ARC
  5
1001
330
1A
100
AcDbEntity
  8
SEIHIN
100
AcDbCircle
 10
-361.5051917361697
 20
303.3943239606961
 30
0.0
 40
116.5
210
0.0
220
0.0
230
-1.0
100
AcDbArc
 50
303.4241891158988
 51
303.4241893624983
  0
ARC
  5
1002
330
1A
100
AcDbEntity
  8
SEIHIN
100
AcDbCircle
 10
-361.5051917361697
 20
303.3943239606961
 30
0.0
 40
120.0
210
0.0
220
0.0
230
-1.0
100
AcDbArc
 50
303.4241893819004
 51
303.4241894726982
  0
ARC
  5
1003
330
1A
100
AcDbEntity
  8
SEIHIN
100
AcDbCircle
 10
-407.1333363991698
 20
224.230023729596
 30
0.0
 40
8.0
210
0.0
220
0.0
230
-1.0
100
AcDbArc
 50
90.0
 51
146.0876588218988
  0
LINE
  5
1006
330
1A
100
AcDbEntity
  8
SEIHIN
100
AcDbLine
 10
393.2117241892697
 20
209.894323960696
 30
0.0
 11
386.8969623717698
 21
209.894323960696
 31
0.0
  0
LINE
  5
1007
330
1A
100
AcDbEntity
  8
SEIHIN
100
AcDbLine
 10
393.2117241892697
 20
206.394323960696
 30
0.0
 11
386.8969629474695
 21
206.394323960696
 31
0.0
  0
ARC
  5
100A
330
1A
100
AcDbEntity
  8
SEIHIN
100
AcDbCircle
 10
373.4445251357697
 20
187.8943239606961
 30
0.0
 40
1.0
100
AcDbArc
 50
270.0
 51
345.0000000000008
  0
LINE
  5
100B
330
1A
100
AcDbEntity
  8
SEIHIN
100
AcDbLine
 10
373.4445251357697
 20
186.894323960696
 30
0.0
 11
361.5051888630696
 21
186.894323960696
 31
0.0
  0
LINE
  5
100C
330
1A
100
AcDbEntity
  8
SEIHIN
100
AcDbLine
 10
374.4104509619696
 20
187.6355049155961
 30
0.0
 11
378.6865935680698
 21
203.594286381696
 31
0.0
  0
LINE
  5
100D
330
1A
100
AcDbEntity
  8
SEIHIN
100
AcDbLine
 10
378.6738415094696
 20
190.0237334831961
 30
0.0
 11
382.0673337126695
 21
202.688418800496
 31
0.0
  0
LINE
  5
100E
330
1A
100
AcDbEntity
  8
SEIHIN
100
AcDbLine
 10
385.6391663324698
 20
189.394323960696
 30
0.0
 11
379.1568044226696
 21
189.394323960696
 31
0.0
  0
ARC
  5
100F
330
1A
100
AcDbEntity
  8
SEIHIN
100
AcDbCircle
 10
379.1568044226696
 20
189.894323960696
 30
0.0
 40
0.5
100
AcDbArc
 50
165.0000000000008
 51
270.0
  0
LINE
  5
1011
330
1A
100
AcDbEntity
  8
SEIHIN
100
AcDbLine
 10
386.0721790997695
 20
188.6443240739961
 30
0.0
 11
384.4844654995695
 21
185.894323450596
 31
0.0
  0
ARC
  5
1015
330
1A
100
AcDbEntity
  8
SEIHIN
100
AcDbCircle
 10
395.9374529797696
 20
189.699187258496
 30
0.0
 40
3.0
100
AcDbArc
 50
320.194428907701
 51
3.532294583900077
  0
LINE
  5
1016
330
1A
100
AcDbEntity
  8
SEIHIN
100
AcDbLine
 10
397.2005280750695
 20
186.5287275672961
 30
0.0
 11
398.2421168185696
 21
187.778634059496
 31
0.0
  0
LINE
  5
1019
330
1A
100
AcDbEntity
  8
SEIHIN
100
AcDbLine
 10
394.5051917361697
 20
201.294323960696
 30
0.0
 11
394.5051917361697
 21
203.3943244076961
 31
0.0
  0
LINE
  5
101A
330
1A
100
AcDbEntity
  8
SEIHIN
100
AcDbLine
 10
394.5051917361697
 20
201.7262321347961
 30
0.0
 11
394.5051917361697
 21
201.9369648765961
 31
0.0
  0
LINE
  5
101C
330
1A
100
AcDbEntity
  8
SEIHIN
100
AcDbLine
 10
395.7051917361695
 20
198.894323960696
 30
0.0
 11
397.3962917648695
 21
197.6259989391961
 31
0.0
  0
LINE
  5
101D
330
1A
100
AcDbEntity
  8
SEIHIN
100
AcDbLine
 10
420.7037718748697
 20
235.730023729596
 30
0.0
 11
392.9263926309695
 21
235.730023729596
 31
0.0
  0
LINE
  5
101E
330
1A
100
AcDbEntity
  8
SEIHIN
100
AcDbLine
 10
407.1333363991698
 20
232.230023729596
 30
0.0
 11
392.9263926282697
 21
232.230023729596
 31
0.0
  0
LINE
  5
101F
330
1A
100
AcDbEntity
  8
SEIHIN
100
AcDbLine
 10
392.9263932019698
 20
235.730023729596
 30
0.0
 11
392.9263926309695
 21
235.730023729596
 31
0.0
  0
LINE
  5
1020
330
1A
100
AcDbEntity
  8
SEIHIN
100
AcDbLine
 10
415.6567957229695
 20
235.730023729596
 30
0.0
 11
414.3305673505697
 21
233.240347337296
 31
0.0
  0
LINE
  5
1021
330
1A
100
AcDbEntity
  8
SEIHIN
100
AcDbLine
 10
414.3305673505697
 20
233.240347337296
 30
0.0
 11
408.5397209518696
 21
234.845328083796
 31
0.0
  0
LINE
  5
1022
330
1A
100
AcDbEntity
  8
SEIHIN
100
AcDbLine
 10
261.4051917361698
 20
402.5799005448996
 30
0.0
 11
409.660487748795
 21
402.5799005448996
 31
0.0
  0
LINE
  5
1023
330
1A
100
AcDbEntity
  8
SEIHIN
100
AcDbLine
 10
261.4051917361698
 20
374.5799005448997
 30
0.0
 11
409.660487748795
 21
374.5799005448996
 31
0.0
  0
DIMENSION
  5
1024
330
1A
100
AcDbEntity
  8
SUNPOU
100
AcDbDimension
  2
*D6
 10
195.5868551334261
 20
374.5799005448996
 30
0.0
 11
195.586855133426
 21
387.3872985740572
 31
0.0
 70
   160
  3
STANDARD
100
AcDbAlignedDimension
 13
261.4051917361698
 23
402.5799005448996
 33
0.0
 14
261.4051917361698
 24
374.5799005448996
 34
0.0
 50
90.0
100
AcDbRotatedDimension
1001
ACAD
1000
DSTYLE
1002
{
1070
    41
1040
7.0
1070
    42
1040
6.0
1070
    43
1040
14.0
1070
    44
1040
3.0
1070
    73
1070
     0
1070
    74
1070
     0
1070
    77
1070
     3
1070
   140
1040
6.0
1070
   141
1040
150.0
1070
   147
1040
2.0
1070
   172
1070
     1
1070
   173
1070
     1
1070
   176
1070
     4
1070
   177
1070
     4
1070
   178
1070
     4
1070
   271
1070
     0
1070
   272
1070
     0
1070
   341
1005
6D
1070
     6
1000
OPEN
1070
     7
1000
OPEN
1002
}
  0
LINE
  5
1025
330
1A
100
AcDbEntity
  8
SEIHIN
100
AcDbLine
 10
281.7190927226697
 20
399.6990870987997
 30
0.0
 11
281.7190927226697
 21
377.3228966225996
 31
0.0
  0
LINE
  5
1026
330
1A
100
AcDbEntity
  8
SEIHIN
100
AcDbLine
 10
269.5051917361697
 20
374.5799005448996
 30
0.0
 11
269.5051917361697
 21
402.5799005448996
 31
0.0
  0
LINE
  5
1027
330
1A
100
AcDbEntity
  8
SEIHIN
100
AcDbLine
 10
261.4051917361698
 20
374.5799005448996
 30
0.0
 11
261.4051917361698
 21
402.5799005448996
 31
0.0
  0
LINE
  5
1028
330
1A
100
AcDbEntity
  8
SEIHIN
100
AcDbLine
 10
420.7037718748697
 20
356.5799005448977
 30
0.0
 11
420.7037718748697
 21
388.5799005448977
 31
0.0
  0
LINE
  5
1029
330
1A
100
AcDbEntity
  8
SEIHIN
100
AcDbLine
 10
414.1646081417782
 20
360.127352228749
 30
0.0
 11
414.1646081417782
 21
369.546146189149
 31
0.0
  0
LINE
  5
102A
330
1A
100
AcDbEntity
  8
SEIHIN
100
AcDbLine
 10
412.5951163995185
 20
360.127352228749
 30
0.0
 11
412.5951163995185
 21
369.546146189149
 31
0.0
  0
LWPOLYLINE
  5
102B
330
1A
100
AcDbEntity
  8
SEIHIN
100
AcDbPolyline
 90
       12
 70
   128
 43
0.0
 10
414.1646081417782
 20
360.127352228749
 10
414.2070511213782
 20
358.462368057149
 10
414.3052816488782
 20
356.837942256649
 10
414.4573877787782
 20
355.285692427649
 10
414.6604089381782
 20
353.835831347449
 10
414.9103935512783
 20
352.5165789128489
 10
415.2024759519781
 20
351.353612871749
 10
415.5309710883782
 20
350.369569035249
 10
415.8894851764783
 20
349.583600697449
 10
416.2710401472781
 20
349.011005837849
 10
416.6682094673783
 20
348.662929364249
 10
417.0732626875783
 20
348.5461461891489
  0
LWPOLYLINE
  5
1039
330
1A
100
AcDbEntity
  8
SEIHIN
100
AcDbPolyline
 90
       12
 70
   128
 43
0.0
 10
412.5951163995185
 20
360.127352228749
 10
412.6375593791185
 20
358.462368057149
 10
412.7357899066184
 20
356.837942256649
 10
412.8878960365184
 20
355.285692427649
 10
413.0909171959185
 20
353.835831347449
 10
413.3409018090185
 20
352.5165789128489
 10
413.6329842097183
 20
351.353612871749
 10
413.9614793461184
 20
350.369569035249
 10
414.3199934342185
 20
349.583600697449
 10
414.7015484050184
 20
349.011005837849
 10
415.0987177251185
 20
348.662929364249
 10
415.5037709453186
 20
348.5461461891489
  0
LWPOLYLINE
  5
1047
330
1A
100
AcDbEntity
  8
SEIHIN
100
AcDbPolyline
 90
        7
 70
   128
 43
0.0
 10
420.6806928813771
 20
356.6687877345634
 10
420.8345034386979
 20
355.0991441478339
 10
421.0491094162084
 20
353.5665509181917
 10
421.3176604454365
 20
352.1493172943691
 10
421.6403951401207
 20
350.8643049509255
 10
422.0226248113976
 20
349.7192933191864
 10
422.547183637881
 20
348.5693060728992
  0
LINE
  5
1050
330
1A
100
AcDbEntity
  8
SEIHIN
100
AcDbLine
 10
415.5037709453186
 20
348.5461461891489
 30
0.0
 11
420.7662718748697
 21
348.5799005448996
 31
0.0
  0
LINE
  5
1055
330
1A
100
AcDbEntity
  8
SEIHIN
100
AcDbLine
 10
420.7037718748702
 20
420.5799005448983
 30
0.0
 11
420.7037718748697
 21
388.5799005448983
 31
0.0
  0
LWPOLYLINE
  5
1056
330
1A
100
AcDbEntity
  8
SEIHIN
100
AcDbPolyline
 90
       12
 70
   128
 43
0.0
 10
414.1646081417752
 20
416.9649401495491
 10
414.207051121375
 20
418.6299243211491
 10
414.305281648875
 20
420.2543501216492
 10
414.4573877787747
 20
421.8065999506492
 10
414.6604089381746
 20
423.2564610308492
 10
414.9103935512743
 20
424.5757134654493
 10
415.2024759519745
 20
425.7386795065492
 10
415.5309710883743
 20
426.7227233430493
 10
415.8894851764744
 20
427.5086916808494
 10
416.271040147274
 20
428.0812865404494
 10
416.6682094673742
 20
428.4293630140494
 10
417.0732626875742
 20
428.5461461891495
  0
LWPOLYLINE
  5
1064
330
1A
100
AcDbEntity
  8
SEIHIN
100
AcDbPolyline
 90
       12
 70
   128
 43
0.0
 10
412.5951163995154
 20
416.964940149549
 10
412.6375593791153
 20
418.629924321149
 10
412.7357899066153
 20
420.254350121649
 10
412.887896036515
 20
421.8065999506491
 10
413.0909171959149
 20
423.256461030849
 10
413.3409018090146
 20
424.5757134654491
 10
413.6329842097147
 20
425.7386795065491
 10
413.9614793461146
 20
426.7227233430491
 10
414.3199934342144
 20
427.5086916808493
 10
414.7015484050143
 20
428.0812865404493
 10
415.0987177251145
 20
428.4293630140492
 10
415.5037709453145
 20
428.5461461891493
  0
LINE
  5
1072
330
1A
100
AcDbEntity
  8
SEIHIN
100
AcDbLine
 10
414.1646081417752
 20
416.9649401495491
 30
0.0
 11
414.1646081417762
 21
407.5461461891491
 31
0.0
  0
LINE
  5
1073
330
1A
100
AcDbEntity
  8
SEIHIN
100
AcDbLine
 10
412.5951163995154
 20
416.964940149549
 30
0.0
 11
412.5951163995164
 21
407.5461461891491
 31
0.0
  0
LWPOLYLINE
  5
1074
330
1A
100
AcDbEntity
  8
SEIHIN
100
AcDbPolyline
 90
        7
 70
   128
 43
0.0
 10
420.6806928813771
 20
420.491013355232
 10
420.8345034386979
 20
422.0606569419614
 10
421.0491094162084
 20
423.5932501716036
 10
421.3176604454365
 20
425.0104837954262
 10
421.6403951401207
 20
426.2954961388699
 10
422.0226248113976
 20
427.440507770609
 10
422.547183637881
 20
428.5904950168962
  0
LINE
  5
107D
330
1A
100
AcDbEntity
  8
SEIHIN
100
AcDbLine
 10
415.5037709453145
 20
428.5461461891493
 30
0.0
 11
420.7662718748697
 21
428.5799005448995
 31
0.0
  0
DIMENSION
  5
107E
330
1A
100
AcDbEntity
  8
SUNPOU
100
AcDbDimension
  2
*D7
 10
501.3401843055508
 20
255.83946115905
 30
0.0
 11
499.3910878982863
 21
268.806208329237
 31
0.0
 70
    33
  3
STANDARD
100
AcDbAlignedDimension
 13
517.1643287823707
 23
293.6063578742288
 33
0.0
 14
529.637450854026
 24
272.8178210881287
 34
0.0
1001
ACAD
1000
DSTYLE
1002
{
1070
    41
1040
7.0
1070
    42
1040
6.0
1070
    43
1040
14.0
1070
    44
1040
3.0
1070
    73
1070
     0
1070
    74
1070
     0
1070
    77
1070
     3
1070
   140
1040
6.0
1070
   141
1040
150.0
1070
   147
1040
2.0
1070
   172
1070
     1
1070
   173
1070
     1
1070
   176
1070
     4
1070
   177
1070
     4
1070
   178
1070
     4
1070
   271
1070
     0
1070
   272
1070
     0
1070
   341
1005
6D
1070
     6
1000
OPEN
1070
     7
1000
OPEN
1002
}
  0
DIMENSION
  5
107F
330
1A
100
AcDbEntity
  8
SUNPOU
100
AcDbDimension
  2
*D8
 10
556.609003365196
 20
352.2588739930089
 30
0.0
 11
526.5967509652561
 21
340.0824744478704
 31
0.0
 70
    33
  3
STANDARD
100
AcDbAlignedDimension
 13
529.6374508541174
 23
272.8178210881299
 33
0.0
 14
584.5169980997174
 24
305.7455494355299
 34
0.0
1001
ACAD
1000
DSTYLE
1002
{
1070
    41
1040
7.0
1070
    42
1040
6.0
1070
    43
1040
14.0
1070
    44
1040
3.0
1070
    73
1070
     0
1070
    74
1070
     0
1070
    77
1070
     3
1070
   140
1040
6.0
1070
   141
1040
150.0
1070
   147
1040
2.0
1070
   172
1070
     1
1070
   173
1070
     1
1070
   176
1070
     4
1070
   177
1070
     4
1070
   178
1070
     4
1070
   271
1070
     0
1070
   272
1070
     0
1070
   341
1005
6D
1070
     6
1000
OPEN
1070
     7
1000
OPEN
1002
}
  0
LINE
  5
1080
330
1A
100
AcDbEntity
  8
SEIHIN
100
AcDbLine
 10
557.8318182516676
 20
292.8831555495797
 30
0.0
 11
580.8478254329173
 21
254.5231435808299
 31
0.0
  0
LINE
  5
1081
330
1A
100
AcDbEntity
  8
SEIHIN
100
AcDbLine
 10
546.2556637543899
 20
285.9374628515835
 30
0.0
 11
573.0971299987175
 21
241.20168577773
 31
0.0
  0
LINE
  5
1082
330
1A
100
AcDbEntity
  8
SEIHIN
100
AcDbLine
 10
520.8738731533174
 20
277.7055307647299
 30
0.0
 11
518.5639553701174
 21
281.5553937367299
 31
0.0
  0
LINE
  5
1083
330
1A
100
AcDbEntity
  8
SEIHIN
100
AcDbLine
 10
522.2458618345175
 20
277.3625335944299
 30
0.0
 11
539.3957203487174
 21
287.6524487030499
 31
0.0
  0
LINE
  5
1084
330
1A
100
AcDbEntity
  8
SEIHIN
100
AcDbLine
 10
525.3499862255174
 20
264.41439041613
 30
0.0
 11
515.9914756789174
 21
280.01190799383
 31
0.0
  0
ARC
  5
1085
330
1A
100
AcDbEntity
  8
SEIHIN
100
AcDbCircle
 10
529.6374508541174
 20
272.8178210881299
 30
0.0
 40
7.7
100
AcDbArc
 50
279.9095250053965
 51
56.13261001664894
  0
ARC
  5
1086
330
1A
100
AcDbEntity
  8
SEIHIN
100
AcDbCircle
 10
594.6354146231177
 20
279.16326873843
 30
0.0
 40
13.0
100
AcDbArc
 50
120.9637565438036
 51
210.9637565555983
  0
LINE
  5
1087
330
1A
100
AcDbEntity
  8
SEIHIN
100
AcDbLine
 10
552.9858084361174
 20
268.88960315393
 30
0.0
 11
543.6831849772728
 21
284.3939755853378
 31
0.0
  0
LINE
  5
1088
330
1A
100
AcDbEntity
  8
SEIHIN
100
AcDbLine
 10
576.5603608043173
 20
251.9506648037299
 30
0.0
 11
553.5443536229089
 21
290.3106767727189
 31
0.0
  0
LINE
  5
1089
330
1A
100
AcDbEntity
  8
CENTER_L
 48
5.0
100
AcDbLine
 10
541.8420877777174
 20
314.67357976043
 30
0.0
 11
589.5081838295176
 21
235.2300863407299
 31
0.0
  0
LINE
  5
108A
330
1A
100
AcDbEntity
  8
SEIHIN
100
AcDbLine
 10
592.0535141204176
 20
252.36802613703
 30
0.0
 11
565.1205081201687
 21
297.2563694707262
 31
0.0
  0
DIMENSION
  5
108B
330
1A
100
AcDbEntity
  8
SUNPOU
100
AcDbDimension
  2
*D9
 10
531.1809381184162
 20
206.1048714709196
 30
0.0
 11
544.7293263447234
 21
193.242477585283
 31
0.0
 70
    33
  3
STANDARD
100
AcDbAlignedDimension
 13
582.8020122461631
 23
246.4070389795973
 33
0.0
 14
586.9179782896043
 24
239.5470955739212
 34
0.0
1001
ACAD
1000
DSTYLE
1002
{
1070
    41
1040
7.0
1070
    42
1040
6.0
1070
    43
1040
14.0
1070
    44
1040
3.0
1070
    73
1070
     0
1070
    74
1070
     0
1070
    77
1070
     3
1070
   140
1040
6.0
1070
   141
1040
150.0
1070
   147
1040
2.0
1070
   172
1070
     1
1070
   173
1070
     1
1070
   176
1070
     4
1070
   177
1070
     4
1070
   178
1070
     4
1070
   271
1070
     0
1070
   272
1070
     0
1070
   341
1005
6D
1070
     6
1000
OPEN
1070
     7
1000
OPEN
1002
}
  0
ARC
  5
108C
330
1A
100
AcDbEntity
  8
SEIHIN
100
AcDbCircle
 10
548.3307966346177
 20
251.3804979453299
 30
0.0
 40
13.0
100
AcDbArc
 50
30.96375653209949
 51
120.9637565438036
  0
LINE
  5
108E
330
1A
100
AcDbEntity
  8
SEIHIN
100
AcDbLine
 10
441.5803246164696
 20
187.3302147389961
 30
0.0
 11
457.0151972792696
 21
161.6054269675961
 31
0.0
  0
LINE
  5
108F
330
1A
100
AcDbEntity
  8
SEIHIN
100
AcDbLine
 10
444.1130787612697
 20
188.9399097257961
 30
0.0
 11
458.7644828477696
 21
164.520902914996
 31
0.0
  0
DIMENSION
  5
1090
330
1A
100
AcDbEntity
  8
SUNPOU
100
AcDbDimension
  2
*D10
 10
470.7350840903733
 20
152.3445033699707
 30
0.0
 11
491.743660770549
 21
164.9496493775814
 31
0.0
 70
   161
  1
t7.0
  3
STANDARD
100
AcDbAlignedDimension
 13
457.0151972792696
 23
161.6054269675961
 33
0.0
 14
463.017647759355
 24
165.2068972555059
 34
0.0
1001
ACAD
1000
DSTYLE
1002
{
1070
    41
1040
7.0
1070
    42
1040
6.0
1070
    43
1040
14.0
1070
    44
1040
3.0
1070
    73
1070
     0
1070
    74
1070
     0
1070
    77
1070
     3
1070
   140
1040
6.0
1070
   141
1040
150.0
1070
   147
1040
2.0
1070
   172
1070
     1
1070
   173
1070
     1
1070
   176
1070
     4
1070
   177
1070
     4
1070
   178
1070
     4
1070
   271
1070
     0
1070
   272
1070
     0
1070
   341
1005
6D
1070
     6
1000
OPEN
1070
     7
1000
OPEN
1002
}
  0
LINE
  5
1091
330
1A
100
AcDbEntity
  8
SUNPOU
100
AcDbLine
 10
478.2505029292697
 20
139.818805305496
 30
0.0
 11
478.2505029292697
 21
129.818805305496
 31
0.0
  0
LINE
  5
1092
330
1A
100
AcDbEntity
  8
SUNPOU
100
AcDbLine
 10
460.9596647375696
 20
168.6368689584961
 30
0.0
 11
484.2505029292697
 21
129.818805305496
 31
0.0
  0
LINE
  5
1094
330
1A
100
AcDbEntity
  8
SUNPOU
100
AcDbLine
 10
478.2505029292697
 20
129.818805305496
 30
0.0
 11
484.2505029292697
 21
129.818805305496
 31
0.0
  0
LINE
  5
1096
330
1A
100
AcDbEntity
  8
CENTER_L
 48
5.0
100
AcDbLine
 10
446.0392878302022
 20
164.3494043298786
 30
0.0
 11
463.1891463444476
 21
174.6393194384383
 31
0.0
  0
LINE
  5
1098
330
1A
100
AcDbEntity
  8
SEIHIN
100
AcDbLine
 10
458.2156873752697
 20
163.491911404196
 30
0.0
 11
458.7301831306695
 21
162.6344184784961
 31
0.0
  0
LINE
  5
1099
330
1A
100
AcDbEntity
  8
SEIHIN
100
AcDbLine
 10
458.7301831306695
 20
162.6344184784961
 30
0.0
 11
457.0151972792696
 21
161.6054269675961
 31
0.0
  0
LINE
  5
109A
330
1A
100
AcDbEntity
  8
SEIHIN
100
AcDbLine
 10
460.9596647375696
 20
168.6368689584961
 30
0.0
 11
458.2156873752697
 21
163.491911404196
 31
0.0
  0
DIMENSION
  5
109B
330
1A
100
AcDbEntity
  8
SUNPOU
100
AcDbDimension
  2
*D11
 10
527.0649720748691
 20
212.9648148768348
 30
0.0
 11
518.4900428187729
 21
236.9746167950795
 31
0.0
 70
    33
  3
STANDARD
100
AcDbAlignedDimension
 13
529.6374508540258
 23
272.8178210881285
 33
0.0
 14
555.3622386233445
 24
229.9431748059129
 34
0.0
1001
ACAD
1000
DSTYLE
1002
{
1070
    41
1040
7.0
1070
    42
1040
6.0
1070
    43
1040
14.0
1070
    44
1040
3.0
1070
    73
1070
     0
1070
    74
1070
     0
1070
    77
1070
     3
1070
   140
1040
6.0
1070
   141
1040
150.0
1070
   147
1040
2.0
1070
   172
1070
     1
1070
   173
1070
     1
1070
   176
1070
     4
1070
   177
1070
     4
1070
   178
1070
     4
1070
   271
1070
     0
1070
   272
1070
     0
1070
   341
1005
6D
1070
     6
1000
OPEN
1070
     7
1000
OPEN
1002
}
  0
LINE
  5
109C
330
1A
100
AcDbEntity
  8
CENTER_L
 48
5.0
100
AcDbLine
 10
524.4090250786392
 20
269.6812318067106
 30
0.0
 11
535.3760192373655
 21
276.2604504481958
 31
0.0
  0
ARC
  5
109D
330
1A
100
AcDbEntity
  8
SEIHIN
100
AcDbCircle
 10
533.9249154827174
 20
269.5593479704299
 30
0.0
 40
10.0
100
AcDbArc
 50
210.9637565555983
 51
300.9637565672997
  0
ARC
  5
109E
330
1A
100
AcDbEntity
  8
SEIHIN
100
AcDbCircle
 10
521.7313660790177
 20
278.22002652013
 30
0.0
 40
1.0
100
AcDbArc
 50
210.9637565320995
 51
300.9637565320989
  0
ARC
  5
109F
330
1A
100
AcDbEntity
  8
SEIHIN
100
AcDbCircle
 10
548.6737938049176
 20
252.7524866264299
 30
0.0
 40
15.0
100
AcDbArc
 50
77.53121998039609
 51
120.9637565438036
  0
ARC
  5
10A0
330
1A
100
AcDbEntity
  8
SEIHIN
100
AcDbCircle
 10
533.9249154827174
 20
269.5593479704299
 30
0.0
 40
7.0
100
AcDbArc
 50
242.2870090075965
 51
300.9637565672997
  0
ARC
  5
10A1
330
1A
100
AcDbEntity
  8
SEIHIN
100
AcDbCircle
 10
531.1346587760175
 20
264.24761873113
 30
0.0
 40
1.0
100
AcDbArc
 50
99.90952498190251
 51
242.2870090075965
  0
LINE
  5
10A2
330
1A
100
AcDbEntity
  8
SEIHIN
100
AcDbLine
 10
537.5263857707176
 20
263.55689749043
 30
0.0
 11
540.9563574735174
 21
265.61488051213
 31
0.0
  0
LINE
  5
10A3
330
1A
100
AcDbEntity
  8
SEIHIN
100
AcDbLine
 10
541.6423518141177
 20
262.52790597953
 30
0.0
 11
539.0698730369175
 21
260.98441871333
 31
0.0
  0
LINE
  5
10A4
330
1A
100
AcDbEntity
  8
CENTER_L
 48
5.0
100
AcDbLine
 10
526.7299929410445
 20
277.6643044909397
 30
0.0
 11
532.8706004360275
 21
267.4284375592842
 31
0.0
  0
CIRCLE
  5
10A5
330
1A
100
AcDbEntity
  8
SEIHIN
100
AcDbCircle
 10
529.6374508541174
 20
272.8178210881299
 30
0.0
 40
2.7
  0
ARC
  5
10A6
330
1A
100
AcDbEntity
  8
SEIHIN
100
AcDbCircle
 10
552.1283155104173
 20
268.37510739843
 30
0.0
 40
1.0
100
AcDbArc
 50
257.5312200038984
 51
30.96375653209949
  0
DIMENSION
  5
10A7
330
1A
100
AcDbEntity
  8
SUNPOU
100
AcDbDimension
  2
*D12
 10
612.6071444787576
 20
223.3508408688149
 30
0.0
 11
598.0001682730427
 21
220.5837802736301
 31
0.0
 70
    33
  3
STANDARD
100
AcDbAlignedDimension
 13
573.3409613218176
 23
234.96434834443
 33
0.0
 14
597.4976541239174
 24
249.12541135933
 34
0.0
1001
ACAD
1000
DSTYLE
1002
{
1070
    41
1040
7.0
1070
    42
1040
6.0
1070
    43
1040
14.0
1070
    44
1040
3.0
1070
    73
1070
     0
1070
    74
1070
     0
1070
    77
1070
     3
1070
   140
1040
6.0
1070
   141
1040
150.0
1070
   147
1040
2.0
1070
   172
1070
     1
1070
   173
1070
     1
1070
   176
1070
     4
1070
   177
1070
     4
1070
   178
1070
     4
1070
   271
1070
     0
1070
   272
1070
     0
1070
   341
1005
6D
1070
     6
1000
OPEN
1070
     7
1000
OPEN
1002
}
  0
LINE
  5
10A8
330
1A
100
AcDbEntity
  8
SEIHIN
100
AcDbLine
 10
590.6442243605177
 20
250.3038114609299
 30
0.0
 11
591.7401296048177
 21
251.01451546033
 31
0.0
  0
LINE
  5
10A9
330
1A
100
AcDbEntity
  8
SEIHIN
100
AcDbLine
 10
584.8599952679177
 20
242.97706727673
 30
0.0
 11
596.6133640004176
 21
250.5992282319299
 31
0.0
  0
LINE
  5
10AA
330
1A
100
AcDbEntity
  8
SEIHIN
100
AcDbLine
 10
596.6523621704176
 20
245.85992744593
 30
0.0
 11
586.9179782896175
 21
239.54709557393
 31
0.0
  0
LINE
  5
10AB
330
1A
100
AcDbEntity
  8
SEIHIN
100
AcDbLine
 10
596.2282394617176
 20
246.56679862703
 30
0.0
 11
586.4034825342177
 21
240.4045884996299
 31
0.0
  0
LINE
  5
10AC
330
1A
100
AcDbEntity
  8
SEIHIN
100
AcDbLine
 10
583.4880065888177
 20
272.47482391783
 30
0.0
 11
596.6133640004176
 21
250.5992282319299
 31
0.0
  0
LINE
  5
10AD
330
1A
100
AcDbEntity
  8
SEIHIN
100
AcDbLine
 10
572.4776041881177
 20
236.4032769005299
 30
0.0
 11
559.4782046689173
 21
258.0689427658299
 31
0.0
  0
LINE
  5
10AE
330
1A
100
AcDbEntity
  8
SEIHIN
100
AcDbLine
 10
574.4235358690174
 20
240.8329371443299
 30
0.0
 11
575.5841300181177
 21
241.4490946052299
 31
0.0
  0
LINE
  5
10AF
330
1A
100
AcDbEntity
  8
SEIHIN
100
AcDbLine
 10
573.3409613218176
 20
234.96434834443
 30
0.0
 11
576.4519090571174
 21
234.8282151686299
 31
0.0
  0
LINE
  5
10B0
330
1A
100
AcDbEntity
  8
SEIHIN
100
AcDbLine
 10
584.8599952679177
 20
242.97706727673
 30
0.0
 11
572.4776041881177
 21
236.4032769005299
 31
0.0
  0
ARC
  5
10B1
330
1A
100
AcDbEntity
  8
SEIHIN
100
AcDbCircle
 10
573.9546229244178
 20
241.7161815331299
 30
0.0
 40
1.0
100
AcDbArc
 50
210.9637565320995
 51
297.9637565314011
  0
LINE
  5
10B2
330
1A
100
AcDbEntity
  8
SEIHIN
100
AcDbLine
 10
573.3409613218176
 20
234.96434834443
 30
0.0
 11
572.4776041881177
 21
236.4032769005299
 31
0.0
  0
LINE
  5
10B3
330
1A
100
AcDbEntity
  8
CENTER_L
 48
5.0
100
AcDbLine
 10
588.1888065435792
 20
249.6361885018317
 30
0.0
 11
577.4118402918656
 21
243.1709696610328
 31
0.0
  0
CIRCLE
  5
10B4
330
1A
100
AcDbEntity
  8
SEIHIN
100
AcDbCircle
 10
582.8020122462175
 20
246.40703897963
 30
0.0
 40
2.7
  0
ARC
  5
10B5
330
1A
100
AcDbEntity
  8
SEIHIN
100
AcDbCircle
 10
582.8020122462175
 20
246.40703897963
 30
0.0
 40
7.7
100
AcDbArc
 50
144.6857261390992
 51
207.9276545186007
  0
LINE
  5
10B6
330
1A
100
AcDbEntity
  8
SEIHIN
100
AcDbLine
 10
576.8330299670177
 20
234.1930136522299
 30
0.0
 11
586.9179782896175
 21
239.54709557393
 31
0.0
  0
LINE
  5
10B7
330
1A
100
AcDbEntity
  8
SEIHIN
100
AcDbLine
 10
576.4519090571174
 20
234.8282151686299
 30
0.0
 11
586.4034825342177
 21
240.4045884996299
 31
0.0
  0
ARC
  5
10B8
330
1A
100
AcDbEntity
  8
SEIHIN
100
AcDbCircle
 10
575.1152170735175
 20
242.3323389940299
 30
0.0
 40
1.0
100
AcDbArc
 50
297.9637565314011
 51
27.92765451860077
  0
LINE
  5
10B9
330
1A
100
AcDbEntity
  8
SEIHIN
100
AcDbLine
 10
576.4519090571174
 20
234.8282151686299
 30
0.0
 11
576.8330299670177
 21
234.1930136522299
 31
0.0
  0
LINE
  5
10BA
330
1A
100
AcDbEntity
  8
SEIHIN
100
AcDbLine
 10
586.4034825342177
 20
240.4045884996299
 30
0.0
 11
586.9179782896175
 21
239.54709557393
 31
0.0
  0
LINE
  5
10BB
330
1A
100
AcDbEntity
  8
SEIHIN
100
AcDbLine
 10
584.8599952679177
 20
242.97706727673
 30
0.0
 11
586.4034825342177
 21
240.4045884996299
 31
0.0
  0
ARC
  5
10BC
330
1A
100
AcDbEntity
  8
SEIHIN
100
AcDbCircle
 10
582.8020122462175
 20
246.40703897963
 30
0.0
 40
7.7
100
AcDbArc
 50
32.97980390719946
 51
97.24178692500396
  0
ARC
  5
10BD
330
1A
100
AcDbEntity
  8
SEIHIN
100
AcDbCircle
 10
581.7053183586175
 20
255.03763933633
 30
0.0
 40
1.0
100
AcDbArc
 50
210.9637565320995
 51
277.2417869250039
  0
ARC
  5
10BE
330
1A
100
AcDbEntity
  8
SEIHIN
100
AcDbCircle
 10
575.7028678786176
 20
251.4361690483299
 30
0.0
 40
1.0
100
AcDbArc
 50
324.6857261390992
 51
30.96375653209949
  0
ARC
  5
10BF
330
1A
100
AcDbEntity
  8
SEIHIN
100
AcDbCircle
 10
590.1001159504175
 20
251.1428263822299
 30
0.0
 40
1.0
100
AcDbArc
 50
212.9798039071994
 51
302.9637565325978
  0
LINE
  5
10C0
330
1A
100
AcDbEntity
  8
SEIHIN
100
AcDbLine
 10
596.6523621704176
 20
245.85992744593
 30
0.0
 11
596.2282394617176
 21
246.56679862703
 31
0.0
  0
LINE
  5
10C1
330
1A
100
AcDbEntity
  8
SEIHIN
100
AcDbLine
 10
596.2282394617176
 20
246.56679862703
 30
0.0
 11
597.4976541239174
 21
249.12541135933
 31
0.0
  0
LINE
  5
10C2
330
1A
100
AcDbEntity
  8
SEIHIN
100
AcDbLine
 10
597.4976541239174
 20
249.12541135933
 30
0.0
 11
596.6133640004176
 21
250.5992282319299
 31
0.0
  0
ARC
  5
10C3
330
1A
100
AcDbEntity
  8
SEIHIN
100
AcDbCircle
 10
591.1960211947174
 20
251.8535303815299
 30
0.0
 40
1.0
100
AcDbArc
 50
302.9637565325978
 51
30.96375653209949
  0
DIMENSION
  5
10C4
330
1A
100
AcDbEntity
  8
SUNPOU
100
AcDbDimension
  2
*D13
 10
556.2325568666495
 20
369.1631992208503
 30
0.0
 11
519.2520225461309
 21
353.1160529494145
 31
0.0
 70
    33
  3
STANDARD
100
AcDbAlignedDimension
 13
515.9914756789174
 23
280.01190799383
 33
0.0
 14
584.8647492699178
 24
320.7151692048299
 34
0.0
1001
ACAD
1000
DSTYLE
1002
{
1070
    41
1040
7.0
1070
    42
1040
6.0
1070
    43
1040
14.0
1070
    44
1040
3.0
1070
    73
1070
     0
1070
    74
1070
     0
1070
    77
1070
     3
1070
   140
1040
6.0
1070
   141
1040
150.0
1070
   147
1040
2.0
1070
   172
1070
     1
1070
   173
1070
     1
1070
   176
1070
     4
1070
   177
1070
     4
1070
   178
1070
     4
1070
   271
1070
     0
1070
   272
1070
     0
1070
   341
1005
6D
1070
     6
1000
OPEN
1070
     7
1000
OPEN
1002
}
  0
ARC
  5
10C5
330
1A
100
AcDbEntity
  8
SEIHIN
100
AcDbCircle
 10
559.546804103093
 20
293.9121470604348
 30
0.0
 40
2.0
100
AcDbArc
 50
120.9637565325648
 51
210.9637565320734
  0
LINE
  5
10C6
330
1A
100
AcDbEntity
  8
SEIHIN
100
AcDbLine
 10
561.5190378321726
 20
303.2588199507123
 30
0.0
 11
557.8856090398175
 21
309.31453460463
 31
0.0
  0
LINE
  5
10C7
330
1A
100
AcDbEntity
  8
SEIHIN
100
AcDbLine
 10
556.9743253259697
 20
298.1996116890062
 30
0.0
 11
560.8330434916178
 21
300.5148425884401
 31
0.0
  0
LINE
  5
10C8
330
1A
100
AcDbEntity
  8
SEIHIN
100
AcDbLine
 10
571.6006863462174
 20
324.40266257213
 30
0.0
 11
544.6041024052177
 21
310.07022204793
 31
0.0
  0
ARC
  5
10C9
330
1A
100
AcDbEntity
  8
SEIHIN
100
AcDbCircle
 10
357.7744222515007
 20
388.5799005448975
 30
0.0
 40
101.1272594643853
100
AcDbArc
 50
356.0308285751286
 51
0.0000000000012213
  0
LWPOLYLINE
  5
10CA
330
1A
100
AcDbEntity
  8
SEIHIN
100
AcDbPolyline
 90
        9
 70
   128
 43
0.0
 10
430.2980588096661
 20
386.0799005448975
 10
430.1529973299661
 20
386.0196746587975
 10
430.013760154366
 20
385.8414151052975
 10
429.8859377376661
 20
385.5522791107976
 10
429.7746622255663
 20
385.1638756562974
 10
429.684401395466
 20
384.6917993698975
 10
429.6187792730661
 20
384.1550043934976
 10
429.5804306253662
 20
383.5750433624975
 10
429.5708951731662
 20
382.9752020547975
  0
LWPOLYLINE
  5
10D5
330
1A
100
AcDbEntity
  8
SEIHIN
100
AcDbPolyline
 90
        9
 70
   128
 43
0.0
 10
433.1328345899001
 20
386.0799005448975
 10
432.9877731102
 20
386.0196746587975
 10
432.8485359346
 20
385.8414151052975
 10
432.7207135179
 20
385.5522791107976
 10
432.6094380058002
 20
385.1638756562974
 10
432.5191771756999
 20
384.6917993698975
 10
432.4535550533
 20
384.1550043934976
 10
432.4152064056002
 20
383.5750433624975
 10
432.4056709534001
 20
382.9752020547975
  0
LWPOLYLINE
  5
10E0
330
1A
100
AcDbEntity
  8
SEIHIN
100
AcDbPolyline
 90
        9
 70
   128
 43
0.0
 10
431.0209704106592
 20
386.0799005448975
 10
431.1660318903591
 20
386.0196746587975
 10
431.3052690659592
 20
385.8414151052975
 10
431.4330914826591
 20
385.5522791107976
 10
431.5443669947589
 20
385.1638756562974
 10
431.6346278248588
 20
384.6917993698975
 10
431.7002499472591
 20
384.1550043934976
 10
431.7385985949591
 20
383.5750433624975
 10
431.748134047159
 20
382.9752020547975
  0
LWPOLYLINE
  5
10EB
330
1A
100
AcDbEntity
  8
SEIHIN
100
AcDbPolyline
 90
        8
 70
   128
 43
0.0
 10
430.0918146101626
 20
385.941344972296
 10
430.169869065959
 20
385.8414151052975
 10
430.297691482659
 20
385.5522791107976
 10
430.4089669947589
 20
385.1638756562974
 10
430.4992278248591
 20
384.6917993698975
 10
430.564849947259
 20
384.1550043934976
 10
430.6031985949589
 20
383.5750433624975
 10
430.6127340471589
 20
382.9752020547975
  0
LINE
  5
10F5
330
1A
100
AcDbEntity
  8
SEIHIN
100
AcDbLine
 10
428.513635846238
 20
356.5799005448977
 30
0.0
 11
428.513635846238
 21
388.5799005448977
 31
0.0
  0
ELLIPSE
  5
10F6
330
1A
100
AcDbEntity
  8
SEIHIN
100
AcDbEllipse
 10
456.9448891379156
 20
388.4220192531273
 30
0.0
 11
0.5091598755672184
 21
8.030211518536036
 31
0.0
210
0.0
220
0.0
230
1.0
 40
0.3005395739229382
 41
1.885759924007487
 42
3.143846711997412
  0
ELLIPSE
  5
10F7
330
1A
100
AcDbEntity
  8
SEIHIN
100
AcDbEllipse
 10
458.0743656916697
 20
388.4220192531273
 30
0.0
 11
0.5091598755672184
 21
8.030211518536036
 31
0.0
210
0.0
220
0.0
230
1.0
 40
0.3005395739229382
 41
1.885759924007487
 42
3.143846711997412
  0
DIMENSION
  5
10F8
330
1A
100
AcDbEntity
  8
SUNPOU
100
AcDbDimension
  2
*D14
 10
484.2235910745722
 20
348.5799005448996
 30
0.0
 11
484.2235910745721
 21
388.8141620461662
 31
0.0
 70
   160
  3
STANDARD
100
AcDbAlignedDimension
 13
441.3247253772765
 23
428.5799005448995
 33
0.0
 14
441.3247253772765
 24
348.5799005448996
 34
0.0
 50
90.0
100
AcDbRotatedDimension
1001
ACAD
1000
DSTYLE
1002
{
1070
    41
1040
7.0
1070
    42
1040
6.0
1070
    43
1040
14.0
1070
    44
1040
3.0
1070
    73
1070
     0
1070
    74
1070
     0
1070
    77
1070
     3
1070
   140
1040
6.0
1070
   141
1040
150.0
1070
   147
1040
2.0
1070
   172
1070
     1
1070
   173
1070
     1
1070
   176
1070
     4
1070
   177
1070
     4
1070
   178
1070
     4
1070
   271
1070
     0
1070
   272
1070
     0
1070
   341
1005
6D
1070
     6
1000
OPEN
1070
     7
1000
OPEN
1002
}
  0
LWPOLYLINE
  5
10F9
330
1A
100
AcDbEntity
  8
SEIHIN
100
AcDbPolyline
 90
        8
 70
   128
 43
0.0
 10
455.6312145080759
 20
376.5799005448947
 10
455.776275987776
 20
376.6401264309947
 10
455.9155131633761
 20
376.8183859844948
 10
456.043335580076
 20
377.1075219789947
 10
456.1546110921763
 20
377.4959254334946
 10
456.2448719222762
 20
377.9680017198947
 10
456.310494044676
 20
378.5047966962947
 10
456.4352470412895
 20
380.3914832126553
  0
LINE
  5
1103
330
1A
100
AcDbEntity
  8
SEIHIN
100
AcDbLine
 10
456.2850404384285
 20
373.5799005448949
 30
0.0
 11
439.3206910742015
 21
373.5799005448975
 31
0.0
  0
LINE
  5
1104
330
1A
100
AcDbEntity
  8
SEIHIN
100
AcDbLine
 10
456.7666145080766
 20
376.5799005448947
 30
0.0
 11
433.1607044530637
 21
376.5799005448973
 31
0.0
  0
LINE
  5
1105
330
1A
100
AcDbEntity
  8
CENTER_L
 48
5.0
100
AcDbLine
 10
433.1768939465527
 20
345.7270417023597
 30
0.0
 11
433.1768939465527
 21
367.5002680989323
 31
0.0
  0
LINE
  5
1106
330
1A
100
AcDbEntity
  8
SEIHIN
100
AcDbLine
 10
436.8968122860015
 20
363.9288955119975
 30
0.0
 11
436.8485529856015
 21
358.2309055777975
 31
0.0
  0
LINE
  5
1107
330
1A
100
AcDbEntity
  8
SEIHIN
100
AcDbLine
 10
435.7614530066062
 20
363.9385114722149
 30
0.0
 11
435.7131937062063
 21
358.2405215380149
 31
0.0
  0
LWPOLYLINE
  5
1108
330
1A
100
AcDbEntity
  8
SEIHIN
100
AcDbPolyline
 90
       13
 70
   128
 43
0.0
 10
433.1320295378823
 20
364.5172985165975
 10
433.4569050745821
 20
364.4034570645976
 10
433.7724616120822
 20
364.0651982308975
 10
434.0696474649822
 20
363.5122249124974
 10
434.3399379079819
 20
362.7603990545976
 10
434.5755797057822
 20
361.8312866531975
 10
434.769813513682
 20
360.7515391388974
 10
434.9170677682823
 20
359.5521288844975
 10
435.0131185062823
 20
358.2674607682974
 10
435.0552105286819
 20
356.9343852754975
 10
435.0421364331823
 20
355.5911414486975
 10
434.9742712477823
 20
354.2762600075975
 10
434.8535616738822
 20
353.0274581016974
  0
LINE
  5
1117
330
1A
100
AcDbEntity
  8
SEIHIN
100
AcDbLine
 10
429.6860618276614
 20
360.1707225447257
 30
0.0
 11
429.5987856588226
 21
370.4754457142801
 31
0.0
  0
LINE
  5
1118
330
1A
100
AcDbEntity
  8
SEIHIN
100
AcDbLine
 10
431.7664852072517
 20
371.0750433624975
 30
0.0
 11
431.6121842065609
 21
349.7174867437607
 31
0.0
  0
LINE
  5
1119
330
1A
100
AcDbEntity
  8
SEIHIN
100
AcDbLine
 10
430.6311148375653
 20
371.0832460229106
 30
0.0
 11
430.4963800770374
 21
352.4339484577809
 31
0.0
  0
LINE
  5
111A
330
1A
100
AcDbEntity
  8
CENTER_L
 48
5.0
100
AcDbLine
 10
423.7037718748697
 20
356.5799005448996
 30
0.0
 11
441.383767010868
 21
356.5799005448996
 31
0.0
  0
LWPOLYLINE
  5
111B
330
1A
100
AcDbEntity
  8
SEIHIN
100
AcDbPolyline
 90
        7
 70
   128
 43
0.0
 10
428.4905568527453
 20
356.6687877345634
 10
428.6443674100662
 20
355.0991441478339
 10
428.8589733875767
 20
353.5665509181917
 10
429.127524416805
 20
352.1493172943691
 10
429.4502591114889
 20
350.8643049509255
 10
429.8324887827659
 20
349.7192933191864
 10
430.3570476092493
 20
348.5693060728992
  0
LWPOLYLINE
  5
1124
330
1A
100
AcDbEntity
  8
SEIHIN
100
AcDbPolyline
 90
       11
 70
   128
 43
0.0
 10
434.4246741974016
 20
348.5799005448975
 10
434.7957193515017
 20
348.6976167303976
 10
435.1580289016019
 20
349.0479938669975
 10
435.5030729081017
 20
349.6227829424974
 10
435.8227279179017
 20
350.4084515614974
 10
436.1094682176017
 20
351.3865025414975
 10
436.3565430121016
 20
352.5339093962975
 10
436.5581353611019
 20
353.8236584541976
 10
436.7094991281019
 20
355.2253848473974
 10
436.8070707199017
 20
356.7060873989976
 10
436.8485529856015
 20
358.2309055777975
  0
LINE
  5
1131
330
1A
100
AcDbEntity
  8
SEIHIN
100
AcDbLine
 10
429.8852623155994
 20
348.5799005448975
 30
0.0
 11
434.4246741974016
 21
348.5799005448975
 31
0.0
  0
LINE
  5
1132
330
1A
100
AcDbEntity
  8
SEIHIN
100
AcDbLine
 10
431.459357094066
 20
348.5799005448975
 30
0.0
 11
428.0755989110994
 21
348.5799005448975
 31
0.0
  0
LINE
  5
1133
330
1A
100
AcDbEntity
  8
SEIHIN
100
AcDbLine
 10
423.6213847354861
 20
348.5799005448975
 30
0.0
 11
433.651954252653
 21
348.5799005448975
 31
0.0
  0
LINE
  5
1134
330
1A
100
AcDbEntity
  8
SEIHIN
100
AcDbLine
 10
427.1167538492472
 20
348.5912201217308
 30
0.0
 11
428.8228076974755
 21
348.5664933008911
 31
0.0
  0
LINE
  5
1135
330
1A
100
AcDbEntity
  8
SEIHIN
100
AcDbLine
 10
434.1185742256661
 20
348.5799005448975
 30
0.0
 11
431.459357094066
 21
348.5799005448975
 31
0.0
  0
LWPOLYLINE
  5
1136
330
1A
100
AcDbEntity
  8
SEIHIN
100
AcDbPolyline
 90
       11
 70
   128
 43
0.0
 10
429.6857338264713
 20
360.1900402585876
 10
429.727671697613
 20
358.5448708501244
 10
429.8234281395516
 20
356.9613586894143
 10
429.9711750996817
 20
355.4535943820334
 10
430.1671419833751
 20
354.0541109069389
 10
430.4058210570178
 20
352.7945215862744
 10
430.6792385351668
 20
351.7058724880457
 10
430.9750134147289
 20
350.8198458320214
 10
431.2708483458222
 20
350.1712886434131
 10
431.5185799394084
 20
349.7995208827927
 10
431.6121842065609
 20
349.7174867437607
  0
LINE
  5
1143
330
1A
100
AcDbEntity
  8
SEIHIN
100
AcDbLine
 10
434.8535616738822
 20
353.0274581016974
 30
0.0
 11
434.2614043248013
 21
349.7603771369178
 31
0.0
  0
LWPOLYLINE
  5
1144
330
1A
100
AcDbEntity
  8
SEIHIN
100
AcDbPolyline
 90
       25
 70
   128
 43
0.0
 10
433.844453190682
 20
356.5799005448975
 10
433.8201779433821
 20
357.3401550829976
 10
433.749006519482
 20
358.0485995307974
 10
433.635789133882
 20
358.6569545697975
 10
433.4882413642822
 20
359.1237618093976
 10
433.3164183473822
 20
359.4172091078976
 10
433.1320295378823
 20
359.5172985165975
 10
432.9476407282823
 20
359.4172091078976
 10
432.7758177113819
 20
359.1237618093976
 10
432.628269941882
 20
358.6569545697975
 10
432.5150525561821
 20
358.0485995307974
 10
432.443881132282
 20
357.3401550829976
 10
432.419605884982
 20
356.5799005448975
 10
432.443881132282
 20
355.8196460067974
 10
432.5150525561821
 20
355.1112015589974
 10
432.628269941882
 20
354.5028465199975
 10
432.7758177113819
 20
354.0360392802974
 10
432.9476407282823
 20
353.7425919818975
 10
433.1320295378823
 20
353.6425025731976
 10
433.3164183473822
 20
353.7425919818975
 10
433.4882413642822
 20
354.0360392802974
 10
433.635789133882
 20
354.5028465199975
 10
433.749006519482
 20
355.1112015589974
 10
433.8201779433821
 20
355.8196460067974
 10
433.844453190682
 20
356.5799005448975
  0
LWPOLYLINE
  5
115F
330
1A
100
AcDbEntity
  8
SEIHIN
100
AcDbPolyline
 90
       11
 70
   128
 43
0.0
 10
434.0813270397474
 20
349.6621416868481
 10
434.1981475162624
 20
349.6992036474524
 10
434.2614043248013
 20
349.7603771369178
 10
434.4844484767549
 20
350.1319336325592
 10
434.7493667657868
 20
350.7830668227495
 10
435.0082485640136
 20
351.6660944150507
 10
435.2397658043846
 20
352.741252523119
 10
435.4321921762862
 20
353.9723594232889
 10
435.5781154925361
 20
355.3237037233475
 10
435.6726866726384
 20
356.7588733777749
 10
435.7135729057631
 20
358.2617824035664
  0
LWPOLYLINE
  5
116C
330
1A
100
AcDbEntity
  8
SEIHIN
100
AcDbPolyline
 90
        9
 70
   128
 43
0.0
 10
433.1607212021927
 20
373.5799005448975
 10
433.0156597224926
 20
373.5196746587976
 10
432.8764225468931
 20
373.3414151052975
 10
432.7486001301926
 20
373.0522791107976
 10
432.6373246180928
 20
372.6638756562974
 10
432.547063787993
 20
372.1917993698975
 10
432.4814416655926
 20
371.6550043934976
 10
432.4430930178928
 20
371.0750433624975
 10
432.419605884982
 20
369.5975515536368
  0
LWPOLYLINE
  5
1177
330
1A
100
AcDbEntity
  8
SEIHIN
100
AcDbPolyline
 90
        9
 70
   128
 43
0.0
 10
431.0488570229518
 20
373.5799005448975
 10
431.1939185026517
 20
373.5196746587976
 10
431.3331556782518
 20
373.3414151052975
 10
431.4609780949517
 20
373.0522791107976
 10
431.572253607052
 20
372.6638756562974
 10
431.6625144371519
 20
372.1917993698975
 10
431.7281365595517
 20
371.6550043934976
 10
431.7664852072517
 20
371.0750433624975
 10
431.7760206594516
 20
370.4752020547975
  0
LWPOLYLINE
  5
1182
330
1A
100
AcDbEntity
  8
SEIHIN
100
AcDbPolyline
 90
        9
 70
   128
 43
0.0
 10
430.3259454219592
 20
373.5799005448975
 10
430.1808839422592
 20
373.5196746587976
 10
430.0416467666591
 20
373.3414151052975
 10
429.9138243499592
 20
373.0522791107976
 10
429.8025488378589
 20
372.6638756562974
 10
429.7122880077591
 20
372.1917993698975
 10
429.6466658853591
 20
371.6550043934976
 10
429.6083172376588
 20
371.0750433624975
 10
429.5987817854588
 20
370.4752020547975
  0
LWPOLYLINE
  5
118D
330
1A
100
AcDbEntity
  8
SEIHIN
100
AcDbPolyline
 90
        6
 70
   128
 43
0.0
 10
430.3391128988709
 20
373.5799005448975
 10
430.4273477851652
 20
373.2719196244106
 10
430.5176086152655
 20
372.7998433380106
 10
430.5832307376654
 20
372.2630483616106
 10
430.6215793853652
 20
371.6830873306106
 10
430.6311148375653
 20
371.0832460229106
  0
LWPOLYLINE
  5
1195
330
1A
100
AcDbEntity
  8
SEIHIN
100
AcDbPolyline
 90
       11
 70
   128
 43
0.0
 10
436.8968122860015
 20
363.9288955119975
 10
436.9382945516017
 20
365.4537136907975
 10
437.0358661435016
 20
366.9344162423974
 10
437.1872299105016
 20
368.3361426355975
 10
437.3888222594018
 20
369.6258916934975
 10
437.6358970540017
 20
370.7732985482976
 10
437.9226373536016
 20
371.7513495282976
 10
438.2422923635017
 20
372.5370181472976
 10
438.5873363699015
 20
373.1118072227975
 10
438.9496459200017
 20
373.4621843593974
 10
439.3206910742015
 20
373.5799005448975
  0
LWPOLYLINE
  5
11A2
330
1A
100
AcDbEntity
  8
SEIHIN
100
AcDbPolyline
 90
        9
 70
   128
 43
0.0
 10
435.7618322061612
 20
363.959772337692
 10
435.8039105043371
 20
365.506499669576
 10
435.9044825079404
 20
367.0327351183861
 10
436.0612867256813
 20
368.4848436046456
 10
436.2720450516826
 20
369.8332348203234
 10
436.534677400416
 20
371.052890421845
 10
436.8492762014839
 20
372.1259647895592
 10
437.2236679321595
 20
373.0461688373451
 10
437.5440653345572
 20
373.5799005448975
  0
LWPOLYLINE
  5
11AD
330
1A
100
AcDbEntity
  8
SEIHIN
100
AcDbPolyline
 90
        9
 70
   128
 43
0.0
 10
434.6268521263205
 20
363.9906491633865
 10
434.6695264570731
 20
365.5592856483547
 10
434.7730988723788
 20
367.1310539943749
 10
434.9353435408615
 20
368.6335445736938
 10
435.1552678439638
 20
370.0405779471495
 10
435.4334577468303
 20
371.3324822953923
 10
435.7759150493661
 20
372.5005800508213
 10
436.2050435008177
 20
373.5553195273926
 10
436.219799405414
 20
373.5799005448975
  0
LINE
  5
11B8
330
1A
100
AcDbEntity
  8
SEIHIN
100
AcDbLine
 10
432.419605884982
 20
364.5172985165975
 30
0.0
 11
433.1320295378823
 21
364.5172985165975
 31
0.0
  0
LINE
  5
11B9
330
1A
100
AcDbEntity
  8
SEIHIN
100
AcDbLine
 10
434.6260937272108
 20
363.9481274324323
 30
0.0
 11
434.6066998734404
 21
361.6582893566032
 31
0.0
  0
LINE
  5
11BA
330
1A
100
AcDbEntity
  8
SEIHIN
100
AcDbLine
 10
431.7760206594516
 20
368.3783977207874
 30
0.0
 11
431.7760206594516
 21
370.4752020547979
 31
0.0
  0
LINE
  5
11BB
330
1A
100
AcDbEntity
  8
SEIHIN
100
AcDbLine
 10
432.419605884982
 20
364.5172985165975
 30
0.0
 11
432.419605884982
 21
369.597551553636
 31
0.0
  0
LWPOLYLINE
  5
11BC
330
1A
100
AcDbEntity
  8
SEIHIN
100
AcDbPolyline
 90
        9
 70
   128
 43
0.0
 10
431.0209704106592
 20
376.5799005448973
 10
431.1660318903591
 20
376.6401264309972
 10
431.3052690659592
 20
376.8183859844973
 10
431.4330914826591
 20
377.1075219789973
 10
431.5443669947589
 20
377.4959254334973
 10
431.6346278248588
 20
377.9680017198973
 10
431.7002499472591
 20
378.5047966962972
 10
431.7385985949591
 20
379.0847577272973
 10
431.748134047159
 20
379.6845990349972
  0
LINE
  5
11C7
330
1A
100
AcDbEntity
  8
SEIHIN
100
AcDbLine
 10
431.0209704106592
 20
376.5799005448975
 30
0.0
 11
430.2980588096661
 21
376.5799005448975
 31
0.0
  0
LWPOLYLINE
  5
11C8
330
1A
100
AcDbEntity
  8
SEIHIN
100
AcDbPolyline
 90
        9
 70
   128
 43
0.0
 10
430.3259286728303
 20
376.5799005448973
 10
430.1808671931303
 20
376.6401264309972
 10
430.0416300175302
 20
376.8183859844973
 10
429.9138076008302
 20
377.1075219789973
 10
429.8025320887304
 20
377.4959254334973
 10
429.7122712586301
 20
377.9680017198973
 10
429.6466491362302
 20
378.5047966962972
 10
429.6083004885304
 20
379.0847577272973
 10
429.5987650363303
 20
379.6845990349972
  0
LWPOLYLINE
  5
11D3
330
1A
100
AcDbEntity
  8
SEIHIN
100
AcDbPolyline
 90
        8
 70
   128
 43
0.0
 10
430.1057495417449
 20
376.7362964296939
 10
430.169869065959
 20
376.8183859844973
 10
430.297691482659
 20
377.1075219789973
 10
430.4089669947589
 20
377.4959254334973
 10
430.4992278248591
 20
377.9680017198973
 10
430.564849947259
 20
378.5047966962972
 10
430.6031985949589
 20
379.0847577272973
 10
430.6127340471589
 20
379.6845990349972
  0
LINE
  5
11DD
330
1A
100
AcDbEntity
  8
SEIHIN
100
AcDbLine
 10
431.0488570229518
 20
373.5799005448975
 30
0.0
 11
430.3259454219592
 21
373.5799005448975
 31
0.0
  0
LINE
  5
11DE
330
1A
100
AcDbEntity
  8
SEIHIN
100
AcDbLine
 10
429.5708951731662
 20
382.9752020547975
 30
0.0
 11
429.5987650363303
 21
379.6845990349975
 31
0.0
  0
LINE
  5
11DF
330
1A
100
AcDbEntity
  8
SEIHIN
100
AcDbLine
 10
430.6127340471589
 20
382.9752020547975
 30
0.0
 11
430.6127340471589
 21
379.6845990349972
 31
0.0
  0
LWPOLYLINE
  5
11E0
330
1A
100
AcDbEntity
  8
SEIHIN
100
AcDbPolyline
 90
        9
 70
   128
 43
0.0
 10
433.1607044530642
 20
376.5799005448973
 10
433.0156429733643
 20
376.6401264309972
 10
432.8764057977641
 20
376.8183859844973
 10
432.7485833810642
 20
377.1075219789973
 10
432.6373078689644
 20
377.4959254334973
 10
432.5470470388641
 20
377.9680017198973
 10
432.4814249164642
 20
378.5047966962972
 10
432.4430762687643
 20
379.0847577272973
 10
432.4335408165643
 20
379.6845990349972
  0
LINE
  5
11EB
330
1A
100
AcDbEntity
  8
SEIHIN
100
AcDbLine
 10
437.5440653345572
 20
373.5799005448975
 30
0.0
 11
433.1607212021927
 21
373.5799005448975
 31
0.0
  0
LINE
  5
11EC
330
1A
100
AcDbEntity
  8
SEIHIN
100
AcDbLine
 10
432.4056709534001
 20
382.9752020547975
 30
0.0
 11
432.4335408165643
 21
379.6845990349975
 31
0.0
  0
LINE
  5
11ED
330
1A
100
AcDbEntity
  8
SEIHIN
100
AcDbLine
 10
431.748134047159
 20
382.9752020547975
 30
0.0
 11
431.748134047159
 21
379.6845990349972
 31
0.0
  0
LINE
  5
11EE
330
1A
100
AcDbEntity
  8
SEIHIN
100
AcDbLine
 10
456.4411704875351
 20
380.3914832126553
 30
0.0
 11
457.5706470412897
 21
380.3914832126553
 31
0.0
  0
LWPOLYLINE
  5
11EF
330
1A
100
AcDbEntity
  8
SEIHIN
100
AcDbPolyline
 90
        8
 70
   128
 43
0.0
 10
456.7666145080761
 20
376.5799005448947
 10
456.911675987776
 20
376.6401264309947
 10
457.0509131633762
 20
376.8183859844948
 10
457.1787355800761
 20
377.1075219789947
 10
457.2900110921759
 20
377.4959254334946
 10
457.3802719222762
 20
377.9680017198947
 10
457.4458940446761
 20
378.5047966962947
 10
457.5706470412897
 20
380.3914832126553
  0
LWPOLYLINE
  5
11F9
330
1A
100
AcDbEntity
  8
SEIHIN
100
AcDbPolyline
 90
       10
 70
   128
 43
0.0
 10
456.2850404384285
 20
373.5799005449001
 10
456.6560855925286
 20
373.6976167304001
 10
457.0183951426288
 20
374.0479938670001
 10
457.3634391491286
 20
374.6227829424999
 10
457.6830941589287
 20
375.4084515615
 10
457.9698344586286
 20
376.3865025415
 10
458.2169092531285
 20
377.5339093963001
 10
458.4185016021288
 20
378.8236584542001
 10
458.5698653691288
 20
380.2253848473999
 10
458.659121818765
 20
381.5799005449003
  0
LINE
  5
1205
330
1A
100
AcDbEntity
  8
SEIHIN
100
AcDbLine
 10
519.1253217976176
 20
293.54701315733
 30
0.0
 11
544.6041024052177
 21
310.07022204793
 31
0.0
  0
LINE
  5
1206
330
1A
100
AcDbEntity
  8
SEIHIN
100
AcDbLine
 10
533.6871297203173
 20
297.03110155933
 30
0.0
 11
518.4898041628174
 21
287.1755049108299
 31
0.0
  0
ARC
  5
1207
330
1A
100
AcDbEntity
  8
SEIHIN
100
AcDbCircle
 10
524.5664058981177
 20
285.15686394463
 30
0.0
 40
10.0
100
AcDbArc
 50
122.9637565441013
 51
210.9637458181979
  0
ARC
  5
1208
330
1A
100
AcDbEntity
  8
SEIHIN
100
AcDbCircle
 10
519.5780209828175
 20
285.49747506833
 30
0.0
 40
2.0
100
AcDbArc
 50
122.9637565441013
 51
176.0938589051995
  0
ARC
  5
1209
330
1A
100
AcDbEntity
  8
SEIHIN
100
AcDbCircle
 10
524.5664058981177
 20
285.15686394463
 30
0.0
 40
7.0
100
AcDbArc
 50
176.0938589051995
 51
210.963755767698
  0
LINE
  5
120A
330
1A
100
AcDbEntity
  8
SEIHIN
100
AcDbLine
 10
549.9428833349147
 20
296.3131272527056
 30
0.0
 11
546.1448847807177
 21
302.64312484303
 31
0.0
  0
LINE
  5
120B
330
1A
100
AcDbEntity
  8
SEIHIN
100
AcDbLine
 10
543.3416826077176
 20
303.29216234393
 30
0.0
 11
539.5638140865174
 21
300.84218203693
 31
0.0
  0
LINE
  5
120C
330
1A
100
AcDbEntity
  8
SEIHIN
100
AcDbLine
 10
550.4755834718174
 20
305.1435468493299
 30
0.0
 11
554.2303479636749
 21
298.8856060295674
 31
0.0
  0
ARC
  5
120D
330
1A
100
AcDbEntity
  8
SEIHIN
100
AcDbCircle
 10
541.9681991258479
 20
283.3649840744827
 30
0.0
 40
2.0
100
AcDbArc
 50
30.96375653207372
 51
120.9637565323194
  0
LINE
  5
120E
330
1A
100
AcDbEntity
  8
SEIHIN
100
AcDbLine
 10
538.9370457716175
 20
298.13515948953
 30
0.0
 11
542.6541934663957
 21
291.9399133315704
 31
0.0
  0
ARC
  5
120F
330
1A
100
AcDbEntity
  8
SEIHIN
100
AcDbCircle
 10
538.366728837855
 20
289.3674345544706
 30
0.0
 40
2.0
100
AcDbArc
 50
300.9637565323192
 51
30.96375653207346
  0
ARC
  5
1210
330
1A
100
AcDbEntity
  8
SEIHIN
100
AcDbCircle
 10
534.4857226079605
 20
280.0416885426788
 30
0.0
 40
1.0
100
AcDbArc
 50
120.9637565323131
 51
236.1326100166518
  0
LINE
  5
1211
330
1A
100
AcDbEntity
  8
SEIHIN
100
AcDbLine
 10
533.9712268525294
 20
280.8991814683892
 30
0.0
 11
540.9392076149855
 21
285.0799699259034
 31
0.0
  0
LINE
  5
1212
330
1A
100
AcDbEntity
  8
SEIHIN
100
AcDbLine
 10
540.0817146892803
 20
290.3964260653257
 30
0.0
 11
536.4903322918174
 21
296.3820633944299
 31
0.0
  0
ARC
  5
1213
330
1A
100
AcDbEntity
  8
SEIHIN
100
AcDbCircle
 10
540.6520309066175
 20
299.16415219443
 30
0.0
 40
2.0
100
AcDbArc
 50
122.9637565441013
 51
210.9637964232993
  0
ARC
  5
1214
330
1A
100
AcDbEntity
  8
SEIHIN
100
AcDbCircle
 10
534.7753465404174
 20
295.35307171683
 30
0.0
 40
2.0
100
AcDbArc
 50
30.96376210269768
 51
122.9637565441013
  0
LINE
  5
1215
330
1A
100
AcDbEntity
  8
SEIHIN
100
AcDbLine
 10
546.9416580949522
 20
288.6814402138597
 30
0.0
 11
550.8003762606218
 21
290.996671113284
 31
0.0
  0
ARC
  5
1216
330
1A
100
AcDbEntity
  8
SEIHIN
100
AcDbCircle
 10
547.9706496058146
 20
286.9664543624391
 30
0.0
 40
2.0
100
AcDbArc
 50
120.9637565323192
 51
210.9637565320882
  0
ARC
  5
1217
330
1A
100
AcDbEntity
  8
SEIHIN
100
AcDbCircle
 10
548.2278974834897
 20
295.2841357418501
 30
0.0
 40
2.0
100
AcDbArc
 50
300.9637565323192
 51
30.96375653208972
  0
ARC
  5
1218
330
1A
100
AcDbEntity
  8
SEIHIN
100
AcDbCircle
 10
544.3691793178203
 20
292.9689048424259
 30
0.0
 40
2.0
100
AcDbArc
 50
210.9637565320883
 51
300.9637565323192
  0
LINE
  5
1219
330
1A
100
AcDbEntity
  8
SEIHIN
100
AcDbLine
 10
545.3981708286827
 20
291.2539189910052
 30
0.0
 11
549.2568889943521
 21
293.5691498904294
 31
0.0
  0
ARC
  5
121A
330
1A
100
AcDbEntity
  8
SEIHIN
100
AcDbCircle
 10
551.8293677714843
 20
289.2816852618633
 30
0.0
 40
2.0
100
AcDbArc
 50
30.9637565320901
 51
120.9637565323193
  0
ARC
  5
121B
330
1A
100
AcDbEntity
  8
SEIHIN
100
AcDbCircle
 10
555.9453338151
 20
299.9145975404225
 30
0.0
 40
2.0
100
AcDbArc
 50
210.9637565320729
 51
300.9637565325649
  0
ARC
  5
121C
330
1A
100
AcDbEntity
  8
SEIHIN
100
AcDbCircle
 10
552.1905694323176
 20
306.1725381784299
 30
0.0
 40
2.0
100
AcDbArc
 50
117.9637565434006
 51
210.9637504616003
  0
ARC
  5
121D
330
1A
100
AcDbEntity
  8
SEIHIN
100
AcDbCircle
 10
544.4298994278177
 20
301.61413250143
 30
0.0
 40
2.0
100
AcDbArc
 50
30.96378428740172
 51
122.9637565441013
  0
ARC
  5
121E
330
1A
100
AcDbEntity
  8
SEIHIN
100
AcDbCircle
 10
556.1706237079173
 20
308.28554222793
 30
0.0
 40
2.0
100
AcDbArc
 50
30.96378546019912
 51
117.9637565434006
  0
LINE
  5
121F
330
1A
100
AcDbEntity
  8
SEIHIN
100
AcDbLine
 10
555.2327978187175
 20
310.05203100553
 30
0.0
 11
551.2527435430178
 21
307.93902695613
 31
0.0
  0
LINE
  5
1220
330
1A
100
AcDbEntity
  8
CENTER_L
 48
5.0
100
AcDbLine
 10
433.1768939465527
 20
431.4327593874353
 30
0.0
 11
433.1768939465527
 21
409.6595329908628
 31
0.0
  0
LWPOLYLINE
  5
1221
330
1A
100
AcDbEntity
  8
SEIHIN
100
AcDbPolyline
 90
        8
 70
   128
 43
0.0
 10
455.6312145080759
 20
400.5799005448952
 10
455.776275987776
 20
400.5196746587952
 10
455.9155131633761
 20
400.3414151052951
 10
456.043335580076
 20
400.0522791107952
 10
456.1546110921763
 20
399.6638756562953
 10
456.2448719222762
 20
399.1917993698952
 10
456.310494044676
 20
398.6550043934952
 10
456.4352470412895
 20
396.7683178771346
  0
LINE
  5
122B
330
1A
100
AcDbEntity
  8
SEIHIN
100
AcDbLine
 10
456.7666145080766
 20
400.5799005448952
 30
0.0
 11
433.1607044530637
 21
400.5799005448977
 31
0.0
  0
LINE
  5
122C
330
1A
100
AcDbEntity
  8
SEIHIN
100
AcDbLine
 10
456.2850404384285
 20
403.5799005448949
 30
0.0
 11
439.3206910742015
 21
403.5799005448975
 31
0.0
  0
LWPOLYLINE
  5
122F
330
1A
100
AcDbEntity
  8
SEIHIN
100
AcDbPolyline
 90
        9
 70
   128
 43
0.0
 10
434.6268521263205
 20
413.1691519264085
 10
434.6695264570731
 20
411.6005154414404
 10
434.7730988723788
 20
410.0287470954201
 10
434.9353435408615
 20
408.5262565161013
 10
435.1552678439638
 20
407.1192231426455
 10
435.4334577468303
 20
405.8273187944028
 10
435.7759150493661
 20
404.6592210389738
 10
436.2050435008177
 20
403.6044815624024
 10
436.219799405414
 20
403.5799005448975
  0
LWPOLYLINE
  5
123A
330
1A
100
AcDbEntity
  8
SEIHIN
100
AcDbPolyline
 90
        9
 70
   128
 43
0.0
 10
435.7618322061612
 20
413.200028752103
 10
435.8039105043371
 20
411.653301420219
 10
435.9044825079404
 20
410.1270659714089
 10
436.0612867256813
 20
408.6749574851494
 10
436.2720450516826
 20
407.3265662694716
 10
436.534677400416
 20
406.10691066795
 10
436.8492762014839
 20
405.0338363002358
 10
437.2236679321595
 20
404.1136322524499
 10
437.5440653345572
 20
403.5799005448975
  0
LWPOLYLINE
  5
1245
330
1A
100
AcDbEntity
  8
SEIHIN
100
AcDbPolyline
 90
       11
 70
   128
 43
0.0
 10
436.8968122860015
 20
413.2309055777975
 10
436.9382945516017
 20
411.7060873989975
 10
437.0358661435016
 20
410.2253848473976
 10
437.1872299105016
 20
408.8236584541975
 10
437.3888222594018
 20
407.5339093962975
 10
437.6358970540017
 20
406.3865025414974
 10
437.9226373536016
 20
405.4084515614975
 10
438.2422923635017
 20
404.6227829424974
 10
438.5873363699015
 20
404.0479938669975
 10
438.9496459200017
 20
403.6976167303976
 10
439.3206910742015
 20
403.5799005448975
  0
LWPOLYLINE
  5
1252
330
1A
100
AcDbEntity
  8
SEIHIN
100
AcDbPolyline
 90
        9
 70
   128
 43
0.0
 10
430.3259454219592
 20
403.5799005448975
 10
430.1808839422592
 20
403.6401264309975
 10
430.0416467666591
 20
403.8183859844975
 10
429.9138243499592
 20
404.1075219789974
 10
429.8025488378589
 20
404.4959254334976
 10
429.7122880077591
 20
404.9680017198975
 10
429.6466658853591
 20
405.5047966962974
 10
429.6083172376588
 20
406.0847577272975
 10
429.5987817854588
 20
406.6845990349975
  0
LWPOLYLINE
  5
125D
330
1A
100
AcDbEntity
  8
SEIHIN
100
AcDbPolyline
 90
        9
 70
   128
 43
0.0
 10
431.0488570229518
 20
403.5799005448975
 10
431.1939185026517
 20
403.6401264309975
 10
431.3331556782518
 20
403.8183859844975
 10
431.4609780949517
 20
404.1075219789974
 10
431.572253607052
 20
404.4959254334976
 10
431.6625144371519
 20
404.9680017198975
 10
431.7281365595517
 20
405.5047966962974
 10
431.7664852072517
 20
406.0847577272975
 10
431.7760206594516
 20
406.6845990349975
  0
LWPOLYLINE
  5
1268
330
1A
100
AcDbEntity
  8
SEIHIN
100
AcDbPolyline
 90
        9
 70
   128
 43
0.0
 10
433.1607212021927
 20
403.5799005448975
 10
433.0156597224926
 20
403.6401264309975
 10
432.8764225468931
 20
403.8183859844975
 10
432.7486001301926
 20
404.1075219789974
 10
432.6373246180928
 20
404.4959254334976
 10
432.547063787993
 20
404.9680017198975
 10
432.4814416655926
 20
405.5047966962974
 10
432.4430930178928
 20
406.0847577272975
 10
432.419605884982
 20
407.5622495361582
  0
LINE
  5
1273
330
1A
100
AcDbEntity
  8
SEIHIN
100
AcDbLine
 10
428.5136358462387
 20
420.5799005448983
 30
0.0
 11
428.513635846238
 21
388.5799005448983
 31
0.0
  0
LINE
  5
1274
330
1A
100
AcDbEntity
  8
SEIHIN
100
AcDbLine
 10
430.6311148375653
 20
406.0765550668844
 30
0.0
 11
430.4963800770374
 21
424.7258526320141
 31
0.0
  0
LINE
  5
1275
330
1A
100
AcDbEntity
  8
SEIHIN
100
AcDbLine
 10
431.7664852072517
 20
406.0847577272975
 30
0.0
 11
431.6121842065609
 21
427.4423143460343
 31
0.0
  0
LINE
  5
1276
330
1A
100
AcDbEntity
  8
SEIHIN
100
AcDbLine
 10
455.6219614726469
 20
386.0799005448947
 30
0.0
 11
433.1328345899001
 21
386.0799005448973
 31
0.0
  0
LINE
  5
1278
330
1A
100
AcDbEntity
  8
SEIHIN
100
AcDbLine
 10
430.6127340471589
 20
394.1845990349975
 30
0.0
 11
430.6127340471589
 21
397.4752020547978
 31
0.0
  0
LINE
  5
1279
330
1A
100
AcDbEntity
  8
SEIHIN
100
AcDbLine
 10
431.748134047159
 20
394.1845990349975
 30
0.0
 11
431.748134047159
 21
397.4752020547978
 31
0.0
  0
LINE
  5
127A
330
1A
100
AcDbEntity
  8
SEIHIN
100
AcDbLine
 10
432.4056709534001
 20
394.1845990349975
 30
0.0
 11
432.4335408165643
 21
397.4752020547975
 31
0.0
  0
LINE
  5
127B
330
1A
100
AcDbEntity
  8
SEIHIN
100
AcDbLine
 10
429.5708951731662
 20
394.1845990349975
 30
0.0
 11
429.5987650363303
 21
397.4752020547975
 31
0.0
  0
LWPOLYLINE
  5
127C
330
1A
100
AcDbEntity
  8
SEIHIN
100
AcDbPolyline
 90
        9
 70
   128
 43
0.0
 10
431.0209704106592
 20
391.0799005448975
 10
431.1660318903591
 20
391.1401264309974
 10
431.3052690659592
 20
391.3183859844975
 10
431.4330914826591
 20
391.6075219789975
 10
431.5443669947589
 20
391.9959254334976
 10
431.6346278248588
 20
392.4680017198975
 10
431.7002499472591
 20
393.0047966962975
 10
431.7385985949591
 20
393.5847577272975
 10
431.748134047159
 20
394.1845990349975
  0
LINE
  5
1287
330
1A
100
AcDbEntity
  8
SEIHIN
100
AcDbLine
 10
431.0209704106592
 20
386.0799005448975
 30
0.0
 11
430.2980588096661
 21
386.0799005448975
 31
0.0
  0
LINE
  5
1288
330
1A
100
AcDbEntity
  8
SEIHIN
100
AcDbLine
 10
431.0209704106592
 20
391.0799005448975
 30
0.0
 11
430.2980588096661
 21
391.0799005448975
 31
0.0
  0
LWPOLYLINE
  5
1289
330
1A
100
AcDbEntity
  8
SEIHIN
100
AcDbPolyline
 90
        8
 70
   128
 43
0.0
 10
430.0918146101626
 20
391.218456117499
 10
430.169869065959
 20
391.3183859844975
 10
430.297691482659
 20
391.6075219789975
 10
430.4089669947589
 20
391.9959254334976
 10
430.4992278248591
 20
392.4680017198975
 10
430.564849947259
 20
393.0047966962975
 10
430.6031985949589
 20
393.5847577272975
 10
430.6127340471589
 20
394.1845990349975
  0
LWPOLYLINE
  5
1293
330
1A
100
AcDbEntity
  8
SEIHIN
100
AcDbPolyline
 90
        9
 70
   128
 43
0.0
 10
430.2980588096661
 20
391.0799005448975
 10
430.1529973299661
 20
391.1401264309974
 10
430.013760154366
 20
391.3183859844975
 10
429.8859377376661
 20
391.6075219789975
 10
429.7746622255663
 20
391.9959254334976
 10
429.684401395466
 20
392.4680017198975
 10
429.6187792730661
 20
393.0047966962975
 10
429.5804306253662
 20
393.5847577272975
 10
429.5708951731662
 20
394.1845990349975
  0
LWPOLYLINE
  5
129E
330
1A
100
AcDbEntity
  8
SEIHIN
100
AcDbPolyline
 90
        9
 70
   128
 43
0.0
 10
433.1328345899001
 20
391.0799005448975
 10
432.9877731102
 20
391.1401264309974
 10
432.8485359346
 20
391.3183859844975
 10
432.7207135179
 20
391.6075219789975
 10
432.6094380058002
 20
391.9959254334976
 10
432.5191771756999
 20
392.4680017198975
 10
432.4535550533
 20
393.0047966962975
 10
432.4152064056002
 20
393.5847577272975
 10
432.4056709534001
 20
394.1845990349975
  0
LWPOLYLINE
  5
12A9
330
1A
100
AcDbEntity
  8
SEIHIN
100
AcDbPolyline
 90
        9
 70
   128
 43
0.0
 10
431.0209704106592
 20
400.5799005448977
 10
431.1660318903591
 20
400.5196746587978
 10
431.3052690659592
 20
400.3414151052977
 10
431.4330914826591
 20
400.0522791107978
 10
431.5443669947589
 20
399.6638756562976
 10
431.6346278248588
 20
399.1917993698978
 10
431.7002499472591
 20
398.6550043934978
 10
431.7385985949591
 20
398.0750433624978
 10
431.748134047159
 20
397.4752020547978
  0
LINE
  5
12B4
330
1A
100
AcDbEntity
  8
SEIHIN
100
AcDbLine
 10
431.0488570229518
 20
403.5799005448975
 30
0.0
 11
430.3259454219592
 21
403.5799005448975
 31
0.0
  0
LWPOLYLINE
  5
12B5
330
1A
100
AcDbEntity
  8
SEIHIN
100
AcDbPolyline
 90
        8
 70
   128
 43
0.0
 10
430.1057495417449
 20
400.4235046601011
 10
430.169869065959
 20
400.3414151052977
 10
430.297691482659
 20
400.0522791107978
 10
430.4089669947589
 20
399.6638756562976
 10
430.4992278248591
 20
399.1917993698978
 10
430.564849947259
 20
398.6550043934978
 10
430.6031985949589
 20
398.0750433624978
 10
430.6127340471589
 20
397.4752020547978
  0
LWPOLYLINE
  5
12BF
330
1A
100
AcDbEntity
  8
SEIHIN
100
AcDbPolyline
 90
        9
 70
   128
 43
0.0
 10
430.3259286728303
 20
400.5799005448977
 10
430.1808671931303
 20
400.5196746587978
 10
430.0416300175302
 20
400.3414151052977
 10
429.9138076008302
 20
400.0522791107978
 10
429.8025320887304
 20
399.6638756562976
 10
429.7122712586301
 20
399.1917993698978
 10
429.6466491362302
 20
398.6550043934978
 10
429.6083004885304
 20
398.0750433624978
 10
429.5987650363303
 20
397.4752020547978
  0
LINE
  5
12CA
330
1A
100
AcDbEntity
  8
SEIHIN
100
AcDbLine
 10
431.0209704106592
 20
400.5799005448976
 30
0.0
 11
430.2980588096661
 21
400.5799005448976
 31
0.0
  0
LWPOLYLINE
  5
12CB
330
1A
100
AcDbEntity
  8
SEIHIN
100
AcDbPolyline
 90
        6
 70
   128
 43
0.0
 10
430.3391128988709
 20
403.5799005448975
 10
430.4273477851652
 20
403.8878814653844
 10
430.5176086152655
 20
404.3599577517844
 10
430.5832307376654
 20
404.8967527281844
 10
430.6215793853652
 20
405.4767137591844
 10
430.6311148375653
 20
406.0765550668844
  0
LINE
  5
12D3
330
1A
100
AcDbEntity
  8
SEIHIN
100
AcDbLine
 10
437.5440653345572
 20
403.5799005448975
 30
0.0
 11
433.1607212021927
 21
403.5799005448975
 31
0.0
  0
LWPOLYLINE
  5
12D4
330
1A
100
AcDbEntity
  8
SEIHIN
100
AcDbPolyline
 90
        9
 70
   128
 43
0.0
 10
433.1607044530642
 20
400.5799005448977
 10
433.0156429733643
 20
400.5196746587978
 10
432.8764057977641
 20
400.3414151052977
 10
432.7485833810642
 20
400.0522791107978
 10
432.6373078689644
 20
399.6638756562976
 10
432.5470470388641
 20
399.1917993698978
 10
432.4814249164642
 20
398.6550043934978
 10
432.4430762687643
 20
398.0750433624978
 10
432.4335408165643
 20
397.4752020547978
  0
LINE
  5
12DF
330
1A
100
AcDbEntity
  8
CENTER_L
 48
5.0
100
AcDbLine
 10
424.0277795190372
 20
420.5799005448975
 30
0.0
 11
441.3837670108683
 21
420.5799005448975
 31
0.0
  0
LWPOLYLINE
  5
12E0
330
1A
100
AcDbEntity
  8
SEIHIN
100
AcDbPolyline
 90
       25
 70
   128
 43
0.0
 10
433.844453190682
 20
420.5799005448975
 10
433.8201779433821
 20
419.8196460067975
 10
433.749006519482
 20
419.1112015589976
 10
433.635789133882
 20
418.5028465199975
 10
433.4882413642822
 20
418.0360392803975
 10
433.3164183473822
 20
417.7425919818975
 10
433.1320295378823
 20
417.6425025731975
 10
432.9476407282823
 20
417.7425919818975
 10
432.7758177113819
 20
418.0360392803975
 10
432.628269941882
 20
418.5028465199975
 10
432.5150525561821
 20
419.1112015589976
 10
432.443881132282
 20
419.8196460067975
 10
432.419605884982
 20
420.5799005448975
 10
432.443881132282
 20
421.3401550829976
 10
432.5150525561821
 20
422.0485995307976
 10
432.628269941882
 20
422.6569545697975
 10
432.7758177113819
 20
423.1237618094976
 10
432.9476407282823
 20
423.4172091078976
 10
433.1320295378823
 20
423.5172985165974
 10
433.3164183473822
 20
423.4172091078976
 10
433.4882413642822
 20
423.1237618094976
 10
433.635789133882
 20
422.6569545697975
 10
433.749006519482
 20
422.0485995307976
 10
433.8201779433821
 20
421.3401550829976
 10
433.844453190682
 20
420.5799005448975
  0
LWPOLYLINE
  5
12FB
330
1A
100
AcDbEntity
  8
SEIHIN
100
AcDbPolyline
 90
       11
 70
   128
 43
0.0
 10
429.6857338264713
 20
416.9697608312075
 10
429.727671697613
 20
418.6149302396707
 10
429.8234281395516
 20
420.1984424003807
 10
429.9711750996817
 20
421.7062067077616
 10
430.1671419833751
 20
423.1056901828561
 10
430.4058210570178
 20
424.3652795035207
 10
430.6792385351668
 20
425.4539286017493
 10
430.9750134147289
 20
426.3399552577737
 10
431.2708483458222
 20
426.9885124463819
 10
431.5185799394084
 20
427.3602802070023
 10
431.6121842065609
 20
427.4423143460343
  0
LWPOLYLINE
  5
1308
330
1A
100
AcDbEntity
  8
SEIHIN
100
AcDbPolyline
 90
       13
 70
   128
 43
0.0
 10
433.1320295378823
 20
412.6425025731975
 10
433.4569050745821
 20
412.7563440251974
 10
433.7724616120822
 20
413.0946028588976
 10
434.0696474649822
 20
413.6475761772976
 10
434.3399379079819
 20
414.3994020351974
 10
434.5755797057822
 20
415.3285144365975
 10
434.769813513682
 20
416.4082619508977
 10
434.9170677682823
 20
417.6076722052975
 10
435.0131185062823
 20
418.8923403214976
 10
435.0552105286819
 20
420.2254158142975
 10
435.0421364331823
 20
421.5686596410976
 10
434.9742712477823
 20
422.8835410821975
 10
434.8535616738822
 20
424.1323429880976
  0
LINE
  5
1317
330
1A
100
AcDbEntity
  8
SEIHIN
100
AcDbLine
 10
435.7614530066062
 20
413.2212896175802
 30
0.0
 11
435.7131937062063
 21
418.9192795517802
 31
0.0
  0
LINE
  5
1318
330
1A
100
AcDbEntity
  8
SEIHIN
100
AcDbLine
 10
436.8968122860015
 20
413.2309055777975
 30
0.0
 11
436.8485529856015
 21
418.9288955119975
 31
0.0
  0
LINE
  5
1319
330
1A
100
AcDbEntity
  8
SEIHIN
100
AcDbLine
 10
429.6860618276614
 20
416.9890785450693
 30
0.0
 11
429.5987856588226
 21
406.6843553755149
 31
0.0
  0
LINE
  5
131A
330
1A
100
AcDbEntity
  8
SEIHIN
100
AcDbLine
 10
434.6260937272108
 20
413.2116736573627
 30
0.0
 11
434.6066998734404
 21
415.5015117331918
 31
0.0
  0
LINE
  5
131B
330
1A
100
AcDbEntity
  8
SEIHIN
100
AcDbLine
 10
432.419605884982
 20
412.6425025731975
 30
0.0
 11
432.419605884982
 21
407.562249536159
 31
0.0
  0
LINE
  5
131C
330
1A
100
AcDbEntity
  8
SEIHIN
100
AcDbLine
 10
432.419605884982
 20
412.6425025731975
 30
0.0
 11
433.1320295378823
 21
412.6425025731975
 31
0.0
  0
LINE
  5
131D
330
1A
100
AcDbEntity
  8
SEIHIN
100
AcDbLine
 10
431.7760206594516
 20
408.7814033690076
 30
0.0
 11
431.7760206594516
 21
406.6845990349971
 31
0.0
  0
LINE
  5
131E
330
1A
100
AcDbEntity
  8
SEIHIN
100
AcDbLine
 10
431.459357094066
 20
428.5799005448975
 30
0.0
 11
428.0755989110994
 21
428.5799005448975
 31
0.0
  0
LINE
  5
131F
330
1A
100
AcDbEntity
  8
SEIHIN
100
AcDbLine
 10
429.8852623155994
 20
428.5799005448975
 30
0.0
 11
434.4246741974016
 21
428.5799005448975
 31
0.0
  0
LINE
  5
1320
330
1A
100
AcDbEntity
  8
SEIHIN
100
AcDbLine
 10
423.6213847354861
 20
428.5799005448975
 30
0.0
 11
433.651954252653
 21
428.5799005448975
 31
0.0
  0
LINE
  5
1321
330
1A
100
AcDbEntity
  8
SEIHIN
100
AcDbLine
 10
423.6213847354861
 20
428.5799005448975
 30
0.0
 11
433.651954252653
 21
428.5799005448975
 31
0.0
  0
LINE
  5
1322
330
1A
100
AcDbEntity
  8
CENTER_L
 48
5.0
100
AcDbLine
 10
423.7037718748702
 20
420.5799005448997
 30
0.0
 11
434.2535182607361
 21
420.5799005448997
 31
0.0
  0
LINE
  5
1323
330
1A
100
AcDbEntity
  8
SEIHIN
100
AcDbLine
 10
427.1167538492472
 20
428.5685809680646
 30
0.0
 11
428.8228076974755
 21
428.5933077889043
 31
0.0
  0
LINE
  5
1324
330
1A
100
AcDbEntity
  8
SEIHIN
100
AcDbLine
 10
427.1167538492472
 20
428.5685809680642
 30
0.0
 11
428.8228076974755
 21
428.5933077889039
 31
0.0
  0
LWPOLYLINE
  5
1325
330
1A
100
AcDbEntity
  8
SEIHIN
100
AcDbPolyline
 90
        7
 70
   128
 43
0.0
 10
428.4905568527453
 20
420.491013355232
 10
428.6443674100662
 20
422.0606569419614
 10
428.8589733875767
 20
423.5932501716036
 10
429.127524416805
 20
425.0104837954262
 10
429.4502591114889
 20
426.2954961388699
 10
429.8324887827659
 20
427.440507770609
 10
430.3570476092493
 20
428.5904950168962
  0
LINE
  5
132E
330
1A
100
AcDbEntity
  8
SEIHIN
100
AcDbLine
 10
434.1185742256661
 20
428.5799005448975
 30
0.0
 11
431.459357094066
 21
428.5799005448975
 31
0.0
  0
LWPOLYLINE
  5
132F
330
1A
100
AcDbEntity
  8
SEIHIN
100
AcDbPolyline
 90
       11
 70
   128
 43
0.0
 10
434.4246741974016
 20
428.5799005448975
 10
434.7957193515017
 20
428.4621843593974
 10
435.1580289016019
 20
428.1118072227975
 10
435.5030729081017
 20
427.5370181472976
 10
435.8227279179017
 20
426.7513495282976
 10
436.1094682176017
 20
425.7732985482975
 10
436.3565430121016
 20
424.6258916934976
 10
436.5581353611019
 20
423.3361426355974
 10
436.7094991281019
 20
421.9344162423976
 10
436.8070707199017
 20
420.4537136907974
 10
436.8485529856015
 20
418.9288955119975
  0
LWPOLYLINE
  5
133C
330
1A
100
AcDbEntity
  8
SEIHIN
100
AcDbPolyline
 90
       11
 70
   128
 43
0.0
 10
434.0813270397474
 20
427.4976594029469
 10
434.1981475162624
 20
427.4605974423426
 10
434.2614043248013
 20
427.3994239528773
 10
434.4844484767549
 20
427.0278674572359
 10
434.7493667657868
 20
426.3767342670455
 10
435.0082485640136
 20
425.4937066747443
 10
435.2397658043846
 20
424.418548566676
 10
435.4321921762862
 20
423.1874416665061
 10
435.5781154925361
 20
421.8360973664475
 10
435.6726866726384
 20
420.4009277120201
 10
435.7135729057631
 20
418.8980186862286
  0
LINE
  5
1349
330
1A
100
AcDbEntity
  8
SEIHIN
100
AcDbLine
 10
434.8535616738822
 20
424.1323429880976
 30
0.0
 11
434.2614043248013
 21
427.3994239528773
 31
0.0
  0
ARC
  5
134A
330
1A
100
AcDbEntity
  8
SEIHIN
100
AcDbCircle
 10
357.7744222515007
 20
388.5799005448976
 30
0.0
 40
101.1272594643853
100
AcDbArc
 50
359.9999999999987
 51
3.969171424871308
  0
LWPOLYLINE
  5
134B
330
1A
100
AcDbEntity
  8
SEIHIN
100
AcDbPolyline
 90
       14
 70
   128
 43
0.0
 10
457.2190912910646
 20
388.5799005448953
 10
457.2190912910646
 20
388.5799005448953
 10
457.2433665383646
 20
389.3401550829953
 10
457.3145379622647
 20
390.0485995307953
 10
457.4277553478646
 20
390.6569545697953
 10
457.5753031174649
 20
391.1237618093952
 10
457.7471261343649
 20
391.4172091078953
 10
457.9315149438648
 20
391.5172985165952
 10
458.1159037534648
 20
391.4172091078953
 10
458.2877267702647
 20
391.1237618093952
 10
458.4352745398645
 20
390.6569545697953
 10
458.5484919254645
 20
390.0485995307953
 10
458.6196633494646
 20
389.3401550829953
 10
458.6439385967646
 20
388.5799005448953
  0
LWPOLYLINE
  5
135B
330
1A
100
AcDbEntity
  8
SEIHIN
100
AcDbPolyline
 90
       25
 70
   128
 43
0.0
 10
458.6439385967651
 20
388.579900544895
 10
458.619663349465
 20
389.340155082995
 10
458.548491925465
 20
390.0485995307949
 10
458.4352745398651
 20
390.656954569795
 10
458.2877267702647
 20
391.123761809395
 10
458.1159037534648
 20
391.417209107895
 10
457.9315149438648
 20
391.5172985165949
 10
457.7471261343649
 20
391.417209107895
 10
457.5753031174649
 20
391.123761809395
 10
457.427755347865
 20
390.656954569795
 10
457.3145379622647
 20
390.0485995307949
 10
457.243366538365
 20
389.340155082995
 10
457.2190912910651
 20
388.579900544895
 10
457.243366538365
 20
387.8196460067949
 10
457.3145379622647
 20
387.1112015589948
 10
457.427755347865
 20
386.5028465199949
 10
457.5753031174649
 20
386.0360392803949
 10
457.7471261343649
 20
385.7425919818949
 10
457.9315149438648
 20
385.642502573195
 10
458.1159037534648
 20
385.7425919818949
 10
458.2877267702647
 20
386.0360392803949
 10
458.4352745398651
 20
386.5028465199949
 10
458.548491925465
 20
387.1112015589948
 10
458.619663349465
 20
387.8196460067949
 10
458.6439385967651
 20
388.579900544895
  0
LWPOLYLINE
  5
1376
330
1A
100
AcDbEntity
  8
SEIHIN
100
AcDbPolyline
 90
       10
 70
   128
 43
0.0
 10
456.2850404384285
 20
403.5799005448949
 10
456.6560855925286
 20
403.4621843593949
 10
457.0183951426288
 20
403.111807222795
 10
457.3634391491286
 20
402.5370181472951
 10
457.6830941589287
 20
401.751349528295
 10
457.9698344586286
 20
400.773298548295
 10
458.2169092531285
 20
399.625891693495
 10
458.4185016021288
 20
398.3361426355949
 10
458.5698653691288
 20
396.9344162423951
 10
458.659121818765
 20
395.5799005448947
  0
LINE
  5
1382
330
1A
100
AcDbEntity
  8
SEIHIN
100
AcDbLine
 10
456.4411704875351
 20
396.7683178771346
 30
0.0
 11
457.5706470412897
 21
396.7683178771346
 31
0.0
  0
MTEXT
  5
138D
330
1A
100
AcDbEntity
  8
SUNPOU
100
AcDbMText
 10
594.8793254327235
 20
356.6380173150783
 30
0.0
 40
6.0
 41
33.36028036838114
 71
     1
 72
     5
  1
3-φ4.2
1001
ACAD
1000
MTEXTBEGIN
1070
    73
1070
     1
1070
    44
1040
1.0
1070
    74
1070
     0
1000
MTEXTEND
1000
MTEXTBEGIN
1070
    73
1070
     1
1070
    44
1040
1.0
1070
    74
1070
     0
1000
MTEXTEND
1000
MTEXTBEGIN
1070
    73
1070
     1
1070
    44
1040
1.0
1070
    74
1070
     0
1000
MTEXTEND
1000
MTEXTBEGIN
1070
    73
1070
     1
1070
    44
1040
1.0
1070
    74
1070
     0
1000
MTEXTEND
1000
MTEXTBEGIN
1070
    73
1070
     1
1070
    44
1040
1.0
1070
    74
1070
     0
1000
MTEXTEND
  0
ARC
  5
138F
330
1A
100
AcDbEntity
  8
SEIHIN
100
AcDbCircle
 10
576.2898157926177
 20
315.5702186841299
 30
0.0
 40
10.0
100
AcDbArc
 50
30.96370953510176
 51
117.9637565434006
  0
ARC
  5
1390
330
1A
100
AcDbEntity
  8
SEIHIN
100
AcDbCircle
 10
591.3743729219175
 20
300.3914472187299
 30
0.0
 40
1.0
100
AcDbArc
 50
359.6405041270992
 51
142.0179881058009
  0
ARC
  5
1391
330
1A
100
AcDbEntity
  8
SEIHIN
100
AcDbCircle
 10
585.3744910254175
 20
300.4290932960299
 30
0.0
 40
7.0
100
AcDbArc
 50
300.9637565672997
 51
359.6405041270992
  0
ARC
  5
1392
330
1A
100
AcDbEntity
  8
SEIHIN
100
AcDbCircle
 10
585.3744910254175
 20
300.4290932960299
 30
0.0
 40
10.0
100
AcDbArc
 50
300.9637565672997
 51
30.96375653209949
  0
LINE
  5
1393
330
1A
100
AcDbEntity
  8
SEIHIN
100
AcDbLine
 10
593.9494202825175
 20
305.5740508503299
 30
0.0
 11
584.8647492699178
 21
320.7151692048299
 31
0.0
  0
LINE
  5
1394
330
1A
100
AcDbEntity
  8
CENTER_L
 48
5.0
100
AcDbLine
 10
581.6116989374383
 20
310.5884346529562
 30
0.0
 11
587.7523064324212
 21
300.3525677213005
 31
0.0
  0
LINE
  5
1395
330
1A
100
AcDbEntity
  8
SEIHIN
100
AcDbLine
 10
568.378981237851
 20
301.5438340993425
 30
0.0
 11
575.3469620002443
 21
305.7246225568596
 31
0.0
  0
ARC
  5
1396
330
1A
100
AcDbEntity
  8
SEIHIN
100
AcDbCircle
 10
559.8040519807481
 20
302.2298284398563
 30
0.0
 40
2.0
100
AcDbArc
 50
300.963756532565
 51
30.96375653210402
  0
ARC
  5
1397
330
1A
100
AcDbEntity
  8
SEIHIN
100
AcDbCircle
 10
584.5169980997174
 20
305.7455494355299
 30
0.0
 40
7.7
100
AcDbArc
 50
185.7949030487344
 51
322.0179881292992
  0
LINE
  5
1398
330
1A
100
AcDbEntity
  8
SEIHIN
100
AcDbLine
 10
567.6929868972946
 20
298.799856737073
 30
0.0
 11
576.9956103560174
 21
283.2954843058299
 31
0.0
  0
ARC
  5
1399
330
1A
100
AcDbEntity
  8
SEIHIN
100
AcDbCircle
 10
563.405522268744
 20
296.2273779598703
 30
0.0
 40
2.0
100
AcDbArc
 50
30.96375653210305
 51
120.9637565325649
  0
LINE
  5
139A
330
1A
100
AcDbEntity
  8
SEIHIN
100
AcDbLine
 10
558.517812592223
 20
295.627132911851
 30
0.0
 11
562.376530757874
 21
297.9423638112866
 31
0.0
  0
ARC
  5
139B
330
1A
100
AcDbEntity
  8
SEIHIN
100
AcDbCircle
 10
569.4079727487206
 20
299.8288482479262
 30
0.0
 40
2.0
100
AcDbArc
 50
120.9637565325636
 51
210.9637565320112
  0
ARC
  5
139C
330
1A
100
AcDbEntity
  8
SEIHIN
100
AcDbCircle
 10
593.2634259420177
 20
279.5062659087299
 30
0.0
 40
15.0
100
AcDbArc
 50
120.9637565438036
 51
164.396293107299
  0
ARC
  5
139D
330
1A
100
AcDbEntity
  8
SEIHIN
100
AcDbCircle
 10
577.8531032817176
 20
283.80998006133
 30
0.0
 40
1.0
100
AcDbArc
 50
210.9637565555983
 51
344.3962931307999
  0
LINE
  5
139E
330
1A
100
AcDbEntity
  8
SEIHIN
100
AcDbLine
 10
585.5459896106175
 20
292.36865979433
 30
0.0
 11
588.9759613134177
 21
294.4266428160299
 31
0.0
  0
LINE
  5
139F
330
1A
100
AcDbEntity
  8
SEIHIN
100
AcDbLine
 10
590.5194485797177
 20
291.8541640389299
 30
0.0
 11
587.9469698026176
 21
290.3106767726299
 31
0.0
  0
LINE
  5
13A0
330
1A
100
AcDbEntity
  8
SEIHIN
100
AcDbLine
 10
566.8354939716039
 20
304.1163128765019
 30
0.0
 11
583.9853524858175
 21
314.40622798523
 31
0.0
  0
LINE
  5
13A1
330
1A
100
AcDbEntity
  8
SEIHIN
100
AcDbLine
 10
577.4782286246176
 20
321.8620924066299
 30
0.0
 11
561.4239933586175
 21
313.33892619373
 31
0.0
  0
ARC
  5
13A2
330
1A
100
AcDbEntity
  8
SEIHIN
100
AcDbCircle
 10
562.3618192478174
 20
311.57243741613
 30
0.0
 40
2.0
100
AcDbArc
 50
117.9637565434006
 51
210.962928090601
  0
ARC
  5
13A3
330
1A
100
AcDbEntity
  8
SEIHIN
100
AcDbCircle
 10
565.8065024607343
 20
305.8312987279181
 30
0.0
 40
2.0
100
AcDbArc
 50
210.9637565320119
 51
300.9637565325649
  0
LINE
  5
13A4
330
1A
100
AcDbEntity
  8
SEIHIN
100
AcDbLine
 10
560.6468185182174
 20
310.5434707022299
 30
0.0
 11
564.0915166093081
 21
304.802307217065
 31
0.0
  0
LINE
  5
13A5
330
1A
100
AcDbEntity
  8
CENTER_L
 48
5.0
100
AcDbLine
 10
579.2907310750328
 20
302.6053619687271
 30
0.0
 11
590.257725233759
 21
309.1845806102121
 31
0.0
  0
CIRCLE
  5
13A6
330
1A
100
AcDbEntity
  8
SEIHIN
100
AcDbCircle
 10
584.5169980997174
 20
305.7455494355299
 30
0.0
 40
2.7
  0
ARC
  5
13A7
330
1A
100
AcDbEntity
  8
SEIHIN
100
AcDbCircle
 10
575.861457755679
 20
304.8671296311518
 30
0.0
 40
1.0
100
AcDbArc
 50
5.794903048734032
 51
120.9637565325628
  0
LINE
  5
13A8
330
1A
100
AcDbEntity
  8
SEIHIN
100
AcDbLine
 10
584.3283496560173
 20
315.77821666633
 30
0.0
 11
582.2922661770174
 21
319.17168913133
 31
0.0
  0
ARC
  5
13A9
330
1A
100
AcDbEntity
  8
SEIHIN
100
AcDbCircle
 10
578.4160545138178
 20
320.09560362903
 30
0.0
 40
2.0
100
AcDbArc
 50
64.83365418229858
 51
117.9637565434006
  0
ARC
  5
13AA
330
1A
100
AcDbEntity
  8
SEIHIN
100
AcDbCircle
 10
576.2898157926177
 20
315.5702186841299
 30
0.0
 40
7.0
100
AcDbArc
 50
30.96375805210099
 51
64.83365418229858
  0
ARC
  5
13AB
330
1A
100
AcDbEntity
  8
SEIHIN
100
AcDbCircle
 10
583.4708567303176
 20
315.26372091093
 30
0.0
 40
1.0
100
AcDbArc
 50
300.9637565320989
 51
30.96375653209949
  0
LINE
  5
1515
330
1A
100
AcDbEntity
  8
SEIHIN
100
AcDbLine
 10
436.8935882265788
 20
199.6786478264378
 30
0.0
 11
440.8943302781906
 21
202.0790930574281
 31
0.0
  0
LINE
  5
1516
330
1A
100
AcDbEntity
  8
SEIHIN
100
AcDbLine
 10
436.8935882265788
 20
199.6786478264378
 30
0.0
 11
433.6527951762755
 21
199.1221357941109
 31
0.0
  0
POINT
  5
1690
330
1A
100
AcDbEntity
  8
S120
  6
PHANTOM
 62
     8
 48
5.0
100
AcDbPoint
 10
734.7558000097478
 20
224.7459451992877
 30
0.0
  0
POINT
  5
16B6
330
1A
100
AcDbEntity
  8
S120
  6
PHANTOM
 62
     8
 48
5.0
100
AcDbPoint
 10
704.7558000097478
 20
241.2461451992878
 30
0.0
  0
POINT
  5
16B9
330
1A
100
AcDbEntity
  8
S120
  6
PHANTOM
 62
     8
 48
5.0
100
AcDbPoint
 10
711.7558000097479
 20
242.7461451992877
 30
0.0
  0
POINT
  5
1753
330
1A
100
AcDbEntity
  8
S120
  6
PHANTOM
 62
     8
 48
5.0
100
AcDbPoint
 10
734.7559000097478
 20
322.7461451992878
 30
0.0
  0
POINT
  5
1757
330
1A
100
AcDbEntity
  8
S120
  6
PHANTOM
 62
     8
 48
5.0
100
AcDbPoint
 10
746.0965000097478
 20
315.9203451992879
 30
0.0
  0
POINT
  5
177C
330
1A
100
AcDbEntity
  8
S120
  6
PHANTOM
 62
     8
 48
5.0
100
AcDbPoint
 10
796.7558000097478
 20
222.7460451992878
 30
0.0
  0
POINT
  5
177D
330
1A
100
AcDbEntity
  8
S120
  6
PHANTOM
 62
     8
 48
5.0
100
AcDbPoint
 10
861.7544000097478
 20
222.7459451992877
 30
0.0
  0
POINT
  5
1797
330
1A
100
AcDbEntity
  8
S120
  6
PHANTOM
 62
     8
 48
5.0
100
AcDbPoint
 10
852.5841000097477
 20
267.7460451992877
 30
0.0
  0
POINT
  5
17B2
330
1A
100
AcDbEntity
  8
S120
  6
PHANTOM
 62
     8
 48
5.0
100
AcDbPoint
 10
857.5841000097479
 20
282.7460451992877
 30
0.0
  0
LINE
  5
26E7
330
1A
100
AcDbEntity
  8
ZUWAKU
100
AcDbLine
 10
208.6466024889079
 20
15.19999935047882
 30
0.0
 11
447.4243651698313
 21
15.19999935047881
 31
0.0
  0
LINE
  5
26E8
330
1A
100
AcDbEntity
  8
ZUWAKU
100
AcDbLine
 10
208.6466024889079
 20
15.59999935047881
 30
0.0
 11
447.4243651698313
 21
15.59999935047882
 31
0.0
  0
LINE
  5
26E9
330
1A
100
AcDbEntity
  8
ZUWAKU
100
AcDbLine
 10
208.6466024889079
 20
15.39999935047881
 30
0.0
 11
447.4243651698313
 21
15.39999935047881
 31
0.0
  0
LINE
  5
26EA
330
1A
100
AcDbEntity
  8
ZUWAKU
100
AcDbLine
 10
0.0000011988399819
 20
30.79999935047879
 30
0.0
 11
797.4000011988398
 21
30.79999935047879
 31
0.0
  0
LINE
  5
26EB
330
1A
100
AcDbEntity
  8
ZUWAKU
100
AcDbLine
 10
0.0000011988399819
 20
30.5999993504788
 30
0.0
 11
797.4000011988398
 21
30.5999993504788
 31
0.0
  0
LINE
  5
26EC
330
1A
100
AcDbEntity
  8
ZUWAKU
100
AcDbLine
 10
0.0000011988399819
 20
30.39999935047879
 30
0.0
 11
797.4000011988398
 21
30.39999935047879
 31
0.0
  0
LINE
  5
26ED
330
1A
100
AcDbEntity
  8
ZUWAKU
100
AcDbLine
 10
0.0000011988399819
 20
30.19999935047878
 30
0.0
 11
797.4000011988398
 21
30.19999935047878
 31
0.0
  0
LINE
  5
26EE
330
1A
100
AcDbEntity
  8
ZUWAKU
100
AcDbLine
 10
0.0000011988399819
 20
29.99999935047878
 30
0.0
 11
797.4000011988398
 21
29.99999935047878
 31
0.0
  0
LWPOLYLINE
  5
26EF
330
1A
100
AcDbEntity
  8
ZUWAKU
100
AcDbPolyline
 90
        4
 70
     1
 43
0.0
 10
0.2000011988399137
 20
551.3999993504787
 10
0.2000011988399137
 20
0.1999993504788336
 10
797.4000011988398
 20
0.1999993504788566
 10
797.40000119884
 20
551.3999993504787
  0
LWPOLYLINE
  5
26F0
330
1A
100
AcDbEntity
  8
ZUWAKU
100
AcDbPolyline
 90
        4
 70
     1
 43
0.0
 10
0.600001198839891
 20
550.9999993504789
 10
0.600001198839891
 20
0.5999993504788109
 10
797.0000011988402
 20
0.5999993504788571
 10
797.00000119884
 20
550.9999993504789
  0
LWPOLYLINE
  5
26F1
330
1A
100
AcDbEntity
  8
ZUWAKU
100
AcDbPolyline
 90
        4
 70
     1
 43
0.0
 10
0.0000011988399819
 20
551.5999993504788
 10
0.0000011988399819
 20
-0.0000006495212119
 10
797.60000119884
 20
-0.0000006495211444
 10
797.60000119884
 20
551.5999993504789
  0
LWPOLYLINE
  5
26F2
330
1A
100
AcDbEntity
  8
ZUWAKU
100
AcDbPolyline
 90
        4
 70
     1
 43
0.0
 10
0.4000011988399593
 20
551.1999993504787
 10
0.4000011988399593
 20
0.399999350478879
 10
797.20000119884
 20
0.3999993504788559
 10
797.20000119884
 20
551.1999993504787
  0
LWPOLYLINE
  5
26F3
330
1A
100
AcDbEntity
  8
ZUWAKU
100
AcDbPolyline
 90
        4
 70
     1
 43
0.0
 10
0.8000011988399364
 20
550.7999993504787
 10
0.8000011988399364
 20
0.7999993504788563
 10
796.8000011988398
 20
0.7999993504788563
 10
796.8000011988398
 20
550.7999993504787
  0
TEXT
  5
26F4
330
1A
100
AcDbEntity
  8
MOJI
100
AcDbText
 10
129.5810018416712
 20
8.554222766009161
 30
0.0
 40
5.799999999999999
  1
Ｓ１２０Ｈ・Ｍ１２０Ｈ
 41
0.9
  7
ｽﾀｲﾙ1
100
AcDbText
  0
TEXT
  5
26F5
330
1A
100
AcDbEntity
  8
MOJI
100
AcDbText
 10
81.66226515300536
 20
17.85856729940519
 30
0.0
 40
5.799999999999999
  1
アートフェイスＴ１２０・Ｈ１２０・
 41
0.9
  7
ｽﾀｲﾙ1
100
AcDbText
  0
HATCH
  5
26F6
330
1A
100
AcDbEntity
  8
ZUWAKU
100
AcDbHatch
 10
0.0
 20
0.0
 30
0.0
210
0.0
220
0.0
230
1.0
  2
ANSI37
 70
     0
 71
     0
 91
        8
 92
        7
 72
     1
 73
     1
 93
       24
 10
14.50226385995983
 20
17.64484783146236
 42
-0.1989123673796348
 10
14.0922133536211
 20
18.63479732512341
 42
0.0
 10
14.0922133536211
 20
19.92499935047879
 42
-0.4142135623730912
 10
14.61721335362107
 20
20.44999935047878
 42
0.0
 10
17.59221335362098
 20
20.44999935047878
 42
0.4142135623731546
 10
18.11721335362108
 20
20.97499935047877
 42
0.0
 10
18.11721335362108
 20
22.7249993504788
 42
0.4142135623731586
 10
17.59221335362098
 20
23.24999935047878
 42
0.0
 10
14.0922133536211
 20
23.24999935047878
 42
0.4142135623730928
 10
11.29221335362114
 20
20.44999935047881
 42
0.0
 10
11.29221335362114
 20
18.63479732512354
 42
0.1989123673796619
 10
12.52236487263757
 20
15.66494884413993
 42
0.0
 10
15.43216284728225
 20
12.75515086949528
 42
-0.1989123673796613
 10
15.8422133536211
 20
11.76520137583409
 42
0.0
 10
15.8422133536211
 20
10.47499935047877
 42
-0.4142135623730911
 10
15.31721335362112
 20
9.949999350478789
 42
0.0
 10
12.34221335362121
 20
9.949999350478789
 42
0.4142135623731526
 10
11.81721335362112
 20
9.424999350478801
 42
0.0
 10
11.81721335362112
 20
7.67499935047878
 42
0.4142135623731526
 10
12.34221335362121
 20
7.149999350478792
 42
0.0
 10
15.8422133536211
 20
7.149999350478792
 42
0.4142135623731045
 10
18.64221335362117
 20
9.949999350478769
 42
0.0
 10
18.64221335362117
 20
11.76520137583403
 42
0.1989123673796604
 10
17.41206183460462
 20
14.73504985681757
 42
0.0
 97
        0
 92
        7
 72
     1
 73
     1
 93
       16
 10
23.54221335362114
 20
19.04999935047879
 42
-0.4142135623730935
 10
24.94221335362112
 20
20.44999935047878
 42
0.0
 10
26.86721335362108
 20
20.44999935047878
 42
0.4142135623731546
 10
27.39221335362117
 20
20.97499935047877
 42
0.0
 10
27.39221335362117
 20
22.7249993504788
 42
0.4142135623730951
 10
26.86721335362119
 20
23.24999935047878
 42
0.0
 10
24.94221335362101
 20
23.24999935047874
 42
0.4142135623730893
 10
20.74221335362107
 20
19.04999935047873
 42
0.0
 10
20.74221335362107
 20
11.34999935047881
 42
0.4142135623730969
 10
24.94221335362112
 20
7.149999350478792
 42
0.0
 10
26.86721335362108
 20
7.149999350478792
 42
0.4142135623731526
 10
27.39221335362117
 20
7.67499935047878
 42
0.0
 10
27.39221335362117
 20
9.424999350478801
 42
0.4142135623730891
 10
26.86721335362119
 20
9.949999350478789
 42
0.0
 10
24.94221335362112
 20
9.949999350478789
 42
-0.4142135623730928
 10
23.54221335362114
 20
11.34999935047877
 42
0.0
 97
        0
 92
        7
 72
     1
 73
     1
 93
        2
 10
24.24221335362108
 20
15.19999935047878
 42
1.0
 10
27.74221335362108
 20
15.19999935047878
 42
1.0
 97
        0
 92
        7
 72
     1
 73
     1
 93
       26
 10
37.3148598357991
 20
19.20504654404221
 42
0.0
 10
38.37649946893692
 20
22.5669053823118
 42
0.5069206636600134
 10
37.87586856974155
 20
23.24999935047878
 42
0.0
 10
36.17697919013232
 20
23.24999935047878
 42
0.3272098845218764
 10
35.67634829093696
 20
22.88309331864575
 42
0.0
 10
33.80807841630518
 20
16.96690538231186
 42
-0.3272098845219541
 10
33.30744751710971
 20
16.59999935047878
 42
0.0
 10
33.16721335362126
 20
16.59999935047878
 42
-0.4142135623731526
 10
32.64221335362117
 20
17.12499935047877
 42
0.0
 10
32.64221335362117
 20
22.7249993504788
 42
0.4142135623730951
 10
32.11721335362119
 20
23.24999935047878
 42
0.0
 10
30.36721335362107
 20
23.24999935047878
 42
0.4142135623730871
 10
29.8422133536211
 20
22.7249993504788
 42
0.0
 10
29.8422133536211
 20
7.67499935047878
 42
0.4142135623730891
 10
30.36721335362107
 20
7.149999350478792
 42
0.0
 10
32.11721335362108
 20
7.149999350478792
 42
0.4142135623731526
 10
32.64221335362117
 20
7.67499935047878
 42
0.0
 10
32.64221335362117
 20
13.27499935047879
 42
-0.4142135623731526
 10
33.16721335362126
 20
13.79999935047878
 42
0.0
 10
33.30744751710983
 20
13.79999935047878
 42
-0.3272098845218915
 10
33.80807841630518
 20
13.43309331864571
 42
0.0
 10
35.67634829093696
 20
7.516905382311864
 42
0.3272098845218902
 10
36.17697919013232
 20
7.149999350478792
 42
0.0
 10
37.87586856974155
 20
7.149999350478792
 42
0.5069206636600336
 10
38.37649946893692
 20
7.833093318645801
 42
0.0
 10
36.05010809046325
 20
15.19999935047892
 42
0.0
 97
        0
 92
        7
 72
     1
 73
     1
 93
        8
 10
43.49221335362106
 20
22.7249993504788
 42
0.4142135623731546
 10
42.96721335362098
 20
23.24999935047878
 42
0.0
 10
41.21721335362122
 20
23.24999935047878
 42
0.4142135623731507
 10
40.69221335362112
 20
22.7249993504788
 42
0.0
 10
40.69221335362112
 20
7.67499935047878
 42
0.4142135623731526
 10
41.21721335362122
 20
7.149999350478792
 42
0.0
 10
42.96721335362098
 20
7.149999350478792
 42
0.4142135623731526
 10
43.49221335362106
 20
7.67499935047878
 42
0.0
 97
        0
 92
        7
 72
     1
 73
     1
 93
       24
 10
48.39221335362116
 20
19.92499935047879
 42
-0.4142135623731546
 10
48.91721335362126
 20
20.44999935047878
 42
0.0
 10
51.89221335362117
 20
20.44999935047878
 42
0.4142135623730911
 10
52.41721335362115
 20
20.97499935047877
 42
0.0
 10
52.41721335362115
 20
22.7249993504788
 42
0.4142135623730952
 10
51.89221335362117
 20
23.24999935047878
 42
0.0
 10
48.39221335362116
 20
23.24999935047878
 42
0.4142135623731048
 10
45.5922133536211
 20
20.44999935047881
 42
0.0
 10
45.5922133536211
 20
18.63479732512354
 42
0.1989123673796613
 10
46.82236487263764
 20
15.66494884413999
 42
0.0
 10
49.73216284728231
 20
12.75515086949532
 42
-0.1989123673796402
 10
50.14221335362117
 20
11.76520137583425
 42
0.0
 10
50.14221335362117
 20
10.47499935047877
 42
-0.4142135623730911
 10
49.6172133536212
 20
9.949999350478789
 42
0.0
 10
46.64221335362117
 20
9.949999350478789
 42
0.4142135623731526
 10
46.11721335362108
 20
9.424999350478801
 42
0.0
 10
46.11721335362108
 20
7.67499935047878
 42
0.4142135623730891
 10
46.64221335362106
 20
7.149999350478792
 42
0.0
 10
50.14221335362117
 20
7.149999350478792
 42
0.4142135623730925
 10
52.94221335362112
 20
9.949999350478769
 42
0.0
 10
52.94221335362112
 20
11.76520137583403
 42
0.1989123673796675
 10
51.71206183460459
 20
14.73504985681769
 42
0.0
 10
48.80226385996
 20
17.6448478314622
 42
-0.1989123673796652
 10
48.39221335362116
 20
18.63479732512337
 42
0.0
 97
        0
 92
        7
 72
     1
 73
     1
 93
       16
 10
57.84221335362111
 20
22.72499935047877
 42
0.414213562373103
 10
57.31721335362112
 20
23.24999935047878
 42
0.0
 10
55.56721335362112
 20
23.24999935047878
 42
0.4142135623730871
 10
55.04221335362114
 20
22.7249993504788
 42
0.0
 10
55.04221335362114
 20
9.949999350478769
 42
0.4142135623730927
 10
57.84221335362111
 20
7.149999350478792
 42
0.0
 10
61.3422133536211
 20
7.149999350478792
 42
0.4142135623731045
 10
64.14221335362118
 20
9.949999350478769
 42
0.0
 10
64.14221335362118
 20
22.7249993504788
 42
0.4142135623730951
 10
63.61721335362119
 20
23.24999935047878
 42
0.0
 10
61.86721335362108
 20
23.24999935047878
 42
0.4142135623730871
 10
61.3422133536211
 20
22.7249993504788
 42
0.0
 10
61.3422133536211
 20
10.99999935047876
 42
-0.4142135623730879
 10
60.29221335362114
 20
9.949999350478789
 42
0.0
 10
58.89221335362117
 20
9.949999350478789
 42
-0.4142135623731197
 10
57.84221335362111
 20
10.99999935047876
 42
0.0
 97
        0
 92
        7
 72
     1
 73
     1
 93
        8
 10
69.04221335362115
 20
22.7249993504788
 42
0.4142135623730871
 10
68.51721335362118
 20
23.24999935047878
 42
0.0
 10
66.76721335362117
 20
23.24999935047878
 42
0.4142135623731507
 10
66.24221335362108
 20
22.7249993504788
 42
0.0
 10
66.24221335362108
 20
7.67499935047878
 42
0.4142135623730891
 10
66.76721335362106
 20
7.149999350478792
 42
0.0
 10
68.51721335362118
 20
7.149999350478792
 42
0.4142135623730891
 10
69.04221335362115
 20
7.67499935047878
 42
0.0
 97
        0
 75
     0
 76
     1
 52
0.0
 41
0.2
 77
     0
 78
     2
 53
45.0
 43
-900.9423031358391
 44
-13.20000064952113
 45
-0.4490128060534576
 46
0.4490128060534577
 79
     0
 53
135.0
 43
-900.9423031358391
 44
-13.20000064952113
 45
-0.4490128060534577
 46
-0.4490128060534576
 79
     0
 47
0.057451373970553
 98
        8
 10
16.07985616186328
 20
15.16717299636433
 10
22.40451620527915
 20
18.84406153292979
 10
25.16436908449963
 20
15.5118809965495
 10
30.91406118047711
 20
16.20129699692028
 10
41.83847321779671
 20
16.6609092644619
 10
46.89820209396953
 20
19.41857566688599
 10
56.55768717124033
 20
18.72915726557379
 10
67.82708081846272
 20
19.18876953311541
  0
LINE
  5
26F7
330
1A
100
AcDbEntity
  8
ZUWAKU
100
AcDbLine
 10
24.94221335362112
 20
23.24999935047874
 30
0.0
 11
26.86721335362108
 21
23.24999935047878
 31
0.0
  0
LINE
  5
26F8
330
1A
100
AcDbEntity
  8
ZUWAKU
100
AcDbLine
 10
26.86721335362108
 20
20.44999935047878
 30
0.0
 11
24.94221335362112
 21
20.44999935047878
 31
0.0
  0
LINE
  5
26F9
330
1A
100
AcDbEntity
  8
ZUWAKU
100
AcDbLine
 10
24.94221335362112
 20
9.949999350478789
 30
0.0
 11
26.86721335362108
 21
9.949999350478789
 31
0.0
  0
LINE
  5
26FA
330
1A
100
AcDbEntity
  8
ZUWAKU
100
AcDbLine
 10
26.86721335362108
 20
7.149999350478792
 30
0.0
 11
24.94221335362112
 21
7.149999350478792
 31
0.0
  0
CIRCLE
  5
26FB
330
1A
100
AcDbEntity
  8
ZUWAKU
100
AcDbCircle
 10
25.99221335362107
 20
15.19999935047878
 30
0.0
 40
1.75
  0
ARC
  5
26FC
330
1A
100
AcDbEntity
  8
ZUWAKU
100
AcDbCircle
 10
15.49221335362108
 20
18.63479732512348
 30
0.0
 40
1.399999999999999
100
AcDbArc
 50
180.0000000000015
 51
224.9999999999988
  0
LINE
  5
26FD
330
1A
100
AcDbEntity
  8
ZUWAKU
100
AcDbLine
 10
23.54221335362114
 20
19.04999935047878
 30
0.0
 11
23.54221335362114
 21
11.34999935047879
 31
0.0
  0
LINE
  5
26FE
330
1A
100
AcDbEntity
  8
ZUWAKU
100
AcDbLine
 10
20.74221335362107
 20
11.34999935047879
 30
0.0
 11
20.74221335362107
 21
19.04999935047874
 31
0.0
  0
ARC
  5
26FF
330
1A
100
AcDbEntity
  8
ZUWAKU
100
AcDbCircle
 10
15.49221335362108
 20
18.63479732512348
 30
0.0
 40
4.199999999999998
100
AcDbArc
 50
180.0
 51
225.0
  0
ARC
  5
2700
330
1A
100
AcDbEntity
  8
ZUWAKU
100
AcDbCircle
 10
15.8422133536211
 20
9.949999350478789
 30
0.0
 40
2.799999999999998
100
AcDbArc
 50
270.0
 51
0.0
  0
ARC
  5
2701
330
1A
100
AcDbEntity
  8
ZUWAKU
100
AcDbCircle
 10
24.94221335362112
 20
11.34999935047879
 30
0.0
 40
4.199999999999998
100
AcDbArc
 50
180.0
 51
270.0
  0
ARC
  5
2702
330
1A
100
AcDbEntity
  8
ZUWAKU
100
AcDbCircle
 10
14.44221335362112
 20
11.76520137583409
 30
0.0
 40
4.199999999999998
100
AcDbArc
 50
0.0
 51
45.0
  0
LINE
  5
2703
330
1A
100
AcDbEntity
  8
ZUWAKU
100
AcDbLine
 10
17.41206183460462
 20
14.73504985681761
 30
0.0
 11
14.50226385995994
 21
17.64484783146228
 31
0.0
  0
LINE
  5
2704
330
1A
100
AcDbEntity
  8
ZUWAKU
100
AcDbLine
 10
15.8422133536211
 20
10.47499935047879
 30
0.0
 11
15.8422133536211
 21
11.76520137583413
 31
0.0
  0
ARC
  5
2705
330
1A
100
AcDbEntity
  8
ZUWAKU
100
AcDbCircle
 10
15.31721335362112
 20
10.47499935047879
 30
0.0
 40
0.525
100
AcDbArc
 50
270.0
 51
0.0
  0
ARC
  5
2706
330
1A
100
AcDbEntity
  8
ZUWAKU
100
AcDbCircle
 10
14.44221335362112
 20
11.76520137583413
 30
0.0
 40
1.399999999999999
100
AcDbArc
 50
0.0
 51
45.0
  0
LINE
  5
2707
330
1A
100
AcDbEntity
  8
ZUWAKU
100
AcDbLine
 10
11.81721335362112
 20
7.674999350478791
 30
0.0
 11
11.81721335362112
 21
9.42499935047879
 31
0.0
  0
ARC
  5
2708
330
1A
100
AcDbEntity
  8
ZUWAKU
100
AcDbCircle
 10
12.3422133536211
 20
7.674999350478791
 30
0.0
 40
0.525
100
AcDbArc
 50
180.0
 51
270.0
  0
ARC
  5
2709
330
1A
100
AcDbEntity
  8
ZUWAKU
100
AcDbCircle
 10
12.3422133536211
 20
9.42499935047879
 30
0.0
 40
0.525
100
AcDbArc
 50
90.0
 51
180.0
  0
LINE
  5
270A
330
1A
100
AcDbEntity
  8
ZUWAKU
100
AcDbLine
 10
12.3422133536211
 20
7.149999350478792
 30
0.0
 11
15.8422133536211
 21
7.149999350478792
 31
0.0
  0
LINE
  5
270B
330
1A
100
AcDbEntity
  8
ZUWAKU
100
AcDbLine
 10
12.3422133536211
 20
9.949999350478789
 30
0.0
 11
15.31721335362112
 21
9.949999350478789
 31
0.0
  0
LINE
  5
270C
330
1A
100
AcDbEntity
  8
ZUWAKU
100
AcDbLine
 10
12.52236487263757
 20
15.66494884413996
 30
0.0
 11
15.43216284728225
 21
12.7551508694953
 31
0.0
  0
LINE
  5
270D
330
1A
100
AcDbEntity
  8
ZUWAKU
100
AcDbLine
 10
18.64221335362117
 20
9.949999350478789
 30
0.0
 11
18.64221335362117
 21
11.76520137583413
 31
0.0
  0
ARC
  5
270E
330
1A
100
AcDbEntity
  8
ZUWAKU
100
AcDbCircle
 10
24.94221335362112
 20
11.34999935047879
 30
0.0
 40
1.399999999999999
100
AcDbArc
 50
180.0
 51
270.0
  0
ARC
  5
270F
330
1A
100
AcDbEntity
  8
ZUWAKU
100
AcDbCircle
 10
17.5922133536211
 20
22.72499935047878
 30
0.0
 40
0.525
100
AcDbArc
 50
0.0
 51
90.0
  0
ARC
  5
2710
330
1A
100
AcDbEntity
  8
ZUWAKU
100
AcDbCircle
 10
17.5922133536211
 20
20.97499935047878
 30
0.0
 40
0.525
100
AcDbArc
 50
270.0
 51
0.0
  0
LINE
  5
2711
330
1A
100
AcDbEntity
  8
ZUWAKU
100
AcDbLine
 10
14.0922133536211
 20
23.24999935047878
 30
0.0
 11
17.5922133536211
 21
23.24999935047878
 31
0.0
  0
ARC
  5
2712
330
1A
100
AcDbEntity
  8
ZUWAKU
100
AcDbCircle
 10
14.61721335362107
 20
19.92499935047878
 30
0.0
 40
0.525
100
AcDbArc
 50
90.0
 51
180.0
  0
LINE
  5
2713
330
1A
100
AcDbEntity
  8
ZUWAKU
100
AcDbLine
 10
14.0922133536211
 20
19.92499935047878
 30
0.0
 11
14.0922133536211
 21
18.63479732512344
 31
0.0
  0
LINE
  5
2714
330
1A
100
AcDbEntity
  8
ZUWAKU
100
AcDbLine
 10
17.5922133536211
 20
20.44999935047878
 30
0.0
 11
14.61721335362107
 21
20.44999935047878
 31
0.0
  0
LINE
  5
2715
330
1A
100
AcDbEntity
  8
ZUWAKU
100
AcDbLine
 10
11.29221335362114
 20
20.44999935047878
 30
0.0
 11
11.29221335362114
 21
18.63479732512344
 31
0.0
  0
ARC
  5
2716
330
1A
100
AcDbEntity
  8
ZUWAKU
100
AcDbCircle
 10
14.0922133536211
 20
20.44999935047878
 30
0.0
 40
2.799999999999998
100
AcDbArc
 50
90.0
 51
180.0
  0
LINE
  5
2717
330
1A
100
AcDbEntity
  8
ZUWAKU
100
AcDbLine
 10
18.11721335362108
 20
22.72499935047878
 30
0.0
 11
18.11721335362108
 21
20.97499935047878
 31
0.0
  0
ARC
  5
2718
330
1A
100
AcDbEntity
  8
ZUWAKU
100
AcDbCircle
 10
24.94221335362112
 20
19.04999935047878
 30
0.0
 40
1.399999999999999
100
AcDbArc
 50
90.0
 51
180.0
  0
ARC
  5
2719
330
1A
100
AcDbEntity
  8
ZUWAKU
100
AcDbCircle
 10
24.94221335362112
 20
19.04999935047874
 30
0.0
 40
4.199999999999998
100
AcDbArc
 50
90.0
 51
180.0
  0
LINE
  5
271A
330
1A
100
AcDbEntity
  8
ZUWAKU
100
AcDbLine
 10
79.32663074682818
 20
29.99999935047878
 30
0.0
 11
79.32663074682841
 21
0.7999993504788563
 31
0.0
  0
LINE
  5
271B
330
1A
100
AcDbEntity
  8
ZUWAKU
100
AcDbLine
 10
79.52663074682823
 20
29.99999935047878
 30
0.0
 11
79.52663074682845
 21
0.7999993504788563
 31
0.0
  0
LINE
  5
271C
330
1A
100
AcDbEntity
  8
ZUWAKU
100
AcDbLine
 10
79.12663074682837
 20
29.99999935047878
 30
0.0
 11
79.12663074682837
 21
0.7999993504788563
 31
0.0
  0
LINE
  5
271D
330
1A
100
AcDbEntity
  8
ZUWAKU
100
AcDbLine
 10
64.14221335362118
 20
9.949999350478789
 30
0.0
 11
64.14221335362118
 21
22.72499935047878
 31
0.0
  0
LINE
  5
271E
330
1A
100
AcDbEntity
  8
ZUWAKU
100
AcDbLine
 10
61.3422133536211
 20
22.72499935047878
 30
0.0
 11
61.3422133536211
 21
10.99999935047878
 31
0.0
  0
LINE
  5
271F
330
1A
100
AcDbEntity
  8
ZUWAKU
100
AcDbLine
 10
69.04221335362115
 20
7.674999350478791
 30
0.0
 11
69.04221335362115
 21
22.72499935047878
 31
0.0
  0
LINE
  5
2720
330
1A
100
AcDbEntity
  8
ZUWAKU
100
AcDbLine
 10
66.24221335362108
 20
22.72499935047878
 30
0.0
 11
66.24221335362108
 21
7.674999350478791
 31
0.0
  0
ARC
  5
2721
330
1A
100
AcDbEntity
  8
ZUWAKU
100
AcDbCircle
 10
49.79221335362114
 20
18.63479732512348
 30
0.0
 40
1.399999999999999
100
AcDbArc
 50
180.0000000000015
 51
224.9999999999988
  0
ARC
  5
2722
330
1A
100
AcDbEntity
  8
ZUWAKU
100
AcDbCircle
 10
49.79221335362114
 20
18.63479732512348
 30
0.0
 40
4.199999999999998
100
AcDbArc
 50
180.0
 51
225.0
  0
LINE
  5
2723
330
1A
100
AcDbEntity
  8
ZUWAKU
100
AcDbLine
 10
37.3148598357991
 20
19.20504654404221
 30
0.0
 11
36.05010809046325
 21
15.1999993504788
 31
0.0
  0
LINE
  5
2724
330
1A
100
AcDbEntity
  8
ZUWAKU
100
AcDbLine
 10
40.69221335362112
 20
22.72499935047878
 30
0.0
 11
40.69221335362112
 21
7.674999350478791
 31
0.0
  0
LINE
  5
2725
330
1A
100
AcDbEntity
  8
ZUWAKU
100
AcDbLine
 10
43.49221335362106
 20
7.674999350478791
 30
0.0
 11
43.49221335362106
 21
22.72499935047878
 31
0.0
  0
LINE
  5
2726
330
1A
100
AcDbEntity
  8
ZUWAKU
100
AcDbLine
 10
55.04221335362114
 20
22.72499935047878
 30
0.0
 11
55.04221335362114
 21
9.949999350478789
 31
0.0
  0
LINE
  5
2727
330
1A
100
AcDbEntity
  8
ZUWAKU
100
AcDbLine
 10
57.84221335362111
 20
10.99999935047878
 30
0.0
 11
57.84221335362111
 21
22.72499935047878
 31
0.0
  0
LINE
  5
2728
330
1A
100
AcDbEntity
  8
ZUWAKU
100
AcDbLine
 10
32.64221335362117
 20
17.12499935047879
 30
0.0
 11
32.64221335362117
 21
22.72499935047878
 31
0.0
  0
LINE
  5
2729
330
1A
100
AcDbEntity
  8
ZUWAKU
100
AcDbLine
 10
29.8422133536211
 20
22.72499935047878
 30
0.0
 11
29.8422133536211
 21
7.674999350478791
 31
0.0
  0
LINE
  5
272A
330
1A
100
AcDbEntity
  8
ZUWAKU
100
AcDbLine
 10
35.67634829093696
 20
22.88309331864575
 30
0.0
 11
33.80807841630518
 21
16.96690538231181
 31
0.0
  0
LINE
  5
272B
330
1A
100
AcDbEntity
  8
ZUWAKU
100
AcDbLine
 10
60.29221335362114
 20
9.949999350478789
 30
0.0
 11
58.89221335362117
 21
9.949999350478789
 31
0.0
  0
LINE
  5
272C
330
1A
100
AcDbEntity
  8
ZUWAKU
100
AcDbLine
 10
57.84221335362111
 20
7.149999350478792
 30
0.0
 11
61.3422133536211
 21
7.149999350478792
 31
0.0
  0
LINE
  5
272D
330
1A
100
AcDbEntity
  8
ZUWAKU
100
AcDbLine
 10
41.2172133536211
 20
7.149999350478792
 30
0.0
 11
42.9672133536211
 21
7.149999350478792
 31
0.0
  0
LINE
  5
272E
330
1A
100
AcDbEntity
  8
ZUWAKU
100
AcDbLine
 10
35.67634829093696
 20
7.516905382311818
 30
0.0
 11
33.80807841630518
 21
13.43309331864575
 31
0.0
  0
ARC
  5
272F
330
1A
100
AcDbEntity
  8
ZUWAKU
100
AcDbCircle
 10
33.30744751710983
 20
17.12499935047879
 30
0.0
 40
0.525
100
AcDbArc
 50
270.0
 51
342.4744316262769
  0
LINE
  5
2730
330
1A
100
AcDbEntity
  8
ZUWAKU
100
AcDbLine
 10
33.30744751710983
 20
16.59999935047878
 30
0.0
 11
33.16721335362114
 21
16.59999935047878
 31
0.0
  0
LINE
  5
2731
330
1A
100
AcDbEntity
  8
ZUWAKU
100
AcDbLine
 10
33.16721335362114
 20
13.79999935047878
 30
0.0
 11
33.30744751710983
 21
13.79999935047878
 31
0.0
  0
ARC
  5
2732
330
1A
100
AcDbEntity
  8
ZUWAKU
100
AcDbCircle
 10
33.16721335362114
 20
17.12499935047879
 30
0.0
 40
0.525
100
AcDbArc
 50
180.0
 51
270.0
  0
LINE
  5
2733
330
1A
100
AcDbEntity
  8
ZUWAKU
100
AcDbLine
 10
30.36721335362107
 20
7.149999350478792
 30
0.0
 11
32.11721335362108
 21
7.149999350478792
 31
0.0
  0
ARC
  5
2734
330
1A
100
AcDbEntity
  8
ZUWAKU
100
AcDbCircle
 10
32.11721335362108
 20
7.674999350478791
 30
0.0
 40
0.525
100
AcDbArc
 50
270.0
 51
0.0
  0
LINE
  5
2735
330
1A
100
AcDbEntity
  8
ZUWAKU
100
AcDbLine
 10
32.64221335362117
 20
7.674999350478791
 30
0.0
 11
32.64221335362117
 21
13.27499935047878
 31
0.0
  0
LINE
  5
2736
330
1A
100
AcDbEntity
  8
ZUWAKU
100
AcDbLine
 10
27.39221335362117
 20
9.42499935047879
 30
0.0
 11
27.39221335362117
 21
7.674999350478791
 31
0.0
  0
ARC
  5
2737
330
1A
100
AcDbEntity
  8
ZUWAKU
100
AcDbCircle
 10
26.86721335362108
 20
7.674999350478791
 30
0.0
 40
0.525
100
AcDbArc
 50
270.0
 51
0.0
  0
ARC
  5
2738
330
1A
100
AcDbEntity
  8
ZUWAKU
100
AcDbCircle
 10
26.86721335362108
 20
9.42499935047879
 30
0.0
 40
0.525
100
AcDbArc
 50
0.0
 51
90.0
  0
ARC
  5
2739
330
1A
100
AcDbEntity
  8
ZUWAKU
100
AcDbCircle
 10
30.36721335362107
 20
7.674999350478791
 30
0.0
 40
0.525
100
AcDbArc
 50
180.0
 51
270.0
  0
ARC
  5
273A
330
1A
100
AcDbEntity
  8
ZUWAKU
100
AcDbCircle
 10
33.30744751710983
 20
13.27499935047878
 30
0.0
 40
0.525
100
AcDbArc
 50
17.52556837372303
 51
90.0
  0
ARC
  5
273B
330
1A
100
AcDbEntity
  8
ZUWAKU
100
AcDbCircle
 10
33.16721335362114
 20
13.27499935047878
 30
0.0
 40
0.525
100
AcDbArc
 50
90.0
 51
180.0
  0
ARC
  5
273C
330
1A
100
AcDbEntity
  8
ZUWAKU
100
AcDbCircle
 10
41.2172133536211
 20
7.674999350478791
 30
0.0
 40
0.525
100
AcDbArc
 50
180.0
 51
270.0
  0
LINE
  5
273D
330
1A
100
AcDbEntity
  8
ZUWAKU
100
AcDbLine
 10
36.17697919013243
 20
7.149999350478792
 30
0.0
 11
37.87586856974144
 21
7.149999350478792
 31
0.0
  0
ARC
  5
273E
330
1A
100
AcDbEntity
  8
ZUWAKU
100
AcDbCircle
 10
37.87586856974144
 20
7.674999350478791
 30
0.0
 40
0.525
100
AcDbArc
 50
270.0
 51
17.52556837372303
  0
LINE
  5
273F
330
1A
100
AcDbEntity
  8
ZUWAKU
100
AcDbLine
 10
38.37649946893692
 20
7.833093318645765
 30
0.0
 11
36.05010809046325
 21
15.1999993504788
 31
0.0
  0
ARC
  5
2740
330
1A
100
AcDbEntity
  8
ZUWAKU
100
AcDbCircle
 10
36.17697919013243
 20
7.674999350478791
 30
0.0
 40
0.525
100
AcDbArc
 50
197.5255683737229
 51
270.0
  0
ARC
  5
2741
330
1A
100
AcDbEntity
  8
ZUWAKU
100
AcDbCircle
 10
57.84221335362111
 20
9.949999350478789
 30
0.0
 40
2.799999999999998
100
AcDbArc
 50
180.0
 51
270.0
  0
ARC
  5
2742
330
1A
100
AcDbEntity
  8
ZUWAKU
100
AcDbCircle
 10
50.14221335362117
 20
9.949999350478789
 30
0.0
 40
2.799999999999998
100
AcDbArc
 50
270.0
 51
0.0
  0
LINE
  5
2743
330
1A
100
AcDbEntity
  8
ZUWAKU
100
AcDbLine
 10
51.71206183460469
 20
14.73504985681761
 30
0.0
 11
48.80226385995992
 21
17.64484783146228
 31
0.0
  0
LINE
  5
2744
330
1A
100
AcDbEntity
  8
ZUWAKU
100
AcDbLine
 10
50.14221335362117
 20
10.47499935047879
 30
0.0
 11
50.14221335362117
 21
11.76520137583413
 31
0.0
  0
ARC
  5
2745
330
1A
100
AcDbEntity
  8
ZUWAKU
100
AcDbCircle
 10
48.74221335362108
 20
11.76520137583413
 30
0.0
 40
1.399999999999999
100
AcDbArc
 50
0.0
 51
45.0
  0
ARC
  5
2746
330
1A
100
AcDbEntity
  8
ZUWAKU
100
AcDbCircle
 10
49.61721335362108
 20
10.47499935047879
 30
0.0
 40
0.525
100
AcDbArc
 50
270.0
 51
0.0
  0
LINE
  5
2747
330
1A
100
AcDbEntity
  8
ZUWAKU
100
AcDbLine
 10
46.11721335362108
 20
7.674999350478791
 30
0.0
 11
46.11721335362108
 21
9.42499935047879
 31
0.0
  0
ARC
  5
2748
330
1A
100
AcDbEntity
  8
ZUWAKU
100
AcDbCircle
 10
46.64221335362117
 20
7.674999350478791
 30
0.0
 40
0.525
100
AcDbArc
 50
180.0
 51
270.0
  0
ARC
  5
2749
330
1A
100
AcDbEntity
  8
ZUWAKU
100
AcDbCircle
 10
42.9672133536211
 20
7.674999350478791
 30
0.0
 40
0.525
100
AcDbArc
 50
270.0
 51
0.0
  0
ARC
  5
274A
330
1A
100
AcDbEntity
  8
ZUWAKU
100
AcDbCircle
 10
46.64221335362117
 20
9.42499935047879
 30
0.0
 40
0.525
100
AcDbArc
 50
90.0
 51
180.0
  0
LINE
  5
274B
330
1A
100
AcDbEntity
  8
ZUWAKU
100
AcDbLine
 10
46.64221335362117
 20
9.949999350478789
 30
0.0
 11
49.61721335362108
 21
9.949999350478789
 31
0.0
  0
LINE
  5
274C
330
1A
100
AcDbEntity
  8
ZUWAKU
100
AcDbLine
 10
46.64221335362117
 20
7.149999350478792
 30
0.0
 11
50.14221335362117
 21
7.149999350478792
 31
0.0
  0
LINE
  5
274D
330
1A
100
AcDbEntity
  8
ZUWAKU
100
AcDbLine
 10
46.82236487263764
 20
15.66494884413996
 30
0.0
 11
49.73216284728231
 21
12.7551508694953
 31
0.0
  0
LINE
  5
274E
330
1A
100
AcDbEntity
  8
ZUWAKU
100
AcDbLine
 10
52.94221335362112
 20
9.949999350478789
 30
0.0
 11
52.94221335362112
 21
11.76520137583413
 31
0.0
  0
ARC
  5
274F
330
1A
100
AcDbEntity
  8
ZUWAKU
100
AcDbCircle
 10
48.74221335362108
 20
11.76520137583409
 30
0.0
 40
4.199999999999998
100
AcDbArc
 50
0.0
 51
45.0
  0
ARC
  5
2750
330
1A
100
AcDbEntity
  8
ZUWAKU
100
AcDbCircle
 10
58.89221335362117
 20
10.99999935047878
 30
0.0
 40
1.049999999999998
100
AcDbArc
 50
180.0
 51
270.0
  0
ARC
  5
2751
330
1A
100
AcDbEntity
  8
ZUWAKU
100
AcDbCircle
 10
61.3422133536211
 20
9.949999350478789
 30
0.0
 40
2.799999999999998
100
AcDbArc
 50
270.0
 51
0.0
  0
LINE
  5
2752
330
1A
100
AcDbEntity
  8
ZUWAKU
100
AcDbLine
 10
66.76721335362117
 20
7.149999350478792
 30
0.0
 11
68.51721335362118
 21
7.149999350478792
 31
0.0
  0
ARC
  5
2753
330
1A
100
AcDbEntity
  8
ZUWAKU
100
AcDbCircle
 10
66.76721335362117
 20
7.674999350478791
 30
0.0
 40
0.525
100
AcDbArc
 50
180.0
 51
270.0
  0
ARC
  5
2754
330
1A
100
AcDbEntity
  8
ZUWAKU
100
AcDbCircle
 10
60.29221335362114
 20
10.99999935047878
 30
0.0
 40
1.049999999999998
100
AcDbArc
 50
270.0
 51
0.0
  0
ARC
  5
2755
330
1A
100
AcDbEntity
  8
ZUWAKU
100
AcDbCircle
 10
68.51721335362118
 20
7.674999350478791
 30
0.0
 40
0.525
100
AcDbArc
 50
270.0
 51
0.0
  0
LINE
  5
2756
330
1A
100
AcDbEntity
  8
ZUWAKU
100
AcDbLine
 10
42.9672133536211
 20
23.24999935047878
 30
0.0
 11
41.2172133536211
 21
23.24999935047878
 31
0.0
  0
ARC
  5
2757
330
1A
100
AcDbEntity
  8
ZUWAKU
100
AcDbCircle
 10
32.11721335362108
 20
22.72499935047878
 30
0.0
 40
0.525
100
AcDbArc
 50
0.0
 51
90.0
  0
LINE
  5
2758
330
1A
100
AcDbEntity
  8
ZUWAKU
100
AcDbLine
 10
32.11721335362108
 20
23.24999935047878
 30
0.0
 11
30.36721335362107
 21
23.24999935047878
 31
0.0
  0
ARC
  5
2759
330
1A
100
AcDbEntity
  8
ZUWAKU
100
AcDbCircle
 10
26.86721335362108
 20
22.72499935047878
 30
0.0
 40
0.525
100
AcDbArc
 50
0.0
 51
90.0
  0
ARC
  5
275A
330
1A
100
AcDbEntity
  8
ZUWAKU
100
AcDbCircle
 10
30.36721335362107
 20
22.72499935047878
 30
0.0
 40
0.525
100
AcDbArc
 50
90.0
 51
180.0
  0
ARC
  5
275B
330
1A
100
AcDbEntity
  8
ZUWAKU
100
AcDbCircle
 10
26.86721335362108
 20
20.97499935047878
 30
0.0
 40
0.525
100
AcDbArc
 50
270.0
 51
0.0
  0
LINE
  5
275C
330
1A
100
AcDbEntity
  8
ZUWAKU
100
AcDbLine
 10
27.39221335362117
 20
22.72499935047878
 30
0.0
 11
27.39221335362117
 21
20.97499935047878
 31
0.0
  0
ARC
  5
275D
330
1A
100
AcDbEntity
  8
ZUWAKU
100
AcDbCircle
 10
41.2172133536211
 20
22.72499935047878
 30
0.0
 40
0.525
100
AcDbArc
 50
90.0
 51
180.0
  0
LINE
  5
275E
330
1A
100
AcDbEntity
  8
ZUWAKU
100
AcDbLine
 10
36.17697919013243
 20
23.24999935047878
 30
0.0
 11
37.87586856974144
 21
23.24999935047878
 31
0.0
  0
ARC
  5
275F
330
1A
100
AcDbEntity
  8
ZUWAKU
100
AcDbCircle
 10
37.87586856974144
 20
22.72499935047878
 30
0.0
 40
0.525
100
AcDbArc
 50
342.4744316262769
 51
90.0
  0
LINE
  5
2760
330
1A
100
AcDbEntity
  8
ZUWAKU
100
AcDbLine
 10
38.37649946893692
 20
22.56690538231182
 30
0.0
 11
37.3148598357991
 21
19.20504654404221
 31
0.0
  0
ARC
  5
2761
330
1A
100
AcDbEntity
  8
ZUWAKU
100
AcDbCircle
 10
36.17697919013243
 20
22.72499935047878
 30
0.0
 40
0.525
100
AcDbArc
 50
90.0
 51
162.4744316262769
  0
LINE
  5
2762
330
1A
100
AcDbEntity
  8
ZUWAKU
100
AcDbLine
 10
48.39221335362116
 20
23.24999935047878
 30
0.0
 11
51.89221335362117
 21
23.24999935047878
 31
0.0
  0
LINE
  5
2763
330
1A
100
AcDbEntity
  8
ZUWAKU
100
AcDbLine
 10
51.89221335362117
 20
20.44999935047878
 30
0.0
 11
48.91721335362114
 21
20.44999935047878
 31
0.0
  0
ARC
  5
2764
330
1A
100
AcDbEntity
  8
ZUWAKU
100
AcDbCircle
 10
48.91721335362114
 20
19.92499935047878
 30
0.0
 40
0.525
100
AcDbArc
 50
90.0
 51
180.0
  0
LINE
  5
2765
330
1A
100
AcDbEntity
  8
ZUWAKU
100
AcDbLine
 10
48.39221335362116
 20
19.92499935047878
 30
0.0
 11
48.39221335362116
 21
18.63479732512344
 31
0.0
  0
ARC
  5
2766
330
1A
100
AcDbEntity
  8
ZUWAKU
100
AcDbCircle
 10
42.9672133536211
 20
22.72499935047878
 30
0.0
 40
0.525
100
AcDbArc
 50
0.0
 51
90.0
  0
LINE
  5
2767
330
1A
100
AcDbEntity
  8
ZUWAKU
100
AcDbLine
 10
45.5922133536211
 20
20.44999935047878
 30
0.0
 11
45.5922133536211
 21
18.63479732512344
 31
0.0
  0
ARC
  5
2768
330
1A
100
AcDbEntity
  8
ZUWAKU
100
AcDbCircle
 10
48.39221335362116
 20
20.44999935047878
 30
0.0
 40
2.799999999999998
100
AcDbArc
 50
90.0
 51
180.0
  0
ARC
  5
2769
330
1A
100
AcDbEntity
  8
ZUWAKU
100
AcDbCircle
 10
57.31721335362112
 20
22.72499935047878
 30
0.0
 40
0.525
100
AcDbArc
 50
0.0
 51
90.0
  0
ARC
  5
276A
330
1A
100
AcDbEntity
  8
ZUWAKU
100
AcDbCircle
 10
55.56721335362112
 20
22.72499935047878
 30
0.0
 40
0.525
100
AcDbArc
 50
90.0
 51
180.0
  0
LINE
  5
276B
330
1A
100
AcDbEntity
  8
ZUWAKU
100
AcDbLine
 10
57.31721335362112
 20
23.24999935047878
 30
0.0
 11
55.56721335362112
 21
23.24999935047878
 31
0.0
  0
ARC
  5
276C
330
1A
100
AcDbEntity
  8
ZUWAKU
100
AcDbCircle
 10
51.89221335362117
 20
22.72499935047878
 30
0.0
 40
0.525
100
AcDbArc
 50
0.0
 51
90.0
  0
ARC
  5
276D
330
1A
100
AcDbEntity
  8
ZUWAKU
100
AcDbCircle
 10
51.89221335362117
 20
20.97499935047878
 30
0.0
 40
0.525
100
AcDbArc
 50
270.0
 51
0.0
  0
LINE
  5
276E
330
1A
100
AcDbEntity
  8
ZUWAKU
100
AcDbLine
 10
52.41721335362115
 20
22.72499935047878
 30
0.0
 11
52.41721335362115
 21
20.97499935047878
 31
0.0
  0
LINE
  5
276F
330
1A
100
AcDbEntity
  8
ZUWAKU
100
AcDbLine
 10
68.51721335362118
 20
23.24999935047878
 30
0.0
 11
66.76721335362117
 21
23.24999935047878
 31
0.0
  0
ARC
  5
2770
330
1A
100
AcDbEntity
  8
ZUWAKU
100
AcDbCircle
 10
66.76721335362117
 20
22.72499935047878
 30
0.0
 40
0.525
100
AcDbArc
 50
90.0
 51
180.0
  0
ARC
  5
2771
330
1A
100
AcDbEntity
  8
ZUWAKU
100
AcDbCircle
 10
63.61721335362108
 20
22.72499935047878
 30
0.0
 40
0.525
100
AcDbArc
 50
0.0
 51
90.0
  0
LINE
  5
2772
330
1A
100
AcDbEntity
  8
ZUWAKU
100
AcDbLine
 10
63.61721335362108
 20
23.24999935047878
 30
0.0
 11
61.86721335362108
 21
23.24999935047878
 31
0.0
  0
ARC
  5
2773
330
1A
100
AcDbEntity
  8
ZUWAKU
100
AcDbCircle
 10
61.86721335362108
 20
22.72499935047878
 30
0.0
 40
0.525
100
AcDbArc
 50
90.0
 51
180.0
  0
ARC
  5
2774
330
1A
100
AcDbEntity
  8
ZUWAKU
100
AcDbCircle
 10
68.51721335362118
 20
22.72499935047878
 30
0.0
 40
0.525
100
AcDbArc
 50
0.0
 51
90.0
  0
TEXT
  5
2775
330
1A
100
AcDbEntity
  8
MOJI
100
AcDbText
 10
239.8272038796909
 20
18.00492040788617
 30
0.0
 40
5.599999999999998
  1
ブラケット正面打（吊）固定式
 41
0.9
  7
ｽﾀｲﾙ1
100
AcDbText
  0
TEXT
  5
2776
330
1A
100
AcDbEntity
  8
MOJI
100
AcDbText
 10
239.8272038796909
 20
3.204920407886209
 30
0.0
 40
5.599999999999998
  1
１２０－６－４５
 41
0.9
  7
ｽﾀｲﾙ1
100
AcDbText
  0
LINE
  5
2777
330
1A
100
AcDbEntity
  8
ZUWAKU
100
AcDbLine
 10
208.2466024889078
 20
29.99999935047878
 30
0.0
 11
208.2466024889078
 21
0.7999993504788563
 31
0.0
  0
LINE
  5
2778
330
1A
100
AcDbEntity
  8
ZUWAKU
100
AcDbLine
 10
208.6466024889077
 20
29.99999935047878
 30
0.0
 11
208.6466024889079
 21
0.7999993504788563
 31
0.0
  0
LINE
  5
2779
330
1A
100
AcDbEntity
  8
ZUWAKU
100
AcDbLine
 10
208.4466024889076
 20
29.99999935047878
 30
0.0
 11
208.4466024889079
 21
0.7999993504788563
 31
0.0
  0
TEXT
  5
277A
330
1A
100
AcDbEntity
  8
ZUWAKU
100
AcDbText
 10
209.7240475111174
 20
9.655355888864406
 30
0.0
 40
4.0
  1
サイズ
 41
0.9
  7
ｽﾀｲﾙ1
100
AcDbText
  0
TEXT
  5
277B
330
1A
100
AcDbEntity
  8
ZUWAKU
100
AcDbText
 10
209.7240475111172
 20
24.05535588886436
 30
0.0
 40
4.0
  1
品名
 41
0.9
  7
ｽﾀｲﾙ1
100
AcDbText
  0
LINE
  5
277C
330
1A
100
AcDbEntity
  8
ZUWAKU
100
AcDbLine
 10
648.8172037090442
 20
15.19999935047881
 30
0.0
 11
697.2490117473812
 21
15.19999935047881
 31
0.0
  0
LINE
  5
277D
330
1A
100
AcDbEntity
  8
ZUWAKU
100
AcDbLine
 10
648.8172037090443
 20
15.39999935047882
 30
0.0
 11
697.2490117473812
 21
15.39999935047881
 31
0.0
  0
LINE
  5
277E
330
1A
100
AcDbEntity
  8
ZUWAKU
100
AcDbLine
 10
648.8172037090442
 20
15.59999935047881
 30
0.0
 11
697.2490117473812
 21
15.59999935047881
 31
0.0
  0
TEXT
  5
277F
330
1A
100
AcDbEntity
  8
ZUWAKU
100
AcDbText
 10
654.5120771985268
 20
18.00492040788617
 30
0.0
 40
5.599999999999998
  1
　　．　．　　
 41
0.9
  7
ｽﾀｲﾙ1
100
AcDbText
  0
LINE
  5
2780
330
1A
100
AcDbEntity
  8
ZUWAKU
100
AcDbLine
 10
505.1991806969807
 20
15.19999935047882
 30
0.0
 11
552.5269569649524
 21
15.19999935047882
 31
0.0
  0
LINE
  5
2781
330
1A
100
AcDbEntity
  8
ZUWAKU
100
AcDbLine
 10
505.1991806969807
 20
15.39999935047881
 30
0.0
 11
552.5269569649524
 21
15.39999935047881
 31
0.0
  0
LINE
  5
2782
330
1A
100
AcDbEntity
  8
ZUWAKU
100
AcDbLine
 10
505.1991806969807
 20
15.59999935047881
 30
0.0
 11
552.5269569649524
 21
15.59999935047881
 31
0.0
  0
LINE
  5
2783
330
1A
100
AcDbEntity
  8
ZUWAKU
100
AcDbLine
 10
447.6243651698311
 20
29.99999935047878
 30
0.0
 11
447.6243651698313
 21
0.7999993504788563
 31
0.0
  0
LINE
  5
2784
330
1A
100
AcDbEntity
  8
ZUWAKU
100
AcDbLine
 10
447.8243651698311
 20
29.99999935047878
 30
0.0
 11
447.8243651698314
 21
0.7999993504788563
 31
0.0
  0
LINE
  5
2785
330
1A
100
AcDbEntity
  8
ZUWAKU
100
AcDbLine
 10
447.4243651698313
 20
29.99999935047878
 30
0.0
 11
447.4243651698313
 21
0.7999993504788563
 31
0.0
  0
TEXT
  5
2786
330
1A
100
AcDbEntity
  8
MOJI
100
AcDbText
 10
528.0409091711528
 20
18.00492040788617
 30
0.0
 40
5.599999999999998
  1
Ａ３
 41
0.9
  7
ｽﾀｲﾙ1
100
AcDbText
  0
LINE
  5
2787
330
1A
100
AcDbEntity
  8
ZUWAKU
100
AcDbLine
 10
504.9991806969808
 20
29.99999935047878
 30
0.0
 11
504.9991806969809
 21
0.7999993504788563
 31
0.0
  0
LINE
  5
2788
330
1A
100
AcDbEntity
  8
ZUWAKU
100
AcDbLine
 10
505.1991806969807
 20
29.99999935047878
 30
0.0
 11
505.1991806969811
 21
0.7999993504788563
 31
0.0
  0
LINE
  5
2789
330
1A
100
AcDbEntity
  8
ZUWAKU
100
AcDbLine
 10
504.7991806969809
 20
29.99999935047878
 30
0.0
 11
504.7991806969809
 21
0.7999993504788563
 31
0.0
  0
TEXT
  5
278A
330
1A
100
AcDbEntity
  8
MOJI
100
AcDbText
 10
463.2464331898419
 20
11.94261707213876
 30
0.0
 40
5.599999999999998
  1
ＬＬ７０Ｔ
 41
0.9
  7
ｽﾀｲﾙ1
100
AcDbText
  0
TEXT
  5
278B
330
1A
100
AcDbEntity
  8
ZUWAKU
100
AcDbText
 10
506.6766257191907
 20
9.655355888864406
 30
0.0
 40
4.0
  1
縮尺
 41
0.9
  7
ｽﾀｲﾙ1
100
AcDbText
  0
TEXT
  5
278C
330
1A
100
AcDbEntity
  8
MOJI
100
AcDbText
 10
528.0409091711528
 20
3.204920407886209
 30
0.0
 40
5.599999999999998
  1
１/２
 41
0.9
  7
ｽﾀｲﾙ1
100
AcDbText
  0
TEXT
  5
278D
330
1A
100
AcDbEntity
  8
ZUWAKU
100
AcDbText
 10
449.3018101920409
 20
24.05535588886436
 30
0.0
 40
4.0
  1
品番
 41
0.9
  7
ｽﾀｲﾙ1
100
AcDbText
  0
TEXT
  5
278E
330
1A
100
AcDbEntity
  8
ZUWAKU
100
AcDbText
 10
506.6766257191904
 20
24.05535588886436
 30
0.0
 40
4.0
  1
用紙
 41
0.9
  7
ｽﾀｲﾙ1
100
AcDbText
  0
LINE
  5
278F
330
1A
100
AcDbEntity
  8
ZUWAKU
100
AcDbLine
 10
648.6172037090441
 20
29.99999935047878
 30
0.0
 11
648.6172037090446
 21
0.7999993504788563
 31
0.0
  0
LINE
  5
2790
330
1A
100
AcDbEntity
  8
ZUWAKU
100
AcDbLine
 10
648.8172037090443
 20
29.99999935047878
 30
0.0
 11
648.8172037090447
 21
0.7999993504788563
 31
0.0
  0
LINE
  5
2791
330
1A
100
AcDbEntity
  8
ZUWAKU
100
AcDbLine
 10
648.4172037090445
 20
29.99999935047878
 30
0.0
 11
648.4172037090445
 21
0.7999993504788563
 31
0.0
  0
LINE
  5
2792
330
1A
100
AcDbEntity
  8
ZUWAKU
100
AcDbLine
 10
552.7269569649523
 20
29.99999935047878
 30
0.0
 11
552.7269569649523
 21
0.7999993504788563
 31
0.0
  0
LINE
  5
2793
330
1A
100
AcDbEntity
  8
ZUWAKU
100
AcDbLine
 10
552.9269569649523
 20
29.99999935047878
 30
0.0
 11
552.9269569649524
 21
0.7999993504788563
 31
0.0
  0
LINE
  5
2794
330
1A
100
AcDbEntity
  8
ZUWAKU
100
AcDbLine
 10
552.5269569649524
 20
29.99999935047878
 30
0.0
 11
552.5269569649524
 21
0.7999993504788563
 31
0.0
  0
TEXT
  5
2795
330
1A
100
AcDbEntity
  8
ZUWAKU
100
AcDbText
 10
650.2946487312539
 20
24.05535588886436
 30
0.0
 40
4.0
  1
DATE
 41
0.9
  7
ｽﾀｲﾙ1
100
AcDbText
  0
LINE
  5
2796
330
1A
100
AcDbEntity
  8
ZUWAKU
100
AcDbLine
 10
697.2490117473812
 20
29.99999935047878
 30
0.0
 11
697.2490117473812
 21
0.7999993504788563
 31
0.0
  0
LINE
  5
2797
330
1A
100
AcDbEntity
  8
ZUWAKU
100
AcDbLine
 10
697.4490117473813
 20
29.99999935047878
 30
0.0
 11
697.4490117473813
 21
0.7999993504788563
 31
0.0
  0
LINE
  5
2798
330
1A
100
AcDbEntity
  8
ZUWAKU
100
AcDbLine
 10
697.6490117473811
 20
29.99999935047878
 30
0.0
 11
697.6490117473813
 21
0.7999993504788563
 31
0.0
  0
LINE
  5
2799
330
1A
100
AcDbEntity
  8
ZUWAKU
100
AcDbLine
 10
697.8490117473812
 20
29.99999935047878
 30
0.0
 11
697.8490117473812
 21
0.7999993504788563
 31
0.0
  0
TEXT
  5
279A
330
1A
100
AcDbEntity
  8
ZUWAKU
100
AcDbText
 10
708.5280853910837
 20
17.55383868616558
 30
0.0
 40
6.0
  1
積水化学工業株式会社
 41
0.9
  7
ｽﾀｲﾙ1
100
AcDbText
  0
TEXT
  5
279B
330
1A
100
AcDbEntity
  8
ZUWAKU
100
AcDbText
 10
708.5280853910837
 20
6.648839664332853
 30
0.0
 40
6.0
  1
建材事業部
 41
0.9
  7
ｽﾀｲﾙ1
100
AcDbText
  0
TEXT
  5
2824
330
1A
100
AcDbEntity
  8
SUNPOU
100
AcDbText
 10
469.1684645216899
 20
131.4854844829317
 30
0.0
 40
6.0
  1
10
100
AcDbText
1001
ACAD
1000
MTEXTBEGIN
1070
    73
1070
     1
1070
    44
1040
1.0
1070
    74
1070
     0
1000
MTEXTEND
1000
MTEXTBEGIN
1070
    73
1070
     1
1070
    44
1040
1.0
1070
    74
1070
     0
1000
MTEXTEND
1000
MTEXTBEGIN
1070
    73
1070
     1
1070
    44
1040
1.0
1070
    74
1070
     0
1000
MTEXTEND
1000
MTEXTBEGIN
1070
    73
1070
     1
1070
    44
1040
1.0
1070
    74
1070
     0
1000
MTEXTEND
  0
TEXT
  5
2825
330
1A
100
AcDbEntity
  8
SUNPOU
100
AcDbText
 10
479.5179116470458
 20
121.8635427097083
 30
0.0
 40
6.0
  1
6
100
AcDbText
1001
ACAD
1000
MTEXTBEGIN
1070
    73
1070
     1
1070
    44
1040
1.0
1070
    74
1070
     0
1000
MTEXTEND
1000
MTEXTBEGIN
1070
    73
1070
     1
1070
    44
1040
1.0
1070
    74
1070
     0
1000
MTEXTEND
1000
MTEXTBEGIN
1070
    73
1070
     1
1070
    44
1040
1.0
1070
    74
1070
     0
1000
MTEXTEND
1000
MTEXTBEGIN
1070
    73
1070
     1
1070
    44
1040
1.0
1070
    74
1070
     0
1000
MTEXTEND
  0
ARC
  5
282C
330
1A
100
AcDbEntity
  8
SEIHIN
100
AcDbCircle
 10
407.5951163995762
 20
407.5461461891485
 30
0.0
 40
5.000000000000042
100
AcDbArc
 50
276.6613486491331
 51
0.0000000000052161
  0
ARC
  5
282D
330
1A
100
AcDbEntity
  8
SEIHIN
100
AcDbCircle
 10
409.183101471431
 20
407.5384860011921
 30
0.0
 40
4.981512559973327
100
AcDbArc
 50
275.499184888896
 51
0.0881050901499167
  0
ARC
  5
282E
330
1A
100
AcDbEntity
  8
SEIHIN
100
AcDbCircle
 10
409.0437808733811
 20
369.4960978958744
 30
0.0
 40
5.121071835506585
100
AcDbArc
 50
0.5599612186838098
 51
83.08334855514935
  0
ARC
  5
282F
330
1A
100
AcDbEntity
  8
SEIHIN
100
AcDbCircle
 10
407.5951163995781
 20
369.546146189149
 30
0.0
 40
5.00000000000017
100
AcDbArc
 50
0.0000000000006616
 51
89.99999999999806
  0
ELLIPSE
  5
2830
330
1A
100
AcDbEntity
  8
SEIHIN
100
AcDbEllipse
 10
457.9467811271761
 20
391.079900544895
 30
0.0
 11
-0.0000000000006969
 21
-5.700839288761642
 31
0.0
210
0.0
220
0.0
230
1.0
 40
0.4078030508792179
 41
9.585522963632255
 42
10.99557428756427
  0
LINE
  5
2832
330
1A
100
AcDbEntity
  8
SEIHIN
100
AcDbLine
 10
456.7666145080761
 20
400.5799005448952
 30
0.0
 11
456.911675987776
 21
400.5196746587952
 31
0.0
  0
LINE
  5
2833
330
1A
100
AcDbEntity
  8
SEIHIN
100
AcDbLine
 10
456.911675987776
 20
400.5196746587952
 30
0.0
 11
457.0509131633762
 21
400.3414151052951
 31
0.0
  0
LINE
  5
2834
330
1A
100
AcDbEntity
  8
SEIHIN
100
AcDbLine
 10
457.0509131633762
 20
400.3414151052951
 30
0.0
 11
457.1787355800761
 21
400.0522791107952
 31
0.0
  0
LINE
  5
2835
330
1A
100
AcDbEntity
  8
SEIHIN
100
AcDbLine
 10
457.1787355800761
 20
400.0522791107952
 30
0.0
 11
457.2900110921759
 21
399.6638756562953
 31
0.0
  0
LINE
  5
2836
330
1A
100
AcDbEntity
  8
SEIHIN
100
AcDbLine
 10
457.2900110921759
 20
399.6638756562953
 30
0.0
 11
457.3802719222762
 21
399.1917993698952
 31
0.0
  0
LINE
  5
2837
330
1A
100
AcDbEntity
  8
SEIHIN
100
AcDbLine
 10
457.3802719222762
 20
399.1917993698952
 30
0.0
 11
457.4458940446761
 21
398.6550043934952
 31
0.0
  0
LINE
  5
2838
330
1A
100
AcDbEntity
  8
SEIHIN
100
AcDbLine
 10
457.4458940446761
 20
398.6550043934952
 30
0.0
 11
457.5746852570737
 21
396.7072464201223
 31
0.0
  0
LINE
  5
2839
330
1A
100
AcDbEntity
  8
SEIHIN
100
AcDbLine
 10
455.6219614726469
 20
391.0799005448952
 30
0.0
 11
433.1328345899001
 21
391.0799005448978
 31
0.0
  0
ELLIPSE
  5
283A
330
1A
100
AcDbEntity
  8
SEIHIN
100
AcDbEllipse
 10
456.8073429113919
 20
391.1409720019072
 30
0.0
 11
-0.0000000000006969
 21
-5.700839288761642
 31
0.0
210
0.0
220
0.0
230
1.0
 40
0.4078030508792179
 41
9.585522963632255
 42
11.00628720580228
  0
ARC
  5
283B
330
1A
100
AcDbEntity
  8
SEIHIN
100
AcDbCircle
 10
268.4504512336527
 20
235.1943239606631
 30
0.0
 40
0.5000000000329408
100
AcDbArc
 50
340.7099537859934
 51
89.99999999804588
  0
ARC
  5
283D
330
1A
100
AcDbEntity
  8
SEIHIN
100
AcDbCircle
 10
281.7190927373169
 20
215.1943239609543
 30
0.0
 40
13.49999999974173
100
AcDbArc
 50
48.26575860564283
 51
90.00000000020184
  0
ARC
  5
283E
330
1A
100
AcDbEntity
  8
SEIHIN
100
AcDbCircle
 10
284.6759434339976
 20
212.6943239608606
 30
0.0
 40
9.999999999835523
100
AcDbArc
 50
51.30559416554921
 51
90.00000000016028
  0
ARC
  5
2840
330
1A
100
AcDbEntity
  8
SEIHIN
100
AcDbCircle
 10
289.8968821625694
 20
194.8943239606957
 30
0.0
 40
13.50000000000029
100
AcDbArc
 50
56.57581331629708
 51
90.00000242170012
  0
ARC
  5
2841
330
1A
100
AcDbEntity
  8
SEIHIN
100
AcDbCircle
 10
289.8968821625694
 20
194.8943239606959
 30
0.0
 40
10.00000000000015
100
AcDbArc
 50
56.57581062900293
 51
89.99999502156793
  0
ARC
  5
2842
330
1A
100
AcDbEntity
  8
SEIHIN
100
AcDbCircle
 10
361.5051917360935
 20
303.3943239601766
 30
0.0
 40
116.4999999994805
100
AcDbArc
 50
236.5758103174864
 51
270.0000000000375
  0
ARC
  5
2843
330
1A
100
AcDbEntity
  8
SEIHIN
100
AcDbCircle
 10
361.5051917361696
 20
303.3943239606958
 30
0.0
 40
119.9999999999996
100
AcDbArc
 50
236.5758105273017
 51
269.9999985406015
  0
ARC
  5
2844
330
1A
100
AcDbEntity
  8
SEIHIN
100
AcDbCircle
 10
385.6391663324698
 20
188.8943239606961
 30
0.0
 40
0.4999999999999661
100
AcDbArc
 50
330.0000149928964
 51
90.00000000000651
  0
ARC
  5
2846
330
1A
100
AcDbEntity
  8
SEIHIN
100
AcDbCircle
 10
386.8969629474722
 20
201.3943239606883
 30
0.0
 40
5.00000000000773
100
AcDbArc
 50
90.00000000003064
 51
165.0000045757917
  0
ARC
  5
2847
330
1A
100
AcDbEntity
  8
SEIHIN
100
AcDbCircle
 10
386.8969629474696
 20
201.3943239606958
 30
0.0
 40
8.50000000000017
100
AcDbArc
 50
90.00000000000074
 51
164.9999962477975
  0
ARC
  5
2848
330
1A
100
AcDbEntity
  8
SEIHIN
100
AcDbCircle
 10
393.2117241893273
 20
201.3943239608412
 30
0.0
 40
8.499999999854878
100
AcDbArc
 50
3.532294583204187
 51
90.00000000038808
  0
ARC
  5
2849
330
1A
100
AcDbEntity
  8
SEIHIN
100
AcDbCircle
 10
393.2117241892695
 20
201.3943239606959
 30
0.0
 40
5.000000000000085
100
AcDbArc
 50
3.532294583901149
 51
89.99999999999863
  0
ARC
  5
284A
330
1A
100
AcDbEntity
  8
SEIHIN
100
AcDbCircle
 10
391.5051917361697
 20
203.3943239606959
 30
0.0
 40
3.000000000000085
100
AcDbArc
 50
0.000008537073688
 51
90.0
  0
ARC
  5
284B
330
1A
100
AcDbEntity
  8
SEIHIN
100
AcDbCircle
 10
397.5051917361703
 20
201.2943239606962
 30
0.0
 40
3.000000000000568
100
AcDbArc
 50
180.0000000000037
 51
233.1301023541465
  0
ARC
  5
284C
330
1A
100
AcDbEntity
  8
SEIHIN
100
AcDbCircle
 10
395.5962917647831
 20
195.225998939121
 30
0.0
 40
3.000000000111924
100
AcDbArc
 50
3.532294585485402
 51
53.13010235369618
  0
ARC
  5
284D
330
1A
100
AcDbEntity
  8
SEIHIN
100
AcDbCircle
 10
399.5051917360423
 20
184.6081741551184
 30
0.0
 40
2.999999999872629
100
AcDbArc
 50
140.194423605779
 51
180.0000000004271
  0
ARC
  5
284E
330
1A
100
AcDbEntity
  8
SEIHIN
100
AcDbCircle
 10
442.8956687044672
 20
183.1943239607005
 30
0.0
 40
1.000000000004433
100
AcDbArc
 50
270.0000000001433
 51
30.9637565317166
  0
ARC
  5
284F
330
1A
100
AcDbEntity
  8
SEIHIN
100
AcDbCircle
 10
445.0632879465699
 20
175.6943239606962
 30
0.0
 40
2.999999999999886
100
AcDbArc
 50
30.96375653209837
 51
90.00000000000216
  0
ARC
  5
2857
330
1A
100
AcDbEntity
  8
SEIHIN
100
AcDbCircle
 10
407.133336399168
 20
224.2300237295888
 30
0.0
 40
8.000000000007146
100
AcDbArc
 50
33.91234117794716
 51
89.99999999998738
  0
ARC
  5
2858
330
1A
100
AcDbEntity
  8
SEIHIN
100
AcDbCircle
 10
392.9263941671696
 20
205.7300237295958
 30
0.0
 40
30.00000000000022
100
AcDbArc
 50
89.99999571069794
 51
134.4052601452971
  0
ARC
  5
2859
330
1A
100
AcDbEntity
  8
SEIHIN
100
AcDbCircle
 10
392.9263941671696
 20
205.7300237295962
 30
0.0
 40
26.49999999999976
100
AcDbArc
 50
90.00000332730165
 51
134.4052601452977
  0
LINE
  5
285D
330
1A
100
AcDbEntity
  8
SUNPOU
100
AcDbLine
 10
586.4930227594654
 20
312.4747598572922
 30
0.0
 11
583.9624792014898
 21
305.844717594056
 31
0.0
  0
LINE
  5
285E
330
1A
100
AcDbEntity
  8
SUNPOU
100
AcDbLine
 10
583.9624792014898
 20
305.844717594056
 30
0.0
 11
584.2059526439307
 21
312.9370960240283
 31
0.0
  0
LINE
  5
285F
330
1A
100
AcDbEntity
  8
SUNPOU
100
AcDbLine
 10
583.9624792014898
 20
305.844717594056
 30
0.0
 11
585.3494877016981
 21
312.7059279406603
 31
0.0
  0
LINE
  5
2860
330
1A
100
AcDbEntity
  8
SUNPOU
100
AcDbLine
 10
585.3494877016981
 20
312.7059279406603
 30
0.0
 11
592.4259850926666
 21
347.7117243069706
 31
0.0
1001
ACAD
1000
DSTYLE
1002
{
1070
     6
1000
OPEN
1070
    41
1040
7.0
1070
    42
1040
6.0
1070
    43
1040
14.0
1070
    44
1040
3.0
1070
    73
1070
     0
1070
    74
1070
     0
1070
    77
1070
     0
1070
   140
1040
6.0
1070
   141
1040
150.0
1070
   147
1040
2.0
1070
   172
1070
     1
1070
   173
1070
     1
1070
   176
1070
     4
1070
   177
1070
     4
1070
   178
1070
     4
1070
   271
1070
     0
1070
   272
1070
     0
1070
   341
1005
6D
1070
   343
1005
6D
1070
   344
1005
6D
1002
}
  0
LINE
  5
2861
330
1A
100
AcDbEntity
  8
SUNPOU
100
AcDbLine
 10
592.4259850926666
 20
347.7117243069706
 30
0.0
 11
627.3986505596168
 21
347.7117243069706
 31
0.0
1001
ACAD
1000
DSTYLE
1002
{
1070
     6
1000
OPEN
1070
    41
1040
7.0
1070
    42
1040
6.0
1070
    43
1040
14.0
1070
    44
1040
3.0
1070
    73
1070
     0
1070
    74
1070
     0
1070
    77
1070
     0
1070
   140
1040
6.0
1070
   141
1040
150.0
1070
   147
1040
2.0
1070
   172
1070
     1
1070
   173
1070
     1
1070
   176
1070
     4
1070
   177
1070
     4
1070
   178
1070
     4
1070
   271
1070
     0
1070
   272
1070
     0
1070
   341
1005
6D
1070
   343
1005
6D
1070
   344
1005
6D
1002
}
  0
VIEWPORT
  5
22
330
17
100
AcDbEntity
 67
     1
  8
0
100
AcDbViewport
 10
313.6808219178082
 20
148.5
 30
0.0
 40
627.3616438356165
 41
297.0
 68
     2
 69
     1
1001
ACAD
1000
MVIEW
1002
{
1070
    16
1010
0.0
1020
0.0
1030
0.0
1010
0.0
1020
0.0
1030
1.0
1040
0.0
1040
297.0
1040
313.6808219178082
1040
148.5
1040
50.0
1040
0.0
1040
0.0
1070
     0
1070
   100
1070
     1
1070
     0
1070
     0
1070
     0
1070
     0
1070
     0
1040
0.0
1040
0.0
1040
0.0
1040
1.0
1040
1.0
1040
10.0
1040
10.0
1070
     0
1002
{
1002
}
1002
}
  0
VIEWPORT
  5
64
330
17
100
AcDbEntity
 67
     1
  8
VIEWPORT
100
AcDbViewport
 10
210.0
 20
148.5
 30
0.0
 40
420.0
 41
297.0
 68
     1
 69
     2
1001
ACAD
1000
MVIEW
1002
{
1070
    16
1010
0.0
1020
0.0
1030
0.0
1010
0.0
1020
0.0
1030
1.0
1040
0.0
1040
605.8799999999998
1040
420.0
1040
297.0
1040
50.0
1040
0.0
1040
0.0
1070
     0
1070
   100
1070
     1
1070
     0
1070
     0
1070
     0
1070
     0
1070
     0
1040
0.0
1040
0.0
1040
0.0
1040
10.0
1040
10.0
1040
0.0
1040
0.0
1070
     0
1002
{
1002
}
1002
}
  0
ENDSEC
  0
SECTION
  2
OBJECTS
  0
DICTIONARY
  5
C
330
0
100
AcDbDictionary
  3
ACAD_GROUP
350
D
  3
ACAD_LAYOUT
350
150D
  3
ACAD_MLINESTYLE
350
E
  3
ACAD_PLOTSETTINGS
350
150E
  3
ACAD_PLOTSTYLENAME
350
150B
  3
ACDBHEADERROUNDTRIPXREC
350
2863
  0
DICTIONARY
  5
17EA
330
1A
100
AcDbDictionary
280
     1
  3
ACAD_LAYOUTSELFREF
360
2885
  0
DICTIONARY
  5
17E8
330
17
100
AcDbDictionary
280
     1
  3
ACAD_LAYOUTSELFREF
360
2884
  0
DICTIONARY
  5
D
102
{ACAD_REACTORS
330
C
102
}
330
C
100
AcDbDictionary
  0
DICTIONARY
  5
150D
102
{ACAD_REACTORS
330
C
102
}
330
C
100
AcDbDictionary
  0
DICTIONARY
  5
E
102
{ACAD_REACTORS
330
C
102
}
330
C
100
AcDbDictionary
  3
STANDARD
350
13
  0
DICTIONARY
  5
150E
102
{ACAD_REACTORS
330
C
102
}
330
C
100
AcDbDictionary
  0
ACDBDICTIONARYWDFLT
  5
150B
102
{ACAD_REACTORS
330
C
102
}
330
C
100
AcDbDictionary
281
     1
  3
Normal
350
150C
100
AcDbDictionaryWithDefault
340
150C
1001
ACAD
1000
TREAT_AS_HARD
1070
     0
1000
TREAT_AS_HARD
1070
     0
1000
TREAT_AS_HARD
1070
     0
  0
DICTIONARY
  5
2863
102
{ACAD_REACTORS
330
C
102
}
330
C
100
AcDbDictionary
  3
TSTACKALIGN
350
2864
  3
TSTACKSIZE
350
2865
  3
HYPERLINKBASE
350
2866
  3
STYLESHEET
350
2867
  3
LAYOUTDICT
350
2868
  3
PLOTSETDICT
350
2869
  3
PLOTSTYLNAMDICT
350
286A
  3
LWETCUNION
350
286B
  3
INSUNITS
350
286C
  3
CEPSNTYPE
350
286D
  3
FINGERPRINTGUID
350
286E
  3
VERSIONGUID
350
286F
  3
PSVPSCALE
350
2870
  3
DIMSTYLEDATA
350
2871
  3
PUCSORTHOREF
350
2872
  3
PUCSORTHOVIEW
350
2873
  3
PUCSBASE
350
2874
  3
PUCSORGTOP
350
2875
  3
PUCSORGBOTTOM
350
2876
  3
PUCSORGLEFT
350
2877
  3
PUCSORGRIGHT
350
2878
  3
PUCSORGFRONT
350
2879
  3
PUCSORGBACK
350
287A
  3
UCSORTHOREF
350
287B
  3
UCSORTHOVIEW
350
287C
  3
UCSBASE
350
287D
  3
UCSORGTOP
350
287E
  3
UCSORGBOTTOM
350
287F
  3
UCSORGLEFT
350
2880
  3
UCSORGRIGHT
350
2881
  3
UCSORGFRONT
350
2882
  3
UCSORGBACK
350
2883
  0
XRECORD
  5
2885
102
{ACAD_REACTORS
330
17EA
102
}
330
17EA
100
AcDbXrecord
340
1A
  0
XRECORD
  5
2884
102
{ACAD_REACTORS
330
17E8
102
}
330
17E8
100
AcDbXrecord
340
17
  0
MLINESTYLE
  5
13
102
{ACAD_REACTORS
330
E
102
}
330
E
100
AcDbMlineStyle
  2
STANDARD
 70
     0
  3

 62
     0
 51
90.0
 52
90.0
 71
     2
 49
0.5
 62
   256
  6
BYLAYER
 49
-0.5
 62
   256
  6
BYLAYER
  0
ACDBPLACEHOLDER
  5
150C
102
{ACAD_REACTORS
330
150B
102
}
330
150B
100
AcDbPlaceHolder
280
     0
  0
XRECORD
  5
2864
102
{ACAD_REACTORS
330
2863
102
}
330
2863
100
AcDbXrecord
 90
        1
  0
XRECORD
  5
2865
102
{ACAD_REACTORS
330
2863
102
}
330
2863
100
AcDbXrecord
 90
       70
  0
XRECORD
  5
2866
102
{ACAD_REACTORS
330
2863
102
}
330
2863
100
AcDbXrecord
  1

  0
XRECORD
  5
2867
102
{ACAD_REACTORS
330
2863
102
}
330
2863
100
AcDbXrecord
  1

  0
XRECORD
  5
2868
102
{ACAD_REACTORS
330
2863
102
}
330
2863
100
AcDbXrecord
340
150D
  0
XRECORD
  5
2869
102
{ACAD_REACTORS
330
2863
102
}
330
2863
100
AcDbXrecord
340
150E
  0
XRECORD
  5
286A
102
{ACAD_REACTORS
330
2863
102
}
330
2863
100
AcDbXrecord
340
150B
  0
XRECORD
  5
286B
102
{ACAD_REACTORS
330
2863
102
}
330
2863
100
AcDbXrecord
 90
    14877
  0
XRECORD
  5
286C
102
{ACAD_REACTORS
330
2863
102
}
330
2863
100
AcDbXrecord
 90
        0
  0
XRECORD
  5
286D
102
{ACAD_REACTORS
330
2863
102
}
330
2863
100
AcDbXrecord
 90
        0
  0
XRECORD
  5
286E
102
{ACAD_REACTORS
330
2863
102
}
330
2863
100
AcDbXrecord
  1
{3EE67650-88A2-4732-B35F-B90473683490}
  0
XRECORD
  5
286F
102
{ACAD_REACTORS
330
2863
102
}
330
2863
100
AcDbXrecord
  1
{D6509EFE-A24C-44BB-BD7D-2D9828849076}
  0
XRECORD
  5
2870
102
{ACAD_REACTORS
330
2863
102
}
330
2863
100
AcDbXrecord
 40
0.0
  0
XRECORD
  5
2871
102
{ACAD_REACTORS
330
2863
102
}
330
2863
100
AcDbXrecord
1000
DSTYLE
1002
{
1070
   341
340
6D
1070
   343
340
6D
1070
   344
340
6D
1070
   371
 70
    -1
1070
   372
 70
    -1
1002
}
  0
XRECORD
  5
2872
102
{ACAD_REACTORS
330
2863
102
}
330
2863
100
AcDbXrecord
340
0
  0
XRECORD
  5
2873
102
{ACAD_REACTORS
330
2863
102
}
330
2863
100
AcDbXrecord
 70
     0
  0
XRECORD
  5
2874
102
{ACAD_REACTORS
330
2863
102
}
330
2863
100
AcDbXrecord
340
0
  0
XRECORD
  5
2875
102
{ACAD_REACTORS
330
2863
102
}
330
2863
100
AcDbXrecord
 10
0.0
 20
0.0
 30
0.0
  0
XRECORD
  5
2876
102
{ACAD_REACTORS
330
2863
102
}
330
2863
100
AcDbXrecord
 10
0.0
 20
0.0
 30
0.0
  0
XRECORD
  5
2877
102
{ACAD_REACTORS
330
2863
102
}
330
2863
100
AcDbXrecord
 10
0.0
 20
0.0
 30
0.0
  0
XRECORD
  5
2878
102
{ACAD_REACTORS
330
2863
102
}
330
2863
100
AcDbXrecord
 10
0.0
 20
0.0
 30
0.0
  0
XRECORD
  5
2879
102
{ACAD_REACTORS
330
2863
102
}
330
2863
100
AcDbXrecord
 10
0.0
 20
0.0
 30
0.0
  0
XRECORD
  5
287A
102
{ACAD_REACTORS
330
2863
102
}
330
2863
100
AcDbXrecord
 10
0.0
 20
0.0
 30
0.0
  0
XRECORD
  5
287B
102
{ACAD_REACTORS
330
2863
102
}
330
2863
100
AcDbXrecord
340
0
  0
XRECORD
  5
287C
102
{ACAD_REACTORS
330
2863
102
}
330
2863
100
AcDbXrecord
 70
     0
  0
XRECORD
  5
287D
102
{ACAD_REACTORS
330
2863
102
}
330
2863
100
AcDbXrecord
340
0
  0
XRECORD
  5
287E
102
{ACAD_REACTORS
330
2863
102
}
330
2863
100
AcDbXrecord
 10
0.0
 20
0.0
 30
0.0
  0
XRECORD
  5
287F
102
{ACAD_REACTORS
330
2863
102
}
330
2863
100
AcDbXrecord
 10
0.0
 20
0.0
 30
0.0
  0
XRECORD
  5
2880
102
{ACAD_REACTORS
330
2863
102
}
330
2863
100
AcDbXrecord
 10
0.0
 20
0.0
 30
0.0
  0
XRECORD
  5
2881
102
{ACAD_REACTORS
330
2863
102
}
330
2863
100
AcDbXrecord
 10
0.0
 20
0.0
 30
0.0
  0
XRECORD
  5
2882
102
{ACAD_REACTORS
330
2863
102
}
330
2863
100
AcDbXrecord
 10
0.0
 20
0.0
 30
0.0
  0
XRECORD
  5
2883
102
{ACAD_REACTORS
330
2863
102
}
330
2863
100
AcDbXrecord
 10
0.0
 20
0.0
 30
0.0
  0
ENDSEC
  0
EOF
