  0
SECTION
  2
HEADER
  9
$ACADVER
  1
AC1014
  9
$ACADMAINTVER
 70
     9
  9
$DWGCODEPAGE
  3
ANSI_932
  9
$INSBASE
 10
0.0
 20
0.0
 30
0.0
  9
$EXTMIN
 10
-0.0256328098773793
 20
-0.0181260584133725
 30
-0.0015258207003583
  9
$EXTMAX
 10
797.6000995626677
 20
551.6452344880035
 30
0.0000000349246037
  9
$LIMMIN
 10
0.0
 20
0.0
  9
$LIMMAX
 10
840.0
 20
594.0
  9
$ORTHOMODE
 70
     0
  9
$REGENMODE
 70
     1
  9
$FILLMODE
 70
     1
  9
$QTEXTMODE
 70
     0
  9
$MIRRTEXT
 70
     1
  9
$DRAGMODE
 70
     2
  9
$LTSCALE
 40
2.0
  9
$OSMODE
 70
    35
  9
$ATTMODE
 70
     1
  9
$TEXTSIZE
 40
6.0
  9
$TRACEWID
 40
1.0
  9
$TEXTSTYLE
  7
STANDARD
  9
$CLAYER
  8
SUNPOU
  9
$CELTYPE
  6
BYLAYER
  9
$CECOLOR
 62
   256
  9
$CELTSCALE
 40
5.0
  9
$DELOBJ
 70
     1
  9
$DISPSILH
 70
     0
  9
$DIMSCALE
 40
1.0
  9
$DIMASZ
 40
7.0
  9
$DIMEXO
 40
6.0
  9
$DIMDLI
 40
14.0
  9
$DIMRND
 40
0.0
  9
$DIMDLE
 40
0.0
  9
$DIMEXE
 40
3.0
  9
$DIMTP
 40
0.0
  9
$DIMTM
 40
0.0
  9
$DIMTXT
 40
6.0
  9
$DIMCEN
 40
150.0
  9
$DIMTSZ
 40
0.0
  9
$DIMTOL
 70
     0
  9
$DIMLIM
 70
     0
  9
$DIMTIH
 70
     0
  9
$DIMTOH
 70
     0
  9
$DIMSE1
 70
     0
  9
$DIMSE2
 70
     0
  9
$DIMTAD
 70
     3
  9
$DIMZIN
 70
     0
  9
$DIMBLK
  1

  9
$DIMASO
 70
     1
  9
$DIMSHO
 70
     1
  9
$DIMPOST
  1

  9
$DIMAPOST
  1

  9
$DIMALT
 70
     0
  9
$DIMALTD
 70
     2
  9
$DIMALTF
 40
25.4
  9
$DIMLFAC
 40
1.0
  9
$DIMTOFL
 70
     1
  9
$DIMTVP
 40
0.0
  9
$DIMTIX
 70
     0
  9
$DIMSOXD
 70
     0
  9
$DIMSAH
 70
     1
  9
$DIMBLK1
  1
OPEN
  9
$DIMBLK2
  1
OPEN
  9
$DIMSTYLE
  2
STANDARD
  9
$DIMCLRD
 70
   256
  9
$DIMCLRE
 70
   256
  9
$DIMCLRT
 70
   256
  9
$DIMTFAC
 40
1.0
  9
$DIMGAP
 40
2.0
  9
$DIMJUST
 70
     0
  9
$DIMSD1
 70
     0
  9
$DIMSD2
 70
     0
  9
$DIMTOLJ
 70
     1
  9
$DIMTZIN
 70
     0
  9
$DIMALTZ
 70
     0
  9
$DIMALTTZ
 70
     0
  9
$DIMFIT
 70
     3
  9
$DIMUPT
 70
     0
  9
$DIMUNIT
 70
     2
  9
$DIMDEC
 70
     0
  9
$DIMTDEC
 70
     0
  9
$DIMALTU
 70
     2
  9
$DIMALTTD
 70
     2
  9
$DIMTXSTY
  7
STANDARD
  9
$DIMAUNIT
 70
     0
  9
$LUNITS
 70
     2
  9
$LUPREC
 70
     4
  9
$SKETCHINC
 40
1.0
  9
$FILLETRAD
 40
1.0
  9
$AUNITS
 70
     0
  9
$AUPREC
 70
     0
  9
$MENU
  1
.
  9
$ELEVATION
 40
0.0
  9
$PELEVATION
 40
0.0
  9
$THICKNESS
 40
0.0
  9
$LIMCHECK
 70
     0
  9
$BLIPMODE
 70
     0
  9
$CHAMFERA
 40
1.0
  9
$CHAMFERB
 40
1.0
  9
$CHAMFERC
 40
40.0
  9
$CHAMFERD
 40
0.0
  9
$SKPOLY
 70
     0
  9
$TDCREATE
 40
2451199.484270833
  9
$TDUPDATE
 40
2453802.428282870
  9
$TDINDWG
 40
0.3707059838
  9
$TDUSRTIMER
 40
0.3707059838
  9
$USRTIMER
 70
     1
  9
$ANGBASE
 50
0.0
  9
$ANGDIR
 70
     0
  9
$PDMODE
 70
     0
  9
$PDSIZE
 40
0.0
  9
$PLINEWID
 40
0.0
  9
$COORDS
 70
     1
  9
$SPLFRAME
 70
     0
  9
$SPLINETYPE
 70
     6
  9
$SPLINESEGS
 70
     8
  9
$ATTDIA
 70
     0
  9
$ATTREQ
 70
     1
  9
$HANDLING
 70
 10241
  9
$HANDSEED
  5
6F36
  9
$SURFTAB1
 70
     6
  9
$SURFTAB2
 70
     6
  9
$SURFTYPE
 70
     6
  9
$SURFU
 70
     6
  9
$SURFV
 70
     6
  9
$UCSNAME
  2

  9
$UCSORG
 10
0.0
 20
0.0
 30
0.0
  9
$UCSXDIR
 10
1.0
 20
0.0
 30
0.0
  9
$UCSYDIR
 10
0.0
 20
1.0
 30
0.0
  9
$PUCSNAME
  2

  9
$PUCSORG
 10
0.0
 20
0.0
 30
0.0
  9
$PUCSXDIR
 10
1.0
 20
0.0
 30
0.0
  9
$PUCSYDIR
 10
0.0
 20
1.0
 30
0.0
  9
$USERI1
 70
     0
  9
$USERI2
 70
     0
  9
$USERI3
 70
     0
  9
$USERI4
 70
     0
  9
$USERI5
 70
     0
  9
$USERR1
 40
0.0
  9
$USERR2
 40
0.0
  9
$USERR3
 40
0.0
  9
$USERR4
 40
0.0
  9
$USERR5
 40
0.0
  9
$WORLDVIEW
 70
     1
  9
$SHADEDGE
 70
     3
  9
$SHADEDIF
 70
    70
  9
$TILEMODE
 70
     1
  9
$MAXACTVP
 70
    16
  9
$PINSBASE
 10
0.0
 20
0.0
 30
0.0
  9
$PLIMCHECK
 70
     0
  9
$PEXTMIN
 10
0.0
 20
0.0
 30
0.0
  9
$PEXTMAX
 10
420.0
 20
297.0
 30
0.0
  9
$PLIMMIN
 10
0.0
 20
0.0
  9
$PLIMMAX
 10
420.0
 20
297.0
  9
$UNITMODE
 70
     0
  9
$VISRETAIN
 70
     0
  9
$PLINEGEN
 70
     0
  9
$PSLTSCALE
 70
     1
  9
$TREEDEPTH
 70
  3020
  9
$PICKSTYLE
 70
     1
  9
$CMLSTYLE
  2
STANDARD
  9
$CMLJUST
 70
     0
  9
$CMLSCALE
 40
1.0
  9
$PROXYGRAPHICS
 70
     1
  9
$MEASUREMENT
 70
     1
  0
ENDSEC
  0
SECTION
  2
CLASSES
  0
CLASS
  1
ACDBDICTIONARYWDFLT
  2
AcDbDictionaryWithDefault
  3
AutoCAD 2000
 90
        0
280
     0
281
     0
  0
CLASS
  1
ACDBPLACEHOLDER
  2
AcDbPlaceHolder
  3
AutoCAD 2000
 90
        0
280
     0
281
     0
  0
CLASS
  1
LAYOUT
  2
AcDbLayout
  3
AutoCAD 2000
 90
        0
280
     0
281
     0
  0
CLASS
  1
LONG_TRANSACTION
  2
AcDbLongTransaction
  3
AutoCAD 2000
 90
        0
280
     0
281
     0
  0
CLASS
  1
LWPOLYLINE
  2
AcDbPolyline
  3
AutoCAD 2000
 90
        0
280
     0
281
     1
  0
CLASS
  1
HATCH
  2
AcDbHatch
  3
AutoCAD 2000
 90
        0
280
     0
281
     1
  0
CLASS
  1
XRECORD
  2
AcDbXrecord
  3
AutoCAD 2000
 90
        0
280
     0
281
     0
  0
CLASS
  1
LONG_TRANSACTION
  2
AcDbLongTransaction
  3
AutoCAD 2000
 90
        0
280
     0
281
     0
  0
CLASS
  1
LWPOLYLINE
  2
AcDbPolyline
  3
AutoCAD 2000
 90
        0
280
     0
281
     1
  0
CLASS
  1
HATCH
  2
AcDbHatch
  3
AutoCAD 2000
 90
        0
280
     0
281
     1
  0
CLASS
  1
XRECORD
  2
AcDbXrecord
  3
AutoCAD 2000
 90
        0
280
     0
281
     0
  0
CLASS
  1
LONG_TRANSACTION
  2
AcDbLongTransaction
  3
AutoCAD 2000
 90
        0
280
     0
281
     0
  0
CLASS
  1
LWPOLYLINE
  2
AcDbPolyline
  3
AutoCAD 2000
 90
        0
280
     0
281
     1
  0
CLASS
  1
HATCH
  2
AcDbHatch
  3
AutoCAD 2000
 90
        0
280
     0
281
     1
  0
CLASS
  1
XRECORD
  2
AcDbXrecord
  3
AutoCAD 2000
 90
        0
280
     0
281
     0
  0
CLASS
  1
LONG_TRANSACTION
  2
AcDbLongTransaction
  3
AutoCAD 2000
 90
        0
280
     0
281
     0
  0
CLASS
  1
LWPOLYLINE
  2
AcDbPolyline
  3
AutoCAD 2000
 90
        0
280
     0
281
     1
  0
CLASS
  1
HATCH
  2
AcDbHatch
  3
AutoCAD 2000
 90
        0
280
     0
281
     1
  0
CLASS
  1
XRECORD
  2
AcDbXrecord
  3
AutoCAD 2000
 90
        0
280
     0
281
     0
  0
CLASS
  1
LONG_TRANSACTION
  2
AcDbLongTransaction
  3
AutoCAD 2000
 90
        0
280
     0
281
     0
  0
CLASS
  1
LWPOLYLINE
  2
AcDbPolyline
  3
AutoCAD 2000
 90
        0
280
     0
281
     1
  0
CLASS
  1
HATCH
  2
AcDbHatch
  3
AutoCAD 2000
 90
        0
280
     0
281
     1
  0
CLASS
  1
XRECORD
  2
AcDbXrecord
  3
AutoCAD 2000
 90
        0
280
     0
281
     0
  0
CLASS
  1
LONG_TRANSACTION
  2
AcDbLongTransaction
  3
AutoCAD 2000
 90
        0
280
     0
281
     0
  0
CLASS
  1
LWPOLYLINE
  2
AcDbPolyline
  3
AutoCAD 2000
 90
        0
280
     0
281
     1
  0
CLASS
  1
HATCH
  2
AcDbHatch
  3
AutoCAD 2000
 90
        0
280
     0
281
     1
  0
CLASS
  1
XRECORD
  2
AcDbXrecord
  3
AutoCAD 2000
 90
        0
280
     0
281
     0
  0
CLASS
  1
LONG_TRANSACTION
  2
AcDbLongTransaction
  3
AutoCAD 2000
 90
        0
280
     0
281
     0
  0
CLASS
  1
LWPOLYLINE
  2
AcDbPolyline
  3
AutoCAD 2000
 90
        0
280
     0
281
     1
  0
CLASS
  1
HATCH
  2
AcDbHatch
  3
AutoCAD 2000
 90
        0
280
     0
281
     1
  0
CLASS
  1
XRECORD
  2
AcDbXrecord
  3
AutoCAD 2000
 90
        0
280
     0
281
     0
  0
CLASS
  1
LONG_TRANSACTION
  2
AcDbLongTransaction
  3
AutoCAD 2000
 90
        0
280
     0
281
     0
  0
CLASS
  1
LWPOLYLINE
  2
AcDbPolyline
  3
AutoCAD 2000
 90
        0
280
     0
281
     1
  0
CLASS
  1
HATCH
  2
AcDbHatch
  3
AutoCAD 2000
 90
        0
280
     0
281
     1
  0
CLASS
  1
XRECORD
  2
AcDbXrecord
  3
AutoCAD 2000
 90
        0
280
     0
281
     0
  0
CLASS
  1
LONG_TRANSACTION
  2
AcDbLongTransaction
  3
AutoCAD 2000
 90
        0
280
     0
281
     0
  0
CLASS
  1
LWPOLYLINE
  2
AcDbPolyline
  3
AutoCAD 2000
 90
        0
280
     0
281
     1
  0
CLASS
  1
HATCH
  2
AcDbHatch
  3
AutoCAD 2000
 90
        0
280
     0
281
     1
  0
CLASS
  1
XRECORD
  2
AcDbXrecord
  3
AutoCAD 2000
 90
        0
280
     0
281
     0
  0
CLASS
  1
LONG_TRANSACTION
  2
AcDbLongTransaction
  3
AutoCAD 2000
 90
        0
280
     0
281
     0
  0
CLASS
  1
LWPOLYLINE
  2
AcDbPolyline
  3
AutoCAD 2000
 90
        0
280
     0
281
     1
  0
CLASS
  1
HATCH
  2
AcDbHatch
  3
AutoCAD 2000
 90
        0
280
     0
281
     1
  0
CLASS
  1
XRECORD
  2
AcDbXrecord
  3
AutoCAD 2000
 90
        0
280
     0
281
     0
  0
CLASS
  1
LONG_TRANSACTION
  2
AcDbLongTransaction
  3
AutoCAD 2000
 90
        0
280
     0
281
     0
  0
CLASS
  1
LWPOLYLINE
  2
AcDbPolyline
  3
AutoCAD 2000
 90
        0
280
     0
281
     1
  0
CLASS
  1
HATCH
  2
AcDbHatch
  3
AutoCAD 2000
 90
        0
280
     0
281
     1
  0
CLASS
  1
XRECORD
  2
AcDbXrecord
  3
AutoCAD 2000
 90
        0
280
     0
281
     0
  0
CLASS
  1
LONG_TRANSACTION
  2
AcDbLongTransaction
  3
AutoCAD 2000
 90
        0
280
     0
281
     0
  0
CLASS
  1
LWPOLYLINE
  2
AcDbPolyline
  3
AutoCAD 2000
 90
        0
280
     0
281
     1
  0
CLASS
  1
HATCH
  2
AcDbHatch
  3
AutoCAD 2000
 90
        0
280
     0
281
     1
  0
CLASS
  1
XRECORD
  2
AcDbXrecord
  3
AutoCAD 2000
 90
        0
280
     0
281
     0
  0
CLASS
  1
LONG_TRANSACTION
  2
AcDbLongTransaction
  3
AutoCAD 2000
 90
        0
280
     0
281
     0
  0
CLASS
  1
LWPOLYLINE
  2
AcDbPolyline
  3
AutoCAD 2000
 90
        0
280
     0
281
     1
  0
CLASS
  1
HATCH
  2
AcDbHatch
  3
AutoCAD 2000
 90
        0
280
     0
281
     1
  0
CLASS
  1
XRECORD
  2
AcDbXrecord
  3
AutoCAD 2000
 90
        0
280
     0
281
     0
  0
CLASS
  1
LONG_TRANSACTION
  2
AcDbLongTransaction
  3
AutoCAD 2000
 90
        0
280
     0
281
     0
  0
CLASS
  1
LWPOLYLINE
  2
AcDbPolyline
  3
AutoCAD 2000
 90
        0
280
     0
281
     1
  0
CLASS
  1
HATCH
  2
AcDbHatch
  3
AutoCAD 2000
 90
        0
280
     0
281
     1
  0
CLASS
  1
XRECORD
  2
AcDbXrecord
  3
AutoCAD 2000
 90
        0
280
     0
281
     0
  0
CLASS
  1
LONG_TRANSACTION
  2
AcDbLongTransaction
  3
AutoCAD 2000
 90
        0
280
     0
281
     0
  0
CLASS
  1
LWPOLYLINE
  2
AcDbPolyline
  3
AutoCAD 2000
 90
        0
280
     0
281
     1
  0
CLASS
  1
HATCH
  2
AcDbHatch
  3
AutoCAD 2000
 90
        0
280
     0
281
     1
  0
CLASS
  1
XRECORD
  2
AcDbXrecord
  3
AutoCAD 2000
 90
        0
280
     0
281
     0
  0
CLASS
  1
LONG_TRANSACTION
  2
AcDbLongTransaction
  3
AutoCAD 2000
 90
        0
280
     0
281
     0
  0
CLASS
  1
LWPOLYLINE
  2
AcDbPolyline
  3
AutoCAD 2000
 90
        0
280
     0
281
     1
  0
CLASS
  1
HATCH
  2
AcDbHatch
  3
AutoCAD 2000
 90
        0
280
     0
281
     1
  0
CLASS
  1
XRECORD
  2
AcDbXrecord
  3
AutoCAD 2000
 90
        0
280
     0
281
     0
  0
CLASS
  1
LONG_TRANSACTION
  2
AcDbLongTransaction
  3
AutoCAD 2000
 90
        0
280
     0
281
     0
  0
CLASS
  1
LWPOLYLINE
  2
AcDbPolyline
  3
AutoCAD 2000
 90
        0
280
     0
281
     1
  0
CLASS
  1
HATCH
  2
AcDbHatch
  3
AutoCAD 2000
 90
        0
280
     0
281
     1
  0
CLASS
  1
XRECORD
  2
AcDbXrecord
  3
AutoCAD 2000
 90
        0
280
     0
281
     0
  0
ENDSEC
  0
SECTION
  2
TABLES
  0
TABLE
  2
VPORT
  5
8
330
0
100
AcDbSymbolTable
 70
     2
  0
VPORT
  5
6F07
330
8
100
AcDbSymbolTableRecord
100
AcDbViewportTableRecord
  2
*ACTIVE
 70
     0
 10
0.0
 20
0.0
 11
1.0
 21
1.0
 12
433.3721598249404
 22
282.4128501297332
 13
0.0
 23
0.0
 14
5.0
 24
5.0
 15
0.0
 25
0.0
 16
0.0
 26
0.0
 36
1.0
 17
0.0
 27
0.0
 37
0.0
 40
660.2089804946485
 41
1.795454545454545
 42
50.0
 43
0.0
 44
0.0
 50
0.0
 51
0.0
 71
     0
 72
   100
 73
     1
 74
     0
 75
     0
 76
     0
 77
     0
 78
     0
  0
ENDTAB
  0
TABLE
  2
LTYPE
  5
5
330
0
100
AcDbSymbolTable
 70
     4
  0
LTYPE
  5
14
330
5
100
AcDbSymbolTableRecord
100
AcDbLinetypeTableRecord
  2
BYBLOCK
 70
     0
  3

 72
    65
 73
     0
 40
0.0
  0
LTYPE
  5
15
330
5
100
AcDbSymbolTableRecord
100
AcDbLinetypeTableRecord
  2
BYLAYER
 70
     0
  3

 72
    65
 73
     0
 40
0.0
  0
LTYPE
  5
16
330
5
100
AcDbSymbolTableRecord
100
AcDbLinetypeTableRecord
  2
CONTINUOUS
 70
     0
  3
Solid line
 72
    65
 73
     0
 40
0.0
  0
LTYPE
  5
115
330
5
100
AcDbSymbolTableRecord
100
AcDbLinetypeTableRecord
  2
PHANTOM
 70
     0
  3
______  __  __  ______  __  __  ______  __  __ 
 72
    65
 73
     6
 40
2.5
 49
1.25
 74
     0
 49
-0.25
 74
     0
 49
0.25
 74
     0
 49
-0.25
 74
     0
 49
0.25
 74
     0
 49
-0.25
 74
     0
  0
LTYPE
  5
135
330
5
100
AcDbSymbolTableRecord
100
AcDbLinetypeTableRecord
  2
CENTER
 70
     0
  3
____ _ ____ _ ____ _ ____ _ ____ _ ____ _ ____ 
 72
    65
 73
     4
 40
2.0
 49
1.25
 74
     0
 49
-0.25
 74
     0
 49
0.25
 74
     0
 49
-0.25
 74
     0
  0
LTYPE
  5
62BD
330
5
100
AcDbSymbolTableRecord
100
AcDbLinetypeTableRecord
  2
DASHED
 70
     0
  3
__ __ __ __ __ __ __ __ __ __ __ __ __ __ __ __
 72
    65
 73
     2
 40
0.75
 49
0.5
 74
     0
 49
-0.25
 74
     0
  0
ENDTAB
  0
TABLE
  2
LAYER
  5
2
330
0
100
AcDbSymbolTable
 70
     9
  0
LAYER
  5
F
330
2
100
AcDbSymbolTableRecord
100
AcDbLayerTableRecord
  2
0
 70
     0
 62
     7
  6
CONTINUOUS
  0
LAYER
  5
62
330
2
100
AcDbSymbolTableRecord
100
AcDbLayerTableRecord
  2
VIEWPORT
 70
     0
 62
     7
  6
CONTINUOUS
  0
LAYER
  5
65
330
2
100
AcDbSymbolTableRecord
100
AcDbLayerTableRecord
  2
ZUWAKU
 70
     0
 62
     7
  6
CONTINUOUS
  0
LAYER
  5
143
330
2
100
AcDbSymbolTableRecord
100
AcDbLayerTableRecord
  2
SEIHIN
 70
     0
 62
     3
  6
CONTINUOUS
  0
LAYER
  5
144
330
2
100
AcDbSymbolTableRecord
100
AcDbLayerTableRecord
  2
SUNPOU
 70
     0
 62
     4
  6
CONTINUOUS
  0
LAYER
  5
145
330
2
100
AcDbSymbolTableRecord
100
AcDbLayerTableRecord
  2
CENTER_L
 70
     0
 62
     1
  6
CENTER
  0
LAYER
  5
146
330
2
100
AcDbSymbolTableRecord
100
AcDbLayerTableRecord
  2
NOKITOI
 70
     0
 62
     8
  6
PHANTOM
  0
LAYER
  5
532
330
2
100
AcDbSymbolTableRecord
100
AcDbLayerTableRecord
  2
DEFPOINTS
 70
     0
 62
     7
  6
CONTINUOUS
  0
LAYER
  5
6D07
330
2
100
AcDbSymbolTableRecord
100
AcDbLayerTableRecord
  2
MOJI
 70
     0
 62
     2
  6
CONTINUOUS
  0
ENDTAB
  0
TABLE
  2
STYLE
  5
3
330
0
100
AcDbSymbolTable
 70
     2
  0
STYLE
  5
10
330
3
100
AcDbSymbolTableRecord
100
AcDbTextStyleTableRecord
  2
STANDARD
 70
     0
 40
0.0
 41
1.0
 50
0.0
 71
     0
 42
6.0
  3
TXT
  4
bigfont.shx
  0
STYLE
  5
6D08
330
3
100
AcDbSymbolTableRecord
100
AcDbTextStyleTableRecord
  2
ｽﾀｲﾙ1
 70
     0
 40
0.0
 41
1.0
 50
0.0
 71
     0
 42
2.5
  3
MS PGothic.ttf
  4

1001
ACAD
1000
MS PGothic
1071
    32818
  0
ENDTAB
  0
TABLE
  2
VIEW
  5
6
330
0
100
AcDbSymbolTable
 70
     0
  0
ENDTAB
  0
TABLE
  2
UCS
  5
7
330
0
100
AcDbSymbolTable
 70
     0
  0
ENDTAB
  0
TABLE
  2
APPID
  5
9
330
0
100
AcDbSymbolTable
 70
     1
  0
APPID
  5
11
330
9
100
AcDbSymbolTableRecord
100
AcDbRegAppTableRecord
  2
ACAD
 70
     0
  0
ENDTAB
  0
TABLE
  2
DIMSTYLE
  5
A
330
0
100
AcDbSymbolTable
 70
     1
  0
DIMSTYLE
105
1D
102
{ACAD_REACTORS
330
6AF0
330
6AFF
330
6B0C
330
6B19
330
6B26
330
6B33
330
6B40
330
6B92
330
6B9F
330
6BAC
330
6BC8
330
6BD7
330
6BE4
330
6BB9
102
}
330
A
100
AcDbSymbolTableRecord
100
AcDbDimStyleTableRecord
  2
STANDARD
 70
     0
  3

  4

  5

  6

  7

 40
1.0
 41
0.18
 42
0.0625
 43
0.38
 44
0.18
 45
0.0
 46
0.0
 47
0.0
 48
0.0
140
0.18
141
0.09
142
0.0
143
25.4
144
1.0
145
0.0
146
1.0
147
0.09
 71
     0
 72
     0
 73
     1
 74
     1
 75
     0
 76
     0
 77
     0
 78
     0
170
     0
171
     2
172
     0
173
     0
174
     0
175
     0
176
     0
177
     0
178
     0
270
     2
271
     4
272
     4
273
     2
274
     2
340
10
275
     0
280
     0
281
     0
282
     0
283
     1
284
     0
285
     0
286
     0
287
     3
288
     0
  0
ENDTAB
  0
TABLE
  2
BLOCK_RECORD
  5
1
330
0
100
AcDbSymbolTable
 70
    15
  0
BLOCK_RECORD
  5
1A
102
{ACAD_XDICTIONARY
360
94A
102
}
330
1
100
AcDbSymbolTableRecord
100
AcDbBlockTableRecord
  2
*MODEL_SPACE
  0
BLOCK_RECORD
  5
17
102
{ACAD_XDICTIONARY
360
948
102
}
330
1
100
AcDbSymbolTableRecord
100
AcDbBlockTableRecord
  2
*PAPER_SPACE
  0
BLOCK_RECORD
  5
6D
330
1
100
AcDbSymbolTableRecord
100
AcDbBlockTableRecord
  2
_OPEN
  0
BLOCK_RECORD
  5
6AF1
330
1
100
AcDbSymbolTableRecord
100
AcDbBlockTableRecord
  2
*D1
  0
BLOCK_RECORD
  5
6B00
330
1
100
AcDbSymbolTableRecord
100
AcDbBlockTableRecord
  2
*D2
  0
BLOCK_RECORD
  5
6B0D
330
1
100
AcDbSymbolTableRecord
100
AcDbBlockTableRecord
  2
*D3
  0
BLOCK_RECORD
  5
6B1A
330
1
100
AcDbSymbolTableRecord
100
AcDbBlockTableRecord
  2
*D4
  0
BLOCK_RECORD
  5
6B27
330
1
100
AcDbSymbolTableRecord
100
AcDbBlockTableRecord
  2
*D5
  0
BLOCK_RECORD
  5
6B34
330
1
100
AcDbSymbolTableRecord
100
AcDbBlockTableRecord
  2
*D6
  0
BLOCK_RECORD
  5
6B41
330
1
100
AcDbSymbolTableRecord
100
AcDbBlockTableRecord
  2
*D7
  0
BLOCK_RECORD
  5
6B93
330
1
100
AcDbSymbolTableRecord
100
AcDbBlockTableRecord
  2
*D8
  0
BLOCK_RECORD
  5
6BA0
330
1
100
AcDbSymbolTableRecord
100
AcDbBlockTableRecord
  2
*D9
  0
BLOCK_RECORD
  5
6BAD
330
1
100
AcDbSymbolTableRecord
100
AcDbBlockTableRecord
  2
*D10
  0
BLOCK_RECORD
  5
6BBA
330
1
100
AcDbSymbolTableRecord
100
AcDbBlockTableRecord
  2
*D11
  0
BLOCK_RECORD
  5
6BC9
330
1
100
AcDbSymbolTableRecord
100
AcDbBlockTableRecord
  2
*D12
  0
BLOCK_RECORD
  5
6BD8
330
1
100
AcDbSymbolTableRecord
100
AcDbBlockTableRecord
  2
*D13
  0
BLOCK_RECORD
  5
6BE5
330
1
100
AcDbSymbolTableRecord
100
AcDbBlockTableRecord
  2
*D14
  0
ENDTAB
  0
ENDSEC
  0
SECTION
  2
BLOCKS
  0
BLOCK
  5
1B
330
1A
100
AcDbEntity
  8
0
100
AcDbBlockBegin
  2
*MODEL_SPACE
 70
     0
 10
0.0
 20
0.0
 30
0.0
  3
*MODEL_SPACE
  1

  0
ENDBLK
  5
1C
330
1A
100
AcDbEntity
  8
0
100
AcDbBlockEnd
  0
BLOCK
  5
18
330
17
100
AcDbEntity
 67
     1
  8
0
100
AcDbBlockBegin
  2
*PAPER_SPACE
 70
     0
 10
0.0
 20
0.0
 30
0.0
  3
*PAPER_SPACE
  1

  0
ENDBLK
  5
19
330
17
100
AcDbEntity
 67
     1
  8
0
100
AcDbBlockEnd
  0
BLOCK
  5
6E
330
6D
100
AcDbEntity
  8
0
100
AcDbBlockBegin
  2
_OPEN
 70
     0
 10
0.0
 20
0.0
 30
0.0
  3
_OPEN
  1

  0
LINE
  5
6F
330
6D
100
AcDbEntity
  8
0
  6
BYBLOCK
 62
     0
100
AcDbLine
 10
-1.0
 20
0.1666666666666666
 30
0.0
 11
0.0
 21
0.0
 31
0.0
  0
LINE
  5
70
330
6D
100
AcDbEntity
  8
0
  6
BYBLOCK
 62
     0
100
AcDbLine
 10
0.0
 20
0.0
 30
0.0
 11
-1.0
 21
-0.1666666666666666
 31
0.0
  0
LINE
  5
71
330
6D
100
AcDbEntity
  8
0
  6
BYBLOCK
 62
     0
100
AcDbLine
 10
0.0
 20
0.0
 30
0.0
 11
-1.0
 21
0.0
 31
0.0
  0
ENDBLK
  5
72
330
6D
100
AcDbEntity
  8
0
100
AcDbBlockEnd
  0
BLOCK
  5
6AFD
330
6AF1
100
AcDbEntity
  8
0
 48
5.0
100
AcDbBlockBegin
  2
*D1
 70
     1
 10
0.0
 20
0.0
 30
0.0
  3
*D1
  1

  0
LINE
  5
6E81
330
6AF1
100
AcDbEntity
  8
SUNPOU
 48
5.0
100
AcDbLine
 10
271.7873922498532
 20
443.548053932678
 30
0.0
 11
239.5985719259733
 21
443.548053932678
 31
0.0
  0
LINE
  5
6E82
330
6AF1
100
AcDbEntity
  8
SUNPOU
 48
5.0
100
AcDbLine
 10
271.7873922498532
 20
427.048053932678
 30
0.0
 11
239.5985719259733
 21
427.048053932678
 31
0.0
  0
LINE
  5
6E83
330
6AF1
100
AcDbEntity
  8
SUNPOU
 48
5.0
100
AcDbLine
 10
242.5985719259734
 20
450.548053932678
 30
0.0
 11
242.5985719259734
 21
457.548053932678
 31
0.0
  0
LINE
  5
6E84
330
6AF1
100
AcDbEntity
  8
SUNPOU
 48
5.0
100
AcDbLine
 10
242.5985719259733
 20
420.048053932678
 30
0.0
 11
242.5985719259733
 21
413.048053932678
 31
0.0
  0
LINE
  5
6E85
330
6AF1
100
AcDbEntity
  8
SUNPOU
 48
5.0
100
AcDbLine
 10
242.5985719259733
 20
443.548053932678
 30
0.0
 11
242.5985719259733
 21
427.048053932678
 31
0.0
  0
INSERT
  5
6E86
330
6AF1
100
AcDbEntity
  8
SUNPOU
 48
5.0
100
AcDbBlockReference
  2
_OPEN
 10
242.5985719259733
 20
443.548053932678
 30
0.0
 41
7.0
 42
7.0
 43
7.0
 50
270.0
  0
INSERT
  5
6E87
330
6AF1
100
AcDbEntity
  8
SUNPOU
 48
5.0
100
AcDbBlockReference
  2
_OPEN
 10
242.5985719259733
 20
427.048053932678
 30
0.0
 41
7.0
 42
7.0
 43
7.0
 50
90.0
  0
MTEXT
  5
6E88
330
6AF1
100
AcDbEntity
  8
SUNPOU
 48
5.0
100
AcDbMText
 10
237.5985719259733
 20
435.2980539326781
 30
0.0
 40
6.0
 41
0.0
 71
     5
 72
     1
  1
\A1;17
 11
0.0000000000000001
 21
1.0
 31
0.0
1001
ACAD
1000
MTEXTBEGIN
1070
    73
1070
     1
1070
    44
1040
1.0
1070
    74
1070
     0
1000
MTEXTEND
  0
POINT
  5
6E89
330
6AF1
100
AcDbEntity
  8
DEFPOINTS
 62
     0
 48
5.0
100
AcDbPoint
 10
277.7873922498532
 20
443.548053932678
 30
0.0
  0
POINT
  5
6E8A
330
6AF1
100
AcDbEntity
  8
DEFPOINTS
 62
     0
 48
5.0
100
AcDbPoint
 10
277.7873922498532
 20
427.048053932678
 30
0.0
  0
POINT
  5
6E8B
330
6AF1
100
AcDbEntity
  8
DEFPOINTS
 62
     0
 48
5.0
100
AcDbPoint
 10
242.5985719259733
 20
427.048053932678
 30
0.0
  0
ENDBLK
  5
6AFE
330
6AF1
100
AcDbEntity
  8
0
 48
5.0
100
AcDbBlockEnd
  0
BLOCK
  5
6B0A
330
6B00
100
AcDbEntity
  8
0
 48
5.0
100
AcDbBlockBegin
  2
*D2
 70
     1
 10
0.0
 20
0.0
 30
0.0
  3
*D2
  1

  0
LINE
  5
6EB2
330
6B00
100
AcDbEntity
  8
SUNPOU
 48
5.0
100
AcDbLine
 10
409.8334932498532
 20
460.950118932678
 30
0.0
 11
437.6412492555905
 21
460.950118932678
 31
0.0
  0
LINE
  5
6EB3
330
6B00
100
AcDbEntity
  8
SUNPOU
 48
5.0
100
AcDbLine
 10
409.8334932498532
 20
409.646391932678
 30
0.0
 11
437.6412492555905
 21
409.646391932678
 31
0.0
  0
LINE
  5
6EB4
330
6B00
100
AcDbEntity
  8
SUNPOU
 48
5.0
100
AcDbLine
 10
434.6412492555905
 20
453.950118932678
 30
0.0
 11
434.6412492555905
 21
416.646391932678
 31
0.0
  0
INSERT
  5
6EB5
330
6B00
100
AcDbEntity
  8
SUNPOU
 48
5.0
100
AcDbBlockReference
  2
_OPEN
 10
434.6412492555905
 20
460.950118932678
 30
0.0
 41
7.0
 42
7.0
 43
7.0
 50
90.0
  0
INSERT
  5
6EB6
330
6B00
100
AcDbEntity
  8
SUNPOU
 48
5.0
100
AcDbBlockReference
  2
_OPEN
 10
434.6412492555905
 20
409.646391932678
 30
0.0
 41
7.0
 42
7.0
 43
7.0
 50
270.0
  0
MTEXT
  5
6EB7
330
6B00
100
AcDbEntity
  8
SUNPOU
 48
5.0
100
AcDbMText
 10
429.6412492555904
 20
435.2982554326781
 30
0.0
 40
6.0
 41
0.0
 71
     5
 72
     1
  1
\A1;51
 11
0.0000000000000001
 21
1.0
 31
0.0
1001
ACAD
1000
MTEXTBEGIN
1070
    73
1070
     1
1070
    44
1040
1.0
1070
    74
1070
     0
1000
MTEXTEND
  0
POINT
  5
6EB8
330
6B00
100
AcDbEntity
  8
DEFPOINTS
 62
     0
 48
5.0
100
AcDbPoint
 10
403.8334932498531
 20
460.950118932678
 30
0.0
  0
POINT
  5
6EB9
330
6B00
100
AcDbEntity
  8
DEFPOINTS
 62
     0
 48
5.0
100
AcDbPoint
 10
403.8334932498531
 20
409.646391932678
 30
0.0
  0
POINT
  5
6EBA
330
6B00
100
AcDbEntity
  8
DEFPOINTS
 62
     0
 48
5.0
100
AcDbPoint
 10
434.6412492555905
 20
409.646391932678
 30
0.0
  0
ENDBLK
  5
6B0B
330
6B00
100
AcDbEntity
  8
0
 48
5.0
100
AcDbBlockEnd
  0
BLOCK
  5
6B17
330
6B0D
100
AcDbEntity
  8
0
 48
5.0
100
AcDbBlockBegin
  2
*D3
 70
     1
 10
0.0
 20
0.0
 30
0.0
  3
*D3
  1

  0
LINE
  5
6E78
330
6B0D
100
AcDbEntity
  8
SUNPOU
 48
5.0
100
AcDbLine
 10
277.2446851170724
 20
303.4509937939784
 30
0.0
 11
277.2446851170724
 21
373.844077138794
 31
0.0
  0
LINE
  5
6E79
330
6B0D
100
AcDbEntity
  8
SUNPOU
 48
5.0
100
AcDbLine
 10
403.2843109531609
 20
326.9636527281766
 30
0.0
 11
403.2843109531609
 21
373.844077138794
 31
0.0
  0
LINE
  5
6E7A
330
6B0D
100
AcDbEntity
  8
SUNPOU
 48
5.0
100
AcDbLine
 10
284.2446851170724
 20
370.8440771387941
 30
0.0
 11
396.2843109531609
 21
370.8440771387941
 31
0.0
  0
INSERT
  5
6E7B
330
6B0D
100
AcDbEntity
  8
SUNPOU
 48
5.0
100
AcDbBlockReference
  2
_OPEN
 10
277.2446851170724
 20
370.8440771387941
 30
0.0
 41
7.0
 42
7.0
 43
7.0
 50
180.0
  0
INSERT
  5
6E7C
330
6B0D
100
AcDbEntity
  8
SUNPOU
 48
5.0
100
AcDbBlockReference
  2
_OPEN
 10
403.2843109531609
 20
370.8440771387941
 30
0.0
 41
7.0
 42
7.0
 43
7.0
  0
MTEXT
  5
6E7D
330
6B0D
100
AcDbEntity
  8
SUNPOU
 48
5.0
100
AcDbMText
 10
340.2644980351166
 20
375.844077138794
 30
0.0
 40
6.0
 41
0.0
 71
     5
 72
     1
  1
\A1;126
1001
ACAD
1000
MTEXTBEGIN
1070
    73
1070
     1
1070
    44
1040
1.0
1070
    74
1070
     0
1000
MTEXTEND
  0
POINT
  5
6E7E
330
6B0D
100
AcDbEntity
  8
DEFPOINTS
 62
     0
 48
5.0
100
AcDbPoint
 10
277.2446851170724
 20
297.4509937939784
 30
0.0
  0
POINT
  5
6E7F
330
6B0D
100
AcDbEntity
  8
DEFPOINTS
 62
     0
 48
5.0
100
AcDbPoint
 10
403.2843109531609
 20
320.9636527281766
 30
0.0
  0
POINT
  5
6E80
330
6B0D
100
AcDbEntity
  8
DEFPOINTS
 62
     0
 48
5.0
100
AcDbPoint
 10
403.2843109531609
 20
370.8440771387941
 30
0.0
  0
ENDBLK
  5
6B18
330
6B0D
100
AcDbEntity
  8
0
 48
5.0
100
AcDbBlockEnd
  0
BLOCK
  5
6B24
330
6B1A
100
AcDbEntity
  8
0
 48
5.0
100
AcDbBlockBegin
  2
*D4
 70
     1
 10
0.0
 20
0.0
 30
0.0
  3
*D4
  1

  0
LINE
  5
6E8C
330
6B1A
100
AcDbEntity
  8
SUNPOU
 48
5.0
100
AcDbLine
 10
403.2843109531608
 20
326.963652728177
 30
0.0
 11
403.2843109531608
 21
373.844077138794
 31
0.0
  0
LINE
  5
6E8D
330
6B1A
100
AcDbEntity
  8
SUNPOU
 48
5.0
100
AcDbLine
 10
438.2843109531607
 20
326.9636527281766
 30
0.0
 11
438.2843109531607
 21
373.844077138794
 31
0.0
  0
LINE
  5
6E8E
330
6B1A
100
AcDbEntity
  8
SUNPOU
 48
5.0
100
AcDbLine
 10
410.2843109531607
 20
370.8440771387941
 30
0.0
 11
431.2843109531606
 21
370.8440771387941
 31
0.0
  0
INSERT
  5
6E8F
330
6B1A
100
AcDbEntity
  8
SUNPOU
 48
5.0
100
AcDbBlockReference
  2
_OPEN
 10
403.2843109531608
 20
370.8440771387941
 30
0.0
 41
7.0
 42
7.0
 43
7.0
 50
180.0
  0
INSERT
  5
6E90
330
6B1A
100
AcDbEntity
  8
SUNPOU
 48
5.0
100
AcDbBlockReference
  2
_OPEN
 10
438.2843109531607
 20
370.8440771387941
 30
0.0
 41
7.0
 42
7.0
 43
7.0
  0
MTEXT
  5
6E91
330
6B1A
100
AcDbEntity
  8
SUNPOU
 48
5.0
100
AcDbMText
 10
420.7843109531607
 20
375.844077138794
 30
0.0
 40
6.0
 41
0.0
 71
     5
 72
     1
  1
\A1;35
1001
ACAD
1000
MTEXTBEGIN
1070
    73
1070
     1
1070
    44
1040
1.0
1070
    74
1070
     0
1000
MTEXTEND
  0
POINT
  5
6E92
330
6B1A
100
AcDbEntity
  8
DEFPOINTS
 62
     0
 48
5.0
100
AcDbPoint
 10
403.2843109531608
 20
320.963652728177
 30
0.0
  0
POINT
  5
6E93
330
6B1A
100
AcDbEntity
  8
DEFPOINTS
 62
     0
 48
5.0
100
AcDbPoint
 10
438.2843109531607
 20
320.9636527281766
 30
0.0
  0
POINT
  5
6E94
330
6B1A
100
AcDbEntity
  8
DEFPOINTS
 62
     0
 48
5.0
100
AcDbPoint
 10
438.2843109531607
 20
370.8440771387941
 30
0.0
  0
ENDBLK
  5
6B25
330
6B1A
100
AcDbEntity
  8
0
 48
5.0
100
AcDbBlockEnd
  0
BLOCK
  5
6B31
330
6B27
100
AcDbEntity
  8
0
 48
5.0
100
AcDbBlockBegin
  2
*D5
 70
     1
 10
0.0
 20
0.0
 30
0.0
  3
*D5
  1

  0
LINE
  5
6EA9
330
6B27
100
AcDbEntity
  8
SUNPOU
 48
5.0
100
AcDbLine
 10
409.2843109531608
 20
282.7422197281769
 30
0.0
 11
417.1340867912631
 21
282.7422197281769
 31
0.0
  0
LINE
  5
6EAA
330
6B27
100
AcDbEntity
  8
SUNPOU
 48
5.0
100
AcDbLine
 10
409.2843109531608
 20
318.7422197281769
 30
0.0
 11
417.1340867912631
 21
318.7422197281769
 31
0.0
  0
LINE
  5
6EAB
330
6B27
100
AcDbEntity
  8
SUNPOU
 48
5.0
100
AcDbLine
 10
414.1340867912631
 20
289.7422197281769
 30
0.0
 11
414.1340867912631
 21
311.7422197281769
 31
0.0
  0
INSERT
  5
6EAC
330
6B27
100
AcDbEntity
  8
SUNPOU
 48
5.0
100
AcDbBlockReference
  2
_OPEN
 10
414.1340867912631
 20
282.7422197281769
 30
0.0
 41
7.0
 42
7.0
 43
7.0
 50
270.0
  0
INSERT
  5
6EAD
330
6B27
100
AcDbEntity
  8
SUNPOU
 48
5.0
100
AcDbBlockReference
  2
_OPEN
 10
414.1340867912631
 20
318.7422197281769
 30
0.0
 41
7.0
 42
7.0
 43
7.0
 50
90.0
  0
MTEXT
  5
6EAE
330
6B27
100
AcDbEntity
  8
SUNPOU
 48
5.0
100
AcDbMText
 10
409.1340867912631
 20
300.742219728177
 30
0.0
 40
6.0
 41
0.0
 71
     5
 72
     1
  1
\A1;36
 11
0.0000000000000001
 21
1.0
 31
0.0
1001
ACAD
1000
MTEXTBEGIN
1070
    73
1070
     1
1070
    44
1040
1.0
1070
    74
1070
     0
1000
MTEXTEND
  0
POINT
  5
6EAF
330
6B27
100
AcDbEntity
  8
DEFPOINTS
 62
     0
 48
5.0
100
AcDbPoint
 10
403.2843109531608
 20
282.7422197281769
 30
0.0
  0
POINT
  5
6EB0
330
6B27
100
AcDbEntity
  8
DEFPOINTS
 62
     0
 48
5.0
100
AcDbPoint
 10
403.2843109531608
 20
318.7422197281769
 30
0.0
  0
POINT
  5
6EB1
330
6B27
100
AcDbEntity
  8
DEFPOINTS
 62
     0
 48
5.0
100
AcDbPoint
 10
414.1340867912631
 20
318.7422197281769
 30
0.0
  0
ENDBLK
  5
6B32
330
6B27
100
AcDbEntity
  8
0
 48
5.0
100
AcDbBlockEnd
  0
BLOCK
  5
6B3E
330
6B34
100
AcDbEntity
  8
0
 48
5.0
100
AcDbBlockBegin
  2
*D6
 70
     1
 10
0.0
 20
0.0
 30
0.0
  3
*D6
  1

  0
LINE
  5
6EA0
330
6B34
100
AcDbEntity
  8
SUNPOU
 48
5.0
100
AcDbLine
 10
401.2477999531609
 20
326.6074657281769
 30
0.0
 11
428.8967205713889
 21
326.6074657281769
 31
0.0
  0
LINE
  5
6EA1
330
6B34
100
AcDbEntity
  8
SUNPOU
 48
5.0
100
AcDbLine
 10
409.2843109531608
 20
282.7422197281769
 30
0.0
 11
428.8967205713889
 21
282.7422197281769
 31
0.0
  0
LINE
  5
6EA2
330
6B34
100
AcDbEntity
  8
SUNPOU
 48
5.0
100
AcDbLine
 10
425.8967205713888
 20
319.6074657281769
 30
0.0
 11
425.8967205713888
 21
289.7422197281769
 31
0.0
  0
INSERT
  5
6EA3
330
6B34
100
AcDbEntity
  8
SUNPOU
 48
5.0
100
AcDbBlockReference
  2
_OPEN
 10
425.8967205713888
 20
326.6074657281769
 30
0.0
 41
7.0
 42
7.0
 43
7.0
 50
90.0
  0
INSERT
  5
6EA4
330
6B34
100
AcDbEntity
  8
SUNPOU
 48
5.0
100
AcDbBlockReference
  2
_OPEN
 10
425.8967205713888
 20
282.7422197281769
 30
0.0
 41
7.0
 42
7.0
 43
7.0
 50
270.0
  0
MTEXT
  5
6EA5
330
6B34
100
AcDbEntity
  8
SUNPOU
 48
5.0
100
AcDbMText
 10
420.8967205713888
 20
304.674842728177
 30
0.0
 40
6.0
 41
0.0
 71
     5
 72
     1
  1
\A1;44
 11
0.0000000000000001
 21
1.0
 31
0.0
1001
ACAD
1000
MTEXTBEGIN
1070
    73
1070
     1
1070
    44
1040
1.0
1070
    74
1070
     0
1000
MTEXTEND
  0
POINT
  5
6EA6
330
6B34
100
AcDbEntity
  8
DEFPOINTS
 62
     0
 48
5.0
100
AcDbPoint
 10
395.2477999531609
 20
326.6074657281769
 30
0.0
  0
POINT
  5
6EA7
330
6B34
100
AcDbEntity
  8
DEFPOINTS
 62
     0
 48
5.0
100
AcDbPoint
 10
403.2843109531608
 20
282.7422197281769
 30
0.0
  0
POINT
  5
6EA8
330
6B34
100
AcDbEntity
  8
DEFPOINTS
 62
     0
 48
5.0
100
AcDbPoint
 10
425.8967205713888
 20
282.7422197281769
 30
0.0
  0
ENDBLK
  5
6B3F
330
6B34
100
AcDbEntity
  8
0
 48
5.0
100
AcDbBlockEnd
  0
BLOCK
  5
6B4D
330
6B41
100
AcDbEntity
  8
0
 48
5.0
100
AcDbBlockBegin
  2
*D7
 70
     1
 10
0.0
 20
0.0
 30
0.0
  3
*D7
  1

  0
LINE
  5
6E95
330
6B41
100
AcDbEntity
  8
SUNPOU
 48
5.0
100
AcDbLine
 10
393.4533544759995
 20
310.9694430157275
 30
0.0
 11
393.4533544759995
 21
359.4217546669626
 31
0.0
  0
LINE
  5
6E96
330
6B41
100
AcDbEntity
  8
SUNPOU
 48
5.0
100
AcDbLine
 10
403.2843109531608
 20
324.7422197281769
 30
0.0
 11
403.2843109531608
 21
359.4217546669626
 31
0.0
  0
LINE
  5
6E97
330
6B41
100
AcDbEntity
  8
SUNPOU
 48
5.0
100
AcDbLine
 10
386.4533544759995
 20
356.4217546669626
 30
0.0
 11
379.4533544759995
 21
356.4217546669626
 31
0.0
  0
LINE
  5
6E98
330
6B41
100
AcDbEntity
  8
SUNPOU
 48
5.0
100
AcDbLine
 10
410.2843109531607
 20
356.4217546669626
 30
0.0
 11
428.2843109531608
 21
356.4217546669626
 31
0.0
  0
LINE
  5
6E99
330
6B41
100
AcDbEntity
  8
SUNPOU
 48
5.0
100
AcDbLine
 10
393.4533544759995
 20
356.4217546669626
 30
0.0
 11
403.2843109531608
 21
356.4217546669626
 31
0.0
  0
INSERT
  5
6E9A
330
6B41
100
AcDbEntity
  8
SUNPOU
 48
5.0
100
AcDbBlockReference
  2
_OPEN
 10
393.4533544759995
 20
356.4217546669626
 30
0.0
 41
7.0
 42
7.0
 43
7.0
  0
INSERT
  5
6E9B
330
6B41
100
AcDbEntity
  8
SUNPOU
 48
5.0
100
AcDbBlockReference
  2
_OPEN
 10
403.2843109531608
 20
356.4217546669626
 30
0.0
 41
7.0
 42
7.0
 43
7.0
 50
180.0
  0
MTEXT
  5
6E9C
330
6B41
100
AcDbEntity
  8
SUNPOU
 48
5.0
100
AcDbMText
 10
422.7843109531607
 20
361.4217546669626
 30
0.0
 40
6.0
 41
0.0
 71
     5
 72
     1
  1
\A1;10
1001
ACAD
1000
MTEXTBEGIN
1070
    73
1070
     1
1070
    44
1040
1.0
1070
    74
1070
     0
1000
MTEXTEND
  0
POINT
  5
6E9D
330
6B41
100
AcDbEntity
  8
DEFPOINTS
 62
     0
 48
5.0
100
AcDbPoint
 10
393.4533544759995
 20
304.9694430157275
 30
0.0
  0
POINT
  5
6E9E
330
6B41
100
AcDbEntity
  8
DEFPOINTS
 62
     0
 48
5.0
100
AcDbPoint
 10
403.2843109531608
 20
318.7422197281769
 30
0.0
  0
POINT
  5
6E9F
330
6B41
100
AcDbEntity
  8
DEFPOINTS
 62
     0
 48
5.0
100
AcDbPoint
 10
403.2843109531608
 20
356.4217546669626
 30
0.0
  0
ENDBLK
  5
6B4E
330
6B41
100
AcDbEntity
  8
0
 48
5.0
100
AcDbBlockEnd
  0
BLOCK
  5
6B9D
330
6B93
100
AcDbEntity
  8
0
 48
5.0
100
AcDbBlockBegin
  2
*D8
 70
     1
 10
0.0
 20
0.0
 30
0.0
  3
*D8
  1

  0
LINE
  5
6EF7
330
6B93
100
AcDbEntity
  8
SUNPOU
 48
5.0
100
AcDbLine
 10
515.9881233366571
 20
315.7422197281769
 30
0.0
 11
515.9881233366571
 21
359.4217546669626
 31
0.0
  0
LINE
  5
6EF8
330
6B93
100
AcDbEntity
  8
SUNPOU
 48
5.0
100
AcDbLine
 10
553.388123336657
 20
315.7422197281769
 30
0.0
 11
553.388123336657
 21
359.4217546669626
 31
0.0
  0
LINE
  5
6EF9
330
6B93
100
AcDbEntity
  8
SUNPOU
 48
5.0
100
AcDbLine
 10
522.9881233366572
 20
356.4217546669626
 30
0.0
 11
546.388123336657
 21
356.4217546669626
 31
0.0
  0
INSERT
  5
6EFA
330
6B93
100
AcDbEntity
  8
SUNPOU
 48
5.0
100
AcDbBlockReference
  2
_OPEN
 10
515.9881233366571
 20
356.4217546669626
 30
0.0
 41
7.0
 42
7.0
 43
7.0
 50
180.0
  0
INSERT
  5
6EFB
330
6B93
100
AcDbEntity
  8
SUNPOU
 48
5.0
100
AcDbBlockReference
  2
_OPEN
 10
553.388123336657
 20
356.4217546669626
 30
0.0
 41
7.0
 42
7.0
 43
7.0
  0
MTEXT
  5
6EFC
330
6B93
100
AcDbEntity
  8
SUNPOU
 48
5.0
100
AcDbMText
 10
534.6881233366571
 20
361.4217546669626
 30
0.0
 40
6.0
 41
0.0
 71
     5
 72
     1
  1
\A1;37
1001
ACAD
1000
MTEXTBEGIN
1070
    73
1070
     1
1070
    44
1040
1.0
1070
    74
1070
     0
1000
MTEXTEND
  0
POINT
  5
6EFD
330
6B93
100
AcDbEntity
  8
DEFPOINTS
 62
     0
 48
5.0
100
AcDbPoint
 10
515.9881233366571
 20
309.7422197281769
 30
0.0
  0
POINT
  5
6EFE
330
6B93
100
AcDbEntity
  8
DEFPOINTS
 62
     0
 48
5.0
100
AcDbPoint
 10
553.388123336657
 20
309.7422197281769
 30
0.0
  0
POINT
  5
6EFF
330
6B93
100
AcDbEntity
  8
DEFPOINTS
 62
     0
 48
5.0
100
AcDbPoint
 10
553.388123336657
 20
356.4217546669626
 30
0.0
  0
ENDBLK
  5
6B9E
330
6B93
100
AcDbEntity
  8
0
 48
5.0
100
AcDbBlockEnd
  0
BLOCK
  5
6BAA
330
6BA0
100
AcDbEntity
  8
0
 48
5.0
100
AcDbBlockBegin
  2
*D9
 70
     1
 10
0.0
 20
0.0
 30
0.0
  3
*D9
  1

  0
LINE
  5
6EDA
330
6BA0
100
AcDbEntity
  8
SUNPOU
 48
5.0
100
AcDbLine
 10
514.462192336657
 20
322.242219728177
 30
0.0
 11
514.462192336657
 21
373.844077138794
 31
0.0
  0
LINE
  5
6EDB
330
6BA0
100
AcDbEntity
  8
SUNPOU
 48
5.0
100
AcDbLine
 10
554.914055336657
 20
322.242219728177
 30
0.0
 11
554.914055336657
 21
373.844077138794
 31
0.0
  0
LINE
  5
6EDC
330
6BA0
100
AcDbEntity
  8
SUNPOU
 48
5.0
100
AcDbLine
 10
521.462192336657
 20
370.8440771387941
 30
0.0
 11
547.914055336657
 21
370.8440771387941
 31
0.0
  0
INSERT
  5
6EDD
330
6BA0
100
AcDbEntity
  8
SUNPOU
 48
5.0
100
AcDbBlockReference
  2
_OPEN
 10
514.462192336657
 20
370.8440771387941
 30
0.0
 41
7.0
 42
7.0
 43
7.0
 50
180.0
  0
INSERT
  5
6EDE
330
6BA0
100
AcDbEntity
  8
SUNPOU
 48
5.0
100
AcDbBlockReference
  2
_OPEN
 10
554.914055336657
 20
370.8440771387941
 30
0.0
 41
7.0
 42
7.0
 43
7.0
  0
MTEXT
  5
6EDF
330
6BA0
100
AcDbEntity
  8
SUNPOU
 48
5.0
100
AcDbMText
 10
534.688123836657
 20
375.844077138794
 30
0.0
 40
6.0
 41
0.0
 71
     5
 72
     1
  1
\A1;40
1001
ACAD
1000
MTEXTBEGIN
1070
    73
1070
     1
1070
    44
1040
1.0
1070
    74
1070
     0
1000
MTEXTEND
  0
POINT
  5
6EE0
330
6BA0
100
AcDbEntity
  8
DEFPOINTS
 62
     0
 48
5.0
100
AcDbPoint
 10
514.462192336657
 20
316.242219728177
 30
0.0
  0
POINT
  5
6EE1
330
6BA0
100
AcDbEntity
  8
DEFPOINTS
 62
     0
 48
5.0
100
AcDbPoint
 10
554.914055336657
 20
316.242219728177
 30
0.0
  0
POINT
  5
6EE2
330
6BA0
100
AcDbEntity
  8
DEFPOINTS
 62
     0
 48
5.0
100
AcDbPoint
 10
554.914055336657
 20
370.8440771387941
 30
0.0
  0
ENDBLK
  5
6BAB
330
6BA0
100
AcDbEntity
  8
0
 48
5.0
100
AcDbBlockEnd
  0
BLOCK
  5
6BB7
330
6BAD
100
AcDbEntity
  8
0
 48
5.0
100
AcDbBlockBegin
  2
*D10
 70
     1
 10
0.0
 20
0.0
 30
0.0
  3
*D10
  1

  0
LINE
  5
6ED1
330
6BAD
100
AcDbEntity
  8
SUNPOU
 48
5.0
100
AcDbLine
 10
508.9881233366571
 20
322.7422197281769
 30
0.0
 11
508.9881233366571
 21
387.8154226096119
 31
0.0
  0
LINE
  5
6ED2
330
6BAD
100
AcDbEntity
  8
SUNPOU
 48
5.0
100
AcDbLine
 10
560.388123336657
 20
322.7422197281769
 30
0.0
 11
560.388123336657
 21
387.8154226096119
 31
0.0
  0
LINE
  5
6ED3
330
6BAD
100
AcDbEntity
  8
SUNPOU
 48
5.0
100
AcDbLine
 10
515.9881233366571
 20
384.8154226096119
 30
0.0
 11
553.388123336657
 21
384.8154226096119
 31
0.0
  0
INSERT
  5
6ED4
330
6BAD
100
AcDbEntity
  8
SUNPOU
 48
5.0
100
AcDbBlockReference
  2
_OPEN
 10
508.9881233366571
 20
384.8154226096119
 30
0.0
 41
7.0
 42
7.0
 43
7.0
 50
180.0
  0
INSERT
  5
6ED5
330
6BAD
100
AcDbEntity
  8
SUNPOU
 48
5.0
100
AcDbBlockReference
  2
_OPEN
 10
560.388123336657
 20
384.8154226096119
 30
0.0
 41
7.0
 42
7.0
 43
7.0
  0
MTEXT
  5
6ED6
330
6BAD
100
AcDbEntity
  8
SUNPOU
 48
5.0
100
AcDbMText
 10
534.6881233366571
 20
389.8154226096119
 30
0.0
 40
6.0
 41
0.0
 71
     5
 72
     1
  1
\A1;51
1001
ACAD
1000
MTEXTBEGIN
1070
    73
1070
     1
1070
    44
1040
1.0
1070
    74
1070
     0
1000
MTEXTEND
  0
POINT
  5
6ED7
330
6BAD
100
AcDbEntity
  8
DEFPOINTS
 62
     0
 48
5.0
100
AcDbPoint
 10
508.9881233366571
 20
316.7422197281769
 30
0.0
  0
POINT
  5
6ED8
330
6BAD
100
AcDbEntity
  8
DEFPOINTS
 62
     0
 48
5.0
100
AcDbPoint
 10
560.388123336657
 20
316.7422197281769
 30
0.0
  0
POINT
  5
6ED9
330
6BAD
100
AcDbEntity
  8
DEFPOINTS
 62
     0
 48
5.0
100
AcDbPoint
 10
560.388123336657
 20
384.8154226096119
 30
0.0
  0
ENDBLK
  5
6BB8
330
6BAD
100
AcDbEntity
  8
0
 48
5.0
100
AcDbBlockEnd
  0
BLOCK
  5
6BC6
330
6BBA
100
AcDbEntity
  8
0
 48
5.0
100
AcDbBlockBegin
  2
*D11
 70
     1
 10
0.0
 20
0.0
 30
0.0
  3
*D11
  1

  0
LINE
  5
6F2B
330
6BBA
100
AcDbEntity
  8
SUNPOU
 48
5.0
100
AcDbLine
 10
505.462192336657
 20
313.242219728177
 30
0.0
 11
477.6955338991569
 21
313.242219728177
 31
0.0
  0
LINE
  5
6F2C
330
6BBA
100
AcDbEntity
  8
SUNPOU
 48
5.0
100
AcDbLine
 10
504.9881233366571
 20
318.7422197281769
 30
0.0
 11
477.6955338991569
 21
318.7422197281769
 31
0.0
  0
LINE
  5
6F2D
330
6BBA
100
AcDbEntity
  8
SUNPOU
 48
5.0
100
AcDbLine
 10
480.695533899157
 20
306.242219728177
 30
0.0
 11
480.695533899157
 21
299.242219728177
 31
0.0
  0
LINE
  5
6F2E
330
6BBA
100
AcDbEntity
  8
SUNPOU
 48
5.0
100
AcDbLine
 10
480.695533899157
 20
325.7422197281769
 30
0.0
 11
480.695533899157
 21
332.7422197281769
 31
0.0
  0
MTEXT
  5
6F2F
330
6BBA
100
AcDbEntity
  8
SUNPOU
 48
5.0
100
AcDbMText
 10
474.5666561811558
 20
326.16599043322
 30
0.0
 40
6.0
 41
0.0
 71
     5
 72
     1
  1
\A1;6
 11
0.0000000000000001
 21
1.0
 31
0.0
  0
LINE
  5
6F30
330
6BBA
100
AcDbEntity
  8
SUNPOU
 48
5.0
100
AcDbLine
 10
480.695533899157
 20
313.242219728177
 30
0.0
 11
480.695533899157
 21
318.7422197281769
 31
0.0
  0
INSERT
  5
6F31
330
6BBA
100
AcDbEntity
  8
SUNPOU
 48
5.0
100
AcDbBlockReference
  2
_OPEN
 10
480.695533899157
 20
313.242219728177
 30
0.0
 41
7.0
 42
7.0
 43
7.0
 50
90.0
  0
INSERT
  5
6F32
330
6BBA
100
AcDbEntity
  8
SUNPOU
 48
5.0
100
AcDbBlockReference
  2
_OPEN
 10
480.695533899157
 20
318.7422197281769
 30
0.0
 41
7.0
 42
7.0
 43
7.0
 50
270.0
  0
POINT
  5
6F33
330
6BBA
100
AcDbEntity
  8
DEFPOINTS
 62
     0
 48
5.0
100
AcDbPoint
 10
511.462192336657
 20
313.242219728177
 30
0.0
  0
POINT
  5
6F34
330
6BBA
100
AcDbEntity
  8
DEFPOINTS
 62
     0
 48
5.0
100
AcDbPoint
 10
510.9881233366571
 20
318.7422197281769
 30
0.0
  0
POINT
  5
6F35
330
6BBA
100
AcDbEntity
  8
DEFPOINTS
 62
     0
 48
5.0
100
AcDbPoint
 10
480.695533899157
 20
318.7422197281769
 30
0.0
  0
ENDBLK
  5
6BC7
330
6BBA
100
AcDbEntity
  8
0
 48
5.0
100
AcDbBlockEnd
  0
BLOCK
  5
6BD5
330
6BC9
100
AcDbEntity
  8
0
 48
5.0
100
AcDbBlockBegin
  2
*D12
 70
     1
 10
0.0
 20
0.0
 30
0.0
  3
*D12
  1

  0
LINE
  5
6EBB
330
6BC9
100
AcDbEntity
  8
SUNPOU
 48
5.0
100
AcDbLine
 10
505.462192336657
 20
288.2422197281769
 30
0.0
 11
477.6955338991569
 21
288.2422197281769
 31
0.0
  0
LINE
  5
6EBC
330
6BC9
100
AcDbEntity
  8
SUNPOU
 48
5.0
100
AcDbLine
 10
504.9881233366571
 20
282.7422197281769
 30
0.0
 11
477.6955338991569
 21
282.7422197281769
 31
0.0
  0
LINE
  5
6EBD
330
6BC9
100
AcDbEntity
  8
SUNPOU
 48
5.0
100
AcDbLine
 10
480.695533899157
 20
295.2422197281769
 30
0.0
 11
480.695533899157
 21
302.2422197281769
 31
0.0
  0
LINE
  5
6EBE
330
6BC9
100
AcDbEntity
  8
SUNPOU
 48
5.0
100
AcDbLine
 10
480.695533899157
 20
275.7422197281769
 30
0.0
 11
480.695533899157
 21
260.7422197281769
 31
0.0
  0
LINE
  5
6EBF
330
6BC9
100
AcDbEntity
  8
SUNPOU
 48
5.0
100
AcDbLine
 10
480.695533899157
 20
288.2422197281769
 30
0.0
 11
480.695533899157
 21
282.7422197281769
 31
0.0
  0
INSERT
  5
6EC0
330
6BC9
100
AcDbEntity
  8
SUNPOU
 48
5.0
100
AcDbBlockReference
  2
_OPEN
 10
480.695533899157
 20
288.2422197281769
 30
0.0
 41
7.0
 42
7.0
 43
7.0
 50
270.0
  0
INSERT
  5
6EC1
330
6BC9
100
AcDbEntity
  8
SUNPOU
 48
5.0
100
AcDbBlockReference
  2
_OPEN
 10
480.695533899157
 20
282.7422197281769
 30
0.0
 41
7.0
 42
7.0
 43
7.0
 50
90.0
  0
MTEXT
  5
6EC2
330
6BC9
100
AcDbEntity
  8
SUNPOU
 48
5.0
100
AcDbMText
 10
475.6955338991569
 20
264.742219728177
 30
0.0
 40
6.0
 41
0.0
 71
     5
 72
     1
  1
\A1;6
 11
0.0000000000000001
 21
1.0
 31
0.0
1001
ACAD
1000
MTEXTBEGIN
1070
    73
1070
     1
1070
    44
1040
1.0
1070
    74
1070
     0
1000
MTEXTEND
  0
POINT
  5
6EC3
330
6BC9
100
AcDbEntity
  8
DEFPOINTS
 62
     0
 48
5.0
100
AcDbPoint
 10
511.462192336657
 20
288.2422197281769
 30
0.0
  0
POINT
  5
6EC4
330
6BC9
100
AcDbEntity
  8
DEFPOINTS
 62
     0
 48
5.0
100
AcDbPoint
 10
510.9881233366571
 20
282.7422197281769
 30
0.0
  0
POINT
  5
6EC5
330
6BC9
100
AcDbEntity
  8
DEFPOINTS
 62
     0
 48
5.0
100
AcDbPoint
 10
480.695533899157
 20
282.7422197281769
 30
0.0
  0
ENDBLK
  5
6BD6
330
6BC9
100
AcDbEntity
  8
0
 48
5.0
100
AcDbBlockEnd
  0
BLOCK
  5
6BE2
330
6BD8
100
AcDbEntity
  8
0
 48
5.0
100
AcDbBlockBegin
  2
*D13
 70
     1
 10
0.0
 20
0.0
 30
0.0
  3
*D13
  1

  0
LINE
  5
6EEE
330
6BD8
100
AcDbEntity
  8
SUNPOU
 48
5.0
100
AcDbLine
 10
502.9881233366571
 20
318.7422197281769
 30
0.0
 11
462.6090676654366
 21
318.7422197281769
 31
0.0
  0
LINE
  5
6EEF
330
6BD8
100
AcDbEntity
  8
SUNPOU
 48
5.0
100
AcDbLine
 10
502.9881233366571
 20
282.7422197281769
 30
0.0
 11
462.6090676654366
 21
282.7422197281769
 31
0.0
  0
LINE
  5
6EF0
330
6BD8
100
AcDbEntity
  8
SUNPOU
 48
5.0
100
AcDbLine
 10
465.6090676654367
 20
311.7422197281769
 30
0.0
 11
465.6090676654367
 21
289.7422197281769
 31
0.0
  0
INSERT
  5
6EF1
330
6BD8
100
AcDbEntity
  8
SUNPOU
 48
5.0
100
AcDbBlockReference
  2
_OPEN
 10
465.6090676654367
 20
318.7422197281769
 30
0.0
 41
7.0
 42
7.0
 43
7.0
 50
90.0
  0
INSERT
  5
6EF2
330
6BD8
100
AcDbEntity
  8
SUNPOU
 48
5.0
100
AcDbBlockReference
  2
_OPEN
 10
465.6090676654367
 20
282.7422197281769
 30
0.0
 41
7.0
 42
7.0
 43
7.0
 50
270.0
  0
MTEXT
  5
6EF3
330
6BD8
100
AcDbEntity
  8
SUNPOU
 48
5.0
100
AcDbMText
 10
460.6090676654366
 20
300.742219728177
 30
0.0
 40
6.0
 41
0.0
 71
     5
 72
     1
  1
\A1;36
 11
0.0000000000000001
 21
1.0
 31
0.0
1001
ACAD
1000
MTEXTBEGIN
1070
    73
1070
     1
1070
    44
1040
1.0
1070
    74
1070
     0
1000
MTEXTEND
  0
POINT
  5
6EF4
330
6BD8
100
AcDbEntity
  8
DEFPOINTS
 62
     0
 48
5.0
100
AcDbPoint
 10
508.9881233366571
 20
318.7422197281769
 30
0.0
  0
POINT
  5
6EF5
330
6BD8
100
AcDbEntity
  8
DEFPOINTS
 62
     0
 48
5.0
100
AcDbPoint
 10
508.9881233366571
 20
282.7422197281769
 30
0.0
  0
POINT
  5
6EF6
330
6BD8
100
AcDbEntity
  8
DEFPOINTS
 62
     0
 48
5.0
100
AcDbPoint
 10
465.6090676654367
 20
282.7422197281769
 30
0.0
  0
ENDBLK
  5
6BE3
330
6BD8
100
AcDbEntity
  8
0
 48
5.0
100
AcDbBlockEnd
  0
BLOCK
  5
6BF1
330
6BE5
100
AcDbEntity
  8
0
 48
5.0
100
AcDbBlockBegin
  2
*D14
 70
     1
 10
0.0
 20
0.0
 30
0.0
  3
*D14
  1

  0
LINE
  5
6EC6
330
6BE5
100
AcDbEntity
  8
SUNPOU
 48
5.0
100
AcDbLine
 10
566.388123336657
 20
318.7422197281769
 30
0.0
 11
598.7298577360888
 21
318.7422197281769
 31
0.0
  0
LINE
  5
6EC7
330
6BE5
100
AcDbEntity
  8
SUNPOU
 48
5.0
100
AcDbLine
 10
564.3881233366569
 20
304.7422197281769
 30
0.0
 11
598.7298577360888
 21
304.7422197281769
 31
0.0
  0
LINE
  5
6EC8
330
6BE5
100
AcDbEntity
  8
SUNPOU
 48
5.0
100
AcDbLine
 10
595.7298577360888
 20
325.7422197281769
 30
0.0
 11
595.7298577360888
 21
332.7422197281769
 31
0.0
  0
LINE
  5
6EC9
330
6BE5
100
AcDbEntity
  8
SUNPOU
 48
5.0
100
AcDbLine
 10
595.7298577360888
 20
297.7422197281769
 30
0.0
 11
595.7298577360888
 21
290.7422197281769
 31
0.0
  0
LINE
  5
6ECA
330
6BE5
100
AcDbEntity
  8
SUNPOU
 48
5.0
100
AcDbLine
 10
595.7298577360888
 20
318.7422197281769
 30
0.0
 11
595.7298577360888
 21
304.7422197281769
 31
0.0
  0
INSERT
  5
6ECB
330
6BE5
100
AcDbEntity
  8
SUNPOU
 48
5.0
100
AcDbBlockReference
  2
_OPEN
 10
595.7298577360888
 20
318.7422197281769
 30
0.0
 41
7.0
 42
7.0
 43
7.0
 50
270.0
  0
INSERT
  5
6ECC
330
6BE5
100
AcDbEntity
  8
SUNPOU
 48
5.0
100
AcDbBlockReference
  2
_OPEN
 10
595.7298577360888
 20
304.7422197281769
 30
0.0
 41
7.0
 42
7.0
 43
7.0
 50
90.0
  0
MTEXT
  5
6ECD
330
6BE5
100
AcDbEntity
  8
SUNPOU
 48
5.0
100
AcDbMText
 10
590.7298577360887
 20
311.742219728177
 30
0.0
 40
6.0
 41
0.0
 71
     5
 72
     1
  1
\A1;14
 11
0.0000000000000001
 21
1.0
 31
0.0
1001
ACAD
1000
MTEXTBEGIN
1070
    73
1070
     1
1070
    44
1040
1.0
1070
    74
1070
     0
1000
MTEXTEND
  0
POINT
  5
6ECE
330
6BE5
100
AcDbEntity
  8
DEFPOINTS
 62
     0
 48
5.0
100
AcDbPoint
 10
560.388123336657
 20
318.7422197281769
 30
0.0
  0
POINT
  5
6ECF
330
6BE5
100
AcDbEntity
  8
DEFPOINTS
 62
     0
 48
5.0
100
AcDbPoint
 10
558.388123336657
 20
304.7422197281769
 30
0.0
  0
POINT
  5
6ED0
330
6BE5
100
AcDbEntity
  8
DEFPOINTS
 62
     0
 48
5.0
100
AcDbPoint
 10
595.7298577360888
 20
304.7422197281769
 30
0.0
  0
ENDBLK
  5
6BF2
330
6BE5
100
AcDbEntity
  8
0
 48
5.0
100
AcDbBlockEnd
  0
ENDSEC
  0
SECTION
  2
ENTITIES
  0
TEXT
  5
7D7
330
1A
100
AcDbEntity
  8
SUNPOU
 62
     4
100
AcDbText
 10
311.7237893933042
 20
56.91659592124643
 30
0.0
 40
8.0
  1
軒樋の差し替え
100
AcDbText
  0
ARC
  5
5A67
330
1A
100
AcDbEntity
  8
NOKITOI
  6
PHANTOM
 62
     8
100
AcDbCircle
 10
281.8592482752305
 20
304.0319495632621
 30
0.0
 40
0.4999934649531607
100
AcDbArc
 50
356.9955363203376
 51
89.99928939038239
  0
LINE
  5
5A68
330
1A
100
AcDbEntity
  8
NOKITOI
  6
PHANTOM
 62
     8
100
AcDbLine
 10
282.0428544763885
 20
298.0057430281768
 30
0.0
 11
282.3586544763884
 21
304.0056430281769
 31
0.0
  0
ARC
  5
5A69
330
1A
100
AcDbEntity
  8
NOKITOI
  6
PHANTOM
 62
     8
100
AcDbCircle
 10
281.6164460522259
 20
290.0319505432333
 30
0.0
 40
0.9999924849789756
100
AcDbArc
 50
6.528264606673934
 51
89.99951732741129
  0
LINE
  5
5A6A
330
1A
100
AcDbEntity
  8
NOKITOI
  6
PHANTOM
 62
     8
100
AcDbLine
 10
283.1603544763888
 20
292.2319430281769
 30
0.0
 11
277.1194544763884
 21
292.2319430281769
 31
0.0
  0
ARC
  5
5A6B
330
1A
100
AcDbEntity
  8
NOKITOI
  6
PHANTOM
 62
     8
100
AcDbCircle
 10
325.3314605583564
 20
295.0319374035206
 30
0.0
 40
41.79999437547816
100
AcDbArc
 50
184.4742952125247
 51
269.999854592109
  0
ARC
  5
5A6C
330
1A
100
AcDbEntity
  8
NOKITOI
  6
PHANTOM
 62
     8
100
AcDbCircle
 10
325.3314382499311
 20
295.0319575045469
 30
0.0
 40
43.00001447645168
100
AcDbArc
 50
186.5249107071174
 51
269.9998883751437
  0
LINE
  5
5A72
330
1A
100
AcDbEntity
  8
NOKITOI
  6
PHANTOM
 62
     8
100
AcDbLine
 10
280.1014544763889
 20
298.7319430281769
 30
0.0
 11
280.5055544763886
 21
301.5603430281768
 31
0.0
  0
ARC
  5
5A73
330
1A
100
AcDbEntity
  8
NOKITOI
  6
PHANTOM
 62
     8
100
AcDbCircle
 10
278.6381686948038
 20
300.5096283938759
 30
0.0
 40
0.5000073448410256
100
AcDbArc
 50
351.8729478641237
 51
96.47829282996754
  0
ARC
  5
5A74
330
1A
100
AcDbEntity
  8
NOKITOI
  6
PHANTOM
 62
     8
100
AcDbCircle
 10
279.0329923578351
 20
297.0319868107022
 30
0.0
 40
3.999989731271038
100
AcDbArc
 50
96.47731142013277
 51
181.7899836067311
  0
LINE
  5
5A75
330
1A
100
AcDbEntity
  8
NOKITOI
  6
PHANTOM
 62
     8
100
AcDbLine
 10
274.7817544763888
 20
305.0069430281768
 30
0.0
 11
274.9311544763882
 21
300.228043028177
 31
0.0
  0
ARC
  5
5A76
330
1A
100
AcDbEntity
  8
NOKITOI
  6
PHANTOM
 62
     8
100
AcDbCircle
 10
279.0330746890576
 20
297.0320017565569
 30
0.0
 40
5.2000412730095
100
AcDbArc
 50
90.0013245430618
 51
142.0757990790546
  0
LINE
  5
5A77
330
1A
100
AcDbEntity
  8
NOKITOI
  6
PHANTOM
 62
     8
100
AcDbLine
 10
280.8793544763884
 20
298.7319430281769
 30
0.0
 11
281.0605544763884
 21
302.1734430281771
 31
0.0
  0
LINE
  5
5A78
330
1A
100
AcDbEntity
  8
NOKITOI
  6
PHANTOM
 62
     8
100
AcDbLine
 10
273.5823544763884
 20
304.9694430281769
 30
0.0
 11
273.9725544763882
 21
292.4851430281768
 31
0.0
  0
ARC
  5
5A79
330
1A
100
AcDbEntity
  8
NOKITOI
  6
PHANTOM
 62
     8
100
AcDbCircle
 10
275.4717904355393
 20
292.5319081740336
 30
0.0
 40
1.499965146287778
100
AcDbArc
 50
181.7866280217766
 51
269.9986264296971
  0
LINE
  5
5A7B
330
1A
100
AcDbEntity
  8
NOKITOI
  6
PHANTOM
 62
     8
100
AcDbLine
 10
275.1204544763881
 20
294.1695430281768
 30
0.0
 11
275.0349544763885
 21
296.9070430281768
 31
0.0
  0
LINE
  5
5A7C
330
1A
100
AcDbEntity
  8
NOKITOI
  6
PHANTOM
 62
     8
100
AcDbLine
 10
275.4717544763884
 20
291.0319430281769
 30
0.0
 11
281.6164544763882
 21
291.0319430281769
 31
0.0
  0
ARC
  5
5A7D
330
1A
100
AcDbEntity
  8
NOKITOI
  6
PHANTOM
 62
     8
100
AcDbCircle
 10
277.1194680485268
 20
294.2319298730905
 30
0.0
 40
1.999986844959662
100
AcDbArc
 50
181.7875531852355
 51
269.9996111843215
  0
LINE
  5
5A7F
330
1A
100
AcDbEntity
  8
NOKITOI
  6
PHANTOM
 62
     8
100
AcDbLine
 10
278.7994544763882
 20
298.102743028177
 30
0.0
 11
279.1331544763884
 21
300.438943028177
 31
0.0
  0
LINE
  5
5A80
330
1A
100
AcDbEntity
  8
NOKITOI
  6
PHANTOM
 62
     8
100
AcDbLine
 10
281.5434544763884
 20
297.5319430281769
 30
0.0
 11
279.2943544763884
 21
297.5319430281769
 31
0.0
  0
ARC
  5
5A81
330
1A
100
AcDbEntity
  8
NOKITOI
  6
PHANTOM
 62
     8
100
AcDbCircle
 10
279.2943810769861
 20
298.0319123512948
 30
0.0
 40
0.4999693238254178
100
AcDbArc
 50
171.8555038770529
 51
269.9969516090372
  0
LINE
  5
5A82
330
1A
100
AcDbEntity
  8
NOKITOI
  6
PHANTOM
 62
     8
100
AcDbLine
 10
280.8793544763884
 20
298.7319430281769
 30
0.0
 11
280.1014544763889
 21
298.7319430281769
 31
0.0
  0
ARC
  5
5A83
330
1A
100
AcDbEntity
  8
NOKITOI
  6
PHANTOM
 62
     8
100
AcDbCircle
 10
281.5434475893935
 20
298.0319364930914
 30
0.0
 40
0.499993464961963
100
AcDbArc
 50
270.0007892017869
 51
356.997036131742
  0
ARC
  5
5A84
330
1A
100
AcDbEntity
  8
NOKITOI
  6
PHANTOM
 62
     8
100
AcDbCircle
 10
275.5813672272383
 20
305.0319561832633
 30
0.0
 40
1.999986844954076
100
AcDbArc
 50
90.00036528735288
 51
181.7883072882704
  0
LINE
  5
5A85
330
1A
100
AcDbEntity
  8
NOKITOI
  6
PHANTOM
 62
     8
100
AcDbLine
 10
279.1374544763884
 20
305.1300430281768
 30
0.0
 11
279.3982544763884
 21
306.4339430281769
 31
0.0
  0
LINE
  5
5A87
330
1A
100
AcDbEntity
  8
NOKITOI
  6
PHANTOM
 62
     8
100
AcDbLine
 10
277.5541544763886
 20
303.331943028177
 30
0.0
 11
280.4906544763884
 21
303.331943028177
 31
0.0
  0
ARC
  5
5A88
330
1A
100
AcDbEntity
  8
NOKITOI
  6
PHANTOM
 62
     8
100
AcDbCircle
 10
275.5813589711865
 20
305.0319476657037
 30
0.0
 40
0.7999953624857498
100
AcDbArc
 50
90.00032191805264
 51
181.7911273464193
  0
LINE
  5
5A89
330
1A
100
AcDbEntity
  8
NOKITOI
  6
PHANTOM
 62
     8
100
AcDbLine
 10
275.5813544763882
 20
305.831943028177
 30
0.0
 11
278.0541544763887
 21
305.831943028177
 31
0.0
  0
LINE
  5
5A8A
330
1A
100
AcDbEntity
  8
NOKITOI
  6
PHANTOM
 62
     8
100
AcDbLine
 10
278.0541544763887
 20
305.831943028177
 30
0.0
 11
277.5541544763886
 21
303.331943028177
 31
0.0
  0
LINE
  5
5A8B
330
1A
100
AcDbEntity
  8
NOKITOI
  6
PHANTOM
 62
     8
100
AcDbLine
 10
279.4948544763887
 20
302.2319430281769
 30
0.0
 11
280.4906544763884
 21
303.331943028177
 31
0.0
  0
LINE
  5
5A8C
330
1A
100
AcDbEntity
  8
NOKITOI
  6
PHANTOM
 62
     8
100
AcDbLine
 10
279.4948544763887
 20
302.2319430281769
 30
0.0
 11
279.0329544763885
 21
302.2319430281769
 31
0.0
  0
ARC
  5
5A8D
330
1A
100
AcDbEntity
  8
NOKITOI
  6
PHANTOM
 62
     8
100
AcDbCircle
 10
279.627747221833
 20
305.0319518780203
 30
0.0
 40
0.5000088498959383
100
AcDbArc
 50
168.6864043304891
 51
270.0008312961425
  0
LINE
  5
5A8E
330
1A
100
AcDbEntity
  8
NOKITOI
  6
PHANTOM
 62
     8
100
AcDbLine
 10
280.5055544763886
 20
301.5603430281768
 30
0.0
 11
281.0605544763884
 21
302.1734430281771
 31
0.0
  0
LINE
  5
5A8F
330
1A
100
AcDbEntity
  8
NOKITOI
  6
PHANTOM
 62
     8
100
AcDbLine
 10
281.8592544763883
 20
304.5319430281768
 30
0.0
 11
279.6277544763884
 21
304.5319430281768
 31
0.0
  0
LINE
  5
5A90
330
1A
100
AcDbEntity
  8
NOKITOI
  6
PHANTOM
 62
     8
100
AcDbLine
 10
275.5813544763882
 20
307.0319430281768
 30
0.0
 11
278.9079544763885
 21
307.0319430281768
 31
0.0
  0
ARC
  5
5A91
330
1A
100
AcDbEntity
  8
NOKITOI
  6
PHANTOM
 62
     8
100
AcDbCircle
 10
278.90795369338
 20
306.5319439831786
 30
0.0
 40
0.4999990449987349
100
AcDbArc
 50
348.6967198015448
 51
89.99991027369329
  0
LINE
  5
5A92
330
1A
100
AcDbEntity
  8
NOKITOI
  6
PHANTOM
 62
     8
100
AcDbLine
 10
383.3868544763886
 20
291.7817430281769
 30
0.0
 11
380.3938544763882
 21
261.8519430281768
 31
0.0
  0
LINE
  5
5A93
330
1A
100
AcDbEntity
  8
NOKITOI
  6
PHANTOM
 62
     8
100
AcDbLine
 10
384.4278544763888
 20
290.1314430281769
 30
0.0
 11
381.5590544763886
 21
261.4440430281768
 31
0.0
  0
LINE
  5
5A94
330
1A
100
AcDbEntity
  8
NOKITOI
  6
PHANTOM
 62
     8
100
AcDbLine
 10
325.3314544763884
 20
253.2319430281769
 30
0.0
 11
369.9110544763884
 21
253.2318430281769
 31
0.0
  0
LINE
  5
5A95
330
1A
100
AcDbEntity
  8
NOKITOI
  6
PHANTOM
 62
     8
100
AcDbLine
 10
370.1608544763885
 20
252.0318430281769
 30
0.0
 11
325.3314544763884
 21
252.0319430281769
 31
0.0
  0
LINE
  5
5A96
330
1A
100
AcDbEntity
  8
NOKITOI
  6
PHANTOM
 62
     8
100
AcDbLine
 10
365.9110544763884
 20
253.2318430281769
 30
0.0
 11
346.0029544763888
 21
253.2318430281769
 31
0.0
  0
LINE
  5
5A97
330
1A
100
AcDbEntity
  8
NOKITOI
  6
PHANTOM
 62
     8
100
AcDbLine
 10
366.1608544763885
 20
252.0318430281769
 30
0.0
 11
346.0029544763888
 21
252.0318430281769
 31
0.0
  0
LINE
  5
5A9B
330
1A
100
AcDbEntity
  8
NOKITOI
  6
PHANTOM
 62
     8
100
AcDbLine
 10
381.1972544763884
 20
260.769543028177
 30
0.0
 11
370.7941544763885
 21
252.257843028177
 31
0.0
  0
LINE
  5
5A9C
330
1A
100
AcDbEntity
  8
NOKITOI
  6
PHANTOM
 62
     8
100
AcDbLine
 10
380.2129544763888
 20
261.5146430281769
 30
0.0
 11
370.2276544763885
 21
253.3448430281767
 31
0.0
  0
ARC
  5
5A9D
330
1A
100
AcDbEntity
  8
NOKITOI
  6
PHANTOM
 62
     8
100
AcDbCircle
 10
369.9110608641372
 20
253.7318453081665
 30
0.0
 40
0.5000022800304047
100
AcDbArc
 50
269.9992680212791
 51
309.2854498596061
  0
ARC
  5
5A9E
330
1A
100
AcDbEntity
  8
NOKITOI
  6
PHANTOM
 62
     8
100
AcDbCircle
 10
370.160847543811
 20
253.0318405531708
 30
0.0
 40
0.9999975250179316
100
AcDbArc
 50
270.0003972084019
 51
309.2946416752287
  0
ARC
  5
5A9F
330
1A
100
AcDbEntity
  8
NOKITOI
  6
PHANTOM
 62
     8
100
AcDbCircle
 10
379.8963370505102
 20
261.9016105417889
 30
0.0
 40
0.4999904508696396
100
AcDbArc
 50
309.2900846377951
 51
354.2990110749239
  0
ARC
  5
5AA0
330
1A
100
AcDbEntity
  8
NOKITOI
  6
PHANTOM
 62
     8
100
AcDbCircle
 10
380.5640319035196
 20
261.5435009565043
 30
0.0
 40
0.9999908507640039
100
AcDbArc
 50
309.288709223069
 51
354.286232947753
  0
ARC
  5
5AA8
330
1A
100
AcDbEntity
  8
NOKITOI
  6
PHANTOM
 62
     8
100
AcDbCircle
 10
283.1603670460967
 20
291.7319314034472
 30
0.0
 40
0.5000116248877111
100
AcDbArc
 50
4.47484680834223
 51
90.00144034898383
  0
ARC
  5
5ACE
330
1A
100
AcDbEntity
  8
NOKITOI
  6
PHANTOM
 62
     8
100
AcDbCircle
 10
388.0028235494524
 20
297.0319787728407
 30
0.0
 40
3.99998565374706
100
AcDbArc
 50
358.208696659101
 51
83.52422380468341
  0
LINE
  5
5ACF
330
1A
100
AcDbEntity
  8
NOKITOI
  6
PHANTOM
 62
     8
100
AcDbLine
 10
392.2539544763881
 20
305.0069430281768
 30
0.0
 11
392.1046544763885
 21
300.227943028177
 31
0.0
  0
LINE
  5
5AD0
330
1A
100
AcDbEntity
  8
NOKITOI
  6
PHANTOM
 62
     8
100
AcDbLine
 10
386.9342544763881
 20
298.7319430281769
 30
0.0
 11
386.5302544763885
 21
301.5603430281768
 31
0.0
  0
LINE
  5
5AD1
330
1A
100
AcDbEntity
  8
NOKITOI
  6
PHANTOM
 62
     8
100
AcDbLine
 10
384.9929544763885
 20
298.0056430281769
 30
0.0
 11
384.6771544763882
 21
304.0056430281769
 31
0.0
  0
LINE
  5
5AD2
330
1A
100
AcDbEntity
  8
NOKITOI
  6
PHANTOM
 62
     8
100
AcDbLine
 10
386.1563544763885
 20
298.7319430281769
 30
0.0
 11
385.9752544763882
 21
302.1733430281768
 31
0.0
  0
ARC
  5
5AD3
330
1A
100
AcDbEntity
  8
NOKITOI
  6
PHANTOM
 62
     8
100
AcDbCircle
 10
388.0028366100373
 20
297.0319517565568
 30
0.0
 40
5.199991271650611
100
AcDbArc
 50
37.92532860473095
 51
89.99980314072399
  0
ARC
  5
5AD4
330
1A
100
AcDbEntity
  8
NOKITOI
  6
PHANTOM
 62
     8
100
AcDbCircle
 10
388.3975838488881
 20
300.5095732606718
 30
0.0
 40
0.4999578477751074
100
AcDbArc
 50
83.52609071220754
 51
188.1330561712932
  0
LINE
  5
5AD5
330
1A
100
AcDbEntity
  8
NOKITOI
  6
PHANTOM
 62
     8
100
AcDbLine
 10
393.4533544763885
 20
304.9694430281769
 30
0.0
 11
393.0632544763884
 21
292.4850430281768
 31
0.0
  0
LINE
  5
5AD7
330
1A
100
AcDbEntity
  8
NOKITOI
  6
PHANTOM
 62
     8
100
AcDbLine
 10
383.8843544763881
 20
292.2319430281769
 30
0.0
 11
389.9162544763885
 21
292.2319430281769
 31
0.0
  0
LINE
  5
5AD8
330
1A
100
AcDbEntity
  8
NOKITOI
  6
PHANTOM
 62
     8
100
AcDbLine
 10
391.5639544763885
 20
291.0319430281769
 30
0.0
 11
385.4228544763886
 21
291.0319430281769
 31
0.0
  0
ARC
  5
5ADC
330
1A
100
AcDbEntity
  8
NOKITOI
  6
PHANTOM
 62
     8
100
AcDbCircle
 10
385.4228751262294
 20
290.0319617160261
 30
0.0
 40
0.9999813123640345
100
AcDbArc
 50
90.00118317084911
 51
174.2905900333514
  0
ARC
  5
5ADD
330
1A
100
AcDbEntity
  8
NOKITOI
  6
PHANTOM
 62
     8
100
AcDbCircle
 10
383.8843675473931
 20
291.7319548584567
 30
0.0
 40
0.499988169890889
100
AcDbArc
 50
90.00149786226472
 51
174.2966061377164
  0
LINE
  5
5AE1
330
1A
100
AcDbEntity
  8
NOKITOI
  6
PHANTOM
 62
     8
100
AcDbLine
 10
388.2363544763884
 20
298.1026430281768
 30
0.0
 11
387.9025544763885
 21
300.438843028177
 31
0.0
  0
ARC
  5
5AE2
330
1A
100
AcDbEntity
  8
NOKITOI
  6
PHANTOM
 62
     8
100
AcDbCircle
 10
387.7413646628247
 20
298.031954772901
 30
0.0
 40
0.5000117448278309
100
AcDbArc
 50
269.9988327478
 51
8.12731460871532
  0
ARC
  5
5AE3
330
1A
100
AcDbEntity
  8
NOKITOI
  6
PHANTOM
 62
     8
100
AcDbCircle
 10
385.4922585977951
 20
298.0319391181463
 30
0.0
 40
0.4999960899864752
100
AcDbArc
 50
183.014724379174
 51
269.9995277178578
  0
LINE
  5
5AE4
330
1A
100
AcDbEntity
  8
NOKITOI
  6
PHANTOM
 62
     8
100
AcDbLine
 10
385.4922544763885
 20
297.5319430281769
 30
0.0
 11
387.741354476388
 21
297.5319430281769
 31
0.0
  0
LINE
  5
5AE5
330
1A
100
AcDbEntity
  8
NOKITOI
  6
PHANTOM
 62
     8
100
AcDbLine
 10
386.1563544763885
 20
298.7319430281769
 30
0.0
 11
386.9342544763881
 21
298.7319430281769
 31
0.0
  0
LINE
  5
5AE6
330
1A
100
AcDbEntity
  8
NOKITOI
  6
PHANTOM
 62
     8
100
AcDbLine
 10
391.9153544763885
 20
294.1693430281769
 30
0.0
 11
392.0008544763882
 21
296.9069430281768
 31
0.0
  0
ARC
  5
5AE7
330
1A
100
AcDbEntity
  8
NOKITOI
  6
PHANTOM
 62
     8
100
AcDbCircle
 10
391.5639716895666
 20
292.5319597113247
 30
0.0
 40
1.500016683246579
100
AcDbArc
 50
269.999342512336
 51
358.2076423244113
  0
ARC
  5
5AE8
330
1A
100
AcDbEntity
  8
NOKITOI
  6
PHANTOM
 62
     8
100
AcDbCircle
 10
389.9162924642128
 20
294.2318798487491
 30
0.0
 40
2.000036820932882
100
AcDbArc
 50
269.9989117490344
 51
358.2110591274195
  0
LINE
  5
5AEA
330
1A
100
AcDbEntity
  8
NOKITOI
  6
PHANTOM
 62
     8
100
AcDbLine
 10
389.4816544763884
 20
303.331943028177
 30
0.0
 11
386.5450544763885
 21
303.331943028177
 31
0.0
  0
LINE
  5
5AEB
330
1A
100
AcDbEntity
  8
NOKITOI
  6
PHANTOM
 62
     8
100
AcDbLine
 10
391.4543544763887
 20
307.0318430281769
 30
0.0
 11
388.1277544763884
 21
307.0319430281768
 31
0.0
  0
LINE
  5
5AEC
330
1A
100
AcDbEntity
  8
NOKITOI
  6
PHANTOM
 62
     8
100
AcDbLine
 10
387.8982544763885
 20
305.129943028177
 30
0.0
 11
387.6374544763884
 21
306.4339430281769
 31
0.0
  0
ARC
  5
5AED
330
1A
100
AcDbEntity
  8
NOKITOI
  6
PHANTOM
 62
     8
100
AcDbCircle
 10
385.1764581858838
 20
304.0319469382076
 30
0.0
 40
0.4999960899831856
100
AcDbArc
 50
90.00042508014919
 51
183.0156217414647
  0
LINE
  5
5AEE
330
1A
100
AcDbEntity
  8
NOKITOI
  6
PHANTOM
 62
     8
100
AcDbLine
 10
387.5408544763886
 20
302.2319430281769
 30
0.0
 11
386.5450544763885
 21
303.331943028177
 31
0.0
  0
LINE
  5
5AEF
330
1A
100
AcDbEntity
  8
NOKITOI
  6
PHANTOM
 62
     8
100
AcDbLine
 10
387.5408544763886
 20
302.2319430281769
 30
0.0
 11
388.0028544763886
 21
302.2319430281769
 31
0.0
  0
ARC
  5
5AF0
330
1A
100
AcDbEntity
  8
NOKITOI
  6
PHANTOM
 62
     8
100
AcDbCircle
 10
387.40795369338
 20
305.0319420731751
 30
0.0
 40
0.4999990449987399
100
AcDbArc
 50
270.0000897263034
 51
11.30328019845509
  0
LINE
  5
5AF1
330
1A
100
AcDbEntity
  8
NOKITOI
  6
PHANTOM
 62
     8
100
AcDbLine
 10
385.1764544763886
 20
304.5319430281768
 30
0.0
 11
387.4079544763885
 21
304.5319430281768
 31
0.0
  0
LINE
  5
5AF2
330
1A
100
AcDbEntity
  8
NOKITOI
  6
PHANTOM
 62
     8
100
AcDbLine
 10
386.5302544763885
 20
301.5603430281768
 30
0.0
 11
385.9752544763882
 21
302.1733430281768
 31
0.0
  0
ARC
  5
5AF3
330
1A
100
AcDbEntity
  8
NOKITOI
  6
PHANTOM
 62
     8
100
AcDbCircle
 10
388.127747221833
 20
306.5319341783334
 30
0.0
 40
0.500008849895925
100
AcDbArc
 50
89.99916870385415
 51
191.3135956695126
  0
ARC
  5
5AF4
330
1A
100
AcDbEntity
  8
NOKITOI
  6
PHANTOM
 62
     8
100
AcDbCircle
 10
391.4543432393943
 20
305.031954621994
 30
0.0
 40
1.999988406214315
100
AcDbArc
 50
358.2088726535938
 51
89.99967808195389
  0
ARC
  5
5AF5
330
1A
100
AcDbEntity
  8
NOKITOI
  6
PHANTOM
 62
     8
100
AcDbCircle
 10
391.4543984427414
 20
305.0318976657039
 30
0.0
 40
0.7999453636812564
100
AcDbArc
 50
358.2123436447881
 51
90.00314907315425
  0
LINE
  5
5AF6
330
1A
100
AcDbEntity
  8
NOKITOI
  6
PHANTOM
 62
     8
100
AcDbLine
 10
388.9816544763884
 20
305.831943028177
 30
0.0
 11
389.4816544763884
 21
303.331943028177
 31
0.0
  0
LINE
  5
5AF7
330
1A
100
AcDbEntity
  8
NOKITOI
  6
PHANTOM
 62
     8
100
AcDbLine
 10
391.4543544763887
 20
305.8318430281768
 30
0.0
 11
388.9816544763884
 21
305.831943028177
 31
0.0
  0
LINE
  5
5F48
330
1A
100
AcDbEntity
  8
NOKITOI
  6
PHANTOM
 62
     8
100
AcDbLine
 10
286.8227544763882
 20
100.6077777897707
 30
0.0
 11
296.8080544763885
 21
92.43797778977057
 31
0.0
  0
LINE
  5
5F49
330
1A
100
AcDbEntity
  8
NOKITOI
  6
PHANTOM
 62
     8
100
AcDbLine
 10
285.8384544763886
 20
99.86267778977083
 30
0.0
 11
296.2415544763885
 21
91.35097778977081
 31
0.0
  0
ARC
  5
5F4A
330
1A
100
AcDbEntity
  8
NOKITOI
  6
PHANTOM
 62
     8
100
AcDbCircle
 10
341.7042707028459
 20
134.1250922661407
 30
0.0
 40
43.00001447645168
100
AcDbArc
 50
270.0001116248562
 51
353.4750892928824
  0
ARC
  5
5F4B
330
1A
100
AcDbEntity
  8
NOKITOI
  6
PHANTOM
 62
     8
100
AcDbCircle
 10
341.7042483944206
 20
134.1250721651143
 30
0.0
 40
41.79999437547816
100
AcDbArc
 50
270.0001454078909
 51
355.5257047874752
  0
LINE
  5
5F4C
330
1A
100
AcDbEntity
  8
NOKITOI
  6
PHANTOM
 62
     8
100
AcDbLine
 10
300.8748544763885
 20
91.1249777897707
 30
0.0
 11
321.0327544763882
 21
91.1249777897707
 31
0.0
  0
LINE
  5
5F4D
330
1A
100
AcDbEntity
  8
NOKITOI
  6
PHANTOM
 62
     8
100
AcDbLine
 10
301.1246544763886
 20
92.32497778977075
 30
0.0
 11
321.0327544763882
 21
92.32497778977075
 31
0.0
  0
LINE
  5
5F4E
330
1A
100
AcDbEntity
  8
NOKITOI
  6
PHANTOM
 62
     8
100
AcDbLine
 10
296.8748544763885
 20
91.1249777897707
 30
0.0
 11
341.7042544763886
 21
91.12507778977066
 31
0.0
  0
LINE
  5
5F4F
330
1A
100
AcDbEntity
  8
NOKITOI
  6
PHANTOM
 62
     8
100
AcDbLine
 10
341.7042544763886
 20
92.32507778977071
 30
0.0
 11
297.1246544763886
 21
92.32497778977075
 31
0.0
  0
ARC
  5
5F50
330
1A
100
AcDbEntity
  8
NOKITOI
  6
PHANTOM
 62
     8
100
AcDbCircle
 10
296.874861408966
 20
92.12497531476458
 30
0.0
 40
0.9999975250179316
100
AcDbArc
 50
230.7053583247713
 51
269.999602791598
  0
ARC
  5
5F51
330
1A
100
AcDbEntity
  8
NOKITOI
  6
PHANTOM
 62
     8
100
AcDbCircle
 10
297.1246480886398
 20
92.82498006976027
 30
0.0
 40
0.5000022800304047
100
AcDbArc
 50
230.7145501403939
 51
270.0007319787208
  0
LINE
  5
5F58
330
1A
100
AcDbEntity
  8
NOKITOI
  6
PHANTOM
 62
     8
100
AcDbLine
 10
393.4533544763886
 20
144.0625777897706
 30
0.0
 11
393.0631544763888
 21
131.5782777897706
 31
0.0
  0
LINE
  5
5F59
330
1A
100
AcDbEntity
  8
NOKITOI
  6
PHANTOM
 62
     8
100
AcDbLine
 10
386.1563544763886
 20
137.8250777897707
 30
0.0
 11
385.9751544763886
 21
141.2665777897708
 31
0.0
  0
ARC
  5
5F5A
330
1A
100
AcDbEntity
  8
NOKITOI
  6
PHANTOM
 62
     8
100
AcDbCircle
 10
388.0026342637194
 20
136.1251365181507
 30
0.0
 40
5.2000412730095
100
AcDbArc
 50
37.92420092094534
 51
89.9986754569382
  0
LINE
  5
5F5B
330
1A
100
AcDbEntity
  8
NOKITOI
  6
PHANTOM
 62
     8
100
AcDbLine
 10
392.2539544763882
 20
144.1000777897705
 30
0.0
 11
392.1045544763888
 21
139.3211777897707
 31
0.0
  0
ARC
  5
5F5C
330
1A
100
AcDbEntity
  8
NOKITOI
  6
PHANTOM
 62
     8
100
AcDbCircle
 10
388.0027165949419
 20
136.125121572296
 30
0.0
 40
3.999989731271038
100
AcDbArc
 50
358.2100163932688
 51
83.52268857986723
  0
ARC
  5
5F5D
330
1A
100
AcDbEntity
  8
NOKITOI
  6
PHANTOM
 62
     8
100
AcDbCircle
 10
388.3975402579732
 20
139.6027631554696
 30
0.0
 40
0.5000073448410256
100
AcDbArc
 50
83.52170717003247
 51
188.1270521358762
  0
LINE
  5
5F5E
330
1A
100
AcDbEntity
  8
NOKITOI
  6
PHANTOM
 62
     8
100
AcDbLine
 10
386.9342544763881
 20
137.8250777897707
 30
0.0
 11
386.5301544763884
 21
140.6534777897705
 31
0.0
  0
LINE
  5
5F5F
330
1A
100
AcDbEntity
  8
NOKITOI
  6
PHANTOM
 62
     8
100
AcDbLine
 10
384.9928544763885
 20
137.0988777897706
 30
0.0
 11
384.6770544763886
 21
143.0987777897706
 31
0.0
  0
ARC
  5
5F61
330
1A
100
AcDbEntity
  8
NOKITOI
  6
PHANTOM
 62
     8
100
AcDbCircle
 10
383.8753419066803
 20
130.8250661650409
 30
0.0
 40
0.5000116248877111
100
AcDbArc
 50
89.99855965101618
 51
175.5251531916577
  0
ARC
  5
5F62
330
1A
100
AcDbEntity
  8
NOKITOI
  6
PHANTOM
 62
     8
100
AcDbCircle
 10
389.9162409042502
 20
133.3250646346842
 30
0.0
 40
1.999986844959662
100
AcDbArc
 50
270.0003888156784
 51
358.2124468147644
  0
ARC
  5
5F63
330
1A
100
AcDbEntity
  8
NOKITOI
  6
PHANTOM
 62
     8
100
AcDbCircle
 10
391.5639185172377
 20
131.6250429356274
 30
0.0
 40
1.499965146287778
100
AcDbArc
 50
270.0013735703027
 51
358.2133719782233
  0
LINE
  5
5F64
330
1A
100
AcDbEntity
  8
NOKITOI
  6
PHANTOM
 62
     8
100
AcDbLine
 10
391.9152544763889
 20
133.2626777897707
 30
0.0
 11
392.0007544763885
 21
136.0001777897706
 31
0.0
  0
ARC
  5
5F67
330
1A
100
AcDbEntity
  8
NOKITOI
  6
PHANTOM
 62
     8
100
AcDbCircle
 10
385.4922613633835
 20
137.1250712546851
 30
0.0
 40
0.499993464961963
100
AcDbArc
 50
183.0029638682579
 51
269.999210798213
  0
LINE
  5
5F68
330
1A
100
AcDbEntity
  8
NOKITOI
  6
PHANTOM
 62
     8
100
AcDbLine
 10
386.1563544763886
 20
137.8250777897707
 30
0.0
 11
386.9342544763881
 21
137.8250777897707
 31
0.0
  0
ARC
  5
5F69
330
1A
100
AcDbEntity
  8
NOKITOI
  6
PHANTOM
 62
     8
100
AcDbCircle
 10
387.7413278757909
 20
137.1250471128886
 30
0.0
 40
0.4999693238254178
100
AcDbArc
 50
270.0030483909627
 51
8.144496122947039
  0
LINE
  5
5F6A
330
1A
100
AcDbEntity
  8
NOKITOI
  6
PHANTOM
 62
     8
100
AcDbLine
 10
385.4922544763886
 20
136.6250777897706
 30
0.0
 11
387.7413544763886
 21
136.6250777897706
 31
0.0
  0
LINE
  5
5F6B
330
1A
100
AcDbEntity
  8
NOKITOI
  6
PHANTOM
 62
     8
100
AcDbLine
 10
388.2362544763888
 20
137.1958777897708
 30
0.0
 11
387.9025544763886
 21
139.5320777897708
 31
0.0
  0
LINE
  5
5F6C
330
1A
100
AcDbEntity
  8
NOKITOI
  6
PHANTOM
 62
     8
100
AcDbLine
 10
391.5639544763886
 20
130.1250777897706
 30
0.0
 11
385.4192544763888
 21
130.1250777897706
 31
0.0
  0
LINE
  5
5F6D
330
1A
100
AcDbEntity
  8
NOKITOI
  6
PHANTOM
 62
     8
100
AcDbLine
 10
383.8753544763882
 20
131.3250777897707
 30
0.0
 11
389.9162544763886
 21
131.3250777897707
 31
0.0
  0
ARC
  5
5F6E
330
1A
100
AcDbEntity
  8
NOKITOI
  6
PHANTOM
 62
     8
100
AcDbCircle
 10
385.4192629005511
 20
129.1250853048271
 30
0.0
 40
0.9999924849789756
100
AcDbArc
 50
90.00048267258872
 51
173.471735393326
  0
ARC
  5
5F71
330
1A
100
AcDbEntity
  8
NOKITOI
  6
PHANTOM
 62
     8
100
AcDbCircle
 10
391.4543499815905
 20
144.1250824272975
 30
0.0
 40
0.7999953624857498
100
AcDbArc
 50
358.2088726535806
 51
89.99967808194737
  0
ARC
  5
5F72
330
1A
100
AcDbEntity
  8
NOKITOI
  6
PHANTOM
 62
     8
100
AcDbCircle
 10
391.4543417255387
 20
144.125090944857
 30
0.0
 40
1.999986844954076
100
AcDbArc
 50
358.2116927117295
 51
89.99963471264713
  0
ARC
  5
5F74
330
1A
100
AcDbEntity
  8
NOKITOI
  6
PHANTOM
 62
     8
100
AcDbCircle
 10
388.127755259397
 20
145.6250787447723
 30
0.0
 40
0.4999990449987349
100
AcDbArc
 50
90.0000897263067
 51
191.3032801984551
  0
LINE
  5
5F75
330
1A
100
AcDbEntity
  8
NOKITOI
  6
PHANTOM
 62
     8
100
AcDbLine
 10
391.4543544763888
 20
146.1250777897706
 30
0.0
 11
388.1277544763885
 21
146.1250777897706
 31
0.0
  0
LINE
  5
5F76
330
1A
100
AcDbEntity
  8
NOKITOI
  6
PHANTOM
 62
     8
100
AcDbLine
 10
385.1764544763888
 20
143.6250777897706
 30
0.0
 11
387.4079544763887
 21
143.6250777897706
 31
0.0
  0
LINE
  5
5F77
330
1A
100
AcDbEntity
  8
NOKITOI
  6
PHANTOM
 62
     8
100
AcDbLine
 10
386.5301544763884
 20
140.6534777897705
 30
0.0
 11
385.9751544763886
 21
141.2665777897708
 31
0.0
  0
ARC
  5
5F78
330
1A
100
AcDbEntity
  8
NOKITOI
  6
PHANTOM
 62
     8
100
AcDbCircle
 10
387.407961730944
 20
144.125086639614
 30
0.0
 40
0.5000088498959383
100
AcDbArc
 50
269.9991687038574
 51
11.31359566951083
  0
LINE
  5
5F79
330
1A
100
AcDbEntity
  8
NOKITOI
  6
PHANTOM
 62
     8
100
AcDbLine
 10
387.5408544763883
 20
141.3250777897707
 30
0.0
 11
388.0027544763885
 21
141.3250777897707
 31
0.0
  0
LINE
  5
5F7A
330
1A
100
AcDbEntity
  8
NOKITOI
  6
PHANTOM
 62
     8
100
AcDbLine
 10
387.5408544763883
 20
141.3250777897707
 30
0.0
 11
386.5450544763886
 21
142.4250777897708
 31
0.0
  0
LINE
  5
5F7B
330
1A
100
AcDbEntity
  8
NOKITOI
  6
PHANTOM
 62
     8
100
AcDbLine
 10
388.9815544763884
 20
144.9250777897708
 30
0.0
 11
389.4815544763884
 21
142.4250777897708
 31
0.0
  0
LINE
  5
5F7C
330
1A
100
AcDbEntity
  8
NOKITOI
  6
PHANTOM
 62
     8
100
AcDbLine
 10
391.4543544763888
 20
144.9250777897708
 30
0.0
 11
388.9815544763884
 21
144.9250777897708
 31
0.0
  0
LINE
  5
5F7D
330
1A
100
AcDbEntity
  8
NOKITOI
  6
PHANTOM
 62
     8
100
AcDbLine
 10
389.4815544763884
 20
142.4250777897708
 30
0.0
 11
386.5450544763886
 21
142.4250777897708
 31
0.0
  0
LINE
  5
5F7E
330
1A
100
AcDbEntity
  8
NOKITOI
  6
PHANTOM
 62
     8
100
AcDbLine
 10
387.8982544763886
 20
144.2231777897706
 30
0.0
 11
387.6374544763886
 21
145.5270777897707
 31
0.0
  0
ARC
  5
5F7F
330
1A
100
AcDbEntity
  8
NOKITOI
  6
PHANTOM
 62
     8
100
AcDbCircle
 10
385.1764606775465
 20
143.1250843248559
 30
0.0
 40
0.4999934649531607
100
AcDbArc
 50
90.00071060961758
 51
183.0044636796624
  0
LINE
  5
5F8D
330
1A
100
AcDbEntity
  8
NOKITOI
  6
PHANTOM
 62
     8
100
AcDbLine
 10
282.6078544763883
 20
129.2245777897707
 30
0.0
 11
285.4766544763884
 21
100.5371777897706
 31
0.0
  0
LINE
  5
5F8E
330
1A
100
AcDbEntity
  8
NOKITOI
  6
PHANTOM
 62
     8
100
AcDbLine
 10
283.6488544763884
 20
130.8748777897707
 30
0.0
 11
286.6418544763888
 21
100.9450777897705
 31
0.0
  0
ARC
  5
5F96
330
1A
100
AcDbEntity
  8
NOKITOI
  6
PHANTOM
 62
     8
100
AcDbCircle
 10
286.4716770492574
 20
100.636635718098
 30
0.0
 40
0.9999908507640039
100
AcDbArc
 50
185.713767052247
 51
230.7112907769309
  0
ARC
  5
5F97
330
1A
100
AcDbEntity
  8
NOKITOI
  6
PHANTOM
 62
     8
100
AcDbCircle
 10
287.1393719022668
 20
100.9947453033827
 30
0.0
 40
0.4999904508696396
100
AcDbArc
 50
185.700988925076
 51
230.7099153622048
  0
LINE
  5
5FB3
330
1A
100
AcDbEntity
  8
NOKITOI
  6
PHANTOM
 62
     8
100
AcDbLine
 10
273.5823544763885
 20
144.0625777897706
 30
0.0
 11
273.9724544763886
 21
131.5781777897706
 31
0.0
  0
ARC
  5
5FB4
330
1A
100
AcDbEntity
  8
NOKITOI
  6
PHANTOM
 62
     8
100
AcDbCircle
 10
278.6381251038889
 20
139.6027080222655
 30
0.0
 40
0.4999578477751074
100
AcDbArc
 50
351.8669438287067
 51
96.47390928779245
  0
ARC
  5
5FB5
330
1A
100
AcDbEntity
  8
NOKITOI
  6
PHANTOM
 62
     8
100
AcDbCircle
 10
279.0328723427397
 20
136.1250865181506
 30
0.0
 40
5.199991271650611
100
AcDbArc
 50
90.00019685927602
 51
142.074671395269
  0
LINE
  5
5FB6
330
1A
100
AcDbEntity
  8
NOKITOI
  6
PHANTOM
 62
     8
100
AcDbLine
 10
280.8793544763886
 20
137.8250777897707
 30
0.0
 11
281.0604544763888
 21
141.2664777897706
 31
0.0
  0
LINE
  5
5FB7
330
1A
100
AcDbEntity
  8
NOKITOI
  6
PHANTOM
 62
     8
100
AcDbLine
 10
282.0427544763885
 20
137.0987777897706
 30
0.0
 11
282.3585544763888
 21
143.0987777897706
 31
0.0
  0
LINE
  5
5FB8
330
1A
100
AcDbEntity
  8
NOKITOI
  6
PHANTOM
 62
     8
100
AcDbLine
 10
280.1014544763889
 20
137.8250777897707
 30
0.0
 11
280.5054544763885
 21
140.6534777897705
 31
0.0
  0
LINE
  5
5FB9
330
1A
100
AcDbEntity
  8
NOKITOI
  6
PHANTOM
 62
     8
100
AcDbLine
 10
274.7817544763889
 20
144.1000777897705
 30
0.0
 11
274.9310544763885
 21
139.3210777897708
 31
0.0
  0
ARC
  5
5FBA
330
1A
100
AcDbEntity
  8
NOKITOI
  6
PHANTOM
 62
     8
100
AcDbCircle
 10
279.0328854033247
 20
136.1251135344344
 30
0.0
 40
3.99998565374706
100
AcDbArc
 50
96.47577619531659
 51
181.791303340899
  0
ARC
  5
5FC0
330
1A
100
AcDbEntity
  8
NOKITOI
  6
PHANTOM
 62
     8
100
AcDbCircle
 10
277.1194164885642
 20
133.3250146103429
 30
0.0
 40
2.000036820932882
100
AcDbArc
 50
181.7889408725805
 51
270.0010882509654
  0
LINE
  5
5FC1
330
1A
100
AcDbEntity
  8
NOKITOI
  6
PHANTOM
 62
     8
100
AcDbLine
 10
275.4717544763885
 20
130.1250777897706
 30
0.0
 11
281.6128544763884
 21
130.1250777897706
 31
0.0
  0
LINE
  5
5FC7
330
1A
100
AcDbEntity
  8
NOKITOI
  6
PHANTOM
 62
     8
100
AcDbLine
 10
280.8793544763886
 20
137.8250777897707
 30
0.0
 11
280.1014544763889
 21
137.8250777897707
 31
0.0
  0
LINE
  5
5FC8
330
1A
100
AcDbEntity
  8
NOKITOI
  6
PHANTOM
 62
     8
100
AcDbLine
 10
281.5434544763885
 20
136.6250777897706
 30
0.0
 11
279.294354476389
 21
136.6250777897706
 31
0.0
  0
ARC
  5
5FC9
330
1A
100
AcDbEntity
  8
NOKITOI
  6
PHANTOM
 62
     8
100
AcDbCircle
 10
281.5434503549819
 20
137.1250738797401
 30
0.0
 40
0.4999960899864752
100
AcDbArc
 50
270.0004722821422
 51
356.9852756208259
  0
ARC
  5
5FCA
330
1A
100
AcDbEntity
  8
NOKITOI
  6
PHANTOM
 62
     8
100
AcDbCircle
 10
279.2943442899523
 20
137.1250895344948
 30
0.0
 40
0.5000117448278309
100
AcDbArc
 50
171.8726853912846
 51
270.0011672521999
  0
LINE
  5
5FCB
330
1A
100
AcDbEntity
  8
NOKITOI
  6
PHANTOM
 62
     8
100
AcDbLine
 10
278.7993544763886
 20
137.1957777897706
 30
0.0
 11
279.1331544763885
 21
139.5319777897708
 31
0.0
  0
ARC
  5
5FCC
330
1A
100
AcDbEntity
  8
NOKITOI
  6
PHANTOM
 62
     8
100
AcDbCircle
 10
283.1513414053839
 20
130.8250896200505
 30
0.0
 40
0.499988169890889
100
AcDbArc
 50
5.703393862283578
 51
89.99850213773529
  0
ARC
  5
5FCD
330
1A
100
AcDbEntity
  8
NOKITOI
  6
PHANTOM
 62
     8
100
AcDbCircle
 10
281.6128338265476
 20
129.1250964776198
 30
0.0
 40
0.9999813123640345
100
AcDbArc
 50
5.709409966648592
 51
89.9988168291509
  0
LINE
  5
5FCE
330
1A
100
AcDbEntity
  8
NOKITOI
  6
PHANTOM
 62
     8
100
AcDbLine
 10
283.1513544763889
 20
131.3250777897707
 30
0.0
 11
277.1194544763885
 21
131.3250777897707
 31
0.0
  0
ARC
  5
5FD0
330
1A
100
AcDbEntity
  8
NOKITOI
  6
PHANTOM
 62
     8
100
AcDbCircle
 10
275.4717372632104
 20
131.6250944729184
 30
0.0
 40
1.500016683246579
100
AcDbArc
 50
181.7923576755886
 51
270.0006574876639
  0
LINE
  5
5FD1
330
1A
100
AcDbEntity
  8
NOKITOI
  6
PHANTOM
 62
     8
100
AcDbLine
 10
275.1203544763885
 20
133.2624777897707
 30
0.0
 11
275.0348544763888
 21
136.0000777897706
 31
0.0
  0
LINE
  5
5FD5
330
1A
100
AcDbEntity
  8
NOKITOI
  6
PHANTOM
 62
     8
100
AcDbLine
 10
275.5813544763883
 20
144.9249777897706
 30
0.0
 11
278.0540544763886
 21
144.9250777897708
 31
0.0
  0
LINE
  5
5FD6
330
1A
100
AcDbEntity
  8
NOKITOI
  6
PHANTOM
 62
     8
100
AcDbLine
 10
275.5813544763883
 20
146.1249777897706
 30
0.0
 11
278.9079544763886
 21
146.1250777897706
 31
0.0
  0
LINE
  5
5FD7
330
1A
100
AcDbEntity
  8
NOKITOI
  6
PHANTOM
 62
     8
100
AcDbLine
 10
278.0540544763886
 20
144.9250777897708
 30
0.0
 11
277.5540544763886
 21
142.4250777897708
 31
0.0
  0
ARC
  5
5FD8
330
1A
100
AcDbEntity
  8
NOKITOI
  6
PHANTOM
 62
     8
100
AcDbCircle
 10
278.907961730944
 20
145.6250689399272
 30
0.0
 40
0.500008849895925
100
AcDbArc
 50
348.6864043304874
 51
90.00083129614585
  0
LINE
  5
5FD9
330
1A
100
AcDbEntity
  8
NOKITOI
  6
PHANTOM
 62
     8
100
AcDbLine
 10
280.5054544763885
 20
140.6534777897705
 30
0.0
 11
281.0604544763888
 21
141.2664777897706
 31
0.0
  0
LINE
  5
5FDA
330
1A
100
AcDbEntity
  8
NOKITOI
  6
PHANTOM
 62
     8
100
AcDbLine
 10
281.8592544763884
 20
143.6250777897706
 30
0.0
 11
279.6277544763885
 21
143.6250777897706
 31
0.0
  0
ARC
  5
5FDB
330
1A
100
AcDbEntity
  8
NOKITOI
  6
PHANTOM
 62
     8
100
AcDbCircle
 10
279.627755259397
 20
144.1250768347689
 30
0.0
 40
0.4999990449987399
100
AcDbArc
 50
168.6967198015449
 51
269.9999102736965
  0
LINE
  5
5FDC
330
1A
100
AcDbEntity
  8
NOKITOI
  6
PHANTOM
 62
     8
100
AcDbLine
 10
279.4948544763884
 20
141.3250777897707
 30
0.0
 11
279.0328544763884
 21
141.3250777897707
 31
0.0
  0
LINE
  5
5FDD
330
1A
100
AcDbEntity
  8
NOKITOI
  6
PHANTOM
 62
     8
100
AcDbLine
 10
279.4948544763884
 20
141.3250777897707
 30
0.0
 11
280.4906544763886
 21
142.4250777897708
 31
0.0
  0
ARC
  5
5FDE
330
1A
100
AcDbEntity
  8
NOKITOI
  6
PHANTOM
 62
     8
100
AcDbCircle
 10
281.8592507668932
 20
143.1250816998014
 30
0.0
 40
0.4999960899831856
100
AcDbArc
 50
356.9843782585352
 51
89.99957491985082
  0
LINE
  5
5FDF
330
1A
100
AcDbEntity
  8
NOKITOI
  6
PHANTOM
 62
     8
100
AcDbLine
 10
279.1374544763886
 20
144.2230777897708
 30
0.0
 11
279.3982544763886
 21
145.5270777897707
 31
0.0
  0
LINE
  5
5FE0
330
1A
100
AcDbEntity
  8
NOKITOI
  6
PHANTOM
 62
     8
100
AcDbLine
 10
277.5540544763886
 20
142.4250777897708
 30
0.0
 11
280.4906544763886
 21
142.4250777897708
 31
0.0
  0
ARC
  5
5FE2
330
1A
100
AcDbEntity
  8
NOKITOI
  6
PHANTOM
 62
     8
100
AcDbCircle
 10
275.5813105100356
 20
144.1250324272977
 30
0.0
 40
0.7999453636812564
100
AcDbArc
 50
89.99685092684577
 51
181.7876563552118
  0
ARC
  5
5FE3
330
1A
100
AcDbEntity
  8
NOKITOI
  6
PHANTOM
 62
     8
100
AcDbCircle
 10
275.5813657133827
 20
144.1250893835878
 30
0.0
 40
1.999988406214315
100
AcDbArc
 50
90.00032191804612
 51
181.7911273464062
  0
LEADER
  5
6451
330
1A
100
AcDbEntity
  8
SUNPOU
  6
CONTINUOUS
100
AcDbLeader
  3
STANDARD
 76
     3
 10
513.2553690195452
 20
314.9608172614219
 30
0.0
 10
492.1571017754293
 20
334.523622194932
 30
0.0
 10
455.5157112266654
 20
334.6429631150649
 30
0.0
1001
ACAD
1000
DSTYLE
1002
{
1070
     6
1000
OPEN
1070
    41
1040
3.0
1070
    42
1040
3.0
1070
    43
1040
7.0
1070
    44
1040
1.5
1070
    73
1070
     0
1070
    74
1070
     0
1070
    77
1070
     3
1070
   140
1040
3.0
1070
   141
1040
3.0
1070
   147
1040
1.0
1070
   172
1070
     1
1070
   173
1070
     1
1070
   176
1070
   256
1070
   177
1070
   256
1070
   178
1070
   256
1070
   271
1070
     0
1070
   272
1070
     0
1070
   341
1005
6D
1070
   343
1005
6D
1070
   344
1005
6D
1002
}
  0
LEADER
  5
6452
330
1A
100
AcDbEntity
  8
SUNPOU
  6
CONTINUOUS
100
AcDbLeader
  3
STANDARD
 76
     3
 10
556.2069384728934
 20
306.3598665461576
 30
0.0
 10
582.0473939508483
 20
347.3570561369379
 30
0.0
 10
618.7573289585734
 20
347.3570561369379
 30
0.0
1001
ACAD
1000
DSTYLE
1002
{
1070
     6
1000
OPEN
1070
    41
1040
3.0
1070
    42
1040
3.0
1070
    43
1040
7.0
1070
    44
1040
1.5
1070
    73
1070
     0
1070
    74
1070
     0
1070
    77
1070
     3
1070
   140
1040
3.0
1070
   141
1040
3.0
1070
   147
1040
1.0
1070
   172
1070
     1
1070
   173
1070
     1
1070
   176
1070
   256
1070
   177
1070
   256
1070
   178
1070
   256
1070
   271
1070
     0
1070
   272
1070
     0
1070
   341
1005
6D
1070
   343
1005
6D
1070
   344
1005
6D
1002
}
  0
ARC
  5
6454
330
1A
100
AcDbEntity
  8
SEIHIN
  6
CONTINUOUS
100
AcDbCircle
 10
396.5796369160688
 20
319.9602318964697
 30
0.0
 40
6.779344165120991
100
AcDbArc
 50
8.511707040104775
 51
101.3297409885064
  0
LINE
  5
6457
330
1A
100
AcDbEntity
  8
CENTER_L
  6
CENTER
100
AcDbLine
 10
408.8334932498531
 20
435.298256932678
 30
0.0
 11
272.7873922498532
 21
435.298256932678
 31
0.0
  0
LINE
  5
6458
330
1A
100
AcDbEntity
  8
CENTER_L
  6
CENTER
 62
     1
100
AcDbLine
 10
397.6334932498531
 20
453.950118932678
 30
0.0
 11
408.8334932498531
 21
453.950118932678
 31
0.0
  0
LINE
  5
6459
330
1A
100
AcDbEntity
  8
CENTER_L
  6
CENTER
 62
     1
100
AcDbLine
 10
397.6334932498531
 20
416.646391932678
 30
0.0
 11
408.8334932498531
 21
416.646391932678
 31
0.0
  0
LINE
  5
645A
330
1A
100
AcDbEntity
  8
CENTER_L
  6
CENTER
 62
     1
100
AcDbLine
 10
397.6334932498531
 20
415.146391932678
 30
0.0
 11
408.8334932498531
 21
415.146391932678
 31
0.0
  0
LINE
  5
645B
330
1A
100
AcDbEntity
  8
CENTER_L
  6
CENTER
 62
     1
100
AcDbLine
 10
397.6334932498531
 20
455.450118932678
 30
0.0
 11
408.8334932498531
 21
455.450118932678
 31
0.0
  0
LINE
  5
645C
330
1A
100
AcDbEntity
  8
CENTER_L
  6
CENTER
100
AcDbLine
 10
406.2843109531607
 20
288.2422197281769
 30
0.0
 11
394.5843109531607
 21
288.2422197281769
 31
0.0
  0
LINE
  5
645D
330
1A
100
AcDbEntity
  8
CENTER_L
  6
CENTER
100
AcDbLine
 10
406.2843109531607
 20
313.242219728177
 30
0.0
 11
394.5843109531607
 21
313.242219728177
 31
0.0
  0
LINE
  5
645E
330
1A
100
AcDbEntity
  8
CENTER_L
  6
CENTER
100
AcDbLine
 10
406.2843109531607
 20
304.7422197281769
 30
0.0
 11
394.5843109531607
 21
304.7422197281769
 31
0.0
  0
LINE
  5
645F
330
1A
100
AcDbEntity
  8
SEIHIN
  6
CONTINUOUS
 62
     3
100
AcDbLine
 10
402.6334932498531
 20
460.950118932678
 30
0.0
 11
403.8334932498531
 21
460.950118932678
 31
0.0
  0
ARC
  5
6460
330
1A
100
AcDbEntity
  8
SEIHIN
  6
CONTINUOUS
 62
     3
100
AcDbCircle
 10
402.1334932498531
 20
445.756717932678
 30
0.0
 40
1.700000040122499
100
AcDbArc
 50
278.7461491942068
 51
359.9999946189175
  0
ARC
  5
6461
330
1A
100
AcDbEntity
  8
SEIHIN
  6
CONTINUOUS
 62
     3
100
AcDbCircle
 10
402.8334932498531
 20
439.298256932678
 30
0.0
 40
1.000000000002249
100
AcDbArc
 50
0.0000031708051873
 51
90.00017505814657
  0
ARC
  5
6462
330
1A
100
AcDbEntity
  8
SEIHIN
  6
CONTINUOUS
 62
     3
100
AcDbCircle
 10
402.1334932498531
 20
424.819156932678
 30
0.0
 40
1.700000158763073
100
AcDbArc
 50
0.0000066132446039
 51
81.02579079286206
  0
ARC
  5
6463
330
1A
100
AcDbEntity
  8
SEIHIN
  6
CONTINUOUS
 62
     3
100
AcDbCircle
 10
402.8334932498531
 20
431.298256932678
 30
0.0
 40
1.000000000002249
100
AcDbArc
 50
270.0001718873445
 51
0.0
  0
LINE
  5
6464
330
1A
100
AcDbEntity
  8
SEIHIN
  6
CONTINUOUS
 62
     3
100
AcDbLine
 10
402.6334932498531
 20
409.646391932678
 30
0.0
 11
403.8334932498531
 21
409.646391932678
 31
0.0
  0
LINE
  5
6465
330
1A
100
AcDbEntity
  8
SEIHIN
  6
CONTINUOUS
 62
     3
100
AcDbLine
 10
397.5843109531607
 20
318.7422197281769
 30
0.0
 11
403.2843109531608
 21
318.7422197281769
 31
0.0
  0
ARC
  5
6466
330
1A
100
AcDbEntity
  8
SEIHIN
  6
CONTINUOUS
 62
     3
100
AcDbCircle
 10
396.7843109531608
 20
319.7421357281769
 30
0.0
 40
5.000000094090248
100
AcDbArc
 50
0.0000000470001506
 51
111.3706246361847
  0
LINE
  5
6467
330
1A
100
AcDbEntity
  8
SEIHIN
  6
CONTINUOUS
 62
     3
100
AcDbLine
 10
397.5843109531607
 20
282.7422197281769
 30
0.0
 11
403.2843109531608
 21
282.7422197281769
 31
0.0
  0
ARC
  5
6471
330
1A
100
AcDbEntity
  8
SEIHIN
  6
CONTINUOUS
 62
     3
100
AcDbCircle
 10
337.9447939531607
 20
308.4617827281769
 30
0.0
 40
1.000000089458491
100
AcDbArc
 50
97.76515569653575
 51
160.5885380977532
  0
ARC
  5
6472
330
1A
100
AcDbEntity
  8
SEIHIN
  6
CONTINUOUS
 62
     3
100
AcDbCircle
 10
338.6930399531607
 20
307.5545617281769
 30
0.0
 40
7.500000197431461
100
AcDbArc
 50
97.76515569653575
 51
160.5599559187036
  0
ARC
  5
6473
330
1A
100
AcDbEntity
  8
SEIHIN
  6
CONTINUOUS
 62
     3
100
AcDbCircle
 10
338.6930399531607
 20
307.5545617281769
 30
0.0
 40
4.999999758966238
100
AcDbArc
 50
97.76515569653575
 51
160.5599558232783
  0
LINE
  5
6474
330
1A
100
AcDbEntity
  8
SEIHIN
  6
CONTINUOUS
 62
     3
100
AcDbLine
 10
314.5343689531606
 20
286.5043907281769
 30
0.0
 11
351.6368959531606
 21
286.5043907281769
 31
0.0
  0
LINE
  5
6475
330
1A
100
AcDbEntity
  8
SEIHIN
  6
CONTINUOUS
 62
     3
100
AcDbLine
 10
314.5343859531607
 20
291.5043907281769
 30
0.0
 11
351.6368959531606
 21
291.5043907281769
 31
0.0
  0
LINE
  5
6476
330
1A
100
AcDbEntity
  8
SEIHIN
  6
CONTINUOUS
 62
     3
100
AcDbLine
 10
296.7843109531608
 20
297.0043977281769
 30
0.0
 11
296.7843109531608
 21
289.8044327281769
 31
0.0
  0
LINE
  5
6477
330
1A
100
AcDbEntity
  8
SEIHIN
  6
CONTINUOUS
 62
     3
100
AcDbLine
 10
293.7843109531608
 20
289.8044327281769
 30
0.0
 11
293.7843109531608
 21
297.0043977281769
 31
0.0
  0
LINE
  5
6478
330
1A
100
AcDbEntity
  8
SEIHIN
  6
CONTINUOUS
 62
     3
100
AcDbLine
 10
293.5343109531607
 20
297.3044297281769
 30
0.0
 11
293.5343109531607
 21
289.8044297281769
 31
0.0
  0
LINE
  5
6479
330
1A
100
AcDbEntity
  8
SEIHIN
  6
CONTINUOUS
 62
     3
100
AcDbLine
 10
297.0343109531608
 20
297.3044327281769
 30
0.0
 11
297.0343109531608
 21
289.8044327281769
 31
0.0
  0
ARC
  5
647A
330
1A
100
AcDbEntity
  8
SEIHIN
  6
CONTINUOUS
 62
     3
100
AcDbCircle
 10
325.5597359531606
 20
295.0942667281769
 30
0.0
 40
40.79999412073524
100
AcDbArc
 50
184.5832787066585
 51
190.393305853126
  0
LINE
  5
647B
330
1A
100
AcDbEntity
  8
SEIHIN
  6
CONTINUOUS
 62
     3
100
AcDbLine
 10
291.5343609531607
 20
284.5044737281769
 30
0.0
 11
291.5344109531607
 21
298.5044307281769
 31
0.0
  0
LINE
  5
647C
330
1A
100
AcDbEntity
  8
SEIHIN
  6
CONTINUOUS
 62
     3
100
AcDbLine
 10
314.5343609531606
 20
284.5044737281769
 30
0.0
 11
314.5344109531607
 21
298.5044327281769
 31
0.0
  0
LINE
  5
647D
330
1A
100
AcDbEntity
  8
SEIHIN
  6
CONTINUOUS
 62
     3
100
AcDbLine
 10
291.5343609531607
 20
284.5044737281769
 30
0.0
 11
314.5343609531606
 21
284.5044737281769
 31
0.0
  0
LINE
  5
647E
330
1A
100
AcDbEntity
  8
SEIHIN
  6
CONTINUOUS
 62
     3
100
AcDbLine
 10
286.9045529531607
 20
286.5043907281769
 30
0.0
 11
291.5343689531606
 21
286.5043907281769
 31
0.0
  0
ARC
  5
647F
330
1A
100
AcDbEntity
  8
SEIHIN
  6
CONTINUOUS
 62
     3
100
AcDbCircle
 10
286.9045529531607
 20
288.0043907281769
 30
0.0
 40
1.500000051426164
100
AcDbArc
 50
190.3932883742413
 51
269.9999965545381
  0
LINE
  5
6480
330
1A
100
AcDbEntity
  8
SEIHIN
  6
CONTINUOUS
 62
     3
100
AcDbLine
 10
293.5343109531607
 20
289.8044297281769
 30
0.0
 11
297.0343109531608
 21
289.8044327281769
 31
0.0
  0
LINE
  5
6481
330
1A
100
AcDbEntity
  8
SEIHIN
  6
CONTINUOUS
 62
     3
100
AcDbLine
 10
312.8376319531606
 20
303.8510777281769
 30
0.0
 11
297.2763499531607
 21
303.8510567281769
 31
0.0
  0
ARC
  5
6482
330
1A
100
AcDbEntity
  8
SEIHIN
  6
CONTINUOUS
 62
     3
100
AcDbCircle
 10
303.0344129531607
 20
287.7795627281769
 30
0.0
 40
15.72491078112709
100
AcDbArc
 50
43.00252833503147
 51
136.9974830730985
  0
CIRCLE
  5
6483
330
1A
100
AcDbEntity
  8
SEIHIN
  6
CONTINUOUS
 62
     3
100
AcDbCircle
 10
303.0344309531607
 20
298.5044327281769
 30
0.0
 40
2.149999999999999
  0
LINE
  5
6484
330
1A
100
AcDbEntity
  8
SEIHIN
  6
CONTINUOUS
 62
     3
100
AcDbLine
 10
297.0342859531607
 20
292.5044737281769
 30
0.0
 11
314.5343609531606
 21
292.5044737281769
 31
0.0
  0
LINE
  5
6485
330
1A
100
AcDbEntity
  8
SEIHIN
  6
CONTINUOUS
 62
     3
100
AcDbLine
 10
285.4678109531606
 20
291.5043907281769
 30
0.0
 11
291.5343859531607
 21
291.5043907281769
 31
0.0
  0
LINE
  5
6486
330
1A
100
AcDbEntity
  8
SEIHIN
  6
CONTINUOUS
 62
     3
100
AcDbLine
 10
284.3918079531608
 20
293.2940757281769
 30
0.0
 11
279.2385199531608
 21
293.2940757281769
 31
0.0
  0
LINE
  5
6487
330
1A
100
AcDbEntity
  8
SEIHIN
  6
CONTINUOUS
 62
     3
100
AcDbLine
 10
279.2385199531608
 20
292.2940757281769
 30
0.0
 11
284.3918079531608
 21
292.2940757281769
 31
0.0
  0
LINE
  5
6488
330
1A
100
AcDbEntity
  8
SEIHIN
  6
CONTINUOUS
 62
     3
100
AcDbLine
 10
278.3116029531607
 20
295.2619667281769
 30
0.0
 11
280.2794929531606
 21
293.2940757281769
 31
0.0
  0
LINE
  5
6489
330
1A
100
AcDbEntity
  8
SEIHIN
  6
CONTINUOUS
 62
     3
100
AcDbLine
 10
278.2416029531606
 20
294.3725347281769
 30
0.0
 11
278.7019209531607
 21
300.2214287281769
 31
0.0
  0
LINE
  5
648A
330
1A
100
AcDbEntity
  8
SEIHIN
  6
CONTINUOUS
 62
     3
100
AcDbLine
 10
277.2446859531606
 20
294.4509937281769
 30
0.0
 11
277.7050029531607
 21
300.2998877281769
 31
0.0
  0
ARC
  5
648B
330
1A
100
AcDbEntity
  8
SEIHIN
  6
CONTINUOUS
 62
     3
100
AcDbCircle
 10
279.2385199531608
 20
294.2940757281769
 30
0.0
 40
2.000000158243612
100
AcDbArc
 50
175.5000039676397
 51
269.9999977523173
  0
ARC
  5
648C
330
1A
100
AcDbEntity
  8
SEIHIN
  6
CONTINUOUS
 62
     3
100
AcDbCircle
 10
279.2385199531608
 20
294.2940757281769
 30
0.0
 40
0.999999829892471
100
AcDbArc
 50
175.500003967638
 51
270.0
  0
LINE
  5
648D
330
1A
100
AcDbEntity
  8
SEIHIN
  6
CONTINUOUS
 62
     3
100
AcDbLine
 10
278.7019209531607
 20
300.2214287281769
 30
0.0
 11
277.7050029531607
 21
300.2998877281769
 31
0.0
  0
LINE
  5
648E
330
1A
100
AcDbEntity
  8
SEIHIN
  6
CONTINUOUS
 62
     3
100
AcDbLine
 10
280.9795439531607
 20
293.2940757281769
 30
0.0
 11
280.9795439531607
 21
292.2940757281769
 31
0.0
  0
LINE
  5
648F
330
1A
100
AcDbEntity
  8
SEIHIN
  6
CONTINUOUS
 62
     3
100
AcDbLine
 10
283.8415159531606
 20
293.2940757281769
 30
0.0
 11
283.8415159531606
 21
292.2940757281769
 31
0.0
  0
ARC
  5
6490
330
1A
100
AcDbEntity
  8
SEIHIN
  6
CONTINUOUS
 62
     3
100
AcDbCircle
 10
284.3918079531608
 20
291.7940757281769
 30
0.0
 40
0.4999999394584927
100
AcDbArc
 50
4.583221594082194
 51
89.99994288741406
  0
ARC
  5
6491
330
1A
100
AcDbEntity
  8
SEIHIN
  6
CONTINUOUS
 62
     3
100
AcDbCircle
 10
325.5597359531606
 20
295.0942667281769
 30
0.0
 40
39.79999425007106
100
AcDbArc
 50
184.5832787066585
 51
185.1750064315931
  0
ARC
  5
6492
330
1A
100
AcDbEntity
  8
SEIHIN
  6
CONTINUOUS
 62
     3
100
AcDbCircle
 10
285.4678109531606
 20
291.0043907281769
 30
0.0
 40
0.4999997593863843
100
AcDbArc
 50
89.99999418527593
 51
185.824747198533
  0
ARC
  5
6493
330
1A
100
AcDbEntity
  8
SEIHIN
  6
CONTINUOUS
 62
     3
100
AcDbCircle
 10
284.3918079531608
 20
291.7940757281769
 30
0.0
 40
1.499999818375477
100
AcDbArc
 50
4.583278706660171
 51
90.0
  0
LINE
  5
6494
330
1A
100
AcDbEntity
  8
SEIHIN
  6
CONTINUOUS
 62
     3
100
AcDbLine
 10
293.5343109531607
 20
297.3044297281769
 30
0.0
 11
297.0343109531608
 21
297.3044327281769
 31
0.0
  0
LINE
  5
6495
330
1A
100
AcDbEntity
  8
SEIHIN
  6
CONTINUOUS
 62
     3
100
AcDbLine
 10
296.7843109531608
 20
297.0043977281769
 30
0.0
 11
293.7843109531608
 21
297.0043977281769
 31
0.0
  0
LINE
  5
6496
330
1A
100
AcDbEntity
  8
SEIHIN
  6
CONTINUOUS
 62
     3
100
AcDbLine
 10
291.5343609531607
 20
292.5044737281769
 30
0.0
 11
293.5342859531607
 21
292.5044737281769
 31
0.0
  0
LINE
  5
6497
330
1A
100
AcDbEntity
  8
SEIHIN
  6
CONTINUOUS
 62
     3
100
AcDbLine
 10
298.2543829531606
 20
302.8510737281769
 30
0.0
 11
297.2763569531606
 21
302.8510727281769
 31
0.0
  0
LINE
  5
6498
330
1A
100
AcDbEntity
  8
SEIHIN
  6
CONTINUOUS
 62
     3
100
AcDbLine
 10
297.2763569531606
 20
302.8510727281769
 30
0.0
 11
297.2763499531607
 21
303.8510567281769
 31
0.0
  0
LINE
  5
6499
330
1A
100
AcDbEntity
  8
SEIHIN
  6
CONTINUOUS
 62
     3
100
AcDbLine
 10
335.5808209531606
 20
322.7736157281769
 30
0.0
 11
327.4197739531606
 21
299.6506507281769
 31
0.0
  0
LINE
  5
649A
330
1A
100
AcDbEntity
  8
SEIHIN
  6
CONTINUOUS
 62
     3
100
AcDbLine
 10
334.6378299531608
 20
323.1064357281769
 30
0.0
 11
326.5335819531607
 21
300.1444007281769
 31
0.0
  0
LINE
  5
649B
330
1A
100
AcDbEntity
  8
SEIHIN
  6
CONTINUOUS
 62
     3
100
AcDbLine
 10
331.4133469531606
 20
315.4727147281769
 30
0.0
 11
326.0620869531607
 21
300.3108107281769
 31
0.0
  0
LINE
  5
649C
330
1A
100
AcDbEntity
  8
SEIHIN
  6
CONTINUOUS
 62
     3
100
AcDbLine
 10
323.3540979531607
 20
299.2041107281769
 30
0.0
 11
313.6751249531606
 21
303.6672857281769
 31
0.0
  0
LINE
  5
649D
330
1A
100
AcDbEntity
  8
SEIHIN
  6
CONTINUOUS
 62
     3
100
AcDbLine
 10
324.5908019531606
 20
297.6491107281769
 30
0.0
 11
314.5077969531606
 21
297.6491127281769
 31
0.0
  0
ARC
  5
649E
330
1A
100
AcDbEntity
  8
SEIHIN
  6
CONTINUOUS
 62
     3
100
AcDbCircle
 10
312.8376349531607
 20
301.8510777281769
 30
0.0
 40
1.999999844935612
100
AcDbArc
 50
65.2446238788498
 51
90.00010203811193
  0
LINE
  5
649F
330
1A
100
AcDbEntity
  8
SEIHIN
  6
CONTINUOUS
 62
     3
100
AcDbLine
 10
333.9780879531607
 20
309.2186627281769
 30
0.0
 11
327.7259919531605
 21
291.5043907281769
 31
0.0
  0
LINE
  5
64A0
330
1A
100
AcDbEntity
  8
SEIHIN
  6
CONTINUOUS
 62
     3
100
AcDbLine
 10
337.0016379531606
 20
308.7941327281769
 30
0.0
 11
330.9090619531606
 21
291.5043907281769
 31
0.0
  0
LINE
  5
64A1
330
1A
100
AcDbEntity
  8
SEIHIN
  6
CONTINUOUS
 62
     3
100
AcDbLine
 10
331.6206119531606
 20
310.0507127281769
 30
0.0
 11
325.0748509531607
 21
291.5043907281769
 31
0.0
  0
ARC
  5
64A2
330
1A
100
AcDbEntity
  8
SEIHIN
  6
CONTINUOUS
 62
     3
100
AcDbCircle
 10
324.5908029531607
 20
300.6491107281769
 30
0.0
 40
2.999999940870082
100
AcDbArc
 50
269.9999883784531
 51
340.5599599066715
  0
ARC
  5
64A3
330
1A
100
AcDbEntity
  8
SEIHIN
  6
CONTINUOUS
 62
     3
100
AcDbCircle
 10
324.6476019531606
 20
300.8100407281769
 30
0.0
 40
2.00000009820312
100
AcDbArc
 50
245.2446238788497
 51
340.559982172083
  0
ARC
  5
64A4
330
1A
100
AcDbEntity
  8
SEIHIN
  6
CONTINUOUS
 62
     3
100
AcDbCircle
 10
324.1915889531607
 20
301.0203177281769
 30
0.0
 40
2.00000009820312
100
AcDbArc
 50
245.2446238788497
 51
340.559982172083
  0
ARC
  5
64A5
330
1A
100
AcDbEntity
  8
SEIHIN
  6
CONTINUOUS
 62
     3
100
AcDbCircle
 10
331.8848429531607
 20
315.3063047281769
 30
0.0
 40
0.5
100
AcDbArc
 50
70.55996517182001
 51
160.5599651718251
  0
LINE
  5
64A6
330
1A
100
AcDbEntity
  8
SEIHIN
  6
CONTINUOUS
 62
     3
100
AcDbLine
 10
335.5808209531606
 20
322.7736157281769
 30
0.0
 11
334.6378299531608
 21
323.1064357281769
 31
0.0
  0
ARC
  5
64A7
330
1A
100
AcDbEntity
  8
SEIHIN
  6
CONTINUOUS
 62
     3
100
AcDbCircle
 10
393.6637349531607
 20
290.7182117281769
 30
0.0
 40
0.5000000368764974
100
AcDbArc
 50
264.5000418284121
 51
358.2104732561619
  0
LINE
  5
64A8
330
1A
100
AcDbEntity
  8
SEIHIN
  6
CONTINUOUS
 62
     3
100
AcDbLine
 10
393.6158119531607
 20
290.2205137281768
 30
0.0
 11
386.5040049531606
 21
290.9052947281769
 31
0.0
  0
LINE
  5
64A9
330
1A
100
AcDbEntity
  8
SEIHIN
  6
CONTINUOUS
 62
     3
100
AcDbLine
 10
386.3123149531606
 20
288.9145027281769
 30
0.0
 11
386.5040049531606
 21
290.9052947281769
 31
0.0
  0
ARC
  5
64AA
330
1A
100
AcDbEntity
  8
SEIHIN
  6
CONTINUOUS
 62
     3
100
AcDbCircle
 10
393.6637349531607
 20
290.7182117281769
 30
0.0
 40
2.50000021673958
100
AcDbArc
 50
264.500041828399
 51
358.2104961264324
  0
ARC
  5
64AB
330
1A
100
AcDbEntity
  8
SEIHIN
  6
CONTINUOUS
 62
     3
100
AcDbCircle
 10
351.6368959531606
 20
286.0043907281769
 30
0.0
 40
5.499999922058408
100
AcDbArc
 50
50.19443624371243
 51
90.00000600216448
  0
LINE
  5
64AC
330
1A
100
AcDbEntity
  8
SEIHIN
  6
CONTINUOUS
 62
     3
100
AcDbLine
 10
397.5843109531607
 20
282.7422197281769
 30
0.0
 11
397.5843109531607
 21
318.7422197281769
 31
0.0
  0
LINE
  5
64AD
330
1A
100
AcDbEntity
  8
SEIHIN
  6
CONTINUOUS
 62
     3
100
AcDbLine
 10
402.0843109531607
 20
318.7422197281769
 30
0.0
 11
402.0843109531607
 21
282.7422197281769
 31
0.0
  0
LINE
  5
64AE
330
1A
100
AcDbEntity
  8
SEIHIN
  6
CONTINUOUS
 62
     3
100
AcDbLine
 10
374.0801079531607
 20
306.1243167281769
 30
0.0
 11
367.4846019531607
 21
287.4073397281769
 31
0.0
  0
LINE
  5
64AF
330
1A
100
AcDbEntity
  8
SEIHIN
  6
CONTINUOUS
 62
     3
100
AcDbLine
 10
372.1937959531607
 20
306.7890177281769
 30
0.0
 11
365.5982899531605
 21
288.0720407281769
 31
0.0
  0
LINE
  5
64B0
330
1A
100
AcDbEntity
  8
SEIHIN
  6
CONTINUOUS
 62
     3
100
AcDbLine
 10
365.1990259531606
 20
285.4043907281769
 30
0.0
 11
380.2912189531606
 21
285.4043907281769
 31
0.0
  0
LINE
  5
64B1
330
1A
100
AcDbEntity
  8
SEIHIN
  6
CONTINUOUS
 62
     3
100
AcDbLine
 10
365.1990259531606
 20
285.0043907281769
 30
0.0
 11
381.3879949531607
 21
285.0043907281769
 31
0.0
  0
LINE
  5
64B2
330
1A
100
AcDbEntity
  8
SEIHIN
  6
CONTINUOUS
 62
     3
100
AcDbLine
 10
351.9569879531605
 20
286.3885017281769
 30
0.0
 11
354.4007189531606
 21
284.3520587281769
 31
0.0
  0
ARC
  5
64B3
330
1A
100
AcDbEntity
  8
SEIHIN
  6
CONTINUOUS
 62
     3
100
AcDbCircle
 10
351.6368959531606
 20
286.0043907281769
 30
0.0
 40
0.500000074392489
100
AcDbArc
 50
50.19443624372056
 51
89.99996332013925
  0
LINE
  5
64B4
330
1A
100
AcDbEntity
  8
SEIHIN
  6
CONTINUOUS
 62
     3
100
AcDbLine
 10
355.3609959531608
 20
284.0043907281769
 30
0.0
 11
365.1990259531606
 21
284.0043907281769
 31
0.0
  0
LINE
  5
64B5
330
1A
100
AcDbEntity
  8
SEIHIN
  6
CONTINUOUS
 62
     3
100
AcDbLine
 10
357.8115049531605
 20
283.0043907281769
 30
0.0
 11
362.8115049531605
 21
283.0043907281769
 31
0.0
  0
ARC
  5
64B6
330
1A
100
AcDbEntity
  8
SEIHIN
  6
CONTINUOUS
 62
     3
100
AcDbCircle
 10
361.1990259531606
 20
285.0043907281769
 30
0.0
 40
4.0
100
AcDbArc
 50
0.0
 51
90.0
  0
ARC
  5
64B7
330
1A
100
AcDbEntity
  8
SEIHIN
  6
CONTINUOUS
 62
     3
100
AcDbCircle
 10
357.8115049531605
 20
283.5043907281769
 30
0.0
 40
0.5
100
AcDbArc
 50
180.0000000235017
 51
270.0000000235017
  0
LINE
  5
64B8
330
1A
100
AcDbEntity
  8
SEIHIN
  6
CONTINUOUS
 62
     3
100
AcDbLine
 10
357.3115049531605
 20
284.0043907281769
 30
0.0
 11
357.3115049531605
 21
283.5043907281769
 31
0.0
  0
ARC
  5
64B9
330
1A
100
AcDbEntity
  8
SEIHIN
  6
CONTINUOUS
 62
     3
100
AcDbCircle
 10
355.3609959531608
 20
285.5043907281769
 30
0.0
 40
1.500000159158816
100
AcDbArc
 50
230.1944362437124
 51
270.0000171172718
  0
LINE
  5
64BA
330
1A
100
AcDbEntity
  8
SEIHIN
  6
CONTINUOUS
 62
     3
100
AcDbLine
 10
356.6281699531606
 20
289.0043907281769
 30
0.0
 11
361.1990259531606
 21
289.0043907281769
 31
0.0
  0
LINE
  5
64BB
330
1A
100
AcDbEntity
  8
SEIHIN
  6
CONTINUOUS
 62
     3
100
AcDbLine
 10
355.1579099531605
 20
290.2296077281769
 30
0.0
 11
356.6281699531606
 21
289.0043907281769
 31
0.0
  0
LINE
  5
64BC
330
1A
100
AcDbEntity
  8
SEIHIN
  6
CONTINUOUS
 62
     3
100
AcDbLine
 10
365.1990259531606
 20
285.0043907281769
 30
0.0
 11
365.1990259531606
 21
284.0043907281769
 31
0.0
  0
LINE
  5
64BD
330
1A
100
AcDbEntity
  8
SEIHIN
  6
CONTINUOUS
 62
     3
100
AcDbLine
 10
368.2336989531608
 20
285.0043907281769
 30
0.0
 11
368.2336989531608
 21
284.0043907281769
 31
0.0
  0
LINE
  5
64BE
330
1A
100
AcDbEntity
  8
SEIHIN
  6
CONTINUOUS
 62
     3
100
AcDbLine
 10
368.2336989531608
 20
284.0043907281769
 30
0.0
 11
365.1990259531606
 21
284.0043907281769
 31
0.0
  0
ARC
  5
64BF
330
1A
100
AcDbEntity
  8
SEIHIN
  6
CONTINUOUS
 62
     3
100
AcDbCircle
 10
362.8115049531605
 20
283.5043907281769
 30
0.0
 40
0.5
100
AcDbArc
 50
270.0000000352525
 51
0.0000000352525556
  0
LINE
  5
64C0
330
1A
100
AcDbEntity
  8
SEIHIN
  6
CONTINUOUS
 62
     3
100
AcDbLine
 10
363.3115049531606
 20
284.0043907281769
 30
0.0
 11
363.3115049531606
 21
283.5043907281769
 31
0.0
  0
ARC
  5
64C1
330
1A
100
AcDbEntity
  8
SEIHIN
  6
CONTINUOUS
 62
     3
100
AcDbCircle
 10
364.6551339531607
 20
288.4043907281768
 30
0.0
 40
3.00000013857666
100
AcDbArc
 50
279.962986694496
 51
340.5885311066116
  0
LINE
  5
64C2
330
1A
100
AcDbEntity
  8
SEIHIN
  6
CONTINUOUS
 62
     3
100
AcDbLine
 10
364.6551339531607
 20
287.4043907281769
 30
0.0
 11
364.3990259531607
 21
287.4043907281769
 31
0.0
  0
ARC
  5
64C3
330
1A
100
AcDbEntity
  8
SEIHIN
  6
CONTINUOUS
 62
     3
100
AcDbCircle
 10
364.6551339531607
 20
288.4043907281768
 30
0.0
 40
0.9999999407089966
100
AcDbArc
 50
270.0000000354349
 51
340.5885244991836
  0
LINE
  5
64C4
330
1A
100
AcDbEntity
  8
SEIHIN
  6
CONTINUOUS
 62
     3
100
AcDbLine
 10
393.4241229531607
 20
288.2297217281769
 30
0.0
 11
386.3123149531606
 21
288.9145027281769
 31
0.0
  0
ARC
  5
64C5
330
1A
100
AcDbEntity
  8
SEIHIN
  6
CONTINUOUS
 62
     3
100
AcDbCircle
 10
381.3879949531607
 20
286.4043907281768
 30
0.0
 40
1.399999999999999
100
AcDbArc
 50
270.0000000882616
 51
0.0000000882616646
  0
LINE
  5
64C6
330
1A
100
AcDbEntity
  8
SEIHIN
  6
CONTINUOUS
 62
     3
100
AcDbLine
 10
381.2091279531606
 20
290.0043907281769
 30
0.0
 11
382.7879949531606
 21
290.0043907281769
 31
0.0
  0
ARC
  5
64C7
330
1A
100
AcDbEntity
  8
SEIHIN
  6
CONTINUOUS
 62
     3
100
AcDbCircle
 10
381.2091289531607
 20
289.6973307281769
 30
0.0
 40
0.3070597682291614
100
AcDbArc
 50
90.00000001175086
 51
152.0077599357396
  0
ARC
  5
64C8
330
1A
100
AcDbEntity
  8
SEIHIN
  6
CONTINUOUS
 62
     3
100
AcDbCircle
 10
382.1365159531607
 20
289.2043907281769
 30
0.0
 40
1.357314988733639
100
AcDbArc
 50
152.0077035626143
 51
179.9999691711857
  0
ARC
  5
64C9
330
1A
100
AcDbEntity
  8
SEIHIN
  6
CONTINUOUS
 62
     3
100
AcDbCircle
 10
379.5596959531607
 20
286.4043907281768
 30
0.0
 40
1.219504113536517
100
AcDbArc
 50
333.4919866321927
 51
0.0000129482842068
  0
ARC
  5
64CA
330
1A
100
AcDbEntity
  8
SEIHIN
  6
CONTINUOUS
 62
     3
100
AcDbCircle
 10
379.3787999531606
 20
286.4946137281769
 30
0.0
 40
1.421652073219743
100
AcDbArc
 50
309.9262992300511
 51
333.4919521171921
  0
LINE
  5
64CB
330
1A
100
AcDbEntity
  8
SEIHIN
  6
CONTINUOUS
 62
     3
100
AcDbLine
 10
380.7791999531606
 20
286.4043907281768
 30
0.0
 11
380.7791999531606
 21
289.2043907281769
 31
0.0
  0
LINE
  5
64CC
330
1A
100
AcDbEntity
  8
SEIHIN
  6
CONTINUOUS
 62
     3
100
AcDbLine
 10
382.7879949531606
 20
290.0043907281769
 30
0.0
 11
382.7879949531606
 21
286.4043907281768
 31
0.0
  0
LINE
  5
64CD
330
1A
100
AcDbEntity
  8
SEIHIN
  6
CONTINUOUS
 62
     3
100
AcDbLine
 10
388.5040049531606
 20
274.1334337281769
 30
0.0
 11
388.5040049531606
 21
287.6025567281769
 31
0.0
  0
LINE
  5
64CE
330
1A
100
AcDbEntity
  8
SEIHIN
  6
CONTINUOUS
 62
     3
100
AcDbLine
 10
386.5040049531606
 20
287.6025567281769
 30
0.0
 11
386.5040049531606
 21
274.1334337281769
 31
0.0
  0
LINE
  5
64CF
330
1A
100
AcDbEntity
  8
SEIHIN
  6
CONTINUOUS
 62
     3
100
AcDbLine
 10
388.5040049531606
 20
269.1334337281769
 30
0.0
 11
388.5040049531606
 21
287.6025567281769
 31
0.0
  0
LINE
  5
64D0
330
1A
100
AcDbEntity
  8
SEIHIN
  6
CONTINUOUS
 62
     3
100
AcDbLine
 10
386.5040049531606
 20
287.6025567281769
 30
0.0
 11
386.5040049531606
 21
269.1334337281769
 31
0.0
  0
LINE
  5
64D1
330
1A
100
AcDbEntity
  8
SEIHIN
  6
CONTINUOUS
 62
     3
100
AcDbLine
 10
388.5040049531606
 20
269.1334337281769
 30
0.0
 11
386.5040049531606
 21
269.1334337281769
 31
0.0
  0
ARC
  5
64D2
330
1A
100
AcDbEntity
  8
SEIHIN
  6
CONTINUOUS
 62
     3
100
AcDbCircle
 10
389.5040049531607
 20
287.6025567281769
 30
0.0
 40
0.9999998652102316
100
AcDbArc
 50
84.50004182839899
 51
180.0
  0
ARC
  5
64D3
330
1A
100
AcDbEntity
  8
SEIHIN
  6
CONTINUOUS
 62
     3
100
AcDbCircle
 10
389.5040049531607
 20
287.6025567281769
 30
0.0
 40
2.99999990174308
100
AcDbArc
 50
155.0288311702734
 51
179.9999919372969
  0
ARC
  5
64D4
330
1A
100
AcDbEntity
  8
SEIHIN
  6
CONTINUOUS
 62
     3
100
AcDbCircle
 10
389.5040049531607
 20
287.6025567281769
 30
0.0
 40
2.99999990174308
100
AcDbArc
 50
155.0288311702734
 51
179.9999919372969
  0
ARC
  5
64D5
330
1A
100
AcDbEntity
  8
SEIHIN
  6
CONTINUOUS
 62
     3
100
AcDbCircle
 10
389.5040049531607
 20
287.6025567281769
 30
0.0
 40
0.9999998652102316
100
AcDbArc
 50
84.50004182839899
 51
180.0
  0
LINE
  5
64D6
330
1A
100
AcDbEntity
  8
SEIHIN
  6
CONTINUOUS
 62
     3
100
AcDbLine
 10
378.7843109531607
 20
318.0678267281769
 30
0.0
 11
338.0174739531606
 21
312.5087127281769
 31
0.0
  0
LINE
  5
64D7
330
1A
100
AcDbEntity
  8
SEIHIN
  6
CONTINUOUS
 62
     3
100
AcDbLine
 10
379.5442429531607
 20
315.1436897281769
 30
0.0
 11
337.8096809531606
 21
309.4526127281769
 31
0.0
  0
LINE
  5
64D8
330
1A
100
AcDbEntity
  8
SEIHIN
  6
CONTINUOUS
 62
     3
100
AcDbLine
 10
378.4465279531606
 20
320.5449017281769
 30
0.0
 11
337.6796909531607
 21
314.9857877281769
 31
0.0
  0
LINE
  5
64D9
330
1A
100
AcDbEntity
  8
SEIHIN
  6
CONTINUOUS
 62
     3
100
AcDbLine
 10
388.6058119531607
 20
311.2902347281769
 30
0.0
 11
375.4053269531606
 21
309.4200677281769
 31
0.0
  0
LINE
  5
64DA
330
1A
100
AcDbEntity
  8
SEIHIN
  6
CONTINUOUS
 62
     3
100
AcDbLine
 10
375.6858739531606
 20
307.4398427281769
 30
0.0
 11
388.8863579531606
 21
309.3100087281769
 31
0.0
  0
ARC
  5
64DB
330
1A
100
AcDbEntity
  8
SEIHIN
  6
CONTINUOUS
 62
     3
100
AcDbCircle
 10
375.9664199531606
 20
305.4596167281768
 30
0.0
 40
3.999999868335057
100
AcDbArc
 50
98.0636427983102
 51
160.5884979740765
  0
ARC
  5
64DC
330
1A
100
AcDbEntity
  8
SEIHIN
  6
CONTINUOUS
 62
     3
100
AcDbCircle
 10
375.9664199531606
 20
305.4596167281768
 30
0.0
 40
2.000000049508498
100
AcDbArc
 50
98.0636427983102
 51
160.5884852657152
  0
ARC
  5
64DD
330
1A
100
AcDbEntity
  8
SEIHIN
  6
CONTINUOUS
 62
     3
100
AcDbCircle
 10
403.2093109531607
 20
303.2421777281769
 30
0.0
 40
6.624999944286225
100
AcDbArc
 50
148.1092146844663
 51
211.8907958127824
  0
LINE
  5
64DE
330
1A
100
AcDbEntity
  8
SEIHIN
  6
CONTINUOUS
 62
     3
100
AcDbLine
 10
396.5843109531607
 20
304.1408537281769
 30
0.0
 11
396.1625149531606
 21
290.6401437281769
 31
0.0
  0
LINE
  5
64DF
330
1A
100
AcDbEntity
  8
SEIHIN
  6
CONTINUOUS
 62
     3
100
AcDbLine
 10
394.5852869531607
 20
304.2033087281769
 30
0.0
 11
394.1634909531607
 21
290.7025987281769
 31
0.0
  0
ARC
  5
64E0
330
1A
100
AcDbEntity
  8
SEIHIN
  6
CONTINUOUS
 62
     3
100
AcDbCircle
 10
389.5877249531607
 20
304.3594447281769
 30
0.0
 40
4.99999999040965
100
AcDbArc
 50
358.2105332175278
 51
98.06367557684319
  0
ARC
  5
64E1
330
1A
100
AcDbEntity
  8
SEIHIN
  6
CONTINUOUS
 62
     3
100
AcDbCircle
 10
389.5877249531607
 20
304.3594447281769
 30
0.0
 40
6.999999905160891
100
AcDbArc
 50
358.2105332175278
 51
98.06367746985319
  0
LINE
  5
64E2
330
1A
100
AcDbEntity
  8
SEIHIN
  6
CONTINUOUS
 62
     3
100
AcDbLine
 10
378.4465279531606
 20
320.5449017281769
 30
0.0
 11
395.2477999531607
 21
326.6074657281769
 31
0.0
  0
LINE
  5
64E3
330
1A
100
AcDbEntity
  8
SEIHIN
  6
CONTINUOUS
 62
     3
100
AcDbLine
 10
396.0555129531607
 20
321.6046217281769
 30
0.0
 11
379.5442429531607
 21
315.1436897281769
 31
0.0
  0
LINE
  5
64E4
330
1A
100
AcDbEntity
  8
SEIHIN
  6
CONTINUOUS
 62
     3
100
AcDbLine
 10
378.7843109531607
 20
318.0678267281769
 30
0.0
 11
394.9623139531608
 21
324.3983497281769
 31
0.0
  0
LINE
  5
64E5
330
1A
100
AcDbEntity
  8
SEIHIN
  6
CONTINUOUS
 62
     3
100
AcDbLine
 10
401.7843109531607
 20
318.7422197281769
 30
0.0
 11
401.7843109531607
 21
319.7421357281769
 31
0.0
  0
LINE
  5
64E6
330
1A
100
AcDbEntity
  8
SEIHIN
  6
CONTINUOUS
 62
     3
100
AcDbLine
 10
398.7843109531608
 20
318.7422197281769
 30
0.0
 11
398.7843109531608
 21
319.7421357281769
 31
0.0
  0
ARC
  5
64E7
330
1A
100
AcDbEntity
  8
SEIHIN
  6
CONTINUOUS
 62
     3
100
AcDbCircle
 10
396.7843109531608
 20
319.7421357281769
 30
0.0
 40
2.000000260324591
100
AcDbArc
 50
0.0000000470001506
 51
111.3706257960974
  0
LINE
  5
64E9
330
1A
100
AcDbEntity
  8
SEIHIN
  6
CONTINUOUS
 62
     3
100
AcDbLine
 10
402.8334962498532
 20
430.298256932678
 30
0.0
 11
336.1296592498532
 21
430.298053932678
 31
0.0
  0
LINE
  5
64EA
330
1A
100
AcDbEntity
  8
SEIHIN
  6
CONTINUOUS
 62
     3
100
AcDbLine
 10
402.3334932498531
 20
427.798255932678
 30
0.0
 11
325.7122482498531
 21
427.7980219326781
 31
0.0
  0
LINE
  5
64EB
330
1A
100
AcDbEntity
  8
SEIHIN
  6
CONTINUOUS
 62
     3
100
AcDbLine
 10
402.8334902498531
 20
440.298256932678
 30
0.0
 11
336.1296282498532
 21
440.298053932678
 31
0.0
  0
LINE
  5
64EC
330
1A
100
AcDbEntity
  8
SEIHIN
  6
CONTINUOUS
 62
     3
100
AcDbLine
 10
402.3334932498531
 20
442.798255932678
 30
0.0
 11
325.7123842498532
 21
442.798021932678
 31
0.0
  0
LINE
  5
64ED
330
1A
100
AcDbEntity
  8
SEIHIN
  6
CONTINUOUS
 62
     3
100
AcDbLine
 10
315.083537249853
 20
426.798081932678
 30
0.0
 11
365.748208249853
 21
426.7982629326779
 31
0.0
  0
LINE
  5
64EE
330
1A
100
AcDbEntity
  8
SEIHIN
  6
CONTINUOUS
 62
     3
100
AcDbLine
 10
315.0835412498532
 20
425.798081932678
 30
0.0
 11
365.748208249853
 21
425.798262932678
 31
0.0
  0
LINE
  5
64EF
330
1A
100
AcDbEntity
  8
SEIHIN
  6
CONTINUOUS
 62
     3
100
AcDbLine
 10
315.0835412498532
 20
443.7980249326781
 30
0.0
 11
365.748208249853
 21
443.7980249326781
 31
0.0
  0
LINE
  5
64F0
330
1A
100
AcDbEntity
  8
SEIHIN
  6
CONTINUOUS
 62
     3
100
AcDbLine
 10
315.0835412498532
 20
444.798024932678
 30
0.0
 11
365.748208249853
 21
444.798024932678
 31
0.0
  0
LINE
  5
64F1
330
1A
100
AcDbEntity
  8
SEIHIN
  6
CONTINUOUS
 62
     3
100
AcDbLine
 10
301.0836132498531
 20
441.3980539326781
 30
0.0
 11
306.083613249853
 21
441.3980539326781
 31
0.0
  0
LINE
  5
64F2
330
1A
100
AcDbEntity
  8
SEIHIN
  6
CONTINUOUS
 62
     3
100
AcDbLine
 10
298.8251342498532
 20
440.298053932678
 30
0.0
 11
315.5623382498532
 21
440.298053932678
 31
0.0
  0
LINE
  5
64F3
330
1A
100
AcDbEntity
  8
SEIHIN
  6
CONTINUOUS
 62
     3
100
AcDbLine
 10
292.0835272498531
 20
440.8980539326781
 30
0.0
 11
315.0835272498531
 21
440.8980539326781
 31
0.0
  0
LINE
  5
64F4
330
1A
100
AcDbEntity
  8
SEIHIN
  6
CONTINUOUS
 62
     3
100
AcDbLine
 10
292.083525249853
 20
440.398053932678
 30
0.0
 11
315.0835252498531
 21
440.398053932678
 31
0.0
  0
LINE
  5
64F5
330
1A
100
AcDbEntity
  8
SEIHIN
  6
CONTINUOUS
 62
     3
100
AcDbLine
 10
292.0835432498532
 20
445.3980539326781
 30
0.0
 11
315.0835432498532
 21
445.3980539326781
 31
0.0
  0
LINE
  5
64F6
330
1A
100
AcDbEntity
  8
SEIHIN
  6
CONTINUOUS
 62
     3
100
AcDbLine
 10
301.0836132498531
 20
429.198053932678
 30
0.0
 11
306.083613249853
 21
429.198053932678
 31
0.0
  0
LINE
  5
64F7
330
1A
100
AcDbEntity
  8
SEIHIN
  6
CONTINUOUS
 62
     3
100
AcDbLine
 10
292.083525249853
 20
430.198053932678
 30
0.0
 11
315.0835252498531
 21
430.198053932678
 31
0.0
  0
LINE
  5
64F8
330
1A
100
AcDbEntity
  8
SEIHIN
  6
CONTINUOUS
 62
     3
100
AcDbLine
 10
298.8251342498532
 20
430.298053932678
 30
0.0
 11
315.5623382498532
 21
430.298053932678
 31
0.0
  0
LINE
  5
64F9
330
1A
100
AcDbEntity
  8
SEIHIN
  6
CONTINUOUS
 62
     3
100
AcDbLine
 10
292.0835432498532
 20
425.198053932678
 30
0.0
 11
315.0835432498532
 21
425.198053932678
 31
0.0
  0
LINE
  5
64FA
330
1A
100
AcDbEntity
  8
SEIHIN
  6
CONTINUOUS
 62
     3
100
AcDbLine
 10
292.0835272498531
 20
429.698053932678
 30
0.0
 11
315.0835272498531
 21
429.698053932678
 31
0.0
  0
LINE
  5
64FB
330
1A
100
AcDbEntity
  8
SEIHIN
  6
CONTINUOUS
 62
     3
100
AcDbLine
 10
292.083525249853
 20
440.398053932678
 30
0.0
 11
292.0835432498532
 21
445.3980539326781
 31
0.0
  0
LINE
  5
64FC
330
1A
100
AcDbEntity
  8
SEIHIN
  6
CONTINUOUS
 62
     3
100
AcDbLine
 10
294.0834932498531
 20
440.8980539326781
 30
0.0
 11
294.0834932498531
 21
445.3980539326781
 31
0.0
  0
LINE
  5
64FD
330
1A
100
AcDbEntity
  8
SEIHIN
  6
CONTINUOUS
 62
     3
100
AcDbLine
 10
294.3334932498531
 20
442.798053932678
 30
0.0
 11
294.3334932498531
 21
440.8980539326781
 31
0.0
  0
LINE
  5
64FE
330
1A
100
AcDbEntity
  8
SEIHIN
  6
CONTINUOUS
 62
     3
100
AcDbLine
 10
297.5834932498532
 20
440.8980539326781
 30
0.0
 11
297.5834932498532
 21
445.3980539326781
 31
0.0
  0
LINE
  5
64FF
330
1A
100
AcDbEntity
  8
SEIHIN
  6
CONTINUOUS
 62
     3
100
AcDbLine
 10
297.3334932498531
 20
442.798053932678
 30
0.0
 11
297.3334932498531
 21
440.8980539326781
 31
0.0
  0
LINE
  5
6500
330
1A
100
AcDbEntity
  8
SEIHIN
  6
CONTINUOUS
 62
     3
100
AcDbLine
 10
278.7873922498532
 20
442.214009932678
 30
0.0
 11
280.5194432498532
 21
441.214009932678
 31
0.0
  0
LINE
  5
6501
330
1A
100
AcDbEntity
  8
SEIHIN
  6
CONTINUOUS
 62
     3
100
AcDbLine
 10
278.7873922498532
 20
427.048053932678
 30
0.0
 11
278.7873922498532
 21
443.548053932678
 31
0.0
  0
LINE
  5
6502
330
1A
100
AcDbEntity
  8
SEIHIN
  6
CONTINUOUS
 62
     3
100
AcDbLine
 10
277.7873922498532
 20
427.048053932678
 30
0.0
 11
277.7873922498532
 21
443.548053932678
 31
0.0
  0
LINE
  5
6503
330
1A
100
AcDbEntity
  8
SEIHIN
  6
CONTINUOUS
 62
     3
100
AcDbLine
 10
286.6523142498532
 20
441.955033932678
 30
0.0
 11
286.6523142498532
 21
429.109056932678
 31
0.0
  0
ARC
  5
6504
330
1A
100
AcDbEntity
  8
SEIHIN
  6
CONTINUOUS
 62
     3
100
AcDbCircle
 10
288.9421592498532
 20
433.048053932678
 30
0.0
 40
1.25
100
AcDbArc
 50
216.8698976458453
 51
323.1301023541546
  0
ARC
  5
6505
330
1A
100
AcDbEntity
  8
SEIHIN
  6
CONTINUOUS
 62
     3
100
AcDbCircle
 10
288.9421592498532
 20
437.548053932678
 30
0.0
 40
1.25
100
AcDbArc
 50
36.86989764584533
 51
143.1301023541546
  0
LINE
  5
6506
330
1A
100
AcDbEntity
  8
SEIHIN
  6
CONTINUOUS
 62
     3
100
AcDbLine
 10
285.2644842498531
 20
426.798053932678
 30
0.0
 11
292.083537249853
 21
426.798082932678
 31
0.0
  0
LINE
  5
6507
330
1A
100
AcDbEntity
  8
SEIHIN
  6
CONTINUOUS
 62
     3
100
AcDbLine
 10
285.5192642498531
 20
425.798052932678
 30
0.0
 11
292.0835412498533
 21
425.798081932678
 31
0.0
  0
LINE
  5
6508
330
1A
100
AcDbEntity
  8
SEIHIN
  6
CONTINUOUS
 62
     3
100
AcDbLine
 10
278.7873922498532
 20
430.382096932678
 30
0.0
 11
280.5194432498532
 21
429.382096932678
 31
0.0
  0
LINE
  5
6509
330
1A
100
AcDbEntity
  8
SEIHIN
  6
CONTINUOUS
 62
     3
100
AcDbLine
 10
277.7873922498532
 20
427.048053932678
 30
0.0
 11
280.9668632498532
 21
427.048053932678
 31
0.0
  0
LINE
  5
650A
330
1A
100
AcDbEntity
  8
SEIHIN
  6
CONTINUOUS
 62
     3
100
AcDbLine
 10
278.7873922498532
 20
428.3820969326781
 30
0.0
 11
280.5194432498532
 21
429.382096932678
 31
0.0
  0
ARC
  5
650B
330
1A
100
AcDbEntity
  8
SEIHIN
  6
CONTINUOUS
 62
     3
100
AcDbCircle
 10
285.2644842498531
 20
427.798053932678
 30
0.0
 40
0.9999999458312471
100
AcDbArc
 50
211.5881713514511
 51
269.9999999999478
  0
ARC
  5
650C
330
1A
100
AcDbEntity
  8
SEIHIN
  6
CONTINUOUS
 62
     3
100
AcDbCircle
 10
283.0284162498532
 20
426.423053932678
 30
0.0
 40
1.624999817959517
100
AcDbArc
 50
31.58817135149953
 51
141.7534063919613
  0
ARC
  5
650D
330
1A
100
AcDbEntity
  8
SEIHIN
  6
CONTINUOUS
 62
     3
100
AcDbCircle
 10
280.9668632498532
 20
428.048053932678
 30
0.0
 40
0.9999999402282464
100
AcDbArc
 50
270.0
 51
321.7533469301784
  0
LINE
  5
650E
330
1A
100
AcDbEntity
  8
SEIHIN
  6
CONTINUOUS
 62
     3
100
AcDbLine
 10
285.5192642498531
 20
426.798054932678
 30
0.0
 11
285.5192642498531
 21
425.798052932678
 31
0.0
  0
LINE
  5
650F
330
1A
100
AcDbEntity
  8
SEIHIN
  6
CONTINUOUS
 62
     3
100
AcDbLine
 10
278.7873922498532
 20
440.214009932678
 30
0.0
 11
280.5194432498532
 21
441.214009932678
 31
0.0
  0
LINE
  5
6510
330
1A
100
AcDbEntity
  8
SEIHIN
  6
CONTINUOUS
 62
     3
100
AcDbLine
 10
287.9421592498532
 20
432.298053932678
 30
0.0
 11
287.9421592498532
 21
438.298053932678
 31
0.0
  0
LINE
  5
6511
330
1A
100
AcDbEntity
  8
SEIHIN
  6
CONTINUOUS
 62
     3
100
AcDbLine
 10
292.083525249853
 20
430.198053932678
 30
0.0
 11
292.0835432498532
 21
425.198053932678
 31
0.0
  0
LINE
  5
6512
330
1A
100
AcDbEntity
  8
SEIHIN
  6
CONTINUOUS
 62
     3
100
AcDbLine
 10
297.3334932498531
 20
427.798053932678
 30
0.0
 11
294.3334932498531
 21
427.798053932678
 31
0.0
  0
LINE
  5
6513
330
1A
100
AcDbEntity
  8
SEIHIN
  6
CONTINUOUS
 62
     3
100
AcDbLine
 10
294.0834932498531
 20
425.698053932678
 30
0.0
 11
297.5834932498532
 21
425.698053932678
 31
0.0
  0
LINE
  5
6514
330
1A
100
AcDbEntity
  8
SEIHIN
  6
CONTINUOUS
 62
     3
100
AcDbLine
 10
294.0834932498531
 20
426.798053932678
 30
0.0
 11
297.5834932498532
 21
426.798053932678
 31
0.0
  0
LINE
  5
6515
330
1A
100
AcDbEntity
  8
SEIHIN
  6
CONTINUOUS
 62
     3
100
AcDbLine
 10
294.3334932498531
 20
427.798053932678
 30
0.0
 11
294.3334932498531
 21
429.698053932678
 31
0.0
  0
LINE
  5
6516
330
1A
100
AcDbEntity
  8
SEIHIN
  6
CONTINUOUS
 62
     3
100
AcDbLine
 10
294.0834932498531
 20
429.698053932678
 30
0.0
 11
294.0834932498531
 21
425.198053932678
 31
0.0
  0
LINE
  5
6517
330
1A
100
AcDbEntity
  8
SEIHIN
  6
CONTINUOUS
 62
     3
100
AcDbLine
 10
297.3334932498531
 20
427.798053932678
 30
0.0
 11
297.3334932498531
 21
429.698053932678
 31
0.0
  0
LINE
  5
6518
330
1A
100
AcDbEntity
  8
SEIHIN
  6
CONTINUOUS
 62
     3
100
AcDbLine
 10
297.5834932498532
 20
429.698053932678
 30
0.0
 11
297.5834932498532
 21
425.198053932678
 31
0.0
  0
LINE
  5
6519
330
1A
100
AcDbEntity
  8
SEIHIN
  6
CONTINUOUS
 62
     3
100
AcDbLine
 10
301.0836132498531
 20
429.198053932678
 30
0.0
 11
301.0836132498531
 21
429.698053932678
 31
0.0
  0
LINE
  5
651A
330
1A
100
AcDbEntity
  8
SEIHIN
  6
CONTINUOUS
 62
     3
100
AcDbLine
 10
292.9421592498532
 20
432.298053932678
 30
0.0
 11
292.9421592498532
 21
438.298053932678
 31
0.0
  0
LINE
  5
651B
330
1A
100
AcDbEntity
  8
SEIHIN
  6
CONTINUOUS
 62
     3
100
AcDbLine
 10
292.4421592498532
 20
432.298053932678
 30
0.0
 11
292.4421592498532
 21
438.298053932678
 31
0.0
  0
LINE
  5
651C
330
1A
100
AcDbEntity
  8
SEIHIN
  6
CONTINUOUS
 62
     3
100
AcDbLine
 10
289.9421592498532
 20
432.298053932678
 30
0.0
 11
289.9421592498532
 21
438.298053932678
 31
0.0
  0
LINE
  5
651D
330
1A
100
AcDbEntity
  8
SEIHIN
  6
CONTINUOUS
 62
     3
100
AcDbLine
 10
290.4421592498532
 20
432.298053932678
 30
0.0
 11
290.4421592498532
 21
438.298053932678
 31
0.0
  0
LINE
  5
651E
330
1A
100
AcDbEntity
  8
SEIHIN
  6
CONTINUOUS
 62
     3
100
AcDbLine
 10
294.3334932498531
 20
440.398053932678
 30
0.0
 11
294.3334932498531
 21
430.198053932678
 31
0.0
  0
ARC
  5
651F
330
1A
100
AcDbEntity
  8
SEIHIN
  6
CONTINUOUS
 62
     3
100
AcDbCircle
 10
291.4421592498532
 20
433.048053932678
 30
0.0
 40
1.25
100
AcDbArc
 50
216.8698976458453
 51
323.1301023541546
  0
ARC
  5
6520
330
1A
100
AcDbEntity
  8
SEIHIN
  6
CONTINUOUS
 62
     3
100
AcDbCircle
 10
293.9421592498532
 20
433.048053932678
 30
0.0
 40
1.249999816264372
100
AcDbArc
 50
216.8698976458453
 51
288.244167684459
  0
ARC
  5
6521
330
1A
100
AcDbEntity
  8
SEIHIN
  6
CONTINUOUS
 62
     3
100
AcDbCircle
 10
291.4421592498532
 20
437.548053932678
 30
0.0
 40
1.25
100
AcDbArc
 50
36.86989764584533
 51
143.1301023541546
  0
ARC
  5
6522
330
1A
100
AcDbEntity
  8
SEIHIN
  6
CONTINUOUS
 62
     3
100
AcDbCircle
 10
293.9421592498532
 20
437.548053932678
 30
0.0
 40
1.249999816264372
100
AcDbArc
 50
71.75583951464364
 51
143.1301095532567
  0
LINE
  5
6523
330
1A
100
AcDbEntity
  8
SEIHIN
  6
CONTINUOUS
 62
     3
100
AcDbLine
 10
297.8251342498532
 20
439.298053932678
 30
0.0
 11
297.8251342498532
 21
431.298053932678
 31
0.0
  0
LINE
  5
6524
330
1A
100
AcDbEntity
  8
SEIHIN
  6
CONTINUOUS
 62
     3
100
AcDbLine
 10
297.3334932498531
 20
440.398053932678
 30
0.0
 11
297.3334932498531
 21
430.198053932678
 31
0.0
  0
LINE
  5
6525
330
1A
100
AcDbEntity
  8
SEIHIN
  6
CONTINUOUS
 62
     3
100
AcDbLine
 10
297.8251342498532
 20
431.298053932678
 30
0.0
 11
298.8251342498532
 21
431.298053932678
 31
0.0
  0
LINE
  5
6526
330
1A
100
AcDbEntity
  8
SEIHIN
  6
CONTINUOUS
 62
     3
100
AcDbLine
 10
298.8251342498532
 20
431.298053932678
 30
0.0
 11
298.8251342498532
 21
430.298053932678
 31
0.0
  0
LINE
  5
6527
330
1A
100
AcDbEntity
  8
SEIHIN
  6
CONTINUOUS
 62
     3
100
AcDbLine
 10
297.8251342498532
 20
439.298053932678
 30
0.0
 11
298.8251342498532
 21
439.298053932678
 31
0.0
  0
LINE
  5
6528
330
1A
100
AcDbEntity
  8
SEIHIN
  6
CONTINUOUS
 62
     3
100
AcDbLine
 10
298.8251342498532
 20
439.298053932678
 30
0.0
 11
298.8251342498532
 21
440.298053932678
 31
0.0
  0
LINE
  5
6529
330
1A
100
AcDbEntity
  8
SEIHIN
  6
CONTINUOUS
 62
     3
100
AcDbLine
 10
301.0836132498531
 20
441.3980539326781
 30
0.0
 11
301.0836132498531
 21
440.8980539326781
 31
0.0
  0
LINE
  5
652A
330
1A
100
AcDbEntity
  8
SEIHIN
  6
CONTINUOUS
 62
     3
100
AcDbLine
 10
285.2644842498531
 20
443.798053932678
 30
0.0
 11
292.083537249853
 21
443.798053932678
 31
0.0
  0
LINE
  5
652B
330
1A
100
AcDbEntity
  8
SEIHIN
  6
CONTINUOUS
 62
     3
100
AcDbLine
 10
285.5192642498531
 20
444.798053932678
 30
0.0
 11
292.0835412498533
 21
444.798024932678
 31
0.0
  0
LINE
  5
652C
330
1A
100
AcDbEntity
  8
SEIHIN
  6
CONTINUOUS
 62
     3
100
AcDbLine
 10
277.7873922498532
 20
443.548053932678
 30
0.0
 11
280.9668632498532
 21
443.548053932678
 31
0.0
  0
ARC
  5
652D
330
1A
100
AcDbEntity
  8
SEIHIN
  6
CONTINUOUS
 62
     3
100
AcDbCircle
 10
283.0284162498532
 20
444.173053932678
 30
0.0
 40
1.624999817959517
100
AcDbArc
 50
218.2466530698202
 51
328.4118881102783
  0
ARC
  5
652E
330
1A
100
AcDbEntity
  8
SEIHIN
  6
CONTINUOUS
 62
     3
100
AcDbCircle
 10
285.2644842498531
 20
442.798053932678
 30
0.0
 40
0.9999999458312471
100
AcDbArc
 50
90.0
 51
148.4118286484977
  0
ARC
  5
652F
330
1A
100
AcDbEntity
  8
SEIHIN
  6
CONTINUOUS
 62
     3
100
AcDbCircle
 10
280.9668632498532
 20
442.548053932678
 30
0.0
 40
1.000000332904889
100
AcDbArc
 50
38.24661760100019
 51
90.0
  0
LINE
  5
6530
330
1A
100
AcDbEntity
  8
SEIHIN
  6
CONTINUOUS
 62
     3
100
AcDbLine
 10
285.5192642498531
 20
443.798053932678
 30
0.0
 11
285.5192642498531
 21
444.798053932678
 31
0.0
  0
LINE
  5
6531
330
1A
100
AcDbEntity
  8
SEIHIN
  6
CONTINUOUS
 62
     3
100
AcDbLine
 10
294.0834932498531
 20
443.798053932678
 30
0.0
 11
297.5834932498532
 21
443.798053932678
 31
0.0
  0
LINE
  5
6532
330
1A
100
AcDbEntity
  8
SEIHIN
  6
CONTINUOUS
 62
     3
100
AcDbLine
 10
294.0834932498531
 20
444.8980539326781
 30
0.0
 11
297.5834932498532
 21
444.8980539326781
 31
0.0
  0
LINE
  5
6533
330
1A
100
AcDbEntity
  8
SEIHIN
  6
CONTINUOUS
 62
     3
100
AcDbLine
 10
297.3334932498531
 20
442.798053932678
 30
0.0
 11
294.3334932498531
 21
442.798053932678
 31
0.0
  0
LINE
  5
6534
330
1A
100
AcDbEntity
  8
SEIHIN
  6
CONTINUOUS
 62
     3
100
AcDbLine
 10
324.4651682498532
 20
443.390449932678
 30
0.0
 11
328.8702112498532
 21
441.298053932678
 31
0.0
  0
LINE
  5
6535
330
1A
100
AcDbEntity
  8
SEIHIN
  6
CONTINUOUS
 62
     3
100
AcDbLine
 10
315.0835252498531
 20
440.398053932678
 30
0.0
 11
315.0835432498532
 21
445.3980539326781
 31
0.0
  0
LINE
  5
6536
330
1A
100
AcDbEntity
  8
SEIHIN
  6
CONTINUOUS
 62
     3
100
AcDbLine
 10
316.8495082498531
 20
440.588221932678
 30
0.0
 11
322.7489412498531
 21
443.390450932678
 31
0.0
  0
LINE
  5
6537
330
1A
100
AcDbEntity
  8
SEIHIN
  6
CONTINUOUS
 62
     3
100
AcDbLine
 10
316.8495082498531
 20
430.007886932678
 30
0.0
 11
322.7489412498531
 21
427.205657932678
 31
0.0
  0
LINE
  5
6538
330
1A
100
AcDbEntity
  8
SEIHIN
  6
CONTINUOUS
 62
     3
100
AcDbLine
 10
321.5018582498531
 20
427.7980219326781
 30
0.0
 11
315.083533249853
 21
427.797998932678
 31
0.0
  0
ARC
  5
6539
330
1A
100
AcDbEntity
  8
SEIHIN
  6
CONTINUOUS
 62
     3
100
AcDbCircle
 10
315.5623382498532
 20
427.298053932678
 30
0.0
 40
3.000000124732411
100
AcDbArc
 50
64.59228447874967
 51
89.99999094305044
  0
LINE
  5
653A
330
1A
100
AcDbEntity
  8
SEIHIN
  6
CONTINUOUS
 62
     3
100
AcDbLine
 10
315.0835252498531
 20
430.198053932678
 30
0.0
 11
315.0835432498532
 21
425.198053932678
 31
0.0
  0
LINE
  5
653B
330
1A
100
AcDbEntity
  8
SEIHIN
  6
CONTINUOUS
 62
     3
100
AcDbLine
 10
306.083613249853
 20
429.198053932678
 30
0.0
 11
306.083613249853
 21
429.698053932678
 31
0.0
  0
LINE
  5
653C
330
1A
100
AcDbEntity
  8
SEIHIN
  6
CONTINUOUS
 62
     3
100
AcDbLine
 10
306.083613249853
 20
441.3980539326781
 30
0.0
 11
306.083613249853
 21
440.8980539326781
 31
0.0
  0
LINE
  5
653D
330
1A
100
AcDbEntity
  8
SEIHIN
  6
CONTINUOUS
 62
     3
100
AcDbLine
 10
314.1661362498531
 20
430.298053932678
 30
0.0
 11
314.1661362498531
 21
440.298053932678
 31
0.0
  0
ARC
  5
653E
330
1A
100
AcDbEntity
  8
SEIHIN
  6
CONTINUOUS
 62
     3
100
AcDbCircle
 10
315.5623382498532
 20
443.298053932678
 30
0.0
 40
3.000000124732411
100
AcDbArc
 50
270.0
 51
295.4077064643029
  0
LINE
  5
653F
330
1A
100
AcDbEntity
  8
SEIHIN
  6
CONTINUOUS
 62
     3
100
AcDbLine
 10
335.186653249853
 20
429.337392932678
 30
0.0
 11
335.186653249853
 21
441.258713932678
 31
0.0
  0
LINE
  5
6540
330
1A
100
AcDbEntity
  8
SEIHIN
  6
CONTINUOUS
 62
     3
100
AcDbLine
 10
328.9530272498531
 20
429.337392932678
 30
0.0
 11
328.9530282498532
 21
432.298053932678
 31
0.0
  0
LINE
  5
6541
330
1A
100
AcDbEntity
  8
SEIHIN
  6
CONTINUOUS
 62
     3
100
AcDbLine
 10
336.1296442498531
 20
429.298053932678
 30
0.0
 11
336.1296442498531
 21
441.298053932678
 31
0.0
  0
LINE
  5
6542
330
1A
100
AcDbEntity
  8
SEIHIN
  6
CONTINUOUS
 62
     3
100
AcDbLine
 10
328.8702082498531
 20
429.298053932678
 30
0.0
 11
336.1296442498531
 21
429.298053932678
 31
0.0
  0
LINE
  5
6543
330
1A
100
AcDbEntity
  8
SEIHIN
  6
CONTINUOUS
 62
     3
100
AcDbLine
 10
324.4651682498532
 20
427.205658932678
 30
0.0
 11
328.8702082498531
 21
429.298053932678
 31
0.0
  0
ARC
  5
6544
330
1A
100
AcDbEntity
  8
SEIHIN
  6
CONTINUOUS
 62
     3
100
AcDbCircle
 10
323.6070542498531
 20
429.012212932678
 30
0.0
 40
1.999999816165233
100
AcDbArc
 50
244.5922844787496
 51
295.4077120920543
  0
LINE
  5
6545
330
1A
100
AcDbEntity
  8
SEIHIN
  6
CONTINUOUS
 62
     3
100
AcDbLine
 10
328.8702112498532
 20
441.298053932678
 30
0.0
 11
336.1296442498531
 21
441.298053932678
 31
0.0
  0
LINE
  5
6546
330
1A
100
AcDbEntity
  8
SEIHIN
  6
CONTINUOUS
 62
     3
100
AcDbLine
 10
325.6375532498531
 20
432.298053932678
 30
0.0
 11
332.6000762498532
 21
432.298053932678
 31
0.0
  0
LINE
  5
6547
330
1A
100
AcDbEntity
  8
SEIHIN
  6
CONTINUOUS
 62
     3
100
AcDbLine
 10
325.6375532498531
 20
438.298053932678
 30
0.0
 11
332.6000762498532
 21
438.298053932678
 31
0.0
  0
LINE
  5
6548
330
1A
100
AcDbEntity
  8
SEIHIN
  6
CONTINUOUS
 62
     3
100
AcDbLine
 10
324.1375532498531
 20
433.798053932678
 30
0.0
 11
324.1375532498531
 21
436.798053932678
 31
0.0
  0
ARC
  5
6549
330
1A
100
AcDbEntity
  8
SEIHIN
  6
CONTINUOUS
 62
     3
100
AcDbCircle
 10
325.6375532498531
 20
433.798053932678
 30
0.0
 40
1.5
100
AcDbArc
 50
180.0
 51
270.0
  0
ARC
  5
654A
330
1A
100
AcDbEntity
  8
SEIHIN
  6
CONTINUOUS
 62
     3
100
AcDbCircle
 10
325.6375532498531
 20
436.798053932678
 30
0.0
 40
1.5
100
AcDbArc
 50
90.0
 51
180.0
  0
LINE
  5
654B
330
1A
100
AcDbEntity
  8
SEIHIN
  6
CONTINUOUS
 62
     3
100
AcDbLine
 10
328.9530302498532
 20
438.298053932678
 30
0.0
 11
328.9530302498532
 21
441.258714932678
 31
0.0
  0
LINE
  5
654C
330
1A
100
AcDbEntity
  8
SEIHIN
  6
CONTINUOUS
 62
     3
100
AcDbLine
 10
332.6000762498532
 20
432.298053932678
 30
0.0
 11
332.6000762498532
 21
438.298053932678
 31
0.0
  0
LINE
  5
654D
330
1A
100
AcDbEntity
  8
SEIHIN
  6
CONTINUOUS
 62
     3
100
AcDbLine
 10
331.9621702498531
 20
432.298053932678
 30
0.0
 11
331.9621702498531
 21
438.298053932678
 31
0.0
  0
LINE
  5
654E
330
1A
100
AcDbEntity
  8
SEIHIN
  6
CONTINUOUS
 62
     3
100
AcDbLine
 10
321.501722249853
 20
442.798021932678
 30
0.0
 11
315.083533249853
 21
442.798044932678
 31
0.0
  0
ARC
  5
654F
330
1A
100
AcDbEntity
  8
SEIHIN
  6
CONTINUOUS
 62
     3
100
AcDbCircle
 10
323.6070542498531
 20
441.583894932678
 30
0.0
 40
1.999999816165233
100
AcDbArc
 50
64.59225989560046
 51
115.4076875089041
  0
LINE
  5
6550
330
1A
100
AcDbEntity
  8
SEIHIN
  6
CONTINUOUS
 62
     3
100
AcDbLine
 10
402.6334932498531
 20
424.819156932678
 30
0.0
 11
402.6334932498531
 21
409.646391932678
 31
0.0
  0
LINE
  5
6551
330
1A
100
AcDbEntity
  8
SEIHIN
  6
CONTINUOUS
 62
     3
100
AcDbLine
 10
365.748208249853
 20
427.798143932678
 30
0.0
 11
365.748208249853
 21
425.798262932678
 31
0.0
  0
LINE
  5
6552
330
1A
100
AcDbEntity
  8
SEIHIN
  6
CONTINUOUS
 62
     3
100
AcDbLine
 10
365.748208249853
 20
444.798024932678
 30
0.0
 11
365.748208249853
 21
442.798143932678
 31
0.0
  0
LINE
  5
6553
330
1A
100
AcDbEntity
  8
SEIHIN
  6
CONTINUOUS
 62
     3
100
AcDbLine
 10
402.3334932498531
 20
442.798255932678
 30
0.0
 11
402.3334932498531
 21
440.298255932678
 31
0.0
  0
LINE
  5
6554
330
1A
100
AcDbEntity
  8
SEIHIN
  6
CONTINUOUS
 62
     3
100
AcDbLine
 10
380.4995092498531
 20
442.383983932678
 30
0.0
 11
380.4995092498531
 21
440.734634932678
 31
0.0
  0
LINE
  5
6555
330
1A
100
AcDbEntity
  8
SEIHIN
  6
CONTINUOUS
 62
     3
100
AcDbLine
 10
380.4995092498531
 20
428.212527932678
 30
0.0
 11
380.4995092498531
 21
429.861876932678
 31
0.0
  0
LINE
  5
6556
330
1A
100
AcDbEntity
  8
SEIHIN
  6
CONTINUOUS
 62
     3
100
AcDbLine
 10
378.9957102498532
 20
439.497198932678
 30
0.0
 11
378.9957102498532
 21
430.932839932678
 31
0.0
  0
LINE
  5
6557
330
1A
100
AcDbEntity
  8
SEIHIN
  6
CONTINUOUS
 62
     3
100
AcDbLine
 10
402.3334932498531
 20
430.298255932678
 30
0.0
 11
402.3334932498531
 21
427.798255932678
 31
0.0
  0
LINE
  5
6558
330
1A
100
AcDbEntity
  8
SEIHIN
  6
CONTINUOUS
 62
     3
100
AcDbLine
 10
398.9022952498531
 20
427.050505932678
 30
0.0
 11
402.398676249853
 21
426.498346932678
 31
0.0
  0
LINE
  5
6559
330
1A
100
AcDbEntity
  8
SEIHIN
  6
CONTINUOUS
 62
     3
100
AcDbLine
 10
398.715107249853
 20
425.865195932678
 30
0.0
 11
402.2114882498532
 21
425.3130369326781
 31
0.0
  0
ARC
  5
655A
330
1A
100
AcDbEntity
  8
SEIHIN
  6
CONTINUOUS
 62
     3
100
AcDbCircle
 10
398.933493249853
 20
427.248057932678
 30
0.0
 40
1.399999956435712
100
AcDbArc
 50
179.999997485404
 51
261.0257794118535
  0
LINE
  5
655B
330
1A
100
AcDbEntity
  8
SEIHIN
  6
CONTINUOUS
 62
     3
100
AcDbLine
 10
398.9022952498531
 20
427.050505932678
 30
0.0
 11
398.9022932498532
 21
427.798244932678
 31
0.0
  0
LINE
  5
655C
330
1A
100
AcDbEntity
  8
SEIHIN
  6
CONTINUOUS
 62
     3
100
AcDbLine
 10
397.5334932498532
 20
427.248057932678
 30
0.0
 11
397.5334912498532
 21
427.798240932678
 31
0.0
  0
ARC
  5
655D
330
1A
100
AcDbEntity
  8
SEIHIN
  6
CONTINUOUS
 62
     3
100
AcDbCircle
 10
402.1334932498531
 20
424.819156932678
 30
0.0
 40
0.4999998433329509
100
AcDbArc
 50
0.0000000000781653
 51
81.02577681933064
  0
LINE
  5
655E
330
1A
100
AcDbEntity
  8
SEIHIN
  6
CONTINUOUS
 62
     3
100
AcDbLine
 10
402.6334932498531
 20
445.777353932678
 30
0.0
 11
402.6334932498531
 21
460.950118932678
 31
0.0
  0
LINE
  5
655F
330
1A
100
AcDbEntity
  8
SEIHIN
  6
CONTINUOUS
 62
     3
100
AcDbLine
 10
402.3919902498532
 20
444.076485932678
 30
0.0
 11
398.9030822498531
 21
443.539730932678
 31
0.0
  0
LINE
  5
6560
330
1A
100
AcDbEntity
  8
SEIHIN
  6
CONTINUOUS
 62
     3
100
AcDbLine
 10
398.715107249853
 20
444.731315932678
 30
0.0
 11
402.2114882498532
 21
445.2834749326781
 31
0.0
  0
LINE
  5
6561
330
1A
100
AcDbEntity
  8
SEIHIN
  6
CONTINUOUS
 62
     3
100
AcDbLine
 10
397.5334932498532
 20
443.348453932678
 30
0.0
 11
397.5334952498532
 21
442.798240932678
 31
0.0
  0
LINE
  5
6562
330
1A
100
AcDbEntity
  8
SEIHIN
  6
CONTINUOUS
 62
     3
100
AcDbLine
 10
398.9030822498531
 20
443.539730932678
 30
0.0
 11
398.9030842498531
 21
442.7982449326781
 31
0.0
  0
ARC
  5
6563
330
1A
100
AcDbEntity
  8
SEIHIN
  6
CONTINUOUS
 62
     3
100
AcDbCircle
 10
398.933493249853
 20
443.348453932678
 30
0.0
 40
1.399999956435712
100
AcDbArc
 50
98.97421424316108
 51
179.9999961696147
  0
ARC
  5
6564
330
1A
100
AcDbEntity
  8
SEIHIN
  6
CONTINUOUS
 62
     3
100
AcDbCircle
 10
402.1334932498531
 20
445.777353932678
 30
0.0
 40
0.4999998433329509
100
AcDbArc
 50
278.9742142431741
 51
359.9999910624251
  0
LINE
  5
6573
330
1A
100
AcDbEntity
  8
SEIHIN
  6
DASHED
 62
     6
100
AcDbLine
 10
438.2843109531608
 20
318.7422197281769
 30
0.0
 11
438.2843109531608
 21
282.7422197281769
 31
0.0
  0
LINE
  5
6574
330
1A
100
AcDbEntity
  8
SEIHIN
  6
DASHED
 62
     6
100
AcDbLine
 10
432.5843109531607
 20
282.7422197281769
 30
0.0
 11
432.5843109531607
 21
318.7422197281769
 31
0.0
  0
LINE
  5
6575
330
1A
100
AcDbEntity
  8
SEIHIN
  6
DASHED
 62
     6
100
AcDbLine
 10
437.0843109531607
 20
318.7422197281769
 30
0.0
 11
437.0843109531607
 21
282.7422197281769
 31
0.0
  0
LINE
  5
6576
330
1A
100
AcDbEntity
  8
SEIHIN
  6
CONTINUOUS
 62
     3
100
AcDbLine
 10
403.2843109531608
 20
318.7422197281769
 30
0.0
 11
403.2843109531608
 21
282.7422197281769
 31
0.0
  0
LINE
  5
6577
330
1A
100
AcDbEntity
  8
CENTER_L
  6
CENTER
100
AcDbLine
 10
441.2843109531608
 20
288.2422197281769
 30
0.0
 11
429.5843109531607
 21
288.2422197281769
 31
0.0
  0
LINE
  5
6578
330
1A
100
AcDbEntity
  8
SEIHIN
  6
DASHED
 62
     6
100
AcDbLine
 10
432.5843109531607
 20
282.7422197281769
 30
0.0
 11
438.2843109531608
 21
282.7422197281769
 31
0.0
  0
ARC
  5
6579
330
1A
100
AcDbEntity
  8
SEIHIN
  6
DASHED
 62
     6
100
AcDbCircle
 10
431.5796369160685
 20
319.9602318964697
 30
0.0
 40
6.779344165120991
100
AcDbArc
 50
8.511707040104775
 51
101.3297409885064
  0
LINE
  5
657A
330
1A
100
AcDbEntity
  8
CENTER_L
  6
CENTER
100
AcDbLine
 10
441.2843109531608
 20
304.7422197281769
 30
0.0
 11
429.5843109531607
 21
304.7422197281769
 31
0.0
  0
LINE
  5
657B
330
1A
100
AcDbEntity
  8
CENTER_L
  6
CENTER
100
AcDbLine
 10
441.2843109531608
 20
313.242219728177
 30
0.0
 11
429.5843109531607
 21
313.242219728177
 31
0.0
  0
LINE
  5
657C
330
1A
100
AcDbEntity
  8
SEIHIN
  6
DASHED
 62
     6
100
AcDbLine
 10
432.5843109531607
 20
318.7422197281769
 30
0.0
 11
438.2843109531608
 21
318.7422197281769
 31
0.0
  0
ARC
  5
657D
330
1A
100
AcDbEntity
  8
SEIHIN
  6
DASHED
 62
     6
100
AcDbCircle
 10
431.7843109531607
 20
319.7421357281769
 30
0.0
 40
5.000000094090248
100
AcDbArc
 50
0.0000000470001506
 51
111.3706246361847
  0
ARC
  5
657E
330
1A
100
AcDbEntity
  8
SEIHIN
  6
DASHED
 62
     6
100
AcDbCircle
 10
438.2093109531608
 20
303.2421777281769
 30
0.0
 40
6.624999944286225
100
AcDbArc
 50
148.1092146844663
 51
211.8907958127824
  0
LINE
  5
657F
330
1A
100
AcDbEntity
  8
SEIHIN
  6
DASHED
 62
     6
100
AcDbLine
 10
413.4465279531606
 20
320.5449017281769
 30
0.0
 11
430.2477999531608
 21
326.6074657281769
 31
0.0
  0
LINE
  5
6580
330
1A
100
AcDbEntity
  8
SEIHIN
  6
DASHED
 62
     6
100
AcDbLine
 10
431.0555129531606
 20
321.6046217281769
 30
0.0
 11
414.5442429531607
 21
315.1436897281769
 31
0.0
  0
LINE
  5
6581
330
1A
100
AcDbEntity
  8
SEIHIN
  6
DASHED
 62
     6
100
AcDbLine
 10
413.7843109531607
 20
318.0678267281769
 30
0.0
 11
429.9623139531608
 21
324.3983497281769
 31
0.0
  0
LINE
  5
6582
330
1A
100
AcDbEntity
  8
SEIHIN
  6
CONTINUOUS
 62
     3
100
AcDbLine
 10
403.2843109531608
 20
318.7422197281769
 30
0.0
 11
403.2843109531608
 21
320.9636527281769
 31
0.0
  0
LINE
  5
6583
330
1A
100
AcDbEntity
  8
SEIHIN
  6
DASHED
 62
     6
100
AcDbLine
 10
433.7843109531608
 20
318.7422197281769
 30
0.0
 11
433.7843109531608
 21
319.7421357281769
 31
0.0
  0
ARC
  5
6584
330
1A
100
AcDbEntity
  8
SEIHIN
  6
DASHED
 62
     6
100
AcDbCircle
 10
431.7843109531607
 20
319.7421357281769
 30
0.0
 40
2.000000260324591
100
AcDbArc
 50
0.0000000470001506
 51
111.3706257960974
  0
TEXT
  5
6585
330
1A
100
AcDbEntity
  8
SUNPOU
  6
CONTINUOUS
100
AcDbText
 10
457.8487495877078
 20
337.7278198450216
 30
0.0
 40
6.0
  1
4-φ4.2
100
AcDbText
  0
LINE
  5
6586
330
1A
100
AcDbEntity
  8
SEIHIN
  6
DASHED
 62
     6
100
AcDbLine
 10
436.7843109531608
 20
318.7422197281769
 30
0.0
 11
436.7843109531608
 21
319.7421357281769
 31
0.0
  0
LINE
  5
6587
330
1A
100
AcDbEntity
  8
SEIHIN
  6
DASHED
 62
     6
100
AcDbLine
 10
438.2843109531608
 20
318.7422197281769
 30
0.0
 11
438.2843109531608
 21
320.9636527281769
 31
0.0
  0
LINE
  5
6588
330
1A
100
AcDbEntity
  8
CENTER_L
  6
CENTER
100
AcDbLine
 10
534.6881233366572
 20
331.4246657281769
 30
0.0
 11
534.6881233366572
 21
264.1334337281769
 31
0.0
  0
LINE
  5
6589
330
1A
100
AcDbEntity
  8
CENTER_L
  6
CENTER
100
AcDbLine
 10
514.462192336657
 20
291.2422197281769
 30
0.0
 11
514.462192336657
 21
285.2422197281769
 31
0.0
  0
LINE
  5
658A
330
1A
100
AcDbEntity
  8
CENTER_L
  6
CENTER
100
AcDbLine
 10
554.914055336657
 20
291.2422197281769
 30
0.0
 11
554.914055336657
 21
285.2422197281769
 31
0.0
  0
LINE
  5
658B
330
1A
100
AcDbEntity
  8
SEIHIN
  6
CONTINUOUS
 62
     3
100
AcDbLine
 10
546.6219163366571
 20
289.2422197281769
 30
0.0
 11
546.6219163366571
 21
292.2422197281769
 31
0.0
  0
LINE
  5
658C
330
1A
100
AcDbEntity
  8
SEIHIN
  6
CONTINUOUS
 62
     3
100
AcDbLine
 10
543.5894903366571
 20
289.2422197281769
 30
0.0
 11
543.5894903366571
 21
292.2422197281769
 31
0.0
  0
LINE
  5
658D
330
1A
100
AcDbEntity
  8
SEIHIN
  6
CONTINUOUS
 62
     3
100
AcDbLine
 10
539.6881233366571
 20
290.7422197281769
 30
0.0
 11
539.6881233366571
 21
282.7422197281769
 31
0.0
  0
LINE
  5
658E
330
1A
100
AcDbEntity
  8
SEIHIN
  6
CONTINUOUS
 62
     3
100
AcDbLine
 10
542.6881233366572
 20
293.0597247281769
 30
0.0
 11
542.6881233366572
 21
282.7422197281769
 31
0.0
  0
LINE
  5
658F
330
1A
100
AcDbEntity
  8
SEIHIN
  6
CONTINUOUS
 62
     3
100
AcDbLine
 10
560.388123336657
 20
316.7422197281769
 30
0.0
 11
560.388123336657
 21
284.7422197281769
 31
0.0
  0
LINE
  5
6590
330
1A
100
AcDbEntity
  8
SEIHIN
  6
CONTINUOUS
 62
     3
100
AcDbLine
 10
525.7867573366572
 20
289.2422197281769
 30
0.0
 11
525.7867573366572
 21
292.2422197281769
 31
0.0
  0
LINE
  5
6591
330
1A
100
AcDbEntity
  8
SEIHIN
  6
CONTINUOUS
 62
     3
100
AcDbLine
 10
522.7543313366571
 20
289.2422197281769
 30
0.0
 11
522.7543313366571
 21
292.2422197281769
 31
0.0
  0
LINE
  5
6592
330
1A
100
AcDbEntity
  8
SEIHIN
  6
CONTINUOUS
 62
     3
100
AcDbLine
 10
529.6881233366572
 20
290.7422197281769
 30
0.0
 11
529.6881233366572
 21
282.7422197281769
 31
0.0
  0
LINE
  5
6593
330
1A
100
AcDbEntity
  8
SEIHIN
  6
CONTINUOUS
 62
     3
100
AcDbLine
 10
526.6881233366571
 20
293.0597487281769
 30
0.0
 11
526.6881233366571
 21
282.7422197281769
 31
0.0
  0
LINE
  5
6594
330
1A
100
AcDbEntity
  8
SEIHIN
  6
CONTINUOUS
 62
     3
100
AcDbLine
 10
508.9881233366571
 20
316.7422197281769
 30
0.0
 11
508.9881233366571
 21
284.7422197281769
 31
0.0
  0
LINE
  5
6595
330
1A
100
AcDbEntity
  8
SEIHIN
  6
CONTINUOUS
 62
     3
100
AcDbLine
 10
558.3881243366571
 20
282.7422197281769
 30
0.0
 11
510.9881243366571
 21
282.7422197281769
 31
0.0
  0
LINE
  5
6596
330
1A
100
AcDbEntity
  8
SEIHIN
  6
CONTINUOUS
 62
     3
100
AcDbLine
 10
532.9381233366571
 20
269.1334337281769
 30
0.0
 11
536.4381233366572
 21
269.1334337281769
 31
0.0
  0
ARC
  5
6597
330
1A
100
AcDbEntity
  8
SEIHIN
  6
CONTINUOUS
 62
     3
100
AcDbCircle
 10
510.9881233366571
 20
284.7422197281769
 30
0.0
 40
2.0
100
AcDbArc
 50
180.0
 51
270.0
  0
LINE
  5
6598
330
1A
100
AcDbEntity
  8
CENTER_L
  6
CENTER
100
AcDbLine
 10
517.462192336657
 20
288.2422197281769
 30
0.0
 11
511.462192336657
 21
288.2422197281769
 31
0.0
  0
CIRCLE
  5
6599
330
1A
100
AcDbEntity
  8
SEIHIN
  6
CONTINUOUS
 62
     3
100
AcDbCircle
 10
514.462192336657
 20
288.2422197281769
 30
0.0
 40
2.1
  0
LINE
  5
659A
330
1A
100
AcDbEntity
  8
SEIHIN
  6
CONTINUOUS
 62
     3
100
AcDbLine
 10
531.9381233366572
 20
282.7422197281769
 30
0.0
 11
531.9381233366572
 21
270.1334337281769
 31
0.0
  0
ARC
  5
659B
330
1A
100
AcDbEntity
  8
SEIHIN
  6
CONTINUOUS
 62
     3
100
AcDbCircle
 10
532.9381233366571
 20
270.1334337281769
 30
0.0
 40
1.0
100
AcDbArc
 50
180.0
 51
270.0
  0
LINE
  5
659C
330
1A
100
AcDbEntity
  8
SEIHIN
  6
CONTINUOUS
 62
     3
100
AcDbLine
 10
525.5882143366571
 20
289.2422197281769
 30
0.0
 11
525.5882143366571
 21
282.7422197281769
 31
0.0
  0
LINE
  5
659D
330
1A
100
AcDbEntity
  8
SEIHIN
  6
CONTINUOUS
 62
     3
100
AcDbLine
 10
523.909025336657
 20
289.2422197281769
 30
0.0
 11
523.909025336657
 21
282.7422197281769
 31
0.0
  0
LINE
  5
659E
330
1A
100
AcDbEntity
  8
SEIHIN
  6
CONTINUOUS
 62
     3
100
AcDbLine
 10
525.7867573366572
 20
289.2422197281769
 30
0.0
 11
522.7543313366571
 21
289.2422197281769
 31
0.0
  0
LINE
  5
659F
330
1A
100
AcDbEntity
  8
CENTER_L
  6
CENTER
100
AcDbLine
 10
557.914055336657
 20
288.2422197281769
 30
0.0
 11
551.914055336657
 21
288.2422197281769
 31
0.0
  0
LINE
  5
65A0
330
1A
100
AcDbEntity
  8
SEIHIN
  6
CONTINUOUS
 62
     3
100
AcDbLine
 10
537.4381233366571
 20
282.7422197281769
 30
0.0
 11
537.4381233366571
 21
270.1334337281769
 31
0.0
  0
ARC
  5
65A1
330
1A
100
AcDbEntity
  8
SEIHIN
  6
CONTINUOUS
 62
     3
100
AcDbCircle
 10
536.4381233366572
 20
270.1334337281769
 30
0.0
 40
1.0
100
AcDbArc
 50
270.0
 51
0.0
  0
LINE
  5
65A2
330
1A
100
AcDbEntity
  8
SEIHIN
  6
CONTINUOUS
 62
     3
100
AcDbLine
 10
546.6219163366571
 20
289.2422197281769
 30
0.0
 11
543.5894903366571
 21
289.2422197281769
 31
0.0
  0
LINE
  5
65A3
330
1A
100
AcDbEntity
  8
SEIHIN
  6
CONTINUOUS
 62
     3
100
AcDbLine
 10
543.7663543366571
 20
289.2422197281769
 30
0.0
 11
543.7663543366571
 21
282.7422197281769
 31
0.0
  0
LINE
  5
65A4
330
1A
100
AcDbEntity
  8
SEIHIN
  6
CONTINUOUS
 62
     3
100
AcDbLine
 10
545.4465863366571
 20
289.2422197281769
 30
0.0
 11
545.4465863366571
 21
282.7422197281769
 31
0.0
  0
ARC
  5
65A5
330
1A
100
AcDbEntity
  8
SEIHIN
  6
CONTINUOUS
 62
     3
100
AcDbCircle
 10
558.388123336657
 20
284.7422197281769
 30
0.0
 40
2.0
100
AcDbArc
 50
270.0
 51
0.0
  0
CIRCLE
  5
65A6
330
1A
100
AcDbEntity
  8
SEIHIN
  6
CONTINUOUS
 62
     3
100
AcDbCircle
 10
554.914055336657
 20
288.2422197281769
 30
0.0
 40
2.1
  0
LINE
  5
65A7
330
1A
100
AcDbEntity
  8
SEIHIN
  6
CONTINUOUS
 62
     3
100
AcDbLine
 10
531.1881233366571
 20
326.4246657281769
 30
0.0
 11
538.1881233366572
 21
326.4246657281769
 31
0.0
  0
LINE
  5
65A8
330
1A
100
AcDbEntity
  8
SEIHIN
  6
CONTINUOUS
 62
     3
100
AcDbLine
 10
529.6881233366572
 20
309.5596897281769
 30
0.0
 11
539.6881233366571
 21
309.5596897281769
 31
0.0
  0
ARC
  5
65A9
330
1A
100
AcDbEntity
  8
SEIHIN
  6
CONTINUOUS
 62
     3
100
AcDbCircle
 10
534.6881233366572
 20
285.4922197281769
 30
0.0
 40
7.249999838287754
100
AcDbArc
 50
46.39719090588038
 51
133.6028309092295
  0
CIRCLE
  5
65AA
330
1A
100
AcDbEntity
  8
SEIHIN
  6
CONTINUOUS
 62
     3
100
AcDbCircle
 10
534.6881233366572
 20
300.7422197281769
 30
0.0
 40
2.1
  0
LINE
  5
65AB
330
1A
100
AcDbEntity
  8
CENTER_L
  6
CENTER
100
AcDbLine
 10
514.462192336657
 20
316.242219728177
 30
0.0
 11
514.462192336657
 21
310.2422197281769
 31
0.0
  0
LINE
  5
65AC
330
1A
100
AcDbEntity
  8
SEIHIN
  6
CONTINUOUS
 62
     3
100
AcDbLine
 10
523.909025336657
 20
318.7422197281769
 30
0.0
 11
523.909025336657
 21
312.2422197281769
 31
0.0
  0
LINE
  5
65AD
330
1A
100
AcDbEntity
  8
SEIHIN
  6
CONTINUOUS
 62
     3
100
AcDbLine
 10
525.5882143366571
 20
318.7422197281769
 30
0.0
 11
525.5882143366571
 21
312.2422197281769
 31
0.0
  0
CIRCLE
  5
65AE
330
1A
100
AcDbEntity
  8
SEIHIN
  6
CONTINUOUS
 62
     3
100
AcDbCircle
 10
514.462192336657
 20
313.2422197281769
 30
0.0
 40
2.1
  0
LINE
  5
65AF
330
1A
100
AcDbEntity
  8
SEIHIN
  6
CONTINUOUS
 62
     3
100
AcDbLine
 10
529.6881233366572
 20
324.9246657281769
 30
0.0
 11
529.6881233366572
 21
309.5596897281769
 31
0.0
  0
LINE
  5
65B0
330
1A
100
AcDbEntity
  8
SEIHIN
  6
CONTINUOUS
 62
     3
100
AcDbLine
 10
526.6881233366571
 20
323.8877487281769
 30
0.0
 11
526.6881233366571
 21
293.0597487281769
 31
0.0
  0
LINE
  5
65B1
330
1A
100
AcDbEntity
  8
CENTER_L
  6
CENTER
100
AcDbLine
 10
510.9881233366571
 20
304.7422197281769
 30
0.0
 11
520.9881233366571
 21
304.7422197281769
 31
0.0
  0
CIRCLE
  5
65B2
330
1A
100
AcDbEntity
  8
SEIHIN
  6
CONTINUOUS
 62
     3
100
AcDbCircle
 10
515.9881233366571
 20
304.7422197281769
 30
0.0
 40
3.25
  0
LINE
  5
65B3
330
1A
100
AcDbEntity
  8
CENTER_L
  6
CENTER
100
AcDbLine
 10
515.9881233366571
 20
309.7422197281769
 30
0.0
 11
515.9881233366571
 21
299.7422197281769
 31
0.0
  0
LINE
  5
65B4
330
1A
100
AcDbEntity
  8
CENTER_L
  6
CENTER
100
AcDbLine
 10
517.462192336657
 20
313.2422197281769
 30
0.0
 11
511.462192336657
 21
313.242219728177
 31
0.0
  0
LINE
  5
65B5
330
1A
100
AcDbEntity
  8
SEIHIN
  6
CONTINUOUS
 62
     3
100
AcDbLine
 10
523.909025336657
 20
309.2422197281769
 30
0.0
 11
523.909025336657
 21
292.2422197281769
 31
0.0
  0
LINE
  5
65B6
330
1A
100
AcDbEntity
  8
SEIHIN
  6
CONTINUOUS
 62
     3
100
AcDbLine
 10
525.5882143366571
 20
309.2422197281769
 30
0.0
 11
525.5882143366571
 21
292.2422197281769
 31
0.0
  0
LINE
  5
65B7
330
1A
100
AcDbEntity
  8
SEIHIN
  6
CONTINUOUS
 62
     3
100
AcDbLine
 10
525.7867573366572
 20
292.2422197281769
 30
0.0
 11
522.7543313366571
 21
292.2422197281769
 31
0.0
  0
LINE
  5
65B8
330
1A
100
AcDbEntity
  8
SEIHIN
  6
CONTINUOUS
 62
     3
100
AcDbLine
 10
525.7867573366572
 20
312.2422197281769
 30
0.0
 11
522.7543313366571
 21
312.2422197281769
 31
0.0
  0
LINE
  5
65B9
330
1A
100
AcDbEntity
  8
SEIHIN
  6
CONTINUOUS
 62
     3
100
AcDbLine
 10
525.7867573366572
 20
309.2422197281769
 30
0.0
 11
522.7543313366571
 21
309.2422197281769
 31
0.0
  0
LINE
  5
65BA
330
1A
100
AcDbEntity
  8
SEIHIN
  6
CONTINUOUS
 62
     3
100
AcDbLine
 10
522.7543313366571
 20
312.2422197281769
 30
0.0
 11
522.7543313366571
 21
309.2422197281769
 31
0.0
  0
LINE
  5
65BB
330
1A
100
AcDbEntity
  8
SEIHIN
  6
CONTINUOUS
 62
     3
100
AcDbLine
 10
525.7867573366572
 20
312.2422197281769
 30
0.0
 11
525.7867573366572
 21
309.2422197281769
 31
0.0
  0
LINE
  5
65BC
330
1A
100
AcDbEntity
  8
SEIHIN
  6
CONTINUOUS
 62
     3
100
AcDbLine
 10
526.6881233366571
 20
318.7422197281769
 30
0.0
 11
510.9881233366571
 21
318.7422197281769
 31
0.0
  0
ARC
  5
65BD
330
1A
100
AcDbEntity
  8
SEIHIN
  6
CONTINUOUS
 62
     3
100
AcDbCircle
 10
510.9881233366571
 20
316.7422197281769
 30
0.0
 40
2.0
100
AcDbArc
 50
90.0
 51
180.0
  0
ARC
  5
65BE
330
1A
100
AcDbEntity
  8
SEIHIN
  6
CONTINUOUS
 62
     3
100
AcDbCircle
 10
531.1881233366571
 20
324.9246657281769
 30
0.0
 40
1.5
100
AcDbArc
 50
90.0
 51
180.0
  0
LINE
  5
65BF
330
1A
100
AcDbEntity
  8
SEIHIN
  6
CONTINUOUS
 62
     3
100
AcDbLine
 10
526.6881233366571
 20
323.8877487281769
 30
0.0
 11
529.6881233366572
 21
323.8877487281769
 31
0.0
  0
LINE
  5
65C0
330
1A
100
AcDbEntity
  8
CENTER_L
  6
CENTER
100
AcDbLine
 10
554.914055336657
 20
316.242219728177
 30
0.0
 11
554.914055336657
 21
310.242219728177
 31
0.0
  0
LINE
  5
65C1
330
1A
100
AcDbEntity
  8
SEIHIN
  6
CONTINUOUS
 62
     3
100
AcDbLine
 10
543.7663543366571
 20
318.7422197281769
 30
0.0
 11
543.7663543366571
 21
312.2422197281769
 31
0.0
  0
LINE
  5
65C2
330
1A
100
AcDbEntity
  8
SEIHIN
  6
CONTINUOUS
 62
     3
100
AcDbLine
 10
545.4465863366571
 20
318.7422197281769
 30
0.0
 11
545.4465863366571
 21
312.2422197281769
 31
0.0
  0
CIRCLE
  5
65C3
330
1A
100
AcDbEntity
  8
SEIHIN
  6
CONTINUOUS
 62
     3
100
AcDbCircle
 10
554.914055336657
 20
313.2422197281769
 30
0.0
 40
2.1
  0
LINE
  5
65C4
330
1A
100
AcDbEntity
  8
SEIHIN
  6
CONTINUOUS
 62
     3
100
AcDbLine
 10
539.6881233366571
 20
324.9246657281769
 30
0.0
 11
539.6881233366571
 21
309.5596897281769
 31
0.0
  0
LINE
  5
65C5
330
1A
100
AcDbEntity
  8
SEIHIN
  6
CONTINUOUS
 62
     3
100
AcDbLine
 10
542.6881233366572
 20
323.8877487281769
 30
0.0
 11
542.6881233366572
 21
293.0597247281769
 31
0.0
  0
LINE
  5
65C6
330
1A
100
AcDbEntity
  8
CENTER_L
  6
CENTER
100
AcDbLine
 10
557.914055336657
 20
313.2422197281769
 30
0.0
 11
551.914055336657
 21
313.2422197281769
 31
0.0
  0
LINE
  5
65C7
330
1A
100
AcDbEntity
  8
CENTER_L
  6
CENTER
100
AcDbLine
 10
548.388123336657
 20
304.7422197281769
 30
0.0
 11
558.388123336657
 21
304.7422197281769
 31
0.0
  0
CIRCLE
  5
65C8
330
1A
100
AcDbEntity
  8
SEIHIN
  6
CONTINUOUS
 62
     3
100
AcDbCircle
 10
553.388123336657
 20
304.7422197281769
 30
0.0
 40
3.25
  0
LINE
  5
65C9
330
1A
100
AcDbEntity
  8
SEIHIN
  6
CONTINUOUS
 62
     3
100
AcDbLine
 10
545.4465863366571
 20
309.2422197281769
 30
0.0
 11
545.4465863366571
 21
292.2422197281769
 31
0.0
  0
LINE
  5
65CA
330
1A
100
AcDbEntity
  8
SEIHIN
  6
CONTINUOUS
 62
     3
100
AcDbLine
 10
543.7663543366571
 20
309.2422197281769
 30
0.0
 11
543.7663543366571
 21
292.2422197281769
 31
0.0
  0
LINE
  5
65CB
330
1A
100
AcDbEntity
  8
SEIHIN
  6
CONTINUOUS
 62
     3
100
AcDbLine
 10
546.6219163366571
 20
292.2422197281769
 30
0.0
 11
543.5894903366571
 21
292.2422197281769
 31
0.0
  0
LINE
  5
65CC
330
1A
100
AcDbEntity
  8
SEIHIN
  6
CONTINUOUS
 62
     3
100
AcDbLine
 10
546.6219163366571
 20
312.2422197281769
 30
0.0
 11
543.5894903366571
 21
312.2422197281769
 31
0.0
  0
LINE
  5
65CD
330
1A
100
AcDbEntity
  8
SEIHIN
  6
CONTINUOUS
 62
     3
100
AcDbLine
 10
546.6219163366571
 20
309.2422197281769
 30
0.0
 11
543.5894903366571
 21
309.2422197281769
 31
0.0
  0
LINE
  5
65CE
330
1A
100
AcDbEntity
  8
SEIHIN
  6
CONTINUOUS
 62
     3
100
AcDbLine
 10
543.5894903366571
 20
312.2422197281769
 30
0.0
 11
543.5894903366571
 21
309.2422197281769
 31
0.0
  0
LINE
  5
65CF
330
1A
100
AcDbEntity
  8
SEIHIN
  6
CONTINUOUS
 62
     3
100
AcDbLine
 10
546.6219163366571
 20
312.2422197281769
 30
0.0
 11
546.6219163366571
 21
309.2422197281769
 31
0.0
  0
LINE
  5
65D0
330
1A
100
AcDbEntity
  8
CENTER_L
  6
CENTER
100
AcDbLine
 10
553.388123336657
 20
309.7422197281769
 30
0.0
 11
553.388123336657
 21
299.7422197281769
 31
0.0
  0
LINE
  5
65D1
330
1A
100
AcDbEntity
  8
SEIHIN
  6
CONTINUOUS
 62
     3
100
AcDbLine
 10
558.388123336657
 20
318.7422197281769
 30
0.0
 11
542.6881233366572
 21
318.7422197281769
 31
0.0
  0
ARC
  5
65D2
330
1A
100
AcDbEntity
  8
SEIHIN
  6
CONTINUOUS
 62
     3
100
AcDbCircle
 10
538.1881233366572
 20
324.9246657281769
 30
0.0
 40
1.5
100
AcDbArc
 50
0.0
 51
90.0
  0
LINE
  5
65D3
330
1A
100
AcDbEntity
  8
SEIHIN
  6
CONTINUOUS
 62
     3
100
AcDbLine
 10
539.6881233366571
 20
323.8877487281769
 30
0.0
 11
542.6881233366572
 21
323.8877487281769
 31
0.0
  0
ARC
  5
65D4
330
1A
100
AcDbEntity
  8
SEIHIN
  6
CONTINUOUS
 62
     3
100
AcDbCircle
 10
558.388123336657
 20
316.7422197281769
 30
0.0
 40
2.0
100
AcDbArc
 50
0.0
 51
90.0
  0
TEXT
  5
65DA
330
1A
100
AcDbEntity
  8
SUNPOU
  6
CONTINUOUS
100
AcDbText
 10
583.008101395213
 20
350.09915014017
 30
0.0
 40
6.0
  1
2-φ6.5
100
AcDbText
  0
LINE
  5
65DC
330
1A
100
AcDbEntity
  8
SEIHIN
  6
CONTINUOUS
 62
     3
100
AcDbLine
 10
403.8334932498531
 20
424.819156932678
 30
0.0
 11
403.8334932498531
 21
409.646391932678
 31
0.0
  0
TEXT
  5
65DD
330
1A
100
AcDbEntity
  8
SUNPOU
  6
CONTINUOUS
100
AcDbText
 10
429.6081800146355
 20
378.8378255297627
 30
0.0
 40
6.0
  1
スライド幅
100
AcDbText
  0
LINE
  5
65DE
330
1A
100
AcDbEntity
  8
SEIHIN
  6
CONTINUOUS
 62
     3
100
AcDbLine
 10
403.8334932498531
 20
439.298256932678
 30
0.0
 11
403.8334932498531
 21
431.298256932678
 31
0.0
  0
LINE
  5
65DF
330
1A
100
AcDbEntity
  8
SEIHIN
  6
CONTINUOUS
 62
     3
100
AcDbLine
 10
403.8334932498531
 20
445.756717932678
 30
0.0
 11
403.8334932498531
 21
460.950118932678
 31
0.0
  0
LINE
  5
6891
330
1A
100
AcDbEntity
  8
SEIHIN
  6
CONTINUOUS
 62
     3
100
AcDbLine
 10
386.5040049531606
 20
126.6956914897706
 30
0.0
 11
386.5040049531606
 21
108.2265684897707
 31
0.0
  0
LINE
  5
6892
330
1A
100
AcDbEntity
  8
SEIHIN
  6
CONTINUOUS
 62
     3
100
AcDbLine
 10
386.5040049531606
 20
126.6956914897706
 30
0.0
 11
386.5040049531606
 21
113.2265684897707
 31
0.0
  0
LINE
  5
6893
330
1A
100
AcDbEntity
  8
SEIHIN
  6
CONTINUOUS
 62
     3
100
AcDbLine
 10
388.5040049531606
 20
108.2265684897707
 30
0.0
 11
388.5040049531606
 21
126.6956914897706
 31
0.0
  0
LINE
  5
6894
330
1A
100
AcDbEntity
  8
SEIHIN
  6
CONTINUOUS
 62
     3
100
AcDbLine
 10
388.5040049531606
 20
113.2265684897707
 30
0.0
 11
388.5040049531606
 21
126.6956914897706
 31
0.0
  0
LINE
  5
6895
330
1A
100
AcDbEntity
  8
SEIHIN
  6
CONTINUOUS
 62
     3
100
AcDbLine
 10
388.5040049531606
 20
108.2265684897707
 30
0.0
 11
386.5040049531606
 21
108.2265684897707
 31
0.0
  0
LINE
  5
6896
330
1A
100
AcDbEntity
  8
SEIHIN
  6
CONTINUOUS
 62
     3
100
AcDbLine
 10
323.3540979531607
 20
138.2972454897707
 30
0.0
 11
313.6751249531606
 21
142.7604204897706
 31
0.0
  0
LINE
  5
6898
330
1A
100
AcDbEntity
  8
SEIHIN
  6
CONTINUOUS
 62
     3
100
AcDbLine
 10
291.5343609531607
 20
123.5976084897707
 30
0.0
 11
314.5343609531606
 21
123.5976084897707
 31
0.0
  0
LINE
  5
6899
330
1A
100
AcDbEntity
  8
SEIHIN
  6
CONTINUOUS
 62
     3
100
AcDbLine
 10
297.0342859531607
 20
131.5976084897707
 30
0.0
 11
314.5343609531606
 21
131.5976084897707
 31
0.0
  0
ARC
  5
689A
330
1A
100
AcDbEntity
  8
SEIHIN
  6
CONTINUOUS
 62
     3
100
AcDbCircle
 10
303.0344129531607
 20
126.8726974897707
 30
0.0
 40
15.72491078112709
100
AcDbArc
 50
43.00252833503147
 51
136.9974830730985
  0
LINE
  5
689B
330
1A
100
AcDbEntity
  8
SEIHIN
  6
CONTINUOUS
 62
     3
100
AcDbLine
 10
279.2385199531608
 20
131.3872104897707
 30
0.0
 11
284.3918079531608
 21
131.3872104897707
 31
0.0
  0
LINE
  5
689C
330
1A
100
AcDbEntity
  8
SEIHIN
  6
CONTINUOUS
 62
     3
100
AcDbLine
 10
284.3918079531608
 20
132.3872104897707
 30
0.0
 11
279.2385199531608
 21
132.3872104897707
 31
0.0
  0
LINE
  5
689D
330
1A
100
AcDbEntity
  8
SEIHIN
  6
CONTINUOUS
 62
     3
100
AcDbLine
 10
278.7019209531607
 20
139.3145634897707
 30
0.0
 11
277.7050029531607
 21
139.3930224897707
 31
0.0
  0
ARC
  5
689E
330
1A
100
AcDbEntity
  8
SEIHIN
  6
CONTINUOUS
 62
     3
100
AcDbCircle
 10
279.2385199531608
 20
133.3872104897707
 30
0.0
 40
0.999999829892471
100
AcDbArc
 50
175.500003967638
 51
270.0
  0
ARC
  5
689F
330
1A
100
AcDbEntity
  8
SEIHIN
  6
CONTINUOUS
 62
     3
100
AcDbCircle
 10
279.2385199531608
 20
133.3872104897707
 30
0.0
 40
2.000000158243612
100
AcDbArc
 50
175.5000039676397
 51
269.9999977523173
  0
LINE
  5
68A0
330
1A
100
AcDbEntity
  8
SEIHIN
  6
CONTINUOUS
 62
     3
100
AcDbLine
 10
278.3116029531607
 20
134.3551014897707
 30
0.0
 11
280.2794929531606
 21
132.3872104897707
 31
0.0
  0
LINE
  5
68A1
330
1A
100
AcDbEntity
  8
SEIHIN
  6
CONTINUOUS
 62
     3
100
AcDbLine
 10
280.9795439531607
 20
132.3872104897707
 30
0.0
 11
280.9795439531607
 21
131.3872104897707
 31
0.0
  0
LINE
  5
68A2
330
1A
100
AcDbEntity
  8
SEIHIN
  6
CONTINUOUS
 62
     3
100
AcDbLine
 10
277.2446859531606
 20
133.5441284897706
 30
0.0
 11
277.7050029531607
 21
139.3930224897707
 31
0.0
  0
LINE
  5
68A3
330
1A
100
AcDbEntity
  8
SEIHIN
  6
CONTINUOUS
 62
     3
100
AcDbLine
 10
278.2416029531606
 20
133.4656694897707
 30
0.0
 11
278.7019209531607
 21
139.3145634897707
 31
0.0
  0
LINE
  5
68A4
330
1A
100
AcDbEntity
  8
SEIHIN
  6
CONTINUOUS
 62
     3
100
AcDbLine
 10
297.0343109531608
 20
136.3975674897707
 30
0.0
 11
297.0343109531608
 21
128.8975674897707
 31
0.0
  0
LINE
  5
68A5
330
1A
100
AcDbEntity
  8
SEIHIN
  6
CONTINUOUS
 62
     3
100
AcDbLine
 10
293.5343109531607
 20
136.3975644897707
 30
0.0
 11
293.5343109531607
 21
128.8975644897707
 31
0.0
  0
LINE
  5
68A6
330
1A
100
AcDbEntity
  8
SEIHIN
  6
CONTINUOUS
 62
     3
100
AcDbLine
 10
293.7843109531608
 20
128.8975674897707
 30
0.0
 11
293.7843109531608
 21
136.0975324897706
 31
0.0
  0
LINE
  5
68A7
330
1A
100
AcDbEntity
  8
SEIHIN
  6
CONTINUOUS
 62
     3
100
AcDbLine
 10
296.7843109531608
 20
136.0975324897706
 30
0.0
 11
296.7843109531608
 21
128.8975674897707
 31
0.0
  0
ARC
  5
68A8
330
1A
100
AcDbEntity
  8
SEIHIN
  6
CONTINUOUS
 62
     3
100
AcDbCircle
 10
325.5597359531606
 20
134.1874014897707
 30
0.0
 40
40.79999412073524
100
AcDbArc
 50
184.5832787066585
 51
190.393305853126
  0
LINE
  5
68A9
330
1A
100
AcDbEntity
  8
SEIHIN
  6
CONTINUOUS
 62
     3
100
AcDbLine
 10
291.5343609531607
 20
123.5976084897707
 30
0.0
 11
291.5344109531607
 21
137.5975654897707
 31
0.0
  0
LINE
  5
68AA
330
1A
100
AcDbEntity
  8
SEIHIN
  6
CONTINUOUS
 62
     3
100
AcDbLine
 10
286.9045529531607
 20
125.5975254897707
 30
0.0
 11
291.5343689531606
 21
125.5975254897707
 31
0.0
  0
ARC
  5
68AB
330
1A
100
AcDbEntity
  8
SEIHIN
  6
CONTINUOUS
 62
     3
100
AcDbCircle
 10
286.9045529531607
 20
127.0975254897707
 30
0.0
 40
1.500000051426164
100
AcDbArc
 50
190.3932883742413
 51
269.9999965545381
  0
LINE
  5
68AC
330
1A
100
AcDbEntity
  8
SEIHIN
  6
CONTINUOUS
 62
     3
100
AcDbLine
 10
293.5343109531607
 20
128.8975644897707
 30
0.0
 11
297.0343109531608
 21
128.8975674897707
 31
0.0
  0
LINE
  5
68AD
330
1A
100
AcDbEntity
  8
SEIHIN
  6
CONTINUOUS
 62
     3
100
AcDbLine
 10
285.4678109531606
 20
130.5975254897707
 30
0.0
 11
291.5343859531607
 21
130.5975254897707
 31
0.0
  0
ARC
  5
68AE
330
1A
100
AcDbEntity
  8
SEIHIN
  6
CONTINUOUS
 62
     3
100
AcDbCircle
 10
284.3918079531608
 20
130.8872104897707
 30
0.0
 40
1.499999818375477
100
AcDbArc
 50
4.583278706660171
 51
90.0
  0
ARC
  5
68AF
330
1A
100
AcDbEntity
  8
SEIHIN
  6
CONTINUOUS
 62
     3
100
AcDbCircle
 10
285.4678109531606
 20
130.0975254897707
 30
0.0
 40
0.4999997593863843
100
AcDbArc
 50
89.99999418527593
 51
185.824747198533
  0
ARC
  5
68B0
330
1A
100
AcDbEntity
  8
SEIHIN
  6
CONTINUOUS
 62
     3
100
AcDbCircle
 10
325.5597359531606
 20
134.1874014897707
 30
0.0
 40
39.79999425007106
100
AcDbArc
 50
184.5832787066585
 51
185.1750064315931
  0
ARC
  5
68B1
330
1A
100
AcDbEntity
  8
SEIHIN
  6
CONTINUOUS
 62
     3
100
AcDbCircle
 10
284.3918079531608
 20
130.8872104897707
 30
0.0
 40
0.4999999394584927
100
AcDbArc
 50
4.583221594082194
 51
89.99994288741406
  0
LINE
  5
68B2
330
1A
100
AcDbEntity
  8
SEIHIN
  6
CONTINUOUS
 62
     3
100
AcDbLine
 10
283.8415159531606
 20
132.3872104897707
 30
0.0
 11
283.8415159531606
 21
131.3872104897707
 31
0.0
  0
LINE
  5
68B3
330
1A
100
AcDbEntity
  8
SEIHIN
  6
CONTINUOUS
 62
     3
100
AcDbLine
 10
296.7843109531608
 20
136.0975324897706
 30
0.0
 11
293.7843109531608
 21
136.0975324897706
 31
0.0
  0
LINE
  5
68B4
330
1A
100
AcDbEntity
  8
SEIHIN
  6
CONTINUOUS
 62
     3
100
AcDbLine
 10
293.5343109531607
 20
136.3975644897707
 30
0.0
 11
297.0343109531608
 21
136.3975674897707
 31
0.0
  0
LINE
  5
68B5
330
1A
100
AcDbEntity
  8
SEIHIN
  6
CONTINUOUS
 62
     3
100
AcDbLine
 10
291.5343609531607
 20
131.5976084897707
 30
0.0
 11
293.5342859531607
 21
131.5976084897707
 31
0.0
  0
CIRCLE
  5
68B6
330
1A
100
AcDbEntity
  8
SEIHIN
  6
CONTINUOUS
 62
     3
100
AcDbCircle
 10
303.0344309531607
 20
137.5975674897707
 30
0.0
 40
2.149999999999999
  0
LINE
  5
68B7
330
1A
100
AcDbEntity
  8
SEIHIN
  6
CONTINUOUS
 62
     3
100
AcDbLine
 10
298.2543829531606
 20
141.9442084897706
 30
0.0
 11
297.2763569531606
 21
141.9442074897706
 31
0.0
  0
LINE
  5
68B8
330
1A
100
AcDbEntity
  8
SEIHIN
  6
CONTINUOUS
 62
     3
100
AcDbLine
 10
312.8376319531606
 20
142.9442124897707
 30
0.0
 11
297.2763499531607
 21
142.9441914897707
 31
0.0
  0
LINE
  5
68B9
330
1A
100
AcDbEntity
  8
SEIHIN
  6
CONTINUOUS
 62
     3
100
AcDbLine
 10
297.2763569531606
 20
141.9442074897706
 30
0.0
 11
297.2763499531607
 21
142.9441914897707
 31
0.0
  0
ARC
  5
68BA
330
1A
100
AcDbEntity
  8
SEIHIN
  6
CONTINUOUS
 62
     3
100
AcDbCircle
 10
312.8376349531607
 20
140.9442124897707
 30
0.0
 40
1.999999844935612
100
AcDbArc
 50
65.2446238788498
 51
90.00010203811193
  0
LINE
  5
68BB
330
1A
100
AcDbEntity
  8
SEIHIN
  6
CONTINUOUS
 62
     3
100
AcDbLine
 10
388.6058119531607
 20
150.3833694897707
 30
0.0
 11
375.4053269531606
 21
148.5132024897707
 31
0.0
  0
LINE
  5
68BC
330
1A
100
AcDbEntity
  8
SEIHIN
  6
CONTINUOUS
 62
     3
100
AcDbLine
 10
378.7843109531607
 20
157.1609614897707
 30
0.0
 11
394.9623139531608
 21
163.4914844897707
 31
0.0
  0
LINE
  5
68BD
330
1A
100
AcDbEntity
  8
SEIHIN
  6
CONTINUOUS
 62
     3
100
AcDbLine
 10
396.0555129531607
 20
160.6977564897707
 30
0.0
 11
379.5442429531607
 21
154.2368244897707
 31
0.0
  0
LINE
  5
68BE
330
1A
100
AcDbEntity
  8
SEIHIN
  6
CONTINUOUS
 62
     3
100
AcDbLine
 10
378.4465279531606
 20
159.6380364897706
 30
0.0
 11
395.2477999531607
 21
165.7006004897706
 31
0.0
  0
LINE
  5
68BF
330
1A
100
AcDbEntity
  8
SEIHIN
  6
CONTINUOUS
 62
     3
100
AcDbLine
 10
375.6858739531606
 20
146.5329774897706
 30
0.0
 11
388.8863579531606
 21
148.4031434897706
 31
0.0
  0
LINE
  5
68C0
330
1A
100
AcDbEntity
  8
SEIHIN
  6
CONTINUOUS
 62
     3
100
AcDbLine
 10
365.1990259531606
 20
124.0975254897707
 30
0.0
 11
381.3879949531607
 21
124.0975254897707
 31
0.0
  0
LINE
  5
68C1
330
1A
100
AcDbEntity
  8
SEIHIN
  6
CONTINUOUS
 62
     3
100
AcDbLine
 10
365.1990259531606
 20
124.4975254897706
 30
0.0
 11
380.2912189531606
 21
124.4975254897706
 31
0.0
  0
LINE
  5
68C2
330
1A
100
AcDbEntity
  8
SEIHIN
  6
CONTINUOUS
 62
     3
100
AcDbLine
 10
314.5343859531607
 20
130.5975254897707
 30
0.0
 11
351.6368959531606
 21
130.5975254897707
 31
0.0
  0
LINE
  5
68C3
330
1A
100
AcDbEntity
  8
SEIHIN
  6
CONTINUOUS
 62
     3
100
AcDbLine
 10
314.5343689531606
 20
125.5975254897707
 30
0.0
 11
351.6368959531606
 21
125.5975254897707
 31
0.0
  0
LINE
  5
68C4
330
1A
100
AcDbEntity
  8
SEIHIN
  6
CONTINUOUS
 62
     3
100
AcDbLine
 10
378.4465279531606
 20
159.6380364897706
 30
0.0
 11
337.6796909531607
 21
154.0789224897707
 31
0.0
  0
LINE
  5
68C5
330
1A
100
AcDbEntity
  8
SEIHIN
  6
CONTINUOUS
 62
     3
100
AcDbLine
 10
379.5442429531607
 20
154.2368244897707
 30
0.0
 11
337.8096809531606
 21
148.5457474897707
 31
0.0
  0
LINE
  5
68C6
330
1A
100
AcDbEntity
  8
SEIHIN
  6
CONTINUOUS
 62
     3
100
AcDbLine
 10
378.7843109531607
 20
157.1609614897707
 30
0.0
 11
338.0174739531606
 21
151.6018474897706
 31
0.0
  0
LINE
  5
68C7
330
1A
100
AcDbEntity
  8
SEIHIN
  6
CONTINUOUS
 62
     3
100
AcDbLine
 10
331.6206119531606
 20
149.1438474897707
 30
0.0
 11
325.0748509531607
 21
130.5975254897707
 31
0.0
  0
LINE
  5
68C8
330
1A
100
AcDbEntity
  8
SEIHIN
  6
CONTINUOUS
 62
     3
100
AcDbLine
 10
331.4133469531606
 20
154.5658494897707
 30
0.0
 11
326.0620869531607
 21
139.4039454897707
 31
0.0
  0
LINE
  5
68C9
330
1A
100
AcDbEntity
  8
SEIHIN
  6
CONTINUOUS
 62
     3
100
AcDbLine
 10
334.6378299531608
 20
162.1995704897707
 30
0.0
 11
326.5335819531607
 21
139.2375354897707
 31
0.0
  0
LINE
  5
68CA
330
1A
100
AcDbEntity
  8
SEIHIN
  6
CONTINUOUS
 62
     3
100
AcDbLine
 10
335.5808209531606
 20
161.8667504897707
 30
0.0
 11
327.4197739531606
 21
138.7437854897706
 31
0.0
  0
LINE
  5
68CB
330
1A
100
AcDbEntity
  8
SEIHIN
  6
CONTINUOUS
 62
     3
100
AcDbLine
 10
337.0016379531606
 20
147.8872674897707
 30
0.0
 11
330.9090619531606
 21
130.5975254897707
 31
0.0
  0
LINE
  5
68CC
330
1A
100
AcDbEntity
  8
SEIHIN
  6
CONTINUOUS
 62
     3
100
AcDbLine
 10
333.9780879531607
 20
148.3117974897707
 30
0.0
 11
327.7259919531605
 21
130.5975254897707
 31
0.0
  0
LINE
  5
68CD
330
1A
100
AcDbEntity
  8
SEIHIN
  6
CONTINUOUS
 62
     3
100
AcDbLine
 10
314.5343609531606
 20
123.5976084897707
 30
0.0
 11
314.5344109531607
 21
137.5975674897707
 31
0.0
  0
LINE
  5
68CE
330
1A
100
AcDbEntity
  8
SEIHIN
  6
CONTINUOUS
 62
     3
100
AcDbLine
 10
324.5908019531606
 20
136.7422454897707
 30
0.0
 11
314.5077969531606
 21
136.7422474897707
 31
0.0
  0
ARC
  5
68CF
330
1A
100
AcDbEntity
  8
SEIHIN
  6
CONTINUOUS
 62
     3
100
AcDbCircle
 10
324.5908029531607
 20
139.7422454897707
 30
0.0
 40
2.999999940870082
100
AcDbArc
 50
269.9999883784531
 51
340.5599599066715
  0
ARC
  5
68D0
330
1A
100
AcDbEntity
  8
SEIHIN
  6
CONTINUOUS
 62
     3
100
AcDbCircle
 10
324.1915889531607
 20
140.1134524897707
 30
0.0
 40
2.00000009820312
100
AcDbArc
 50
245.2446238788497
 51
340.559982172083
  0
ARC
  5
68D1
330
1A
100
AcDbEntity
  8
SEIHIN
  6
CONTINUOUS
 62
     3
100
AcDbCircle
 10
324.6476019531606
 20
139.9031754897707
 30
0.0
 40
2.00000009820312
100
AcDbArc
 50
245.2446238788497
 51
340.559982172083
  0
ARC
  5
68D2
330
1A
100
AcDbEntity
  8
SEIHIN
  6
CONTINUOUS
 62
     3
100
AcDbCircle
 10
338.6930399531607
 20
146.6476964897706
 30
0.0
 40
7.500000197431461
100
AcDbArc
 50
97.76515569653575
 51
160.5599559187036
  0
ARC
  5
68D3
330
1A
100
AcDbEntity
  8
SEIHIN
  6
CONTINUOUS
 62
     3
100
AcDbCircle
 10
338.6930399531607
 20
146.6476964897706
 30
0.0
 40
4.999999758966238
100
AcDbArc
 50
97.76515569653575
 51
160.5599558232783
  0
ARC
  5
68D4
330
1A
100
AcDbEntity
  8
SEIHIN
  6
CONTINUOUS
 62
     3
100
AcDbCircle
 10
337.9447939531607
 20
147.5549174897707
 30
0.0
 40
1.000000089458491
100
AcDbArc
 50
97.76515569653575
 51
160.5885380977532
  0
LINE
  5
68D5
330
1A
100
AcDbEntity
  8
SEIHIN
  6
CONTINUOUS
 62
     3
100
AcDbLine
 10
335.5808209531606
 20
161.8667504897707
 30
0.0
 11
334.6378299531608
 21
162.1995704897707
 31
0.0
  0
ARC
  5
68D6
330
1A
100
AcDbEntity
  8
SEIHIN
  6
CONTINUOUS
 62
     3
100
AcDbCircle
 10
331.8848429531607
 20
154.3994394897707
 30
0.0
 40
0.5
100
AcDbArc
 50
70.55996517182001
 51
160.5599651718251
  0
LINE
  5
68D7
330
1A
100
AcDbEntity
  8
SEIHIN
  6
CONTINUOUS
 62
     3
100
AcDbLine
 10
372.1937959531607
 20
145.8821524897707
 30
0.0
 11
365.5982899531605
 21
127.1651754897707
 31
0.0
  0
LINE
  5
68D8
330
1A
100
AcDbEntity
  8
SEIHIN
  6
CONTINUOUS
 62
     3
100
AcDbLine
 10
374.0801079531607
 20
145.2174514897707
 30
0.0
 11
367.4846019531607
 21
126.5004744897706
 31
0.0
  0
LINE
  5
68D9
330
1A
100
AcDbEntity
  8
SEIHIN
  6
CONTINUOUS
 62
     3
100
AcDbLine
 10
355.3609959531608
 20
123.0975254897707
 30
0.0
 11
365.1990259531606
 21
123.0975254897707
 31
0.0
  0
ARC
  5
68DA
330
1A
100
AcDbEntity
  8
SEIHIN
  6
CONTINUOUS
 62
     3
100
AcDbCircle
 10
361.1990259531606
 20
124.0975254897707
 30
0.0
 40
4.0
100
AcDbArc
 50
0.0
 51
90.0
  0
LINE
  5
68DB
330
1A
100
AcDbEntity
  8
SEIHIN
  6
CONTINUOUS
 62
     3
100
AcDbLine
 10
355.1579099531605
 20
129.3227424897706
 30
0.0
 11
356.6281699531606
 21
128.0975254897707
 31
0.0
  0
ARC
  5
68DC
330
1A
100
AcDbEntity
  8
SEIHIN
  6
CONTINUOUS
 62
     3
100
AcDbCircle
 10
355.3609959531608
 20
124.5975254897706
 30
0.0
 40
1.500000159158816
100
AcDbArc
 50
230.1944362437124
 51
270.0000171172718
  0
ARC
  5
68DD
330
1A
100
AcDbEntity
  8
SEIHIN
  6
CONTINUOUS
 62
     3
100
AcDbCircle
 10
351.6368959531606
 20
125.0975254897707
 30
0.0
 40
0.500000074392489
100
AcDbArc
 50
50.19443624372056
 51
89.99996332013925
  0
LINE
  5
68DE
330
1A
100
AcDbEntity
  8
SEIHIN
  6
CONTINUOUS
 62
     3
100
AcDbLine
 10
351.9569879531605
 20
125.4816364897707
 30
0.0
 11
354.4007189531606
 21
123.4451934897706
 31
0.0
  0
LINE
  5
68DF
330
1A
100
AcDbEntity
  8
SEIHIN
  6
CONTINUOUS
 62
     3
100
AcDbLine
 10
356.6281699531606
 20
128.0975254897707
 30
0.0
 11
361.1990259531606
 21
128.0975254897707
 31
0.0
  0
LINE
  5
68E0
330
1A
100
AcDbEntity
  8
SEIHIN
  6
CONTINUOUS
 62
     3
100
AcDbLine
 10
357.8115049531605
 20
122.0975254897707
 30
0.0
 11
362.8115049531605
 21
122.0975254897707
 31
0.0
  0
LINE
  5
68E1
330
1A
100
AcDbEntity
  8
SEIHIN
  6
CONTINUOUS
 62
     3
100
AcDbLine
 10
357.3115049531605
 20
123.0975254897707
 30
0.0
 11
357.3115049531605
 21
122.5975254897706
 31
0.0
  0
ARC
  5
68E2
330
1A
100
AcDbEntity
  8
SEIHIN
  6
CONTINUOUS
 62
     3
100
AcDbCircle
 10
357.8115049531605
 20
122.5975254897706
 30
0.0
 40
0.5
100
AcDbArc
 50
180.0000000235017
 51
270.0000000235017
  0
LINE
  5
68E3
330
1A
100
AcDbEntity
  8
SEIHIN
  6
CONTINUOUS
 62
     3
100
AcDbLine
 10
363.3115049531606
 20
123.0975254897707
 30
0.0
 11
363.3115049531606
 21
122.5975254897706
 31
0.0
  0
ARC
  5
68E4
330
1A
100
AcDbEntity
  8
SEIHIN
  6
CONTINUOUS
 62
     3
100
AcDbCircle
 10
362.8115049531605
 20
122.5975254897706
 30
0.0
 40
0.5
100
AcDbArc
 50
270.0000000352525
 51
0.0000000352525556
  0
ARC
  5
68E5
330
1A
100
AcDbEntity
  8
SEIHIN
  6
CONTINUOUS
 62
     3
100
AcDbCircle
 10
351.6368959531606
 20
125.0975254897707
 30
0.0
 40
5.499999922058408
100
AcDbArc
 50
50.19443624371243
 51
90.00000600216448
  0
ARC
  5
68E6
330
1A
100
AcDbEntity
  8
SEIHIN
  6
CONTINUOUS
 62
     3
100
AcDbCircle
 10
364.6551339531607
 20
127.4975254897706
 30
0.0
 40
0.9999999407089966
100
AcDbArc
 50
270.0000000354349
 51
340.5885244991836
  0
LINE
  5
68E7
330
1A
100
AcDbEntity
  8
SEIHIN
  6
CONTINUOUS
 62
     3
100
AcDbLine
 10
364.6551339531607
 20
126.4975254897706
 30
0.0
 11
364.3990259531607
 21
126.4975254897706
 31
0.0
  0
LINE
  5
68E8
330
1A
100
AcDbEntity
  8
SEIHIN
  6
CONTINUOUS
 62
     3
100
AcDbLine
 10
368.2336989531608
 20
123.0975254897707
 30
0.0
 11
365.1990259531606
 21
123.0975254897707
 31
0.0
  0
LINE
  5
68E9
330
1A
100
AcDbEntity
  8
SEIHIN
  6
CONTINUOUS
 62
     3
100
AcDbLine
 10
368.2336989531608
 20
124.0975254897707
 30
0.0
 11
368.2336989531608
 21
123.0975254897707
 31
0.0
  0
LINE
  5
68EA
330
1A
100
AcDbEntity
  8
SEIHIN
  6
CONTINUOUS
 62
     3
100
AcDbLine
 10
365.1990259531606
 20
124.0975254897707
 30
0.0
 11
365.1990259531606
 21
123.0975254897707
 31
0.0
  0
ARC
  5
68EB
330
1A
100
AcDbEntity
  8
SEIHIN
  6
CONTINUOUS
 62
     3
100
AcDbCircle
 10
364.6551339531607
 20
127.4975254897706
 30
0.0
 40
3.00000013857666
100
AcDbArc
 50
279.962986694496
 51
340.5885311066116
  0
ARC
  5
68EC
330
1A
100
AcDbEntity
  8
SEIHIN
  6
CONTINUOUS
 62
     3
100
AcDbCircle
 10
375.9664199531606
 20
144.5527514897706
 30
0.0
 40
2.000000049508498
100
AcDbArc
 50
98.0636427983102
 51
160.5884852657152
  0
ARC
  5
68ED
330
1A
100
AcDbEntity
  8
SEIHIN
  6
CONTINUOUS
 62
     3
100
AcDbCircle
 10
375.9664199531606
 20
144.5527514897706
 30
0.0
 40
3.999999868335057
100
AcDbArc
 50
98.0636427983102
 51
160.5884979740765
  0
ARC
  5
68EF
330
1A
100
AcDbEntity
  8
SEIHIN
  6
CONTINUOUS
100
AcDbCircle
 10
396.5796369160688
 20
159.0533666580635
 30
0.0
 40
6.779344165120991
100
AcDbArc
 50
8.511707040104775
 51
101.3297409885064
  0
ARC
  5
68F0
330
1A
100
AcDbEntity
  8
SEIHIN
  6
CONTINUOUS
 62
     3
100
AcDbCircle
 10
396.7843109531608
 20
158.8352704897707
 30
0.0
 40
5.000000094090248
100
AcDbArc
 50
0.0000000470001506
 51
111.3706246361847
  0
ARC
  5
68F6
330
1A
100
AcDbEntity
  8
SEIHIN
  6
CONTINUOUS
 62
     3
100
AcDbCircle
 10
403.2093109531607
 20
142.3353124897707
 30
0.0
 40
6.624999944286225
100
AcDbArc
 50
148.1092146844663
 51
211.8907958127824
  0
LINE
  5
68F7
330
1A
100
AcDbEntity
  8
SEIHIN
  6
CONTINUOUS
 62
     3
100
AcDbLine
 10
394.5852869531607
 20
143.2964434897707
 30
0.0
 11
394.1634909531607
 21
129.7957334897707
 31
0.0
  0
LINE
  5
68F8
330
1A
100
AcDbEntity
  8
SEIHIN
  6
CONTINUOUS
 62
     3
100
AcDbLine
 10
396.5843109531607
 20
143.2339884897706
 30
0.0
 11
396.1625149531606
 21
129.7332784897707
 31
0.0
  0
LINE
  5
68F9
330
1A
100
AcDbEntity
  8
SEIHIN
  6
CONTINUOUS
 62
     3
100
AcDbLine
 10
403.2843109531608
 20
157.8353544897707
 30
0.0
 11
403.2843109531608
 21
121.8353544897707
 31
0.0
  0
LINE
  5
68FB
330
1A
100
AcDbEntity
  8
SEIHIN
  6
CONTINUOUS
 62
     3
100
AcDbLine
 10
402.0843109531607
 20
157.8353544897707
 30
0.0
 11
402.0843109531607
 21
121.8353544897707
 31
0.0
  0
LINE
  5
68FC
330
1A
100
AcDbEntity
  8
SEIHIN
  6
CONTINUOUS
 62
     3
100
AcDbLine
 10
397.5843109531607
 20
121.8353544897707
 30
0.0
 11
397.5843109531607
 21
157.8353544897707
 31
0.0
  0
ARC
  5
68FD
330
1A
100
AcDbEntity
  8
SEIHIN
  6
CONTINUOUS
 62
     3
100
AcDbCircle
 10
393.6637349531607
 20
129.8113464897707
 30
0.0
 40
2.50000021673958
100
AcDbArc
 50
264.500041828399
 51
358.2104961264324
  0
LINE
  5
68FE
330
1A
100
AcDbEntity
  8
CENTER_L
  6
CENTER
100
AcDbLine
 10
406.2843109531607
 20
127.3353544897707
 30
0.0
 11
394.5843109531607
 21
127.3353544897707
 31
0.0
  0
LINE
  5
68FF
330
1A
100
AcDbEntity
  8
SEIHIN
  6
CONTINUOUS
 62
     3
100
AcDbLine
 10
382.7879949531606
 20
129.0975254897707
 30
0.0
 11
382.7879949531606
 21
125.4975254897706
 31
0.0
  0
ARC
  5
6900
330
1A
100
AcDbEntity
  8
SEIHIN
  6
CONTINUOUS
 62
     3
100
AcDbCircle
 10
381.2091289531607
 20
128.7904654897707
 30
0.0
 40
0.3070597682291614
100
AcDbArc
 50
90.00000001175086
 51
152.0077599357396
  0
LINE
  5
6901
330
1A
100
AcDbEntity
  8
SEIHIN
  6
CONTINUOUS
 62
     3
100
AcDbLine
 10
386.3123149531606
 20
128.0076374897707
 30
0.0
 11
386.5040049531606
 21
129.9984294897707
 31
0.0
  0
LINE
  5
6902
330
1A
100
AcDbEntity
  8
SEIHIN
  6
CONTINUOUS
 62
     3
100
AcDbLine
 10
393.4241229531607
 20
127.3228564897706
 30
0.0
 11
386.3123149531606
 21
128.0076374897707
 31
0.0
  0
LINE
  5
6903
330
1A
100
AcDbEntity
  8
SEIHIN
  6
CONTINUOUS
 62
     3
100
AcDbLine
 10
380.7791999531606
 20
125.4975254897706
 30
0.0
 11
380.7791999531606
 21
128.2975254897706
 31
0.0
  0
ARC
  5
6904
330
1A
100
AcDbEntity
  8
SEIHIN
  6
CONTINUOUS
 62
     3
100
AcDbCircle
 10
379.3787999531606
 20
125.5877484897707
 30
0.0
 40
1.421652073219743
100
AcDbArc
 50
309.9262992300511
 51
333.4919521171921
  0
ARC
  5
6905
330
1A
100
AcDbEntity
  8
SEIHIN
  6
CONTINUOUS
 62
     3
100
AcDbCircle
 10
379.5596959531607
 20
125.4975254897706
 30
0.0
 40
1.219504113536517
100
AcDbArc
 50
333.4919866321927
 51
0.0000129482842068
  0
ARC
  5
6906
330
1A
100
AcDbEntity
  8
SEIHIN
  6
CONTINUOUS
 62
     3
100
AcDbCircle
 10
389.5040049531607
 20
126.6956914897706
 30
0.0
 40
2.99999990174308
100
AcDbArc
 50
155.0288311702734
 51
179.9999919372969
  0
ARC
  5
6907
330
1A
100
AcDbEntity
  8
SEIHIN
  6
CONTINUOUS
 62
     3
100
AcDbCircle
 10
389.5040049531607
 20
126.6956914897706
 30
0.0
 40
2.99999990174308
100
AcDbArc
 50
155.0288311702734
 51
179.9999919372969
  0
ARC
  5
6908
330
1A
100
AcDbEntity
  8
SEIHIN
  6
CONTINUOUS
 62
     3
100
AcDbCircle
 10
382.1365159531607
 20
128.2975254897706
 30
0.0
 40
1.357314988733639
100
AcDbArc
 50
152.0077035626143
 51
179.9999691711857
  0
ARC
  5
6909
330
1A
100
AcDbEntity
  8
SEIHIN
  6
CONTINUOUS
 62
     3
100
AcDbCircle
 10
381.3879949531607
 20
125.4975254897706
 30
0.0
 40
1.399999999999999
100
AcDbArc
 50
270.0000000882616
 51
0.0000000882616646
  0
ARC
  5
690A
330
1A
100
AcDbEntity
  8
SEIHIN
  6
CONTINUOUS
 62
     3
100
AcDbCircle
 10
389.5040049531607
 20
126.6956914897706
 30
0.0
 40
0.9999998652102316
100
AcDbArc
 50
84.50004182839899
 51
180.0
  0
ARC
  5
690B
330
1A
100
AcDbEntity
  8
SEIHIN
  6
CONTINUOUS
 62
     3
100
AcDbCircle
 10
389.5040049531607
 20
126.6956914897706
 30
0.0
 40
0.9999998652102316
100
AcDbArc
 50
84.50004182839899
 51
180.0
  0
LINE
  5
690C
330
1A
100
AcDbEntity
  8
SEIHIN
  6
CONTINUOUS
 62
     3
100
AcDbLine
 10
393.6158119531607
 20
129.3136484897706
 30
0.0
 11
386.5040049531606
 21
129.9984294897707
 31
0.0
  0
LINE
  5
690D
330
1A
100
AcDbEntity
  8
SEIHIN
  6
CONTINUOUS
 62
     3
100
AcDbLine
 10
381.2091279531606
 20
129.0975254897707
 30
0.0
 11
382.7879949531606
 21
129.0975254897707
 31
0.0
  0
ARC
  5
690E
330
1A
100
AcDbEntity
  8
SEIHIN
  6
CONTINUOUS
 62
     3
100
AcDbCircle
 10
393.6637349531607
 20
129.8113464897707
 30
0.0
 40
0.5000000368764974
100
AcDbArc
 50
264.5000418284121
 51
358.2104732561619
  0
LINE
  5
690F
330
1A
100
AcDbEntity
  8
SEIHIN
  6
CONTINUOUS
 62
     3
100
AcDbLine
 10
397.5843109531607
 20
121.8353544897707
 30
0.0
 11
403.2843109531608
 21
121.8353544897707
 31
0.0
  0
ARC
  5
6910
330
1A
100
AcDbEntity
  8
SEIHIN
  6
CONTINUOUS
 62
     3
100
AcDbCircle
 10
396.7843109531608
 20
158.8352704897707
 30
0.0
 40
2.000000260324591
100
AcDbArc
 50
0.0000000470001506
 51
111.3706257960974
  0
LINE
  5
6911
330
1A
100
AcDbEntity
  8
CENTER_L
  6
CENTER
100
AcDbLine
 10
406.2843109531607
 20
152.3353544897708
 30
0.0
 11
394.5843109531607
 21
152.3353544897708
 31
0.0
  0
LINE
  5
6912
330
1A
100
AcDbEntity
  8
CENTER_L
  6
CENTER
100
AcDbLine
 10
406.2843109531607
 20
143.8353544897707
 30
0.0
 11
394.5843109531607
 21
143.8353544897707
 31
0.0
  0
ARC
  5
6913
330
1A
100
AcDbEntity
  8
SEIHIN
  6
CONTINUOUS
 62
     3
100
AcDbCircle
 10
389.5877249531607
 20
143.4525794897707
 30
0.0
 40
6.999999905160891
100
AcDbArc
 50
358.2105332175278
 51
98.06367746985319
  0
ARC
  5
6914
330
1A
100
AcDbEntity
  8
SEIHIN
  6
CONTINUOUS
 62
     3
100
AcDbCircle
 10
389.5877249531607
 20
143.4525794897707
 30
0.0
 40
4.99999999040965
100
AcDbArc
 50
358.2105332175278
 51
98.06367557684319
  0
LINE
  5
6915
330
1A
100
AcDbEntity
  8
SEIHIN
  6
CONTINUOUS
 62
     3
100
AcDbLine
 10
398.7843109531608
 20
157.8353544897707
 30
0.0
 11
398.7843109531608
 21
158.8352704897707
 31
0.0
  0
LINE
  5
6916
330
1A
100
AcDbEntity
  8
SEIHIN
  6
CONTINUOUS
 62
     3
100
AcDbLine
 10
401.7843109531607
 20
157.8353544897707
 30
0.0
 11
401.7843109531607
 21
158.8352704897707
 31
0.0
  0
LINE
  5
6917
330
1A
100
AcDbEntity
  8
SEIHIN
  6
CONTINUOUS
 62
     3
100
AcDbLine
 10
397.5843109531607
 20
157.8353544897707
 30
0.0
 11
403.2843109531608
 21
157.8353544897707
 31
0.0
  0
LINE
  5
6918
330
1A
100
AcDbEntity
  8
SEIHIN
  6
CONTINUOUS
 62
     3
100
AcDbLine
 10
403.2843109531608
 20
157.8353544897707
 30
0.0
 11
403.2843109531608
 21
160.0567874897707
 31
0.0
  0
DIMENSION
  5
6AF0
330
1A
100
AcDbEntity
  8
SUNPOU
 48
5.0
100
AcDbDimension
  2
*D1
 10
242.5985719259733
 20
427.048053932678
 30
0.0
 11
237.5985719259733
 21
435.2980539326781
 31
0.0
 70
    32
  3
STANDARD
100
AcDbAlignedDimension
 13
277.7873922498532
 23
443.548053932678
 33
0.0
 14
277.7873922498532
 24
427.048053932678
 34
0.0
 50
90.0
100
AcDbRotatedDimension
1001
ACAD
1000
DSTYLE
1002
{
1070
    41
1040
7.0
1070
    42
1040
6.0
1070
    43
1040
14.0
1070
    44
1040
3.0
1070
    73
1070
     0
1070
    74
1070
     0
1070
    77
1070
     3
1070
   140
1040
6.0
1070
   141
1040
150.0
1070
   147
1040
2.0
1070
   172
1070
     1
1070
   173
1070
     1
1070
   176
1070
   256
1070
   177
1070
   256
1070
   178
1070
   256
1070
   271
1070
     0
1070
   272
1070
     0
1070
   341
1005
6D
1070
     6
1000
OPEN
1070
     7
1000
OPEN
1070
   371
1070
    -1
1070
   372
1070
    -1
1002
}
  0
DIMENSION
  5
6AFF
330
1A
100
AcDbEntity
  8
SUNPOU
 48
5.0
100
AcDbDimension
  2
*D2
 10
434.6412492555905
 20
409.646391932678
 30
0.0
 11
429.6412492555904
 21
435.2982554326781
 31
0.0
 70
    32
  3
STANDARD
100
AcDbAlignedDimension
 13
403.8334932498531
 23
460.950118932678
 33
0.0
 14
403.8334932498531
 24
409.646391932678
 34
0.0
 50
90.0
100
AcDbRotatedDimension
1001
ACAD
1000
DSTYLE
1002
{
1070
    41
1040
7.0
1070
    42
1040
6.0
1070
    43
1040
14.0
1070
    44
1040
3.0
1070
    73
1070
     0
1070
    74
1070
     0
1070
    77
1070
     3
1070
   140
1040
6.0
1070
   141
1040
150.0
1070
   147
1040
2.0
1070
   172
1070
     1
1070
   173
1070
     1
1070
   176
1070
   256
1070
   177
1070
   256
1070
   178
1070
   256
1070
   271
1070
     0
1070
   272
1070
     0
1070
   341
1005
6D
1070
     6
1000
OPEN
1070
     7
1000
OPEN
1070
   371
1070
    -1
1070
   372
1070
    -1
1002
}
  0
DIMENSION
  5
6B0C
330
1A
100
AcDbEntity
  8
SUNPOU
 48
5.0
100
AcDbDimension
  2
*D3
 10
403.2843109531609
 20
370.8440771387941
 30
0.0
 11
340.2644980351166
 21
375.844077138794
 31
0.0
 70
    32
  3
STANDARD
100
AcDbAlignedDimension
 13
277.2446851170724
 23
297.4509937939784
 33
0.0
 14
403.2843109531609
 24
320.9636527281766
 34
0.0
100
AcDbRotatedDimension
1001
ACAD
1000
DSTYLE
1002
{
1070
    41
1040
7.0
1070
    42
1040
6.0
1070
    43
1040
14.0
1070
    44
1040
3.0
1070
    73
1070
     0
1070
    74
1070
     0
1070
    77
1070
     3
1070
   140
1040
6.0
1070
   141
1040
150.0
1070
   147
1040
2.0
1070
   172
1070
     1
1070
   173
1070
     1
1070
   176
1070
   256
1070
   177
1070
   256
1070
   178
1070
   256
1070
   271
1070
     0
1070
   272
1070
     0
1070
   341
1005
6D
1070
     6
1000
OPEN
1070
     7
1000
OPEN
1070
   371
1070
    -1
1070
   372
1070
    -1
1002
}
  0
DIMENSION
  5
6B19
330
1A
100
AcDbEntity
  8
SUNPOU
 48
5.0
100
AcDbDimension
  2
*D4
 10
438.2843109531607
 20
370.8440771387941
 30
0.0
 11
420.7843109531607
 21
375.844077138794
 31
0.0
 70
    32
  3
STANDARD
100
AcDbAlignedDimension
 13
403.2843109531608
 23
320.963652728177
 33
0.0
 14
438.2843109531607
 24
320.9636527281766
 34
0.0
100
AcDbRotatedDimension
1001
ACAD
1000
DSTYLE
1002
{
1070
    41
1040
7.0
1070
    42
1040
6.0
1070
    43
1040
14.0
1070
    44
1040
3.0
1070
    73
1070
     0
1070
    74
1070
     0
1070
    77
1070
     3
1070
   140
1040
6.0
1070
   141
1040
150.0
1070
   147
1040
2.0
1070
   172
1070
     1
1070
   173
1070
     1
1070
   176
1070
   256
1070
   177
1070
   256
1070
   178
1070
   256
1070
   271
1070
     0
1070
   272
1070
     0
1070
   341
1005
6D
1070
     6
1000
OPEN
1070
     7
1000
OPEN
1070
   371
1070
    -1
1070
   372
1070
    -1
1002
}
  0
DIMENSION
  5
6B26
330
1A
100
AcDbEntity
  8
SUNPOU
 48
5.0
100
AcDbDimension
  2
*D5
 10
414.1340867912631
 20
318.7422197281769
 30
0.0
 11
409.1340867912631
 21
300.742219728177
 31
0.0
 70
    32
  3
STANDARD
100
AcDbAlignedDimension
 13
403.2843109531608
 23
282.7422197281769
 33
0.0
 14
403.2843109531608
 24
318.7422197281769
 34
0.0
 50
90.0
100
AcDbRotatedDimension
1001
ACAD
1000
DSTYLE
1002
{
1070
    41
1040
7.0
1070
    42
1040
6.0
1070
    43
1040
14.0
1070
    44
1040
3.0
1070
    73
1070
     0
1070
    74
1070
     0
1070
    77
1070
     3
1070
   140
1040
6.0
1070
   141
1040
150.0
1070
   147
1040
2.0
1070
   172
1070
     1
1070
   173
1070
     1
1070
   176
1070
   256
1070
   177
1070
   256
1070
   178
1070
   256
1070
   271
1070
     0
1070
   272
1070
     0
1070
   341
1005
6D
1070
     6
1000
OPEN
1070
     7
1000
OPEN
1070
   371
1070
    -1
1070
   372
1070
    -1
1002
}
  0
DIMENSION
  5
6B33
330
1A
100
AcDbEntity
  8
SUNPOU
 48
5.0
100
AcDbDimension
  2
*D6
 10
425.8967205713888
 20
282.7422197281769
 30
0.0
 11
420.8967205713888
 21
304.674842728177
 31
0.0
 70
    32
  3
STANDARD
100
AcDbAlignedDimension
 13
395.2477999531609
 23
326.6074657281769
 33
0.0
 14
403.2843109531608
 24
282.7422197281769
 34
0.0
 50
90.0
100
AcDbRotatedDimension
1001
ACAD
1000
DSTYLE
1002
{
1070
    41
1040
7.0
1070
    42
1040
6.0
1070
    43
1040
14.0
1070
    44
1040
3.0
1070
    73
1070
     0
1070
    74
1070
     0
1070
    77
1070
     3
1070
   140
1040
6.0
1070
   141
1040
150.0
1070
   147
1040
2.0
1070
   172
1070
     1
1070
   173
1070
     1
1070
   176
1070
   256
1070
   177
1070
   256
1070
   178
1070
   256
1070
   271
1070
     0
1070
   272
1070
     0
1070
   341
1005
6D
1070
     6
1000
OPEN
1070
     7
1000
OPEN
1070
   371
1070
    -1
1070
   372
1070
    -1
1002
}
  0
DIMENSION
  5
6B40
330
1A
100
AcDbEntity
  8
SUNPOU
 48
5.0
100
AcDbDimension
  2
*D7
 10
403.2843109531608
 20
356.4217546669626
 30
0.0
 11
422.7843109531607
 21
361.4217546669626
 31
0.0
 70
    32
  3
STANDARD
100
AcDbAlignedDimension
 13
393.4533544759995
 23
304.9694430157275
 33
0.0
 14
403.2843109531608
 24
318.7422197281769
 34
0.0
100
AcDbRotatedDimension
1001
ACAD
1000
DSTYLE
1002
{
1070
    41
1040
7.0
1070
    42
1040
6.0
1070
    43
1040
14.0
1070
    44
1040
3.0
1070
    73
1070
     0
1070
    74
1070
     0
1070
    77
1070
     3
1070
   140
1040
6.0
1070
   141
1040
150.0
1070
   147
1040
2.0
1070
   172
1070
     1
1070
   173
1070
     1
1070
   176
1070
   256
1070
   177
1070
   256
1070
   178
1070
   256
1070
   271
1070
     0
1070
   272
1070
     0
1070
   341
1005
6D
1070
     6
1000
OPEN
1070
     7
1000
OPEN
1070
   371
1070
    -1
1070
   372
1070
    -1
1002
}
  0
DIMENSION
  5
6B92
330
1A
100
AcDbEntity
  8
SUNPOU
 48
5.0
100
AcDbDimension
  2
*D8
 10
553.388123336657
 20
356.4217546669626
 30
0.0
 11
534.6881233366571
 21
361.4217546669626
 31
0.0
 70
    32
  3
STANDARD
100
AcDbAlignedDimension
 13
515.9881233366571
 23
309.7422197281769
 33
0.0
 14
553.388123336657
 24
309.7422197281769
 34
0.0
100
AcDbRotatedDimension
1001
ACAD
1000
DSTYLE
1002
{
1070
    41
1040
7.0
1070
    42
1040
6.0
1070
    43
1040
14.0
1070
    44
1040
3.0
1070
    73
1070
     0
1070
    74
1070
     0
1070
    77
1070
     3
1070
   140
1040
6.0
1070
   141
1040
150.0
1070
   147
1040
2.0
1070
   172
1070
     1
1070
   173
1070
     1
1070
   176
1070
   256
1070
   177
1070
   256
1070
   178
1070
   256
1070
   271
1070
     0
1070
   272
1070
     0
1070
   341
1005
6D
1070
     6
1000
OPEN
1070
     7
1000
OPEN
1070
   371
1070
    -1
1070
   372
1070
    -1
1002
}
  0
DIMENSION
  5
6B9F
330
1A
100
AcDbEntity
  8
SUNPOU
 48
5.0
100
AcDbDimension
  2
*D9
 10
554.914055336657
 20
370.8440771387941
 30
0.0
 11
534.688123836657
 21
375.844077138794
 31
0.0
 70
    32
  3
STANDARD
100
AcDbAlignedDimension
 13
514.462192336657
 23
316.242219728177
 33
0.0
 14
554.914055336657
 24
316.242219728177
 34
0.0
100
AcDbRotatedDimension
1001
ACAD
1000
DSTYLE
1002
{
1070
    41
1040
7.0
1070
    42
1040
6.0
1070
    43
1040
14.0
1070
    44
1040
3.0
1070
    73
1070
     0
1070
    74
1070
     0
1070
    77
1070
     3
1070
   140
1040
6.0
1070
   141
1040
150.0
1070
   147
1040
2.0
1070
   172
1070
     1
1070
   173
1070
     1
1070
   176
1070
   256
1070
   177
1070
   256
1070
   178
1070
   256
1070
   271
1070
     0
1070
   272
1070
     0
1070
   341
1005
6D
1070
     6
1000
OPEN
1070
     7
1000
OPEN
1070
   371
1070
    -1
1070
   372
1070
    -1
1002
}
  0
DIMENSION
  5
6BAC
330
1A
100
AcDbEntity
  8
SUNPOU
 48
5.0
100
AcDbDimension
  2
*D10
 10
560.388123336657
 20
384.8154226096119
 30
0.0
 11
534.6881233366571
 21
389.8154226096119
 31
0.0
 70
    32
  3
STANDARD
100
AcDbAlignedDimension
 13
508.9881233366571
 23
316.7422197281769
 33
0.0
 14
560.388123336657
 24
316.7422197281769
 34
0.0
100
AcDbRotatedDimension
1001
ACAD
1000
DSTYLE
1002
{
1070
    41
1040
7.0
1070
    42
1040
6.0
1070
    43
1040
14.0
1070
    44
1040
3.0
1070
    73
1070
     0
1070
    74
1070
     0
1070
    77
1070
     3
1070
   140
1040
6.0
1070
   141
1040
150.0
1070
   147
1040
2.0
1070
   172
1070
     1
1070
   173
1070
     1
1070
   176
1070
   256
1070
   177
1070
   256
1070
   178
1070
   256
1070
   271
1070
     0
1070
   272
1070
     0
1070
   341
1005
6D
1070
     6
1000
OPEN
1070
     7
1000
OPEN
1070
   371
1070
    -1
1070
   372
1070
    -1
1002
}
  0
DIMENSION
  5
6BB9
330
1A
100
AcDbEntity
  8
SUNPOU
 48
5.0
100
AcDbDimension
  2
*D11
 10
480.695533899157
 20
318.7422197281769
 30
0.0
 11
474.5666561811558
 21
326.16599043322
 31
0.0
 70
   160
  3
STANDARD
100
AcDbAlignedDimension
 13
511.462192336657
 23
313.242219728177
 33
0.0
 14
510.9881233366571
 24
318.7422197281769
 34
0.0
 50
90.0
100
AcDbRotatedDimension
1001
ACAD
1000
DSTYLE
1002
{
1070
   287
1070
     5
1070
   287
1070
     5
1070
   287
1070
     5
1070
    41
1040
7.0
1070
    42
1040
6.0
1070
    43
1040
14.0
1070
    44
1040
3.0
1070
    73
1070
     0
1070
    74
1070
     0
1070
    77
1070
     3
1070
   140
1040
6.0
1070
   141
1040
150.0
1070
   147
1040
2.0
1070
   172
1070
     1
1070
   173
1070
     1
1070
   176
1070
   256
1070
   177
1070
   256
1070
   178
1070
   256
1070
   271
1070
     0
1070
   272
1070
     0
1070
   279
1070
     2
1070
   341
1005
6D
1070
     6
1000
OPEN
1070
     7
1000
OPEN
1070
   371
1070
    -1
1070
   372
1070
    -1
1002
}
  0
DIMENSION
  5
6BC8
330
1A
100
AcDbEntity
  8
SUNPOU
 48
5.0
100
AcDbDimension
  2
*D12
 10
480.695533899157
 20
282.7422197281769
 30
0.0
 11
475.6955338991569
 21
264.742219728177
 31
0.0
 70
    32
  3
STANDARD
100
AcDbAlignedDimension
 13
511.462192336657
 23
288.2422197281769
 33
0.0
 14
510.9881233366571
 24
282.7422197281769
 34
0.0
 50
90.0
100
AcDbRotatedDimension
1001
ACAD
1000
DSTYLE
1002
{
1070
    41
1040
7.0
1070
    42
1040
6.0
1070
    43
1040
14.0
1070
    44
1040
3.0
1070
    73
1070
     0
1070
    74
1070
     0
1070
    77
1070
     3
1070
   140
1040
6.0
1070
   141
1040
150.0
1070
   147
1040
2.0
1070
   172
1070
     1
1070
   173
1070
     1
1070
   176
1070
   256
1070
   177
1070
   256
1070
   178
1070
   256
1070
   271
1070
     0
1070
   272
1070
     0
1070
   341
1005
6D
1070
     6
1000
OPEN
1070
     7
1000
OPEN
1070
   371
1070
    -1
1070
   372
1070
    -1
1002
}
  0
DIMENSION
  5
6BD7
330
1A
100
AcDbEntity
  8
SUNPOU
 48
5.0
100
AcDbDimension
  2
*D13
 10
465.6090676654367
 20
282.7422197281769
 30
0.0
 11
460.6090676654366
 21
300.742219728177
 31
0.0
 70
    32
  3
STANDARD
100
AcDbAlignedDimension
 13
508.9881233366571
 23
318.7422197281769
 33
0.0
 14
508.9881233366571
 24
282.7422197281769
 34
0.0
 50
90.0
100
AcDbRotatedDimension
1001
ACAD
1000
DSTYLE
1002
{
1070
    41
1040
7.0
1070
    42
1040
6.0
1070
    43
1040
14.0
1070
    44
1040
3.0
1070
    73
1070
     0
1070
    74
1070
     0
1070
    77
1070
     3
1070
   140
1040
6.0
1070
   141
1040
150.0
1070
   147
1040
2.0
1070
   172
1070
     1
1070
   173
1070
     1
1070
   176
1070
   256
1070
   177
1070
   256
1070
   178
1070
   256
1070
   271
1070
     0
1070
   272
1070
     0
1070
   341
1005
6D
1070
     6
1000
OPEN
1070
     7
1000
OPEN
1070
   371
1070
    -1
1070
   372
1070
    -1
1002
}
  0
DIMENSION
  5
6BE4
330
1A
100
AcDbEntity
  8
SUNPOU
 48
5.0
100
AcDbDimension
  2
*D14
 10
595.7298577360888
 20
304.7422197281769
 30
0.0
 11
590.7298577360887
 21
311.742219728177
 31
0.0
 70
    32
  3
STANDARD
100
AcDbAlignedDimension
 13
560.388123336657
 23
318.7422197281769
 33
0.0
 14
558.388123336657
 24
304.7422197281769
 34
0.0
 50
90.0
100
AcDbRotatedDimension
1001
ACAD
1000
DSTYLE
1002
{
1070
    41
1040
7.0
1070
    42
1040
6.0
1070
    43
1040
14.0
1070
    44
1040
3.0
1070
    73
1070
     0
1070
    74
1070
     0
1070
    77
1070
     3
1070
   140
1040
6.0
1070
   141
1040
150.0
1070
   147
1040
2.0
1070
   172
1070
     1
1070
   173
1070
     1
1070
   176
1070
   256
1070
   177
1070
   256
1070
   178
1070
   256
1070
   271
1070
     0
1070
   272
1070
     0
1070
   341
1005
6D
1070
     6
1000
OPEN
1070
     7
1000
OPEN
1070
   371
1070
    -1
1070
   372
1070
    -1
1002
}
  0
LINE
  5
6DC3
330
1A
100
AcDbEntity
  8
ZUWAKU
100
AcDbLine
 10
208.6466020721304
 20
15.2000005054757
 30
0.0
 11
447.4243647530538
 21
15.2000005054757
 31
0.0
  0
LINE
  5
6DC4
330
1A
100
AcDbEntity
  8
ZUWAKU
100
AcDbLine
 10
208.6466020721304
 20
15.6000005054757
 30
0.0
 11
447.4243647530538
 21
15.60000050547571
 31
0.0
  0
LINE
  5
6DC5
330
1A
100
AcDbEntity
  8
ZUWAKU
100
AcDbLine
 10
208.6466020721304
 20
15.4000005054757
 30
0.0
 11
447.4243647530538
 21
15.4000005054757
 31
0.0
  0
LINE
  5
6DC6
330
1A
100
AcDbEntity
  8
ZUWAKU
100
AcDbLine
 10
0.0000007820624432
 20
30.80000050547567
 30
0.0
 11
797.4000007820623
 21
30.80000050547567
 31
0.0
  0
LINE
  5
6DC7
330
1A
100
AcDbEntity
  8
ZUWAKU
100
AcDbLine
 10
0.0000007820624432
 20
30.60000050547567
 30
0.0
 11
797.4000007820623
 21
30.60000050547567
 31
0.0
  0
LINE
  5
6DC8
330
1A
100
AcDbEntity
  8
ZUWAKU
100
AcDbLine
 10
0.0000007820624432
 20
30.40000050547567
 30
0.0
 11
797.4000007820623
 21
30.40000050547567
 31
0.0
  0
LINE
  5
6DC9
330
1A
100
AcDbEntity
  8
ZUWAKU
100
AcDbLine
 10
0.0000007820624432
 20
30.20000050547567
 30
0.0
 11
797.4000007820623
 21
30.20000050547567
 31
0.0
  0
LINE
  5
6DCA
330
1A
100
AcDbEntity
  8
ZUWAKU
100
AcDbLine
 10
0.0000007820624432
 20
30.00000050547567
 30
0.0
 11
797.4000007820623
 21
30.00000050547567
 31
0.0
  0
LWPOLYLINE
  5
6DCB
330
1A
100
AcDbEntity
  8
ZUWAKU
100
AcDbPolyline
 90
        4
 70
     1
 43
0.0
 10
0.200000782062375
 20
551.4000005054757
 10
0.200000782062375
 20
0.2000005054757139
 10
797.4000007820623
 20
0.200000505475737
 10
797.4000007820625
 20
551.4000005054757
  0
LWPOLYLINE
  5
6DCC
330
1A
100
AcDbEntity
  8
ZUWAKU
100
AcDbPolyline
 90
        4
 70
     1
 43
0.0
 10
0.6000007820623523
 20
551.0000005054758
 10
0.6000007820623523
 20
0.6000005054756912
 10
797.0000007820626
 20
0.6000005054757374
 10
797.0000007820624
 20
551.0000005054758
  0
LWPOLYLINE
  5
6DCD
330
1A
100
AcDbEntity
  8
ZUWAKU
100
AcDbPolyline
 90
        4
 70
     1
 43
0.0
 10
0.0000007820624432
 20
551.6000005054756
 10
0.0000007820624432
 20
0.0000005054756684
 10
797.6000007820625
 20
0.0000005054757359
 10
797.6000007820625
 20
551.6000005054758
  0
LWPOLYLINE
  5
6DCE
330
1A
100
AcDbEntity
  8
ZUWAKU
100
AcDbPolyline
 90
        4
 70
     1
 43
0.0
 10
0.4000007820624206
 20
551.2000005054757
 10
0.4000007820624206
 20
0.4000005054757594
 10
797.2000007820625
 20
0.4000005054757363
 10
797.2000007820625
 20
551.2000005054757
  0
LWPOLYLINE
  5
6DCF
330
1A
100
AcDbEntity
  8
ZUWAKU
100
AcDbPolyline
 90
        4
 70
     1
 43
0.0
 10
0.8000007820623977
 20
550.8000005054757
 10
0.8000007820623977
 20
0.8000005054757366
 10
796.8000007820624
 20
0.8000005054757366
 10
796.8000007820624
 20
550.8000005054757
  0
TEXT
  5
6DD0
330
1A
100
AcDbEntity
  8
MOJI
100
AcDbText
 10
92.95779037023157
 20
12.74117863575042
 30
0.0
 40
6.0
  1
新・丸トップＲＶ１０５
 41
0.9
  7
ｽﾀｲﾙ1
100
AcDbText
  0
HATCH
  5
6DD1
330
1A
100
AcDbEntity
  8
ZUWAKU
100
AcDbHatch
 10
0.0
 20
0.0
 30
0.0
210
0.0
220
0.0
230
1.0
  2
ANSI37
 70
     0
 71
     0
 91
        8
 92
        7
 72
     1
 73
     1
 93
       24
 10
14.5022634431823
 20
17.64484898645925
 42
-0.1989123673796348
 10
14.09221293684356
 20
18.6347984801203
 42
0.0
 10
14.09221293684356
 20
19.92500050547567
 42
-0.4142135623730912
 10
14.61721293684354
 20
20.45000050547567
 42
0.0
 10
17.59221293684345
 20
20.45000050547567
 42
0.4142135623731546
 10
18.11721293684354
 20
20.97500050547566
 42
0.0
 10
18.11721293684354
 20
22.72500050547567
 42
0.4142135623731586
 10
17.59221293684345
 20
23.25000050547567
 42
0.0
 10
14.09221293684356
 20
23.25000050547567
 42
0.4142135623730928
 10
11.29221293684361
 20
20.4500005054757
 42
0.0
 10
11.29221293684361
 20
18.63479848012043
 42
0.1989123673796619
 10
12.52236445586004
 20
15.66494999913682
 42
0.0
 10
15.43216243050471
 20
12.75515202449216
 42
-0.1989123673796613
 10
15.84221293684356
 20
11.76520253083098
 42
0.0
 10
15.84221293684356
 20
10.47500050547566
 42
-0.4142135623730911
 10
15.31721293684358
 20
9.950000505475671
 42
0.0
 10
12.34221293684368
 20
9.950000505475671
 42
0.4142135623731526
 10
11.81721293684358
 20
9.425000505475683
 42
0.0
 10
11.81721293684358
 20
7.675000505475662
 42
0.4142135623731526
 10
12.34221293684368
 20
7.150000505475674
 42
0.0
 10
15.84221293684356
 20
7.150000505475674
 42
0.4142135623731044
 10
18.64221293684363
 20
9.950000505475649
 42
0.0
 10
18.64221293684363
 20
11.76520253083092
 42
0.1989123673796604
 10
17.41206141782709
 20
14.73505101181446
 42
0.0
 97
        0
 92
        7
 72
     1
 73
     1
 93
       16
 10
23.54221293684361
 20
19.05000050547568
 42
-0.4142135623730935
 10
24.94221293684359
 20
20.45000050547567
 42
0.0
 10
26.86721293684354
 20
20.45000050547567
 42
0.4142135623731546
 10
27.39221293684363
 20
20.97500050547566
 42
0.0
 10
27.39221293684363
 20
22.72500050547567
 42
0.4142135623730951
 10
26.86721293684366
 20
23.25000050547567
 42
0.0
 10
24.94221293684347
 20
23.25000050547563
 42
0.4142135623730892
 10
20.74221293684354
 20
19.05000050547561
 42
0.0
 10
20.74221293684354
 20
11.35000050547569
 42
0.4142135623730969
 10
24.94221293684359
 20
7.150000505475674
 42
0.0
 10
26.86721293684354
 20
7.150000505475674
 42
0.4142135623731526
 10
27.39221293684363
 20
7.675000505475662
 42
0.0
 10
27.39221293684363
 20
9.425000505475683
 42
0.4142135623730891
 10
26.86721293684366
 20
9.950000505475671
 42
0.0
 10
24.94221293684359
 20
9.950000505475671
 42
-0.4142135623730928
 10
23.54221293684361
 20
11.35000050547565
 42
0.0
 97
        0
 92
        7
 72
     1
 73
     1
 93
        2
 10
24.24221293684354
 20
15.20000050547567
 42
1.0
 10
27.74221293684354
 20
15.20000050547567
 42
1.0
 97
        0
 92
        7
 72
     1
 73
     1
 93
       26
 10
37.31485941902155
 20
19.20504769903909
 42
0.0
 10
38.37649905215937
 20
22.56690653730868
 42
0.5069206636600134
 10
37.87586815296402
 20
23.25000050547567
 42
0.0
 10
36.17697877335479
 20
23.25000050547567
 42
0.3272098845218764
 10
35.67634787415943
 20
22.88309447364264
 42
0.0
 10
33.80807799952765
 20
16.96690653730875
 42
-0.3272098845219541
 10
33.30744710033218
 20
16.60000050547567
 42
0.0
 10
33.16721293684372
 20
16.60000050547567
 42
-0.4142135623731526
 10
32.64221293684363
 20
17.12500050547565
 42
0.0
 10
32.64221293684363
 20
22.72500050547567
 42
0.4142135623730951
 10
32.11721293684365
 20
23.25000050547567
 42
0.0
 10
30.36721293684354
 20
23.25000050547567
 42
0.4142135623730871
 10
29.84221293684356
 20
22.72500050547569
 42
0.0
 10
29.84221293684356
 20
7.675000505475662
 42
0.4142135623730891
 10
30.36721293684354
 20
7.150000505475674
 42
0.0
 10
32.11721293684354
 20
7.150000505475674
 42
0.4142135623731526
 10
32.64221293684363
 20
7.675000505475662
 42
0.0
 10
32.64221293684363
 20
13.27500050547568
 42
-0.4142135623731526
 10
33.16721293684372
 20
13.80000050547567
 42
0.0
 10
33.30744710033229
 20
13.80000050547567
 42
-0.3272098845218915
 10
33.80807799952765
 20
13.43309447364259
 42
0.0
 10
35.67634787415943
 20
7.516906537308745
 42
0.3272098845218902
 10
36.17697877335479
 20
7.150000505475674
 42
0.0
 10
37.87586815296402
 20
7.150000505475674
 42
0.5069206636600335
 10
38.37649905215937
 20
7.833094473642681
 42
0.0
 10
36.05010767368571
 20
15.2000005054758
 42
0.0
 97
        0
 92
        7
 72
     1
 73
     1
 93
        8
 10
43.49221293684354
 20
22.72500050547568
 42
0.4142135623731546
 10
42.96721293684345
 20
23.25000050547567
 42
0.0
 10
41.21721293684368
 20
23.25000050547567
 42
0.4142135623731507
 10
40.69221293684359
 20
22.72500050547569
 42
0.0
 10
40.69221293684359
 20
7.675000505475662
 42
0.4142135623731526
 10
41.21721293684368
 20
7.150000505475674
 42
0.0
 10
42.96721293684345
 20
7.150000505475674
 42
0.4142135623731526
 10
43.49221293684354
 20
7.675000505475662
 42
0.0
 97
        0
 92
        7
 72
     1
 73
     1
 93
       24
 10
48.39221293684364
 20
19.92500050547567
 42
-0.4142135623731546
 10
48.91721293684373
 20
20.45000050547567
 42
0.0
 10
51.89221293684363
 20
20.45000050547567
 42
0.4142135623730911
 10
52.41721293684361
 20
20.97500050547566
 42
0.0
 10
52.41721293684361
 20
22.72500050547567
 42
0.4142135623730952
 10
51.89221293684363
 20
23.25000050547567
 42
0.0
 10
48.39221293684364
 20
23.25000050547567
 42
0.4142135623731048
 10
45.59221293684356
 20
20.4500005054757
 42
0.0
 10
45.59221293684356
 20
18.63479848012043
 42
0.1989123673796613
 10
46.82236445586011
 20
15.66494999913688
 42
0.0
 10
49.73216243050479
 20
12.75515202449221
 42
-0.1989123673796402
 10
50.14221293684363
 20
11.76520253083114
 42
0.0
 10
50.14221293684363
 20
10.47500050547566
 42
-0.4142135623730911
 10
49.61721293684366
 20
9.950000505475671
 42
0.0
 10
46.64221293684363
 20
9.950000505475671
 42
0.4142135623731526
 10
46.11721293684354
 20
9.425000505475683
 42
0.0
 10
46.11721293684354
 20
7.675000505475662
 42
0.4142135623730891
 10
46.64221293684351
 20
7.150000505475674
 42
0.0
 10
50.14221293684363
 20
7.150000505475674
 42
0.4142135623730925
 10
52.94221293684358
 20
9.950000505475649
 42
0.0
 10
52.94221293684358
 20
11.76520253083092
 42
0.1989123673796675
 10
51.71206141782704
 20
14.73505101181457
 42
0.0
 10
48.80226344318248
 20
17.64484898645909
 42
-0.1989123673796652
 10
48.39221293684364
 20
18.63479848012025
 42
0.0
 97
        0
 92
        7
 72
     1
 73
     1
 93
       16
 10
57.84221293684357
 20
22.72500050547566
 42
0.414213562373103
 10
57.31721293684358
 20
23.25000050547567
 42
0.0
 10
55.56721293684359
 20
23.25000050547567
 42
0.4142135623730871
 10
55.04221293684361
 20
22.72500050547569
 42
0.0
 10
55.04221293684361
 20
9.950000505475649
 42
0.4142135623730926
 10
57.84221293684357
 20
7.150000505475674
 42
0.0
 10
61.34221293684356
 20
7.150000505475674
 42
0.4142135623731044
 10
64.14221293684363
 20
9.950000505475649
 42
0.0
 10
64.14221293684363
 20
22.72500050547567
 42
0.4142135623730951
 10
63.61721293684365
 20
23.25000050547567
 42
0.0
 10
61.86721293684354
 20
23.25000050547567
 42
0.4142135623730871
 10
61.34221293684356
 20
22.72500050547569
 42
0.0
 10
61.34221293684356
 20
11.00000050547564
 42
-0.414213562373088
 10
60.29221293684361
 20
9.950000505475671
 42
0.0
 10
58.89221293684363
 20
9.950000505475671
 42
-0.4142135623731197
 10
57.84221293684357
 20
11.00000050547564
 42
0.0
 97
        0
 92
        7
 72
     1
 73
     1
 93
        8
 10
69.04221293684361
 20
22.72500050547569
 42
0.4142135623730871
 10
68.51721293684363
 20
23.25000050547567
 42
0.0
 10
66.76721293684363
 20
23.25000050547567
 42
0.4142135623731507
 10
66.24221293684354
 20
22.72500050547569
 42
0.0
 10
66.24221293684354
 20
7.675000505475662
 42
0.4142135623730891
 10
66.76721293684352
 20
7.150000505475674
 42
0.0
 10
68.51721293684363
 20
7.150000505475674
 42
0.4142135623730891
 10
69.04221293684361
 20
7.675000505475662
 42
0.0
 97
        0
 75
     0
 76
     1
 52
0.0
 41
0.2
 77
     0
 78
     2
 53
45.0
 43
-900.9423035526165
 44
-13.19999949452426
 45
-0.4490128060534576
 46
0.4490128060534577
 79
     0
 53
135.0
 43
-900.9423035526165
 44
-13.19999949452426
 45
-0.4490128060534577
 46
-0.4490128060534576
 79
     0
 47
0.057451373970553
 98
        8
 10
16.07985574508575
 20
15.16717415136122
 10
22.40451578850161
 20
18.84406268792668
 10
25.1643686677221
 20
15.51188215154638
 10
30.91406076369958
 20
16.20129815191717
 10
41.83847280101917
 20
16.66091041945878
 10
46.89820167719199
 20
19.41857682188287
 10
56.55768675446279
 20
18.72915842057068
 10
67.82708040168518
 20
19.18877068811229
  0
LINE
  5
6DD2
330
1A
100
AcDbEntity
  8
ZUWAKU
100
AcDbLine
 10
24.94221293684359
 20
23.25000050547563
 30
0.0
 11
26.86721293684354
 21
23.25000050547567
 31
0.0
  0
LINE
  5
6DD3
330
1A
100
AcDbEntity
  8
ZUWAKU
100
AcDbLine
 10
26.86721293684354
 20
20.45000050547567
 30
0.0
 11
24.94221293684359
 21
20.45000050547567
 31
0.0
  0
LINE
  5
6DD4
330
1A
100
AcDbEntity
  8
ZUWAKU
100
AcDbLine
 10
24.94221293684359
 20
9.950000505475671
 30
0.0
 11
26.86721293684354
 21
9.950000505475671
 31
0.0
  0
LINE
  5
6DD5
330
1A
100
AcDbEntity
  8
ZUWAKU
100
AcDbLine
 10
26.86721293684354
 20
7.150000505475674
 30
0.0
 11
24.94221293684359
 21
7.150000505475674
 31
0.0
  0
CIRCLE
  5
6DD6
330
1A
100
AcDbEntity
  8
ZUWAKU
100
AcDbCircle
 10
25.99221293684354
 20
15.20000050547567
 30
0.0
 40
1.75
  0
ARC
  5
6DD7
330
1A
100
AcDbEntity
  8
ZUWAKU
100
AcDbCircle
 10
15.49221293684354
 20
18.63479848012037
 30
0.0
 40
1.399999999999999
100
AcDbArc
 50
180.0000000000016
 51
224.9999999999988
  0
LINE
  5
6DD8
330
1A
100
AcDbEntity
  8
ZUWAKU
100
AcDbLine
 10
23.54221293684361
 20
19.05000050547567
 30
0.0
 11
23.54221293684361
 21
11.35000050547567
 31
0.0
  0
LINE
  5
6DD9
330
1A
100
AcDbEntity
  8
ZUWAKU
100
AcDbLine
 10
20.74221293684354
 20
11.35000050547567
 30
0.0
 11
20.74221293684354
 21
19.05000050547563
 31
0.0
  0
ARC
  5
6DDA
330
1A
100
AcDbEntity
  8
ZUWAKU
100
AcDbCircle
 10
15.49221293684354
 20
18.63479848012037
 30
0.0
 40
4.199999999999999
100
AcDbArc
 50
180.0
 51
225.0
  0
ARC
  5
6DDB
330
1A
100
AcDbEntity
  8
ZUWAKU
100
AcDbCircle
 10
15.84221293684356
 20
9.950000505475671
 30
0.0
 40
2.799999999999999
100
AcDbArc
 50
270.0
 51
0.0
  0
ARC
  5
6DDC
330
1A
100
AcDbEntity
  8
ZUWAKU
100
AcDbCircle
 10
24.94221293684359
 20
11.35000050547567
 30
0.0
 40
4.199999999999999
100
AcDbArc
 50
180.0
 51
270.0
  0
ARC
  5
6DDD
330
1A
100
AcDbEntity
  8
ZUWAKU
100
AcDbCircle
 10
14.44221293684359
 20
11.76520253083097
 30
0.0
 40
4.199999999999999
100
AcDbArc
 50
0.0
 51
45.0
  0
LINE
  5
6DDE
330
1A
100
AcDbEntity
  8
ZUWAKU
100
AcDbLine
 10
17.41206141782709
 20
14.73505101181449
 30
0.0
 11
14.50226344318241
 21
17.64484898645917
 31
0.0
  0
LINE
  5
6DDF
330
1A
100
AcDbEntity
  8
ZUWAKU
100
AcDbLine
 10
15.84221293684356
 20
10.47500050547567
 30
0.0
 11
15.84221293684356
 21
11.76520253083101
 31
0.0
  0
ARC
  5
6DE0
330
1A
100
AcDbEntity
  8
ZUWAKU
100
AcDbCircle
 10
15.31721293684358
 20
10.47500050547567
 30
0.0
 40
0.525
100
AcDbArc
 50
270.0
 51
0.0
  0
ARC
  5
6DE1
330
1A
100
AcDbEntity
  8
ZUWAKU
100
AcDbCircle
 10
14.44221293684359
 20
11.76520253083101
 30
0.0
 40
1.399999999999999
100
AcDbArc
 50
0.0
 51
45.0
  0
LINE
  5
6DE2
330
1A
100
AcDbEntity
  8
ZUWAKU
100
AcDbLine
 10
11.81721293684358
 20
7.675000505475672
 30
0.0
 11
11.81721293684358
 21
9.425000505475672
 31
0.0
  0
ARC
  5
6DE3
330
1A
100
AcDbEntity
  8
ZUWAKU
100
AcDbCircle
 10
12.34221293684356
 20
7.675000505475672
 30
0.0
 40
0.525
100
AcDbArc
 50
180.0
 51
270.0
  0
ARC
  5
6DE4
330
1A
100
AcDbEntity
  8
ZUWAKU
100
AcDbCircle
 10
12.34221293684356
 20
9.425000505475672
 30
0.0
 40
0.525
100
AcDbArc
 50
90.0
 51
180.0
  0
LINE
  5
6DE5
330
1A
100
AcDbEntity
  8
ZUWAKU
100
AcDbLine
 10
12.34221293684356
 20
7.150000505475674
 30
0.0
 11
15.84221293684356
 21
7.150000505475674
 31
0.0
  0
LINE
  5
6DE6
330
1A
100
AcDbEntity
  8
ZUWAKU
100
AcDbLine
 10
12.34221293684356
 20
9.950000505475671
 30
0.0
 11
15.31721293684358
 21
9.950000505475671
 31
0.0
  0
LINE
  5
6DE7
330
1A
100
AcDbEntity
  8
ZUWAKU
100
AcDbLine
 10
12.52236445586004
 20
15.66494999913685
 30
0.0
 11
15.43216243050471
 21
12.75515202449219
 31
0.0
  0
LINE
  5
6DE8
330
1A
100
AcDbEntity
  8
ZUWAKU
100
AcDbLine
 10
18.64221293684363
 20
9.950000505475671
 30
0.0
 11
18.64221293684363
 21
11.76520253083101
 31
0.0
  0
ARC
  5
6DE9
330
1A
100
AcDbEntity
  8
ZUWAKU
100
AcDbCircle
 10
24.94221293684359
 20
11.35000050547567
 30
0.0
 40
1.399999999999999
100
AcDbArc
 50
180.0
 51
270.0
  0
ARC
  5
6DEA
330
1A
100
AcDbEntity
  8
ZUWAKU
100
AcDbCircle
 10
17.59221293684356
 20
22.72500050547566
 30
0.0
 40
0.525
100
AcDbArc
 50
0.0
 51
90.0
  0
ARC
  5
6DEB
330
1A
100
AcDbEntity
  8
ZUWAKU
100
AcDbCircle
 10
17.59221293684356
 20
20.97500050547567
 30
0.0
 40
0.525
100
AcDbArc
 50
270.0
 51
0.0
  0
LINE
  5
6DEC
330
1A
100
AcDbEntity
  8
ZUWAKU
100
AcDbLine
 10
14.09221293684356
 20
23.25000050547567
 30
0.0
 11
17.59221293684356
 21
23.25000050547567
 31
0.0
  0
ARC
  5
6DED
330
1A
100
AcDbEntity
  8
ZUWAKU
100
AcDbCircle
 10
14.61721293684354
 20
19.92500050547567
 30
0.0
 40
0.525
100
AcDbArc
 50
90.0
 51
180.0
  0
LINE
  5
6DEE
330
1A
100
AcDbEntity
  8
ZUWAKU
100
AcDbLine
 10
14.09221293684356
 20
19.92500050547567
 30
0.0
 11
14.09221293684356
 21
18.63479848012033
 31
0.0
  0
LINE
  5
6DEF
330
1A
100
AcDbEntity
  8
ZUWAKU
100
AcDbLine
 10
17.59221293684356
 20
20.45000050547567
 30
0.0
 11
14.61721293684354
 21
20.45000050547567
 31
0.0
  0
LINE
  5
6DF0
330
1A
100
AcDbEntity
  8
ZUWAKU
100
AcDbLine
 10
11.29221293684361
 20
20.45000050547567
 30
0.0
 11
11.29221293684361
 21
18.63479848012033
 31
0.0
  0
ARC
  5
6DF1
330
1A
100
AcDbEntity
  8
ZUWAKU
100
AcDbCircle
 10
14.09221293684356
 20
20.45000050547567
 30
0.0
 40
2.799999999999999
100
AcDbArc
 50
90.0
 51
180.0
  0
LINE
  5
6DF2
330
1A
100
AcDbEntity
  8
ZUWAKU
100
AcDbLine
 10
18.11721293684354
 20
22.72500050547566
 30
0.0
 11
18.11721293684354
 21
20.97500050547567
 31
0.0
  0
ARC
  5
6DF3
330
1A
100
AcDbEntity
  8
ZUWAKU
100
AcDbCircle
 10
24.94221293684359
 20
19.05000050547567
 30
0.0
 40
1.399999999999999
100
AcDbArc
 50
90.0
 51
180.0
  0
ARC
  5
6DF4
330
1A
100
AcDbEntity
  8
ZUWAKU
100
AcDbCircle
 10
24.94221293684359
 20
19.05000050547563
 30
0.0
 40
4.199999999999999
100
AcDbArc
 50
90.0
 51
180.0
  0
LINE
  5
6DF5
330
1A
100
AcDbEntity
  8
ZUWAKU
100
AcDbLine
 10
79.32663033005065
 20
30.00000050547567
 30
0.0
 11
79.32663033005088
 21
0.8000005054757366
 31
0.0
  0
LINE
  5
6DF6
330
1A
100
AcDbEntity
  8
ZUWAKU
100
AcDbLine
 10
79.5266303300507
 20
30.00000050547567
 30
0.0
 11
79.52663033005092
 21
0.8000005054757366
 31
0.0
  0
LINE
  5
6DF7
330
1A
100
AcDbEntity
  8
ZUWAKU
100
AcDbLine
 10
79.12663033005083
 20
30.00000050547567
 30
0.0
 11
79.12663033005083
 21
0.8000005054757366
 31
0.0
  0
LINE
  5
6DF8
330
1A
100
AcDbEntity
  8
ZUWAKU
100
AcDbLine
 10
64.14221293684363
 20
9.950000505475671
 30
0.0
 11
64.14221293684363
 21
22.72500050547566
 31
0.0
  0
LINE
  5
6DF9
330
1A
100
AcDbEntity
  8
ZUWAKU
100
AcDbLine
 10
61.34221293684356
 20
22.72500050547566
 30
0.0
 11
61.34221293684356
 21
11.00000050547566
 31
0.0
  0
LINE
  5
6DFA
330
1A
100
AcDbEntity
  8
ZUWAKU
100
AcDbLine
 10
69.04221293684361
 20
7.675000505475672
 30
0.0
 11
69.04221293684361
 21
22.72500050547566
 31
0.0
  0
LINE
  5
6DFB
330
1A
100
AcDbEntity
  8
ZUWAKU
100
AcDbLine
 10
66.24221293684354
 20
22.72500050547566
 30
0.0
 11
66.24221293684354
 21
7.675000505475672
 31
0.0
  0
ARC
  5
6DFC
330
1A
100
AcDbEntity
  8
ZUWAKU
100
AcDbCircle
 10
49.79221293684361
 20
18.63479848012037
 30
0.0
 40
1.399999999999999
100
AcDbArc
 50
180.0000000000016
 51
224.9999999999988
  0
ARC
  5
6DFD
330
1A
100
AcDbEntity
  8
ZUWAKU
100
AcDbCircle
 10
49.79221293684361
 20
18.63479848012037
 30
0.0
 40
4.199999999999999
100
AcDbArc
 50
180.0
 51
225.0
  0
LINE
  5
6DFE
330
1A
100
AcDbEntity
  8
ZUWAKU
100
AcDbLine
 10
37.31485941902155
 20
19.20504769903909
 30
0.0
 11
36.05010767368571
 21
15.20000050547569
 31
0.0
  0
LINE
  5
6DFF
330
1A
100
AcDbEntity
  8
ZUWAKU
100
AcDbLine
 10
40.69221293684359
 20
22.72500050547566
 30
0.0
 11
40.69221293684359
 21
7.675000505475672
 31
0.0
  0
LINE
  5
6E00
330
1A
100
AcDbEntity
  8
ZUWAKU
100
AcDbLine
 10
43.49221293684354
 20
7.675000505475672
 30
0.0
 11
43.49221293684354
 21
22.72500050547566
 31
0.0
  0
LINE
  5
6E01
330
1A
100
AcDbEntity
  8
ZUWAKU
100
AcDbLine
 10
55.04221293684361
 20
22.72500050547566
 30
0.0
 11
55.04221293684361
 21
9.950000505475671
 31
0.0
  0
LINE
  5
6E02
330
1A
100
AcDbEntity
  8
ZUWAKU
100
AcDbLine
 10
57.84221293684357
 20
11.00000050547566
 30
0.0
 11
57.84221293684357
 21
22.72500050547566
 31
0.0
  0
LINE
  5
6E03
330
1A
100
AcDbEntity
  8
ZUWAKU
100
AcDbLine
 10
32.64221293684363
 20
17.12500050547567
 30
0.0
 11
32.64221293684363
 21
22.72500050547566
 31
0.0
  0
LINE
  5
6E04
330
1A
100
AcDbEntity
  8
ZUWAKU
100
AcDbLine
 10
29.84221293684356
 20
22.72500050547566
 30
0.0
 11
29.84221293684356
 21
7.675000505475672
 31
0.0
  0
LINE
  5
6E05
330
1A
100
AcDbEntity
  8
ZUWAKU
100
AcDbLine
 10
35.67634787415943
 20
22.88309447364264
 30
0.0
 11
33.80807799952765
 21
16.9669065373087
 31
0.0
  0
LINE
  5
6E06
330
1A
100
AcDbEntity
  8
ZUWAKU
100
AcDbLine
 10
60.29221293684361
 20
9.950000505475671
 30
0.0
 11
58.89221293684363
 21
9.950000505475671
 31
0.0
  0
LINE
  5
6E07
330
1A
100
AcDbEntity
  8
ZUWAKU
100
AcDbLine
 10
57.84221293684357
 20
7.150000505475674
 30
0.0
 11
61.34221293684356
 21
7.150000505475674
 31
0.0
  0
LINE
  5
6E08
330
1A
100
AcDbEntity
  8
ZUWAKU
100
AcDbLine
 10
41.21721293684356
 20
7.150000505475674
 30
0.0
 11
42.96721293684356
 21
7.150000505475674
 31
0.0
  0
LINE
  5
6E09
330
1A
100
AcDbEntity
  8
ZUWAKU
100
AcDbLine
 10
35.67634787415943
 20
7.516906537308699
 30
0.0
 11
33.80807799952765
 21
13.43309447364264
 31
0.0
  0
ARC
  5
6E0A
330
1A
100
AcDbEntity
  8
ZUWAKU
100
AcDbCircle
 10
33.30744710033229
 20
17.12500050547567
 30
0.0
 40
0.525
100
AcDbArc
 50
270.0
 51
342.4744316262769
  0
LINE
  5
6E0B
330
1A
100
AcDbEntity
  8
ZUWAKU
100
AcDbLine
 10
33.30744710033229
 20
16.60000050547567
 30
0.0
 11
33.16721293684361
 21
16.60000050547567
 31
0.0
  0
LINE
  5
6E0C
330
1A
100
AcDbEntity
  8
ZUWAKU
100
AcDbLine
 10
33.16721293684361
 20
13.80000050547567
 30
0.0
 11
33.30744710033229
 21
13.80000050547567
 31
0.0
  0
ARC
  5
6E0D
330
1A
100
AcDbEntity
  8
ZUWAKU
100
AcDbCircle
 10
33.16721293684361
 20
17.12500050547567
 30
0.0
 40
0.525
100
AcDbArc
 50
180.0
 51
270.0
  0
LINE
  5
6E0E
330
1A
100
AcDbEntity
  8
ZUWAKU
100
AcDbLine
 10
30.36721293684354
 20
7.150000505475674
 30
0.0
 11
32.11721293684354
 21
7.150000505475674
 31
0.0
  0
ARC
  5
6E0F
330
1A
100
AcDbEntity
  8
ZUWAKU
100
AcDbCircle
 10
32.11721293684354
 20
7.675000505475672
 30
0.0
 40
0.525
100
AcDbArc
 50
270.0
 51
0.0
  0
LINE
  5
6E10
330
1A
100
AcDbEntity
  8
ZUWAKU
100
AcDbLine
 10
32.64221293684363
 20
7.675000505475672
 30
0.0
 11
32.64221293684363
 21
13.27500050547567
 31
0.0
  0
LINE
  5
6E11
330
1A
100
AcDbEntity
  8
ZUWAKU
100
AcDbLine
 10
27.39221293684363
 20
9.425000505475672
 30
0.0
 11
27.39221293684363
 21
7.675000505475672
 31
0.0
  0
ARC
  5
6E12
330
1A
100
AcDbEntity
  8
ZUWAKU
100
AcDbCircle
 10
26.86721293684354
 20
7.675000505475672
 30
0.0
 40
0.525
100
AcDbArc
 50
270.0
 51
0.0
  0
ARC
  5
6E13
330
1A
100
AcDbEntity
  8
ZUWAKU
100
AcDbCircle
 10
26.86721293684354
 20
9.425000505475672
 30
0.0
 40
0.525
100
AcDbArc
 50
0.0
 51
90.0
  0
ARC
  5
6E14
330
1A
100
AcDbEntity
  8
ZUWAKU
100
AcDbCircle
 10
30.36721293684354
 20
7.675000505475672
 30
0.0
 40
0.525
100
AcDbArc
 50
180.0
 51
270.0
  0
ARC
  5
6E15
330
1A
100
AcDbEntity
  8
ZUWAKU
100
AcDbCircle
 10
33.30744710033229
 20
13.27500050547567
 30
0.0
 40
0.525
100
AcDbArc
 50
17.52556837372303
 51
90.0
  0
ARC
  5
6E16
330
1A
100
AcDbEntity
  8
ZUWAKU
100
AcDbCircle
 10
33.16721293684361
 20
13.27500050547567
 30
0.0
 40
0.525
100
AcDbArc
 50
90.0
 51
180.0
  0
ARC
  5
6E17
330
1A
100
AcDbEntity
  8
ZUWAKU
100
AcDbCircle
 10
41.21721293684356
 20
7.675000505475672
 30
0.0
 40
0.525
100
AcDbArc
 50
180.0
 51
270.0
  0
LINE
  5
6E18
330
1A
100
AcDbEntity
  8
ZUWAKU
100
AcDbLine
 10
36.1769787733549
 20
7.150000505475674
 30
0.0
 11
37.8758681529639
 21
7.150000505475674
 31
0.0
  0
ARC
  5
6E19
330
1A
100
AcDbEntity
  8
ZUWAKU
100
AcDbCircle
 10
37.8758681529639
 20
7.675000505475672
 30
0.0
 40
0.525
100
AcDbArc
 50
270.0
 51
17.52556837372303
  0
LINE
  5
6E1A
330
1A
100
AcDbEntity
  8
ZUWAKU
100
AcDbLine
 10
38.37649905215937
 20
7.833094473642645
 30
0.0
 11
36.05010767368571
 21
15.20000050547569
 31
0.0
  0
ARC
  5
6E1B
330
1A
100
AcDbEntity
  8
ZUWAKU
100
AcDbCircle
 10
36.1769787733549
 20
7.675000505475672
 30
0.0
 40
0.525
100
AcDbArc
 50
197.525568373723
 51
270.0
  0
ARC
  5
6E1C
330
1A
100
AcDbEntity
  8
ZUWAKU
100
AcDbCircle
 10
57.84221293684357
 20
9.950000505475671
 30
0.0
 40
2.799999999999999
100
AcDbArc
 50
180.0
 51
270.0
  0
ARC
  5
6E1D
330
1A
100
AcDbEntity
  8
ZUWAKU
100
AcDbCircle
 10
50.14221293684363
 20
9.950000505475671
 30
0.0
 40
2.799999999999999
100
AcDbArc
 50
270.0
 51
0.0
  0
LINE
  5
6E1E
330
1A
100
AcDbEntity
  8
ZUWAKU
100
AcDbLine
 10
51.71206141782715
 20
14.73505101181449
 30
0.0
 11
48.80226344318237
 21
17.64484898645917
 31
0.0
  0
LINE
  5
6E1F
330
1A
100
AcDbEntity
  8
ZUWAKU
100
AcDbLine
 10
50.14221293684363
 20
10.47500050547567
 30
0.0
 11
50.14221293684363
 21
11.76520253083101
 31
0.0
  0
ARC
  5
6E20
330
1A
100
AcDbEntity
  8
ZUWAKU
100
AcDbCircle
 10
48.74221293684354
 20
11.76520253083101
 30
0.0
 40
1.399999999999999
100
AcDbArc
 50
0.0
 51
45.0
  0
ARC
  5
6E21
330
1A
100
AcDbEntity
  8
ZUWAKU
100
AcDbCircle
 10
49.61721293684354
 20
10.47500050547567
 30
0.0
 40
0.525
100
AcDbArc
 50
270.0
 51
0.0
  0
LINE
  5
6E22
330
1A
100
AcDbEntity
  8
ZUWAKU
100
AcDbLine
 10
46.11721293684354
 20
7.675000505475672
 30
0.0
 11
46.11721293684354
 21
9.425000505475672
 31
0.0
  0
ARC
  5
6E23
330
1A
100
AcDbEntity
  8
ZUWAKU
100
AcDbCircle
 10
46.64221293684363
 20
7.675000505475672
 30
0.0
 40
0.525
100
AcDbArc
 50
180.0
 51
270.0
  0
ARC
  5
6E24
330
1A
100
AcDbEntity
  8
ZUWAKU
100
AcDbCircle
 10
42.96721293684356
 20
7.675000505475672
 30
0.0
 40
0.525
100
AcDbArc
 50
270.0
 51
0.0
  0
ARC
  5
6E25
330
1A
100
AcDbEntity
  8
ZUWAKU
100
AcDbCircle
 10
46.64221293684363
 20
9.425000505475672
 30
0.0
 40
0.525
100
AcDbArc
 50
90.0
 51
180.0
  0
LINE
  5
6E26
330
1A
100
AcDbEntity
  8
ZUWAKU
100
AcDbLine
 10
46.64221293684363
 20
9.950000505475671
 30
0.0
 11
49.61721293684354
 21
9.950000505475671
 31
0.0
  0
LINE
  5
6E27
330
1A
100
AcDbEntity
  8
ZUWAKU
100
AcDbLine
 10
46.64221293684363
 20
7.150000505475674
 30
0.0
 11
50.14221293684363
 21
7.150000505475674
 31
0.0
  0
LINE
  5
6E28
330
1A
100
AcDbEntity
  8
ZUWAKU
100
AcDbLine
 10
46.82236445586011
 20
15.66494999913685
 30
0.0
 11
49.73216243050479
 21
12.75515202449219
 31
0.0
  0
LINE
  5
6E29
330
1A
100
AcDbEntity
  8
ZUWAKU
100
AcDbLine
 10
52.94221293684358
 20
9.950000505475671
 30
0.0
 11
52.94221293684358
 21
11.76520253083101
 31
0.0
  0
ARC
  5
6E2A
330
1A
100
AcDbEntity
  8
ZUWAKU
100
AcDbCircle
 10
48.74221293684354
 20
11.76520253083097
 30
0.0
 40
4.199999999999999
100
AcDbArc
 50
0.0
 51
45.0
  0
ARC
  5
6E2B
330
1A
100
AcDbEntity
  8
ZUWAKU
100
AcDbCircle
 10
58.89221293684363
 20
11.00000050547566
 30
0.0
 40
1.049999999999999
100
AcDbArc
 50
180.0
 51
270.0
  0
ARC
  5
6E2C
330
1A
100
AcDbEntity
  8
ZUWAKU
100
AcDbCircle
 10
61.34221293684356
 20
9.950000505475671
 30
0.0
 40
2.799999999999999
100
AcDbArc
 50
270.0
 51
0.0
  0
LINE
  5
6E2D
330
1A
100
AcDbEntity
  8
ZUWAKU
100
AcDbLine
 10
66.76721293684363
 20
7.150000505475674
 30
0.0
 11
68.51721293684363
 21
7.150000505475674
 31
0.0
  0
ARC
  5
6E2E
330
1A
100
AcDbEntity
  8
ZUWAKU
100
AcDbCircle
 10
66.76721293684363
 20
7.675000505475672
 30
0.0
 40
0.525
100
AcDbArc
 50
180.0
 51
270.0
  0
ARC
  5
6E2F
330
1A
100
AcDbEntity
  8
ZUWAKU
100
AcDbCircle
 10
60.29221293684361
 20
11.00000050547566
 30
0.0
 40
1.049999999999999
100
AcDbArc
 50
270.0
 51
0.0
  0
ARC
  5
6E30
330
1A
100
AcDbEntity
  8
ZUWAKU
100
AcDbCircle
 10
68.51721293684363
 20
7.675000505475672
 30
0.0
 40
0.525
100
AcDbArc
 50
270.0
 51
0.0
  0
LINE
  5
6E31
330
1A
100
AcDbEntity
  8
ZUWAKU
100
AcDbLine
 10
42.96721293684356
 20
23.25000050547567
 30
0.0
 11
41.21721293684356
 21
23.25000050547567
 31
0.0
  0
ARC
  5
6E32
330
1A
100
AcDbEntity
  8
ZUWAKU
100
AcDbCircle
 10
32.11721293684354
 20
22.72500050547566
 30
0.0
 40
0.525
100
AcDbArc
 50
0.0
 51
90.0
  0
LINE
  5
6E33
330
1A
100
AcDbEntity
  8
ZUWAKU
100
AcDbLine
 10
32.11721293684354
 20
23.25000050547567
 30
0.0
 11
30.36721293684354
 21
23.25000050547567
 31
0.0
  0
ARC
  5
6E34
330
1A
100
AcDbEntity
  8
ZUWAKU
100
AcDbCircle
 10
26.86721293684354
 20
22.72500050547566
 30
0.0
 40
0.525
100
AcDbArc
 50
0.0
 51
90.0
  0
ARC
  5
6E35
330
1A
100
AcDbEntity
  8
ZUWAKU
100
AcDbCircle
 10
30.36721293684354
 20
22.72500050547566
 30
0.0
 40
0.525
100
AcDbArc
 50
90.0
 51
180.0
  0
ARC
  5
6E36
330
1A
100
AcDbEntity
  8
ZUWAKU
100
AcDbCircle
 10
26.86721293684354
 20
20.97500050547567
 30
0.0
 40
0.525
100
AcDbArc
 50
270.0
 51
0.0
  0
LINE
  5
6E37
330
1A
100
AcDbEntity
  8
ZUWAKU
100
AcDbLine
 10
27.39221293684363
 20
22.72500050547566
 30
0.0
 11
27.39221293684363
 21
20.97500050547567
 31
0.0
  0
ARC
  5
6E38
330
1A
100
AcDbEntity
  8
ZUWAKU
100
AcDbCircle
 10
41.21721293684356
 20
22.72500050547566
 30
0.0
 40
0.525
100
AcDbArc
 50
90.0
 51
180.0
  0
LINE
  5
6E39
330
1A
100
AcDbEntity
  8
ZUWAKU
100
AcDbLine
 10
36.1769787733549
 20
23.25000050547567
 30
0.0
 11
37.8758681529639
 21
23.25000050547567
 31
0.0
  0
ARC
  5
6E3A
330
1A
100
AcDbEntity
  8
ZUWAKU
100
AcDbCircle
 10
37.8758681529639
 20
22.72500050547566
 30
0.0
 40
0.525
100
AcDbArc
 50
342.4744316262769
 51
90.0
  0
LINE
  5
6E3B
330
1A
100
AcDbEntity
  8
ZUWAKU
100
AcDbLine
 10
38.37649905215937
 20
22.5669065373087
 30
0.0
 11
37.31485941902155
 21
19.20504769903909
 31
0.0
  0
ARC
  5
6E3C
330
1A
100
AcDbEntity
  8
ZUWAKU
100
AcDbCircle
 10
36.1769787733549
 20
22.72500050547566
 30
0.0
 40
0.525
100
AcDbArc
 50
90.0
 51
162.4744316262769
  0
LINE
  5
6E3D
330
1A
100
AcDbEntity
  8
ZUWAKU
100
AcDbLine
 10
48.39221293684364
 20
23.25000050547567
 30
0.0
 11
51.89221293684363
 21
23.25000050547567
 31
0.0
  0
LINE
  5
6E3E
330
1A
100
AcDbEntity
  8
ZUWAKU
100
AcDbLine
 10
51.89221293684363
 20
20.45000050547567
 30
0.0
 11
48.91721293684361
 21
20.45000050547567
 31
0.0
  0
ARC
  5
6E3F
330
1A
100
AcDbEntity
  8
ZUWAKU
100
AcDbCircle
 10
48.91721293684361
 20
19.92500050547567
 30
0.0
 40
0.525
100
AcDbArc
 50
90.0
 51
180.0
  0
LINE
  5
6E40
330
1A
100
AcDbEntity
  8
ZUWAKU
100
AcDbLine
 10
48.39221293684364
 20
19.92500050547567
 30
0.0
 11
48.39221293684364
 21
18.63479848012033
 31
0.0
  0
ARC
  5
6E41
330
1A
100
AcDbEntity
  8
ZUWAKU
100
AcDbCircle
 10
42.96721293684356
 20
22.72500050547566
 30
0.0
 40
0.525
100
AcDbArc
 50
0.0
 51
90.0
  0
LINE
  5
6E42
330
1A
100
AcDbEntity
  8
ZUWAKU
100
AcDbLine
 10
45.59221293684356
 20
20.45000050547567
 30
0.0
 11
45.59221293684356
 21
18.63479848012033
 31
0.0
  0
ARC
  5
6E43
330
1A
100
AcDbEntity
  8
ZUWAKU
100
AcDbCircle
 10
48.39221293684364
 20
20.45000050547567
 30
0.0
 40
2.799999999999999
100
AcDbArc
 50
90.0
 51
180.0
  0
ARC
  5
6E44
330
1A
100
AcDbEntity
  8
ZUWAKU
100
AcDbCircle
 10
57.31721293684358
 20
22.72500050547566
 30
0.0
 40
0.525
100
AcDbArc
 50
0.0
 51
90.0
  0
ARC
  5
6E45
330
1A
100
AcDbEntity
  8
ZUWAKU
100
AcDbCircle
 10
55.56721293684359
 20
22.72500050547566
 30
0.0
 40
0.525
100
AcDbArc
 50
90.0
 51
180.0
  0
LINE
  5
6E46
330
1A
100
AcDbEntity
  8
ZUWAKU
100
AcDbLine
 10
57.31721293684358
 20
23.25000050547567
 30
0.0
 11
55.56721293684359
 21
23.25000050547567
 31
0.0
  0
ARC
  5
6E47
330
1A
100
AcDbEntity
  8
ZUWAKU
100
AcDbCircle
 10
51.89221293684363
 20
22.72500050547566
 30
0.0
 40
0.525
100
AcDbArc
 50
0.0
 51
90.0
  0
ARC
  5
6E48
330
1A
100
AcDbEntity
  8
ZUWAKU
100
AcDbCircle
 10
51.89221293684363
 20
20.97500050547567
 30
0.0
 40
0.525
100
AcDbArc
 50
270.0
 51
0.0
  0
LINE
  5
6E49
330
1A
100
AcDbEntity
  8
ZUWAKU
100
AcDbLine
 10
52.41721293684361
 20
22.72500050547566
 30
0.0
 11
52.41721293684361
 21
20.97500050547567
 31
0.0
  0
LINE
  5
6E4A
330
1A
100
AcDbEntity
  8
ZUWAKU
100
AcDbLine
 10
68.51721293684363
 20
23.25000050547567
 30
0.0
 11
66.76721293684363
 21
23.25000050547567
 31
0.0
  0
ARC
  5
6E4B
330
1A
100
AcDbEntity
  8
ZUWAKU
100
AcDbCircle
 10
66.76721293684363
 20
22.72500050547566
 30
0.0
 40
0.525
100
AcDbArc
 50
90.0
 51
180.0
  0
ARC
  5
6E4C
330
1A
100
AcDbEntity
  8
ZUWAKU
100
AcDbCircle
 10
63.61721293684354
 20
22.72500050547566
 30
0.0
 40
0.525
100
AcDbArc
 50
0.0
 51
90.0
  0
LINE
  5
6E4D
330
1A
100
AcDbEntity
  8
ZUWAKU
100
AcDbLine
 10
63.61721293684354
 20
23.25000050547567
 30
0.0
 11
61.86721293684354
 21
23.25000050547567
 31
0.0
  0
ARC
  5
6E4E
330
1A
100
AcDbEntity
  8
ZUWAKU
100
AcDbCircle
 10
61.86721293684354
 20
22.72500050547566
 30
0.0
 40
0.525
100
AcDbArc
 50
90.0
 51
180.0
  0
ARC
  5
6E4F
330
1A
100
AcDbEntity
  8
ZUWAKU
100
AcDbCircle
 10
68.51721293684363
 20
22.72500050547566
 30
0.0
 40
0.525
100
AcDbArc
 50
0.0
 51
90.0
  0
TEXT
  5
6E50
330
1A
100
AcDbEntity
  8
MOJI
100
AcDbText
 10
239.8272034629135
 20
3.20492156288309
 30
0.0
 40
5.599999999999999
  1
ＲＶ１０５－０－１０～４５
 41
0.9
  7
ｽﾀｲﾙ1
100
AcDbText
  0
TEXT
  5
6E51
330
1A
100
AcDbEntity
  8
MOJI
100
AcDbText
 10
239.8272034629135
 20
18.00492156288305
 30
0.0
 40
5.599999999999999
  1
ステンレス金具正面打（吊）ワンタッチ自在式
 41
0.9
  7
ｽﾀｲﾙ1
100
AcDbText
  0
LINE
  5
6E52
330
1A
100
AcDbEntity
  8
ZUWAKU
100
AcDbLine
 10
208.2466020721303
 20
30.00000050547567
 30
0.0
 11
208.2466020721303
 21
0.8000005054757366
 31
0.0
  0
LINE
  5
6E53
330
1A
100
AcDbEntity
  8
ZUWAKU
100
AcDbLine
 10
208.6466020721302
 20
30.00000050547567
 30
0.0
 11
208.6466020721304
 21
0.8000005054757366
 31
0.0
  0
LINE
  5
6E54
330
1A
100
AcDbEntity
  8
ZUWAKU
100
AcDbLine
 10
208.4466020721301
 20
30.00000050547567
 30
0.0
 11
208.4466020721304
 21
0.8000005054757366
 31
0.0
  0
TEXT
  5
6E55
330
1A
100
AcDbEntity
  8
ZUWAKU
100
AcDbText
 10
209.72404709434
 20
9.655357043861286
 30
0.0
 40
4.0
  1
サイズ
 41
0.9
  7
ｽﾀｲﾙ1
100
AcDbText
  0
TEXT
  5
6E56
330
1A
100
AcDbEntity
  8
ZUWAKU
100
AcDbText
 10
209.7240470943397
 20
24.05535704386124
 30
0.0
 40
4.0
  1
品名
 41
0.9
  7
ｽﾀｲﾙ1
100
AcDbText
  0
LINE
  5
6E57
330
1A
100
AcDbEntity
  8
ZUWAKU
100
AcDbLine
 10
648.8172032922666
 20
15.2000005054757
 30
0.0
 11
697.2490113306037
 21
15.2000005054757
 31
0.0
  0
LINE
  5
6E58
330
1A
100
AcDbEntity
  8
ZUWAKU
100
AcDbLine
 10
648.8172032922668
 20
15.4000005054757
 30
0.0
 11
697.2490113306037
 21
15.4000005054757
 31
0.0
  0
LINE
  5
6E59
330
1A
100
AcDbEntity
  8
ZUWAKU
100
AcDbLine
 10
648.8172032922666
 20
15.6000005054757
 30
0.0
 11
697.2490113306037
 21
15.6000005054757
 31
0.0
  0
TEXT
  5
6E5A
330
1A
100
AcDbEntity
  8
ZUWAKU
100
AcDbText
 10
658.2039384693648
 20
18.00492156288305
 30
0.0
 40
5.599999999999999
  1
　　．　　．　　
 41
0.9
  7
ｽﾀｲﾙ1
100
AcDbText
  0
LINE
  5
6E5B
330
1A
100
AcDbEntity
  8
ZUWAKU
100
AcDbLine
 10
505.1991802802033
 20
15.2000005054757
 30
0.0
 11
552.5269565481749
 21
15.2000005054757
 31
0.0
  0
LINE
  5
6E5C
330
1A
100
AcDbEntity
  8
ZUWAKU
100
AcDbLine
 10
505.1991802802033
 20
15.4000005054757
 30
0.0
 11
552.5269565481749
 21
15.4000005054757
 31
0.0
  0
LINE
  5
6E5D
330
1A
100
AcDbEntity
  8
ZUWAKU
100
AcDbLine
 10
505.1991802802033
 20
15.6000005054757
 30
0.0
 11
552.5269565481749
 21
15.6000005054757
 31
0.0
  0
TEXT
  5
6E5E
330
1A
100
AcDbEntity
  8
MOJI
100
AcDbText
 10
464.5946267853014
 20
11.94261822713565
 30
0.0
 40
5.599999999999999
  1
ＬＬ７５Ｇ
 41
0.9
  7
ｽﾀｲﾙ1
100
AcDbText
  0
LINE
  5
6E5F
330
1A
100
AcDbEntity
  8
ZUWAKU
100
AcDbLine
 10
447.6243647530536
 20
30.00000050547567
 30
0.0
 11
447.6243647530538
 21
0.8000005054757366
 31
0.0
  0
LINE
  5
6E60
330
1A
100
AcDbEntity
  8
ZUWAKU
100
AcDbLine
 10
447.8243647530537
 20
30.00000050547567
 30
0.0
 11
447.8243647530539
 21
0.8000005054757366
 31
0.0
  0
LINE
  5
6E61
330
1A
100
AcDbEntity
  8
ZUWAKU
100
AcDbLine
 10
447.4243647530538
 20
30.00000050547567
 30
0.0
 11
447.4243647530538
 21
0.8000005054757366
 31
0.0
  0
TEXT
  5
6E62
330
1A
100
AcDbEntity
  8
MOJI
100
AcDbText
 10
528.0409087543753
 20
18.00492156288305
 30
0.0
 40
5.599999999999999
  1
Ａ３
 41
0.9
  7
ｽﾀｲﾙ1
100
AcDbText
  0
LINE
  5
6E63
330
1A
100
AcDbEntity
  8
ZUWAKU
100
AcDbLine
 10
504.9991802802033
 20
30.00000050547567
 30
0.0
 11
504.9991802802034
 21
0.8000005054757366
 31
0.0
  0
LINE
  5
6E64
330
1A
100
AcDbEntity
  8
ZUWAKU
100
AcDbLine
 10
505.1991802802033
 20
30.00000050547567
 30
0.0
 11
505.1991802802035
 21
0.8000005054757366
 31
0.0
  0
LINE
  5
6E65
330
1A
100
AcDbEntity
  8
ZUWAKU
100
AcDbLine
 10
504.7991802802035
 20
30.00000050547567
 30
0.0
 11
504.7991802802035
 21
0.8000005054757366
 31
0.0
  0
TEXT
  5
6E67
330
1A
100
AcDbEntity
  8
ZUWAKU
100
AcDbText
 10
506.6766253024131
 20
9.655357043861286
 30
0.0
 40
4.0
  1
縮尺
 41
0.9
  7
ｽﾀｲﾙ1
100
AcDbText
  0
TEXT
  5
6E68
330
1A
100
AcDbEntity
  8
MOJI
100
AcDbText
 10
528.0409087543753
 20
3.20492156288309
 30
0.0
 40
5.599999999999999
  1
１/２
 41
0.9
  7
ｽﾀｲﾙ1
100
AcDbText
  0
TEXT
  5
6E69
330
1A
100
AcDbEntity
  8
ZUWAKU
100
AcDbText
 10
449.3018097752633
 20
24.05535704386124
 30
0.0
 40
4.0
  1
品番
 41
0.9
  7
ｽﾀｲﾙ1
100
AcDbText
  0
TEXT
  5
6E6A
330
1A
100
AcDbEntity
  8
ZUWAKU
100
AcDbText
 10
506.6766253024129
 20
24.05535704386124
 30
0.0
 40
4.0
  1
用紙
 41
0.9
  7
ｽﾀｲﾙ1
100
AcDbText
  0
LINE
  5
6E6B
330
1A
100
AcDbEntity
  8
ZUWAKU
100
AcDbLine
 10
648.6172032922667
 20
30.00000050547567
 30
0.0
 11
648.617203292267
 21
0.8000005054757366
 31
0.0
  0
LINE
  5
6E6C
330
1A
100
AcDbEntity
  8
ZUWAKU
100
AcDbLine
 10
648.8172032922668
 20
30.00000050547567
 30
0.0
 11
648.8172032922671
 21
0.8000005054757366
 31
0.0
  0
LINE
  5
6E6D
330
1A
100
AcDbEntity
  8
ZUWAKU
100
AcDbLine
 10
648.4172032922669
 20
30.00000050547567
 30
0.0
 11
648.4172032922669
 21
0.8000005054757366
 31
0.0
  0
LINE
  5
6E6E
330
1A
100
AcDbEntity
  8
ZUWAKU
100
AcDbLine
 10
552.7269565481747
 20
30.00000050547567
 30
0.0
 11
552.7269565481749
 21
0.8000005054757366
 31
0.0
  0
LINE
  5
6E6F
330
1A
100
AcDbEntity
  8
ZUWAKU
100
AcDbLine
 10
552.9269565481747
 20
30.00000050547567
 30
0.0
 11
552.9269565481749
 21
0.8000005054757366
 31
0.0
  0
LINE
  5
6E70
330
1A
100
AcDbEntity
  8
ZUWAKU
100
AcDbLine
 10
552.5269565481749
 20
30.00000050547567
 30
0.0
 11
552.5269565481749
 21
0.8000005054757366
 31
0.0
  0
TEXT
  5
6E71
330
1A
100
AcDbEntity
  8
ZUWAKU
100
AcDbText
 10
650.2946483144764
 20
24.05535704386124
 30
0.0
 40
4.0
  1
DATE
 41
0.9
  7
ｽﾀｲﾙ1
100
AcDbText
  0
LINE
  5
6E72
330
1A
100
AcDbEntity
  8
ZUWAKU
100
AcDbLine
 10
697.2490113306037
 20
30.00000050547567
 30
0.0
 11
697.2490113306037
 21
0.8000005054757366
 31
0.0
  0
LINE
  5
6E73
330
1A
100
AcDbEntity
  8
ZUWAKU
100
AcDbLine
 10
697.4490113306037
 20
30.00000050547567
 30
0.0
 11
697.4490113306037
 21
0.8000005054757366
 31
0.0
  0
LINE
  5
6E74
330
1A
100
AcDbEntity
  8
ZUWAKU
100
AcDbLine
 10
697.6490113306035
 20
30.00000050547567
 30
0.0
 11
697.6490113306038
 21
0.8000005054757366
 31
0.0
  0
LINE
  5
6E75
330
1A
100
AcDbEntity
  8
ZUWAKU
100
AcDbLine
 10
697.8490113306036
 20
30.00000050547567
 30
0.0
 11
697.8490113306038
 21
0.8000005054757366
 31
0.0
  0
TEXT
  5
6E76
330
1A
100
AcDbEntity
  8
ZUWAKU
100
AcDbText
 10
708.5280849743062
 20
17.55383984116247
 30
0.0
 40
6.0
  1
積水化学工業株式会社
 41
0.9
  7
ｽﾀｲﾙ1
100
AcDbText
  0
TEXT
  5
6E77
330
1A
100
AcDbEntity
  8
ZUWAKU
100
AcDbText
 10
708.5280849743062
 20
6.648840819329734
 30
0.0
 40
6.0
  1
建材事業部
 41
0.9
  7
ｽﾀｲﾙ1
100
AcDbText
  0
VIEWPORT
  5
22
330
17
100
AcDbEntity
 67
     1
  8
0
100
AcDbViewport
 10
313.6808219178082
 20
148.5
 30
0.0
 40
627.3616438356165
 41
297.0
 68
     2
 69
     1
1001
ACAD
1000
MVIEW
1002
{
1070
    16
1010
0.0
1020
0.0
1030
0.0
1010
0.0
1020
0.0
1030
1.0
1040
0.0
1040
297.0
1040
313.6808219178082
1040
148.5
1040
50.0
1040
0.0
1040
0.0
1070
     0
1070
   100
1070
     1
1070
     0
1070
     0
1070
     0
1070
     0
1070
     0
1040
0.0
1040
0.0
1040
0.0
1040
1.0
1040
1.0
1040
10.0
1040
10.0
1070
     0
1002
{
1002
}
1002
}
  0
VIEWPORT
  5
64
330
17
100
AcDbEntity
 67
     1
  8
VIEWPORT
100
AcDbViewport
 10
210.0
 20
148.5
 30
0.0
 40
420.0
 41
297.0
 68
     1
 69
     2
1001
ACAD
1000
MVIEW
1002
{
1070
    16
1010
0.0
1020
0.0
1030
0.0
1010
0.0
1020
0.0
1030
1.0
1040
0.0
1040
605.8799999999998
1040
420.0
1040
297.0
1040
50.0
1040
0.0
1040
0.0
1070
     0
1070
   100
1070
     1
1070
     0
1070
     0
1070
     0
1070
     0
1070
     0
1040
0.0
1040
0.0
1040
0.0
1040
10.0
1040
10.0
1040
0.0
1040
0.0
1070
     0
1002
{
1002
}
1002
}
  0
ENDSEC
  0
SECTION
  2
OBJECTS
  0
DICTIONARY
  5
C
330
0
100
AcDbDictionary
  3
ACAD_GROUP
350
D
  3
ACAD_LAYOUT
350
911
  3
ACAD_MLINESTYLE
350
E
  3
ACAD_PLOTSETTINGS
350
912
  3
ACAD_PLOTSTYLENAME
350
90F
  3
ACDBHEADERROUNDTRIPXREC
350
6F08
  0
DICTIONARY
  5
94A
330
1A
100
AcDbDictionary
280
     1
  3
ACAD_LAYOUTSELFREF
360
6F2A
  0
DICTIONARY
  5
948
330
17
100
AcDbDictionary
280
     1
  3
ACAD_LAYOUTSELFREF
360
6F29
  0
DICTIONARY
  5
D
102
{ACAD_REACTORS
330
C
102
}
330
C
100
AcDbDictionary
  0
DICTIONARY
  5
911
102
{ACAD_REACTORS
330
C
102
}
330
C
100
AcDbDictionary
  0
DICTIONARY
  5
E
102
{ACAD_REACTORS
330
C
102
}
330
C
100
AcDbDictionary
  3
STANDARD
350
13
  0
DICTIONARY
  5
912
102
{ACAD_REACTORS
330
C
102
}
330
C
100
AcDbDictionary
  0
ACDBDICTIONARYWDFLT
  5
90F
102
{ACAD_REACTORS
330
C
102
}
330
C
100
AcDbDictionary
281
     1
  3
Normal
350
910
100
AcDbDictionaryWithDefault
340
910
1001
ACAD
1000
TREAT_AS_HARD
1070
     0
1000
TREAT_AS_HARD
1070
     0
1000
TREAT_AS_HARD
1070
     0
1000
TREAT_AS_HARD
1070
     0
1000
TREAT_AS_HARD
1070
     0
1000
TREAT_AS_HARD
1070
     0
1000
TREAT_AS_HARD
1070
     0
1000
TREAT_AS_HARD
1070
     0
1000
TREAT_AS_HARD
1070
     0
1000
TREAT_AS_HARD
1070
     0
1000
TREAT_AS_HARD
1070
     0
1000
TREAT_AS_HARD
1070
     0
1000
TREAT_AS_HARD
1070
     0
1000
TREAT_AS_HARD
1070
     0
1000
TREAT_AS_HARD
1070
     0
1000
TREAT_AS_HARD
1070
     0
  0
DICTIONARY
  5
6F08
102
{ACAD_REACTORS
330
C
102
}
330
C
100
AcDbDictionary
  3
TSTACKALIGN
350
6F09
  3
TSTACKSIZE
350
6F0A
  3
HYPERLINKBASE
350
6F0B
  3
STYLESHEET
350
6F0C
  3
LAYOUTDICT
350
6F0D
  3
PLOTSETDICT
350
6F0E
  3
PLOTSTYLNAMDICT
350
6F0F
  3
LWETCUNION
350
6F10
  3
INSUNITS
350
6F11
  3
CEPSNTYPE
350
6F12
  3
FINGERPRINTGUID
350
6F13
  3
VERSIONGUID
350
6F14
  3
PSVPSCALE
350
6F15
  3
DIMSTYLEDATA
350
6F16
  3
PUCSORTHOREF
350
6F17
  3
PUCSORTHOVIEW
350
6F18
  3
PUCSBASE
350
6F19
  3
PUCSORGTOP
350
6F1A
  3
PUCSORGBOTTOM
350
6F1B
  3
PUCSORGLEFT
350
6F1C
  3
PUCSORGRIGHT
350
6F1D
  3
PUCSORGFRONT
350
6F1E
  3
PUCSORGBACK
350
6F1F
  3
UCSORTHOREF
350
6F20
  3
UCSORTHOVIEW
350
6F21
  3
UCSBASE
350
6F22
  3
UCSORGTOP
350
6F23
  3
UCSORGBOTTOM
350
6F24
  3
UCSORGLEFT
350
6F25
  3
UCSORGRIGHT
350
6F26
  3
UCSORGFRONT
350
6F27
  3
UCSORGBACK
350
6F28
  0
XRECORD
  5
6F2A
102
{ACAD_REACTORS
330
94A
102
}
330
94A
100
AcDbXrecord
340
1A
  0
XRECORD
  5
6F29
102
{ACAD_REACTORS
330
948
102
}
330
948
100
AcDbXrecord
340
17
  0
MLINESTYLE
  5
13
102
{ACAD_REACTORS
330
E
102
}
330
E
100
AcDbMlineStyle
  2
STANDARD
 70
     0
  3

 62
     0
 51
90.0
 52
90.0
 71
     2
 49
0.5
 62
   256
  6
BYLAYER
 49
-0.5
 62
   256
  6
BYLAYER
  0
ACDBPLACEHOLDER
  5
910
102
{ACAD_REACTORS
330
90F
102
}
330
90F
100
AcDbPlaceHolder
280
     0
  0
XRECORD
  5
6F09
102
{ACAD_REACTORS
330
6F08
102
}
330
6F08
100
AcDbXrecord
 90
        1
  0
XRECORD
  5
6F0A
102
{ACAD_REACTORS
330
6F08
102
}
330
6F08
100
AcDbXrecord
 90
       70
  0
XRECORD
  5
6F0B
102
{ACAD_REACTORS
330
6F08
102
}
330
6F08
100
AcDbXrecord
  1

  0
XRECORD
  5
6F0C
102
{ACAD_REACTORS
330
6F08
102
}
330
6F08
100
AcDbXrecord
  1
systemprinter.ctb
  0
XRECORD
  5
6F0D
102
{ACAD_REACTORS
330
6F08
102
}
330
6F08
100
AcDbXrecord
340
911
  0
XRECORD
  5
6F0E
102
{ACAD_REACTORS
330
6F08
102
}
330
6F08
100
AcDbXrecord
340
912
  0
XRECORD
  5
6F0F
102
{ACAD_REACTORS
330
6F08
102
}
330
6F08
100
AcDbXrecord
340
90F
  0
XRECORD
  5
6F10
102
{ACAD_REACTORS
330
6F08
102
}
330
6F08
100
AcDbXrecord
 90
    10781
  0
XRECORD
  5
6F11
102
{ACAD_REACTORS
330
6F08
102
}
330
6F08
100
AcDbXrecord
 90
        0
  0
XRECORD
  5
6F12
102
{ACAD_REACTORS
330
6F08
102
}
330
6F08
100
AcDbXrecord
 90
        0
  0
XRECORD
  5
6F13
102
{ACAD_REACTORS
330
6F08
102
}
330
6F08
100
AcDbXrecord
  1
{E41105DB-D30E-11D3-932C-444553540000}
  0
XRECORD
  5
6F14
102
{ACAD_REACTORS
330
6F08
102
}
330
6F08
100
AcDbXrecord
  1
{87F98E37-DCCC-4FB3-A7FF-D335B04714C3}
  0
XRECORD
  5
6F15
102
{ACAD_REACTORS
330
6F08
102
}
330
6F08
100
AcDbXrecord
 40
0.0
  0
XRECORD
  5
6F16
102
{ACAD_REACTORS
330
6F08
102
}
330
6F08
100
AcDbXrecord
1000
DSTYLE
1002
{
1070
   341
340
6D
1070
   343
340
6D
1070
   344
340
6D
1070
   371
 70
    -1
1070
   372
 70
    -1
1002
}
  0
XRECORD
  5
6F17
102
{ACAD_REACTORS
330
6F08
102
}
330
6F08
100
AcDbXrecord
340
0
  0
XRECORD
  5
6F18
102
{ACAD_REACTORS
330
6F08
102
}
330
6F08
100
AcDbXrecord
 70
     0
  0
XRECORD
  5
6F19
102
{ACAD_REACTORS
330
6F08
102
}
330
6F08
100
AcDbXrecord
340
0
  0
XRECORD
  5
6F1A
102
{ACAD_REACTORS
330
6F08
102
}
330
6F08
100
AcDbXrecord
 10
0.0
 20
0.0
 30
0.0
  0
XRECORD
  5
6F1B
102
{ACAD_REACTORS
330
6F08
102
}
330
6F08
100
AcDbXrecord
 10
0.0
 20
0.0
 30
0.0
  0
XRECORD
  5
6F1C
102
{ACAD_REACTORS
330
6F08
102
}
330
6F08
100
AcDbXrecord
 10
0.0
 20
0.0
 30
0.0
  0
XRECORD
  5
6F1D
102
{ACAD_REACTORS
330
6F08
102
}
330
6F08
100
AcDbXrecord
 10
0.0
 20
0.0
 30
0.0
  0
XRECORD
  5
6F1E
102
{ACAD_REACTORS
330
6F08
102
}
330
6F08
100
AcDbXrecord
 10
0.0
 20
0.0
 30
0.0
  0
XRECORD
  5
6F1F
102
{ACAD_REACTORS
330
6F08
102
}
330
6F08
100
AcDbXrecord
 10
0.0
 20
0.0
 30
0.0
  0
XRECORD
  5
6F20
102
{ACAD_REACTORS
330
6F08
102
}
330
6F08
100
AcDbXrecord
340
0
  0
XRECORD
  5
6F21
102
{ACAD_REACTORS
330
6F08
102
}
330
6F08
100
AcDbXrecord
 70
     0
  0
XRECORD
  5
6F22
102
{ACAD_REACTORS
330
6F08
102
}
330
6F08
100
AcDbXrecord
340
0
  0
XRECORD
  5
6F23
102
{ACAD_REACTORS
330
6F08
102
}
330
6F08
100
AcDbXrecord
 10
0.0
 20
0.0
 30
0.0
  0
XRECORD
  5
6F24
102
{ACAD_REACTORS
330
6F08
102
}
330
6F08
100
AcDbXrecord
 10
0.0
 20
0.0
 30
0.0
  0
XRECORD
  5
6F25
102
{ACAD_REACTORS
330
6F08
102
}
330
6F08
100
AcDbXrecord
 10
0.0
 20
0.0
 30
0.0
  0
XRECORD
  5
6F26
102
{ACAD_REACTORS
330
6F08
102
}
330
6F08
100
AcDbXrecord
 10
0.0
 20
0.0
 30
0.0
  0
XRECORD
  5
6F27
102
{ACAD_REACTORS
330
6F08
102
}
330
6F08
100
AcDbXrecord
 10
0.0
 20
0.0
 30
0.0
  0
XRECORD
  5
6F28
102
{ACAD_REACTORS
330
6F08
102
}
330
6F08
100
AcDbXrecord
 10
0.0
 20
0.0
 30
0.0
  0
ENDSEC
  0
EOF
