  0
SECTION
  2
HEADER
  9
$ACADVER
  1
AC1014
  9
$ACADMAINTVER
 70
     9
  9
$DWGCODEPAGE
  3
ANSI_932
  9
$INSBASE
 10
0.0
 20
0.0
 30
0.0
  9
$EXTMIN
 10
-0.0256335853011933
 20
-0.0181260584133725
 30
-0.0000000100021362
  9
$EXTMAX
 10
797.6000995235279
 20
551.6452344880035
 30
0.0000000100021363
  9
$LIMMIN
 10
0.0
 20
0.0
  9
$LIMMAX
 10
840.0
 20
594.0
  9
$ORTHOMODE
 70
     0
  9
$REGENMODE
 70
     1
  9
$FILLMODE
 70
     1
  9
$QTEXTMODE
 70
     0
  9
$MIRRTEXT
 70
     1
  9
$DRAGMODE
 70
     2
  9
$LTSCALE
 40
2.0
  9
$OSMODE
 70
    35
  9
$ATTMODE
 70
     1
  9
$TEXTSIZE
 40
6.0
  9
$TRACEWID
 40
1.0
  9
$TEXTSTYLE
  7
STANDARD
  9
$CLAYER
  8
SUNPOU
  9
$CELTYPE
  6
BYLAYER
  9
$CECOLOR
 62
   256
  9
$CELTSCALE
 40
5.0
  9
$DELOBJ
 70
     1
  9
$DISPSILH
 70
     0
  9
$DIMSCALE
 40
1.0
  9
$DIMASZ
 40
7.0
  9
$DIMEXO
 40
6.0
  9
$DIMDLI
 40
14.0
  9
$DIMRND
 40
0.0
  9
$DIMDLE
 40
0.0
  9
$DIMEXE
 40
3.0
  9
$DIMTP
 40
0.0
  9
$DIMTM
 40
0.0
  9
$DIMTXT
 40
6.0
  9
$DIMCEN
 40
150.0
  9
$DIMTSZ
 40
0.0
  9
$DIMTOL
 70
     0
  9
$DIMLIM
 70
     0
  9
$DIMTIH
 70
     0
  9
$DIMTOH
 70
     0
  9
$DIMSE1
 70
     0
  9
$DIMSE2
 70
     0
  9
$DIMTAD
 70
     3
  9
$DIMZIN
 70
     0
  9
$DIMBLK
  1

  9
$DIMASO
 70
     1
  9
$DIMSHO
 70
     1
  9
$DIMPOST
  1

  9
$DIMAPOST
  1

  9
$DIMALT
 70
     0
  9
$DIMALTD
 70
     2
  9
$DIMALTF
 40
25.4
  9
$DIMLFAC
 40
1.0
  9
$DIMTOFL
 70
     1
  9
$DIMTVP
 40
0.0
  9
$DIMTIX
 70
     0
  9
$DIMSOXD
 70
     0
  9
$DIMSAH
 70
     1
  9
$DIMBLK1
  1
OPEN
  9
$DIMBLK2
  1
OPEN
  9
$DIMSTYLE
  2
STANDARD
  9
$DIMCLRD
 70
   256
  9
$DIMCLRE
 70
   256
  9
$DIMCLRT
 70
   256
  9
$DIMTFAC
 40
1.0
  9
$DIMGAP
 40
2.0
  9
$DIMJUST
 70
     0
  9
$DIMSD1
 70
     0
  9
$DIMSD2
 70
     0
  9
$DIMTOLJ
 70
     1
  9
$DIMTZIN
 70
     0
  9
$DIMALTZ
 70
     0
  9
$DIMALTTZ
 70
     0
  9
$DIMFIT
 70
     3
  9
$DIMUPT
 70
     0
  9
$DIMUNIT
 70
     2
  9
$DIMDEC
 70
     0
  9
$DIMTDEC
 70
     0
  9
$DIMALTU
 70
     2
  9
$DIMALTTD
 70
     2
  9
$DIMTXSTY
  7
STANDARD
  9
$DIMAUNIT
 70
     0
  9
$LUNITS
 70
     2
  9
$LUPREC
 70
     4
  9
$SKETCHINC
 40
1.0
  9
$FILLETRAD
 40
1.0
  9
$AUNITS
 70
     0
  9
$AUPREC
 70
     0
  9
$MENU
  1
.
  9
$ELEVATION
 40
0.0
  9
$PELEVATION
 40
0.0
  9
$THICKNESS
 40
0.0
  9
$LIMCHECK
 70
     0
  9
$BLIPMODE
 70
     0
  9
$CHAMFERA
 40
1.0
  9
$CHAMFERB
 40
1.0
  9
$CHAMFERC
 40
40.0
  9
$CHAMFERD
 40
0.0
  9
$SKPOLY
 70
     0
  9
$TDCREATE
 40
2451199.484270833
  9
$TDUPDATE
 40
2453802.429724930
  9
$TDINDWG
 40
0.3630100926
  9
$TDUSRTIMER
 40
0.3630100926
  9
$USRTIMER
 70
     1
  9
$ANGBASE
 50
0.0
  9
$ANGDIR
 70
     0
  9
$PDMODE
 70
     0
  9
$PDSIZE
 40
0.0
  9
$PLINEWID
 40
0.0
  9
$COORDS
 70
     1
  9
$SPLFRAME
 70
     0
  9
$SPLINETYPE
 70
     6
  9
$SPLINESEGS
 70
     8
  9
$ATTDIA
 70
     0
  9
$ATTREQ
 70
     1
  9
$HANDLING
 70
 10241
  9
$HANDSEED
  5
7F6F
  9
$SURFTAB1
 70
     6
  9
$SURFTAB2
 70
     6
  9
$SURFTYPE
 70
     6
  9
$SURFU
 70
     6
  9
$SURFV
 70
     6
  9
$UCSNAME
  2

  9
$UCSORG
 10
0.0
 20
0.0
 30
0.0
  9
$UCSXDIR
 10
1.0
 20
0.0
 30
0.0
  9
$UCSYDIR
 10
0.0
 20
1.0
 30
0.0
  9
$PUCSNAME
  2

  9
$PUCSORG
 10
0.0
 20
0.0
 30
0.0
  9
$PUCSXDIR
 10
1.0
 20
0.0
 30
0.0
  9
$PUCSYDIR
 10
0.0
 20
1.0
 30
0.0
  9
$USERI1
 70
     0
  9
$USERI2
 70
     0
  9
$USERI3
 70
     0
  9
$USERI4
 70
     0
  9
$USERI5
 70
     0
  9
$USERR1
 40
0.0
  9
$USERR2
 40
0.0
  9
$USERR3
 40
0.0
  9
$USERR4
 40
0.0
  9
$USERR5
 40
0.0
  9
$WORLDVIEW
 70
     1
  9
$SHADEDGE
 70
     3
  9
$SHADEDIF
 70
    70
  9
$TILEMODE
 70
     1
  9
$MAXACTVP
 70
    16
  9
$PINSBASE
 10
0.0
 20
0.0
 30
0.0
  9
$PLIMCHECK
 70
     0
  9
$PEXTMIN
 10
0.0
 20
0.0
 30
0.0
  9
$PEXTMAX
 10
420.0
 20
297.0
 30
0.0
  9
$PLIMMIN
 10
0.0
 20
0.0
  9
$PLIMMAX
 10
420.0
 20
297.0
  9
$UNITMODE
 70
     0
  9
$VISRETAIN
 70
     0
  9
$PLINEGEN
 70
     0
  9
$PSLTSCALE
 70
     1
  9
$TREEDEPTH
 70
  3020
  9
$PICKSTYLE
 70
     1
  9
$CMLSTYLE
  2
STANDARD
  9
$CMLJUST
 70
     0
  9
$CMLSCALE
 40
1.0
  9
$PROXYGRAPHICS
 70
     1
  9
$MEASUREMENT
 70
     0
  0
ENDSEC
  0
SECTION
  2
CLASSES
  0
CLASS
  1
ACDBDICTIONARYWDFLT
  2
AcDbDictionaryWithDefault
  3
AutoCAD 2000
 90
        0
280
     0
281
     0
  0
CLASS
  1
ACDBPLACEHOLDER
  2
AcDbPlaceHolder
  3
AutoCAD 2000
 90
        0
280
     0
281
     0
  0
CLASS
  1
LAYOUT
  2
AcDbLayout
  3
AutoCAD 2000
 90
        0
280
     0
281
     0
  0
CLASS
  1
LONG_TRANSACTION
  2
AcDbLongTransaction
  3
AutoCAD 2000
 90
        0
280
     0
281
     0
  0
CLASS
  1
LWPOLYLINE
  2
AcDbPolyline
  3
AutoCAD 2000
 90
        0
280
     0
281
     1
  0
CLASS
  1
HATCH
  2
AcDbHatch
  3
AutoCAD 2000
 90
        0
280
     0
281
     1
  0
CLASS
  1
XRECORD
  2
AcDbXrecord
  3
AutoCAD 2000
 90
        0
280
     0
281
     0
  0
CLASS
  1
LONG_TRANSACTION
  2
AcDbLongTransaction
  3
AutoCAD 2000
 90
        0
280
     0
281
     0
  0
CLASS
  1
LWPOLYLINE
  2
AcDbPolyline
  3
AutoCAD 2000
 90
        0
280
     0
281
     1
  0
CLASS
  1
HATCH
  2
AcDbHatch
  3
AutoCAD 2000
 90
        0
280
     0
281
     1
  0
CLASS
  1
XRECORD
  2
AcDbXrecord
  3
AutoCAD 2000
 90
        0
280
     0
281
     0
  0
CLASS
  1
LONG_TRANSACTION
  2
AcDbLongTransaction
  3
AutoCAD 2000
 90
        0
280
     0
281
     0
  0
CLASS
  1
LWPOLYLINE
  2
AcDbPolyline
  3
AutoCAD 2000
 90
        0
280
     0
281
     1
  0
CLASS
  1
HATCH
  2
AcDbHatch
  3
AutoCAD 2000
 90
        0
280
     0
281
     1
  0
CLASS
  1
XRECORD
  2
AcDbXrecord
  3
AutoCAD 2000
 90
        0
280
     0
281
     0
  0
CLASS
  1
LONG_TRANSACTION
  2
AcDbLongTransaction
  3
AutoCAD 2000
 90
        0
280
     0
281
     0
  0
CLASS
  1
LWPOLYLINE
  2
AcDbPolyline
  3
AutoCAD 2000
 90
        0
280
     0
281
     1
  0
CLASS
  1
HATCH
  2
AcDbHatch
  3
AutoCAD 2000
 90
        0
280
     0
281
     1
  0
CLASS
  1
XRECORD
  2
AcDbXrecord
  3
AutoCAD 2000
 90
        0
280
     0
281
     0
  0
CLASS
  1
LONG_TRANSACTION
  2
AcDbLongTransaction
  3
AutoCAD 2000
 90
        0
280
     0
281
     0
  0
CLASS
  1
LWPOLYLINE
  2
AcDbPolyline
  3
AutoCAD 2000
 90
        0
280
     0
281
     1
  0
CLASS
  1
HATCH
  2
AcDbHatch
  3
AutoCAD 2000
 90
        0
280
     0
281
     1
  0
CLASS
  1
XRECORD
  2
AcDbXrecord
  3
AutoCAD 2000
 90
        0
280
     0
281
     0
  0
CLASS
  1
LONG_TRANSACTION
  2
AcDbLongTransaction
  3
AutoCAD 2000
 90
        0
280
     0
281
     0
  0
CLASS
  1
LWPOLYLINE
  2
AcDbPolyline
  3
AutoCAD 2000
 90
        0
280
     0
281
     1
  0
CLASS
  1
HATCH
  2
AcDbHatch
  3
AutoCAD 2000
 90
        0
280
     0
281
     1
  0
CLASS
  1
XRECORD
  2
AcDbXrecord
  3
AutoCAD 2000
 90
        0
280
     0
281
     0
  0
CLASS
  1
LONG_TRANSACTION
  2
AcDbLongTransaction
  3
AutoCAD 2000
 90
        0
280
     0
281
     0
  0
CLASS
  1
LWPOLYLINE
  2
AcDbPolyline
  3
AutoCAD 2000
 90
        0
280
     0
281
     1
  0
CLASS
  1
HATCH
  2
AcDbHatch
  3
AutoCAD 2000
 90
        0
280
     0
281
     1
  0
CLASS
  1
XRECORD
  2
AcDbXrecord
  3
AutoCAD 2000
 90
        0
280
     0
281
     0
  0
CLASS
  1
LONG_TRANSACTION
  2
AcDbLongTransaction
  3
AutoCAD 2000
 90
        0
280
     0
281
     0
  0
CLASS
  1
LWPOLYLINE
  2
AcDbPolyline
  3
AutoCAD 2000
 90
        0
280
     0
281
     1
  0
CLASS
  1
HATCH
  2
AcDbHatch
  3
AutoCAD 2000
 90
        0
280
     0
281
     1
  0
CLASS
  1
XRECORD
  2
AcDbXrecord
  3
AutoCAD 2000
 90
        0
280
     0
281
     0
  0
CLASS
  1
LONG_TRANSACTION
  2
AcDbLongTransaction
  3
AutoCAD 2000
 90
        0
280
     0
281
     0
  0
CLASS
  1
LWPOLYLINE
  2
AcDbPolyline
  3
AutoCAD 2000
 90
        0
280
     0
281
     1
  0
CLASS
  1
HATCH
  2
AcDbHatch
  3
AutoCAD 2000
 90
        0
280
     0
281
     1
  0
CLASS
  1
XRECORD
  2
AcDbXrecord
  3
AutoCAD 2000
 90
        0
280
     0
281
     0
  0
CLASS
  1
LONG_TRANSACTION
  2
AcDbLongTransaction
  3
AutoCAD 2000
 90
        0
280
     0
281
     0
  0
CLASS
  1
LWPOLYLINE
  2
AcDbPolyline
  3
AutoCAD 2000
 90
        0
280
     0
281
     1
  0
CLASS
  1
HATCH
  2
AcDbHatch
  3
AutoCAD 2000
 90
        0
280
     0
281
     1
  0
CLASS
  1
XRECORD
  2
AcDbXrecord
  3
AutoCAD 2000
 90
        0
280
     0
281
     0
  0
CLASS
  1
LONG_TRANSACTION
  2
AcDbLongTransaction
  3
AutoCAD 2000
 90
        0
280
     0
281
     0
  0
CLASS
  1
LWPOLYLINE
  2
AcDbPolyline
  3
AutoCAD 2000
 90
        0
280
     0
281
     1
  0
CLASS
  1
HATCH
  2
AcDbHatch
  3
AutoCAD 2000
 90
        0
280
     0
281
     1
  0
CLASS
  1
XRECORD
  2
AcDbXrecord
  3
AutoCAD 2000
 90
        0
280
     0
281
     0
  0
CLASS
  1
LONG_TRANSACTION
  2
AcDbLongTransaction
  3
AutoCAD 2000
 90
        0
280
     0
281
     0
  0
CLASS
  1
LWPOLYLINE
  2
AcDbPolyline
  3
AutoCAD 2000
 90
        0
280
     0
281
     1
  0
CLASS
  1
HATCH
  2
AcDbHatch
  3
AutoCAD 2000
 90
        0
280
     0
281
     1
  0
CLASS
  1
XRECORD
  2
AcDbXrecord
  3
AutoCAD 2000
 90
        0
280
     0
281
     0
  0
CLASS
  1
LONG_TRANSACTION
  2
AcDbLongTransaction
  3
AutoCAD 2000
 90
        0
280
     0
281
     0
  0
CLASS
  1
LWPOLYLINE
  2
AcDbPolyline
  3
AutoCAD 2000
 90
        0
280
     0
281
     1
  0
CLASS
  1
HATCH
  2
AcDbHatch
  3
AutoCAD 2000
 90
        0
280
     0
281
     1
  0
CLASS
  1
XRECORD
  2
AcDbXrecord
  3
AutoCAD 2000
 90
        0
280
     0
281
     0
  0
CLASS
  1
LONG_TRANSACTION
  2
AcDbLongTransaction
  3
AutoCAD 2000
 90
        0
280
     0
281
     0
  0
CLASS
  1
LWPOLYLINE
  2
AcDbPolyline
  3
AutoCAD 2000
 90
        0
280
     0
281
     1
  0
CLASS
  1
HATCH
  2
AcDbHatch
  3
AutoCAD 2000
 90
        0
280
     0
281
     1
  0
CLASS
  1
XRECORD
  2
AcDbXrecord
  3
AutoCAD 2000
 90
        0
280
     0
281
     0
  0
CLASS
  1
LONG_TRANSACTION
  2
AcDbLongTransaction
  3
AutoCAD 2000
 90
        0
280
     0
281
     0
  0
CLASS
  1
LWPOLYLINE
  2
AcDbPolyline
  3
AutoCAD 2000
 90
        0
280
     0
281
     1
  0
CLASS
  1
HATCH
  2
AcDbHatch
  3
AutoCAD 2000
 90
        0
280
     0
281
     1
  0
CLASS
  1
XRECORD
  2
AcDbXrecord
  3
AutoCAD 2000
 90
        0
280
     0
281
     0
  0
CLASS
  1
LONG_TRANSACTION
  2
AcDbLongTransaction
  3
AutoCAD 2000
 90
        0
280
     0
281
     0
  0
CLASS
  1
LWPOLYLINE
  2
AcDbPolyline
  3
AutoCAD 2000
 90
        0
280
     0
281
     1
  0
CLASS
  1
HATCH
  2
AcDbHatch
  3
AutoCAD 2000
 90
        0
280
     0
281
     1
  0
CLASS
  1
XRECORD
  2
AcDbXrecord
  3
AutoCAD 2000
 90
        0
280
     0
281
     0
  0
CLASS
  1
LONG_TRANSACTION
  2
AcDbLongTransaction
  3
AutoCAD 2000
 90
        0
280
     0
281
     0
  0
CLASS
  1
LWPOLYLINE
  2
AcDbPolyline
  3
AutoCAD 2000
 90
        0
280
     0
281
     1
  0
CLASS
  1
HATCH
  2
AcDbHatch
  3
AutoCAD 2000
 90
        0
280
     0
281
     1
  0
CLASS
  1
XRECORD
  2
AcDbXrecord
  3
AutoCAD 2000
 90
        0
280
     0
281
     0
  0
CLASS
  1
LONG_TRANSACTION
  2
AcDbLongTransaction
  3
AutoCAD 2000
 90
        0
280
     0
281
     0
  0
CLASS
  1
LWPOLYLINE
  2
AcDbPolyline
  3
AutoCAD 2000
 90
        0
280
     0
281
     1
  0
CLASS
  1
HATCH
  2
AcDbHatch
  3
AutoCAD 2000
 90
        0
280
     0
281
     1
  0
CLASS
  1
XRECORD
  2
AcDbXrecord
  3
AutoCAD 2000
 90
        0
280
     0
281
     0
  0
CLASS
  1
LONG_TRANSACTION
  2
AcDbLongTransaction
  3
AutoCAD 2000
 90
        0
280
     0
281
     0
  0
CLASS
  1
LWPOLYLINE
  2
AcDbPolyline
  3
AutoCAD 2000
 90
        0
280
     0
281
     1
  0
CLASS
  1
HATCH
  2
AcDbHatch
  3
AutoCAD 2000
 90
        0
280
     0
281
     1
  0
CLASS
  1
XRECORD
  2
AcDbXrecord
  3
AutoCAD 2000
 90
        0
280
     0
281
     0
  0
ENDSEC
  0
SECTION
  2
TABLES
  0
TABLE
  2
VPORT
  5
8
330
0
100
AcDbSymbolTable
 70
     2
  0
VPORT
  5
7F4B
330
8
100
AcDbSymbolTableRecord
100
AcDbViewportTableRecord
  2
*ACTIVE
 70
     0
 10
0.0
 20
0.0
 11
1.0
 21
1.0
 12
417.776633606692
 22
294.2593101296876
 13
0.0
 23
0.0
 14
5.0
 24
5.0
 15
0.0
 25
0.0
 16
0.0
 26
0.0
 36
1.0
 17
0.0
 27
0.0
 37
0.0
 40
660.1850902161802
 41
1.795454545454545
 42
50.0
 43
0.0
 44
0.0
 50
0.0
 51
0.0
 71
     0
 72
   100
 73
     1
 74
     0
 75
     0
 76
     0
 77
     0
 78
     0
  0
ENDTAB
  0
TABLE
  2
LTYPE
  5
5
330
0
100
AcDbSymbolTable
 70
     3
  0
LTYPE
  5
14
330
5
100
AcDbSymbolTableRecord
100
AcDbLinetypeTableRecord
  2
BYBLOCK
 70
     0
  3

 72
    65
 73
     0
 40
0.0
  0
LTYPE
  5
15
330
5
100
AcDbSymbolTableRecord
100
AcDbLinetypeTableRecord
  2
BYLAYER
 70
     0
  3

 72
    65
 73
     0
 40
0.0
  0
LTYPE
  5
16
330
5
100
AcDbSymbolTableRecord
100
AcDbLinetypeTableRecord
  2
CONTINUOUS
 70
     0
  3
Solid line
 72
    65
 73
     0
 40
0.0
  0
LTYPE
  5
115
330
5
100
AcDbSymbolTableRecord
100
AcDbLinetypeTableRecord
  2
PHANTOM
 70
     0
  3
______  __  __  ______  __  __  ______  __  __ 
 72
    65
 73
     6
 40
2.5
 49
1.25
 74
     0
 49
-0.25
 74
     0
 49
0.25
 74
     0
 49
-0.25
 74
     0
 49
0.25
 74
     0
 49
-0.25
 74
     0
  0
LTYPE
  5
135
330
5
100
AcDbSymbolTableRecord
100
AcDbLinetypeTableRecord
  2
CENTER
 70
     0
  3
____ _ ____ _ ____ _ ____ _ ____ _ ____ _ ____ 
 72
    65
 73
     4
 40
2.0
 49
1.25
 74
     0
 49
-0.25
 74
     0
 49
0.25
 74
     0
 49
-0.25
 74
     0
  0
ENDTAB
  0
TABLE
  2
LAYER
  5
2
330
0
100
AcDbSymbolTable
 70
     9
  0
LAYER
  5
F
330
2
100
AcDbSymbolTableRecord
100
AcDbLayerTableRecord
  2
0
 70
     0
 62
     7
  6
CONTINUOUS
  0
LAYER
  5
62
330
2
100
AcDbSymbolTableRecord
100
AcDbLayerTableRecord
  2
VIEWPORT
 70
     0
 62
     7
  6
CONTINUOUS
  0
LAYER
  5
65
330
2
100
AcDbSymbolTableRecord
100
AcDbLayerTableRecord
  2
ZUWAKU
 70
     0
 62
     7
  6
CONTINUOUS
  0
LAYER
  5
143
330
2
100
AcDbSymbolTableRecord
100
AcDbLayerTableRecord
  2
SEIHIN
 70
     0
 62
     3
  6
CONTINUOUS
  0
LAYER
  5
144
330
2
100
AcDbSymbolTableRecord
100
AcDbLayerTableRecord
  2
SUNPOU
 70
     0
 62
     4
  6
CONTINUOUS
  0
LAYER
  5
145
330
2
100
AcDbSymbolTableRecord
100
AcDbLayerTableRecord
  2
CENTER_L
 70
     0
 62
     1
  6
CENTER
  0
LAYER
  5
146
330
2
100
AcDbSymbolTableRecord
100
AcDbLayerTableRecord
  2
NOKITOI
 70
     0
 62
     8
  6
PHANTOM
  0
LAYER
  5
532
330
2
100
AcDbSymbolTableRecord
100
AcDbLayerTableRecord
  2
DEFPOINTS
 70
     0
 62
     7
  6
CONTINUOUS
  0
LAYER
  5
7DD6
330
2
100
AcDbSymbolTableRecord
100
AcDbLayerTableRecord
  2
MOJI
 70
     0
 62
     2
  6
CONTINUOUS
  0
ENDTAB
  0
TABLE
  2
STYLE
  5
3
330
0
100
AcDbSymbolTable
 70
     2
  0
STYLE
  5
10
330
3
100
AcDbSymbolTableRecord
100
AcDbTextStyleTableRecord
  2
STANDARD
 70
     0
 40
0.0
 41
1.0
 50
0.0
 71
     0
 42
6.0
  3
TXT
  4
bigfont.shx
  0
STYLE
  5
7DD7
330
3
100
AcDbSymbolTableRecord
100
AcDbTextStyleTableRecord
  2
ｽﾀｲﾙ1
 70
     0
 40
0.0
 41
1.0
 50
0.0
 71
     0
 42
2.5
  3
MS PGothic.ttf
  4

1001
ACAD
1000
MS PGothic
1071
    32818
  0
ENDTAB
  0
TABLE
  2
VIEW
  5
6
330
0
100
AcDbSymbolTable
 70
     0
  0
ENDTAB
  0
TABLE
  2
UCS
  5
7
330
0
100
AcDbSymbolTable
 70
     0
  0
ENDTAB
  0
TABLE
  2
APPID
  5
9
330
0
100
AcDbSymbolTable
 70
     1
  0
APPID
  5
11
330
9
100
AcDbSymbolTableRecord
100
AcDbRegAppTableRecord
  2
ACAD
 70
     0
  0
ENDTAB
  0
TABLE
  2
DIMSTYLE
  5
A
330
0
100
AcDbSymbolTable
 70
     1
  0
DIMSTYLE
105
1D
102
{ACAD_REACTORS
330
7BB3
330
7BC0
330
7BCF
330
7BDC
330
7BE9
330
7BF8
330
7C05
330
7C12
330
7C21
330
7C30
330
7C3D
330
7C4C
330
7C59
330
7C66
102
}
330
A
100
AcDbSymbolTableRecord
100
AcDbDimStyleTableRecord
  2
STANDARD
 70
     0
  3

  4

  5

  6

  7

 40
1.0
 41
0.18
 42
0.0625
 43
0.38
 44
0.18
 45
0.0
 46
0.0
 47
0.0
 48
0.0
140
0.18
141
0.09
142
0.0
143
25.4
144
1.0
145
0.0
146
1.0
147
0.09
 71
     0
 72
     0
 73
     1
 74
     1
 75
     0
 76
     0
 77
     0
 78
     0
170
     0
171
     2
172
     0
173
     0
174
     0
175
     0
176
     0
177
     0
178
     0
270
     2
271
     4
272
     4
273
     2
274
     2
340
10
275
     0
280
     0
281
     0
282
     0
283
     1
284
     0
285
     0
286
     0
287
     3
288
     0
  0
ENDTAB
  0
TABLE
  2
BLOCK_RECORD
  5
1
330
0
100
AcDbSymbolTable
 70
    15
  0
BLOCK_RECORD
  5
1A
102
{ACAD_XDICTIONARY
360
94A
102
}
330
1
100
AcDbSymbolTableRecord
100
AcDbBlockTableRecord
  2
*MODEL_SPACE
  0
BLOCK_RECORD
  5
17
102
{ACAD_XDICTIONARY
360
948
102
}
330
1
100
AcDbSymbolTableRecord
100
AcDbBlockTableRecord
  2
*PAPER_SPACE
  0
BLOCK_RECORD
  5
6D
330
1
100
AcDbSymbolTableRecord
100
AcDbBlockTableRecord
  2
_OPEN
  0
BLOCK_RECORD
  5
7BB4
330
1
100
AcDbSymbolTableRecord
100
AcDbBlockTableRecord
  2
*D1
  0
BLOCK_RECORD
  5
7BC1
330
1
100
AcDbSymbolTableRecord
100
AcDbBlockTableRecord
  2
*D2
  0
BLOCK_RECORD
  5
7BD0
330
1
100
AcDbSymbolTableRecord
100
AcDbBlockTableRecord
  2
*D3
  0
BLOCK_RECORD
  5
7BDD
330
1
100
AcDbSymbolTableRecord
100
AcDbBlockTableRecord
  2
*D4
  0
BLOCK_RECORD
  5
7BEA
330
1
100
AcDbSymbolTableRecord
100
AcDbBlockTableRecord
  2
*D5
  0
BLOCK_RECORD
  5
7BF9
330
1
100
AcDbSymbolTableRecord
100
AcDbBlockTableRecord
  2
*D6
  0
BLOCK_RECORD
  5
7C06
330
1
100
AcDbSymbolTableRecord
100
AcDbBlockTableRecord
  2
*D7
  0
BLOCK_RECORD
  5
7C13
330
1
100
AcDbSymbolTableRecord
100
AcDbBlockTableRecord
  2
*D8
  0
BLOCK_RECORD
  5
7C22
330
1
100
AcDbSymbolTableRecord
100
AcDbBlockTableRecord
  2
*D9
  0
BLOCK_RECORD
  5
7C31
330
1
100
AcDbSymbolTableRecord
100
AcDbBlockTableRecord
  2
*D10
  0
BLOCK_RECORD
  5
7C3E
330
1
100
AcDbSymbolTableRecord
100
AcDbBlockTableRecord
  2
*D11
  0
BLOCK_RECORD
  5
7C4D
330
1
100
AcDbSymbolTableRecord
100
AcDbBlockTableRecord
  2
*D12
  0
BLOCK_RECORD
  5
7C5A
330
1
100
AcDbSymbolTableRecord
100
AcDbBlockTableRecord
  2
*D13
  0
BLOCK_RECORD
  5
7C67
330
1
100
AcDbSymbolTableRecord
100
AcDbBlockTableRecord
  2
*D14
  0
ENDTAB
  0
ENDSEC
  0
SECTION
  2
BLOCKS
  0
BLOCK
  5
1B
330
1A
100
AcDbEntity
  8
0
100
AcDbBlockBegin
  2
*MODEL_SPACE
 70
     0
 10
0.0
 20
0.0
 30
0.0
  3
*MODEL_SPACE
  1

  0
ENDBLK
  5
1C
330
1A
100
AcDbEntity
  8
0
100
AcDbBlockEnd
  0
BLOCK
  5
18
330
17
100
AcDbEntity
 67
     1
  8
0
100
AcDbBlockBegin
  2
*PAPER_SPACE
 70
     0
 10
0.0
 20
0.0
 30
0.0
  3
*PAPER_SPACE
  1

  0
ENDBLK
  5
19
330
17
100
AcDbEntity
 67
     1
  8
0
100
AcDbBlockEnd
  0
BLOCK
  5
6E
330
6D
100
AcDbEntity
  8
0
100
AcDbBlockBegin
  2
_OPEN
 70
     0
 10
0.0
 20
0.0
 30
0.0
  3
_OPEN
  1

  0
LINE
  5
6F
330
6D
100
AcDbEntity
  8
0
  6
BYBLOCK
 62
     0
100
AcDbLine
 10
-1.0
 20
0.1666666666666666
 30
0.0
 11
0.0
 21
0.0
 31
0.0
  0
LINE
  5
70
330
6D
100
AcDbEntity
  8
0
  6
BYBLOCK
 62
     0
100
AcDbLine
 10
0.0
 20
0.0
 30
0.0
 11
-1.0
 21
-0.1666666666666666
 31
0.0
  0
LINE
  5
71
330
6D
100
AcDbEntity
  8
0
  6
BYBLOCK
 62
     0
100
AcDbLine
 10
0.0
 20
0.0
 30
0.0
 11
-1.0
 21
0.0
 31
0.0
  0
ENDBLK
  5
72
330
6D
100
AcDbEntity
  8
0
100
AcDbBlockEnd
  0
BLOCK
  5
7BBE
330
7BB4
100
AcDbEntity
  8
0
 48
5.0
100
AcDbBlockBegin
  2
*D1
 70
     1
 10
0.0
 20
0.0
 30
0.0
  3
*D1
  1

  0
LINE
  5
7D01
330
7BB4
100
AcDbEntity
  8
SUNPOU
 48
5.0
100
AcDbLine
 10
396.8349675799904
 20
489.6339154114413
 30
0.0
 11
423.1146120462056
 21
489.6339154114413
 31
0.0
  0
LINE
  5
7D02
330
7BB4
100
AcDbEntity
  8
SUNPOU
 48
5.0
100
AcDbLine
 10
396.8349675799904
 20
438.3301884114411
 30
0.0
 11
423.1146120462056
 21
438.3301884114411
 31
0.0
  0
LINE
  5
7D03
330
7BB4
100
AcDbEntity
  8
SUNPOU
 48
5.0
100
AcDbLine
 10
420.1146120462058
 20
482.6339154114411
 30
0.0
 11
420.1146120462058
 21
445.330188411441
 31
0.0
  0
INSERT
  5
7D04
330
7BB4
100
AcDbEntity
  8
SUNPOU
 48
5.0
100
AcDbBlockReference
  2
_OPEN
 10
420.1146120462058
 20
489.6339154114413
 30
0.0
 41
7.0
 42
7.0
 43
7.0
 50
90.0
  0
INSERT
  5
7D05
330
7BB4
100
AcDbEntity
  8
SUNPOU
 48
5.0
100
AcDbBlockReference
  2
_OPEN
 10
420.1146120462058
 20
438.3301884114411
 30
0.0
 41
7.0
 42
7.0
 43
7.0
 50
270.0
  0
MTEXT
  5
7D06
330
7BB4
100
AcDbEntity
  8
SUNPOU
 48
5.0
100
AcDbMText
 10
415.1146120462056
 20
463.9820519114413
 30
0.0
 40
6.0
 41
0.0
 71
     5
 72
     5
  1
\A1;51
 11
0.0000000000000001
 21
1.0
 31
0.0
1001
ACAD
1000
MTEXTBEGIN
1070
    73
1070
     1
1070
    44
1040
1.0
1070
    74
1070
     0
1000
MTEXTEND
1000
MTEXTBEGIN
1070
    73
1070
     1
1070
    44
1040
1.0
1070
    74
1070
     0
1000
MTEXTEND
  0
POINT
  5
7D07
330
7BB4
100
AcDbEntity
  8
DEFPOINTS
 62
     0
 48
5.0
100
AcDbPoint
 10
390.8349675799904
 20
489.6339154114413
 30
0.0
  0
POINT
  5
7D08
330
7BB4
100
AcDbEntity
  8
DEFPOINTS
 62
     0
 48
5.0
100
AcDbPoint
 10
390.8349675799904
 20
438.3301884114411
 30
0.0
  0
POINT
  5
7D09
330
7BB4
100
AcDbEntity
  8
DEFPOINTS
 62
     0
 48
5.0
100
AcDbPoint
 10
420.1146120462058
 20
438.3301884114411
 30
0.0
  0
ENDBLK
  5
7BBF
330
7BB4
100
AcDbEntity
  8
0
 48
5.0
100
AcDbBlockEnd
  0
BLOCK
  5
7BCD
330
7BC1
100
AcDbEntity
  8
0
 48
5.0
100
AcDbBlockBegin
  2
*D2
 70
     1
 10
0.0
 20
0.0
 30
0.0
  3
*D2
  1

  0
LINE
  5
7D0A
330
7BC1
100
AcDbEntity
  8
SUNPOU
 48
5.0
100
AcDbLine
 10
243.7588005799905
 20
472.2215304114412
 30
0.0
 11
209.0177010364714
 21
472.2215304114412
 31
0.0
  0
LINE
  5
7D0B
330
7BC1
100
AcDbEntity
  8
SUNPOU
 48
5.0
100
AcDbLine
 10
243.7588005799905
 20
455.7215304114412
 30
0.0
 11
209.0177010364714
 21
455.7215304114412
 31
0.0
  0
LINE
  5
7D0C
330
7BC1
100
AcDbEntity
  8
SUNPOU
 48
5.0
100
AcDbLine
 10
212.0177010364713
 20
479.2215304114411
 30
0.0
 11
212.0177010364713
 21
486.2215304114411
 31
0.0
  0
LINE
  5
7D0D
330
7BC1
100
AcDbEntity
  8
SUNPOU
 48
5.0
100
AcDbLine
 10
212.0177010364713
 20
448.7215304114411
 30
0.0
 11
212.0177010364713
 21
441.7215304114411
 31
0.0
  0
LINE
  5
7D0E
330
7BC1
100
AcDbEntity
  8
SUNPOU
 48
5.0
100
AcDbLine
 10
212.0177010364713
 20
472.2215304114412
 30
0.0
 11
212.0177010364713
 21
455.7215304114412
 31
0.0
  0
INSERT
  5
7D0F
330
7BC1
100
AcDbEntity
  8
SUNPOU
 48
5.0
100
AcDbBlockReference
  2
_OPEN
 10
212.0177010364713
 20
472.2215304114412
 30
0.0
 41
7.0
 42
7.0
 43
7.0
 50
270.0
  0
INSERT
  5
7D10
330
7BC1
100
AcDbEntity
  8
SUNPOU
 48
5.0
100
AcDbBlockReference
  2
_OPEN
 10
212.0177010364713
 20
455.7215304114412
 30
0.0
 41
7.0
 42
7.0
 43
7.0
 50
90.0
  0
MTEXT
  5
7D11
330
7BC1
100
AcDbEntity
  8
SUNPOU
 48
5.0
100
AcDbMText
 10
207.0177010364713
 20
463.9715304114411
 30
0.0
 40
6.0
 41
0.0
 71
     5
 72
     5
  1
\A1;17
 11
0.0000000000000001
 21
1.0
 31
0.0
1001
ACAD
1000
MTEXTBEGIN
1070
    73
1070
     1
1070
    44
1040
1.0
1070
    74
1070
     0
1000
MTEXTEND
1000
MTEXTBEGIN
1070
    73
1070
     1
1070
    44
1040
1.0
1070
    74
1070
     0
1000
MTEXTEND
  0
POINT
  5
7D12
330
7BC1
100
AcDbEntity
  8
DEFPOINTS
 62
     0
 48
5.0
100
AcDbPoint
 10
249.7588005799905
 20
472.2215304114412
 30
0.0
  0
POINT
  5
7D13
330
7BC1
100
AcDbEntity
  8
DEFPOINTS
 62
     0
 48
5.0
100
AcDbPoint
 10
249.7588005799905
 20
455.7215304114412
 30
0.0
  0
POINT
  5
7D14
330
7BC1
100
AcDbEntity
  8
DEFPOINTS
 62
     0
 48
5.0
100
AcDbPoint
 10
212.0177010364713
 20
455.7215304114412
 30
0.0
  0
ENDBLK
  5
7BCE
330
7BC1
100
AcDbEntity
  8
0
 48
5.0
100
AcDbBlockEnd
  0
BLOCK
  5
7BDA
330
7BD0
100
AcDbEntity
  8
0
 48
5.0
100
AcDbBlockBegin
  2
*D3
 70
     1
 10
0.0
 20
0.0
 30
0.0
  3
*D3
  1

  0
LINE
  5
7D15
330
7BD0
100
AcDbEntity
  8
SUNPOU
 48
5.0
100
AcDbLine
 10
249.6397486753566
 20
318.9524111025548
 30
0.0
 11
249.6397486753566
 21
387.8437213863762
 31
0.0
  0
LINE
  5
7D16
330
7BD0
100
AcDbEntity
  8
SUNPOU
 48
5.0
100
AcDbLine
 10
377.5288305799904
 20
346.8024439576414
 30
0.0
 11
377.5288305799904
 21
387.8437213863762
 31
0.0
  0
LINE
  5
7D17
330
7BD0
100
AcDbEntity
  8
SUNPOU
 48
5.0
100
AcDbLine
 10
256.6397486753566
 20
384.8437213863762
 30
0.0
 11
370.5288305799904
 21
384.8437213863762
 31
0.0
  0
INSERT
  5
7D18
330
7BD0
100
AcDbEntity
  8
SUNPOU
 48
5.0
100
AcDbBlockReference
  2
_OPEN
 10
249.6397486753566
 20
384.8437213863762
 30
0.0
 41
7.0
 42
7.0
 43
7.0
 50
180.0
  0
INSERT
  5
7D19
330
7BD0
100
AcDbEntity
  8
SUNPOU
 48
5.0
100
AcDbBlockReference
  2
_OPEN
 10
377.5288305799904
 20
384.8437213863762
 30
0.0
 41
7.0
 42
7.0
 43
7.0
  0
MTEXT
  5
7D1A
330
7BD0
100
AcDbEntity
  8
SUNPOU
 48
5.0
100
AcDbMText
 10
313.5842896276736
 20
389.8437213863762
 30
0.0
 40
6.0
 41
0.0
 71
     5
 72
     5
  1
\A1;128
1001
ACAD
1000
MTEXTBEGIN
1070
    73
1070
     1
1070
    44
1040
1.0
1070
    74
1070
     0
1000
MTEXTEND
1000
MTEXTBEGIN
1070
    73
1070
     1
1070
    44
1040
1.0
1070
    74
1070
     0
1000
MTEXTEND
  0
POINT
  5
7D1B
330
7BD0
100
AcDbEntity
  8
DEFPOINTS
 62
     0
 48
5.0
100
AcDbPoint
 10
249.6397486753566
 20
312.9524111025549
 30
0.0
  0
POINT
  5
7D1C
330
7BD0
100
AcDbEntity
  8
DEFPOINTS
 62
     0
 48
5.0
100
AcDbPoint
 10
377.5288305799904
 20
340.8024439576414
 30
0.0
  0
POINT
  5
7D1D
330
7BD0
100
AcDbEntity
  8
DEFPOINTS
 62
     0
 48
5.0
100
AcDbPoint
 10
377.5288305799904
 20
384.8437213863762
 30
0.0
  0
ENDBLK
  5
7BDB
330
7BD0
100
AcDbEntity
  8
0
 48
5.0
100
AcDbBlockEnd
  0
BLOCK
  5
7BE7
330
7BDD
100
AcDbEntity
  8
0
 48
5.0
100
AcDbBlockBegin
  2
*D4
 70
     1
 10
0.0
 20
0.0
 30
0.0
  3
*D4
  1

  0
LINE
  5
7D1E
330
7BDD
100
AcDbEntity
  8
SUNPOU
 48
5.0
100
AcDbLine
 10
377.5288305799904
 20
346.8024439576414
 30
0.0
 11
377.5288305799904
 21
387.8437213863762
 31
0.0
  0
LINE
  5
7D1F
330
7BDD
100
AcDbEntity
  8
SUNPOU
 48
5.0
100
AcDbLine
 10
412.5288305799904
 20
346.8024439576414
 30
0.0
 11
412.5288305799904
 21
387.8437213863762
 31
0.0
  0
LINE
  5
7D20
330
7BDD
100
AcDbEntity
  8
SUNPOU
 48
5.0
100
AcDbLine
 10
384.5288305799904
 20
384.8437213863762
 30
0.0
 11
405.5288305799904
 21
384.8437213863762
 31
0.0
  0
INSERT
  5
7D21
330
7BDD
100
AcDbEntity
  8
SUNPOU
 48
5.0
100
AcDbBlockReference
  2
_OPEN
 10
377.5288305799904
 20
384.8437213863762
 30
0.0
 41
7.0
 42
7.0
 43
7.0
 50
180.0
  0
INSERT
  5
7D22
330
7BDD
100
AcDbEntity
  8
SUNPOU
 48
5.0
100
AcDbBlockReference
  2
_OPEN
 10
412.5288305799904
 20
384.8437213863762
 30
0.0
 41
7.0
 42
7.0
 43
7.0
  0
MTEXT
  5
7D23
330
7BDD
100
AcDbEntity
  8
SUNPOU
 48
5.0
100
AcDbMText
 10
395.0288305799904
 20
389.8437213863762
 30
0.0
 40
6.0
 41
0.0
 71
     5
 72
     5
  1
\A1;35
1001
ACAD
1000
MTEXTBEGIN
1070
    73
1070
     1
1070
    44
1040
1.0
1070
    74
1070
     0
1000
MTEXTEND
1000
MTEXTBEGIN
1070
    73
1070
     1
1070
    44
1040
1.0
1070
    74
1070
     0
1000
MTEXTEND
  0
POINT
  5
7D24
330
7BDD
100
AcDbEntity
  8
DEFPOINTS
 62
     0
 48
5.0
100
AcDbPoint
 10
377.5288305799904
 20
340.8024439576414
 30
0.0
  0
POINT
  5
7D25
330
7BDD
100
AcDbEntity
  8
DEFPOINTS
 62
     0
 48
5.0
100
AcDbPoint
 10
412.5288305799904
 20
340.8024439576414
 30
0.0
  0
POINT
  5
7D26
330
7BDD
100
AcDbEntity
  8
DEFPOINTS
 62
     0
 48
5.0
100
AcDbPoint
 10
412.5288305799904
 20
384.8437213863762
 30
0.0
  0
ENDBLK
  5
7BE8
330
7BDD
100
AcDbEntity
  8
0
 48
5.0
100
AcDbBlockEnd
  0
BLOCK
  5
7BF6
330
7BEA
100
AcDbEntity
  8
0
 48
5.0
100
AcDbBlockBegin
  2
*D5
 70
     1
 10
0.0
 20
0.0
 30
0.0
  3
*D5
  1

  0
LINE
  5
7D27
330
7BEA
100
AcDbEntity
  8
SUNPOU
 48
5.0
100
AcDbLine
 10
377.5288305799904
 20
346.8024439576414
 30
0.0
 11
377.5288305799904
 21
373.223857964701
 31
0.0
  0
LINE
  5
7D28
330
7BEA
100
AcDbEntity
  8
SUNPOU
 48
5.0
100
AcDbLine
 10
365.9736351032186
 20
329.6899242576412
 30
0.0
 11
365.9736351032186
 21
373.223857964701
 31
0.0
  0
LINE
  5
7D29
330
7BEA
100
AcDbEntity
  8
SUNPOU
 48
5.0
100
AcDbLine
 10
384.5288305799904
 20
370.2238579647008
 30
0.0
 11
391.5288305799904
 21
370.2238579647008
 31
0.0
  0
LINE
  5
7D2A
330
7BEA
100
AcDbEntity
  8
SUNPOU
 48
5.0
100
AcDbLine
 10
358.9736351032186
 20
370.2238579647008
 30
0.0
 11
339.9736351032186
 21
370.2238579647008
 31
0.0
  0
LINE
  5
7D2B
330
7BEA
100
AcDbEntity
  8
SUNPOU
 48
5.0
100
AcDbLine
 10
377.5288305799904
 20
370.2238579647008
 30
0.0
 11
365.9736351032186
 21
370.2238579647008
 31
0.0
  0
INSERT
  5
7D2C
330
7BEA
100
AcDbEntity
  8
SUNPOU
 48
5.0
100
AcDbBlockReference
  2
_OPEN
 10
377.5288305799904
 20
370.2238579647008
 30
0.0
 41
7.0
 42
7.0
 43
7.0
 50
180.0
  0
INSERT
  5
7D2D
330
7BEA
100
AcDbEntity
  8
SUNPOU
 48
5.0
100
AcDbBlockReference
  2
_OPEN
 10
365.9736351032186
 20
370.2238579647008
 30
0.0
 41
7.0
 42
7.0
 43
7.0
  0
MTEXT
  5
7D2E
330
7BEA
100
AcDbEntity
  8
SUNPOU
 48
5.0
100
AcDbMText
 10
345.9736351032186
 20
375.2238579647008
 30
0.0
 40
6.0
 41
0.0
 71
     5
 72
     5
  1
\A1;12
1001
ACAD
1000
MTEXTBEGIN
1070
    73
1070
     1
1070
    44
1040
1.0
1070
    74
1070
     0
1000
MTEXTEND
1000
MTEXTBEGIN
1070
    73
1070
     1
1070
    44
1040
1.0
1070
    74
1070
     0
1000
MTEXTEND
  0
POINT
  5
7D2F
330
7BEA
100
AcDbEntity
  8
DEFPOINTS
 62
     0
 48
5.0
100
AcDbPoint
 10
377.5288305799904
 20
340.8024439576414
 30
0.0
  0
POINT
  5
7D30
330
7BEA
100
AcDbEntity
  8
DEFPOINTS
 62
     0
 48
5.0
100
AcDbPoint
 10
365.9736351032186
 20
323.6899242576412
 30
0.0
  0
POINT
  5
7D31
330
7BEA
100
AcDbEntity
  8
DEFPOINTS
 62
     0
 48
5.0
100
AcDbPoint
 10
365.9736351032186
 20
370.2238579647008
 30
0.0
  0
ENDBLK
  5
7BF7
330
7BEA
100
AcDbEntity
  8
0
 48
5.0
100
AcDbBlockEnd
  0
BLOCK
  5
7C03
330
7BF9
100
AcDbEntity
  8
0
 48
5.0
100
AcDbBlockBegin
  2
*D6
 70
     1
 10
0.0
 20
0.0
 30
0.0
  3
*D6
  1

  0
LINE
  5
7D32
330
7BF9
100
AcDbEntity
  8
SUNPOU
 48
5.0
100
AcDbLine
 10
382.8780514324786
 20
343.520133467373
 30
0.0
 11
386.24682395687
 21
345.2316495933061
 31
0.0
  0
LINE
  5
7D33
330
7BF9
100
AcDbEntity
  8
SUNPOU
 48
5.0
100
AcDbLine
 10
399.1841884324786
 20
311.424808467373
 30
0.0
 11
402.55296095687
 21
313.1363245933061
 31
0.0
  0
LINE
  5
7D34
330
7BF9
100
AcDbEntity
  8
SUNPOU
 48
5.0
100
AcDbLine
 10
386.7428512919796
 20
337.632047177204
 30
0.0
 11
396.7077127692724
 21
318.0182374996765
 31
0.0
  0
INSERT
  5
7D35
330
7BF9
100
AcDbEntity
  8
SUNPOU
 48
5.0
100
AcDbBlockReference
  2
_OPEN
 10
383.572213530626
 20
343.8728048384401
 30
0.0
 41
7.0
 42
7.0
 43
7.0
 50
116.9329986425178
  0
INSERT
  5
7D36
330
7BF9
100
AcDbEntity
  8
SUNPOU
 48
5.0
100
AcDbBlockReference
  2
_OPEN
 10
399.8783505306261
 20
311.7774798384401
 30
0.0
 41
7.0
 42
7.0
 43
7.0
 50
296.9329986425178
  0
MTEXT
  5
7D37
330
7BF9
100
AcDbEntity
  8
SUNPOU
 48
5.0
100
AcDbMText
 10
396.1829660743661
 20
330.08988359655
 30
0.0
 40
6.0
 41
0.0
 71
     5
 72
     5
  1
\A1;36
 11
0.4529482516219485
 21
-0.8915368087480294
 31
0.0
1001
ACAD
1000
MTEXTBEGIN
1070
    73
1070
     1
1070
    44
1040
1.0
1070
    74
1070
     0
1000
MTEXTEND
1000
MTEXTBEGIN
1070
    73
1070
     1
1070
    44
1040
1.0
1070
    74
1070
     0
1000
MTEXTEND
  0
POINT
  5
7D38
330
7BF9
100
AcDbEntity
  8
DEFPOINTS
 62
     0
 48
5.0
100
AcDbPoint
 10
377.5288305799903
 20
340.8024439576412
 30
0.0
  0
POINT
  5
7D39
330
7BF9
100
AcDbEntity
  8
DEFPOINTS
 62
     0
 48
5.0
100
AcDbPoint
 10
393.8349675799904
 20
308.7071189576413
 30
0.0
  0
POINT
  5
7D3A
330
7BF9
100
AcDbEntity
  8
DEFPOINTS
 62
     0
 48
5.0
100
AcDbPoint
 10
399.8783505306261
 20
311.7774798384401
 30
0.0
  0
ENDBLK
  5
7C04
330
7BF9
100
AcDbEntity
  8
0
 48
5.0
100
AcDbBlockEnd
  0
BLOCK
  5
7C10
330
7C06
100
AcDbEntity
  8
0
 48
5.0
100
AcDbBlockBegin
  2
*D7
 70
     1
 10
0.0
 20
0.0
 30
0.0
  3
*D7
  1

  0
LINE
  5
7D3B
330
7C06
100
AcDbEntity
  8
SUNPOU
 48
5.0
100
AcDbLine
 10
379.1245456500583
 20
350.9081448118158
 30
0.0
 11
390.9126047710596
 21
356.897108181134
 31
0.0
  0
LINE
  5
7D3C
330
7C06
100
AcDbEntity
  8
SUNPOU
 48
5.0
100
AcDbLine
 10
399.1841883253682
 20
311.4248086781983
 30
0.0
 11
410.9722474463693
 21
317.4137720475165
 31
0.0
  0
LINE
  5
7D3D
330
7C06
100
AcDbEntity
  8
SUNPOU
 48
5.0
100
AcDbLine
 10
391.4086324056873
 20
349.2975057845815
 30
0.0
 11
405.1269990663639
 21
322.2956847235118
 31
0.0
  0
INSERT
  5
7D3E
330
7C06
100
AcDbEntity
  8
SUNPOU
 48
5.0
100
AcDbBlockReference
  2
_OPEN
 10
388.2379943983707
 20
355.5382633208555
 30
0.0
 41
7.0
 42
7.0
 43
7.0
 50
116.9330009006788
  0
INSERT
  5
7D3F
330
7C06
100
AcDbEntity
  8
SUNPOU
 48
5.0
100
AcDbBlockReference
  2
_OPEN
 10
408.2976370736806
 20
316.0549271872379
 30
0.0
 41
7.0
 42
7.0
 43
7.0
 50
296.9330009006788
  0
MTEXT
  5
7D40
330
7C06
100
AcDbEntity
  8
SUNPOU
 48
5.0
100
AcDbMText
 10
402.7254996905071
 20
338.0613366878441
 30
0.0
 40
6.0
 41
0.0
 71
     5
 72
     5
  1
\A1;44
 11
0.4529482867595051
 21
-0.8915367908962755
 31
0.0
1001
ACAD
1000
MTEXTBEGIN
1070
    73
1070
     1
1070
    44
1040
1.0
1070
    74
1070
     0
1000
MTEXTEND
1000
MTEXTBEGIN
1070
    73
1070
     1
1070
    44
1040
1.0
1070
    74
1070
     0
1000
MTEXTEND
  0
POINT
  5
7D41
330
7C06
100
AcDbEntity
  8
DEFPOINTS
 62
     0
 48
5.0
100
AcDbPoint
 10
373.7753249046807
 20
348.1904550912588
 30
0.0
  0
POINT
  5
7D42
330
7C06
100
AcDbEntity
  8
DEFPOINTS
 62
     0
 48
5.0
100
AcDbPoint
 10
393.8349675799904
 20
308.7071189576414
 30
0.0
  0
POINT
  5
7D43
330
7C06
100
AcDbEntity
  8
DEFPOINTS
 62
     0
 48
5.0
100
AcDbPoint
 10
408.2976370736806
 20
316.0549271872379
 30
0.0
  0
ENDBLK
  5
7C11
330
7C06
100
AcDbEntity
  8
0
 48
5.0
100
AcDbBlockEnd
  0
BLOCK
  5
7C1F
330
7C13
100
AcDbEntity
  8
0
 48
5.0
100
AcDbBlockBegin
  2
*D8
 70
     1
 10
0.0
 20
0.0
 30
0.0
  3
*D8
  1

  0
LINE
  5
7D44
330
7C13
100
AcDbEntity
  8
SUNPOU
 48
5.0
100
AcDbLine
 10
470.2003697404926
 20
381.715408349784
 30
0.0
 11
454.4593397509417
 21
373.7181247504744
 31
0.0
  0
LINE
  5
7D45
330
7C13
100
AcDbEntity
  8
SUNPOU
 48
5.0
100
AcDbLine
 10
467.7091542736768
 20
386.618860489079
 30
0.0
 11
451.9681242841259
 21
378.6215768897692
 31
0.0
  0
LINE
  5
7D46
330
7C13
100
AcDbEntity
  8
SUNPOU
 48
5.0
100
AcDbLine
 10
460.3045881282978
 20
368.8362120713072
 30
0.0
 11
463.4752261322279
 21
362.5954545333127
 31
0.0
  0
LINE
  5
7D47
330
7C13
100
AcDbEntity
  8
SUNPOU
 48
5.0
100
AcDbLine
 10
451.4720966536222
 20
386.2211792865908
 30
0.0
 11
444.6778723594865
 21
399.5942311537218
 31
0.0
  0
LINE
  5
7D48
330
7C13
100
AcDbEntity
  8
SUNPOU
 48
5.0
100
AcDbLine
 10
457.1339501243679
 20
375.0769696093016
 30
0.0
 11
454.6427346575521
 21
379.9804217485963
 31
0.0
  0
INSERT
  5
7D49
330
7C13
100
AcDbEntity
  8
SUNPOU
 48
5.0
100
AcDbBlockReference
  2
_OPEN
 10
457.1339501243679
 20
375.0769696093016
 30
0.0
 41
7.0
 42
7.0
 43
7.0
 50
116.933000869587
  0
INSERT
  5
7D4A
330
7C13
100
AcDbEntity
  8
SUNPOU
 48
5.0
100
AcDbBlockReference
  2
_OPEN
 10
454.6427346575521
 20
379.9804217485963
 30
0.0
 41
7.0
 42
7.0
 43
7.0
 50
296.9330008695869
  0
MTEXT
  5
7D4B
330
7C13
100
AcDbEntity
  8
SUNPOU
 48
5.0
100
AcDbMText
 10
450.9473494602996
 20
398.2928254205321
 30
0.0
 40
6.0
 41
0.0
 71
     5
 72
     5
  1
\A1;5
 11
0.4529482862757087
 21
-0.8915367911420698
 31
0.0
1001
ACAD
1000
MTEXTBEGIN
1070
    73
1070
     1
1070
    44
1040
1.0
1070
    74
1070
     0
1000
MTEXTEND
1000
MTEXTBEGIN
1070
    73
1070
     1
1070
    44
1040
1.0
1070
    74
1070
     0
1000
MTEXTEND
  0
POINT
  5
7D4C
330
7C13
100
AcDbEntity
  8
DEFPOINTS
 62
     0
 48
5.0
100
AcDbPoint
 10
475.5495904873449
 20
384.4330980674383
 30
0.0
  0
POINT
  5
7D4D
330
7C13
100
AcDbEntity
  8
DEFPOINTS
 62
     0
 48
5.0
100
AcDbPoint
 10
473.0583750205291
 20
389.3365502067331
 30
0.0
  0
POINT
  5
7D4E
330
7C13
100
AcDbEntity
  8
DEFPOINTS
 62
     0
 48
5.0
100
AcDbPoint
 10
454.6427346575521
 20
379.9804217485963
 30
0.0
  0
ENDBLK
  5
7C20
330
7C13
100
AcDbEntity
  8
0
 48
5.0
100
AcDbBlockEnd
  0
BLOCK
  5
7C2E
330
7C22
100
AcDbEntity
  8
0
 48
5.0
100
AcDbBlockBegin
  2
*D9
 70
     1
 10
0.0
 20
0.0
 30
0.0
  3
*D9
  1

  0
LINE
  5
7D4F
330
7C22
100
AcDbEntity
  8
SUNPOU
 48
5.0
100
AcDbLine
 10
481.5240769546218
 20
359.4269884585733
 30
0.0
 11
465.7830469650709
 21
351.4297048592638
 31
0.0
  0
LINE
  5
7D50
330
7C22
100
AcDbEntity
  8
SUNPOU
 48
5.0
100
AcDbLine
 10
484.0152925285106
 20
354.5235361085273
 30
0.0
 11
468.2742625389594
 21
346.5262525092179
 31
0.0
  0
LINE
  5
7D51
330
7C22
100
AcDbEntity
  8
SUNPOU
 48
5.0
100
AcDbLine
 10
465.2870193345671
 20
359.0293072560853
 30
0.0
 11
462.1163813306373
 21
365.2700647940798
 31
0.0
  0
LINE
  5
7D52
330
7C22
100
AcDbEntity
  8
SUNPOU
 48
5.0
100
AcDbLine
 10
474.1195109163157
 20
341.6443398300504
 30
0.0
 11
480.9137352104512
 21
328.2712879629193
 31
0.0
  0
LINE
  5
7D53
330
7C22
100
AcDbEntity
  8
SUNPOU
 48
5.0
100
AcDbLine
 10
468.4576573384971
 20
352.7885497180909
 30
0.0
 11
470.9488729123858
 21
347.8850973680449
 31
0.0
  0
INSERT
  5
7D54
330
7C22
100
AcDbEntity
  8
SUNPOU
 48
5.0
100
AcDbBlockReference
  2
_OPEN
 10
468.4576573384971
 20
352.7885497180909
 30
0.0
 41
7.0
 42
7.0
 43
7.0
 50
296.9330008695866
  0
INSERT
  5
7D55
330
7C22
100
AcDbEntity
  8
SUNPOU
 48
5.0
100
AcDbBlockReference
  2
_OPEN
 10
470.9488729123858
 20
347.8850973680449
 30
0.0
 41
7.0
 42
7.0
 43
7.0
 50
116.9330008695865
  0
MTEXT
  5
7D56
330
7C22
100
AcDbEntity
  8
SUNPOU
 48
5.0
100
AcDbMText
 10
483.5596260210586
 20
334.1021765588661
 30
0.0
 40
6.0
 41
0.0
 71
     5
 72
     5
  1
\A1;6
 11
0.4529482862757001
 21
-0.8915367911420743
 31
0.0
1001
ACAD
1000
MTEXTBEGIN
1070
    73
1070
     1
1070
    44
1040
1.0
1070
    74
1070
     0
1000
MTEXTEND
1000
MTEXTBEGIN
1070
    73
1070
     1
1070
    44
1040
1.0
1070
    74
1070
     0
1000
MTEXTEND
  0
POINT
  5
7D57
330
7C22
100
AcDbEntity
  8
DEFPOINTS
 62
     0
 48
5.0
100
AcDbPoint
 10
486.8732977014743
 20
362.1446781762275
 30
0.0
  0
POINT
  5
7D58
330
7C22
100
AcDbEntity
  8
DEFPOINTS
 62
     0
 48
5.0
100
AcDbPoint
 10
489.3645132753629
 20
357.2412258261816
 30
0.0
  0
POINT
  5
7D59
330
7C22
100
AcDbEntity
  8
DEFPOINTS
 62
     0
 48
5.0
100
AcDbPoint
 10
470.9488729123858
 20
347.8850973680449
 30
0.0
  0
ENDBLK
  5
7C2F
330
7C22
100
AcDbEntity
  8
0
 48
5.0
100
AcDbBlockEnd
  0
BLOCK
  5
7C3B
330
7C31
100
AcDbEntity
  8
0
 48
5.0
100
AcDbBlockBegin
  2
*D10
 70
     1
 10
0.0
 20
0.0
 30
0.0
  3
*D10
  1

  0
LINE
  5
7D5A
330
7C31
100
AcDbEntity
  8
SUNPOU
 48
5.0
100
AcDbLine
 10
467.7091542736765
 20
386.6188604890788
 30
0.0
 11
436.8881631316736
 21
370.9601515521145
 31
0.0
  0
LINE
  5
7D5B
330
7C31
100
AcDbEntity
  8
SUNPOU
 48
5.0
100
AcDbLine
 10
484.0152925285105
 20
354.5235361085273
 30
0.0
 11
453.1943013865077
 21
338.8648271715629
 31
0.0
  0
LINE
  5
7D5C
330
7C31
100
AcDbEntity
  8
SUNPOU
 48
5.0
100
AcDbLine
 10
442.7334115090298
 20
366.0782388729471
 30
0.0
 11
452.6982737560039
 21
346.4644295683846
 31
0.0
  0
INSERT
  5
7D5D
330
7C31
100
AcDbEntity
  8
SUNPOU
 48
5.0
100
AcDbBlockReference
  2
_OPEN
 10
439.5627735050998
 20
372.3189964109416
 30
0.0
 41
7.0
 42
7.0
 43
7.0
 50
116.9330008695868
  0
INSERT
  5
7D5E
330
7C31
100
AcDbEntity
  8
SUNPOU
 48
5.0
100
AcDbBlockReference
  2
_OPEN
 10
455.8689117599338
 20
340.2236720303901
 30
0.0
 41
7.0
 42
7.0
 43
7.0
 50
296.9330008695868
  0
MTEXT
  5
7D5F
330
7C31
100
AcDbEntity
  8
SUNPOU
 48
5.0
100
AcDbMText
 10
452.1735265882273
 20
358.5360756520443
 30
0.0
 40
6.0
 41
0.0
 71
     5
 72
     5
  1
\A1;36
 11
0.4529482862757045
 21
-0.891536791142072
 31
0.0
1001
ACAD
1000
MTEXTBEGIN
1070
    73
1070
     1
1070
    44
1040
1.0
1070
    74
1070
     0
1000
MTEXTEND
1000
MTEXTBEGIN
1070
    73
1070
     1
1070
    44
1040
1.0
1070
    74
1070
     0
1000
MTEXTEND
  0
POINT
  5
7D60
330
7C31
100
AcDbEntity
  8
DEFPOINTS
 62
     0
 48
5.0
100
AcDbPoint
 10
473.058375020529
 20
389.3365502067331
 30
0.0
  0
POINT
  5
7D61
330
7C31
100
AcDbEntity
  8
DEFPOINTS
 62
     0
 48
5.0
100
AcDbPoint
 10
489.3645132753628
 20
357.2412258261814
 30
0.0
  0
POINT
  5
7D62
330
7C31
100
AcDbEntity
  8
DEFPOINTS
 62
     0
 48
5.0
100
AcDbPoint
 10
455.8689117599338
 20
340.2236720303901
 30
0.0
  0
ENDBLK
  5
7C3C
330
7C31
100
AcDbEntity
  8
0
 48
5.0
100
AcDbBlockEnd
  0
BLOCK
  5
7C4A
330
7C3E
100
AcDbEntity
  8
0
 48
5.0
100
AcDbBlockBegin
  2
*D11
 70
     1
 10
0.0
 20
0.0
 30
0.0
  3
*D11
  1

  0
LINE
  5
7D63
330
7C3E
100
AcDbEntity
  8
SUNPOU
 48
5.0
100
AcDbLine
 10
524.2325874936624
 20
415.3357815861661
 30
0.0
 11
547.1124608372523
 21
426.9599779279821
 31
0.0
  0
LINE
  5
7D64
330
7C3E
100
AcDbEntity
  8
SUNPOU
 48
5.0
100
AcDbLine
 10
530.5738630588471
 20
402.8542665203636
 30
0.0
 11
553.4537364024369
 21
414.4784628621796
 31
0.0
  0
LINE
  5
7D65
330
7C3E
100
AcDbEntity
  8
SUNPOU
 48
5.0
100
AcDbLine
 10
541.2672125959086
 20
431.8418907700013
 30
0.0
 11
538.0965747658497
 21
438.0826483963314
 31
0.0
  0
LINE
  5
7D66
330
7C3E
100
AcDbEntity
  8
SUNPOU
 48
5.0
100
AcDbLine
 10
553.9497638212115
 20
406.8788604515384
 30
0.0
 11
557.1204016512706
 21
400.6381028252083
 31
0.0
  0
LINE
  5
7D67
330
7C3E
100
AcDbEntity
  8
SUNPOU
 48
5.0
100
AcDbLine
 10
544.4378504259677
 20
425.601133143671
 30
0.0
 11
550.7791259911523
 21
413.1196180778686
 31
0.0
  0
INSERT
  5
7D68
330
7C3E
100
AcDbEntity
  8
SUNPOU
 48
5.0
100
AcDbBlockReference
  2
_OPEN
 10
544.4378504259677
 20
425.601133143671
 30
0.0
 41
7.0
 42
7.0
 43
7.0
 50
296.9329992732961
  0
INSERT
  5
7D69
330
7C3E
100
AcDbEntity
  8
SUNPOU
 48
5.0
100
AcDbBlockReference
  2
_OPEN
 10
550.7791259911523
 20
413.1196180778686
 30
0.0
 41
7.0
 42
7.0
 43
7.0
 50
116.9329992732961
  0
MTEXT
  5
7D6A
330
7C3E
100
AcDbEntity
  8
SUNPOU
 48
5.0
100
AcDbMText
 10
552.0661722273676
 20
421.625116917955
 30
0.0
 40
6.0
 41
0.0
 71
     5
 72
     5
  1
\A1;14
 11
0.4529482614370179
 21
-0.8915368037614504
 31
0.0
1001
ACAD
1000
MTEXTBEGIN
1070
    73
1070
     1
1070
    44
1040
1.0
1070
    74
1070
     0
1000
MTEXTEND
1000
MTEXTBEGIN
1070
    73
1070
     1
1070
    44
1040
1.0
1070
    74
1070
     0
1000
MTEXTEND
  0
POINT
  5
7D6B
330
7C3E
100
AcDbEntity
  8
DEFPOINTS
 62
     0
 48
5.0
100
AcDbPoint
 10
518.8833666710936
 20
412.6180920175441
 30
0.0
  0
POINT
  5
7D6C
330
7C3E
100
AcDbEntity
  8
DEFPOINTS
 62
     0
 48
5.0
100
AcDbPoint
 10
525.2246422362783
 20
400.1365769517416
 30
0.0
  0
POINT
  5
7D6D
330
7C3E
100
AcDbEntity
  8
DEFPOINTS
 62
     0
 48
5.0
100
AcDbPoint
 10
550.7791259911523
 20
413.1196180778686
 30
0.0
  0
ENDBLK
  5
7C4B
330
7C3E
100
AcDbEntity
  8
0
 48
5.0
100
AcDbBlockEnd
  0
BLOCK
  5
7C57
330
7C4D
100
AcDbEntity
  8
0
 48
5.0
100
AcDbBlockBegin
  2
*D12
 70
     1
 10
0.0
 20
0.0
 30
0.0
  3
*D12
  1

  0
LINE
  5
7D6E
330
7C4D
100
AcDbEntity
  8
SUNPOU
 48
5.0
100
AcDbLine
 10
480.6579775471297
 20
389.8325784926983
 30
0.0
 11
465.997750570755
 21
418.6882615876179
 31
0.0
  0
LINE
  5
7D6F
330
7C4D
100
AcDbEntity
  8
SUNPOU
 48
5.0
100
AcDbLine
 10
514.0014534357708
 20
406.7728437118855
 30
0.0
 11
499.3412264593962
 21
435.6285268068051
 31
0.0
  0
LINE
  5
7D70
330
7C4D
100
AcDbEntity
  8
SUNPOU
 48
5.0
100
AcDbLine
 10
473.5973529751048
 20
419.1842891027812
 30
0.0
 11
494.4593136915146
 21
429.7832785035424
 31
0.0
  0
INSERT
  5
7D71
330
7C4D
100
AcDbEntity
  8
SUNPOU
 48
5.0
100
AcDbBlockReference
  2
_OPEN
 10
467.3565953889892
 20
416.0136511935681
 30
0.0
 41
7.0
 42
7.0
 43
7.0
 50
206.933
  0
INSERT
  5
7D72
330
7C4D
100
AcDbEntity
  8
SUNPOU
 48
5.0
100
AcDbBlockReference
  2
_OPEN
 10
500.7000712776304
 20
432.9539164127555
 30
0.0
 41
7.0
 42
7.0
 43
7.0
 50
26.93300000000005
  0
MTEXT
  5
7D73
330
7C4D
100
AcDbEntity
  8
SUNPOU
 48
5.0
100
AcDbMText
 10
481.7635919695861
 20
428.9414677932446
 30
0.0
 40
6.0
 41
0.0
 71
     5
 72
     5
  1
\A1;37
 11
0.8915367980165374
 21
0.4529482727447144
 31
0.0
1001
ACAD
1000
MTEXTBEGIN
1070
    73
1070
     1
1070
    44
1040
1.0
1070
    74
1070
     0
1000
MTEXTEND
1000
MTEXTBEGIN
1070
    73
1070
     1
1070
    44
1040
1.0
1070
    74
1070
     0
1000
MTEXTEND
  0
POINT
  5
7D74
330
7C4D
100
AcDbEntity
  8
DEFPOINTS
 62
     0
 48
5.0
100
AcDbPoint
 10
483.3756671835979
 20
384.4833577045991
 30
0.0
  0
POINT
  5
7D75
330
7C4D
100
AcDbEntity
  8
DEFPOINTS
 62
     0
 48
5.0
100
AcDbPoint
 10
516.7191430722391
 20
401.4236229237862
 30
0.0
  0
POINT
  5
7D76
330
7C4D
100
AcDbEntity
  8
DEFPOINTS
 62
     0
 48
5.0
100
AcDbPoint
 10
500.7000712776304
 20
432.9539164127555
 30
0.0
  0
ENDBLK
  5
7C58
330
7C4D
100
AcDbEntity
  8
0
 48
5.0
100
AcDbBlockEnd
  0
BLOCK
  5
7C64
330
7C5A
100
AcDbEntity
  8
0
 48
5.0
100
AcDbBlockBegin
  2
*D13
 70
     1
 10
0.0
 20
0.0
 30
0.0
  3
*D13
  1

  0
LINE
  5
7D77
330
7C5A
100
AcDbEntity
  8
SUNPOU
 48
5.0
100
AcDbLine
 10
476.3533890926187
 20
394.9363988966652
 30
0.0
 11
457.8313925626232
 21
431.3931920292723
 31
0.0
  0
LINE
  5
7D78
330
7C5A
100
AcDbEntity
  8
SUNPOU
 48
5.0
100
AcDbLine
 10
512.4177141840951
 20
413.2590007166127
 30
0.0
 11
493.8957176540996
 21
449.71579384922
 31
0.0
  0
LINE
  5
7D79
330
7C5A
100
AcDbEntity
  8
SUNPOU
 48
5.0
100
AcDbLine
 10
465.430994966973
 20
431.8892195444358
 30
0.0
 11
489.013804886218
 21
443.8705455459573
 31
0.0
  0
INSERT
  5
7D7A
330
7C5A
100
AcDbEntity
  8
SUNPOU
 48
5.0
100
AcDbBlockReference
  2
_OPEN
 10
459.1902373808572
 20
428.7185816352226
 30
0.0
 41
7.0
 42
7.0
 43
7.0
 50
206.9329999999999
  0
INSERT
  5
7D7B
330
7C5A
100
AcDbEntity
  8
SUNPOU
 48
5.0
100
AcDbBlockReference
  2
_OPEN
 10
495.2545624723335
 20
447.0411834551703
 30
0.0
 41
7.0
 42
7.0
 43
7.0
 50
26.93299999999993
  0
MTEXT
  5
7D7C
330
7C5A
100
AcDbEntity
  8
SUNPOU
 48
5.0
100
AcDbMText
 10
474.9576585628719
 20
442.3375665352791
 30
0.0
 40
6.0
 41
0.0
 71
     5
 72
     5
  1
\A1;40
 11
0.8915367980165383
 21
0.4529482727447127
 31
0.0
1001
ACAD
1000
MTEXTBEGIN
1070
    73
1070
     1
1070
    44
1040
1.0
1070
    74
1070
     0
1000
MTEXTEND
1000
MTEXTBEGIN
1070
    73
1070
     1
1070
    44
1040
1.0
1070
    74
1070
     0
1000
MTEXTEND
  0
POINT
  5
7D7D
330
7C5A
100
AcDbEntity
  8
DEFPOINTS
 62
     0
 48
5.0
100
AcDbPoint
 10
479.0710787290869
 20
389.5871781085661
 30
0.0
  0
POINT
  5
7D7E
330
7C5A
100
AcDbEntity
  8
DEFPOINTS
 62
     0
 48
5.0
100
AcDbPoint
 10
515.1354038205632
 20
407.9097799285135
 30
0.0
  0
POINT
  5
7D7F
330
7C5A
100
AcDbEntity
  8
DEFPOINTS
 62
     0
 48
5.0
100
AcDbPoint
 10
495.2545624723335
 20
447.0411834551703
 30
0.0
  0
ENDBLK
  5
7C65
330
7C5A
100
AcDbEntity
  8
0
 48
5.0
100
AcDbBlockEnd
  0
BLOCK
  5
7C71
330
7C67
100
AcDbEntity
  8
0
 48
5.0
100
AcDbBlockBegin
  2
*D14
 70
     1
 10
0.0
 20
0.0
 30
0.0
  3
*D14
  1

  0
LINE
  5
7D80
330
7C67
100
AcDbEntity
  8
SUNPOU
 48
5.0
100
AcDbLine
 10
470.3406853401187
 20
394.6857709725073
 30
0.0
 11
446.4118994065511
 21
441.7847313645848
 31
0.0
  0
LINE
  5
7D81
330
7C67
100
AcDbEntity
  8
SUNPOU
 48
5.0
100
AcDbLine
 10
516.1656769906833
 20
417.9673127833184
 30
0.0
 11
492.2368910571158
 21
465.0662731753958
 31
0.0
  0
LINE
  5
7D82
330
7C67
100
AcDbEntity
  8
SUNPOU
 48
5.0
100
AcDbLine
 10
454.0115018068261
 20
442.2807589421763
 30
0.0
 11
487.3549783372509
 21
459.2210248320298
 31
0.0
  0
INSERT
  5
7D83
330
7C67
100
AcDbEntity
  8
SUNPOU
 48
5.0
100
AcDbBlockReference
  2
_OPEN
 10
447.7707442467562
 20
439.1101209816976
 30
0.0
 41
7.0
 42
7.0
 43
7.0
 50
206.9330004706663
  0
INSERT
  5
7D84
330
7C67
100
AcDbEntity
  8
SUNPOU
 48
5.0
100
AcDbBlockReference
  2
_OPEN
 10
493.5957358973211
 20
462.3916627925086
 30
0.0
 41
7.0
 42
7.0
 43
7.0
 50
26.93300047066632
  0
MTEXT
  5
7D85
330
7C67
100
AcDbEntity
  8
SUNPOU
 48
5.0
100
AcDbMText
 10
468.4184986716966
 20
455.2085758585817
 30
0.0
 40
6.0
 41
0.0
 71
     5
 72
     5
  1
\A1;51
 11
0.8915367942957137
 21
0.4529482800684005
 31
0.0
1001
ACAD
1000
MTEXTBEGIN
1070
    73
1070
     1
1070
    44
1040
1.0
1070
    74
1070
     0
1000
MTEXTEND
1000
MTEXTBEGIN
1070
    73
1070
     1
1070
    44
1040
1.0
1070
    74
1070
     0
1000
MTEXTEND
  0
POINT
  5
7D86
330
7C67
100
AcDbEntity
  8
DEFPOINTS
 62
     0
 48
5.0
100
AcDbPoint
 10
473.058375020529
 20
389.3365502067331
 30
0.0
  0
POINT
  5
7D87
330
7C67
100
AcDbEntity
  8
DEFPOINTS
 62
     0
 48
5.0
100
AcDbPoint
 10
518.8833666710938
 20
412.6180920175441
 30
0.0
  0
POINT
  5
7D88
330
7C67
100
AcDbEntity
  8
DEFPOINTS
 62
     0
 48
5.0
100
AcDbPoint
 10
493.5957358973211
 20
462.3916627925086
 30
0.0
  0
ENDBLK
  5
7C72
330
7C67
100
AcDbEntity
  8
0
 48
5.0
100
AcDbBlockEnd
  0
ENDSEC
  0
SECTION
  2
ENTITIES
  0
TEXT
  5
7D7
330
1A
100
AcDbEntity
  8
SUNPOU
 62
     4
100
AcDbText
 10
284.2440700201341
 20
75.63707715071086
 30
0.0
 40
8.0
  1
軒樋の差し替え
100
AcDbText
  0
ARC
  5
5A67
330
1A
100
AcDbEntity
  8
NOKITOI
  6
PHANTOM
 62
     8
100
AcDbCircle
 10
254.3795289020604
 20
322.7524307927266
 30
0.0
 40
0.4999934649531607
100
AcDbArc
 50
356.9955363203376
 51
89.99928939038239
  0
LINE
  5
5A68
330
1A
100
AcDbEntity
  8
NOKITOI
  6
PHANTOM
 62
     8
100
AcDbLine
 10
254.5631351032184
 20
316.7262242576413
 30
0.0
 11
254.8789351032183
 21
322.7261242576413
 31
0.0
  0
ARC
  5
5A69
330
1A
100
AcDbEntity
  8
NOKITOI
  6
PHANTOM
 62
     8
100
AcDbCircle
 10
254.1367266790556
 20
308.7524317726978
 30
0.0
 40
0.9999924849789756
100
AcDbArc
 50
6.528264606673934
 51
89.99951732741129
  0
LINE
  5
5A6A
330
1A
100
AcDbEntity
  8
NOKITOI
  6
PHANTOM
 62
     8
100
AcDbLine
 10
255.6806351032186
 20
310.9524242576414
 30
0.0
 11
249.6397351032181
 21
310.9524242576414
 31
0.0
  0
ARC
  5
5A6B
330
1A
100
AcDbEntity
  8
NOKITOI
  6
PHANTOM
 62
     8
100
AcDbCircle
 10
297.8517411851862
 20
313.7524186329849
 30
0.0
 40
41.79999437547816
100
AcDbArc
 50
184.4742952125246
 51
269.999854592109
  0
ARC
  5
5A6C
330
1A
100
AcDbEntity
  8
NOKITOI
  6
PHANTOM
 62
     8
100
AcDbCircle
 10
297.8517188767608
 20
313.7524387340113
 30
0.0
 40
43.00001447645168
100
AcDbArc
 50
186.5249107071173
 51
269.9998883751437
  0
LINE
  5
5A72
330
1A
100
AcDbEntity
  8
NOKITOI
  6
PHANTOM
 62
     8
100
AcDbLine
 10
252.6217351032186
 20
317.4524242576412
 30
0.0
 11
253.0258351032184
 21
320.2808242576411
 31
0.0
  0
ARC
  5
5A73
330
1A
100
AcDbEntity
  8
NOKITOI
  6
PHANTOM
 62
     8
100
AcDbCircle
 10
251.1584493216336
 20
319.2301096233403
 30
0.0
 40
0.5000073448410256
100
AcDbArc
 50
351.8729478641236
 51
96.47829282996756
  0
ARC
  5
5A74
330
1A
100
AcDbEntity
  8
NOKITOI
  6
PHANTOM
 62
     8
100
AcDbCircle
 10
251.553272984665
 20
315.7524680401667
 30
0.0
 40
3.999989731271038
100
AcDbArc
 50
96.47731142013277
 51
181.7899836067311
  0
LINE
  5
5A75
330
1A
100
AcDbEntity
  8
NOKITOI
  6
PHANTOM
 62
     8
100
AcDbLine
 10
247.3020351032186
 20
323.7274242576412
 30
0.0
 11
247.4514351032179
 21
318.9485242576413
 31
0.0
  0
ARC
  5
5A76
330
1A
100
AcDbEntity
  8
NOKITOI
  6
PHANTOM
 62
     8
100
AcDbCircle
 10
251.5533553158875
 20
315.7524829860213
 30
0.0
 40
5.2000412730095
100
AcDbArc
 50
90.0013245430618
 51
142.0757990790546
  0
LINE
  5
5A77
330
1A
100
AcDbEntity
  8
NOKITOI
  6
PHANTOM
 62
     8
100
AcDbLine
 10
253.3996351032183
 20
317.4524242576412
 30
0.0
 11
253.5808351032183
 21
320.8939242576415
 31
0.0
  0
LINE
  5
5A78
330
1A
100
AcDbEntity
  8
NOKITOI
  6
PHANTOM
 62
     8
100
AcDbLine
 10
246.1026351032181
 20
323.6899242576412
 30
0.0
 11
246.4928351032181
 21
311.2056242576412
 31
0.0
  0
ARC
  5
5A79
330
1A
100
AcDbEntity
  8
NOKITOI
  6
PHANTOM
 62
     8
100
AcDbCircle
 10
247.992071062369
 20
311.2523894034981
 30
0.0
 40
1.499965146287778
100
AcDbArc
 50
181.7866280217765
 51
269.998626429697
  0
LINE
  5
5A7B
330
1A
100
AcDbEntity
  8
NOKITOI
  6
PHANTOM
 62
     8
100
AcDbLine
 10
247.6407351032179
 20
312.8900242576412
 30
0.0
 11
247.5552351032183
 21
315.6275242576413
 31
0.0
  0
LINE
  5
5A7C
330
1A
100
AcDbEntity
  8
NOKITOI
  6
PHANTOM
 62
     8
100
AcDbLine
 10
247.9920351032183
 20
309.7524242576412
 30
0.0
 11
254.136735103218
 21
309.7524242576412
 31
0.0
  0
ARC
  5
5A7D
330
1A
100
AcDbEntity
  8
NOKITOI
  6
PHANTOM
 62
     8
100
AcDbCircle
 10
249.6397486753566
 20
312.9524111025549
 30
0.0
 40
1.999986844959662
100
AcDbArc
 50
181.7875531852354
 51
269.9996111843215
  0
LINE
  5
5A7F
330
1A
100
AcDbEntity
  8
NOKITOI
  6
PHANTOM
 62
     8
100
AcDbLine
 10
251.3197351032181
 20
316.8232242576414
 30
0.0
 11
251.6534351032182
 21
319.1594242576413
 31
0.0
  0
LINE
  5
5A80
330
1A
100
AcDbEntity
  8
NOKITOI
  6
PHANTOM
 62
     8
100
AcDbLine
 10
254.0637351032181
 20
316.2524242576413
 30
0.0
 11
251.8146351032182
 21
316.2524242576413
 31
0.0
  0
ARC
  5
5A81
330
1A
100
AcDbEntity
  8
NOKITOI
  6
PHANTOM
 62
     8
100
AcDbCircle
 10
251.8146617038159
 20
316.7523935807593
 30
0.0
 40
0.4999693238254178
100
AcDbArc
 50
171.8555038770529
 51
269.9969516090372
  0
LINE
  5
5A82
330
1A
100
AcDbEntity
  8
NOKITOI
  6
PHANTOM
 62
     8
100
AcDbLine
 10
253.3996351032183
 20
317.4524242576412
 30
0.0
 11
252.6217351032186
 21
317.4524242576412
 31
0.0
  0
ARC
  5
5A83
330
1A
100
AcDbEntity
  8
NOKITOI
  6
PHANTOM
 62
     8
100
AcDbCircle
 10
254.0637282162232
 20
316.7524177225558
 30
0.0
 40
0.4999934649619629
100
AcDbArc
 50
270.0007892017869
 51
356.997036131742
  0
ARC
  5
5A84
330
1A
100
AcDbEntity
  8
NOKITOI
  6
PHANTOM
 62
     8
100
AcDbCircle
 10
248.1016478540681
 20
323.7524374127277
 30
0.0
 40
1.999986844954075
100
AcDbArc
 50
90.00036528735286
 51
181.7883072882704
  0
LINE
  5
5A85
330
1A
100
AcDbEntity
  8
NOKITOI
  6
PHANTOM
 62
     8
100
AcDbLine
 10
251.6577351032183
 20
323.8505242576411
 30
0.0
 11
251.9185351032183
 21
325.1544242576414
 31
0.0
  0
LINE
  5
5A87
330
1A
100
AcDbEntity
  8
NOKITOI
  6
PHANTOM
 62
     8
100
AcDbLine
 10
250.0744351032185
 20
322.0524242576414
 30
0.0
 11
253.0109351032183
 21
322.0524242576414
 31
0.0
  0
ARC
  5
5A88
330
1A
100
AcDbEntity
  8
NOKITOI
  6
PHANTOM
 62
     8
100
AcDbCircle
 10
248.1016395980164
 20
323.7524288951681
 30
0.0
 40
0.7999953624857498
100
AcDbArc
 50
90.00032191805264
 51
181.7911273464193
  0
LINE
  5
5A89
330
1A
100
AcDbEntity
  8
NOKITOI
  6
PHANTOM
 62
     8
100
AcDbLine
 10
248.101635103218
 20
324.5524242576414
 30
0.0
 11
250.5744351032185
 21
324.5524242576414
 31
0.0
  0
LINE
  5
5A8A
330
1A
100
AcDbEntity
  8
NOKITOI
  6
PHANTOM
 62
     8
100
AcDbLine
 10
250.5744351032185
 20
324.5524242576414
 30
0.0
 11
250.0744351032185
 21
322.0524242576414
 31
0.0
  0
LINE
  5
5A8B
330
1A
100
AcDbEntity
  8
NOKITOI
  6
PHANTOM
 62
     8
100
AcDbLine
 10
252.0151351032186
 20
320.9524242576414
 30
0.0
 11
253.0109351032183
 21
322.0524242576414
 31
0.0
  0
LINE
  5
5A8C
330
1A
100
AcDbEntity
  8
NOKITOI
  6
PHANTOM
 62
     8
100
AcDbLine
 10
252.0151351032186
 20
320.9524242576414
 30
0.0
 11
251.5532351032184
 21
320.9524242576414
 31
0.0
  0
ARC
  5
5A8D
330
1A
100
AcDbEntity
  8
NOKITOI
  6
PHANTOM
 62
     8
100
AcDbCircle
 10
252.1480278486627
 20
323.7524331074847
 30
0.0
 40
0.5000088498959383
100
AcDbArc
 50
168.686404330489
 51
270.0008312961425
  0
LINE
  5
5A8E
330
1A
100
AcDbEntity
  8
NOKITOI
  6
PHANTOM
 62
     8
100
AcDbLine
 10
253.0258351032184
 20
320.2808242576411
 30
0.0
 11
253.5808351032183
 21
320.8939242576415
 31
0.0
  0
LINE
  5
5A8F
330
1A
100
AcDbEntity
  8
NOKITOI
  6
PHANTOM
 62
     8
100
AcDbLine
 10
254.379535103218
 20
323.2524242576412
 30
0.0
 11
252.1480351032181
 21
323.2524242576412
 31
0.0
  0
LINE
  5
5A90
330
1A
100
AcDbEntity
  8
NOKITOI
  6
PHANTOM
 62
     8
100
AcDbLine
 10
248.101635103218
 20
325.7524242576412
 30
0.0
 11
251.4282351032184
 21
325.7524242576412
 31
0.0
  0
ARC
  5
5A91
330
1A
100
AcDbEntity
  8
NOKITOI
  6
PHANTOM
 62
     8
100
AcDbCircle
 10
251.4282343202097
 20
325.252425212643
 30
0.0
 40
0.4999990449987349
100
AcDbArc
 50
348.6967198015448
 51
89.99991027369329
  0
LINE
  5
5A92
330
1A
100
AcDbEntity
  8
NOKITOI
  6
PHANTOM
 62
     8
100
AcDbLine
 10
355.9071351032183
 20
310.5022242576414
 30
0.0
 11
352.914135103218
 21
280.5724242576411
 31
0.0
  0
LINE
  5
5A93
330
1A
100
AcDbEntity
  8
NOKITOI
  6
PHANTOM
 62
     8
100
AcDbLine
 10
356.9481351032186
 20
308.8519242576413
 30
0.0
 11
354.0793351032184
 21
280.1645242576412
 31
0.0
  0
LINE
  5
5A94
330
1A
100
AcDbEntity
  8
NOKITOI
  6
PHANTOM
 62
     8
100
AcDbLine
 10
297.8517351032181
 20
271.9524242576412
 30
0.0
 11
342.4313351032183
 21
271.9523242576414
 31
0.0
  0
LINE
  5
5A95
330
1A
100
AcDbEntity
  8
NOKITOI
  6
PHANTOM
 62
     8
100
AcDbLine
 10
342.6811351032183
 20
270.7523242576413
 30
0.0
 11
297.8517351032181
 21
270.7524242576412
 31
0.0
  0
LINE
  5
5A96
330
1A
100
AcDbEntity
  8
NOKITOI
  6
PHANTOM
 62
     8
100
AcDbLine
 10
338.4313351032183
 20
271.9523242576414
 30
0.0
 11
318.5232351032186
 21
271.9523242576414
 31
0.0
  0
LINE
  5
5A97
330
1A
100
AcDbEntity
  8
NOKITOI
  6
PHANTOM
 62
     8
100
AcDbLine
 10
338.6811351032183
 20
270.7523242576413
 30
0.0
 11
318.5232351032186
 21
270.7523242576413
 31
0.0
  0
LINE
  5
5A9B
330
1A
100
AcDbEntity
  8
NOKITOI
  6
PHANTOM
 62
     8
100
AcDbLine
 10
353.7175351032183
 20
279.4900242576415
 30
0.0
 11
343.3144351032183
 21
270.9783242576414
 31
0.0
  0
LINE
  5
5A9C
330
1A
100
AcDbEntity
  8
NOKITOI
  6
PHANTOM
 62
     8
100
AcDbLine
 10
352.7332351032187
 20
280.2351242576412
 30
0.0
 11
342.7479351032183
 21
272.0653242576411
 31
0.0
  0
ARC
  5
5A9D
330
1A
100
AcDbEntity
  8
NOKITOI
  6
PHANTOM
 62
     8
100
AcDbCircle
 10
342.4313414909669
 20
272.4523265376309
 30
0.0
 40
0.5000022800304047
100
AcDbArc
 50
269.999268021279
 51
309.2854498596061
  0
ARC
  5
5A9E
330
1A
100
AcDbEntity
  8
NOKITOI
  6
PHANTOM
 62
     8
100
AcDbCircle
 10
342.6811281706408
 20
271.7523217826351
 30
0.0
 40
0.9999975250179316
100
AcDbArc
 50
270.0003972084019
 51
309.2946416752287
  0
ARC
  5
5A9F
330
1A
100
AcDbEntity
  8
NOKITOI
  6
PHANTOM
 62
     8
100
AcDbCircle
 10
352.41661767734
 20
280.6220917712534
 30
0.0
 40
0.4999904508696396
100
AcDbArc
 50
309.2900846377951
 51
354.2990110749238
  0
ARC
  5
5AA0
330
1A
100
AcDbEntity
  8
NOKITOI
  6
PHANTOM
 62
     8
100
AcDbCircle
 10
353.0843125303495
 20
280.2639821859687
 30
0.0
 40
0.9999908507640039
100
AcDbArc
 50
309.288709223069
 51
354.2862329477529
  0
ARC
  5
5AA8
330
1A
100
AcDbEntity
  8
NOKITOI
  6
PHANTOM
 62
     8
100
AcDbCircle
 10
255.6806476729266
 20
310.4524126329116
 30
0.0
 40
0.5000116248877112
100
AcDbArc
 50
4.47484680834223
 51
90.00144034898381
  0
ARC
  5
5ACE
330
1A
100
AcDbEntity
  8
NOKITOI
  6
PHANTOM
 62
     8
100
AcDbCircle
 10
360.5231041762821
 20
315.7524600023051
 30
0.0
 40
3.99998565374706
100
AcDbArc
 50
358.208696659101
 51
83.5242238046834
  0
LINE
  5
5ACF
330
1A
100
AcDbEntity
  8
NOKITOI
  6
PHANTOM
 62
     8
100
AcDbLine
 10
364.7742351032178
 20
323.7274242576412
 30
0.0
 11
364.6249351032183
 21
318.9484242576413
 31
0.0
  0
LINE
  5
5AD0
330
1A
100
AcDbEntity
  8
NOKITOI
  6
PHANTOM
 62
     8
100
AcDbLine
 10
359.4545351032178
 20
317.4524242576412
 30
0.0
 11
359.0505351032184
 21
320.2808242576411
 31
0.0
  0
LINE
  5
5AD1
330
1A
100
AcDbEntity
  8
NOKITOI
  6
PHANTOM
 62
     8
100
AcDbLine
 10
357.5132351032184
 20
316.7261242576413
 30
0.0
 11
357.1974351032181
 21
322.7261242576413
 31
0.0
  0
LINE
  5
5AD2
330
1A
100
AcDbEntity
  8
NOKITOI
  6
PHANTOM
 62
     8
100
AcDbLine
 10
358.6766351032183
 20
317.4524242576412
 30
0.0
 11
358.4955351032181
 21
320.8938242576413
 31
0.0
  0
ARC
  5
5AD3
330
1A
100
AcDbEntity
  8
NOKITOI
  6
PHANTOM
 62
     8
100
AcDbCircle
 10
360.5231172368671
 20
315.7524329860212
 30
0.0
 40
5.199991271650611
100
AcDbArc
 50
37.92532860473095
 51
89.999803140724
  0
ARC
  5
5AD4
330
1A
100
AcDbEntity
  8
NOKITOI
  6
PHANTOM
 62
     8
100
AcDbCircle
 10
360.9178644757179
 20
319.2300544901361
 30
0.0
 40
0.4999578477751074
100
AcDbArc
 50
83.52609071220754
 51
188.1330561712931
  0
LINE
  5
5AD5
330
1A
100
AcDbEntity
  8
NOKITOI
  6
PHANTOM
 62
     8
100
AcDbLine
 10
365.9736351032183
 20
323.6899242576412
 30
0.0
 11
365.5835351032183
 21
311.2055242576411
 31
0.0
  0
LINE
  5
5AD7
330
1A
100
AcDbEntity
  8
NOKITOI
  6
PHANTOM
 62
     8
100
AcDbLine
 10
356.4046351032178
 20
310.9524242576414
 30
0.0
 11
362.4365351032183
 21
310.9524242576414
 31
0.0
  0
LINE
  5
5AD8
330
1A
100
AcDbEntity
  8
NOKITOI
  6
PHANTOM
 62
     8
100
AcDbLine
 10
364.0842351032183
 20
309.7524242576412
 30
0.0
 11
357.9431351032185
 21
309.7524242576412
 31
0.0
  0
ARC
  5
5ADC
330
1A
100
AcDbEntity
  8
NOKITOI
  6
PHANTOM
 62
     8
100
AcDbCircle
 10
357.9431557530591
 20
308.7524429454905
 30
0.0
 40
0.9999813123640343
100
AcDbArc
 50
90.00118317084911
 51
174.2905900333514
  0
ARC
  5
5ADD
330
1A
100
AcDbEntity
  8
NOKITOI
  6
PHANTOM
 62
     8
100
AcDbCircle
 10
356.4046481742228
 20
310.4524360879211
 30
0.0
 40
0.4999881698908891
100
AcDbArc
 50
90.0014978622647
 51
174.2966061377163
  0
LINE
  5
5AE1
330
1A
100
AcDbEntity
  8
NOKITOI
  6
PHANTOM
 62
     8
100
AcDbLine
 10
360.7566351032183
 20
316.8231242576412
 30
0.0
 11
360.4228351032184
 21
319.1593242576415
 31
0.0
  0
ARC
  5
5AE2
330
1A
100
AcDbEntity
  8
NOKITOI
  6
PHANTOM
 62
     8
100
AcDbCircle
 10
360.2616452896544
 20
316.7524360023653
 30
0.0
 40
0.500011744827831
100
AcDbArc
 50
269.9988327478
 51
8.12731460871532
  0
ARC
  5
5AE3
330
1A
100
AcDbEntity
  8
NOKITOI
  6
PHANTOM
 62
     8
100
AcDbCircle
 10
358.012539224625
 20
316.7524203476108
 30
0.0
 40
0.4999960899864753
100
AcDbArc
 50
183.014724379174
 51
269.9995277178578
  0
LINE
  5
5AE4
330
1A
100
AcDbEntity
  8
NOKITOI
  6
PHANTOM
 62
     8
100
AcDbLine
 10
358.0125351032183
 20
316.2524242576413
 30
0.0
 11
360.2616351032178
 21
316.2524242576413
 31
0.0
  0
LINE
  5
5AE5
330
1A
100
AcDbEntity
  8
NOKITOI
  6
PHANTOM
 62
     8
100
AcDbLine
 10
358.6766351032183
 20
317.4524242576412
 30
0.0
 11
359.4545351032178
 21
317.4524242576412
 31
0.0
  0
LINE
  5
5AE6
330
1A
100
AcDbEntity
  8
NOKITOI
  6
PHANTOM
 62
     8
100
AcDbLine
 10
364.4356351032183
 20
312.8898242576413
 30
0.0
 11
364.5211351032179
 21
315.6274242576412
 31
0.0
  0
ARC
  5
5AE7
330
1A
100
AcDbEntity
  8
NOKITOI
  6
PHANTOM
 62
     8
100
AcDbCircle
 10
364.0842523163964
 20
311.252440940789
 30
0.0
 40
1.500016683246579
100
AcDbArc
 50
269.999342512336
 51
358.2076423244113
  0
ARC
  5
5AE8
330
1A
100
AcDbEntity
  8
NOKITOI
  6
PHANTOM
 62
     8
100
AcDbCircle
 10
362.4365730910426
 20
312.9523610782135
 30
0.0
 40
2.000036820932881
100
AcDbArc
 50
269.9989117490344
 51
358.2110591274195
  0
LINE
  5
5AEA
330
1A
100
AcDbEntity
  8
NOKITOI
  6
PHANTOM
 62
     8
100
AcDbLine
 10
362.0019351032183
 20
322.0524242576414
 30
0.0
 11
359.0653351032183
 21
322.0524242576414
 31
0.0
  0
LINE
  5
5AEB
330
1A
100
AcDbEntity
  8
NOKITOI
  6
PHANTOM
 62
     8
100
AcDbLine
 10
363.9746351032186
 20
325.7523242576413
 30
0.0
 11
360.6480351032181
 21
325.7524242576412
 31
0.0
  0
LINE
  5
5AEC
330
1A
100
AcDbEntity
  8
NOKITOI
  6
PHANTOM
 62
     8
100
AcDbLine
 10
360.4185351032183
 20
323.8504242576414
 30
0.0
 11
360.1577351032183
 21
325.1544242576414
 31
0.0
  0
ARC
  5
5AED
330
1A
100
AcDbEntity
  8
NOKITOI
  6
PHANTOM
 62
     8
100
AcDbCircle
 10
357.6967388127136
 20
322.752428167672
 30
0.0
 40
0.4999960899831856
100
AcDbArc
 50
90.00042508014919
 51
183.0156217414646
  0
LINE
  5
5AEE
330
1A
100
AcDbEntity
  8
NOKITOI
  6
PHANTOM
 62
     8
100
AcDbLine
 10
360.0611351032183
 20
320.9524242576414
 30
0.0
 11
359.0653351032183
 21
322.0524242576414
 31
0.0
  0
LINE
  5
5AEF
330
1A
100
AcDbEntity
  8
NOKITOI
  6
PHANTOM
 62
     8
100
AcDbLine
 10
360.0611351032183
 20
320.9524242576414
 30
0.0
 11
360.5231351032184
 21
320.9524242576414
 31
0.0
  0
ARC
  5
5AF0
330
1A
100
AcDbEntity
  8
NOKITOI
  6
PHANTOM
 62
     8
100
AcDbCircle
 10
359.9282343202098
 20
323.7524233026396
 30
0.0
 40
0.4999990449987399
100
AcDbArc
 50
270.0000897263034
 51
11.30328019845509
  0
LINE
  5
5AF1
330
1A
100
AcDbEntity
  8
NOKITOI
  6
PHANTOM
 62
     8
100
AcDbLine
 10
357.6967351032185
 20
323.2524242576412
 30
0.0
 11
359.9282351032183
 21
323.2524242576412
 31
0.0
  0
LINE
  5
5AF2
330
1A
100
AcDbEntity
  8
NOKITOI
  6
PHANTOM
 62
     8
100
AcDbLine
 10
359.0505351032184
 20
320.2808242576411
 30
0.0
 11
358.4955351032181
 21
320.8938242576413
 31
0.0
  0
ARC
  5
5AF3
330
1A
100
AcDbEntity
  8
NOKITOI
  6
PHANTOM
 62
     8
100
AcDbCircle
 10
360.6480278486628
 20
325.2524154077979
 30
0.0
 40
0.500008849895925
100
AcDbArc
 50
89.99916870385417
 51
191.3135956695126
  0
ARC
  5
5AF4
330
1A
100
AcDbEntity
  8
NOKITOI
  6
PHANTOM
 62
     8
100
AcDbCircle
 10
363.9746238662242
 20
323.7524358514583
 30
0.0
 40
1.999988406214314
100
AcDbArc
 50
358.2088726535938
 51
89.99967808195389
  0
ARC
  5
5AF5
330
1A
100
AcDbEntity
  8
NOKITOI
  6
PHANTOM
 62
     8
100
AcDbCircle
 10
363.9746790695711
 20
323.7523788951683
 30
0.0
 40
0.7999453636812564
100
AcDbArc
 50
358.2123436447881
 51
90.00314907315425
  0
LINE
  5
5AF6
330
1A
100
AcDbEntity
  8
NOKITOI
  6
PHANTOM
 62
     8
100
AcDbLine
 10
361.5019351032183
 20
324.5524242576414
 30
0.0
 11
362.0019351032183
 21
322.0524242576414
 31
0.0
  0
LINE
  5
5AF7
330
1A
100
AcDbEntity
  8
NOKITOI
  6
PHANTOM
 62
     8
100
AcDbLine
 10
363.9746351032186
 20
324.5523242576413
 30
0.0
 11
361.5019351032183
 21
324.5524242576414
 31
0.0
  0
LINE
  5
5F48
330
1A
100
AcDbEntity
  8
NOKITOI
  6
PHANTOM
 62
     8
100
AcDbLine
 10
259.343035103218
 20
119.328259019235
 30
0.0
 11
269.3283351032182
 21
111.158459019235
 31
0.0
  0
LINE
  5
5F49
330
1A
100
AcDbEntity
  8
NOKITOI
  6
PHANTOM
 62
     8
100
AcDbLine
 10
258.3587351032184
 20
118.5831590192352
 30
0.0
 11
268.7618351032184
 21
110.0714590192352
 31
0.0
  0
ARC
  5
5F4A
330
1A
100
AcDbEntity
  8
NOKITOI
  6
PHANTOM
 62
     8
100
AcDbCircle
 10
314.2245513296758
 20
152.8455734956051
 30
0.0
 40
43.00001447645168
100
AcDbArc
 50
270.0001116248561
 51
353.4750892928824
  0
ARC
  5
5F4B
330
1A
100
AcDbEntity
  8
NOKITOI
  6
PHANTOM
 62
     8
100
AcDbCircle
 10
314.2245290212504
 20
152.8455533945788
 30
0.0
 40
41.79999437547816
100
AcDbArc
 50
270.0001454078909
 51
355.5257047874752
  0
LINE
  5
5F4C
330
1A
100
AcDbEntity
  8
NOKITOI
  6
PHANTOM
 62
     8
100
AcDbLine
 10
273.3951351032184
 20
109.8454590192351
 30
0.0
 11
293.5530351032181
 21
109.8454590192351
 31
0.0
  0
LINE
  5
5F4D
330
1A
100
AcDbEntity
  8
NOKITOI
  6
PHANTOM
 62
     8
100
AcDbLine
 10
273.6449351032184
 20
111.0454590192351
 30
0.0
 11
293.5530351032181
 21
111.0454590192351
 31
0.0
  0
LINE
  5
5F4E
330
1A
100
AcDbEntity
  8
NOKITOI
  6
PHANTOM
 62
     8
100
AcDbLine
 10
269.3951351032184
 20
109.8454590192351
 30
0.0
 11
314.2245351032185
 21
109.845559019235
 31
0.0
  0
LINE
  5
5F4F
330
1A
100
AcDbEntity
  8
NOKITOI
  6
PHANTOM
 62
     8
100
AcDbLine
 10
314.2245351032185
 20
111.045559019235
 30
0.0
 11
269.6449351032184
 21
111.0454590192351
 31
0.0
  0
ARC
  5
5F50
330
1A
100
AcDbEntity
  8
NOKITOI
  6
PHANTOM
 62
     8
100
AcDbCircle
 10
269.3951420357957
 20
110.8454565442289
 30
0.0
 40
0.9999975250179316
100
AcDbArc
 50
230.7053583247713
 51
269.999602791598
  0
ARC
  5
5F51
330
1A
100
AcDbEntity
  8
NOKITOI
  6
PHANTOM
 62
     8
100
AcDbCircle
 10
269.6449287154696
 20
111.5454612992246
 30
0.0
 40
0.5000022800304047
100
AcDbArc
 50
230.7145501403939
 51
270.0007319787208
  0
LINE
  5
5F58
330
1A
100
AcDbEntity
  8
NOKITOI
  6
PHANTOM
 62
     8
100
AcDbLine
 10
365.9736351032185
 20
162.783059019235
 30
0.0
 11
365.5834351032186
 21
150.298759019235
 31
0.0
  0
LINE
  5
5F59
330
1A
100
AcDbEntity
  8
NOKITOI
  6
PHANTOM
 62
     8
100
AcDbLine
 10
358.6766351032183
 20
156.5455590192351
 30
0.0
 11
358.4954351032183
 21
159.9870590192352
 31
0.0
  0
ARC
  5
5F5A
330
1A
100
AcDbEntity
  8
NOKITOI
  6
PHANTOM
 62
     8
100
AcDbCircle
 10
360.5229148905491
 20
154.845617747615
 30
0.0
 40
5.2000412730095
100
AcDbArc
 50
37.92420092094534
 51
89.99867545693822
  0
LINE
  5
5F5B
330
1A
100
AcDbEntity
  8
NOKITOI
  6
PHANTOM
 62
     8
100
AcDbLine
 10
364.774235103218
 20
162.820559019235
 30
0.0
 11
364.6248351032186
 21
158.0416590192351
 31
0.0
  0
ARC
  5
5F5C
330
1A
100
AcDbEntity
  8
NOKITOI
  6
PHANTOM
 62
     8
100
AcDbCircle
 10
360.5229972217717
 20
154.8456028017604
 30
0.0
 40
3.999989731271038
100
AcDbArc
 50
358.2100163932687
 51
83.52268857986723
  0
ARC
  5
5F5D
330
1A
100
AcDbEntity
  8
NOKITOI
  6
PHANTOM
 62
     8
100
AcDbCircle
 10
360.9178208848029
 20
158.3232443849341
 30
0.0
 40
0.5000073448410256
100
AcDbArc
 50
83.52170717003247
 51
188.1270521358761
  0
LINE
  5
5F5E
330
1A
100
AcDbEntity
  8
NOKITOI
  6
PHANTOM
 62
     8
100
AcDbLine
 10
359.454535103218
 20
156.5455590192351
 30
0.0
 11
359.0504351032183
 21
159.373959019235
 31
0.0
  0
LINE
  5
5F5F
330
1A
100
AcDbEntity
  8
NOKITOI
  6
PHANTOM
 62
     8
100
AcDbLine
 10
357.5131351032183
 20
155.819359019235
 30
0.0
 11
357.1973351032184
 21
161.819259019235
 31
0.0
  0
ARC
  5
5F61
330
1A
100
AcDbEntity
  8
NOKITOI
  6
PHANTOM
 62
     8
100
AcDbCircle
 10
356.39562253351
 20
149.5455473945054
 30
0.0
 40
0.5000116248877112
100
AcDbArc
 50
89.9985596510162
 51
175.5251531916576
  0
ARC
  5
5F62
330
1A
100
AcDbEntity
  8
NOKITOI
  6
PHANTOM
 62
     8
100
AcDbCircle
 10
362.43652153108
 20
152.0455458641486
 30
0.0
 40
1.999986844959662
100
AcDbArc
 50
270.0003888156783
 51
358.2124468147644
  0
ARC
  5
5F63
330
1A
100
AcDbEntity
  8
NOKITOI
  6
PHANTOM
 62
     8
100
AcDbCircle
 10
364.0841991440676
 20
150.3455241650918
 30
0.0
 40
1.499965146287778
100
AcDbArc
 50
270.0013735703027
 51
358.2133719782233
  0
LINE
  5
5F64
330
1A
100
AcDbEntity
  8
NOKITOI
  6
PHANTOM
 62
     8
100
AcDbLine
 10
364.4355351032186
 20
151.9831590192351
 30
0.0
 11
364.5210351032183
 21
154.720659019235
 31
0.0
  0
ARC
  5
5F67
330
1A
100
AcDbEntity
  8
NOKITOI
  6
PHANTOM
 62
     8
100
AcDbCircle
 10
358.0125419902133
 20
155.8455524841495
 30
0.0
 40
0.4999934649619629
100
AcDbArc
 50
183.0029638682578
 51
269.999210798213
  0
LINE
  5
5F68
330
1A
100
AcDbEntity
  8
NOKITOI
  6
PHANTOM
 62
     8
100
AcDbLine
 10
358.6766351032183
 20
156.5455590192351
 30
0.0
 11
359.454535103218
 21
156.5455590192351
 31
0.0
  0
ARC
  5
5F69
330
1A
100
AcDbEntity
  8
NOKITOI
  6
PHANTOM
 62
     8
100
AcDbCircle
 10
360.2616085026208
 20
155.8455283423529
 30
0.0
 40
0.4999693238254178
100
AcDbArc
 50
270.0030483909626
 51
8.144496122947039
  0
LINE
  5
5F6A
330
1A
100
AcDbEntity
  8
NOKITOI
  6
PHANTOM
 62
     8
100
AcDbLine
 10
358.0125351032185
 20
155.345559019235
 30
0.0
 11
360.2616351032185
 21
155.345559019235
 31
0.0
  0
LINE
  5
5F6B
330
1A
100
AcDbEntity
  8
NOKITOI
  6
PHANTOM
 62
     8
100
AcDbLine
 10
360.7565351032186
 20
155.9163590192353
 30
0.0
 11
360.4228351032185
 21
158.2525590192351
 31
0.0
  0
LINE
  5
5F6C
330
1A
100
AcDbEntity
  8
NOKITOI
  6
PHANTOM
 62
     8
100
AcDbLine
 10
364.0842351032183
 20
148.845559019235
 30
0.0
 11
357.9395351032185
 21
148.845559019235
 31
0.0
  0
LINE
  5
5F6D
330
1A
100
AcDbEntity
  8
NOKITOI
  6
PHANTOM
 62
     8
100
AcDbLine
 10
356.395635103218
 20
150.0455590192351
 30
0.0
 11
362.4365351032185
 21
150.0455590192351
 31
0.0
  0
ARC
  5
5F6E
330
1A
100
AcDbEntity
  8
NOKITOI
  6
PHANTOM
 62
     8
100
AcDbCircle
 10
357.9395435273809
 20
147.8455665342915
 30
0.0
 40
0.9999924849789756
100
AcDbArc
 50
90.00048267258872
 51
173.4717353933259
  0
ARC
  5
5F71
330
1A
100
AcDbEntity
  8
NOKITOI
  6
PHANTOM
 62
     8
100
AcDbCircle
 10
363.9746306084203
 20
162.845563656762
 30
0.0
 40
0.7999953624857498
100
AcDbArc
 50
358.2088726535806
 51
89.99967808194737
  0
ARC
  5
5F72
330
1A
100
AcDbEntity
  8
NOKITOI
  6
PHANTOM
 62
     8
100
AcDbCircle
 10
363.9746223523684
 20
162.8455721743215
 30
0.0
 40
1.999986844954075
100
AcDbArc
 50
358.2116927117295
 51
89.99963471264713
  0
ARC
  5
5F74
330
1A
100
AcDbEntity
  8
NOKITOI
  6
PHANTOM
 62
     8
100
AcDbCircle
 10
360.6480358862268
 20
164.3455599742368
 30
0.0
 40
0.4999990449987349
100
AcDbArc
 50
90.00008972630672
 51
191.3032801984551
  0
LINE
  5
5F75
330
1A
100
AcDbEntity
  8
NOKITOI
  6
PHANTOM
 62
     8
100
AcDbLine
 10
363.9746351032187
 20
164.845559019235
 30
0.0
 11
360.6480351032183
 21
164.845559019235
 31
0.0
  0
LINE
  5
5F76
330
1A
100
AcDbEntity
  8
NOKITOI
  6
PHANTOM
 62
     8
100
AcDbLine
 10
357.6967351032186
 20
162.345559019235
 30
0.0
 11
359.9282351032185
 21
162.345559019235
 31
0.0
  0
LINE
  5
5F77
330
1A
100
AcDbEntity
  8
NOKITOI
  6
PHANTOM
 62
     8
100
AcDbLine
 10
359.0504351032183
 20
159.373959019235
 30
0.0
 11
358.4954351032183
 21
159.9870590192352
 31
0.0
  0
ARC
  5
5F78
330
1A
100
AcDbEntity
  8
NOKITOI
  6
PHANTOM
 62
     8
100
AcDbCircle
 10
359.9282423577739
 20
162.8455678690785
 30
0.0
 40
0.5000088498959383
100
AcDbArc
 50
269.9991687038574
 51
11.31359566951082
  0
LINE
  5
5F79
330
1A
100
AcDbEntity
  8
NOKITOI
  6
PHANTOM
 62
     8
100
AcDbLine
 10
360.0611351032181
 20
160.045559019235
 30
0.0
 11
360.5230351032183
 21
160.045559019235
 31
0.0
  0
LINE
  5
5F7A
330
1A
100
AcDbEntity
  8
NOKITOI
  6
PHANTOM
 62
     8
100
AcDbLine
 10
360.0611351032181
 20
160.045559019235
 30
0.0
 11
359.0653351032183
 21
161.1455590192353
 31
0.0
  0
LINE
  5
5F7B
330
1A
100
AcDbEntity
  8
NOKITOI
  6
PHANTOM
 62
     8
100
AcDbLine
 10
361.5018351032181
 20
163.6455590192351
 30
0.0
 11
362.0018351032181
 21
161.1455590192353
 31
0.0
  0
LINE
  5
5F7C
330
1A
100
AcDbEntity
  8
NOKITOI
  6
PHANTOM
 62
     8
100
AcDbLine
 10
363.9746351032187
 20
163.6455590192351
 30
0.0
 11
361.5018351032181
 21
163.6455590192351
 31
0.0
  0
LINE
  5
5F7D
330
1A
100
AcDbEntity
  8
NOKITOI
  6
PHANTOM
 62
     8
100
AcDbLine
 10
362.0018351032181
 20
161.1455590192353
 30
0.0
 11
359.0653351032183
 21
161.1455590192353
 31
0.0
  0
LINE
  5
5F7E
330
1A
100
AcDbEntity
  8
NOKITOI
  6
PHANTOM
 62
     8
100
AcDbLine
 10
360.4185351032183
 20
162.943659019235
 30
0.0
 11
360.1577351032184
 21
164.2475590192351
 31
0.0
  0
ARC
  5
5F7F
330
1A
100
AcDbEntity
  8
NOKITOI
  6
PHANTOM
 62
     8
100
AcDbCircle
 10
357.6967413043762
 20
161.8455655543202
 30
0.0
 40
0.4999934649531607
100
AcDbArc
 50
90.00071060961756
 51
183.0044636796623
  0
LINE
  5
5F8D
330
1A
100
AcDbEntity
  8
NOKITOI
  6
PHANTOM
 62
     8
100
AcDbLine
 10
255.1281351032181
 20
147.945059019235
 30
0.0
 11
257.9969351032183
 21
119.257659019235
 31
0.0
  0
LINE
  5
5F8E
330
1A
100
AcDbEntity
  8
NOKITOI
  6
PHANTOM
 62
     8
100
AcDbLine
 10
256.1691351032183
 20
149.5953590192351
 30
0.0
 11
259.1621351032187
 21
119.665559019235
 31
0.0
  0
ARC
  5
5F96
330
1A
100
AcDbEntity
  8
NOKITOI
  6
PHANTOM
 62
     8
100
AcDbCircle
 10
258.9919576760871
 20
119.3571169475625
 30
0.0
 40
0.9999908507640039
100
AcDbArc
 50
185.713767052247
 51
230.7112907769309
  0
ARC
  5
5F97
330
1A
100
AcDbEntity
  8
NOKITOI
  6
PHANTOM
 62
     8
100
AcDbCircle
 10
259.6596525290966
 20
119.715226532847
 30
0.0
 40
0.4999904508696396
100
AcDbArc
 50
185.7009889250759
 51
230.7099153622047
  0
LINE
  5
5FB3
330
1A
100
AcDbEntity
  8
NOKITOI
  6
PHANTOM
 62
     8
100
AcDbLine
 10
246.1026351032184
 20
162.783059019235
 30
0.0
 11
246.4927351032184
 21
150.298659019235
 31
0.0
  0
ARC
  5
5FB4
330
1A
100
AcDbEntity
  8
NOKITOI
  6
PHANTOM
 62
     8
100
AcDbCircle
 10
251.1584057307187
 20
158.32318925173
 30
0.0
 40
0.4999578477751074
100
AcDbArc
 50
351.8669438287067
 51
96.47390928779245
  0
ARC
  5
5FB5
330
1A
100
AcDbEntity
  8
NOKITOI
  6
PHANTOM
 62
     8
100
AcDbCircle
 10
251.5531529695695
 20
154.845567747615
 30
0.0
 40
5.199991271650611
100
AcDbArc
 50
90.000196859276
 51
142.074671395269
  0
LINE
  5
5FB6
330
1A
100
AcDbEntity
  8
NOKITOI
  6
PHANTOM
 62
     8
100
AcDbLine
 10
253.3996351032184
 20
156.5455590192351
 30
0.0
 11
253.5807351032186
 21
159.986959019235
 31
0.0
  0
LINE
  5
5FB7
330
1A
100
AcDbEntity
  8
NOKITOI
  6
PHANTOM
 62
     8
100
AcDbLine
 10
254.5630351032183
 20
155.8192590192351
 30
0.0
 11
254.8788351032186
 21
161.819259019235
 31
0.0
  0
LINE
  5
5FB8
330
1A
100
AcDbEntity
  8
NOKITOI
  6
PHANTOM
 62
     8
100
AcDbLine
 10
252.6217351032188
 20
156.5455590192351
 30
0.0
 11
253.0257351032183
 21
159.373959019235
 31
0.0
  0
LINE
  5
5FB9
330
1A
100
AcDbEntity
  8
NOKITOI
  6
PHANTOM
 62
     8
100
AcDbLine
 10
247.3020351032188
 20
162.820559019235
 30
0.0
 11
247.4513351032184
 21
158.0415590192352
 31
0.0
  0
ARC
  5
5FBA
330
1A
100
AcDbEntity
  8
NOKITOI
  6
PHANTOM
 62
     8
100
AcDbCircle
 10
251.5531660301545
 20
154.8455947638989
 30
0.0
 40
3.99998565374706
100
AcDbArc
 50
96.47577619531659
 51
181.791303340899
  0
ARC
  5
5FC0
330
1A
100
AcDbEntity
  8
NOKITOI
  6
PHANTOM
 62
     8
100
AcDbCircle
 10
249.6396971153941
 20
152.0454958398073
 30
0.0
 40
2.000036820932881
100
AcDbArc
 50
181.7889408725805
 51
270.0010882509654
  0
LINE
  5
5FC1
330
1A
100
AcDbEntity
  8
NOKITOI
  6
PHANTOM
 62
     8
100
AcDbLine
 10
247.9920351032184
 20
148.845559019235
 30
0.0
 11
254.1331351032181
 21
148.845559019235
 31
0.0
  0
LINE
  5
5FC7
330
1A
100
AcDbEntity
  8
NOKITOI
  6
PHANTOM
 62
     8
100
AcDbLine
 10
253.3996351032184
 20
156.5455590192351
 30
0.0
 11
252.6217351032188
 21
156.5455590192351
 31
0.0
  0
LINE
  5
5FC8
330
1A
100
AcDbEntity
  8
NOKITOI
  6
PHANTOM
 62
     8
100
AcDbLine
 10
254.0637351032184
 20
155.345559019235
 30
0.0
 11
251.8146351032187
 21
155.345559019235
 31
0.0
  0
ARC
  5
5FC9
330
1A
100
AcDbEntity
  8
NOKITOI
  6
PHANTOM
 62
     8
100
AcDbCircle
 10
254.0637309818116
 20
155.8455551092046
 30
0.0
 40
0.4999960899864753
100
AcDbArc
 50
270.0004722821422
 51
356.9852756208258
  0
ARC
  5
5FCA
330
1A
100
AcDbEntity
  8
NOKITOI
  6
PHANTOM
 62
     8
100
AcDbCircle
 10
251.8146249167821
 20
155.8455707639591
 30
0.0
 40
0.500011744827831
100
AcDbArc
 50
171.8726853912845
 51
270.0011672521998
  0
LINE
  5
5FCB
330
1A
100
AcDbEntity
  8
NOKITOI
  6
PHANTOM
 62
     8
100
AcDbLine
 10
251.3196351032184
 20
155.916259019235
 30
0.0
 11
251.6534351032182
 21
158.2524590192353
 31
0.0
  0
ARC
  5
5FCC
330
1A
100
AcDbEntity
  8
NOKITOI
  6
PHANTOM
 62
     8
100
AcDbCircle
 10
255.6716220322138
 20
149.545570849515
 30
0.0
 40
0.4999881698908891
100
AcDbArc
 50
5.703393862283577
 51
89.99850213773529
  0
ARC
  5
5FCD
330
1A
100
AcDbEntity
  8
NOKITOI
  6
PHANTOM
 62
     8
100
AcDbCircle
 10
254.1331144533774
 20
147.8455777070843
 30
0.0
 40
0.9999813123640343
100
AcDbArc
 50
5.709409966648593
 51
89.99881682915091
  0
LINE
  5
5FCE
330
1A
100
AcDbEntity
  8
NOKITOI
  6
PHANTOM
 62
     8
100
AcDbLine
 10
255.6716351032187
 20
150.0455590192351
 30
0.0
 11
249.6397351032184
 21
150.0455590192351
 31
0.0
  0
ARC
  5
5FD0
330
1A
100
AcDbEntity
  8
NOKITOI
  6
PHANTOM
 62
     8
100
AcDbCircle
 10
247.9920178900403
 20
150.3455757023829
 30
0.0
 40
1.500016683246579
100
AcDbArc
 50
181.7923576755886
 51
270.0006574876639
  0
LINE
  5
5FD1
330
1A
100
AcDbEntity
  8
NOKITOI
  6
PHANTOM
 62
     8
100
AcDbLine
 10
247.6406351032184
 20
151.9829590192351
 30
0.0
 11
247.5551351032187
 21
154.720559019235
 31
0.0
  0
LINE
  5
5FD5
330
1A
100
AcDbEntity
  8
NOKITOI
  6
PHANTOM
 62
     8
100
AcDbLine
 10
248.101635103218
 20
163.645459019235
 30
0.0
 11
250.5743351032184
 21
163.6455590192351
 31
0.0
  0
LINE
  5
5FD6
330
1A
100
AcDbEntity
  8
NOKITOI
  6
PHANTOM
 62
     8
100
AcDbLine
 10
248.101635103218
 20
164.8454590192351
 30
0.0
 11
251.4282351032185
 21
164.845559019235
 31
0.0
  0
LINE
  5
5FD7
330
1A
100
AcDbEntity
  8
NOKITOI
  6
PHANTOM
 62
     8
100
AcDbLine
 10
250.5743351032184
 20
163.6455590192351
 30
0.0
 11
250.0743351032184
 21
161.1455590192353
 31
0.0
  0
ARC
  5
5FD8
330
1A
100
AcDbEntity
  8
NOKITOI
  6
PHANTOM
 62
     8
100
AcDbCircle
 10
251.4282423577738
 20
164.3455501693916
 30
0.0
 40
0.500008849895925
100
AcDbArc
 50
348.6864043304874
 51
90.00083129614584
  0
LINE
  5
5FD9
330
1A
100
AcDbEntity
  8
NOKITOI
  6
PHANTOM
 62
     8
100
AcDbLine
 10
253.0257351032183
 20
159.373959019235
 30
0.0
 11
253.5807351032186
 21
159.986959019235
 31
0.0
  0
LINE
  5
5FDA
330
1A
100
AcDbEntity
  8
NOKITOI
  6
PHANTOM
 62
     8
100
AcDbLine
 10
254.3795351032181
 20
162.345559019235
 30
0.0
 11
252.1480351032183
 21
162.345559019235
 31
0.0
  0
ARC
  5
5FDB
330
1A
100
AcDbEntity
  8
NOKITOI
  6
PHANTOM
 62
     8
100
AcDbCircle
 10
252.1480358862269
 20
162.8455580642333
 30
0.0
 40
0.4999990449987399
100
AcDbArc
 50
168.6967198015449
 51
269.9999102736965
  0
LINE
  5
5FDC
330
1A
100
AcDbEntity
  8
NOKITOI
  6
PHANTOM
 62
     8
100
AcDbLine
 10
252.0151351032183
 20
160.045559019235
 30
0.0
 11
251.5531351032183
 21
160.045559019235
 31
0.0
  0
LINE
  5
5FDD
330
1A
100
AcDbEntity
  8
NOKITOI
  6
PHANTOM
 62
     8
100
AcDbLine
 10
252.0151351032183
 20
160.045559019235
 30
0.0
 11
253.0109351032184
 21
161.1455590192353
 31
0.0
  0
ARC
  5
5FDE
330
1A
100
AcDbEntity
  8
NOKITOI
  6
PHANTOM
 62
     8
100
AcDbCircle
 10
254.3795313937231
 20
161.8455629292658
 30
0.0
 40
0.4999960899831856
100
AcDbArc
 50
356.9843782585351
 51
89.9995749198508
  0
LINE
  5
5FDF
330
1A
100
AcDbEntity
  8
NOKITOI
  6
PHANTOM
 62
     8
100
AcDbLine
 10
251.6577351032184
 20
162.9435590192351
 30
0.0
 11
251.9185351032184
 21
164.2475590192351
 31
0.0
  0
LINE
  5
5FE0
330
1A
100
AcDbEntity
  8
NOKITOI
  6
PHANTOM
 62
     8
100
AcDbLine
 10
250.0743351032184
 20
161.1455590192353
 30
0.0
 11
253.0109351032184
 21
161.1455590192353
 31
0.0
  0
ARC
  5
5FE2
330
1A
100
AcDbEntity
  8
NOKITOI
  6
PHANTOM
 62
     8
100
AcDbCircle
 10
248.1015911368654
 20
162.845513656762
 30
0.0
 40
0.7999453636812564
100
AcDbArc
 50
89.99685092684577
 51
181.7876563552118
  0
ARC
  5
5FE3
330
1A
100
AcDbEntity
  8
NOKITOI
  6
PHANTOM
 62
     8
100
AcDbCircle
 10
248.1016463402125
 20
162.8455706130521
 30
0.0
 40
1.999988406214314
100
AcDbArc
 50
90.00032191804612
 51
181.7911273464061
  0
LINE
  5
74E1
330
1A
100
AcDbEntity
  8
CENTER_L
100
AcDbLine
 10
398.8349675799904
 20
463.9717334114411
 30
0.0
 11
244.7588005799905
 21
463.9717334114411
 31
0.0
  0
LINE
  5
74E2
330
1A
100
AcDbEntity
  8
SEIHIN
 62
     6
100
AcDbLine
 10
386.6000845799904
 20
336.8286029576413
 30
0.0
 11
403.8169735799904
 21
343.5656459576414
 31
0.0
  0
LINE
  5
74E3
330
1A
100
AcDbEntity
  8
SEIHIN
 62
     6
100
AcDbLine
 10
404.9101715799904
 20
340.7719179576413
 30
0.0
 11
387.3600165799903
 21
333.9044649576413
 31
0.0
  0
LINE
  5
74E4
330
1A
100
AcDbEntity
  8
SEIHIN
 62
     6
100
AcDbLine
 10
385.9668085799904
 20
339.2653829576413
 30
0.0
 11
402.8606295799906
 21
345.8760089576413
 31
0.0
  0
LINE
  5
74E5
330
1A
100
AcDbEntity
  8
CENTER_L
100
AcDbLine
 10
381.8043091527521
 20
308.7640246933243
 30
0.0
 11
395.8014364072007
 21
315.8753123343903
 31
0.0
  0
LINE
  5
74E6
330
1A
100
AcDbEntity
  8
SEIHIN
100
AcDbLine
 10
379.3288305799904
 20
489.6339154114413
 30
0.0
 11
390.8349675799904
 21
489.6339154114413
 31
0.0
  0
LINE
  5
74E7
330
1A
100
AcDbEntity
  8
SEIHIN
100
AcDbLine
 10
376.7153565799904
 20
472.2235264114411
 30
0.0
 11
389.8172475799904
 21
472.2235274114411
 31
0.0
  0
LINE
  5
74E8
330
1A
100
AcDbEntity
  8
SEIHIN
100
AcDbLine
 10
388.5031575799903
 20
475.3381234114412
 30
0.0
 11
390.4470425799904
 21
475.3381234114412
 31
0.0
  0
LINE
  5
74E9
330
1A
100
AcDbEntity
  8
SEIHIN
100
AcDbLine
 10
390.4470425799904
 20
475.3381234114412
 30
0.0
 11
389.1245125799903
 21
472.8472274114412
 31
0.0
  0
LINE
  5
74EA
330
1A
100
AcDbEntity
  8
SEIHIN
100
AcDbLine
 10
390.4470425799904
 20
472.8472274114412
 30
0.0
 11
388.5031575799903
 21
472.8472274114412
 31
0.0
  0
LINE
  5
74EB
330
1A
100
AcDbEntity
  8
SEIHIN
100
AcDbLine
 10
389.0438795799906
 20
468.9717334114411
 30
0.0
 11
392.8349645799904
 21
468.9717334114411
 31
0.0
  0
LINE
  5
74EC
330
1A
100
AcDbEntity
  8
SEIHIN
100
AcDbLine
 10
389.8164615799903
 20
455.7343024114412
 30
0.0
 11
376.7145705799904
 21
455.7343014114412
 31
0.0
  0
LINE
  5
74ED
330
1A
100
AcDbEntity
  8
SEIHIN
100
AcDbLine
 10
390.4470425799904
 20
455.1168804114412
 30
0.0
 11
388.5031575799903
 21
455.1168804114412
 31
0.0
  0
LINE
  5
74EE
330
1A
100
AcDbEntity
  8
SEIHIN
100
AcDbLine
 10
390.4470425799904
 20
452.625983411441
 30
0.0
 11
389.1245125799903
 21
455.1168804114412
 31
0.0
  0
LINE
  5
74EF
330
1A
100
AcDbEntity
  8
SEIHIN
100
AcDbLine
 10
388.5031575799903
 20
452.625983411441
 30
0.0
 11
390.4470425799904
 21
452.625983411441
 31
0.0
  0
LINE
  5
74F0
330
1A
100
AcDbEntity
  8
SEIHIN
100
AcDbLine
 10
392.8349715799904
 20
458.9717334114411
 30
0.0
 11
389.0438795799906
 21
458.9717334114411
 31
0.0
  0
LINE
  5
74F1
330
1A
100
AcDbEntity
  8
SEIHIN
100
AcDbLine
 10
392.8349715799904
 20
456.4717884114411
 30
0.0
 11
297.6836565799905
 21
456.4714984114411
 31
0.0
  0
LINE
  5
74F2
330
1A
100
AcDbEntity
  8
SEIHIN
100
AcDbLine
 10
392.8349645799904
 20
471.4717884114413
 30
0.0
 11
297.6837925799906
 21
471.4714984114412
 31
0.0
  0
LINE
  5
74F3
330
1A
100
AcDbEntity
  8
SEIHIN
100
AcDbLine
 10
379.3288305799904
 20
438.3301884114412
 30
0.0
 11
390.8349675799904
 21
438.3301884114412
 31
0.0
  0
LINE
  5
74F4
330
1A
100
AcDbEntity
  8
SEIHIN
100
AcDbLine
 10
388.7532085799903
 20
306.1253139576413
 30
0.0
 11
393.8349675799904
 21
308.7071189576414
 31
0.0
  0
LINE
  5
74F5
330
1A
100
AcDbEntity
  8
SEIHIN
100
AcDbLine
 10
376.4589865799903
 20
340.2589059576412
 30
0.0
 11
392.7651235799903
 21
308.1635809576412
 31
0.0
  0
LINE
  5
74F6
330
1A
100
AcDbEntity
  8
SEIHIN
100
AcDbLine
 10
377.5288305799904
 20
340.8024439576414
 30
0.0
 11
393.8349675799904
 21
308.7071189576414
 31
0.0
  0
LINE
  5
7501
330
1A
100
AcDbEntity
  8
SEIHIN
100
AcDbLine
 10
257.2358925799905
 20
472.4715304114411
 30
0.0
 11
264.0549455799904
 21
472.4715304114411
 31
0.0
  0
LINE
  5
7502
330
1A
100
AcDbEntity
  8
SEIHIN
100
AcDbLine
 10
257.4906725799904
 20
473.4715304114411
 30
0.0
 11
264.0549495799906
 21
473.4715014114412
 31
0.0
  0
LINE
  5
7503
330
1A
100
AcDbEntity
  8
SEIHIN
100
AcDbLine
 10
257.2358925799905
 20
455.4715304114411
 30
0.0
 11
264.0549455799904
 21
455.471559411441
 31
0.0
  0
LINE
  5
7504
330
1A
100
AcDbEntity
  8
SEIHIN
100
AcDbLine
 10
257.4906725799904
 20
454.4715294114411
 30
0.0
 11
264.0549495799906
 21
454.4715584114412
 31
0.0
  0
LINE
  5
7505
330
1A
100
AcDbEntity
  8
SEIHIN
100
AcDbLine
 10
257.9880915799904
 20
310.2248719576413
 30
0.0
 11
264.0546665799905
 21
310.2248719576413
 31
0.0
  0
ARC
  5
7506
330
1A
100
AcDbEntity
  8
SEIHIN
100
AcDbCircle
 10
256.9120885799905
 20
310.5145569576412
 30
0.0
 40
1.499999818375476
100
AcDbArc
 50
4.583278706660171
 51
90.0
  0
ARC
  5
7507
330
1A
100
AcDbEntity
  8
SEIHIN
100
AcDbCircle
 10
259.4248335799905
 20
306.7248719576413
 30
0.0
 40
1.500000051426164
100
AcDbArc
 50
190.3932883742413
 51
269.9999965545381
  0
LINE
  5
7509
330
1A
100
AcDbEntity
  8
SEIHIN
100
AcDbLine
 10
250.7588005799906
 20
455.7215304114412
 30
0.0
 11
250.7588005799906
 21
472.2215304114412
 31
0.0
  0
LINE
  5
750A
330
1A
100
AcDbEntity
  8
SEIHIN
100
AcDbLine
 10
249.7588005799905
 20
455.7215304114412
 30
0.0
 11
249.7588005799905
 21
472.2215304114412
 31
0.0
  0
ARC
  5
750B
330
1A
100
AcDbEntity
  8
SEIHIN
100
AcDbCircle
 10
298.0800165799903
 20
313.8147479576413
 30
0.0
 40
40.79999412073524
100
AcDbArc
 50
184.5832787066593
 51
190.3933058531252
  0
ARC
  5
750C
330
1A
100
AcDbEntity
  8
SEIHIN
100
AcDbCircle
 10
251.7588005799905
 20
313.0145569576412
 30
0.0
 40
2.000000158243611
100
AcDbArc
 50
175.5000039676396
 51
269.9999977523173
  0
LINE
  5
750D
330
1A
100
AcDbEntity
  8
SEIHIN
100
AcDbLine
 10
249.7649665799904
 20
313.1714749576413
 30
0.0
 11
250.2252835799905
 21
319.0203689576414
 31
0.0
  0
LINE
  5
750E
330
1A
100
AcDbEntity
  8
SEIHIN
100
AcDbLine
 10
251.2222015799905
 20
318.9419099576413
 30
0.0
 11
250.2252835799905
 21
319.0203689576414
 31
0.0
  0
LINE
  5
750F
330
1A
100
AcDbEntity
  8
SEIHIN
100
AcDbLine
 10
251.7588005799905
 20
311.0145569576412
 30
0.0
 11
256.9120885799905
 21
311.0145569576412
 31
0.0
  0
LINE
  5
7510
330
1A
100
AcDbEntity
  8
SEIHIN
100
AcDbLine
 10
256.9120885799905
 20
312.0145569576412
 30
0.0
 11
251.7588005799905
 21
312.0145569576412
 31
0.0
  0
LINE
  5
7511
330
1A
100
AcDbEntity
  8
SEIHIN
100
AcDbLine
 10
253.4998245799905
 20
312.0145569576412
 30
0.0
 11
253.4998245799905
 21
311.0145569576412
 31
0.0
  0
ARC
  5
7512
330
1A
100
AcDbEntity
  8
SEIHIN
100
AcDbCircle
 10
251.7588005799905
 20
313.0145569576412
 30
0.0
 40
0.9999998298924708
100
AcDbArc
 50
175.5000039676389
 51
270.0
  0
LINE
  5
7513
330
1A
100
AcDbEntity
  8
SEIHIN
100
AcDbLine
 10
250.8318835799905
 20
313.9824479576414
 30
0.0
 11
252.7997735799905
 21
312.0145569576412
 31
0.0
  0
LINE
  5
7514
330
1A
100
AcDbEntity
  8
SEIHIN
100
AcDbLine
 10
250.7618835799904
 20
313.0930159576414
 30
0.0
 11
251.2222015799905
 21
318.9419099576413
 31
0.0
  0
ARC
  5
7515
330
1A
100
AcDbEntity
  8
SEIHIN
100
AcDbCircle
 10
256.9120885799905
 20
310.5145569576412
 30
0.0
 40
0.4999999394584928
100
AcDbArc
 50
4.583221594081381
 51
89.99994288741405
  0
ARC
  5
7516
330
1A
100
AcDbEntity
  8
SEIHIN
100
AcDbCircle
 10
257.9880915799904
 20
309.7248719576413
 30
0.0
 40
0.4999997593863843
100
AcDbArc
 50
89.99999418527593
 51
185.8247471985338
  0
LINE
  5
7517
330
1A
100
AcDbEntity
  8
SEIHIN
100
AcDbLine
 10
256.3617965799904
 20
312.0145569576412
 30
0.0
 11
256.3617965799904
 21
311.0145569576412
 31
0.0
  0
LINE
  5
7518
330
1A
100
AcDbEntity
  8
SEIHIN
100
AcDbLine
 10
249.7588005799905
 20
455.7215304114412
 30
0.0
 11
252.9382715799905
 21
455.7215304114412
 31
0.0
  0
ARC
  5
7519
330
1A
100
AcDbEntity
  8
SEIHIN
100
AcDbCircle
 10
254.9998245799904
 20
455.0965304114411
 30
0.0
 40
1.624999817959516
100
AcDbArc
 50
31.58817135149952
 51
141.7534063919613
  0
ARC
  5
751A
330
1A
100
AcDbEntity
  8
SEIHIN
100
AcDbCircle
 10
252.9382715799905
 20
456.7215304114411
 30
0.0
 40
0.9999999402282464
100
AcDbArc
 50
270.0
 51
321.7533469301778
  0
LINE
  5
751B
330
1A
100
AcDbEntity
  8
SEIHIN
100
AcDbLine
 10
250.7588005799906
 20
459.0555734114412
 30
0.0
 11
252.4908515799904
 21
458.0555734114411
 31
0.0
  0
LINE
  5
751C
330
1A
100
AcDbEntity
  8
SEIHIN
100
AcDbLine
 10
250.7588005799906
 20
457.0555734114411
 30
0.0
 11
252.4908515799904
 21
458.0555734114411
 31
0.0
  0
ARC
  5
751D
330
1A
100
AcDbEntity
  8
SEIHIN
100
AcDbCircle
 10
257.2358925799905
 20
456.4715304114411
 30
0.0
 40
0.9999999458312471
100
AcDbArc
 50
211.5881713515022
 51
270.0
  0
LINE
  5
751E
330
1A
100
AcDbEntity
  8
SEIHIN
100
AcDbLine
 10
257.4906725799904
 20
455.4715314114412
 30
0.0
 11
257.4906725799904
 21
454.4715294114411
 31
0.0
  0
LINE
  5
751F
330
1A
100
AcDbEntity
  8
SEIHIN
100
AcDbLine
 10
249.7588005799905
 20
472.2215304114412
 30
0.0
 11
252.9382715799905
 21
472.2215304114412
 31
0.0
  0
LINE
  5
7520
330
1A
100
AcDbEntity
  8
SEIHIN
100
AcDbLine
 10
257.4906725799904
 20
472.4715304114411
 30
0.0
 11
257.4906725799904
 21
473.4715304114411
 31
0.0
  0
ARC
  5
7521
330
1A
100
AcDbEntity
  8
SEIHIN
100
AcDbCircle
 10
254.9998245799904
 20
472.8465304114411
 30
0.0
 40
1.624999817959516
100
AcDbArc
 50
218.2466530698202
 51
328.4118881102776
  0
LINE
  5
7522
330
1A
100
AcDbEntity
  8
SEIHIN
100
AcDbLine
 10
250.7588005799906
 20
470.8874864114412
 30
0.0
 11
252.4908515799904
 21
469.8874864114412
 31
0.0
  0
LINE
  5
7523
330
1A
100
AcDbEntity
  8
SEIHIN
100
AcDbLine
 10
250.7588005799906
 20
468.8874864114412
 30
0.0
 11
252.4908515799904
 21
469.8874864114412
 31
0.0
  0
ARC
  5
7524
330
1A
100
AcDbEntity
  8
SEIHIN
100
AcDbCircle
 10
252.9382715799905
 20
471.2215304114411
 30
0.0
 40
1.000000332904888
100
AcDbArc
 50
38.24661760100019
 51
90.0
  0
ARC
  5
7525
330
1A
100
AcDbEntity
  8
SEIHIN
100
AcDbCircle
 10
257.2358925799905
 20
471.4715304114411
 30
0.0
 40
0.9999999458312471
100
AcDbArc
 50
90.0
 51
148.4118286484977
  0
ELLIPSE
  5
7526
330
1A
100
AcDbEntity
  8
SEIHIN
100
AcDbEllipse
 10
385.5338115799904
 20
463.9820534114412
 30
0.0
 11
0.0000000000000001
 21
-3.000001500001124
 31
0.0
210
0.0
220
0.0
230
-1.0
 40
0.4166664583332813
 41
-1.570796326794896
 42
4.712388980384688
  0
LINE
  5
7527
330
1A
100
AcDbEntity
  8
SEIHIN
100
AcDbLine
 10
382.1518375799904
 20
467.9820534114411
 30
0.0
 11
382.1518375799904
 21
459.9717534114411
 31
0.0
  0
ARC
  5
7528
330
1A
100
AcDbEntity
  8
SEIHIN
100
AcDbCircle
 10
405.7420405799903
 20
463.9717334114411
 30
0.0
 40
17.43067870772648
100
AcDbArc
 50
163.3304729704051
 51
196.669466841114
  0
LINE
  5
7529
330
1A
100
AcDbEntity
  8
SEIHIN
100
AcDbLine
 10
304.5714845799906
 20
460.9715304114411
 30
0.0
 11
304.5714845799906
 21
466.9715304114411
 31
0.0
  0
LINE
  5
752A
330
1A
100
AcDbEntity
  8
SEIHIN
100
AcDbLine
 10
303.9335785799904
 20
460.9715304114411
 30
0.0
 11
303.9335785799904
 21
466.9715304114411
 31
0.0
  0
LINE
  5
752B
330
1A
100
AcDbEntity
  8
SEIHIN
100
AcDbLine
 10
307.1580615799903
 20
458.0108694114412
 30
0.0
 11
307.1580615799903
 21
469.9321904114412
 31
0.0
  0
LINE
  5
752C
330
1A
100
AcDbEntity
  8
SEIHIN
100
AcDbLine
 10
350.9671185799906
 20
468.1706754114411
 30
0.0
 11
350.9671185799906
 21
459.6063164114411
 31
0.0
  0
LINE
  5
752D
330
1A
100
AcDbEntity
  8
SEIHIN
100
AcDbLine
 10
308.1010525799904
 20
457.9715304114412
 30
0.0
 11
308.1010525799904
 21
469.9715304114412
 31
0.0
  0
LINE
  5
752E
330
1A
100
AcDbEntity
  8
SEIHIN
100
AcDbLine
 10
296.1089615799903
 20
462.4715304114412
 30
0.0
 11
296.1089615799903
 21
465.4715304114411
 31
0.0
  0
LINE
  5
752F
330
1A
100
AcDbEntity
  8
SEIHIN
100
AcDbLine
 10
264.9135675799905
 20
460.9715304114411
 30
0.0
 11
264.9135675799905
 21
466.9715304114411
 31
0.0
  0
LINE
  5
7530
330
1A
100
AcDbEntity
  8
SEIHIN
100
AcDbLine
 10
264.4135675799905
 20
460.9715304114411
 30
0.0
 11
264.4135675799905
 21
466.9715304114411
 31
0.0
  0
LINE
  5
7531
330
1A
100
AcDbEntity
  8
SEIHIN
100
AcDbLine
 10
261.9135675799905
 20
460.9715304114411
 30
0.0
 11
261.9135675799905
 21
466.9715304114411
 31
0.0
  0
LINE
  5
7532
330
1A
100
AcDbEntity
  8
SEIHIN
100
AcDbLine
 10
259.9135675799905
 20
460.9715304114411
 30
0.0
 11
259.9135675799905
 21
466.9715304114411
 31
0.0
  0
LINE
  5
7533
330
1A
100
AcDbEntity
  8
SEIHIN
100
AcDbLine
 10
262.4135675799905
 20
460.9715304114411
 30
0.0
 11
262.4135675799905
 21
466.9715304114411
 31
0.0
  0
LINE
  5
7534
330
1A
100
AcDbEntity
  8
SEIHIN
100
AcDbLine
 10
269.7965425799905
 20
467.9715304114411
 30
0.0
 11
269.7965425799905
 21
459.9715304114411
 31
0.0
  0
LINE
  5
7535
330
1A
100
AcDbEntity
  8
SEIHIN
100
AcDbLine
 10
258.6237225799905
 20
470.6285104114412
 30
0.0
 11
258.6237225799905
 21
457.7825334114412
 31
0.0
  0
LINE
  5
7536
330
1A
100
AcDbEntity
  8
SEIHIN
100
AcDbLine
 10
266.3049015799904
 20
469.0715304114411
 30
0.0
 11
266.3049015799904
 21
458.8715304114412
 31
0.0
  0
LINE
  5
7537
330
1A
100
AcDbEntity
  8
SEIHIN
100
AcDbLine
 10
269.3049015799904
 20
469.0715304114411
 30
0.0
 11
269.3049015799904
 21
458.8715304114412
 31
0.0
  0
LINE
  5
7538
330
1A
100
AcDbEntity
  8
SEIHIN
100
AcDbLine
 10
286.1375445799905
 20
458.9715304114411
 30
0.0
 11
286.1375445799905
 21
468.9715304114411
 31
0.0
  0
LINE
  5
7539
330
1A
100
AcDbEntity
  8
SEIHIN
100
AcDbLine
 10
381.1518405799904
 20
458.9717534114411
 30
0.0
 11
308.1010675799906
 21
458.9715304114411
 31
0.0
  0
LINE
  5
753A
330
1A
100
AcDbEntity
  8
SEIHIN
100
AcDbLine
 10
287.0549455799903
 20
455.471558411441
 30
0.0
 11
337.7196165799903
 21
455.4717394114412
 31
0.0
  0
LINE
  5
753B
330
1A
100
AcDbEntity
  8
SEIHIN
100
AcDbLine
 10
287.0549495799906
 20
454.4715584114412
 30
0.0
 11
337.7196165799903
 21
454.4717394114412
 31
0.0
  0
LINE
  5
753C
330
1A
100
AcDbEntity
  8
SEIHIN
100
AcDbLine
 10
352.3600165799903
 20
333.9044649576413
 30
0.0
 11
310.3299615799905
 21
328.1730939576413
 31
0.0
  0
LINE
  5
753D
330
1A
100
AcDbEntity
  8
SEIHIN
100
AcDbLine
 10
351.6000845799903
 20
336.8286029576413
 30
0.0
 11
310.5377545799905
 21
331.2291939576413
 31
0.0
  0
LINE
  5
753E
330
1A
100
AcDbEntity
  8
SEIHIN
100
AcDbLine
 10
350.9668085799904
 20
339.2653829576413
 30
0.0
 11
310.1999715799905
 21
333.7062689576412
 31
0.0
  0
LINE
  5
753F
330
1A
100
AcDbEntity
  8
SEIHIN
100
AcDbLine
 10
287.0546495799905
 20
305.2248719576413
 30
0.0
 11
324.1571765799905
 21
305.2248719576413
 31
0.0
  0
LINE
  5
7540
330
1A
100
AcDbEntity
  8
SEIHIN
100
AcDbLine
 10
287.0546665799905
 20
310.2248719576413
 30
0.0
 11
324.1571765799905
 21
310.2248719576413
 31
0.0
  0
LINE
  5
7541
330
1A
100
AcDbEntity
  8
SEIHIN
100
AcDbLine
 10
295.8743785799904
 20
317.9245919576414
 30
0.0
 11
286.1954055799905
 21
322.3877669576413
 31
0.0
  0
LINE
  5
7542
330
1A
100
AcDbEntity
  8
SEIHIN
100
AcDbLine
 10
297.1110825799904
 20
316.3695919576413
 30
0.0
 11
287.0280775799905
 21
316.3695939576413
 31
0.0
  0
LINE
  5
7543
330
1A
100
AcDbEntity
  8
SEIHIN
100
AcDbLine
 10
269.3045915799905
 20
315.7248789576413
 30
0.0
 11
269.3045915799905
 21
308.5249139576414
 31
0.0
  0
LINE
  5
7544
330
1A
100
AcDbEntity
  8
SEIHIN
100
AcDbLine
 10
266.3045915799906
 20
308.5249139576414
 30
0.0
 11
266.3045915799906
 21
315.7248789576413
 31
0.0
  0
LINE
  5
7545
330
1A
100
AcDbEntity
  8
SEIHIN
100
AcDbLine
 10
266.0545915799906
 20
316.0249109576414
 30
0.0
 11
266.0545915799906
 21
308.5249109576412
 31
0.0
  0
LINE
  5
7546
330
1A
100
AcDbEntity
  8
SEIHIN
100
AcDbLine
 10
269.5545915799905
 20
316.0249139576412
 30
0.0
 11
269.5545915799905
 21
308.5249139576414
 31
0.0
  0
LINE
  5
7547
330
1A
100
AcDbEntity
  8
SEIHIN
100
AcDbLine
 10
264.0546415799905
 20
303.2249549576413
 30
0.0
 11
264.0546915799905
 21
317.2249119576412
 31
0.0
  0
LINE
  5
7548
330
1A
100
AcDbEntity
  8
SEIHIN
100
AcDbLine
 10
287.0546415799905
 20
303.2249549576413
 30
0.0
 11
287.0546915799906
 21
317.2249139576413
 31
0.0
  0
LINE
  5
7549
330
1A
100
AcDbEntity
  8
SEIHIN
100
AcDbLine
 10
264.0546415799905
 20
303.2249549576413
 30
0.0
 11
287.0546415799905
 21
303.2249549576413
 31
0.0
  0
LINE
  5
754A
330
1A
100
AcDbEntity
  8
SEIHIN
100
AcDbLine
 10
266.0545915799906
 20
308.5249109576412
 30
0.0
 11
269.5545915799905
 21
308.5249139576414
 31
0.0
  0
LINE
  5
754B
330
1A
100
AcDbEntity
  8
SEIHIN
100
AcDbLine
 10
259.4248335799905
 20
305.2248719576413
 30
0.0
 11
264.0546495799905
 21
305.2248719576413
 31
0.0
  0
LINE
  5
754C
330
1A
100
AcDbEntity
  8
SEIHIN
100
AcDbLine
 10
285.3579125799905
 20
322.5715589576414
 30
0.0
 11
269.7966305799905
 21
322.5715379576413
 31
0.0
  0
ARC
  5
754D
330
1A
100
AcDbEntity
  8
SEIHIN
100
AcDbCircle
 10
275.5546935799905
 20
306.5000439576412
 30
0.0
 40
15.72491078112709
100
AcDbArc
 50
43.00252833503147
 51
136.9974830730984
  0
CIRCLE
  5
754E
330
1A
100
AcDbEntity
  8
SEIHIN
100
AcDbCircle
 10
275.5547115799905
 20
317.2249139576413
 30
0.0
 40
2.149999999999999
  0
LINE
  5
754F
330
1A
100
AcDbEntity
  8
SEIHIN
100
AcDbLine
 10
269.5545665799904
 20
311.2249549576412
 30
0.0
 11
287.0546415799905
 21
311.2249549576412
 31
0.0
  0
LINE
  5
7550
330
1A
100
AcDbEntity
  8
SEIHIN
100
AcDbLine
 10
266.0545915799906
 20
316.0249109576414
 30
0.0
 11
269.5545915799905
 21
316.0249139576412
 31
0.0
  0
LINE
  5
7551
330
1A
100
AcDbEntity
  8
SEIHIN
100
AcDbLine
 10
269.3045915799905
 20
315.7248789576413
 30
0.0
 11
266.3045915799906
 21
315.7248789576413
 31
0.0
  0
ARC
  5
7552
330
1A
100
AcDbEntity
  8
SEIHIN
100
AcDbCircle
 10
298.0800165799903
 20
313.8147479576413
 30
0.0
 40
39.79999425007106
100
AcDbArc
 50
184.5832787066593
 51
185.1750064315923
  0
LINE
  5
7553
330
1A
100
AcDbEntity
  8
SEIHIN
100
AcDbLine
 10
264.0546415799905
 20
311.2249549576412
 30
0.0
 11
266.0545665799904
 21
311.2249549576412
 31
0.0
  0
LINE
  5
7554
330
1A
100
AcDbEntity
  8
SEIHIN
100
AcDbLine
 10
270.7746635799904
 20
321.5715549576413
 30
0.0
 11
269.7966375799905
 21
321.5715539576413
 31
0.0
  0
LINE
  5
7555
330
1A
100
AcDbEntity
  8
SEIHIN
100
AcDbLine
 10
269.7966375799905
 20
321.5715539576413
 30
0.0
 11
269.7966305799905
 21
322.5715379576413
 31
0.0
  0
ARC
  5
7556
330
1A
100
AcDbEntity
  8
SEIHIN
100
AcDbCircle
 10
285.3579155799906
 20
320.5715589576414
 30
0.0
 40
1.999999844935611
100
AcDbArc
 50
65.24462387884947
 51
90.00010203811193
  0
LINE
  5
7557
330
1A
100
AcDbEntity
  8
SEIHIN
100
AcDbLine
 10
308.1011015799905
 20
341.4940969576413
 30
0.0
 11
307.1581105799905
 21
341.8269169576413
 31
0.0
  0
ARC
  5
7558
330
1A
100
AcDbEntity
  8
SEIHIN
100
AcDbCircle
 10
311.2133205799906
 20
326.2750429576413
 30
0.0
 40
4.999999758966238
100
AcDbArc
 50
97.76515569653575
 51
160.5599558232775
  0
ARC
  5
7559
330
1A
100
AcDbEntity
  8
SEIHIN
100
AcDbCircle
 10
311.2133205799906
 20
326.2750429576413
 30
0.0
 40
7.50000019743146
100
AcDbArc
 50
97.76515569653575
 51
160.5599559187044
  0
LINE
  5
755A
330
1A
100
AcDbEntity
  8
SEIHIN
100
AcDbLine
 10
309.5219185799903
 20
327.5146139576412
 30
0.0
 11
303.4293425799905
 21
310.2248719576413
 31
0.0
  0
LINE
  5
755B
330
1A
100
AcDbEntity
  8
SEIHIN
100
AcDbLine
 10
308.1011015799905
 20
341.4940969576413
 30
0.0
 11
299.9400545799904
 21
318.3711319576413
 31
0.0
  0
LINE
  5
755C
330
1A
100
AcDbEntity
  8
SEIHIN
100
AcDbLine
 10
307.1581105799905
 20
341.8269169576413
 30
0.0
 11
299.0538625799905
 21
318.8648819576412
 31
0.0
  0
LINE
  5
755D
330
1A
100
AcDbEntity
  8
SEIHIN
100
AcDbLine
 10
303.9336275799904
 20
334.1931959576413
 30
0.0
 11
298.5823675799904
 21
319.0312919576413
 31
0.0
  0
ARC
  5
755E
330
1A
100
AcDbEntity
  8
SEIHIN
100
AcDbCircle
 10
297.1110835799905
 20
319.3695919576413
 30
0.0
 40
2.999999940870081
100
AcDbArc
 50
269.9999883784531
 51
340.5599599066714
  0
LINE
  5
755F
330
1A
100
AcDbEntity
  8
SEIHIN
100
AcDbLine
 10
304.1408925799903
 20
328.7711939576414
 30
0.0
 11
297.5951315799905
 21
310.2248719576413
 31
0.0
  0
ARC
  5
7560
330
1A
100
AcDbEntity
  8
SEIHIN
100
AcDbCircle
 10
296.7118695799904
 20
319.7407989576413
 30
0.0
 40
2.00000009820312
100
AcDbArc
 50
245.2446238788493
 51
340.5599821720822
  0
ARC
  5
7561
330
1A
100
AcDbEntity
  8
SEIHIN
100
AcDbCircle
 10
297.1678825799904
 20
319.5305219576412
 30
0.0
 40
2.00000009820312
100
AcDbArc
 50
245.2446238788493
 51
340.5599821720822
  0
LINE
  5
7562
330
1A
100
AcDbEntity
  8
SEIHIN
100
AcDbLine
 10
306.4983685799905
 20
327.9391439576412
 30
0.0
 11
300.2462725799903
 21
310.2248719576413
 31
0.0
  0
ARC
  5
7563
330
1A
100
AcDbEntity
  8
SEIHIN
100
AcDbCircle
 10
304.4051235799905
 20
334.0267859576413
 30
0.0
 40
0.5
100
AcDbArc
 50
70.55996517182028
 51
160.559965171825
  0
ARC
  5
7564
330
1A
100
AcDbEntity
  8
SEIHIN
100
AcDbCircle
 10
310.4650745799905
 20
327.1822639576412
 30
0.0
 40
1.00000008945849
100
AcDbArc
 50
97.76515569653586
 51
160.5885380977531
  0
LINE
  5
7565
330
1A
100
AcDbEntity
  8
SEIHIN
100
AcDbLine
 10
293.4732665799904
 20
456.4714984114411
 30
0.0
 11
287.0549415799903
 21
456.4714754114412
 31
0.0
  0
LINE
  5
7566
330
1A
100
AcDbEntity
  8
SEIHIN
100
AcDbLine
 10
288.8209165799904
 20
458.6813634114411
 30
0.0
 11
294.7203495799905
 21
455.8791344114411
 31
0.0
  0
LINE
  5
7567
330
1A
100
AcDbEntity
  8
SEIHIN
100
AcDbLine
 10
270.7965425799905
 20
458.9715304114411
 30
0.0
 11
287.5337465799906
 21
458.9715304114411
 31
0.0
  0
LINE
  5
7568
330
1A
100
AcDbEntity
  8
SEIHIN
100
AcDbLine
 10
264.0549515799905
 20
453.8715304114411
 30
0.0
 11
287.0549515799906
 21
453.8715304114411
 31
0.0
  0
LINE
  5
7569
330
1A
100
AcDbEntity
  8
SEIHIN
100
AcDbLine
 10
264.0549355799904
 20
458.3715304114412
 30
0.0
 11
287.0549355799904
 21
458.3715304114412
 31
0.0
  0
LINE
  5
756A
330
1A
100
AcDbEntity
  8
SEIHIN
100
AcDbLine
 10
264.0549335799903
 20
458.8715304114412
 30
0.0
 11
287.0549335799903
 21
458.8715304114412
 31
0.0
  0
LINE
  5
756B
330
1A
100
AcDbEntity
  8
SEIHIN
100
AcDbLine
 10
273.0550215799904
 20
457.8715304114411
 30
0.0
 11
278.0550215799904
 21
457.8715304114411
 31
0.0
  0
LINE
  5
756C
330
1A
100
AcDbEntity
  8
SEIHIN
100
AcDbLine
 10
269.3049015799904
 20
456.4715304114411
 30
0.0
 11
266.3049015799904
 21
456.4715304114411
 31
0.0
  0
LINE
  5
756D
330
1A
100
AcDbEntity
  8
SEIHIN
100
AcDbLine
 10
266.0549015799904
 20
454.3715304114412
 30
0.0
 11
269.5549015799904
 21
454.3715304114412
 31
0.0
  0
LINE
  5
756E
330
1A
100
AcDbEntity
  8
SEIHIN
100
AcDbLine
 10
266.0549015799904
 20
455.4715304114411
 30
0.0
 11
269.5549015799904
 21
455.4715304114411
 31
0.0
  0
ARC
  5
756F
330
1A
100
AcDbEntity
  8
SEIHIN
100
AcDbCircle
 10
263.4135675799905
 20
461.7215304114411
 30
0.0
 40
1.25
100
AcDbArc
 50
216.8698976458453
 51
323.1301023541546
  0
ARC
  5
7570
330
1A
100
AcDbEntity
  8
SEIHIN
100
AcDbCircle
 10
260.9135675799905
 20
461.7215304114411
 30
0.0
 40
1.25
100
AcDbArc
 50
216.8698976458453
 51
323.1301023541546
  0
ARC
  5
7571
330
1A
100
AcDbEntity
  8
SEIHIN
100
AcDbCircle
 10
265.9135675799905
 20
461.7215304114411
 30
0.0
 40
1.249999816264371
100
AcDbArc
 50
216.8698976458453
 51
288.2441676844587
  0
LINE
  5
7572
330
1A
100
AcDbEntity
  8
SEIHIN
100
AcDbLine
 10
264.0549335799903
 20
458.8715304114412
 30
0.0
 11
264.0549515799905
 21
453.8715304114411
 31
0.0
  0
LINE
  5
7573
330
1A
100
AcDbEntity
  8
SEIHIN
100
AcDbLine
 10
266.3049015799904
 20
456.4715304114411
 30
0.0
 11
266.3049015799904
 21
458.3715304114412
 31
0.0
  0
LINE
  5
7574
330
1A
100
AcDbEntity
  8
SEIHIN
100
AcDbLine
 10
266.0549015799904
 20
458.3715304114412
 30
0.0
 11
266.0549015799904
 21
453.8715304114411
 31
0.0
  0
LINE
  5
7575
330
1A
100
AcDbEntity
  8
SEIHIN
100
AcDbLine
 10
269.7965425799905
 20
459.9715304114411
 30
0.0
 11
270.7965425799905
 21
459.9715304114411
 31
0.0
  0
LINE
  5
7576
330
1A
100
AcDbEntity
  8
SEIHIN
100
AcDbLine
 10
269.3049015799904
 20
456.4715304114411
 30
0.0
 11
269.3049015799904
 21
458.3715304114412
 31
0.0
  0
LINE
  5
7577
330
1A
100
AcDbEntity
  8
SEIHIN
100
AcDbLine
 10
269.5549015799904
 20
458.3715304114412
 30
0.0
 11
269.5549015799904
 21
453.8715304114411
 31
0.0
  0
LINE
  5
7578
330
1A
100
AcDbEntity
  8
SEIHIN
100
AcDbLine
 10
273.0550215799904
 20
457.8715304114411
 30
0.0
 11
273.0550215799904
 21
458.3715304114412
 31
0.0
  0
LINE
  5
7579
330
1A
100
AcDbEntity
  8
SEIHIN
100
AcDbLine
 10
270.7965425799905
 20
459.9715304114411
 30
0.0
 11
270.7965425799905
 21
458.9715304114411
 31
0.0
  0
LINE
  5
757A
330
1A
100
AcDbEntity
  8
SEIHIN
100
AcDbLine
 10
278.0550215799904
 20
457.8715304114411
 30
0.0
 11
278.0550215799904
 21
458.3715304114412
 31
0.0
  0
ARC
  5
757B
330
1A
100
AcDbEntity
  8
SEIHIN
100
AcDbCircle
 10
287.5337465799906
 20
455.9715304114411
 30
0.0
 40
3.000000124732411
100
AcDbArc
 50
64.59228447874967
 51
89.99999094305044
  0
LINE
  5
757C
330
1A
100
AcDbEntity
  8
SEIHIN
100
AcDbLine
 10
287.0549335799903
 20
458.8715304114412
 30
0.0
 11
287.0549515799906
 21
453.8715304114411
 31
0.0
  0
LINE
  5
757D
330
1A
100
AcDbEntity
  8
SEIHIN
100
AcDbLine
 10
300.8416165799904
 20
457.9715304114412
 30
0.0
 11
308.1010525799904
 21
457.9715304114412
 31
0.0
  0
LINE
  5
757E
330
1A
100
AcDbEntity
  8
SEIHIN
100
AcDbLine
 10
297.6089615799903
 20
460.9715304114411
 30
0.0
 11
304.5714845799906
 21
460.9715304114411
 31
0.0
  0
LINE
  5
757F
330
1A
100
AcDbEntity
  8
SEIHIN
100
AcDbLine
 10
296.4365765799906
 20
455.879135411441
 30
0.0
 11
300.8416165799904
 21
457.9715304114412
 31
0.0
  0
ARC
  5
7580
330
1A
100
AcDbEntity
  8
SEIHIN
100
AcDbCircle
 10
295.5784625799905
 20
457.6856894114412
 30
0.0
 40
1.999999816165233
100
AcDbArc
 50
244.5922844787499
 51
295.4077120920546
  0
ARC
  5
7581
330
1A
100
AcDbEntity
  8
SEIHIN
100
AcDbCircle
 10
297.6089615799903
 20
462.4715304114412
 30
0.0
 40
1.5
100
AcDbArc
 50
180.0
 51
270.0
  0
LINE
  5
7582
330
1A
100
AcDbEntity
  8
SEIHIN
100
AcDbLine
 10
300.9244355799903
 20
458.0108694114412
 30
0.0
 11
300.9244365799905
 21
460.9715304114411
 31
0.0
  0
LINE
  5
7584
330
1A
100
AcDbEntity
  8
SEIHIN
100
AcDbLine
 10
350.9668085799904
 20
339.2653829576413
 30
0.0
 11
367.9850222884453
 21
345.9246843681787
 31
0.0
  0
LINE
  5
7585
330
1A
100
AcDbEntity
  8
SEIHIN
100
AcDbLine
 10
361.1260925799904
 20
330.0107159576413
 30
0.0
 11
347.9256075799904
 21
328.1405489576412
 31
0.0
  0
LINE
  5
7586
330
1A
100
AcDbEntity
  8
SEIHIN
100
AcDbLine
 10
348.2061545799904
 20
326.1603239576412
 30
0.0
 11
361.4066385799904
 21
328.0304899576413
 31
0.0
  0
LINE
  5
7587
330
1A
100
AcDbEntity
  8
SEIHIN
100
AcDbLine
 10
369.9101715799904
 20
340.7719179576413
 30
0.0
 11
352.3600165799903
 21
333.9044649576413
 31
0.0
  0
LINE
  5
7588
330
1A
100
AcDbEntity
  8
SEIHIN
100
AcDbLine
 10
351.6000845799903
 20
336.8286029576413
 30
0.0
 11
368.8169735799904
 21
343.5656459576414
 31
0.0
  0
ARC
  5
7589
330
1A
100
AcDbEntity
  8
SEIHIN
100
AcDbCircle
 10
324.1571765799905
 20
304.7248719576413
 30
0.0
 40
5.499999922058408
100
AcDbArc
 50
50.19443624371242
 51
90.00000600216448
  0
LINE
  5
758A
330
1A
100
AcDbEntity
  8
SEIHIN
100
AcDbLine
 10
344.7140765799904
 20
325.5094989576413
 30
0.0
 11
338.1185705799903
 21
306.7925219576412
 31
0.0
  0
LINE
  5
758B
330
1A
100
AcDbEntity
  8
SEIHIN
100
AcDbLine
 10
346.6003885799906
 20
324.8447979576412
 30
0.0
 11
340.0048825799905
 21
306.1278209576412
 31
0.0
  0
LINE
  5
758C
330
1A
100
AcDbEntity
  8
SEIHIN
100
AcDbLine
 10
340.7539795799906
 20
302.7248719576413
 30
0.0
 11
337.7193065799904
 21
302.7248719576413
 31
0.0
  0
LINE
  5
758D
330
1A
100
AcDbEntity
  8
SEIHIN
100
AcDbLine
 10
337.7193065799904
 20
304.1248719576413
 30
0.0
 11
352.8114995799903
 21
304.1248719576413
 31
0.0
  0
LINE
  5
758E
330
1A
100
AcDbEntity
  8
SEIHIN
100
AcDbLine
 10
337.7193065799904
 20
303.7248719576413
 30
0.0
 11
353.9082755799904
 21
303.7248719576413
 31
0.0
  0
LINE
  5
758F
330
1A
100
AcDbEntity
  8
SEIHIN
100
AcDbLine
 10
329.1484505799903
 20
307.7248719576413
 30
0.0
 11
333.7193065799904
 21
307.7248719576413
 31
0.0
  0
LINE
  5
7590
330
1A
100
AcDbEntity
  8
SEIHIN
100
AcDbLine
 10
327.8812765799906
 20
302.7248719576413
 30
0.0
 11
337.7193065799904
 21
302.7248719576413
 31
0.0
  0
LINE
  5
7591
330
1A
100
AcDbEntity
  8
SEIHIN
100
AcDbLine
 10
330.3317855799903
 20
301.7248719576413
 30
0.0
 11
335.3317855799903
 21
301.7248719576413
 31
0.0
  0
LINE
  5
7592
330
1A
100
AcDbEntity
  8
SEIHIN
100
AcDbLine
 10
327.6781905799903
 20
308.9500889576413
 30
0.0
 11
329.1484505799903
 21
307.7248719576413
 31
0.0
  0
ARC
  5
7593
330
1A
100
AcDbEntity
  8
SEIHIN
100
AcDbCircle
 10
324.1571765799905
 20
304.7248719576413
 30
0.0
 40
0.5000000743924891
100
AcDbArc
 50
50.19443624372004
 51
89.99996332013926
  0
ARC
  5
7594
330
1A
100
AcDbEntity
  8
SEIHIN
100
AcDbCircle
 10
327.8812765799906
 20
304.2248719576413
 30
0.0
 40
1.500000159158816
100
AcDbArc
 50
230.1944362437118
 51
270.0000171172718
  0
LINE
  5
7595
330
1A
100
AcDbEntity
  8
SEIHIN
100
AcDbLine
 10
324.4772685799903
 20
305.1089829576412
 30
0.0
 11
326.9209995799905
 21
303.0725399576413
 31
0.0
  0
LINE
  5
7596
330
1A
100
AcDbEntity
  8
SEIHIN
100
AcDbLine
 10
329.8317855799903
 20
302.7248719576413
 30
0.0
 11
329.8317855799903
 21
302.2248719576413
 31
0.0
  0
ARC
  5
7597
330
1A
100
AcDbEntity
  8
SEIHIN
100
AcDbCircle
 10
330.3317855799903
 20
302.2248719576413
 30
0.0
 40
0.5
100
AcDbArc
 50
180.0000000235017
 51
270.0000000235017
  0
ARC
  5
7598
330
1A
100
AcDbEntity
  8
SEIHIN
100
AcDbCircle
 10
333.7193065799904
 20
303.7248719576413
 30
0.0
 40
4.0
100
AcDbArc
 50
0.0
 51
90.0
  0
LINE
  5
7599
330
1A
100
AcDbEntity
  8
SEIHIN
100
AcDbLine
 10
335.8317855799903
 20
302.7248719576413
 30
0.0
 11
335.8317855799903
 21
302.2248719576413
 31
0.0
  0
ARC
  5
759A
330
1A
100
AcDbEntity
  8
SEIHIN
100
AcDbCircle
 10
335.3317855799903
 20
302.2248719576413
 30
0.0
 40
0.5
100
AcDbArc
 50
270.0000000352524
 51
0.0000000352525556
  0
ARC
  5
759B
330
1A
100
AcDbEntity
  8
SEIHIN
100
AcDbCircle
 10
337.1754145799906
 20
307.1248719576412
 30
0.0
 40
0.9999999407089966
100
AcDbArc
 50
270.0000000354349
 51
340.5885244991829
  0
LINE
  5
759C
330
1A
100
AcDbEntity
  8
SEIHIN
100
AcDbLine
 10
337.1754145799906
 20
306.1248719576413
 30
0.0
 11
336.9193065799905
 21
306.1248719576413
 31
0.0
  0
LINE
  5
759D
330
1A
100
AcDbEntity
  8
SEIHIN
100
AcDbLine
 10
337.7193065799904
 20
303.7248719576413
 30
0.0
 11
337.7193065799904
 21
302.7248719576413
 31
0.0
  0
ARC
  5
759E
330
1A
100
AcDbEntity
  8
SEIHIN
100
AcDbCircle
 10
337.1754145799906
 20
307.1248719576412
 30
0.0
 40
3.00000013857666
100
AcDbArc
 50
279.962986694496
 51
340.5885311066116
  0
LINE
  5
759F
330
1A
100
AcDbEntity
  8
SEIHIN
100
AcDbLine
 10
340.7539795799906
 20
303.7248719576413
 30
0.0
 11
340.7539795799906
 21
302.7248719576413
 31
0.0
  0
LINE
  5
75A0
330
1A
100
AcDbEntity
  8
SEIHIN
100
AcDbLine
 10
353.7294085799905
 20
308.7248719576413
 30
0.0
 11
355.3082755799903
 21
308.7248719576413
 31
0.0
  0
ARC
  5
75A1
330
1A
100
AcDbEntity
  8
SEIHIN
100
AcDbCircle
 10
354.6567965799904
 20
307.9248719576412
 30
0.0
 40
1.357314988733639
100
AcDbArc
 50
152.007703562615
 51
179.9999691711856
  0
ARC
  5
75A2
330
1A
100
AcDbEntity
  8
SEIHIN
100
AcDbCircle
 10
353.7294095799905
 20
308.4178119576414
 30
0.0
 40
0.3070597682291614
100
AcDbArc
 50
90.00000001175086
 51
152.0077599357389
  0
ARC
  5
75A3
330
1A
100
AcDbEntity
  8
SEIHIN
100
AcDbCircle
 10
353.9082755799904
 20
305.1248719576412
 30
0.0
 40
1.399999999999999
100
AcDbArc
 50
270.0000000882616
 51
0.0000000882616646
  0
ARC
  5
75A4
330
1A
100
AcDbEntity
  8
SEIHIN
100
AcDbCircle
 10
352.0799765799904
 20
305.1248719576412
 30
0.0
 40
1.219504113536516
100
AcDbArc
 50
333.4919866321919
 51
0.0000129482833926
  0
ARC
  5
75A5
330
1A
100
AcDbEntity
  8
SEIHIN
100
AcDbCircle
 10
351.8990805799905
 20
305.2150949576414
 30
0.0
 40
1.421652073219743
100
AcDbArc
 50
309.9262992300506
 51
333.4919521171928
  0
LINE
  5
75A6
330
1A
100
AcDbEntity
  8
SEIHIN
100
AcDbLine
 10
355.3082755799903
 20
308.7248719576413
 30
0.0
 11
355.3082755799903
 21
305.1248719576412
 31
0.0
  0
LINE
  5
75A7
330
1A
100
AcDbEntity
  8
SEIHIN
100
AcDbLine
 10
353.2994805799903
 20
305.1248719576412
 30
0.0
 11
353.2994805799903
 21
307.9248719576412
 31
0.0
  0
ARC
  5
75A8
330
1A
100
AcDbEntity
  8
SEIHIN
100
AcDbCircle
 10
348.4867005799904
 20
324.1800979576412
 30
0.0
 40
3.999999868335057
100
AcDbArc
 50
98.0636427983102
 51
160.5884979740773
  0
ARC
  5
75A9
330
1A
100
AcDbEntity
  8
SEIHIN
100
AcDbCircle
 10
348.4867005799904
 20
324.1800979576412
 30
0.0
 40
2.000000049508498
100
AcDbArc
 50
98.0636427983102
 51
160.588485265716
  0
ARC
  5
75AA
330
1A
100
AcDbEntity
  8
SEIHIN
100
AcDbCircle
 10
366.1840155799906
 20
309.4386929576413
 30
0.0
 40
2.50000021673958
100
AcDbArc
 50
264.5000418283991
 51
358.2104961264323
  0
LINE
  5
75AB
330
1A
100
AcDbEntity
  8
SEIHIN
100
AcDbLine
 10
358.8325955799903
 20
307.6349839576414
 30
0.0
 11
359.0242855799904
 21
309.6257759576412
 31
0.0
  0
ARC
  5
75AC
330
1A
100
AcDbEntity
  8
SEIHIN
100
AcDbCircle
 10
366.1840155799906
 20
309.4386929576413
 30
0.0
 40
0.5000000368764975
100
AcDbArc
 50
264.5000418284121
 51
358.2104732561619
  0
LINE
  5
75AD
330
1A
100
AcDbEntity
  8
SEIHIN
100
AcDbLine
 10
366.1360925799904
 20
308.9409949576412
 30
0.0
 11
359.0242855799904
 21
309.6257759576412
 31
0.0
  0
LINE
  5
75AE
330
1A
100
AcDbEntity
  8
SEIHIN
100
AcDbLine
 10
388.7532085799903
 20
306.1253139576413
 30
0.0
 11
372.4470705799904
 21
338.2206379576413
 31
0.0
  0
LINE
  5
75AF
330
1A
100
AcDbEntity
  8
SEIHIN
100
AcDbLine
 10
359.0242855799904
 20
306.3230379576413
 30
0.0
 11
359.0242855799904
 21
287.8539149576413
 31
0.0
  0
LINE
  5
75B0
330
1A
100
AcDbEntity
  8
SEIHIN
100
AcDbLine
 10
361.0242855799904
 20
287.8539149576413
 30
0.0
 11
361.0242855799904
 21
306.3230379576413
 31
0.0
  0
LINE
  5
75B1
330
1A
100
AcDbEntity
  8
SEIHIN
100
AcDbLine
 10
361.0242855799904
 20
287.8539149576413
 30
0.0
 11
359.0242855799904
 21
287.8539149576413
 31
0.0
  0
LINE
  5
75B2
330
1A
100
AcDbEntity
  8
SEIHIN
100
AcDbLine
 10
365.9444035799904
 20
306.9502029576412
 30
0.0
 11
358.8325955799903
 21
307.6349839576414
 31
0.0
  0
LINE
  5
75B3
330
1A
100
AcDbEntity
  8
SEIHIN
100
AcDbLine
 10
359.0242855799904
 20
306.3230379576413
 30
0.0
 11
359.0242855799904
 21
292.8539149576414
 31
0.0
  0
LINE
  5
75B4
330
1A
100
AcDbEntity
  8
SEIHIN
100
AcDbLine
 10
361.0242855799904
 20
292.8539149576414
 30
0.0
 11
361.0242855799904
 21
306.3230379576413
 31
0.0
  0
ARC
  5
75B5
330
1A
100
AcDbEntity
  8
SEIHIN
100
AcDbCircle
 10
362.0242855799904
 20
306.3230379576413
 30
0.0
 40
0.9999998652102316
100
AcDbArc
 50
84.50004182839899
 51
180.0
  0
ARC
  5
75B6
330
1A
100
AcDbEntity
  8
SEIHIN
100
AcDbCircle
 10
362.0242855799904
 20
306.3230379576413
 30
0.0
 40
0.9999998652102316
100
AcDbArc
 50
84.50004182839899
 51
180.0
  0
ARC
  5
75B7
330
1A
100
AcDbEntity
  8
SEIHIN
100
AcDbCircle
 10
362.0242855799904
 20
306.3230379576413
 30
0.0
 40
2.99999990174308
100
AcDbArc
 50
155.0288311702726
 51
179.9999919372968
  0
ARC
  5
75B8
330
1A
100
AcDbEntity
  8
SEIHIN
100
AcDbCircle
 10
362.0242855799904
 20
306.3230379576413
 30
0.0
 40
2.99999990174308
100
AcDbArc
 50
155.0288311702726
 51
179.9999919372968
  0
LINE
  5
75B9
330
1A
100
AcDbEntity
  8
CENTER_L
100
AcDbLine
 10
370.480601972565
 20
331.0524446017802
 30
0.0
 11
384.4777300594151
 21
338.1637326657504
 31
0.0
  0
LINE
  5
75BA
330
1A
100
AcDbEntity
  8
SEIHIN
100
AcDbLine
 10
372.4470705799904
 20
338.2206379576413
 30
0.0
 11
377.5288305799904
 21
340.8024439576414
 31
0.0
  0
ARC
  5
75BB
330
1A
100
AcDbEntity
  8
SEIHIN
100
AcDbCircle
 10
370.4114245799904
 20
339.3573089576412
 30
0.0
 40
6.999999955304643
100
AcDbArc
 50
27.06228534056819
 51
110.2776866421769
  0
ARC
  5
75BC
330
1A
100
AcDbEntity
  8
SEIHIN
100
AcDbCircle
 10
370.6389705799904
 20
338.9094319576413
 30
0.0
 40
5.000000252443686
100
AcDbArc
 50
26.93298082596678
 51
111.3706255422662
  0
ARC
  5
75BD
330
1A
100
AcDbEntity
  8
SEIHIN
100
AcDbCircle
 10
362.1080055799906
 20
323.0799259576413
 30
0.0
 40
4.99999999040965
100
AcDbArc
 50
358.2105332175278
 51
98.06367557684323
  0
ARC
  5
75BE
330
1A
100
AcDbEntity
  8
SEIHIN
100
AcDbCircle
 10
362.1080055799906
 20
323.0799259576413
 30
0.0
 40
6.999999905160891
100
AcDbArc
 50
358.2105332175278
 51
98.0636774698533
  0
LINE
  5
75BF
330
1A
100
AcDbEntity
  8
SEIHIN
100
AcDbLine
 10
369.1045915799906
 20
322.8613349576413
 30
0.0
 11
368.6827955799904
 21
309.3606249576414
 31
0.0
  0
LINE
  5
75C0
330
1A
100
AcDbEntity
  8
SEIHIN
100
AcDbLine
 10
367.1055675799906
 20
322.9237899576413
 30
0.0
 11
366.6837715799904
 21
309.4230799576414
 31
0.0
  0
LINE
  5
75C1
330
1A
100
AcDbEntity
  8
SEIHIN
100
AcDbLine
 10
372.4220435799906
 20
339.8153289576412
 30
0.0
 11
373.0711465799904
 21
338.5377019576413
 31
0.0
  0
ARC
  5
75C2
330
1A
100
AcDbEntity
  8
SEIHIN
100
AcDbCircle
 10
370.6389705799904
 20
338.9094319576413
 30
0.0
 40
2.000000248971217
100
AcDbArc
 50
26.93298082596751
 51
111.370597584645
  0
LINE
  5
75C3
330
1A
100
AcDbEntity
  8
CENTER_L
100
AcDbLine
 10
374.3306622158846
 20
323.4743822225178
 30
0.0
 11
388.3277900197181
 21
330.5856701427006
 31
0.0
  0
ARC
  5
75C4
330
1A
100
AcDbEntity
  8
SEIHIN
100
AcDbCircle
 10
385.6879685799904
 20
324.5772529576413
 30
0.0
 40
6.624999944286225
100
AcDbArc
 50
175.04220147588
 51
238.8237826041982
  0
LINE
  5
75C5
330
1A
100
AcDbEntity
  8
SEIHIN
100
AcDbLine
 10
376.6450241131523
 20
342.542036909349
 30
0.0
 11
377.5288305799904
 21
340.8024439576414
 31
0.0
  0
LINE
  5
75C6
330
1A
100
AcDbEntity
  8
SEIHIN
100
AcDbLine
 10
375.0966555799906
 20
341.1741709576413
 30
0.0
 11
375.7457565799906
 21
339.8965469576413
 31
0.0
  0
LINE
  5
75C7
330
1A
100
AcDbEntity
  8
SEIHIN
100
AcDbLine
 10
337.7196165799903
 20
456.4716204114411
 30
0.0
 11
337.7196165799903
 21
454.4717394114412
 31
0.0
  0
LINE
  5
75C8
330
1A
100
AcDbEntity
  8
SEIHIN
100
AcDbLine
 10
352.4709175799904
 20
456.8860044114412
 30
0.0
 11
352.4709175799904
 21
458.5353534114411
 31
0.0
  0
ARC
  5
75C9
330
1A
100
AcDbEntity
  8
SEIHIN
100
AcDbCircle
 10
373.5415215799903
 20
455.9318524114411
 30
0.0
 40
1.399999956435711
100
AcDbArc
 50
179.999997485403
 51
261.0257794118532
  0
LINE
  5
75CA
330
1A
100
AcDbEntity
  8
SEIHIN
100
AcDbLine
 10
372.1415215799904
 20
455.9318534114411
 30
0.0
 11
372.1415195799904
 21
456.4820364114411
 31
0.0
  0
ELLIPSE
  5
75CB
330
1A
100
AcDbEntity
  8
SEIHIN
100
AcDbEllipse
 10
384.9003125799904
 20
445.3301914114412
 30
0.0
 11
0.0000000000000001
 21
3.249992382839278
 31
0.0
210
0.0
220
0.0
230
1.0
 40
0.384616286056636
 41
-1.570796326794896
 42
4.712388980384688
  0
ELLIPSE
  5
75CC
330
1A
100
AcDbEntity
  8
SEIHIN
100
AcDbEllipse
 10
384.2265725799906
 20
445.3301914114412
 30
0.0
 11
0.0000000000000001
 21
3.249992382839278
 31
0.0
210
0.0
220
0.0
230
1.0
 40
0.384616286056636
 41
-2.868723640393515
 42
-0.2728690131962772
  0
ELLIPSE
  5
75CD
330
1A
100
AcDbEntity
  8
SEIHIN
100
AcDbEllipse
 10
379.9062475799904
 20
443.5801914114412
 30
0.0
 11
0.0
 21
2.100001711502091
 31
0.0
210
0.0
220
0.0
230
1.0
 40
0.3571425437499017
 41
-2.675767399566848
 42
-0.4658252540229443
  0
ELLIPSE
  5
75CE
330
1A
100
AcDbEntity
  8
SEIHIN
100
AcDbEllipse
 10
380.5799875799906
 20
443.5801914114412
 30
0.0
 11
0.0
 21
2.100001711502091
 31
0.0
210
0.0
220
0.0
230
1.0
 40
0.3571425437499017
 41
-1.570796326794896
 42
4.712388980384688
  0
LINE
  5
75CF
330
1A
100
AcDbEntity
  8
SEIHIN
100
AcDbLine
 10
377.5288305799904
 20
453.5029524114412
 30
0.0
 11
377.5288305799904
 21
441.3301884114412
 31
0.0
  0
LINE
  5
75D0
330
1A
100
AcDbEntity
  8
SEIHIN
100
AcDbLine
 10
376.3288305799904
 20
453.5029524114412
 30
0.0
 11
376.3288305799904
 21
441.3301884114412
 31
0.0
  0
ARC
  5
75D1
330
1A
100
AcDbEntity
  8
SEIHIN
100
AcDbCircle
 10
379.3288305799904
 20
441.3301884114412
 30
0.0
 40
3.0
100
AcDbArc
 50
180.0
 51
270.0
  0
ARC
  5
75D2
330
1A
100
AcDbEntity
  8
SEIHIN
100
AcDbCircle
 10
380.5288305799905
 20
441.3301884114412
 30
0.0
 40
3.0
100
AcDbArc
 50
180.0
 51
270.0
  0
LINE
  5
75D3
330
1A
100
AcDbEntity
  8
CENTER_L
100
AcDbLine
 10
378.0288305799905
 20
443.5801914114411
 30
0.0
 11
382.3665565069177
 21
443.5801914114413
 31
0.0
  0
LINE
  5
75D4
330
1A
100
AcDbEntity
  8
SEIHIN
100
AcDbLine
 10
380.7771585799903
 20
452.6053424114412
 30
0.0
 11
382.7210445799904
 21
452.6053424114412
 31
0.0
  0
LINE
  5
75D5
330
1A
100
AcDbEntity
  8
SEIHIN
100
AcDbLine
 10
382.7210445799904
 20
455.0962384114412
 30
0.0
 11
380.7771585799903
 21
455.0962384114412
 31
0.0
  0
ARC
  5
75D6
330
1A
100
AcDbEntity
  8
SEIHIN
100
AcDbCircle
 10
381.1518375799904
 20
459.9717534114411
 30
0.0
 40
1.000000000002249
100
AcDbArc
 50
270.0001750581465
 51
0.0000031708051873
  0
ARC
  5
75D7
330
1A
100
AcDbEntity
  8
SEIHIN
100
AcDbCircle
 10
375.8288305799903
 20
453.5029524114412
 30
0.0
 40
0.4999998433329509
100
AcDbArc
 50
0.0000000000781653
 51
81.02577681933052
  0
ARC
  5
75D8
330
1A
100
AcDbEntity
  8
SEIHIN
100
AcDbCircle
 10
375.8288305799903
 20
453.5029524114412
 30
0.0
 40
1.700000158763073
100
AcDbArc
 50
0.0000066132454181
 51
81.02579079286194
  0
LINE
  5
75D9
330
1A
100
AcDbEntity
  8
SEIHIN
100
AcDbLine
 10
380.7771585799903
 20
455.0962384114412
 30
0.0
 11
380.7771585799903
 21
452.6053424114412
 31
0.0
  0
LINE
  5
75DA
330
1A
100
AcDbEntity
  8
SEIHIN
100
AcDbLine
 10
377.5288305799904
 20
453.5029524114412
 30
0.0
 11
380.7771585799903
 21
453.5029524114412
 31
0.0
  0
LINE
  5
75DB
330
1A
100
AcDbEntity
  8
SEIHIN
100
AcDbLine
 10
373.5103235799904
 20
455.7343014114412
 30
0.0
 11
373.5103205799903
 21
456.4820404114412
 31
0.0
  0
LINE
  5
75DC
330
1A
100
AcDbEntity
  8
SEIHIN
100
AcDbLine
 10
373.3231355799903
 20
454.5489904114411
 30
0.0
 11
375.9068255799906
 21
453.9968314114411
 31
0.0
  0
LINE
  5
75DD
330
1A
100
AcDbEntity
  8
SEIHIN
100
AcDbLine
 10
373.5103235799904
 20
455.7343014114412
 30
0.0
 11
376.0940125799904
 21
455.1821424114412
 31
0.0
  0
LINE
  5
75DE
330
1A
100
AcDbEntity
  8
SEIHIN
100
AcDbLine
 10
388.5031575799903
 20
455.1168804114412
 30
0.0
 11
388.5031575799903
 21
452.625983411441
 31
0.0
  0
LINE
  5
75DF
330
1A
100
AcDbEntity
  8
SEIHIN
100
AcDbLine
 10
382.7210445799904
 20
453.5029524114412
 30
0.0
 11
388.5031575799903
 21
453.5235934114411
 31
0.0
  0
LINE
  5
75E0
330
1A
100
AcDbEntity
  8
SEIHIN
100
AcDbLine
 10
382.7210445799904
 20
452.6053424114412
 30
0.0
 11
382.7210445799904
 21
455.0962384114412
 31
0.0
  0
LINE
  5
75E1
330
1A
100
AcDbEntity
  8
SEIHIN
100
AcDbLine
 10
382.7210445799904
 20
452.6053424114412
 30
0.0
 11
381.3985135799903
 21
455.0962384114412
 31
0.0
  0
LINE
  5
75E2
330
1A
100
AcDbEntity
  8
CENTER_L
100
AcDbLine
 10
382.3597140596764
 20
445.3301914114412
 30
0.0
 11
387.5514073788221
 21
445.3301914114411
 31
0.0
  0
LINE
  5
75E3
330
1A
100
AcDbEntity
  8
SEIHIN
100
AcDbLine
 10
381.2949945799903
 20
468.9717534114412
 30
0.0
 11
308.1010365799905
 21
468.9715304114411
 31
0.0
  0
LINE
  5
75E4
330
1A
100
AcDbEntity
  8
SEIHIN
100
AcDbLine
 10
287.0549495799906
 20
472.4715014114411
 30
0.0
 11
337.7196165799903
 21
472.4715014114411
 31
0.0
  0
LINE
  5
75E5
330
1A
100
AcDbEntity
  8
SEIHIN
100
AcDbLine
 10
287.0549495799906
 20
473.4715014114412
 30
0.0
 11
337.7196165799903
 21
473.4715014114412
 31
0.0
  0
LINE
  5
75E6
330
1A
100
AcDbEntity
  8
SEIHIN
100
AcDbLine
 10
293.4731305799903
 20
471.4714984114412
 30
0.0
 11
287.0549415799903
 21
471.4715214114412
 31
0.0
  0
LINE
  5
75E7
330
1A
100
AcDbEntity
  8
SEIHIN
100
AcDbLine
 10
288.8209165799904
 20
469.2616984114412
 30
0.0
 11
294.7203495799905
 21
472.0639274114411
 31
0.0
  0
LINE
  5
75E8
330
1A
100
AcDbEntity
  8
SEIHIN
100
AcDbLine
 10
264.0549355799904
 20
469.5715304114411
 30
0.0
 11
287.0549355799904
 21
469.5715304114411
 31
0.0
  0
LINE
  5
75E9
330
1A
100
AcDbEntity
  8
SEIHIN
100
AcDbLine
 10
264.0549335799903
 20
469.0715304114411
 30
0.0
 11
287.0549335799903
 21
469.0715304114411
 31
0.0
  0
LINE
  5
75EA
330
1A
100
AcDbEntity
  8
SEIHIN
100
AcDbLine
 10
264.0549515799905
 20
474.0715304114411
 30
0.0
 11
287.0549515799906
 21
474.0715304114411
 31
0.0
  0
LINE
  5
75EB
330
1A
100
AcDbEntity
  8
SEIHIN
100
AcDbLine
 10
270.7965425799905
 20
468.9715304114411
 30
0.0
 11
287.5337465799906
 21
468.9715304114411
 31
0.0
  0
LINE
  5
75EC
330
1A
100
AcDbEntity
  8
SEIHIN
100
AcDbLine
 10
273.0550215799904
 20
470.0715304114411
 30
0.0
 11
278.0550215799904
 21
470.0715304114411
 31
0.0
  0
LINE
  5
75ED
330
1A
100
AcDbEntity
  8
SEIHIN
100
AcDbLine
 10
266.0549015799904
 20
472.4715304114411
 30
0.0
 11
269.5549015799904
 21
472.4715304114411
 31
0.0
  0
LINE
  5
75EE
330
1A
100
AcDbEntity
  8
SEIHIN
100
AcDbLine
 10
266.0549015799904
 20
473.5715304114411
 30
0.0
 11
269.5549015799904
 21
473.5715304114411
 31
0.0
  0
LINE
  5
75EF
330
1A
100
AcDbEntity
  8
SEIHIN
100
AcDbLine
 10
269.3049015799904
 20
471.4715304114411
 30
0.0
 11
266.3049015799904
 21
471.4715304114411
 31
0.0
  0
LINE
  5
75F0
330
1A
100
AcDbEntity
  8
SEIHIN
100
AcDbLine
 10
264.0549335799903
 20
469.0715304114411
 30
0.0
 11
264.0549515799905
 21
474.0715304114411
 31
0.0
  0
LINE
  5
75F1
330
1A
100
AcDbEntity
  8
SEIHIN
100
AcDbLine
 10
266.0549015799904
 20
469.5715304114411
 30
0.0
 11
266.0549015799904
 21
474.0715304114411
 31
0.0
  0
ARC
  5
75F2
330
1A
100
AcDbEntity
  8
SEIHIN
100
AcDbCircle
 10
263.4135675799905
 20
466.2215304114411
 30
0.0
 40
1.25
100
AcDbArc
 50
36.86989764584533
 51
143.1301023541545
  0
ARC
  5
75F3
330
1A
100
AcDbEntity
  8
SEIHIN
100
AcDbCircle
 10
260.9135675799905
 20
466.2215304114411
 30
0.0
 40
1.25
100
AcDbArc
 50
36.86989764584533
 51
143.1301023541545
  0
LINE
  5
75F4
330
1A
100
AcDbEntity
  8
SEIHIN
100
AcDbLine
 10
266.3049015799904
 20
471.4715304114411
 30
0.0
 11
266.3049015799904
 21
469.5715304114411
 31
0.0
  0
ARC
  5
75F5
330
1A
100
AcDbEntity
  8
SEIHIN
100
AcDbCircle
 10
265.9135675799905
 20
466.2215304114411
 30
0.0
 40
1.249999816264371
100
AcDbArc
 50
71.75583951464337
 51
143.1301095532566
  0
LINE
  5
75F6
330
1A
100
AcDbEntity
  8
SEIHIN
100
AcDbLine
 10
269.5549015799904
 20
469.5715304114411
 30
0.0
 11
269.5549015799904
 21
474.0715304114411
 31
0.0
  0
LINE
  5
75F7
330
1A
100
AcDbEntity
  8
SEIHIN
100
AcDbLine
 10
269.7965425799905
 20
467.9715304114411
 30
0.0
 11
270.7965425799905
 21
467.9715304114411
 31
0.0
  0
LINE
  5
75F8
330
1A
100
AcDbEntity
  8
SEIHIN
100
AcDbLine
 10
269.3049015799904
 20
471.4715304114411
 30
0.0
 11
269.3049015799904
 21
469.5715304114411
 31
0.0
  0
LINE
  5
75F9
330
1A
100
AcDbEntity
  8
SEIHIN
100
AcDbLine
 10
273.0550215799904
 20
470.0715304114411
 30
0.0
 11
273.0550215799904
 21
469.5715304114411
 31
0.0
  0
LINE
  5
75FA
330
1A
100
AcDbEntity
  8
SEIHIN
100
AcDbLine
 10
270.7965425799905
 20
467.9715304114411
 30
0.0
 11
270.7965425799905
 21
468.9715304114411
 31
0.0
  0
LINE
  5
75FB
330
1A
100
AcDbEntity
  8
SEIHIN
100
AcDbLine
 10
278.0550215799904
 20
470.0715304114411
 30
0.0
 11
278.0550215799904
 21
469.5715304114411
 31
0.0
  0
LINE
  5
75FC
330
1A
100
AcDbEntity
  8
SEIHIN
100
AcDbLine
 10
287.0549335799903
 20
469.0715304114411
 30
0.0
 11
287.0549515799906
 21
474.0715304114411
 31
0.0
  0
ARC
  5
75FD
330
1A
100
AcDbEntity
  8
SEIHIN
100
AcDbCircle
 10
287.5337465799906
 20
471.9715304114411
 30
0.0
 40
3.000000124732411
100
AcDbArc
 50
270.0
 51
295.4077064643024
  0
LINE
  5
75FE
330
1A
100
AcDbEntity
  8
SEIHIN
100
AcDbLine
 10
300.8416195799906
 20
469.9715304114412
 30
0.0
 11
308.1010525799904
 21
469.9715304114412
 31
0.0
  0
LINE
  5
75FF
330
1A
100
AcDbEntity
  8
SEIHIN
100
AcDbLine
 10
296.4365765799906
 20
472.0639264114411
 30
0.0
 11
300.8416195799906
 21
469.9715304114412
 31
0.0
  0
LINE
  5
7600
330
1A
100
AcDbEntity
  8
SEIHIN
100
AcDbLine
 10
297.6089615799903
 20
466.9715304114411
 30
0.0
 11
304.5714845799906
 21
466.9715304114411
 31
0.0
  0
ARC
  5
7601
330
1A
100
AcDbEntity
  8
SEIHIN
100
AcDbCircle
 10
295.5784625799905
 20
470.2573714114412
 30
0.0
 40
1.999999816165233
100
AcDbArc
 50
64.59225989560046
 51
115.4076875089041
  0
ARC
  5
7602
330
1A
100
AcDbEntity
  8
SEIHIN
100
AcDbCircle
 10
297.6089615799903
 20
465.4715304114411
 30
0.0
 40
1.5
100
AcDbArc
 50
90.0
 51
180.0
  0
LINE
  5
7603
330
1A
100
AcDbEntity
  8
SEIHIN
100
AcDbLine
 10
300.9244385799906
 20
466.9715304114411
 30
0.0
 11
300.9244385799906
 21
469.9321914114412
 31
0.0
  0
LINE
  5
7604
330
1A
100
AcDbEntity
  8
SEIHIN
100
AcDbLine
 10
337.7196165799903
 20
473.4715014114412
 30
0.0
 11
337.7196165799903
 21
471.4716204114411
 31
0.0
  0
LINE
  5
7605
330
1A
100
AcDbEntity
  8
SEIHIN
100
AcDbLine
 10
352.4709175799904
 20
471.0574604114412
 30
0.0
 11
352.4709175799904
 21
469.408111411441
 31
0.0
  0
ARC
  5
7606
330
1A
100
AcDbEntity
  8
SEIHIN
100
AcDbCircle
 10
373.5415215799903
 20
472.0322494114411
 30
0.0
 40
1.399999956435711
100
AcDbArc
 50
98.97421424316121
 51
179.9999961696146
  0
LINE
  5
7607
330
1A
100
AcDbEntity
  8
SEIHIN
100
AcDbLine
 10
372.1415215799904
 20
472.0322494114411
 30
0.0
 11
372.1415225799904
 21
471.4820364114411
 31
0.0
  0
ELLIPSE
  5
7608
330
1A
100
AcDbEntity
  8
SEIHIN
100
AcDbEllipse
 10
384.2265725799906
 20
482.6339154114411
 30
0.0
 11
0.0000000000000001
 21
-3.249992382839278
 31
0.0
210
0.0
220
0.0
230
-1.0
 40
0.384616286056636
 41
-2.868723640393515
 42
-0.2728690131962772
  0
ELLIPSE
  5
7609
330
1A
100
AcDbEntity
  8
SEIHIN
100
AcDbEllipse
 10
384.9003125799904
 20
482.6339154114411
 30
0.0
 11
0.0000000000000001
 21
-3.249992382839278
 31
0.0
210
0.0
220
0.0
230
-1.0
 40
0.384616286056636
 41
-1.570796326794896
 42
4.712388980384688
  0
ELLIPSE
  5
760A
330
1A
100
AcDbEntity
  8
SEIHIN
100
AcDbEllipse
 10
379.9062475799904
 20
484.3839154114411
 30
0.0
 11
0.0
 21
-2.100001711502091
 31
0.0
210
0.0
220
0.0
230
-1.0
 40
0.3571425437499017
 41
-2.675767399566848
 42
-0.4658252540229443
  0
ELLIPSE
  5
760B
330
1A
100
AcDbEntity
  8
SEIHIN
100
AcDbEllipse
 10
380.5799875799906
 20
484.3839154114411
 30
0.0
 11
0.0
 21
-2.100001711502091
 31
0.0
210
0.0
220
0.0
230
-1.0
 40
0.3571425437499017
 41
-1.570796326794896
 42
4.712388980384688
  0
LINE
  5
760C
330
1A
100
AcDbEntity
  8
SEIHIN
100
AcDbLine
 10
376.3288305799904
 20
474.4611494114411
 30
0.0
 11
376.3288305799904
 21
486.6339154114411
 31
0.0
  0
LINE
  5
760D
330
1A
100
AcDbEntity
  8
SEIHIN
100
AcDbLine
 10
377.5288305799904
 20
474.4405134114412
 30
0.0
 11
377.5288305799904
 21
486.6339154114411
 31
0.0
  0
LINE
  5
760E
330
1A
100
AcDbEntity
  8
SEIHIN
100
AcDbLine
 10
380.7771585799903
 20
475.3381234114412
 30
0.0
 11
382.7210445799904
 21
475.3381234114412
 31
0.0
  0
LINE
  5
760F
330
1A
100
AcDbEntity
  8
SEIHIN
100
AcDbLine
 10
382.7210445799904
 20
472.8472274114412
 30
0.0
 11
380.7771585799903
 21
472.8472274114412
 31
0.0
  0
ARC
  5
7610
330
1A
100
AcDbEntity
  8
SEIHIN
100
AcDbCircle
 10
381.1518375799904
 20
467.9820534114411
 30
0.0
 40
0.9999999325839954
100
AcDbArc
 50
0.0
 51
81.76948710279651
  0
ARC
  5
7611
330
1A
100
AcDbEntity
  8
SEIHIN
100
AcDbCircle
 10
375.8288305799903
 20
474.4405134114412
 30
0.0
 40
1.700000040122499
100
AcDbArc
 50
278.7461491942067
 51
359.9999946189174
  0
LINE
  5
7612
330
1A
100
AcDbEntity
  8
SEIHIN
100
AcDbLine
 10
373.3231355799903
 20
473.4151114114411
 30
0.0
 11
375.9068255799906
 21
473.9672704114411
 31
0.0
  0
LINE
  5
7613
330
1A
100
AcDbEntity
  8
SEIHIN
100
AcDbLine
 10
380.7771585799903
 20
472.8472274114412
 30
0.0
 11
380.7771585799903
 21
475.3381234114412
 31
0.0
  0
LINE
  5
7614
330
1A
100
AcDbEntity
  8
SEIHIN
100
AcDbLine
 10
373.5111095799906
 20
472.2235264114411
 30
0.0
 11
373.5111115799905
 21
471.4820404114411
 31
0.0
  0
LINE
  5
7615
330
1A
100
AcDbEntity
  8
SEIHIN
100
AcDbLine
 10
376.0873275799904
 20
472.7602814114412
 30
0.0
 11
373.5111095799906
 21
472.2235264114411
 31
0.0
  0
ARC
  5
7616
330
1A
100
AcDbEntity
  8
SEIHIN
100
AcDbCircle
 10
375.8288305799903
 20
474.4611494114411
 30
0.0
 40
0.4999998433329509
100
AcDbArc
 50
278.9742142431743
 51
359.9999910624258
  0
LINE
  5
7617
330
1A
100
AcDbEntity
  8
SEIHIN
100
AcDbLine
 10
377.5288305799904
 20
474.4405134114412
 30
0.0
 11
380.7771585799903
 21
474.4405134114412
 31
0.0
  0
LINE
  5
7618
330
1A
100
AcDbEntity
  8
SEIHIN
100
AcDbLine
 10
388.5031575799903
 20
472.8472274114412
 30
0.0
 11
388.5031575799903
 21
475.3381234114412
 31
0.0
  0
LINE
  5
7619
330
1A
100
AcDbEntity
  8
SEIHIN
100
AcDbLine
 10
382.7210445799904
 20
475.3381234114412
 30
0.0
 11
381.3985135799903
 21
472.8472274114412
 31
0.0
  0
LINE
  5
761A
330
1A
100
AcDbEntity
  8
SEIHIN
100
AcDbLine
 10
382.7210445799904
 20
475.3381234114412
 30
0.0
 11
382.7210445799904
 21
472.8472274114412
 31
0.0
  0
LINE
  5
761B
330
1A
100
AcDbEntity
  8
CENTER_L
100
AcDbLine
 10
382.3597140596764
 20
482.6132754114412
 30
0.0
 11
387.5514073788221
 21
482.6132754114413
 31
0.0
  0
LINE
  5
761C
330
1A
100
AcDbEntity
  8
SEIHIN
100
AcDbLine
 10
382.7210445799904
 20
474.4405134114412
 30
0.0
 11
388.5031575799903
 21
474.4405134114412
 31
0.0
  0
LINE
  5
761D
330
1A
100
AcDbEntity
  8
CENTER_L
100
AcDbLine
 10
378.0288305799905
 20
484.3632754114413
 30
0.0
 11
382.3665565069177
 21
484.3632754114412
 31
0.0
  0
ARC
  5
761E
330
1A
100
AcDbEntity
  8
SEIHIN
100
AcDbCircle
 10
380.5288305799905
 20
486.6339154114411
 30
0.0
 40
3.0
100
AcDbArc
 50
90.0
 51
180.0
  0
ARC
  5
761F
330
1A
100
AcDbEntity
  8
SEIHIN
100
AcDbCircle
 10
379.3288305799904
 20
486.6339154114411
 30
0.0
 40
3.000000000000083
100
AcDbArc
 50
89.99998090140689
 51
180.0
  0
LEADER
  5
7628
330
1A
100
AcDbEntity
  8
SUNPOU
100
AcDbLeader
  3
STANDARD
 76
     3
 10
521.9972862527073
 20
395.7486013898703
 30
0.0
 10
548.5964066450146
 20
384.8346863469441
 30
0.0
 10
594.5386813663494
 20
384.8346863469441
 30
0.0
1001
ACAD
1000
DSTYLE
1002
{
1070
     6
1000
OPEN
1070
    41
1040
3.0
1070
    42
1040
3.0
1070
    43
1040
7.0
1070
    44
1040
1.5
1070
    73
1070
     0
1070
    74
1070
     0
1070
    77
1070
     3
1070
   140
1040
3.0
1070
   141
1040
3.0
1070
   147
1040
1.0
1070
   172
1070
     1
1070
   173
1070
     1
1070
   176
1070
   256
1070
   177
1070
   256
1070
   178
1070
   256
1070
   271
1070
     0
1070
   272
1070
     1
1070
   341
1005
6D
1070
   343
1005
6D
1070
   344
1005
6D
1002
}
1000
LEANOF
1010
0.0
1020
0.0
1030
0.0
  0
LINE
  5
762A
330
1A
100
AcDbEntity
  8
SEIHIN
100
AcDbLine
 10
393.8349675799904
 20
467.9717334114411
 30
0.0
 11
393.8349675799904
 21
459.9717334114411
 31
0.0
  0
LINE
  5
762F
330
1A
100
AcDbEntity
  8
CENTER_L
100
AcDbLine
 10
489.0790200291261
 20
363.2653028332098
 30
0.0
 11
494.4282408172255
 21
365.9829924696781
 31
0.0
  0
LINE
  5
7630
330
1A
100
AcDbEntity
  8
CENTER_L
100
AcDbLine
 10
490.3947856049417
 20
367.2987580454934
 30
0.0
 11
493.1124752414099
 21
361.9495372573942
 31
0.0
  0
LINE
  5
7631
330
1A
100
AcDbEntity
  8
CENTER_L
100
AcDbLine
 10
490.2263791835977
 20
412.2841887045991
 30
0.0
 11
520.7058264600942
 21
352.2915792493535
 31
0.0
  0
LINE
  5
7632
330
1A
100
AcDbEntity
  8
SEIHIN
100
AcDbLine
 10
488.7128585473214
 20
404.2244577145163
 30
0.0
 11
495.6723975473214
 21
390.5260167145163
 31
0.0
  0
LINE
  5
7633
330
1A
100
AcDbEntity
  8
SEIHIN
100
AcDbLine
 10
492.3379835473214
 20
388.4758627145163
 30
0.0
 11
489.6344645473213
 21
387.1023307145165
 31
0.0
  0
LINE
  5
7634
330
1A
100
AcDbEntity
  8
SEIHIN
100
AcDbLine
 10
490.9791385473213
 20
391.1504737145163
 30
0.0
 11
492.3379835473214
 21
388.4758627145163
 31
0.0
  0
LINE
  5
7635
330
1A
100
AcDbEntity
  8
SEIHIN
100
AcDbLine
 10
486.5079185473214
 20
401.9411637145164
 30
0.0
 11
500.4714075473214
 21
374.4568667145165
 31
0.0
  0
LINE
  5
7636
330
1A
100
AcDbEntity
  8
SEIHIN
100
AcDbLine
 10
489.3707415473214
 20
406.2411857145163
 30
0.0
 11
495.6114995473215
 21
409.4118237145163
 31
0.0
  0
CIRCLE
  5
7637
330
1A
100
AcDbEntity
  8
SEIHIN
100
AcDbCircle
 10
491.7536305473213
 20
364.6241477145163
 30
0.0
 40
2.1
  0
LINE
  5
7638
330
1A
100
AcDbEntity
  8
SEIHIN
100
AcDbLine
 10
490.6639165473213
 20
387.6253477145163
 30
0.0
 11
498.3640375473213
 21
372.4692217145163
 31
0.0
  0
LINE
  5
7639
330
1A
100
AcDbEntity
  8
SEIHIN
100
AcDbLine
 10
533.4064315473215
 20
379.6168707145163
 30
0.0
 11
491.1475875473213
 21
358.1471227145164
 31
0.0
  0
LINE
  5
763B
330
1A
100
AcDbEntity
  8
SEIHIN
100
AcDbLine
 10
473.9642715473213
 20
387.5534767145163
 30
0.0
 11
488.4586165473215
 21
359.0242997145163
 31
0.0
  0
LINE
  5
763C
330
1A
100
AcDbEntity
  8
CENTER_L
100
AcDbLine
 10
416.8043091527521
 20
308.7640246933243
 30
0.0
 11
430.8014364072007
 21
315.8753123343903
 31
0.0
  0
LINE
  5
763D
330
1A
100
AcDbEntity
  8
SEIHIN
 62
     6
100
AcDbLine
 10
412.5288305799904
 20
340.8024439576414
 30
0.0
 11
428.8349675799906
 21
308.7071189576414
 31
0.0
  0
LINE
  5
763E
330
1A
100
AcDbEntity
  8
SEIHIN
 62
     6
100
AcDbLine
 10
411.4589865799904
 20
340.2589059576412
 30
0.0
 11
427.7651235799903
 21
308.1635809576412
 31
0.0
  0
LINE
  5
763F
330
1A
100
AcDbEntity
  8
SEIHIN
 62
     6
100
AcDbLine
 10
423.7532085799903
 20
306.1253139576413
 30
0.0
 11
407.4470705799904
 21
338.2206379576413
 31
0.0
  0
LINE
  5
7640
330
1A
100
AcDbEntity
  8
CENTER_L
100
AcDbLine
 10
409.3306622158847
 20
323.4743822225178
 30
0.0
 11
423.3277900197181
 21
330.5856701427006
 31
0.0
  0
LINE
  5
7641
330
1A
100
AcDbEntity
  8
SUNPOU
100
AcDbLine
 10
413.0574238842532
 20
243.0724418379973
 30
0.0
 11
427.1808863347073
 21
243.0724418379973
 31
0.0
  0
LINE
  5
7642
330
1A
100
AcDbEntity
  8
SUNPOU
100
AcDbLine
 10
393.8349675799904
 20
308.7071189576414
 30
0.0
 11
427.1808863347073
 21
243.0724418379973
 31
0.0
  0
LINE
  5
7643
330
1A
100
AcDbEntity
  8
SUNPOU
100
AcDbLine
 10
413.0574238842532
 20
270.8716128419704
 30
0.0
 11
413.0574238842532
 21
243.0724418379973
 31
0.0
  0
TEXT
  5
7644
330
1A
100
AcDbEntity
  8
SUNPOU
100
AcDbText
 10
402.8374840039374
 20
250.8182278510139
 30
0.0
 40
6.0
  1
10
100
AcDbText
  0
TEXT
  5
7645
330
1A
100
AcDbEntity
  8
SUNPOU
100
AcDbText
 10
418.6960137315033
 20
234.9745717208966
 30
0.0
 40
6.0
  1
5
100
AcDbText
  0
ARC
  5
7646
330
1A
100
AcDbEntity
  8
SEIHIN
 62
     6
100
AcDbCircle
 10
405.6389705799904
 20
338.9094319576413
 30
0.0
 40
2.000000248971217
100
AcDbArc
 50
26.93298082596751
 51
111.370597584645
  0
ARC
  5
7647
330
1A
100
AcDbEntity
  8
SEIHIN
 62
     6
100
AcDbCircle
 10
405.6389705799904
 20
338.9094319576413
 30
0.0
 40
5.000000252443686
100
AcDbArc
 50
26.93298082596678
 51
111.3706255422662
  0
ARC
  5
7648
330
1A
100
AcDbEntity
  8
SEIHIN
 62
     6
100
AcDbCircle
 10
405.4114245799905
 20
339.3573089576412
 30
0.0
 40
6.999999955304643
100
AcDbArc
 50
26.93298082596678
 51
111.3706249075724
  0
LINE
  5
7649
330
1A
100
AcDbEntity
  8
CENTER_L
100
AcDbLine
 10
405.480601972565
 20
331.0524446017802
 30
0.0
 11
419.4777300594152
 21
338.1637326657504
 31
0.0
  0
ARC
  5
764A
330
1A
100
AcDbEntity
  8
SEIHIN
100
AcDbCircle
 10
420.6879685799904
 20
324.5772529576413
 30
0.0
 40
6.624999944286225
100
AcDbArc
 50
175.04220147588
 51
238.8237826041982
  0
LINE
  5
764B
330
1A
100
AcDbEntity
  8
SEIHIN
 62
     6
100
AcDbLine
 10
407.4220435799905
 20
339.8153289576412
 30
0.0
 11
408.0711465799906
 21
338.5377019576413
 31
0.0
  0
LINE
  5
764C
330
1A
100
AcDbEntity
  8
SEIHIN
 62
     6
100
AcDbLine
 10
407.4470705799904
 20
338.2206379576413
 30
0.0
 11
412.5288305799904
 21
340.8024439576414
 31
0.0
  0
LINE
  5
764D
330
1A
100
AcDbEntity
  8
SEIHIN
 62
     6
100
AcDbLine
 10
411.6521835799904
 20
342.5279449576413
 30
0.0
 11
412.5288305799904
 21
340.8024439576414
 31
0.0
  0
LINE
  5
764E
330
1A
100
AcDbEntity
  8
SEIHIN
 62
     6
100
AcDbLine
 10
410.0966555799906
 20
341.1741709576413
 30
0.0
 11
410.7457565799904
 21
339.8965469576413
 31
0.0
  0
LINE
  5
764F
330
1A
100
AcDbEntity
  8
SEIHIN
 62
     6
100
AcDbLine
 10
423.7532085799903
 20
306.1253139576413
 30
0.0
 11
428.8349675799906
 21
308.7071189576414
 31
0.0
  0
ARC
  5
7650
330
1A
100
AcDbEntity
  8
SEIHIN
100
AcDbCircle
 10
490.2416905473215
 20
359.9301957145164
 30
0.0
 40
2.0
100
AcDbArc
 50
206.9329808259674
 51
296.9329808259681
  0
LEADER
  5
7651
330
1A
100
AcDbEntity
  8
SUNPOU
100
AcDbLeader
  3
STANDARD
 76
     3
 10
478.3901522417558
 20
387.4119002900513
 30
0.0
 10
445.3777144008885
 20
409.2597654237691
 30
0.0
 10
386.1737483916125
 20
409.2597654237691
 30
0.0
1001
ACAD
1000
DSTYLE
1002
{
1070
     6
1000
OPEN
1070
    41
1040
3.0
1070
    42
1040
3.0
1070
    43
1040
7.0
1070
    44
1040
1.5
1070
    73
1070
     0
1070
    74
1070
     0
1070
    77
1070
     3
1070
   140
1040
3.0
1070
   141
1040
3.0
1070
   147
1040
1.0
1070
   172
1070
     1
1070
   173
1070
     1
1070
   176
1070
   256
1070
   177
1070
   256
1070
   178
1070
   256
1070
   271
1070
     0
1070
   272
1070
     1
1070
   341
1005
6D
1070
   343
1005
6D
1070
   344
1005
6D
1002
}
1000
LEANOF
1010
0.0
1020
0.0
1030
0.0
  0
TEXT
  5
7652
330
1A
100
AcDbEntity
  8
SUNPOU
100
AcDbText
 10
394.225486216715
 20
412.5720791233873
 30
0.0
 40
6.0
  1
4-φ4.2
100
AcDbText
  0
ELLIPSE
  5
7653
330
1A
100
AcDbEntity
  8
SEIHIN
100
AcDbEllipse
 10
391.4962735799905
 20
443.5801914114412
 30
0.0
 11
0.0
 21
2.100001711502091
 31
0.0
210
0.0
220
0.0
230
1.0
 40
0.3571425437499017
 41
-1.570796326794896
 42
4.712388980384688
  0
ELLIPSE
  5
7654
330
1A
100
AcDbEntity
  8
SEIHIN
100
AcDbEllipse
 10
390.8225335799905
 20
443.5801914114412
 30
0.0
 11
0.0
 21
2.100001711502091
 31
0.0
210
0.0
220
0.0
230
1.0
 40
0.3571425437499017
 41
-2.675767399566848
 42
-0.4658252540229443
  0
LINE
  5
7655
330
1A
100
AcDbEntity
  8
SEIHIN
100
AcDbLine
 10
393.8349675799904
 20
453.5029534114412
 30
0.0
 11
393.8349675799904
 21
441.3301884114412
 31
0.0
  0
ARC
  5
7656
330
1A
100
AcDbEntity
  8
SEIHIN
100
AcDbCircle
 10
390.8349675799904
 20
441.3301884114412
 30
0.0
 40
3.0
100
AcDbArc
 50
270.0
 51
0.0
  0
ARC
  5
7657
330
1A
100
AcDbEntity
  8
SEIHIN
100
AcDbCircle
 10
392.1349675799904
 20
453.5029534114412
 30
0.0
 40
1.700000158763073
100
AcDbArc
 50
0.0000066132454181
 51
81.02579079286194
  0
LINE
  5
7658
330
1A
100
AcDbEntity
  8
SEIHIN
100
AcDbLine
 10
390.4470425799904
 20
452.625983411441
 30
0.0
 11
390.4470425799904
 21
455.1168804114412
 31
0.0
  0
LINE
  5
7659
330
1A
100
AcDbEntity
  8
CENTER_L
100
AcDbLine
 10
390.0570713216012
 20
443.5801914114411
 30
0.0
 11
393.3349675799906
 21
443.5801914114411
 31
0.0
  0
LINE
  5
765A
330
1A
100
AcDbEntity
  8
SEIHIN
100
AcDbLine
 10
390.4470425799904
 20
453.5235934114411
 30
0.0
 11
393.8349675799904
 21
453.5235934114411
 31
0.0
  0
ARC
  5
765B
330
1A
100
AcDbEntity
  8
SEIHIN
100
AcDbCircle
 10
392.8349675799904
 20
459.9717334114411
 30
0.0
 40
1.000000000002249
100
AcDbArc
 50
270.0001718873445
 51
0.0
  0
LINE
  5
765C
330
1A
100
AcDbEntity
  8
SEIHIN
100
AcDbLine
 10
392.8349715799904
 20
458.9717334114411
 30
0.0
 11
392.8349715799904
 21
456.4717884114411
 31
0.0
  0
LINE
  5
765D
330
1A
100
AcDbEntity
  8
SEIHIN
100
AcDbLine
 10
389.8164615799903
 20
455.7343024114412
 30
0.0
 11
389.8164585799904
 21
456.4820784114411
 31
0.0
  0
LINE
  5
765E
330
1A
100
AcDbEntity
  8
SEIHIN
100
AcDbLine
 10
389.8164615799903
 20
455.7343024114412
 30
0.0
 11
392.4001505799904
 21
455.1821434114412
 31
0.0
  0
LINE
  5
7660
330
1A
100
AcDbEntity
  8
SEIHIN
100
AcDbLine
 10
488.8385765473215
 20
397.3537347145163
 30
0.0
 11
474.8414485473214
 21
390.2424467145163
 31
0.0
  0
ARC
  5
7661
330
1A
100
AcDbEntity
  8
SEIHIN
100
AcDbCircle
 10
475.7473455473213
 20
388.4593737145163
 30
0.0
 40
2.0
100
AcDbArc
 50
116.9329808259682
 51
206.9329808259674
  0
LINE
  5
7662
330
1A
100
AcDbEntity
  8
CENTER_L
100
AcDbLine
 10
477.7553131532714
 20
385.5537228962822
 30
0.0
 11
483.104533941371
 21
388.2714125327506
 31
0.0
  0
LINE
  5
7663
330
1A
100
AcDbEntity
  8
CENTER_L
100
AcDbLine
 10
479.0710787290869
 20
389.5871781085661
 30
0.0
 11
481.7887683655554
 21
384.2379573204668
 31
0.0
  0
CIRCLE
  5
7664
330
1A
100
AcDbEntity
  8
SEIHIN
100
AcDbCircle
 10
480.4299235473213
 20
386.9125677145163
 30
0.0
 40
2.1
  0
LINE
  5
7665
330
1A
100
AcDbEntity
  8
CENTER_L
100
AcDbLine
 10
481.1827245572387
 20
377.7609323507928
 30
0.0
 11
490.098092537404
 21
382.2904150782399
 31
0.0
  0
CIRCLE
  5
7666
330
1A
100
AcDbEntity
  8
SEIHIN
100
AcDbCircle
 10
485.6404085473213
 20
380.0256737145165
 30
0.0
 40
3.25
  0
LINE
  5
7667
330
1A
100
AcDbEntity
  8
CENTER_L
100
AcDbLine
 10
483.3756671835979
 20
384.4833577045991
 30
0.0
 11
487.9051499110448
 21
375.5679897244336
 31
0.0
  0
LINE
  5
7668
330
1A
100
AcDbEntity
  8
SEIHIN
100
AcDbLine
 10
486.3609085473214
 20
396.0949467145163
 30
0.0
 11
489.3050715473214
 21
390.2999577145163
 31
0.0
  0
LINE
  5
7669
330
1A
100
AcDbEntity
  8
SEIHIN
100
AcDbLine
 10
487.8579675473213
 20
396.8555327145163
 30
0.0
 11
490.8021315473213
 21
391.0605437145163
 31
0.0
  0
LINE
  5
766A
330
1A
100
AcDbEntity
  8
SEIHIN
100
AcDbLine
 10
488.2756195473214
 20
389.7769407145164
 30
0.0
 11
489.6344645473213
 21
387.1023307145165
 31
0.0
  0
LINE
  5
766B
330
1A
100
AcDbEntity
  8
SEIHIN
100
AcDbLine
 10
490.9791385473213
 20
391.1504737145163
 30
0.0
 11
488.2756195473214
 21
389.7769407145164
 31
0.0
  0
LINE
  5
766C
330
1A
100
AcDbEntity
  8
SEIHIN
100
AcDbLine
 10
486.5079185473214
 20
401.9411637145164
 30
0.0
 11
489.1825285473213
 21
403.3000087145165
 31
0.0
  0
ARC
  5
766D
330
1A
100
AcDbEntity
  8
SEIHIN
100
AcDbCircle
 10
490.0501635473214
 20
404.9038807145164
 30
0.0
 40
1.5
100
AcDbArc
 50
116.9329808259677
 51
206.9329808259674
  0
LINE
  5
766E
330
1A
100
AcDbEntity
  8
SEIHIN
100
AcDbLine
 10
499.7228825473214
 20
369.7946117145163
 30
0.0
 11
502.6670455473213
 21
363.9996227145163
 31
0.0
  0
LINE
  5
766F
330
1A
100
AcDbEntity
  8
SEIHIN
100
AcDbLine
 10
501.2199415473213
 20
370.5551977145164
 30
0.0
 11
504.1641055473213
 21
364.7602087145163
 31
0.0
  0
LINE
  5
7670
330
1A
100
AcDbEntity
  8
SEIHIN
100
AcDbLine
 10
514.7287345473214
 20
370.1276037145163
 30
0.0
 11
520.4398625473213
 21
358.8864077145164
 31
0.0
  0
LINE
  5
7671
330
1A
100
AcDbEntity
  8
SEIHIN
100
AcDbLine
 10
509.8252825473214
 20
367.6363887145163
 30
0.0
 11
515.5364105473213
 21
356.3951917145164
 31
0.0
  0
LINE
  5
7672
330
1A
100
AcDbEntity
  8
SEIHIN
100
AcDbLine
 10
500.4714075473214
 20
374.4568667145165
 30
0.0
 11
505.1447145473213
 21
365.2584107145163
 31
0.0
  0
LINE
  5
7673
330
1A
100
AcDbEntity
  8
SEIHIN
100
AcDbLine
 10
504.1957385473215
 20
373.7495497145165
 30
0.0
 11
507.8193245473213
 21
366.6172547145163
 31
0.0
  0
LINE
  5
7674
330
1A
100
AcDbEntity
  8
SEIHIN
100
AcDbLine
 10
514.6161542514361
 20
360.4142877390646
 30
0.0
 11
517.7365332514361
 21
361.9996067390646
 31
0.0
  0
LINE
  5
7675
330
1A
100
AcDbEntity
  8
SEIHIN
100
AcDbLine
 10
514.6161542514361
 20
360.4142877390646
 30
0.0
 11
517.7365332514361
 21
361.9996067390646
 31
0.0
  0
ARC
  5
7676
330
1A
100
AcDbEntity
  8
SEIHIN
100
AcDbCircle
 10
516.4279475473214
 20
356.8481407145164
 30
0.0
 40
1.0
100
AcDbArc
 50
206.9329808259674
 51
296.9329808259751
  0
LINE
  5
7677
330
1A
100
AcDbEntity
  8
SEIHIN
100
AcDbLine
 10
516.8808955473214
 20
355.9566037145163
 30
0.0
 11
520.0012745473213
 21
357.5419227145165
 31
0.0
  0
ARC
  5
7678
330
1A
100
AcDbEntity
  8
SEIHIN
100
AcDbCircle
 10
519.5483265473215
 20
358.4334597145163
 30
0.0
 40
1.0
100
AcDbArc
 50
296.9329808259751
 51
26.93298082596751
  0
LINE
  5
767B
330
1A
100
AcDbEntity
  8
SEIHIN
100
AcDbLine
 10
519.7892635473215
 20
410.8350177145164
 30
0.0
 11
534.2836075473213
 21
382.3058407145163
 31
0.0
  0
LINE
  5
767C
330
1A
100
AcDbEntity
  8
CENTER_L
100
AcDbLine
 10
515.1354038205632
 20
407.9097799285134
 30
0.0
 11
517.8530934570317
 21
402.5605591404143
 31
0.0
  0
LINE
  5
767D
330
1A
100
AcDbEntity
  8
SEIHIN
100
AcDbLine
 10
517.1002935473214
 20
411.7121957145164
 30
0.0
 11
503.1031655473213
 21
404.6009077145163
 31
0.0
  0
LINE
  5
767E
330
1A
100
AcDbEntity
  8
SEIHIN
100
AcDbLine
 10
497.6282265473214
 20
408.7539407145165
 30
0.0
 11
504.5877655473214
 21
395.0554997145165
 31
0.0
  0
LINE
  5
767F
330
1A
100
AcDbEntity
  8
SEIHIN
100
AcDbLine
 10
500.7725065473214
 20
409.1883357145165
 30
0.0
 11
514.7360065473215
 21
381.7040187145163
 31
0.0
  0
CIRCLE
  5
7680
330
1A
100
AcDbEntity
  8
SEIHIN
100
AcDbCircle
 10
516.4942485473212
 20
405.2351697145163
 30
0.0
 40
2.1
  0
LINE
  5
7681
330
1A
100
AcDbEntity
  8
SEIHIN
100
AcDbLine
 10
509.5544505473213
 20
400.5877227145163
 30
0.0
 11
506.8509305473214
 21
399.2141907145163
 31
0.0
  0
LINE
  5
7682
330
1A
100
AcDbEntity
  8
SEIHIN
100
AcDbLine
 10
505.5624355473214
 20
405.8503477145165
 30
0.0
 11
508.5065995473214
 21
400.0553587145163
 31
0.0
  0
LINE
  5
7683
330
1A
100
AcDbEntity
  8
SEIHIN
100
AcDbLine
 10
506.8509305473214
 20
399.2141907145163
 30
0.0
 11
508.2097755473213
 21
396.5395797145163
 31
0.0
  0
ARC
  5
7684
330
1A
100
AcDbEntity
  8
SEIHIN
100
AcDbCircle
 10
511.0314015473213
 20
371.3337227145164
 30
0.0
 40
7.249999838287753
100
AcDbArc
 50
73.33018209545541
 51
160.5358220988015
  0
LINE
  5
7685
330
1A
100
AcDbEntity
  8
SEIHIN
100
AcDbLine
 10
492.1609755473212
 20
388.3859337145164
 30
0.0
 11
499.8610965473215
 21
373.2298077145165
 31
0.0
  0
LINE
  5
7686
330
1A
100
AcDbEntity
  8
SEIHIN
100
AcDbLine
 10
501.3969495473213
 20
370.6451267145163
 30
0.0
 11
498.6934295473213
 21
369.2715947145163
 31
0.0
  0
LINE
  5
7687
330
1A
100
AcDbEntity
  8
SEIHIN
100
AcDbLine
 10
500.0381045473213
 20
373.3197377145163
 30
0.0
 11
497.3345845473213
 21
371.9462047145164
 31
0.0
  0
LINE
  5
7688
330
1A
100
AcDbEntity
  8
SEIHIN
100
AcDbLine
 10
498.6934295473213
 20
369.2715947145163
 30
0.0
 11
497.3345845473213
 21
371.9462047145164
 31
0.0
  0
LINE
  5
7689
330
1A
100
AcDbEntity
  8
SEIHIN
100
AcDbLine
 10
501.3969495473213
 20
370.6451267145163
 30
0.0
 11
500.0381045473213
 21
373.3197377145163
 31
0.0
  0
CIRCLE
  5
768A
330
1A
100
AcDbEntity
  8
SEIHIN
100
AcDbCircle
 10
504.1239395473215
 20
384.9296587145163
 30
0.0
 40
2.1
  0
LINE
  5
768B
330
1A
100
AcDbEntity
  8
SEIHIN
100
AcDbLine
 10
495.6723975473214
 20
390.5260167145163
 30
0.0
 11
504.5877655473214
 21
395.0554997145165
 31
0.0
  0
LINE
  5
768C
330
1A
100
AcDbEntity
  8
SEIHIN
100
AcDbLine
 10
504.0644475473214
 20
405.0892897145163
 30
0.0
 11
507.0086115473213
 21
399.2943007145163
 31
0.0
  0
LINE
  5
768D
330
1A
100
AcDbEntity
  8
SEIHIN
100
AcDbLine
 10
509.8654445473213
 20
397.3807487145163
 30
0.0
 11
517.5655655473215
 21
382.2246227145163
 31
0.0
  0
LINE
  5
768E
330
1A
100
AcDbEntity
  8
SEIHIN
100
AcDbLine
 10
508.3674565473213
 20
396.6196907145164
 30
0.0
 11
516.0675765473213
 21
381.4635647145164
 31
0.0
  0
LINE
  5
768F
330
1A
100
AcDbEntity
  8
SEIHIN
100
AcDbLine
 10
514.7360065473215
 20
381.7040187145163
 30
0.0
 11
519.4093035473213
 21
372.5055827145163
 31
0.0
  0
LINE
  5
7690
330
1A
100
AcDbEntity
  8
SEIHIN
100
AcDbLine
 10
513.1111065473215
 20
378.2790317145163
 30
0.0
 11
516.7346925473212
 21
371.1467377145163
 31
0.0
  0
LINE
  5
7691
330
1A
100
AcDbEntity
  8
SEIHIN
100
AcDbLine
 10
518.9244095473213
 20
379.5500127145163
 30
0.0
 11
521.8685735473213
 21
373.7550237145163
 31
0.0
  0
LINE
  5
7692
330
1A
100
AcDbEntity
  8
SEIHIN
100
AcDbLine
 10
517.4264215473215
 20
378.7889547145165
 30
0.0
 11
520.3705855473215
 21
372.9939657145163
 31
0.0
  0
LINE
  5
7693
330
1A
100
AcDbEntity
  8
SEIHIN
100
AcDbLine
 10
517.2687405473213
 20
378.7088447145165
 30
0.0
 11
515.9098965473215
 21
381.3834547145163
 31
0.0
  0
LINE
  5
7694
330
1A
100
AcDbEntity
  8
SEIHIN
100
AcDbLine
 10
519.9722605473214
 20
380.0823767145164
 30
0.0
 11
517.2687405473213
 21
378.7088447145165
 31
0.0
  0
LINE
  5
7695
330
1A
100
AcDbEntity
  8
SEIHIN
100
AcDbLine
 10
519.9722605473214
 20
380.0823767145164
 30
0.0
 11
518.6134155473214
 21
382.7569867145165
 31
0.0
  0
LINE
  5
7696
330
1A
100
AcDbEntity
  8
SEIHIN
100
AcDbLine
 10
518.6134155473214
 20
382.7569867145165
 30
0.0
 11
515.9098965473215
 21
381.3834547145163
 31
0.0
  0
LINE
  5
7697
330
1A
100
AcDbEntity
  8
CENTER_L
100
AcDbLine
 10
513.8196382447477
 20
403.8763247162298
 30
0.0
 11
519.1688590328474
 21
406.5940143526981
 31
0.0
  0
LINE
  5
7698
330
1A
100
AcDbEntity
  8
CENTER_L
100
AcDbLine
 10
514.52620044588
 20
394.70119756998
 30
0.0
 11
523.4415684260453
 21
399.2306802974272
 31
0.0
  0
CIRCLE
  5
7699
330
1A
100
AcDbEntity
  8
SEIHIN
100
AcDbCircle
 10
518.9838845473214
 20
396.9659387145163
 30
0.0
 40
3.25
  0
LINE
  5
769A
330
1A
100
AcDbEntity
  8
SEIHIN
100
AcDbLine
 10
510.9132955473214
 20
397.9131127145164
 30
0.0
 11
508.2097755473213
 21
396.5395797145163
 31
0.0
  0
LINE
  5
769B
330
1A
100
AcDbEntity
  8
SEIHIN
100
AcDbLine
 10
509.5544505473213
 20
400.5877227145163
 30
0.0
 11
510.9132955473214
 21
397.9131127145164
 31
0.0
  0
LINE
  5
769C
330
1A
100
AcDbEntity
  8
CENTER_L
100
AcDbLine
 10
516.7191430722391
 20
401.4236229237862
 30
0.0
 11
521.2486257996861
 21
392.5082549436209
 31
0.0
  0
LINE
  5
769D
330
1A
100
AcDbEntity
  8
SEIHIN
100
AcDbLine
 10
498.0978965473213
 20
407.8294907145163
 30
0.0
 11
500.7725065473214
 21
409.1883357145165
 31
0.0
  0
ARC
  5
769E
330
1A
100
AcDbEntity
  8
SEIHIN
100
AcDbCircle
 10
496.2909215473214
 20
408.0745177145163
 30
0.0
 40
1.5
100
AcDbArc
 50
26.93298082596751
 51
116.9329808259677
  0
ARC
  5
769F
330
1A
100
AcDbEntity
  8
SEIHIN
100
AcDbCircle
 10
518.0061895473214
 20
409.9291217145164
 30
0.0
 40
2.0
100
AcDbArc
 50
26.93298082596751
 51
116.9329808259682
  0
TEXT
  5
76A0
330
1A
100
AcDbEntity
  8
SUNPOU
100
AcDbText
 10
555.7008844219702
 20
387.2006256537183
 30
0.0
 40
6.0
  1
2-φ6.5
100
AcDbText
  0
LINE
  5
76A1
330
1A
100
AcDbEntity
  8
CENTER_L
100
AcDbLine
 10
526.4591106964179
 20
385.6213598654412
 30
0.0
 11
529.1768003328862
 21
380.2721390773418
 31
0.0
  0
LINE
  5
76A2
330
1A
100
AcDbEntity
  8
CENTER_L
100
AcDbLine
 10
525.1433451206025
 20
381.5879046531573
 30
0.0
 11
530.4925659087017
 21
384.3055942896256
 31
0.0
  0
CIRCLE
  5
76A3
330
1A
100
AcDbEntity
  8
SEIHIN
100
AcDbCircle
 10
527.8179555473212
 20
382.9467497145163
 30
0.0
 40
2.1
  0
ARC
  5
76A4
330
1A
100
AcDbEntity
  8
SEIHIN
100
AcDbCircle
 10
532.5005345473214
 20
381.3999437145163
 30
0.0
 40
2.0
100
AcDbArc
 50
296.9329808259681
 51
26.93298082596751
  0
ELLIPSE
  5
76A5
330
1A
100
AcDbEntity
  8
SEIHIN
100
AcDbEllipse
 10
390.8225335799905
 20
484.3839154114411
 30
0.0
 11
0.0
 21
-2.100001711502091
 31
0.0
210
0.0
220
0.0
230
-1.0
 40
0.3571425437499017
 41
-2.675767399566848
 42
-0.4658252540229443
  0
ELLIPSE
  5
76A6
330
1A
100
AcDbEntity
  8
SEIHIN
100
AcDbEllipse
 10
391.4962735799905
 20
484.3839154114411
 30
0.0
 11
0.0
 21
-2.100001711502091
 31
0.0
210
0.0
220
0.0
230
-1.0
 40
0.3571425437499017
 41
-1.570796326794896
 42
4.712388980384688
  0
LINE
  5
76A7
330
1A
100
AcDbEntity
  8
SEIHIN
100
AcDbLine
 10
393.8349675799904
 20
474.4405144114412
 30
0.0
 11
393.8349675799904
 21
486.6339154114411
 31
0.0
  0
ARC
  5
76A8
330
1A
100
AcDbEntity
  8
SEIHIN
100
AcDbCircle
 10
392.1349675799904
 20
474.4405144114412
 30
0.0
 40
1.700000040122499
100
AcDbArc
 50
278.7461491942067
 51
359.9999946189174
  0
LINE
  5
76A9
330
1A
100
AcDbEntity
  8
SEIHIN
100
AcDbLine
 10
390.4470425799904
 20
475.3381234114412
 30
0.0
 11
390.4470425799904
 21
472.8472274114412
 31
0.0
  0
ARC
  5
76AA
330
1A
100
AcDbEntity
  8
SEIHIN
100
AcDbCircle
 10
392.8349675799904
 20
467.9717334114411
 30
0.0
 40
1.000000000002249
100
AcDbArc
 50
0.0000031708051873
 51
90.00017505814655
  0
LINE
  5
76AB
330
1A
100
AcDbEntity
  8
SEIHIN
100
AcDbLine
 10
392.8349645799904
 20
468.9717334114411
 30
0.0
 11
392.8349645799904
 21
471.4717884114413
 31
0.0
  0
LINE
  5
76AC
330
1A
100
AcDbEntity
  8
SEIHIN
100
AcDbLine
 10
389.8172475799904
 20
472.2235274114411
 30
0.0
 11
389.8172495799904
 21
471.4820784114412
 31
0.0
  0
LINE
  5
76AD
330
1A
100
AcDbEntity
  8
SEIHIN
100
AcDbLine
 10
392.3934645799904
 20
472.7602824114412
 30
0.0
 11
389.8172475799904
 21
472.2235274114411
 31
0.0
  0
LINE
  5
76AE
330
1A
100
AcDbEntity
  8
SEIHIN
100
AcDbLine
 10
390.4470425799904
 20
474.4405134114412
 30
0.0
 11
393.8349675799904
 21
474.4405144114412
 31
0.0
  0
ARC
  5
76AF
330
1A
100
AcDbEntity
  8
SEIHIN
100
AcDbCircle
 10
390.8349675799904
 20
486.6339154114411
 30
0.0
 40
3.0
100
AcDbArc
 50
0.0
 51
90.0
  0
LINE
  5
76B0
330
1A
100
AcDbEntity
  8
CENTER_L
100
AcDbLine
 10
390.0570713216012
 20
484.3632754114413
 30
0.0
 11
393.3349675799906
 21
484.3632754114413
 31
0.0
  0
LINE
  5
7928
330
1A
100
AcDbEntity
  8
SEIHIN
100
AcDbLine
 10
366.1360925799904
 20
148.0341297192351
 30
0.0
 11
359.0242855799904
 21
148.718910719235
 31
0.0
  0
LINE
  5
7929
330
1A
100
AcDbEntity
  8
SEIHIN
100
AcDbLine
 10
365.9444035799904
 20
146.0433377192351
 30
0.0
 11
358.8325955799903
 21
146.728118719235
 31
0.0
  0
LINE
  5
792A
330
1A
100
AcDbEntity
  8
SEIHIN
100
AcDbLine
 10
358.8325955799903
 20
146.728118719235
 30
0.0
 11
359.0242855799904
 21
148.718910719235
 31
0.0
  0
LINE
  5
792B
330
1A
100
AcDbEntity
  8
SEIHIN
100
AcDbLine
 10
359.0242855799904
 20
145.416172719235
 30
0.0
 11
359.0242855799904
 21
126.947049719235
 31
0.0
  0
LINE
  5
792C
330
1A
100
AcDbEntity
  8
SEIHIN
100
AcDbLine
 10
361.0242855799904
 20
126.947049719235
 30
0.0
 11
361.0242855799904
 21
145.416172719235
 31
0.0
  0
LINE
  5
792D
330
1A
100
AcDbEntity
  8
SEIHIN
100
AcDbLine
 10
359.0242855799904
 20
145.416172719235
 30
0.0
 11
359.0242855799904
 21
131.947049719235
 31
0.0
  0
LINE
  5
792E
330
1A
100
AcDbEntity
  8
SEIHIN
100
AcDbLine
 10
361.0242855799904
 20
131.947049719235
 30
0.0
 11
361.0242855799904
 21
145.416172719235
 31
0.0
  0
LINE
  5
792F
330
1A
100
AcDbEntity
  8
SEIHIN
100
AcDbLine
 10
361.0242855799904
 20
126.947049719235
 30
0.0
 11
359.0242855799904
 21
126.947049719235
 31
0.0
  0
ARC
  5
7930
330
1A
100
AcDbEntity
  8
SEIHIN
100
AcDbCircle
 10
362.0242855799904
 20
145.416172719235
 30
0.0
 40
0.9999998652102316
100
AcDbArc
 50
84.50004182839899
 51
180.0
  0
ARC
  5
7931
330
1A
100
AcDbEntity
  8
SEIHIN
100
AcDbCircle
 10
362.0242855799904
 20
145.416172719235
 30
0.0
 40
0.9999998652102316
100
AcDbArc
 50
84.50004182839899
 51
180.0
  0
ARC
  5
7932
330
1A
100
AcDbEntity
  8
SEIHIN
100
AcDbCircle
 10
362.0242855799904
 20
145.416172719235
 30
0.0
 40
2.99999990174308
100
AcDbArc
 50
155.0288311702726
 51
179.9999919372968
  0
ARC
  5
7933
330
1A
100
AcDbEntity
  8
SEIHIN
100
AcDbCircle
 10
362.0242855799904
 20
145.416172719235
 30
0.0
 40
2.99999990174308
100
AcDbArc
 50
155.0288311702726
 51
179.9999919372968
  0
LINE
  5
7935
330
1A
100
AcDbEntity
  8
SEIHIN
100
AcDbLine
 10
388.7532085799903
 20
145.218448719235
 30
0.0
 11
393.8349675799904
 21
147.800253719235
 31
0.0
  0
ARC
  5
7936
330
1A
100
AcDbEntity
  8
SEIHIN
100
AcDbCircle
 10
366.1840155799906
 20
148.531827719235
 30
0.0
 40
2.50000021673958
100
AcDbArc
 50
264.5000418283991
 51
358.2104961264323
  0
LINE
  5
7937
330
1A
100
AcDbEntity
  8
SEIHIN
100
AcDbLine
 10
388.7532085799903
 20
145.218448719235
 30
0.0
 11
372.4470705799904
 21
177.313772719235
 31
0.0
  0
LINE
  5
7941
330
1A
100
AcDbEntity
  8
SEIHIN
100
AcDbLine
 10
376.4589865799903
 20
179.352040719235
 30
0.0
 11
392.7651235799903
 21
147.2567157192351
 31
0.0
  0
LINE
  5
7942
330
1A
100
AcDbEntity
  8
SEIHIN
100
AcDbLine
 10
377.5288305799904
 20
179.895578719235
 30
0.0
 11
393.8349675799904
 21
147.800253719235
 31
0.0
  0
LINE
  5
7945
330
1A
100
AcDbEntity
  8
SEIHIN
100
AcDbLine
 10
369.1045915799906
 20
161.9544697192351
 30
0.0
 11
368.6827955799904
 21
148.4537597192351
 31
0.0
  0
LINE
  5
7946
330
1A
100
AcDbEntity
  8
SEIHIN
100
AcDbLine
 10
367.1055675799906
 20
162.016924719235
 30
0.0
 11
366.6837715799904
 21
148.5162147192351
 31
0.0
  0
ARC
  5
7947
330
1A
100
AcDbEntity
  8
SEIHIN
100
AcDbCircle
 10
366.1840155799906
 20
148.531827719235
 30
0.0
 40
0.5000000368764975
100
AcDbArc
 50
264.5000418284121
 51
358.2104732561619
  0
LINE
  5
7948
330
1A
100
AcDbEntity
  8
CENTER_L
100
AcDbLine
 10
381.8043091527521
 20
147.8571594549181
 30
0.0
 11
395.8014364072007
 21
154.968447095984
 31
0.0
  0
LINE
  5
7949
330
1A
100
AcDbEntity
  8
SEIHIN
100
AcDbLine
 10
369.9101715799904
 20
179.865052719235
 30
0.0
 11
352.3600165799903
 21
172.997599719235
 31
0.0
  0
LINE
  5
794A
330
1A
100
AcDbEntity
  8
SEIHIN
100
AcDbLine
 10
350.9668085799904
 20
178.358517719235
 30
0.0
 11
367.9850222884453
 21
185.0178191297725
 31
0.0
  0
LINE
  5
794B
330
1A
100
AcDbEntity
  8
SEIHIN
100
AcDbLine
 10
351.6000845799903
 20
175.921737719235
 30
0.0
 11
368.8169735799904
 21
182.658780719235
 31
0.0
  0
ARC
  5
794C
330
1A
100
AcDbEntity
  8
SEIHIN
100
AcDbCircle
 10
362.1080055799906
 20
162.1730607192351
 30
0.0
 40
4.99999999040965
100
AcDbArc
 50
358.2105332175278
 51
98.06367557684323
  0
ARC
  5
794D
330
1A
100
AcDbEntity
  8
SEIHIN
100
AcDbCircle
 10
362.1080055799906
 20
162.1730607192351
 30
0.0
 40
6.999999905160891
100
AcDbArc
 50
358.2105332175278
 51
98.0636774698533
  0
ARC
  5
794F
330
1A
100
AcDbEntity
  8
SEIHIN
100
AcDbCircle
 10
354.6567965799904
 20
147.0180067192351
 30
0.0
 40
1.357314988733639
100
AcDbArc
 50
152.007703562615
 51
179.9999691711856
  0
LINE
  5
7950
330
1A
100
AcDbEntity
  8
SEIHIN
100
AcDbLine
 10
355.3082755799903
 20
147.818006719235
 30
0.0
 11
355.3082755799903
 21
144.218006719235
 31
0.0
  0
LINE
  5
7951
330
1A
100
AcDbEntity
  8
SEIHIN
100
AcDbLine
 10
327.6781905799903
 20
148.0432237192351
 30
0.0
 11
329.1484505799903
 21
146.818006719235
 31
0.0
  0
LINE
  5
7952
330
1A
100
AcDbEntity
  8
SEIHIN
100
AcDbLine
 10
344.7140765799904
 20
164.602633719235
 30
0.0
 11
338.1185705799903
 21
145.885656719235
 31
0.0
  0
LINE
  5
7953
330
1A
100
AcDbEntity
  8
SEIHIN
100
AcDbLine
 10
346.6003885799906
 20
163.9379327192351
 30
0.0
 11
340.0048825799905
 21
145.220955719235
 31
0.0
  0
ARC
  5
7954
330
1A
100
AcDbEntity
  8
SEIHIN
100
AcDbCircle
 10
333.7193065799904
 20
142.818006719235
 30
0.0
 40
4.0
100
AcDbArc
 50
0.0
 51
90.0
  0
LINE
  5
7955
330
1A
100
AcDbEntity
  8
SEIHIN
100
AcDbLine
 10
287.0546495799905
 20
144.318006719235
 30
0.0
 11
324.1571765799905
 21
144.318006719235
 31
0.0
  0
LINE
  5
7956
330
1A
100
AcDbEntity
  8
SEIHIN
100
AcDbLine
 10
327.8812765799906
 20
141.818006719235
 30
0.0
 11
337.7193065799904
 21
141.818006719235
 31
0.0
  0
LINE
  5
7957
330
1A
100
AcDbEntity
  8
SEIHIN
100
AcDbLine
 10
330.3317855799903
 20
140.818006719235
 30
0.0
 11
335.3317855799903
 21
140.818006719235
 31
0.0
  0
LINE
  5
7958
330
1A
100
AcDbEntity
  8
SEIHIN
100
AcDbLine
 10
329.1484505799903
 20
146.818006719235
 30
0.0
 11
333.7193065799904
 21
146.818006719235
 31
0.0
  0
ARC
  5
7959
330
1A
100
AcDbEntity
  8
SEIHIN
100
AcDbCircle
 10
324.1571765799905
 20
143.818006719235
 30
0.0
 40
0.5000000743924891
100
AcDbArc
 50
50.19443624372004
 51
89.99996332013926
  0
ARC
  5
795A
330
1A
100
AcDbEntity
  8
SEIHIN
100
AcDbCircle
 10
327.8812765799906
 20
143.318006719235
 30
0.0
 40
1.500000159158816
100
AcDbArc
 50
230.1944362437118
 51
270.0000171172718
  0
LINE
  5
795B
330
1A
100
AcDbEntity
  8
SEIHIN
100
AcDbLine
 10
324.4772685799903
 20
144.2021177192351
 30
0.0
 11
326.9209995799905
 21
142.165674719235
 31
0.0
  0
LINE
  5
795C
330
1A
100
AcDbEntity
  8
SEIHIN
100
AcDbLine
 10
329.8317855799903
 20
141.818006719235
 30
0.0
 11
329.8317855799903
 21
141.318006719235
 31
0.0
  0
ARC
  5
795D
330
1A
100
AcDbEntity
  8
SEIHIN
100
AcDbCircle
 10
330.3317855799903
 20
141.318006719235
 30
0.0
 40
0.5
100
AcDbArc
 50
180.0000000235017
 51
270.0000000235017
  0
LINE
  5
795E
330
1A
100
AcDbEntity
  8
SEIHIN
100
AcDbLine
 10
337.7193065799904
 20
143.2180067192351
 30
0.0
 11
352.8114995799903
 21
143.2180067192351
 31
0.0
  0
LINE
  5
795F
330
1A
100
AcDbEntity
  8
SEIHIN
100
AcDbLine
 10
337.7193065799904
 20
142.818006719235
 30
0.0
 11
353.9082755799904
 21
142.818006719235
 31
0.0
  0
ARC
  5
7960
330
1A
100
AcDbEntity
  8
SEIHIN
100
AcDbCircle
 10
337.1754145799906
 20
146.2180067192351
 30
0.0
 40
0.9999999407089966
100
AcDbArc
 50
270.0000000354349
 51
340.5885244991829
  0
LINE
  5
7961
330
1A
100
AcDbEntity
  8
SEIHIN
100
AcDbLine
 10
337.1754145799906
 20
145.2180067192351
 30
0.0
 11
336.9193065799905
 21
145.2180067192351
 31
0.0
  0
LINE
  5
7962
330
1A
100
AcDbEntity
  8
SEIHIN
100
AcDbLine
 10
340.7539795799906
 20
141.818006719235
 30
0.0
 11
337.7193065799904
 21
141.818006719235
 31
0.0
  0
LINE
  5
7963
330
1A
100
AcDbEntity
  8
SEIHIN
100
AcDbLine
 10
335.8317855799903
 20
141.818006719235
 30
0.0
 11
335.8317855799903
 21
141.318006719235
 31
0.0
  0
ARC
  5
7964
330
1A
100
AcDbEntity
  8
SEIHIN
100
AcDbCircle
 10
335.3317855799903
 20
141.318006719235
 30
0.0
 40
0.5
100
AcDbArc
 50
270.0000000352524
 51
0.0000000352525556
  0
LINE
  5
7965
330
1A
100
AcDbEntity
  8
SEIHIN
100
AcDbLine
 10
337.7193065799904
 20
142.818006719235
 30
0.0
 11
337.7193065799904
 21
141.818006719235
 31
0.0
  0
LINE
  5
7966
330
1A
100
AcDbEntity
  8
SEIHIN
100
AcDbLine
 10
340.7539795799906
 20
142.818006719235
 30
0.0
 11
340.7539795799906
 21
141.818006719235
 31
0.0
  0
ARC
  5
7967
330
1A
100
AcDbEntity
  8
SEIHIN
100
AcDbCircle
 10
337.1754145799906
 20
146.2180067192351
 30
0.0
 40
3.00000013857666
100
AcDbArc
 50
279.962986694496
 51
340.5885311066116
  0
ARC
  5
7968
330
1A
100
AcDbEntity
  8
SEIHIN
100
AcDbCircle
 10
353.9082755799904
 20
144.218006719235
 30
0.0
 40
1.399999999999999
100
AcDbArc
 50
270.0000000882616
 51
0.0000000882616646
  0
ARC
  5
7969
330
1A
100
AcDbEntity
  8
SEIHIN
100
AcDbCircle
 10
352.0799765799904
 20
144.218006719235
 30
0.0
 40
1.219504113536516
100
AcDbArc
 50
333.4919866321919
 51
0.0000129482833926
  0
ARC
  5
796A
330
1A
100
AcDbEntity
  8
SEIHIN
100
AcDbCircle
 10
351.8990805799905
 20
144.308229719235
 30
0.0
 40
1.421652073219743
100
AcDbArc
 50
309.9262992300506
 51
333.4919521171928
  0
LINE
  5
796B
330
1A
100
AcDbEntity
  8
SEIHIN
100
AcDbLine
 10
353.2994805799903
 20
144.218006719235
 30
0.0
 11
353.2994805799903
 21
147.0180067192351
 31
0.0
  0
LINE
  5
796C
330
1A
100
AcDbEntity
  8
SEIHIN
100
AcDbLine
 10
287.0546665799905
 20
149.318006719235
 30
0.0
 11
324.1571765799905
 21
149.318006719235
 31
0.0
  0
LINE
  5
796D
330
1A
100
AcDbEntity
  8
SEIHIN
100
AcDbLine
 10
352.3600165799903
 20
172.997599719235
 30
0.0
 11
310.3299615799905
 21
167.2662287192351
 31
0.0
  0
LINE
  5
796E
330
1A
100
AcDbEntity
  8
SEIHIN
100
AcDbLine
 10
351.6000845799903
 20
175.921737719235
 30
0.0
 11
310.5377545799905
 21
170.322328719235
 31
0.0
  0
ARC
  5
796F
330
1A
100
AcDbEntity
  8
SEIHIN
100
AcDbCircle
 10
324.1571765799905
 20
143.818006719235
 30
0.0
 40
5.499999922058408
100
AcDbArc
 50
50.19443624371242
 51
90.00000600216448
  0
LINE
  5
7970
330
1A
100
AcDbEntity
  8
SEIHIN
100
AcDbLine
 10
353.7294085799905
 20
147.818006719235
 30
0.0
 11
355.3082755799903
 21
147.818006719235
 31
0.0
  0
ARC
  5
7971
330
1A
100
AcDbEntity
  8
SEIHIN
100
AcDbCircle
 10
353.7294095799905
 20
147.5109467192351
 30
0.0
 40
0.3070597682291614
100
AcDbArc
 50
90.00000001175086
 51
152.0077599357389
  0
LINE
  5
7972
330
1A
100
AcDbEntity
  8
SEIHIN
100
AcDbLine
 10
348.2061545799904
 20
165.253458719235
 30
0.0
 11
361.4066385799904
 21
167.123624719235
 31
0.0
  0
LINE
  5
7973
330
1A
100
AcDbEntity
  8
SEIHIN
100
AcDbLine
 10
361.1260925799904
 20
169.103850719235
 30
0.0
 11
347.9256075799904
 21
167.2336837192351
 31
0.0
  0
ARC
  5
7974
330
1A
100
AcDbEntity
  8
SEIHIN
100
AcDbCircle
 10
348.4867005799904
 20
163.2732327192351
 30
0.0
 40
3.999999868335057
100
AcDbArc
 50
98.0636427983102
 51
160.5884979740773
  0
ARC
  5
7975
330
1A
100
AcDbEntity
  8
SEIHIN
100
AcDbCircle
 10
348.4867005799904
 20
163.2732327192351
 30
0.0
 40
2.000000049508498
100
AcDbArc
 50
98.0636427983102
 51
160.588485265716
  0
LINE
  5
7976
330
1A
100
AcDbEntity
  8
SEIHIN
100
AcDbLine
 10
350.9668085799904
 20
178.358517719235
 30
0.0
 11
310.1999715799905
 21
172.799403719235
 31
0.0
  0
LINE
  5
7979
330
1A
100
AcDbEntity
  8
CENTER_L
100
AcDbLine
 10
370.480601972565
 20
170.145579363374
 30
0.0
 11
384.4777300594151
 21
177.2568674273441
 31
0.0
  0
ARC
  5
797B
330
1A
100
AcDbEntity
  8
SEIHIN
100
AcDbCircle
 10
385.6879685799904
 20
163.670387719235
 30
0.0
 40
6.624999944286225
100
AcDbArc
 50
175.04220147588
 51
238.8237826041982
  0
LINE
  5
797C
330
1A
100
AcDbEntity
  8
CENTER_L
100
AcDbLine
 10
374.3306622158846
 20
162.5675169841116
 30
0.0
 11
388.3277900197181
 21
169.6788049042943
 31
0.0
  0
ARC
  5
7982
330
1A
100
AcDbEntity
  8
SEIHIN
100
AcDbCircle
 10
370.4114245799904
 20
178.450443719235
 30
0.0
 40
6.999999955304643
100
AcDbArc
 50
27.06228534056819
 51
110.2776866421769
  0
LINE
  5
7983
330
1A
100
AcDbEntity
  8
SEIHIN
100
AcDbLine
 10
372.4470705799904
 20
177.313772719235
 30
0.0
 11
377.5288305799904
 21
179.895578719235
 31
0.0
  0
LINE
  5
7984
330
1A
100
AcDbEntity
  8
SEIHIN
100
AcDbLine
 10
372.4220435799906
 20
178.908463719235
 30
0.0
 11
373.0711465799904
 21
177.630836719235
 31
0.0
  0
ARC
  5
7985
330
1A
100
AcDbEntity
  8
SEIHIN
100
AcDbCircle
 10
370.6389705799904
 20
178.002566719235
 30
0.0
 40
2.000000248971217
100
AcDbArc
 50
26.93298082596751
 51
111.370597584645
  0
LINE
  5
7986
330
1A
100
AcDbEntity
  8
SEIHIN
100
AcDbLine
 10
376.6450241131523
 20
181.6351716709426
 30
0.0
 11
377.5288305799904
 21
179.895578719235
 31
0.0
  0
LINE
  5
7987
330
1A
100
AcDbEntity
  8
SEIHIN
100
AcDbLine
 10
375.0966555799906
 20
180.267305719235
 30
0.0
 11
375.7457565799906
 21
178.989681719235
 31
0.0
  0
ARC
  5
7988
330
1A
100
AcDbEntity
  8
SEIHIN
100
AcDbCircle
 10
370.6389705799904
 20
178.002566719235
 30
0.0
 40
5.000000252443686
100
AcDbArc
 50
26.93298082596678
 51
111.3706255422662
  0
ARC
  5
7990
330
1A
100
AcDbEntity
  8
SEIHIN
100
AcDbCircle
 10
298.0800165799903
 20
152.9078827192351
 30
0.0
 40
40.79999412073524
100
AcDbArc
 50
184.5832787066593
 51
190.3933058531252
  0
LINE
  5
7991
330
1A
100
AcDbEntity
  8
SEIHIN
100
AcDbLine
 10
264.0546415799905
 20
142.318089719235
 30
0.0
 11
264.0546915799905
 21
156.3180467192351
 31
0.0
  0
LINE
  5
7992
330
1A
100
AcDbEntity
  8
SEIHIN
100
AcDbLine
 10
287.0546415799905
 20
142.318089719235
 30
0.0
 11
287.0546915799906
 21
156.318048719235
 31
0.0
  0
LINE
  5
7993
330
1A
100
AcDbEntity
  8
SEIHIN
100
AcDbLine
 10
264.0546415799905
 20
142.318089719235
 30
0.0
 11
287.0546415799905
 21
142.318089719235
 31
0.0
  0
LINE
  5
7994
330
1A
100
AcDbEntity
  8
SEIHIN
100
AcDbLine
 10
259.4248335799905
 20
144.318006719235
 30
0.0
 11
264.0546495799905
 21
144.318006719235
 31
0.0
  0
ARC
  5
7995
330
1A
100
AcDbEntity
  8
SEIHIN
100
AcDbCircle
 10
259.4248335799905
 20
145.818006719235
 30
0.0
 40
1.500000051426164
100
AcDbArc
 50
190.3932883742413
 51
269.9999965545381
  0
LINE
  5
7996
330
1A
100
AcDbEntity
  8
SEIHIN
100
AcDbLine
 10
304.1408925799903
 20
167.864328719235
 30
0.0
 11
297.5951315799905
 21
149.318006719235
 31
0.0
  0
LINE
  5
7997
330
1A
100
AcDbEntity
  8
SEIHIN
100
AcDbLine
 10
306.4983685799905
 20
167.0322787192351
 30
0.0
 11
300.2462725799903
 21
149.318006719235
 31
0.0
  0
LINE
  5
7998
330
1A
100
AcDbEntity
  8
SEIHIN
100
AcDbLine
 10
308.1011015799905
 20
180.587231719235
 30
0.0
 11
299.9400545799904
 21
157.4642667192351
 31
0.0
  0
LINE
  5
7999
330
1A
100
AcDbEntity
  8
SEIHIN
100
AcDbLine
 10
307.1581105799905
 20
180.920051719235
 30
0.0
 11
299.0538625799905
 21
157.9580167192351
 31
0.0
  0
LINE
  5
799A
330
1A
100
AcDbEntity
  8
SEIHIN
100
AcDbLine
 10
303.9336275799904
 20
173.286330719235
 30
0.0
 11
298.5823675799904
 21
158.124426719235
 31
0.0
  0
LINE
  5
799B
330
1A
100
AcDbEntity
  8
SEIHIN
100
AcDbLine
 10
270.7746635799904
 20
160.6646897192351
 30
0.0
 11
269.7966375799905
 21
160.6646887192351
 31
0.0
  0
LINE
  5
799C
330
1A
100
AcDbEntity
  8
SEIHIN
100
AcDbLine
 10
285.3579125799905
 20
161.664693719235
 30
0.0
 11
269.7966305799905
 21
161.664672719235
 31
0.0
  0
ARC
  5
799D
330
1A
100
AcDbEntity
  8
SEIHIN
100
AcDbCircle
 10
275.5546935799905
 20
145.593178719235
 30
0.0
 40
15.72491078112709
100
AcDbArc
 50
43.00252833503147
 51
136.9974830730984
  0
LINE
  5
799E
330
1A
100
AcDbEntity
  8
SEIHIN
100
AcDbLine
 10
269.5545665799904
 20
150.3180897192351
 30
0.0
 11
287.0546415799905
 21
150.3180897192351
 31
0.0
  0
LINE
  5
799F
330
1A
100
AcDbEntity
  8
SEIHIN
100
AcDbLine
 10
251.7588005799905
 20
150.107691719235
 30
0.0
 11
256.9120885799905
 21
150.107691719235
 31
0.0
  0
LINE
  5
79A0
330
1A
100
AcDbEntity
  8
SEIHIN
100
AcDbLine
 10
256.9120885799905
 20
151.1076917192351
 30
0.0
 11
251.7588005799905
 21
151.1076917192351
 31
0.0
  0
LINE
  5
79A1
330
1A
100
AcDbEntity
  8
SEIHIN
100
AcDbLine
 10
253.4998245799905
 20
151.1076917192351
 30
0.0
 11
253.4998245799905
 21
150.107691719235
 31
0.0
  0
LINE
  5
79A2
330
1A
100
AcDbEntity
  8
SEIHIN
100
AcDbLine
 10
251.2222015799905
 20
158.035044719235
 30
0.0
 11
250.2252835799905
 21
158.113503719235
 31
0.0
  0
ARC
  5
79A3
330
1A
100
AcDbEntity
  8
SEIHIN
100
AcDbCircle
 10
251.7588005799905
 20
152.1076917192351
 30
0.0
 40
2.000000158243611
100
AcDbArc
 50
175.5000039676396
 51
269.9999977523173
  0
ARC
  5
79A4
330
1A
100
AcDbEntity
  8
SEIHIN
100
AcDbCircle
 10
251.7588005799905
 20
152.1076917192351
 30
0.0
 40
0.9999998298924708
100
AcDbArc
 50
175.5000039676389
 51
270.0
  0
LINE
  5
79A5
330
1A
100
AcDbEntity
  8
SEIHIN
100
AcDbLine
 10
249.7649665799904
 20
152.2646097192351
 30
0.0
 11
250.2252835799905
 21
158.113503719235
 31
0.0
  0
LINE
  5
79A6
330
1A
100
AcDbEntity
  8
SEIHIN
100
AcDbLine
 10
250.7618835799904
 20
152.186150719235
 30
0.0
 11
251.2222015799905
 21
158.035044719235
 31
0.0
  0
LINE
  5
79A7
330
1A
100
AcDbEntity
  8
SEIHIN
100
AcDbLine
 10
250.8318835799905
 20
153.075582719235
 30
0.0
 11
252.7997735799905
 21
151.1076917192351
 31
0.0
  0
LINE
  5
79A8
330
1A
100
AcDbEntity
  8
SEIHIN
100
AcDbLine
 10
269.3045915799905
 20
154.818013719235
 30
0.0
 11
269.3045915799905
 21
147.6180487192351
 31
0.0
  0
LINE
  5
79A9
330
1A
100
AcDbEntity
  8
SEIHIN
100
AcDbLine
 10
269.5545915799905
 20
155.1180487192351
 30
0.0
 11
269.5545915799905
 21
147.6180487192351
 31
0.0
  0
LINE
  5
79AA
330
1A
100
AcDbEntity
  8
SEIHIN
100
AcDbLine
 10
257.9880915799904
 20
149.318006719235
 30
0.0
 11
264.0546665799905
 21
149.318006719235
 31
0.0
  0
ARC
  5
79AB
330
1A
100
AcDbEntity
  8
SEIHIN
100
AcDbCircle
 10
256.9120885799905
 20
149.6076917192351
 30
0.0
 40
1.499999818375476
100
AcDbArc
 50
4.583278706660171
 51
90.0
  0
ARC
  5
79AC
330
1A
100
AcDbEntity
  8
SEIHIN
100
AcDbCircle
 10
256.9120885799905
 20
149.6076917192351
 30
0.0
 40
0.4999999394584928
100
AcDbArc
 50
4.583221594081381
 51
89.99994288741405
  0
ARC
  5
79AD
330
1A
100
AcDbEntity
  8
SEIHIN
100
AcDbCircle
 10
257.9880915799904
 20
148.818006719235
 30
0.0
 40
0.4999997593863843
100
AcDbArc
 50
89.99999418527593
 51
185.8247471985338
  0
LINE
  5
79AE
330
1A
100
AcDbEntity
  8
SEIHIN
100
AcDbLine
 10
256.3617965799904
 20
151.1076917192351
 30
0.0
 11
256.3617965799904
 21
150.107691719235
 31
0.0
  0
LINE
  5
79AF
330
1A
100
AcDbEntity
  8
SEIHIN
100
AcDbLine
 10
266.3045915799906
 20
147.6180487192351
 30
0.0
 11
266.3045915799906
 21
154.818013719235
 31
0.0
  0
LINE
  5
79B0
330
1A
100
AcDbEntity
  8
SEIHIN
100
AcDbLine
 10
266.0545915799906
 20
155.118045719235
 30
0.0
 11
266.0545915799906
 21
147.618045719235
 31
0.0
  0
ARC
  5
79B1
330
1A
100
AcDbEntity
  8
SEIHIN
100
AcDbCircle
 10
298.0800165799903
 20
152.9078827192351
 30
0.0
 40
39.79999425007106
100
AcDbArc
 50
184.5832787066593
 51
185.1750064315923
  0
LINE
  5
79B2
330
1A
100
AcDbEntity
  8
SEIHIN
100
AcDbLine
 10
264.0546415799905
 20
150.3180897192351
 30
0.0
 11
266.0545665799904
 21
150.3180897192351
 31
0.0
  0
LINE
  5
79B3
330
1A
100
AcDbEntity
  8
SEIHIN
100
AcDbLine
 10
266.0545915799906
 20
147.618045719235
 30
0.0
 11
269.5545915799905
 21
147.6180487192351
 31
0.0
  0
LINE
  5
79B4
330
1A
100
AcDbEntity
  8
SEIHIN
100
AcDbLine
 10
266.0545915799906
 20
155.118045719235
 30
0.0
 11
269.5545915799905
 21
155.1180487192351
 31
0.0
  0
LINE
  5
79B5
330
1A
100
AcDbEntity
  8
SEIHIN
100
AcDbLine
 10
269.3045915799905
 20
154.818013719235
 30
0.0
 11
266.3045915799906
 21
154.818013719235
 31
0.0
  0
LINE
  5
79B6
330
1A
100
AcDbEntity
  8
SEIHIN
100
AcDbLine
 10
269.7966375799905
 20
160.6646887192351
 30
0.0
 11
269.7966305799905
 21
161.664672719235
 31
0.0
  0
LINE
  5
79B7
330
1A
100
AcDbEntity
  8
SEIHIN
100
AcDbLine
 10
295.8743785799904
 20
157.0177267192351
 30
0.0
 11
286.1954055799905
 21
161.480901719235
 31
0.0
  0
CIRCLE
  5
79B8
330
1A
100
AcDbEntity
  8
SEIHIN
100
AcDbCircle
 10
275.5547115799905
 20
156.318048719235
 30
0.0
 40
2.149999999999999
  0
LINE
  5
79B9
330
1A
100
AcDbEntity
  8
SEIHIN
100
AcDbLine
 10
297.1110825799904
 20
155.462726719235
 30
0.0
 11
287.0280775799905
 21
155.462728719235
 31
0.0
  0
ARC
  5
79BA
330
1A
100
AcDbEntity
  8
SEIHIN
100
AcDbCircle
 10
297.1110835799905
 20
158.462726719235
 30
0.0
 40
2.999999940870081
100
AcDbArc
 50
269.9999883784531
 51
340.5599599066714
  0
ARC
  5
79BB
330
1A
100
AcDbEntity
  8
SEIHIN
100
AcDbCircle
 10
296.7118695799904
 20
158.833933719235
 30
0.0
 40
2.00000009820312
100
AcDbArc
 50
245.2446238788493
 51
340.5599821720822
  0
ARC
  5
79BC
330
1A
100
AcDbEntity
  8
SEIHIN
100
AcDbCircle
 10
297.1678825799904
 20
158.6236567192351
 30
0.0
 40
2.00000009820312
100
AcDbArc
 50
245.2446238788493
 51
340.5599821720822
  0
ARC
  5
79BD
330
1A
100
AcDbEntity
  8
SEIHIN
100
AcDbCircle
 10
285.3579155799906
 20
159.664693719235
 30
0.0
 40
1.999999844935611
100
AcDbArc
 50
65.24462387884947
 51
90.00010203811193
  0
ARC
  5
79BE
330
1A
100
AcDbEntity
  8
SEIHIN
100
AcDbCircle
 10
311.2133205799906
 20
165.368177719235
 30
0.0
 40
7.50000019743146
100
AcDbArc
 50
97.76515569653575
 51
160.5599559187044
  0
LINE
  5
79BF
330
1A
100
AcDbEntity
  8
SEIHIN
100
AcDbLine
 10
309.5219185799903
 20
166.6077487192351
 30
0.0
 11
303.4293425799905
 21
149.318006719235
 31
0.0
  0
ARC
  5
79C0
330
1A
100
AcDbEntity
  8
SEIHIN
100
AcDbCircle
 10
310.4650745799905
 20
166.275398719235
 30
0.0
 40
1.00000008945849
100
AcDbArc
 50
97.76515569653586
 51
160.5885380977531
  0
ARC
  5
79C1
330
1A
100
AcDbEntity
  8
SEIHIN
100
AcDbCircle
 10
311.2133205799906
 20
165.368177719235
 30
0.0
 40
4.999999758966238
100
AcDbArc
 50
97.76515569653575
 51
160.5599558232775
  0
LINE
  5
79C2
330
1A
100
AcDbEntity
  8
SEIHIN
100
AcDbLine
 10
308.1011015799905
 20
180.587231719235
 30
0.0
 11
307.1581105799905
 21
180.920051719235
 31
0.0
  0
ARC
  5
79C3
330
1A
100
AcDbEntity
  8
SEIHIN
100
AcDbCircle
 10
304.4051235799905
 20
173.119920719235
 30
0.0
 40
0.5
100
AcDbArc
 50
70.55996517182028
 51
160.559965171825
  0
DIMENSION
  5
7BB3
330
1A
100
AcDbEntity
  8
SUNPOU
 48
5.0
100
AcDbDimension
  2
*D1
 10
420.1146120462058
 20
438.3301884114411
 30
0.0
 11
415.1146120462056
 21
463.9820519114413
 31
0.0
 70
    32
  3
STANDARD
100
AcDbAlignedDimension
 13
390.8349675799904
 23
489.6339154114413
 33
0.0
 14
390.8349675799904
 24
438.3301884114411
 34
0.0
 50
90.0
100
AcDbRotatedDimension
1001
ACAD
1000
DSTYLE
1002
{
1070
    41
1040
7.0
1070
    42
1040
6.0
1070
    43
1040
14.0
1070
    44
1040
3.0
1070
    73
1070
     0
1070
    74
1070
     0
1070
    77
1070
     3
1070
   140
1040
6.0
1070
   141
1040
150.0
1070
   147
1040
2.0
1070
   172
1070
     1
1070
   173
1070
     1
1070
   176
1070
   256
1070
   177
1070
   256
1070
   178
1070
   256
1070
   271
1070
     0
1070
   272
1070
     0
1070
   341
1005
6D
1070
     6
1000
OPEN
1070
     7
1000
OPEN
1070
   371
1070
    -1
1070
   372
1070
    -1
1002
}
  0
DIMENSION
  5
7BC0
330
1A
100
AcDbEntity
  8
SUNPOU
 48
5.0
100
AcDbDimension
  2
*D2
 10
212.0177010364713
 20
455.7215304114412
 30
0.0
 11
207.0177010364713
 21
463.9715304114411
 31
0.0
 70
    32
  3
STANDARD
100
AcDbAlignedDimension
 13
249.7588005799905
 23
472.2215304114412
 33
0.0
 14
249.7588005799905
 24
455.7215304114412
 34
0.0
 50
90.0
100
AcDbRotatedDimension
1001
ACAD
1000
DSTYLE
1002
{
1070
    41
1040
7.0
1070
    42
1040
6.0
1070
    43
1040
14.0
1070
    44
1040
3.0
1070
    73
1070
     0
1070
    74
1070
     0
1070
    77
1070
     3
1070
   140
1040
6.0
1070
   141
1040
150.0
1070
   147
1040
2.0
1070
   172
1070
     1
1070
   173
1070
     1
1070
   176
1070
   256
1070
   177
1070
   256
1070
   178
1070
   256
1070
   271
1070
     0
1070
   272
1070
     0
1070
   341
1005
6D
1070
     6
1000
OPEN
1070
     7
1000
OPEN
1070
   371
1070
    -1
1070
   372
1070
    -1
1002
}
  0
DIMENSION
  5
7BCF
330
1A
100
AcDbEntity
  8
SUNPOU
 48
5.0
100
AcDbDimension
  2
*D3
 10
377.5288305799904
 20
384.8437213863762
 30
0.0
 11
313.5842896276736
 21
389.8437213863762
 31
0.0
 70
    32
  3
STANDARD
100
AcDbAlignedDimension
 13
249.6397486753566
 23
312.9524111025549
 33
0.0
 14
377.5288305799904
 24
340.8024439576414
 34
0.0
100
AcDbRotatedDimension
1001
ACAD
1000
DSTYLE
1002
{
1070
    41
1040
7.0
1070
    42
1040
6.0
1070
    43
1040
14.0
1070
    44
1040
3.0
1070
    73
1070
     0
1070
    74
1070
     0
1070
    77
1070
     3
1070
   140
1040
6.0
1070
   141
1040
150.0
1070
   147
1040
2.0
1070
   172
1070
     1
1070
   173
1070
     1
1070
   176
1070
   256
1070
   177
1070
   256
1070
   178
1070
   256
1070
   271
1070
     0
1070
   272
1070
     0
1070
   341
1005
6D
1070
     6
1000
OPEN
1070
     7
1000
OPEN
1070
   371
1070
    -1
1070
   372
1070
    -1
1002
}
  0
DIMENSION
  5
7BDC
330
1A
100
AcDbEntity
  8
SUNPOU
 48
5.0
100
AcDbDimension
  2
*D4
 10
412.5288305799904
 20
384.8437213863762
 30
0.0
 11
395.0288305799904
 21
389.8437213863762
 31
0.0
 70
    32
  3
STANDARD
100
AcDbAlignedDimension
 13
377.5288305799904
 23
340.8024439576414
 33
0.0
 14
412.5288305799904
 24
340.8024439576414
 34
0.0
100
AcDbRotatedDimension
1001
ACAD
1000
DSTYLE
1002
{
1070
    41
1040
7.0
1070
    42
1040
6.0
1070
    43
1040
14.0
1070
    44
1040
3.0
1070
    73
1070
     0
1070
    74
1070
     0
1070
    77
1070
     3
1070
   140
1040
6.0
1070
   141
1040
150.0
1070
   147
1040
2.0
1070
   172
1070
     1
1070
   173
1070
     1
1070
   176
1070
   256
1070
   177
1070
   256
1070
   178
1070
   256
1070
   271
1070
     0
1070
   272
1070
     0
1070
   341
1005
6D
1070
     6
1000
OPEN
1070
     7
1000
OPEN
1070
   371
1070
    -1
1070
   372
1070
    -1
1002
}
  0
DIMENSION
  5
7BE9
330
1A
100
AcDbEntity
  8
SUNPOU
 48
5.0
100
AcDbDimension
  2
*D5
 10
365.9736351032186
 20
370.2238579647008
 30
0.0
 11
345.9736351032186
 21
375.2238579647008
 31
0.0
 70
    32
  3
STANDARD
100
AcDbAlignedDimension
 13
377.5288305799904
 23
340.8024439576414
 33
0.0
 14
365.9736351032186
 24
323.6899242576412
 34
0.0
100
AcDbRotatedDimension
1001
ACAD
1000
DSTYLE
1002
{
1070
    41
1040
7.0
1070
    42
1040
6.0
1070
    43
1040
14.0
1070
    44
1040
3.0
1070
    73
1070
     0
1070
    74
1070
     0
1070
    77
1070
     3
1070
   140
1040
6.0
1070
   141
1040
150.0
1070
   147
1040
2.0
1070
   172
1070
     1
1070
   173
1070
     1
1070
   176
1070
   256
1070
   177
1070
   256
1070
   178
1070
   256
1070
   271
1070
     0
1070
   272
1070
     0
1070
   341
1005
6D
1070
     6
1000
OPEN
1070
     7
1000
OPEN
1070
   371
1070
    -1
1070
   372
1070
    -1
1002
}
  0
DIMENSION
  5
7BF8
330
1A
100
AcDbEntity
  8
SUNPOU
 48
5.0
100
AcDbDimension
  2
*D6
 10
399.8783505306261
 20
311.7774798384401
 30
0.0
 11
396.1829660743661
 21
330.08988359655
 31
0.0
 70
    33
  3
STANDARD
100
AcDbAlignedDimension
 13
377.5288305799904
 23
340.8024439576414
 33
0.0
 14
393.8349675799904
 24
308.7071189576414
 34
0.0
1001
ACAD
1000
DSTYLE
1002
{
1070
    41
1040
7.0
1070
    42
1040
6.0
1070
    43
1040
14.0
1070
    44
1040
3.0
1070
    73
1070
     0
1070
    74
1070
     0
1070
    77
1070
     3
1070
   140
1040
6.0
1070
   141
1040
150.0
1070
   147
1040
2.0
1070
   172
1070
     1
1070
   173
1070
     1
1070
   176
1070
   256
1070
   177
1070
   256
1070
   178
1070
   256
1070
   271
1070
     0
1070
   272
1070
     0
1070
   341
1005
6D
1070
     6
1000
OPEN
1070
     7
1000
OPEN
1070
   371
1070
    -1
1070
   372
1070
    -1
1002
}
  0
DIMENSION
  5
7C05
330
1A
100
AcDbEntity
  8
SUNPOU
 48
5.0
100
AcDbDimension
  2
*D7
 10
408.2976370736806
 20
316.0549271872379
 30
0.0
 11
402.7254996905071
 21
338.0613366878441
 31
0.0
 70
    33
  3
STANDARD
100
AcDbAlignedDimension
 13
373.7753249046807
 23
348.1904550912588
 33
0.0
 14
393.8349675799904
 24
308.7071189576414
 34
0.0
1001
ACAD
1000
DSTYLE
1002
{
1070
    41
1040
7.0
1070
    42
1040
6.0
1070
    43
1040
14.0
1070
    44
1040
3.0
1070
    73
1070
     0
1070
    74
1070
     0
1070
    77
1070
     3
1070
   140
1040
6.0
1070
   141
1040
150.0
1070
   147
1040
2.0
1070
   172
1070
     1
1070
   173
1070
     1
1070
   176
1070
   256
1070
   177
1070
   256
1070
   178
1070
   256
1070
   271
1070
     0
1070
   272
1070
     0
1070
   341
1005
6D
1070
     6
1000
OPEN
1070
     7
1000
OPEN
1070
   371
1070
    -1
1070
   372
1070
    -1
1002
}
  0
DIMENSION
  5
7C12
330
1A
100
AcDbEntity
  8
SUNPOU
 48
5.0
100
AcDbDimension
  2
*D8
 10
454.6427346575521
 20
379.9804217485963
 30
0.0
 11
450.9473494602996
 21
398.2928254205321
 31
0.0
 70
    33
  3
STANDARD
100
AcDbAlignedDimension
 13
475.5495904873448
 23
384.4330980674383
 33
0.0
 14
473.058375020529
 24
389.3365502067331
 34
0.0
1001
ACAD
1000
DSTYLE
1002
{
1070
    41
1040
7.0
1070
    42
1040
6.0
1070
    43
1040
14.0
1070
    44
1040
3.0
1070
    73
1070
     0
1070
    74
1070
     0
1070
    77
1070
     3
1070
   140
1040
6.0
1070
   141
1040
150.0
1070
   147
1040
2.0
1070
   172
1070
     1
1070
   173
1070
     1
1070
   176
1070
   256
1070
   177
1070
   256
1070
   178
1070
   256
1070
   271
1070
     0
1070
   272
1070
     0
1070
   341
1005
6D
1070
     6
1000
OPEN
1070
     7
1000
OPEN
1070
   371
1070
    -1
1070
   372
1070
    -1
1002
}
  0
DIMENSION
  5
7C21
330
1A
100
AcDbEntity
  8
SUNPOU
 48
5.0
100
AcDbDimension
  2
*D9
 10
470.9488729123858
 20
347.8850973680449
 30
0.0
 11
483.5596260210586
 21
334.1021765588661
 31
0.0
 70
    33
  3
STANDARD
100
AcDbAlignedDimension
 13
486.8732977014743
 23
362.1446781762275
 33
0.0
 14
489.3645132753629
 24
357.2412258261816
 34
0.0
1001
ACAD
1000
DSTYLE
1002
{
1070
    41
1040
7.0
1070
    42
1040
6.0
1070
    43
1040
14.0
1070
    44
1040
3.0
1070
    73
1070
     0
1070
    74
1070
     0
1070
    77
1070
     3
1070
   140
1040
6.0
1070
   141
1040
150.0
1070
   147
1040
2.0
1070
   172
1070
     1
1070
   173
1070
     1
1070
   176
1070
   256
1070
   177
1070
   256
1070
   178
1070
   256
1070
   271
1070
     0
1070
   272
1070
     0
1070
   341
1005
6D
1070
     6
1000
OPEN
1070
     7
1000
OPEN
1070
   371
1070
    -1
1070
   372
1070
    -1
1002
}
  0
DIMENSION
  5
7C30
330
1A
100
AcDbEntity
  8
SUNPOU
 48
5.0
100
AcDbDimension
  2
*D10
 10
455.8689117599338
 20
340.2236720303901
 30
0.0
 11
452.1735265882273
 21
358.5360756520443
 31
0.0
 70
    33
  3
STANDARD
100
AcDbAlignedDimension
 13
473.058375020529
 23
389.3365502067331
 33
0.0
 14
489.3645132753629
 24
357.2412258261816
 34
0.0
1001
ACAD
1000
DSTYLE
1002
{
1070
    41
1040
7.0
1070
    42
1040
6.0
1070
    43
1040
14.0
1070
    44
1040
3.0
1070
    73
1070
     0
1070
    74
1070
     0
1070
    77
1070
     3
1070
   140
1040
6.0
1070
   141
1040
150.0
1070
   147
1040
2.0
1070
   172
1070
     1
1070
   173
1070
     1
1070
   176
1070
   256
1070
   177
1070
   256
1070
   178
1070
   256
1070
   271
1070
     0
1070
   272
1070
     0
1070
   341
1005
6D
1070
     6
1000
OPEN
1070
     7
1000
OPEN
1070
   371
1070
    -1
1070
   372
1070
    -1
1002
}
  0
DIMENSION
  5
7C3D
330
1A
100
AcDbEntity
  8
SUNPOU
 48
5.0
100
AcDbDimension
  2
*D11
 10
550.7791259911523
 20
413.1196180778686
 30
0.0
 11
552.0661722273676
 21
421.625116917955
 31
0.0
 70
    33
  3
STANDARD
100
AcDbAlignedDimension
 13
518.8833666710938
 23
412.6180920175442
 33
0.0
 14
525.2246422362783
 24
400.1365769517416
 34
0.0
1001
ACAD
1000
DSTYLE
1002
{
1070
    41
1040
7.0
1070
    42
1040
6.0
1070
    43
1040
14.0
1070
    44
1040
3.0
1070
    73
1070
     0
1070
    74
1070
     0
1070
    77
1070
     3
1070
   140
1040
6.0
1070
   141
1040
150.0
1070
   147
1040
2.0
1070
   172
1070
     1
1070
   173
1070
     1
1070
   176
1070
   256
1070
   177
1070
   256
1070
   178
1070
   256
1070
   271
1070
     0
1070
   272
1070
     0
1070
   341
1005
6D
1070
     6
1000
OPEN
1070
     7
1000
OPEN
1070
   371
1070
    -1
1070
   372
1070
    -1
1002
}
  0
DIMENSION
  5
7C4C
330
1A
100
AcDbEntity
  8
SUNPOU
 48
5.0
100
AcDbDimension
  2
*D12
 10
500.7000712776304
 20
432.9539164127555
 30
0.0
 11
481.7635919695861
 21
428.9414677932446
 31
0.0
 70
    33
  3
STANDARD
100
AcDbAlignedDimension
 13
483.3756671835979
 23
384.4833577045991
 33
0.0
 14
516.7191430722391
 24
401.4236229237862
 34
0.0
1001
ACAD
1000
DSTYLE
1002
{
1070
    41
1040
7.0
1070
    42
1040
6.0
1070
    43
1040
14.0
1070
    44
1040
3.0
1070
    73
1070
     0
1070
    74
1070
     0
1070
    77
1070
     3
1070
   140
1040
6.0
1070
   141
1040
150.0
1070
   147
1040
2.0
1070
   172
1070
     1
1070
   173
1070
     1
1070
   176
1070
   256
1070
   177
1070
   256
1070
   178
1070
   256
1070
   271
1070
     0
1070
   272
1070
     0
1070
   341
1005
6D
1070
     6
1000
OPEN
1070
     7
1000
OPEN
1070
   371
1070
    -1
1070
   372
1070
    -1
1002
}
  0
DIMENSION
  5
7C59
330
1A
100
AcDbEntity
  8
SUNPOU
 48
5.0
100
AcDbDimension
  2
*D13
 10
495.2545624723335
 20
447.0411834551703
 30
0.0
 11
474.9576585628719
 21
442.3375665352791
 31
0.0
 70
    33
  3
STANDARD
100
AcDbAlignedDimension
 13
479.0710787290869
 23
389.5871781085661
 33
0.0
 14
515.1354038205632
 24
407.9097799285134
 34
0.0
1001
ACAD
1000
DSTYLE
1002
{
1070
    41
1040
7.0
1070
    42
1040
6.0
1070
    43
1040
14.0
1070
    44
1040
3.0
1070
    73
1070
     0
1070
    74
1070
     0
1070
    77
1070
     3
1070
   140
1040
6.0
1070
   141
1040
150.0
1070
   147
1040
2.0
1070
   172
1070
     1
1070
   173
1070
     1
1070
   176
1070
   256
1070
   177
1070
   256
1070
   178
1070
   256
1070
   271
1070
     0
1070
   272
1070
     0
1070
   341
1005
6D
1070
     6
1000
OPEN
1070
     7
1000
OPEN
1070
   371
1070
    -1
1070
   372
1070
    -1
1002
}
  0
DIMENSION
  5
7C66
330
1A
100
AcDbEntity
  8
SUNPOU
 48
5.0
100
AcDbDimension
  2
*D14
 10
493.5957358973211
 20
462.3916627925086
 30
0.0
 11
468.4184986716966
 21
455.2085758585817
 31
0.0
 70
    33
  3
STANDARD
100
AcDbAlignedDimension
 13
473.058375020529
 23
389.3365502067331
 33
0.0
 14
518.8833666710938
 24
412.6180920175442
 34
0.0
1001
ACAD
1000
DSTYLE
1002
{
1070
    41
1040
7.0
1070
    42
1040
6.0
1070
    43
1040
14.0
1070
    44
1040
3.0
1070
    73
1070
     0
1070
    74
1070
     0
1070
    77
1070
     3
1070
   140
1040
6.0
1070
   141
1040
150.0
1070
   147
1040
2.0
1070
   172
1070
     1
1070
   173
1070
     1
1070
   176
1070
   256
1070
   177
1070
   256
1070
   178
1070
   256
1070
   271
1070
     0
1070
   272
1070
     0
1070
   341
1005
6D
1070
     6
1000
OPEN
1070
     7
1000
OPEN
1070
   371
1070
    -1
1070
   372
1070
    -1
1002
}
  0
TEXT
  5
7D9A
330
1A
100
AcDbEntity
  8
SUNPOU
  6
CONTINUOUS
100
AcDbText
 10
392.4783744602225
 20
396.5517755822147
 30
0.0
 40
6.0
  1
スライド幅
100
AcDbText
  0
LWPOLYLINE
  5
7E91
330
1A
100
AcDbEntity
  8
ZUWAKU
100
AcDbPolyline
 90
        4
 70
     1
 43
0.0
 10
0.7999992246000148
 20
550.8000001839607
 10
0.7999992246000148
 20
0.8000001839607193
 10
796.7999992246
 20
0.8000001839607193
 10
796.7999992246
 20
550.8000001839607
  0
LWPOLYLINE
  5
7E92
330
1A
100
AcDbEntity
  8
ZUWAKU
100
AcDbPolyline
 90
        4
 70
     1
 43
0.0
 10
0.3999992246000374
 20
551.2000001839607
 10
0.3999992246000374
 20
0.4000001839607421
 10
797.1999992246001
 20
0.4000001839607191
 10
797.1999992246001
 20
551.2000001839607
  0
LWPOLYLINE
  5
7E93
330
1A
100
AcDbEntity
  8
ZUWAKU
100
AcDbPolyline
 90
        4
 70
     1
 43
0.0
 10
-0.0000007753999398
 20
551.6000001839606
 10
-0.0000007753999398
 20
0.0000001839606512
 10
797.5999992246002
 20
0.0000001839607187
 10
797.5999992246002
 20
551.6000001839607
  0
LWPOLYLINE
  5
7E94
330
1A
100
AcDbEntity
  8
ZUWAKU
100
AcDbPolyline
 90
        4
 70
     1
 43
0.0
 10
0.5999992245999693
 20
551.0000001839607
 10
0.5999992245999693
 20
0.6000001839606739
 10
796.9999992246003
 20
0.6000001839607201
 10
796.9999992246
 20
551.0000001839607
  0
LWPOLYLINE
  5
7E95
330
1A
100
AcDbEntity
  8
ZUWAKU
100
AcDbPolyline
 90
        4
 70
     1
 43
0.0
 10
0.199999224599992
 20
551.4000001839607
 10
0.199999224599992
 20
0.2000001839606966
 10
797.3999992245999
 20
0.2000001839607197
 10
797.3999992246001
 20
551.4000001839607
  0
LINE
  5
7E96
330
1A
100
AcDbEntity
  8
ZUWAKU
100
AcDbLine
 10
-0.0000007753999398
 20
30.00000018396065
 30
0.0
 11
797.3999992245999
 21
30.00000018396065
 31
0.0
  0
LINE
  5
7E97
330
1A
100
AcDbEntity
  8
ZUWAKU
100
AcDbLine
 10
-0.0000007753999398
 20
30.20000018396065
 30
0.0
 11
797.3999992245999
 21
30.20000018396065
 31
0.0
  0
LINE
  5
7E98
330
1A
100
AcDbEntity
  8
ZUWAKU
100
AcDbLine
 10
-0.0000007753999398
 20
30.40000018396066
 30
0.0
 11
797.3999992245999
 21
30.40000018396066
 31
0.0
  0
LINE
  5
7E99
330
1A
100
AcDbEntity
  8
ZUWAKU
100
AcDbLine
 10
-0.0000007753999398
 20
30.60000018396066
 30
0.0
 11
797.3999992245999
 21
30.60000018396066
 31
0.0
  0
LINE
  5
7E9A
330
1A
100
AcDbEntity
  8
ZUWAKU
100
AcDbLine
 10
-0.0000007753999398
 20
30.80000018396066
 30
0.0
 11
797.3999992245999
 21
30.80000018396066
 31
0.0
  0
LINE
  5
7E9B
330
1A
100
AcDbEntity
  8
ZUWAKU
100
AcDbLine
 10
208.6466005146681
 20
15.40000018396068
 30
0.0
 11
447.4243631955914
 21
15.40000018396068
 31
0.0
  0
LINE
  5
7E9C
330
1A
100
AcDbEntity
  8
ZUWAKU
100
AcDbLine
 10
208.6466005146681
 20
15.60000018396068
 30
0.0
 11
447.4243631955914
 21
15.60000018396069
 31
0.0
  0
LINE
  5
7E9D
330
1A
100
AcDbEntity
  8
ZUWAKU
100
AcDbLine
 10
208.6466005146681
 20
15.20000018396069
 30
0.0
 11
447.4243631955914
 21
15.20000018396068
 31
0.0
  0
TEXT
  5
7E9E
330
1A
100
AcDbEntity
  8
MOJI
100
AcDbText
 10
92.9577888127692
 20
12.74117831423541
 30
0.0
 40
6.0
  1
新・丸トップＲＶ１０５
 41
0.9
  7
ｽﾀｲﾙ1
100
AcDbText
  0
CIRCLE
  5
7E9F
330
1A
100
AcDbEntity
  8
ZUWAKU
100
AcDbCircle
 10
25.99221137938116
 20
15.20000018396065
 30
0.0
 40
1.75
  0
LINE
  5
7EA0
330
1A
100
AcDbEntity
  8
ZUWAKU
100
AcDbLine
 10
26.86721137938116
 20
7.150000183960656
 30
0.0
 11
24.9422113793812
 21
7.150000183960656
 31
0.0
  0
LINE
  5
7EA1
330
1A
100
AcDbEntity
  8
ZUWAKU
100
AcDbLine
 10
24.9422113793812
 20
9.950000183960653
 30
0.0
 11
26.86721137938116
 21
9.950000183960653
 31
0.0
  0
LINE
  5
7EA2
330
1A
100
AcDbEntity
  8
ZUWAKU
100
AcDbLine
 10
26.86721137938116
 20
20.45000018396065
 30
0.0
 11
24.9422113793812
 21
20.45000018396065
 31
0.0
  0
LINE
  5
7EA3
330
1A
100
AcDbEntity
  8
ZUWAKU
100
AcDbLine
 10
24.9422113793812
 20
23.25000018396061
 30
0.0
 11
26.86721137938116
 21
23.25000018396065
 31
0.0
  0
HATCH
  5
7EA4
330
1A
100
AcDbEntity
  8
ZUWAKU
100
AcDbHatch
 10
0.0
 20
0.0
 30
0.0
210
0.0
220
0.0
230
1.0
  2
ANSI37
 70
     0
 71
     0
 91
        8
 92
        7
 72
     1
 73
     1
 93
       24
 10
14.50226188571991
 20
17.64484866494423
 42
-0.1989123673796348
 10
14.09221137938118
 20
18.63479815860528
 42
0.0
 10
14.09221137938118
 20
19.92500018396066
 42
-0.4142135623730912
 10
14.61721137938116
 20
20.45000018396065
 42
0.0
 10
17.59221137938107
 20
20.45000018396065
 42
0.4142135623731546
 10
18.11721137938116
 20
20.97500018396064
 42
0.0
 10
18.11721137938116
 20
22.72500018396065
 42
0.4142135623731586
 10
17.59221137938107
 20
23.25000018396065
 42
0.0
 10
14.09221137938118
 20
23.25000018396065
 42
0.4142135623730928
 10
11.29221137938122
 20
20.45000018396068
 42
0.0
 10
11.29221137938122
 20
18.63479815860541
 42
0.1989123673796619
 10
12.52236289839766
 20
15.6649496776218
 42
0.0
 10
15.43216087304233
 20
12.75515170297714
 42
-0.1989123673796613
 10
15.84221137938118
 20
11.76520220931596
 42
0.0
 10
15.84221137938118
 20
10.47500018396064
 42
-0.4142135623730911
 10
15.3172113793812
 20
9.950000183960653
 42
0.0
 10
12.34221137938129
 20
9.950000183960653
 42
0.4142135623731526
 10
11.8172113793812
 20
9.425000183960666
 42
0.0
 10
11.8172113793812
 20
7.675000183960644
 42
0.4142135623731526
 10
12.34221137938129
 20
7.150000183960656
 42
0.0
 10
15.84221137938118
 20
7.150000183960656
 42
0.4142135623731044
 10
18.64221137938125
 20
9.950000183960632
 42
0.0
 10
18.64221137938125
 20
11.7652022093159
 42
0.1989123673796604
 10
17.4120598603647
 20
14.73505069029944
 42
0.0
 97
        0
 92
        7
 72
     1
 73
     1
 93
       16
 10
23.54221137938123
 20
19.05000018396066
 42
-0.4142135623730935
 10
24.9422113793812
 20
20.45000018396065
 42
0.0
 10
26.86721137938116
 20
20.45000018396065
 42
0.4142135623731546
 10
27.39221137938125
 20
20.97500018396064
 42
0.0
 10
27.39221137938125
 20
22.72500018396065
 42
0.4142135623730951
 10
26.86721137938127
 20
23.25000018396065
 42
0.0
 10
24.94221137938109
 20
23.25000018396061
 42
0.4142135623730892
 10
20.74221137938116
 20
19.05000018396059
 42
0.0
 10
20.74221137938116
 20
11.35000018396068
 42
0.4142135623730969
 10
24.9422113793812
 20
7.150000183960656
 42
0.0
 10
26.86721137938116
 20
7.150000183960656
 42
0.4142135623731526
 10
27.39221137938125
 20
7.675000183960644
 42
0.0
 10
27.39221137938125
 20
9.425000183960666
 42
0.4142135623730891
 10
26.86721137938127
 20
9.950000183960653
 42
0.0
 10
24.9422113793812
 20
9.950000183960653
 42
-0.4142135623730928
 10
23.54221137938123
 20
11.35000018396064
 42
0.0
 97
        0
 92
        7
 72
     1
 73
     1
 93
        2
 10
24.24221137938116
 20
15.20000018396065
 42
1.0
 10
27.74221137938116
 20
15.20000018396065
 42
1.0
 97
        0
 92
        7
 72
     1
 73
     1
 93
       26
 10
37.31485786155917
 20
19.20504737752408
 42
0.0
 10
38.37649749469699
 20
22.56690621579367
 42
0.5069206636600134
 10
37.87586659550163
 20
23.25000018396065
 42
0.0
 10
36.1769772158924
 20
23.25000018396065
 42
0.3272098845218764
 10
35.67634631669704
 20
22.88309415212762
 42
0.0
 10
33.80807644206527
 20
16.96690621579373
 42
-0.3272098845219541
 10
33.3074455428698
 20
16.60000018396065
 42
0.0
 10
33.16721137938134
 20
16.60000018396065
 42
-0.4142135623731526
 10
32.64221137938125
 20
17.12500018396064
 42
0.0
 10
32.64221137938125
 20
22.72500018396065
 42
0.4142135623730951
 10
32.11721137938127
 20
23.25000018396065
 42
0.0
 10
30.36721137938116
 20
23.25000018396065
 42
0.4142135623730871
 10
29.84221137938118
 20
22.72500018396067
 42
0.0
 10
29.84221137938118
 20
7.675000183960644
 42
0.4142135623730891
 10
30.36721137938116
 20
7.150000183960656
 42
0.0
 10
32.11721137938116
 20
7.150000183960656
 42
0.4142135623731526
 10
32.64221137938125
 20
7.675000183960644
 42
0.0
 10
32.64221137938125
 20
13.27500018396066
 42
-0.4142135623731526
 10
33.16721137938134
 20
13.80000018396065
 42
0.0
 10
33.30744554286991
 20
13.80000018396065
 42
-0.3272098845218915
 10
33.80807644206527
 20
13.43309415212758
 42
0.0
 10
35.67634631669704
 20
7.516906215793728
 42
0.3272098845218902
 10
36.1769772158924
 20
7.150000183960656
 42
0.0
 10
37.87586659550163
 20
7.150000183960656
 42
0.5069206636600335
 10
38.37649749469699
 20
7.833094152127664
 42
0.0
 10
36.05010611622333
 20
15.20000018396079
 42
0.0
 97
        0
 92
        7
 72
     1
 73
     1
 93
        8
 10
43.49221137938116
 20
22.72500018396066
 42
0.4142135623731546
 10
42.96721137938106
 20
23.25000018396065
 42
0.0
 10
41.2172113793813
 20
23.25000018396065
 42
0.4142135623731507
 10
40.69221137938121
 20
22.72500018396067
 42
0.0
 10
40.69221137938121
 20
7.675000183960644
 42
0.4142135623731526
 10
41.2172113793813
 20
7.150000183960656
 42
0.0
 10
42.96721137938106
 20
7.150000183960656
 42
0.4142135623731526
 10
43.49221137938116
 20
7.675000183960644
 42
0.0
 97
        0
 92
        7
 72
     1
 73
     1
 93
       24
 10
48.39221137938125
 20
19.92500018396066
 42
-0.4142135623731546
 10
48.91721137938134
 20
20.45000018396065
 42
0.0
 10
51.89221137938125
 20
20.45000018396065
 42
0.4142135623730911
 10
52.41721137938123
 20
20.97500018396064
 42
0.0
 10
52.41721137938123
 20
22.72500018396065
 42
0.4142135623730952
 10
51.89221137938125
 20
23.25000018396065
 42
0.0
 10
48.39221137938125
 20
23.25000018396065
 42
0.4142135623731048
 10
45.59221137938118
 20
20.45000018396068
 42
0.0
 10
45.59221137938118
 20
18.63479815860541
 42
0.1989123673796613
 10
46.82236289839773
 20
15.66494967762186
 42
0.0
 10
49.73216087304241
 20
12.75515170297719
 42
-0.1989123673796402
 10
50.14221137938125
 20
11.76520220931612
 42
0.0
 10
50.14221137938125
 20
10.47500018396064
 42
-0.4142135623730911
 10
49.61721137938127
 20
9.950000183960653
 42
0.0
 10
46.64221137938125
 20
9.950000183960653
 42
0.4142135623731526
 10
46.11721137938116
 20
9.425000183960666
 42
0.0
 10
46.11721137938116
 20
7.675000183960644
 42
0.4142135623730891
 10
46.64221137938113
 20
7.150000183960656
 42
0.0
 10
50.14221137938125
 20
7.150000183960656
 42
0.4142135623730925
 10
52.9422113793812
 20
9.950000183960632
 42
0.0
 10
52.9422113793812
 20
11.7652022093159
 42
0.1989123673796675
 10
51.71205986036466
 20
14.73505069029956
 42
0.0
 10
48.80226188572009
 20
17.64484866494407
 42
-0.1989123673796652
 10
48.39221137938125
 20
18.63479815860524
 42
0.0
 97
        0
 92
        7
 72
     1
 73
     1
 93
       16
 10
57.84221137938118
 20
22.72500018396064
 42
0.414213562373103
 10
57.3172113793812
 20
23.25000018396065
 42
0.0
 10
55.5672113793812
 20
23.25000018396065
 42
0.4142135623730871
 10
55.04221137938123
 20
22.72500018396067
 42
0.0
 10
55.04221137938123
 20
9.950000183960632
 42
0.4142135623730926
 10
57.84221137938118
 20
7.150000183960656
 42
0.0
 10
61.34221137938118
 20
7.150000183960656
 42
0.4142135623731044
 10
64.14221137938125
 20
9.950000183960632
 42
0.0
 10
64.14221137938125
 20
22.72500018396065
 42
0.4142135623730951
 10
63.61721137938127
 20
23.25000018396065
 42
0.0
 10
61.86721137938116
 20
23.25000018396065
 42
0.4142135623730871
 10
61.34221137938118
 20
22.72500018396067
 42
0.0
 10
61.34221137938118
 20
11.00000018396062
 42
-0.414213562373088
 10
60.29221137938122
 20
9.950000183960653
 42
0.0
 10
58.89221137938125
 20
9.950000183960653
 42
-0.4142135623731197
 10
57.84221137938118
 20
11.00000018396062
 42
0.0
 97
        0
 92
        7
 72
     1
 73
     1
 93
        8
 10
69.04221137938122
 20
22.72500018396067
 42
0.4142135623730871
 10
68.51721137938125
 20
23.25000018396065
 42
0.0
 10
66.76721137938125
 20
23.25000018396065
 42
0.4142135623731507
 10
66.24221137938116
 20
22.72500018396067
 42
0.0
 10
66.24221137938116
 20
7.675000183960644
 42
0.4142135623730891
 10
66.76721137938113
 20
7.150000183960656
 42
0.0
 10
68.51721137938125
 20
7.150000183960656
 42
0.4142135623730891
 10
69.04221137938122
 20
7.675000183960644
 42
0.0
 97
        0
 75
     0
 76
     1
 52
0.0
 41
0.2
 77
     0
 78
     2
 53
45.0
 43
-900.9423051100789
 44
-13.19999981603928
 45
-0.4490128060534576
 46
0.4490128060534577
 79
     0
 53
135.0
 43
-900.9423051100789
 44
-13.19999981603928
 45
-0.4490128060534577
 46
-0.4490128060534576
 79
     0
 47
0.057451373970553
 98
        8
 10
16.07985418762337
 20
15.1671738298462
 10
22.40451423103923
 20
18.84406236641166
 10
25.16436711025971
 20
15.51188183003137
 10
30.91405920623719
 20
16.20129783040215
 10
41.83847124355679
 20
16.66091009794377
 10
46.89820011972961
 20
19.41857650036786
 10
56.55768519700041
 20
18.72915809905566
 10
67.82707884422279
 20
19.18877036659728
  0
ARC
  5
7EA5
330
1A
100
AcDbEntity
  8
ZUWAKU
100
AcDbCircle
 10
15.49221137938116
 20
18.63479815860535
 30
0.0
 40
4.199999999999999
100
AcDbArc
 50
180.0
 51
225.0
  0
LINE
  5
7EA6
330
1A
100
AcDbEntity
  8
ZUWAKU
100
AcDbLine
 10
20.74221137938116
 20
11.35000018396066
 30
0.0
 11
20.74221137938116
 21
19.05000018396061
 31
0.0
  0
LINE
  5
7EA7
330
1A
100
AcDbEntity
  8
ZUWAKU
100
AcDbLine
 10
23.54221137938123
 20
19.05000018396065
 30
0.0
 11
23.54221137938123
 21
11.35000018396066
 31
0.0
  0
ARC
  5
7EA8
330
1A
100
AcDbEntity
  8
ZUWAKU
100
AcDbCircle
 10
15.49221137938116
 20
18.63479815860535
 30
0.0
 40
1.399999999999999
100
AcDbArc
 50
180.0000000000016
 51
224.9999999999988
  0
ARC
  5
7EA9
330
1A
100
AcDbEntity
  8
ZUWAKU
100
AcDbCircle
 10
24.9422113793812
 20
11.35000018396066
 30
0.0
 40
4.199999999999999
100
AcDbArc
 50
180.0
 51
270.0
  0
ARC
  5
7EAA
330
1A
100
AcDbEntity
  8
ZUWAKU
100
AcDbCircle
 10
15.84221137938118
 20
9.950000183960653
 30
0.0
 40
2.799999999999999
100
AcDbArc
 50
270.0
 51
0.0
  0
ARC
  5
7EAB
330
1A
100
AcDbEntity
  8
ZUWAKU
100
AcDbCircle
 10
14.4422113793812
 20
11.76520220931595
 30
0.0
 40
4.199999999999999
100
AcDbArc
 50
0.0
 51
45.0
  0
LINE
  5
7EAC
330
1A
100
AcDbEntity
  8
ZUWAKU
100
AcDbLine
 10
12.52236289839766
 20
15.66494967762183
 30
0.0
 11
15.43216087304233
 21
12.75515170297717
 31
0.0
  0
LINE
  5
7EAD
330
1A
100
AcDbEntity
  8
ZUWAKU
100
AcDbLine
 10
12.34221137938118
 20
9.950000183960653
 30
0.0
 11
15.3172113793812
 21
9.950000183960653
 31
0.0
  0
LINE
  5
7EAE
330
1A
100
AcDbEntity
  8
ZUWAKU
100
AcDbLine
 10
12.34221137938118
 20
7.150000183960656
 30
0.0
 11
15.84221137938118
 21
7.150000183960656
 31
0.0
  0
ARC
  5
7EAF
330
1A
100
AcDbEntity
  8
ZUWAKU
100
AcDbCircle
 10
12.34221137938118
 20
9.425000183960655
 30
0.0
 40
0.525
100
AcDbArc
 50
90.0
 51
180.0
  0
ARC
  5
7EB0
330
1A
100
AcDbEntity
  8
ZUWAKU
100
AcDbCircle
 10
12.34221137938118
 20
7.675000183960655
 30
0.0
 40
0.525
100
AcDbArc
 50
180.0
 51
270.0
  0
LINE
  5
7EB1
330
1A
100
AcDbEntity
  8
ZUWAKU
100
AcDbLine
 10
11.8172113793812
 20
7.675000183960655
 30
0.0
 11
11.8172113793812
 21
9.425000183960655
 31
0.0
  0
ARC
  5
7EB2
330
1A
100
AcDbEntity
  8
ZUWAKU
100
AcDbCircle
 10
14.4422113793812
 20
11.765202209316
 30
0.0
 40
1.399999999999999
100
AcDbArc
 50
0.0
 51
45.0
  0
ARC
  5
7EB3
330
1A
100
AcDbEntity
  8
ZUWAKU
100
AcDbCircle
 10
15.3172113793812
 20
10.47500018396066
 30
0.0
 40
0.525
100
AcDbArc
 50
270.0
 51
0.0
  0
LINE
  5
7EB4
330
1A
100
AcDbEntity
  8
ZUWAKU
100
AcDbLine
 10
15.84221137938118
 20
10.47500018396066
 30
0.0
 11
15.84221137938118
 21
11.765202209316
 31
0.0
  0
LINE
  5
7EB5
330
1A
100
AcDbEntity
  8
ZUWAKU
100
AcDbLine
 10
17.4120598603647
 20
14.73505069029948
 30
0.0
 11
14.50226188572003
 21
17.64484866494415
 31
0.0
  0
ARC
  5
7EB6
330
1A
100
AcDbEntity
  8
ZUWAKU
100
AcDbCircle
 10
24.9422113793812
 20
11.35000018396066
 30
0.0
 40
1.399999999999999
100
AcDbArc
 50
180.0
 51
270.0
  0
LINE
  5
7EB7
330
1A
100
AcDbEntity
  8
ZUWAKU
100
AcDbLine
 10
18.64221137938125
 20
9.950000183960653
 30
0.0
 11
18.64221137938125
 21
11.765202209316
 31
0.0
  0
ARC
  5
7EB8
330
1A
100
AcDbEntity
  8
ZUWAKU
100
AcDbCircle
 10
17.59221137938118
 20
20.97500018396065
 30
0.0
 40
0.525
100
AcDbArc
 50
270.0
 51
0.0
  0
ARC
  5
7EB9
330
1A
100
AcDbEntity
  8
ZUWAKU
100
AcDbCircle
 10
17.59221137938118
 20
22.72500018396065
 30
0.0
 40
0.525
100
AcDbArc
 50
0.0
 51
90.0
  0
ARC
  5
7EBA
330
1A
100
AcDbEntity
  8
ZUWAKU
100
AcDbCircle
 10
14.09221137938118
 20
20.45000018396065
 30
0.0
 40
2.799999999999999
100
AcDbArc
 50
90.0
 51
180.0
  0
LINE
  5
7EBB
330
1A
100
AcDbEntity
  8
ZUWAKU
100
AcDbLine
 10
11.29221137938122
 20
20.45000018396065
 30
0.0
 11
11.29221137938122
 21
18.63479815860531
 31
0.0
  0
LINE
  5
7EBC
330
1A
100
AcDbEntity
  8
ZUWAKU
100
AcDbLine
 10
17.59221137938118
 20
20.45000018396065
 30
0.0
 11
14.61721137938116
 21
20.45000018396065
 31
0.0
  0
LINE
  5
7EBD
330
1A
100
AcDbEntity
  8
ZUWAKU
100
AcDbLine
 10
14.09221137938118
 20
19.92500018396065
 30
0.0
 11
14.09221137938118
 21
18.63479815860531
 31
0.0
  0
ARC
  5
7EBE
330
1A
100
AcDbEntity
  8
ZUWAKU
100
AcDbCircle
 10
14.61721137938116
 20
19.92500018396065
 30
0.0
 40
0.525
100
AcDbArc
 50
90.0
 51
180.0
  0
LINE
  5
7EBF
330
1A
100
AcDbEntity
  8
ZUWAKU
100
AcDbLine
 10
14.09221137938118
 20
23.25000018396065
 30
0.0
 11
17.59221137938118
 21
23.25000018396065
 31
0.0
  0
ARC
  5
7EC0
330
1A
100
AcDbEntity
  8
ZUWAKU
100
AcDbCircle
 10
24.9422113793812
 20
19.05000018396061
 30
0.0
 40
4.199999999999999
100
AcDbArc
 50
90.0
 51
180.0
  0
ARC
  5
7EC1
330
1A
100
AcDbEntity
  8
ZUWAKU
100
AcDbCircle
 10
24.9422113793812
 20
19.05000018396065
 30
0.0
 40
1.399999999999999
100
AcDbArc
 50
90.0
 51
180.0
  0
LINE
  5
7EC2
330
1A
100
AcDbEntity
  8
ZUWAKU
100
AcDbLine
 10
18.11721137938116
 20
22.72500018396065
 30
0.0
 11
18.11721137938116
 21
20.97500018396065
 31
0.0
  0
LINE
  5
7EC3
330
1A
100
AcDbEntity
  8
ZUWAKU
100
AcDbLine
 10
35.67634631669704
 20
22.88309415212762
 30
0.0
 11
33.80807644206527
 21
16.96690621579368
 31
0.0
  0
LINE
  5
7EC4
330
1A
100
AcDbEntity
  8
ZUWAKU
100
AcDbLine
 10
29.84221137938118
 20
22.72500018396065
 30
0.0
 11
29.84221137938118
 21
7.675000183960655
 31
0.0
  0
LINE
  5
7EC5
330
1A
100
AcDbEntity
  8
ZUWAKU
100
AcDbLine
 10
32.64221137938125
 20
17.12500018396065
 30
0.0
 11
32.64221137938125
 21
22.72500018396065
 31
0.0
  0
LINE
  5
7EC6
330
1A
100
AcDbEntity
  8
ZUWAKU
100
AcDbLine
 10
57.84221137938118
 20
11.00000018396065
 30
0.0
 11
57.84221137938118
 21
22.72500018396065
 31
0.0
  0
LINE
  5
7EC7
330
1A
100
AcDbEntity
  8
ZUWAKU
100
AcDbLine
 10
55.04221137938123
 20
22.72500018396065
 30
0.0
 11
55.04221137938123
 21
9.950000183960653
 31
0.0
  0
LINE
  5
7EC8
330
1A
100
AcDbEntity
  8
ZUWAKU
100
AcDbLine
 10
43.49221137938116
 20
7.675000183960655
 30
0.0
 11
43.49221137938116
 21
22.72500018396065
 31
0.0
  0
LINE
  5
7EC9
330
1A
100
AcDbEntity
  8
ZUWAKU
100
AcDbLine
 10
40.69221137938121
 20
22.72500018396065
 30
0.0
 11
40.69221137938121
 21
7.675000183960655
 31
0.0
  0
LINE
  5
7ECA
330
1A
100
AcDbEntity
  8
ZUWAKU
100
AcDbLine
 10
37.31485786155917
 20
19.20504737752408
 30
0.0
 11
36.05010611622333
 21
15.20000018396067
 31
0.0
  0
ARC
  5
7ECB
330
1A
100
AcDbEntity
  8
ZUWAKU
100
AcDbCircle
 10
49.79221137938123
 20
18.63479815860535
 30
0.0
 40
4.199999999999999
100
AcDbArc
 50
180.0
 51
225.0
  0
ARC
  5
7ECC
330
1A
100
AcDbEntity
  8
ZUWAKU
100
AcDbCircle
 10
49.79221137938123
 20
18.63479815860535
 30
0.0
 40
1.399999999999999
100
AcDbArc
 50
180.0000000000016
 51
224.9999999999988
  0
LINE
  5
7ECD
330
1A
100
AcDbEntity
  8
ZUWAKU
100
AcDbLine
 10
66.24221137938116
 20
22.72500018396065
 30
0.0
 11
66.24221137938116
 21
7.675000183960655
 31
0.0
  0
LINE
  5
7ECE
330
1A
100
AcDbEntity
  8
ZUWAKU
100
AcDbLine
 10
69.04221137938122
 20
7.675000183960655
 30
0.0
 11
69.04221137938122
 21
22.72500018396065
 31
0.0
  0
LINE
  5
7ECF
330
1A
100
AcDbEntity
  8
ZUWAKU
100
AcDbLine
 10
61.34221137938118
 20
22.72500018396065
 30
0.0
 11
61.34221137938118
 21
11.00000018396065
 31
0.0
  0
LINE
  5
7ED0
330
1A
100
AcDbEntity
  8
ZUWAKU
100
AcDbLine
 10
64.14221137938125
 20
9.950000183960653
 30
0.0
 11
64.14221137938125
 21
22.72500018396065
 31
0.0
  0
LINE
  5
7ED1
330
1A
100
AcDbEntity
  8
ZUWAKU
100
AcDbLine
 10
79.12662877258845
 20
30.00000018396065
 30
0.0
 11
79.12662877258845
 21
0.8000001839607193
 31
0.0
  0
LINE
  5
7ED2
330
1A
100
AcDbEntity
  8
ZUWAKU
100
AcDbLine
 10
79.52662877258831
 20
30.00000018396065
 30
0.0
 11
79.52662877258854
 21
0.8000001839607193
 31
0.0
  0
LINE
  5
7ED3
330
1A
100
AcDbEntity
  8
ZUWAKU
100
AcDbLine
 10
79.32662877258827
 20
30.00000018396065
 30
0.0
 11
79.32662877258849
 21
0.8000001839607193
 31
0.0
  0
LINE
  5
7ED4
330
1A
100
AcDbEntity
  8
ZUWAKU
100
AcDbLine
 10
57.84221137938118
 20
7.150000183960656
 30
0.0
 11
61.34221137938118
 21
7.150000183960656
 31
0.0
  0
LINE
  5
7ED5
330
1A
100
AcDbEntity
  8
ZUWAKU
100
AcDbLine
 10
60.29221137938122
 20
9.950000183960653
 30
0.0
 11
58.89221137938125
 21
9.950000183960653
 31
0.0
  0
LINE
  5
7ED6
330
1A
100
AcDbEntity
  8
ZUWAKU
100
AcDbLine
 10
41.21721137938118
 20
7.150000183960656
 30
0.0
 11
42.96721137938118
 21
7.150000183960656
 31
0.0
  0
LINE
  5
7ED7
330
1A
100
AcDbEntity
  8
ZUWAKU
100
AcDbLine
 10
35.67634631669704
 20
7.516906215793682
 30
0.0
 11
33.80807644206527
 21
13.43309415212762
 31
0.0
  0
ARC
  5
7ED8
330
1A
100
AcDbEntity
  8
ZUWAKU
100
AcDbCircle
 10
33.16721137938122
 20
13.27500018396065
 30
0.0
 40
0.525
100
AcDbArc
 50
90.0
 51
180.0
  0
ARC
  5
7ED9
330
1A
100
AcDbEntity
  8
ZUWAKU
100
AcDbCircle
 10
33.30744554286991
 20
13.27500018396065
 30
0.0
 40
0.525
100
AcDbArc
 50
17.52556837372303
 51
90.0
  0
ARC
  5
7EDA
330
1A
100
AcDbEntity
  8
ZUWAKU
100
AcDbCircle
 10
30.36721137938116
 20
7.675000183960655
 30
0.0
 40
0.525
100
AcDbArc
 50
180.0
 51
270.0
  0
ARC
  5
7EDB
330
1A
100
AcDbEntity
  8
ZUWAKU
100
AcDbCircle
 10
26.86721137938116
 20
9.425000183960655
 30
0.0
 40
0.525
100
AcDbArc
 50
0.0
 51
90.0
  0
ARC
  5
7EDC
330
1A
100
AcDbEntity
  8
ZUWAKU
100
AcDbCircle
 10
26.86721137938116
 20
7.675000183960655
 30
0.0
 40
0.525
100
AcDbArc
 50
270.0
 51
0.0
  0
LINE
  5
7EDD
330
1A
100
AcDbEntity
  8
ZUWAKU
100
AcDbLine
 10
27.39221137938125
 20
9.425000183960655
 30
0.0
 11
27.39221137938125
 21
7.675000183960655
 31
0.0
  0
LINE
  5
7EDE
330
1A
100
AcDbEntity
  8
ZUWAKU
100
AcDbLine
 10
32.64221137938125
 20
7.675000183960655
 30
0.0
 11
32.64221137938125
 21
13.27500018396065
 31
0.0
  0
ARC
  5
7EDF
330
1A
100
AcDbEntity
  8
ZUWAKU
100
AcDbCircle
 10
32.11721137938116
 20
7.675000183960655
 30
0.0
 40
0.525
100
AcDbArc
 50
270.0
 51
0.0
  0
LINE
  5
7EE0
330
1A
100
AcDbEntity
  8
ZUWAKU
100
AcDbLine
 10
30.36721137938116
 20
7.150000183960656
 30
0.0
 11
32.11721137938116
 21
7.150000183960656
 31
0.0
  0
ARC
  5
7EE1
330
1A
100
AcDbEntity
  8
ZUWAKU
100
AcDbCircle
 10
33.16721137938122
 20
17.12500018396065
 30
0.0
 40
0.525
100
AcDbArc
 50
180.0
 51
270.0
  0
LINE
  5
7EE2
330
1A
100
AcDbEntity
  8
ZUWAKU
100
AcDbLine
 10
33.16721137938122
 20
13.80000018396065
 30
0.0
 11
33.30744554286991
 21
13.80000018396065
 31
0.0
  0
LINE
  5
7EE3
330
1A
100
AcDbEntity
  8
ZUWAKU
100
AcDbLine
 10
33.30744554286991
 20
16.60000018396065
 30
0.0
 11
33.16721137938122
 21
16.60000018396065
 31
0.0
  0
ARC
  5
7EE4
330
1A
100
AcDbEntity
  8
ZUWAKU
100
AcDbCircle
 10
33.30744554286991
 20
17.12500018396065
 30
0.0
 40
0.525
100
AcDbArc
 50
270.0
 51
342.4744316262769
  0
ARC
  5
7EE5
330
1A
100
AcDbEntity
  8
ZUWAKU
100
AcDbCircle
 10
36.17697721589252
 20
7.675000183960655
 30
0.0
 40
0.525
100
AcDbArc
 50
197.525568373723
 51
270.0
  0
LINE
  5
7EE6
330
1A
100
AcDbEntity
  8
ZUWAKU
100
AcDbLine
 10
38.37649749469699
 20
7.833094152127628
 30
0.0
 11
36.05010611622333
 21
15.20000018396067
 31
0.0
  0
ARC
  5
7EE7
330
1A
100
AcDbEntity
  8
ZUWAKU
100
AcDbCircle
 10
37.87586659550152
 20
7.675000183960655
 30
0.0
 40
0.525
100
AcDbArc
 50
270.0
 51
17.52556837372303
  0
LINE
  5
7EE8
330
1A
100
AcDbEntity
  8
ZUWAKU
100
AcDbLine
 10
36.17697721589252
 20
7.150000183960656
 30
0.0
 11
37.87586659550152
 21
7.150000183960656
 31
0.0
  0
ARC
  5
7EE9
330
1A
100
AcDbEntity
  8
ZUWAKU
100
AcDbCircle
 10
41.21721137938118
 20
7.675000183960655
 30
0.0
 40
0.525
100
AcDbArc
 50
180.0
 51
270.0
  0
ARC
  5
7EEA
330
1A
100
AcDbEntity
  8
ZUWAKU
100
AcDbCircle
 10
50.14221137938125
 20
9.950000183960653
 30
0.0
 40
2.799999999999999
100
AcDbArc
 50
270.0
 51
0.0
  0
ARC
  5
7EEB
330
1A
100
AcDbEntity
  8
ZUWAKU
100
AcDbCircle
 10
57.84221137938118
 20
9.950000183960653
 30
0.0
 40
2.799999999999999
100
AcDbArc
 50
180.0
 51
270.0
  0
LINE
  5
7EEC
330
1A
100
AcDbEntity
  8
ZUWAKU
100
AcDbLine
 10
51.71205986036477
 20
14.73505069029948
 30
0.0
 11
48.80226188571999
 21
17.64484866494415
 31
0.0
  0
LINE
  5
7EED
330
1A
100
AcDbEntity
  8
ZUWAKU
100
AcDbLine
 10
46.82236289839773
 20
15.66494967762183
 30
0.0
 11
49.73216087304241
 21
12.75515170297717
 31
0.0
  0
LINE
  5
7EEE
330
1A
100
AcDbEntity
  8
ZUWAKU
100
AcDbLine
 10
46.64221137938125
 20
7.150000183960656
 30
0.0
 11
50.14221137938125
 21
7.150000183960656
 31
0.0
  0
LINE
  5
7EEF
330
1A
100
AcDbEntity
  8
ZUWAKU
100
AcDbLine
 10
46.64221137938125
 20
9.950000183960653
 30
0.0
 11
49.61721137938116
 21
9.950000183960653
 31
0.0
  0
ARC
  5
7EF0
330
1A
100
AcDbEntity
  8
ZUWAKU
100
AcDbCircle
 10
46.64221137938125
 20
9.425000183960655
 30
0.0
 40
0.525
100
AcDbArc
 50
90.0
 51
180.0
  0
ARC
  5
7EF1
330
1A
100
AcDbEntity
  8
ZUWAKU
100
AcDbCircle
 10
42.96721137938118
 20
7.675000183960655
 30
0.0
 40
0.525
100
AcDbArc
 50
270.0
 51
0.0
  0
ARC
  5
7EF2
330
1A
100
AcDbEntity
  8
ZUWAKU
100
AcDbCircle
 10
46.64221137938125
 20
7.675000183960655
 30
0.0
 40
0.525
100
AcDbArc
 50
180.0
 51
270.0
  0
LINE
  5
7EF3
330
1A
100
AcDbEntity
  8
ZUWAKU
100
AcDbLine
 10
46.11721137938116
 20
7.675000183960655
 30
0.0
 11
46.11721137938116
 21
9.425000183960655
 31
0.0
  0
ARC
  5
7EF4
330
1A
100
AcDbEntity
  8
ZUWAKU
100
AcDbCircle
 10
49.61721137938116
 20
10.47500018396066
 30
0.0
 40
0.525
100
AcDbArc
 50
270.0
 51
0.0
  0
ARC
  5
7EF5
330
1A
100
AcDbEntity
  8
ZUWAKU
100
AcDbCircle
 10
48.74221137938116
 20
11.765202209316
 30
0.0
 40
1.399999999999999
100
AcDbArc
 50
0.0
 51
45.0
  0
LINE
  5
7EF6
330
1A
100
AcDbEntity
  8
ZUWAKU
100
AcDbLine
 10
50.14221137938125
 20
10.47500018396066
 30
0.0
 11
50.14221137938125
 21
11.765202209316
 31
0.0
  0
ARC
  5
7EF7
330
1A
100
AcDbEntity
  8
ZUWAKU
100
AcDbCircle
 10
58.89221137938125
 20
11.00000018396065
 30
0.0
 40
1.049999999999999
100
AcDbArc
 50
180.0
 51
270.0
  0
ARC
  5
7EF8
330
1A
100
AcDbEntity
  8
ZUWAKU
100
AcDbCircle
 10
48.74221137938116
 20
11.76520220931595
 30
0.0
 40
4.199999999999999
100
AcDbArc
 50
0.0
 51
45.0
  0
LINE
  5
7EF9
330
1A
100
AcDbEntity
  8
ZUWAKU
100
AcDbLine
 10
52.9422113793812
 20
9.950000183960653
 30
0.0
 11
52.9422113793812
 21
11.765202209316
 31
0.0
  0
ARC
  5
7EFA
330
1A
100
AcDbEntity
  8
ZUWAKU
100
AcDbCircle
 10
61.34221137938118
 20
9.950000183960653
 30
0.0
 40
2.799999999999999
100
AcDbArc
 50
270.0
 51
0.0
  0
LINE
  5
7EFB
330
1A
100
AcDbEntity
  8
ZUWAKU
100
AcDbLine
 10
66.76721137938125
 20
7.150000183960656
 30
0.0
 11
68.51721137938125
 21
7.150000183960656
 31
0.0
  0
ARC
  5
7EFC
330
1A
100
AcDbEntity
  8
ZUWAKU
100
AcDbCircle
 10
60.29221137938122
 20
11.00000018396065
 30
0.0
 40
1.049999999999999
100
AcDbArc
 50
270.0
 51
0.0
  0
ARC
  5
7EFD
330
1A
100
AcDbEntity
  8
ZUWAKU
100
AcDbCircle
 10
66.76721137938125
 20
7.675000183960655
 30
0.0
 40
0.525
100
AcDbArc
 50
180.0
 51
270.0
  0
ARC
  5
7EFE
330
1A
100
AcDbEntity
  8
ZUWAKU
100
AcDbCircle
 10
68.51721137938125
 20
7.675000183960655
 30
0.0
 40
0.525
100
AcDbArc
 50
270.0
 51
0.0
  0
LINE
  5
7EFF
330
1A
100
AcDbEntity
  8
ZUWAKU
100
AcDbLine
 10
42.96721137938118
 20
23.25000018396065
 30
0.0
 11
41.21721137938118
 21
23.25000018396065
 31
0.0
  0
LINE
  5
7F00
330
1A
100
AcDbEntity
  8
ZUWAKU
100
AcDbLine
 10
27.39221137938125
 20
22.72500018396065
 30
0.0
 11
27.39221137938125
 21
20.97500018396065
 31
0.0
  0
ARC
  5
7F01
330
1A
100
AcDbEntity
  8
ZUWAKU
100
AcDbCircle
 10
26.86721137938116
 20
20.97500018396065
 30
0.0
 40
0.525
100
AcDbArc
 50
270.0
 51
0.0
  0
ARC
  5
7F02
330
1A
100
AcDbEntity
  8
ZUWAKU
100
AcDbCircle
 10
30.36721137938116
 20
22.72500018396065
 30
0.0
 40
0.525
100
AcDbArc
 50
90.0
 51
180.0
  0
ARC
  5
7F03
330
1A
100
AcDbEntity
  8
ZUWAKU
100
AcDbCircle
 10
26.86721137938116
 20
22.72500018396065
 30
0.0
 40
0.525
100
AcDbArc
 50
0.0
 51
90.0
  0
LINE
  5
7F04
330
1A
100
AcDbEntity
  8
ZUWAKU
100
AcDbLine
 10
32.11721137938116
 20
23.25000018396065
 30
0.0
 11
30.36721137938116
 21
23.25000018396065
 31
0.0
  0
ARC
  5
7F05
330
1A
100
AcDbEntity
  8
ZUWAKU
100
AcDbCircle
 10
32.11721137938116
 20
22.72500018396065
 30
0.0
 40
0.525
100
AcDbArc
 50
0.0
 51
90.0
  0
ARC
  5
7F06
330
1A
100
AcDbEntity
  8
ZUWAKU
100
AcDbCircle
 10
36.17697721589252
 20
22.72500018396065
 30
0.0
 40
0.525
100
AcDbArc
 50
90.0
 51
162.4744316262769
  0
LINE
  5
7F07
330
1A
100
AcDbEntity
  8
ZUWAKU
100
AcDbLine
 10
38.37649749469699
 20
22.56690621579368
 30
0.0
 11
37.31485786155917
 21
19.20504737752408
 31
0.0
  0
ARC
  5
7F08
330
1A
100
AcDbEntity
  8
ZUWAKU
100
AcDbCircle
 10
37.87586659550152
 20
22.72500018396065
 30
0.0
 40
0.525
100
AcDbArc
 50
342.4744316262769
 51
90.0
  0
LINE
  5
7F09
330
1A
100
AcDbEntity
  8
ZUWAKU
100
AcDbLine
 10
36.17697721589252
 20
23.25000018396065
 30
0.0
 11
37.87586659550152
 21
23.25000018396065
 31
0.0
  0
ARC
  5
7F0A
330
1A
100
AcDbEntity
  8
ZUWAKU
100
AcDbCircle
 10
41.21721137938118
 20
22.72500018396065
 30
0.0
 40
0.525
100
AcDbArc
 50
90.0
 51
180.0
  0
LINE
  5
7F0B
330
1A
100
AcDbEntity
  8
ZUWAKU
100
AcDbLine
 10
51.89221137938125
 20
20.45000018396065
 30
0.0
 11
48.91721137938123
 21
20.45000018396065
 31
0.0
  0
LINE
  5
7F0C
330
1A
100
AcDbEntity
  8
ZUWAKU
100
AcDbLine
 10
48.39221137938125
 20
23.25000018396065
 30
0.0
 11
51.89221137938125
 21
23.25000018396065
 31
0.0
  0
ARC
  5
7F0D
330
1A
100
AcDbEntity
  8
ZUWAKU
100
AcDbCircle
 10
48.39221137938125
 20
20.45000018396065
 30
0.0
 40
2.799999999999999
100
AcDbArc
 50
90.0
 51
180.0
  0
LINE
  5
7F0E
330
1A
100
AcDbEntity
  8
ZUWAKU
100
AcDbLine
 10
45.59221137938118
 20
20.45000018396065
 30
0.0
 11
45.59221137938118
 21
18.63479815860531
 31
0.0
  0
ARC
  5
7F0F
330
1A
100
AcDbEntity
  8
ZUWAKU
100
AcDbCircle
 10
42.96721137938118
 20
22.72500018396065
 30
0.0
 40
0.525
100
AcDbArc
 50
0.0
 51
90.0
  0
LINE
  5
7F10
330
1A
100
AcDbEntity
  8
ZUWAKU
100
AcDbLine
 10
48.39221137938125
 20
19.92500018396065
 30
0.0
 11
48.39221137938125
 21
18.63479815860531
 31
0.0
  0
ARC
  5
7F11
330
1A
100
AcDbEntity
  8
ZUWAKU
100
AcDbCircle
 10
48.91721137938123
 20
19.92500018396065
 30
0.0
 40
0.525
100
AcDbArc
 50
90.0
 51
180.0
  0
LINE
  5
7F12
330
1A
100
AcDbEntity
  8
ZUWAKU
100
AcDbLine
 10
52.41721137938123
 20
22.72500018396065
 30
0.0
 11
52.41721137938123
 21
20.97500018396065
 31
0.0
  0
ARC
  5
7F13
330
1A
100
AcDbEntity
  8
ZUWAKU
100
AcDbCircle
 10
51.89221137938125
 20
20.97500018396065
 30
0.0
 40
0.525
100
AcDbArc
 50
270.0
 51
0.0
  0
ARC
  5
7F14
330
1A
100
AcDbEntity
  8
ZUWAKU
100
AcDbCircle
 10
51.89221137938125
 20
22.72500018396065
 30
0.0
 40
0.525
100
AcDbArc
 50
0.0
 51
90.0
  0
LINE
  5
7F15
330
1A
100
AcDbEntity
  8
ZUWAKU
100
AcDbLine
 10
57.3172113793812
 20
23.25000018396065
 30
0.0
 11
55.5672113793812
 21
23.25000018396065
 31
0.0
  0
ARC
  5
7F16
330
1A
100
AcDbEntity
  8
ZUWAKU
100
AcDbCircle
 10
55.5672113793812
 20
22.72500018396065
 30
0.0
 40
0.525
100
AcDbArc
 50
90.0
 51
180.0
  0
ARC
  5
7F17
330
1A
100
AcDbEntity
  8
ZUWAKU
100
AcDbCircle
 10
57.3172113793812
 20
22.72500018396065
 30
0.0
 40
0.525
100
AcDbArc
 50
0.0
 51
90.0
  0
LINE
  5
7F18
330
1A
100
AcDbEntity
  8
ZUWAKU
100
AcDbLine
 10
68.51721137938125
 20
23.25000018396065
 30
0.0
 11
66.76721137938125
 21
23.25000018396065
 31
0.0
  0
ARC
  5
7F19
330
1A
100
AcDbEntity
  8
ZUWAKU
100
AcDbCircle
 10
61.86721137938116
 20
22.72500018396065
 30
0.0
 40
0.525
100
AcDbArc
 50
90.0
 51
180.0
  0
LINE
  5
7F1A
330
1A
100
AcDbEntity
  8
ZUWAKU
100
AcDbLine
 10
63.61721137938116
 20
23.25000018396065
 30
0.0
 11
61.86721137938116
 21
23.25000018396065
 31
0.0
  0
ARC
  5
7F1B
330
1A
100
AcDbEntity
  8
ZUWAKU
100
AcDbCircle
 10
63.61721137938116
 20
22.72500018396065
 30
0.0
 40
0.525
100
AcDbArc
 50
0.0
 51
90.0
  0
ARC
  5
7F1C
330
1A
100
AcDbEntity
  8
ZUWAKU
100
AcDbCircle
 10
66.76721137938125
 20
22.72500018396065
 30
0.0
 40
0.525
100
AcDbArc
 50
90.0
 51
180.0
  0
ARC
  5
7F1D
330
1A
100
AcDbEntity
  8
ZUWAKU
100
AcDbCircle
 10
68.51721137938125
 20
22.72500018396065
 30
0.0
 40
0.525
100
AcDbArc
 50
0.0
 51
90.0
  0
TEXT
  5
7F1E
330
1A
100
AcDbEntity
  8
MOJI
100
AcDbText
 10
239.8272019054511
 20
18.00492124136803
 30
0.0
 40
5.599999999999999
  1
ステンレス金具正面打（吊）ワンタッチ自在式
 41
0.9
  7
ｽﾀｲﾙ1
100
AcDbText
  0
TEXT
  5
7F1F
330
1A
100
AcDbEntity
  8
MOJI
100
AcDbText
 10
239.8272019054511
 20
3.204921241368072
 30
0.0
 40
5.599999999999999
  1
ＲＶ１０５－５－１０～４５
 41
0.9
  7
ｽﾀｲﾙ1
100
AcDbText
  0
LINE
  5
7F20
330
1A
100
AcDbEntity
  8
ZUWAKU
100
AcDbLine
 10
208.4466005146678
 20
30.00000018396065
 30
0.0
 11
208.446600514668
 21
0.8000001839607193
 31
0.0
  0
LINE
  5
7F21
330
1A
100
AcDbEntity
  8
ZUWAKU
100
AcDbLine
 10
208.6466005146678
 20
30.00000018396065
 30
0.0
 11
208.6466005146681
 21
0.8000001839607193
 31
0.0
  0
LINE
  5
7F22
330
1A
100
AcDbEntity
  8
ZUWAKU
100
AcDbLine
 10
208.246600514668
 20
30.00000018396065
 30
0.0
 11
208.246600514668
 21
0.8000001839607193
 31
0.0
  0
TEXT
  5
7F23
330
1A
100
AcDbEntity
  8
ZUWAKU
100
AcDbText
 10
209.7240455368776
 20
9.655356722346269
 30
0.0
 40
4.0
  1
サイズ
 41
0.9
  7
ｽﾀｲﾙ1
100
AcDbText
  0
TEXT
  5
7F24
330
1A
100
AcDbEntity
  8
ZUWAKU
100
AcDbText
 10
209.7240455368774
 20
24.05535672234623
 30
0.0
 40
4.0
  1
品名
 41
0.9
  7
ｽﾀｲﾙ1
100
AcDbText
  0
TEXT
  5
7F25
330
1A
100
AcDbEntity
  8
ZUWAKU
100
AcDbText
 10
658.2039369119025
 20
18.00492124136803
 30
0.0
 40
5.599999999999999
  1
　　．　　．　　
 41
0.9
  7
ｽﾀｲﾙ1
100
AcDbText
  0
LINE
  5
7F26
330
1A
100
AcDbEntity
  8
ZUWAKU
100
AcDbLine
 10
648.8172017348042
 20
15.60000018396068
 30
0.0
 11
697.2490097731413
 21
15.60000018396068
 31
0.0
  0
LINE
  5
7F27
330
1A
100
AcDbEntity
  8
ZUWAKU
100
AcDbLine
 10
648.8172017348045
 20
15.40000018396068
 30
0.0
 11
697.2490097731413
 21
15.40000018396068
 31
0.0
  0
LINE
  5
7F28
330
1A
100
AcDbEntity
  8
ZUWAKU
100
AcDbLine
 10
648.8172017348042
 20
15.20000018396068
 30
0.0
 11
697.2490097731413
 21
15.20000018396068
 31
0.0
  0
LINE
  5
7F29
330
1A
100
AcDbEntity
  8
ZUWAKU
100
AcDbLine
 10
505.1991787227409
 20
15.60000018396068
 30
0.0
 11
552.5269549907124
 21
15.60000018396068
 31
0.0
  0
LINE
  5
7F2A
330
1A
100
AcDbEntity
  8
ZUWAKU
100
AcDbLine
 10
505.1991787227409
 20
15.40000018396068
 30
0.0
 11
552.5269549907124
 21
15.40000018396068
 31
0.0
  0
LINE
  5
7F2B
330
1A
100
AcDbEntity
  8
ZUWAKU
100
AcDbLine
 10
505.1991787227409
 20
15.20000018396069
 30
0.0
 11
552.5269549907124
 21
15.20000018396069
 31
0.0
  0
LINE
  5
7F2C
330
1A
100
AcDbEntity
  8
ZUWAKU
100
AcDbLine
 10
504.799178722741
 20
30.00000018396065
 30
0.0
 11
504.799178722741
 21
0.8000001839607193
 31
0.0
  0
LINE
  5
7F2D
330
1A
100
AcDbEntity
  8
ZUWAKU
100
AcDbLine
 10
505.1991787227409
 20
30.00000018396065
 30
0.0
 11
505.1991787227412
 21
0.8000001839607193
 31
0.0
  0
LINE
  5
7F2E
330
1A
100
AcDbEntity
  8
ZUWAKU
100
AcDbLine
 10
504.9991787227408
 20
30.00000018396065
 30
0.0
 11
504.9991787227411
 21
0.8000001839607193
 31
0.0
  0
TEXT
  5
7F2F
330
1A
100
AcDbEntity
  8
MOJI
100
AcDbText
 10
528.0409071969129
 20
18.00492124136803
 30
0.0
 40
5.599999999999999
  1
Ａ３
 41
0.9
  7
ｽﾀｲﾙ1
100
AcDbText
  0
LINE
  5
7F30
330
1A
100
AcDbEntity
  8
ZUWAKU
100
AcDbLine
 10
447.4243631955914
 20
30.00000018396065
 30
0.0
 11
447.4243631955914
 21
0.8000001839607193
 31
0.0
  0
LINE
  5
7F31
330
1A
100
AcDbEntity
  8
ZUWAKU
100
AcDbLine
 10
447.8243631955913
 20
30.00000018396065
 30
0.0
 11
447.8243631955916
 21
0.8000001839607193
 31
0.0
  0
LINE
  5
7F32
330
1A
100
AcDbEntity
  8
ZUWAKU
100
AcDbLine
 10
447.6243631955912
 20
30.00000018396065
 30
0.0
 11
447.6243631955915
 21
0.8000001839607193
 31
0.0
  0
TEXT
  5
7F33
330
1A
100
AcDbEntity
  8
MOJI
100
AcDbText
 10
464.594625227839
 20
11.94261790562063
 30
0.0
 40
5.599999999999999
  1
ＬＬ７７Ｇ
 41
0.9
  7
ｽﾀｲﾙ1
100
AcDbText
  0
TEXT
  5
7F34
330
1A
100
AcDbEntity
  8
ZUWAKU
100
AcDbText
 10
506.6766237449508
 20
9.655356722346269
 30
0.0
 40
4.0
  1
縮尺
 41
0.9
  7
ｽﾀｲﾙ1
100
AcDbText
  0
TEXT
  5
7F35
330
1A
100
AcDbEntity
  8
MOJI
100
AcDbText
 10
528.0409071969129
 20
3.204921241368072
 30
0.0
 40
5.599999999999999
  1
１/２
 41
0.9
  7
ｽﾀｲﾙ1
100
AcDbText
  0
TEXT
  5
7F36
330
1A
100
AcDbEntity
  8
ZUWAKU
100
AcDbText
 10
449.3018082178009
 20
24.05535672234623
 30
0.0
 40
4.0
  1
品番
 41
0.9
  7
ｽﾀｲﾙ1
100
AcDbText
  0
TEXT
  5
7F37
330
1A
100
AcDbEntity
  8
ZUWAKU
100
AcDbText
 10
506.6766237449505
 20
24.05535672234623
 30
0.0
 40
4.0
  1
用紙
 41
0.9
  7
ｽﾀｲﾙ1
100
AcDbText
  0
LINE
  5
7F38
330
1A
100
AcDbEntity
  8
ZUWAKU
100
AcDbLine
 10
552.5269549907124
 20
30.00000018396065
 30
0.0
 11
552.5269549907124
 21
0.8000001839607193
 31
0.0
  0
LINE
  5
7F39
330
1A
100
AcDbEntity
  8
ZUWAKU
100
AcDbLine
 10
552.9269549907123
 20
30.00000018396065
 30
0.0
 11
552.9269549907126
 21
0.8000001839607193
 31
0.0
  0
LINE
  5
7F3A
330
1A
100
AcDbEntity
  8
ZUWAKU
100
AcDbLine
 10
552.7269549907123
 20
30.00000018396065
 30
0.0
 11
552.7269549907125
 21
0.8000001839607193
 31
0.0
  0
LINE
  5
7F3B
330
1A
100
AcDbEntity
  8
ZUWAKU
100
AcDbLine
 10
648.4172017348046
 20
30.00000018396065
 30
0.0
 11
648.4172017348046
 21
0.8000001839607193
 31
0.0
  0
LINE
  5
7F3C
330
1A
100
AcDbEntity
  8
ZUWAKU
100
AcDbLine
 10
648.8172017348045
 20
30.00000018396065
 30
0.0
 11
648.8172017348047
 21
0.8000001839607193
 31
0.0
  0
LINE
  5
7F3D
330
1A
100
AcDbEntity
  8
ZUWAKU
100
AcDbLine
 10
648.6172017348044
 20
30.00000018396065
 30
0.0
 11
648.6172017348046
 21
0.8000001839607193
 31
0.0
  0
TEXT
  5
7F3E
330
1A
100
AcDbEntity
  8
ZUWAKU
100
AcDbText
 10
650.2946467570141
 20
24.05535672234623
 30
0.0
 40
4.0
  1
DATE
 41
0.9
  7
ｽﾀｲﾙ1
100
AcDbText
  0
TEXT
  5
7F3F
330
1A
100
AcDbEntity
  8
ZUWAKU
100
AcDbText
 10
708.5280834168438
 20
17.55383951964745
 30
0.0
 40
6.0
  1
積水化学工業株式会社
 41
0.9
  7
ｽﾀｲﾙ1
100
AcDbText
  0
LINE
  5
7F40
330
1A
100
AcDbEntity
  8
ZUWAKU
100
AcDbLine
 10
697.8490097731412
 20
30.00000018396065
 30
0.0
 11
697.8490097731414
 21
0.8000001839607193
 31
0.0
  0
LINE
  5
7F41
330
1A
100
AcDbEntity
  8
ZUWAKU
100
AcDbLine
 10
697.6490097731412
 20
30.00000018396065
 30
0.0
 11
697.6490097731414
 21
0.8000001839607193
 31
0.0
  0
LINE
  5
7F42
330
1A
100
AcDbEntity
  8
ZUWAKU
100
AcDbLine
 10
697.4490097731413
 20
30.00000018396065
 30
0.0
 11
697.4490097731413
 21
0.8000001839607193
 31
0.0
  0
LINE
  5
7F43
330
1A
100
AcDbEntity
  8
ZUWAKU
100
AcDbLine
 10
697.2490097731413
 20
30.00000018396065
 30
0.0
 11
697.2490097731413
 21
0.8000001839607193
 31
0.0
  0
TEXT
  5
7F44
330
1A
100
AcDbEntity
  8
ZUWAKU
100
AcDbText
 10
708.5280834168438
 20
6.648840497814717
 30
0.0
 40
6.0
  1
建材事業部
 41
0.9
  7
ｽﾀｲﾙ1
100
AcDbText
  0
VIEWPORT
  5
22
330
17
100
AcDbEntity
 67
     1
  8
0
100
AcDbViewport
 10
313.6808219178082
 20
148.5
 30
0.0
 40
627.3616438356165
 41
297.0
 68
     2
 69
     1
1001
ACAD
1000
MVIEW
1002
{
1070
    16
1010
0.0
1020
0.0
1030
0.0
1010
0.0
1020
0.0
1030
1.0
1040
0.0
1040
297.0
1040
313.6808219178082
1040
148.5
1040
50.0
1040
0.0
1040
0.0
1070
     0
1070
   100
1070
     1
1070
     0
1070
     0
1070
     0
1070
     0
1070
     0
1040
0.0
1040
0.0
1040
0.0
1040
1.0
1040
1.0
1040
10.0
1040
10.0
1070
     0
1002
{
1002
}
1002
}
  0
VIEWPORT
  5
64
330
17
100
AcDbEntity
 67
     1
  8
VIEWPORT
100
AcDbViewport
 10
210.0
 20
148.5
 30
0.0
 40
420.0
 41
297.0
 68
     1
 69
     2
1001
ACAD
1000
MVIEW
1002
{
1070
    16
1010
0.0
1020
0.0
1030
0.0
1010
0.0
1020
0.0
1030
1.0
1040
0.0
1040
605.8799999999997
1040
420.0
1040
297.0
1040
50.0
1040
0.0
1040
0.0
1070
     0
1070
   100
1070
     1
1070
     0
1070
     0
1070
     0
1070
     0
1070
     0
1040
0.0
1040
0.0
1040
0.0
1040
10.0
1040
10.0
1040
0.0
1040
0.0
1070
     0
1002
{
1002
}
1002
}
  0
ENDSEC
  0
SECTION
  2
OBJECTS
  0
DICTIONARY
  5
C
330
0
100
AcDbDictionary
  3
ACAD_GROUP
350
D
  3
ACAD_LAYOUT
350
911
  3
ACAD_MLINESTYLE
350
E
  3
ACAD_PLOTSETTINGS
350
912
  3
ACAD_PLOTSTYLENAME
350
7D90
  3
ACDBHEADERROUNDTRIPXREC
350
7F4C
1001
ACAD
1000
TREAT_AS_HARD
1070
     0
  0
DICTIONARY
  5
94A
330
1A
100
AcDbDictionary
280
     1
  3
ACAD_LAYOUTSELFREF
360
7F6E
1001
ACAD
1000
TREAT_AS_HARD
1070
     0
  0
DICTIONARY
  5
948
330
17
100
AcDbDictionary
280
     1
  3
ACAD_LAYOUTSELFREF
360
7F6D
1001
ACAD
1000
TREAT_AS_HARD
1070
     0
  0
DICTIONARY
  5
D
102
{ACAD_REACTORS
330
C
102
}
330
C
100
AcDbDictionary
1001
ACAD
1000
TREAT_AS_HARD
1070
     0
  0
DICTIONARY
  5
911
102
{ACAD_REACTORS
330
C
102
}
330
C
100
AcDbDictionary
1001
ACAD
1000
TREAT_AS_HARD
1070
     0
  0
DICTIONARY
  5
E
102
{ACAD_REACTORS
330
C
102
}
330
C
100
AcDbDictionary
  3
STANDARD
350
13
1001
ACAD
1000
TREAT_AS_HARD
1070
     0
  0
DICTIONARY
  5
912
102
{ACAD_REACTORS
330
C
102
}
330
C
100
AcDbDictionary
1001
ACAD
1000
TREAT_AS_HARD
1070
     0
  0
ACDBDICTIONARYWDFLT
  5
7D90
102
{ACAD_REACTORS
330
C
102
}
330
C
100
AcDbDictionary
281
     1
  3
Normal
350
7D91
100
AcDbDictionaryWithDefault
340
7D91
1001
ACAD
1000
TREAT_AS_HARD
1070
     0
  0
DICTIONARY
  5
7F4C
102
{ACAD_REACTORS
330
C
102
}
330
C
100
AcDbDictionary
  3
TSTACKALIGN
350
7F4D
  3
TSTACKSIZE
350
7F4E
  3
HYPERLINKBASE
350
7F4F
  3
STYLESHEET
350
7F50
  3
LAYOUTDICT
350
7F51
  3
PLOTSETDICT
350
7F52
  3
PLOTSTYLNAMDICT
350
7F53
  3
LWETCUNION
350
7F54
  3
INSUNITS
350
7F55
  3
CEPSNTYPE
350
7F56
  3
FINGERPRINTGUID
350
7F57
  3
VERSIONGUID
350
7F58
  3
PSVPSCALE
350
7F59
  3
DIMSTYLEDATA
350
7F5A
  3
PUCSORTHOREF
350
7F5B
  3
PUCSORTHOVIEW
350
7F5C
  3
PUCSBASE
350
7F5D
  3
PUCSORGTOP
350
7F5E
  3
PUCSORGBOTTOM
350
7F5F
  3
PUCSORGLEFT
350
7F60
  3
PUCSORGRIGHT
350
7F61
  3
PUCSORGFRONT
350
7F62
  3
PUCSORGBACK
350
7F63
  3
UCSORTHOREF
350
7F64
  3
UCSORTHOVIEW
350
7F65
  3
UCSBASE
350
7F66
  3
UCSORGTOP
350
7F67
  3
UCSORGBOTTOM
350
7F68
  3
UCSORGLEFT
350
7F69
  3
UCSORGRIGHT
350
7F6A
  3
UCSORGFRONT
350
7F6B
  3
UCSORGBACK
350
7F6C
  0
XRECORD
  5
7F6E
102
{ACAD_REACTORS
330
94A
102
}
330
94A
100
AcDbXrecord
340
1A
  0
XRECORD
  5
7F6D
102
{ACAD_REACTORS
330
948
102
}
330
948
100
AcDbXrecord
340
17
  0
MLINESTYLE
  5
13
102
{ACAD_REACTORS
330
E
102
}
330
E
100
AcDbMlineStyle
  2
STANDARD
 70
     0
  3

 62
     0
 51
90.0
 52
90.0
 71
     2
 49
0.5
 62
   256
  6
BYLAYER
 49
-0.5
 62
   256
  6
BYLAYER
  0
ACDBPLACEHOLDER
  5
7D91
102
{ACAD_REACTORS
330
7D90
102
}
330
7D90
100
AcDbPlaceHolder
280
     0
  0
XRECORD
  5
7F4D
102
{ACAD_REACTORS
330
7F4C
102
}
330
7F4C
100
AcDbXrecord
 90
        1
  0
XRECORD
  5
7F4E
102
{ACAD_REACTORS
330
7F4C
102
}
330
7F4C
100
AcDbXrecord
 90
       70
  0
XRECORD
  5
7F4F
102
{ACAD_REACTORS
330
7F4C
102
}
330
7F4C
100
AcDbXrecord
  1

  0
XRECORD
  5
7F50
102
{ACAD_REACTORS
330
7F4C
102
}
330
7F4C
100
AcDbXrecord
  1
systemprinter.ctb
  0
XRECORD
  5
7F51
102
{ACAD_REACTORS
330
7F4C
102
}
330
7F4C
100
AcDbXrecord
340
911
  0
XRECORD
  5
7F52
102
{ACAD_REACTORS
330
7F4C
102
}
330
7F4C
100
AcDbXrecord
340
912
  0
XRECORD
  5
7F53
102
{ACAD_REACTORS
330
7F4C
102
}
330
7F4C
100
AcDbXrecord
340
7D90
  0
XRECORD
  5
7F54
102
{ACAD_REACTORS
330
7F4C
102
}
330
7F4C
100
AcDbXrecord
 90
    10781
  0
XRECORD
  5
7F55
102
{ACAD_REACTORS
330
7F4C
102
}
330
7F4C
100
AcDbXrecord
 90
        0
  0
XRECORD
  5
7F56
102
{ACAD_REACTORS
330
7F4C
102
}
330
7F4C
100
AcDbXrecord
 90
        0
  0
XRECORD
  5
7F57
102
{ACAD_REACTORS
330
7F4C
102
}
330
7F4C
100
AcDbXrecord
  1
{884E9463-622B-479E-9ABE-7DC20841BD28}
  0
XRECORD
  5
7F58
102
{ACAD_REACTORS
330
7F4C
102
}
330
7F4C
100
AcDbXrecord
  1
{BA196FE1-9543-4298-BC4D-4954032F555D}
  0
XRECORD
  5
7F59
102
{ACAD_REACTORS
330
7F4C
102
}
330
7F4C
100
AcDbXrecord
 40
0.0
  0
XRECORD
  5
7F5A
102
{ACAD_REACTORS
330
7F4C
102
}
330
7F4C
100
AcDbXrecord
1000
DSTYLE
1002
{
1070
   341
340
6D
1070
   343
340
6D
1070
   344
340
6D
1002
}
  0
XRECORD
  5
7F5B
102
{ACAD_REACTORS
330
7F4C
102
}
330
7F4C
100
AcDbXrecord
340
0
  0
XRECORD
  5
7F5C
102
{ACAD_REACTORS
330
7F4C
102
}
330
7F4C
100
AcDbXrecord
 70
     0
  0
XRECORD
  5
7F5D
102
{ACAD_REACTORS
330
7F4C
102
}
330
7F4C
100
AcDbXrecord
340
0
  0
XRECORD
  5
7F5E
102
{ACAD_REACTORS
330
7F4C
102
}
330
7F4C
100
AcDbXrecord
 10
0.0
 20
0.0
 30
0.0
  0
XRECORD
  5
7F5F
102
{ACAD_REACTORS
330
7F4C
102
}
330
7F4C
100
AcDbXrecord
 10
0.0
 20
0.0
 30
0.0
  0
XRECORD
  5
7F60
102
{ACAD_REACTORS
330
7F4C
102
}
330
7F4C
100
AcDbXrecord
 10
0.0
 20
0.0
 30
0.0
  0
XRECORD
  5
7F61
102
{ACAD_REACTORS
330
7F4C
102
}
330
7F4C
100
AcDbXrecord
 10
0.0
 20
0.0
 30
0.0
  0
XRECORD
  5
7F62
102
{ACAD_REACTORS
330
7F4C
102
}
330
7F4C
100
AcDbXrecord
 10
0.0
 20
0.0
 30
0.0
  0
XRECORD
  5
7F63
102
{ACAD_REACTORS
330
7F4C
102
}
330
7F4C
100
AcDbXrecord
 10
0.0
 20
0.0
 30
0.0
  0
XRECORD
  5
7F64
102
{ACAD_REACTORS
330
7F4C
102
}
330
7F4C
100
AcDbXrecord
340
0
  0
XRECORD
  5
7F65
102
{ACAD_REACTORS
330
7F4C
102
}
330
7F4C
100
AcDbXrecord
 70
     0
  0
XRECORD
  5
7F66
102
{ACAD_REACTORS
330
7F4C
102
}
330
7F4C
100
AcDbXrecord
340
0
  0
XRECORD
  5
7F67
102
{ACAD_REACTORS
330
7F4C
102
}
330
7F4C
100
AcDbXrecord
 10
0.0
 20
0.0
 30
0.0
  0
XRECORD
  5
7F68
102
{ACAD_REACTORS
330
7F4C
102
}
330
7F4C
100
AcDbXrecord
 10
0.0
 20
0.0
 30
0.0
  0
XRECORD
  5
7F69
102
{ACAD_REACTORS
330
7F4C
102
}
330
7F4C
100
AcDbXrecord
 10
0.0
 20
0.0
 30
0.0
  0
XRECORD
  5
7F6A
102
{ACAD_REACTORS
330
7F4C
102
}
330
7F4C
100
AcDbXrecord
 10
0.0
 20
0.0
 30
0.0
  0
XRECORD
  5
7F6B
102
{ACAD_REACTORS
330
7F4C
102
}
330
7F4C
100
AcDbXrecord
 10
0.0
 20
0.0
 30
0.0
  0
XRECORD
  5
7F6C
102
{ACAD_REACTORS
330
7F4C
102
}
330
7F4C
100
AcDbXrecord
 10
0.0
 20
0.0
 30
0.0
  0
ENDSEC
  0
EOF
