  0
SECTION
  2
HEADER
  9
$ACADVER
  1
AC1012
  9
$DWGCODEPAGE
  3
dos932
  9
$INSBASE
 10
0.0
 20
0.0
 30
0.0
  9
$EXTMIN
 10
-0.0145247390821624
 20
-0.0256400546147688
 30
-0.0000000100097048
  9
$EXTMAX
 10
797.6615162326206
 20
551.6446987239699
 30
0.0000000100102961
  9
$LIMMIN
 10
0.0
 20
0.0
  9
$LIMMAX
 10
840.0
 20
594.0
  9
$ORTHOMODE
 70
     1
  9
$REGENMODE
 70
     1
  9
$FILLMODE
 70
     1
  9
$QTEXTMODE
 70
     0
  9
$MIRRTEXT
 70
     1
  9
$DRAGMODE
 70
     2
  9
$LTSCALE
 40
2.0
  9
$OSMODE
 70
    63
  9
$ATTMODE
 70
     1
  9
$TEXTSIZE
 40
6.0
  9
$TRACEWID
 40
1.0
  9
$TEXTSTYLE
  7
STANDARD
  9
$CLAYER
  8
SUNPOU
  9
$CELTYPE
  6
BYLAYER
  9
$CECOLOR
 62
   256
  9
$CELTSCALE
 40
1.0
  9
$DELOBJ
 70
     1
  9
$DISPSILH
 70
     0
  9
$DIMSCALE
 40
1.0
  9
$DIMASZ
 40
7.0
  9
$DIMEXO
 40
6.0
  9
$DIMDLI
 40
14.0
  9
$DIMRND
 40
0.0
  9
$DIMDLE
 40
0.0
  9
$DIMEXE
 40
3.0
  9
$DIMTP
 40
0.0
  9
$DIMTM
 40
0.0
  9
$DIMTXT
 40
6.0
  9
$DIMCEN
 40
150.0
  9
$DIMTSZ
 40
0.0
  9
$DIMTOL
 70
     0
  9
$DIMLIM
 70
     0
  9
$DIMTIH
 70
     0
  9
$DIMTOH
 70
     0
  9
$DIMSE1
 70
     0
  9
$DIMSE2
 70
     0
  9
$DIMTAD
 70
     3
  9
$DIMZIN
 70
     0
  9
$DIMBLK
  1

  9
$DIMASO
 70
     1
  9
$DIMSHO
 70
     1
  9
$DIMPOST
  1

  9
$DIMAPOST
  1

  9
$DIMALT
 70
     0
  9
$DIMALTD
 70
     2
  9
$DIMALTF
 40
25.4
  9
$DIMLFAC
 40
1.0
  9
$DIMTOFL
 70
     1
  9
$DIMTVP
 40
0.0
  9
$DIMTIX
 70
     0
  9
$DIMSOXD
 70
     0
  9
$DIMSAH
 70
     1
  9
$DIMBLK1
  1
OPEN
  9
$DIMBLK2
  1
OPEN
  9
$DIMSTYLE
  2
STANDARD
  9
$DIMCLRD
 70
   256
  9
$DIMCLRE
 70
   256
  9
$DIMCLRT
 70
   256
  9
$DIMTFAC
 40
1.0
  9
$DIMGAP
 40
2.0
  9
$DIMJUST
 70
     0
  9
$DIMSD1
 70
     0
  9
$DIMSD2
 70
     0
  9
$DIMTOLJ
 70
     1
  9
$DIMTZIN
 70
     0
  9
$DIMALTZ
 70
     0
  9
$DIMALTTZ
 70
     0
  9
$DIMFIT
 70
     5
  9
$DIMUPT
 70
     0
  9
$DIMUNIT
 70
     2
  9
$DIMDEC
 70
     0
  9
$DIMTDEC
 70
     0
  9
$DIMALTU
 70
     2
  9
$DIMALTTD
 70
     2
  9
$DIMTXSTY
  7
STANDARD
  9
$DIMAUNIT
 70
     0
  9
$LUNITS
 70
     2
  9
$LUPREC
 70
     4
  9
$SKETCHINC
 40
1.0
  9
$FILLETRAD
 40
10.0
  9
$AUNITS
 70
     0
  9
$AUPREC
 70
     0
  9
$MENU
  1
.
  9
$ELEVATION
 40
0.0
  9
$PELEVATION
 40
0.0
  9
$THICKNESS
 40
0.0
  9
$LIMCHECK
 70
     0
  9
$BLIPMODE
 70
     0
  9
$CHAMFERA
 40
0.0
  9
$CHAMFERB
 40
0.0
  9
$CHAMFERC
 40
40.0
  9
$CHAMFERD
 40
0.0
  9
$SKPOLY
 70
     0
  9
$TDCREATE
 40
2451030.614786227
  9
$TDUPDATE
 40
2455051.588565497
  9
$TDINDWG
 40
0.4987410648
  9
$TDUSRTIMER
 40
0.4987410648
  9
$USRTIMER
 70
     1
  9
$ANGBASE
 50
0.0
  9
$ANGDIR
 70
     0
  9
$PDMODE
 70
     0
  9
$PDSIZE
 40
0.0
  9
$PLINEWID
 40
0.0
  9
$COORDS
 70
     0
  9
$SPLFRAME
 70
     0
  9
$SPLINETYPE
 70
     6
  9
$SPLINESEGS
 70
     8
  9
$ATTDIA
 70
     0
  9
$ATTREQ
 70
     1
  9
$HANDLING
 70
 10241
  9
$HANDSEED
  5
66F8
  9
$SURFTAB1
 70
     6
  9
$SURFTAB2
 70
     6
  9
$SURFTYPE
 70
     6
  9
$SURFU
 70
     6
  9
$SURFV
 70
     6
  9
$UCSNAME
  2

  9
$UCSORG
 10
0.0
 20
0.0
 30
0.0
  9
$UCSXDIR
 10
1.0
 20
0.0
 30
0.0
  9
$UCSYDIR
 10
0.0
 20
1.0
 30
0.0
  9
$PUCSNAME
  2

  9
$PUCSORG
 10
0.0
 20
0.0
 30
0.0
  9
$PUCSXDIR
 10
1.0
 20
0.0
 30
0.0
  9
$PUCSYDIR
 10
0.0
 20
1.0
 30
0.0
  9
$USERI1
 70
     0
  9
$USERI2
 70
     0
  9
$USERI3
 70
     0
  9
$USERI4
 70
     0
  9
$USERI5
 70
     0
  9
$USERR1
 40
0.0
  9
$USERR2
 40
0.0
  9
$USERR3
 40
0.0
  9
$USERR4
 40
0.0
  9
$USERR5
 40
0.0
  9
$WORLDVIEW
 70
     1
  9
$SHADEDGE
 70
     3
  9
$SHADEDIF
 70
    70
  9
$TILEMODE
 70
     1
  9
$MAXACTVP
 70
    16
  9
$PINSBASE
 10
0.0
 20
0.0
 30
0.0
  9
$PLIMCHECK
 70
     0
  9
$PEXTMIN
 10
-0.0128164049386896
 20
-0.0090630292066862
 30
-0.0015258207003583
  9
$PEXTMAX
 10
420.0128183607161
 20
297.0090644122207
 30
0.0000000349246037
  9
$PLIMMIN
 10
-30.66685116754001
 20
-9.990190459854741
  9
$PLIMMAX
 10
450.6668334081171
 20
361.9494725043409
  9
$UNITMODE
 70
     0
  9
$VISRETAIN
 70
     0
  9
$PLINEGEN
 70
     0
  9
$PSLTSCALE
 70
     1
  9
$TREEDEPTH
 70
  3020
  9
$PICKSTYLE
 70
     1
  9
$CMLSTYLE
  2
STANDARD
  9
$CMLJUST
 70
     0
  9
$CMLSCALE
 40
1.0
  9
$SAVEIMAGES
 70
     1
  0
ENDSEC
  0
SECTION
  2
CLASSES
  0
CLASS
  1
ACDBDICTIONARYWDFLT
  2
AcDbDictionaryWithDefault
  3
AutoCAD 2000
 90
    32768
280
     0
281
     0
  0
CLASS
  1
ACDBPLACEHOLDER
  2
AcDbPlaceHolder
  3
AutoCAD 2000
 90
    32768
280
     0
281
     0
  0
CLASS
  1
LAYOUT
  2
AcDbLayout
  3
AutoCAD 2000
 90
    32768
280
     0
281
     0
  0
CLASS
  1
LONG_TRANSACTION
  2
AcDbLongTransaction
  3
AutoCAD 2000
 90
    32768
280
     0
281
     0
  0
CLASS
  1
LWPOLYLINE
  2
AcDbPolyline
  3
AutoCAD 2000
 90
    32768
280
     0
281
     1
  0
CLASS
  1
HATCH
  2
AcDbHatch
  3
AutoCAD 2000
 90
    32768
280
     0
281
     1
  0
CLASS
  1
XRECORD
  2
AcDbXrecord
  3
AutoCAD 2000
 90
    32768
280
     0
281
     0
  0
CLASS
  1
LONG_TRANSACTION
  2
AcDbLongTransaction
  3
AutoCAD 2000
 90
    32768
280
     0
281
     0
  0
CLASS
  1
LWPOLYLINE
  2
AcDbPolyline
  3
AutoCAD 2000
 90
    32768
280
     0
281
     1
  0
CLASS
  1
HATCH
  2
AcDbHatch
  3
AutoCAD 2000
 90
    32768
280
     0
281
     1
  0
CLASS
  1
XRECORD
  2
AcDbXrecord
  3
AutoCAD 2000
 90
    32768
280
     0
281
     0
  0
CLASS
  1
LONG_TRANSACTION
  2
AcDbLongTransaction
  3
AutoCAD 2000
 90
    32768
280
     0
281
     0
  0
CLASS
  1
LWPOLYLINE
  2
AcDbPolyline
  3
AutoCAD 2000
 90
    32768
280
     0
281
     1
  0
CLASS
  1
HATCH
  2
AcDbHatch
  3
AutoCAD 2000
 90
    32768
280
     0
281
     1
  0
CLASS
  1
XRECORD
  2
AcDbXrecord
  3
AutoCAD 2000
 90
    32768
280
     0
281
     0
  0
CLASS
  1
LONG_TRANSACTION
  2
AcDbLongTransaction
  3
AutoCAD 2000
 90
    32768
280
     0
281
     0
  0
CLASS
  1
LWPOLYLINE
  2
AcDbPolyline
  3
AutoCAD 2000
 90
    32768
280
     0
281
     1
  0
CLASS
  1
HATCH
  2
AcDbHatch
  3
AutoCAD 2000
 90
    32768
280
     0
281
     1
  0
CLASS
  1
XRECORD
  2
AcDbXrecord
  3
AutoCAD 2000
 90
    32768
280
     0
281
     0
  0
CLASS
  1
LONG_TRANSACTION
  2
AcDbLongTransaction
  3
AutoCAD 2000
 90
    32768
280
     0
281
     0
  0
CLASS
  1
LWPOLYLINE
  2
AcDbPolyline
  3
AutoCAD 2000
 90
    32768
280
     0
281
     1
  0
CLASS
  1
HATCH
  2
AcDbHatch
  3
AutoCAD 2000
 90
    32768
280
     0
281
     1
  0
CLASS
  1
XRECORD
  2
AcDbXrecord
  3
AutoCAD 2000
 90
    32768
280
     0
281
     0
  0
ENDSEC
  0
SECTION
  2
TABLES
  0
TABLE
  2
VPORT
  5
8
330
0
100
AcDbSymbolTable
 70
    10
  0
VPORT
  5
64AA
330
8
100
AcDbSymbolTableRecord
100
AcDbViewportTableRecord
  2
*ACTIVE
 70
     0
 10
0.0
 20
0.0
 11
1.0
 21
1.0
 12
419.9927376304589
 22
296.9871799726926
 13
0.0
 23
0.0
 14
5.0
 24
5.0
 15
0.0
 25
0.0
 16
0.0
 26
0.0
 36
1.0
 17
0.0
 27
0.0
 37
0.0
 40
598.5659634180895
 41
1.535714285714285
 42
50.0
 43
0.0
 44
0.0
 50
0.0
 51
0.0
 71
     0
 72
   100
 73
     1
 74
     0
 75
     0
 76
     0
 77
     0
 78
     0
  0
ENDTAB
  0
TABLE
  2
LTYPE
  5
5
330
0
100
AcDbSymbolTable
 70
     2
  0
LTYPE
  5
14
330
5
100
AcDbSymbolTableRecord
100
AcDbLinetypeTableRecord
  2
BYBLOCK
 70
     0
  3

 72
    65
 73
     0
 40
0.0
  0
LTYPE
  5
15
330
5
100
AcDbSymbolTableRecord
100
AcDbLinetypeTableRecord
  2
BYLAYER
 70
     0
  3

 72
    65
 73
     0
 40
0.0
  0
LTYPE
  5
16
330
5
100
AcDbSymbolTableRecord
100
AcDbLinetypeTableRecord
  2
CONTINUOUS
 70
     0
  3
Solid line
 72
    65
 73
     0
 40
0.0
  0
LTYPE
  5
135
330
5
100
AcDbSymbolTableRecord
100
AcDbLinetypeTableRecord
  2
CENTER
 70
     0
  3
____ _ ____ _ ____ _ ____ _ ____ _ ____ _ ____ 
 72
    65
 73
     4
 40
2.0
 49
1.25
 74
     0
 49
-0.25
 74
     0
 49
0.25
 74
     0
 49
-0.25
 74
     0
  0
ENDTAB
  0
TABLE
  2
LAYER
  5
2
330
0
100
AcDbSymbolTable
 70
     8
  0
LAYER
  5
F
330
2
100
AcDbSymbolTableRecord
100
AcDbLayerTableRecord
  2
0
 70
     0
 62
     7
  6
CONTINUOUS
  0
LAYER
  5
62
330
2
100
AcDbSymbolTableRecord
100
AcDbLayerTableRecord
  2
VIEWPORT
 70
     0
 62
     7
  6
CONTINUOUS
  0
LAYER
  5
143
330
2
100
AcDbSymbolTableRecord
100
AcDbLayerTableRecord
  2
SEIHIN
 70
     0
 62
     3
  6
CONTINUOUS
  0
LAYER
  5
444
330
2
100
AcDbSymbolTableRecord
100
AcDbLayerTableRecord
  2
DEFPOINTS
 70
     0
 62
     7
  6
CONTINUOUS
  0
LAYER
  5
482
330
2
100
AcDbSymbolTableRecord
100
AcDbLayerTableRecord
  2
SUNPOU
 70
     0
 62
     4
  6
CONTINUOUS
  0
LAYER
  5
5D4
330
2
100
AcDbSymbolTableRecord
100
AcDbLayerTableRecord
  2
CENTER_L
 70
     0
 62
     1
  6
CENTER
  0
LAYER
  5
3D95
330
2
100
AcDbSymbolTableRecord
100
AcDbLayerTableRecord
  2
ZUWAKU
 70
     0
 62
     7
  6
CONTINUOUS
  0
LAYER
  5
3D96
330
2
100
AcDbSymbolTableRecord
100
AcDbLayerTableRecord
  2
MOJI
 70
     0
 62
     2
  6
CONTINUOUS
  0
ENDTAB
  0
TABLE
  2
STYLE
  5
3
330
0
100
AcDbSymbolTable
 70
     2
  0
STYLE
  5
10
330
3
100
AcDbSymbolTableRecord
100
AcDbTextStyleTableRecord
  2
STANDARD
 70
     0
 40
0.0
 41
1.0
 50
0.0
 71
     0
 42
6.0
  3
TXT
  4
bigfont.shx
  0
STYLE
  5
3D97
330
3
100
AcDbSymbolTableRecord
100
AcDbTextStyleTableRecord
  2
ｽﾀｲﾙ1
 70
     0
 40
0.0
 41
1.0
 50
0.0
 71
     0
 42
2.5
  3
MS PGothic.ttf
  4

1001
ACAD
1000
MS PGothic
1071
    32818
  0
ENDTAB
  0
TABLE
  2
VIEW
  5
6
330
0
100
AcDbSymbolTable
 70
     0
  0
ENDTAB
  0
TABLE
  2
UCS
  5
7
330
0
100
AcDbSymbolTable
 70
     0
  0
ENDTAB
  0
TABLE
  2
APPID
  5
9
330
0
100
AcDbSymbolTable
 70
     1
  0
APPID
  5
11
330
9
100
AcDbSymbolTableRecord
100
AcDbRegAppTableRecord
  2
ACAD
 70
     0
  0
ENDTAB
  0
TABLE
  2
DIMSTYLE
  5
A
330
0
100
AcDbSymbolTable
 70
     1
  0
DIMSTYLE
105
1D
102
{ACAD_REACTORS
330
4B6A
330
4B5D
330
4E86
330
4E9D
330
4EAA
330
4EB7
330
4EDF
330
54F4
330
54F3
330
555F
330
555E
330
5855
330
4B77
330
5912
330
5946
330
596A
330
54F2
330
4EC4
330
59AE
330
5EED
330
5560
330
5561
102
}
330
A
100
AcDbSymbolTableRecord
100
AcDbDimStyleTableRecord
  2
STANDARD
 70
     0
  3

  4

  5

  6

  7

 40
1.0
 41
0.18
 42
0.0625
 43
0.38
 44
0.18
 45
0.0
 46
0.0
 47
0.0
 48
0.0
140
0.18
141
0.09
142
0.0
143
25.4
144
1.0
145
0.0
146
1.0
147
0.09
 71
     0
 72
     0
 73
     1
 74
     1
 75
     0
 76
     0
 77
     0
 78
     0
170
     0
171
     2
172
     0
173
     0
174
     0
175
     0
176
     0
177
     0
178
     0
270
     2
271
     4
272
     4
273
     2
274
     2
340
10
275
     0
280
     0
281
     0
282
     0
283
     1
284
     0
285
     0
286
     0
287
     3
288
     0
  0
ENDTAB
  0
TABLE
  2
BLOCK_RECORD
  5
1
330
0
100
AcDbSymbolTable
 70
    25
  0
BLOCK_RECORD
  5
1A
102
{ACAD_XDICTIONARY
360
AC7
102
}
330
1
100
AcDbSymbolTableRecord
100
AcDbBlockTableRecord
  2
*MODEL_SPACE
  0
BLOCK_RECORD
  5
17
102
{ACAD_XDICTIONARY
360
AC5
102
}
330
1
100
AcDbSymbolTableRecord
100
AcDbBlockTableRecord
  2
*PAPER_SPACE
  0
BLOCK_RECORD
  5
6D
330
1
100
AcDbSymbolTableRecord
100
AcDbBlockTableRecord
  2
_OPEN
  0
BLOCK_RECORD
  5
4B5E
330
1
100
AcDbSymbolTableRecord
100
AcDbBlockTableRecord
  2
*D1
  0
BLOCK_RECORD
  5
4B6B
330
1
100
AcDbSymbolTableRecord
100
AcDbBlockTableRecord
  2
*D2
  0
BLOCK_RECORD
  5
4B78
330
1
100
AcDbSymbolTableRecord
100
AcDbBlockTableRecord
  2
*D3
  0
BLOCK_RECORD
  5
4E87
330
1
100
AcDbSymbolTableRecord
100
AcDbBlockTableRecord
  2
*D4
  0
BLOCK_RECORD
  5
4E9E
330
1
100
AcDbSymbolTableRecord
100
AcDbBlockTableRecord
  2
*D5
  0
BLOCK_RECORD
  5
4EAB
330
1
100
AcDbSymbolTableRecord
100
AcDbBlockTableRecord
  2
*D6
  0
BLOCK_RECORD
  5
4EB8
330
1
100
AcDbSymbolTableRecord
100
AcDbBlockTableRecord
  2
*D7
  0
BLOCK_RECORD
  5
4EC5
330
1
100
AcDbSymbolTableRecord
100
AcDbBlockTableRecord
  2
*D8
  0
BLOCK_RECORD
  5
4EE0
330
1
100
AcDbSymbolTableRecord
100
AcDbBlockTableRecord
  2
*D9
  0
BLOCK_RECORD
  5
54F5
330
1
100
AcDbSymbolTableRecord
100
AcDbBlockTableRecord
  2
*D10
  0
BLOCK_RECORD
  5
5501
330
1
100
AcDbSymbolTableRecord
100
AcDbBlockTableRecord
  2
*D11
  0
BLOCK_RECORD
  5
550F
330
1
100
AcDbSymbolTableRecord
100
AcDbBlockTableRecord
  2
*D12
  0
BLOCK_RECORD
  5
5562
330
1
100
AcDbSymbolTableRecord
100
AcDbBlockTableRecord
  2
*D13
  0
BLOCK_RECORD
  5
556E
330
1
100
AcDbSymbolTableRecord
100
AcDbBlockTableRecord
  2
*D14
  0
BLOCK_RECORD
  5
557A
330
1
100
AcDbSymbolTableRecord
100
AcDbBlockTableRecord
  2
*D15
  0
BLOCK_RECORD
  5
5588
330
1
100
AcDbSymbolTableRecord
100
AcDbBlockTableRecord
  2
*D16
  0
BLOCK_RECORD
  5
5856
330
1
100
AcDbSymbolTableRecord
100
AcDbBlockTableRecord
  2
*D17
  0
BLOCK_RECORD
  5
591E
330
1
100
AcDbSymbolTableRecord
100
AcDbBlockTableRecord
  2
*D18
  0
BLOCK_RECORD
  5
5947
330
1
100
AcDbSymbolTableRecord
100
AcDbBlockTableRecord
  2
*D19
  0
BLOCK_RECORD
  5
596B
330
1
100
AcDbSymbolTableRecord
100
AcDbBlockTableRecord
  2
*D20
  0
BLOCK_RECORD
  5
59AF
330
1
100
AcDbSymbolTableRecord
100
AcDbBlockTableRecord
  2
*D21
  0
BLOCK_RECORD
  5
5EEE
330
1
100
AcDbSymbolTableRecord
100
AcDbBlockTableRecord
  2
*D22
  0
BLOCK_RECORD
  5
64C6
330
1
100
AcDbSymbolTableRecord
100
AcDbBlockTableRecord
  2
*X24
  0
ENDTAB
  0
ENDSEC
  0
SECTION
  2
BLOCKS
  0
BLOCK
  5
1B
330
1A
100
AcDbEntity
  8
0
100
AcDbBlockBegin
  2
*MODEL_SPACE
 70
     0
 10
0.0
 20
0.0
 30
0.0
  3
*MODEL_SPACE
  1

  0
ENDBLK
  5
1C
330
1A
100
AcDbEntity
  8
0
100
AcDbBlockEnd
  0
BLOCK
  5
18
330
17
100
AcDbEntity
 67
     1
  8
0
100
AcDbBlockBegin
  2
*PAPER_SPACE
 70
     0
 10
0.0
 20
0.0
 30
0.0
  3
*PAPER_SPACE
  1

  0
ENDBLK
  5
19
330
17
100
AcDbEntity
 67
     1
  8
0
100
AcDbBlockEnd
  0
BLOCK
  5
6E
330
6D
100
AcDbEntity
  8
0
100
AcDbBlockBegin
  2
_OPEN
 70
     0
 10
0.0
 20
0.0
 30
0.0
  3
_OPEN
  1

  0
LINE
  5
6F
330
6D
100
AcDbEntity
  8
0
  6
BYBLOCK
 62
     0
100
AcDbLine
 10
-1.0
 20
0.1666666666666666
 30
0.0
 11
0.0
 21
0.0
 31
0.0
  0
LINE
  5
70
330
6D
100
AcDbEntity
  8
0
  6
BYBLOCK
 62
     0
100
AcDbLine
 10
0.0
 20
0.0
 30
0.0
 11
-1.0
 21
-0.1666666666666666
 31
0.0
  0
LINE
  5
71
330
6D
100
AcDbEntity
  8
0
  6
BYBLOCK
 62
     0
100
AcDbLine
 10
0.0
 20
0.0
 30
0.0
 11
-1.0
 21
0.0
 31
0.0
  0
ENDBLK
  5
72
330
6D
100
AcDbEntity
  8
0
100
AcDbBlockEnd
  0
BLOCK
  5
4B68
330
4B5E
100
AcDbEntity
  8
0
100
AcDbBlockBegin
  2
*D1
 70
     1
 10
0.0
 20
0.0
 30
0.0
  3
*D1
  1

  0
LINE
  5
665C
330
4B5E
100
AcDbEntity
  8
SUNPOU
100
AcDbLine
 10
256.687269675124
 20
399.5017105631863
 30
0.0
 11
235.5174909966855
 21
399.5017105631863
 31
0.0
  0
LINE
  5
665D
330
4B5E
100
AcDbEntity
  8
SUNPOU
100
AcDbLine
 10
256.687269675124
 20
379.5017105631862
 30
0.0
 11
235.5174909966855
 21
379.5017105631862
 31
0.0
  0
LINE
  5
665E
330
4B5E
100
AcDbEntity
  8
SUNPOU
100
AcDbLine
 10
238.5174909966855
 20
392.5017105631863
 30
0.0
 11
238.5174909966855
 21
386.5017105631863
 31
0.0
  0
INSERT
  5
665F
330
4B5E
100
AcDbEntity
  8
SUNPOU
100
AcDbBlockReference
  2
_OPEN
 10
238.5174909966855
 20
399.5017105631863
 30
0.0
 41
7.0
 42
7.0
 43
7.0
 50
90.0
  0
INSERT
  5
6660
330
4B5E
100
AcDbEntity
  8
SUNPOU
100
AcDbBlockReference
  2
_OPEN
 10
238.5174909966855
 20
379.5017105631862
 30
0.0
 41
7.0
 42
7.0
 43
7.0
 50
270.0
  0
MTEXT
  5
6661
330
4B5E
100
AcDbEntity
  8
SUNPOU
100
AcDbMText
 10
233.5174909966854
 20
389.5017105631864
 30
0.0
 40
6.0
 41
0.0
 71
     5
 72
     1
  1
\A1;20
 11
0.0000000000000001
 21
1.0
 31
0.0
  0
POINT
  5
6662
330
4B5E
100
AcDbEntity
  8
DEFPOINTS
 62
     0
100
AcDbPoint
 10
262.687269675124
 20
399.5017105631863
 30
0.0
  0
POINT
  5
6663
330
4B5E
100
AcDbEntity
  8
DEFPOINTS
 62
     0
100
AcDbPoint
 10
262.687269675124
 20
379.5017105631862
 30
0.0
  0
POINT
  5
6664
330
4B5E
100
AcDbEntity
  8
DEFPOINTS
 62
     0
100
AcDbPoint
 10
238.5174909966855
 20
379.5017105631862
 30
0.0
  0
ENDBLK
  5
4B69
330
4B5E
100
AcDbEntity
  8
0
100
AcDbBlockEnd
  0
BLOCK
  5
4B75
330
4B6B
100
AcDbEntity
  8
0
100
AcDbBlockBegin
  2
*D2
 70
     1
 10
0.0
 20
0.0
 30
0.0
  3
*D2
  1

  0
LINE
  5
6665
330
4B6B
100
AcDbEntity
  8
SUNPOU
100
AcDbLine
 10
268.2658329151147
 20
402.0017105631863
 30
0.0
 11
221.014519101344
 21
402.0017105631863
 31
0.0
  0
LINE
  5
6666
330
4B6B
100
AcDbEntity
  8
SUNPOU
100
AcDbLine
 10
268.2658329151775
 20
377.0017105631862
 30
0.0
 11
221.014519101344
 21
377.0017105631862
 31
0.0
  0
LINE
  5
6667
330
4B6B
100
AcDbEntity
  8
SUNPOU
100
AcDbLine
 10
224.014519101344
 20
395.0017105631863
 30
0.0
 11
224.014519101344
 21
384.0017105631862
 31
0.0
  0
INSERT
  5
6668
330
4B6B
100
AcDbEntity
  8
SUNPOU
100
AcDbBlockReference
  2
_OPEN
 10
224.014519101344
 20
402.0017105631863
 30
0.0
 41
7.0
 42
7.0
 43
7.0
 50
90.0
  0
INSERT
  5
6669
330
4B6B
100
AcDbEntity
  8
SUNPOU
100
AcDbBlockReference
  2
_OPEN
 10
224.014519101344
 20
377.0017105631862
 30
0.0
 41
7.0
 42
7.0
 43
7.0
 50
270.0
  0
MTEXT
  5
666A
330
4B6B
100
AcDbEntity
  8
SUNPOU
100
AcDbMText
 10
219.0145191013439
 20
389.5017105631864
 30
0.0
 40
6.0
 41
0.0
 71
     5
 72
     1
  1
\A1;25
 11
0.0000000000000001
 21
1.0
 31
0.0
  0
POINT
  5
666B
330
4B6B
100
AcDbEntity
  8
DEFPOINTS
 62
     0
100
AcDbPoint
 10
274.2658329151147
 20
402.0017105631863
 30
0.0
  0
POINT
  5
666C
330
4B6B
100
AcDbEntity
  8
DEFPOINTS
 62
     0
100
AcDbPoint
 10
274.2658329151775
 20
377.0017105631862
 30
0.0
  0
POINT
  5
666D
330
4B6B
100
AcDbEntity
  8
DEFPOINTS
 62
     0
100
AcDbPoint
 10
224.014519101344
 20
377.0017105631862
 30
0.0
  0
ENDBLK
  5
4B76
330
4B6B
100
AcDbEntity
  8
0
100
AcDbBlockEnd
  0
BLOCK
  5
4B84
330
4B78
100
AcDbEntity
  8
0
100
AcDbBlockBegin
  2
*D3
 70
     1
 10
0.0
 20
0.0
 30
0.0
  3
*D3
  1

  0
LINE
  5
5937
330
4B78
100
AcDbEntity
  8
SUNPOU
100
AcDbLine
 10
387.2697316804512
 20
407.6167151654239
 30
0.0
 11
387.2697316804512
 21
420.6885271775899
 31
0.0
  0
LINE
  5
5938
330
4B78
100
AcDbEntity
  8
SUNPOU
100
AcDbLine
 10
388.8697316804511
 20
407.6167151654239
 30
0.0
 11
388.8697316804511
 21
420.6885271775899
 31
0.0
  0
LINE
  5
5939
330
4B78
100
AcDbEntity
  8
SUNPOU
100
AcDbLine
 10
380.2697316804512
 20
417.6885271775899
 30
0.0
 11
373.2697316804512
 21
417.6885271775899
 31
0.0
  0
LINE
  5
593A
330
4B78
100
AcDbEntity
  8
SUNPOU
100
AcDbLine
 10
395.8697316804511
 20
417.6885271775899
 30
0.0
 11
416.8697316804511
 21
417.6885271775899
 31
0.0
  0
LINE
  5
593B
330
4B78
100
AcDbEntity
  8
SUNPOU
100
AcDbLine
 10
387.2697316804512
 20
417.6885271775899
 30
0.0
 11
388.8697316804511
 21
417.6885271775899
 31
0.0
  0
INSERT
  5
593C
330
4B78
100
AcDbEntity
  8
SUNPOU
100
AcDbBlockReference
  2
_OPEN
 10
387.2697316804512
 20
417.6885271775899
 30
0.0
 41
7.0
 42
7.0
 43
7.0
  0
INSERT
  5
593D
330
4B78
100
AcDbEntity
  8
SUNPOU
100
AcDbBlockReference
  2
_OPEN
 10
388.8697316804511
 20
417.6885271775899
 30
0.0
 41
7.0
 42
7.0
 43
7.0
 50
180.0
  0
MTEXT
  5
593E
330
4B78
100
AcDbEntity
  8
SUNPOU
100
AcDbMText
 10
409.8697316804511
 20
422.6885271775899
 30
0.0
 40
6.0
 41
0.0
 71
     5
 72
     1
  1
\A1;1.6
1001
ACAD
1000
MTEXTBEGIN
1070
    73
1070
     1
1070
    44
1040
1.0
1070
    74
1070
     0
1000
MTEXTEND
  0
POINT
  5
593F
330
4B78
100
AcDbEntity
  8
DEFPOINTS
 62
     0
100
AcDbPoint
 10
387.2697316804512
 20
401.6167151654239
 30
0.0
  0
POINT
  5
5940
330
4B78
100
AcDbEntity
  8
DEFPOINTS
 62
     0
100
AcDbPoint
 10
388.8697316804511
 20
401.6167151654239
 30
0.0
  0
POINT
  5
5941
330
4B78
100
AcDbEntity
  8
DEFPOINTS
 62
     0
100
AcDbPoint
 10
388.8697316804511
 20
417.6885271775899
 30
0.0
  0
ENDBLK
  5
4B85
330
4B78
100
AcDbEntity
  8
0
100
AcDbBlockEnd
  0
BLOCK
  5
4E91
330
4E87
100
AcDbEntity
  8
0
100
AcDbBlockBegin
  2
*D4
 70
     1
 10
0.0
 20
0.0
 30
0.0
  3
*D4
  1

  0
LINE
  5
666E
330
4E87
100
AcDbEntity
  8
SUNPOU
100
AcDbLine
 10
483.3277435345481
 20
332.5543436050409
 30
0.0
 11
477.3617705561439
 21
347.4695851829682
 31
0.0
  0
LINE
  5
666F
330
4E87
100
AcDbEntity
  8
SUNPOU
100
AcDbLine
 10
524.1808347210613
 20
348.8952413926909
 30
0.0
 11
518.2148617426571
 21
363.8104829706184
 31
0.0
  0
LINE
  5
6670
330
4E87
100
AcDbEntity
  8
SUNPOU
100
AcDbLine
 10
484.9752780940653
 20
347.283835431923
 30
0.0
 11
512.8296584485062
 21
358.4253566507754
 31
0.0
  0
INSERT
  5
6671
330
4E87
100
AcDbEntity
  8
SUNPOU
100
AcDbBlockReference
  2
_OPEN
 10
478.4759226780291
 20
344.6841471475241
 30
0.0
 41
7.0
 42
7.0
 43
7.0
 50
201.8010000000003
  0
INSERT
  5
6672
330
4E87
100
AcDbEntity
  8
SUNPOU
100
AcDbBlockReference
  2
_OPEN
 10
519.3290138645424
 20
361.0250449351743
 30
0.0
 41
7.0
 42
7.0
 43
7.0
 50
21.80100000000034
  0
MTEXT
  5
6673
330
4E87
100
AcDbEntity
  8
SUNPOU
100
AcDbMText
 10
497.0455480681437
 20
357.4969927670894
 30
0.0
 40
6.0
 41
0.0
 71
     5
 72
     1
  1
\A1;44
 11
0.9284793451480288
 21
0.3713840406284142
 31
0.0
  0
POINT
  5
6674
330
4E87
100
AcDbEntity
  8
DEFPOINTS
 62
     0
100
AcDbPoint
 10
485.5560477783186
 20
326.9834675341527
 30
0.0
  0
POINT
  5
6675
330
4E87
100
AcDbEntity
  8
DEFPOINTS
 62
     0
100
AcDbPoint
 10
526.4091389648318
 20
343.3243653218028
 30
0.0
  0
POINT
  5
6676
330
4E87
100
AcDbEntity
  8
DEFPOINTS
 62
     0
100
AcDbPoint
 10
519.3290138645424
 20
361.0250449351743
 30
0.0
  0
ENDBLK
  5
4E92
330
4E87
100
AcDbEntity
  8
0
100
AcDbBlockEnd
  0
BLOCK
  5
4EA8
330
4E9E
100
AcDbEntity
  8
0
100
AcDbBlockBegin
  2
*D5
 70
     1
 10
0.0
 20
0.0
 30
0.0
  3
*D5
  1

  0
LINE
  5
6677
330
4E9E
100
AcDbEntity
  8
SUNPOU
100
AcDbLine
 10
476.0855815500781
 20
326.4264492039981
 30
0.0
 11
463.6684762081052
 21
357.4698559617064
 31
0.0
  0
LINE
  5
6678
330
4E9E
100
AcDbEntity
  8
SUNPOU
100
AcDbLine
 10
533.6513009160743
 20
349.4522598059149
 30
0.0
 11
521.2341956072828
 21
380.4956664806681
 31
0.0
  0
LINE
  5
6679
330
4E9E
100
AcDbEntity
  8
SUNPOU
100
AcDbLine
 10
471.2819837460266
 20
357.2841062106612
 30
0.0
 11
515.8489923131318
 21
375.110540160825
 31
0.0
  0
INSERT
  5
667A
330
4E9E
100
AcDbEntity
  8
SUNPOU
100
AcDbBlockReference
  2
_OPEN
 10
464.7826283299904
 20
354.6844179262623
 30
0.0
 41
7.0
 42
7.0
 43
7.0
 50
201.8010000000003
  0
INSERT
  5
667B
330
4E9E
100
AcDbEntity
  8
SUNPOU
100
AcDbBlockReference
  2
_OPEN
 10
522.348347729168
 20
377.7102284452239
 30
0.0
 41
7.0
 42
7.0
 43
7.0
 50
21.80100000000034
  0
MTEXT
  5
667C
330
4E9E
100
AcDbEntity
  8
SUNPOU
100
AcDbMText
 10
491.7085678264371
 20
370.8397199114832
 30
0.0
 40
6.0
 41
0.0
 71
     5
 72
     1
  1
\A1;62
 11
0.9284793451480288
 21
0.3713840406284142
 31
0.0
  0
POINT
  5
667D
330
4E9E
100
AcDbEntity
  8
DEFPOINTS
 62
     0
100
AcDbPoint
 10
478.3138857938486
 20
320.8555731331099
 30
0.0
  0
POINT
  5
667E
330
4E9E
100
AcDbEntity
  8
DEFPOINTS
 62
     0
100
AcDbPoint
 10
535.8796051598448
 20
343.8813837350267
 30
0.0
  0
POINT
  5
667F
330
4E9E
100
AcDbEntity
  8
DEFPOINTS
 62
     0
100
AcDbPoint
 10
522.348347729168
 20
377.7102284452239
 30
0.0
  0
ENDBLK
  5
4EA9
330
4E9E
100
AcDbEntity
  8
0
100
AcDbBlockEnd
  0
BLOCK
  5
4EB5
330
4EAB
100
AcDbEntity
  8
0
100
AcDbBlockBegin
  2
*D6
 70
     1
 10
0.0
 20
0.0
 30
0.0
  3
*D6
  1

  0
LINE
  5
6680
330
4EAB
100
AcDbEntity
  8
SUNPOU
100
AcDbLine
 10
541.4504427762323
 20
340.7245230885674
 30
0.0
 11
561.816641684972
 21
348.8708338088818
 31
0.0
  0
LINE
  5
6681
330
4EAB
100
AcDbEntity
  8
SUNPOU
100
AcDbLine
 10
548.5067395481721
 20
323.0834155307547
 30
0.0
 11
568.872938456912
 21
331.2297262510692
 31
0.0
  0
LINE
  5
6682
330
4EAB
100
AcDbEntity
  8
SUNPOU
100
AcDbLine
 10
561.6308919339269
 20
341.2573262709603
 30
0.0
 11
563.4878121370689
 21
336.6149295452201
 31
0.0
  0
INSERT
  5
6683
330
4EAB
100
AcDbEntity
  8
SUNPOU
100
AcDbBlockReference
  2
_OPEN
 10
559.031203649528
 20
347.7566816869965
 30
0.0
 41
7.0
 42
7.0
 43
7.0
 50
111.8010000000005
  0
INSERT
  5
6684
330
4EAB
100
AcDbEntity
  8
SUNPOU
100
AcDbBlockReference
  2
_OPEN
 10
566.087500421468
 20
330.1155741291839
 30
0.0
 41
7.0
 42
7.0
 43
7.0
 50
291.8010000000005
  0
MTEXT
  5
6685
330
4EAB
100
AcDbEntity
  8
SUNPOU
100
AcDbMText
 10
567.2017487612381
 20
340.7930481112323
 30
0.0
 40
6.0
 41
0.0
 71
     5
 72
     1
  1
\A1;19
 11
0.3713840406284178
 21
-0.9284793451480275
 31
0.0
  0
POINT
  5
6686
330
4EAB
100
AcDbEntity
  8
DEFPOINTS
 62
     0
100
AcDbPoint
 10
535.8795667053441
 20
338.4962188447969
 30
0.0
  0
POINT
  5
6687
330
4EAB
100
AcDbEntity
  8
DEFPOINTS
 62
     0
100
AcDbPoint
 10
542.935863477284
 20
320.8551112869842
 30
0.0
  0
POINT
  5
6688
330
4EAB
100
AcDbEntity
  8
DEFPOINTS
 62
     0
100
AcDbPoint
 10
566.087500421468
 20
330.1155741291839
 30
0.0
  0
ENDBLK
  5
4EB6
330
4EAB
100
AcDbEntity
  8
0
100
AcDbBlockEnd
  0
BLOCK
  5
4EC2
330
4EB8
100
AcDbEntity
  8
0
100
AcDbBlockBegin
  2
*D7
 70
     1
 10
0.0
 20
0.0
 30
0.0
  3
*D7
  1

  0
LINE
  5
6689
330
4EB8
100
AcDbEntity
  8
SUNPOU
100
AcDbLine
 10
550.5493325280514
 20
315.2841967289421
 30
0.0
 11
586.7493683947844
 21
329.7639109641981
 31
0.0
  0
LINE
  5
668A
330
4EB8
100
AcDbEntity
  8
SUNPOU
100
AcDbLine
 10
537.550891106057
 20
347.7809738091232
 30
0.0
 11
573.7509269727897
 21
362.260688044379
 31
0.0
  0
LINE
  5
668B
330
4EB8
100
AcDbEntity
  8
SUNPOU
100
AcDbLine
 10
581.3642420749415
 20
335.1491142583491
 30
0.0
 11
573.5651772217448
 21
354.6471805064576
 31
0.0
  0
INSERT
  5
668C
330
4EB8
100
AcDbEntity
  8
SUNPOU
100
AcDbBlockReference
  2
_OPEN
 10
583.9639303593404
 20
328.6497588423128
 30
0.0
 41
7.0
 42
7.0
 43
7.0
 50
291.8010000000005
  0
INSERT
  5
668D
330
4EB8
100
AcDbEntity
  8
SUNPOU
100
AcDbBlockReference
  2
_OPEN
 10
570.9654889373457
 20
361.1465359224938
 30
0.0
 41
7.0
 42
7.0
 43
7.0
 50
111.8010000000005
  0
MTEXT
  5
668E
330
4EB8
100
AcDbEntity
  8
SUNPOU
100
AcDbMText
 10
582.1071063740832
 20
346.7550675855454
 30
0.0
 40
6.0
 41
0.0
 71
     5
 72
     1
  1
\A1;35
 11
0.3713840406284178
 21
-0.9284793451480275
 31
0.0
  0
POINT
  5
668F
330
4EB8
100
AcDbEntity
  8
DEFPOINTS
 62
     0
100
AcDbPoint
 10
544.9784564571632
 20
313.0558924851716
 30
0.0
  0
POINT
  5
6690
330
4EB8
100
AcDbEntity
  8
DEFPOINTS
 62
     0
100
AcDbPoint
 10
531.9800150351688
 20
345.5526695653527
 30
0.0
  0
POINT
  5
6691
330
4EB8
100
AcDbEntity
  8
DEFPOINTS
 62
     0
100
AcDbPoint
 10
570.9654889373457
 20
361.1465359224938
 30
0.0
  0
ENDBLK
  5
4EC3
330
4EB8
100
AcDbEntity
  8
0
100
AcDbBlockEnd
  0
BLOCK
  5
4ED1
330
4EC5
100
AcDbEntity
  8
0
100
AcDbBlockBegin
  2
*D8
 70
     1
 10
0.0
 20
0.0
 30
0.0
  3
*D8
  1

  0
LINE
  5
6692
330
4EC5
100
AcDbEntity
  8
SUNPOU
100
AcDbLine
 10
533.8173171811327
 20
252.1025120556263
 30
0.0
 11
543.9820874021117
 21
226.6900598070448
 31
0.0
  0
LINE
  5
6693
330
4EC5
100
AcDbEntity
  8
SUNPOU
100
AcDbLine
 10
543.1021106326129
 20
255.8163524619105
 30
0.0
 11
553.2668808535921
 21
230.4039002133289
 31
0.0
  0
LINE
  5
6694
330
4EC5
100
AcDbEntity
  8
SUNPOU
100
AcDbLine
 10
536.3685798641903
 20
226.87580955809
 30
0.0
 11
529.8692244481541
 21
224.2761212736911
 31
0.0
  0
LINE
  5
6695
330
4EC5
100
AcDbEntity
  8
SUNPOU
100
AcDbLine
 10
558.652084147743
 20
235.7890265331719
 30
0.0
 11
565.1514395637792
 21
238.3887148175708
 31
0.0
  0
MTEXT
  5
6696
330
4EC5
100
AcDbEntity
  8
SUNPOU
100
AcDbMText
 10
560.3849108167046
 20
243.091625524109
 30
0.0
 40
6.0
 41
0.0
 71
     5
 72
     1
  1
\A1;10
 11
0.9284793451480288
 21
0.3713840406284142
 31
0.0
  0
LINE
  5
6697
330
4EC5
100
AcDbEntity
  8
SUNPOU
100
AcDbLine
 10
542.8679352802265
 20
229.4754978424889
 30
0.0
 11
552.1527287317068
 21
233.189338248773
 31
0.0
  0
INSERT
  5
6698
330
4EC5
100
AcDbEntity
  8
SUNPOU
100
AcDbBlockReference
  2
_OPEN
 10
542.8679352802265
 20
229.4754978424889
 30
0.0
 41
7.0
 42
7.0
 43
7.0
 50
21.80100000000038
  0
INSERT
  5
6699
330
4EC5
100
AcDbEntity
  8
SUNPOU
100
AcDbBlockReference
  2
_OPEN
 10
552.1527287317068
 20
233.189338248773
 30
0.0
 41
7.0
 42
7.0
 43
7.0
 50
201.8010000000003
  0
POINT
  5
669A
330
4EC5
100
AcDbEntity
  8
DEFPOINTS
 62
     0
100
AcDbPoint
 10
531.5890129373622
 20
257.6733881265145
 30
0.0
  0
POINT
  5
669B
330
4EC5
100
AcDbEntity
  8
DEFPOINTS
 62
     0
100
AcDbPoint
 10
540.8738063888424
 20
261.3872285327986
 30
0.0
  0
POINT
  5
669C
330
4EC5
100
AcDbEntity
  8
DEFPOINTS
 62
     0
100
AcDbPoint
 10
552.1527287317068
 20
233.189338248773
 30
0.0
  0
ENDBLK
  5
4ED2
330
4EC5
100
AcDbEntity
  8
0
100
AcDbBlockEnd
  0
BLOCK
  5
4EEA
330
4EE0
100
AcDbEntity
  8
0
100
AcDbBlockBegin
  2
*D9
 70
     1
 10
0.0
 20
0.0
 30
0.0
  3
*D9
  1

  0
LINE
  5
669D
330
4EE0
100
AcDbEntity
  8
SUNPOU
100
AcDbLine
 10
524.5819102465087
 20
261.7283553653878
 30
0.0
 11
544.9116298478778
 21
210.9030029604141
 31
0.0
  0
LINE
  5
669E
330
4EE0
100
AcDbEntity
  8
SUNPOU
100
AcDbLine
 10
543.1514971494693
 20
269.156036177956
 30
0.0
 11
563.4812167508384
 21
218.3306837729825
 31
0.0
  0
LINE
  5
669F
330
4EE0
100
AcDbEntity
  8
SUNPOU
100
AcDbLine
 10
550.2968331420288
 20
216.2881292802572
 30
0.0
 11
555.867709212917
 21
218.5164335240276
 31
0.0
  0
INSERT
  5
66A0
330
4EE0
100
AcDbEntity
  8
SUNPOU
100
AcDbBlockReference
  2
_OPEN
 10
543.7974777259926
 20
213.6884409958582
 30
0.0
 41
7.0
 42
7.0
 43
7.0
 50
201.8010000000003
  0
INSERT
  5
66A1
330
4EE0
100
AcDbEntity
  8
SUNPOU
100
AcDbBlockReference
  2
_OPEN
 10
562.3670646289531
 20
221.1161218084265
 30
0.0
 41
7.0
 42
7.0
 43
7.0
 50
21.80100000000034
  0
MTEXT
  5
66A2
330
4EE0
100
AcDbEntity
  8
SUNPOU
100
AcDbMText
 10
551.2253509743308
 20
222.0446781278825
 30
0.0
 40
6.0
 41
0.0
 71
     5
 72
     1
  1
\A1;20
 11
0.9284793451480288
 21
0.3713840406284142
 31
0.0
  0
POINT
  5
66A3
330
4EE0
100
AcDbEntity
  8
DEFPOINTS
 62
     0
100
AcDbPoint
 10
522.3536060027383
 20
267.299231436276
 30
0.0
  0
POINT
  5
66A4
330
4EE0
100
AcDbEntity
  8
DEFPOINTS
 62
     0
100
AcDbPoint
 10
540.9231929056988
 20
274.7269122488442
 30
0.0
  0
POINT
  5
66A5
330
4EE0
100
AcDbEntity
  8
DEFPOINTS
 62
     0
100
AcDbPoint
 10
562.3670646289531
 20
221.1161218084265
 30
0.0
  0
ENDBLK
  5
4EEB
330
4EE0
100
AcDbEntity
  8
0
100
AcDbBlockEnd
  0
BLOCK
  5
54FF
330
54F5
100
AcDbEntity
  8
0
100
AcDbBlockBegin
  2
*D10
 70
     1
 10
0.0
 20
0.0
 30
0.0
  3
*D10
  1

  0
LINE
  5
66B1
330
54F5
100
AcDbEntity
  8
SUNPOU
100
AcDbLine
 10
250.6872696737687
 20
255.2830729505024
 30
0.0
 11
211.4668181060782
 21
255.2830729505024
 31
0.0
  0
LINE
  5
66B2
330
54F5
100
AcDbEntity
  8
SUNPOU
100
AcDbLine
 10
302.9449959015493
 20
220.6513222624943
 30
0.0
 11
211.4668181060782
 21
220.6513222624943
 31
0.0
  0
LINE
  5
66B3
330
54F5
100
AcDbEntity
  8
SUNPOU
100
AcDbLine
 10
214.4668181060782
 20
248.2830729505024
 30
0.0
 11
214.4668181060782
 21
227.6513222624943
 31
0.0
  0
INSERT
  5
66B4
330
54F5
100
AcDbEntity
  8
SUNPOU
100
AcDbBlockReference
  2
_OPEN
 10
214.4668181060782
 20
255.2830729505024
 30
0.0
 41
7.0
 42
7.0
 43
7.0
 50
90.0
  0
INSERT
  5
66B5
330
54F5
100
AcDbEntity
  8
SUNPOU
100
AcDbBlockReference
  2
_OPEN
 10
214.4668181060782
 20
220.6513222624943
 30
0.0
 41
7.0
 42
7.0
 43
7.0
 50
270.0
  0
MTEXT
  5
66B6
330
54F5
100
AcDbEntity
  8
SUNPOU
100
AcDbMText
 10
209.4668181060781
 20
237.9671976064984
 30
0.0
 40
6.0
 41
0.0
 71
     5
 72
     1
  1
\A1;35
 11
0.0000000000000001
 21
1.0
 31
0.0
  0
POINT
  5
66B7
330
54F5
100
AcDbEntity
  8
DEFPOINTS
 62
     0
100
AcDbPoint
 10
256.6872696737688
 20
255.2830729505024
 30
0.0
  0
POINT
  5
66B8
330
54F5
100
AcDbEntity
  8
DEFPOINTS
 62
     0
100
AcDbPoint
 10
308.9449959015492
 20
220.6513222624943
 30
0.0
  0
POINT
  5
66B9
330
54F5
100
AcDbEntity
  8
DEFPOINTS
 62
     0
100
AcDbPoint
 10
214.4668181060782
 20
220.6513222624943
 30
0.0
  0
ENDBLK
  5
5500
330
54F5
100
AcDbEntity
  8
0
100
AcDbBlockEnd
  0
BLOCK
  5
550D
330
5501
100
AcDbEntity
  8
0
100
AcDbBlockBegin
  2
*D11
 70
     1
 10
0.0
 20
0.0
 30
0.0
  3
*D11
  1

  0
LINE
  5
66A6
330
5501
100
AcDbEntity
  8
SUNPOU
100
AcDbLine
 10
256.6872696737688
 20
255.2830729505024
 30
0.0
 11
225.9697900014198
 21
255.2830729505024
 31
0.0
  0
LINE
  5
66A7
330
5501
100
AcDbEntity
  8
SUNPOU
100
AcDbLine
 10
259.1872696753725
 20
246.2830729505024
 30
0.0
 11
225.9697900014198
 21
246.2830729505024
 31
0.0
  0
LINE
  5
66A8
330
5501
100
AcDbEntity
  8
SUNPOU
100
AcDbLine
 10
228.9697900014198
 20
262.2830729505024
 30
0.0
 11
228.9697900014198
 21
269.2830729505024
 31
0.0
  0
LINE
  5
66A9
330
5501
100
AcDbEntity
  8
SUNPOU
100
AcDbLine
 10
228.9697900014198
 20
239.2830729505024
 30
0.0
 11
228.9697900014198
 21
232.2830729505024
 31
0.0
  0
LINE
  5
66AA
330
5501
100
AcDbEntity
  8
SUNPOU
100
AcDbLine
 10
228.9697900014198
 20
255.2830729505024
 30
0.0
 11
228.9697900014198
 21
246.2830729505024
 31
0.0
  0
INSERT
  5
66AB
330
5501
100
AcDbEntity
  8
SUNPOU
100
AcDbBlockReference
  2
_OPEN
 10
228.9697900014198
 20
255.2830729505024
 30
0.0
 41
7.0
 42
7.0
 43
7.0
 50
270.0
  0
INSERT
  5
66AC
330
5501
100
AcDbEntity
  8
SUNPOU
100
AcDbBlockReference
  2
_OPEN
 10
228.9697900014198
 20
246.2830729505024
 30
0.0
 41
7.0
 42
7.0
 43
7.0
 50
90.0
  0
MTEXT
  5
66AD
330
5501
100
AcDbEntity
  8
SUNPOU
100
AcDbMText
 10
223.9697900014197
 20
250.7830729505025
 30
0.0
 40
6.0
 41
0.0
 71
     5
 72
     1
  1
\A1;9
 11
0.0000000000000001
 21
1.0
 31
0.0
  0
POINT
  5
66AE
330
5501
100
AcDbEntity
  8
DEFPOINTS
 62
     0
100
AcDbPoint
 10
262.6872696737688
 20
255.2830729505024
 30
0.0
  0
POINT
  5
66AF
330
5501
100
AcDbEntity
  8
DEFPOINTS
 62
     0
100
AcDbPoint
 10
265.1872696753725
 20
246.2830729505024
 30
0.0
  0
POINT
  5
66B0
330
5501
100
AcDbEntity
  8
DEFPOINTS
 62
     0
100
AcDbPoint
 10
228.9697900014198
 20
246.2830729505024
 30
0.0
  0
ENDBLK
  5
550E
330
5501
100
AcDbEntity
  8
0
100
AcDbBlockEnd
  0
BLOCK
  5
551B
330
550F
100
AcDbEntity
  8
0
100
AcDbBlockBegin
  2
*D12
 70
     1
 10
0.0
 20
0.0
 30
0.0
  3
*D12
  1

  0
LINE
  5
582D
330
550F
100
AcDbEntity
  8
SUNPOU
100
AcDbLine
 10
262.6872696737688
 20
261.2830729505024
 30
0.0
 11
262.6872696737688
 21
272.9438311761605
 31
0.0
  0
LINE
  5
582E
330
550F
100
AcDbEntity
  8
SUNPOU
100
AcDbLine
 10
264.6872696738593
 20
261.2830729505024
 30
0.0
 11
264.6872696738593
 21
272.9438311761605
 31
0.0
  0
LINE
  5
582F
330
550F
100
AcDbEntity
  8
SUNPOU
100
AcDbLine
 10
255.6872696737688
 20
269.9438311761605
 30
0.0
 11
248.6872696737687
 21
269.9438311761605
 31
0.0
  0
LINE
  5
5830
330
550F
100
AcDbEntity
  8
SUNPOU
100
AcDbLine
 10
271.6872696738592
 20
269.9438311761605
 30
0.0
 11
292.6872696738593
 21
269.9438311761605
 31
0.0
  0
LINE
  5
5831
330
550F
100
AcDbEntity
  8
SUNPOU
100
AcDbLine
 10
262.6872696737688
 20
269.9438311761605
 30
0.0
 11
264.6872696738593
 21
269.9438311761605
 31
0.0
  0
INSERT
  5
5832
330
550F
100
AcDbEntity
  8
SUNPOU
100
AcDbBlockReference
  2
_OPEN
 10
262.6872696737688
 20
269.9438311761605
 30
0.0
 41
7.0
 42
7.0
 43
7.0
  0
INSERT
  5
5833
330
550F
100
AcDbEntity
  8
SUNPOU
100
AcDbBlockReference
  2
_OPEN
 10
264.6872696738593
 20
269.9438311761605
 30
0.0
 41
7.0
 42
7.0
 43
7.0
 50
180.0
  0
MTEXT
  5
5834
330
550F
100
AcDbEntity
  8
SUNPOU
100
AcDbMText
 10
285.6872696738593
 20
274.9438311761605
 30
0.0
 40
6.0
 41
0.0
 71
     5
 72
     1
  1
\A1;1.6
1001
ACAD
1000
MTEXTBEGIN
1070
    73
1070
     1
1070
    44
1040
1.0
1070
    74
1070
     0
1000
MTEXTEND
  0
POINT
  5
5835
330
550F
100
AcDbEntity
  8
DEFPOINTS
 62
     0
100
AcDbPoint
 10
262.6872696737688
 20
255.2830729505024
 30
0.0
  0
POINT
  5
5836
330
550F
100
AcDbEntity
  8
DEFPOINTS
 62
     0
100
AcDbPoint
 10
264.6872696738593
 20
255.2830729505024
 30
0.0
  0
POINT
  5
5837
330
550F
100
AcDbEntity
  8
DEFPOINTS
 62
     0
100
AcDbPoint
 10
264.6872696738593
 20
269.9438311761605
 30
0.0
  0
ENDBLK
  5
551C
330
550F
100
AcDbEntity
  8
0
100
AcDbBlockEnd
  0
BLOCK
  5
556C
330
5562
100
AcDbEntity
  8
0
100
AcDbBlockBegin
  2
*D13
 70
     1
 10
0.0
 20
0.0
 30
0.0
  3
*D13
  1

  0
LINE
  5
66C3
330
5562
100
AcDbEntity
  8
SUNPOU
100
AcDbLine
 10
262.6872696739498
 20
236.7830729505024
 30
0.0
 11
262.6872696739498
 21
135.277594019235
 31
0.0
  0
LINE
  5
66C4
330
5562
100
AcDbEntity
  8
SUNPOU
100
AcDbLine
 10
400.6485658662709
 20
244.3237044485035
 30
0.0
 11
400.6485658662709
 21
135.277594019235
 31
0.0
  0
LINE
  5
66C5
330
5562
100
AcDbEntity
  8
SUNPOU
100
AcDbLine
 10
269.6872696739498
 20
138.277594019235
 30
0.0
 11
393.6485658662709
 21
138.277594019235
 31
0.0
  0
INSERT
  5
66C6
330
5562
100
AcDbEntity
  8
SUNPOU
100
AcDbBlockReference
  2
_OPEN
 10
262.6872696739498
 20
138.277594019235
 30
0.0
 41
7.0
 42
7.0
 43
7.0
 50
180.0
  0
INSERT
  5
66C7
330
5562
100
AcDbEntity
  8
SUNPOU
100
AcDbBlockReference
  2
_OPEN
 10
400.6485658662709
 20
138.277594019235
 30
0.0
 41
7.0
 42
7.0
 43
7.0
  0
MTEXT
  5
66C8
330
5562
100
AcDbEntity
  8
SUNPOU
100
AcDbMText
 10
331.6679177701103
 20
143.277594019235
 30
0.0
 40
6.0
 41
0.0
 71
     5
 72
     1
  1
\A1;138
  0
POINT
  5
66C9
330
5562
100
AcDbEntity
  8
DEFPOINTS
 62
     0
100
AcDbPoint
 10
262.6872696739498
 20
242.7830729505024
 30
0.0
  0
POINT
  5
66CA
330
5562
100
AcDbEntity
  8
DEFPOINTS
 62
     0
100
AcDbPoint
 10
400.6485658662709
 20
250.3237044485036
 30
0.0
  0
POINT
  5
66CB
330
5562
100
AcDbEntity
  8
DEFPOINTS
 62
     0
100
AcDbPoint
 10
400.6485658662709
 20
138.277594019235
 30
0.0
  0
ENDBLK
  5
556D
330
5562
100
AcDbEntity
  8
0
100
AcDbBlockEnd
  0
BLOCK
  5
5578
330
556E
100
AcDbEntity
  8
0
100
AcDbBlockBegin
  2
*D14
 70
     1
 10
0.0
 20
0.0
 30
0.0
  3
*D14
  1

  0
LINE
  5
66BA
330
556E
100
AcDbEntity
  8
SUNPOU
100
AcDbLine
 10
262.6872696739498
 20
242.7830729505024
 30
0.0
 11
262.6872696739498
 21
150.1432533851791
 31
0.0
  0
LINE
  5
66BB
330
556E
100
AcDbEntity
  8
SUNPOU
100
AcDbLine
 10
387.2640592929009
 20
177.2323079128259
 30
0.0
 11
387.2640592929009
 21
150.1432533851791
 31
0.0
  0
LINE
  5
66BC
330
556E
100
AcDbEntity
  8
SUNPOU
100
AcDbLine
 10
269.6872696739498
 20
153.1432533851791
 30
0.0
 11
380.2640592929009
 21
153.1432533851791
 31
0.0
  0
INSERT
  5
66BD
330
556E
100
AcDbEntity
  8
SUNPOU
100
AcDbBlockReference
  2
_OPEN
 10
262.6872696739498
 20
153.1432533851791
 30
0.0
 41
7.0
 42
7.0
 43
7.0
 50
180.0
  0
INSERT
  5
66BE
330
556E
100
AcDbEntity
  8
SUNPOU
100
AcDbBlockReference
  2
_OPEN
 10
387.2640592929009
 20
153.1432533851791
 30
0.0
 41
7.0
 42
7.0
 43
7.0
  0
MTEXT
  5
66BF
330
556E
100
AcDbEntity
  8
SUNPOU
100
AcDbMText
 10
324.9756644834253
 20
158.1432533851791
 30
0.0
 40
6.0
 41
0.0
 71
     5
 72
     1
  1
\A1;125
  0
POINT
  5
66C0
330
556E
100
AcDbEntity
  8
DEFPOINTS
 62
     0
100
AcDbPoint
 10
262.6872696739498
 20
248.7830729505024
 30
0.0
  0
POINT
  5
66C1
330
556E
100
AcDbEntity
  8
DEFPOINTS
 62
     0
100
AcDbPoint
 10
387.2640592929009
 20
183.2323079128259
 30
0.0
  0
POINT
  5
66C2
330
556E
100
AcDbEntity
  8
DEFPOINTS
 62
     0
100
AcDbPoint
 10
387.2640592929009
 20
153.1432533851791
 30
0.0
  0
ENDBLK
  5
5579
330
556E
100
AcDbEntity
  8
0
100
AcDbBlockEnd
  0
BLOCK
  5
5586
330
557A
100
AcDbEntity
  8
0
100
AcDbBlockBegin
  2
*D15
 70
     1
 10
0.0
 20
0.0
 30
0.0
  3
*D15
  1

  0
LINE
  5
66CC
330
557A
100
AcDbEntity
  8
SUNPOU
100
AcDbLine
 10
375.6594989094064
 20
227.4177188236852
 30
0.0
 11
375.6594989094064
 21
165.1464268173977
 31
0.0
  0
LINE
  5
66CD
330
557A
100
AcDbEntity
  8
SUNPOU
100
AcDbLine
 10
387.2640592929009
 20
210.2245943016943
 30
0.0
 11
387.2640592929009
 21
165.1464268173977
 31
0.0
  0
LINE
  5
66CE
330
557A
100
AcDbEntity
  8
SUNPOU
100
AcDbLine
 10
368.6594989094064
 20
168.1464268173977
 30
0.0
 11
361.6594989094064
 21
168.1464268173977
 31
0.0
  0
LINE
  5
66CF
330
557A
100
AcDbEntity
  8
SUNPOU
100
AcDbLine
 10
394.2640592929009
 20
168.1464268173977
 30
0.0
 11
401.2640592929009
 21
168.1464268173977
 31
0.0
  0
MTEXT
  5
66D0
330
557A
100
AcDbEntity
  8
SUNPOU
100
AcDbMText
 10
381.1448457478368
 20
172.508099960572
 30
0.0
 40
6.0
 41
0.0
 71
     5
 72
     1
  1
\A1;12
  0
LINE
  5
66D1
330
557A
100
AcDbEntity
  8
SUNPOU
100
AcDbLine
 10
375.6594989094064
 20
168.1464268173977
 30
0.0
 11
387.2640592929009
 21
168.1464268173977
 31
0.0
  0
INSERT
  5
66D2
330
557A
100
AcDbEntity
  8
SUNPOU
100
AcDbBlockReference
  2
_OPEN
 10
375.6594989094064
 20
168.1464268173977
 30
0.0
 41
7.0
 42
7.0
 43
7.0
  0
INSERT
  5
66D3
330
557A
100
AcDbEntity
  8
SUNPOU
100
AcDbBlockReference
  2
_OPEN
 10
387.2640592929009
 20
168.1464268173977
 30
0.0
 41
7.0
 42
7.0
 43
7.0
 50
180.0
  0
POINT
  5
66D4
330
557A
100
AcDbEntity
  8
DEFPOINTS
 62
     0
100
AcDbPoint
 10
375.6594989094064
 20
233.4177188236852
 30
0.0
  0
POINT
  5
66D5
330
557A
100
AcDbEntity
  8
DEFPOINTS
 62
     0
100
AcDbPoint
 10
387.2640592929009
 20
216.2245943016943
 30
0.0
  0
POINT
  5
66D6
330
557A
100
AcDbEntity
  8
DEFPOINTS
 62
     0
100
AcDbPoint
 10
387.2640592929009
 20
168.1464268173977
 30
0.0
  0
ENDBLK
  5
5587
330
557A
100
AcDbEntity
  8
0
100
AcDbBlockEnd
  0
BLOCK
  5
5594
330
5588
100
AcDbEntity
  8
0
100
AcDbBlockBegin
  2
*D16
 70
     1
 10
0.0
 20
0.0
 30
0.0
  3
*D16
  1

  0
LINE
  5
66D7
330
5588
100
AcDbEntity
  8
SUNPOU
100
AcDbLine
 10
379.6428126589507
 20
197.5916312279943
 30
0.0
 11
379.6428126589507
 21
180.2323079128259
 31
0.0
  0
LINE
  5
66D8
330
5588
100
AcDbEntity
  8
SUNPOU
100
AcDbLine
 10
387.2640592929009
 20
216.2245943016943
 30
0.0
 11
387.2640592929009
 21
180.2323079128259
 31
0.0
  0
LINE
  5
66D9
330
5588
100
AcDbEntity
  8
SUNPOU
100
AcDbLine
 10
372.6428126589506
 20
183.2323079128259
 30
0.0
 11
365.6428126589506
 21
183.2323079128259
 31
0.0
  0
LINE
  5
66DA
330
5588
100
AcDbEntity
  8
SUNPOU
100
AcDbLine
 10
394.2640592929009
 20
183.2323079128259
 30
0.0
 11
401.2640592929009
 21
183.2323079128259
 31
0.0
  0
MTEXT
  5
66DB
330
5588
100
AcDbEntity
  8
SUNPOU
100
AcDbMText
 10
383.4121312629759
 20
187.3097271231235
 30
0.0
 40
6.0
 41
0.0
 71
     5
 72
     1
  1
\A1;8
  0
LINE
  5
66DC
330
5588
100
AcDbEntity
  8
SUNPOU
100
AcDbLine
 10
379.6428126589507
 20
183.2323079128259
 30
0.0
 11
387.2640592929009
 21
183.2323079128259
 31
0.0
  0
INSERT
  5
66DD
330
5588
100
AcDbEntity
  8
SUNPOU
100
AcDbBlockReference
  2
_OPEN
 10
379.6428126589507
 20
183.2323079128259
 30
0.0
 41
7.0
 42
7.0
 43
7.0
  0
INSERT
  5
66DE
330
5588
100
AcDbEntity
  8
SUNPOU
100
AcDbBlockReference
  2
_OPEN
 10
387.2640592929009
 20
183.2323079128259
 30
0.0
 41
7.0
 42
7.0
 43
7.0
 50
180.0
  0
POINT
  5
66DF
330
5588
100
AcDbEntity
  8
DEFPOINTS
 62
     0
100
AcDbPoint
 10
379.6428126589507
 20
203.5916312279943
 30
0.0
  0
POINT
  5
66E0
330
5588
100
AcDbEntity
  8
DEFPOINTS
 62
     0
100
AcDbPoint
 10
387.2640592929009
 20
222.2245943016943
 30
0.0
  0
POINT
  5
66E1
330
5588
100
AcDbEntity
  8
DEFPOINTS
 62
     0
100
AcDbPoint
 10
387.2640592929009
 20
183.2323079128259
 30
0.0
  0
ENDBLK
  5
5595
330
5588
100
AcDbEntity
  8
0
100
AcDbBlockEnd
  0
BLOCK
  5
5861
330
5856
100
AcDbEntity
  8
0
100
AcDbBlockBegin
  2
*D17
 70
     1
 10
0.0
 20
0.0
 30
0.0
  3
*D17
  1

  0
LINE
  5
5863
330
5856
100
AcDbEntity
  8
SUNPOU
100
AcDbLine
 10
383.4936917538493
 20
292.6215505532898
 30
0.0
 11
381.1467968867455
 21
298.4889093274633
 31
0.0
  0
ARC
  5
5864
330
5856
100
AcDbEntity
  8
SUNPOU
100
AcDbCircle
 10
398.720437419588
 20
254.5538974017738
 30
0.0
 40
44.31932073147342
100
AcDbArc
 50
99.05899531500907
 51
102.7420046847252
  0
INSERT
  5
5865
330
5856
100
AcDbEntity
  8
SUNPOU
100
AcDbBlockReference
  2
_OPEN
 10
398.7204374195881
 20
298.8732181332472
 30
0.0
 41
7.0
 42
7.0
 43
7.0
 50
4.529497657504498
  0
INSERT
  5
5866
330
5856
100
AcDbEntity
  8
SUNPOU
100
AcDbBlockReference
  2
_OPEN
 10
382.2609490086178
 20
295.7034712920141
 30
0.0
 41
7.0
 42
7.0
 43
7.0
 50
197.2715023422297
  0
MTEXT
  5
5867
330
5856
100
AcDbEntity
  8
SUNPOU
100
AcDbMText
 10
383.7877294031294
 20
332.094706448116
 30
0.0
 40
6.0
 41
0.0
 71
     5
 72
     1
  1
\A1;21.801000°
 11
0.9819570624904512
 21
0.1891040121867429
 31
0.0
1001
ACAD
1000
MTEXTBEGIN
1070
    73
1070
     1
1070
    44
1040
1.0
1070
    74
1070
     0
1000
MTEXTEND
  0
POINT
  5
5868
330
5856
100
AcDbEntity
  8
DEFPOINTS
 62
     0
100
AcDbPoint
 10
393.1143404031227
 20
298.5172215065453
 30
0.0
  0
POINT
  5
5869
330
5856
100
AcDbEntity
  8
DEFPOINTS
 62
     0
100
AcDbPoint
 10
398.720437419588
 20
254.5538974022103
 30
0.0
  0
POINT
  5
586A
330
5856
100
AcDbEntity
  8
DEFPOINTS
 62
     0
100
AcDbPoint
 10
385.7219959975939
 20
287.0506744823913
 30
0.0
  0
POINT
  5
586B
330
5856
100
AcDbEntity
  8
DEFPOINTS
 62
     0
100
AcDbPoint
 10
398.7204374194134
 20
254.5538974022103
 30
0.0
  0
POINT
  5
586C
330
5856
100
AcDbEntity
  8
DEFPOINTS
 62
     0
100
AcDbPoint
 10
398.720437419588
 20
328.5194774747785
 30
0.0
  0
ENDBLK
  5
5862
330
5856
100
AcDbEntity
  8
0
100
AcDbBlockEnd
  0
BLOCK
  5
592A
330
591E
100
AcDbEntity
  8
0
100
AcDbBlockBegin
  2
*D18
 70
     1
 10
0.0
 20
0.0
 30
0.0
  3
*D18
  1

  0
LINE
  5
592C
330
591E
100
AcDbEntity
  8
SUNPOU
100
AcDbLine
 10
383.7936152230612
 20
407.616715165424
 30
0.0
 11
383.7936152230612
 21
420.68852717759
 31
0.0
  0
LINE
  5
592D
330
591E
100
AcDbEntity
  8
SUNPOU
100
AcDbLine
 10
385.3936152230611
 20
407.616715165424
 30
0.0
 11
385.3936152230611
 21
420.68852717759
 31
0.0
  0
LINE
  5
592E
330
591E
100
AcDbEntity
  8
SUNPOU
100
AcDbLine
 10
376.7936152230612
 20
417.6885271775899
 30
0.0
 11
369.7936152230612
 21
417.6885271775899
 31
0.0
  0
LINE
  5
592F
330
591E
100
AcDbEntity
  8
SUNPOU
100
AcDbLine
 10
392.3936152230611
 20
417.6885271775899
 30
0.0
 11
413.3936152230611
 21
417.6885271775899
 31
0.0
  0
LINE
  5
5930
330
591E
100
AcDbEntity
  8
SUNPOU
100
AcDbLine
 10
383.7936152230612
 20
417.6885271775899
 30
0.0
 11
385.3936152230611
 21
417.6885271775899
 31
0.0
  0
INSERT
  5
5931
330
591E
100
AcDbEntity
  8
SUNPOU
100
AcDbBlockReference
  2
_OPEN
 10
383.7936152230612
 20
417.6885271775899
 30
0.0
 41
7.0
 42
7.0
 43
7.0
  0
INSERT
  5
5932
330
591E
100
AcDbEntity
  8
SUNPOU
100
AcDbBlockReference
  2
_OPEN
 10
385.3936152230611
 20
417.6885271775899
 30
0.0
 41
7.0
 42
7.0
 43
7.0
 50
180.0
  0
MTEXT
  5
5933
330
591E
100
AcDbEntity
  8
SUNPOU
100
AcDbMText
 10
406.3936152230611
 20
422.6885271775899
 30
0.0
 40
6.0
 41
0.0
 71
     5
 72
     1
  1
\A1;1.6
1001
ACAD
1000
MTEXTBEGIN
1070
    73
1070
     1
1070
    44
1040
1.0
1070
    74
1070
     0
1000
MTEXTEND
  0
POINT
  5
5934
330
591E
100
AcDbEntity
  8
DEFPOINTS
 62
     0
100
AcDbPoint
 10
383.7936152230612
 20
401.616715165424
 30
0.0
  0
POINT
  5
5935
330
591E
100
AcDbEntity
  8
DEFPOINTS
 62
     0
100
AcDbPoint
 10
385.3936152230611
 20
401.616715165424
 30
0.0
  0
POINT
  5
5936
330
591E
100
AcDbEntity
  8
DEFPOINTS
 62
     0
100
AcDbPoint
 10
385.3936152230611
 20
417.6885271775899
 30
0.0
  0
ENDBLK
  5
592B
330
591E
100
AcDbEntity
  8
0
100
AcDbBlockEnd
  0
BLOCK
  5
5951
330
5947
100
AcDbEntity
  8
0
100
AcDbBlockBegin
  2
*D19
 70
     1
 10
0.0
 20
0.0
 30
0.0
  3
*D19
  1

  0
LINE
  5
5948
330
5947
100
AcDbEntity
  8
SUNPOU
100
AcDbLine
 10
404.7204374195888
 20
401.6167151654238
 30
0.0
 11
437.0620496498687
 21
401.6167151654238
 31
0.0
  0
LINE
  5
5949
330
5947
100
AcDbEntity
  8
SUNPOU
100
AcDbLine
 10
404.7204374195881
 20
349.5535780319479
 30
0.0
 11
437.0620496498686
 21
349.5535780319479
 31
0.0
  0
LINE
  5
594A
330
5947
100
AcDbEntity
  8
SUNPOU
100
AcDbLine
 10
434.0620496498686
 20
394.6167151654238
 30
0.0
 11
434.0620496498686
 21
356.5535780319478
 31
0.0
  0
INSERT
  5
594B
330
5947
100
AcDbEntity
  8
SUNPOU
100
AcDbBlockReference
  2
_OPEN
 10
434.0620496498686
 20
401.6167151654238
 30
0.0
 41
7.0
 42
7.0
 43
7.0
 50
90.0
  0
INSERT
  5
594C
330
5947
100
AcDbEntity
  8
SUNPOU
100
AcDbBlockReference
  2
_OPEN
 10
434.0620496498686
 20
349.5535780319479
 30
0.0
 41
7.0
 42
7.0
 43
7.0
 50
270.0
  0
MTEXT
  5
594D
330
5947
100
AcDbEntity
  8
SUNPOU
100
AcDbMText
 10
429.0620496498686
 20
375.585146598686
 30
0.0
 40
6.0
 41
0.0
 71
     5
 72
     1
  1
\A1;52
 11
0.0000000000000001
 21
1.0
 31
0.0
1001
ACAD
1000
MTEXTBEGIN
1070
    73
1070
     1
1070
    44
1040
1.0
1070
    74
1070
     0
1000
MTEXTEND
  0
POINT
  5
594E
330
5947
100
AcDbEntity
  8
DEFPOINTS
 62
     0
100
AcDbPoint
 10
398.7204374195888
 20
401.6167151654238
 30
0.0
  0
POINT
  5
594F
330
5947
100
AcDbEntity
  8
DEFPOINTS
 62
     0
100
AcDbPoint
 10
398.7204374195881
 20
349.5535780319479
 30
0.0
  0
POINT
  5
5950
330
5947
100
AcDbEntity
  8
DEFPOINTS
 62
     0
100
AcDbPoint
 10
434.0620496498686
 20
349.5535780319479
 30
0.0
  0
ENDBLK
  5
5952
330
5947
100
AcDbEntity
  8
0
100
AcDbBlockEnd
  0
BLOCK
  5
5977
330
596B
100
AcDbEntity
  8
0
100
AcDbBlockBegin
  2
*D20
 70
     1
 10
0.0
 20
0.0
 30
0.0
  3
*D20
  1

  0
LINE
  5
66E2
330
596B
100
AcDbEntity
  8
SUNPOU
100
AcDbLine
 10
264.6872696737688
 20
261.2830729505024
 30
0.0
 11
264.6872696737688
 21
283.9555144175306
 31
0.0
  0
LINE
  5
66E3
330
596B
100
AcDbEntity
  8
SUNPOU
100
AcDbLine
 10
262.6872696737688
 20
261.2830729504746
 30
0.0
 11
262.6872696737688
 21
283.9555144175306
 31
0.0
  0
LINE
  5
66E4
330
596B
100
AcDbEntity
  8
SUNPOU
100
AcDbLine
 10
271.6872696737687
 20
280.9555144175305
 30
0.0
 11
278.6872696737688
 21
280.9555144175305
 31
0.0
  0
LINE
  5
66E5
330
596B
100
AcDbEntity
  8
SUNPOU
100
AcDbLine
 10
255.6872696737688
 20
280.9555144175305
 30
0.0
 11
248.6872696737687
 21
280.9555144175305
 31
0.0
  0
MTEXT
  5
66E6
330
596B
100
AcDbEntity
  8
SUNPOU
100
AcDbMText
 10
263.6872696737688
 20
289.9555144175305
 30
0.0
 40
6.0
 41
0.0
 71
     5
 72
     1
  1
\A1;t2.0
  0
LINE
  5
66E7
330
596B
100
AcDbEntity
  8
SUNPOU
100
AcDbLine
 10
264.6872696737688
 20
280.9555144175305
 30
0.0
 11
262.6872696737688
 21
280.9555144175305
 31
0.0
  0
INSERT
  5
66E8
330
596B
100
AcDbEntity
  8
SUNPOU
100
AcDbBlockReference
  2
_OPEN
 10
264.6872696737688
 20
280.9555144175305
 30
0.0
 41
7.0
 42
7.0
 43
7.0
 50
180.0
  0
INSERT
  5
66E9
330
596B
100
AcDbEntity
  8
SUNPOU
100
AcDbBlockReference
  2
_OPEN
 10
262.6872696737688
 20
280.9555144175305
 30
0.0
 41
7.0
 42
7.0
 43
7.0
  0
POINT
  5
66EA
330
596B
100
AcDbEntity
  8
DEFPOINTS
 62
     0
100
AcDbPoint
 10
264.6872696737688
 20
255.2830729505024
 30
0.0
  0
POINT
  5
66EB
330
596B
100
AcDbEntity
  8
DEFPOINTS
 62
     0
100
AcDbPoint
 10
262.6872696737688
 20
255.2830729504746
 30
0.0
  0
POINT
  5
66EC
330
596B
100
AcDbEntity
  8
DEFPOINTS
 62
     0
100
AcDbPoint
 10
262.6872696737688
 20
280.9555144175305
 30
0.0
  0
ENDBLK
  5
5978
330
596B
100
AcDbEntity
  8
0
100
AcDbBlockEnd
  0
BLOCK
  5
59BB
330
59AF
100
AcDbEntity
  8
0
100
AcDbBlockBegin
  2
*D21
 70
     1
 10
0.0
 20
0.0
 30
0.0
  3
*D21
  1

  0
LINE
  5
66ED
330
59AF
100
AcDbEntity
  8
SUNPOU
100
AcDbLine
 10
383.0081248015868
 20
292.0273360882741
 30
0.0
 11
380.7781052168626
 21
297.6025006004295
 31
0.0
  0
LINE
  5
66EE
330
59AF
100
AcDbEntity
  8
SUNPOU
100
AcDbLine
 10
384.4936917538237
 20
292.6215505532795
 30
0.0
 11
382.2636721690995
 21
298.1967150654349
 31
0.0
  0
LINE
  5
66EF
330
59AF
100
AcDbEntity
  8
SUNPOU
100
AcDbLine
 10
375.3929019227113
 20
292.2173742805868
 30
0.0
 11
368.8935465066749
 21
289.6176859961883
 31
0.0
  0
LINE
  5
66F0
330
59AF
100
AcDbEntity
  8
SUNPOU
100
AcDbLine
 10
389.877179707021
 20
298.0109653143892
 30
0.0
 11
396.3765351230573
 21
300.6106535987878
 31
0.0
  0
MTEXT
  5
66F1
330
59AF
100
AcDbEntity
  8
SUNPOU
100
AcDbMText
 10
391.0594531782724
 20
305.6185749101737
 30
0.0
 40
6.0
 41
0.0
 71
     5
 72
     1
  1
\A1;t1.6
 11
0.9284793451480503
 21
0.3713840406283604
 31
0.0
  0
LINE
  5
66F2
330
59AF
100
AcDbEntity
  8
SUNPOU
100
AcDbLine
 10
381.8922573387477
 20
294.8170625649853
 30
0.0
 11
383.3778242909846
 21
295.4112770299908
 31
0.0
  0
INSERT
  5
66F3
330
59AF
100
AcDbEntity
  8
SUNPOU
100
AcDbBlockReference
  2
_OPEN
 10
381.8922573387477
 20
294.8170625649853
 30
0.0
 41
7.0
 42
7.0
 43
7.0
 50
21.80099999999701
  0
INSERT
  5
66F4
330
59AF
100
AcDbEntity
  8
SUNPOU
100
AcDbBlockReference
  2
_OPEN
 10
383.3778242909846
 20
295.4112770299908
 30
0.0
 41
7.0
 42
7.0
 43
7.0
 50
201.800999999997
  0
POINT
  5
66F5
330
59AF
100
AcDbEntity
  8
DEFPOINTS
 62
     0
100
AcDbPoint
 10
385.236429045357
 20
286.4564600173858
 30
0.0
  0
POINT
  5
66F6
330
59AF
100
AcDbEntity
  8
DEFPOINTS
 62
     0
100
AcDbPoint
 10
386.721995997594
 20
287.0506744823913
 30
0.0
  0
POINT
  5
66F7
330
59AF
100
AcDbEntity
  8
DEFPOINTS
 62
     0
100
AcDbPoint
 10
383.3778242909846
 20
295.4112770299908
 30
0.0
  0
ENDBLK
  5
59BC
330
59AF
100
AcDbEntity
  8
0
100
AcDbBlockEnd
  0
BLOCK
  5
5EFA
330
5EEE
100
AcDbEntity
  8
0
100
AcDbBlockBegin
  2
*D22
 70
     1
 10
0.0
 20
0.0
 30
0.0
  3
*D22
  1

  0
LINE
  5
5EFC
330
5EEE
100
AcDbEntity
  8
SUNPOU
100
AcDbLine
 10
397.0278935033055
 20
259.9390814528089
 30
0.0
 11
393.8867682095263
 21
267.7920574475637
 31
0.0
  0
LINE
  5
5EFD
330
5EEE
100
AcDbEntity
  8
SUNPOU
100
AcDbLine
 10
392.849736449896
 20
258.2678532699375
 30
0.0
 11
389.7086111561169
 21
266.1208292646922
 31
0.0
  0
LINE
  5
5EFE
330
5EEE
100
AcDbEntity
  8
SUNPOU
100
AcDbLine
 10
401.5002757474457
 20
267.6063076964339
 30
0.0
 11
407.9996311635108
 21
270.2059959807606
 31
0.0
  0
LINE
  5
5EFF
330
5EEE
100
AcDbEntity
  8
SUNPOU
100
AcDbLine
 10
384.323407861906
 20
260.7357029449091
 30
0.0
 11
377.824052445841
 21
258.1360146605824
 31
0.0
  0
MTEXT
  5
5F00
330
5EEE
100
AcDbEntity
  8
SUNPOU
100
AcDbMText
 10
389.569385439113
 20
272.5273194270409
 30
0.0
 40
6.0
 41
0.0
 71
     5
 72
     1
  1
\A1;4.5
 11
0.9284793451521542
 21
0.3713840406181004
 31
0.0
1001
ACAD
1000
MTEXTBEGIN
1070
    73
1070
     1
1070
    44
1040
1.0
1070
    74
1070
     0
1000
MTEXTEND
  0
LINE
  5
5F01
330
5EEE
100
AcDbEntity
  8
SUNPOU
100
AcDbLine
 10
395.0009203313806
 20
265.0066194121072
 30
0.0
 11
390.8227632779711
 21
263.3353912292358
 31
0.0
  0
INSERT
  5
5F02
330
5EEE
100
AcDbEntity
  8
SUNPOU
100
AcDbBlockReference
  2
_OPEN
 10
395.0009203313806
 20
265.0066194121072
 30
0.0
 41
7.0
 42
7.0
 43
7.0
 50
201.8009999993638
  0
INSERT
  5
5F03
330
5EEE
100
AcDbEntity
  8
SUNPOU
100
AcDbBlockReference
  2
_OPEN
 10
390.8227632779711
 20
263.3353912292358
 30
0.0
 41
7.0
 42
7.0
 43
7.0
 50
21.80099999936389
  0
POINT
  5
5F04
330
5EEE
100
AcDbEntity
  8
DEFPOINTS
 62
     0
100
AcDbPoint
 10
399.2561977470141
 20
254.368205381896
 30
0.0
  0
POINT
  5
5F05
330
5EEE
100
AcDbEntity
  8
DEFPOINTS
 62
     0
100
AcDbPoint
 10
395.0780406936046
 20
252.6969771990246
 30
0.0
  0
POINT
  5
5F06
330
5EEE
100
AcDbEntity
  8
DEFPOINTS
 62
     0
100
AcDbPoint
 10
390.8227632779711
 20
263.3353912292358
 30
0.0
  0
ENDBLK
  5
5EFB
330
5EEE
100
AcDbEntity
  8
0
100
AcDbBlockEnd
  0
BLOCK
  5
665A
330
64C6
100
AcDbEntity
  8
0
100
AcDbBlockBegin
  2
*X24
 70
     1
 10
0.0
 20
0.0
 30
0.0
  3
*X24
  1

  0
LINE
  5
64C7
330
64C6
100
AcDbEntity
  8
0
 62
     0
100
AcDbLine
 10
69.04221216833718
 20
22.60416893857376
 30
0.0
 11
68.39638123862227
 21
23.24999986828874
 31
0.0
  0
LINE
  5
64C8
330
64C6
100
AcDbEntity
  8
0
 62
     0
100
AcDbLine
 10
69.04221216833718
 20
21.70614332646687
 30
0.0
 11
67.49835562651532
 21
23.24999986828874
 31
0.0
  0
LINE
  5
64C9
330
64C6
100
AcDbEntity
  8
0
 62
     0
100
AcDbLine
 10
69.04221216833713
 20
20.80811771435992
 30
0.0
 11
66.62107822232218
 21
23.22925166037486
 31
0.0
  0
LINE
  5
64CA
330
64C6
100
AcDbEntity
  8
0
 62
     0
100
AcDbLine
 10
69.04221216833718
 20
19.91009210225309
 30
0.0
 11
66.24221216833712
 21
22.71009210225309
 31
0.0
  0
LINE
  5
64CB
330
64C6
100
AcDbEntity
  8
0
 62
     0
100
AcDbLine
 10
69.04221216833718
 20
19.01206649014613
 30
0.0
 11
66.24221216833712
 21
21.8120664901462
 31
0.0
  0
LINE
  5
64CC
330
64C6
100
AcDbEntity
  8
0
 62
     0
100
AcDbLine
 10
69.04221216833713
 20
18.11404087803919
 30
0.0
 11
66.24221216833706
 21
20.91404087803926
 31
0.0
  0
LINE
  5
64CD
330
64C6
100
AcDbEntity
  8
0
 62
     0
100
AcDbLine
 10
64.14221216833709
 20
22.11601526593239
 30
0.0
 11
63.0082275659808
 21
23.24999986828874
 31
0.0
  0
LINE
  5
64CE
330
64C6
100
AcDbEntity
  8
0
 62
     0
100
AcDbLine
 10
69.04221216833718
 20
17.21601526593235
 30
0.0
 11
66.24221216833712
 21
20.01601526593242
 31
0.0
  0
LINE
  5
64CF
330
64C6
100
AcDbEntity
  8
0
 62
     0
100
AcDbLine
 10
64.14221216833709
 20
21.21798965382549
 30
0.0
 11
62.11020195387385
 21
23.24999986828868
 31
0.0
  0
LINE
  5
64D0
330
64C6
100
AcDbEntity
  8
0
 62
     0
100
AcDbLine
 10
69.04221216833713
 20
16.3179896538254
 30
0.0
 11
66.24221216833712
 21
19.11798965382547
 31
0.0
  0
LINE
  5
64D1
330
64C6
100
AcDbEntity
  8
0
 62
     0
100
AcDbLine
 10
64.14221216833709
 20
20.31996404171855
 30
0.0
 11
61.43670120320002
 21
23.02547500685562
 31
0.0
  0
LINE
  5
64D2
330
64C6
100
AcDbEntity
  8
0
 62
     0
100
AcDbLine
 10
69.04221216833713
 20
15.41996404171851
 30
0.0
 11
66.24221216833706
 21
18.21996404171852
 31
0.0
  0
LINE
  5
64D3
330
64C6
100
AcDbEntity
  8
0
 62
     0
100
AcDbLine
 10
64.14221216833721
 20
19.42193842961154
 30
0.0
 11
61.34221216833703
 21
22.22193842961166
 31
0.0
  0
LINE
  5
64D4
330
64C6
100
AcDbEntity
  8
0
 62
     0
100
AcDbLine
 10
69.04221216833718
 20
14.52193842961156
 30
0.0
 11
66.24221216833712
 21
17.32193842961163
 31
0.0
  0
LINE
  5
64D5
330
64C6
100
AcDbEntity
  8
0
 62
     0
100
AcDbLine
 10
64.14221216833715
 20
18.52391281750465
 30
0.0
 11
61.34221216833703
 21
21.32391281750483
 31
0.0
  0
LINE
  5
64D6
330
64C6
100
AcDbEntity
  8
0
 62
     0
100
AcDbLine
 10
69.04221216833713
 20
13.62391281750467
 30
0.0
 11
66.24221216833706
 21
16.42391281750474
 31
0.0
  0
LINE
  5
64D7
330
64C6
100
AcDbEntity
  8
0
 62
     0
100
AcDbLine
 10
64.14221216833715
 20
17.62588720539776
 30
0.0
 11
61.34221216833703
 21
20.42588720539788
 31
0.0
  0
LINE
  5
64D8
330
64C6
100
AcDbEntity
  8
0
 62
     0
100
AcDbLine
 10
69.04221216833713
 20
12.72588720539778
 30
0.0
 11
66.24221216833706
 21
15.52588720539785
 31
0.0
  0
LINE
  5
64D9
330
64C6
100
AcDbEntity
  8
0
 62
     0
100
AcDbLine
 10
64.14221216833709
 20
16.72786159329081
 30
0.0
 11
61.34221216833697
 21
19.52786159329093
 31
0.0
  0
LINE
  5
64DA
330
64C6
100
AcDbEntity
  8
0
 62
     0
100
AcDbLine
 10
69.04221216833708
 20
11.82786159329083
 30
0.0
 11
66.24221216833706
 21
14.6278615932909
 31
0.0
  0
LINE
  5
64DB
330
64C6
100
AcDbEntity
  8
0
 62
     0
100
AcDbLine
 10
64.14221216833715
 20
15.82983598118397
 30
0.0
 11
61.34221216833703
 21
18.6298359811841
 31
0.0
  0
LINE
  5
64DC
330
64C6
100
AcDbEntity
  8
0
 62
     0
100
AcDbLine
 10
57.84221216833708
 20
22.12983598118404
 30
0.0
 11
56.72204828123245
 21
23.24999986828868
 31
0.0
  0
LINE
  5
64DD
330
64C6
100
AcDbEntity
  8
0
 62
     0
100
AcDbLine
 10
69.04221216833713
 20
10.92983598118399
 30
0.0
 11
66.24221216833706
 21
13.72983598118401
 31
0.0
  0
LINE
  5
64DE
330
64C6
100
AcDbEntity
  8
0
 62
     0
100
AcDbLine
 10
64.14221216833715
 20
14.93181036907702
 30
0.0
 11
61.34221216833697
 21
17.73181036907715
 31
0.0
  0
LINE
  5
64DF
330
64C6
100
AcDbEntity
  8
0
 62
     0
100
AcDbLine
 10
57.84221216833703
 20
21.23181036907709
 30
0.0
 11
55.82402266912549
 21
23.24999986828868
 31
0.0
  0
LINE
  5
64E0
330
64C6
100
AcDbEntity
  8
0
 62
     0
100
AcDbLine
 10
69.04221216833713
 20
10.03181036907704
 30
0.0
 11
66.24221216833706
 21
12.83181036907711
 31
0.0
  0
LINE
  5
64E1
330
64C6
100
AcDbEntity
  8
0
 62
     0
100
AcDbLine
 10
64.14221216833709
 20
14.03378475697013
 30
0.0
 11
61.34221216833703
 21
16.83378475697014
 31
0.0
  0
LINE
  5
64E2
330
64C6
100
AcDbEntity
  8
0
 62
     0
100
AcDbLine
 10
57.84221216833703
 20
20.3337847569702
 30
0.0
 11
55.14244944501303
 21
23.0335474802942
 31
0.0
  0
LINE
  5
64E3
330
64C6
100
AcDbEntity
  8
0
 62
     0
100
AcDbLine
 10
69.04221216833708
 20
9.133784756970158
 30
0.0
 11
66.242212168337
 21
11.93378475697016
 31
0.0
  0
LINE
  5
64E4
330
64C6
100
AcDbEntity
  8
0
 62
     0
100
AcDbLine
 10
64.14221216833715
 20
13.13575914486318
 30
0.0
 11
61.34221216833708
 21
15.93575914486325
 31
0.0
  0
LINE
  5
64E5
330
64C6
100
AcDbEntity
  8
0
 62
     0
100
AcDbLine
 10
57.84221216833708
 20
19.43575914486325
 30
0.0
 11
55.04221216833707
 21
22.23575914486326
 31
0.0
  0
LINE
  5
64E6
330
64C6
100
AcDbEntity
  8
0
 62
     0
100
AcDbLine
 10
69.04221216833713
 20
8.235759144863209
 30
0.0
 11
66.24221216833706
 21
11.03575914486327
 31
0.0
  0
LINE
  5
64E7
330
64C6
100
AcDbEntity
  8
0
 62
     0
100
AcDbLine
 10
64.14221216833709
 20
12.23773353275629
 30
0.0
 11
61.34221216833708
 21
15.03773353275636
 31
0.0
  0
LINE
  5
64E8
330
64C6
100
AcDbEntity
  8
0
 62
     0
100
AcDbLine
 10
57.84221216833714
 20
18.5377335327563
 30
0.0
 11
55.04221216833713
 21
21.33773353275632
 31
0.0
  0
LINE
  5
64E9
330
64C6
100
AcDbEntity
  8
0
 62
     0
100
AcDbLine
 10
68.97024681344731
 20
7.409698887646129
 30
0.0
 11
66.24221216833706
 21
10.13773353275638
 31
0.0
  0
LINE
  5
64EA
330
64C6
100
AcDbEntity
  8
0
 62
     0
100
AcDbLine
 10
64.14221216833715
 20
11.33970792064928
 30
0.0
 11
61.34221216833703
 21
14.13970792064941
 31
0.0
  0
LINE
  5
64EB
330
64C6
100
AcDbEntity
  8
0
 62
     0
100
AcDbLine
 10
57.84221216833708
 20
17.63970792064941
 30
0.0
 11
55.04221216833713
 21
20.43970792064937
 31
0.0
  0
LINE
  5
64EC
330
64C6
100
AcDbEntity
  8
0
 62
     0
100
AcDbLine
 10
68.33192022069784
 20
7.149999868288659
 30
0.0
 11
66.242212168337
 21
9.239707920649493
 31
0.0
  0
LINE
  5
64ED
330
64C6
100
AcDbEntity
  8
0
 62
     0
100
AcDbLine
 10
57.84221216833708
 20
16.74168230854246
 30
0.0
 11
55.04221216833707
 21
19.54168230854241
 31
0.0
  0
LINE
  5
64EE
330
64C6
100
AcDbEntity
  8
0
 62
     0
100
AcDbLine
 10
64.14221216833715
 20
10.44168230854239
 30
0.0
 11
61.34221216833703
 21
13.24168230854252
 31
0.0
  0
LINE
  5
64EF
330
64C6
100
AcDbEntity
  8
0
 62
     0
100
AcDbLine
 10
52.41721216833707
 20
22.16668230854247
 30
0.0
 11
51.33389460859075
 21
23.24999986828874
 31
0.0
  0
LINE
  5
64F0
330
64C6
100
AcDbEntity
  8
0
 62
     0
100
AcDbLine
 10
67.43389460859095
 20
7.149999868288546
 30
0.0
 11
66.242212168337
 21
8.341682308542544
 31
0.0
  0
LINE
  5
64F1
330
64C6
100
AcDbEntity
  8
0
 62
     0
100
AcDbLine
 10
57.84221216833708
 20
15.84365669643557
 30
0.0
 11
55.04221216833713
 21
18.64365669643558
 31
0.0
  0
LINE
  5
64F2
330
64C6
100
AcDbEntity
  8
0
 62
     0
100
AcDbLine
 10
52.41721216833707
 20
21.26865669643558
 30
0.0
 11
50.43586899648392
 21
23.24999986828879
 31
0.0
  0
LINE
  5
64F3
330
64C6
100
AcDbEntity
  8
0
 62
     0
100
AcDbLine
 10
64.11625386769157
 20
9.569614997081146
 30
0.0
 11
61.34221216833703
 21
12.34365669643563
 31
0.0
  0
LINE
  5
64F4
330
64C6
100
AcDbEntity
  8
0
 62
     0
100
AcDbLine
 10
57.84221216833708
 20
14.94563108432868
 30
0.0
 11
55.04221216833713
 21
17.74563108432863
 31
0.0
  0
LINE
  5
64F5
330
64C6
100
AcDbEntity
  8
0
 62
     0
100
AcDbLine
 10
52.22163162222324
 20
20.56621163044252
 30
0.0
 11
49.53784338437708
 21
23.24999986828868
 31
0.0
  0
LINE
  5
64F6
330
64C6
100
AcDbEntity
  8
0
 62
     0
100
AcDbLine
 10
63.92326857243432
 20
8.864574680231385
 30
0.0
 11
61.34221216833703
 21
11.44563108432873
 31
0.0
  0
LINE
  5
64F7
330
64C6
100
AcDbEntity
  8
0
 62
     0
100
AcDbLine
 10
57.84221216833708
 20
14.04760547222173
 30
0.0
 11
55.04221216833707
 21
16.84760547222174
 31
0.0
  0
LINE
  5
64F8
330
64C6
100
AcDbEntity
  8
0
 62
     0
100
AcDbLine
 10
51.43981777227009
 20
20.44999986828867
 30
0.0
 11
48.63981777227007
 21
23.24999986828874
 31
0.0
  0
LINE
  5
64F9
330
64C6
100
AcDbEntity
  8
0
 62
     0
100
AcDbLine
 10
63.59823669651075
 20
8.291580944048007
 30
0.0
 11
61.27069642917752
 21
10.61912121138129
 31
0.0
  0
LINE
  5
64FA
330
64C6
100
AcDbEntity
  8
0
 62
     0
100
AcDbLine
 10
57.84221216833708
 20
13.14957986011489
 30
0.0
 11
55.04221216833713
 21
15.94957986011485
 31
0.0
  0
LINE
  5
64FB
330
64C6
100
AcDbEntity
  8
0
 62
     0
100
AcDbLine
 10
50.54179216016326
 20
20.44999986828873
 30
0.0
 11
47.80422543098587
 21
23.18756659746611
 31
0.0
  0
LINE
  5
64FC
330
64C6
100
AcDbEntity
  8
0
 62
     0
100
AcDbLine
 10
63.16619489918571
 20
7.825597129266213
 30
0.0
 11
60.86911079071001
 21
10.12268123774191
 31
0.0
  0
LINE
  5
64FD
330
64C6
100
AcDbEntity
  8
0
 62
     0
100
AcDbLine
 10
57.84221216833708
 20
12.25155424800794
 30
0.0
 11
55.04221216833707
 21
15.0515542480079
 31
0.0
  0
LINE
  5
64FE
330
64C6
100
AcDbEntity
  8
0
 62
     0
100
AcDbLine
 10
49.6437665480563
 20
20.44999986828873
 30
0.0
 11
47.13958500645247
 21
22.95418140989249
 31
0.0
  0
LINE
  5
64FF
330
64C6
100
AcDbEntity
  8
0
 62
     0
100
AcDbLine
 10
62.63003255425968
 20
7.463733862085348
 30
0.0
 11
60.1437665480563
 21
9.949999868288671
 31
0.0
  0
LINE
  5
6500
330
64C6
100
AcDbEntity
  8
0
 62
     0
100
AcDbLine
 10
57.84221216833703
 20
11.353528635901
 30
0.0
 11
55.04221216833713
 21
14.15352863590089
 31
0.0
  0
LINE
  5
6501
330
64C6
100
AcDbEntity
  8
0
 62
     0
100
AcDbLine
 10
48.7675307639675
 20
20.42821004027052
 30
0.0
 11
46.59698406924229
 21
22.59875673499573
 31
0.0
  0
LINE
  5
6502
330
64C6
100
AcDbEntity
  8
0
 62
     0
100
AcDbLine
 10
61.97361999434838
 20
7.222120809889702
 30
0.0
 11
59.24574093594941
 21
9.949999868288671
 31
0.0
  0
LINE
  5
6503
330
64C6
100
AcDbEntity
  8
0
 62
     0
100
AcDbLine
 10
48.39221216833715
 20
19.90550302379392
 30
0.0
 11
46.15887201019774
 21
22.13884318193334
 31
0.0
  0
LINE
  5
6504
330
64C6
100
AcDbEntity
  8
0
 62
     0
100
AcDbLine
 10
61.14771532384253
 20
7.149999868288603
 30
0.0
 11
55.04221216833713
 21
13.255503023794
 31
0.0
  0
LINE
  5
6505
330
64C6
100
AcDbEntity
  8
0
 62
     0
100
AcDbLine
 10
48.3922121683372
 20
19.00747741168709
 30
0.0
 11
45.82710109784471
 21
21.57258848217958
 31
0.0
  0
LINE
  5
6506
330
64C6
100
AcDbEntity
  8
0
 62
     0
100
AcDbLine
 10
60.24968971173564
 20
7.149999868288603
 30
0.0
 11
55.04221216833719
 21
12.35747741168711
 31
0.0
  0
LINE
  5
6507
330
64C6
100
AcDbEntity
  8
0
 62
     0
100
AcDbLine
 10
48.59875644944094
 20
17.90290751847641
 30
0.0
 11
45.6249225784806
 21
20.87674138943668
 31
0.0
  0
LINE
  5
6508
330
64C6
100
AcDbEntity
  8
0
 62
     0
100
AcDbLine
 10
59.35166409962874
 20
7.149999868288603
 30
0.0
 11
55.04221216833713
 21
11.45945179958022
 31
0.0
  0
LINE
  5
6509
330
64C6
100
AcDbEntity
  8
0
 62
     0
100
AcDbLine
 10
52.81581587102846
 20
12.78782248478194
 30
0.0
 11
45.59221216833708
 21
20.01142618747326
 31
0.0
  0
LINE
  5
650A
330
64C6
100
AcDbEntity
  8
0
 62
     0
100
AcDbLine
 10
43.492212168337
 20
22.11142618747334
 30
0.0
 11
42.35363848752172
 21
23.24999986828868
 31
0.0
  0
LINE
  5
650B
330
64C6
100
AcDbEntity
  8
0
 62
     0
100
AcDbLine
 10
58.4536384875218
 20
7.149999868288603
 30
0.0
 11
55.04221216833713
 21
10.56142618747327
 31
0.0
  0
LINE
  5
650C
330
64C6
100
AcDbEntity
  8
0
 62
     0
100
AcDbLine
 10
52.94221216833716
 20
11.7634005753664
 30
0.0
 11
45.59221216833714
 21
19.11340057536642
 31
0.0
  0
LINE
  5
650D
330
64C6
100
AcDbEntity
  8
0
 62
     0
100
AcDbLine
 10
43.49221216833711
 20
21.21340057536639
 30
0.0
 11
41.45561287541477
 21
23.24999986828879
 31
0.0
  0
LINE
  5
650E
330
64C6
100
AcDbEntity
  8
0
 62
     0
100
AcDbLine
 10
57.53916499667003
 20
7.166447747033544
 30
0.0
 11
55.05866004708201
 21
9.646952696621553
 31
0.0
  0
LINE
  5
650F
330
64C6
100
AcDbEntity
  8
0
 62
     0
100
AcDbLine
 10
43.49221216833711
 20
20.3153749632595
 30
0.0
 11
40.7848222805618
 21
23.02276485103476
 31
0.0
  0
LINE
  5
6510
330
64C6
100
AcDbEntity
  8
0
 62
     0
100
AcDbLine
 10
52.94221216833711
 20
10.86537496325945
 30
0.0
 11
45.61562283621947
 21
18.19196429537714
 31
0.0
  0
LINE
  5
6511
330
64C6
100
AcDbEntity
  8
0
 62
     0
100
AcDbLine
 10
43.49221216833711
 20
19.41734935115255
 30
0.0
 11
40.6922121683371
 21
22.2173493511525
 31
0.0
  0
LINE
  5
6512
330
64C6
100
AcDbEntity
  8
0
 62
     0
100
AcDbLine
 10
52.94221216833699
 20
9.96734935115262
 30
0.0
 11
45.93374225405949
 21
16.97581926543017
 31
0.0
  0
LINE
  5
6513
330
64C6
100
AcDbEntity
  8
0
 62
     0
100
AcDbLine
 10
43.49221216833711
 20
18.51932373904566
 30
0.0
 11
40.69221216833716
 21
21.31932373904561
 31
0.0
  0
LINE
  5
6514
330
64C6
100
AcDbEntity
  8
0
 62
     0
100
AcDbLine
 10
52.83365035074803
 20
9.177885556634748
 30
0.0
 11
50.13801556170972
 21
11.87352034567305
 31
0.0
  0
LINE
  5
6515
330
64C6
100
AcDbEntity
  8
0
 62
     0
100
AcDbLine
 10
43.49221216833711
 20
17.62129812693876
 30
0.0
 11
40.6922121683371
 21
20.42129812693872
 31
0.0
  0
LINE
  5
6516
330
64C6
100
AcDbEntity
  8
0
 62
     0
100
AcDbLine
 10
38.40072526776009
 20
22.71278502751573
 30
0.0
 11
37.86351042698709
 21
23.24999986828879
 31
0.0
  0
LINE
  5
6517
330
64C6
100
AcDbEntity
  8
0
 62
     0
100
AcDbLine
 10
52.56577464298647
 20
8.547735652289418
 30
0.0
 11
50.14221216833715
 21
10.97129812693873
 31
0.0
  0
LINE
  5
6518
330
64C6
100
AcDbEntity
  8
0
 62
     0
100
AcDbLine
 10
43.49221216833706
 20
16.72327251483181
 30
0.0
 11
40.6922121683371
 21
19.52327251483183
 31
0.0
  0
LINE
  5
6519
330
64C6
100
AcDbEntity
  8
0
 62
     0
100
AcDbLine
 10
38.20179760350749
 20
22.01368707966139
 30
0.0
 11
36.9654848148802
 21
23.24999986828874
 31
0.0
  0
LINE
  5
651A
330
64C6
100
AcDbEntity
  8
0
 62
     0
100
AcDbLine
 10
52.18278784481118
 20
8.032696838357765
 30
0.0
 11
50.04492698545067
 21
10.17055769771826
 31
0.0
  0
LINE
  5
651B
330
64C6
100
AcDbEntity
  8
0
 62
     0
100
AcDbLine
 10
43.49221216833706
 20
15.82524690272492
 30
0.0
 11
40.6922121683371
 21
18.62524690272488
 31
0.0
  0
LINE
  5
651C
330
64C6
100
AcDbEntity
  8
0
 62
     0
100
AcDbLine
 10
37.9862714566018
 20
21.33118761446013
 30
0.0
 11
36.07705589313122
 21
23.24040317793077
 31
0.0
  0
LINE
  5
651D
330
64C6
100
AcDbEntity
  8
0
 62
     0
100
AcDbLine
 10
51.69646887969554
 20
7.620990191366388
 30
0.0
 11
49.36745920277331
 21
9.949999868288671
 31
0.0
  0
LINE
  5
651E
330
64C6
100
AcDbEntity
  8
0
 62
     0
100
AcDbLine
 10
43.49221216833711
 20
14.92722129061803
 30
0.0
 11
40.6922121683371
 21
17.72722129061799
 31
0.0
  0
LINE
  5
651F
330
64C6
100
AcDbEntity
  8
0
 62
     0
100
AcDbLine
 10
37.77074530969628
 20
20.64868814925887
 30
0.0
 11
35.64274530969623
 21
22.77668814925891
 31
0.0
  0
LINE
  5
6520
330
64C6
100
AcDbEntity
  8
0
 62
     0
100
AcDbLine
 10
51.10038493123517
 20
7.319048527719928
 30
0.0
 11
48.46943359066642
 21
9.949999868288728
 31
0.0
  0
LINE
  5
6521
330
64C6
100
AcDbEntity
  8
0
 62
     0
100
AcDbLine
 10
43.49221216833706
 20
14.02919567851114
 30
0.0
 11
40.6922121683371
 21
16.8291956785111
 31
0.0
  0
LINE
  5
6522
330
64C6
100
AcDbEntity
  8
0
 62
     0
100
AcDbLine
 10
37.55521916279042
 20
19.96618868405778
 30
0.0
 11
35.42721916279043
 21
22.09418868405776
 31
0.0
  0
LINE
  5
6523
330
64C6
100
AcDbEntity
  8
0
 62
     0
100
AcDbLine
 10
50.3627122795877
 20
7.158695567260508
 30
0.0
 11
47.57140797855953
 21
9.949999868288671
 31
0.0
  0
LINE
  5
6524
330
64C6
100
AcDbEntity
  8
0
 62
     0
100
AcDbLine
 10
43.49221216833706
 20
13.13117006640419
 30
0.0
 11
40.69221216833705
 21
15.93117006640414
 31
0.0
  0
LINE
  5
6525
330
64C6
100
AcDbEntity
  8
0
 62
     0
100
AcDbLine
 10
37.33969301588484
 20
19.2836892188564
 30
0.0
 11
35.21169301588475
 21
21.41168921885645
 31
0.0
  0
LINE
  5
6526
330
64C6
100
AcDbEntity
  8
0
 62
     0
100
AcDbLine
 10
49.47338236645265
 20
7.149999868288603
 30
0.0
 11
46.67338236645258
 21
9.949999868288671
 31
0.0
  0
LINE
  5
6527
330
64C6
100
AcDbEntity
  8
0
 62
     0
100
AcDbLine
 10
43.49221216833706
 20
12.2331444542973
 30
0.0
 11
40.6922121683371
 21
15.03314445429731
 31
0.0
  0
LINE
  5
6528
330
64C6
100
AcDbEntity
  8
0
 62
     0
100
AcDbLine
 10
37.12416686897927
 20
18.60118975365514
 30
0.0
 11
34.99616686897911
 21
20.72918975365524
 31
0.0
  0
LINE
  5
6529
330
64C6
100
AcDbEntity
  8
0
 62
     0
100
AcDbLine
 10
48.57535675434576
 20
7.149999868288659
 30
0.0
 11
46.14174505704937
 21
9.583611565585044
 31
0.0
  0
LINE
  5
652A
330
64C6
100
AcDbEntity
  8
0
 62
     0
100
AcDbLine
 10
36.90864072207352
 20
17.91869028845394
 30
0.0
 11
34.78064072207348
 21
20.04669028845398
 31
0.0
  0
LINE
  5
652B
330
64C6
100
AcDbEntity
  8
0
 62
     0
100
AcDbLine
 10
43.49221216833706
 20
11.33511884219041
 30
0.0
 11
40.6922121683371
 21
14.13511884219036
 31
0.0
  0
LINE
  5
652C
330
64C6
100
AcDbEntity
  8
0
 62
     0
100
AcDbLine
 10
32.64221216833709
 20
22.18511884219037
 30
0.0
 11
31.57733114223879
 21
23.24999986828862
 31
0.0
  0
LINE
  5
652D
330
64C6
100
AcDbEntity
  8
0
 62
     0
100
AcDbLine
 10
47.67733114223887
 20
7.149999868288603
 30
0.0
 11
46.11721216833712
 21
8.710118842190354
 31
0.0
  0
LINE
  5
652E
330
64C6
100
AcDbEntity
  8
0
 62
     0
100
AcDbLine
 10
36.69311457516784
 20
17.23619082325268
 30
0.0
 11
34.56511457516785
 21
19.36419082325267
 31
0.0
  0
LINE
  5
652F
330
64C6
100
AcDbEntity
  8
0
 62
     0
100
AcDbLine
 10
43.49221216833706
 20
10.43709323008346
 30
0.0
 11
40.69221216833705
 21
13.23709323008347
 31
0.0
  0
LINE
  5
6530
330
64C6
100
AcDbEntity
  8
0
 62
     0
100
AcDbLine
 10
32.64221216833709
 20
21.28709323008342
 30
0.0
 11
30.67930553013189
 21
23.24999986828862
 31
0.0
  0
LINE
  5
6531
330
64C6
100
AcDbEntity
  8
0
 62
     0
100
AcDbLine
 10
46.77930553013186
 20
7.149999868288659
 30
0.0
 11
46.11721216833706
 21
7.812093230083405
 31
0.0
  0
LINE
  5
6532
330
64C6
100
AcDbEntity
  8
0
 62
     0
100
AcDbLine
 10
36.47758842826215
 20
16.55369135805142
 30
0.0
 11
34.34958842826211
 21
18.68169135805146
 31
0.0
  0
LINE
  5
6533
330
64C6
100
AcDbEntity
  8
0
 62
     0
100
AcDbLine
 10
32.64221216833703
 20
20.38906761797647
 30
0.0
 11
29.96676723943943
 21
23.06451254687414
 31
0.0
  0
LINE
  5
6534
330
64C6
100
AcDbEntity
  8
0
 62
     0
100
AcDbLine
 10
43.492212168337
 20
9.53906761797657
 30
0.0
 11
40.69221216833705
 21
12.33906761797652
 31
0.0
  0
LINE
  5
6535
330
64C6
100
AcDbEntity
  8
0
 62
     0
100
AcDbLine
 10
36.26206228135652
 20
15.87119189285022
 30
0.0
 11
34.13406228135653
 21
17.9991918928502
 31
0.0
  0
LINE
  5
6536
330
64C6
100
AcDbEntity
  8
0
 62
     0
100
AcDbLine
 10
32.64221216833709
 20
19.49104200586964
 30
0.0
 11
29.84221216833702
 21
22.29104200586965
 31
0.0
  0
LINE
  5
6537
330
64C6
100
AcDbEntity
  8
0
 62
     0
100
AcDbLine
 10
43.49221216833706
 20
8.641042005869678
 30
0.0
 11
40.69221216833705
 21
11.44104200586963
 31
0.0
  0
LINE
  5
6538
330
64C6
100
AcDbEntity
  8
0
 62
     0
100
AcDbLine
 10
36.05697377196463
 20
15.17825479013515
 30
0.0
 11
33.91853613445078
 21
17.316692427649
 31
0.0
  0
LINE
  5
6539
330
64C6
100
AcDbEntity
  8
0
 62
     0
100
AcDbLine
 10
32.64221216833709
 20
18.59301639376269
 30
0.0
 11
29.84221216833702
 21
21.39301639376276
 31
0.0
  0
LINE
  5
653A
330
64C6
100
AcDbEntity
  8
0
 62
     0
100
AcDbLine
 10
43.492212168337
 20
7.743016393762729
 30
0.0
 11
40.69221216833705
 21
10.54301639376274
 31
0.0
  0
LINE
  5
653B
330
64C6
100
AcDbEntity
  8
0
 62
     0
100
AcDbLine
 10
36.47144713139863
 20
13.8657558185942
 30
0.0
 11
33.62798863876617
 21
16.70921431122667
 31
0.0
  0
LINE
  5
653C
330
64C6
100
AcDbEntity
  8
0
 62
     0
100
AcDbLine
 10
32.64221216833715
 20
17.69499078165569
 30
0.0
 11
29.84221216833697
 21
20.49499078165581
 31
0.0
  0
LINE
  5
653D
330
64C6
100
AcDbEntity
  8
0
 62
     0
100
AcDbLine
 10
43.15316717100467
 20
7.184035778988118
 30
0.0
 11
40.6922121683371
 21
9.644990781655735
 31
0.0
  0
LINE
  5
653E
330
64C6
100
AcDbEntity
  8
0
 62
     0
100
AcDbLine
 10
36.88592049083268
 20
12.55325684705332
 30
0.0
 11
29.84221216833702
 21
19.59696516954898
 31
0.0
  0
LINE
  5
653F
330
64C6
100
AcDbEntity
  8
0
 62
     0
100
AcDbLine
 10
27.39221216833715
 20
22.04696516954885
 30
0.0
 11
26.18917746959738
 21
23.24999986828862
 31
0.0
  0
LINE
  5
6540
330
64C6
100
AcDbEntity
  8
0
 62
     0
100
AcDbLine
 10
42.28917746959734
 20
7.149999868288659
 30
0.0
 11
40.69221216833716
 21
8.746965169548843
 31
0.0
  0
LINE
  5
6541
330
64C6
100
AcDbEntity
  8
0
 62
     0
100
AcDbLine
 10
37.30039385026657
 20
11.24075787551243
 30
0.0
 11
29.84221216833702
 21
18.69893955744203
 31
0.0
  0
LINE
  5
6542
330
64C6
100
AcDbEntity
  8
0
 62
     0
100
AcDbLine
 10
27.39221216833715
 20
21.1489395574419
 30
0.0
 11
25.29115185749037
 21
23.24999986828868
 31
0.0
  0
LINE
  5
6543
330
64C6
100
AcDbEntity
  8
0
 62
     0
100
AcDbLine
 10
41.39115185749034
 20
7.149999868288716
 30
0.0
 11
40.6922121683371
 21
7.848939557441951
 31
0.0
  0
LINE
  5
6544
330
64C6
100
AcDbEntity
  8
0
 62
     0
100
AcDbLine
 10
27.12530547294704
 20
20.51782064072506
 30
0.0
 11
24.42508375473562
 21
23.21804235893643
 31
0.0
  0
LINE
  5
6545
330
64C6
100
AcDbEntity
  8
0
 62
     0
100
AcDbLine
 10
37.71486720970051
 20
9.928258903971595
 30
0.0
 11
29.84221216833708
 21
17.80091394533502
 31
0.0
  0
LINE
  5
6546
330
64C6
100
AcDbEntity
  8
0
 62
     0
100
AcDbLine
 10
32.9797210906787
 20
13.76537941088651
 30
0.0
 11
29.84221216833708
 21
16.90288833322813
 31
0.0
  0
LINE
  5
6547
330
64C6
100
AcDbEntity
  8
0
 62
     0
100
AcDbLine
 10
26.2951006332766
 20
20.44999986828855
 30
0.0
 11
23.68704068514836
 21
23.05805981641686
 31
0.0
  0
LINE
  5
6548
330
64C6
100
AcDbEntity
  8
0
 62
     0
100
AcDbLine
 10
38.12934056913451
 20
8.615759932430705
 30
0.0
 11
34.03703287682663
 21
12.70806762473853
 31
0.0
  0
LINE
  5
6549
330
64C6
100
AcDbEntity
  8
0
 62
     0
100
AcDbLine
 10
32.64221216833715
 20
13.20486272112117
 30
0.0
 11
29.84221216833708
 21
16.00486272112124
 31
0.0
  0
LINE
  5
654A
330
64C6
100
AcDbEntity
  8
0
 62
     0
100
AcDbLine
 10
25.39707502116959
 20
20.44999986828867
 30
0.0
 11
23.04831926931762
 21
22.79875562014063
 31
0.0
  0
LINE
  5
654B
330
64C6
100
AcDbEntity
  8
0
 62
     0
100
AcDbLine
 10
38.36437942684511
 20
7.48269546261315
 30
0.0
 11
34.45150623626057
 21
11.39556865319775
 31
0.0
  0
LINE
  5
654C
330
64C6
100
AcDbEntity
  8
0
 62
     0
100
AcDbLine
 10
32.64221216833709
 20
12.30683710901428
 30
0.0
 11
29.84221216833702
 21
15.10683710901429
 31
0.0
  0
LINE
  5
654D
330
64C6
100
AcDbEntity
  8
0
 62
     0
100
AcDbLine
 10
24.55396151862606
 20
20.39508775872531
 30
0.0
 11
22.48957029398309
 21
22.45947898336828
 31
0.0
  0
LINE
  5
654E
330
64C6
100
AcDbEntity
  8
0
 62
     0
100
AcDbLine
 10
37.79904940906277
 20
7.149999868288603
 30
0.0
 11
34.86597959569451
 21
10.08306968165686
 31
0.0
  0
LINE
  5
654F
330
64C6
100
AcDbEntity
  8
0
 62
     0
100
AcDbLine
 10
32.64221216833709
 20
11.40881149690733
 30
0.0
 11
29.84221216833702
 21
14.2088114969074
 31
0.0
  0
LINE
  5
6550
330
64C6
100
AcDbEntity
  8
0
 62
     0
100
AcDbLine
 10
23.98210532578707
 20
20.06891833945735
 30
0.0
 11
22.0019150853713
 21
22.04910857987312
 31
0.0
  0
LINE
  5
6551
330
64C6
100
AcDbEntity
  8
0
 62
     0
100
AcDbLine
 10
36.90102379695582
 20
7.149999868288603
 30
0.0
 11
35.28045295512856
 21
8.770570710115862
 31
0.0
  0
LINE
  5
6552
330
64C6
100
AcDbEntity
  8
0
 62
     0
100
AcDbLine
 10
27.72764130113483
 20
15.42535675200275
 30
0.0
 11
26.21756905205109
 21
16.9354290010865
 31
0.0
  0
LINE
  5
6553
330
64C6
100
AcDbEntity
  8
0
 62
     0
100
AcDbLine
 10
32.64221216833721
 20
10.51078588480038
 30
0.0
 11
29.84221216833708
 21
13.31078588480051
 31
0.0
  0
LINE
  5
6554
330
64C6
100
AcDbEntity
  8
0
 62
     0
100
AcDbLine
 10
23.62598375565812
 20
19.52701429747946
 30
0.0
 11
21.58254905936007
 21
21.57044899377751
 31
0.0
  0
LINE
  5
6555
330
64C6
100
AcDbEntity
  8
0
 62
     0
100
AcDbLine
 10
35.95266518064431
 20
7.200332872493277
 30
0.0
 11
35.702311009053
 21
7.450687044084588
 31
0.0
  0
LINE
  5
6556
330
64C6
100
AcDbEntity
  8
0
 62
     0
100
AcDbLine
 10
27.64112764099292
 20
14.61384480003772
 30
0.0
 11
25.40605710008605
 21
16.84891534094458
 31
0.0
  0
LINE
  5
6557
330
64C6
100
AcDbEntity
  8
0
 62
     0
100
AcDbLine
 10
23.54221216833718
 20
18.71276027269345
 30
0.0
 11
21.2336100383984
 21
21.02136240263223
 31
0.0
  0
LINE
  5
6558
330
64C6
100
AcDbEntity
  8
0
 62
     0
100
AcDbLine
 10
32.64221216833715
 20
9.612760272693435
 30
0.0
 11
29.84221216833702
 21
12.41276027269361
 31
0.0
  0
LINE
  5
6559
330
64C6
100
AcDbEntity
  8
0
 62
     0
100
AcDbLine
 10
27.30927208169487
 20
14.04767474722876
 30
0.0
 11
24.8398870472771
 21
16.51705978164653
 31
0.0
  0
LINE
  5
655A
330
64C6
100
AcDbEntity
  8
0
 62
     0
100
AcDbLine
 10
23.54221216833718
 20
17.81473466058651
 30
0.0
 11
20.96303033118823
 21
20.39391649773546
 31
0.0
  0
LINE
  5
655B
330
64C6
100
AcDbEntity
  8
0
 62
     0
100
AcDbLine
 10
32.64221216833715
 20
8.714734660586543
 30
0.0
 11
29.84221216833708
 21
11.51473466058661
 31
0.0
  0
LINE
  5
655C
330
64C6
100
AcDbEntity
  8
0
 62
     0
100
AcDbLine
 10
23.54221216833718
 20
16.91670904847961
 30
0.0
 11
20.78831645826238
 21
19.67060475855447
 31
0.0
  0
LINE
  5
655D
330
64C6
100
AcDbEntity
  8
0
 62
     0
100
AcDbLine
 10
26.80743863955842
 20
13.65148257725843
 30
0.0
 11
24.44369487730677
 21
16.01522633951009
 31
0.0
  0
LINE
  5
655E
330
64C6
100
AcDbEntity
  8
0
 62
     0
100
AcDbLine
 10
18.11721216833712
 20
22.34170904847974
 30
0.0
 11
17.20892134852812
 21
23.24999986828874
 31
0.0
  0
LINE
  5
655F
330
64C6
100
AcDbEntity
  8
0
 62
     0
100
AcDbLine
 10
32.64221216833721
 20
7.816709048479651
 30
0.0
 11
29.84221216833714
 21
10.61670904847971
 31
0.0
  0
LINE
  5
6560
330
64C6
100
AcDbEntity
  8
0
 62
     0
100
AcDbLine
 10
23.54221216833718
 20
16.01868343637272
 30
0.0
 11
20.74221216833711
 21
18.81868343637279
 31
0.0
  0
LINE
  5
6561
330
64C6
100
AcDbEntity
  8
0
 62
     0
100
AcDbLine
 10
26.107119197131
 20
13.45377640757891
 30
0.0
 11
24.24598870762725
 21
15.31490689708266
 31
0.0
  0
LINE
  5
6562
330
64C6
100
AcDbEntity
  8
0
 62
     0
100
AcDbLine
 10
18.11721216833706
 20
21.44368343637279
 30
0.0
 11
16.31089573642117
 21
23.24999986828868
 31
0.0
  0
LINE
  5
6563
330
64C6
100
AcDbEntity
  8
0
 62
     0
100
AcDbLine
 10
32.35430836706649
 20
7.206587237643418
 30
0.0
 11
29.84221216833708
 21
9.718683436372771
 31
0.0
  0
LINE
  5
6564
330
64C6
100
AcDbEntity
  8
0
 62
     0
100
AcDbLine
 10
23.54221216833718
 20
15.12065782426577
 30
0.0
 11
20.74221216833711
 21
17.92065782426584
 31
0.0
  0
LINE
  5
6565
330
64C6
100
AcDbEntity
  8
0
 62
     0
100
AcDbLine
 10
18.00817819806673
 20
20.65469179453623
 30
0.0
 11
15.41287012431416
 21
23.24999986828874
 31
0.0
  0
LINE
  5
6566
330
64C6
100
AcDbEntity
  8
0
 62
     0
100
AcDbLine
 10
31.5128701243143
 20
7.149999868288659
 30
0.0
 11
29.84221216833708
 21
8.820657824265879
 31
0.0
  0
LINE
  5
6567
330
64C6
100
AcDbEntity
  8
0
 62
     0
100
AcDbLine
 10
23.54221216833713
 20
14.22263221215888
 30
0.0
 11
20.74221216833706
 21
17.02263221215889
 31
0.0
  0
LINE
  5
6568
330
64C6
100
AcDbEntity
  8
0
 62
     0
100
AcDbLine
 10
17.31484451220734
 20
20.44999986828867
 30
0.0
 11
14.51484451220727
 21
23.24999986828874
 31
0.0
  0
LINE
  5
6569
330
64C6
100
AcDbEntity
  8
0
 62
     0
100
AcDbLine
 10
30.61484451220735
 20
7.149999868288603
 30
0.0
 11
29.84221216833708
 21
7.92263221215893
 31
0.0
  0
LINE
  5
656A
330
64C6
100
AcDbEntity
  8
0
 62
     0
100
AcDbLine
 10
23.54221216833724
 20
13.32460660005193
 30
0.0
 11
20.74221216833711
 21
16.12460660005206
 31
0.0
  0
LINE
  5
656B
330
64C6
100
AcDbEntity
  8
0
 62
     0
100
AcDbLine
 10
16.41681890010045
 20
20.44999986828873
 30
0.0
 11
13.6516896279956
 21
23.21512914039357
 31
0.0
  0
LINE
  5
656C
330
64C6
100
AcDbEntity
  8
0
 62
     0
100
AcDbLine
 10
27.38960971950018
 20
9.477209048888937
 30
0.0
 11
26.91942134893747
 21
9.947397419451704
 31
0.0
  0
LINE
  5
656D
330
64C6
100
AcDbEntity
  8
0
 62
     0
100
AcDbLine
 10
23.54221216833724
 20
12.42658098794498
 30
0.0
 11
20.74221216833711
 21
15.22658098794511
 31
0.0
  0
LINE
  5
656E
330
64C6
100
AcDbEntity
  8
0
 62
     0
100
AcDbLine
 10
15.5187932879935
 20
20.44999986828867
 30
0.0
 11
12.95855481951713
 21
23.01023833676509
 31
0.0
  0
LINE
  5
656F
330
64C6
100
AcDbEntity
  8
0
 62
     0
100
AcDbLine
 10
27.39221216833721
 20
8.576580987945021
 30
0.0
 11
26.01879328799356
 21
9.949999868288671
 31
0.0
  0
LINE
  5
6570
330
64C6
100
AcDbEntity
  8
0
 62
     0
100
AcDbLine
 10
23.54221216833718
 20
11.52855537583803
 30
0.0
 11
20.74221216833717
 21
14.3285553758381
 31
0.0
  0
LINE
  5
6571
330
64C6
100
AcDbEntity
  8
0
 62
     0
100
AcDbLine
 10
14.62076767588667
 20
20.44999986828855
 30
0.0
 11
12.39430815966989
 21
22.67645938450533
 31
0.0
  0
LINE
  5
6572
330
64C6
100
AcDbEntity
  8
0
 62
     0
100
AcDbLine
 10
27.39221216833715
 20
7.678555375838072
 30
0.0
 11
25.12076767588666
 21
9.949999868288557
 31
0.0
  0
LINE
  5
6573
330
64C6
100
AcDbEntity
  8
0
 62
     0
100
AcDbLine
 10
14.11047484827207
 20
20.06226708379637
 30
0.0
 11
11.93621534742914
 21
22.2365265846393
 31
0.0
  0
LINE
  5
6574
330
64C6
100
AcDbEntity
  8
0
 62
     0
100
AcDbLine
 10
27.00447938384479
 20
7.168262548223651
 30
0.0
 11
20.74221216833717
 21
13.43052976373127
 31
0.0
  0
LINE
  5
6575
330
64C6
100
AcDbEntity
  8
0
 62
     0
100
AcDbLine
 10
14.09221216833714
 20
19.18250415162435
 30
0.0
 11
11.58273414496005
 21
21.69198217500144
 31
0.0
  0
LINE
  5
6576
330
64C6
100
AcDbEntity
  8
0
 62
     0
100
AcDbLine
 10
26.12471645167289
 20
7.149999868288603
 30
0.0
 11
20.74221216833717
 21
12.53250415162432
 31
0.0
  0
LINE
  5
6577
330
64C6
100
AcDbEntity
  8
0
 62
     0
100
AcDbLine
 10
14.15434787647257
 20
18.22234283138192
 30
0.0
 11
11.35185404266633
 21
21.02483666518821
 31
0.0
  0
LINE
  5
6578
330
64C6
100
AcDbEntity
  8
0
 62
     0
100
AcDbLine
 10
25.22669083956589
 20
7.149999868288659
 30
0.0
 11
20.74221216833711
 21
11.63447853951737
 31
0.0
  0
LINE
  5
6579
330
64C6
100
AcDbEntity
  8
0
 62
     0
100
AcDbLine
 10
18.4465882595598
 20
13.03207683618785
 30
0.0
 11
11.29221216833718
 21
20.18645292741047
 31
0.0
  0
LINE
  5
657A
330
64C6
100
AcDbEntity
  8
0
 62
     0
100
AcDbLine
 10
24.27539314040234
 20
7.203271955345314
 30
0.0
 11
20.79548425539377
 21
10.68318084035388
 31
0.0
  0
LINE
  5
657B
330
64C6
100
AcDbEntity
  8
0
 62
     0
100
AcDbLine
 10
18.63848277364502
 20
11.94215670999574
 30
0.0
 11
11.29221216833707
 21
19.28842731530369
 31
0.0
  0
LINE
  5
657C
330
64C6
100
AcDbEntity
  8
0
 62
     0
100
AcDbLine
 10
22.90158522780075
 20
7.679054255839957
 30
0.0
 11
21.27126655588836
 21
9.309372927752406
 31
0.0
  0
LINE
  5
657D
330
64C6
100
AcDbEntity
  8
0
 62
     0
100
AcDbLine
 10
18.64221216833721
 20
11.0404017031966
 30
0.0
 11
11.29977661575946
 21
18.38283725577429
 31
0.0
  0
LINE
  5
657E
330
64C6
100
AcDbEntity
  8
0
 62
     0
100
AcDbLine
 10
18.64221216833709
 20
10.14237609108977
 30
0.0
 11
11.52306737408332
 21
17.26152088534348
 31
0.0
  0
LINE
  5
657F
330
64C6
100
AcDbEntity
  8
0
 62
     0
100
AcDbLine
 10
18.56969217220518
 20
9.316870475114853
 30
0.0
 11
15.80630052858612
 21
12.08026211873391
 31
0.0
  0
LINE
  5
6580
330
64C6
100
AcDbEntity
  8
0
 62
     0
100
AcDbLine
 10
18.32775423317633
 20
8.660782802036749
 30
0.0
 11
15.84221216833708
 21
11.146324866876
 31
0.0
  0
LINE
  5
6581
330
64C6
100
AcDbEntity
  8
0
 62
     0
100
AcDbLine
 10
17.96563498579456
 20
8.12487643731157
 30
0.0
 11
15.8063131360364
 21
10.28419828706972
 31
0.0
  0
LINE
  5
6582
330
64C6
100
AcDbEntity
  8
0
 62
     0
100
AcDbLine
 10
17.49940861352769
 20
7.693077197471552
 30
0.0
 11
15.24248594271057
 21
9.949999868288728
 31
0.0
  0
LINE
  5
6583
330
64C6
100
AcDbEntity
  8
0
 62
     0
100
AcDbLine
 10
16.92614416579488
 20
7.368316033097471
 30
0.0
 11
14.34446033060362
 21
9.949999868288671
 31
0.0
  0
LINE
  5
6584
330
64C6
100
AcDbEntity
  8
0
 62
     0
100
AcDbLine
 10
16.22073157670894
 20
7.17570301007646
 30
0.0
 11
13.44643471849673
 21
9.949999868288671
 31
0.0
  0
LINE
  5
6585
330
64C6
100
AcDbEntity
  8
0
 62
     0
100
AcDbLine
 10
15.34840910638979
 20
7.149999868288659
 30
0.0
 11
12.54840910638978
 21
9.949999868288671
 31
0.0
  0
LINE
  5
6586
330
64C6
100
AcDbEntity
  8
0
 62
     0
100
AcDbLine
 10
14.45038349428296
 20
7.149999868288603
 30
0.0
 11
11.89705959946508
 21
9.703323763106538
 31
0.0
  0
LINE
  5
6587
330
64C6
100
AcDbEntity
  8
0
 62
     0
100
AcDbLine
 10
13.55235788217595
 20
7.149999868288659
 30
0.0
 11
11.81721216833716
 21
8.885145582127449
 31
0.0
  0
LINE
  5
6588
330
64C6
100
AcDbEntity
  8
0
 62
     0
100
AcDbLine
 10
12.65433227006911
 20
7.149999868288603
 30
0.0
 11
11.81721216833716
 21
7.987119970020557
 31
0.0
  0
LINE
  5
6589
330
64C6
100
AcDbEntity
  8
0
 62
     0
100
AcDbLine
 10
68.63389945300406
 20
7.163131645406167
 30
0.0
 11
69.02908039121985
 21
7.558312583621955
 31
0.0
  0
LINE
  5
658A
330
64C6
100
AcDbEntity
  8
0
 62
     0
100
AcDbLine
 10
67.72274206377961
 20
7.149999868288546
 30
0.0
 11
69.0422121683373
 21
8.469469972846241
 31
0.0
  0
LINE
  5
658B
330
64C6
100
AcDbEntity
  8
0
 62
     0
100
AcDbLine
 10
66.82471645167272
 20
7.149999868288546
 30
0.0
 11
69.0422121683373
 21
9.367495584953132
 31
0.0
  0
LINE
  5
658C
330
64C6
100
AcDbEntity
  8
0
 62
     0
100
AcDbLine
 10
66.27340973158897
 20
7.49671876031175
 30
0.0
 11
69.04221216833724
 21
10.26552119706008
 31
0.0
  0
LINE
  5
658D
330
64C6
100
AcDbEntity
  8
0
 62
     0
100
AcDbLine
 10
66.24221216833717
 20
8.363546809166905
 30
0.0
 11
69.04221216833724
 21
11.16354680916691
 31
0.0
  0
LINE
  5
658E
330
64C6
100
AcDbEntity
  8
0
 62
     0
100
AcDbLine
 10
66.24221216833723
 20
9.261572421273797
 30
0.0
 11
69.04221216833724
 21
12.06157242127386
 31
0.0
  0
LINE
  5
658F
330
64C6
100
AcDbEntity
  8
0
 62
     0
100
AcDbLine
 10
66.24221216833717
 20
10.15959803338074
 30
0.0
 11
69.04221216833724
 21
12.95959803338081
 31
0.0
  0
LINE
  5
6590
330
64C6
100
AcDbEntity
  8
0
 62
     0
100
AcDbLine
 10
66.24221216833717
 20
11.05762364548763
 30
0.0
 11
69.04221216833724
 21
13.8576236454877
 31
0.0
  0
LINE
  5
6591
330
64C6
100
AcDbEntity
  8
0
 62
     0
100
AcDbLine
 10
62.66877703040245
 20
7.484188507552914
 30
0.0
 11
63.80802352907301
 21
8.62343500622353
 31
0.0
  0
LINE
  5
6592
330
64C6
100
AcDbEntity
  8
0
 62
     0
100
AcDbLine
 10
66.24221216833717
 20
11.95564925759452
 30
0.0
 11
69.04221216833724
 21
14.75564925759459
 31
0.0
  0
LINE
  5
6593
330
64C6
100
AcDbEntity
  8
0
 62
     0
100
AcDbLine
 10
61.43820886387965
 20
7.151645953137006
 30
0.0
 11
64.14056608348897
 21
9.854003172746274
 31
0.0
  0
LINE
  5
6594
330
64C6
100
AcDbEntity
  8
0
 62
     0
100
AcDbLine
 10
66.24221216833717
 20
12.85367486970147
 30
0.0
 11
69.04221216833724
 21
15.65367486970149
 31
0.0
  0
LINE
  5
6595
330
64C6
100
AcDbEntity
  8
0
 62
     0
100
AcDbLine
 10
60.53853716692424
 20
7.149999868288546
 30
0.0
 11
64.14221216833727
 21
10.75367486970151
 31
0.0
  0
LINE
  5
6596
330
64C6
100
AcDbEntity
  8
0
 62
     0
100
AcDbLine
 10
66.24221216833717
 20
13.75170048180837
 30
0.0
 11
69.04221216833718
 21
16.55170048180844
 31
0.0
  0
LINE
  5
6597
330
64C6
100
AcDbEntity
  8
0
 62
     0
100
AcDbLine
 10
59.64051155481735
 20
7.149999868288546
 30
0.0
 11
64.14221216833721
 21
11.65170048180846
 31
0.0
  0
LINE
  5
6598
330
64C6
100
AcDbEntity
  8
0
 62
     0
100
AcDbLine
 10
66.24221216833729
 20
14.64972609391532
 30
0.0
 11
69.04221216833724
 21
17.44972609391533
 31
0.0
  0
LINE
  5
6599
330
64C6
100
AcDbEntity
  8
0
 62
     0
100
AcDbLine
 10
58.74248594271051
 20
7.149999868288603
 30
0.0
 11
64.14221216833727
 21
12.54972609391535
 31
0.0
  0
LINE
  5
659A
330
64C6
100
AcDbEntity
  8
0
 62
     0
100
AcDbLine
 10
61.23762096625615
 20
10.54316050394118
 30
0.0
 11
64.14221216833727
 21
13.44775170602224
 31
0.0
  0
LINE
  5
659B
330
64C6
100
AcDbEntity
  8
0
 62
     0
100
AcDbLine
 10
66.24221216833723
 20
15.54775170602226
 30
0.0
 11
69.04221216833724
 21
18.34775170602222
 31
0.0
  0
LINE
  5
659C
330
64C6
100
AcDbEntity
  8
0
 62
     0
100
AcDbLine
 10
57.84446033060351
 20
7.149999868288546
 30
0.0
 11
60.74905153268463
 21
10.05459107036961
 31
0.0
  0
LINE
  5
659D
330
64C6
100
AcDbEntity
  8
0
 62
     0
100
AcDbLine
 10
61.34221216833714
 20
11.54577731812912
 30
0.0
 11
64.14221216833721
 21
14.34577731812919
 31
0.0
  0
LINE
  5
659E
330
64C6
100
AcDbEntity
  8
0
 62
     0
100
AcDbLine
 10
66.24221216833723
 20
16.44577731812915
 30
0.0
 11
69.04221216833718
 21
19.24577731812917
 31
0.0
  0
LINE
  5
659F
330
64C6
100
AcDbEntity
  8
0
 62
     0
100
AcDbLine
 10
57.05838446987383
 20
7.261949619665756
 30
0.0
 11
59.74643471849669
 21
9.949999868288614
 31
0.0
  0
LINE
  5
65A0
330
64C6
100
AcDbEntity
  8
0
 62
     0
100
AcDbLine
 10
61.3422121683372
 20
12.44380293023613
 30
0.0
 11
64.14221216833721
 21
15.24380293023608
 31
0.0
  0
LINE
  5
65A1
330
64C6
100
AcDbEntity
  8
0
 62
     0
100
AcDbLine
 10
66.24221216833717
 20
17.3438029302361
 30
0.0
 11
69.04221216833718
 21
20.14380293023606
 31
0.0
  0
LINE
  5
65A2
330
64C6
100
AcDbEntity
  8
0
 62
     0
100
AcDbLine
 10
56.43039760266367
 20
7.531988364562607
 30
0.0
 11
58.84928689203412
 21
9.950877653933048
 31
0.0
  0
LINE
  5
65A3
330
64C6
100
AcDbEntity
  8
0
 62
     0
100
AcDbLine
 10
61.34221216833726
 20
13.34182854234302
 30
0.0
 11
64.14221216833721
 21
16.14182854234297
 31
0.0
  0
LINE
  5
65A4
330
64C6
100
AcDbEntity
  8
0
 62
     0
100
AcDbLine
 10
66.24221216833723
 20
18.241828542343
 30
0.0
 11
69.04221216833718
 21
21.04182854234295
 31
0.0
  0
LINE
  5
65A5
330
64C6
100
AcDbEntity
  8
0
 62
     0
100
AcDbLine
 10
55.91713772129861
 20
7.916754095304327
 30
0.0
 11
58.20580830332142
 21
10.20542467732718
 31
0.0
  0
LINE
  5
65A6
330
64C6
100
AcDbEntity
  8
0
 62
     0
100
AcDbLine
 10
61.34221216833726
 20
14.23985415444991
 30
0.0
 11
64.14221216833721
 21
17.03985415444992
 31
0.0
  0
LINE
  5
65A7
330
64C6
100
AcDbEntity
  8
0
 62
     0
100
AcDbLine
 10
66.24221216833723
 20
19.13985415444989
 30
0.0
 11
69.04221216833718
 21
21.9398541544499
 31
0.0
  0
LINE
  5
65A8
330
64C6
100
AcDbEntity
  8
0
 62
     0
100
AcDbLine
 10
55.50717354607349
 20
8.404815532186148
 30
0.0
 11
57.868570024912
 21
10.76621201102472
 31
0.0
  0
LINE
  5
65A9
330
64C6
100
AcDbEntity
  8
0
 62
     0
100
AcDbLine
 10
61.3422121683372
 20
15.13787976655686
 30
0.0
 11
64.14221216833727
 21
17.93787976655693
 31
0.0
  0
LINE
  5
65AA
330
64C6
100
AcDbEntity
  8
0
 62
     0
100
AcDbLine
 10
66.24221216833717
 20
20.03787976655684
 30
0.0
 11
69.03206301478673
 21
22.82773061300639
 31
0.0
  0
LINE
  5
65AB
330
64C6
100
AcDbEntity
  8
0
 62
     0
100
AcDbLine
 10
55.20724866763948
 20
9.002916265859141
 30
0.0
 11
57.8422121683372
 21
11.6378797665568
 31
0.0
  0
LINE
  5
65AC
330
64C6
100
AcDbEntity
  8
0
 62
     0
100
AcDbLine
 10
61.34221216833726
 20
16.03590537866369
 30
0.0
 11
64.14221216833732
 21
18.83590537866376
 31
0.0
  0
LINE
  5
65AD
330
64C6
100
AcDbEntity
  8
0
 62
     0
100
AcDbLine
 10
66.24221216833729
 20
20.93590537866379
 30
0.0
 11
68.55494866970724
 21
23.24864188003374
 31
0.0
  0
LINE
  5
65AE
330
64C6
100
AcDbEntity
  8
0
 62
     0
100
AcDbLine
 10
55.04983513268303
 20
9.743528343009529
 30
0.0
 11
57.8422121683372
 21
12.5359053786637
 31
0.0
  0
LINE
  5
65AF
330
64C6
100
AcDbEntity
  8
0
 62
     0
100
AcDbLine
 10
61.3422121683372
 20
16.93393099077064
 30
0.0
 11
64.14221216833727
 21
19.73393099077071
 31
0.0
  0
LINE
  5
65B0
330
64C6
100
AcDbEntity
  8
0
 62
     0
100
AcDbLine
 10
66.24221216833729
 20
21.83393099077068
 30
0.0
 11
67.65828104585517
 21
23.24999986828862
 31
0.0
  0
LINE
  5
65B1
330
64C6
100
AcDbEntity
  8
0
 62
     0
100
AcDbLine
 10
55.04221216833724
 20
10.63393099077063
 30
0.0
 11
57.84221216833725
 21
13.4339309907707
 31
0.0
  0
LINE
  5
65B2
330
64C6
100
AcDbEntity
  8
0
 62
     0
100
AcDbLine
 10
61.3422121683372
 20
17.83195660287759
 30
0.0
 11
64.14221216833727
 21
20.6319566028776
 31
0.0
  0
LINE
  5
65B3
330
64C6
100
AcDbEntity
  8
0
 62
     0
100
AcDbLine
 10
55.04221216833719
 20
11.53195660287758
 30
0.0
 11
57.84221216833725
 21
14.33195660287765
 31
0.0
  0
LINE
  5
65B4
330
64C6
100
AcDbEntity
  8
0
 62
     0
100
AcDbLine
 10
66.24225888308462
 20
22.73200331762501
 30
0.0
 11
66.7602087190009
 21
23.24995315354124
 31
0.0
  0
LINE
  5
65B5
330
64C6
100
AcDbEntity
  8
0
 62
     0
100
AcDbLine
 10
50.72065653762519
 20
7.21040097216553
 30
0.0
 11
52.88181106446035
 21
9.371555499000749
 31
0.0
  0
LINE
  5
65B6
330
64C6
100
AcDbEntity
  8
0
 62
     0
100
AcDbLine
 10
55.04221216833719
 20
12.42998221498447
 30
0.0
 11
57.84221216833725
 21
15.22998221498454
 31
0.0
  0
LINE
  5
65B7
330
64C6
100
AcDbEntity
  8
0
 62
     0
100
AcDbLine
 10
61.3422121683372
 20
18.72998221498448
 30
0.0
 11
64.14221216833721
 21
21.52998221498455
 31
0.0
  0
LINE
  5
65B8
330
64C6
100
AcDbEntity
  8
0
 62
     0
100
AcDbLine
 10
49.76222982164131
 20
7.149999868288659
 30
0.0
 11
52.94221216833716
 21
10.32998221498451
 31
0.0
  0
LINE
  5
65B9
330
64C6
100
AcDbEntity
  8
0
 62
     0
100
AcDbLine
 10
55.04221216833719
 20
13.32800782709137
 30
0.0
 11
57.84221216833725
 21
16.12800782709143
 31
0.0
  0
LINE
  5
65BA
330
64C6
100
AcDbEntity
  8
0
 62
     0
100
AcDbLine
 10
61.3422121683372
 20
19.62800782709138
 30
0.0
 11
64.14221216833727
 21
22.42800782709144
 31
0.0
  0
LINE
  5
65BB
330
64C6
100
AcDbEntity
  8
0
 62
     0
100
AcDbLine
 10
48.86420420953442
 20
7.149999868288603
 30
0.0
 11
52.94221216833722
 21
11.22800782709134
 31
0.0
  0
LINE
  5
65BC
330
64C6
100
AcDbEntity
  8
0
 62
     0
100
AcDbLine
 10
55.04221216833719
 20
14.22603343919831
 30
0.0
 11
57.84221216833725
 21
17.02603343919832
 31
0.0
  0
LINE
  5
65BD
330
64C6
100
AcDbEntity
  8
0
 62
     0
100
AcDbLine
 10
61.3422121683372
 20
20.52603343919827
 30
0.0
 11
63.94847471350312
 21
23.13229598436425
 31
0.0
  0
LINE
  5
65BE
330
64C6
100
AcDbEntity
  8
0
 62
     0
100
AcDbLine
 10
47.96617859742752
 20
7.149999868288659
 30
0.0
 11
52.92789356792423
 21
12.11171483878536
 31
0.0
  0
LINE
  5
65BF
330
64C6
100
AcDbEntity
  8
0
 62
     0
100
AcDbLine
 10
55.04221216833724
 20
15.12405905130532
 30
0.0
 11
57.8422121683372
 21
17.92405905130527
 31
0.0
  0
LINE
  5
65C0
330
64C6
100
AcDbEntity
  8
0
 62
     0
100
AcDbLine
 10
61.34221216833714
 20
21.42405905130522
 30
0.0
 11
63.1681529853206
 21
23.24999986828868
 31
0.0
  0
LINE
  5
65C1
330
64C6
100
AcDbEntity
  8
0
 62
     0
100
AcDbLine
 10
47.06815298532058
 20
7.149999868288659
 30
0.0
 11
52.79298119729549
 21
12.87482808026351
 31
0.0
  0
LINE
  5
65C2
330
64C6
100
AcDbEntity
  8
0
 62
     0
100
AcDbLine
 10
55.0422121683373
 20
16.02208466341215
 30
0.0
 11
57.84221216833725
 21
18.82208466341216
 31
0.0
  0
LINE
  5
65C3
330
64C6
100
AcDbEntity
  8
0
 62
     0
100
AcDbLine
 10
50.14221216833732
 20
11.12208466341218
 30
0.0
 11
52.55239374037694
 21
13.5322662354518
 31
0.0
  0
LINE
  5
65C4
330
64C6
100
AcDbEntity
  8
0
 62
     0
100
AcDbLine
 10
61.3422121683372
 20
22.32208466341211
 30
0.0
 11
62.27012737321377
 21
23.24999986828868
 31
0.0
  0
LINE
  5
65C5
330
64C6
100
AcDbEntity
  8
0
 62
     0
100
AcDbLine
 10
46.29838272634481
 20
7.278255221419726
 30
0.0
 11
48.9701273732137
 21
9.949999868288614
 31
0.0
  0
LINE
  5
65C6
330
64C6
100
AcDbEntity
  8
0
 62
     0
100
AcDbLine
 10
50.12234159320991
 20
12.00023970039171
 30
0.0
 11
52.2288944355164
 21
14.1067925426982
 31
0.0
  0
LINE
  5
65C7
330
64C6
100
AcDbEntity
  8
0
 62
     0
100
AcDbLine
 10
55.04221216833724
 20
16.9201102755191
 30
0.0
 11
57.8422121683372
 21
19.72011027551906
 31
0.0
  0
LINE
  5
65C8
330
64C6
100
AcDbEntity
  8
0
 62
     0
100
AcDbLine
 10
46.11721216833723
 20
7.995110275519039
 30
0.0
 11
48.07210176110675
 21
9.949999868288614
 31
0.0
  0
LINE
  5
65C9
330
64C6
100
AcDbEntity
  8
0
 62
     0
100
AcDbLine
 10
49.84795675607102
 20
12.62388047535984
 30
0.0
 11
51.83302331758858
 21
14.60894703687739
 31
0.0
  0
LINE
  5
65CA
330
64C6
100
AcDbEntity
  8
0
 62
     0
100
AcDbLine
 10
55.04221216833724
 20
17.818135887626
 30
0.0
 11
57.8422121683372
 21
20.61813588762601
 31
0.0
  0
LINE
  5
65CB
330
64C6
100
AcDbEntity
  8
0
 62
     0
100
AcDbLine
 10
46.11721216833717
 20
8.893135887625987
 30
0.0
 11
47.17407614899985
 21
9.949999868288671
 31
0.0
  0
LINE
  5
65CC
330
64C6
100
AcDbEntity
  8
0
 62
     0
100
AcDbLine
 10
55.04221216833724
 20
18.71616149973289
 30
0.0
 11
57.84221216833725
 21
21.51616149973284
 31
0.0
  0
LINE
  5
65CD
330
64C6
100
AcDbEntity
  8
0
 62
     0
100
AcDbLine
 10
49.40668185895396
 20
13.08063119034954
 30
0.0
 11
51.38658084627627
 21
15.06053017767186
 31
0.0
  0
LINE
  5
65CE
330
64C6
100
AcDbEntity
  8
0
 62
     0
100
AcDbLine
 10
48.95766905290049
 20
13.52964399640302
 30
0.0
 11
50.93756804022286
 21
15.50954298372545
 31
0.0
  0
LINE
  5
65CF
330
64C6
100
AcDbEntity
  8
0
 62
     0
100
AcDbLine
 10
55.04221216833724
 20
19.61418711183983
 30
0.0
 11
57.8422121683372
 21
22.41418711183979
 31
0.0
  0
LINE
  5
65D0
330
64C6
100
AcDbEntity
  8
0
 62
     0
100
AcDbLine
 10
42.578024924786
 20
7.149999868288603
 30
0.0
 11
43.49221216833718
 21
8.064187111839714
 31
0.0
  0
LINE
  5
65D1
330
64C6
100
AcDbEntity
  8
0
 62
     0
100
AcDbLine
 10
48.50865624684701
 20
13.97865680245649
 30
0.0
 11
50.48855523416938
 21
15.95855578977892
 31
0.0
  0
LINE
  5
65D2
330
64C6
100
AcDbEntity
  8
0
 62
     0
100
AcDbLine
 10
55.04221216833719
 20
20.51221272394673
 30
0.0
 11
57.65603126023854
 21
23.12603181584802
 31
0.0
  0
LINE
  5
65D3
330
64C6
100
AcDbEntity
  8
0
 62
     0
100
AcDbLine
 10
41.67999931267906
 20
7.149999868288603
 30
0.0
 11
43.49221216833723
 21
8.96221272394672
 31
0.0
  0
LINE
  5
65D4
330
64C6
100
AcDbEntity
  8
0
 62
     0
100
AcDbLine
 10
48.05964344079353
 20
14.42766960850997
 30
0.0
 11
50.03954242811591
 21
16.4075685958324
 31
0.0
  0
LINE
  5
65D5
330
64C6
100
AcDbEntity
  8
0
 62
     0
100
AcDbLine
 10
55.04221216833719
 20
21.41023833605367
 30
0.0
 11
56.88197370057219
 21
23.24999986828868
 31
0.0
  0
LINE
  5
65D6
330
64C6
100
AcDbEntity
  8
0
 62
     0
100
AcDbLine
 10
40.89358483843414
 20
7.261611006150587
 30
0.0
 11
43.49221216833718
 21
9.860238336053669
 31
0.0
  0
LINE
  5
65D7
330
64C6
100
AcDbEntity
  8
0
 62
     0
100
AcDbLine
 10
47.61063063474011
 20
14.87668241456339
 30
0.0
 11
49.59052962206249
 21
16.85658140188581
 31
0.0
  0
LINE
  5
65D8
330
64C6
100
AcDbEntity
  8
0
 62
     0
100
AcDbLine
 10
55.0422121683373
 20
22.30826394816062
 30
0.0
 11
55.9839480884653
 21
23.24999986828862
 31
0.0
  0
LINE
  5
65D9
330
64C6
100
AcDbEntity
  8
0
 62
     0
100
AcDbLine
 10
40.69221216833722
 20
7.958263948160549
 30
0.0
 11
43.49221216833723
 21
10.7582639481605
 31
0.0
  0
LINE
  5
65DA
330
64C6
100
AcDbEntity
  8
0
 62
     0
100
AcDbLine
 10
47.16161782868664
 20
15.32569522061686
 30
0.0
 11
49.14151681600902
 21
17.30559420793929
 31
0.0
  0
LINE
  5
65DB
330
64C6
100
AcDbEntity
  8
0
 62
     0
100
AcDbLine
 10
40.69221216833722
 20
8.856289560267498
 30
0.0
 11
43.49221216833718
 21
11.65628956026745
 31
0.0
  0
LINE
  5
65DC
330
64C6
100
AcDbEntity
  8
0
 62
     0
100
AcDbLine
 10
46.71463392764531
 20
15.77673693168253
 30
0.0
 11
48.69860746102734
 21
17.7607104650645
 31
0.0
  0
LINE
  5
65DD
330
64C6
100
AcDbEntity
  8
0
 62
     0
100
AcDbLine
 10
40.69221216833722
 20
9.75431517237439
 30
0.0
 11
43.49221216833718
 21
12.5543151723744
 31
0.0
  0
LINE
  5
65DE
330
64C6
100
AcDbEntity
  8
0
 62
     0
100
AcDbLine
 10
51.38789686425139
 20
20.44999986828861
 30
0.0
 11
52.41721216833724
 21
21.47931517237441
 31
0.0
  0
LINE
  5
65DF
330
64C6
100
AcDbEntity
  8
0
 62
     0
100
AcDbLine
 10
38.19955594362699
 20
7.261658947664159
 30
0.0
 11
38.28920830508201
 21
7.351311309119239
 31
0.0
  0
LINE
  5
65E0
330
64C6
100
AcDbEntity
  8
0
 62
     0
100
AcDbLine
 10
46.31663174882334
 20
16.2767603649674
 30
0.0
 11
48.41626602624194
 21
18.376394642386
 31
0.0
  0
LINE
  5
65E1
330
64C6
100
AcDbEntity
  8
0
 62
     0
100
AcDbLine
 10
40.69221216833722
 20
10.65234078448128
 30
0.0
 11
43.49221216833723
 21
13.45234078448123
 31
0.0
  0
LINE
  5
65E2
330
64C6
100
AcDbEntity
  8
0
 62
     0
100
AcDbLine
 10
50.48987125214461
 20
20.44999986828867
 30
0.0
 11
52.41721216833724
 21
22.3773407844813
 31
0.0
  0
LINE
  5
65E3
330
64C6
100
AcDbEntity
  8
0
 62
     0
100
AcDbLine
 10
37.18987125214454
 20
7.149999868288603
 30
0.0
 11
38.25565034845107
 21
8.215778964595131
 31
0.0
  0
LINE
  5
65E4
330
64C6
100
AcDbEntity
  8
0
 62
     0
100
AcDbLine
 10
45.99079748442664
 20
16.84895171267766
 30
0.0
 11
48.39221216833732
 21
19.25036639658833
 31
0.0
  0
LINE
  5
65E5
330
64C6
100
AcDbEntity
  8
0
 62
     0
100
AcDbLine
 10
40.69221216833722
 20
11.55036639658817
 30
0.0
 11
43.49221216833718
 21
14.35036639658818
 31
0.0
  0
LINE
  5
65E6
330
64C6
100
AcDbEntity
  8
0
 62
     0
100
AcDbLine
 10
49.5918456400376
 20
20.44999986828861
 30
0.0
 11
52.25054323653933
 21
23.10869746479033
 31
0.0
  0
LINE
  5
65E7
330
64C6
100
AcDbEntity
  8
0
 62
     0
100
AcDbLine
 10
36.29184564003753
 20
7.149999868288546
 30
0.0
 11
38.04012420154538
 21
8.898278429796391
 31
0.0
  0
LINE
  5
65E8
330
64C6
100
AcDbEntity
  8
0
 62
     0
100
AcDbLine
 10
40.69221216833716
 20
12.44839200869512
 30
0.0
 11
43.49221216833718
 21
15.24839200869507
 31
0.0
  0
LINE
  5
65E9
330
64C6
100
AcDbEntity
  8
0
 62
     0
100
AcDbLine
 10
45.74741542175655
 20
17.50359526211451
 30
0.0
 11
51.49382002793072
 21
23.24999986828868
 31
0.0
  0
LINE
  5
65EA
330
64C6
100
AcDbEntity
  8
0
 62
     0
100
AcDbLine
 10
35.69983132938256
 20
7.45601116974052
 30
0.0
 11
37.82459805463969
 21
9.580777894997652
 31
0.0
  0
LINE
  5
65EB
330
64C6
100
AcDbEntity
  8
0
 62
     0
100
AcDbLine
 10
40.69221216833716
 20
13.34641762080207
 30
0.0
 11
43.49221216833711
 21
16.14641762080202
 31
0.0
  0
LINE
  5
65EC
330
64C6
100
AcDbEntity
  8
0
 62
     0
100
AcDbLine
 10
45.60870856267086
 20
18.26291401513577
 30
0.0
 11
50.59579441582383
 21
23.24999986828868
 31
0.0
  0
LINE
  5
65ED
330
64C6
100
AcDbEntity
  8
0
 62
     0
100
AcDbLine
 10
35.48107190773396
 20
8.13527736019887
 30
0.0
 11
37.609071907734
 21
10.26327736019891
 31
0.0
  0
LINE
  5
65EE
330
64C6
100
AcDbEntity
  8
0
 62
     0
100
AcDbLine
 10
40.69221216833722
 20
14.2444432329089
 30
0.0
 11
43.49221216833718
 21
17.04444323290891
 31
0.0
  0
LINE
  5
65EF
330
64C6
100
AcDbEntity
  8
0
 62
     0
100
AcDbLine
 10
45.59221216833726
 20
19.14444323290899
 30
0.0
 11
49.69776880371694
 21
23.24999986828868
 31
0.0
  0
LINE
  5
65F0
330
64C6
100
AcDbEntity
  8
0
 62
     0
100
AcDbLine
 10
35.26554576082833
 20
8.817776825400073
 30
0.0
 11
37.39354576082843
 21
10.94577682540011
 31
0.0
  0
LINE
  5
65F1
330
64C6
100
AcDbEntity
  8
0
 62
     0
100
AcDbLine
 10
40.69221216833727
 20
15.14246884501591
 30
0.0
 11
43.49221216833718
 21
17.94246884501581
 31
0.0
  0
LINE
  5
65F2
330
64C6
100
AcDbEntity
  8
0
 62
     0
100
AcDbLine
 10
45.59221216833726
 20
20.04246884501589
 30
0.0
 11
48.79974319161004
 21
23.24999986828868
 31
0.0
  0
LINE
  5
65F3
330
64C6
100
AcDbEntity
  8
0
 62
     0
100
AcDbLine
 10
35.05001961392264
 20
9.500276290601334
 30
0.0
 11
37.1780196139228
 21
11.62827629060149
 31
0.0
  0
LINE
  5
65F4
330
64C6
100
AcDbEntity
  8
0
 62
     0
100
AcDbLine
 10
40.69221216833722
 20
16.04049445712286
 30
0.0
 11
43.49221216833723
 21
18.84049445712281
 31
0.0
  0
LINE
  5
65F5
330
64C6
100
AcDbEntity
  8
0
 62
     0
100
AcDbLine
 10
34.83449346701695
 20
10.18277575580259
 30
0.0
 11
36.96249346701705
 21
12.31077575580263
 31
0.0
  0
LINE
  5
65F6
330
64C6
100
AcDbEntity
  8
0
 62
     0
100
AcDbLine
 10
45.6455288384584
 20
20.99381112724404
 30
0.0
 11
47.84840090938172
 21
23.19668319816736
 31
0.0
  0
LINE
  5
65F7
330
64C6
100
AcDbEntity
  8
0
 62
     0
100
AcDbLine
 10
31.80171757950296
 20
7.149999868288603
 30
0.0
 11
32.64221216833715
 21
7.990494457122792
 31
0.0
  0
LINE
  5
65F8
330
64C6
100
AcDbEntity
  8
0
 62
     0
100
AcDbLine
 10
34.61896732011144
 20
10.86527522100391
 30
0.0
 11
36.74696732011142
 21
12.99327522100389
 31
0.0
  0
LINE
  5
65F9
330
64C6
100
AcDbEntity
  8
0
 62
     0
100
AcDbLine
 10
40.69221216833727
 20
16.93852006922969
 30
0.0
 11
43.49221216833723
 21
19.7385200692297
 31
0.0
  0
LINE
  5
65FA
330
64C6
100
AcDbEntity
  8
0
 62
     0
100
AcDbLine
 10
30.90369196739612
 20
7.149999868288546
 30
0.0
 11
32.64221216833727
 21
8.888520069229741
 31
0.0
  0
LINE
  5
65FB
330
64C6
100
AcDbEntity
  8
0
 62
     0
100
AcDbLine
 10
34.40344117320569
 20
11.54777468620505
 30
0.0
 11
36.53144117320573
 21
13.67577468620515
 31
0.0
  0
LINE
  5
65FC
330
64C6
100
AcDbEntity
  8
0
 62
     0
100
AcDbLine
 10
40.69221216833722
 20
17.83654568133664
 30
0.0
 11
43.49221216833723
 21
20.6365456813366
 31
0.0
  0
LINE
  5
65FD
330
64C6
100
AcDbEntity
  8
0
 62
     0
100
AcDbLine
 10
30.08681610294047
 20
7.231149615939898
 30
0.0
 11
32.64221216833727
 21
9.78654568133669
 31
0.0
  0
LINE
  5
65FE
330
64C6
100
AcDbEntity
  8
0
 62
     0
100
AcDbLine
 10
34.1879150263
 20
12.23027415140632
 30
0.0
 11
36.31591502630004
 21
14.35827415140642
 31
0.0
  0
LINE
  5
65FF
330
64C6
100
AcDbEntity
  8
0
 62
     0
100
AcDbLine
 10
40.69221216833722
 20
18.73457129344359
 30
0.0
 11
43.49221216833718
 21
21.53457129344354
 31
0.0
  0
LINE
  5
6600
330
64C6
100
AcDbEntity
  8
0
 62
     0
100
AcDbLine
 10
29.8422121683372
 20
7.884571293443514
 30
0.0
 11
32.64221216833727
 21
10.68457129344358
 31
0.0
  0
LINE
  5
6601
330
64C6
100
AcDbEntity
  8
0
 62
     0
100
AcDbLine
 10
33.97238887939437
 20
12.91277361660752
 30
0.0
 11
36.10038887939452
 21
15.04077361660768
 31
0.0
  0
LINE
  5
6602
330
64C6
100
AcDbEntity
  8
0
 62
     0
100
AcDbLine
 10
40.69221216833727
 20
19.63259690555043
 30
0.0
 11
43.49221216833723
 21
22.43259690555043
 31
0.0
  0
LINE
  5
6603
330
64C6
100
AcDbEntity
  8
0
 62
     0
100
AcDbLine
 10
29.8422121683372
 20
8.782596905550406
 30
0.0
 11
32.64221216833727
 21
11.58259690555047
 31
0.0
  0
LINE
  5
6604
330
64C6
100
AcDbEntity
  8
0
 62
     0
100
AcDbLine
 10
33.73759009242263
 20
13.57600044174279
 30
0.0
 11
36.36788416035352
 21
16.20629450967368
 31
0.0
  0
LINE
  5
6605
330
64C6
100
AcDbEntity
  8
0
 62
     0
100
AcDbLine
 10
40.69221216833722
 20
20.53062251765737
 30
0.0
 11
43.29593674583878
 21
23.13434709515888
 31
0.0
  0
LINE
  5
6606
330
64C6
100
AcDbEntity
  8
0
 62
     0
100
AcDbLine
 10
29.8422121683372
 20
9.680622517657354
 30
0.0
 11
32.64221216833727
 21
12.48062251765736
 31
0.0
  0
LINE
  5
6607
330
64C6
100
AcDbEntity
  8
0
 62
     0
100
AcDbLine
 10
33.05040472255524
 20
13.78684068398234
 30
0.0
 11
36.78235751978752
 21
17.51879348121462
 31
0.0
  0
LINE
  5
6608
330
64C6
100
AcDbEntity
  8
0
 62
     0
100
AcDbLine
 10
29.8422121683372
 20
10.57864812976424
 30
0.0
 11
32.6553713526435
 21
13.39180731407054
 31
0.0
  0
LINE
  5
6609
330
64C6
100
AcDbEntity
  8
0
 62
     0
100
AcDbLine
 10
40.69221216833722
 20
21.42864812976426
 30
0.0
 11
42.51356390686157
 21
23.24999986828868
 31
0.0
  0
LINE
  5
660A
330
64C6
100
AcDbEntity
  8
0
 62
     0
100
AcDbLine
 10
26.41356390686155
 20
7.149999868288603
 30
0.0
 11
27.39221216833721
 21
8.128648129764314
 31
0.0
  0
LINE
  5
660B
330
64C6
100
AcDbEntity
  8
0
 62
     0
100
AcDbLine
 10
29.84221216833714
 20
11.47667374187119
 30
0.0
 11
37.19683087922146
 21
18.83129245275552
 31
0.0
  0
LINE
  5
660C
330
64C6
100
AcDbEntity
  8
0
 62
     0
100
AcDbLine
 10
40.69221216833716
 20
22.32667374187121
 30
0.0
 11
41.61553829475457
 21
23.24999986828862
 31
0.0
  0
LINE
  5
660D
330
64C6
100
AcDbEntity
  8
0
 62
     0
100
AcDbLine
 10
25.5155382947546
 20
7.149999868288659
 30
0.0
 11
27.39221216833726
 21
9.02667374187132
 31
0.0
  0
LINE
  5
660E
330
64C6
100
AcDbEntity
  8
0
 62
     0
100
AcDbLine
 10
29.8422121683372
 20
12.37469935397803
 30
0.0
 11
37.61130423865557
 21
20.14379142429646
 31
0.0
  0
LINE
  5
660F
330
64C6
100
AcDbEntity
  8
0
 62
     0
100
AcDbLine
 10
24.62919330699782
 20
7.161680492638708
 30
0.0
 11
27.25087788473103
 21
9.783365070371871
 31
0.0
  0
LINE
  5
6610
330
64C6
100
AcDbEntity
  8
0
 62
     0
100
AcDbLine
 10
29.84221216833714
 20
13.27272496608498
 30
0.0
 11
33.16948707054081
 21
16.59999986828864
 31
0.0
  0
LINE
  5
6611
330
64C6
100
AcDbEntity
  8
0
 62
     0
100
AcDbLine
 10
33.93346990578169
 20
17.36398270352952
 30
0.0
 11
38.02577759808952
 21
21.45629039583735
 31
0.0
  0
LINE
  5
6612
330
64C6
100
AcDbEntity
  8
0
 62
     0
100
AcDbLine
 10
23.86103278955084
 20
7.291545587298628
 30
0.0
 11
26.51948707054077
 21
9.949999868288614
 31
0.0
  0
LINE
  5
6613
330
64C6
100
AcDbEntity
  8
0
 62
     0
100
AcDbLine
 10
29.84221216833714
 20
14.17075057819192
 30
0.0
 11
32.66020273904547
 21
16.9887411489002
 31
0.0
  0
LINE
  5
6614
330
64C6
100
AcDbEntity
  8
0
 62
     0
100
AcDbLine
 10
34.34794326521563
 20
18.67648167507036
 30
0.0
 11
38.40084904989083
 21
22.72938745974562
 31
0.0
  0
LINE
  5
6615
330
64C6
100
AcDbEntity
  8
0
 62
     0
100
AcDbLine
 10
23.19989853272443
 20
7.528436942579219
 30
0.0
 11
25.62146145843388
 21
9.949999868288614
 31
0.0
  0
LINE
  5
6616
330
64C6
100
AcDbEntity
  8
0
 62
     0
100
AcDbLine
 10
29.8422121683372
 20
15.06877619029876
 30
0.0
 11
32.64221216833732
 21
17.86877619029888
 31
0.0
  0
LINE
  5
6617
330
64C6
100
AcDbEntity
  8
0
 62
     0
100
AcDbLine
 10
34.76241662464957
 20
19.98898064661119
 30
0.0
 11
38.00683717732164
 21
23.23340119928326
 31
0.0
  0
LINE
  5
6618
330
64C6
100
AcDbEntity
  8
0
 62
     0
100
AcDbLine
 10
22.62229524856013
 20
7.8488592705217
 30
0.0
 11
24.73835710705299
 21
9.964921129014612
 31
0.0
  0
LINE
  5
6619
330
64C6
100
AcDbEntity
  8
0
 62
     0
100
AcDbLine
 10
29.84221216833714
 20
15.96680180240571
 30
0.0
 11
32.64221216833727
 21
18.76680180240583
 31
0.0
  0
LINE
  5
661A
330
64C6
100
AcDbEntity
  8
0
 62
     0
100
AcDbLine
 10
35.17688998408351
 20
21.30147961815203
 30
0.0
 11
37.12541023422005
 21
23.24999986828862
 31
0.0
  0
LINE
  5
661B
330
64C6
100
AcDbEntity
  8
0
 62
     0
100
AcDbLine
 10
22.11734028217807
 20
8.24192991624659
 30
0.0
 11
24.10404096603468
 21
10.2286306001032
 31
0.0
  0
LINE
  5
661C
330
64C6
100
AcDbEntity
  8
0
 62
     0
100
AcDbLine
 10
29.84221216833714
 20
16.8648274145126
 30
0.0
 11
32.64221216833727
 21
19.66482741451278
 31
0.0
  0
LINE
  5
661D
330
64C6
100
AcDbEntity
  8
0
 62
     0
100
AcDbLine
 10
26.50384630011365
 20
13.52646154628917
 30
0.0
 11
27.66575049033673
 21
14.68836573651225
 31
0.0
  0
LINE
  5
661E
330
64C6
100
AcDbEntity
  8
0
 62
     0
100
AcDbLine
 10
35.5913633435174
 20
22.61397858969292
 30
0.0
 11
36.22738462211311
 21
23.24999986828862
 31
0.0
  0
LINE
  5
661F
330
64C6
100
AcDbEntity
  8
0
 62
     0
100
AcDbLine
 10
21.68090320884823
 20
8.703518455023754
 30
0.0
 11
23.6937900147625
 21
10.71640526093801
 31
0.0
  0
LINE
  5
6620
330
64C6
100
AcDbEntity
  8
0
 62
     0
100
AcDbLine
 10
25.57887345848382
 20
13.49951431676629
 30
0.0
 11
27.6926977198596
 21
15.61333857814202
 31
0.0
  0
LINE
  5
6621
330
64C6
100
AcDbEntity
  8
0
 62
     0
100
AcDbLine
 10
29.8422121683372
 20
17.7628530266196
 30
0.0
 11
32.64221216833727
 21
20.56285302661967
 31
0.0
  0
LINE
  5
6622
330
64C6
100
AcDbEntity
  8
0
 62
     0
100
AcDbLine
 10
21.31388398390527
 20
9.234524842187681
 30
0.0
 11
23.54221216833718
 21
11.46285302661965
 31
0.0
  0
LINE
  5
6623
330
64C6
100
AcDbEntity
  8
0
 62
     0
100
AcDbLine
 10
24.96472688906362
 20
13.78339335945287
 30
0.0
 11
27.40881867717297
 21
16.22748514756227
 31
0.0
  0
LINE
  5
6624
330
64C6
100
AcDbEntity
  8
0
 62
     0
100
AcDbLine
 10
29.8422121683372
 20
18.6608786387265
 30
0.0
 11
32.64221216833727
 21
21.46087863872657
 31
0.0
  0
LINE
  5
6625
330
64C6
100
AcDbEntity
  8
0
 62
     0
100
AcDbLine
 10
21.02256647398053
 20
9.841232944369835
 30
0.0
 11
23.54221216833718
 21
12.36087863872649
 31
0.0
  0
LINE
  5
6626
330
64C6
100
AcDbEntity
  8
0
 62
     0
100
AcDbLine
 10
24.5267669620739
 20
14.24345904457015
 30
0.0
 11
26.94875299205574
 21
16.66544507455194
 31
0.0
  0
LINE
  5
6627
330
64C6
100
AcDbEntity
  8
0
 62
     0
100
AcDbLine
 10
29.8422121683372
 20
19.55890425083345
 30
0.0
 11
32.64221216833727
 21
22.35890425083346
 31
0.0
  0
LINE
  5
6628
330
64C6
100
AcDbEntity
  8
0
 62
     0
100
AcDbLine
 10
20.82142910980587
 20
10.53812119230212
 30
0.0
 11
23.54221216833718
 21
13.25890425083343
 31
0.0
  0
LINE
  5
6629
330
64C6
100
AcDbEntity
  8
0
 62
     0
100
AcDbLine
 10
24.27071622966554
 20
14.88543392426868
 30
0.0
 11
26.30677811235716
 21
16.92149580696036
 31
0.0
  0
LINE
  5
662A
330
64C6
100
AcDbEntity
  8
0
 62
     0
100
AcDbLine
 10
20.74221216833711
 20
11.35692986294031
 30
0.0
 11
23.54221216833718
 21
14.15692986294033
 31
0.0
  0
LINE
  5
662B
330
64C6
100
AcDbEntity
  8
0
 62
     0
100
AcDbLine
 10
29.8422121683372
 20
20.45692986294034
 30
0.0
 11
32.48496205998208
 21
23.09967975458528
 31
0.0
  0
LINE
  5
662C
330
64C6
100
AcDbEntity
  8
0
 62
     0
100
AcDbLine
 10
16.65621541046152
 20
7.270933105064727
 30
0.0
 11
18.52127893156125
 21
9.135996626164455
 31
0.0
  0
LINE
  5
662D
330
64C6
100
AcDbEntity
  8
0
 62
     0
100
AcDbLine
 10
24.38912931314632
 20
15.90187261985636
 30
0.0
 11
25.29033941676954
 21
16.80308272347957
 31
0.0
  0
LINE
  5
662E
330
64C6
100
AcDbEntity
  8
0
 62
     0
100
AcDbLine
 10
20.74221216833711
 20
12.25495547504715
 30
0.0
 11
23.54221216833729
 21
15.05495547504728
 31
0.0
  0
LINE
  5
662F
330
64C6
100
AcDbEntity
  8
0
 62
     0
100
AcDbLine
 10
29.8422121683372
 20
21.35495547504723
 30
0.0
 11
31.73725656157859
 21
23.24999986828862
 31
0.0
  0
LINE
  5
6630
330
64C6
100
AcDbEntity
  8
0
 62
     0
100
AcDbLine
 10
15.63725656157856
 20
7.149999868288603
 30
0.0
 11
18.64221216833732
 21
10.1549554750473
 31
0.0
  0
LINE
  5
6631
330
64C6
100
AcDbEntity
  8
0
 62
     0
100
AcDbLine
 10
20.74221216833711
 20
13.1529810871541
 30
0.0
 11
23.54221216833724
 21
15.95298108715422
 31
0.0
  0
LINE
  5
6632
330
64C6
100
AcDbEntity
  8
0
 62
     0
100
AcDbLine
 10
29.8422121683372
 20
22.25298108715412
 30
0.0
 11
30.8392309494717
 21
23.24999986828868
 31
0.0
  0
LINE
  5
6633
330
64C6
100
AcDbEntity
  8
0
 62
     0
100
AcDbLine
 10
14.73923094947156
 20
7.149999868288546
 30
0.0
 11
18.64221216833726
 21
11.05298108715425
 31
0.0
  0
LINE
  5
6634
330
64C6
100
AcDbEntity
  8
0
 62
     0
100
AcDbLine
 10
20.74221216833711
 20
14.05100669926099
 30
0.0
 11
23.54221216833724
 21
16.85100669926117
 31
0.0
  0
LINE
  5
6635
330
64C6
100
AcDbEntity
  8
0
 62
     0
100
AcDbLine
 10
13.84120533736472
 20
7.149999868288659
 30
0.0
 11
18.63827281577601
 21
11.94706734669995
 31
0.0
  0
LINE
  5
6636
330
64C6
100
AcDbEntity
  8
0
 62
     0
100
AcDbLine
 10
20.74221216833711
 20
14.94903231136794
 30
0.0
 11
23.54221216833724
 21
17.74903231136806
 31
0.0
  0
LINE
  5
6637
330
64C6
100
AcDbEntity
  8
0
 62
     0
100
AcDbLine
 10
26.2431797252579
 20
20.44999986828873
 30
0.0
 11
27.39221216833732
 21
21.59903231136814
 31
0.0
  0
LINE
  5
6638
330
64C6
100
AcDbEntity
  8
0
 62
     0
100
AcDbLine
 10
12.94317972525777
 20
7.149999868288603
 30
0.0
 11
18.52861097945469
 21
12.73543112248552
 31
0.0
  0
LINE
  5
6639
330
64C6
100
AcDbEntity
  8
0
 62
     0
100
AcDbLine
 10
20.74221216833711
 20
15.84705792347483
 30
0.0
 11
23.54221216833724
 21
18.64705792347496
 31
0.0
  0
LINE
  5
663A
330
64C6
100
AcDbEntity
  8
0
 62
     0
100
AcDbLine
 10
15.8422121683372
 20
10.94705792347491
 30
0.0
 11
18.30627223541057
 21
13.41111799054829
 31
0.0
  0
LINE
  5
663B
330
64C6
100
AcDbEntity
  8
0
 62
     0
100
AcDbLine
 10
25.34515411315089
 20
20.44999986828861
 30
0.0
 11
27.39221216833732
 21
22.49705792347498
 31
0.0
  0
LINE
  5
663C
330
64C6
100
AcDbEntity
  8
0
 62
     0
100
AcDbLine
 10
12.10287998841084
 20
7.207725743548564
 30
0.0
 11
14.84515411315089
 21
9.949999868288614
 31
0.0
  0
LINE
  5
663D
330
64C6
100
AcDbEntity
  8
0
 62
     0
100
AcDbLine
 10
20.74221216833706
 20
16.74508353558172
 30
0.0
 11
23.70802687411685
 21
19.71089824136152
 31
0.0
  0
LINE
  5
663E
330
64C6
100
AcDbEntity
  8
0
 62
     0
100
AcDbLine
 10
15.84005307672794
 20
11.84292444397254
 30
0.0
 11
17.99784070073854
 21
14.00071206798321
 31
0.0
  0
LINE
  5
663F
330
64C6
100
AcDbEntity
  8
0
 62
     0
100
AcDbLine
 10
24.28131379526439
 20
20.28418516250906
 30
0.0
 11
27.1587447534174
 21
23.16161612066201
 31
0.0
  0
LINE
  5
6640
330
64C6
100
AcDbEntity
  8
0
 62
     0
100
AcDbLine
 10
11.81721216833722
 20
7.820083535581829
 30
0.0
 11
13.947128501044
 21
9.949999868288614
 31
0.0
  0
LINE
  5
6641
330
64C6
100
AcDbEntity
  8
0
 62
     0
100
AcDbLine
 10
15.62045005722723
 20
12.52134703657884
 30
0.0
 11
17.61559873589965
 21
14.51649571525126
 31
0.0
  0
LINE
  5
6642
330
64C6
100
AcDbEntity
  8
0
 62
     0
100
AcDbLine
 10
20.74221216833706
 20
17.64310914768867
 30
0.0
 11
26.34910288893701
 21
23.24999986828862
 31
0.0
  0
LINE
  5
6643
330
64C6
100
AcDbEntity
  8
0
 62
     0
100
AcDbLine
 10
11.81721216833716
 20
8.718109147688778
 30
0.0
 11
13.04910288893705
 21
9.949999868288671
 31
0.0
  0
LINE
  5
6644
330
64C6
100
AcDbEntity
  8
0
 62
     0
100
AcDbLine
 10
15.19419522892252
 20
12.99311782038097
 30
0.0
 11
17.17409421624489
 21
14.97301680770334
 31
0.0
  0
LINE
  5
6645
330
64C6
100
AcDbEntity
  8
0
 62
     0
100
AcDbLine
 10
20.74221216833711
 20
18.54113475979551
 30
0.0
 11
25.45107727683006
 21
23.24999986828851
 31
0.0
  0
LINE
  5
6646
330
64C6
100
AcDbEntity
  8
0
 62
     0
100
AcDbLine
 10
11.88616409035694
 20
9.685086681815391
 30
0.0
 11
12.08212535481055
 21
9.881047946269006
 31
0.0
  0
LINE
  5
6647
330
64C6
100
AcDbEntity
  8
0
 62
     0
100
AcDbLine
 10
20.7621872824937
 20
19.45913548605903
 30
0.0
 11
24.5330765505667
 21
23.2300247541321
 31
0.0
  0
LINE
  5
6648
330
64C6
100
AcDbEntity
  8
0
 62
     0
100
AcDbLine
 10
14.74518242286904
 20
13.44213062643444
 30
0.0
 11
16.72508141019142
 21
15.42202961375681
 31
0.0
  0
LINE
  5
6649
330
64C6
100
AcDbEntity
  8
0
 62
     0
100
AcDbLine
 10
21.06165071475948
 20
20.65662453043182
 30
0.0
 11
23.33558750619397
 21
22.93056132186632
 31
0.0
  0
LINE
  5
664A
330
64C6
100
AcDbEntity
  8
0
 62
     0
100
AcDbLine
 10
14.29616961681557
 20
13.89114343248792
 30
0.0
 11
16.27606860413794
 21
15.87104241981029
 31
0.0
  0
LINE
  5
664B
330
64C6
100
AcDbEntity
  8
0
 62
     0
100
AcDbLine
 10
13.84715681076215
 20
14.34015623854134
 30
0.0
 11
15.82705579808447
 21
16.32005522586359
 31
0.0
  0
LINE
  5
664C
330
64C6
100
AcDbEntity
  8
0
 62
     0
100
AcDbLine
 10
13.39814400470868
 20
14.78916904459481
 30
0.0
 11
15.378042992031
 21
16.76906803191707
 31
0.0
  0
LINE
  5
664D
330
64C6
100
AcDbEntity
  8
0
 62
     0
100
AcDbLine
 10
12.94913119865521
 20
15.23818185064828
 30
0.0
 11
14.92903018597752
 21
17.21808083797054
 31
0.0
  0
LINE
  5
664E
330
64C6
100
AcDbEntity
  8
0
 62
     0
100
AcDbLine
 10
17.26292360418864
 20
20.44999986828861
 30
0.0
 11
18.11721216833712
 21
21.30428843243714
 31
0.0
  0
LINE
  5
664F
330
64C6
100
AcDbEntity
  8
0
 62
     0
100
AcDbLine
 10
12.50020170662986
 20
15.68727797072989
 30
0.0
 11
14.48026735006232
 21
17.66734361416235
 31
0.0
  0
LINE
  5
6650
330
64C6
100
AcDbEntity
  8
0
 62
     0
100
AcDbLine
 10
16.36489799208175
 20
20.44999986828861
 30
0.0
 11
18.11721216833717
 21
22.20231404454403
 31
0.0
  0
LINE
  5
6651
330
64C6
100
AcDbEntity
  8
0
 62
     0
100
AcDbLine
 10
12.08873378207829
 20
16.1738356582851
 30
0.0
 11
14.15037046877438
 21
18.23547234498124
 31
0.0
  0
LINE
  5
6652
330
64C6
100
AcDbEntity
  8
0
 62
     0
100
AcDbLine
 10
15.4668723799748
 20
20.44999986828861
 30
0.0
 11
18.03065326857603
 21
23.01378075688984
 31
0.0
  0
LINE
  5
6653
330
64C6
100
AcDbEntity
  8
0
 62
     0
100
AcDbLine
 10
11.74827317581582
 20
16.73140066412958
 30
0.0
 11
14.09221216833725
 21
19.07533965665101
 31
0.0
  0
LINE
  5
6654
330
64C6
100
AcDbEntity
  8
0
 62
     0
100
AcDbLine
 10
14.56638011869779
 20
20.44753321911849
 30
0.0
 11
17.36884676786786
 21
23.24999986828862
 31
0.0
  0
LINE
  5
6655
330
64C6
100
AcDbEntity
  8
0
 62
     0
100
AcDbLine
 10
11.48757988008372
 20
17.36873298050443
 30
0.0
 11
14.09467881750731
 21
19.97583191792807
 31
0.0
  0
LINE
  5
6656
330
64C6
100
AcDbEntity
  8
0
 62
     0
100
AcDbLine
 10
11.32576791783566
 20
18.10494663036325
 30
0.0
 11
16.47082115576103
 21
23.24999986828856
 31
0.0
  0
LINE
  5
6657
330
64C6
100
AcDbEntity
  8
0
 62
     0
100
AcDbLine
 10
11.29221216833724
 20
18.96941649297178
 30
0.0
 11
15.57279554365408
 21
23.24999986828862
 31
0.0
  0
LINE
  5
6658
330
64C6
100
AcDbEntity
  8
0
 62
     0
100
AcDbLine
 10
11.29221216833724
 20
19.86744210507868
 30
0.0
 11
14.67476993154713
 21
23.24999986828862
 31
0.0
  0
LINE
  5
6659
330
64C6
100
AcDbEntity
  8
0
 62
     0
100
AcDbLine
 10
11.31240417877546
 20
20.78565972762385
 30
0.0
 11
13.75655230900207
 21
23.22980785785046
 31
0.0
  0
ENDBLK
  5
665B
330
64C6
100
AcDbEntity
  8
0
100
AcDbBlockEnd
  0
ENDSEC
  0
SECTION
  2
ENTITIES
  0
LINE
  5
3EF3
330
1A
100
AcDbEntity
  8
ZUWAKU
100
AcDbLine
 10
208.646601303624
 20
15.19999986828872
 30
0.0
 11
447.4243639845474
 21
15.19999986828871
 31
0.0
  0
LINE
  5
3EF4
330
1A
100
AcDbEntity
  8
ZUWAKU
100
AcDbLine
 10
208.646601303624
 20
15.59999986828871
 30
0.0
 11
447.4243639845474
 21
15.59999986828872
 31
0.0
  0
LINE
  5
3EF5
330
1A
100
AcDbEntity
  8
ZUWAKU
100
AcDbLine
 10
208.646601303624
 20
15.39999986828871
 30
0.0
 11
447.4243639845474
 21
15.39999986828871
 31
0.0
  0
LINE
  5
3EF6
330
1A
100
AcDbEntity
  8
ZUWAKU
100
AcDbLine
 10
0.0000000135560185
 20
30.79999986828869
 30
0.0
 11
797.4000000135559
 21
30.79999986828869
 31
0.0
  0
LINE
  5
3EF7
330
1A
100
AcDbEntity
  8
ZUWAKU
100
AcDbLine
 10
0.0000000135560185
 20
30.59999986828869
 30
0.0
 11
797.4000000135559
 21
30.59999986828869
 31
0.0
  0
LINE
  5
3EF8
330
1A
100
AcDbEntity
  8
ZUWAKU
100
AcDbLine
 10
0.0000000135560185
 20
30.39999986828869
 30
0.0
 11
797.4000000135559
 21
30.39999986828869
 31
0.0
  0
LINE
  5
3EF9
330
1A
100
AcDbEntity
  8
ZUWAKU
100
AcDbLine
 10
0.0000000135560185
 20
30.19999986828868
 30
0.0
 11
797.4000000135559
 21
30.19999986828868
 31
0.0
  0
LINE
  5
3EFA
330
1A
100
AcDbEntity
  8
ZUWAKU
100
AcDbLine
 10
0.0000000135560185
 20
29.99999986828868
 30
0.0
 11
797.4000000135559
 21
29.99999986828868
 31
0.0
  0
POLYLINE
  5
3EFB
330
1A
100
AcDbEntity
  8
ZUWAKU
100
AcDb2dPolyline
 66
     1
 10
0.0
 20
0.0
 30
0.0
 70
     1
  0
VERTEX
  5
64AD
330
3EFB
100
AcDbEntity
  8
ZUWAKU
100
AcDbVertex
100
AcDb2dVertex
 10
0.2000000135559503
 20
551.3999998682887
 30
0.0
  0
VERTEX
  5
64AE
330
3EFB
100
AcDbEntity
  8
ZUWAKU
100
AcDbVertex
100
AcDb2dVertex
 10
0.2000000135559503
 20
0.1999998682887281
 30
0.0
  0
VERTEX
  5
64AF
330
3EFB
100
AcDbEntity
  8
ZUWAKU
100
AcDbVertex
100
AcDb2dVertex
 10
797.4000000135559
 20
0.1999998682887511
 30
0.0
  0
VERTEX
  5
64B0
330
3EFB
100
AcDbEntity
  8
ZUWAKU
100
AcDbVertex
100
AcDb2dVertex
 10
797.4000000135561
 20
551.3999998682887
 30
0.0
  0
SEQEND
  5
64B1
330
3EFB
100
AcDbEntity
  8
ZUWAKU
  0
POLYLINE
  5
3EFC
330
1A
100
AcDbEntity
  8
ZUWAKU
100
AcDb2dPolyline
 66
     1
 10
0.0
 20
0.0
 30
0.0
 70
     1
  0
VERTEX
  5
64B2
330
3EFC
100
AcDbEntity
  8
ZUWAKU
100
AcDbVertex
100
AcDb2dVertex
 10
0.6000000135559276
 20
550.9999998682888
 30
0.0
  0
VERTEX
  5
64B3
330
3EFC
100
AcDbEntity
  8
ZUWAKU
100
AcDbVertex
100
AcDb2dVertex
 10
0.6000000135559276
 20
0.5999998682887054
 30
0.0
  0
VERTEX
  5
64B4
330
3EFC
100
AcDbEntity
  8
ZUWAKU
100
AcDbVertex
100
AcDb2dVertex
 10
797.0000000135562
 20
0.5999998682887516
 30
0.0
  0
VERTEX
  5
64B5
330
3EFC
100
AcDbEntity
  8
ZUWAKU
100
AcDbVertex
100
AcDb2dVertex
 10
797.000000013556
 20
550.9999998682888
 30
0.0
  0
SEQEND
  5
64B6
330
3EFC
100
AcDbEntity
  8
ZUWAKU
  0
POLYLINE
  5
3EFD
330
1A
100
AcDbEntity
  8
ZUWAKU
100
AcDb2dPolyline
 66
     1
 10
0.0
 20
0.0
 30
0.0
 70
     1
  0
VERTEX
  5
64B7
330
3EFD
100
AcDbEntity
  8
ZUWAKU
100
AcDbVertex
100
AcDb2dVertex
 10
0.0000000135560185
 20
551.5999998682887
 30
0.0
  0
VERTEX
  5
64B8
330
3EFD
100
AcDbEntity
  8
ZUWAKU
100
AcDbVertex
100
AcDb2dVertex
 10
0.0000000135560185
 20
-0.0000001317113174
 30
0.0
  0
VERTEX
  5
64B9
330
3EFD
100
AcDbEntity
  8
ZUWAKU
100
AcDbVertex
100
AcDb2dVertex
 10
797.6000000135561
 20
-0.0000001317112499
 30
0.0
  0
VERTEX
  5
64BA
330
3EFD
100
AcDbEntity
  8
ZUWAKU
100
AcDbVertex
100
AcDb2dVertex
 10
797.6000000135561
 20
551.5999998682888
 30
0.0
  0
SEQEND
  5
64BB
330
3EFD
100
AcDbEntity
  8
ZUWAKU
  0
POLYLINE
  5
3EFE
330
1A
100
AcDbEntity
  8
ZUWAKU
100
AcDb2dPolyline
 66
     1
 10
0.0
 20
0.0
 30
0.0
 70
     1
  0
VERTEX
  5
64BC
330
3EFE
100
AcDbEntity
  8
ZUWAKU
100
AcDbVertex
100
AcDb2dVertex
 10
0.4000000135559958
 20
551.1999998682887
 30
0.0
  0
VERTEX
  5
64BD
330
3EFE
100
AcDbEntity
  8
ZUWAKU
100
AcDbVertex
100
AcDb2dVertex
 10
0.4000000135559958
 20
0.3999998682887735
 30
0.0
  0
VERTEX
  5
64BE
330
3EFE
100
AcDbEntity
  8
ZUWAKU
100
AcDbVertex
100
AcDb2dVertex
 10
797.200000013556
 20
0.3999998682887504
 30
0.0
  0
VERTEX
  5
64BF
330
3EFE
100
AcDbEntity
  8
ZUWAKU
100
AcDbVertex
100
AcDb2dVertex
 10
797.200000013556
 20
551.1999998682887
 30
0.0
  0
SEQEND
  5
64C0
330
3EFE
100
AcDbEntity
  8
ZUWAKU
  0
POLYLINE
  5
3EFF
330
1A
100
AcDbEntity
  8
ZUWAKU
100
AcDb2dPolyline
 66
     1
 10
0.0
 20
0.0
 30
0.0
 70
     1
  0
VERTEX
  5
64C1
330
3EFF
100
AcDbEntity
  8
ZUWAKU
100
AcDbVertex
100
AcDb2dVertex
 10
0.800000013555973
 20
550.7999998682887
 30
0.0
  0
VERTEX
  5
64C2
330
3EFF
100
AcDbEntity
  8
ZUWAKU
100
AcDbVertex
100
AcDb2dVertex
 10
0.800000013555973
 20
0.7999998682887508
 30
0.0
  0
VERTEX
  5
64C3
330
3EFF
100
AcDbEntity
  8
ZUWAKU
100
AcDbVertex
100
AcDb2dVertex
 10
796.8000000135559
 20
0.7999998682887508
 30
0.0
  0
VERTEX
  5
64C4
330
3EFF
100
AcDbEntity
  8
ZUWAKU
100
AcDbVertex
100
AcDb2dVertex
 10
796.8000000135559
 20
550.7999998682887
 30
0.0
  0
SEQEND
  5
64C5
330
3EFF
100
AcDbEntity
  8
ZUWAKU
  0
TEXT
  5
3F00
330
1A
100
AcDbEntity
  8
MOJI
100
AcDbText
 10
92.95778960172516
 20
12.74117799856344
 30
0.0
 40
6.0
  1
アーバントップΣ９０ゴールド
 41
0.9
  7
ｽﾀｲﾙ1
100
AcDbText
  0
INSERT
  5
3F01
330
1A
100
AcDbEntity
  8
ZUWAKU
  6
CONTINUOUS
100
AcDbBlockReference
  2
*X24
 10
0.0
 20
0.0
 30
0.0
1001
ACAD
1000
HATCH
1002
{
1070
    19
1000
ANSI37
1040
0.2
1040
0.0
1000
R14_HATCH_DATA
1000
3F01
1011
1.0
1021
0.0
1031
0.0
1011
0.0
1021
1.0
1031
0.0
1011
0.0
1021
0.0
1031
1.0
1040
0.0
1010
0.0
1020
0.0
1030
1.0
1000
ANSI37
1070
     0
1070
     0
1071
        8
1071
        7
1070
     1
1070
     1
1071
       24
1040
14.50226267467587
1040
17.64484834927226
1040
-0.1989123673796348
1040
14.09221216833714
1040
18.63479784293331
1040
0.0
1040
14.09221216833714
1040
19.92499986828869
1040
-0.4142135623730912
1040
14.61721216833711
1040
20.44999986828868
1040
0.0
1040
17.59221216833702
1040
20.44999986828868
1040
0.4142135623731546
1040
18.11721216833712
1040
20.97499986828867
1040
0.0
1040
18.11721216833712
1040
22.72499986828869
1040
0.4142135623731586
1040
17.59221216833702
1040
23.24999986828868
1040
0.0
1040
14.09221216833714
1040
23.24999986828868
1040
0.4142135623730928
1040
11.29221216833718
1040
20.44999986828871
1040
0.0
1040
11.29221216833718
1040
18.63479784293344
1040
0.1989123673796619
1040
12.52236368735361
1040
15.66494936194983
1040
0.0
1040
15.43216166199829
1040
12.75515138730518
1040
-0.1989123673796613
1040
15.84221216833714
1040
11.76520189364399
1040
0.0
1040
15.84221216833714
1040
10.47499986828867
1040
-0.4142135623730911
1040
15.31721216833716
1040
9.949999868288685
1040
0.0
1040
12.34221216833725
1040
9.949999868288685
1040
0.4142135623731526
1040
11.81721216833716
1040
9.424999868288697
1040
0.0
1040
11.81721216833716
1040
7.674999868288676
1040
0.4142135623731526
1040
12.34221216833725
1040
7.149999868288688
1040
0.0
1040
15.84221216833714
1040
7.149999868288688
1040
0.4142135623731044
1040
18.64221216833721
1040
9.949999868288664
1040
0.0
1040
18.64221216833721
1040
11.76520189364393
1040
0.1989123673796604
1040
17.41206064932066
1040
14.73505037462747
1040
0.0
1071
        0
1071
        7
1070
     1
1070
     1
1071
       16
1040
23.54221216833718
1040
19.04999986828869
1040
-0.4142135623730935
1040
24.94221216833716
1040
20.44999986828868
1040
0.0
1040
26.86721216833712
1040
20.44999986828868
1040
0.4142135623731546
1040
27.39221216833721
1040
20.97499986828867
1040
0.0
1040
27.39221216833721
1040
22.72499986828869
1040
0.4142135623730951
1040
26.86721216833723
1040
23.24999986828868
1040
0.0
1040
24.94221216833705
1040
23.24999986828864
1040
0.4142135623730892
1040
20.74221216833711
1040
19.04999986828862
1040
0.0
1040
20.74221216833711
1040
11.34999986828871
1040
0.4142135623730969
1040
24.94221216833716
1040
7.149999868288688
1040
0.0
1040
26.86721216833712
1040
7.149999868288688
1040
0.4142135623731526
1040
27.39221216833721
1040
7.674999868288676
1040
0.0
1040
27.39221216833721
1040
9.424999868288697
1040
0.4142135623730891
1040
26.86721216833723
1040
9.949999868288685
1040
0.0
1040
24.94221216833716
1040
9.949999868288685
1040
-0.4142135623730928
1040
23.54221216833718
1040
11.34999986828867
1040
0.0
1071
        0
1071
        7
1070
     1
1070
     1
1071
        2
1040
24.24221216833712
1040
15.19999986828868
1040
1.0
1040
27.74221216833712
1040
15.19999986828868
1040
1.0
1071
        0
1071
        7
1070
     1
1070
     1
1071
       26
1040
37.31485865051513
1040
19.20504706185211
1040
0.0
1040
38.37649828365295
1040
22.5669059001217
1040
0.5069206636600134
1040
37.87586738445759
1040
23.24999986828868
1040
0.0
1040
36.17697800484836
1040
23.24999986828868
1040
0.3272098845218764
1040
35.676347105653
1040
22.88309383645565
1040
0.0
1040
33.80807723102122
1040
16.96690590012176
1040
-0.3272098845219541
1040
33.30744633182575
1040
16.59999986828868
1040
0.0
1040
33.1672121683373
1040
16.59999986828868
1040
-0.4142135623731526
1040
32.64221216833721
1040
17.12499986828867
1040
0.0
1040
32.64221216833721
1040
22.72499986828869
1040
0.4142135623730951
1040
32.11721216833723
1040
23.24999986828868
1040
0.0
1040
30.36721216833711
1040
23.24999986828868
1040
0.4142135623730871
1040
29.84221216833714
1040
22.7249998682887
1040
0.0
1040
29.84221216833714
1040
7.674999868288676
1040
0.4142135623730891
1040
30.36721216833711
1040
7.149999868288688
1040
0.0
1040
32.11721216833712
1040
7.149999868288688
1040
0.4142135623731526
1040
32.64221216833721
1040
7.674999868288676
1040
0.0
1040
32.64221216833721
1040
13.27499986828869
1040
-0.4142135623731526
1040
33.1672121683373
1040
13.79999986828868
1040
0.0
1040
33.30744633182587
1040
13.79999986828868
1040
-0.3272098845218915
1040
33.80807723102122
1040
13.43309383645561
1040
0.0
1040
35.676347105653
1040
7.516905900121759
1040
0.3272098845218902
1040
36.17697800484836
1040
7.149999868288688
1040
0.0
1040
37.87586738445759
1040
7.149999868288688
1040
0.5069206636600335
1040
38.37649828365295
1040
7.833093836455695
1040
0.0
1040
36.05010690517929
1040
15.19999986828882
1040
0.0
1071
        0
1071
        7
1070
     1
1070
     1
1071
        8
1040
43.49221216833711
1040
22.7249998682887
1040
0.4142135623731546
1040
42.96721216833702
1040
23.24999986828868
1040
0.0
1040
41.21721216833726
1040
23.24999986828868
1040
0.4142135623731507
1040
40.69221216833716
1040
22.7249998682887
1040
0.0
1040
40.69221216833716
1040
7.674999868288676
1040
0.4142135623731526
1040
41.21721216833726
1040
7.149999868288688
1040
0.0
1040
42.96721216833702
1040
7.149999868288688
1040
0.4142135623731526
1040
43.49221216833711
1040
7.674999868288676
1040
0.0
1071
        0
1071
        7
1070
     1
1070
     1
1071
       24
1040
48.3922121683372
1040
19.92499986828869
1040
-0.4142135623731546
1040
48.9172121683373
1040
20.44999986828868
1040
0.0
1040
51.89221216833721
1040
20.44999986828868
1040
0.4142135623730911
1040
52.41721216833719
1040
20.97499986828867
1040
0.0
1040
52.41721216833719
1040
22.72499986828869
1040
0.4142135623730952
1040
51.89221216833721
1040
23.24999986828868
1040
0.0
1040
48.3922121683372
1040
23.24999986828868
1040
0.4142135623731048
1040
45.59221216833714
1040
20.44999986828871
1040
0.0
1040
45.59221216833714
1040
18.63479784293344
1040
0.1989123673796613
1040
46.82236368735368
1040
15.66494936194989
1040
0.0
1040
49.73216166199836
1040
12.75515138730522
1040
-0.1989123673796402
1040
50.14221216833721
1040
11.76520189364415
1040
0.0
1040
50.14221216833721
1040
10.47499986828867
1040
-0.4142135623730911
1040
49.61721216833723
1040
9.949999868288685
1040
0.0
1040
46.64221216833721
1040
9.949999868288685
1040
0.4142135623731526
1040
46.11721216833712
1040
9.424999868288697
1040
0.0
1040
46.11721216833712
1040
7.674999868288676
1040
0.4142135623730891
1040
46.64221216833709
1040
7.149999868288688
1040
0.0
1040
50.14221216833721
1040
7.149999868288688
1040
0.4142135623730925
1040
52.94221216833716
1040
9.949999868288664
1040
0.0
1040
52.94221216833716
1040
11.76520189364393
1040
0.1989123673796675
1040
51.71206064932062
1040
14.73505037462759
1040
0.0
1040
48.80226267467605
1040
17.6448483492721
1040
-0.1989123673796652
1040
48.3922121683372
1040
18.63479784293327
1040
0.0
1071
        0
1071
        7
1070
     1
1070
     1
1071
       16
1040
57.84221216833714
1040
22.72499986828867
1040
0.414213562373103
1040
57.31721216833716
1040
23.24999986828868
1040
0.0
1040
55.56721216833716
1040
23.24999986828868
1040
0.4142135623730871
1040
55.04221216833719
1040
22.7249998682887
1040
0.0
1040
55.04221216833719
1040
9.949999868288664
1040
0.4142135623730926
1040
57.84221216833714
1040
7.149999868288688
1040
0.0
1040
61.34221216833714
1040
7.149999868288688
1040
0.4142135623731044
1040
64.14221216833721
1040
9.949999868288664
1040
0.0
1040
64.14221216833721
1040
22.72499986828869
1040
0.4142135623730951
1040
63.61721216833723
1040
23.24999986828868
1040
0.0
1040
61.86721216833712
1040
23.24999986828868
1040
0.4142135623730871
1040
61.34221216833714
1040
22.7249998682887
1040
0.0
1040
61.34221216833714
1040
10.99999986828866
1040
-0.414213562373088
1040
60.29221216833718
1040
9.949999868288685
1040
0.0
1040
58.89221216833721
1040
9.949999868288685
1040
-0.4142135623731197
1040
57.84221216833714
1040
10.99999986828866
1040
0.0
1071
        0
1071
        7
1070
     1
1070
     1
1071
        8
1040
69.04221216833718
1040
22.7249998682887
1040
0.4142135623730871
1040
68.51721216833721
1040
23.24999986828868
1040
0.0
1040
66.76721216833721
1040
23.24999986828868
1040
0.4142135623731507
1040
66.24221216833712
1040
22.7249998682887
1040
0.0
1040
66.24221216833712
1040
7.674999868288676
1040
0.4142135623730891
1040
66.76721216833709
1040
7.149999868288688
1040
0.0
1040
68.51721216833721
1040
7.149999868288688
1040
0.4142135623730891
1040
69.04221216833718
1040
7.674999868288676
1040
0.0
1071
        0
1070
     0
1070
     1
1040
0.0
1040
0.2
1070
     0
1070
     2
1040
0.7853981633974483
1040
-900.942304321123
1040
-13.20000013171124
1040
-0.4490128060534576
1040
0.4490128060534577
1070
     0
1040
2.356194490192344
1040
-900.942304321123
1040
-13.20000013171124
1040
-0.4490128060534577
1040
-0.4490128060534576
1070
     0
1040
0.057451373970553
1071
        8
1040
16.07985497657932
1040
15.16717351417423
1040
0.0
1040
22.40451501999519
1040
18.84406205073969
1040
0.0
1040
25.16436789921567
1040
15.5118815143594
1040
0.0
1040
30.91405999519315
1040
16.20129751473018
1040
0.0
1040
41.83847203251275
1040
16.6609097822718
1040
0.0
1040
46.89820090868557
1040
19.41857618469589
1040
0.0
1040
56.55768598595637
1040
18.72915778338369
1040
0.0
1040
67.82707963317875
1040
19.18877005092531
1040
0.0
1002
}
  0
LINE
  5
3F02
330
1A
100
AcDbEntity
  8
ZUWAKU
100
AcDbLine
 10
24.94221216833716
 20
23.24999986828864
 30
0.0
 11
26.86721216833712
 21
23.24999986828868
 31
0.0
  0
LINE
  5
3F03
330
1A
100
AcDbEntity
  8
ZUWAKU
100
AcDbLine
 10
26.86721216833712
 20
20.44999986828868
 30
0.0
 11
24.94221216833716
 21
20.44999986828868
 31
0.0
  0
LINE
  5
3F04
330
1A
100
AcDbEntity
  8
ZUWAKU
100
AcDbLine
 10
24.94221216833716
 20
9.949999868288685
 30
0.0
 11
26.86721216833712
 21
9.949999868288685
 31
0.0
  0
LINE
  5
3F05
330
1A
100
AcDbEntity
  8
ZUWAKU
100
AcDbLine
 10
26.86721216833712
 20
7.149999868288688
 30
0.0
 11
24.94221216833716
 21
7.149999868288688
 31
0.0
  0
CIRCLE
  5
3F06
330
1A
100
AcDbEntity
  8
ZUWAKU
100
AcDbCircle
 10
25.99221216833711
 20
15.19999986828868
 30
0.0
 40
1.75
  0
ARC
  5
3F07
330
1A
100
AcDbEntity
  8
ZUWAKU
100
AcDbCircle
 10
15.49221216833712
 20
18.63479784293338
 30
0.0
 40
1.399999999999999
100
AcDbArc
 50
180.0000000000016
 51
224.9999999999988
  0
LINE
  5
3F08
330
1A
100
AcDbEntity
  8
ZUWAKU
100
AcDbLine
 10
23.54221216833718
 20
19.04999986828868
 30
0.0
 11
23.54221216833718
 21
11.34999986828869
 31
0.0
  0
LINE
  5
3F09
330
1A
100
AcDbEntity
  8
ZUWAKU
100
AcDbLine
 10
20.74221216833711
 20
11.34999986828869
 30
0.0
 11
20.74221216833711
 21
19.04999986828864
 31
0.0
  0
ARC
  5
3F0A
330
1A
100
AcDbEntity
  8
ZUWAKU
100
AcDbCircle
 10
15.49221216833712
 20
18.63479784293338
 30
0.0
 40
4.199999999999999
100
AcDbArc
 50
180.0
 51
225.0
  0
ARC
  5
3F0B
330
1A
100
AcDbEntity
  8
ZUWAKU
100
AcDbCircle
 10
15.84221216833714
 20
9.949999868288685
 30
0.0
 40
2.799999999999999
100
AcDbArc
 50
270.0
 51
0.0
  0
ARC
  5
3F0C
330
1A
100
AcDbEntity
  8
ZUWAKU
100
AcDbCircle
 10
24.94221216833716
 20
11.34999986828869
 30
0.0
 40
4.199999999999999
100
AcDbArc
 50
180.0
 51
270.0
  0
ARC
  5
3F0D
330
1A
100
AcDbEntity
  8
ZUWAKU
100
AcDbCircle
 10
14.44221216833716
 20
11.76520189364399
 30
0.0
 40
4.199999999999999
100
AcDbArc
 50
0.0
 51
45.0
  0
LINE
  5
3F0E
330
1A
100
AcDbEntity
  8
ZUWAKU
100
AcDbLine
 10
17.41206064932066
 20
14.73505037462751
 30
0.0
 11
14.50226267467598
 21
17.64484834927218
 31
0.0
  0
LINE
  5
3F0F
330
1A
100
AcDbEntity
  8
ZUWAKU
100
AcDbLine
 10
15.84221216833714
 20
10.47499986828869
 30
0.0
 11
15.84221216833714
 21
11.76520189364403
 31
0.0
  0
ARC
  5
3F10
330
1A
100
AcDbEntity
  8
ZUWAKU
100
AcDbCircle
 10
15.31721216833716
 20
10.47499986828869
 30
0.0
 40
0.525
100
AcDbArc
 50
270.0
 51
0.0
  0
ARC
  5
3F11
330
1A
100
AcDbEntity
  8
ZUWAKU
100
AcDbCircle
 10
14.44221216833716
 20
11.76520189364403
 30
0.0
 40
1.399999999999999
100
AcDbArc
 50
0.0
 51
45.0
  0
LINE
  5
3F12
330
1A
100
AcDbEntity
  8
ZUWAKU
100
AcDbLine
 10
11.81721216833716
 20
7.674999868288686
 30
0.0
 11
11.81721216833716
 21
9.424999868288686
 31
0.0
  0
ARC
  5
3F13
330
1A
100
AcDbEntity
  8
ZUWAKU
100
AcDbCircle
 10
12.34221216833714
 20
7.674999868288686
 30
0.0
 40
0.525
100
AcDbArc
 50
180.0
 51
270.0
  0
ARC
  5
3F14
330
1A
100
AcDbEntity
  8
ZUWAKU
100
AcDbCircle
 10
12.34221216833714
 20
9.424999868288686
 30
0.0
 40
0.525
100
AcDbArc
 50
90.0
 51
180.0
  0
LINE
  5
3F15
330
1A
100
AcDbEntity
  8
ZUWAKU
100
AcDbLine
 10
12.34221216833714
 20
7.149999868288688
 30
0.0
 11
15.84221216833714
 21
7.149999868288688
 31
0.0
  0
LINE
  5
3F16
330
1A
100
AcDbEntity
  8
ZUWAKU
100
AcDbLine
 10
12.34221216833714
 20
9.949999868288685
 30
0.0
 11
15.31721216833716
 21
9.949999868288685
 31
0.0
  0
LINE
  5
3F17
330
1A
100
AcDbEntity
  8
ZUWAKU
100
AcDbLine
 10
12.52236368735361
 20
15.66494936194986
 30
0.0
 11
15.43216166199829
 21
12.7551513873052
 31
0.0
  0
LINE
  5
3F18
330
1A
100
AcDbEntity
  8
ZUWAKU
100
AcDbLine
 10
18.64221216833721
 20
9.949999868288685
 30
0.0
 11
18.64221216833721
 21
11.76520189364403
 31
0.0
  0
ARC
  5
3F19
330
1A
100
AcDbEntity
  8
ZUWAKU
100
AcDbCircle
 10
24.94221216833716
 20
11.34999986828869
 30
0.0
 40
1.399999999999999
100
AcDbArc
 50
180.0
 51
270.0
  0
ARC
  5
3F1A
330
1A
100
AcDbEntity
  8
ZUWAKU
100
AcDbCircle
 10
17.59221216833714
 20
22.72499986828868
 30
0.0
 40
0.525
100
AcDbArc
 50
0.0
 51
90.0
  0
ARC
  5
3F1B
330
1A
100
AcDbEntity
  8
ZUWAKU
100
AcDbCircle
 10
17.59221216833714
 20
20.97499986828868
 30
0.0
 40
0.525
100
AcDbArc
 50
270.0
 51
0.0
  0
LINE
  5
3F1C
330
1A
100
AcDbEntity
  8
ZUWAKU
100
AcDbLine
 10
14.09221216833714
 20
23.24999986828868
 30
0.0
 11
17.59221216833714
 21
23.24999986828868
 31
0.0
  0
ARC
  5
3F1D
330
1A
100
AcDbEntity
  8
ZUWAKU
100
AcDbCircle
 10
14.61721216833711
 20
19.92499986828868
 30
0.0
 40
0.525
100
AcDbArc
 50
90.0
 51
180.0
  0
LINE
  5
3F1E
330
1A
100
AcDbEntity
  8
ZUWAKU
100
AcDbLine
 10
14.09221216833714
 20
19.92499986828868
 30
0.0
 11
14.09221216833714
 21
18.63479784293334
 31
0.0
  0
LINE
  5
3F1F
330
1A
100
AcDbEntity
  8
ZUWAKU
100
AcDbLine
 10
17.59221216833714
 20
20.44999986828868
 30
0.0
 11
14.61721216833711
 21
20.44999986828868
 31
0.0
  0
LINE
  5
3F20
330
1A
100
AcDbEntity
  8
ZUWAKU
100
AcDbLine
 10
11.29221216833718
 20
20.44999986828868
 30
0.0
 11
11.29221216833718
 21
18.63479784293334
 31
0.0
  0
ARC
  5
3F21
330
1A
100
AcDbEntity
  8
ZUWAKU
100
AcDbCircle
 10
14.09221216833714
 20
20.44999986828868
 30
0.0
 40
2.799999999999999
100
AcDbArc
 50
90.0
 51
180.0
  0
LINE
  5
3F22
330
1A
100
AcDbEntity
  8
ZUWAKU
100
AcDbLine
 10
18.11721216833712
 20
22.72499986828868
 30
0.0
 11
18.11721216833712
 21
20.97499986828868
 31
0.0
  0
ARC
  5
3F23
330
1A
100
AcDbEntity
  8
ZUWAKU
100
AcDbCircle
 10
24.94221216833716
 20
19.04999986828868
 30
0.0
 40
1.399999999999999
100
AcDbArc
 50
90.0
 51
180.0
  0
ARC
  5
3F24
330
1A
100
AcDbEntity
  8
ZUWAKU
100
AcDbCircle
 10
24.94221216833716
 20
19.04999986828864
 30
0.0
 40
4.199999999999999
100
AcDbArc
 50
90.0
 51
180.0
  0
LINE
  5
3F25
330
1A
100
AcDbEntity
  8
ZUWAKU
100
AcDbLine
 10
79.32662956154422
 20
29.99999986828868
 30
0.0
 11
79.32662956154445
 21
0.7999998682887508
 31
0.0
  0
LINE
  5
3F26
330
1A
100
AcDbEntity
  8
ZUWAKU
100
AcDbLine
 10
79.52662956154426
 20
29.99999986828868
 30
0.0
 11
79.52662956154449
 21
0.7999998682887508
 31
0.0
  0
LINE
  5
3F27
330
1A
100
AcDbEntity
  8
ZUWAKU
100
AcDbLine
 10
79.12662956154441
 20
29.99999986828868
 30
0.0
 11
79.12662956154441
 21
0.7999998682887508
 31
0.0
  0
LINE
  5
3F28
330
1A
100
AcDbEntity
  8
ZUWAKU
100
AcDbLine
 10
64.14221216833721
 20
9.949999868288685
 30
0.0
 11
64.14221216833721
 21
22.72499986828868
 31
0.0
  0
LINE
  5
3F29
330
1A
100
AcDbEntity
  8
ZUWAKU
100
AcDbLine
 10
61.34221216833714
 20
22.72499986828868
 30
0.0
 11
61.34221216833714
 21
10.99999986828868
 31
0.0
  0
LINE
  5
3F2A
330
1A
100
AcDbEntity
  8
ZUWAKU
100
AcDbLine
 10
69.04221216833718
 20
7.674999868288686
 30
0.0
 11
69.04221216833718
 21
22.72499986828868
 31
0.0
  0
LINE
  5
3F2B
330
1A
100
AcDbEntity
  8
ZUWAKU
100
AcDbLine
 10
66.24221216833712
 20
22.72499986828868
 30
0.0
 11
66.24221216833712
 21
7.674999868288686
 31
0.0
  0
ARC
  5
3F2C
330
1A
100
AcDbEntity
  8
ZUWAKU
100
AcDbCircle
 10
49.79221216833718
 20
18.63479784293338
 30
0.0
 40
1.399999999999999
100
AcDbArc
 50
180.0000000000016
 51
224.9999999999988
  0
ARC
  5
3F2D
330
1A
100
AcDbEntity
  8
ZUWAKU
100
AcDbCircle
 10
49.79221216833718
 20
18.63479784293338
 30
0.0
 40
4.199999999999999
100
AcDbArc
 50
180.0
 51
225.0
  0
LINE
  5
3F2E
330
1A
100
AcDbEntity
  8
ZUWAKU
100
AcDbLine
 10
37.31485865051513
 20
19.20504706185211
 30
0.0
 11
36.05010690517929
 21
15.1999998682887
 31
0.0
  0
LINE
  5
3F2F
330
1A
100
AcDbEntity
  8
ZUWAKU
100
AcDbLine
 10
40.69221216833716
 20
22.72499986828868
 30
0.0
 11
40.69221216833716
 21
7.674999868288686
 31
0.0
  0
LINE
  5
3F30
330
1A
100
AcDbEntity
  8
ZUWAKU
100
AcDbLine
 10
43.49221216833711
 20
7.674999868288686
 30
0.0
 11
43.49221216833711
 21
22.72499986828868
 31
0.0
  0
LINE
  5
3F31
330
1A
100
AcDbEntity
  8
ZUWAKU
100
AcDbLine
 10
55.04221216833719
 20
22.72499986828868
 30
0.0
 11
55.04221216833719
 21
9.949999868288685
 31
0.0
  0
LINE
  5
3F32
330
1A
100
AcDbEntity
  8
ZUWAKU
100
AcDbLine
 10
57.84221216833714
 20
10.99999986828868
 30
0.0
 11
57.84221216833714
 21
22.72499986828868
 31
0.0
  0
LINE
  5
3F33
330
1A
100
AcDbEntity
  8
ZUWAKU
100
AcDbLine
 10
32.64221216833721
 20
17.12499986828869
 30
0.0
 11
32.64221216833721
 21
22.72499986828868
 31
0.0
  0
LINE
  5
3F34
330
1A
100
AcDbEntity
  8
ZUWAKU
100
AcDbLine
 10
29.84221216833714
 20
22.72499986828868
 30
0.0
 11
29.84221216833714
 21
7.674999868288686
 31
0.0
  0
LINE
  5
3F35
330
1A
100
AcDbEntity
  8
ZUWAKU
100
AcDbLine
 10
35.676347105653
 20
22.88309383645565
 30
0.0
 11
33.80807723102122
 21
16.96690590012171
 31
0.0
  0
LINE
  5
3F36
330
1A
100
AcDbEntity
  8
ZUWAKU
100
AcDbLine
 10
60.29221216833718
 20
9.949999868288685
 30
0.0
 11
58.89221216833721
 21
9.949999868288685
 31
0.0
  0
LINE
  5
3F37
330
1A
100
AcDbEntity
  8
ZUWAKU
100
AcDbLine
 10
57.84221216833714
 20
7.149999868288688
 30
0.0
 11
61.34221216833714
 21
7.149999868288688
 31
0.0
  0
LINE
  5
3F38
330
1A
100
AcDbEntity
  8
ZUWAKU
100
AcDbLine
 10
41.21721216833714
 20
7.149999868288688
 30
0.0
 11
42.96721216833714
 21
7.149999868288688
 31
0.0
  0
LINE
  5
3F39
330
1A
100
AcDbEntity
  8
ZUWAKU
100
AcDbLine
 10
35.676347105653
 20
7.516905900121713
 30
0.0
 11
33.80807723102122
 21
13.43309383645565
 31
0.0
  0
ARC
  5
3F3A
330
1A
100
AcDbEntity
  8
ZUWAKU
100
AcDbCircle
 10
33.30744633182587
 20
17.12499986828869
 30
0.0
 40
0.525
100
AcDbArc
 50
270.0
 51
342.4744316262769
  0
LINE
  5
3F3B
330
1A
100
AcDbEntity
  8
ZUWAKU
100
AcDbLine
 10
33.30744633182587
 20
16.59999986828868
 30
0.0
 11
33.16721216833718
 21
16.59999986828868
 31
0.0
  0
LINE
  5
3F3C
330
1A
100
AcDbEntity
  8
ZUWAKU
100
AcDbLine
 10
33.16721216833718
 20
13.79999986828868
 30
0.0
 11
33.30744633182587
 21
13.79999986828868
 31
0.0
  0
ARC
  5
3F3D
330
1A
100
AcDbEntity
  8
ZUWAKU
100
AcDbCircle
 10
33.16721216833718
 20
17.12499986828869
 30
0.0
 40
0.525
100
AcDbArc
 50
180.0
 51
270.0
  0
LINE
  5
3F3E
330
1A
100
AcDbEntity
  8
ZUWAKU
100
AcDbLine
 10
30.36721216833711
 20
7.149999868288688
 30
0.0
 11
32.11721216833712
 21
7.149999868288688
 31
0.0
  0
ARC
  5
3F3F
330
1A
100
AcDbEntity
  8
ZUWAKU
100
AcDbCircle
 10
32.11721216833712
 20
7.674999868288686
 30
0.0
 40
0.525
100
AcDbArc
 50
270.0
 51
0.0
  0
LINE
  5
3F40
330
1A
100
AcDbEntity
  8
ZUWAKU
100
AcDbLine
 10
32.64221216833721
 20
7.674999868288686
 30
0.0
 11
32.64221216833721
 21
13.27499986828868
 31
0.0
  0
LINE
  5
3F41
330
1A
100
AcDbEntity
  8
ZUWAKU
100
AcDbLine
 10
27.39221216833721
 20
9.424999868288686
 30
0.0
 11
27.39221216833721
 21
7.674999868288686
 31
0.0
  0
ARC
  5
3F42
330
1A
100
AcDbEntity
  8
ZUWAKU
100
AcDbCircle
 10
26.86721216833712
 20
7.674999868288686
 30
0.0
 40
0.525
100
AcDbArc
 50
270.0
 51
0.0
  0
ARC
  5
3F43
330
1A
100
AcDbEntity
  8
ZUWAKU
100
AcDbCircle
 10
26.86721216833712
 20
9.424999868288686
 30
0.0
 40
0.525
100
AcDbArc
 50
0.0
 51
90.0
  0
ARC
  5
3F44
330
1A
100
AcDbEntity
  8
ZUWAKU
100
AcDbCircle
 10
30.36721216833711
 20
7.674999868288686
 30
0.0
 40
0.525
100
AcDbArc
 50
180.0
 51
270.0
  0
ARC
  5
3F45
330
1A
100
AcDbEntity
  8
ZUWAKU
100
AcDbCircle
 10
33.30744633182587
 20
13.27499986828868
 30
0.0
 40
0.525
100
AcDbArc
 50
17.52556837372303
 51
90.0
  0
ARC
  5
3F46
330
1A
100
AcDbEntity
  8
ZUWAKU
100
AcDbCircle
 10
33.16721216833718
 20
13.27499986828868
 30
0.0
 40
0.525
100
AcDbArc
 50
90.0
 51
180.0
  0
ARC
  5
3F47
330
1A
100
AcDbEntity
  8
ZUWAKU
100
AcDbCircle
 10
41.21721216833714
 20
7.674999868288686
 30
0.0
 40
0.525
100
AcDbArc
 50
180.0
 51
270.0
  0
LINE
  5
3F48
330
1A
100
AcDbEntity
  8
ZUWAKU
100
AcDbLine
 10
36.17697800484847
 20
7.149999868288688
 30
0.0
 11
37.87586738445748
 21
7.149999868288688
 31
0.0
  0
ARC
  5
3F49
330
1A
100
AcDbEntity
  8
ZUWAKU
100
AcDbCircle
 10
37.87586738445748
 20
7.674999868288686
 30
0.0
 40
0.525
100
AcDbArc
 50
270.0
 51
17.52556837372303
  0
LINE
  5
3F4A
330
1A
100
AcDbEntity
  8
ZUWAKU
100
AcDbLine
 10
38.37649828365295
 20
7.83309383645566
 30
0.0
 11
36.05010690517929
 21
15.1999998682887
 31
0.0
  0
ARC
  5
3F4B
330
1A
100
AcDbEntity
  8
ZUWAKU
100
AcDbCircle
 10
36.17697800484847
 20
7.674999868288686
 30
0.0
 40
0.525
100
AcDbArc
 50
197.525568373723
 51
270.0
  0
ARC
  5
3F4C
330
1A
100
AcDbEntity
  8
ZUWAKU
100
AcDbCircle
 10
57.84221216833714
 20
9.949999868288685
 30
0.0
 40
2.799999999999999
100
AcDbArc
 50
180.0
 51
270.0
  0
ARC
  5
3F4D
330
1A
100
AcDbEntity
  8
ZUWAKU
100
AcDbCircle
 10
50.14221216833721
 20
9.949999868288685
 30
0.0
 40
2.799999999999999
100
AcDbArc
 50
270.0
 51
0.0
  0
LINE
  5
3F4E
330
1A
100
AcDbEntity
  8
ZUWAKU
100
AcDbLine
 10
51.71206064932073
 20
14.73505037462751
 30
0.0
 11
48.80226267467595
 21
17.64484834927218
 31
0.0
  0
LINE
  5
3F4F
330
1A
100
AcDbEntity
  8
ZUWAKU
100
AcDbLine
 10
50.14221216833721
 20
10.47499986828869
 30
0.0
 11
50.14221216833721
 21
11.76520189364403
 31
0.0
  0
ARC
  5
3F50
330
1A
100
AcDbEntity
  8
ZUWAKU
100
AcDbCircle
 10
48.74221216833712
 20
11.76520189364403
 30
0.0
 40
1.399999999999999
100
AcDbArc
 50
0.0
 51
45.0
  0
ARC
  5
3F51
330
1A
100
AcDbEntity
  8
ZUWAKU
100
AcDbCircle
 10
49.61721216833712
 20
10.47499986828869
 30
0.0
 40
0.525
100
AcDbArc
 50
270.0
 51
0.0
  0
LINE
  5
3F52
330
1A
100
AcDbEntity
  8
ZUWAKU
100
AcDbLine
 10
46.11721216833712
 20
7.674999868288686
 30
0.0
 11
46.11721216833712
 21
9.424999868288686
 31
0.0
  0
ARC
  5
3F53
330
1A
100
AcDbEntity
  8
ZUWAKU
100
AcDbCircle
 10
46.64221216833721
 20
7.674999868288686
 30
0.0
 40
0.525
100
AcDbArc
 50
180.0
 51
270.0
  0
ARC
  5
3F54
330
1A
100
AcDbEntity
  8
ZUWAKU
100
AcDbCircle
 10
42.96721216833714
 20
7.674999868288686
 30
0.0
 40
0.525
100
AcDbArc
 50
270.0
 51
0.0
  0
ARC
  5
3F55
330
1A
100
AcDbEntity
  8
ZUWAKU
100
AcDbCircle
 10
46.64221216833721
 20
9.424999868288686
 30
0.0
 40
0.525
100
AcDbArc
 50
90.0
 51
180.0
  0
LINE
  5
3F56
330
1A
100
AcDbEntity
  8
ZUWAKU
100
AcDbLine
 10
46.64221216833721
 20
9.949999868288685
 30
0.0
 11
49.61721216833712
 21
9.949999868288685
 31
0.0
  0
LINE
  5
3F57
330
1A
100
AcDbEntity
  8
ZUWAKU
100
AcDbLine
 10
46.64221216833721
 20
7.149999868288688
 30
0.0
 11
50.14221216833721
 21
7.149999868288688
 31
0.0
  0
LINE
  5
3F58
330
1A
100
AcDbEntity
  8
ZUWAKU
100
AcDbLine
 10
46.82236368735368
 20
15.66494936194986
 30
0.0
 11
49.73216166199836
 21
12.7551513873052
 31
0.0
  0
LINE
  5
3F59
330
1A
100
AcDbEntity
  8
ZUWAKU
100
AcDbLine
 10
52.94221216833716
 20
9.949999868288685
 30
0.0
 11
52.94221216833716
 21
11.76520189364403
 31
0.0
  0
ARC
  5
3F5A
330
1A
100
AcDbEntity
  8
ZUWAKU
100
AcDbCircle
 10
48.74221216833712
 20
11.76520189364399
 30
0.0
 40
4.199999999999999
100
AcDbArc
 50
0.0
 51
45.0
  0
ARC
  5
3F5B
330
1A
100
AcDbEntity
  8
ZUWAKU
100
AcDbCircle
 10
58.89221216833721
 20
10.99999986828868
 30
0.0
 40
1.049999999999999
100
AcDbArc
 50
180.0
 51
270.0
  0
ARC
  5
3F5C
330
1A
100
AcDbEntity
  8
ZUWAKU
100
AcDbCircle
 10
61.34221216833714
 20
9.949999868288685
 30
0.0
 40
2.799999999999999
100
AcDbArc
 50
270.0
 51
0.0
  0
LINE
  5
3F5D
330
1A
100
AcDbEntity
  8
ZUWAKU
100
AcDbLine
 10
66.76721216833721
 20
7.149999868288688
 30
0.0
 11
68.51721216833721
 21
7.149999868288688
 31
0.0
  0
ARC
  5
3F5E
330
1A
100
AcDbEntity
  8
ZUWAKU
100
AcDbCircle
 10
66.76721216833721
 20
7.674999868288686
 30
0.0
 40
0.525
100
AcDbArc
 50
180.0
 51
270.0
  0
ARC
  5
3F5F
330
1A
100
AcDbEntity
  8
ZUWAKU
100
AcDbCircle
 10
60.29221216833718
 20
10.99999986828868
 30
0.0
 40
1.049999999999999
100
AcDbArc
 50
270.0
 51
0.0
  0
ARC
  5
3F60
330
1A
100
AcDbEntity
  8
ZUWAKU
100
AcDbCircle
 10
68.51721216833721
 20
7.674999868288686
 30
0.0
 40
0.525
100
AcDbArc
 50
270.0
 51
0.0
  0
LINE
  5
3F61
330
1A
100
AcDbEntity
  8
ZUWAKU
100
AcDbLine
 10
42.96721216833714
 20
23.24999986828868
 30
0.0
 11
41.21721216833714
 21
23.24999986828868
 31
0.0
  0
ARC
  5
3F62
330
1A
100
AcDbEntity
  8
ZUWAKU
100
AcDbCircle
 10
32.11721216833712
 20
22.72499986828868
 30
0.0
 40
0.525
100
AcDbArc
 50
0.0
 51
90.0
  0
LINE
  5
3F63
330
1A
100
AcDbEntity
  8
ZUWAKU
100
AcDbLine
 10
32.11721216833712
 20
23.24999986828868
 30
0.0
 11
30.36721216833711
 21
23.24999986828868
 31
0.0
  0
ARC
  5
3F64
330
1A
100
AcDbEntity
  8
ZUWAKU
100
AcDbCircle
 10
26.86721216833712
 20
22.72499986828868
 30
0.0
 40
0.525
100
AcDbArc
 50
0.0
 51
90.0
  0
ARC
  5
3F65
330
1A
100
AcDbEntity
  8
ZUWAKU
100
AcDbCircle
 10
30.36721216833711
 20
22.72499986828868
 30
0.0
 40
0.525
100
AcDbArc
 50
90.0
 51
180.0
  0
ARC
  5
3F66
330
1A
100
AcDbEntity
  8
ZUWAKU
100
AcDbCircle
 10
26.86721216833712
 20
20.97499986828868
 30
0.0
 40
0.525
100
AcDbArc
 50
270.0
 51
0.0
  0
LINE
  5
3F67
330
1A
100
AcDbEntity
  8
ZUWAKU
100
AcDbLine
 10
27.39221216833721
 20
22.72499986828868
 30
0.0
 11
27.39221216833721
 21
20.97499986828868
 31
0.0
  0
ARC
  5
3F68
330
1A
100
AcDbEntity
  8
ZUWAKU
100
AcDbCircle
 10
41.21721216833714
 20
22.72499986828868
 30
0.0
 40
0.525
100
AcDbArc
 50
90.0
 51
180.0
  0
LINE
  5
3F69
330
1A
100
AcDbEntity
  8
ZUWAKU
100
AcDbLine
 10
36.17697800484847
 20
23.24999986828868
 30
0.0
 11
37.87586738445748
 21
23.24999986828868
 31
0.0
  0
ARC
  5
3F6A
330
1A
100
AcDbEntity
  8
ZUWAKU
100
AcDbCircle
 10
37.87586738445748
 20
22.72499986828868
 30
0.0
 40
0.525
100
AcDbArc
 50
342.4744316262769
 51
90.0
  0
LINE
  5
3F6B
330
1A
100
AcDbEntity
  8
ZUWAKU
100
AcDbLine
 10
38.37649828365295
 20
22.56690590012171
 30
0.0
 11
37.31485865051513
 21
19.20504706185211
 31
0.0
  0
ARC
  5
3F6C
330
1A
100
AcDbEntity
  8
ZUWAKU
100
AcDbCircle
 10
36.17697800484847
 20
22.72499986828868
 30
0.0
 40
0.525
100
AcDbArc
 50
90.0
 51
162.4744316262769
  0
LINE
  5
3F6D
330
1A
100
AcDbEntity
  8
ZUWAKU
100
AcDbLine
 10
48.3922121683372
 20
23.24999986828868
 30
0.0
 11
51.89221216833721
 21
23.24999986828868
 31
0.0
  0
LINE
  5
3F6E
330
1A
100
AcDbEntity
  8
ZUWAKU
100
AcDbLine
 10
51.89221216833721
 20
20.44999986828868
 30
0.0
 11
48.91721216833719
 21
20.44999986828868
 31
0.0
  0
ARC
  5
3F6F
330
1A
100
AcDbEntity
  8
ZUWAKU
100
AcDbCircle
 10
48.91721216833719
 20
19.92499986828868
 30
0.0
 40
0.525
100
AcDbArc
 50
90.0
 51
180.0
  0
LINE
  5
3F70
330
1A
100
AcDbEntity
  8
ZUWAKU
100
AcDbLine
 10
48.3922121683372
 20
19.92499986828868
 30
0.0
 11
48.3922121683372
 21
18.63479784293334
 31
0.0
  0
ARC
  5
3F71
330
1A
100
AcDbEntity
  8
ZUWAKU
100
AcDbCircle
 10
42.96721216833714
 20
22.72499986828868
 30
0.0
 40
0.525
100
AcDbArc
 50
0.0
 51
90.0
  0
LINE
  5
3F72
330
1A
100
AcDbEntity
  8
ZUWAKU
100
AcDbLine
 10
45.59221216833714
 20
20.44999986828868
 30
0.0
 11
45.59221216833714
 21
18.63479784293334
 31
0.0
  0
ARC
  5
3F73
330
1A
100
AcDbEntity
  8
ZUWAKU
100
AcDbCircle
 10
48.3922121683372
 20
20.44999986828868
 30
0.0
 40
2.799999999999999
100
AcDbArc
 50
90.0
 51
180.0
  0
ARC
  5
3F74
330
1A
100
AcDbEntity
  8
ZUWAKU
100
AcDbCircle
 10
57.31721216833716
 20
22.72499986828868
 30
0.0
 40
0.525
100
AcDbArc
 50
0.0
 51
90.0
  0
ARC
  5
3F75
330
1A
100
AcDbEntity
  8
ZUWAKU
100
AcDbCircle
 10
55.56721216833716
 20
22.72499986828868
 30
0.0
 40
0.525
100
AcDbArc
 50
90.0
 51
180.0
  0
LINE
  5
3F76
330
1A
100
AcDbEntity
  8
ZUWAKU
100
AcDbLine
 10
57.31721216833716
 20
23.24999986828868
 30
0.0
 11
55.56721216833716
 21
23.24999986828868
 31
0.0
  0
ARC
  5
3F77
330
1A
100
AcDbEntity
  8
ZUWAKU
100
AcDbCircle
 10
51.89221216833721
 20
22.72499986828868
 30
0.0
 40
0.525
100
AcDbArc
 50
0.0
 51
90.0
  0
ARC
  5
3F78
330
1A
100
AcDbEntity
  8
ZUWAKU
100
AcDbCircle
 10
51.89221216833721
 20
20.97499986828868
 30
0.0
 40
0.525
100
AcDbArc
 50
270.0
 51
0.0
  0
LINE
  5
3F79
330
1A
100
AcDbEntity
  8
ZUWAKU
100
AcDbLine
 10
52.41721216833719
 20
22.72499986828868
 30
0.0
 11
52.41721216833719
 21
20.97499986828868
 31
0.0
  0
LINE
  5
3F7A
330
1A
100
AcDbEntity
  8
ZUWAKU
100
AcDbLine
 10
68.51721216833721
 20
23.24999986828868
 30
0.0
 11
66.76721216833721
 21
23.24999986828868
 31
0.0
  0
ARC
  5
3F7B
330
1A
100
AcDbEntity
  8
ZUWAKU
100
AcDbCircle
 10
66.76721216833721
 20
22.72499986828868
 30
0.0
 40
0.525
100
AcDbArc
 50
90.0
 51
180.0
  0
ARC
  5
3F7C
330
1A
100
AcDbEntity
  8
ZUWAKU
100
AcDbCircle
 10
63.61721216833712
 20
22.72499986828868
 30
0.0
 40
0.525
100
AcDbArc
 50
0.0
 51
90.0
  0
LINE
  5
3F7D
330
1A
100
AcDbEntity
  8
ZUWAKU
100
AcDbLine
 10
63.61721216833712
 20
23.24999986828868
 30
0.0
 11
61.86721216833712
 21
23.24999986828868
 31
0.0
  0
ARC
  5
3F7E
330
1A
100
AcDbEntity
  8
ZUWAKU
100
AcDbCircle
 10
61.86721216833712
 20
22.72499986828868
 30
0.0
 40
0.525
100
AcDbArc
 50
90.0
 51
180.0
  0
ARC
  5
3F7F
330
1A
100
AcDbEntity
  8
ZUWAKU
100
AcDbCircle
 10
68.51721216833721
 20
22.72499986828868
 30
0.0
 40
0.525
100
AcDbArc
 50
0.0
 51
90.0
  0
TEXT
  5
3F80
330
1A
100
AcDbEntity
  8
MOJI
100
AcDbText
 10
239.827202694407
 20
18.00492092569607
 30
0.0
 40
5.599999999999999
  1
亜鉛メッキ金具正面打（吊）　ストロング高強度金具（釣針型）
 41
0.9
  7
ｽﾀｲﾙ1
100
AcDbText
  0
TEXT
  5
3F81
330
1A
100
AcDbEntity
  8
MOJI
100
AcDbText
 10
239.827202694407
 20
3.204920925696104
 30
0.0
 40
5.599999999999999
  1
Σ９０－４－１０
 41
0.9
  7
ｽﾀｲﾙ1
100
AcDbText
  0
LINE
  5
3F82
330
1A
100
AcDbEntity
  8
ZUWAKU
100
AcDbLine
 10
208.2466013036239
 20
29.99999986828868
 30
0.0
 11
208.2466013036239
 21
0.7999998682887508
 31
0.0
  0
LINE
  5
3F83
330
1A
100
AcDbEntity
  8
ZUWAKU
100
AcDbLine
 10
208.6466013036238
 20
29.99999986828868
 30
0.0
 11
208.646601303624
 21
0.7999998682887508
 31
0.0
  0
LINE
  5
3F84
330
1A
100
AcDbEntity
  8
ZUWAKU
100
AcDbLine
 10
208.4466013036237
 20
29.99999986828868
 30
0.0
 11
208.446601303624
 21
0.7999998682887508
 31
0.0
  0
TEXT
  5
3F85
330
1A
100
AcDbEntity
  8
ZUWAKU
100
AcDbText
 10
209.7240463258335
 20
9.6553564066743
 30
0.0
 40
4.0
  1
サイズ
 41
0.9
  7
ｽﾀｲﾙ1
100
AcDbText
  0
TEXT
  5
3F86
330
1A
100
AcDbEntity
  8
ZUWAKU
100
AcDbText
 10
209.7240463258333
 20
24.05535640667426
 30
0.0
 40
4.0
  1
品名
 41
0.9
  7
ｽﾀｲﾙ1
100
AcDbText
  0
LINE
  5
3F87
330
1A
100
AcDbEntity
  8
ZUWAKU
100
AcDbLine
 10
648.8172025237602
 20
15.19999986828871
 30
0.0
 11
697.2490105620972
 21
15.19999986828871
 31
0.0
  0
LINE
  5
3F88
330
1A
100
AcDbEntity
  8
ZUWAKU
100
AcDbLine
 10
648.8172025237604
 20
15.39999986828872
 30
0.0
 11
697.2490105620972
 21
15.39999986828871
 31
0.0
  0
LINE
  5
3F89
330
1A
100
AcDbEntity
  8
ZUWAKU
100
AcDbLine
 10
648.8172025237602
 20
15.59999986828871
 30
0.0
 11
697.2490105620972
 21
15.59999986828871
 31
0.0
  0
TEXT
  5
3F8A
330
1A
100
AcDbEntity
  8
ZUWAKU
100
AcDbText
 10
658.2039377008584
 20
18.00492092569607
 30
0.0
 40
5.599999999999999
  1
　　．　　．　　
 41
0.9
  7
ｽﾀｲﾙ1
100
AcDbText
  0
LINE
  5
3F8B
330
1A
100
AcDbEntity
  8
ZUWAKU
100
AcDbLine
 10
505.1991795116968
 20
15.19999986828872
 30
0.0
 11
552.5269557796685
 21
15.19999986828872
 31
0.0
  0
LINE
  5
3F8C
330
1A
100
AcDbEntity
  8
ZUWAKU
100
AcDbLine
 10
505.1991795116968
 20
15.39999986828871
 30
0.0
 11
552.5269557796685
 21
15.39999986828871
 31
0.0
  0
LINE
  5
3F8D
330
1A
100
AcDbEntity
  8
ZUWAKU
100
AcDbLine
 10
505.1991795116968
 20
15.59999986828871
 30
0.0
 11
552.5269557796685
 21
15.59999986828871
 31
0.0
  0
TEXT
  5
3F8E
330
1A
100
AcDbEntity
  8
MOJI
100
AcDbText
 10
463.246432004558
 20
11.94261758994866
 30
0.0
 40
5.599999999999999
  1
ＬＬ７９Ｇ
 41
0.9
  7
ｽﾀｲﾙ1
100
AcDbText
  0
LINE
  5
3F8F
330
1A
100
AcDbEntity
  8
ZUWAKU
100
AcDbLine
 10
447.6243639845472
 20
29.99999986828868
 30
0.0
 11
447.6243639845474
 21
0.7999998682887508
 31
0.0
  0
LINE
  5
3F90
330
1A
100
AcDbEntity
  8
ZUWAKU
100
AcDbLine
 10
447.8243639845472
 20
29.99999986828868
 30
0.0
 11
447.8243639845475
 21
0.7999998682887508
 31
0.0
  0
LINE
  5
3F91
330
1A
100
AcDbEntity
  8
ZUWAKU
100
AcDbLine
 10
447.4243639845474
 20
29.99999986828868
 30
0.0
 11
447.4243639845474
 21
0.7999998682887508
 31
0.0
  0
TEXT
  5
3F92
330
1A
100
AcDbEntity
  8
MOJI
100
AcDbText
 10
528.0409079858689
 20
18.00492092569607
 30
0.0
 40
5.599999999999999
  1
Ａ３
 41
0.9
  7
ｽﾀｲﾙ1
100
AcDbText
  0
LINE
  5
3F93
330
1A
100
AcDbEntity
  8
ZUWAKU
100
AcDbLine
 10
504.9991795116969
 20
29.99999986828868
 30
0.0
 11
504.999179511697
 21
0.7999998682887508
 31
0.0
  0
LINE
  5
3F94
330
1A
100
AcDbEntity
  8
ZUWAKU
100
AcDbLine
 10
505.1991795116968
 20
29.99999986828868
 30
0.0
 11
505.1991795116971
 21
0.7999998682887508
 31
0.0
  0
LINE
  5
3F95
330
1A
100
AcDbEntity
  8
ZUWAKU
100
AcDbLine
 10
504.799179511697
 20
29.99999986828868
 30
0.0
 11
504.799179511697
 21
0.7999998682887508
 31
0.0
  0
TEXT
  5
3F97
330
1A
100
AcDbEntity
  8
ZUWAKU
100
AcDbText
 10
506.6766245339067
 20
9.6553564066743
 30
0.0
 40
4.0
  1
縮尺
 41
0.9
  7
ｽﾀｲﾙ1
100
AcDbText
  0
TEXT
  5
3F98
330
1A
100
AcDbEntity
  8
MOJI
100
AcDbText
 10
528.0409079858689
 20
3.204920925696104
 30
0.0
 40
5.599999999999999
  1
１/２
 41
0.9
  7
ｽﾀｲﾙ1
100
AcDbText
  0
TEXT
  5
3F99
330
1A
100
AcDbEntity
  8
ZUWAKU
100
AcDbText
 10
449.3018090067569
 20
24.05535640667426
 30
0.0
 40
4.0
  1
品番
 41
0.9
  7
ｽﾀｲﾙ1
100
AcDbText
  0
TEXT
  5
3F9A
330
1A
100
AcDbEntity
  8
ZUWAKU
100
AcDbText
 10
506.6766245339065
 20
24.05535640667426
 30
0.0
 40
4.0
  1
用紙
 41
0.9
  7
ｽﾀｲﾙ1
100
AcDbText
  0
LINE
  5
3F9B
330
1A
100
AcDbEntity
  8
ZUWAKU
100
AcDbLine
 10
648.6172025237603
 20
29.99999986828868
 30
0.0
 11
648.6172025237606
 21
0.7999998682887508
 31
0.0
  0
LINE
  5
3F9C
330
1A
100
AcDbEntity
  8
ZUWAKU
100
AcDbLine
 10
648.8172025237604
 20
29.99999986828868
 30
0.0
 11
648.8172025237607
 21
0.7999998682887508
 31
0.0
  0
LINE
  5
3F9D
330
1A
100
AcDbEntity
  8
ZUWAKU
100
AcDbLine
 10
648.4172025237605
 20
29.99999986828868
 30
0.0
 11
648.4172025237605
 21
0.7999998682887508
 31
0.0
  0
LINE
  5
3F9E
330
1A
100
AcDbEntity
  8
ZUWAKU
100
AcDbLine
 10
552.7269557796683
 20
29.99999986828868
 30
0.0
 11
552.7269557796684
 21
0.7999998682887508
 31
0.0
  0
LINE
  5
3F9F
330
1A
100
AcDbEntity
  8
ZUWAKU
100
AcDbLine
 10
552.9269557796683
 20
29.99999986828868
 30
0.0
 11
552.9269557796685
 21
0.7999998682887508
 31
0.0
  0
LINE
  5
3FA0
330
1A
100
AcDbEntity
  8
ZUWAKU
100
AcDbLine
 10
552.5269557796685
 20
29.99999986828868
 30
0.0
 11
552.5269557796685
 21
0.7999998682887508
 31
0.0
  0
TEXT
  5
3FA1
330
1A
100
AcDbEntity
  8
ZUWAKU
100
AcDbText
 10
650.29464754597
 20
24.05535640667426
 30
0.0
 40
4.0
  1
DATE
 41
0.9
  7
ｽﾀｲﾙ1
100
AcDbText
  0
LINE
  5
3FA2
330
1A
100
AcDbEntity
  8
ZUWAKU
100
AcDbLine
 10
697.2490105620972
 20
29.99999986828868
 30
0.0
 11
697.2490105620972
 21
0.7999998682887508
 31
0.0
  0
LINE
  5
3FA3
330
1A
100
AcDbEntity
  8
ZUWAKU
100
AcDbLine
 10
697.4490105620973
 20
29.99999986828868
 30
0.0
 11
697.4490105620973
 21
0.7999998682887508
 31
0.0
  0
LINE
  5
3FA4
330
1A
100
AcDbEntity
  8
ZUWAKU
100
AcDbLine
 10
697.6490105620971
 20
29.99999986828868
 30
0.0
 11
697.6490105620974
 21
0.7999998682887508
 31
0.0
  0
LINE
  5
3FA5
330
1A
100
AcDbEntity
  8
ZUWAKU
100
AcDbLine
 10
697.8490105620972
 20
29.99999986828868
 30
0.0
 11
697.8490105620974
 21
0.7999998682887508
 31
0.0
  0
TEXT
  5
3FA6
330
1A
100
AcDbEntity
  8
ZUWAKU
100
AcDbText
 10
708.5280842057998
 20
17.55383920397548
 30
0.0
 40
6.0
  1
積水化学工業株式会社
 41
0.9
  7
ｽﾀｲﾙ1
100
AcDbText
  0
TEXT
  5
3FA7
330
1A
100
AcDbEntity
  8
ZUWAKU
100
AcDbText
 10
708.5280842057998
 20
6.648840182142748
 30
0.0
 40
6.0
  1
建材事業部
 41
0.9
  7
ｽﾀｲﾙ1
100
AcDbText
  0
ARC
  5
4A8C
330
1A
100
AcDbEntity
  8
SEIHIN
  6
CONTINUOUS
 62
     3
 48
5.0
100
AcDbCircle
 10
543.8643043358289
 20
315.8413305208361
 30
0.0
 40
3.0
100
AcDbArc
 50
291.800999988666
 51
21.80100502688448
  0
LINE
  5
4A8D
330
1A
100
AcDbEntity
  8
SEIHIN
  6
CONTINUOUS
 62
     3
 48
5.0
100
AcDbLine
 10
529.2872017092975
 20
313.2416999671684
 30
0.0
 11
531.5155059525168
 21
307.6708238960597
 31
0.0
  0
ARC
  5
4A8E
330
1A
100
AcDbEntity
  8
SEIHIN
  6
CONTINUOUS
 62
     3
 48
5.0
100
AcDbCircle
 10
491.8694610075394
 20
295.0438242456454
 30
0.0
 40
3.0
100
AcDbArc
 50
201.8009949731155
 51
291.8009999886594
  0
LINE
  5
4A8F
330
1A
100
AcDbEntity
  8
SEIHIN
  6
CONTINUOUS
 62
     3
 48
5.0
100
AcDbLine
 10
504.2182593903006
 20
303.2143308702014
 30
0.0
 11
506.4465636335198
 21
297.6434547990927
 31
0.0
  0
LINE
  5
4A91
330
1A
100
AcDbEntity
  8
CENTER_L
  6
CENTER
 62
     1
 48
5.0
100
AcDbLine
 10
485.5560477783186
 20
326.9834675341528
 30
0.0
 11
498.5544891997617
 21
294.4866904537513
 31
0.0
  0
LINE
  5
4A92
330
1A
100
AcDbEntity
  8
SEIHIN
  6
CONTINUOUS
 62
     3
 48
5.0
100
AcDbLine
 10
496.6977999200948
 20
331.4400760216937
 30
0.0
 11
519.0142299448896
 21
275.6478446134821
 31
0.0
  0
LINE
  5
4A93
330
1A
100
AcDbEntity
  8
SEIHIN
  6
CONTINUOUS
 62
     3
 48
5.0
100
AcDbLine
 10
515.2673868230556
 20
338.8677568342619
 30
0.0
 11
537.5838168478501
 21
283.0755254260503
 31
0.0
  0
LINE
  5
4A94
330
1A
100
AcDbEntity
  8
CENTER_L
  6
CENTER
 62
     1
 48
5.0
100
AcDbLine
 10
526.409138964832
 20
343.3243653218028
 30
0.0
 11
539.407580386275
 21
310.8275882414012
 31
0.0
  0
LINE
  5
4A9E
330
1A
100
AcDbEntity
  8
SEIHIN
  6
CONTINUOUS
 62
     3
 48
5.0
100
AcDbLine
 10
536.2807961805099
 20
272.8699920459225
 30
0.0
 11
540.8738063888424
 21
261.3872285327986
 31
0.0
  0
LINE
  5
4A9F
330
1A
100
AcDbEntity
  8
SEIHIN
  6
CONTINUOUS
 62
     3
 48
5.0
100
AcDbLine
 10
526.9960027290296
 20
269.1561516396385
 30
0.0
 11
531.5890129373622
 21
257.6733881265145
 31
0.0
  0
LINE
  5
4AA0
330
1A
100
AcDbEntity
  8
SEIHIN
  6
CONTINUOUS
 62
     3
 48
5.0
100
AcDbLine
 10
535.4886030952427
 20
256.0021022131761
 30
0.0
 11
539.2025204752835
 21
257.4876383754693
 31
0.0
  0
ARC
  5
4AA6
330
1A
100
AcDbEntity
  8
SEIHIN
  6
CONTINUOUS
 62
     3
 48
5.0
100
AcDbCircle
 10
534.3744509733574
 20
258.7875402486202
 30
0.0
 40
3.0
100
AcDbArc
 50
201.801
 51
291.8009999886594
  0
ARC
  5
4AAB
330
1A
100
AcDbEntity
  8
SEIHIN
  6
CONTINUOUS
 62
     3
 48
5.0
100
AcDbCircle
 10
538.0883683539495
 20
260.2730764111338
 30
0.0
 40
3.0
100
AcDbArc
 50
291.8009999999999
 51
21.80099999999999
  0
LINE
  5
4AAF
330
1A
100
AcDbEntity
  8
SEIHIN
  6
CONTINUOUS
 62
     3
 48
5.0
100
AcDbLine
 10
529.2243454599541
 20
268.9704403757473
 30
0.0
 11
534.795221530291
 21
271.1987446192972
 31
0.0
  0
LINE
  5
4AB0
330
1A
100
AcDbEntity
  8
SEIHIN
  6
CONTINUOUS
 62
     3
 48
5.0
100
AcDbLine
 10
519.0606564584442
 20
291.6875590061591
 30
0.0
 11
527.9244820736264
 21
269.5275356800464
 31
0.0
  0
LINE
  5
4AB1
330
1A
100
AcDbEntity
  8
SEIHIN
  6
CONTINUOUS
 62
     3
 48
5.0
100
AcDbLine
 10
507.3750429795
 20
298.0148388400539
 30
0.0
 11
519.6610235992397
 21
267.299250679853
 31
0.0
  0
LINE
  5
4AB2
330
1A
100
AcDbEntity
  8
SEIHIN
  6
CONTINUOUS
 62
     3
 48
5.0
100
AcDbLine
 10
513.2907372286656
 20
289.9568729732384
 30
0.0
 11
522.3536060027383
 21
267.299231436276
 31
0.0
  0
ARC
  5
4AB3
330
1A
100
AcDbEntity
  8
SEIHIN
  6
CONTINUOUS
 62
     3
 48
5.0
100
AcDbCircle
 10
528.8529614193257
 20
269.8989197208953
 30
0.0
 40
1.0
100
AcDbArc
 50
201.801
 51
291.800999965985
  0
LINE
  5
4AB4
330
1A
100
AcDbEntity
  8
SEIHIN
  6
CONTINUOUS
 62
     3
 48
5.0
100
AcDbLine
 10
519.6610235997907
 20
267.2992506800734
 30
0.0
 11
521.9822219621098
 21
268.2277107814241
 31
0.0
  0
LINE
  5
4AB5
330
1A
100
AcDbEntity
  8
SEIHIN
  6
CONTINUOUS
 62
     3
 48
5.0
100
AcDbLine
 10
522.3536060032895
 20
267.2992314364964
 30
0.0
 11
527.9244820736264
 21
269.5275356800464
 31
0.0
  0
LINE
  5
4AB6
330
1A
100
AcDbEntity
  8
SEIHIN
  6
CONTINUOUS
 62
     3
 48
5.0
100
AcDbLine
 10
492.9836131294247
 20
292.2583862102012
 30
0.0
 11
509.6962413415381
 21
298.9432989412921
 31
0.0
  0
LINE
  5
4ABD
330
1A
100
AcDbEntity
  8
SEIHIN
  6
CONTINUOUS
 62
     3
 48
5.0
100
AcDbLine
 10
531.8603241316262
 20
297.3845537858066
 30
0.0
 11
540.9231929056988
 21
274.7269122488442
 31
0.0
  0
LINE
  5
4ABE
330
1A
100
AcDbEntity
  8
SEIHIN
  6
CONTINUOUS
 62
     3
 48
5.0
100
AcDbLine
 10
530.5870266082012
 20
307.2994398557643
 30
0.0
 11
542.8730072279406
 21
276.5838516955632
 31
0.0
  0
LINE
  5
4ABF
330
1A
100
AcDbEntity
  8
SEIHIN
  6
CONTINUOUS
 62
     3
 48
5.0
100
AcDbLine
 10
526.4884912196284
 20
294.6586313311863
 30
0.0
 11
535.3523168348107
 21
272.4986080050737
 31
0.0
  0
LINE
  5
4AC0
330
1A
100
AcDbEntity
  8
SEIHIN
  6
CONTINUOUS
 62
     3
 48
5.0
100
AcDbLine
 10
540.5518088656217
 20
275.6553915942126
 30
0.0
 11
542.8730072279406
 21
276.5838516955632
 31
0.0
  0
ARC
  5
4AC1
330
1A
100
AcDbEntity
  8
SEIHIN
  6
CONTINUOUS
 62
     3
 48
5.0
100
AcDbCircle
 10
534.4238374902139
 20
272.1272239646657
 30
0.0
 40
1.0
100
AcDbArc
 50
291.800999965985
 51
21.80099999999999
  0
LINE
  5
4AC2
330
1A
100
AcDbEntity
  8
SEIHIN
  6
CONTINUOUS
 62
     3
 48
5.0
100
AcDbLine
 10
535.3523168353619
 20
272.4986080052942
 30
0.0
 11
540.9231929056988
 21
274.7269122488442
 31
0.0
  0
LINE
  5
4AC3
330
1A
100
AcDbEntity
  8
SEIHIN
  6
CONTINUOUS
 62
     3
 48
5.0
100
AcDbLine
 10
528.2658282450499
 20
306.3709797540808
 30
0.0
 11
544.9784564571632
 21
313.0558924851716
 31
0.0
  0
LINE
  5
4AD1
330
1A
100
AcDbEntity
  8
CENTER_L
  6
CENTER
 62
     1
 48
5.0
100
AcDbLine
 10
482.0277646873096
 20
316.9559444885696
 30
0.0
 11
535.8795667053441
 21
338.4962188447969
 31
0.0
  0
LINE
  5
4AD2
330
1A
100
AcDbEntity
  8
SEIHIN
  6
CONTINUOUS
 62
     3
 48
5.0
100
AcDbLine
 10
479.9851717074304
 20
324.7551632903823
 30
0.0
 11
531.9800150351689
 21
345.5526695653527
 31
0.0
  0
LINE
  5
4AD3
330
1A
100
AcDbEntity
  8
SEIHIN
  6
CONTINUOUS
 62
     3
 48
5.0
100
AcDbLine
 10
515.2673868230556
 20
338.8677568342619
 30
0.0
 11
496.6977999195437
 21
331.4400760214732
 31
0.0
  0
LINE
  5
4AD5
330
1A
100
AcDbEntity
  8
CENTER_L
  6
CENTER
 62
     1
 48
5.0
100
AcDbLine
 10
489.0840614592494
 20
299.3148369307571
 30
0.0
 11
542.935863477284
 21
320.8551112869843
 31
0.0
  0
LINE
  5
4AD6
330
1A
100
AcDbEntity
  8
SEIHIN
  6
CONTINUOUS
 62
     3
 48
5.0
100
AcDbLine
 10
478.3138857606672
 20
320.8555732160654
 30
0.0
 11
489.0840228737933
 21
293.929672367922
 31
0.0
  0
LINE
  5
4AD7
330
1A
100
AcDbEntity
  8
SEIHIN
  6
CONTINUOUS
 62
     3
 48
5.0
100
AcDbLine
 10
497.1619626183609
 20
320.855438428014
 30
0.0
 11
502.7327232272358
 21
306.928248250573
 31
0.0
  0
CIRCLE
  5
4AD8
330
1A
100
AcDbEntity
  8
SEIHIN
  6
CONTINUOUS
 62
     3
 48
5.0
100
AcDbCircle
 10
495.5834168752856
 20
301.914525215156
 30
0.0
 40
2.099999999999993
  0
LINE
  5
4ADB
330
1A
100
AcDbEntity
  8
SEIHIN
  6
CONTINUOUS
 62
     3
 48
5.0
100
AcDbLine
 10
505.5181612632311
 20
308.0424003726787
 30
0.0
 11
501.3400042095138
 21
306.3711721896304
 31
0.0
  0
LINE
  5
4ADD
330
1A
100
AcDbEntity
  8
SEIHIN
  6
CONTINUOUS
 62
     3
 48
5.0
100
AcDbLine
 10
507.0036974257448
 20
304.3284829920866
 30
0.0
 11
502.8255403720274
 21
302.6572548090383
 31
0.0
  0
LINE
  5
4ADE
330
1A
100
AcDbEntity
  8
SEIHIN
  6
CONTINUOUS
 62
     3
 48
5.0
100
AcDbLine
 10
502.8255403725786
 20
302.6572548092588
 30
0.0
 11
501.3400042095138
 21
306.3711721896304
 31
0.0
  0
ARC
  5
4AE1
330
1A
100
AcDbEntity
  8
SEIHIN
  6
CONTINUOUS
 62
     3
 48
5.0
100
AcDbCircle
 10
481.0993238293156
 20
321.9697252549382
 30
0.0
 40
3.0
100
AcDbArc
 50
111.8009999999999
 51
201.8009982924527
  0
CIRCLE
  5
4AE2
330
1A
100
AcDbEntity
  8
SEIHIN
  6
CONTINUOUS
 62
     3
 48
5.0
100
AcDbCircle
 10
488.5271201033458
 20
319.5556327729685
 30
0.0
 40
2.099999999999993
  0
LINE
  5
4AE3
330
1A
100
AcDbEntity
  8
SEIHIN
  6
CONTINUOUS
 62
     3
 48
5.0
100
AcDbLine
 10
498.4618644912914
 20
325.6835079304913
 30
0.0
 11
494.2837074375741
 21
324.012279747443
 31
0.0
  0
LINE
  5
4AE4
330
1A
100
AcDbEntity
  8
SEIHIN
  6
CONTINUOUS
 62
     3
 48
5.0
100
AcDbLine
 10
493.4481222120768
 20
330.1402318794943
 30
0.0
 11
495.6764264552961
 21
324.5693558083855
 31
0.0
  0
LINE
  5
4AE6
330
1A
100
AcDbEntity
  8
SEIHIN
  6
CONTINUOUS
 62
     3
 48
5.0
100
AcDbLine
 10
499.947400653805
 20
321.9695905498992
 30
0.0
 11
495.7692436000877
 21
320.2983623668509
 31
0.0
  0
LINE
  5
4AE9
330
1A
100
AcDbEntity
  8
SEIHIN
  6
CONTINUOUS
 62
     3
 48
5.0
100
AcDbLine
 10
495.7692436006388
 20
320.2983623670713
 30
0.0
 11
494.2837074375741
 21
324.012279747443
 31
0.0
  0
LINE
  5
4AEA
330
1A
100
AcDbEntity
  8
SEIHIN
  6
CONTINUOUS
 62
     3
 48
5.0
100
AcDbLine
 10
535.879605159845
 20
343.8813837350267
 30
0.0
 11
546.6497422729712
 21
316.9554828868833
 31
0.0
  0
LINE
  5
4AEB
330
1A
100
AcDbEntity
  8
SEIHIN
  6
CONTINUOUS
 62
     3
 48
5.0
100
AcDbLine
 10
522.2309049373577
 20
330.882807524981
 30
0.0
 11
527.8016655462327
 21
316.95561734754
 31
0.0
  0
LINE
  5
4AED
330
1A
100
AcDbEntity
  8
SEIHIN
  6
CONTINUOUS
 62
     3
 48
5.0
100
AcDbLine
 10
525.0162275113398
 20
315.8414652258753
 30
0.0
 11
529.1943845639548
 21
317.5126934084826
 31
0.0
  0
LINE
  5
4AF0
330
1A
100
AcDbEntity
  8
SEIHIN
  6
CONTINUOUS
 62
     3
 48
5.0
100
AcDbLine
 10
526.5017636738535
 20
312.1275478452831
 30
0.0
 11
530.6799207264683
 21
313.7987760278905
 31
0.0
  0
LINE
  5
4AF1
330
1A
100
AcDbEntity
  8
SEIHIN
  6
CONTINUOUS
 62
     3
 48
5.0
100
AcDbLine
 10
530.6799207270196
 20
313.798776028111
 30
0.0
 11
529.1943845639548
 21
317.5126934084826
 31
0.0
  0
CIRCLE
  5
4AF2
330
1A
100
AcDbEntity
  8
SEIHIN
  6
CONTINUOUS
 62
     3
 48
5.0
100
AcDbCircle
 10
536.4365080617987
 20
318.2554230028058
 30
0.0
 40
2.099999999999993
  0
LINE
  5
4AF3
330
1A
100
AcDbEntity
  8
SEIHIN
  6
CONTINUOUS
 62
     3
 48
5.0
100
AcDbLine
 10
517.9599307394
 20
333.4825727836879
 30
0.0
 11
522.1380877920149
 21
335.1538009662952
 31
0.0
  0
LINE
  5
4AF4
330
1A
100
AcDbEntity
  8
SEIHIN
  6
CONTINUOUS
 62
     3
 48
5.0
100
AcDbLine
 10
518.5170645310736
 20
340.1676009764613
 30
0.0
 11
520.7453687742929
 21
334.5967249053526
 31
0.0
  0
LINE
  5
4AF7
330
1A
100
AcDbEntity
  8
SEIHIN
  6
CONTINUOUS
 62
     3
 48
5.0
100
AcDbLine
 10
519.4454669019137
 20
329.7686554030958
 30
0.0
 11
523.6236239545286
 21
331.4398835857031
 31
0.0
  0
LINE
  5
4AF9
330
1A
100
AcDbEntity
  8
SEIHIN
  6
CONTINUOUS
 62
     3
 48
5.0
100
AcDbLine
 10
523.6236239550798
 20
331.4398835859236
 30
0.0
 11
522.1380877920149
 21
335.1538009662952
 31
0.0
  0
ARC
  5
4AFC
330
1A
100
AcDbEntity
  8
SEIHIN
  6
CONTINUOUS
 62
     3
 48
5.0
100
AcDbCircle
 10
533.094167157605
 20
342.767231530129
 30
0.0
 40
3.0
100
AcDbArc
 50
21.80100170754728
 51
111.8009999999999
  0
CIRCLE
  5
4AFD
330
1A
100
AcDbEntity
  8
SEIHIN
  6
CONTINUOUS
 62
     3
 48
5.0
100
AcDbCircle
 10
529.3802112898589
 20
335.8965305606184
 30
0.0
 40
2.099999999999993
  0
DIMENSION
  5
4B5D
330
1A
100
AcDbEntity
  8
SUNPOU
100
AcDbDimension
  2
*D1
 10
238.5174909966855
 20
379.5017105631862
 30
0.0
 11
233.5174909966854
 21
389.5017105631864
 31
0.0
 70
    32
  3
STANDARD
100
AcDbAlignedDimension
 13
262.687269675124
 23
399.5017105631863
 33
0.0
 14
262.687269675124
 24
379.5017105631862
 34
0.0
 50
90.0
100
AcDbRotatedDimension
1001
ACAD
1000
DSTYLE
1002
{
1070
    41
1040
7.0
1070
    42
1040
6.0
1070
    43
1040
14.0
1070
    44
1040
3.0
1070
    73
1070
     0
1070
    74
1070
     0
1070
    77
1070
     3
1070
   140
1040
6.0
1070
   141
1040
150.0
1070
   147
1040
2.0
1070
   172
1070
     1
1070
   173
1070
     1
1070
   176
1070
   256
1070
   177
1070
   256
1070
   178
1070
   256
1070
   271
1070
     0
1070
   272
1070
     0
1070
   341
1005
6D
1070
     6
1000
OPEN
1070
     7
1000
OPEN
1070
   371
1070
    -1
1070
   372
1070
    -1
1002
}
  0
DIMENSION
  5
4B6A
330
1A
100
AcDbEntity
  8
SUNPOU
100
AcDbDimension
  2
*D2
 10
224.014519101344
 20
377.0017105631862
 30
0.0
 11
219.0145191013439
 21
389.5017105631864
 31
0.0
 70
    32
  3
STANDARD
100
AcDbAlignedDimension
 13
274.2658329151147
 23
402.0017105631863
 33
0.0
 14
274.2658329151775
 24
377.0017105631862
 34
0.0
 50
90.0
100
AcDbRotatedDimension
1001
ACAD
1000
DSTYLE
1002
{
1070
    41
1040
7.0
1070
    42
1040
6.0
1070
    43
1040
14.0
1070
    44
1040
3.0
1070
    73
1070
     0
1070
    74
1070
     0
1070
    77
1070
     3
1070
   140
1040
6.0
1070
   141
1040
150.0
1070
   147
1040
2.0
1070
   172
1070
     1
1070
   173
1070
     1
1070
   176
1070
   256
1070
   177
1070
   256
1070
   178
1070
   256
1070
   271
1070
     0
1070
   272
1070
     0
1070
   341
1005
6D
1070
     6
1000
OPEN
1070
     7
1000
OPEN
1070
   371
1070
    -1
1070
   372
1070
    -1
1002
}
  0
DIMENSION
  5
4E86
330
1A
100
AcDbEntity
  8
SUNPOU
100
AcDbDimension
  2
*D4
 10
519.3290138645424
 20
361.0250449351743
 30
0.0
 11
497.0455480681437
 21
357.4969927670894
 31
0.0
 70
    32
  3
STANDARD
100
AcDbAlignedDimension
 13
485.5560477783186
 23
326.9834675341528
 33
0.0
 14
526.409138964832
 24
343.3243653218028
 34
0.0
 50
21.80100000000034
100
AcDbRotatedDimension
1001
ACAD
1000
DSTYLE
1002
{
1070
   287
1070
     5
1070
    41
1040
7.0
1070
    42
1040
6.0
1070
    43
1040
14.0
1070
    44
1040
3.0
1070
    73
1070
     0
1070
    74
1070
     0
1070
    77
1070
     3
1070
   140
1040
6.0
1070
   141
1040
150.0
1070
   147
1040
2.0
1070
   172
1070
     1
1070
   173
1070
     1
1070
   176
1070
   256
1070
   177
1070
   256
1070
   178
1070
   256
1070
   271
1070
     0
1070
   272
1070
     0
1070
   279
1070
     2
1070
   341
1005
6D
1070
     6
1000
OPEN
1070
     7
1000
OPEN
1070
   371
1070
    -1
1070
   372
1070
    -1
1002
}
  0
DIMENSION
  5
4E9D
330
1A
100
AcDbEntity
  8
SUNPOU
100
AcDbDimension
  2
*D5
 10
522.348347729168
 20
377.7102284452239
 30
0.0
 11
491.7085678264371
 21
370.8397199114832
 31
0.0
 70
    32
  3
STANDARD
100
AcDbAlignedDimension
 13
478.3138857938486
 23
320.85557313311
 33
0.0
 14
535.8796051598448
 24
343.8813837350268
 34
0.0
 50
21.80100000000034
100
AcDbRotatedDimension
1001
ACAD
1000
DSTYLE
1002
{
1070
   287
1070
     5
1070
    41
1040
7.0
1070
    42
1040
6.0
1070
    43
1040
14.0
1070
    44
1040
3.0
1070
    73
1070
     0
1070
    74
1070
     0
1070
    77
1070
     3
1070
   140
1040
6.0
1070
   141
1040
150.0
1070
   147
1040
2.0
1070
   172
1070
     1
1070
   173
1070
     1
1070
   176
1070
   256
1070
   177
1070
   256
1070
   178
1070
   256
1070
   271
1070
     0
1070
   272
1070
     0
1070
   279
1070
     2
1070
   341
1005
6D
1070
     6
1000
OPEN
1070
     7
1000
OPEN
1070
   371
1070
    -1
1070
   372
1070
    -1
1002
}
  0
DIMENSION
  5
4EAA
330
1A
100
AcDbEntity
  8
SUNPOU
100
AcDbDimension
  2
*D6
 10
566.087500421468
 20
330.1155741291839
 30
0.0
 11
567.2017487612381
 21
340.7930481112323
 31
0.0
 70
    32
  3
STANDARD
100
AcDbAlignedDimension
 13
535.8795667053441
 23
338.4962188447969
 33
0.0
 14
542.935863477284
 24
320.8551112869843
 34
0.0
 50
111.8010000000005
100
AcDbRotatedDimension
1001
ACAD
1000
DSTYLE
1002
{
1070
   287
1070
     5
1070
    41
1040
7.0
1070
    42
1040
6.0
1070
    43
1040
14.0
1070
    44
1040
3.0
1070
    73
1070
     0
1070
    74
1070
     0
1070
    77
1070
     3
1070
   140
1040
6.0
1070
   141
1040
150.0
1070
   147
1040
2.0
1070
   172
1070
     1
1070
   173
1070
     1
1070
   176
1070
   256
1070
   177
1070
   256
1070
   178
1070
   256
1070
   271
1070
     0
1070
   272
1070
     0
1070
   279
1070
     2
1070
   341
1005
6D
1070
     6
1000
OPEN
1070
     7
1000
OPEN
1070
   371
1070
    -1
1070
   372
1070
    -1
1002
}
  0
DIMENSION
  5
4EB7
330
1A
100
AcDbEntity
  8
SUNPOU
100
AcDbDimension
  2
*D7
 10
570.9654889373457
 20
361.1465359224938
 30
0.0
 11
582.1071063740832
 21
346.7550675855454
 31
0.0
 70
    32
  3
STANDARD
100
AcDbAlignedDimension
 13
544.9784564571632
 23
313.0558924851716
 33
0.0
 14
531.9800150351689
 24
345.5526695653527
 34
0.0
 50
111.8010000000005
100
AcDbRotatedDimension
1001
ACAD
1000
DSTYLE
1002
{
1070
   287
1070
     5
1070
    41
1040
7.0
1070
    42
1040
6.0
1070
    43
1040
14.0
1070
    44
1040
3.0
1070
    73
1070
     0
1070
    74
1070
     0
1070
    77
1070
     3
1070
   140
1040
6.0
1070
   141
1040
150.0
1070
   147
1040
2.0
1070
   172
1070
     1
1070
   173
1070
     1
1070
   176
1070
   256
1070
   177
1070
   256
1070
   178
1070
   256
1070
   271
1070
     0
1070
   272
1070
     0
1070
   279
1070
     2
1070
   341
1005
6D
1070
     6
1000
OPEN
1070
     7
1000
OPEN
1070
   371
1070
    -1
1070
   372
1070
    -1
1002
}
  0
DIMENSION
  5
4EC4
330
1A
100
AcDbEntity
  8
SUNPOU
100
AcDbDimension
  2
*D8
 10
552.1527287317068
 20
233.189338248773
 30
0.0
 11
560.3849108167046
 21
243.091625524109
 31
0.0
 70
   160
  3
STANDARD
100
AcDbAlignedDimension
 13
531.5890129373622
 23
257.6733881265145
 33
0.0
 14
540.8738063888424
 24
261.3872285327986
 34
0.0
 50
21.80100000000034
100
AcDbRotatedDimension
1001
ACAD
1000
DSTYLE
1002
{
1070
   287
1070
     5
1070
    41
1040
7.0
1070
    42
1040
6.0
1070
    43
1040
14.0
1070
    44
1040
3.0
1070
    73
1070
     0
1070
    74
1070
     0
1070
    77
1070
     3
1070
   140
1040
6.0
1070
   141
1040
150.0
1070
   147
1040
2.0
1070
   172
1070
     1
1070
   173
1070
     1
1070
   176
1070
   256
1070
   177
1070
   256
1070
   178
1070
   256
1070
   271
1070
     0
1070
   272
1070
     0
1070
   279
1070
     2
1070
   341
1005
6D
1070
     6
1000
OPEN
1070
     7
1000
OPEN
1070
   371
1070
    -1
1070
   372
1070
    -1
1002
}
  0
DIMENSION
  5
4EDF
330
1A
100
AcDbEntity
  8
SUNPOU
100
AcDbDimension
  2
*D9
 10
562.3670646289531
 20
221.1161218084265
 30
0.0
 11
551.2253509743308
 21
222.0446781278825
 31
0.0
 70
    32
  3
STANDARD
100
AcDbAlignedDimension
 13
522.3536060027383
 23
267.299231436276
 33
0.0
 14
540.9231929056988
 24
274.7269122488442
 34
0.0
 50
21.80100000000034
100
AcDbRotatedDimension
1001
ACAD
1000
DSTYLE
1002
{
1070
   287
1070
     5
1070
    41
1040
7.0
1070
    42
1040
6.0
1070
    43
1040
14.0
1070
    44
1040
3.0
1070
    73
1070
     0
1070
    74
1070
     0
1070
    77
1070
     3
1070
   140
1040
6.0
1070
   141
1040
150.0
1070
   147
1040
2.0
1070
   172
1070
     1
1070
   173
1070
     1
1070
   176
1070
   256
1070
   177
1070
   256
1070
   178
1070
   256
1070
   271
1070
     0
1070
   272
1070
     0
1070
   279
1070
     2
1070
   341
1005
6D
1070
     6
1000
OPEN
1070
     7
1000
OPEN
1070
   371
1070
    -1
1070
   372
1070
    -1
1002
}
  0
LINE
  5
4EED
330
1A
100
AcDbEntity
  8
SUNPOU
100
AcDbLine
 10
529.6796957732851
 20
337.9750658728484
 30
0.0
 11
563.1244261753009
 21
395.903038174583
 31
0.0
  0
LINE
  5
4EEE
330
1A
100
AcDbEntity
  8
SUNPOU
100
AcDbLine
 10
563.1244261753011
 20
395.9030381745827
 30
0.0
 11
611.37882242033
 21
395.9030381745827
 31
0.0
  0
LINE
  5
532A
330
1A
100
AcDbEntity
  8
SUNPOU
100
AcDbLine
 10
372.1578423819754
 20
313.0075193803172
 30
0.0
 11
372.1578423818492
 21
323.4610585228516
 31
0.0
  0
LINE
  5
532B
330
1A
100
AcDbEntity
  8
SUNPOU
100
AcDbLine
 10
372.1578423818492
 20
323.4610585228516
 30
0.0
 11
386.721995997594
 21
287.0506744823912
 31
0.0
  0
LINE
  5
5331
330
1A
100
AcDbEntity
  8
SUNPOU
100
AcDbLine
 10
376.3392580387368
 20
313.0075193803172
 30
0.0
 11
372.1578423818547
 21
313.0075193803172
 31
0.0
  0
LINE
  5
5350
330
1A
100
AcDbEntity
  8
SEIHIN
  6
CONTINUOUS
 62
     3
 48
5.0
100
AcDbLine
 10
320.5636421960657
 20
379.5017105631862
 30
0.0
 11
379.5940323195051
 21
379.5017105631863
 31
0.0
  0
LINE
  5
5351
330
1A
100
AcDbEntity
  8
SEIHIN
  6
CONTINUOUS
 62
     3
 48
5.0
100
AcDbLine
 10
320.5636421960657
 20
399.5017105631863
 30
0.0
 11
379.5940323197077
 21
399.5017105631863
 31
0.0
  0
LINE
  5
5352
330
1A
100
AcDbEntity
  8
CENTER_L
  6
CENTER
 62
     1
 48
5.0
100
AcDbLine
 10
258.2323153412348
 20
389.5017105631863
 30
0.0
 11
408.3924175093184
 21
389.5017105631863
 31
0.0
  0
LINE
  5
5354
330
1A
100
AcDbEntity
  8
SEIHIN
  6
CONTINUOUS
 62
     3
 48
5.0
100
AcDbLine
 10
320.5636421960657
 20
396.5017105631863
 30
0.0
 11
379.5940323196064
 21
396.5017105631863
 31
0.0
  0
LINE
  5
5355
330
1A
100
AcDbEntity
  8
SEIHIN
  6
CONTINUOUS
 62
     3
 48
5.0
100
AcDbLine
 10
320.5636421960657
 20
382.5017105631863
 30
0.0
 11
379.5940323196064
 21
382.5017105631863
 31
0.0
  0
LINE
  5
5356
330
1A
100
AcDbEntity
  8
SEIHIN
  6
CONTINUOUS
 62
     3
 48
5.0
100
AcDbLine
 10
274.2658329151775
 20
377.0017105631862
 30
0.0
 11
366.6666769903655
 21
377.0017105631862
 31
0.0
  0
LINE
  5
5357
330
1A
100
AcDbEntity
  8
SEIHIN
  6
CONTINUOUS
 62
     3
 48
5.0
100
AcDbLine
 10
274.2658329151775
 20
402.0017105631863
 30
0.0
 11
366.6666769903655
 21
402.0017105631863
 31
0.0
  0
LINE
  5
5359
330
1A
100
AcDbEntity
  8
SEIHIN
  6
CONTINUOUS
 62
     3
 48
5.0
100
AcDbLine
 10
281.0701930965541
 20
377.0017105631862
 30
0.0
 11
281.0701930964408
 21
402.0017105631863
 31
0.0
  0
LINE
  5
535A
330
1A
100
AcDbEntity
  8
SEIHIN
  6
CONTINUOUS
 62
     3
 48
5.0
100
AcDbLine
 10
262.687269675124
 20
399.5017105631863
 30
0.0
 11
262.6872696749908
 21
379.5017105631862
 31
0.0
  0
LINE
  5
535B
330
1A
100
AcDbEntity
  8
SEIHIN
  6
CONTINUOUS
 62
     3
 48
5.0
100
AcDbLine
 10
264.687269675124
 20
399.5017105631863
 30
0.0
 11
264.6872696749908
 21
379.5017105631862
 31
0.0
  0
LINE
  5
535C
330
1A
100
AcDbEntity
  8
SEIHIN
  6
CONTINUOUS
 62
     3
 48
5.0
100
AcDbLine
 10
262.687269675124
 20
379.5017105631862
 30
0.0
 11
272.2658329151147
 21
379.5017105631862
 31
0.0
  0
LINE
  5
535D
330
1A
100
AcDbEntity
  8
SEIHIN
  6
CONTINUOUS
 62
     3
 48
5.0
100
AcDbLine
 10
272.2658329151775
 20
379.5017105631862
 30
0.0
 11
274.2658329151147
 21
377.0017105631862
 31
0.0
  0
LINE
  5
535E
330
1A
100
AcDbEntity
  8
SEIHIN
  6
CONTINUOUS
 62
     3
 48
5.0
100
AcDbLine
 10
262.687269675124
 20
399.5017105631863
 30
0.0
 11
272.2658329151147
 21
399.5017105631863
 31
0.0
  0
LINE
  5
535F
330
1A
100
AcDbEntity
  8
SEIHIN
  6
CONTINUOUS
 62
     3
 48
5.0
100
AcDbLine
 10
272.2658329151775
 20
399.5017105631863
 30
0.0
 11
274.2658329151147
 21
402.0017105631863
 31
0.0
  0
LINE
  5
5360
330
1A
100
AcDbEntity
  8
SEIHIN
  6
CONTINUOUS
 62
     3
 48
5.0
100
AcDbLine
 10
320.5636421960657
 20
399.5017105631863
 30
0.0
 11
320.5636421960349
 21
379.5017105631862
 31
0.0
  0
LINE
  5
5361
330
1A
100
AcDbEntity
  8
SEIHIN
  6
CONTINUOUS
 62
     3
 48
5.0
100
AcDbLine
 10
309.30434625369
 20
377.7362041502327
 30
0.0
 11
309.304346253647
 21
384.7137249682139
 31
0.0
  0
LINE
  5
5362
330
1A
100
AcDbEntity
  8
SEIHIN
  6
CONTINUOUS
 62
     3
 48
5.0
100
AcDbLine
 10
302.364073313436
 20
385.5017105631863
 30
0.0
 11
320.5636421960349
 21
385.5017105631863
 31
0.0
  0
LINE
  5
5363
330
1A
100
AcDbEntity
  8
SEIHIN
  6
CONTINUOUS
 62
     3
 48
5.0
100
AcDbLine
 10
302.364073313436
 20
393.5017105631863
 30
0.0
 11
320.5636421960349
 21
393.5017105631863
 31
0.0
  0
ARC
  5
5364
330
1A
100
AcDbEntity
  8
SEIHIN
  6
CONTINUOUS
 62
     3
 48
5.0
100
AcDbCircle
 10
302.364073313436
 20
387.5017105631863
 30
0.0
 40
2.0
100
AcDbArc
 50
180.0
 51
269.9999999937402
  0
LINE
  5
5365
330
1A
100
AcDbEntity
  8
SEIHIN
  6
CONTINUOUS
 62
     3
 48
5.0
100
AcDbLine
 10
300.364073313436
 20
387.5017105631863
 30
0.0
 11
300.3640733132175
 21
391.5017105631863
 31
0.0
  0
ARC
  5
5366
330
1A
100
AcDbEntity
  8
SEIHIN
  6
CONTINUOUS
 62
     3
 48
5.0
100
AcDbCircle
 10
302.364073313436
 20
391.5017105631863
 30
0.0
 40
2.0
100
AcDbArc
 50
90.00000000625973
 51
180.0
  0
LINE
  5
5369
330
1A
100
AcDbEntity
  8
SEIHIN
  6
CONTINUOUS
 62
     3
 48
5.0
100
AcDbLine
 10
356.7010416474628
 20
382.5017105631863
 30
0.0
 11
356.7010416474008
 21
396.5017105631864
 31
0.0
  0
CIRCLE
  5
536A
330
1A
100
AcDbEntity
  8
SEIHIN
  6
CONTINUOUS
 62
     3
 48
5.0
100
AcDbCircle
 10
330.7640592925906
 20
389.5017105631863
 30
0.0
 40
5.0
  0
LINE
  5
536B
330
1A
100
AcDbEntity
  8
SEIHIN
  6
CONTINUOUS
 62
     3
 48
5.0
100
AcDbLine
 10
342.2499336970656
 20
379.5017105631862
 30
0.0
 11
342.2499336970535
 21
381.8221960285104
 31
0.0
  0
LINE
  5
536F
330
1A
100
AcDbEntity
  8
SEIHIN
  6
CONTINUOUS
 62
     3
 48
5.0
100
AcDbLine
 10
370.666676990664
 20
379.5017105631862
 30
0.0
 11
366.6666769903655
 21
377.0017105631862
 31
0.0
  0
ARC
  5
5370
330
1A
100
AcDbEntity
  8
SEIHIN
  6
CONTINUOUS
 62
     3
 48
5.0
100
AcDbCircle
 10
396.9204374195882
 20
376.3652385173526
 30
0.0
 40
1.8
100
AcDbArc
 50
359.9999871145818
 51
64.53444608355143
  0
LINE
  5
5373
330
1A
100
AcDbEntity
  8
SEIHIN
  6
CONTINUOUS
 62
     3
 48
5.0
100
AcDbLine
 10
394.6348607778299
 20
379.4474164752652
 30
0.0
 11
397.6943805160248
 21
377.9903576155554
 31
0.0
  0
LINE
  5
5375
330
1A
100
AcDbEntity
  8
SEIHIN
  6
CONTINUOUS
 62
     3
 48
5.0
100
AcDbLine
 10
366.6666769906639
 20
402.0017105631863
 30
0.0
 11
370.6666769903655
 21
399.5017105631863
 31
0.0
  0
LINE
  5
5376
330
1A
100
AcDbEntity
  8
SEIHIN
  6
CONTINUOUS
 62
     3
 48
5.0
100
AcDbLine
 10
385.3936152232537
 20
420.5017105631863
 30
0.0
 11
397.2779045234291
 21
420.5017105631862
 31
0.0
  0
LINE
  5
537A
330
1A
100
AcDbEntity
  8
SEIHIN
  6
CONTINUOUS
 62
     3
 48
5.0
100
AcDbLine
 10
394.6348607778299
 20
399.5560046511073
 30
0.0
 11
397.6943805160248
 21
401.013063510817
 31
0.0
  0
ARC
  5
537B
330
1A
100
AcDbEntity
  8
SEIHIN
  6
CONTINUOUS
 62
     3
 48
5.0
100
AcDbCircle
 10
396.9204374195882
 20
402.6381826090199
 30
0.0
 40
1.8
100
AcDbArc
 50
295.4655539164485
 51
0.0000128854164979
  0
LINE
  5
537D
330
1A
100
AcDbEntity
  8
SEIHIN
  6
CONTINUOUS
 62
     3
 48
5.0
100
AcDbLine
 10
398.7204374196112
 20
417.5017105631862
 30
0.0
 11
398.7204374194391
 21
402.6381830138273
 31
0.0
  0
LINE
  5
5381
330
1A
100
AcDbEntity
  8
SEIHIN
  6
CONTINUOUS
 62
     3
 48
5.0
100
AcDbLine
 10
401.0640592940659
 20
399.5017105631863
 30
0.0
 11
401.0640592939722
 21
379.5017105631862
 31
0.0
  0
LINE
  5
5388
330
1A
100
AcDbEntity
  8
CENTER_L
  6
CENTER
 62
     1
 48
5.0
100
AcDbLine
 10
330.764059292592
 20
362.8714688780659
 30
0.0
 11
330.7640592925894
 21
411.9291984451078
 31
0.0
  0
TEXT
  5
54EE
330
1A
100
AcDbEntity
  8
SUNPOU
100
AcDbText
 10
371.5356481658584
 20
304.1300740231216
 30
0.0
 40
6.0
  1
4
100
AcDbText
  0
TEXT
  5
54F0
330
1A
100
AcDbEntity
  8
SUNPOU
100
AcDbText
 10
359.9237583256792
 20
314.5553001871348
 30
0.0
 40
6.0
  1
10
100
AcDbText
  0
DIMENSION
  5
54F3
330
1A
100
AcDbEntity
  8
SUNPOU
100
AcDbDimension
  2
*D11
 10
228.9697900014198
 20
246.2830729505024
 30
0.0
 11
223.9697900014197
 21
250.7830729505025
 31
0.0
 70
    32
  3
STANDARD
100
AcDbAlignedDimension
 13
262.6872696737688
 23
255.2830729505024
 33
0.0
 14
265.1872696753725
 24
246.2830729505024
 34
0.0
 50
90.0
100
AcDbRotatedDimension
1001
ACAD
1000
DSTYLE
1002
{
1070
   287
1070
     5
1070
    41
1040
7.0
1070
    42
1040
6.0
1070
    43
1040
14.0
1070
    44
1040
3.0
1070
    73
1070
     0
1070
    74
1070
     0
1070
    77
1070
     3
1070
   140
1040
6.0
1070
   141
1040
150.0
1070
   147
1040
2.0
1070
   172
1070
     1
1070
   173
1070
     1
1070
   176
1070
   256
1070
   177
1070
   256
1070
   178
1070
   256
1070
   271
1070
     0
1070
   272
1070
     0
1070
   279
1070
     2
1070
   341
1005
6D
1070
     6
1000
OPEN
1070
     7
1000
OPEN
1070
   371
1070
    -1
1070
   372
1070
    -1
1002
}
  0
DIMENSION
  5
54F4
330
1A
100
AcDbEntity
  8
SUNPOU
100
AcDbDimension
  2
*D10
 10
214.4668181060782
 20
220.6513222624943
 30
0.0
 11
209.4668181060781
 21
237.9671976064984
 31
0.0
 70
    32
  1
35
  3
STANDARD
100
AcDbAlignedDimension
 13
256.6872696737688
 23
255.2830729505024
 33
0.0
 14
308.9449959015492
 24
220.6513222624943
 34
0.0
 50
90.0
100
AcDbRotatedDimension
1001
ACAD
1000
DSTYLE
1002
{
1070
   287
1070
     5
1070
    41
1040
7.0
1070
    42
1040
6.0
1070
    43
1040
14.0
1070
    44
1040
3.0
1070
    73
1070
     0
1070
    74
1070
     0
1070
    77
1070
     3
1070
   140
1040
6.0
1070
   141
1040
150.0
1070
   147
1040
2.0
1070
   172
1070
     1
1070
   173
1070
     1
1070
   176
1070
   256
1070
   177
1070
   256
1070
   178
1070
   256
1070
   271
1070
     0
1070
   272
1070
     0
1070
   279
1070
     2
1070
   341
1005
6D
1070
     6
1000
OPEN
1070
     7
1000
OPEN
1070
   371
1070
    -1
1070
   372
1070
    -1
1002
}
  0
DIMENSION
  5
555E
330
1A
100
AcDbEntity
  8
SUNPOU
100
AcDbDimension
  2
*D14
 10
387.2640592929009
 20
153.1432533851791
 30
0.0
 11
324.9756644834253
 21
158.1432533851791
 31
0.0
 70
    32
  1
125
  3
STANDARD
100
AcDbAlignedDimension
 13
262.6872696739498
 23
248.7830729505024
 33
0.0
 14
387.2640592929009
 24
183.2323079128259
 34
0.0
100
AcDbRotatedDimension
1001
ACAD
1000
DSTYLE
1002
{
1070
   287
1070
     5
1070
    41
1040
7.0
1070
    42
1040
6.0
1070
    43
1040
14.0
1070
    44
1040
3.0
1070
    73
1070
     0
1070
    74
1070
     0
1070
    77
1070
     3
1070
   140
1040
6.0
1070
   141
1040
150.0
1070
   147
1040
2.0
1070
   172
1070
     1
1070
   173
1070
     1
1070
   176
1070
   256
1070
   177
1070
   256
1070
   178
1070
   256
1070
   271
1070
     0
1070
   272
1070
     0
1070
   279
1070
     2
1070
   341
1005
6D
1070
     6
1000
OPEN
1070
     7
1000
OPEN
1070
   371
1070
    -1
1070
   372
1070
    -1
1002
}
  0
DIMENSION
  5
555F
330
1A
100
AcDbEntity
  8
SUNPOU
100
AcDbDimension
  2
*D13
 10
400.6485658662709
 20
138.277594019235
 30
0.0
 11
331.6679177701103
 21
143.277594019235
 31
0.0
 70
    32
  3
STANDARD
100
AcDbAlignedDimension
 13
262.6872696739498
 23
242.7830729505024
 33
0.0
 14
400.6485658662709
 24
250.3237044485036
 34
0.0
100
AcDbRotatedDimension
1001
ACAD
1000
DSTYLE
1002
{
1070
   287
1070
     5
1070
    41
1040
7.0
1070
    42
1040
6.0
1070
    43
1040
14.0
1070
    44
1040
3.0
1070
    73
1070
     0
1070
    74
1070
     0
1070
    77
1070
     3
1070
   140
1040
6.0
1070
   141
1040
150.0
1070
   147
1040
2.0
1070
   172
1070
     1
1070
   173
1070
     1
1070
   176
1070
   256
1070
   177
1070
   256
1070
   178
1070
   256
1070
   271
1070
     0
1070
   272
1070
     0
1070
   279
1070
     2
1070
   341
1005
6D
1070
     6
1000
OPEN
1070
     7
1000
OPEN
1070
   371
1070
    -1
1070
   372
1070
    -1
1002
}
  0
DIMENSION
  5
5560
330
1A
100
AcDbEntity
  8
SUNPOU
100
AcDbDimension
  2
*D15
 10
387.2640592929009
 20
168.1464268173977
 30
0.0
 11
381.1448457478368
 21
172.508099960572
 31
0.0
 70
   160
  1
12
  3
STANDARD
100
AcDbAlignedDimension
 13
375.6594989094064
 23
233.4177188236852
 33
0.0
 14
387.2640592929009
 24
216.2245943016943
 34
0.0
100
AcDbRotatedDimension
1001
ACAD
1000
DSTYLE
1002
{
1070
   287
1070
     5
1070
    41
1040
7.0
1070
    42
1040
6.0
1070
    43
1040
14.0
1070
    44
1040
3.0
1070
    73
1070
     0
1070
    74
1070
     0
1070
    77
1070
     3
1070
   140
1040
6.0
1070
   141
1040
150.0
1070
   147
1040
2.0
1070
   172
1070
     1
1070
   173
1070
     1
1070
   176
1070
   256
1070
   177
1070
   256
1070
   178
1070
   256
1070
   271
1070
     0
1070
   272
1070
     0
1070
   279
1070
     2
1070
   341
1005
6D
1070
     6
1000
OPEN
1070
     7
1000
OPEN
1070
   371
1070
    -1
1070
   372
1070
    -1
1002
}
  0
DIMENSION
  5
5561
330
1A
100
AcDbEntity
  8
SUNPOU
100
AcDbDimension
  2
*D16
 10
387.2640592929009
 20
183.2323079128259
 30
0.0
 11
383.4121312629759
 21
187.3097271231235
 31
0.0
 70
   160
  3
STANDARD
100
AcDbAlignedDimension
 13
379.6428126589507
 23
203.5916312279943
 33
0.0
 14
387.2640592929009
 24
222.2245943016943
 34
0.0
100
AcDbRotatedDimension
1001
ACAD
1000
DSTYLE
1002
{
1070
   287
1070
     5
1070
    41
1040
7.0
1070
    42
1040
6.0
1070
    43
1040
14.0
1070
    44
1040
3.0
1070
    73
1070
     0
1070
    74
1070
     0
1070
    77
1070
     3
1070
   140
1040
6.0
1070
   141
1040
150.0
1070
   147
1040
2.0
1070
   172
1070
     1
1070
   173
1070
     1
1070
   176
1070
   256
1070
   177
1070
   256
1070
   178
1070
   256
1070
   271
1070
     0
1070
   272
1070
     0
1070
   279
1070
     2
1070
   341
1005
6D
1070
     6
1000
OPEN
1070
     7
1000
OPEN
1070
   371
1070
    -1
1070
   372
1070
    -1
1002
}
  0
LINE
  5
5707
330
1A
100
AcDbEntity
  8
SEIHIN
  6
CONTINUOUS
 62
     3
 48
5.0
100
AcDbLine
 10
283.9344739984522
 20
247.2537926031474
 30
0.0
 11
306.440065349105
 21
228.6806026098493
 31
0.0
  0
LINE
  5
5708
330
1A
100
AcDbEntity
  8
SEIHIN
  6
CONTINUOUS
 62
     3
 48
5.0
100
AcDbLine
 10
280.1718172182153
 20
241.2830729505024
 30
0.0
 11
302.2616737939554
 21
223.0529764063226
 31
0.0
  0
LINE
  5
571F
330
1A
100
AcDbEntity
  8
SEIHIN
  6
CONTINUOUS
 62
     3
 48
5.0
100
AcDbLine
 10
262.6872696737688
 20
255.2830729505024
 30
0.0
 11
262.6872696738593
 21
248.7830729505024
 31
0.0
  0
LINE
  5
5720
330
1A
100
AcDbEntity
  8
SEIHIN
  6
CONTINUOUS
 62
     3
 48
5.0
100
AcDbLine
 10
264.6872696737688
 20
255.2830729505024
 30
0.0
 11
264.6872696738593
 21
248.7830729505024
 31
0.0
  0
LINE
  5
5721
330
1A
100
AcDbEntity
  8
SEIHIN
  6
CONTINUOUS
 62
     3
 48
5.0
100
AcDbLine
 10
274.1694059733319
 20
241.2830729505024
 30
0.0
 11
280.1718172182465
 21
241.2830729505024
 31
0.0
  0
LINE
  5
5722
330
1A
100
AcDbEntity
  8
SEIHIN
  6
CONTINUOUS
 62
     3
 48
5.0
100
AcDbLine
 10
281.0701930951988
 20
248.2830729505024
 30
0.0
 11
265.0872696737661
 21
248.2830729505024
 31
0.0
  0
ARC
  5
5723
330
1A
100
AcDbEntity
  8
SEIHIN
  6
CONTINUOUS
 62
     3
 48
5.0
100
AcDbCircle
 10
265.1872696737687
 20
248.7830729505024
 30
0.0
 40
2.5
100
AcDbArc
 50
180.0000000235017
 51
270.0000000367572
  0
LINE
  5
5724
330
1A
100
AcDbEntity
  8
SEIHIN
  6
CONTINUOUS
 62
     3
 48
5.0
100
AcDbLine
 10
272.5754945929572
 20
242.7436237620955
 30
0.0
 11
272.0908555868269
 21
248.2830729505024
 31
0.0
  0
LINE
  5
5725
330
1A
100
AcDbEntity
  8
SEIHIN
  6
CONTINUOUS
 62
     3
 48
5.0
100
AcDbLine
 10
265.1872696737687
 20
246.2830729505024
 30
0.0
 11
272.2658329138667
 21
246.2830729505024
 31
0.0
  0
ARC
  5
5726
330
1A
100
AcDbEntity
  8
SEIHIN
  6
CONTINUOUS
 62
     3
 48
5.0
100
AcDbCircle
 10
265.1872696737687
 20
248.7830729505024
 30
0.0
 40
0.5
100
AcDbArc
 50
180.0000000235017
 51
270.0000000370503
  0
POINT
  5
5727
330
1A
100
AcDbEntity
  8
SEIHIN
  6
CONTINUOUS
 62
     3
 48
5.0
100
AcDbPoint
 10
272.2658329138667
 20
246.2830729505024
 30
0.0
  0
POINT
  5
5728
330
1A
100
AcDbEntity
  8
SEIHIN
  6
CONTINUOUS
 62
     3
 48
5.0
100
AcDbPoint
 10
265.1872696737687
 20
246.2830729505024
 30
0.0
  0
POINT
  5
5729
330
1A
100
AcDbEntity
  8
SEIHIN
  6
CONTINUOUS
 62
     3
 48
5.0
100
AcDbPoint
 10
262.6872696737688
 20
248.783072949477
 30
0.0
  0
POINT
  5
572A
330
1A
100
AcDbEntity
  8
SEIHIN
  6
CONTINUOUS
 62
     3
 48
5.0
100
AcDbPoint
 10
262.6872696737688
 20
248.783072949477
 30
0.0
  0
ARC
  5
572B
330
1A
100
AcDbEntity
  8
SEIHIN
  6
CONTINUOUS
 62
     3
 48
5.0
100
AcDbCircle
 10
274.1694061099031
 20
242.8830729505023
 30
0.0
 40
1.6
100
AcDbArc
 50
185.0000000003789
 51
269.999995109825
  0
ARC
  5
572C
330
1A
100
AcDbEntity
  8
SEIHIN
  6
CONTINUOUS
 62
     3
 48
5.0
100
AcDbCircle
 10
281.0701930951988
 20
243.7830729505024
 30
0.0
 40
4.5
100
AcDbArc
 50
50.46816418504798
 51
90.0
  0
LINE
  5
5732
330
1A
100
AcDbEntity
  8
SEIHIN
  6
CONTINUOUS
 62
     3
 48
5.0
100
AcDbLine
 10
262.6872696737688
 20
255.2830729505024
 30
0.0
 11
264.6872696738593
 21
255.2830729505024
 31
0.0
  0
POINT
  5
5733
330
1A
100
AcDbEntity
  8
SEIHIN
  6
CONTINUOUS
 62
     3
 48
5.0
100
AcDbPoint
 10
264.6872696737688
 20
255.2830729505024
 30
0.0
  0
POINT
  5
5734
330
1A
100
AcDbEntity
  8
SEIHIN
  6
CONTINUOUS
 62
     3
 48
5.0
100
AcDbPoint
 10
262.6872696737688
 20
255.2830729505024
 30
0.0
  0
POINT
  5
5735
330
1A
100
AcDbEntity
  8
SEIHIN
  6
CONTINUOUS
 62
     3
 48
5.0
100
AcDbPoint
 10
262.6872696737688
 20
255.2830729505024
 30
0.0
  0
POINT
  5
5736
330
1A
100
AcDbEntity
  8
SEIHIN
  6
CONTINUOUS
 62
     3
 48
5.0
100
AcDbPoint
 10
262.6872696737688
 20
255.2830729505024
 30
0.0
  0
POINT
  5
5737
330
1A
100
AcDbEntity
  8
SEIHIN
  6
CONTINUOUS
 62
     3
 48
5.0
100
AcDbPoint
 10
262.6872696737688
 20
255.2830729505024
 30
0.0
  0
LINE
  5
5741
330
1A
100
AcDbEntity
  8
SEIHIN
  6
CONTINUOUS
 62
     3
 48
5.0
100
AcDbLine
 10
386.721995997594
 20
287.0506744823913
 30
0.0
 11
399.7204374194134
 21
254.5538974022103
 31
0.0
  0
LINE
  5
5742
330
1A
100
AcDbEntity
  8
SEIHIN
  6
CONTINUOUS
 62
     3
 48
5.0
100
AcDbLine
 10
385.236429045357
 20
286.4564600173858
 30
0.0
 11
398.2348704671472
 21
253.9596829372047
 31
0.0
  0
LINE
  5
5744
330
1A
100
AcDbEntity
  8
SEIHIN
  6
CONTINUOUS
 62
     3
 48
5.0
100
AcDbLine
 10
380.5940323196169
 20
284.5995398142438
 30
0.0
 11
393.5924737414334
 21
252.1027627340626
 31
0.0
  0
LINE
  5
5747
330
1A
100
AcDbEntity
  8
SEIHIN
  6
CONTINUOUS
 62
     3
 48
5.0
100
AcDbLine
 10
391.9796012646277
 20
249.3660947753508
 30
0.0
 11
360.3151683379568
 21
247.7590399426892
 31
0.0
  0
LINE
  5
5749
330
1A
100
AcDbEntity
  8
SEIHIN
  6
CONTINUOUS
 62
     3
 48
5.0
100
AcDbLine
 10
361.06993717038
 20
221.5382025397365
 30
0.0
 11
372.9129834964717
 21
227.314442180854
 31
0.0
  0
LINE
  5
574B
330
1A
100
AcDbEntity
  8
SEIHIN
  6
CONTINUOUS
 62
     3
 48
5.0
100
AcDbLine
 10
361.7274937533068
 20
220.190011403343
 30
0.0
 11
372.9129834964717
 21
225.6455392701415
 31
0.0
  0
LINE
  5
574C
330
1A
100
AcDbEntity
  8
SEIHIN
  6
CONTINUOUS
 62
     3
 48
5.0
100
AcDbLine
 10
361.9028422120223
 20
219.8304937848233
 30
0.0
 11
373.1883319551728
 21
225.3347949104784
 31
0.0
  0
LINE
  5
574D
330
1A
100
AcDbEntity
  8
SEIHIN
  6
CONTINUOUS
 62
     3
 48
5.0
100
AcDbLine
 10
350.6531465893104
 20
222.8480214035943
 30
0.0
 11
370.6666769892347
 21
242.8615518035942
 31
0.0
  0
LINE
  5
574F
330
1A
100
AcDbEntity
  8
SEIHIN
  6
CONTINUOUS
 62
     3
 48
5.0
100
AcDbLine
 10
395.5523241486396
 20
244.0457853447055
 30
0.0
 11
360.6030160455869
 21
242.2665774988322
 31
0.0
  0
LINE
  5
5750
330
1A
100
AcDbEntity
  8
SEIHIN
  6
CONTINUOUS
 62
     3
 48
5.0
100
AcDbLine
 10
395.3168123455712
 20
248.5396182511023
 30
0.0
 11
360.3675042942072
 21
246.7604104079348
 31
0.0
  0
LINE
  5
5755
330
1A
100
AcDbEntity
  8
CENTER_L
  6
CENTER
 62
     1
 48
5.0
100
AcDbLine
 10
330.7640592912353
 20
206.4342204290789
 30
0.0
 11
330.7640592912335
 21
239.3974190742722
 31
0.0
  0
LINE
  5
5758
330
1A
100
AcDbEntity
  8
SEIHIN
  6
CONTINUOUS
 62
     3
 48
5.0
100
AcDbLine
 10
347.1678652135228
 20
229.1946747826683
 30
0.0
 11
359.9188084690634
 21
241.9456180382554
 31
0.0
  0
LINE
  5
5759
330
1A
100
AcDbEntity
  8
SEIHIN
  6
CONTINUOUS
 62
     3
 48
5.0
100
AcDbLine
 10
320.7640592912353
 20
233.0837620791943
 30
0.0
 11
320.7640592912234
 21
227.5837620791943
 31
0.0
  0
ARC
  5
575A
330
1A
100
AcDbEntity
  8
SEIHIN
  6
CONTINUOUS
 62
     3
 48
5.0
100
AcDbCircle
 10
309.6636966031324
 20
233.1513222624943
 30
0.0
 40
4.5
100
AcDbArc
 50
230.4681641849172
 51
269.9999999995212
  0
LINE
  5
575E
330
1A
100
AcDbEntity
  8
SEIHIN
  6
CONTINUOUS
 62
     3
 48
5.0
100
AcDbLine
 10
320.7640592912233
 20
227.5837620791943
 30
0.0
 11
343.6858707393425
 21
227.5837620791943
 31
0.0
  0
LINE
  5
575F
330
1A
100
AcDbEntity
  8
SEIHIN
  6
CONTINUOUS
 62
     3
 48
5.0
100
AcDbLine
 10
309.6636966031324
 20
228.6513222624943
 30
0.0
 11
320.7640592912257
 21
228.6513222624943
 31
0.0
  0
LINE
  5
5760
330
1A
100
AcDbEntity
  8
SEIHIN
  6
CONTINUOUS
 62
     3
 48
5.0
100
AcDbLine
 10
308.9449959015457
 20
220.6513222624943
 30
0.0
 11
345.3498457304106
 21
220.6513222624943
 31
0.0
  0
LINE
  5
5761
330
1A
100
AcDbEntity
  8
SEIHIN
  6
CONTINUOUS
 62
     3
 48
5.0
100
AcDbLine
 10
320.7640592912235
 20
227.6513222624943
 30
0.0
 11
309.3043462523513
 21
227.6513222624943
 31
0.0
  0
POINT
  5
5762
330
1A
100
AcDbEntity
  8
SEIHIN
  6
CONTINUOUS
 62
     3
 48
5.0
100
AcDbPoint
 10
308.9449959015496
 20
220.6513222624943
 30
0.0
  0
ARC
  5
5763
330
1A
100
AcDbEntity
  8
SEIHIN
  6
CONTINUOUS
 62
     3
 48
5.0
100
AcDbCircle
 10
308.9449959015457
 20
231.1513222624943
 30
0.0
 40
10.5
100
AcDbArc
 50
230.4681641849162
 51
270.0000000000195
  0
ARC
  5
5764
330
1A
100
AcDbEntity
  8
SEIHIN
  6
CONTINUOUS
 62
     3
 48
5.0
100
AcDbCircle
 10
309.3043462523392
 20
232.1513222624943
 30
0.0
 40
4.5
100
AcDbArc
 50
230.4681641849162
 51
270.000000000153
  0
ARC
  5
5768
330
1A
100
AcDbEntity
  8
SEIHIN
  6
CONTINUOUS
 62
     3
 48
5.0
100
AcDbCircle
 10
345.3498457304104
 20
228.1513222624943
 30
0.0
 40
7.5
100
AcDbArc
 50
270.0000000352981
 51
315.0000000409007
  0
ARC
  5
5769
330
1A
100
AcDbEntity
  8
SEIHIN
  6
CONTINUOUS
 62
     3
 48
5.0
100
AcDbCircle
 10
343.2787779169968
 20
233.0837620791943
 30
0.0
 40
5.5
100
AcDbArc
 50
269.999999999785
 51
315.0
  0
LINE
  5
576A
330
1A
100
AcDbEntity
  8
SEIHIN
  6
CONTINUOUS
 62
     3
 48
5.0
100
AcDbLine
 10
351.6370082911549
 20
223.8318831054426
 30
0.0
 11
359.4889213876761
 21
220.1704758973708
 31
0.0
  0
LINE
  5
576B
330
1A
100
AcDbEntity
  8
SEIHIN
  6
CONTINUOUS
 62
     3
 48
5.0
100
AcDbLine
 10
351.336013363434
 20
223.5308881777206
 30
0.0
 11
359.3198740829851
 21
219.8079527825563
 31
0.0
  0
ARC
  5
5774
330
1A
100
AcDbEntity
  8
SEIHIN
  6
CONTINUOUS
 62
     3
 48
5.0
100
AcDbCircle
 10
360.5877290493797
 20
222.5268760591763
 30
0.0
 40
2.6
100
AcDbArc
 50
244.9999954184109
 51
295.9999929183112
  0
ARC
  5
5775
330
1A
100
AcDbEntity
  8
SEIHIN
  6
CONTINUOUS
 62
     3
 48
5.0
100
AcDbCircle
 10
360.5877290493797
 20
222.5268760591763
 30
0.0
 40
3.0
100
AcDbArc
 50
244.9999954185187
 51
295.9999929183148
  0
ARC
  5
5777
330
1A
100
AcDbEntity
  8
SEIHIN
  6
CONTINUOUS
 62
     3
 48
5.0
100
AcDbCircle
 10
360.5877290493797
 20
222.5268760591763
 30
0.0
 40
1.1
100
AcDbArc
 50
244.9999974262792
 51
295.9999918595907
  0
LINE
  5
577A
330
1A
100
AcDbEntity
  8
SEIHIN
  6
CONTINUOUS
 62
     3
 48
5.0
100
AcDbLine
 10
352.7657392701108
 20
224.9606140844027
 30
0.0
 11
360.1228489166845
 21
221.5299375143224
 31
0.0
  0
ARC
  5
577B
330
1A
100
AcDbEntity
  8
SEIHIN
  6
CONTINUOUS
 62
     3
 48
5.0
100
AcDbCircle
 10
330.7640592912353
 20
227.1931370791943
 30
0.0
 40
7.890625
100
AcDbArc
 50
48.29108392122444
 51
131.708916079156
  0
LINE
  5
577C
330
1A
100
AcDbEntity
  8
SEIHIN
  6
CONTINUOUS
 62
     3
 48
5.0
100
AcDbLine
 10
320.7640592912353
 20
233.0837620791943
 30
0.0
 11
343.278777916976
 21
233.0837620791943
 31
0.0
  0
LINE
  5
577D
330
1A
100
AcDbEntity
  8
SEIHIN
  6
CONTINUOUS
 62
     3
 48
5.0
100
AcDbLine
 10
320.7640592912353
 20
232.0837620791943
 30
0.0
 11
343.278777916976
 21
232.0837620791943
 31
0.0
  0
LINE
  5
577E
330
1A
100
AcDbEntity
  8
SEIHIN
  6
CONTINUOUS
 62
     3
 48
5.0
100
AcDbLine
 10
299.3419309277301
 20
234.538480199104
 30
0.0
 11
299.660184361392
 21
234.9241157160645
 31
0.0
  0
ARC
  5
577F
330
1A
100
AcDbEntity
  8
SEIHIN
  6
CONTINUOUS
 62
     3
 48
5.0
100
AcDbCircle
 10
300.0458198783856
 20
234.6058622823698
 30
0.0
 40
0.5
100
AcDbArc
 50
50.4681641843597
 51
140.4681641849137
  0
LINE
  5
5780
330
1A
100
AcDbEntity
  8
SEIHIN
  6
CONTINUOUS
 62
     3
 48
5.0
100
AcDbLine
 10
300.3640733120806
 20
234.9914977993302
 30
0.0
 11
306.7994156998486
 21
229.6806026098493
 31
0.0
  0
LINE
  5
5781
330
1A
100
AcDbEntity
  8
SEIHIN
  6
CONTINUOUS
 62
     3
 48
5.0
100
AcDbLine
 10
343.9858846981834
 20
232.3766552980079
 30
0.0
 11
356.7662645184339
 21
245.1570351183523
 31
0.0
  0
LINE
  5
5782
330
1A
100
AcDbEntity
  8
SEIHIN
  6
CONTINUOUS
 62
     3
 48
5.0
100
AcDbLine
 10
343.2787779169968
 20
233.0837620791943
 30
0.0
 11
356.0591577373582
 21
245.8641418995387
 31
0.0
  0
ARC
  5
5783
330
1A
100
AcDbEntity
  8
SEIHIN
  6
CONTINUOUS
 62
     3
 48
5.0
100
AcDbCircle
 10
343.2787779169968
 20
233.0837620791943
 30
0.0
 40
1.0
100
AcDbArc
 50
269.9999999988144
 51
315.0000000000046
  0
ARC
  5
5784
330
1A
100
AcDbEntity
  8
SEIHIN
  6
CONTINUOUS
 62
     3
 48
5.0
100
AcDbCircle
 10
361.3088628348105
 20
239.8676986797943
 30
0.0
 40
2.5
100
AcDbArc
 50
106.341621013294
 51
123.7811189984623
  0
ARC
  5
5787
330
1A
100
AcDbEntity
  8
SEIHIN
  6
CONTINUOUS
 62
     3
 48
5.0
100
AcDbCircle
 10
360.6553519548392
 20
241.2679479616115
 30
0.0
 40
5.5
100
AcDbArc
 50
92.99999897030694
 51
135.0000020600689
  0
ARC
  5
5788
330
1A
100
AcDbEntity
  8
SEIHIN
  6
CONTINUOUS
 62
     3
 48
5.0
100
AcDbCircle
 10
360.6553519548392
 20
241.2679479616115
 30
0.0
 40
6.5
100
AcDbArc
 50
92.99999897031021
 51
135.0000020597696
  0
LINE
  5
5789
330
1A
100
AcDbEntity
  8
SEIHIN
  6
CONTINUOUS
 62
     3
 48
5.0
100
AcDbLine
 10
390.2640592928103
 20
231.0851995827868
 30
0.0
 11
390.2640592927803
 21
223.2259666476943
 31
0.0
  0
LINE
  5
578A
330
1A
100
AcDbEntity
  8
SEIHIN
  6
CONTINUOUS
 62
     3
 48
5.0
100
AcDbLine
 10
389.2640592928103
 20
231.0851995827868
 30
0.0
 11
389.2640592927803
 21
222.2245944089943
 31
0.0
  0
LINE
  5
578B
330
1A
100
AcDbEntity
  8
SEIHIN
  6
CONTINUOUS
 62
     3
 48
5.0
100
AcDbLine
 10
387.2640592928103
 20
231.0851995827868
 30
0.0
 11
387.2640592927803
 21
222.2245943016943
 31
0.0
  0
LINE
  5
578C
330
1A
100
AcDbEntity
  8
SEIHIN
  6
CONTINUOUS
 62
     3
 48
5.0
100
AcDbLine
 10
375.6594989092903
 20
229.2894882634
 30
0.0
 11
375.6594989093159
 21
233.4177188236852
 31
0.0
  0
ARC
  5
578D
330
1A
100
AcDbEntity
  8
SEIHIN
  6
CONTINUOUS
 62
     3
 48
5.0
100
AcDbCircle
 10
371.1594989092903
 20
230.9096183660507
 30
0.0
 40
4.0
100
AcDbArc
 50
296.000000000324
 51
0.0
  0
LINE
  5
5790
330
1A
100
AcDbEntity
  8
SEIHIN
  6
CONTINUOUS
 62
     3
 48
5.0
100
AcDbLine
 10
381.6428126589103
 20
219.9895565999943
 30
0.0
 11
381.6428126588601
 21
203.5916312279943
 31
0.0
  0
LINE
  5
5791
330
1A
100
AcDbEntity
  8
SEIHIN
  6
CONTINUOUS
 62
     3
 48
5.0
100
AcDbLine
 10
379.6428126589103
 20
220.0943721584942
 30
0.0
 11
379.6428126588601
 21
203.5916312279943
 31
0.0
  0
LINE
  5
5794
330
1A
100
AcDbEntity
  8
SEIHIN
  6
CONTINUOUS
 62
     3
 48
5.0
100
AcDbLine
 10
379.6428126589103
 20
203.5916312279943
 30
0.0
 11
381.6428126588601
 21
203.5916312279943
 31
0.0
  0
POINT
  5
5798
330
1A
100
AcDbEntity
  8
SEIHIN
  6
CONTINUOUS
 62
     3
 48
5.0
100
AcDbPoint
 10
379.6428126588601
 20
203.5916312279943
 30
0.0
  0
POINT
  5
5799
330
1A
100
AcDbEntity
  8
SEIHIN
  6
CONTINUOUS
 62
     3
 48
5.0
100
AcDbPoint
 10
379.6428126589103
 20
203.5916312279943
 30
0.0
  0
LINE
  5
57A1
330
1A
100
AcDbEntity
  8
SEIHIN
  6
CONTINUOUS
 62
     3
 48
5.0
100
AcDbLine
 10
386.6332193772105
 20
219.7280204660943
 30
0.0
 11
379.6428126588601
 21
220.0943721584942
 31
0.0
  0
LINE
  5
57A2
330
1A
100
AcDbEntity
  8
SEIHIN
  6
CONTINUOUS
 62
     3
 48
5.0
100
AcDbLine
 10
386.7378913147104
 20
221.7252795342942
 30
0.0
 11
379.7474845713607
 21
222.0916312279943
 31
0.0
  0
LINE
  5
57A3
330
1A
100
AcDbEntity
  8
SEIHIN
  6
CONTINUOUS
 62
     3
 48
5.0
100
AcDbLine
 10
379.7474845714105
 20
222.0916312279943
 30
0.0
 11
379.6428126588601
 21
220.0943721584942
 31
0.0
  0
ARC
  5
57A4
330
1A
100
AcDbEntity
  8
SEIHIN
  6
CONTINUOUS
 62
     3
 48
5.0
100
AcDbCircle
 10
371.1594989092903
 20
229.2407154553382
 30
0.0
 40
4.0
100
AcDbArc
 50
296.000000000324
 51
359.9999999994153
  0
ARC
  5
57A5
330
1A
100
AcDbEntity
  8
SEIHIN
  6
CONTINUOUS
 62
     3
 48
5.0
100
AcDbCircle
 10
371.2594989092903
 20
229.2894887141948
 30
0.0
 40
4.4
100
AcDbArc
 50
296.0000000001252
 51
359.9999941298567
  0
ARC
  5
57A6
330
1A
100
AcDbEntity
  8
SEIHIN
  6
CONTINUOUS
 62
     3
 48
5.0
100
AcDbCircle
 10
386.7640592928103
 20
222.2245943016943
 30
0.0
 40
2.5
100
AcDbArc
 50
266.999999426501
 51
0.0000024582990577
  0
ARC
  5
57A7
330
1A
100
AcDbEntity
  8
SEIHIN
  6
CONTINUOUS
 62
     3
 48
5.0
100
AcDbCircle
 10
386.7640592928103
 20
223.2259666476943
 30
0.0
 40
3.5
100
AcDbArc
 50
267.0000000349007
 51
0.0
  0
ARC
  5
57A8
330
1A
100
AcDbEntity
  8
SEIHIN
  6
CONTINUOUS
 62
     3
 48
5.0
100
AcDbCircle
 10
386.7640592928103
 20
222.2245943016943
 30
0.0
 40
0.5
100
AcDbArc
 50
267.000000034904
 51
0.0
  0
POINT
  5
57A9
330
1A
100
AcDbEntity
  8
SEIHIN
  6
CONTINUOUS
 62
     3
 48
5.0
100
AcDbPoint
 10
387.2640592927803
 20
222.2245943016943
 30
0.0
  0
POINT
  5
57AA
330
1A
100
AcDbEntity
  8
SEIHIN
  6
CONTINUOUS
 62
     3
 48
5.0
100
AcDbPoint
 10
387.2640592927803
 20
222.2245943016943
 30
0.0
  0
ARC
  5
57AE
330
1A
100
AcDbEntity
  8
SEIHIN
  6
CONTINUOUS
 62
     3
 48
5.0
100
AcDbCircle
 10
395.2644763896222
 20
249.5382477858723
 30
0.0
 40
5.5
100
AcDbArc
 50
272.9999999966757
 51
21.80100291240386
  0
LINE
  5
57AF
330
1A
100
AcDbEntity
  8
SEIHIN
  6
CONTINUOUS
 62
     3
 48
5.0
100
AcDbLine
 10
399.2561977470122
 20
254.3682053819007
 30
0.0
 11
400.3711126838337
 21
251.5808602689042
 31
0.0
  0
LINE
  5
57B0
330
1A
100
AcDbEntity
  8
SEIHIN
  6
CONTINUOUS
 62
     3
 48
5.0
100
AcDbLine
 10
399.7204374195881
 20
254.5538974022103
 30
0.0
 11
393.5924737414334
 21
252.1027627340626
 31
0.0
  0
LINE
  5
57B1
330
1A
100
AcDbEntity
  8
SEIHIN
  6
CONTINUOUS
 62
     3
 48
5.0
100
AcDbLine
 10
396.2644763893226
 20
249.7308264835047
 30
0.0
 11
396.2644763893207
 21
249.5382477858584
 31
0.0
  0
LINE
  5
57B2
330
1A
100
AcDbEntity
  8
SEIHIN
  6
CONTINUOUS
 62
     3
 48
5.0
100
AcDbLine
 10
395.348223698863
 20
252.0215056861045
 30
0.0
 11
391.9796012646277
 21
249.3660947753508
 31
0.0
  0
LINE
  5
57B3
330
1A
100
AcDbEntity
  8
SEIHIN
  6
CONTINUOUS
 62
     3
 48
5.0
100
AcDbLine
 10
384.6332194022106
 20
241.5907625836943
 30
0.0
 11
368.553167983717
 21
240.7480427980944
 31
0.0
  0
LINE
  5
57B4
330
1A
100
AcDbEntity
  8
SEIHIN
  6
CONTINUOUS
 62
     3
 48
5.0
100
AcDbLine
 10
375.1594989092732
 20
229.2407154552974
 30
0.0
 11
375.1594989093159
 21
233.4177188236852
 31
0.0
  0
LINE
  5
57B5
330
1A
100
AcDbEntity
  8
SEIHIN
  6
CONTINUOUS
 62
     3
 48
5.0
100
AcDbLine
 10
375.1594989092903
 20
233.4177188236852
 30
0.0
 11
375.6594989093159
 21
233.4177188236852
 31
0.0
  0
POINT
  5
57B6
330
1A
100
AcDbEntity
  8
SEIHIN
  6
CONTINUOUS
 62
     3
 48
5.0
100
AcDbPoint
 10
375.6594989092903
 20
230.9583911741125
 30
0.0
  0
ARC
  5
57B7
330
1A
100
AcDbEntity
  8
SEIHIN
  6
CONTINUOUS
 62
     3
 48
5.0
100
AcDbCircle
 10
395.2644763893567
 20
249.5382477858584
 30
0.0
 40
1.0
100
AcDbArc
 50
272.9999999983683
 51
0.0
  0
ARC
  5
57B8
330
1A
100
AcDbEntity
  8
SEIHIN
  6
CONTINUOUS
 62
     3
 48
5.0
100
AcDbCircle
 10
384.7640592928103
 20
239.0941887467943
 30
0.0
 40
4.5
100
AcDbArc
 50
0.0000081785994234
 51
80.61349019949087
  0
ARC
  5
57B9
330
1A
100
AcDbEntity
  8
SEIHIN
  6
CONTINUOUS
 62
     3
 48
5.0
100
AcDbCircle
 10
384.7640592928103
 20
239.0941887467943
 30
0.0
 40
2.5
100
AcDbArc
 50
0.0
 51
93.00000001279988
  0
ARC
  5
57BA
330
1A
100
AcDbEntity
  8
SEIHIN
  6
CONTINUOUS
 62
     3
 48
5.0
100
AcDbCircle
 10
384.7640592928103
 20
239.0941887468463
 30
0.0
 40
5.5
100
AcDbArc
 50
0.0
 51
55.98700613417919
  0
LINE
  5
57BB
330
1A
100
AcDbEntity
  8
SEIHIN
  6
CONTINUOUS
 62
     3
 48
5.0
100
AcDbLine
 10
387.2640592928103
 20
239.1513222624943
 30
0.0
 11
387.2640592927803
 21
231.0851995827868
 31
0.0
  0
LINE
  5
57BC
330
1A
100
AcDbEntity
  8
SEIHIN
  6
CONTINUOUS
 62
     3
 48
5.0
100
AcDbLine
 10
390.2640592928103
 20
239.0941887468463
 30
0.0
 11
390.2640592927803
 21
231.0851995827868
 31
0.0
  0
LINE
  5
57BD
330
1A
100
AcDbEntity
  8
SEIHIN
  6
CONTINUOUS
 62
     3
 48
5.0
100
AcDbLine
 10
389.2640592928103
 20
239.0941893891943
 30
0.0
 11
389.2640592927803
 21
231.0851995827868
 31
0.0
  0
POINT
  5
57C1
330
1A
100
AcDbEntity
  8
SEIHIN
  6
CONTINUOUS
 62
     3
 48
5.0
100
AcDbPoint
 10
399.7204374194134
 20
254.5538974022103
 30
0.0
  0
POINT
  5
57C2
330
1A
100
AcDbEntity
  8
SEIHIN
  6
CONTINUOUS
 62
     3
 48
5.0
100
AcDbPoint
 10
399.7204374194134
 20
254.5538974022103
 30
0.0
  0
LINE
  5
57CA
330
1A
100
AcDbEntity
  8
SEIHIN
  6
CONTINUOUS
 62
     3
 48
5.0
100
AcDbLine
 10
386.721995997594
 20
287.0506744823913
 30
0.0
 11
380.5940323195412
 21
284.5995398142438
 31
0.0
  0
POINT
  5
57CC
330
1A
100
AcDbEntity
  8
SEIHIN
  6
CONTINUOUS
 62
     3
 48
5.0
100
AcDbPoint
 10
386.721995997594
 20
287.0506744823913
 30
0.0
  0
POINT
  5
57CE
330
1A
100
AcDbEntity
  8
SEIHIN
  6
CONTINUOUS
 62
     3
 48
5.0
100
AcDbPoint
 10
386.721995997594
 20
287.0506744823913
 30
0.0
  0
LINE
  5
58A6
330
1A
100
AcDbEntity
  8
CENTER_L
  6
CENTER
 62
     1
 48
5.0
100
AcDbLine
 10
503.0115210463984
 20
342.5817511891023
 30
0.0
 11
543.1928004116145
 21
242.1264707442715
 31
0.0
  0
LINE
  5
58E0
330
1A
100
AcDbEntity
  8
CENTER_L
  6
CENTER
 62
     1
 48
5.0
100
AcDbLine
 10
377.0657492285975
 20
274.5720167686868
 30
0.0
 11
398.20259101925
 21
283.0265782528568
 31
0.0
  0
LINE
  5
58E1
330
1A
100
AcDbEntity
  8
CENTER_L
  6
CENTER
 62
     1
 48
5.0
100
AcDbLine
 10
384.1220460005373
 20
256.9309092108742
 30
0.0
 11
405.2588877911065
 21
265.3854706950109
 31
0.0
  0
LINE
  5
590B
330
1A
100
AcDbEntity
  8
SEIHIN
  6
CONTINUOUS
 62
     3
 48
5.0
100
AcDbLine
 10
383.7936152231974
 20
417.5017105633037
 30
0.0
 11
383.7936152229189
 21
402.7013197424959
 31
0.0
  0
LINE
  5
590C
330
1A
100
AcDbEntity
  8
SEIHIN
  6
CONTINUOUS
 62
     3
 48
5.0
100
AcDbLine
 10
386.2791821753298
 20
417.5017107656621
 30
0.0
 11
386.2791821751585
 21
402.7013203497069
 31
0.0
  0
LINE
  5
590D
330
1A
100
AcDbEntity
  8
SEIHIN
  6
CONTINUOUS
 62
     3
 48
5.0
100
AcDbLine
 10
382.1936055335492
 20
399.6191419869869
 30
0.0
 11
385.2531252717442
 21
401.0762008466967
 31
0.0
  0
ARC
  5
590E
330
1A
100
AcDbEntity
  8
SEIHIN
  6
CONTINUOUS
 62
     3
 48
5.0
100
AcDbCircle
 10
383.593615223161
 20
402.7013197424959
 30
0.0
 40
0.2
100
AcDbArc
 50
295.4655177646931
 51
0.0
  0
ARC
  5
590F
330
1A
100
AcDbEntity
  8
SEIHIN
  6
CONTINUOUS
 62
     3
 48
5.0
100
AcDbCircle
 10
381.3940323197072
 20
399.438573024903
 30
0.0
 40
1.8
100
AcDbArc
 50
115.4655539240165
 51
179.9999871145834
  0
LINE
  5
5910
330
1A
100
AcDbEntity
  8
SEIHIN
  6
CONTINUOUS
 62
     3
 48
5.0
100
AcDbLine
 10
380.6200892231836
 20
401.0636921231059
 30
0.0
 11
383.679608786489
 21
402.5207508995476
 31
0.0
  0
ARC
  5
5911
330
1A
100
AcDbEntity
  8
SEIHIN
  6
CONTINUOUS
 62
     3
 48
5.0
100
AcDbCircle
 10
384.4791821753076
 20
402.7013199448996
 30
0.0
 40
1.8
100
AcDbArc
 50
295.4655539164485
 51
0.0000128854164979
  0
LINE
  5
5913
330
1A
100
AcDbEntity
  8
SEIHIN
  6
CONTINUOUS
 62
     3
 48
5.0
100
AcDbLine
 10
385.23614811945
 20
420.5017105631863
 30
0.0
 11
385.3936152231048
 21
420.5017105631863
 31
0.0
  0
LINE
  5
5914
330
1A
100
AcDbEntity
  8
SEIHIN
  6
CONTINUOUS
 62
     3
 48
5.0
100
AcDbLine
 10
379.5940323197071
 20
399.4385734297103
 30
0.0
 11
379.5940323195058
 21
379.5648476966622
 31
0.0
  0
LINE
  5
5915
330
1A
100
AcDbEntity
  8
SEIHIN
  6
CONTINUOUS
 62
     3
 48
5.0
100
AcDbLine
 10
382.0795992718536
 20
399.4385732273067
 30
0.0
 11
382.0795992717453
 21
379.5648478990658
 31
0.0
  0
LINE
  5
5916
330
1A
100
AcDbEntity
  8
SEIHIN
  6
CONTINUOUS
 62
     3
 48
5.0
100
AcDbLine
 10
382.1936055337641
 20
379.3842795440902
 30
0.0
 11
385.253125271959
 21
377.9272206843804
 31
0.0
  0
ARC
  5
5918
330
1A
100
AcDbEntity
  8
SEIHIN
  6
CONTINUOUS
 62
     3
 48
5.0
100
AcDbCircle
 10
381.394032319922
 20
379.564848101367
 30
0.0
 40
1.8
100
AcDbArc
 50
180.0000128854132
 51
244.5344460759834
  0
LINE
  5
5942
330
1A
100
AcDbEntity
  8
CENTER_L
  6
CENTER
 62
     1
 48
5.0
100
AcDbLine
 10
379.5940323196064
 20
411.5017105631863
 30
0.0
 11
403.1939729221416
 21
411.5017105631863
 31
0.0
  0
ELLIPSE
  5
595B
330
1A
100
AcDbEntity
  8
SEIHIN
  6
CONTINUOUS
 62
     3
 48
5.0
100
AcDbEllipse
 10
388.6930683225763
 20
411.5017105631863
 30
0.0
 11
0.0
 21
-2.100000000000022
 31
0.0
210
0.0
220
0.0
230
1.0
 40
0.3713840406241001
 41
0.0
 42
6.283185307179586
  0
ELLIPSE
  5
595C
330
1A
100
AcDbEntity
  8
SEIHIN
  6
CONTINUOUS
 62
     3
 48
5.0
100
AcDbEllipse
 10
395.7493650944343
 20
411.5017105631863
 30
0.0
 11
0.0
 21
-2.100000000000022
 31
0.0
210
0.0
220
0.0
230
1.0
 40
0.3713840406241001
 41
0.0
 42
6.283185307179586
  0
ELLIPSE
  5
5962
330
1A
100
AcDbEntity
  8
SEIHIN
  6
CONTINUOUS
 62
     3
 48
5.0
100
AcDbEllipse
 10
387.7217150715824
 20
417.5017107655899
 30
0.0
 11
0.0
 21
-3.0
 31
0.0
210
0.0
220
0.0
230
1.0
 40
0.480844298750867
 41
3.141592653589793
 42
4.712388980384689
  0
ELLIPSE
  5
5963
330
1A
100
AcDbEntity
  8
SEIHIN
  6
CONTINUOUS
 62
     3
 48
5.0
100
AcDbEllipse
 10
385.23614811945
 20
417.5017105631864
 30
0.0
 11
0.0
 21
-3.0
 31
0.0
210
0.0
220
0.0
230
1.0
 40
0.480844298750867
 41
3.141592653589793
 42
4.712388980384689
  0
ELLIPSE
  5
5965
330
1A
100
AcDbEntity
  8
SEIHIN
  6
CONTINUOUS
 62
     3
 48
5.0
100
AcDbEllipse
 10
397.2779045234291
 20
417.5017105631862
 30
0.0
 11
0.0
 21
-3.0
 31
0.0
210
0.0
220
0.0
230
-1.0
 40
0.480844298750867
 41
3.141592653589793
 42
4.712388980384689
  0
LINE
  5
5969
330
1A
100
AcDbEntity
  8
SEIHIN
  6
CONTINUOUS
 62
     3
 48
5.0
100
AcDbLine
 10
262.6872696737688
 20
255.2830729504746
 30
0.0
 11
262.6872696738593
 21
248.7830729504746
 31
0.0
  0
DIMENSION
  5
596A
330
1A
100
AcDbEntity
  8
SUNPOU
100
AcDbDimension
  2
*D20
 10
262.6872696737688
 20
280.9555144175305
 30
0.0
 11
263.6872696737688
 21
289.9555144175305
 31
0.0
 70
    32
  1
t<>
  3
STANDARD
100
AcDbAlignedDimension
 13
264.6872696737688
 23
255.2830729505024
 33
0.0
 14
262.6872696737688
 24
255.2830729504746
 34
0.0
100
AcDbRotatedDimension
1001
ACAD
1000
DSTYLE
1002
{
1070
   287
1070
     5
1070
    41
1040
7.0
1070
    42
1040
6.0
1070
    43
1040
14.0
1070
    44
1040
3.0
1070
    73
1070
     0
1070
    74
1070
     0
1070
    77
1070
     3
1070
   140
1040
6.0
1070
   141
1040
150.0
1070
   147
1040
2.0
1070
   172
1070
     1
1070
   173
1070
     1
1070
   176
1070
   256
1070
   177
1070
   256
1070
   178
1070
   256
1070
   271
1070
     1
1070
   272
1070
     0
1070
   279
1070
     2
1070
   341
1005
6D
1070
     6
1000
OPEN
1070
     7
1000
OPEN
1070
   371
1070
    -1
1070
   372
1070
    -1
1002
}
  0
LINE
  5
598F
330
1A
100
AcDbEntity
  8
SEIHIN
  6
CONTINUOUS
 62
     3
 48
5.0
100
AcDbLine
 10
385.9268003265217
 20
401.8187705817437
 30
0.0
 11
397.8721878225891
 21
401.8187705817437
 31
0.0
  0
LINE
  5
5991
330
1A
100
AcDbEntity
  8
SEIHIN
  6
CONTINUOUS
 62
     3
 48
5.0
100
AcDbLine
 10
386.2791821753302
 20
361.5017107655173
 30
0.0
 11
386.2791821751587
 21
376.3021011814726
 31
0.0
  0
LINE
  5
5992
330
1A
100
AcDbEntity
  8
SEIHIN
  6
CONTINUOUS
 62
     3
 48
5.0
100
AcDbLine
 10
398.7204374196117
 20
361.5017105631863
 30
0.0
 11
398.7204374194394
 21
376.3652381125453
 31
0.0
  0
LINE
  5
5993
330
1A
100
AcDbEntity
  8
SEIHIN
  6
CONTINUOUS
 62
     3
 48
5.0
100
AcDbLine
 10
383.7936152231979
 20
361.5017105630686
 30
0.0
 11
383.7936152229191
 21
376.3021013838764
 31
0.0
  0
LINE
  5
5994
330
1A
100
AcDbEntity
  8
SEIHIN
  6
CONTINUOUS
 62
     3
 48
5.0
100
AcDbLine
 10
385.9268003265219
 20
377.1846505446286
 30
0.0
 11
397.8721878225894
 21
377.1846505446288
 31
0.0
  0
ARC
  5
5995
330
1A
100
AcDbEntity
  8
SEIHIN
  6
CONTINUOUS
 62
     3
 48
5.0
100
AcDbCircle
 10
384.4791821753078
 20
376.3021015862799
 30
0.0
 40
1.8
100
AcDbArc
 50
359.9999871145843
 51
64.53444608355233
  0
LINE
  5
5996
330
1A
100
AcDbEntity
  8
SEIHIN
  6
CONTINUOUS
 62
     3
 48
5.0
100
AcDbLine
 10
380.6200892231838
 20
377.9397290032664
 30
0.0
 11
383.6796087864892
 21
376.4826702268247
 31
0.0
  0
ARC
  5
5997
330
1A
100
AcDbEntity
  8
SEIHIN
  6
CONTINUOUS
 62
     3
 48
5.0
100
AcDbCircle
 10
383.5936152231612
 20
376.3021013838764
 30
0.0
 40
0.2
100
AcDbArc
 50
0.0000000000008888
 51
64.53448223530772
  0
LINE
  5
5999
330
1A
100
AcDbEntity
  8
SEIHIN
  6
CONTINUOUS
 62
     3
 48
5.0
100
AcDbLine
 10
385.3936152232542
 20
358.501710563186
 30
0.0
 11
397.2779045234296
 21
358.5017105631863
 31
0.0
  0
LINE
  5
599A
330
1A
100
AcDbEntity
  8
CENTER_L
  6
CENTER
 62
     1
 48
5.0
100
AcDbLine
 10
379.5940323196068
 20
367.501710563186
 30
0.0
 11
403.193972922142
 21
367.5017105631864
 31
0.0
  0
ELLIPSE
  5
599B
330
1A
100
AcDbEntity
  8
SEIHIN
  6
CONTINUOUS
 62
     3
 48
5.0
100
AcDbEllipse
 10
385.2361481194504
 20
361.501710563186
 30
0.0
 11
-0.0000000000000465
 21
3.0
 31
0.0
210
0.0
220
0.0
230
-1.0
 40
0.480844298750867
 41
3.141592653589793
 42
4.712388980384689
  0
ELLIPSE
  5
599C
330
1A
100
AcDbEntity
  8
SEIHIN
  6
CONTINUOUS
 62
     3
 48
5.0
100
AcDbEllipse
 10
387.7217150715829
 20
361.5017107655896
 30
0.0
 11
-0.0000000000000465
 21
3.0
 31
0.0
210
0.0
220
0.0
230
-1.0
 40
0.480844298750867
 41
3.141592653589793
 42
4.712388980384689
  0
LINE
  5
599D
330
1A
100
AcDbEntity
  8
SEIHIN
  6
CONTINUOUS
 62
     3
 48
5.0
100
AcDbLine
 10
385.2361481194505
 20
358.501710563186
 30
0.0
 11
385.3936152231053
 21
358.501710563186
 31
0.0
  0
ELLIPSE
  5
599E
330
1A
100
AcDbEntity
  8
SEIHIN
  6
CONTINUOUS
 62
     3
 48
5.0
100
AcDbEllipse
 10
395.7493650944346
 20
367.5017105631862
 30
0.0
 11
-0.0000000000000326
 21
2.100000000000022
 31
0.0
210
0.0
220
0.0
230
-1.0
 40
0.3713840406241001
 41
0.0
 42
6.283185307179586
  0
ELLIPSE
  5
599F
330
1A
100
AcDbEntity
  8
SEIHIN
  6
CONTINUOUS
 62
     3
 48
5.0
100
AcDbEllipse
 10
388.6930683225766
 20
367.5017105631861
 30
0.0
 11
-0.0000000000000326
 21
2.100000000000022
 31
0.0
210
0.0
220
0.0
230
-1.0
 40
0.3713840406241001
 41
0.0
 42
6.283185307179586
  0
ELLIPSE
  5
59A0
330
1A
100
AcDbEntity
  8
SEIHIN
  6
CONTINUOUS
 62
     3
 48
5.0
100
AcDbEllipse
 10
397.2779045234295
 20
361.5017105631863
 30
0.0
 11
-0.0000000000000465
 21
3.0
 31
0.0
210
0.0
220
0.0
230
1.0
 40
0.480844298750867
 41
3.141592653589793
 42
4.712388980384689
  0
LINE
  5
59A2
330
1A
100
AcDbEntity
  8
SEIHIN
  6
CONTINUOUS
 62
     3
 48
5.0
100
AcDbLine
 10
309.3043462535887
 20
394.1492355847779
 30
0.0
 11
309.3043462535472
 21
400.8580049940522
 31
0.0
  0
DIMENSION
  5
59AE
330
1A
100
AcDbEntity
  8
SUNPOU
100
AcDbDimension
  2
*D21
 10
383.3778242909846
 20
295.4112770299908
 30
0.0
 11
391.0594531782724
 21
305.6185749101737
 31
0.0
 70
   161
  1
t<>
  3
STANDARD
100
AcDbAlignedDimension
 13
385.236429045357
 23
286.4564600173858
 33
0.0
 14
386.721995997594
 24
287.0506744823912
 34
0.0
1001
ACAD
1000
DSTYLE
1002
{
1070
   287
1070
     5
1070
    41
1040
7.0
1070
    42
1040
6.0
1070
    43
1040
14.0
1070
    44
1040
3.0
1070
    73
1070
     0
1070
    74
1070
     0
1070
    77
1070
     3
1070
   140
1040
6.0
1070
   141
1040
150.0
1070
   147
1040
2.0
1070
   172
1070
     1
1070
   173
1070
     1
1070
   176
1070
   256
1070
   177
1070
   256
1070
   178
1070
   256
1070
   271
1070
     1
1070
   272
1070
     0
1070
   279
1070
     2
1070
   341
1005
6D
1070
     6
1000
OPEN
1070
     7
1000
OPEN
1070
   371
1070
    -1
1070
   372
1070
    -1
1002
}
  0
LINE
  5
5F09
330
1A
100
AcDbEntity
  8
SEIHIN
  6
CONTINUOUS
 62
     3
 48
5.0
100
AcDbLine
 10
382.0795992718463
 20
399.5017105631863
 30
0.0
 11
382.0795992717526
 21
379.5017105631862
 31
0.0
  0
LINE
  5
5F0A
330
1A
100
AcDbEntity
  8
SEIHIN
  6
CONTINUOUS
 62
     3
 48
5.0
100
AcDbLine
 10
386.2577563278707
 20
399.5017105631863
 30
0.0
 11
386.257756327777
 21
379.5017105631862
 31
0.0
  0
LINE
  5
5F0C
330
1A
100
AcDbEntity
  8
SEIHIN
  6
CONTINUOUS
 62
     3
 48
5.0
100
AcDbLine
 10
395.0780406936761
 20
252.6969771990532
 30
0.0
 11
396.2644763893226
 21
249.7308264837314
 31
0.0
  0
LINE
  5
5F0D
330
1A
100
AcDbEntity
  8
SEIHIN
  6
CONTINUOUS
 62
     3
 48
5.0
100
AcDbLine
 10
382.0795992718463
 20
399.5017105631863
 30
0.0
 11
401.0640592939722
 21
399.5017105631863
 31
0.0
  0
LINE
  5
5F0E
330
1A
100
AcDbEntity
  8
SEIHIN
  6
CONTINUOUS
 62
     3
 48
5.0
100
AcDbLine
 10
382.0795992717527
 20
379.5017105631863
 30
0.0
 11
401.0640592939722
 21
379.5017105631862
 31
0.0
  0
LINE
  5
5F7E
330
1A
100
AcDbEntity
  8
SEIHIN
  6
CONTINUOUS
 62
     3
 48
5.0
100
AcDbLine
 10
310.930513009788
 20
386.0616546003985
 30
0.0
 11
310.9305130097463
 21
392.8013059525929
 31
0.0
  0
LINE
  5
5F7F
330
1A
100
AcDbEntity
  8
SEIHIN
  6
CONTINUOUS
 62
     3
 48
5.0
100
AcDbLine
 10
343.3925965290377
 20
383.535430611204
 30
0.0
 11
343.3925965289756
 21
395.3853047371404
 31
0.0
  0
LINE
  5
5F80
330
1A
100
AcDbEntity
  8
SEIHIN
  6
CONTINUOUS
 62
     3
 48
5.0
100
AcDbLine
 10
342.2499336969742
 20
396.9557697712761
 30
0.0
 11
342.2499336969608
 21
399.5017105631863
 31
0.0
  0
LINE
  5
5F81
330
1A
100
AcDbEntity
  8
SEIHIN
  6
CONTINUOUS
 62
     3
 48
5.0
100
AcDbLine
 10
357.9482525575187
 20
379.5017105631863
 30
0.0
 11
357.9482525575054
 21
382.5017105631863
 31
0.0
  0
LINE
  5
5F82
330
1A
100
AcDbEntity
  8
SEIHIN
  6
CONTINUOUS
 62
     3
 48
5.0
100
AcDbLine
 10
357.9482525574433
 20
396.5017105631863
 30
0.0
 11
357.9482525574301
 21
399.5017105631863
 31
0.0
  0
LINE
  5
5F83
330
1A
100
AcDbEntity
  8
SEIHIN
  6
CONTINUOUS
 62
     3
 48
5.0
100
AcDbLine
 10
513.4897803871532
 20
289.4592547622275
 30
0.0
 11
532.0593672901138
 21
296.8869355747957
 31
0.0
  0
TEXT
  5
622C
330
1A
100
AcDbEntity
  8
SUNPOU
100
AcDbText
 10
570.1337227018844
 20
397.9829979115602
 30
0.0
 40
7.0
  1
4-φ4.2
100
AcDbText
  0
VIEWPORT
  5
22
330
17
100
AcDbEntity
 67
     1
  8
0
100
AcDbViewport
 10
313.6808219178082
 20
286.420032064001
 30
0.0
 40
627.3616438356164
 41
572.840064128002
 68
     2
 69
     1
1001
ACAD
1000
MVIEW
1002
{
1070
    16
1010
0.0
1020
0.0
1030
0.0
1010
0.0
1020
0.0
1030
1.0
1040
0.0
1040
572.840064128002
1040
313.6808219178082
1040
286.420032064001
1040
50.0
1040
0.0
1040
0.0
1070
     0
1070
   100
1070
     1
1070
     0
1070
     0
1070
     0
1070
     0
1070
     0
1040
0.0
1040
0.0
1040
0.0
1040
1.0
1040
1.0
1040
10.0
1040
10.0
1070
     0
1002
{
1002
}
1002
}
  0
VIEWPORT
  5
64
330
17
100
AcDbEntity
 67
     1
  8
VIEWPORT
100
AcDbViewport
 10
210.0
 20
148.5
 30
0.0
 40
420.0
 41
297.0
 68
     1
 69
     2
1001
ACAD
1000
MVIEW
1002
{
1070
    16
1010
0.0
1020
0.0
1030
0.0
1010
0.0
1020
0.0
1030
1.0
1040
0.0
1040
605.8799999999998
1040
420.0
1040
297.0
1040
50.0
1040
0.0
1040
0.0
1070
     0
1070
   100
1070
     1
1070
     0
1070
     0
1070
     0
1070
     0
1070
     0
1040
0.0
1040
0.0
1040
0.0
1040
10.0
1040
10.0
1040
0.0
1040
0.0
1070
     0
1002
{
1002
}
1002
}
  0
ENDSEC
  0
SECTION
  2
OBJECTS
  0
DICTIONARY
  5
C
330
0
100
AcDbDictionary
  3
ACAD_GROUP
350
D
  3
ACAD_LAYOUT
350
A98
  3
ACAD_MLINESTYLE
350
E
  3
ACAD_PLOTSETTINGS
350
A99
1001
ACAD
1000
TREAT_AS_HARD
1070
     0
  0
DICTIONARY
  5
AC7
330
1A
100
AcDbDictionary
  3
ACAD_LAYOUTSELFREF
350
64AC
1001
ACAD
1000
TREAT_AS_HARD
1070
     1
  0
DICTIONARY
  5
AC5
330
17
100
AcDbDictionary
  3
ACAD_LAYOUTSELFREF
350
64AB
1001
ACAD
1000
TREAT_AS_HARD
1070
     1
  0
DICTIONARY
  5
D
102
{ACAD_REACTORS
330
C
102
}
330
C
100
AcDbDictionary
  3
*A1
350
FA3
  3
*A2
350
1597
  3
*A3
350
179D
  3
*A4
350
3390
  3
*A5
350
3A0A
1001
ACAD
1000
TREAT_AS_HARD
1070
     0
  0
DICTIONARY
  5
A98
102
{ACAD_REACTORS
330
C
102
}
330
C
100
AcDbDictionary
1001
ACAD
1000
TREAT_AS_HARD
1070
     0
  0
DICTIONARY
  5
E
102
{ACAD_REACTORS
330
C
102
}
330
C
100
AcDbDictionary
  3
STANDARD
350
13
1001
ACAD
1000
TREAT_AS_HARD
1070
     0
  0
DICTIONARY
  5
A99
102
{ACAD_REACTORS
330
C
102
}
330
C
100
AcDbDictionary
1001
ACAD
1000
TREAT_AS_HARD
1070
     0
  0
XRECORD
  5
64AC
102
{ACAD_REACTORS
330
AC7
102
}
330
AC7
100
AcDbXrecord
340
1A
  0
XRECORD
  5
64AB
102
{ACAD_REACTORS
330
AC5
102
}
330
AC5
100
AcDbXrecord
340
17
  0
GROUP
  5
FA3
102
{ACAD_REACTORS
330
D
102
}
330
D
100
AcDbGroup
300

 70
     1
 71
     1
  0
GROUP
  5
1597
102
{ACAD_REACTORS
330
D
102
}
330
D
100
AcDbGroup
300

 70
     1
 71
     1
  0
GROUP
  5
179D
102
{ACAD_REACTORS
330
D
102
}
330
D
100
AcDbGroup
300

 70
     1
 71
     1
  0
GROUP
  5
3390
102
{ACAD_REACTORS
330
D
102
}
330
D
100
AcDbGroup
300

 70
     1
 71
     1
  0
GROUP
  5
3A0A
102
{ACAD_REACTORS
330
D
102
}
330
D
100
AcDbGroup
300

 70
     1
 71
     1
  0
MLINESTYLE
  5
13
102
{ACAD_REACTORS
330
E
102
}
330
E
100
AcDbMlineStyle
  2
STANDARD
 70
     0
  3

 62
     0
 51
90.0
 52
90.0
 71
     2
 49
0.5
 62
   256
  6
BYLAYER
 49
-0.5
 62
   256
  6
BYLAYER
  0
ENDSEC
  0
EOF
