  0
SECTION
  2
HEADER
  9
$ACADVER
  1
AC1014
  9
$ACADMAINTVER
 70
     9
  9
$DWGCODEPAGE
  3
ANSI_932
  9
$INSBASE
 10
0.0
 20
0.0
 30
0.0
  9
$EXTMIN
 10
-389.2995797410515
 20
-77.96376819024954
 30
-0.0015258207003583
  9
$EXTMAX
 10
408.3553147353943
 20
473.6698988019773
 30
0.0000000349246037
  9
$LIMMIN
 10
0.0
 20
0.0
  9
$LIMMAX
 10
420.0
 20
297.0
  9
$ORTHOMODE
 70
     0
  9
$REGENMODE
 70
     1
  9
$FILLMODE
 70
     1
  9
$QTEXTMODE
 70
     0
  9
$MIRRTEXT
 70
     1
  9
$DRAGMODE
 70
     2
  9
$LTSCALE
 40
1.0
  9
$OSMODE
 70
    37
  9
$ATTMODE
 70
     1
  9
$TEXTSIZE
 40
2.5
  9
$TRACEWID
 40
1.0
  9
$TEXTSTYLE
  7
STANDARD
  9
$CLAYER
  8
KEIJYO
  9
$CELTYPE
  6
BYLAYER
  9
$CECOLOR
 62
   256
  9
$CELTSCALE
 40
1.0
  9
$DELOBJ
 70
     1
  9
$DISPSILH
 70
     0
  9
$DIMSCALE
 40
1.0
  9
$DIMASZ
 40
3.0
  9
$DIMEXO
 40
3.0
  9
$DIMDLI
 40
7.0
  9
$DIMRND
 40
0.0
  9
$DIMDLE
 40
0.0
  9
$DIMEXE
 40
1.5
  9
$DIMTP
 40
0.0
  9
$DIMTM
 40
0.0
  9
$DIMTXT
 40
3.0
  9
$DIMCEN
 40
150.0
  9
$DIMTSZ
 40
0.0
  9
$DIMTOL
 70
     0
  9
$DIMLIM
 70
     0
  9
$DIMTIH
 70
     0
  9
$DIMTOH
 70
     0
  9
$DIMSE1
 70
     0
  9
$DIMSE2
 70
     0
  9
$DIMTAD
 70
     3
  9
$DIMZIN
 70
     0
  9
$DIMBLK
  1

  9
$DIMASO
 70
     1
  9
$DIMSHO
 70
     1
  9
$DIMPOST
  1

  9
$DIMAPOST
  1

  9
$DIMALT
 70
     0
  9
$DIMALTD
 70
     2
  9
$DIMALTF
 40
25.4
  9
$DIMLFAC
 40
1.0
  9
$DIMTOFL
 70
     1
  9
$DIMTVP
 40
0.0
  9
$DIMTIX
 70
     0
  9
$DIMSOXD
 70
     0
  9
$DIMSAH
 70
     1
  9
$DIMBLK1
  1
OPEN
  9
$DIMBLK2
  1
OPEN
  9
$DIMSTYLE
  2
STANDARD
  9
$DIMCLRD
 70
   256
  9
$DIMCLRE
 70
   256
  9
$DIMCLRT
 70
   256
  9
$DIMTFAC
 40
1.0
  9
$DIMGAP
 40
1.0
  9
$DIMJUST
 70
     0
  9
$DIMSD1
 70
     0
  9
$DIMSD2
 70
     0
  9
$DIMTOLJ
 70
     1
  9
$DIMTZIN
 70
     0
  9
$DIMALTZ
 70
     0
  9
$DIMALTTZ
 70
     0
  9
$DIMFIT
 70
     3
  9
$DIMUPT
 70
     1
  9
$DIMUNIT
 70
     2
  9
$DIMDEC
 70
     0
  9
$DIMTDEC
 70
     0
  9
$DIMALTU
 70
     2
  9
$DIMALTTD
 70
     2
  9
$DIMTXSTY
  7
STANDARD
  9
$DIMAUNIT
 70
     0
  9
$LUNITS
 70
     2
  9
$LUPREC
 70
     4
  9
$SKETCHINC
 40
1.0
  9
$FILLETRAD
 40
0.5
  9
$AUNITS
 70
     0
  9
$AUPREC
 70
     0
  9
$MENU
  1
.
  9
$ELEVATION
 40
0.0
  9
$PELEVATION
 40
0.0
  9
$THICKNESS
 40
0.0
  9
$LIMCHECK
 70
     0
  9
$BLIPMODE
 70
     0
  9
$CHAMFERA
 40
10.0
  9
$CHAMFERB
 40
10.0
  9
$CHAMFERC
 40
20.0
  9
$CHAMFERD
 40
0.0
  9
$SKPOLY
 70
     0
  9
$TDCREATE
 40
2451100.394552546
  9
$TDUPDATE
 40
2454484.374654965
  9
$TDINDWG
 40
0.1044426273
  9
$TDUSRTIMER
 40
0.1044426273
  9
$USRTIMER
 70
     1
  9
$ANGBASE
 50
0.0
  9
$ANGDIR
 70
     0
  9
$PDMODE
 70
     0
  9
$PDSIZE
 40
0.0
  9
$PLINEWID
 40
0.0
  9
$COORDS
 70
     1
  9
$SPLFRAME
 70
     0
  9
$SPLINETYPE
 70
     6
  9
$SPLINESEGS
 70
     8
  9
$ATTDIA
 70
     0
  9
$ATTREQ
 70
     1
  9
$HANDLING
 70
 10241
  9
$HANDSEED
  5
15A3
  9
$SURFTAB1
 70
     6
  9
$SURFTAB2
 70
     6
  9
$SURFTYPE
 70
     6
  9
$SURFU
 70
     6
  9
$SURFV
 70
     6
  9
$UCSNAME
  2

  9
$UCSORG
 10
0.0
 20
0.0
 30
0.0
  9
$UCSXDIR
 10
1.0
 20
0.0
 30
0.0
  9
$UCSYDIR
 10
0.0
 20
1.0
 30
0.0
  9
$PUCSNAME
  2

  9
$PUCSORG
 10
0.0
 20
0.0
 30
0.0
  9
$PUCSXDIR
 10
1.0
 20
0.0
 30
0.0
  9
$PUCSYDIR
 10
0.0
 20
1.0
 30
0.0
  9
$USERI1
 70
     0
  9
$USERI2
 70
     0
  9
$USERI3
 70
     0
  9
$USERI4
 70
     0
  9
$USERI5
 70
     0
  9
$USERR1
 40
0.0
  9
$USERR2
 40
0.0
  9
$USERR3
 40
0.0
  9
$USERR4
 40
0.0
  9
$USERR5
 40
0.0
  9
$WORLDVIEW
 70
     1
  9
$SHADEDGE
 70
     3
  9
$SHADEDIF
 70
    70
  9
$TILEMODE
 70
     1
  9
$MAXACTVP
 70
    16
  9
$PINSBASE
 10
0.0
 20
0.0
 30
0.0
  9
$PLIMCHECK
 70
     0
  9
$PEXTMIN
 10
0.0
 20
0.0
 30
0.0
  9
$PEXTMAX
 10
420.0
 20
297.0
 30
0.0
  9
$PLIMMIN
 10
0.0
 20
0.0
  9
$PLIMMAX
 10
420.0
 20
297.0
  9
$UNITMODE
 70
     0
  9
$VISRETAIN
 70
     0
  9
$PLINEGEN
 70
     0
  9
$PSLTSCALE
 70
     1
  9
$TREEDEPTH
 70
  3020
  9
$PICKSTYLE
 70
     1
  9
$CMLSTYLE
  2
STANDARD
  9
$CMLJUST
 70
     0
  9
$CMLSCALE
 40
1.0
  9
$PROXYGRAPHICS
 70
     1
  9
$MEASUREMENT
 70
     1
  0
ENDSEC
  0
SECTION
  2
CLASSES
  0
CLASS
  1
ACDBDICTIONARYWDFLT
  2
AcDbDictionaryWithDefault
  3
AutoCAD 2000
 90
        0
280
     0
281
     0
  0
CLASS
  1
ACDBPLACEHOLDER
  2
AcDbPlaceHolder
  3
AutoCAD 2000
 90
        0
280
     0
281
     0
  0
CLASS
  1
LAYOUT
  2
AcDbLayout
  3
AutoCAD 2000
 90
        0
280
     0
281
     0
  0
CLASS
  1
LONG_TRANSACTION
  2
AcDbLongTransaction
  3
AutoCAD 2000
 90
        0
280
     0
281
     0
  0
CLASS
  1
LWPOLYLINE
  2
AcDbPolyline
  3
AutoCAD 2000
 90
        0
280
     0
281
     1
  0
CLASS
  1
HATCH
  2
AcDbHatch
  3
AutoCAD 2000
 90
        0
280
     0
281
     1
  0
CLASS
  1
XRECORD
  2
AcDbXrecord
  3
AutoCAD 2000
 90
        0
280
     0
281
     0
  0
CLASS
  1
LONG_TRANSACTION
  2
AcDbLongTransaction
  3
AutoCAD 2000
 90
        0
280
     0
281
     0
  0
CLASS
  1
LWPOLYLINE
  2
AcDbPolyline
  3
AutoCAD 2000
 90
        0
280
     0
281
     1
  0
CLASS
  1
HATCH
  2
AcDbHatch
  3
AutoCAD 2000
 90
        0
280
     0
281
     1
  0
CLASS
  1
XRECORD
  2
AcDbXrecord
  3
AutoCAD 2000
 90
        0
280
     0
281
     0
  0
CLASS
  1
LONG_TRANSACTION
  2
AcDbLongTransaction
  3
AutoCAD 2000
 90
        0
280
     0
281
     0
  0
CLASS
  1
LWPOLYLINE
  2
AcDbPolyline
  3
AutoCAD 2000
 90
        0
280
     0
281
     1
  0
CLASS
  1
HATCH
  2
AcDbHatch
  3
AutoCAD 2000
 90
        0
280
     0
281
     1
  0
CLASS
  1
XRECORD
  2
AcDbXrecord
  3
AutoCAD 2000
 90
        0
280
     0
281
     0
  0
CLASS
  1
LONG_TRANSACTION
  2
AcDbLongTransaction
  3
AutoCAD 2000
 90
        0
280
     0
281
     0
  0
CLASS
  1
LWPOLYLINE
  2
AcDbPolyline
  3
AutoCAD 2000
 90
        0
280
     0
281
     1
  0
CLASS
  1
HATCH
  2
AcDbHatch
  3
AutoCAD 2000
 90
        0
280
     0
281
     1
  0
CLASS
  1
XRECORD
  2
AcDbXrecord
  3
AutoCAD 2000
 90
        0
280
     0
281
     0
  0
CLASS
  1
LONG_TRANSACTION
  2
AcDbLongTransaction
  3
AutoCAD 2000
 90
        0
280
     0
281
     0
  0
CLASS
  1
LWPOLYLINE
  2
AcDbPolyline
  3
AutoCAD 2000
 90
        0
280
     0
281
     1
  0
CLASS
  1
HATCH
  2
AcDbHatch
  3
AutoCAD 2000
 90
        0
280
     0
281
     1
  0
CLASS
  1
XRECORD
  2
AcDbXrecord
  3
AutoCAD 2000
 90
        0
280
     0
281
     0
  0
ENDSEC
  0
SECTION
  2
TABLES
  0
TABLE
  2
VPORT
  5
8
330
0
100
AcDbSymbolTable
 70
     2
  0
VPORT
  5
157F
330
8
100
AcDbSymbolTableRecord
100
AcDbViewportTableRecord
  2
*ACTIVE
 70
     0
 10
0.0
 20
0.0
 11
1.0
 21
1.0
 12
168.264734177594
 22
203.5257712534458
 13
0.0
 23
0.0
 14
5.0
 24
5.0
 15
0.0
 25
0.0
 16
0.0
 26
0.0
 36
1.0
 17
0.0
 27
0.0
 37
0.0
 40
771.7657785096824
 41
1.570153061224489
 42
50.0
 43
0.0
 44
0.0
 50
0.0
 51
0.0
 71
     0
 72
   100
 73
     1
 74
     0
 75
     0
 76
     0
 77
     0
 78
     0
  0
ENDTAB
  0
TABLE
  2
LTYPE
  5
5
330
0
100
AcDbSymbolTable
 70
     2
  0
LTYPE
  5
14
330
5
100
AcDbSymbolTableRecord
100
AcDbLinetypeTableRecord
  2
BYBLOCK
 70
     0
  3

 72
    65
 73
     0
 40
0.0
  0
LTYPE
  5
15
330
5
100
AcDbSymbolTableRecord
100
AcDbLinetypeTableRecord
  2
BYLAYER
 70
     0
  3

 72
    65
 73
     0
 40
0.0
  0
LTYPE
  5
16
330
5
100
AcDbSymbolTableRecord
100
AcDbLinetypeTableRecord
  2
CONTINUOUS
 70
     0
  3
Solid line
 72
    65
 73
     0
 40
0.0
  0
LTYPE
  5
120
330
5
100
AcDbSymbolTableRecord
100
AcDbLinetypeTableRecord
  2
CENTER
 70
     0
  3
____ _ ____ _ ____ _ ____ _ ____ _ ____ _ ____ 
 72
    65
 73
     4
 40
2.0
 49
1.25
 74
     0
 49
-0.25
 74
     0
 49
0.25
 74
     0
 49
-0.25
 74
     0
  0
ENDTAB
  0
TABLE
  2
LAYER
  5
2
102
{ACAD_XDICTIONARY
360
155F
102
}
330
0
100
AcDbSymbolTable
 70
     9
  0
LAYER
  5
F
330
2
100
AcDbSymbolTableRecord
100
AcDbLayerTableRecord
  2
0
 70
     0
 62
     7
  6
CONTINUOUS
  0
LAYER
  5
62
330
2
100
AcDbSymbolTableRecord
100
AcDbLayerTableRecord
  2
VIEWPORT
 70
     0
 62
     7
  6
CONTINUOUS
  0
LAYER
  5
6B
330
2
100
AcDbSymbolTableRecord
100
AcDbLayerTableRecord
  2
ZUWAKU
 70
     0
 62
     7
  6
CONTINUOUS
  0
LAYER
  5
1F2
330
2
100
AcDbSymbolTableRecord
100
AcDbLayerTableRecord
  2
SEIHIN
 70
     0
 62
     3
  6
CONTINUOUS
  0
LAYER
  5
1F3
330
2
100
AcDbSymbolTableRecord
100
AcDbLayerTableRecord
  2
SUNPOU
 70
     0
 62
     4
  6
CONTINUOUS
  0
LAYER
  5
1F4
330
2
100
AcDbSymbolTableRecord
100
AcDbLayerTableRecord
  2
CENTER_L
 70
     0
 62
     1
  6
CENTER
  0
LAYER
  5
1F5
330
2
100
AcDbSymbolTableRecord
100
AcDbLayerTableRecord
  2
DEFPOINTS
 70
     0
 62
     7
  6
CONTINUOUS
  0
LAYER
  5
A03
330
2
100
AcDbSymbolTableRecord
100
AcDbLayerTableRecord
  2
MOJI
 70
     0
 62
     2
  6
CONTINUOUS
  0
LAYER
  5
E90
330
2
100
AcDbSymbolTableRecord
100
AcDbLayerTableRecord
  2
KEIJYO
 70
     0
 62
    -7
  6
CONTINUOUS
  0
ENDTAB
  0
TABLE
  2
STYLE
  5
3
330
0
100
AcDbSymbolTable
 70
     2
  0
STYLE
  5
10
330
3
100
AcDbSymbolTableRecord
100
AcDbTextStyleTableRecord
  2
STANDARD
 70
     0
 40
0.0
 41
1.0
 50
0.0
 71
     0
 42
2.5
  3
TXT
  4
bigfont.shx
  0
STYLE
  5
A04
330
3
100
AcDbSymbolTableRecord
100
AcDbTextStyleTableRecord
  2
ｽﾀｲﾙ1
 70
     0
 40
0.0
 41
1.0
 50
0.0
 71
     0
 42
2.5
  3
MS PGothic.ttf
  4

1001
ACAD
1000
MS PGothic
1071
    32818
  0
ENDTAB
  0
TABLE
  2
VIEW
  5
6
330
0
100
AcDbSymbolTable
 70
     0
  0
ENDTAB
  0
TABLE
  2
UCS
  5
7
330
0
100
AcDbSymbolTable
 70
     0
  0
ENDTAB
  0
TABLE
  2
APPID
  5
9
330
0
100
AcDbSymbolTable
 70
     1
  0
APPID
  5
11
330
9
100
AcDbSymbolTableRecord
100
AcDbRegAppTableRecord
  2
ACAD
 70
     0
  0
ENDTAB
  0
TABLE
  2
DIMSTYLE
  5
A
330
0
100
AcDbSymbolTable
 70
     1
  0
DIMSTYLE
105
1D
102
{ACAD_REACTORS
330
1208
330
1209
330
120A
330
120B
330
1219
330
12A6
330
1307
330
1327
330
1328
330
134A
330
134B
330
134C
330
1357
102
}
330
A
100
AcDbSymbolTableRecord
100
AcDbDimStyleTableRecord
  2
STANDARD
 70
     0
  3

  4

  5

  6

  7

 40
1.0
 41
0.18
 42
0.0625
 43
0.38
 44
0.18
 45
0.0
 46
0.0
 47
0.0
 48
0.0
140
0.18
141
0.09
142
0.0
143
25.4
144
1.0
145
0.0
146
1.0
147
0.09
 71
     0
 72
     0
 73
     1
 74
     1
 75
     0
 76
     0
 77
     0
 78
     0
170
     0
171
     2
172
     0
173
     0
174
     0
175
     0
176
     0
177
     0
178
     0
270
     2
271
     4
272
     4
273
     2
274
     2
340
10
275
     0
280
     0
281
     0
282
     0
283
     1
284
     0
285
     0
286
     0
287
     3
288
     0
  0
ENDTAB
  0
TABLE
  2
BLOCK_RECORD
  5
1
330
0
100
AcDbSymbolTable
 70
    15
  0
BLOCK_RECORD
  5
1A
102
{ACAD_XDICTIONARY
360
651
102
}
330
1
100
AcDbSymbolTableRecord
100
AcDbBlockTableRecord
  2
*MODEL_SPACE
  0
BLOCK_RECORD
  5
17
102
{ACAD_XDICTIONARY
360
64F
102
}
330
1
100
AcDbSymbolTableRecord
100
AcDbBlockTableRecord
  2
*PAPER_SPACE
  0
BLOCK_RECORD
  5
B2
330
1
100
AcDbSymbolTableRecord
100
AcDbBlockTableRecord
  2
_OPEN
  0
BLOCK_RECORD
  5
F94
330
1
100
AcDbSymbolTableRecord
100
AcDbBlockTableRecord
  2
CLUMP2
  0
BLOCK_RECORD
  5
13C7
330
1
100
AcDbSymbolTableRecord
100
AcDbBlockTableRecord
  2
*D2
  0
BLOCK_RECORD
  5
13D3
330
1
100
AcDbSymbolTableRecord
100
AcDbBlockTableRecord
  2
*D3
  0
BLOCK_RECORD
  5
13E1
330
1
100
AcDbSymbolTableRecord
100
AcDbBlockTableRecord
  2
*D4
  0
BLOCK_RECORD
  5
13ED
330
1
100
AcDbSymbolTableRecord
100
AcDbBlockTableRecord
  2
*D5
  0
BLOCK_RECORD
  5
13FB
330
1
100
AcDbSymbolTableRecord
100
AcDbBlockTableRecord
  2
*D6
  0
BLOCK_RECORD
  5
1407
330
1
100
AcDbSymbolTableRecord
100
AcDbBlockTableRecord
  2
*D7
  0
BLOCK_RECORD
  5
1413
330
1
100
AcDbSymbolTableRecord
100
AcDbBlockTableRecord
  2
*D8
  0
BLOCK_RECORD
  5
141F
330
1
100
AcDbSymbolTableRecord
100
AcDbBlockTableRecord
  2
*D9
  0
BLOCK_RECORD
  5
142B
330
1
100
AcDbSymbolTableRecord
100
AcDbBlockTableRecord
  2
*D10
  0
BLOCK_RECORD
  5
1437
330
1
100
AcDbSymbolTableRecord
100
AcDbBlockTableRecord
  2
*D11
  0
BLOCK_RECORD
  5
1443
330
1
100
AcDbSymbolTableRecord
100
AcDbBlockTableRecord
  2
*D12
  0
BLOCK_RECORD
  5
1451
330
1
100
AcDbSymbolTableRecord
100
AcDbBlockTableRecord
  2
*D13
  0
BLOCK_RECORD
  5
145D
330
1
100
AcDbSymbolTableRecord
100
AcDbBlockTableRecord
  2
*D14
  0
ENDTAB
  0
ENDSEC
  0
SECTION
  2
BLOCKS
  0
BLOCK
  5
1B
330
1A
100
AcDbEntity
  8
0
100
AcDbBlockBegin
  2
*MODEL_SPACE
 70
     0
 10
0.0
 20
0.0
 30
0.0
  3
*MODEL_SPACE
  1

  0
ENDBLK
  5
1C
330
1A
100
AcDbEntity
  8
0
100
AcDbBlockEnd
  0
BLOCK
  5
18
330
17
100
AcDbEntity
 67
     1
  8
0
100
AcDbBlockBegin
  2
*PAPER_SPACE
 70
     0
 10
0.0
 20
0.0
 30
0.0
  3
*PAPER_SPACE
  1

  0
ENDBLK
  5
19
330
17
100
AcDbEntity
 67
     1
  8
0
100
AcDbBlockEnd
  0
BLOCK
  5
B3
330
B2
100
AcDbEntity
  8
0
100
AcDbBlockBegin
  2
_OPEN
 70
     0
 10
0.0
 20
0.0
 30
0.0
  3
_OPEN
  1

  0
LINE
  5
B4
330
B2
100
AcDbEntity
  8
0
  6
BYBLOCK
 62
     0
100
AcDbLine
 10
-1.0
 20
0.1666666666666666
 30
0.0
 11
0.0
 21
0.0
 31
0.0
  0
LINE
  5
B5
330
B2
100
AcDbEntity
  8
0
  6
BYBLOCK
 62
     0
100
AcDbLine
 10
0.0
 20
0.0
 30
0.0
 11
-1.0
 21
-0.1666666666666666
 31
0.0
  0
LINE
  5
B6
330
B2
100
AcDbEntity
  8
0
  6
BYBLOCK
 62
     0
100
AcDbLine
 10
0.0
 20
0.0
 30
0.0
 11
-1.0
 21
0.0
 31
0.0
  0
ENDBLK
  5
B7
330
B2
100
AcDbEntity
  8
0
100
AcDbBlockEnd
  0
BLOCK
  5
F97
330
F94
100
AcDbEntity
  8
0
100
AcDbBlockBegin
  2
CLUMP2
 70
     0
 10
0.0
 20
0.0
 30
0.0
  3
CLUMP2
  1

  0
LINE
  5
F95
330
F94
100
AcDbEntity
  8
KEIJYO
100
AcDbLine
 10
279.4130086931
 20
177.7139147656999
 30
0.0
 11
279.4143720519
 21
177.7128412631
 31
0.0
  0
LINE
  5
F96
330
F94
100
AcDbEntity
  8
KEIJYO
100
AcDbLine
 10
279.4143720519
 20
177.7128412631
 30
0.0
 11
279.4149239915
 21
177.7109553654999
 31
0.0
  0
ENDBLK
  5
F98
330
F94
100
AcDbEntity
  8
0
100
AcDbBlockEnd
  0
BLOCK
  5
13D1
330
13C7
100
AcDbEntity
  8
0
100
AcDbBlockBegin
  2
*D2
 70
     1
 10
0.0
 20
0.0
 30
0.0
  3
*D2
  1

  0
LINE
  5
1501
330
13C7
100
AcDbEntity
  8
SUNPOU
100
AcDbLine
 10
32.38896669380108
 20
187.4130760909782
 30
0.0
 11
54.97593158094221
 21
187.4130760909782
 31
0.0
  0
LINE
  5
1502
330
13C7
100
AcDbEntity
  8
SUNPOU
100
AcDbLine
 10
26.38896669380108
 20
105.3028708964781
 30
0.0
 11
54.97593158094218
 21
105.3028708964781
 31
0.0
  0
LINE
  5
1503
330
13C7
100
AcDbEntity
  8
SUNPOU
100
AcDbLine
 10
51.97593158094221
 20
180.4130760909782
 30
0.0
 11
51.97593158094219
 21
112.3028708964781
 31
0.0
  0
INSERT
  5
1504
330
13C7
100
AcDbEntity
  8
SUNPOU
100
AcDbBlockReference
  2
_OPEN
 10
51.97593158094221
 20
187.4130760909782
 30
0.0
 41
7.0
 42
7.0
 43
7.0
 50
90.0
  0
INSERT
  5
1505
330
13C7
100
AcDbEntity
  8
SUNPOU
100
AcDbBlockReference
  2
_OPEN
 10
51.97593158094218
 20
105.3028708964781
 30
0.0
 41
7.0
 42
7.0
 43
7.0
 50
270.0
  0
MTEXT
  5
1506
330
13C7
100
AcDbEntity
  8
SUNPOU
100
AcDbMText
 10
46.97593158094217
 20
146.3579734937281
 30
0.0
 40
6.0
 41
0.0
 71
     5
 72
     1
  1
\A1;82
 11
0.0000000000000001
 21
1.0
 31
0.0
1001
ACAD
1000
MTEXTBEGIN
1070
    73
1070
     1
1070
    44
1040
1.0
1070
    74
1070
     0
1000
MTEXTEND
  0
POINT
  5
1507
330
13C7
100
AcDbEntity
  8
DEFPOINTS
 62
     0
100
AcDbPoint
 10
26.38896669380108
 20
187.4130760909782
 30
0.0
  0
POINT
  5
1508
330
13C7
100
AcDbEntity
  8
DEFPOINTS
 62
     0
100
AcDbPoint
 10
20.38896669380108
 20
105.3028708964781
 30
0.0
  0
POINT
  5
1509
330
13C7
100
AcDbEntity
  8
DEFPOINTS
 62
     0
100
AcDbPoint
 10
51.97593158094218
 20
105.3028708964781
 30
0.0
  0
ENDBLK
  5
13D2
330
13C7
100
AcDbEntity
  8
0
100
AcDbBlockEnd
  0
BLOCK
  5
13DF
330
13D3
100
AcDbEntity
  8
0
100
AcDbBlockBegin
  2
*D3
 70
     1
 10
0.0
 20
0.0
 30
0.0
  3
*D3
  1

  0
LINE
  5
1539
330
13D3
100
AcDbEntity
  8
SUNPOU
100
AcDbLine
 10
26.38896669380108
 20
193.4130760909782
 30
0.0
 11
26.38896669380108
 21
216.3497251966089
 31
0.0
  0
LINE
  5
153A
330
13D3
100
AcDbEntity
  8
SUNPOU
100
AcDbLine
 10
16.60460572880106
 20
189.9305899613781
 30
0.0
 11
16.60460572880106
 21
216.3497251966089
 31
0.0
  0
LINE
  5
153B
330
13D3
100
AcDbEntity
  8
SUNPOU
100
AcDbLine
 10
33.38896669380108
 20
213.3497251966089
 30
0.0
 11
40.38896669380108
 21
213.3497251966089
 31
0.0
  0
LINE
  5
153C
330
13D3
100
AcDbEntity
  8
SUNPOU
100
AcDbLine
 10
9.604605728801065
 20
213.3497251966089
 30
0.0
 11
-8.395394271198934
 21
213.3497251966089
 31
0.0
  0
LINE
  5
153D
330
13D3
100
AcDbEntity
  8
SUNPOU
100
AcDbLine
 10
26.38896669380108
 20
213.3497251966089
 30
0.0
 11
16.60460572880106
 21
213.3497251966089
 31
0.0
  0
INSERT
  5
153E
330
13D3
100
AcDbEntity
  8
SUNPOU
100
AcDbBlockReference
  2
_OPEN
 10
26.38896669380108
 20
213.3497251966089
 30
0.0
 41
7.0
 42
7.0
 43
7.0
 50
180.0
  0
INSERT
  5
153F
330
13D3
100
AcDbEntity
  8
SUNPOU
100
AcDbBlockReference
  2
_OPEN
 10
16.60460572880106
 20
213.3497251966089
 30
0.0
 41
7.0
 42
7.0
 43
7.0
  0
MTEXT
  5
1540
330
13D3
100
AcDbEntity
  8
SUNPOU
100
AcDbMText
 10
-2.895394271198934
 20
218.3497251966089
 30
0.0
 40
6.0
 41
0.0
 71
     5
 72
     1
  1
\A1;10
1001
ACAD
1000
MTEXTBEGIN
1070
    73
1070
     1
1070
    44
1040
1.0
1070
    74
1070
     0
1000
MTEXTEND
  0
POINT
  5
1541
330
13D3
100
AcDbEntity
  8
DEFPOINTS
 62
     0
100
AcDbPoint
 10
26.38896669380108
 20
187.4130760909782
 30
0.0
  0
POINT
  5
1542
330
13D3
100
AcDbEntity
  8
DEFPOINTS
 62
     0
100
AcDbPoint
 10
16.60460572880106
 20
183.9305899613781
 30
0.0
  0
POINT
  5
1543
330
13D3
100
AcDbEntity
  8
DEFPOINTS
 62
     0
100
AcDbPoint
 10
16.60460572880106
 20
213.3497251966089
 30
0.0
  0
ENDBLK
  5
13E0
330
13D3
100
AcDbEntity
  8
0
100
AcDbBlockEnd
  0
BLOCK
  5
13EB
330
13E1
100
AcDbEntity
  8
0
100
AcDbBlockBegin
  2
*D4
 70
     1
 10
0.0
 20
0.0
 30
0.0
  3
*D4
  1

  0
LINE
  5
1527
330
13E1
100
AcDbEntity
  8
SUNPOU
100
AcDbLine
 10
32.38896669380108
 20
372.0693284987585
 30
0.0
 11
54.97593158094221
 21
372.0693284987585
 31
0.0
  0
LINE
  5
1528
330
13E1
100
AcDbEntity
  8
SUNPOU
100
AcDbLine
 10
32.38896669380108
 20
292.0693284987585
 30
0.0
 11
54.97593158094218
 21
292.0693284987585
 31
0.0
  0
LINE
  5
1529
330
13E1
100
AcDbEntity
  8
SUNPOU
100
AcDbLine
 10
51.9759315809422
 20
365.0693284987585
 30
0.0
 11
51.97593158094218
 21
299.0693284987585
 31
0.0
  0
INSERT
  5
152A
330
13E1
100
AcDbEntity
  8
SUNPOU
100
AcDbBlockReference
  2
_OPEN
 10
51.97593158094221
 20
372.0693284987585
 30
0.0
 41
7.0
 42
7.0
 43
7.0
 50
90.0
  0
INSERT
  5
152B
330
13E1
100
AcDbEntity
  8
SUNPOU
100
AcDbBlockReference
  2
_OPEN
 10
51.97593158094218
 20
292.0693284987585
 30
0.0
 41
7.0
 42
7.0
 43
7.0
 50
270.0
  0
MTEXT
  5
152C
330
13E1
100
AcDbEntity
  8
SUNPOU
100
AcDbMText
 10
46.97593158094214
 20
332.0693284987585
 30
0.0
 40
6.0
 41
0.0
 71
     5
 72
     1
  1
\A1;80
 11
0.0000000000000001
 21
1.0
 31
0.0
1001
ACAD
1000
MTEXTBEGIN
1070
    73
1070
     1
1070
    44
1040
1.0
1070
    74
1070
     0
1000
MTEXTEND
  0
POINT
  5
152D
330
13E1
100
AcDbEntity
  8
DEFPOINTS
 62
     0
100
AcDbPoint
 10
26.38896669380108
 20
372.0693284987585
 30
0.0
  0
POINT
  5
152E
330
13E1
100
AcDbEntity
  8
DEFPOINTS
 62
     0
100
AcDbPoint
 10
26.38896669380108
 20
292.0693284987585
 30
0.0
  0
POINT
  5
152F
330
13E1
100
AcDbEntity
  8
DEFPOINTS
 62
     0
100
AcDbPoint
 10
51.97593158094218
 20
292.0693284987585
 30
0.0
  0
ENDBLK
  5
13EC
330
13E1
100
AcDbEntity
  8
0
100
AcDbBlockEnd
  0
BLOCK
  5
13F9
330
13ED
100
AcDbEntity
  8
0
100
AcDbBlockBegin
  2
*D5
 70
     1
 10
0.0
 20
0.0
 30
0.0
  3
*D5
  1

  0
LINE
  5
150A
330
13ED
100
AcDbEntity
  8
SUNPOU
100
AcDbLine
 10
19.38896669380108
 20
99.30287089647817
 30
0.0
 11
19.38896669380108
 21
78.59301669592861
 31
0.0
  0
LINE
  5
150B
330
13ED
100
AcDbEntity
  8
SUNPOU
100
AcDbLine
 10
26.38896669380108
 20
103.3028708964781
 30
0.0
 11
26.38896669380107
 21
78.59301669592861
 31
0.0
  0
LINE
  5
150C
330
13ED
100
AcDbEntity
  8
SUNPOU
100
AcDbLine
 10
12.38896669380108
 20
81.59301669592862
 30
0.0
 11
5.38896669380108
 21
81.59301669592862
 31
0.0
  0
LINE
  5
150D
330
13ED
100
AcDbEntity
  8
SUNPOU
100
AcDbLine
 10
33.38896669380108
 20
81.59301669592862
 30
0.0
 11
48.38896669380108
 21
81.59301669592862
 31
0.0
  0
LINE
  5
150E
330
13ED
100
AcDbEntity
  8
SUNPOU
100
AcDbLine
 10
19.38896669380108
 20
81.59301669592862
 30
0.0
 11
26.38896669380108
 21
81.59301669592862
 31
0.0
  0
INSERT
  5
150F
330
13ED
100
AcDbEntity
  8
SUNPOU
100
AcDbBlockReference
  2
_OPEN
 10
19.38896669380108
 20
81.59301669592862
 30
0.0
 41
7.0
 42
7.0
 43
7.0
  0
INSERT
  5
1510
330
13ED
100
AcDbEntity
  8
SUNPOU
100
AcDbBlockReference
  2
_OPEN
 10
26.38896669380108
 20
81.59301669592862
 30
0.0
 41
7.0
 42
7.0
 43
7.0
 50
180.0
  0
MTEXT
  5
1511
330
13ED
100
AcDbEntity
  8
SUNPOU
100
AcDbMText
 10
44.38896669380108
 20
86.59301669592862
 30
0.0
 40
6.0
 41
0.0
 71
     5
 72
     1
  1
\A1;7
1001
ACAD
1000
MTEXTBEGIN
1070
    73
1070
     1
1070
    44
1040
1.0
1070
    74
1070
     0
1000
MTEXTEND
  0
POINT
  5
1512
330
13ED
100
AcDbEntity
  8
DEFPOINTS
 62
     0
100
AcDbPoint
 10
19.38896669380108
 20
105.3028708964781
 30
0.0
  0
POINT
  5
1513
330
13ED
100
AcDbEntity
  8
DEFPOINTS
 62
     0
100
AcDbPoint
 10
26.38896669380108
 20
109.3028708964781
 30
0.0
  0
POINT
  5
1514
330
13ED
100
AcDbEntity
  8
DEFPOINTS
 62
     0
100
AcDbPoint
 10
26.38896669380108
 20
81.59301669592862
 30
0.0
  0
ENDBLK
  5
13FA
330
13ED
100
AcDbEntity
  8
0
100
AcDbBlockEnd
  0
BLOCK
  5
1405
330
13FB
100
AcDbEntity
  8
0
100
AcDbBlockBegin
  2
*D6
 70
     1
 10
0.0
 20
0.0
 30
0.0
  3
*D6
  1

  0
LINE
  5
1530
330
13FB
100
AcDbEntity
  8
SUNPOU
100
AcDbLine
 10
26.38896669380108
 20
193.4130760909782
 30
0.0
 11
26.38896669380108
 21
230.3176047340721
 31
0.0
  0
LINE
  5
1531
330
13FB
100
AcDbEntity
  8
SUNPOU
100
AcDbLine
 10
-128.1110333061989
 20
194.6630760909782
 30
0.0
 11
-128.1110333061989
 21
230.3176047340721
 31
0.0
  0
LINE
  5
1532
330
13FB
100
AcDbEntity
  8
SUNPOU
100
AcDbLine
 10
19.38896669380108
 20
227.3176047340721
 30
0.0
 11
-121.1110333061989
 21
227.3176047340721
 31
0.0
  0
INSERT
  5
1533
330
13FB
100
AcDbEntity
  8
SUNPOU
100
AcDbBlockReference
  2
_OPEN
 10
26.38896669380108
 20
227.3176047340721
 30
0.0
 41
7.0
 42
7.0
 43
7.0
  0
INSERT
  5
1534
330
13FB
100
AcDbEntity
  8
SUNPOU
100
AcDbBlockReference
  2
_OPEN
 10
-128.1110333061989
 20
227.3176047340721
 30
0.0
 41
7.0
 42
7.0
 43
7.0
 50
180.0
  0
MTEXT
  5
1535
330
13FB
100
AcDbEntity
  8
SUNPOU
100
AcDbMText
 10
-50.86103330619891
 20
232.3176047340721
 30
0.0
 40
6.0
 41
0.0
 71
     5
 72
     1
  1
\A1;155
1001
ACAD
1000
MTEXTBEGIN
1070
    73
1070
     1
1070
    44
1040
1.0
1070
    74
1070
     0
1000
MTEXTEND
  0
POINT
  5
1536
330
13FB
100
AcDbEntity
  8
DEFPOINTS
 62
     0
100
AcDbPoint
 10
26.38896669380108
 20
187.4130760909782
 30
0.0
  0
POINT
  5
1537
330
13FB
100
AcDbEntity
  8
DEFPOINTS
 62
     0
100
AcDbPoint
 10
-128.1110333061989
 20
188.6630760909782
 30
0.0
  0
POINT
  5
1538
330
13FB
100
AcDbEntity
  8
DEFPOINTS
 62
     0
100
AcDbPoint
 10
-128.1110333061989
 20
227.3176047340721
 30
0.0
  0
ENDBLK
  5
1406
330
13FB
100
AcDbEntity
  8
0
100
AcDbBlockEnd
  0
BLOCK
  5
1411
330
1407
100
AcDbEntity
  8
0
100
AcDbBlockBegin
  2
*D7
 70
     1
 10
0.0
 20
0.0
 30
0.0
  3
*D7
  1

  0
LINE
  5
14F8
330
1407
100
AcDbEntity
  8
SUNPOU
100
AcDbLine
 10
-129.4823536497989
 20
194.9130760909782
 30
0.0
 11
-156.8840177320329
 21
194.9130760909782
 31
0.0
  0
LINE
  5
14F9
330
1407
100
AcDbEntity
  8
SUNPOU
100
AcDbLine
 10
13.38896669380107
 20
105.3028708964781
 30
0.0
 11
-156.8840177320329
 21
105.3028708964782
 31
0.0
  0
LINE
  5
14FA
330
1407
100
AcDbEntity
  8
SUNPOU
100
AcDbLine
 10
-153.8840177320329
 20
187.9130760909782
 30
0.0
 11
-153.8840177320329
 21
112.3028708964782
 31
0.0
  0
INSERT
  5
14FB
330
1407
100
AcDbEntity
  8
SUNPOU
100
AcDbBlockReference
  2
_OPEN
 10
-153.8840177320329
 20
194.9130760909782
 30
0.0
 41
7.0
 42
7.0
 43
7.0
 50
90.0
  0
INSERT
  5
14FC
330
1407
100
AcDbEntity
  8
SUNPOU
100
AcDbBlockReference
  2
_OPEN
 10
-153.8840177320329
 20
105.3028708964782
 30
0.0
 41
7.0
 42
7.0
 43
7.0
 50
270.0
  0
MTEXT
  5
14FD
330
1407
100
AcDbEntity
  8
SUNPOU
100
AcDbMText
 10
-158.8840177320329
 20
150.1079734937281
 30
0.0
 40
6.0
 41
0.0
 71
     5
 72
     1
  1
\A1;90
 11
0.0000000000000001
 21
1.0
 31
0.0
1001
ACAD
1000
MTEXTBEGIN
1070
    73
1070
     1
1070
    44
1040
1.0
1070
    74
1070
     0
1000
MTEXTEND
  0
POINT
  5
14FE
330
1407
100
AcDbEntity
  8
DEFPOINTS
 62
     0
100
AcDbPoint
 10
-123.4823536497989
 20
194.9130760909782
 30
0.0
  0
POINT
  5
14FF
330
1407
100
AcDbEntity
  8
DEFPOINTS
 62
     0
100
AcDbPoint
 10
19.38896669380108
 20
105.3028708964781
 30
0.0
  0
POINT
  5
1500
330
1407
100
AcDbEntity
  8
DEFPOINTS
 62
     0
100
AcDbPoint
 10
-153.8840177320329
 20
105.3028708964782
 30
0.0
  0
ENDBLK
  5
1412
330
1407
100
AcDbEntity
  8
0
100
AcDbBlockEnd
  0
BLOCK
  5
141D
330
1413
100
AcDbEntity
  8
0
100
AcDbBlockBegin
  2
*D8
 70
     1
 10
0.0
 20
0.0
 30
0.0
  3
*D8
  1

  0
LINE
  5
151E
330
1413
100
AcDbEntity
  8
SUNPOU
100
AcDbLine
 10
-130.4782995551479
 20
345.7596370082161
 30
0.0
 11
-156.8840177320329
 21
345.7596370082161
 31
0.0
  0
LINE
  5
151F
330
1413
100
AcDbEntity
  8
SUNPOU
100
AcDbLine
 10
-129.4092545874989
 20
318.0693284987586
 30
0.0
 11
-156.8840177320329
 21
318.0693284987586
 31
0.0
  0
LINE
  5
1520
330
1413
100
AcDbEntity
  8
SUNPOU
100
AcDbLine
 10
-153.8840177320329
 20
338.759637008216
 30
0.0
 11
-153.8840177320329
 21
325.0693284987586
 31
0.0
  0
INSERT
  5
1521
330
1413
100
AcDbEntity
  8
SUNPOU
100
AcDbBlockReference
  2
_OPEN
 10
-153.8840177320329
 20
345.7596370082161
 30
0.0
 41
7.0
 42
7.0
 43
7.0
 50
90.0
  0
INSERT
  5
1522
330
1413
100
AcDbEntity
  8
SUNPOU
100
AcDbBlockReference
  2
_OPEN
 10
-153.8840177320329
 20
318.0693284987586
 30
0.0
 41
7.0
 42
7.0
 43
7.0
 50
270.0
  0
MTEXT
  5
1523
330
1413
100
AcDbEntity
  8
SUNPOU
100
AcDbMText
 10
-158.8840177320329
 20
331.9144827534872
 30
0.0
 40
6.0
 41
0.0
 71
     5
 72
     1
  1
\A1;28
 11
0.0000000000000001
 21
1.0
 31
0.0
1001
ACAD
1000
MTEXTBEGIN
1070
    73
1070
     1
1070
    44
1040
1.0
1070
    74
1070
     0
1000
MTEXTEND
  0
POINT
  5
1524
330
1413
100
AcDbEntity
  8
DEFPOINTS
 62
     0
100
AcDbPoint
 10
-124.4782995551479
 20
345.759637008216
 30
0.0
  0
POINT
  5
1525
330
1413
100
AcDbEntity
  8
DEFPOINTS
 62
     0
100
AcDbPoint
 10
-123.4092545874989
 20
318.0693284987585
 30
0.0
  0
POINT
  5
1526
330
1413
100
AcDbEntity
  8
DEFPOINTS
 62
     0
100
AcDbPoint
 10
-153.8840177320329
 20
318.0693284987586
 30
0.0
  0
ENDBLK
  5
141E
330
1413
100
AcDbEntity
  8
0
100
AcDbBlockEnd
  0
BLOCK
  5
1429
330
141F
100
AcDbEntity
  8
0
100
AcDbBlockBegin
  2
*D9
 70
     1
 10
0.0
 20
0.0
 30
0.0
  3
*D9
  1

  0
LINE
  5
154D
330
141F
100
AcDbEntity
  8
SUNPOU
100
AcDbLine
 10
166.8277812457217
 20
179.8784208964781
 30
0.0
 11
166.8277812457217
 21
216.3497251966089
 31
0.0
  0
LINE
  5
154E
330
141F
100
AcDbEntity
  8
SUNPOU
100
AcDbLine
 10
230.8277812457217
 20
179.8784208964781
 30
0.0
 11
230.8277812457217
 21
216.3497251966089
 31
0.0
  0
LINE
  5
154F
330
141F
100
AcDbEntity
  8
SUNPOU
100
AcDbLine
 10
173.8277812457217
 20
213.3497251966089
 30
0.0
 11
223.8277812457218
 21
213.3497251966089
 31
0.0
  0
INSERT
  5
1550
330
141F
100
AcDbEntity
  8
SUNPOU
100
AcDbBlockReference
  2
_OPEN
 10
166.8277812457217
 20
213.3497251966089
 30
0.0
 41
7.0
 42
7.0
 43
7.0
 50
180.0
  0
INSERT
  5
1551
330
141F
100
AcDbEntity
  8
SUNPOU
100
AcDbBlockReference
  2
_OPEN
 10
230.8277812457217
 20
213.3497251966089
 30
0.0
 41
7.0
 42
7.0
 43
7.0
  0
MTEXT
  5
1552
330
141F
100
AcDbEntity
  8
SUNPOU
100
AcDbMText
 10
198.8277812457217
 20
218.3497251966089
 30
0.0
 40
6.0
 41
0.0
 71
     5
 72
     1
  1
\A1;64
1001
ACAD
1000
MTEXTBEGIN
1070
    73
1070
     1
1070
    44
1040
1.0
1070
    74
1070
     0
1000
MTEXTEND
  0
POINT
  5
1553
330
141F
100
AcDbEntity
  8
DEFPOINTS
 62
     0
100
AcDbPoint
 10
166.8277812457217
 20
173.8784208964782
 30
0.0
  0
POINT
  5
1554
330
141F
100
AcDbEntity
  8
DEFPOINTS
 62
     0
100
AcDbPoint
 10
230.8277812457217
 20
173.8784208964782
 30
0.0
  0
POINT
  5
1555
330
141F
100
AcDbEntity
  8
DEFPOINTS
 62
     0
100
AcDbPoint
 10
230.8277812457217
 20
213.3497251966089
 30
0.0
  0
ENDBLK
  5
142A
330
141F
100
AcDbEntity
  8
0
100
AcDbBlockEnd
  0
BLOCK
  5
1435
330
142B
100
AcDbEntity
  8
0
100
AcDbBlockBegin
  2
*D10
 70
     1
 10
0.0
 20
0.0
 30
0.0
  3
*D10
  1

  0
LINE
  5
1544
330
142B
100
AcDbEntity
  8
SUNPOU
100
AcDbLine
 10
158.8277312457216
 20
182.3593575631782
 30
0.0
 11
158.8277312457216
 21
230.3176047340721
 31
0.0
  0
LINE
  5
1545
330
142B
100
AcDbEntity
  8
SUNPOU
100
AcDbLine
 10
238.8277312457216
 20
181.8271192524782
 30
0.0
 11
238.8277312457216
 21
230.3176047340721
 31
0.0
  0
LINE
  5
1546
330
142B
100
AcDbEntity
  8
SUNPOU
100
AcDbLine
 10
165.8277312457216
 20
227.3176047340721
 30
0.0
 11
231.8277312457216
 21
227.3176047340721
 31
0.0
  0
INSERT
  5
1547
330
142B
100
AcDbEntity
  8
SUNPOU
100
AcDbBlockReference
  2
_OPEN
 10
158.8277312457216
 20
227.3176047340721
 30
0.0
 41
7.0
 42
7.0
 43
7.0
 50
180.0
  0
INSERT
  5
1548
330
142B
100
AcDbEntity
  8
SUNPOU
100
AcDbBlockReference
  2
_OPEN
 10
238.8277312457216
 20
227.3176047340721
 30
0.0
 41
7.0
 42
7.0
 43
7.0
  0
MTEXT
  5
1549
330
142B
100
AcDbEntity
  8
SUNPOU
100
AcDbMText
 10
198.8277312457216
 20
232.3176047340721
 30
0.0
 40
6.0
 41
0.0
 71
     5
 72
     1
  1
\A1;80
1001
ACAD
1000
MTEXTBEGIN
1070
    73
1070
     1
1070
    44
1040
1.0
1070
    74
1070
     0
1000
MTEXTEND
  0
POINT
  5
154A
330
142B
100
AcDbEntity
  8
DEFPOINTS
 62
     0
100
AcDbPoint
 10
158.8277312457216
 20
176.3593575631782
 30
0.0
  0
POINT
  5
154B
330
142B
100
AcDbEntity
  8
DEFPOINTS
 62
     0
100
AcDbPoint
 10
238.8277312457216
 20
175.8271192524782
 30
0.0
  0
POINT
  5
154C
330
142B
100
AcDbEntity
  8
DEFPOINTS
 62
     0
100
AcDbPoint
 10
238.8277312457216
 20
227.3176047340721
 30
0.0
  0
ENDBLK
  5
1436
330
142B
100
AcDbEntity
  8
0
100
AcDbBlockEnd
  0
BLOCK
  5
1441
330
1437
100
AcDbEntity
  8
0
100
AcDbBlockBegin
  2
*D11
 70
     1
 10
0.0
 20
0.0
 30
0.0
  3
*D11
  1

  0
LINE
  5
1556
330
1437
100
AcDbEntity
  8
SUNPOU
100
AcDbLine
 10
192.8277312457216
 20
187.4130760909782
 30
0.0
 11
136.8903445645557
 21
187.4130760909782
 31
0.0
  0
LINE
  5
1557
330
1437
100
AcDbEntity
  8
SUNPOU
100
AcDbLine
 10
155.4296812457216
 20
168.1528208964783
 30
0.0
 11
136.8903445645557
 21
168.1528208964783
 31
0.0
  0
LINE
  5
1558
330
1437
100
AcDbEntity
  8
SUNPOU
100
AcDbLine
 10
139.8903445645558
 20
180.4130760909782
 30
0.0
 11
139.8903445645558
 21
175.1528208964783
 31
0.0
  0
INSERT
  5
1559
330
1437
100
AcDbEntity
  8
SUNPOU
100
AcDbBlockReference
  2
_OPEN
 10
139.8903445645558
 20
187.4130760909782
 30
0.0
 41
7.0
 42
7.0
 43
7.0
 50
90.0
  0
INSERT
  5
155A
330
1437
100
AcDbEntity
  8
SUNPOU
100
AcDbBlockReference
  2
_OPEN
 10
139.8903445645558
 20
168.1528208964783
 30
0.0
 41
7.0
 42
7.0
 43
7.0
 50
270.0
  0
MTEXT
  5
155B
330
1437
100
AcDbEntity
  8
SUNPOU
100
AcDbMText
 10
134.8903445645557
 20
177.7829484937283
 30
0.0
 40
6.0
 41
0.0
 71
     5
 72
     1
  1
\A1;19
 11
0.0000000000000001
 21
1.0
 31
0.0
1001
ACAD
1000
MTEXTBEGIN
1070
    73
1070
     1
1070
    44
1040
1.0
1070
    74
1070
     0
1000
MTEXTEND
  0
POINT
  5
155C
330
1437
100
AcDbEntity
  8
DEFPOINTS
 62
     0
100
AcDbPoint
 10
198.8277312457216
 20
187.4130760909782
 30
0.0
  0
POINT
  5
155D
330
1437
100
AcDbEntity
  8
DEFPOINTS
 62
     0
100
AcDbPoint
 10
161.4296812457216
 20
168.1528208964783
 30
0.0
  0
POINT
  5
155E
330
1437
100
AcDbEntity
  8
DEFPOINTS
 62
     0
100
AcDbPoint
 10
139.8903445645558
 20
168.1528208964783
 30
0.0
  0
ENDBLK
  5
1442
330
1437
100
AcDbEntity
  8
0
100
AcDbBlockEnd
  0
BLOCK
  5
144F
330
1443
100
AcDbEntity
  8
0
100
AcDbBlockBegin
  2
*D12
 70
     1
 10
0.0
 20
0.0
 30
0.0
  3
*D12
  1

  0
LINE
  5
14ED
330
1443
100
AcDbEntity
  8
SUNPOU
100
AcDbLine
 10
187.4296825913288
 20
113.3028708964781
 30
0.0
 11
136.8903445645558
 21
113.3028708964781
 31
0.0
  0
LINE
  5
14EE
330
1443
100
AcDbEntity
  8
SUNPOU
100
AcDbLine
 10
192.8277312457216
 20
105.3028708964781
 30
0.0
 11
136.8903445645558
 21
105.3028708964781
 31
0.0
  0
LINE
  5
14EF
330
1443
100
AcDbEntity
  8
SUNPOU
100
AcDbLine
 10
139.8903445645558
 20
98.30287089647818
 30
0.0
 11
139.8903445645558
 21
91.30287089647818
 31
0.0
  0
LINE
  5
14F0
330
1443
100
AcDbEntity
  8
SUNPOU
100
AcDbLine
 10
139.8903445645558
 20
120.3028708964781
 30
0.0
 11
139.8903445645558
 21
146.1528208964783
 31
0.0
  0
LINE
  5
14F1
330
1443
100
AcDbEntity
  8
SUNPOU
100
AcDbLine
 10
139.8903445645558
 20
105.3028708964781
 30
0.0
 11
139.8903445645558
 21
113.3028708964781
 31
0.0
  0
INSERT
  5
14F2
330
1443
100
AcDbEntity
  8
SUNPOU
100
AcDbBlockReference
  2
_OPEN
 10
139.8903445645558
 20
105.3028708964781
 30
0.0
 41
7.0
 42
7.0
 43
7.0
 50
90.0
  0
INSERT
  5
14F3
330
1443
100
AcDbEntity
  8
SUNPOU
100
AcDbBlockReference
  2
_OPEN
 10
139.8903445645558
 20
113.3028708964781
 30
0.0
 41
7.0
 42
7.0
 43
7.0
 50
270.0
  0
MTEXT
  5
14F4
330
1443
100
AcDbEntity
  8
SUNPOU
100
AcDbMText
 10
134.8903445645557
 20
142.1528208964784
 30
0.0
 40
6.0
 41
0.0
 71
     5
 72
     1
  1
\A1;8
 11
0.0000000000000001
 21
1.0
 31
0.0
1001
ACAD
1000
MTEXTBEGIN
1070
    73
1070
     1
1070
    44
1040
1.0
1070
    74
1070
     0
1000
MTEXTEND
  0
POINT
  5
14F5
330
1443
100
AcDbEntity
  8
DEFPOINTS
 62
     0
100
AcDbPoint
 10
193.4296825913288
 20
113.3028708964781
 30
0.0
  0
POINT
  5
14F6
330
1443
100
AcDbEntity
  8
DEFPOINTS
 62
     0
100
AcDbPoint
 10
198.8277312457216
 20
105.3028708964781
 30
0.0
  0
POINT
  5
14F7
330
1443
100
AcDbEntity
  8
DEFPOINTS
 62
     0
100
AcDbPoint
 10
139.8903445645558
 20
105.3028708964781
 30
0.0
  0
ENDBLK
  5
1450
330
1443
100
AcDbEntity
  8
0
100
AcDbBlockEnd
  0
BLOCK
  5
145B
330
1451
100
AcDbEntity
  8
0
100
AcDbBlockBegin
  2
*D13
 70
     1
 10
0.0
 20
0.0
 30
0.0
  3
*D13
  1

  0
LINE
  5
14E4
330
1451
100
AcDbEntity
  8
SUNPOU
100
AcDbLine
 10
192.8277312457216
 20
187.4130760909782
 30
0.0
 11
120.7665021443842
 21
187.4130760909782
 31
0.0
  0
LINE
  5
14E5
330
1451
100
AcDbEntity
  8
SUNPOU
100
AcDbLine
 10
192.8277312457216
 20
105.3028708964781
 30
0.0
 11
120.7665021443842
 21
105.3028708964781
 31
0.0
  0
LINE
  5
14E6
330
1451
100
AcDbEntity
  8
SUNPOU
100
AcDbLine
 10
123.7665021443842
 20
180.4130760909782
 30
0.0
 11
123.7665021443842
 21
112.3028708964781
 31
0.0
  0
INSERT
  5
14E7
330
1451
100
AcDbEntity
  8
SUNPOU
100
AcDbBlockReference
  2
_OPEN
 10
123.7665021443842
 20
187.4130760909782
 30
0.0
 41
7.0
 42
7.0
 43
7.0
 50
90.0
  0
INSERT
  5
14E8
330
1451
100
AcDbEntity
  8
SUNPOU
100
AcDbBlockReference
  2
_OPEN
 10
123.7665021443842
 20
105.3028708964781
 30
0.0
 41
7.0
 42
7.0
 43
7.0
 50
270.0
  0
MTEXT
  5
14E9
330
1451
100
AcDbEntity
  8
SUNPOU
100
AcDbMText
 10
118.7665021443842
 20
146.3579734937282
 30
0.0
 40
6.0
 41
0.0
 71
     5
 72
     1
  1
\A1;82
 11
0.0000000000000001
 21
1.0
 31
0.0
1001
ACAD
1000
MTEXTBEGIN
1070
    73
1070
     1
1070
    44
1040
1.0
1070
    74
1070
     0
1000
MTEXTEND
  0
POINT
  5
14EA
330
1451
100
AcDbEntity
  8
DEFPOINTS
 62
     0
100
AcDbPoint
 10
198.8277312457216
 20
187.4130760909782
 30
0.0
  0
POINT
  5
14EB
330
1451
100
AcDbEntity
  8
DEFPOINTS
 62
     0
100
AcDbPoint
 10
198.8277312457216
 20
105.3028708964781
 30
0.0
  0
POINT
  5
14EC
330
1451
100
AcDbEntity
  8
DEFPOINTS
 62
     0
100
AcDbPoint
 10
123.7665021443842
 20
105.3028708964781
 30
0.0
  0
ENDBLK
  5
145C
330
1451
100
AcDbEntity
  8
0
100
AcDbBlockEnd
  0
BLOCK
  5
1467
330
145D
100
AcDbEntity
  8
0
100
AcDbBlockBegin
  2
*D14
 70
     1
 10
0.0
 20
0.0
 30
0.0
  3
*D14
  1

  0
LINE
  5
1515
330
145D
100
AcDbEntity
  8
SUNPOU
100
AcDbLine
 10
184.834352843528
 20
107.3028708964781
 30
0.0
 11
184.834352843528
 21
78.59301669592861
 31
0.0
  0
LINE
  5
1516
330
145D
100
AcDbEntity
  8
SUNPOU
100
AcDbLine
 10
212.8277312457216
 20
107.5172718677781
 30
0.0
 11
212.8277312457216
 21
78.59301669592861
 31
0.0
  0
LINE
  5
1517
330
145D
100
AcDbEntity
  8
SUNPOU
100
AcDbLine
 10
191.8343528435279
 20
81.59301669592862
 30
0.0
 11
205.8277312457216
 21
81.59301669592862
 31
0.0
  0
INSERT
  5
1518
330
145D
100
AcDbEntity
  8
SUNPOU
100
AcDbBlockReference
  2
_OPEN
 10
184.834352843528
 20
81.59301669592862
 30
0.0
 41
7.0
 42
7.0
 43
7.0
 50
180.0
  0
INSERT
  5
1519
330
145D
100
AcDbEntity
  8
SUNPOU
100
AcDbBlockReference
  2
_OPEN
 10
212.8277312457216
 20
81.59301669592862
 30
0.0
 41
7.0
 42
7.0
 43
7.0
  0
MTEXT
  5
151A
330
145D
100
AcDbEntity
  8
SUNPOU
100
AcDbMText
 10
198.8310420446248
 20
86.59301669592862
 30
0.0
 40
6.0
 41
0.0
 71
     5
 72
     1
  1
\A1;28
1001
ACAD
1000
MTEXTBEGIN
1070
    73
1070
     1
1070
    44
1040
1.0
1070
    74
1070
     0
1000
MTEXTEND
  0
POINT
  5
151B
330
145D
100
AcDbEntity
  8
DEFPOINTS
 62
     0
100
AcDbPoint
 10
184.834352843528
 20
113.3028708964781
 30
0.0
  0
POINT
  5
151C
330
145D
100
AcDbEntity
  8
DEFPOINTS
 62
     0
100
AcDbPoint
 10
212.8277312457216
 20
113.5172718677781
 30
0.0
  0
POINT
  5
151D
330
145D
100
AcDbEntity
  8
DEFPOINTS
 62
     0
100
AcDbPoint
 10
212.8277312457216
 20
81.59301669592862
 30
0.0
  0
ENDBLK
  5
1468
330
145D
100
AcDbEntity
  8
0
100
AcDbBlockEnd
  0
ENDSEC
  0
SECTION
  2
ENTITIES
  0
LINE
  5
1203
330
1A
100
AcDbEntity
  8
CENTER_L
  6
CENTER
 62
     1
 48
5.0
100
AcDbLine
 10
9.662591057172562
 20
364.0685838282806
 30
0.0
 11
36.3090399385369
 21
364.0684838282809
 31
0.0
  0
LINE
  5
1204
330
1A
100
AcDbEntity
  8
CENTER_L
  6
CENTER
 62
     1
 48
5.0
100
AcDbLine
 10
9.662591057172562
 20
300.0685838282806
 30
0.0
 11
36.3090399385369
 21
300.0684838282809
 31
0.0
  0
LINE
  5
1205
330
1A
100
AcDbEntity
  8
CENTER_L
  6
CENTER
 62
     1
 48
5.0
100
AcDbLine
 10
-141.3717411846495
 20
332.0693912702584
 30
0.0
 11
36.3090399385369
 21
332.0692912702584
 31
0.0
  0
LINE
  5
1206
330
1A
100
AcDbEntity
  8
CENTER_L
  6
CENTER
 62
     1
 48
5.0
100
AcDbLine
 10
35.4414032732551
 20
168.1528208964783
 30
0.0
 11
10.59843578263189
 21
168.1528208964783
 31
0.0
  0
LINE
  5
1207
330
1A
100
AcDbEntity
  8
CENTER_L
  6
CENTER
 62
     1
 48
5.0
100
AcDbLine
 10
35.03691832556717
 20
113.3028708964781
 30
0.0
 11
14.09683914040272
 21
113.3028708964781
 31
0.0
  0
DIMENSION
  5
1208
330
1A
100
AcDbEntity
  8
SUNPOU
100
AcDbDimension
  2
*D2
 10
51.97593158094218
 20
105.3028708964781
 30
0.0
 11
46.97593158094217
 21
146.3579734937281
 31
0.0
 70
    32
  3
STANDARD
100
AcDbAlignedDimension
 13
26.38896669380108
 23
187.4130760909782
 33
0.0
 14
20.38896669380108
 24
105.3028708964781
 34
0.0
 50
90.0
100
AcDbRotatedDimension
1001
ACAD
1000
DSTYLE
1002
{
1070
    41
1040
7.0
1070
    42
1040
6.0
1070
    43
1040
14.0
1070
    44
1040
3.0
1070
    73
1070
     0
1070
    74
1070
     0
1070
    77
1070
     3
1070
   140
1040
6.0
1070
   141
1040
150.0
1070
   147
1040
2.0
1070
   172
1070
     1
1070
   173
1070
     1
1070
   176
1070
   256
1070
   177
1070
   256
1070
   178
1070
   256
1070
   271
1070
     0
1070
   272
1070
     0
1070
   341
1005
B2
1070
     6
1000
OPEN
1070
     7
1000
OPEN
1070
   371
1070
    -1
1070
   372
1070
    -1
1002
}
  0
DIMENSION
  5
1209
330
1A
100
AcDbEntity
  8
SUNPOU
100
AcDbDimension
  2
*D3
 10
16.60460572880106
 20
213.3497251966089
 30
0.0
 11
-2.895394271198934
 21
218.3497251966089
 31
0.0
 70
    32
  3
STANDARD
100
AcDbAlignedDimension
 13
26.38896669380108
 23
187.4130760909782
 33
0.0
 14
16.60460572880106
 24
183.9305899613781
 34
0.0
100
AcDbRotatedDimension
1001
ACAD
1000
DSTYLE
1002
{
1070
    41
1040
7.0
1070
    42
1040
6.0
1070
    43
1040
14.0
1070
    44
1040
3.0
1070
    73
1070
     0
1070
    74
1070
     0
1070
    77
1070
     3
1070
   140
1040
6.0
1070
   141
1040
150.0
1070
   147
1040
2.0
1070
   172
1070
     1
1070
   173
1070
     1
1070
   176
1070
   256
1070
   177
1070
   256
1070
   178
1070
   256
1070
   271
1070
     0
1070
   272
1070
     0
1070
   341
1005
B2
1070
     6
1000
OPEN
1070
     7
1000
OPEN
1070
   371
1070
    -1
1070
   372
1070
    -1
1002
}
  0
DIMENSION
  5
120A
330
1A
100
AcDbEntity
  8
SUNPOU
100
AcDbDimension
  2
*D4
 10
51.97593158094218
 20
292.0693284987585
 30
0.0
 11
46.97593158094214
 21
332.0693284987585
 31
0.0
 70
    32
  3
STANDARD
100
AcDbAlignedDimension
 13
26.38896669380108
 23
372.0693284987585
 33
0.0
 14
26.38896669380108
 24
292.0693284987585
 34
0.0
 50
90.0
100
AcDbRotatedDimension
1001
ACAD
1000
DSTYLE
1002
{
1070
    41
1040
7.0
1070
    42
1040
6.0
1070
    43
1040
14.0
1070
    44
1040
3.0
1070
    73
1070
     0
1070
    74
1070
     0
1070
    77
1070
     3
1070
   140
1040
6.0
1070
   141
1040
150.0
1070
   147
1040
2.0
1070
   172
1070
     1
1070
   173
1070
     1
1070
   176
1070
   256
1070
   177
1070
   256
1070
   178
1070
   256
1070
   271
1070
     0
1070
   272
1070
     0
1070
   341
1005
B2
1070
     6
1000
OPEN
1070
     7
1000
OPEN
1070
   371
1070
    -1
1070
   372
1070
    -1
1002
}
  0
DIMENSION
  5
120B
330
1A
100
AcDbEntity
  8
SUNPOU
100
AcDbDimension
  2
*D5
 10
26.38896669380108
 20
81.59301669592862
 30
0.0
 11
44.38896669380108
 21
86.59301669592862
 31
0.0
 70
    32
  3
STANDARD
100
AcDbAlignedDimension
 13
19.38896669380108
 23
105.3028708964781
 33
0.0
 14
26.38896669380108
 24
109.3028708964781
 34
0.0
100
AcDbRotatedDimension
1001
ACAD
1000
DSTYLE
1002
{
1070
    41
1040
7.0
1070
    42
1040
6.0
1070
    43
1040
14.0
1070
    44
1040
3.0
1070
    73
1070
     0
1070
    74
1070
     0
1070
    77
1070
     3
1070
   140
1040
6.0
1070
   141
1040
150.0
1070
   147
1040
2.0
1070
   172
1070
     1
1070
   173
1070
     1
1070
   176
1070
   256
1070
   177
1070
   256
1070
   178
1070
   256
1070
   271
1070
     0
1070
   272
1070
     0
1070
   341
1005
B2
1070
     6
1000
OPEN
1070
     7
1000
OPEN
1070
   371
1070
    -1
1070
   372
1070
    -1
1002
}
  0
LINE
  5
120C
330
1A
100
AcDbEntity
  8
ZUWAKU
100
AcDbLine
 10
-180.628283225682
 20
-62.74693597843025
 30
0.0
 11
58.14947945524136
 21
-62.74693597843025
 31
0.0
  0
LINE
  5
120D
330
1A
100
AcDbEntity
  8
ZUWAKU
100
AcDbLine
 10
-180.628283225682
 20
-62.34693597843028
 30
0.0
 11
58.14947945524136
 21
-62.34693597843028
 31
0.0
  0
LINE
  5
120E
330
1A
100
AcDbEntity
  8
ZUWAKU
100
AcDbLine
 10
-180.628283225682
 20
-62.54693597843027
 30
0.0
 11
58.14947945524136
 21
-62.54693597843027
 31
0.0
  0
LINE
  5
120F
330
1A
100
AcDbEntity
  8
ZUWAKU
100
AcDbLine
 10
-389.27488451575
 20
-47.14693597843029
 30
0.0
 11
408.1251154842497
 21
-47.14693597843029
 31
0.0
  0
LINE
  5
1210
330
1A
100
AcDbEntity
  8
ZUWAKU
100
AcDbLine
 10
-389.27488451575
 20
-47.34693597843028
 30
0.0
 11
408.1251154842497
 21
-47.34693597843028
 31
0.0
  0
LINE
  5
1211
330
1A
100
AcDbEntity
  8
ZUWAKU
100
AcDbLine
 10
-389.27488451575
 20
-47.54693597843029
 30
0.0
 11
408.1251154842497
 21
-47.54693597843029
 31
0.0
  0
LINE
  5
1212
330
1A
100
AcDbEntity
  8
ZUWAKU
100
AcDbLine
 10
-389.27488451575
 20
-47.74693597843032
 30
0.0
 11
408.1251154842497
 21
-47.74693597843032
 31
0.0
  0
LINE
  5
1213
330
1A
100
AcDbEntity
  8
ZUWAKU
100
AcDbLine
 10
-389.27488451575
 20
-47.9469359784303
 30
0.0
 11
408.1251154842497
 21
-47.9469359784303
 31
0.0
  0
LWPOLYLINE
  5
1214
330
1A
100
AcDbEntity
  8
ZUWAKU
100
AcDbPolyline
 90
        4
 70
     1
 43
0.0
 10
-389.0748845157501
 20
473.4530640215696
 10
-389.0748845157501
 20
-77.74693597843025
 10
408.1251154842497
 20
-77.74693597843023
 10
408.12511548425
 20
473.4530640215696
  0
LWPOLYLINE
  5
1215
330
1A
100
AcDbEntity
  8
ZUWAKU
100
AcDbPolyline
 90
        4
 70
     1
 43
0.0
 10
-388.6748845157501
 20
473.0530640215698
 10
-388.6748845157501
 20
-77.34693597843028
 10
407.7251154842501
 20
-77.34693597843023
 10
407.7251154842499
 20
473.0530640215698
  0
LWPOLYLINE
  5
1216
330
1A
100
AcDbEntity
  8
ZUWAKU
100
AcDbPolyline
 90
        4
 70
     1
 43
0.0
 10
-389.27488451575
 20
473.6530640215697
 10
-389.27488451575
 20
-77.9469359784303
 10
408.3251154842501
 20
-77.94693597843023
 10
408.3251154842501
 20
473.6530640215698
  0
LWPOLYLINE
  5
1217
330
1A
100
AcDbEntity
  8
ZUWAKU
100
AcDbPolyline
 90
        4
 70
     1
 43
0.0
 10
-388.87488451575
 20
473.2530640215696
 10
-388.87488451575
 20
-77.54693597843021
 10
407.9251154842499
 20
-77.54693597843024
 10
407.9251154842499
 20
473.2530640215696
  0
LWPOLYLINE
  5
1218
330
1A
100
AcDbEntity
  8
ZUWAKU
100
AcDbPolyline
 90
        4
 70
     1
 43
0.0
 10
-388.4748845157501
 20
472.8530640215696
 10
-388.4748845157501
 20
-77.14693597843023
 10
407.5251154842499
 20
-77.14693597843023
 10
407.5251154842499
 20
472.8530640215696
  0
DIMENSION
  5
1219
330
1A
100
AcDbEntity
  8
SUNPOU
100
AcDbDimension
  2
*D6
 10
-128.1110333061989
 20
227.3176047340721
 30
0.0
 11
-50.86103330619891
 21
232.3176047340721
 31
0.0
 70
    32
  3
STANDARD
100
AcDbAlignedDimension
 13
26.38896669380108
 23
187.4130760909782
 33
0.0
 14
-128.1110333061989
 24
188.6630760909782
 34
0.0
100
AcDbRotatedDimension
1001
ACAD
1000
DSTYLE
1002
{
1070
    41
1040
7.0
1070
    42
1040
6.0
1070
    43
1040
14.0
1070
    44
1040
3.0
1070
    73
1070
     0
1070
    74
1070
     0
1070
    77
1070
     3
1070
   140
1040
6.0
1070
   141
1040
150.0
1070
   147
1040
2.0
1070
   172
1070
     1
1070
   173
1070
     1
1070
   176
1070
   256
1070
   177
1070
   256
1070
   178
1070
   256
1070
   271
1070
     0
1070
   272
1070
     0
1070
   341
1005
B2
1070
     6
1000
OPEN
1070
     7
1000
OPEN
1070
   371
1070
    -1
1070
   372
1070
    -1
1002
}
  0
TEXT
  5
121A
330
1A
100
AcDbEntity
  8
MOJI
100
AcDbText
 10
-307.6126205615846
 20
-65.58119603182484
 30
0.0
 40
5.799999999999999
  1
アートフェイスＴ１６０・Ｈ１６０・Ｍ１６０Ｈ
 41
0.9
  7
ｽﾀｲﾙ1
100
AcDbText
  0
HATCH
  5
121B
330
1A
100
AcDbEntity
  8
ZUWAKU
100
AcDbHatch
 10
0.0
 20
0.0
 30
0.0
210
0.0
220
0.0
230
1.0
  2
ANSI37
 70
     0
 71
     0
 91
        8
 92
        7
 72
     1
 73
     1
 93
       24
 10
-374.7726218546302
 20
-60.30208749744672
 42
-0.1989123673796348
 10
-375.1826723609689
 20
-59.31213800378568
 42
0.0
 10
-375.1826723609689
 20
-58.02193597843029
 42
-0.4142135623730912
 10
-374.6576723609689
 20
-57.4969359784303
 42
0.0
 10
-371.682672360969
 20
-57.4969359784303
 42
0.4142135623731546
 10
-371.1576723609689
 20
-56.97193597843031
 42
0.0
 10
-371.1576723609689
 20
-55.22193597843029
 42
0.4142135623731586
 10
-371.682672360969
 20
-54.6969359784303
 42
0.0
 10
-375.1826723609689
 20
-54.6969359784303
 42
0.4142135623730928
 10
-377.9826723609688
 20
-57.49693597843027
 42
0.0
 10
-377.9826723609688
 20
-59.31213800378555
 42
0.1989123673796619
 10
-376.7525208419524
 20
-62.28198648476915
 42
0.0
 10
-373.8427228673077
 20
-65.19178445941381
 42
-0.1989123673796613
 10
-373.4326723609689
 20
-66.181733953075
 42
0.0
 10
-373.4326723609689
 20
-67.47193597843031
 42
-0.4142135623730911
 10
-373.9576723609689
 20
-67.9969359784303
 42
0.0
 10
-376.9326723609688
 20
-67.9969359784303
 42
0.4142135623731526
 10
-377.4576723609689
 20
-68.52193597843029
 42
0.0
 10
-377.4576723609689
 20
-70.27193597843032
 42
0.4142135623731526
 10
-376.9326723609688
 20
-70.79693597843029
 42
0.0
 10
-373.4326723609689
 20
-70.79693597843029
 42
0.4142135623731045
 10
-370.6326723609688
 20
-67.99693597843031
 42
0.0
 10
-370.6326723609688
 20
-66.18173395307505
 42
0.1989123673796604
 10
-371.8628238799853
 20
-63.21188547209152
 42
0.0
 97
        0
 92
        7
 72
     1
 73
     1
 93
       16
 10
-365.7326723609688
 20
-58.89693597843029
 42
-0.4142135623730935
 10
-364.3326723609689
 20
-57.4969359784303
 42
0.0
 10
-362.4076723609689
 20
-57.4969359784303
 42
0.4142135623731546
 10
-361.8826723609688
 20
-56.97193597843031
 42
0.0
 10
-361.8826723609688
 20
-55.22193597843029
 42
0.4142135623730951
 10
-362.4076723609688
 20
-54.6969359784303
 42
0.0
 10
-364.332672360969
 20
-54.69693597843034
 42
0.4142135623730893
 10
-368.5326723609689
 20
-58.89693597843036
 42
0.0
 10
-368.5326723609689
 20
-66.59693597843028
 42
0.4142135623730969
 10
-364.3326723609689
 20
-70.79693597843029
 42
0.0
 10
-362.4076723609689
 20
-70.79693597843029
 42
0.4142135623731526
 10
-361.8826723609688
 20
-70.27193597843032
 42
0.0
 10
-361.8826723609688
 20
-68.52193597843029
 42
0.4142135623730891
 10
-362.4076723609688
 20
-67.9969359784303
 42
0.0
 10
-364.3326723609689
 20
-67.9969359784303
 42
-0.4142135623730928
 10
-365.7326723609688
 20
-66.5969359784303
 42
0.0
 97
        0
 92
        7
 72
     1
 73
     1
 93
        2
 10
-365.0326723609689
 20
-62.74693597843031
 42
1.0
 10
-361.5326723609689
 20
-62.74693597843031
 42
1.0
 97
        0
 92
        7
 72
     1
 73
     1
 93
       26
 10
-351.9600258787909
 20
-58.74188878486688
 42
0.0
 10
-350.8983862456531
 20
-55.38002994659729
 42
0.5069206636600134
 10
-351.3990171448484
 20
-54.6969359784303
 42
0.0
 10
-353.0979065244577
 20
-54.6969359784303
 42
0.3272098845218764
 10
-353.598537423653
 20
-55.06384201026333
 42
0.0
 10
-355.4668072982848
 20
-60.98002994659722
 42
-0.3272098845219541
 10
-355.9674381974803
 20
-61.34693597843031
 42
0.0
 10
-356.1076723609687
 20
-61.34693597843031
 42
-0.4142135623731526
 10
-356.6326723609688
 20
-60.82193597843032
 42
0.0
 10
-356.6326723609688
 20
-55.22193597843029
 42
0.4142135623730951
 10
-357.1576723609688
 20
-54.6969359784303
 42
0.0
 10
-358.9076723609689
 20
-54.6969359784303
 42
0.4142135623730871
 10
-359.4326723609689
 20
-55.22193597843028
 42
0.0
 10
-359.4326723609689
 20
-70.27193597843032
 42
0.4142135623730891
 10
-358.9076723609689
 20
-70.79693597843029
 42
0.0
 10
-357.1576723609689
 20
-70.79693597843029
 42
0.4142135623731526
 10
-356.6326723609688
 20
-70.27193597843032
 42
0.0
 10
-356.6326723609688
 20
-64.6719359784303
 42
-0.4142135623731526
 10
-356.1076723609687
 20
-64.1469359784303
 42
0.0
 10
-355.9674381974801
 20
-64.1469359784303
 42
-0.3272098845218915
 10
-355.4668072982848
 20
-64.51384201026337
 42
0.0
 10
-353.598537423653
 20
-70.43002994659723
 42
0.3272098845218902
 10
-353.0979065244577
 20
-70.79693597843029
 42
0.0
 10
-351.3990171448484
 20
-70.79693597843029
 42
0.5069206636600336
 10
-350.8983862456531
 20
-70.11384201026328
 42
0.0
 10
-353.2247776241267
 20
-62.74693597843016
 42
0.0
 97
        0
 92
        7
 72
     1
 73
     1
 93
        8
 10
-345.7826723609689
 20
-55.22193597843028
 42
0.4142135623731546
 10
-346.307672360969
 20
-54.6969359784303
 42
0.0
 10
-348.0576723609688
 20
-54.6969359784303
 42
0.4142135623731507
 10
-348.5826723609688
 20
-55.22193597843028
 42
0.0
 10
-348.5826723609688
 20
-70.27193597843032
 42
0.4142135623731526
 10
-348.0576723609688
 20
-70.79693597843029
 42
0.0
 10
-346.307672360969
 20
-70.79693597843029
 42
0.4142135623731526
 10
-345.7826723609689
 20
-70.27193597843032
 42
0.0
 97
        0
 92
        7
 72
     1
 73
     1
 93
       24
 10
-340.8826723609688
 20
-58.02193597843029
 42
-0.4142135623731546
 10
-340.3576723609687
 20
-57.4969359784303
 42
0.0
 10
-337.3826723609688
 20
-57.4969359784303
 42
0.4142135623730911
 10
-336.8576723609688
 20
-56.97193597843031
 42
0.0
 10
-336.8576723609688
 20
-55.22193597843029
 42
0.4142135623730952
 10
-337.3826723609688
 20
-54.6969359784303
 42
0.0
 10
-340.8826723609688
 20
-54.6969359784303
 42
0.4142135623731048
 10
-343.6826723609689
 20
-57.49693597843027
 42
0.0
 10
-343.6826723609689
 20
-59.31213800378555
 42
0.1989123673796613
 10
-342.4525208419523
 20
-62.28198648476909
 42
0.0
 10
-339.5427228673077
 20
-65.19178445941377
 42
-0.1989123673796402
 10
-339.1326723609688
 20
-66.18173395307484
 42
0.0
 10
-339.1326723609688
 20
-67.47193597843031
 42
-0.4142135623730911
 10
-339.6576723609688
 20
-67.9969359784303
 42
0.0
 10
-342.6326723609688
 20
-67.9969359784303
 42
0.4142135623731526
 10
-343.1576723609689
 20
-68.52193597843029
 42
0.0
 10
-343.1576723609689
 20
-70.27193597843032
 42
0.4142135623730891
 10
-342.6326723609689
 20
-70.79693597843029
 42
0.0
 10
-339.1326723609688
 20
-70.79693597843029
 42
0.4142135623730925
 10
-336.3326723609688
 20
-67.99693597843031
 42
0.0
 10
-336.3326723609688
 20
-66.18173395307505
 42
0.1989123673796675
 10
-337.5628238799854
 20
-63.21188547209139
 42
0.0
 10
-340.47262185463
 20
-60.30208749744688
 42
-0.1989123673796652
 10
-340.8826723609688
 20
-59.31213800378571
 42
0.0
 97
        0
 92
        7
 72
     1
 73
     1
 93
       16
 10
-331.4326723609689
 20
-55.22193597843031
 42
0.414213562373103
 10
-331.9576723609689
 20
-54.6969359784303
 42
0.0
 10
-333.7076723609689
 20
-54.6969359784303
 42
0.4142135623730871
 10
-334.2326723609688
 20
-55.22193597843028
 42
0.0
 10
-334.2326723609688
 20
-67.99693597843031
 42
0.4142135623730927
 10
-331.4326723609689
 20
-70.79693597843029
 42
0.0
 10
-327.9326723609689
 20
-70.79693597843029
 42
0.4142135623731045
 10
-325.1326723609688
 20
-67.99693597843031
 42
0.0
 10
-325.1326723609688
 20
-55.22193597843029
 42
0.4142135623730951
 10
-325.6576723609688
 20
-54.6969359784303
 42
0.0
 10
-327.4076723609689
 20
-54.6969359784303
 42
0.4142135623730871
 10
-327.9326723609689
 20
-55.22193597843028
 42
0.0
 10
-327.9326723609689
 20
-66.94693597843033
 42
-0.4142135623730879
 10
-328.9826723609688
 20
-67.9969359784303
 42
0.0
 10
-330.3826723609688
 20
-67.9969359784303
 42
-0.4142135623731197
 10
-331.4326723609689
 20
-66.94693597843033
 42
0.0
 97
        0
 92
        7
 72
     1
 73
     1
 93
        8
 10
-320.2326723609688
 20
-55.22193597843028
 42
0.4142135623730871
 10
-320.7576723609688
 20
-54.6969359784303
 42
0.0
 10
-322.5076723609688
 20
-54.6969359784303
 42
0.4142135623731507
 10
-323.0326723609689
 20
-55.22193597843028
 42
0.0
 10
-323.0326723609689
 20
-70.27193597843032
 42
0.4142135623730891
 10
-322.5076723609689
 20
-70.79693597843029
 42
0.0
 10
-320.7576723609688
 20
-70.79693597843029
 42
0.4142135623730891
 10
-320.2326723609688
 20
-70.27193597843032
 42
0.0
 97
        0
 75
     0
 76
     1
 52
0.0
 41
0.2
 77
     0
 78
     2
 53
45.0
 43
-1290.217188850429
 44
-91.14693597843023
 45
-0.4490128060534576
 46
0.4490128060534577
 79
     0
 53
135.0
 43
-1290.217188850429
 44
-91.14693597843023
 45
-0.4490128060534577
 46
-0.4490128060534576
 79
     0
 47
0.057451373970553
 98
        8
 10
-373.1950295527267
 20
-62.77976233254475
 10
-366.8703695093108
 20
-59.10287379597929
 10
-364.1105166300903
 20
-62.43505433235958
 10
-358.3608245341129
 20
-61.74563833198881
 10
-347.4364124967933
 20
-61.28602606444719
 10
-342.3766836206205
 20
-58.52835966202309
 10
-332.7171985433496
 20
-59.2177780633353
 10
-321.4478048961272
 20
-58.75816579579367
  0
LINE
  5
121C
330
1A
100
AcDbEntity
  8
ZUWAKU
100
AcDbLine
 10
-364.3326723609689
 20
-54.69693597843036
 30
0.0
 11
-362.4076723609689
 21
-54.6969359784303
 31
0.0
  0
LINE
  5
121D
330
1A
100
AcDbEntity
  8
ZUWAKU
100
AcDbLine
 10
-362.4076723609689
 20
-57.49693597843031
 30
0.0
 11
-364.3326723609689
 21
-57.49693597843031
 31
0.0
  0
LINE
  5
121E
330
1A
100
AcDbEntity
  8
ZUWAKU
100
AcDbLine
 10
-364.3326723609689
 20
-67.99693597843031
 30
0.0
 11
-362.4076723609689
 21
-67.99693597843031
 31
0.0
  0
LINE
  5
121F
330
1A
100
AcDbEntity
  8
ZUWAKU
100
AcDbLine
 10
-362.4076723609689
 20
-70.79693597843029
 30
0.0
 11
-364.3326723609689
 21
-70.79693597843029
 31
0.0
  0
CIRCLE
  5
1220
330
1A
100
AcDbEntity
  8
ZUWAKU
100
AcDbCircle
 10
-363.2826723609689
 20
-62.74693597843032
 30
0.0
 40
1.75
  0
ARC
  5
1221
330
1A
100
AcDbEntity
  8
ZUWAKU
100
AcDbCircle
 10
-373.7826723609689
 20
-59.31213800378561
 30
0.0
 40
1.399999999999999
100
AcDbArc
 50
180.0000000000016
 51
224.9999999999991
  0
LINE
  5
1222
330
1A
100
AcDbEntity
  8
ZUWAKU
100
AcDbLine
 10
-365.7326723609689
 20
-58.89693597843029
 30
0.0
 11
-365.7326723609689
 21
-66.59693597843028
 31
0.0
  0
LINE
  5
1223
330
1A
100
AcDbEntity
  8
ZUWAKU
100
AcDbLine
 10
-368.5326723609689
 20
-66.59693597843028
 30
0.0
 11
-368.5326723609689
 21
-58.89693597843034
 31
0.0
  0
ARC
  5
1224
330
1A
100
AcDbEntity
  8
ZUWAKU
100
AcDbCircle
 10
-373.7826723609689
 20
-59.31213800378561
 30
0.0
 40
4.199999999999998
100
AcDbArc
 50
180.0
 51
224.9999999999997
  0
ARC
  5
1225
330
1A
100
AcDbEntity
  8
ZUWAKU
100
AcDbCircle
 10
-373.4326723609687
 20
-67.99693597843031
 30
0.0
 40
2.799999999999998
100
AcDbArc
 50
270.0
 51
0.0
  0
ARC
  5
1226
330
1A
100
AcDbEntity
  8
ZUWAKU
100
AcDbCircle
 10
-364.3326723609689
 20
-66.59693597843028
 30
0.0
 40
4.199999999999998
100
AcDbArc
 50
180.0
 51
270.0
  0
ARC
  5
1227
330
1A
100
AcDbEntity
  8
ZUWAKU
100
AcDbCircle
 10
-374.8326723609689
 20
-66.181733953075
 30
0.0
 40
4.199999999999998
100
AcDbArc
 50
0.0
 51
44.99999999999971
  0
LINE
  5
1228
330
1A
100
AcDbEntity
  8
ZUWAKU
100
AcDbLine
 10
-371.8628238799853
 20
-63.21188547209146
 30
0.0
 11
-374.7726218546299
 21
-60.30208749744679
 31
0.0
  0
LINE
  5
1229
330
1A
100
AcDbEntity
  8
ZUWAKU
100
AcDbLine
 10
-373.4326723609687
 20
-67.47193597843028
 30
0.0
 11
-373.4326723609687
 21
-66.18173395307497
 31
0.0
  0
ARC
  5
122A
330
1A
100
AcDbEntity
  8
ZUWAKU
100
AcDbCircle
 10
-373.9576723609689
 20
-67.47193597843028
 30
0.0
 40
0.525
100
AcDbArc
 50
270.0
 51
0.0
  0
ARC
  5
122B
330
1A
100
AcDbEntity
  8
ZUWAKU
100
AcDbCircle
 10
-374.8326723609689
 20
-66.18173395307497
 30
0.0
 40
1.399999999999999
100
AcDbArc
 50
0.0
 51
44.99999999999971
  0
LINE
  5
122C
330
1A
100
AcDbEntity
  8
ZUWAKU
100
AcDbLine
 10
-377.4576723609689
 20
-70.27193597843029
 30
0.0
 11
-377.4576723609689
 21
-68.52193597843029
 31
0.0
  0
ARC
  5
122D
330
1A
100
AcDbEntity
  8
ZUWAKU
100
AcDbCircle
 10
-376.9326723609688
 20
-70.27193597843029
 30
0.0
 40
0.525
100
AcDbArc
 50
180.0
 51
270.0
  0
ARC
  5
122E
330
1A
100
AcDbEntity
  8
ZUWAKU
100
AcDbCircle
 10
-376.9326723609688
 20
-68.52193597843029
 30
0.0
 40
0.525
100
AcDbArc
 50
90.0
 51
180.0
  0
LINE
  5
122F
330
1A
100
AcDbEntity
  8
ZUWAKU
100
AcDbLine
 10
-376.9326723609688
 20
-70.79693597843029
 30
0.0
 11
-373.4326723609687
 21
-70.79693597843029
 31
0.0
  0
LINE
  5
1230
330
1A
100
AcDbEntity
  8
ZUWAKU
100
AcDbLine
 10
-376.9326723609688
 20
-67.99693597843031
 30
0.0
 11
-373.9576723609689
 21
-67.99693597843031
 31
0.0
  0
LINE
  5
1231
330
1A
100
AcDbEntity
  8
ZUWAKU
100
AcDbLine
 10
-376.7525208419524
 20
-62.28198648476913
 30
0.0
 11
-373.8427228673076
 21
-65.19178445941378
 31
0.0
  0
LINE
  5
1232
330
1A
100
AcDbEntity
  8
ZUWAKU
100
AcDbLine
 10
-370.6326723609688
 20
-67.99693597843031
 30
0.0
 11
-370.6326723609688
 21
-66.18173395307497
 31
0.0
  0
ARC
  5
1233
330
1A
100
AcDbEntity
  8
ZUWAKU
100
AcDbCircle
 10
-364.3326723609689
 20
-66.59693597843028
 30
0.0
 40
1.399999999999999
100
AcDbArc
 50
180.0
 51
270.0
  0
ARC
  5
1234
330
1A
100
AcDbEntity
  8
ZUWAKU
100
AcDbCircle
 10
-371.6826723609688
 20
-55.22193597843031
 30
0.0
 40
0.525
100
AcDbArc
 50
0.0
 51
90.0
  0
ARC
  5
1235
330
1A
100
AcDbEntity
  8
ZUWAKU
100
AcDbCircle
 10
-371.6826723609688
 20
-56.97193597843031
 30
0.0
 40
0.525
100
AcDbArc
 50
270.0
 51
0.0
  0
LINE
  5
1236
330
1A
100
AcDbEntity
  8
ZUWAKU
100
AcDbLine
 10
-375.1826723609688
 20
-54.6969359784303
 30
0.0
 11
-371.6826723609688
 21
-54.6969359784303
 31
0.0
  0
ARC
  5
1237
330
1A
100
AcDbEntity
  8
ZUWAKU
100
AcDbCircle
 10
-374.6576723609689
 20
-58.02193597843029
 30
0.0
 40
0.525
100
AcDbArc
 50
90.0
 51
180.0
  0
LINE
  5
1238
330
1A
100
AcDbEntity
  8
ZUWAKU
100
AcDbLine
 10
-375.1826723609688
 20
-58.02193597843029
 30
0.0
 11
-375.1826723609688
 21
-59.31213800378566
 31
0.0
  0
LINE
  5
1239
330
1A
100
AcDbEntity
  8
ZUWAKU
100
AcDbLine
 10
-371.6826723609688
 20
-57.49693597843031
 30
0.0
 11
-374.6576723609689
 21
-57.49693597843031
 31
0.0
  0
LINE
  5
123A
330
1A
100
AcDbEntity
  8
ZUWAKU
100
AcDbLine
 10
-377.9826723609689
 20
-57.49693597843031
 30
0.0
 11
-377.9826723609689
 21
-59.31213800378566
 31
0.0
  0
ARC
  5
123B
330
1A
100
AcDbEntity
  8
ZUWAKU
100
AcDbCircle
 10
-375.1826723609688
 20
-57.49693597843031
 30
0.0
 40
2.799999999999998
100
AcDbArc
 50
90.0
 51
180.0
  0
LINE
  5
123C
330
1A
100
AcDbEntity
  8
ZUWAKU
100
AcDbLine
 10
-371.1576723609689
 20
-55.22193597843031
 30
0.0
 11
-371.1576723609689
 21
-56.97193597843031
 31
0.0
  0
ARC
  5
123D
330
1A
100
AcDbEntity
  8
ZUWAKU
100
AcDbCircle
 10
-364.3326723609689
 20
-58.89693597843029
 30
0.0
 40
1.399999999999999
100
AcDbArc
 50
90.0
 51
180.0
  0
ARC
  5
123E
330
1A
100
AcDbEntity
  8
ZUWAKU
100
AcDbCircle
 10
-364.3326723609689
 20
-58.89693597843034
 30
0.0
 40
4.199999999999998
100
AcDbArc
 50
90.0
 51
180.0
  0
LINE
  5
123F
330
1A
100
AcDbEntity
  8
ZUWAKU
100
AcDbLine
 10
-309.9482549677618
 20
-47.9469359784303
 30
0.0
 11
-309.9482549677616
 21
-77.14693597843023
 31
0.0
  0
LINE
  5
1240
330
1A
100
AcDbEntity
  8
ZUWAKU
100
AcDbLine
 10
-309.7482549677617
 20
-47.9469359784303
 30
0.0
 11
-309.7482549677615
 21
-77.14693597843023
 31
0.0
  0
LINE
  5
1241
330
1A
100
AcDbEntity
  8
ZUWAKU
100
AcDbLine
 10
-310.1482549677616
 20
-47.9469359784303
 30
0.0
 11
-310.1482549677616
 21
-77.14693597843023
 31
0.0
  0
LINE
  5
1242
330
1A
100
AcDbEntity
  8
ZUWAKU
100
AcDbLine
 10
-325.1326723609688
 20
-67.99693597843031
 30
0.0
 11
-325.1326723609688
 21
-55.22193597843031
 31
0.0
  0
LINE
  5
1243
330
1A
100
AcDbEntity
  8
ZUWAKU
100
AcDbLine
 10
-327.9326723609688
 20
-55.22193597843031
 30
0.0
 11
-327.9326723609688
 21
-66.94693597843031
 31
0.0
  0
LINE
  5
1244
330
1A
100
AcDbEntity
  8
ZUWAKU
100
AcDbLine
 10
-320.232672360969
 20
-70.27193597843029
 30
0.0
 11
-320.232672360969
 21
-55.22193597843031
 31
0.0
  0
LINE
  5
1245
330
1A
100
AcDbEntity
  8
ZUWAKU
100
AcDbLine
 10
-323.0326723609689
 20
-55.22193597843031
 30
0.0
 11
-323.0326723609689
 21
-70.27193597843029
 31
0.0
  0
ARC
  5
1246
330
1A
100
AcDbEntity
  8
ZUWAKU
100
AcDbCircle
 10
-339.482672360969
 20
-59.31213800378561
 30
0.0
 40
1.399999999999999
100
AcDbArc
 50
180.0000000000016
 51
224.9999999999991
  0
ARC
  5
1247
330
1A
100
AcDbEntity
  8
ZUWAKU
100
AcDbCircle
 10
-339.482672360969
 20
-59.31213800378561
 30
0.0
 40
4.199999999999998
100
AcDbArc
 50
180.0
 51
224.9999999999997
  0
LINE
  5
1248
330
1A
100
AcDbEntity
  8
ZUWAKU
100
AcDbLine
 10
-351.9600258787909
 20
-58.74188878486688
 30
0.0
 11
-353.2247776241267
 21
-62.74693597843029
 31
0.0
  0
LINE
  5
1249
330
1A
100
AcDbEntity
  8
ZUWAKU
100
AcDbLine
 10
-348.5826723609688
 20
-55.22193597843031
 30
0.0
 11
-348.5826723609688
 21
-70.27193597843029
 31
0.0
  0
LINE
  5
124A
330
1A
100
AcDbEntity
  8
ZUWAKU
100
AcDbLine
 10
-345.7826723609689
 20
-70.27193597843029
 30
0.0
 11
-345.7826723609689
 21
-55.22193597843031
 31
0.0
  0
LINE
  5
124B
330
1A
100
AcDbEntity
  8
ZUWAKU
100
AcDbLine
 10
-334.2326723609689
 20
-55.22193597843031
 30
0.0
 11
-334.2326723609689
 21
-67.99693597843031
 31
0.0
  0
LINE
  5
124C
330
1A
100
AcDbEntity
  8
ZUWAKU
100
AcDbLine
 10
-331.4326723609688
 20
-66.94693597843031
 30
0.0
 11
-331.4326723609688
 21
-55.22193597843031
 31
0.0
  0
LINE
  5
124D
330
1A
100
AcDbEntity
  8
ZUWAKU
100
AcDbLine
 10
-356.6326723609688
 20
-60.8219359784303
 30
0.0
 11
-356.6326723609688
 21
-55.22193597843031
 31
0.0
  0
LINE
  5
124E
330
1A
100
AcDbEntity
  8
ZUWAKU
100
AcDbLine
 10
-359.4326723609688
 20
-55.22193597843031
 30
0.0
 11
-359.4326723609688
 21
-70.27193597843029
 31
0.0
  0
LINE
  5
124F
330
1A
100
AcDbEntity
  8
ZUWAKU
100
AcDbLine
 10
-353.5985374236529
 20
-55.06384201026333
 30
0.0
 11
-355.4668072982849
 21
-60.98002994659728
 31
0.0
  0
LINE
  5
1250
330
1A
100
AcDbEntity
  8
ZUWAKU
100
AcDbLine
 10
-328.982672360969
 20
-67.99693597843031
 30
0.0
 11
-330.3826723609688
 21
-67.99693597843031
 31
0.0
  0
LINE
  5
1251
330
1A
100
AcDbEntity
  8
ZUWAKU
100
AcDbLine
 10
-331.4326723609688
 20
-70.79693597843029
 30
0.0
 11
-327.9326723609688
 21
-70.79693597843029
 31
0.0
  0
LINE
  5
1252
330
1A
100
AcDbEntity
  8
ZUWAKU
100
AcDbLine
 10
-348.0576723609688
 20
-70.79693597843029
 30
0.0
 11
-346.3076723609688
 21
-70.79693597843029
 31
0.0
  0
LINE
  5
1253
330
1A
100
AcDbEntity
  8
ZUWAKU
100
AcDbLine
 10
-353.5985374236529
 20
-70.43002994659727
 30
0.0
 11
-355.4668072982849
 21
-64.51384201026332
 31
0.0
  0
ARC
  5
1254
330
1A
100
AcDbEntity
  8
ZUWAKU
100
AcDbCircle
 10
-355.96743819748
 20
-60.8219359784303
 30
0.0
 40
0.525
100
AcDbArc
 50
270.0
 51
342.4744316262769
  0
LINE
  5
1255
330
1A
100
AcDbEntity
  8
ZUWAKU
100
AcDbLine
 10
-355.96743819748
 20
-61.34693597843031
 30
0.0
 11
-356.1076723609689
 21
-61.34693597843031
 31
0.0
  0
LINE
  5
1256
330
1A
100
AcDbEntity
  8
ZUWAKU
100
AcDbLine
 10
-356.1076723609689
 20
-64.14693597843029
 30
0.0
 11
-355.96743819748
 21
-64.14693597843029
 31
0.0
  0
ARC
  5
1257
330
1A
100
AcDbEntity
  8
ZUWAKU
100
AcDbCircle
 10
-356.1076723609689
 20
-60.8219359784303
 30
0.0
 40
0.525
100
AcDbArc
 50
180.0
 51
270.0
  0
LINE
  5
1258
330
1A
100
AcDbEntity
  8
ZUWAKU
100
AcDbLine
 10
-358.9076723609689
 20
-70.79693597843029
 30
0.0
 11
-357.1576723609689
 21
-70.79693597843029
 31
0.0
  0
ARC
  5
1259
330
1A
100
AcDbEntity
  8
ZUWAKU
100
AcDbCircle
 10
-357.1576723609689
 20
-70.27193597843029
 30
0.0
 40
0.525
100
AcDbArc
 50
270.0
 51
0.0
  0
LINE
  5
125A
330
1A
100
AcDbEntity
  8
ZUWAKU
100
AcDbLine
 10
-356.6326723609688
 20
-70.27193597843029
 30
0.0
 11
-356.6326723609688
 21
-64.6719359784303
 31
0.0
  0
LINE
  5
125B
330
1A
100
AcDbEntity
  8
ZUWAKU
100
AcDbLine
 10
-361.8826723609688
 20
-68.52193597843029
 30
0.0
 11
-361.8826723609688
 21
-70.27193597843029
 31
0.0
  0
ARC
  5
125C
330
1A
100
AcDbEntity
  8
ZUWAKU
100
AcDbCircle
 10
-362.4076723609689
 20
-70.27193597843029
 30
0.0
 40
0.525
100
AcDbArc
 50
270.0
 51
0.0
  0
ARC
  5
125D
330
1A
100
AcDbEntity
  8
ZUWAKU
100
AcDbCircle
 10
-362.4076723609689
 20
-68.52193597843029
 30
0.0
 40
0.525
100
AcDbArc
 50
0.0
 51
90.0
  0
ARC
  5
125E
330
1A
100
AcDbEntity
  8
ZUWAKU
100
AcDbCircle
 10
-358.9076723609689
 20
-70.27193597843029
 30
0.0
 40
0.525
100
AcDbArc
 50
180.0
 51
270.0
  0
ARC
  5
125F
330
1A
100
AcDbEntity
  8
ZUWAKU
100
AcDbCircle
 10
-355.96743819748
 20
-64.6719359784303
 30
0.0
 40
0.525
100
AcDbArc
 50
17.52556837372303
 51
90.0
  0
ARC
  5
1260
330
1A
100
AcDbEntity
  8
ZUWAKU
100
AcDbCircle
 10
-356.1076723609689
 20
-64.6719359784303
 30
0.0
 40
0.525
100
AcDbArc
 50
90.0
 51
180.0
  0
ARC
  5
1261
330
1A
100
AcDbEntity
  8
ZUWAKU
100
AcDbCircle
 10
-348.0576723609688
 20
-70.27193597843029
 30
0.0
 40
0.525
100
AcDbArc
 50
180.0
 51
270.0
  0
LINE
  5
1262
330
1A
100
AcDbEntity
  8
ZUWAKU
100
AcDbLine
 10
-353.0979065244575
 20
-70.79693597843029
 30
0.0
 11
-351.3990171448485
 21
-70.79693597843029
 31
0.0
  0
ARC
  5
1263
330
1A
100
AcDbEntity
  8
ZUWAKU
100
AcDbCircle
 10
-351.3990171448485
 20
-70.27193597843029
 30
0.0
 40
0.525
100
AcDbArc
 50
270.0
 51
17.52556837372303
  0
LINE
  5
1264
330
1A
100
AcDbEntity
  8
ZUWAKU
100
AcDbLine
 10
-350.8983862456529
 20
-70.11384201026334
 30
0.0
 11
-353.2247776241267
 21
-62.74693597843029
 31
0.0
  0
ARC
  5
1265
330
1A
100
AcDbEntity
  8
ZUWAKU
100
AcDbCircle
 10
-353.0979065244575
 20
-70.27193597843029
 30
0.0
 40
0.525
100
AcDbArc
 50
197.525568373723
 51
270.0
  0
ARC
  5
1266
330
1A
100
AcDbEntity
  8
ZUWAKU
100
AcDbCircle
 10
-331.4326723609688
 20
-67.99693597843031
 30
0.0
 40
2.799999999999998
100
AcDbArc
 50
180.0
 51
270.0
  0
ARC
  5
1267
330
1A
100
AcDbEntity
  8
ZUWAKU
100
AcDbCircle
 10
-339.1326723609688
 20
-67.99693597843031
 30
0.0
 40
2.799999999999998
100
AcDbArc
 50
270.0
 51
0.0
  0
LINE
  5
1268
330
1A
100
AcDbEntity
  8
ZUWAKU
100
AcDbLine
 10
-337.5628238799854
 20
-63.21188547209146
 30
0.0
 11
-340.4726218546302
 21
-60.30208749744679
 31
0.0
  0
LINE
  5
1269
330
1A
100
AcDbEntity
  8
ZUWAKU
100
AcDbLine
 10
-339.1326723609688
 20
-67.47193597843028
 30
0.0
 11
-339.1326723609688
 21
-66.18173395307497
 31
0.0
  0
ARC
  5
126A
330
1A
100
AcDbEntity
  8
ZUWAKU
100
AcDbCircle
 10
-340.5326723609689
 20
-66.18173395307497
 30
0.0
 40
1.399999999999999
100
AcDbArc
 50
0.0
 51
44.99999999999971
  0
ARC
  5
126B
330
1A
100
AcDbEntity
  8
ZUWAKU
100
AcDbCircle
 10
-339.6576723609689
 20
-67.47193597843028
 30
0.0
 40
0.525
100
AcDbArc
 50
270.0
 51
0.0
  0
LINE
  5
126C
330
1A
100
AcDbEntity
  8
ZUWAKU
100
AcDbLine
 10
-343.1576723609689
 20
-70.27193597843029
 30
0.0
 11
-343.1576723609689
 21
-68.52193597843029
 31
0.0
  0
ARC
  5
126D
330
1A
100
AcDbEntity
  8
ZUWAKU
100
AcDbCircle
 10
-342.6326723609688
 20
-70.27193597843029
 30
0.0
 40
0.525
100
AcDbArc
 50
180.0
 51
270.0
  0
ARC
  5
126E
330
1A
100
AcDbEntity
  8
ZUWAKU
100
AcDbCircle
 10
-346.3076723609688
 20
-70.27193597843029
 30
0.0
 40
0.525
100
AcDbArc
 50
270.0
 51
0.0
  0
ARC
  5
126F
330
1A
100
AcDbEntity
  8
ZUWAKU
100
AcDbCircle
 10
-342.6326723609688
 20
-68.52193597843029
 30
0.0
 40
0.525
100
AcDbArc
 50
90.0
 51
180.0
  0
LINE
  5
1270
330
1A
100
AcDbEntity
  8
ZUWAKU
100
AcDbLine
 10
-342.6326723609688
 20
-67.99693597843031
 30
0.0
 11
-339.6576723609689
 21
-67.99693597843031
 31
0.0
  0
LINE
  5
1271
330
1A
100
AcDbEntity
  8
ZUWAKU
100
AcDbLine
 10
-342.6326723609688
 20
-70.79693597843029
 30
0.0
 11
-339.1326723609688
 21
-70.79693597843029
 31
0.0
  0
LINE
  5
1272
330
1A
100
AcDbEntity
  8
ZUWAKU
100
AcDbLine
 10
-342.4525208419522
 20
-62.28198648476913
 30
0.0
 11
-339.5427228673077
 21
-65.19178445941378
 31
0.0
  0
LINE
  5
1273
330
1A
100
AcDbEntity
  8
ZUWAKU
100
AcDbLine
 10
-336.3326723609688
 20
-67.99693597843031
 30
0.0
 11
-336.3326723609688
 21
-66.18173395307497
 31
0.0
  0
ARC
  5
1274
330
1A
100
AcDbEntity
  8
ZUWAKU
100
AcDbCircle
 10
-340.5326723609689
 20
-66.181733953075
 30
0.0
 40
4.199999999999998
100
AcDbArc
 50
0.0
 51
44.99999999999971
  0
ARC
  5
1275
330
1A
100
AcDbEntity
  8
ZUWAKU
100
AcDbCircle
 10
-330.3826723609688
 20
-66.94693597843031
 30
0.0
 40
1.049999999999998
100
AcDbArc
 50
180.0
 51
270.0
  0
ARC
  5
1276
330
1A
100
AcDbEntity
  8
ZUWAKU
100
AcDbCircle
 10
-327.9326723609688
 20
-67.99693597843031
 30
0.0
 40
2.799999999999998
100
AcDbArc
 50
270.0
 51
0.0
  0
LINE
  5
1277
330
1A
100
AcDbEntity
  8
ZUWAKU
100
AcDbLine
 10
-322.5076723609688
 20
-70.79693597843029
 30
0.0
 11
-320.7576723609688
 21
-70.79693597843029
 31
0.0
  0
ARC
  5
1278
330
1A
100
AcDbEntity
  8
ZUWAKU
100
AcDbCircle
 10
-322.5076723609688
 20
-70.27193597843029
 30
0.0
 40
0.525
100
AcDbArc
 50
180.0
 51
270.0
  0
ARC
  5
1279
330
1A
100
AcDbEntity
  8
ZUWAKU
100
AcDbCircle
 10
-328.982672360969
 20
-66.94693597843031
 30
0.0
 40
1.049999999999998
100
AcDbArc
 50
270.0
 51
0.0
  0
ARC
  5
127A
330
1A
100
AcDbEntity
  8
ZUWAKU
100
AcDbCircle
 10
-320.7576723609688
 20
-70.27193597843029
 30
0.0
 40
0.525
100
AcDbArc
 50
270.0
 51
0.0
  0
LINE
  5
127B
330
1A
100
AcDbEntity
  8
ZUWAKU
100
AcDbLine
 10
-346.3076723609688
 20
-54.6969359784303
 30
0.0
 11
-348.0576723609688
 21
-54.6969359784303
 31
0.0
  0
ARC
  5
127C
330
1A
100
AcDbEntity
  8
ZUWAKU
100
AcDbCircle
 10
-357.1576723609689
 20
-55.22193597843031
 30
0.0
 40
0.525
100
AcDbArc
 50
0.0
 51
90.0
  0
LINE
  5
127D
330
1A
100
AcDbEntity
  8
ZUWAKU
100
AcDbLine
 10
-357.1576723609689
 20
-54.6969359784303
 30
0.0
 11
-358.9076723609689
 21
-54.6969359784303
 31
0.0
  0
ARC
  5
127E
330
1A
100
AcDbEntity
  8
ZUWAKU
100
AcDbCircle
 10
-362.4076723609689
 20
-55.22193597843031
 30
0.0
 40
0.525
100
AcDbArc
 50
0.0
 51
90.0
  0
ARC
  5
127F
330
1A
100
AcDbEntity
  8
ZUWAKU
100
AcDbCircle
 10
-358.9076723609689
 20
-55.22193597843031
 30
0.0
 40
0.525
100
AcDbArc
 50
90.0
 51
180.0
  0
ARC
  5
1280
330
1A
100
AcDbEntity
  8
ZUWAKU
100
AcDbCircle
 10
-362.4076723609689
 20
-56.97193597843031
 30
0.0
 40
0.525
100
AcDbArc
 50
270.0
 51
0.0
  0
LINE
  5
1281
330
1A
100
AcDbEntity
  8
ZUWAKU
100
AcDbLine
 10
-361.8826723609688
 20
-55.22193597843031
 30
0.0
 11
-361.8826723609688
 21
-56.97193597843031
 31
0.0
  0
ARC
  5
1282
330
1A
100
AcDbEntity
  8
ZUWAKU
100
AcDbCircle
 10
-348.0576723609688
 20
-55.22193597843031
 30
0.0
 40
0.525
100
AcDbArc
 50
90.0
 51
180.0
  0
LINE
  5
1283
330
1A
100
AcDbEntity
  8
ZUWAKU
100
AcDbLine
 10
-353.0979065244575
 20
-54.6969359784303
 30
0.0
 11
-351.3990171448485
 21
-54.6969359784303
 31
0.0
  0
ARC
  5
1284
330
1A
100
AcDbEntity
  8
ZUWAKU
100
AcDbCircle
 10
-351.3990171448485
 20
-55.22193597843031
 30
0.0
 40
0.525
100
AcDbArc
 50
342.4744316262769
 51
90.0
  0
LINE
  5
1285
330
1A
100
AcDbEntity
  8
ZUWAKU
100
AcDbLine
 10
-350.8983862456529
 20
-55.38002994659729
 30
0.0
 11
-351.9600258787909
 21
-58.74188878486688
 31
0.0
  0
ARC
  5
1286
330
1A
100
AcDbEntity
  8
ZUWAKU
100
AcDbCircle
 10
-353.0979065244575
 20
-55.22193597843031
 30
0.0
 40
0.525
100
AcDbArc
 50
90.0
 51
162.4744316262769
  0
LINE
  5
1287
330
1A
100
AcDbEntity
  8
ZUWAKU
100
AcDbLine
 10
-340.8826723609688
 20
-54.6969359784303
 30
0.0
 11
-337.3826723609688
 21
-54.6969359784303
 31
0.0
  0
LINE
  5
1288
330
1A
100
AcDbEntity
  8
ZUWAKU
100
AcDbLine
 10
-337.3826723609688
 20
-57.49693597843031
 30
0.0
 11
-340.357672360969
 21
-57.49693597843031
 31
0.0
  0
ARC
  5
1289
330
1A
100
AcDbEntity
  8
ZUWAKU
100
AcDbCircle
 10
-340.357672360969
 20
-58.02193597843029
 30
0.0
 40
0.525
100
AcDbArc
 50
90.0
 51
180.0
  0
LINE
  5
128A
330
1A
100
AcDbEntity
  8
ZUWAKU
100
AcDbLine
 10
-340.8826723609688
 20
-58.02193597843029
 30
0.0
 11
-340.8826723609688
 21
-59.31213800378566
 31
0.0
  0
ARC
  5
128B
330
1A
100
AcDbEntity
  8
ZUWAKU
100
AcDbCircle
 10
-346.3076723609688
 20
-55.22193597843031
 30
0.0
 40
0.525
100
AcDbArc
 50
0.0
 51
90.0
  0
LINE
  5
128C
330
1A
100
AcDbEntity
  8
ZUWAKU
100
AcDbLine
 10
-343.6826723609688
 20
-57.49693597843031
 30
0.0
 11
-343.6826723609688
 21
-59.31213800378566
 31
0.0
  0
ARC
  5
128D
330
1A
100
AcDbEntity
  8
ZUWAKU
100
AcDbCircle
 10
-340.8826723609688
 20
-57.49693597843031
 30
0.0
 40
2.799999999999998
100
AcDbArc
 50
90.0
 51
180.0
  0
ARC
  5
128E
330
1A
100
AcDbEntity
  8
ZUWAKU
100
AcDbCircle
 10
-331.9576723609689
 20
-55.22193597843031
 30
0.0
 40
0.525
100
AcDbArc
 50
0.0
 51
90.0
  0
ARC
  5
128F
330
1A
100
AcDbEntity
  8
ZUWAKU
100
AcDbCircle
 10
-333.7076723609689
 20
-55.22193597843031
 30
0.0
 40
0.525
100
AcDbArc
 50
90.0
 51
180.0
  0
LINE
  5
1290
330
1A
100
AcDbEntity
  8
ZUWAKU
100
AcDbLine
 10
-331.9576723609689
 20
-54.6969359784303
 30
0.0
 11
-333.7076723609689
 21
-54.6969359784303
 31
0.0
  0
ARC
  5
1291
330
1A
100
AcDbEntity
  8
ZUWAKU
100
AcDbCircle
 10
-337.3826723609688
 20
-55.22193597843031
 30
0.0
 40
0.525
100
AcDbArc
 50
0.0
 51
90.0
  0
ARC
  5
1292
330
1A
100
AcDbEntity
  8
ZUWAKU
100
AcDbCircle
 10
-337.3826723609688
 20
-56.97193597843031
 30
0.0
 40
0.525
100
AcDbArc
 50
270.0
 51
0.0
  0
LINE
  5
1293
330
1A
100
AcDbEntity
  8
ZUWAKU
100
AcDbLine
 10
-336.8576723609689
 20
-55.22193597843031
 30
0.0
 11
-336.8576723609689
 21
-56.97193597843031
 31
0.0
  0
LINE
  5
1294
330
1A
100
AcDbEntity
  8
ZUWAKU
100
AcDbLine
 10
-320.7576723609688
 20
-54.6969359784303
 30
0.0
 11
-322.5076723609688
 21
-54.6969359784303
 31
0.0
  0
ARC
  5
1295
330
1A
100
AcDbEntity
  8
ZUWAKU
100
AcDbCircle
 10
-322.5076723609688
 20
-55.22193597843031
 30
0.0
 40
0.525
100
AcDbArc
 50
90.0
 51
180.0
  0
ARC
  5
1296
330
1A
100
AcDbEntity
  8
ZUWAKU
100
AcDbCircle
 10
-325.6576723609689
 20
-55.22193597843031
 30
0.0
 40
0.525
100
AcDbArc
 50
0.0
 51
90.0
  0
LINE
  5
1297
330
1A
100
AcDbEntity
  8
ZUWAKU
100
AcDbLine
 10
-325.6576723609689
 20
-54.6969359784303
 30
0.0
 11
-327.4076723609689
 21
-54.6969359784303
 31
0.0
  0
ARC
  5
1298
330
1A
100
AcDbEntity
  8
ZUWAKU
100
AcDbCircle
 10
-327.4076723609689
 20
-55.22193597843031
 30
0.0
 40
0.525
100
AcDbArc
 50
90.0
 51
180.0
  0
ARC
  5
1299
330
1A
100
AcDbEntity
  8
ZUWAKU
100
AcDbCircle
 10
-320.7576723609688
 20
-55.22193597843031
 30
0.0
 40
0.525
100
AcDbArc
 50
0.0
 51
90.0
  0
TEXT
  5
129A
330
1A
100
AcDbEntity
  8
MOJI
100
AcDbText
 10
-149.447681834899
 20
-59.94201492102291
 30
0.0
 40
5.599999999999998
  1
ブラケット正面打（吊）固定式
 41
0.9
  7
ｽﾀｲﾙ1
100
AcDbText
  0
LINE
  5
129B
330
1A
100
AcDbEntity
  8
ZUWAKU
100
AcDbLine
 10
-181.0282832256821
 20
-47.9469359784303
 30
0.0
 11
-181.0282832256821
 21
-77.14693597843023
 31
0.0
  0
LINE
  5
129C
330
1A
100
AcDbEntity
  8
ZUWAKU
100
AcDbLine
 10
-180.6282832256822
 20
-47.9469359784303
 30
0.0
 11
-180.628283225682
 21
-77.14693597843023
 31
0.0
  0
LINE
  5
129D
330
1A
100
AcDbEntity
  8
ZUWAKU
100
AcDbLine
 10
-180.8282832256822
 20
-47.9469359784303
 30
0.0
 11
-180.828283225682
 21
-77.14693597843023
 31
0.0
  0
TEXT
  5
129E
330
1A
100
AcDbEntity
  8
ZUWAKU
100
AcDbText
 10
-179.5508382034725
 20
-68.2915794400447
 30
0.0
 40
4.0
  1
サイズ
 41
0.9
  7
ｽﾀｲﾙ1
100
AcDbText
  0
TEXT
  5
129F
330
1A
100
AcDbEntity
  8
MOJI
100
AcDbText
 10
-149.447681834899
 20
-74.74201492102287
 30
0.0
 40
5.599999999999998
  1
１６０－０－１０
 41
0.9
  7
ｽﾀｲﾙ1
100
AcDbText
  0
TEXT
  5
12A0
330
1A
100
AcDbEntity
  8
ZUWAKU
100
AcDbText
 10
-179.5508382034727
 20
-53.89157944004472
 30
0.0
 40
4.0
  1
品名
 41
0.9
  7
ｽﾀｲﾙ1
100
AcDbText
  0
ARC
  5
12A1
330
1A
100
AcDbEntity
  8
SEIHIN
100
AcDbCircle
 10
-106.3462545128006
 20
173.9390099649636
 30
0.0
 40
13.97902613382879
100
AcDbArc
 50
40.68089222841026
 51
89.04687497626639
  0
ARC
  5
12A2
330
1A
100
AcDbEntity
  8
SEIHIN
100
AcDbCircle
 10
-103.9433441349989
 20
171.9130760909782
 30
0.0
 40
10.0
100
AcDbArc
 50
42.33540187619927
 51
90.0
  0
ARC
  5
12A3
330
1A
100
AcDbEntity
  8
SEIHIN
100
AcDbCircle
 10
-103.0162962946989
 20
159.9130760909782
 30
0.0
 40
4.0
100
AcDbArc
 50
44.21625151239935
 51
90.0
  0
ARC
  5
12A4
330
1A
100
AcDbEntity
  8
SEIHIN
100
AcDbCircle
 10
-21.31103330619885
 20
239.4130760909782
 30
0.0
 40
106.5000000001
100
AcDbArc
 50
213.6764460791997
 51
270.0
  0
ARC
  5
12A5
330
1A
100
AcDbEntity
  8
SEIHIN
100
AcDbCircle
 10
-21.31103330619885
 20
239.4130760909782
 30
0.0
 40
110.0000000000999
100
AcDbArc
 50
212.6478174351002
 51
270.0
  0
DIMENSION
  5
12A6
330
1A
100
AcDbEntity
  8
SUNPOU
100
AcDbDimension
  2
*D7
 10
-153.8840177320329
 20
105.3028708964782
 30
0.0
 11
-158.8840177320329
 21
150.1079734937281
 31
0.0
 70
    32
  3
STANDARD
100
AcDbAlignedDimension
 13
-123.4823536497989
 23
194.9130760909782
 33
0.0
 14
19.38896669380108
 24
105.3028708964781
 34
0.0
 50
90.0
100
AcDbRotatedDimension
1001
ACAD
1000
DSTYLE
1002
{
1070
    41
1040
7.0
1070
    42
1040
6.0
1070
    43
1040
14.0
1070
    44
1040
3.0
1070
    73
1070
     0
1070
    74
1070
     0
1070
    77
1070
     3
1070
   140
1040
6.0
1070
   141
1040
150.0
1070
   147
1040
2.0
1070
   172
1070
     1
1070
   173
1070
     1
1070
   176
1070
   256
1070
   177
1070
   256
1070
   178
1070
   256
1070
   271
1070
     0
1070
   272
1070
     0
1070
   341
1005
B2
1070
     6
1000
OPEN
1070
     7
1000
OPEN
1070
   371
1070
    -1
1070
   372
1070
    -1
1002
}
  0
LINE
  5
12A7
330
1A
100
AcDbEntity
  8
SEIHIN
100
AcDbLine
 10
-114.0631274136989
 20
175.3226572693782
 30
0.0
 11
-118.1589391985989
 21
170.5034949124781
 31
0.0
  0
ARC
  5
12A8
330
1A
100
AcDbEntity
  8
SEIHIN
100
AcDbCircle
 10
-115.1110333061989
 20
167.9130760909782
 30
0.0
 40
4.0
100
AcDbArc
 50
139.6387505755008
 51
270.0
  0
LINE
  5
12A9
330
1A
100
AcDbEntity
  8
SEIHIN
100
AcDbLine
 10
-115.1110333061989
 20
163.9130760909782
 30
0.0
 11
-103.0162962946989
 21
163.9130760909782
 31
0.0
  0
LINE
  5
12AA
330
1A
100
AcDbEntity
  8
SEIHIN
100
AcDbLine
 10
-103.0139815490989
 20
163.9130760909782
 30
0.0
 11
-103.0152673962988
 21
163.9130760909782
 31
0.0
  0
LINE
  5
12AB
330
1A
100
AcDbEntity
  8
SEIHIN
100
AcDbLine
 10
-106.1160254460988
 20
187.9130760909782
 30
0.0
 11
-119.9730234850989
 21
187.9130760909782
 31
0.0
  0
ARC
  5
12AC
330
1A
100
AcDbEntity
  8
SEIHIN
100
AcDbCircle
 10
-117.2993138409989
 20
177.9130760909782
 30
0.0
 40
4.0
100
AcDbArc
 50
32.64781743510026
 51
90.0
  0
LINE
  5
12AD
330
1A
100
AcDbEntity
  8
SEIHIN
100
AcDbLine
 10
-121.3610327808988
 20
181.9130760909782
 30
0.0
 11
-103.9433441349989
 21
181.9130760909782
 31
0.0
  0
ARC
  5
12AE
330
1A
100
AcDbEntity
  8
SEIHIN
100
AcDbCircle
 10
-121.3610333061989
 20
188.6630760909782
 30
0.0
 40
6.75
100
AcDbArc
 50
180.0
 51
270.0000044589011
  0
LINE
  5
12AF
330
1A
100
AcDbEntity
  8
SEIHIN
100
AcDbLine
 10
-117.2963155352989
 20
181.9130760909782
 30
0.0
 11
-117.2979811029989
 21
181.9130760909782
 31
0.0
  0
ARC
  5
12B0
330
1A
100
AcDbEntity
  8
SEIHIN
100
AcDbCircle
 10
-121.3610333061989
 20
188.6630760909782
 30
0.0
 40
6.75
100
AcDbArc
 50
116.5253520166007
 51
180.0
  0
LINE
  5
12B1
330
1A
100
AcDbEntity
  8
SEIHIN
100
AcDbLine
 10
-121.0205357613989
 20
194.9130760909782
 30
0.0
 11
-123.4823536497989
 21
194.9130760909782
 31
0.0
  0
LINE
  5
12B2
330
1A
100
AcDbEntity
  8
SEIHIN
100
AcDbLine
 10
-123.4826407971988
 20
194.9130760909782
 30
0.0
 11
-123.4829995948989
 21
194.9130760909782
 31
0.0
  0
LINE
  5
12B3
330
1A
100
AcDbEntity
  8
SEIHIN
100
AcDbLine
 10
-121.0195634129988
 20
194.9130760909782
 30
0.0
 11
-121.0201035516988
 21
194.9130760909782
 31
0.0
  0
LINE
  5
12B4
330
1A
100
AcDbEntity
  8
SEIHIN
100
AcDbLine
 10
-121.8565073082988
 20
190.5857488849781
 30
0.0
 11
-120.5496648056989
 21
194.2449078924781
 31
0.0
  0
ARC
  5
12B5
330
1A
100
AcDbEntity
  8
SEIHIN
100
AcDbCircle
 10
-119.9730234850989
 20
189.9130760909782
 30
0.0
 40
2.0
100
AcDbArc
 50
160.3461759419008
 51
270.0
  0
LINE
  5
12B6
330
1A
100
AcDbEntity
  8
SEIHIN
100
AcDbLine
 10
-119.9769118884989
 20
187.9130767888781
 30
0.0
 11
-119.9747523239989
 21
187.9130760909782
 31
0.0
  0
LINE
  5
12B7
330
1A
100
AcDbEntity
  8
SEIHIN
100
AcDbLine
 10
-121.8570887797989
 20
190.5841207648781
 30
0.0
 11
-121.8578144625989
 21
190.5820867777782
 31
0.0
  0
LINE
  5
12B8
330
1A
100
AcDbEntity
  8
SEIHIN
100
AcDbLine
 10
-120.5495194377989
 20
194.2453149224782
 30
0.0
 11
-120.5493377694989
 21
194.2458235936781
 31
0.0
  0
ARC
  5
12B9
330
1A
100
AcDbEntity
  8
SEIHIN
100
AcDbCircle
 10
-121.0205357613989
 20
194.4130760909782
 30
0.0
 40
0.5
100
AcDbArc
 50
340.3461759419008
 51
90.0
  0
ARC
  5
12BA
330
1A
100
AcDbEntity
  8
SEIHIN
100
AcDbCircle
 10
-121.3610333061989
 20
188.6630760909782
 30
0.0
 40
6.75
100
AcDbArc
 50
116.5175626991003
 51
116.5218888106986
  0
ARC
  5
12BB
330
1A
100
AcDbEntity
  8
SEIHIN
100
AcDbCircle
 10
-123.4823536497989
 20
192.9130760909782
 30
0.0
 40
2.0
100
AcDbArc
 50
90.0
 51
116.5253520166007
  0
ARC
  5
12BC
330
1A
100
AcDbEntity
  8
SEIHIN
100
AcDbCircle
 10
-109.1062495768989
 20
180.9130760909782
 30
0.0
 40
1.0
100
AcDbArc
 50
90.0
 51
213.6764460791997
  0
ARC
  5
12BD
330
1A
100
AcDbEntity
  8
SEIHIN
100
AcDbCircle
 10
-117.1110333061989
 20
177.9130760909782
 30
0.0
 40
4.0
100
AcDbArc
 50
319.6387505755008
 51
0.0
  0
LINE
  5
12BE
330
1A
100
AcDbEntity
  8
SEIHIN
100
AcDbLine
 10
-113.7371657105989
 20
179.7690483197781
 30
0.0
 11
-113.7375684936989
 21
179.7696724888781
 31
0.0
  0
LINE
  5
12BF
330
1A
100
AcDbEntity
  8
SEIHIN
100
AcDbLine
 10
-113.9319977482989
 20
180.0720536375782
 30
0.0
 11
-113.9328647552989
 21
180.0734069057781
 31
0.0
  0
ARC
  5
12C0
330
1A
100
AcDbEntity
  8
SEIHIN
100
AcDbCircle
 10
-21.31103330619885
 20
239.4130760909782
 30
0.0
 40
110.0000000000999
100
AcDbArc
 50
212.6471476011985
 51
212.8343984231994
  0
ARC
  5
12C1
330
1A
100
AcDbEntity
  8
SEIHIN
100
AcDbCircle
 10
-117.3378360086815
 20
177.5451934349451
 30
0.0
 40
4.240538781056097
100
AcDbArc
 50
5.017919764169067
 51
36.60822259026193
  0
LINE
  5
12C2
330
1A
100
AcDbEntity
  8
SEIHIN
100
AcDbLine
 10
-106.1112055137989
 20
187.9130760909782
 30
0.0
 11
-106.1160254460988
 21
187.9130760909782
 31
0.0
  0
ARC
  5
12C3
330
1A
100
AcDbEntity
  8
SEIHIN
100
AcDbCircle
 10
-318.8848461698333
 20
131.8687149511643
 30
0.0
 40
341.0935053093623
100
AcDbArc
 50
356.9345714798135
 51
5.307748400010145
  0
LINE
  5
12C4
330
1A
100
AcDbEntity
  8
SEIHIN
100
AcDbLine
 10
19.38896669380108
 20
108.5209226980782
 30
0.0
 11
19.38896669380108
 21
140.3029008380781
 31
0.0
  0
LINE
  5
12C5
330
1A
100
AcDbEntity
  8
SEIHIN
100
AcDbLine
 10
26.38896669380108
 20
110.1086529192782
 30
0.0
 11
26.38896669380108
 21
187.4130760909782
 31
0.0
  0
LINE
  5
12C6
330
1A
100
AcDbEntity
  8
SEIHIN
100
AcDbLine
 10
26.38896669380108
 20
109.3028708964781
 30
0.0
 11
21.38896669380108
 21
106.3028708964781
 31
0.0
  0
LINE
  5
12C7
330
1A
100
AcDbEntity
  8
SEIHIN
100
AcDbLine
 10
21.38896669380108
 20
105.3028708964781
 30
0.0
 11
19.38896669380108
 21
105.3028708964781
 31
0.0
  0
LINE
  5
12C8
330
1A
100
AcDbEntity
  8
SEIHIN
100
AcDbLine
 10
19.38896669380108
 20
105.6392600620781
 30
0.0
 11
19.38896669380108
 21
105.3028708964781
 31
0.0
  0
LINE
  5
12C9
330
1A
100
AcDbEntity
  8
SEIHIN
100
AcDbLine
 10
19.38896669380108
 20
105.6392600620781
 30
0.0
 11
19.38896669380108
 21
108.5209226980782
 31
0.0
  0
LINE
  5
12CA
330
1A
100
AcDbEntity
  8
SEIHIN
100
AcDbLine
 10
21.38896669380108
 20
106.3028708964781
 30
0.0
 11
21.38896669380108
 21
105.3028708964781
 31
0.0
  0
ARC
  5
12CB
330
1A
100
AcDbEntity
  8
SEIHIN
100
AcDbCircle
 10
14.15834127909806
 20
113.9947246152565
 30
0.0
 40
7.571126049501688
100
AcDbArc
 50
313.6986140652803
 51
357.2259082113958
  0
LINE
  5
12CC
330
1A
100
AcDbEntity
  8
SEIHIN
100
AcDbLine
 10
26.38896669380108
 20
109.3028708964781
 30
0.0
 11
26.38896669380108
 21
110.1086529192782
 31
0.0
  0
ARC
  5
12CD
330
1A
100
AcDbEntity
  8
SEIHIN
100
AcDbCircle
 10
-49.61103330619891
 20
221.4130760909782
 30
0.0
 40
63.5
100
AcDbArc
 50
222.3354018761992
 51
314.6793907785004
  0
ARC
  5
12CE
330
1A
100
AcDbEntity
  8
SEIHIN
100
AcDbCircle
 10
-49.61103330619891
 20
221.4130760909782
 30
0.0
 40
60.0
100
AcDbArc
 50
219.7482439007008
 51
314.6793907785004
  0
LINE
  5
12CF
330
1A
100
AcDbEntity
  8
SEIHIN
100
AcDbLine
 10
-100.1501373107989
 20
162.7032613358781
 30
0.0
 11
-100.1510025734988
 21
162.7041506263781
 31
0.0
  0
ARC
  5
12D0
330
1A
100
AcDbEntity
  8
SEIHIN
100
AcDbCircle
 10
-49.61103330619891
 20
221.4130760909782
 30
0.0
 40
60.0
100
AcDbArc
 50
219.7444858797999
 51
219.7482439007008
  0
LINE
  5
12D1
330
1A
100
AcDbEntity
  8
SEIHIN
100
AcDbLine
 10
19.920933335801
 20
176.3593575631782
 30
0.0
 11
20.74611749830114
 21
163.4216527237782
 31
0.0
  0
LINE
  5
12D2
330
1A
100
AcDbEntity
  8
SEIHIN
100
AcDbLine
 10
19.38896478410106
 20
140.3029008380781
 30
0.0
 11
16.60622868730115
 21
183.9322140313782
 31
0.0
  0
LINE
  5
12D3
330
1A
100
AcDbEntity
  8
SEIHIN
100
AcDbLine
 10
-3.822577920298954
 20
136.7550962343781
 30
0.0
 11
1.780431187001113
 21
152.1492372375782
 31
0.0
  0
ARC
  5
12D4
330
1A
100
AcDbEntity
  8
SEIHIN
100
AcDbCircle
 10
-2.295917577298951
 20
134.4130760909782
 30
0.0
 40
5.0
100
AcDbArc
 50
270.0
 51
329.9999999996988
  0
LINE
  5
12D5
330
1A
100
AcDbEntity
  8
SEIHIN
100
AcDbLine
 10
3.188909980001085
 20
135.4130760909782
 30
0.0
 11
-8.035655509898901
 21
135.4130760909782
 31
0.0
  0
LINE
  5
12D6
330
1A
100
AcDbEntity
  8
SEIHIN
100
AcDbLine
 10
-8.706096012998841
 20
133.5710559476781
 30
0.0
 11
-1.508492985698921
 21
153.3463077392782
 31
0.0
  0
ARC
  5
12D7
330
1A
100
AcDbEntity
  8
SEIHIN
100
AcDbCircle
 10
9.297972153301088
 20
149.4130760909782
 30
0.0
 40
11.5
100
AcDbArc
 50
90.0
 51
160.0000000001003
  0
LINE
  5
12D8
330
1A
100
AcDbEntity
  8
SEIHIN
100
AcDbLine
 10
-21.31103330619885
 20
132.9130760908781
 30
0.0
 11
-9.645788633798929
 21
132.9130760909782
 31
0.0
  0
LINE
  5
12D9
330
1A
100
AcDbEntity
  8
SEIHIN
100
AcDbLine
 10
-21.31103330619885
 20
129.4130760909782
 30
0.0
 11
-2.295917577298951
 21
129.4130760909782
 31
0.0
  0
LINE
  5
12DA
330
1A
100
AcDbEntity
  8
SEIHIN
100
AcDbLine
 10
-3.822875474098964
 20
136.7542787118782
 30
0.0
 11
-3.823247113398906
 21
136.7532566061781
 31
0.0
  0
LINE
  5
12DB
330
1A
100
AcDbEntity
  8
SEIHIN
100
AcDbLine
 10
-2.294159046398931
 20
129.4130760909782
 30
0.0
 11
-2.291961552298971
 21
129.4130760909782
 31
0.0
  0
LINE
  5
12DC
330
1A
100
AcDbEntity
  8
SEIHIN
100
AcDbLine
 10
-2.88484286189896
 20
135.4130764449782
 30
0.0
 11
-2.883755288698921
 21
135.4130760909782
 31
0.0
  0
ARC
  5
12DD
330
1A
100
AcDbEntity
  8
SEIHIN
100
AcDbCircle
 10
-9.645788633798929
 20
133.9130760909782
 30
0.0
 40
1.0
100
AcDbArc
 50
270.0000000002996
 51
340.0000000000004
  0
ARC
  5
12DE
330
1A
100
AcDbEntity
  8
SEIHIN
100
AcDbCircle
 10
-2.882885299498866
 20
136.4130760909782
 30
0.0
 40
1.0
100
AcDbArc
 50
160.0000000001003
 51
270.0
  0
ARC
  5
12DF
330
1A
100
AcDbEntity
  8
SEIHIN
100
AcDbCircle
 10
17.88896669380108
 20
149.9417228285781
 30
0.0
 40
3.0
100
AcDbArc
 50
180.0
 51
233.9991020602985
  0
LINE
  5
12E0
330
1A
100
AcDbEntity
  8
SEIHIN
100
AcDbLine
 10
2.032231429101102
 20
131.9096500727781
 30
0.0
 11
2.033330176101117
 21
131.9115531584781
 31
0.0
  0
ARC
  5
12E1
330
1A
100
AcDbEntity
  8
SEIHIN
100
AcDbCircle
 10
3.188909980001085
 20
134.9130760909782
 30
0.0
 40
0.5
100
AcDbArc
 50
329.9999999996988
 51
90.0
  0
LINE
  5
12E2
330
1A
100
AcDbEntity
  8
SEIHIN
100
AcDbLine
 10
2.034209441601092
 20
131.9130760909782
 30
0.0
 11
3.621922681901082
 21
134.6630760909782
 31
0.0
  0
ARC
  5
12E3
330
1A
100
AcDbEntity
  8
SEIHIN
100
AcDbCircle
 10
19.88896669380108
 20
136.2167210908781
 30
0.0
 40
3.0
100
AcDbArc
 50
140.1944289054996
 51
180.0
  0
ARC
  5
12E4
330
1A
100
AcDbEntity
  8
SEIHIN
100
AcDbCircle
 10
16.38896669380108
 20
129.2167210908782
 30
0.0
 40
3.0
100
AcDbArc
 50
0.0
 51
39.80557109179909
  0
LINE
  5
12E5
330
1A
100
AcDbEntity
  8
SEIHIN
100
AcDbLine
 10
17.58430285500105
 20
132.4684675029781
 30
0.0
 11
18.69363053260099
 21
131.1372742898781
 31
0.0
  0
ARC
  5
12E6
330
1A
100
AcDbEntity
  8
SEIHIN
100
AcDbCircle
 10
19.88896669380108
 20
134.3890207019781
 30
0.0
 40
3.0
100
AcDbArc
 50
180.0
 51
219.805571091799
  0
LINE
  5
12E7
330
1A
100
AcDbEntity
  8
SEIHIN
100
AcDbLine
 10
16.88896669380108
 20
136.2167210908781
 30
0.0
 11
16.88896669380108
 21
134.3890207019781
 31
0.0
  0
LINE
  5
12E8
330
1A
100
AcDbEntity
  8
SEIHIN
100
AcDbLine
 10
18.69047207090102
 20
131.1410644438781
 30
0.0
 11
18.69222659370109
 21
131.1389582357782
 31
0.0
  0
ARC
  5
12E9
330
1A
100
AcDbEntity
  8
SEIHIN
100
AcDbCircle
 10
16.31895336020102
 20
141.3050047015781
 30
0.0
 40
3.0
100
AcDbArc
 50
320.1944289054996
 51
3.649458262999733
  0
LINE
  5
12EA
330
1A
100
AcDbEntity
  8
SEIHIN
100
AcDbLine
 10
18.623617198901
 20
139.3844515024781
 30
0.0
 11
17.58430285510098
 21
138.1372742899781
 31
0.0
  0
ARC
  5
12EB
330
1A
100
AcDbEntity
  8
SEIHIN
100
AcDbCircle
 10
16.16105175190114
 20
143.7806755805781
 30
0.0
 40
3.0
100
AcDbArc
 50
3.649458262999733
 51
53.99910206029858
  0
LINE
  5
12EC
330
1A
100
AcDbEntity
  8
SEIHIN
100
AcDbLine
 10
16.12557290040103
 20
147.5146994810781
 30
0.0
 11
17.92444554540111
 21
146.2076989280781
 31
0.0
  0
ARC
  5
12ED
330
1A
100
AcDbEntity
  8
SEIHIN
100
AcDbCircle
 10
12.74535364010103
 20
165.9130760909782
 30
0.0
 40
5.0
100
AcDbArc
 50
270.0
 51
3.649458262999733
  0
ARC
  5
12EE
330
1A
100
AcDbEntity
  8
SEIHIN
100
AcDbCircle
 10
13.60640174190109
 20
152.4130760909782
 30
0.0
 40
5.0
100
AcDbArc
 50
3.649458262999733
 51
90.00000435189935
  0
ARC
  5
12EF
330
1A
100
AcDbEntity
  8
SEIHIN
100
AcDbCircle
 10
11.88896669380108
 20
154.4130760909782
 30
0.0
 40
3.0
100
AcDbArc
 50
0.0
 51
90.0
  0
ARC
  5
12F0
330
1A
100
AcDbEntity
  8
SEIHIN
100
AcDbCircle
 10
9.297972153301088
 20
149.4130760909782
 30
0.0
 40
8.0
100
AcDbArc
 50
90.0
 51
160.0000000001003
  0
LINE
  5
12F1
330
1A
100
AcDbEntity
  8
SEIHIN
100
AcDbLine
 10
9.297972153301088
 20
160.9130760909782
 30
0.0
 11
12.74535364010103
 21
160.9130760909782
 31
0.0
  0
LINE
  5
12F2
330
1A
100
AcDbEntity
  8
SEIHIN
100
AcDbLine
 10
9.297972153301088
 20
157.4130760909782
 30
0.0
 11
13.60640136210099
 21
157.4130760909782
 31
0.0
  0
LINE
  5
12F3
330
1A
100
AcDbEntity
  8
SEIHIN
100
AcDbLine
 10
12.89170785480109
 20
157.4130757433782
 30
0.0
 11
12.89018503980105
 21
157.4130760909782
 31
0.0
  0
LINE
  5
12F4
330
1A
100
AcDbEntity
  8
SEIHIN
100
AcDbLine
 10
18.40347748170108
 20
155.7539291312782
 30
0.0
 11
18.39500777850105
 21
155.8867219371781
 31
0.0
  0
LINE
  5
12F5
330
1A
100
AcDbEntity
  8
SEIHIN
100
AcDbLine
 10
14.88896669380108
 20
154.4130760909782
 30
0.0
 11
14.88896669380108
 21
149.9417228285781
 31
0.0
  0
LINE
  5
12F6
330
1A
100
AcDbEntity
  8
SEIHIN
100
AcDbLine
 10
-2.241059872998903
 20
178.6053487271781
 30
0.0
 11
-0.4306042365989243
 21
179.8511561605782
 31
0.0
  0
ARC
  5
12F7
330
1A
100
AcDbEntity
  8
SEIHIN
100
AcDbCircle
 10
13.65396091716525
 20
157.442701623461
 30
0.0
 40
29.97037483055828
100
AcDbArc
 50
89.99108303029101
 51
134.6883077486525
  0
LINE
  5
12F8
330
1A
100
AcDbEntity
  8
SEIHIN
100
AcDbLine
 10
-5.02350607819892
 20
176.2018353132781
 30
0.0
 11
-3.964624218598942
 21
177.1952725220781
 31
0.0
  0
LINE
  5
12F9
330
1A
100
AcDbEntity
  8
SEIHIN
100
AcDbLine
 10
-3.964624218598942
 20
177.1952725220781
 30
0.0
 11
-2.241059872998903
 21
178.6053487271781
 31
0.0
  0
LINE
  5
12FA
330
1A
100
AcDbEntity
  8
SEIHIN
100
AcDbLine
 10
8.537911797661763
 20
186.9731843301657
 30
0.0
 11
16.60460572880106
 21
183.9305899613781
 31
0.0
  0
LINE
  5
12FB
330
1A
100
AcDbEntity
  8
SEIHIN
100
AcDbLine
 10
26.38896669380108
 20
187.4130760909782
 30
0.0
 11
13.6586252210011
 21
187.4130760909782
 31
0.0
  0
ARC
  5
12FC
330
1A
100
AcDbEntity
  8
SEIHIN
100
AcDbCircle
 10
9.133919425101112
 20
175.4039132371781
 30
0.0
 40
8.0
100
AcDbArc
 50
3.649458262999733
 51
95.76186312820507
  0
LINE
  5
12FD
330
1A
100
AcDbEntity
  8
SEIHIN
100
AcDbLine
 10
5.975146466601017
 20
182.7703269802782
 30
0.0
 11
8.33076687839457
 21
183.3634952605459
 31
0.0
  0
LINE
  5
12FE
330
1A
100
AcDbEntity
  8
SEIHIN
100
AcDbLine
 10
1.537720000100989
 20
180.9734755345782
 30
0.0
 11
3.584628946501084
 21
181.9192008791781
 31
0.0
  0
LINE
  5
12FF
330
1A
100
AcDbEntity
  8
SEIHIN
100
AcDbLine
 10
-0.4306042365989243
 20
179.8511561605782
 30
0.0
 11
1.537720000100989
 21
180.9734755345782
 31
0.0
  0
LINE
  5
1300
330
1A
100
AcDbEntity
  8
SEIHIN
100
AcDbLine
 10
3.584628946501084
 20
181.9192008791781
 30
0.0
 11
5.975146466601017
 21
182.7703269802782
 31
0.0
  0
LINE
  5
1301
330
1A
100
AcDbEntity
  8
SEIHIN
100
AcDbLine
 10
16.60622868730115
 20
183.9322140313782
 30
0.0
 11
19.42624830670104
 21
186.7541649408781
 31
0.0
  0
LINE
  5
1302
330
1A
100
AcDbEntity
  8
SEIHIN
100
AcDbLine
 10
19.920933335801
 20
176.3593575631782
 30
0.0
 11
19.45181818930109
 21
186.3532658333782
 31
0.0
  0
INSERT
  5
1303
330
1A
100
AcDbEntity
  8
SEIHIN
100
AcDbBlockReference
  2
CLUMP2
 10
-262.8084029642989
 20
6.216675195678192
 30
0.0
  0
LINE
  5
1304
330
1A
100
AcDbEntity
  8
SEIHIN
100
AcDbLine
 10
19.42624830670104
 20
186.7541649408781
 30
0.0
 11
19.45181818930109
 21
186.3532658333782
 31
0.0
  0
LINE
  5
1305
330
1A
100
AcDbEntity
  8
SEIHIN
100
AcDbLine
 10
-122.0606999590988
 20
346.0693284987585
 30
0.0
 11
14.44771354900103
 21
346.0693284987585
 31
0.0
  0
LINE
  5
1306
330
1A
100
AcDbEntity
  8
SEIHIN
100
AcDbLine
 10
14.42652824440108
 20
318.0693284987585
 30
0.0
 11
-123.4092545874989
 21
318.0693284987585
 31
0.0
  0
DIMENSION
  5
1307
330
1A
100
AcDbEntity
  8
SUNPOU
100
AcDbDimension
  2
*D8
 10
-153.8840177320329
 20
318.0693284987586
 30
0.0
 11
-158.8840177320329
 21
331.9144827534872
 31
0.0
 70
    32
  3
STANDARD
100
AcDbAlignedDimension
 13
-124.4782995551479
 23
345.759637008216
 33
0.0
 14
-123.4092545874989
 24
318.0693284987585
 34
0.0
 50
90.0
100
AcDbRotatedDimension
1001
ACAD
1000
DSTYLE
1002
{
1070
    41
1040
7.0
1070
    42
1040
6.0
1070
    43
1040
14.0
1070
    44
1040
3.0
1070
    73
1070
     0
1070
    74
1070
     0
1070
    77
1070
     3
1070
   140
1040
6.0
1070
   141
1040
150.0
1070
   147
1040
2.0
1070
   172
1070
     1
1070
   173
1070
     1
1070
   176
1070
   256
1070
   177
1070
   256
1070
   178
1070
   256
1070
   271
1070
     0
1070
   272
1070
     0
1070
   341
1005
B2
1070
     6
1000
OPEN
1070
     7
1000
OPEN
1070
   371
1070
    -1
1070
   372
1070
    -1
1002
}
  0
ARC
  5
1308
330
1A
100
AcDbEntity
  8
SEIHIN
100
AcDbCircle
 10
-98.11103330619893
 20
332.0693284987585
 30
0.0
 40
30.0
100
AcDbArc
 50
154.6230664747997
 51
205.3769335252002
  0
LINE
  5
1309
330
1A
100
AcDbEntity
  8
SEIHIN
100
AcDbLine
 10
-121.0180494250989
 20
346.0693284987585
 30
0.0
 11
-119.9769118884989
 21
332.0693151803584
 31
0.0
  0
LINE
  5
130A
330
1A
100
AcDbEntity
  8
SEIHIN
100
AcDbLine
 10
-119.9747523240989
 20
332.0693284987585
 30
0.0
 11
-120.6684907314988
 21
318.0693284987585
 31
0.0
  0
ARC
  5
130B
330
1A
100
AcDbEntity
  8
SEIHIN
100
AcDbCircle
 10
-123.4092545874989
 20
320.0693284987585
 30
0.0
 40
2.0
100
AcDbArc
 50
205.3769335252002
 51
269.999982941401
  0
LINE
  5
130C
330
1A
100
AcDbEntity
  8
SEIHIN
100
AcDbLine
 10
-123.6175938064989
 20
318.0693284987585
 30
0.0
 11
-123.4092545874989
 21
318.0693284987585
 31
0.0
  0
LINE
  5
130D
330
1A
100
AcDbEntity
  8
SEIHIN
100
AcDbLine
 10
-121.2140931498988
 20
318.0693284987585
 30
0.0
 11
-121.7138419591989
 21
318.0693284987585
 31
0.0
  0
LINE
  5
130E
330
1A
100
AcDbEntity
  8
SEIHIN
100
AcDbLine
 10
-120.6684907314988
 20
318.0693284987585
 30
0.0
 11
-121.2140931498988
 21
318.0693284987585
 31
0.0
  0
ARC
  5
130F
330
1A
100
AcDbEntity
  8
SEIHIN
100
AcDbCircle
 10
-123.4092545874989
 20
344.0693284987585
 30
0.0
 40
2.0
100
AcDbArc
 50
90.0
 51
154.6230664747997
  0
LINE
  5
1310
330
1A
100
AcDbEntity
  8
SEIHIN
100
AcDbLine
 10
-122.0606999590988
 20
346.0693284987585
 30
0.0
 11
-123.4092545874989
 21
346.0693284987585
 31
0.0
  0
LINE
  5
1311
330
1A
100
AcDbEntity
  8
SEIHIN
100
AcDbLine
 10
-121.5612652879989
 20
346.0693284987585
 30
0.0
 11
-121.0180494250989
 21
346.0693284987585
 31
0.0
  0
LINE
  5
1312
330
1A
100
AcDbEntity
  8
SEIHIN
100
AcDbLine
 10
19.48625990650009
 20
301.5459689363588
 30
0.0
 11
19.44768561610044
 21
313.0860415975587
 31
0.0
  0
LINE
  5
1313
330
1A
100
AcDbEntity
  8
SEIHIN
100
AcDbLine
 10
16.62780218230045
 20
313.0860415975589
 30
0.0
 11
16.66591450430007
 21
301.6841736594587
 31
0.0
  0
LINE
  5
1314
330
1A
100
AcDbEntity
  8
SEIHIN
100
AcDbLine
 10
26.38896669380108
 20
372.0693284987585
 30
0.0
 11
26.38896669380108
 21
292.0693284987585
 31
0.0
  0
ARC
  5
1315
330
1A
100
AcDbEntity
  8
SEIHIN
100
AcDbCircle
 10
138.2204071306096
 20
301.0468616659323
 30
0.0
 40
118.7351962355892
100
AcDbArc
 50
179.7591546125927
 51
184.1728357914097
  0
ARC
  5
1316
330
1A
100
AcDbEntity
  8
SEIHIN
100
AcDbCircle
 10
65.11535366317753
 20
300.8153264418597
 30
0.0
 40
48.45722908191615
100
AcDbArc
 50
178.9726208593281
 51
187.1428125213606
  0
LINE
  5
1317
330
1A
100
AcDbEntity
  8
SEIHIN
100
AcDbLine
 10
26.38896669380108
 20
292.0693284987585
 30
0.0
 11
19.920933335801
 21
292.0693284987585
 31
0.0
  0
LINE
  5
1318
330
1A
100
AcDbEntity
  8
SEIHIN
100
AcDbLine
 10
19.94353854121709
 20
292.0693284987587
 30
0.0
 11
17.03418643241332
 21
294.7900125060898
 31
0.0
  0
ARC
  5
1319
330
1A
100
AcDbEntity
  8
SEIHIN
100
AcDbCircle
 10
20.35081997585575
 20
292.4554773559823
 30
0.0
 40
0.5529768669569725
100
AcDbArc
 50
183.3138317355409
 51
224.2915112190535
  0
LINE
  5
131A
330
1A
100
AcDbEntity
  8
SEIHIN
100
AcDbLine
 10
16.62780218230113
 20
351.0526153999585
 30
0.0
 11
16.6659145043011
 21
362.4544833380584
 31
0.0
  0
LINE
  5
131B
330
1A
100
AcDbEntity
  8
SEIHIN
100
AcDbLine
 10
19.48625990650111
 20
362.5926880611584
 30
0.0
 11
19.44768561610112
 21
351.0526153999585
 31
0.0
  0
LINE
  5
131C
330
1A
100
AcDbEntity
  8
SEIHIN
100
AcDbLine
 10
-6.945064616198919
 20
318.0693284987585
 30
0.0
 11
-7.174661041798913
 21
318.0693284987585
 31
0.0
  0
ARC
  5
131D
330
1A
100
AcDbEntity
  8
SEIHIN
100
AcDbCircle
 10
11.62783011510043
 20
313.0693284987589
 30
0.0
 40
5.0
100
AcDbArc
 50
0.1915183616980194
 51
89.99999999999674
  0
ARC
  5
131E
330
1A
100
AcDbEntity
  8
SEIHIN
100
AcDbCircle
 10
14.44771354900046
 20
313.0693284987589
 30
0.0
 40
5.0
100
AcDbArc
 50
0.1915183612990528
 51
89.99999999999674
  0
ARC
  5
131F
330
1A
100
AcDbEntity
  8
SEIHIN
100
AcDbCircle
 10
11.627830115101
 20
351.0693284987585
 30
0.0
 40
5.0
100
AcDbArc
 50
270.0
 51
359.8084816383003
  0
ARC
  5
1320
330
1A
100
AcDbEntity
  8
SEIHIN
100
AcDbCircle
 10
14.44771354900103
 20
351.0693284987585
 30
0.0
 40
5.0
100
AcDbArc
 50
270.0
 51
359.8084816386993
  0
LINE
  5
1321
330
1A
100
AcDbEntity
  8
SEIHIN
100
AcDbLine
 10
19.94353854121845
 20
372.0693284987585
 30
0.0
 11
17.03418643241457
 21
369.3486444914276
 31
0.0
  0
ARC
  5
1322
330
1A
100
AcDbEntity
  8
SEIHIN
100
AcDbCircle
 10
138.2204071306106
 20
363.0917953315811
 30
0.0
 40
118.7351962355892
100
AcDbArc
 50
175.8271642085886
 51
180.2408453874056
  0
ARC
  5
1323
330
1A
100
AcDbEntity
  8
SEIHIN
100
AcDbCircle
 10
65.11535366317867
 20
363.3233305556561
 30
0.0
 40
48.45722908191615
100
AcDbArc
 50
172.8571874786361
 51
181.0273791406702
  0
LINE
  5
1324
330
1A
100
AcDbEntity
  8
SEIHIN
100
AcDbLine
 10
19.94353854121845
 20
372.0693284987585
 30
0.0
 11
26.38896669380108
 21
372.0693284987585
 31
0.0
  0
ARC
  5
1325
330
1A
100
AcDbEntity
  8
SEIHIN
100
AcDbCircle
 10
20.35081997585712
 20
371.6831796415349
 30
0.0
 40
0.5529768669569725
100
AcDbArc
 50
135.7084887809453
 51
176.6861682644574
  0
TEXT
  5
1326
330
1A
100
AcDbEntity
  8
SUNPOU
100
AcDbText
 10
106.9230786372759
 20
215.3468307776605
 30
0.0
 40
6.0
  1
3-φ4.2
100
AcDbText
  0
DIMENSION
  5
1327
330
1A
100
AcDbEntity
  8
SUNPOU
100
AcDbDimension
  2
*D9
 10
230.8277812457217
 20
213.3497251966089
 30
0.0
 11
198.8277812457217
 21
218.3497251966089
 31
0.0
 70
    32
  3
STANDARD
100
AcDbAlignedDimension
 13
166.8277812457217
 23
173.8784208964782
 33
0.0
 14
230.8277812457217
 24
173.8784208964782
 34
0.0
100
AcDbRotatedDimension
1001
ACAD
1000
DSTYLE
1002
{
1070
    41
1040
7.0
1070
    42
1040
6.0
1070
    43
1040
14.0
1070
    44
1040
3.0
1070
    73
1070
     0
1070
    74
1070
     0
1070
    77
1070
     3
1070
   140
1040
6.0
1070
   141
1040
150.0
1070
   147
1040
2.0
1070
   172
1070
     1
1070
   173
1070
     1
1070
   176
1070
   256
1070
   177
1070
   256
1070
   178
1070
   256
1070
   271
1070
     0
1070
   272
1070
     0
1070
   341
1005
B2
1070
     6
1000
OPEN
1070
     7
1000
OPEN
1070
   371
1070
    -1
1070
   372
1070
    -1
1002
}
  0
DIMENSION
  5
1328
330
1A
100
AcDbEntity
  8
SUNPOU
100
AcDbDimension
  2
*D10
 10
238.8277312457216
 20
227.3176047340721
 30
0.0
 11
198.8277312457216
 21
232.3176047340721
 31
0.0
 70
    32
  3
STANDARD
100
AcDbAlignedDimension
 13
158.8277312457216
 23
176.3593575631782
 33
0.0
 14
238.8277312457216
 24
175.8271192524782
 34
0.0
100
AcDbRotatedDimension
1001
ACAD
1000
DSTYLE
1002
{
1070
    41
1040
7.0
1070
    42
1040
6.0
1070
    43
1040
14.0
1070
    44
1040
3.0
1070
    73
1070
     0
1070
    74
1070
     0
1070
    77
1070
     3
1070
   140
1040
6.0
1070
   141
1040
150.0
1070
   147
1040
2.0
1070
   172
1070
     1
1070
   173
1070
     1
1070
   176
1070
   256
1070
   177
1070
   256
1070
   178
1070
   256
1070
   271
1070
     0
1070
   272
1070
     0
1070
   341
1005
B2
1070
     6
1000
OPEN
1070
     7
1000
OPEN
1070
   371
1070
    -1
1070
   372
1070
    -1
1002
}
  0
LINE
  5
1329
330
1A
100
AcDbEntity
  8
ZUWAKU
100
AcDbLine
 10
259.5423179944541
 20
-62.74693597843025
 30
0.0
 11
307.9741260327912
 21
-62.74693597843025
 31
0.0
  0
LINE
  5
132A
330
1A
100
AcDbEntity
  8
ZUWAKU
100
AcDbLine
 10
259.5423179944541
 20
-62.54693597843027
 30
0.0
 11
307.9741260327912
 21
-62.54693597843027
 31
0.0
  0
LINE
  5
132B
330
1A
100
AcDbEntity
  8
ZUWAKU
100
AcDbLine
 10
259.5423179944541
 20
-62.34693597843028
 30
0.0
 11
307.9741260327912
 21
-62.34693597843028
 31
0.0
  0
TEXT
  5
132C
330
1A
100
AcDbEntity
  8
ZUWAKU
100
AcDbText
 10
265.2371914839368
 20
-59.94201492102291
 30
0.0
 40
5.599999999999998
  1
　　．　．　　
 41
0.9
  7
ｽﾀｲﾙ1
100
AcDbText
  0
LINE
  5
132D
330
1A
100
AcDbEntity
  8
ZUWAKU
100
AcDbLine
 10
115.9242949823907
 20
-62.74693597843025
 30
0.0
 11
163.2520712503624
 21
-62.74693597843025
 31
0.0
  0
LINE
  5
132E
330
1A
100
AcDbEntity
  8
ZUWAKU
100
AcDbLine
 10
115.9242949823907
 20
-62.54693597843027
 30
0.0
 11
163.2520712503624
 21
-62.54693597843027
 31
0.0
  0
LINE
  5
132F
330
1A
100
AcDbEntity
  8
ZUWAKU
100
AcDbLine
 10
115.9242949823907
 20
-62.34693597843028
 30
0.0
 11
163.2520712503624
 21
-62.34693597843028
 31
0.0
  0
TEXT
  5
1330
330
1A
100
AcDbEntity
  8
MOJI
100
AcDbText
 10
73.97154747525201
 20
-66.00431825677032
 30
0.0
 40
5.599999999999998
  1
ＬＭ１２Ｔ
 41
0.9
  7
ｽﾀｲﾙ1
100
AcDbText
  0
LINE
  5
1331
330
1A
100
AcDbEntity
  8
ZUWAKU
100
AcDbLine
 10
58.34947945524118
 20
-47.9469359784303
 30
0.0
 11
58.34947945524129
 21
-77.14693597843023
 31
0.0
  0
LINE
  5
1332
330
1A
100
AcDbEntity
  8
ZUWAKU
100
AcDbLine
 10
58.54947945524111
 20
-47.9469359784303
 30
0.0
 11
58.54947945524145
 21
-77.14693597843023
 31
0.0
  0
LINE
  5
1333
330
1A
100
AcDbEntity
  8
ZUWAKU
100
AcDbLine
 10
58.14947945524136
 20
-47.9469359784303
 30
0.0
 11
58.14947945524136
 21
-77.14693597843023
 31
0.0
  0
TEXT
  5
1334
330
1A
100
AcDbEntity
  8
MOJI
100
AcDbText
 10
138.7660234565628
 20
-59.94201492102291
 30
0.0
 40
5.599999999999998
  1
Ａ３
 41
0.9
  7
ｽﾀｲﾙ1
100
AcDbText
  0
LINE
  5
1335
330
1A
100
AcDbEntity
  8
ZUWAKU
100
AcDbLine
 10
115.7242949823908
 20
-47.9469359784303
 30
0.0
 11
115.7242949823909
 21
-77.14693597843023
 31
0.0
  0
LINE
  5
1336
330
1A
100
AcDbEntity
  8
ZUWAKU
100
AcDbLine
 10
115.9242949823907
 20
-47.9469359784303
 30
0.0
 11
115.924294982391
 21
-77.14693597843023
 31
0.0
  0
LINE
  5
1337
330
1A
100
AcDbEntity
  8
ZUWAKU
100
AcDbLine
 10
115.5242949823909
 20
-47.9469359784303
 30
0.0
 11
115.5242949823909
 21
-77.14693597843023
 31
0.0
  0
TEXT
  5
1338
330
1A
100
AcDbEntity
  8
ZUWAKU
100
AcDbText
 10
117.4017400046007
 20
-68.2915794400447
 30
0.0
 40
4.0
  1
縮尺
 41
0.9
  7
ｽﾀｲﾙ1
100
AcDbText
  0
TEXT
  5
1339
330
1A
100
AcDbEntity
  8
MOJI
100
AcDbText
 10
138.7660234565628
 20
-74.74201492102287
 30
0.0
 40
5.599999999999998
  1
１/２
 41
0.9
  7
ｽﾀｲﾙ1
100
AcDbText
  0
TEXT
  5
133A
330
1A
100
AcDbEntity
  8
ZUWAKU
100
AcDbText
 10
60.02692447745085
 20
-53.89157944004472
 30
0.0
 40
4.0
  1
品番
 41
0.9
  7
ｽﾀｲﾙ1
100
AcDbText
  0
TEXT
  5
133B
330
1A
100
AcDbEntity
  8
ZUWAKU
100
AcDbText
 10
117.4017400046004
 20
-53.89157944004472
 30
0.0
 40
4.0
  1
用紙
 41
0.9
  7
ｽﾀｲﾙ1
100
AcDbText
  0
LINE
  5
133C
330
1A
100
AcDbEntity
  8
ZUWAKU
100
AcDbLine
 10
259.3423179944541
 20
-47.9469359784303
 30
0.0
 11
259.3423179944545
 21
-77.14693597843023
 31
0.0
  0
LINE
  5
133D
330
1A
100
AcDbEntity
  8
ZUWAKU
100
AcDbLine
 10
259.5423179944541
 20
-47.9469359784303
 30
0.0
 11
259.5423179944546
 21
-77.14693597843023
 31
0.0
  0
LINE
  5
133E
330
1A
100
AcDbEntity
  8
ZUWAKU
100
AcDbLine
 10
259.1423179944545
 20
-47.9469359784303
 30
0.0
 11
259.1423179944545
 21
-77.14693597843023
 31
0.0
  0
LINE
  5
133F
330
1A
100
AcDbEntity
  8
ZUWAKU
100
AcDbLine
 10
163.4520712503622
 20
-47.9469359784303
 30
0.0
 11
163.4520712503622
 21
-77.14693597843023
 31
0.0
  0
LINE
  5
1340
330
1A
100
AcDbEntity
  8
ZUWAKU
100
AcDbLine
 10
163.6520712503622
 20
-47.9469359784303
 30
0.0
 11
163.6520712503624
 21
-77.14693597843023
 31
0.0
  0
LINE
  5
1341
330
1A
100
AcDbEntity
  8
ZUWAKU
100
AcDbLine
 10
163.2520712503624
 20
-47.9469359784303
 30
0.0
 11
163.2520712503624
 21
-77.14693597843023
 31
0.0
  0
TEXT
  5
1342
330
1A
100
AcDbEntity
  8
ZUWAKU
100
AcDbText
 10
261.019763016664
 20
-53.89157944004472
 30
0.0
 40
4.0
  1
DATE
 41
0.9
  7
ｽﾀｲﾙ1
100
AcDbText
  0
ARC
  5
1343
330
1A
100
AcDbEntity
  8
SEIHIN
100
AcDbCircle
 10
168.8277312457216
 20
176.3593575631782
 30
0.0
 40
7.0
100
AcDbArc
 50
145.1301023542
 51
180.0
  0
ARC
  5
1344
330
1A
100
AcDbEntity
  8
SEIHIN
100
AcDbCircle
 10
162.8277312457216
 20
175.3463075575782
 30
0.0
 40
1.0
100
AcDbArc
 50
180.0
 51
299.5924416710997
  0
ARC
  5
1345
330
1A
100
AcDbEntity
  8
SEIHIN
100
AcDbCircle
 10
163.3420073950217
 20
160.9912548481782
 30
0.0
 40
1.0
100
AcDbArc
 50
64.5110969291003
 51
203.8952826951986
  0
ARC
  5
1346
330
1A
100
AcDbEntity
  8
SEIHIN
100
AcDbCircle
 10
168.8277312457216
 20
176.3593575631782
 30
0.0
 40
10.0
100
AcDbArc
 50
92.0000000000004
 51
180.0
  0
ARC
  5
1347
330
1A
100
AcDbEntity
  8
SEIHIN
100
AcDbCircle
 10
168.8277312457216
 20
163.4216527237782
 30
0.0
 40
7.0
100
AcDbArc
 50
203.8952826951986
 51
267.9999999999996
  0
ARC
  5
1348
330
1A
100
AcDbEntity
  8
SEIHIN
100
AcDbCircle
 10
168.8277312457216
 20
163.4216527237782
 30
0.0
 40
10.0
100
AcDbArc
 50
180.0
 51
267.9999999999996
  0
LINE
  5
1349
330
1A
100
AcDbEntity
  8
CENTER_L
  6
CENTER
 62
     1
 48
5.0
100
AcDbLine
 10
172.9492812457219
 20
168.1528208964783
 30
0.0
 11
161.4296812457216
 21
168.1528208964783
 31
0.0
  0
DIMENSION
  5
134A
330
1A
100
AcDbEntity
  8
SUNPOU
100
AcDbDimension
  2
*D11
 10
139.8903445645558
 20
168.1528208964783
 30
0.0
 11
134.8903445645557
 21
177.7829484937283
 31
0.0
 70
    32
  3
STANDARD
100
AcDbAlignedDimension
 13
198.8277312457216
 23
187.4130760909782
 33
0.0
 14
161.4296812457216
 24
168.1528208964783
 34
0.0
 50
90.0
100
AcDbRotatedDimension
1001
ACAD
1000
DSTYLE
1002
{
1070
    41
1040
7.0
1070
    42
1040
6.0
1070
    43
1040
14.0
1070
    44
1040
3.0
1070
    73
1070
     0
1070
    74
1070
     0
1070
    77
1070
     3
1070
   140
1040
6.0
1070
   141
1040
150.0
1070
   147
1040
2.0
1070
   172
1070
     1
1070
   173
1070
     1
1070
   176
1070
   256
1070
   177
1070
   256
1070
   178
1070
   256
1070
   271
1070
     0
1070
   272
1070
     0
1070
   341
1005
B2
1070
     6
1000
OPEN
1070
     7
1000
OPEN
1070
   371
1070
    -1
1070
   372
1070
    -1
1002
}
  0
DIMENSION
  5
134B
330
1A
100
AcDbEntity
  8
SUNPOU
100
AcDbDimension
  2
*D12
 10
139.8903445645558
 20
105.3028708964781
 30
0.0
 11
139.8903445645558
 21
142.1528208964784
 31
0.0
 70
   160
  3
STANDARD
100
AcDbAlignedDimension
 13
193.4296825913288
 23
113.3028708964781
 33
0.0
 14
198.8277312457216
 24
105.3028708964781
 34
0.0
 50
90.0
100
AcDbRotatedDimension
1001
ACAD
1000
DSTYLE
1002
{
1070
    41
1040
7.0
1070
    42
1040
6.0
1070
    43
1040
14.0
1070
    44
1040
3.0
1070
    73
1070
     0
1070
    74
1070
     0
1070
    77
1070
     3
1070
   140
1040
6.0
1070
   141
1040
150.0
1070
   147
1040
2.0
1070
   172
1070
     1
1070
   173
1070
     1
1070
   176
1070
   256
1070
   177
1070
   256
1070
   178
1070
   256
1070
   271
1070
     0
1070
   272
1070
     0
1070
   341
1005
B2
1070
     6
1000
OPEN
1070
     7
1000
OPEN
1070
   371
1070
    -1
1070
   372
1070
    -1
1002
}
  0
DIMENSION
  5
134C
330
1A
100
AcDbEntity
  8
SUNPOU
100
AcDbDimension
  2
*D13
 10
123.7665021443842
 20
105.3028708964781
 30
0.0
 11
118.7665021443842
 21
146.3579734937282
 31
0.0
 70
    32
  3
STANDARD
100
AcDbAlignedDimension
 13
198.8277312457216
 23
187.4130760909782
 33
0.0
 14
198.8277312457216
 24
105.3028708964781
 34
0.0
 50
90.0
100
AcDbRotatedDimension
1001
ACAD
1000
DSTYLE
1002
{
1070
    41
1040
7.0
1070
    42
1040
6.0
1070
    43
1040
14.0
1070
    44
1040
3.0
1070
    73
1070
     0
1070
    74
1070
     0
1070
    77
1070
     3
1070
   140
1040
6.0
1070
   141
1040
150.0
1070
   147
1040
2.0
1070
   172
1070
     1
1070
   173
1070
     1
1070
   176
1070
   256
1070
   177
1070
   256
1070
   178
1070
   256
1070
   271
1070
     0
1070
   272
1070
     0
1070
   341
1005
B2
1070
     6
1000
OPEN
1070
     7
1000
OPEN
1070
   371
1070
    -1
1070
   372
1070
    -1
1002
}
  0
LEADER
  5
134D
330
1A
100
AcDbEntity
  8
SUNPOU
100
AcDbLeader
  3
STANDARD
 40
6.0
 41
31.19999999999999
 76
     3
 10
167.1894812457217
 20
168.1528208964783
 30
0.0
 10
141.0580368481894
 20
213.2050267075274
 30
0.0
 10
105.3116334495755
 20
213.2050267075274
 30
0.0
213
0.0
223
3.0
233
0.0
1001
ACAD
1000
DSTYLE
1002
{
1070
     6
1000
OPEN
1070
    41
1040
7.0
1070
    42
1040
6.0
1070
    43
1040
14.0
1070
    44
1040
3.0
1070
    73
1070
     0
1070
    74
1070
     0
1070
    77
1070
     0
1070
   140
1040
6.0
1070
   141
1040
150.0
1070
   147
1040
2.0
1070
   172
1070
     1
1070
   173
1070
     1
1070
   176
1070
   256
1070
   177
1070
   256
1070
   178
1070
   256
1070
   271
1070
     0
1070
   272
1070
     0
1070
   341
1005
B2
1070
   343
1005
B2
1070
   344
1005
B2
1070
   371
1070
    -1
1070
   372
1070
    -1
1002
}
  0
LINE
  5
134E
330
1A
100
AcDbEntity
  8
SEIHIN
100
AcDbLine
 10
158.8277312457216
 20
163.4216527237782
 30
0.0
 11
158.8277312457216
 21
176.3593575631782
 31
0.0
  0
LINE
  5
134F
330
1A
100
AcDbEntity
  8
SEIHIN
100
AcDbLine
 10
161.8277312457216
 20
176.3593575631782
 30
0.0
 11
161.8277312457216
 21
175.3463075575782
 31
0.0
  0
LINE
  5
1350
330
1A
100
AcDbEntity
  8
SEIHIN
100
AcDbLine
 10
212.8277312457216
 20
140.3028708964781
 30
0.0
 11
212.8277312457216
 21
113.5172718677781
 31
0.0
  0
LINE
  5
1351
330
1A
100
AcDbEntity
  8
SEIHIN
100
AcDbLine
 10
184.8277312457216
 20
113.6282963400781
 30
0.0
 11
184.8277312457216
 21
140.3028708964781
 31
0.0
  0
LINE
  5
1352
330
1A
100
AcDbEntity
  8
SEIHIN
100
AcDbLine
 10
196.3277312457216
 20
120.6076638435782
 30
0.0
 11
196.3277312457216
 21
170.4028708964781
 31
0.0
  0
LINE
  5
1353
330
1A
100
AcDbEntity
  8
SEIHIN
100
AcDbLine
 10
201.3277312457216
 20
170.4028708964781
 30
0.0
 11
201.3277312457216
 21
120.6076638435782
 31
0.0
  0
LINE
  5
1354
330
1A
100
AcDbEntity
  8
SEIHIN
100
AcDbLine
 10
209.8277312457216
 20
113.7134291079781
 30
0.0
 11
209.8277312457216
 21
170.4028708964781
 31
0.0
  0
LINE
  5
1355
330
1A
100
AcDbEntity
  8
SEIHIN
100
AcDbLine
 10
187.8277312457216
 20
170.4028708964781
 30
0.0
 11
187.8277312457216
 21
113.9215090977782
 31
0.0
  0
LINE
  5
1356
330
1A
100
AcDbEntity
  8
CENTER_L
  6
CENTER
 62
     1
 48
5.0
100
AcDbLine
 10
198.8285259161994
 20
201.9173706515748
 30
0.0
 11
198.8275966915389
 21
98.29859938765423
 31
0.0
  0
DIMENSION
  5
1357
330
1A
100
AcDbEntity
  8
SUNPOU
100
AcDbDimension
  2
*D14
 10
212.8277312457216
 20
81.59301669592862
 30
0.0
 11
198.8310420446248
 21
86.59301669592862
 31
0.0
 70
    32
  3
STANDARD
100
AcDbAlignedDimension
 13
184.834352843528
 23
113.3028708964781
 33
0.0
 14
212.8277312457216
 24
113.5172718677781
 34
0.0
100
AcDbRotatedDimension
1001
ACAD
1000
DSTYLE
1002
{
1070
    41
1040
7.0
1070
    42
1040
6.0
1070
    43
1040
14.0
1070
    44
1040
3.0
1070
    73
1070
     0
1070
    74
1070
     0
1070
    77
1070
     3
1070
   140
1040
6.0
1070
   141
1040
150.0
1070
   147
1040
2.0
1070
   172
1070
     1
1070
   173
1070
     1
1070
   176
1070
   256
1070
   177
1070
   256
1070
   178
1070
   256
1070
   271
1070
     0
1070
   272
1070
     0
1070
   341
1005
B2
1070
     6
1000
OPEN
1070
     7
1000
OPEN
1070
   371
1070
    -1
1070
   372
1070
    -1
1002
}
  0
ARC
  5
1358
330
1A
100
AcDbEntity
  8
SEIHIN
100
AcDbCircle
 10
198.8277312457216
 20
113.3028708964781
 30
0.0
 40
7.099999999999999
100
AcDbArc
 50
115.6008269833995
 51
176.4498818267997
  0
LINE
  5
1359
330
1A
100
AcDbEntity
  8
CENTER_L
  6
CENTER
 62
     1
 48
5.0
100
AcDbLine
 10
204.9492825913289
 20
113.3028708964781
 30
0.0
 11
193.4296825913288
 21
113.3028708964781
 31
0.0
  0
LINE
  5
135A
330
1A
100
AcDbEntity
  8
SEIHIN
100
AcDbLine
 10
189.0174501718217
 20
106.5939692125781
 30
0.0
 11
198.8277312457216
 21
106.3028708964781
 31
0.0
  0
LINE
  5
135B
330
1A
100
AcDbEntity
  8
SEIHIN
100
AcDbLine
 10
192.4090435958219
 20
105.6392600620781
 30
0.0
 11
198.8277312457216
 21
105.3028708964781
 31
0.0
  0
LINE
  5
135C
330
1A
100
AcDbEntity
  8
SEIHIN
100
AcDbLine
 10
198.8277312457216
 20
109.3028708964781
 30
0.0
 11
185.6435743578217
 21
110.1086529192782
 31
0.0
  0
ARC
  5
135D
330
1A
100
AcDbEntity
  8
SEIHIN
100
AcDbCircle
 10
192.8920048417571
 20
113.7255894290959
 30
0.0
 40
8.100739114239416
100
AcDbArc
 50
206.5190044507863
 51
266.5820328286887
  0
ARC
  5
135E
330
1A
100
AcDbEntity
  8
SEIHIN
100
AcDbCircle
 10
192.8277312457216
 20
113.6282963400781
 30
0.0
 40
8.0
100
AcDbArc
 50
180.0
 51
206.1010372787012
  0
LINE
  5
135F
330
1A
100
AcDbEntity
  8
SEIHIN
100
AcDbLine
 10
188.7667276262218
 20
112.9233715529781
 30
0.0
 11
190.6822713986216
 21
112.8062984060782
 31
0.0
  0
ARC
  5
1360
330
1A
100
AcDbEntity
  8
SEIHIN
100
AcDbCircle
 10
190.7432750181217
 20
113.8044359508782
 30
0.0
 40
1.0
100
AcDbArc
 50
266.5025785356982
 51
356.4498818267997
  0
ARC
  5
1361
330
1A
100
AcDbEntity
  8
SEIHIN
100
AcDbCircle
 10
188.8277312457216
 20
113.9215090977782
 30
0.0
 40
1.0
100
AcDbArc
 50
180.0
 51
266.5025785356982
  0
ARC
  5
1362
330
1A
100
AcDbEntity
  8
SEIHIN
100
AcDbCircle
 10
204.7634576496866
 20
113.7255894290959
 30
0.0
 40
8.100739114239416
100
AcDbArc
 50
273.4179671713113
 51
333.4809955492136
  0
LINE
  5
1363
330
1A
100
AcDbEntity
  8
SEIHIN
100
AcDbLine
 10
198.8277312457216
 20
109.3028708964781
 30
0.0
 11
211.9306715017216
 21
109.8364785130781
 31
0.0
  0
ARC
  5
1364
330
1A
100
AcDbEntity
  8
SEIHIN
100
AcDbCircle
 10
198.8277312457216
 20
113.3028708964781
 30
0.0
 40
7.099999999999999
100
AcDbArc
 50
2.355473247100953
 51
64.39917301660044
  0
CIRCLE
  5
1365
330
1A
100
AcDbEntity
  8
SEIHIN
100
AcDbCircle
 10
198.8277312457216
 20
113.3028708964781
 30
0.0
 40
2.1
  0
LINE
  5
1366
330
1A
100
AcDbEntity
  8
SEIHIN
100
AcDbLine
 10
205.1069272193217
 20
105.5221452515781
 30
0.0
 11
198.8277312457216
 21
105.3028708964781
 31
0.0
  0
LINE
  5
1367
330
1A
100
AcDbEntity
  8
SEIHIN
100
AcDbLine
 10
208.6645087562217
 20
106.4973617305781
 30
0.0
 11
198.8277312457216
 21
106.3028708964781
 31
0.0
  0
LINE
  5
1368
330
1A
100
AcDbEntity
  8
SEIHIN
100
AcDbLine
 10
206.9615778629217
 20
112.6366024929781
 30
0.0
 11
208.8684217832217
 21
112.7142573108781
 31
0.0
  0
ARC
  5
1369
330
1A
100
AcDbEntity
  8
SEIHIN
100
AcDbCircle
 10
206.9208873254217
 20
113.6357742900781
 30
0.0
 40
1.0
100
AcDbArc
 50
182.3554732470993
 51
272.3320398984995
  0
ARC
  5
136A
330
1A
100
AcDbEntity
  8
SEIHIN
100
AcDbCircle
 10
208.8277312457216
 20
113.7134291079781
 30
0.0
 40
1.0
100
AcDbArc
 50
272.3320398984995
 51
0.0
  0
ARC
  5
136B
330
1A
100
AcDbEntity
  8
SEIHIN
100
AcDbCircle
 10
202.3277312457216
 20
120.6076638435782
 30
0.0
 40
1.0
100
AcDbArc
 50
180.0
 51
244.3991730166005
  0
ARC
  5
136C
330
1A
100
AcDbEntity
  8
SEIHIN
100
AcDbCircle
 10
195.3277312457217
 20
120.6076638435782
 30
0.0
 40
1.0
100
AcDbArc
 50
295.6008269833995
 51
0.0
  0
ARC
  5
136D
330
1A
100
AcDbEntity
  8
SEIHIN
100
AcDbCircle
 10
204.8277312457216
 20
113.5172718677781
 30
0.0
 40
8.0
100
AcDbArc
 50
332.6064930964001
 51
0.0
  0
LINE
  5
136E
330
1A
100
AcDbEntity
  8
SEIHIN
100
AcDbLine
 10
214.8277312457216
 20
175.4028708964781
 30
0.0
 11
230.8277312457216
 21
175.4028708964781
 31
0.0
  0
LINE
  5
136F
330
1A
100
AcDbEntity
  8
SEIHIN
100
AcDbLine
 10
233.0839291659217
 20
180.6109231012781
 30
0.0
 11
214.9324031582218
 21
181.5622042698781
 31
0.0
  0
LINE
  5
1370
330
1A
100
AcDbEntity
  8
SEIHIN
100
AcDbLine
 10
198.8277312457216
 20
187.4130760909782
 30
0.0
 11
229.3510908081216
 21
185.8134145999782
 31
0.0
  0
LINE
  5
1371
330
1A
100
AcDbEntity
  8
SEIHIN
100
AcDbLine
 10
229.3510908081216
 20
153.5053628446781
 30
0.0
 11
225.1473500850218
 21
153.2850541287781
 31
0.0
  0
LINE
  5
1372
330
1A
100
AcDbEntity
  8
SEIHIN
100
AcDbLine
 10
224.9903559458218
 20
156.2809434524782
 30
0.0
 11
229.1940829394218
 21
156.5012514489781
 31
0.0
  0
ARC
  5
1373
330
1A
100
AcDbEntity
  8
SEIHIN
100
AcDbCircle
 10
230.8277312457216
 20
168.3028708964781
 30
0.0
 40
7.099999999999999
100
AcDbArc
 50
157.4979771918
 51
295.1731285216988
  0
LINE
  5
1374
330
1A
100
AcDbEntity
  8
CENTER_L
  6
CENTER
 62
     1
 48
5.0
100
AcDbLine
 10
236.9492812457219
 20
168.1528208964783
 30
0.0
 11
225.4296812457216
 21
168.1528208964783
 31
0.0
  0
ARC
  5
1375
330
1A
100
AcDbEntity
  8
SEIHIN
100
AcDbCircle
 10
223.3444164722218
 20
171.4028708964781
 30
0.0
 40
1.0
100
AcDbArc
 50
337.4979771918
 51
90.0
  0
ARC
  5
1376
330
1A
100
AcDbEntity
  8
SEIHIN
100
AcDbCircle
 10
207.8277312457216
 20
170.4028708964781
 30
0.0
 40
2.0
100
AcDbArc
 50
0.0
 51
90.0
  0
ARC
  5
1377
330
1A
100
AcDbEntity
  8
SEIHIN
100
AcDbCircle
 10
214.8277312457216
 20
170.4028708964781
 30
0.0
 40
2.0
100
AcDbArc
 50
90.0
 51
180.0
  0
ARC
  5
1378
330
1A
100
AcDbEntity
  8
SEIHIN
100
AcDbCircle
 10
203.3277312457216
 20
170.4028708964781
 30
0.0
 40
2.0
100
AcDbArc
 50
90.0
 51
180.0
  0
ARC
  5
1379
330
1A
100
AcDbEntity
  8
SEIHIN
100
AcDbCircle
 10
194.3277312457216
 20
170.4028708964781
 30
0.0
 40
2.0
100
AcDbArc
 50
0.0
 51
90.0
  0
ARC
  5
137A
330
1A
100
AcDbEntity
  8
SEIHIN
100
AcDbCircle
 10
174.3110460192217
 20
171.4028708964781
 30
0.0
 40
1.0
100
AcDbArc
 50
90.0
 51
202.5020228081999
  0
ARC
  5
137B
330
1A
100
AcDbEntity
  8
SEIHIN
100
AcDbCircle
 10
182.8277312457217
 20
170.4028708964781
 30
0.0
 40
2.0
100
AcDbArc
 50
0.0
 51
90.0
  0
ARC
  5
137C
330
1A
100
AcDbEntity
  8
SEIHIN
100
AcDbCircle
 10
189.8277312457216
 20
170.4028708964781
 30
0.0
 40
2.0
100
AcDbArc
 50
90.0
 51
180.0
  0
LINE
  5
137D
330
1A
100
AcDbEntity
  8
CENTER_L
  6
CENTER
 62
     1
 48
5.0
100
AcDbLine
 10
166.8277812457217
 20
173.8784208964782
 30
0.0
 11
166.8276812457218
 21
162.7273208964782
 31
0.0
  0
ARC
  5
137E
330
1A
100
AcDbEntity
  8
SEIHIN
100
AcDbCircle
 10
171.8277312457216
 20
140.3028708964781
 30
0.0
 40
13.0
100
AcDbArc
 50
0.0
 51
87.99984209800058
  0
LINE
  5
137F
330
1A
100
AcDbEntity
  8
SEIHIN
100
AcDbLine
 10
182.8277312457217
 20
172.4028708964781
 30
0.0
 11
174.3110460192217
 21
172.4028708964781
 31
0.0
  0
ARC
  5
1380
330
1A
100
AcDbEntity
  8
SEIHIN
100
AcDbCircle
 10
171.8277312457216
 20
140.3028708964781
 30
0.0
 40
16.0
100
AcDbArc
 50
45.099127844001
 51
87.99999999999961
  0
ARC
  5
1381
330
1A
100
AcDbEntity
  8
SEIHIN
100
AcDbCircle
 10
166.8277312457216
 20
168.3028708964781
 30
0.0
 40
7.099999999999999
100
AcDbArc
 50
244.5110969291003
 51
22.50202280819998
  0
LINE
  5
1382
330
1A
100
AcDbEntity
  8
SEIHIN
100
AcDbLine
 10
172.2814605079217
 20
153.2949503973781
 30
0.0
 11
168.4787362787217
 21
153.4277444535782
 31
0.0
  0
LINE
  5
1383
330
1A
100
AcDbEntity
  8
SEIHIN
100
AcDbLine
 10
168.5834347688219
 20
156.4259169346781
 30
0.0
 11
172.3861231929217
 21
156.2931241287781
 31
0.0
  0
CIRCLE
  5
1384
330
1A
100
AcDbEntity
  8
SEIHIN
100
AcDbCircle
 10
166.8277312457216
 20
168.3028708964781
 30
0.0
 40
2.1
  0
LINE
  5
1385
330
1A
100
AcDbEntity
  8
SEIHIN
100
AcDbLine
 10
184.8277312457216
 20
152.3444654751781
 30
0.0
 11
184.8277312457216
 21
170.4028708964781
 31
0.0
  0
ARC
  5
1386
330
1A
100
AcDbEntity
  8
SEIHIN
100
AcDbCircle
 10
183.8277312457216
 20
152.3444654751781
 30
0.0
 40
1.0
100
AcDbArc
 50
225.099127844001
 51
0.0
  0
LINE
  5
1387
330
1A
100
AcDbEntity
  8
SEIHIN
100
AcDbLine
 10
194.3277312457216
 20
172.4028708964781
 30
0.0
 11
189.8277312457216
 21
172.4028708964781
 31
0.0
  0
ARC
  5
1388
330
1A
100
AcDbEntity
  8
SEIHIN
100
AcDbCircle
 10
225.8277312457216
 20
140.3029708964782
 30
0.0
 40
12.9999001371
100
AcDbArc
 50
93.00010672859938
 51
180.0000230668001
  0
LINE
  5
1389
330
1A
100
AcDbEntity
  8
SEIHIN
100
AcDbLine
 10
207.8277312457216
 20
172.4028708964781
 30
0.0
 11
203.3277312457216
 21
172.4028708964781
 31
0.0
  0
LINE
  5
138A
330
1A
100
AcDbEntity
  8
SEIHIN
100
AcDbLine
 10
212.8277312457216
 20
170.4028708964781
 30
0.0
 11
212.8277312457216
 21
152.3444654751781
 31
0.0
  0
ARC
  5
138B
330
1A
100
AcDbEntity
  8
SEIHIN
100
AcDbCircle
 10
225.8277312457216
 20
140.3029708964782
 30
0.0
 40
15.999900137
100
AcDbArc
 50
93.00001874159924
 51
134.9011249325984
  0
ARC
  5
138C
330
1A
100
AcDbEntity
  8
SEIHIN
100
AcDbCircle
 10
213.8277312457216
 20
152.3444654751781
 30
0.0
 40
1.0
100
AcDbArc
 50
180.0
 51
314.9008721559989
  0
LINE
  5
138D
330
1A
100
AcDbEntity
  8
SEIHIN
100
AcDbLine
 10
223.3444164722218
 20
172.4028708964781
 30
0.0
 11
214.8277312457216
 21
172.4028708964781
 31
0.0
  0
LINE
  5
138E
330
1A
100
AcDbEntity
  8
SEIHIN
100
AcDbLine
 10
184.8277312457216
 20
187.4241853180781
 30
0.0
 11
198.8277312457216
 21
187.9130760909782
 31
0.0
  0
LINE
  5
138F
330
1A
100
AcDbEntity
  8
SEIHIN
100
AcDbLine
 10
184.8277312457216
 20
194.4241853180781
 30
0.0
 11
198.8277312457216
 21
194.9130760909782
 31
0.0
  0
ARC
  5
1390
330
1A
100
AcDbEntity
  8
SEIHIN
100
AcDbCircle
 10
194.3277312457216
 20
180.2516658180782
 30
0.0
 40
2.0
100
AcDbArc
 50
0.0
 51
92.0000000000004
  0
ARC
  5
1391
330
1A
100
AcDbEntity
  8
SEIHIN
100
AcDbCircle
 10
194.3277312457216
 20
177.4028708964781
 30
0.0
 40
2.0
100
AcDbArc
 50
270.0
 51
0.0
  0
LINE
  5
1392
330
1A
100
AcDbEntity
  8
SEIHIN
100
AcDbLine
 10
168.4787362787217
 20
186.3532658333782
 30
0.0
 11
198.8277312457216
 21
187.4130760909782
 31
0.0
  0
LINE
  5
1393
330
1A
100
AcDbEntity
  8
SEIHIN
100
AcDbLine
 10
166.8277312457216
 20
175.4028708964781
 30
0.0
 11
182.8277312457217
 21
175.4028708964781
 31
0.0
  0
LINE
  5
1394
330
1A
100
AcDbEntity
  8
SEIHIN
100
AcDbLine
 10
182.7579322523217
 20
181.8488586229781
 30
0.0
 11
164.6556704541217
 21
181.2167137114782
 31
0.0
  0
ARC
  5
1395
330
1A
100
AcDbEntity
  8
SEIHIN
100
AcDbCircle
 10
166.8277312457216
 20
168.3028708964781
 30
0.0
 40
7.099999999999999
100
AcDbArc
 50
90.0
 51
119.5924416710997
  0
ARC
  5
1396
330
1A
100
AcDbEntity
  8
SEIHIN
100
AcDbCircle
 10
164.7254694475218
 20
179.2179320574781
 30
0.0
 40
2.0
100
AcDbArc
 50
92.0000000000004
 51
145.1301023542
  0
ARC
  5
1397
330
1A
100
AcDbEntity
  8
SEIHIN
100
AcDbCircle
 10
182.8277312457217
 20
179.8500769689781
 30
0.0
 40
2.0
100
AcDbArc
 50
0.0
 51
92.0000000000004
  0
LINE
  5
1398
330
1A
100
AcDbEntity
  8
SEIHIN
100
AcDbLine
 10
184.8277312457216
 20
177.4028708964781
 30
0.0
 11
184.8277312457216
 21
179.8500769689781
 31
0.0
  0
ARC
  5
1399
330
1A
100
AcDbEntity
  8
SEIHIN
100
AcDbCircle
 10
182.8277312457217
 20
177.4028708964781
 30
0.0
 40
2.0
100
AcDbArc
 50
270.0
 51
0.0
  0
LINE
  5
139A
330
1A
100
AcDbEntity
  8
SEIHIN
100
AcDbLine
 10
189.8277312457216
 20
175.4028708964781
 30
0.0
 11
194.3277312457216
 21
175.4028708964781
 31
0.0
  0
LINE
  5
139B
330
1A
100
AcDbEntity
  8
SEIHIN
100
AcDbLine
 10
187.8277312457216
 20
180.0945223553781
 30
0.0
 11
187.8277312457216
 21
177.4028708964781
 31
0.0
  0
LINE
  5
139C
330
1A
100
AcDbEntity
  8
SEIHIN
100
AcDbLine
 10
194.2579322523217
 20
182.2504474721782
 30
0.0
 11
189.7579322523217
 21
182.0933040094782
 31
0.0
  0
ARC
  5
139D
330
1A
100
AcDbEntity
  8
SEIHIN
100
AcDbCircle
 10
189.8277312457216
 20
180.0945223553781
 30
0.0
 40
2.0
100
AcDbArc
 50
92.0000000000004
 51
180.0
  0
ARC
  5
139E
330
1A
100
AcDbEntity
  8
SEIHIN
100
AcDbCircle
 10
189.8277312457216
 20
177.4028708964781
 30
0.0
 40
2.0
100
AcDbArc
 50
180.0
 51
270.0
  0
LINE
  5
139F
330
1A
100
AcDbEntity
  8
SEIHIN
100
AcDbLine
 10
184.8277312457216
 20
187.4241853180781
 30
0.0
 11
184.8277312457216
 21
190.0952299919782
 31
0.0
  0
LINE
  5
13A0
330
1A
100
AcDbEntity
  8
SEIHIN
100
AcDbLine
 10
184.8277312457216
 20
186.9919405138782
 30
0.0
 11
184.8277312457216
 21
187.4241853180781
 31
0.0
  0
LINE
  5
13A1
330
1A
100
AcDbEntity
  8
SEIHIN
100
AcDbLine
 10
184.8277312457216
 20
190.0952299919782
 30
0.0
 11
184.8277312457216
 21
193.7564241495782
 31
0.0
  0
LINE
  5
13A2
330
1A
100
AcDbEntity
  8
SEIHIN
100
AcDbLine
 10
184.8277312457216
 20
193.7564241495782
 30
0.0
 11
184.8277312457216
 21
194.4241853180781
 31
0.0
  0
LINE
  5
13A3
330
1A
100
AcDbEntity
  8
SEIHIN
100
AcDbLine
 10
198.8277312457216
 20
187.9130760909782
 30
0.0
 11
212.8277312457216
 21
187.1793671809782
 31
0.0
  0
LINE
  5
13A4
330
1A
100
AcDbEntity
  8
SEIHIN
100
AcDbLine
 10
198.8277312457216
 20
194.9130760909782
 30
0.0
 11
212.8277312457216
 21
194.1793671809782
 31
0.0
  0
ARC
  5
13A5
330
1A
100
AcDbEntity
  8
SEIHIN
100
AcDbCircle
 10
203.3277312457216
 20
180.1676346621782
 30
0.0
 40
2.0
100
AcDbArc
 50
87.00000000000093
 51
180.0
  0
ARC
  5
13A6
330
1A
100
AcDbEntity
  8
SEIHIN
100
AcDbCircle
 10
203.3277312457216
 20
177.4028708964781
 30
0.0
 40
2.0
100
AcDbArc
 50
180.0
 51
270.0
  0
LINE
  5
13A7
330
1A
100
AcDbEntity
  8
SEIHIN
100
AcDbLine
 10
196.3277312457216
 20
177.4028708964781
 30
0.0
 11
196.3277312457216
 21
180.2516658180782
 31
0.0
  0
LINE
  5
13A8
330
1A
100
AcDbEntity
  8
SEIHIN
100
AcDbLine
 10
201.3277312457216
 20
180.1676346621782
 30
0.0
 11
201.3277312457216
 21
177.4028708964781
 31
0.0
  0
ARC
  5
13A9
330
1A
100
AcDbEntity
  8
SEIHIN
100
AcDbCircle
 10
207.8277312457216
 20
179.9317996553782
 30
0.0
 40
2.0
100
AcDbArc
 50
0.0
 51
87.00000000000093
  0
LINE
  5
13AA
330
1A
100
AcDbEntity
  8
SEIHIN
100
AcDbLine
 10
209.8277312457216
 20
177.4028708964781
 30
0.0
 11
209.8277312457216
 21
179.9317996553782
 31
0.0
  0
ARC
  5
13AB
330
1A
100
AcDbEntity
  8
SEIHIN
100
AcDbCircle
 10
207.8277312457216
 20
177.4028708964781
 30
0.0
 40
2.0
100
AcDbArc
 50
270.0
 51
0.0
  0
LINE
  5
13AC
330
1A
100
AcDbEntity
  8
SEIHIN
100
AcDbLine
 10
203.3277312457216
 20
175.4028708964781
 30
0.0
 11
207.8277312457216
 21
175.4028708964781
 31
0.0
  0
LINE
  5
13AD
330
1A
100
AcDbEntity
  8
SEIHIN
100
AcDbLine
 10
207.9324031582218
 20
181.9290587248781
 30
0.0
 11
203.4324031582218
 21
182.1648937316782
 31
0.0
  0
ARC
  5
13AE
330
1A
100
AcDbEntity
  8
SEIHIN
100
AcDbCircle
 10
214.8277312457216
 20
179.5649452003782
 30
0.0
 40
2.0
100
AcDbArc
 50
87.00000000000093
 51
180.0
  0
ARC
  5
13AF
330
1A
100
AcDbEntity
  8
SEIHIN
100
AcDbCircle
 10
214.8277312457216
 20
177.4028708964781
 30
0.0
 40
2.0
100
AcDbArc
 50
180.0
 51
270.0
  0
LINE
  5
13B0
330
1A
100
AcDbEntity
  8
SEIHIN
100
AcDbLine
 10
212.8277312457216
 20
179.5649452003782
 30
0.0
 11
212.8277312457216
 21
177.4028708964781
 31
0.0
  0
LINE
  5
13B1
330
1A
100
AcDbEntity
  8
SEIHIN
100
AcDbLine
 10
212.8277312457216
 20
194.1793671809782
 30
0.0
 11
212.8277312457216
 21
193.5121146837781
 31
0.0
  0
LINE
  5
13B2
330
1A
100
AcDbEntity
  8
SEIHIN
100
AcDbLine
 10
212.8277312457216
 20
189.8483771697781
 30
0.0
 11
212.8277312457216
 21
187.1793671809782
 31
0.0
  0
LINE
  5
13B3
330
1A
100
AcDbEntity
  8
SEIHIN
100
AcDbLine
 10
212.8277312457216
 20
187.1793671809782
 30
0.0
 11
212.8277312457216
 21
186.7479314502781
 31
0.0
  0
LINE
  5
13B4
330
1A
100
AcDbEntity
  8
SEIHIN
100
AcDbLine
 10
212.8277312457216
 20
189.8483771697781
 30
0.0
 11
212.8277312457216
 21
193.5121146837781
 31
0.0
  0
LINE
  5
13B5
330
1A
100
AcDbEntity
  8
SEIHIN
100
AcDbLine
 10
238.8277312457216
 20
163.4916581922781
 30
0.0
 11
238.8277312457216
 21
175.8271192524782
 31
0.0
  0
LINE
  5
13B6
330
1A
100
AcDbEntity
  8
CENTER_L
  6
CENTER
 62
     1
 48
5.0
100
AcDbLine
 10
230.8277812457217
 20
173.8784208964782
 30
0.0
 11
230.8276812457218
 21
162.7273208964782
 31
0.0
  0
ARC
  5
13B7
330
1A
100
AcDbEntity
  8
SEIHIN
100
AcDbCircle
 10
234.2731058117217
 20
160.9721550991782
 30
0.0
 40
1.0
100
AcDbArc
 50
335.1706410344997
 51
115.1731285216988
  0
ARC
  5
13B8
330
1A
100
AcDbEntity
  8
SEIHIN
100
AcDbCircle
 10
228.8277312457216
 20
163.4916581922781
 30
0.0
 40
10.0
100
AcDbArc
 50
272.999999999999
 51
0.0
  0
ARC
  5
13B9
330
1A
100
AcDbEntity
  8
SEIHIN
100
AcDbCircle
 10
228.8277312457216
 20
163.4916581922781
 30
0.0
 40
7.0
100
AcDbArc
 50
272.999999999999
 51
335.1706410344997
  0
CIRCLE
  5
13BA
330
1A
100
AcDbEntity
  8
SEIHIN
100
AcDbCircle
 10
230.8277312457216
 20
168.3028708964781
 30
0.0
 40
2.1
  0
ARC
  5
13BB
330
1A
100
AcDbEntity
  8
SEIHIN
100
AcDbCircle
 10
228.8277312457216
 20
175.8271192524782
 30
0.0
 40
10.0
100
AcDbArc
 50
0.0
 51
87.00000000000093
  0
ARC
  5
13BC
330
1A
100
AcDbEntity
  8
SEIHIN
100
AcDbCircle
 10
234.8277312457216
 20
175.3463075575782
 30
0.0
 40
1.0
100
AcDbArc
 50
240.4075583289002
 51
0.0
  0
ARC
  5
13BD
330
1A
100
AcDbEntity
  8
SEIHIN
100
AcDbCircle
 10
228.8277312457216
 20
175.8271192524782
 30
0.0
 40
7.0
100
AcDbArc
 50
0.0
 51
33.86989764570106
  0
ARC
  5
13BE
330
1A
100
AcDbEntity
  8
SEIHIN
100
AcDbCircle
 10
230.8277312457216
 20
168.3028708964781
 30
0.0
 40
7.099999999999999
100
AcDbArc
 50
60.40755832890024
 51
90.0
  0
ARC
  5
13BF
330
1A
100
AcDbEntity
  8
SEIHIN
100
AcDbCircle
 10
232.9792572535218
 20
178.6136640317782
 30
0.0
 40
2.0
100
AcDbArc
 50
33.86989764570106
 51
87.00000000000093
  0
LINE
  5
13C0
330
1A
100
AcDbEntity
  8
SEIHIN
100
AcDbLine
 10
235.8277312457216
 20
175.3463075575782
 30
0.0
 11
235.8277312457216
 21
175.8271192524782
 31
0.0
  0
LINE
  5
13C1
330
1A
100
AcDbEntity
  8
ZUWAKU
100
AcDbLine
 10
307.9741260327912
 20
-47.9469359784303
 30
0.0
 11
307.9741260327912
 21
-77.14693597843023
 31
0.0
  0
LINE
  5
13C2
330
1A
100
AcDbEntity
  8
ZUWAKU
100
AcDbLine
 10
308.1741260327912
 20
-47.9469359784303
 30
0.0
 11
308.1741260327912
 21
-77.14693597843023
 31
0.0
  0
LINE
  5
13C3
330
1A
100
AcDbEntity
  8
ZUWAKU
100
AcDbLine
 10
308.3741260327911
 20
-47.9469359784303
 30
0.0
 11
308.3741260327913
 21
-77.14693597843023
 31
0.0
  0
LINE
  5
13C4
330
1A
100
AcDbEntity
  8
ZUWAKU
100
AcDbLine
 10
308.5741260327913
 20
-47.9469359784303
 30
0.0
 11
308.5741260327913
 21
-77.14693597843023
 31
0.0
  0
TEXT
  5
13C5
330
1A
100
AcDbEntity
  8
ZUWAKU
100
AcDbText
 10
319.2531996764937
 20
-60.3930966427435
 30
0.0
 40
6.0
  1
積水化学工業株式会社
 41
0.9
  7
ｽﾀｲﾙ1
100
AcDbText
  0
TEXT
  5
13C6
330
1A
100
AcDbEntity
  8
ZUWAKU
100
AcDbText
 10
319.2531996764937
 20
-71.29809566457623
 30
0.0
 40
6.0
  1
建材事業部
 41
0.9
  7
ｽﾀｲﾙ1
100
AcDbText
  0
LINE
  5
1569
102
{ACAD_REACTORS
330
156C
102
}
330
1A
100
AcDbEntity
  8
KEIJYO
 62
   251
100
AcDbLine
 10
-121.3284821999302
 20
194.2449078924787
 30
0.0
 11
-119.7708474112726
 21
194.2449078924787
 31
0.0
  0
LINE
  5
156A
102
{ACAD_REACTORS
330
156C
102
}
330
1A
100
AcDbEntity
  8
KEIJYO
 62
   251
100
AcDbLine
 10
-120.5496648056016
 20
195.0237252868075
 30
0.0
 11
-120.5496648056016
 21
193.46609049815
 31
0.0
  0
CIRCLE
  5
156B
102
{ACAD_REACTORS
330
156C
102
}
330
1A
100
AcDbEntity
  8
KEIJYO
 62
   251
100
AcDbCircle
 10
-120.5496648056016
 20
194.2449078924787
 30
0.0
 40
0.7788173943287319
  0
VIEWPORT
  5
22
330
17
100
AcDbEntity
 67
     1
  8
0
100
AcDbViewport
 10
313.6808219178082
 20
148.5
 30
0.0
 40
627.3616438356165
 41
297.0
 68
     2
 69
     1
1001
ACAD
1000
MVIEW
1002
{
1070
    16
1010
0.0
1020
0.0
1030
0.0
1010
0.0
1020
0.0
1030
1.0
1040
0.0
1040
297.0
1040
313.6808219178082
1040
148.5
1040
50.0
1040
0.0
1040
0.0
1070
     0
1070
   100
1070
     1
1070
     0
1070
     0
1070
     0
1070
     0
1070
     0
1040
0.0
1040
0.0
1040
0.0
1040
1.0
1040
1.0
1040
10.0
1040
10.0
1070
     0
1002
{
1002
}
1002
}
  0
VIEWPORT
  5
64
330
17
100
AcDbEntity
 67
     1
  8
VIEWPORT
100
AcDbViewport
 10
210.0
 20
148.5
 30
0.0
 40
420.0
 41
297.0
 68
     1
 69
     2
1001
ACAD
1000
MVIEW
1002
{
1070
    16
1010
0.0
1020
0.0
1030
0.0
1010
0.0
1020
0.0
1030
1.0
1040
0.0
1040
302.9399999999998
1040
210.0
1040
148.5
1040
50.0
1040
0.0
1040
0.0
1070
     0
1070
   100
1070
     1
1070
     0
1070
     0
1070
     0
1070
     0
1070
     0
1040
0.0
1040
0.0
1040
0.0
1040
5.0
1040
5.0
1040
0.0
1040
0.0
1070
     0
1002
{
1002
}
1002
}
  0
ENDSEC
  0
SECTION
  2
OBJECTS
  0
DICTIONARY
  5
C
330
0
100
AcDbDictionary
  3
ACAD_GROUP
350
D
  3
ACAD_LAYOUT
350
624
  3
ACAD_MLINESTYLE
350
E
  3
ACAD_PLOTSETTINGS
350
625
  3
ACAD_PLOTSTYLENAME
350
622
  3
ACDBHEADERROUNDTRIPXREC
350
1580
  0
DICTIONARY
  5
155F
330
2
100
AcDbDictionary
280
     1
  3
ACAD_LAYERFILTERS
360
1560
  0
DICTIONARY
  5
651
330
1A
100
AcDbDictionary
280
     1
  3
ACAD_LAYOUTSELFREF
360
15A2
  0
DICTIONARY
  5
64F
330
17
100
AcDbDictionary
280
     1
  3
ACAD_LAYOUTSELFREF
360
15A1
  0
DICTIONARY
  5
D
102
{ACAD_REACTORS
330
C
102
}
330
C
100
AcDbDictionary
  3
*A1
350
F5D
  3
*A2
350
156C
  0
DICTIONARY
  5
624
102
{ACAD_REACTORS
330
C
102
}
330
C
100
AcDbDictionary
  0
DICTIONARY
  5
E
102
{ACAD_REACTORS
330
C
102
}
330
C
100
AcDbDictionary
  3
STANDARD
350
13
  0
DICTIONARY
  5
625
102
{ACAD_REACTORS
330
C
102
}
330
C
100
AcDbDictionary
  0
ACDBDICTIONARYWDFLT
  5
622
102
{ACAD_REACTORS
330
C
102
}
330
C
100
AcDbDictionary
281
     1
  3
Normal
350
623
100
AcDbDictionaryWithDefault
340
623
1001
ACAD
1000
TREAT_AS_HARD
1070
     0
1000
TREAT_AS_HARD
1070
     0
1000
TREAT_AS_HARD
1070
     0
1000
TREAT_AS_HARD
1070
     0
  0
DICTIONARY
  5
1580
102
{ACAD_REACTORS
330
C
102
}
330
C
100
AcDbDictionary
  3
TSTACKALIGN
350
1581
  3
TSTACKSIZE
350
1582
  3
HYPERLINKBASE
350
1583
  3
STYLESHEET
350
1584
  3
LAYOUTDICT
350
1585
  3
PLOTSETDICT
350
1586
  3
PLOTSTYLNAMDICT
350
1587
  3
LWETCUNION
350
1588
  3
INSUNITS
350
1589
  3
CEPSNTYPE
350
158A
  3
FINGERPRINTGUID
350
158B
  3
VERSIONGUID
350
158C
  3
PSVPSCALE
350
158D
  3
DIMSTYLEDATA
350
158E
  3
PUCSORTHOREF
350
158F
  3
PUCSORTHOVIEW
350
1590
  3
PUCSBASE
350
1591
  3
PUCSORGTOP
350
1592
  3
PUCSORGBOTTOM
350
1593
  3
PUCSORGLEFT
350
1594
  3
PUCSORGRIGHT
350
1595
  3
PUCSORGFRONT
350
1596
  3
PUCSORGBACK
350
1597
  3
UCSORTHOREF
350
1598
  3
UCSORTHOVIEW
350
1599
  3
UCSBASE
350
159A
  3
UCSORGTOP
350
159B
  3
UCSORGBOTTOM
350
159C
  3
UCSORGLEFT
350
159D
  3
UCSORGRIGHT
350
159E
  3
UCSORGFRONT
350
159F
  3
UCSORGBACK
350
15A0
  0
DICTIONARY
  5
1560
102
{ACAD_REACTORS
330
155F
102
}
330
155F
100
AcDbDictionary
280
     1
  3
50
360
1561
  0
XRECORD
  5
15A2
102
{ACAD_REACTORS
330
651
102
}
330
651
100
AcDbXrecord
340
1A
  0
XRECORD
  5
15A1
102
{ACAD_REACTORS
330
64F
102
}
330
64F
100
AcDbXrecord
340
17
  0
GROUP
  5
F5D
102
{ACAD_REACTORS
330
D
102
}
330
D
100
AcDbGroup
300

 70
     1
 71
     1
  0
GROUP
  5
156C
102
{ACAD_REACTORS
330
D
102
}
330
D
100
AcDbGroup
300

 70
     1
 71
     1
340
156B
340
156A
340
1569
  0
MLINESTYLE
  5
13
102
{ACAD_REACTORS
330
E
102
}
330
E
100
AcDbMlineStyle
  2
STANDARD
 70
     0
  3

 62
     0
 51
90.0
 52
90.0
 71
     2
 49
0.5
 62
   256
  6
BYLAYER
 49
-0.5
 62
   256
  6
BYLAYER
  0
ACDBPLACEHOLDER
  5
623
102
{ACAD_REACTORS
330
622
102
}
330
622
100
AcDbPlaceHolder
280
     0
  0
XRECORD
  5
1581
102
{ACAD_REACTORS
330
1580
102
}
330
1580
100
AcDbXrecord
 90
        1
  0
XRECORD
  5
1582
102
{ACAD_REACTORS
330
1580
102
}
330
1580
100
AcDbXrecord
 90
       70
  0
XRECORD
  5
1583
102
{ACAD_REACTORS
330
1580
102
}
330
1580
100
AcDbXrecord
  1

  0
XRECORD
  5
1584
102
{ACAD_REACTORS
330
1580
102
}
330
1580
100
AcDbXrecord
  1
systemprinter.ctb
  0
XRECORD
  5
1585
102
{ACAD_REACTORS
330
1580
102
}
330
1580
100
AcDbXrecord
340
624
  0
XRECORD
  5
1586
102
{ACAD_REACTORS
330
1580
102
}
330
1580
100
AcDbXrecord
340
625
  0
XRECORD
  5
1587
102
{ACAD_REACTORS
330
1580
102
}
330
1580
100
AcDbXrecord
340
622
  0
XRECORD
  5
1588
102
{ACAD_REACTORS
330
1580
102
}
330
1580
100
AcDbXrecord
 90
    10781
  0
XRECORD
  5
1589
102
{ACAD_REACTORS
330
1580
102
}
330
1580
100
AcDbXrecord
 90
        0
  0
XRECORD
  5
158A
102
{ACAD_REACTORS
330
1580
102
}
330
1580
100
AcDbXrecord
 90
        0
  0
XRECORD
  5
158B
102
{ACAD_REACTORS
330
1580
102
}
330
1580
100
AcDbXrecord
  1
{137E7082-72B8-11D5-AA3E-50A453C10000}
  0
XRECORD
  5
158C
102
{ACAD_REACTORS
330
1580
102
}
330
1580
100
AcDbXrecord
  1
{C7BC23FF-4815-4DB9-9C38-C95FF76E9BF5}
  0
XRECORD
  5
158D
102
{ACAD_REACTORS
330
1580
102
}
330
1580
100
AcDbXrecord
 40
0.0
  0
XRECORD
  5
158E
102
{ACAD_REACTORS
330
1580
102
}
330
1580
100
AcDbXrecord
1000
DSTYLE
1002
{
1070
   341
340
B2
1070
   343
340
B2
1070
   344
340
B2
1070
   371
 70
    -1
1070
   372
 70
    -1
1002
}
  0
XRECORD
  5
158F
102
{ACAD_REACTORS
330
1580
102
}
330
1580
100
AcDbXrecord
340
0
  0
XRECORD
  5
1590
102
{ACAD_REACTORS
330
1580
102
}
330
1580
100
AcDbXrecord
 70
     0
  0
XRECORD
  5
1591
102
{ACAD_REACTORS
330
1580
102
}
330
1580
100
AcDbXrecord
340
0
  0
XRECORD
  5
1592
102
{ACAD_REACTORS
330
1580
102
}
330
1580
100
AcDbXrecord
 10
0.0
 20
0.0
 30
0.0
  0
XRECORD
  5
1593
102
{ACAD_REACTORS
330
1580
102
}
330
1580
100
AcDbXrecord
 10
0.0
 20
0.0
 30
0.0
  0
XRECORD
  5
1594
102
{ACAD_REACTORS
330
1580
102
}
330
1580
100
AcDbXrecord
 10
0.0
 20
0.0
 30
0.0
  0
XRECORD
  5
1595
102
{ACAD_REACTORS
330
1580
102
}
330
1580
100
AcDbXrecord
 10
0.0
 20
0.0
 30
0.0
  0
XRECORD
  5
1596
102
{ACAD_REACTORS
330
1580
102
}
330
1580
100
AcDbXrecord
 10
0.0
 20
0.0
 30
0.0
  0
XRECORD
  5
1597
102
{ACAD_REACTORS
330
1580
102
}
330
1580
100
AcDbXrecord
 10
0.0
 20
0.0
 30
0.0
  0
XRECORD
  5
1598
102
{ACAD_REACTORS
330
1580
102
}
330
1580
100
AcDbXrecord
340
0
  0
XRECORD
  5
1599
102
{ACAD_REACTORS
330
1580
102
}
330
1580
100
AcDbXrecord
 70
     0
  0
XRECORD
  5
159A
102
{ACAD_REACTORS
330
1580
102
}
330
1580
100
AcDbXrecord
340
0
  0
XRECORD
  5
159B
102
{ACAD_REACTORS
330
1580
102
}
330
1580
100
AcDbXrecord
 10
0.0
 20
0.0
 30
0.0
  0
XRECORD
  5
159C
102
{ACAD_REACTORS
330
1580
102
}
330
1580
100
AcDbXrecord
 10
0.0
 20
0.0
 30
0.0
  0
XRECORD
  5
159D
102
{ACAD_REACTORS
330
1580
102
}
330
1580
100
AcDbXrecord
 10
0.0
 20
0.0
 30
0.0
  0
XRECORD
  5
159E
102
{ACAD_REACTORS
330
1580
102
}
330
1580
100
AcDbXrecord
 10
0.0
 20
0.0
 30
0.0
  0
XRECORD
  5
159F
102
{ACAD_REACTORS
330
1580
102
}
330
1580
100
AcDbXrecord
 10
0.0
 20
0.0
 30
0.0
  0
XRECORD
  5
15A0
102
{ACAD_REACTORS
330
1580
102
}
330
1580
100
AcDbXrecord
 10
0.0
 20
0.0
 30
0.0
  0
XRECORD
  5
1561
102
{ACAD_REACTORS
330
1560
102
}
330
1560
100
AcDbXrecord
  1
50
  1
*-50
  1
*
  1
*
 70
     0
  1
*
  1
*
  0
ENDSEC
  0
EOF
