  0
SECTION
  2
HEADER
  9
$ACADVER
  1
AC1015
  9
$ACADMAINTVER
 70
     6
  9
$DWGCODEPAGE
  3
ANSI_932
  9
$INSBASE
 10
0.0
 20
0.0
 30
0.0
  9
$EXTMIN
 10
0.0000000135560185
 20
-0.0000001317113174
 30
0.0
  9
$EXTMAX
 10
797.6000000135562
 20
551.5999998682888
 30
0.0
  9
$LIMMIN
 10
0.0
 20
0.0
  9
$LIMMAX
 10
840.0
 20
594.0
  9
$ORTHOMODE
 70
     0
  9
$REGENMODE
 70
     1
  9
$FILLMODE
 70
     1
  9
$QTEXTMODE
 70
     0
  9
$MIRRTEXT
 70
     1
  9
$LTSCALE
 40
2.0
  9
$ATTMODE
 70
     1
  9
$TEXTSIZE
 40
6.0
  9
$TRACEWID
 40
1.0
  9
$TEXTSTYLE
  7
STANDARD
  9
$CLAYER
  8
SEIHIN
  9
$CELTYPE
  6
BYLAYER
  9
$CECOLOR
 62
   256
  9
$CELTSCALE
 40
1.0
  9
$DISPSILH
 70
     0
  9
$DIMSCALE
 40
1.0
  9
$DIMASZ
 40
7.0
  9
$DIMEXO
 40
6.0
  9
$DIMDLI
 40
14.0
  9
$DIMRND
 40
0.0
  9
$DIMDLE
 40
0.0
  9
$DIMEXE
 40
3.0
  9
$DIMTP
 40
0.0
  9
$DIMTM
 40
0.0
  9
$DIMTXT
 40
6.0
  9
$DIMCEN
 40
150.0
  9
$DIMTSZ
 40
0.0
  9
$DIMTOL
 70
     0
  9
$DIMLIM
 70
     0
  9
$DIMTIH
 70
     0
  9
$DIMTOH
 70
     0
  9
$DIMSE1
 70
     0
  9
$DIMSE2
 70
     0
  9
$DIMTAD
 70
     3
  9
$DIMZIN
 70
     0
  9
$DIMBLK
  1

  9
$DIMASO
 70
     1
  9
$DIMSHO
 70
     1
  9
$DIMPOST
  1

  9
$DIMAPOST
  1

  9
$DIMALT
 70
     0
  9
$DIMALTD
 70
     2
  9
$DIMALTF
 40
25.4
  9
$DIMLFAC
 40
1.0
  9
$DIMTOFL
 70
     1
  9
$DIMTVP
 40
0.0
  9
$DIMTIX
 70
     0
  9
$DIMSOXD
 70
     0
  9
$DIMSAH
 70
     1
  9
$DIMBLK1
  1
OPEN
  9
$DIMBLK2
  1
OPEN
  9
$DIMSTYLE
  2
STANDARD
  9
$DIMCLRD
 70
   256
  9
$DIMCLRE
 70
   256
  9
$DIMCLRT
 70
   256
  9
$DIMTFAC
 40
1.0
  9
$DIMGAP
 40
2.0
  9
$DIMJUST
 70
     0
  9
$DIMSD1
 70
     0
  9
$DIMSD2
 70
     0
  9
$DIMTOLJ
 70
     1
  9
$DIMTZIN
 70
     0
  9
$DIMALTZ
 70
     0
  9
$DIMALTTZ
 70
     0
  9
$DIMUPT
 70
     0
  9
$DIMDEC
 70
     0
  9
$DIMTDEC
 70
     0
  9
$DIMALTU
 70
     2
  9
$DIMALTTD
 70
     2
  9
$DIMTXSTY
  7
STANDARD
  9
$DIMAUNIT
 70
     0
  9
$DIMADEC
 70
     0
  9
$DIMALTRND
 40
0.0
  9
$DIMAZIN
 70
     0
  9
$DIMDSEP
 70
    46
  9
$DIMATFIT
 70
     3
  9
$DIMFRAC
 70
     0
  9
$DIMLDRBLK
  1
OPEN
  9
$DIMLUNIT
 70
     2
  9
$DIMLWD
 70
    -1
  9
$DIMLWE
 70
    -1
  9
$DIMTMOVE
 70
     0
  9
$LUNITS
 70
     2
  9
$LUPREC
 70
     4
  9
$SKETCHINC
 40
1.0
  9
$FILLETRAD
 40
10.0
  9
$AUNITS
 70
     0
  9
$AUPREC
 70
     0
  9
$MENU
  1
.
  9
$ELEVATION
 40
0.0
  9
$PELEVATION
 40
0.0
  9
$THICKNESS
 40
0.0
  9
$LIMCHECK
 70
     0
  9
$CHAMFERA
 40
0.0
  9
$CHAMFERB
 40
0.0
  9
$CHAMFERC
 40
40.0
  9
$CHAMFERD
 40
0.0
  9
$SKPOLY
 70
     0
  9
$TDCREATE
 40
2451030.614786227
  9
$TDUCREATE
 40
2451030.239786227
  9
$TDUPDATE
 40
2455609.399319375
  9
$TDUUPDATE
 40
2455609.024319375
  9
$TDINDWG
 40
0.2730930556
  9
$TDUSRTIMER
 40
0.2730930556
  9
$USRTIMER
 70
     1
  9
$ANGBASE
 50
0.0
  9
$ANGDIR
 70
     0
  9
$PDMODE
 70
     0
  9
$PDSIZE
 40
0.0
  9
$PLINEWID
 40
0.0
  9
$SPLFRAME
 70
     0
  9
$SPLINETYPE
 70
     6
  9
$SPLINESEGS
 70
     8
  9
$HANDSEED
  5
3FC8
  9
$SURFTAB1
 70
     6
  9
$SURFTAB2
 70
     6
  9
$SURFTYPE
 70
     6
  9
$SURFU
 70
     6
  9
$SURFV
 70
     6
  9
$UCSBASE
  2

  9
$UCSNAME
  2

  9
$UCSORG
 10
0.0
 20
0.0
 30
0.0
  9
$UCSXDIR
 10
1.0
 20
0.0
 30
0.0
  9
$UCSYDIR
 10
0.0
 20
1.0
 30
0.0
  9
$UCSORTHOREF
  2

  9
$UCSORTHOVIEW
 70
     0
  9
$UCSORGTOP
 10
0.0
 20
0.0
 30
0.0
  9
$UCSORGBOTTOM
 10
0.0
 20
0.0
 30
0.0
  9
$UCSORGLEFT
 10
0.0
 20
0.0
 30
0.0
  9
$UCSORGRIGHT
 10
0.0
 20
0.0
 30
0.0
  9
$UCSORGFRONT
 10
0.0
 20
0.0
 30
0.0
  9
$UCSORGBACK
 10
0.0
 20
0.0
 30
0.0
  9
$PUCSBASE
  2

  9
$PUCSNAME
  2

  9
$PUCSORG
 10
0.0
 20
0.0
 30
0.0
  9
$PUCSXDIR
 10
1.0
 20
0.0
 30
0.0
  9
$PUCSYDIR
 10
0.0
 20
1.0
 30
0.0
  9
$PUCSORTHOREF
  2

  9
$PUCSORTHOVIEW
 70
     0
  9
$PUCSORGTOP
 10
0.0
 20
0.0
 30
0.0
  9
$PUCSORGBOTTOM
 10
0.0
 20
0.0
 30
0.0
  9
$PUCSORGLEFT
 10
0.0
 20
0.0
 30
0.0
  9
$PUCSORGRIGHT
 10
0.0
 20
0.0
 30
0.0
  9
$PUCSORGFRONT
 10
0.0
 20
0.0
 30
0.0
  9
$PUCSORGBACK
 10
0.0
 20
0.0
 30
0.0
  9
$USERI1
 70
     0
  9
$USERI2
 70
     0
  9
$USERI3
 70
     0
  9
$USERI4
 70
     0
  9
$USERI5
 70
     0
  9
$USERR1
 40
0.0
  9
$USERR2
 40
0.0
  9
$USERR3
 40
0.0
  9
$USERR4
 40
0.0
  9
$USERR5
 40
0.0
  9
$WORLDVIEW
 70
     1
  9
$SHADEDGE
 70
     3
  9
$SHADEDIF
 70
    70
  9
$TILEMODE
 70
     1
  9
$MAXACTVP
 70
    16
  9
$PINSBASE
 10
0.0
 20
0.0
 30
0.0
  9
$PLIMCHECK
 70
     0
  9
$PEXTMIN
 10
-0.0128164049386896
 20
-0.0090630292066862
 30
-0.0015258207003583
  9
$PEXTMAX
 10
420.0128183607162
 20
297.0090644122207
 30
0.0000000349246037
  9
$PLIMMIN
 10
-30.66685116754002
 20
-9.990190459854741
  9
$PLIMMAX
 10
450.6668334081172
 20
361.9494725043409
  9
$UNITMODE
 70
     0
  9
$VISRETAIN
 70
     0
  9
$PLINEGEN
 70
     0
  9
$PSLTSCALE
 70
     1
  9
$TREEDEPTH
 70
  3020
  9
$CMLSTYLE
  2
STANDARD
  9
$CMLJUST
 70
     0
  9
$CMLSCALE
 40
1.0
  9
$PROXYGRAPHICS
 70
     1
  9
$MEASUREMENT
 70
     0
  9
$CELWEIGHT
370
    -1
  9
$ENDCAPS
280
     0
  9
$JOINSTYLE
280
     0
  9
$LWDISPLAY
290
     0
  9
$INSUNITS
 70
     0
  9
$HYPERLINKBASE
  1

  9
$STYLESHEET
  1
systemprinter.ctb
  9
$XEDIT
290
     1
  9
$CEPSNTYPE
380
     0
  9
$PSTYLEMODE
290
     1
  9
$FINGERPRINTGUID
  2
{91E25F26-0CBF-4C93-982E-B5F00895E654}
  9
$VERSIONGUID
  2
{9E7AFDED-6EC3-4779-B3B7-5619BAC2ECFE}
  9
$EXTNAMES
290
     1
  9
$PSVPSCALE
 40
0.0
  9
$OLESTARTUP
290
     0
  0
ENDSEC
  0
SECTION
  2
CLASSES
  0
CLASS
  1
ACDBDICTIONARYWDFLT
  2
AcDbDictionaryWithDefault
  3
ObjectDBX Classes
 90
        0
280
     0
281
     0
  0
CLASS
  1
ACDBPLACEHOLDER
  2
AcDbPlaceHolder
  3
ObjectDBX Classes
 90
        0
280
     0
281
     0
  0
CLASS
  1
LAYOUT
  2
AcDbLayout
  3
ObjectDBX Classes
 90
        0
280
     0
281
     0
  0
CLASS
  1
DUMMY
  2
AcDbLongTransaction
  3
DUMMY
 90
        0
280
     0
281
     0
  0
CLASS
  1
LWPOLYLINE
  2
AcDbPolyline
  3
AutoCAD 2000
 90
        0
280
     0
281
     1
  0
CLASS
  1
HATCH
  2
AcDbHatch
  3
AutoCAD 2000
 90
        0
280
     0
281
     1
  0
CLASS
  1
XRECORD
  2
AcDbXrecord
  3
AutoCAD 2000
 90
        0
280
     0
281
     0
  0
CLASS
  1
DUMMY
  2
AcDbLongTransaction
  3
DUMMY
 90
        0
280
     0
281
     0
  0
CLASS
  1
LWPOLYLINE
  2
AcDbPolyline
  3
AutoCAD 2000
 90
        0
280
     0
281
     1
  0
CLASS
  1
HATCH
  2
AcDbHatch
  3
AutoCAD 2000
 90
        0
280
     0
281
     1
  0
CLASS
  1
XRECORD
  2
AcDbXrecord
  3
AutoCAD 2000
 90
        0
280
     0
281
     0
  0
CLASS
  1
DUMMY
  2
AcDbLongTransaction
  3
DUMMY
 90
        0
280
     0
281
     0
  0
CLASS
  1
LWPOLYLINE
  2
AcDbPolyline
  3
AutoCAD 2000
 90
        0
280
     0
281
     1
  0
CLASS
  1
HATCH
  2
AcDbHatch
  3
AutoCAD 2000
 90
        0
280
     0
281
     1
  0
CLASS
  1
XRECORD
  2
AcDbXrecord
  3
AutoCAD 2000
 90
        0
280
     0
281
     0
  0
CLASS
  1
DUMMY
  2
AcDbLongTransaction
  3
DUMMY
 90
        0
280
     0
281
     0
  0
CLASS
  1
LWPOLYLINE
  2
AcDbPolyline
  3
AutoCAD 2000
 90
        0
280
     0
281
     1
  0
CLASS
  1
HATCH
  2
AcDbHatch
  3
AutoCAD 2000
 90
        0
280
     0
281
     1
  0
CLASS
  1
XRECORD
  2
AcDbXrecord
  3
AutoCAD 2000
 90
        0
280
     0
281
     0
  0
ENDSEC
  0
SECTION
  2
TABLES
  0
TABLE
  2
VPORT
  5
8
330
0
100
AcDbSymbolTable
 70
     2
  0
VPORT
  5
3FC7
330
8
100
AcDbSymbolTableRecord
100
AcDbViewportTableRecord
  2
*Active
 70
     0
 10
0.0
 20
0.0
 11
1.0
 21
1.0
 12
411.1124883490151
 22
294.2260305473052
 13
0.0
 23
0.0
 14
5.0
 24
5.0
 15
0.0
 25
0.0
 16
0.0
 26
0.0
 36
1.0
 17
0.0
 27
0.0
 37
0.0
 40
637.2311767148901
 41
1.651537335285505
 42
50.0
 43
0.0
 44
0.0
 50
0.0
 51
0.0
 71
     0
 72
   100
 73
     1
 74
     0
 75
     0
 76
     0
 77
     0
 78
     0
281
     0
 65
     1
110
0.0
120
0.0
130
0.0
111
1.0
121
0.0
131
0.0
112
0.0
122
1.0
132
0.0
 79
     0
146
0.0
  0
ENDTAB
  0
TABLE
  2
LTYPE
  5
5
330
0
100
AcDbSymbolTable
 70
     3
  0
LTYPE
  5
14
330
5
100
AcDbSymbolTableRecord
100
AcDbLinetypeTableRecord
  2
BYBLOCK
 70
     0
  3

 72
    65
 73
     0
 40
0.0
  0
LTYPE
  5
15
330
5
100
AcDbSymbolTableRecord
100
AcDbLinetypeTableRecord
  2
BYLAYER
 70
     0
  3

 72
    65
 73
     0
 40
0.0
  0
LTYPE
  5
16
330
5
100
AcDbSymbolTableRecord
100
AcDbLinetypeTableRecord
  2
CONTINUOUS
 70
     0
  3
Solid line
 72
    65
 73
     0
 40
0.0
  0
LTYPE
  5
115
330
5
100
AcDbSymbolTableRecord
100
AcDbLinetypeTableRecord
  2
PHANTOM
 70
     0
  3
______  __  __  ______  __  __  ______  __  __ 
 72
    65
 73
     6
 40
2.5
 49
1.25
 74
     0
 49
-0.25
 74
     0
 49
0.25
 74
     0
 49
-0.25
 74
     0
 49
0.25
 74
     0
 49
-0.25
 74
     0
  0
LTYPE
  5
135
330
5
100
AcDbSymbolTableRecord
100
AcDbLinetypeTableRecord
  2
CENTER
 70
     0
  3
____ _ ____ _ ____ _ ____ _ ____ _ ____ _ ____ 
 72
    65
 73
     4
 40
2.0
 49
1.25
 74
     0
 49
-0.25
 74
     0
 49
0.25
 74
     0
 49
-0.25
 74
     0
  0
ENDTAB
  0
TABLE
  2
LAYER
  5
2
330
0
100
AcDbSymbolTable
 70
     8
  0
LAYER
  5
F
330
2
100
AcDbSymbolTableRecord
100
AcDbLayerTableRecord
  2
0
 70
     0
 62
     7
  6
CONTINUOUS
370
    -3
390
A97
  0
LAYER
  5
62
330
2
100
AcDbSymbolTableRecord
100
AcDbLayerTableRecord
  2
VIEWPORT
 70
     0
 62
     7
  6
CONTINUOUS
370
    -3
390
A97
  0
LAYER
  5
143
330
2
100
AcDbSymbolTableRecord
100
AcDbLayerTableRecord
  2
SEIHIN
 70
     0
 62
     3
  6
CONTINUOUS
370
    -3
390
A97
  0
LAYER
  5
444
330
2
100
AcDbSymbolTableRecord
100
AcDbLayerTableRecord
  2
DEFPOINTS
 70
     0
 62
     7
  6
CONTINUOUS
290
     0
370
    -3
390
A97
  0
LAYER
  5
482
330
2
100
AcDbSymbolTableRecord
100
AcDbLayerTableRecord
  2
SUNPOU
 70
     0
 62
     4
  6
CONTINUOUS
370
    -3
390
A97
  0
LAYER
  5
5D4
330
2
100
AcDbSymbolTableRecord
100
AcDbLayerTableRecord
  2
CENTER L
 70
     0
 62
     1
  6
CENTER
370
    -3
390
A97
  0
LAYER
  5
3D95
330
2
100
AcDbSymbolTableRecord
100
AcDbLayerTableRecord
  2
ZUWAKU
 70
     0
 62
     7
  6
CONTINUOUS
370
    -3
390
A97
  0
LAYER
  5
3D96
330
2
100
AcDbSymbolTableRecord
100
AcDbLayerTableRecord
  2
moji
 70
     0
 62
     2
  6
CONTINUOUS
370
    -3
390
A97
  0
ENDTAB
  0
TABLE
  2
STYLE
  5
3
330
0
100
AcDbSymbolTable
 70
     3
  0
STYLE
  5
10
330
3
100
AcDbSymbolTableRecord
100
AcDbTextStyleTableRecord
  2
STANDARD
 70
     0
 40
0.0
 41
1.0
 50
0.0
 71
     0
 42
6.0
  3
TXT
  4
bigfont.shx
  0
STYLE
  5
D40
330
3
100
AcDbSymbolTableRecord
100
AcDbTextStyleTableRecord
  2
Style2
 70
     0
 40
0.0
 41
1.0
 50
0.0
 71
     0
 42
0.35
  3
ＭＳ ゴシック
  4

  0
STYLE
  5
3D97
330
3
100
AcDbSymbolTableRecord
100
AcDbTextStyleTableRecord
  2
ｽﾀｲﾙ1
 70
     0
 40
0.0
 41
1.0
 50
0.0
 71
     0
 42
2.5
  3
MS PGothic.ttf
  4

1001
ACAD
1000
MS PGothic
1071
    32818
  0
ENDTAB
  0
TABLE
  2
VIEW
  5
6
330
0
100
AcDbSymbolTable
 70
     0
  0
ENDTAB
  0
TABLE
  2
UCS
  5
7
330
0
100
AcDbSymbolTable
 70
     0
  0
ENDTAB
  0
TABLE
  2
APPID
  5
9
330
0
100
AcDbSymbolTable
 70
     1
  0
APPID
  5
11
330
9
100
AcDbSymbolTableRecord
100
AcDbRegAppTableRecord
  2
ACAD
 70
     0
  0
ENDTAB
  0
TABLE
  2
DIMSTYLE
  5
A
330
0
100
AcDbSymbolTable
 70
     1
100
AcDbDimStyleTable
  0
DIMSTYLE
105
1D
102
{ACAD_REACTORS
330
17DE
330
1F3D
330
26A5
330
26B8
330
23A3
330
2387
330
232A
330
2355
330
2362
330
23B0
330
2396
330
31AB
330
1F22
330
1F67
330
1F2F
330
33A1
330
3A30
102
}
330
A
100
AcDbSymbolTableRecord
100
AcDbDimStyleTableRecord
  2
STANDARD
 70
     0
340
10
  0
ENDTAB
  0
TABLE
  2
BLOCK_RECORD
  5
1
330
0
100
AcDbSymbolTable
 70
    18
  0
BLOCK_RECORD
  5
1A
330
1
100
AcDbSymbolTableRecord
100
AcDbBlockTableRecord
  2
*MODEL_SPACE
340
A9A
  0
BLOCK_RECORD
  5
17
330
1
100
AcDbSymbolTableRecord
100
AcDbBlockTableRecord
  2
*PAPER_SPACE
340
A9B
  0
BLOCK_RECORD
  5
6D
330
1
100
AcDbSymbolTableRecord
100
AcDbBlockTableRecord
  2
_OPEN
340
0
102
{BLKREFS
331
3E79
331
3E7A
331
3E70
331
3E71
331
3E67
331
3E68
331
3E8D
331
3E8E
331
3E84
331
3E85
331
3EE4
331
3EE5
331
3EDA
331
3EDB
331
3ED0
331
3ED1
331
3EBC
331
3EBD
331
3EB1
331
3EB2
331
3EED
331
3EEE
331
3EA8
331
3EA9
331
3E5E
331
3E5F
331
3E9F
331
3EA0
331
3E55
331
3E56
331
3E96
331
3E97
331
3EC5
331
3EC6
102
}
  0
BLOCK_RECORD
  5
17DF
330
1
100
AcDbSymbolTableRecord
100
AcDbBlockTableRecord
  2
*D1
340
0
  0
BLOCK_RECORD
  5
1F23
330
1
100
AcDbSymbolTableRecord
100
AcDbBlockTableRecord
  2
*D2
340
0
  0
BLOCK_RECORD
  5
1F30
330
1
100
AcDbSymbolTableRecord
100
AcDbBlockTableRecord
  2
*D3
340
0
  0
BLOCK_RECORD
  5
1F3E
330
1
100
AcDbSymbolTableRecord
100
AcDbBlockTableRecord
  2
*D4
340
0
  0
BLOCK_RECORD
  5
1F68
330
1
100
AcDbSymbolTableRecord
100
AcDbBlockTableRecord
  2
*D5
340
0
  0
BLOCK_RECORD
  5
232B
330
1
100
AcDbSymbolTableRecord
100
AcDbBlockTableRecord
  2
*D6
340
0
  0
BLOCK_RECORD
  5
2356
330
1
100
AcDbSymbolTableRecord
100
AcDbBlockTableRecord
  2
*D7
340
0
  0
BLOCK_RECORD
  5
2363
330
1
100
AcDbSymbolTableRecord
100
AcDbBlockTableRecord
  2
*D8
340
0
  0
BLOCK_RECORD
  5
2388
330
1
100
AcDbSymbolTableRecord
100
AcDbBlockTableRecord
  2
*D9
340
0
  0
BLOCK_RECORD
  5
2397
330
1
100
AcDbSymbolTableRecord
100
AcDbBlockTableRecord
  2
*D10
340
0
  0
BLOCK_RECORD
  5
23A4
330
1
100
AcDbSymbolTableRecord
100
AcDbBlockTableRecord
  2
*D11
340
0
  0
BLOCK_RECORD
  5
23B1
330
1
100
AcDbSymbolTableRecord
100
AcDbBlockTableRecord
  2
*D12
340
0
  0
BLOCK_RECORD
  5
26A6
330
1
100
AcDbSymbolTableRecord
100
AcDbBlockTableRecord
  2
*D13
340
0
  0
BLOCK_RECORD
  5
26B9
330
1
100
AcDbSymbolTableRecord
100
AcDbBlockTableRecord
  2
*D14
340
0
  0
BLOCK_RECORD
  5
31AC
330
1
100
AcDbSymbolTableRecord
100
AcDbBlockTableRecord
  2
*D15
340
0
  0
BLOCK_RECORD
  5
33A2
330
1
100
AcDbSymbolTableRecord
100
AcDbBlockTableRecord
  2
*D16
340
0
  0
BLOCK_RECORD
  5
3A31
330
1
100
AcDbSymbolTableRecord
100
AcDbBlockTableRecord
  2
*D17
340
0
  0
ENDTAB
  0
ENDSEC
  0
SECTION
  2
BLOCKS
  0
BLOCK
  5
1B
330
1A
100
AcDbEntity
  8
0
100
AcDbBlockBegin
  2
*MODEL_SPACE
 70
     0
 71
     0
 10
0.0
 20
0.0
 30
0.0
  3
*MODEL_SPACE
  1

  0
ENDBLK
  5
1C
330
1A
100
AcDbEntity
  8
0
100
AcDbBlockEnd
  0
BLOCK
  5
18
330
17
100
AcDbEntity
 67
     1
  8
0
100
AcDbBlockBegin
  2
*PAPER_SPACE
 70
     0
 71
     0
 10
0.0
 20
0.0
 30
0.0
  3
*PAPER_SPACE
  1

  0
ENDBLK
  5
19
330
17
100
AcDbEntity
 67
     1
  8
0
100
AcDbBlockEnd
  0
BLOCK
  5
6E
330
6D
100
AcDbEntity
  8
0
100
AcDbBlockBegin
  2
_OPEN
 70
     0
 71
     0
 10
0.0
 20
0.0
 30
0.0
  3
_OPEN
  1

  0
LINE
  5
6F
330
6D
100
AcDbEntity
  8
0
  6
ByBlock
 62
     0
100
AcDbLine
 10
-1.0
 20
0.1666666666666667
 30
0.0
 11
0.0
 21
0.0
 31
0.0
  0
LINE
  5
70
330
6D
100
AcDbEntity
  8
0
  6
ByBlock
 62
     0
100
AcDbLine
 10
0.0
 20
0.0
 30
0.0
 11
-1.0
 21
-0.1666666666666667
 31
0.0
  0
LINE
  5
71
330
6D
100
AcDbEntity
  8
0
  6
ByBlock
 62
     0
100
AcDbLine
 10
0.0
 20
0.0
 30
0.0
 11
-1.0
 21
0.0
 31
0.0
  0
ENDBLK
  5
72
330
6D
100
AcDbEntity
  8
0
100
AcDbBlockEnd
  0
BLOCK
  5
17E9
330
17DF
100
AcDbEntity
  8
0
100
AcDbBlockBegin
  2
*D1
 70
     1
 71
     0
 10
0.0
 20
0.0
 30
0.0
  3
*D1
  1

  0
LINE
  5
3E76
330
17DF
100
AcDbEntity
  8
SUNPOU
100
AcDbLine
 10
242.4375954705015
 20
200.1804477126001
 30
0.0
 11
209.7874163393633
 21
200.1804477126001
 31
0.0
  0
LINE
  5
3E77
330
17DF
100
AcDbEntity
  8
SUNPOU
100
AcDbLine
 10
385.3009475186179
 20
155.5692815804813
 30
0.0
 11
209.7874163393633
 21
155.5692815804813
 31
0.0
  0
LINE
  5
3E78
330
17DF
100
AcDbEntity
  8
SUNPOU
100
AcDbLine
 10
212.7874163393633
 20
193.1804477126001
 30
0.0
 11
212.7874163393633
 21
162.5692815804813
 31
0.0
  0
INSERT
  5
3E79
330
17DF
100
AcDbEntity
  8
SUNPOU
100
AcDbBlockReference
  2
_OPEN
 10
212.7874163393633
 20
200.1804477126001
 30
0.0
 41
7.0
 42
7.0
 43
7.0
 50
90.0
  0
INSERT
  5
3E7A
330
17DF
100
AcDbEntity
  8
SUNPOU
100
AcDbBlockReference
  2
_OPEN
 10
212.7874163393633
 20
155.5692815804813
 30
0.0
 41
7.0
 42
7.0
 43
7.0
 50
270.0
  0
MTEXT
  5
3E7B
330
17DF
100
AcDbEntity
  8
SUNPOU
100
AcDbMText
 10
207.7874163393633
 20
177.8748646465408
 30
0.0
 40
6.0
 41
0.0
 71
     5
 72
     1
  1
\A1;45
 11
6.123031769111886E-17
 21
1.0
 31
0.0
 73
     1
 44
1.0
  0
POINT
  5
3E7C
330
17DF
100
AcDbEntity
  8
DEFPOINTS
 62
     0
100
AcDbPoint
 10
248.4375954705015
 20
200.1804477126001
 30
0.0
  0
POINT
  5
3E7D
330
17DF
100
AcDbEntity
  8
DEFPOINTS
 62
     0
100
AcDbPoint
 10
391.3009475186179
 20
155.5692815804813
 30
0.0
  0
POINT
  5
3E7E
330
17DF
100
AcDbEntity
  8
DEFPOINTS
 62
     0
100
AcDbPoint
 10
212.7874163393633
 20
155.5692815804813
 30
0.0
  0
ENDBLK
  5
17EA
330
17DF
100
AcDbEntity
  8
0
100
AcDbBlockEnd
  0
BLOCK
  5
1F2D
330
1F23
100
AcDbEntity
  8
0
100
AcDbBlockBegin
  2
*D2
 70
     1
 71
     0
 10
0.0
 20
0.0
 30
0.0
  3
*D2
  1

  0
LINE
  5
3E6D
330
1F23
100
AcDbEntity
  8
SUNPOU
100
AcDbLine
 10
244.3068269821245
 20
201.5429077773903
 30
0.0
 11
244.3068269821245
 21
268.4365878629463
 31
0.0
  0
LINE
  5
3E6E
330
1F23
100
AcDbEntity
  8
SUNPOU
100
AcDbLine
 10
378.3022738462248
 20
210.2214601828578
 30
0.0
 11
378.3022738462248
 21
268.4365878629463
 31
0.0
  0
LINE
  5
3E6F
330
1F23
100
AcDbEntity
  8
SUNPOU
100
AcDbLine
 10
251.3068269821245
 20
265.4365878629463
 30
0.0
 11
371.3022738462248
 21
265.4365878629463
 31
0.0
  0
INSERT
  5
3E70
330
1F23
100
AcDbEntity
  8
SUNPOU
100
AcDbBlockReference
  2
_OPEN
 10
244.3068269821245
 20
265.4365878629463
 30
0.0
 41
7.0
 42
7.0
 43
7.0
 50
180.0
  0
INSERT
  5
3E71
330
1F23
100
AcDbEntity
  8
SUNPOU
100
AcDbBlockReference
  2
_OPEN
 10
378.3022738462248
 20
265.4365878629463
 30
0.0
 41
7.0
 42
7.0
 43
7.0
  0
MTEXT
  5
3E72
330
1F23
100
AcDbEntity
  8
SUNPOU
100
AcDbMText
 10
311.3045504141746
 20
270.4365878629463
 30
0.0
 40
6.0
 41
0.0
 71
     5
 72
     1
  1
\A1;134
 73
     1
 44
1.0
  0
POINT
  5
3E73
330
1F23
100
AcDbEntity
  8
DEFPOINTS
 62
     0
100
AcDbPoint
 10
244.3068269821245
 20
195.5429077773903
 30
0.0
  0
POINT
  5
3E74
330
1F23
100
AcDbEntity
  8
DEFPOINTS
 62
     0
100
AcDbPoint
 10
378.3022738462248
 20
204.2214601828578
 30
0.0
  0
POINT
  5
3E75
330
1F23
100
AcDbEntity
  8
DEFPOINTS
 62
     0
100
AcDbPoint
 10
378.3022738462248
 20
265.4365878629463
 30
0.0
  0
ENDBLK
  5
1F2E
330
1F23
100
AcDbEntity
  8
0
100
AcDbBlockEnd
  0
BLOCK
  5
1F3A
330
1F30
100
AcDbEntity
  8
0
100
AcDbBlockBegin
  2
*D3
 70
     1
 71
     0
 10
0.0
 20
0.0
 30
0.0
  3
*D3
  1

  0
LINE
  5
3E64
330
1F30
100
AcDbEntity
  8
SUNPOU
100
AcDbLine
 10
378.3022738462248
 20
210.2214601828578
 30
0.0
 11
378.3022738462248
 21
268.4365878629463
 31
0.0
  0
LINE
  5
3E65
330
1F30
100
AcDbEntity
  8
SUNPOU
100
AcDbLine
 10
413.3022738462248
 20
210.2214601828578
 30
0.0
 11
413.3022738462248
 21
268.4365878629463
 31
0.0
  0
LINE
  5
3E66
330
1F30
100
AcDbEntity
  8
SUNPOU
100
AcDbLine
 10
385.3022738462248
 20
265.4365878629463
 30
0.0
 11
406.3022738462248
 21
265.4365878629463
 31
0.0
  0
INSERT
  5
3E67
330
1F30
100
AcDbEntity
  8
SUNPOU
100
AcDbBlockReference
  2
_OPEN
 10
378.3022738462248
 20
265.4365878629463
 30
0.0
 41
7.0
 42
7.0
 43
7.0
 50
180.0
  0
INSERT
  5
3E68
330
1F30
100
AcDbEntity
  8
SUNPOU
100
AcDbBlockReference
  2
_OPEN
 10
413.3022738462248
 20
265.4365878629463
 30
0.0
 41
7.0
 42
7.0
 43
7.0
  0
MTEXT
  5
3E69
330
1F30
100
AcDbEntity
  8
SUNPOU
100
AcDbMText
 10
395.8022738462248
 20
270.4365878629463
 30
0.0
 40
6.0
 41
0.0
 71
     5
 72
     1
  1
\A1;35
 73
     1
 44
1.0
  0
POINT
  5
3E6A
330
1F30
100
AcDbEntity
  8
DEFPOINTS
 62
     0
100
AcDbPoint
 10
378.3022738462248
 20
204.2214601828578
 30
0.0
  0
POINT
  5
3E6B
330
1F30
100
AcDbEntity
  8
DEFPOINTS
 62
     0
100
AcDbPoint
 10
413.3022738462248
 20
204.2214601828578
 30
0.0
  0
POINT
  5
3E6C
330
1F30
100
AcDbEntity
  8
DEFPOINTS
 62
     0
100
AcDbPoint
 10
413.3022738462248
 20
265.4365878629463
 30
0.0
  0
ENDBLK
  5
1F3B
330
1F30
100
AcDbEntity
  8
0
100
AcDbBlockEnd
  0
BLOCK
  5
1F48
330
1F3E
100
AcDbEntity
  8
0
100
AcDbBlockBegin
  2
*D4
 70
     1
 71
     0
 10
0.0
 20
0.0
 30
0.0
  3
*D4
  1

  0
LINE
  5
3E8A
330
1F3E
100
AcDbEntity
  8
SUNPOU
100
AcDbLine
 10
279.3022738462244
 20
188.1283053477579
 30
0.0
 11
279.3022738462244
 21
255.2309489731346
 31
0.0
  0
LINE
  5
3E8B
330
1F3E
100
AcDbEntity
  8
SUNPOU
100
AcDbLine
 10
378.3022738462248
 20
216.2214601828578
 30
0.0
 11
378.3022738462248
 21
255.2309489731346
 31
0.0
  0
LINE
  5
3E8C
330
1F3E
100
AcDbEntity
  8
SUNPOU
100
AcDbLine
 10
286.3022738462244
 20
252.2309489731346
 30
0.0
 11
371.3022738462248
 21
252.2309489731346
 31
0.0
  0
INSERT
  5
3E8D
330
1F3E
100
AcDbEntity
  8
SUNPOU
100
AcDbBlockReference
  2
_OPEN
 10
279.3022738462244
 20
252.2309489731346
 30
0.0
 41
7.0
 42
7.0
 43
7.0
 50
180.0
  0
INSERT
  5
3E8E
330
1F3E
100
AcDbEntity
  8
SUNPOU
100
AcDbBlockReference
  2
_OPEN
 10
378.3022738462248
 20
252.2309489731346
 30
0.0
 41
7.0
 42
7.0
 43
7.0
  0
MTEXT
  5
3E8F
330
1F3E
100
AcDbEntity
  8
SUNPOU
100
AcDbMText
 10
328.8022738462246
 20
257.2309489731346
 30
0.0
 40
6.0
 41
0.0
 71
     5
 72
     1
  1
\A1;99
 73
     1
 44
1.0
  0
POINT
  5
3E90
330
1F3E
100
AcDbEntity
  8
DEFPOINTS
 62
     0
100
AcDbPoint
 10
279.3022738462244
 20
182.1283053477579
 30
0.0
  0
POINT
  5
3E91
330
1F3E
100
AcDbEntity
  8
DEFPOINTS
 62
     0
100
AcDbPoint
 10
378.3022738462248
 20
210.2214601828578
 30
0.0
  0
POINT
  5
3E92
330
1F3E
100
AcDbEntity
  8
DEFPOINTS
 62
     0
100
AcDbPoint
 10
378.3022738462248
 20
252.2309489731346
 30
0.0
  0
ENDBLK
  5
1F49
330
1F3E
100
AcDbEntity
  8
0
100
AcDbBlockEnd
  0
BLOCK
  5
1F74
330
1F68
100
AcDbEntity
  8
0
100
AcDbBlockBegin
  2
*D5
 70
     1
 71
     0
 10
0.0
 20
0.0
 30
0.0
  3
*D5
  1

  0
LINE
  5
3E7F
330
1F68
100
AcDbEntity
  8
SUNPOU
100
AcDbLine
 10
378.3022738462248
 20
210.2214601828578
 30
0.0
 11
378.3022738462248
 21
243.5740062861918
 31
0.0
  0
LINE
  5
3E80
330
1F68
100
AcDbEntity
  8
SUNPOU
100
AcDbLine
 10
367.9455951790731
 20
192.6283053477579
 30
0.0
 11
367.9455951790731
 21
243.5740062861918
 31
0.0
  0
LINE
  5
3E81
330
1F68
100
AcDbEntity
  8
SUNPOU
100
AcDbLine
 10
385.3022738462248
 20
240.5740062861918
 30
0.0
 11
392.3022738462248
 21
240.5740062861918
 31
0.0
  0
LINE
  5
3E82
330
1F68
100
AcDbEntity
  8
SUNPOU
100
AcDbLine
 10
360.9455951790731
 20
240.5740062861918
 30
0.0
 11
342.9455951790731
 21
240.5740062861918
 31
0.0
  0
LINE
  5
3E83
330
1F68
100
AcDbEntity
  8
SUNPOU
100
AcDbLine
 10
378.3022738462248
 20
240.5740062861918
 30
0.0
 11
367.9455951790731
 21
240.5740062861918
 31
0.0
  0
INSERT
  5
3E84
330
1F68
100
AcDbEntity
  8
SUNPOU
100
AcDbBlockReference
  2
_OPEN
 10
378.3022738462248
 20
240.5740062861918
 30
0.0
 41
7.0
 42
7.0
 43
7.0
 50
180.0
  0
INSERT
  5
3E85
330
1F68
100
AcDbEntity
  8
SUNPOU
100
AcDbBlockReference
  2
_OPEN
 10
367.9455951790731
 20
240.5740062861918
 30
0.0
 41
7.0
 42
7.0
 43
7.0
  0
MTEXT
  5
3E86
330
1F68
100
AcDbEntity
  8
SUNPOU
100
AcDbMText
 10
348.4455951790731
 20
245.5740062861918
 30
0.0
 40
6.0
 41
0.0
 71
     5
 72
     1
  1
\A1;10
 73
     1
 44
1.0
  0
POINT
  5
3E87
330
1F68
100
AcDbEntity
  8
DEFPOINTS
 62
     0
100
AcDbPoint
 10
378.3022738462248
 20
204.2214601828578
 30
0.0
  0
POINT
  5
3E88
330
1F68
100
AcDbEntity
  8
DEFPOINTS
 62
     0
100
AcDbPoint
 10
367.9455951790731
 20
186.6283053477579
 30
0.0
  0
POINT
  5
3E89
330
1F68
100
AcDbEntity
  8
DEFPOINTS
 62
     0
100
AcDbPoint
 10
367.9455951790731
 20
240.5740062861918
 30
0.0
  0
ENDBLK
  5
1F75
330
1F68
100
AcDbEntity
  8
0
100
AcDbBlockEnd
  0
BLOCK
  5
2337
330
232B
100
AcDbEntity
  8
0
100
AcDbBlockBegin
  2
*D6
 70
     1
 71
     0
 10
0.0
 20
0.0
 30
0.0
  3
*D6
  1

  0
LINE
  5
3EDF
330
232B
100
AcDbEntity
  8
SUNPOU
100
AcDbLine
 10
502.5001541294843
 20
254.6309985552062
 30
0.0
 11
484.4683853690074
 21
247.6376688466558
 31
0.0
  0
LINE
  5
3EE0
330
232B
100
AcDbEntity
  8
SUNPOU
100
AcDbLine
 10
505.8835573911738
 20
245.9071505770913
 30
0.0
 11
487.8517886306969
 21
238.9138208685408
 31
0.0
  0
LINE
  5
3EE1
330
232B
100
AcDbEntity
  8
SUNPOU
100
AcDbLine
 10
484.7342535230239
 20
255.2487997826389
 30
0.0
 11
482.2031119694233
 21
261.775155767079
 31
0.0
  0
LINE
  5
3EE2
330
232B
100
AcDbEntity
  8
SUNPOU
100
AcDbLine
 10
493.1799398919147
 20
233.4722398356439
 30
0.0
 11
495.7110814455153
 21
226.9458838512039
 31
0.0
  0
LINE
  5
3EE3
330
232B
100
AcDbEntity
  8
SUNPOU
100
AcDbLine
 10
487.2653950766245
 20
248.7224437981989
 30
0.0
 11
490.6487983383141
 21
239.998595820084
 31
0.0
  0
INSERT
  5
3EE4
330
232B
100
AcDbEntity
  8
SUNPOU
100
AcDbBlockReference
  2
_OPEN
 10
487.2653950766245
 20
248.7224437981989
 30
0.0
 41
7.0
 42
7.0
 43
7.0
 50
291.1979769481634
  0
INSERT
  5
3EE5
330
232B
100
AcDbEntity
  8
SUNPOU
100
AcDbBlockReference
  2
_OPEN
 10
490.6487983383141
 20
239.998595820084
 30
0.0
 41
7.0
 42
7.0
 43
7.0
 50
111.1979769481634
  0
MTEXT
  5
3EE6
330
232B
100
AcDbEntity
  8
SUNPOU
100
AcDbMText
 10
493.6187795534978
 20
246.1684780617133
 30
0.0
 40
6.0
 41
0.0
 71
     5
 72
     1
  1
\A1;9
 11
0.361591650514373
 21
-0.9323365692057196
 31
0.0
 73
     1
 44
1.0
  0
POINT
  5
3EE7
330
232B
100
AcDbEntity
  8
DEFPOINTS
 62
     0
100
AcDbPoint
 10
508.0941735447187
 20
256.8005484582924
 30
0.0
  0
POINT
  5
3EE8
330
232B
100
AcDbEntity
  8
DEFPOINTS
 62
     0
100
AcDbPoint
 10
511.4775768064082
 20
248.0767004801775
 30
0.0
  0
POINT
  5
3EE9
330
232B
100
AcDbEntity
  8
DEFPOINTS
 62
     0
100
AcDbPoint
 10
490.6487983383141
 20
239.998595820084
 30
0.0
  0
ENDBLK
  5
2338
330
232B
100
AcDbEntity
  8
0
100
AcDbBlockEnd
  0
BLOCK
  5
2360
330
2356
100
AcDbEntity
  8
0
100
AcDbBlockBegin
  2
*D7
 70
     1
 71
     0
 10
0.0
 20
0.0
 30
0.0
  3
*D7
  1

  0
LINE
  5
3ED6
330
2356
100
AcDbEntity
  8
SUNPOU
100
AcDbLine
 10
512.51541758112
 20
248.4792102294399
 30
0.0
 11
487.851788630696
 21
238.9138208685403
 31
0.0
  0
LINE
  5
3ED7
330
2356
100
AcDbEntity
  8
SUNPOU
100
AcDbLine
 10
523.3312148930785
 20
220.591499479728
 30
0.0
 11
498.6675859426545
 21
211.0261101188284
 31
0.0
  0
LINE
  5
3ED8
330
2356
100
AcDbEntity
  8
SUNPOU
100
AcDbLine
 10
493.1799398919138
 20
233.4722398356434
 30
0.0
 11
498.933454096671
 21
218.6372410548116
 31
0.0
  0
MTEXT
  5
3ED9
330
2356
100
AcDbEntity
  8
SUNPOU
100
AcDbMText
 10
501.4966166612524
 20
226.995089494185
 30
0.0
 40
6.0
 41
0.0
 71
     5
 72
     1
  1
\A1;30
 11
0.3615916505143772
 21
-0.932336569205718
 31
0.0
 73
     1
 44
1.0
  0
INSERT
  5
3EDA
330
2356
100
AcDbEntity
  8
SUNPOU
100
AcDbBlockReference
  2
_OPEN
 10
490.6487983383131
 20
239.9985958200834
 30
0.0
 41
7.0
 42
7.0
 43
7.0
 50
111.1979769481636
  0
INSERT
  5
3EDB
330
2356
100
AcDbEntity
  8
SUNPOU
100
AcDbBlockReference
  2
_OPEN
 10
501.4645956502716
 20
212.1108850703716
 30
0.0
 41
7.0
 42
7.0
 43
7.0
 50
291.1979769481637
  0
POINT
  5
3EDC
330
2356
100
AcDbEntity
  8
DEFPOINTS
 62
     0
100
AcDbPoint
 10
518.1094369963544
 20
250.6487601325262
 30
0.0
  0
POINT
  5
3EDD
330
2356
100
AcDbEntity
  8
DEFPOINTS
 62
     0
100
AcDbPoint
 10
528.9252343083128
 20
222.7610493828142
 30
0.0
  0
POINT
  5
3EDE
330
2356
100
AcDbEntity
  8
DEFPOINTS
 62
     0
100
AcDbPoint
 10
501.4645956502716
 20
212.1108850703716
 30
0.0
  0
ENDBLK
  5
2361
330
2356
100
AcDbEntity
  8
0
100
AcDbBlockEnd
  0
BLOCK
  5
236F
330
2363
100
AcDbEntity
  8
0
100
AcDbBlockBegin
  2
*D8
 70
     1
 71
     0
 10
0.0
 20
0.0
 30
0.0
  3
*D8
  1

  0
LINE
  5
3ECB
330
2363
100
AcDbEntity
  8
SUNPOU
100
AcDbLine
 10
523.3312148930785
 20
220.591499479728
 30
0.0
 11
498.6675859426545
 21
211.0261101188284
 31
0.0
  0
LINE
  5
3ECC
330
2363
100
AcDbEntity
  8
SUNPOU
100
AcDbLine
 10
520.6331483307999
 20
207.8764521517349
 30
0.0
 11
502.6013795703224
 21
200.8831224431841
 31
0.0
  0
LINE
  5
3ECD
330
2363
100
AcDbEntity
  8
SUNPOU
100
AcDbLine
 10
498.933454096671
 20
218.6372410548116
 30
0.0
 11
496.4023125430704
 21
225.1635970392516
 31
0.0
  0
LINE
  5
3ECE
330
2363
100
AcDbEntity
  8
SUNPOU
100
AcDbLine
 10
507.9295308315402
 20
195.4415414102872
 30
0.0
 11
510.4606723851408
 21
188.9151854258472
 31
0.0
  0
LINE
  5
3ECF
330
2363
100
AcDbEntity
  8
SUNPOU
100
AcDbLine
 10
501.4645956502716
 20
212.1108850703716
 30
0.0
 11
505.3983892779395
 21
201.9678973947273
 31
0.0
  0
INSERT
  5
3ED0
330
2363
100
AcDbEntity
  8
SUNPOU
100
AcDbBlockReference
  2
_OPEN
 10
501.4645956502716
 20
212.1108850703716
 30
0.0
 41
7.0
 42
7.0
 43
7.0
 50
291.1979769481637
  0
INSERT
  5
3ED1
330
2363
100
AcDbEntity
  8
SUNPOU
100
AcDbBlockReference
  2
_OPEN
 10
505.3983892779395
 20
201.9678973947273
 30
0.0
 41
7.0
 42
7.0
 43
7.0
 50
111.1979769481636
  0
MTEXT
  5
3ED2
330
2363
100
AcDbEntity
  8
SUNPOU
100
AcDbMText
 10
508.0931753101342
 20
208.8473494851213
 30
0.0
 40
6.0
 41
0.0
 71
     5
 72
     1
  1
\A1;11
 11
0.3615916505143772
 21
-0.932336569205718
 31
0.0
 73
     1
 44
1.0
  0
POINT
  5
3ED3
330
2363
100
AcDbEntity
  8
DEFPOINTS
 62
     0
100
AcDbPoint
 10
528.9252343083128
 20
222.7610493828142
 30
0.0
  0
POINT
  5
3ED4
330
2363
100
AcDbEntity
  8
DEFPOINTS
 62
     0
100
AcDbPoint
 10
526.2271677460342
 20
210.0460020548212
 30
0.0
  0
POINT
  5
3ED5
330
2363
100
AcDbEntity
  8
DEFPOINTS
 62
     0
100
AcDbPoint
 10
505.3983892779395
 20
201.9678973947273
 30
0.0
  0
ENDBLK
  5
2370
330
2363
100
AcDbEntity
  8
0
100
AcDbBlockEnd
  0
BLOCK
  5
2394
330
2388
100
AcDbEntity
  8
0
100
AcDbBlockBegin
  2
*D9
 70
     1
 71
     0
 10
0.0
 20
0.0
 30
0.0
  3
*D9
  1

  0
LINE
  5
3EB7
330
2388
100
AcDbEntity
  8
SUNPOU
100
AcDbLine
 10
592.0432282705149
 20
273.6548864080661
 30
0.0
 11
611.9690770495121
 21
281.3828044002086
 31
0.0
  0
LINE
  5
3EB8
330
2388
100
AcDbEntity
  8
SUNPOU
100
AcDbLine
 10
586.7490341503797
 20
287.3055632852966
 30
0.0
 11
606.6748829293767
 21
295.033481277439
 31
0.0
  0
LINE
  5
3EB9
330
2388
100
AcDbEntity
  8
SUNPOU
100
AcDbLine
 10
611.7032088954956
 20
273.7716734642254
 30
0.0
 11
614.2343504490962
 21
267.2453174797854
 31
0.0
  0
LINE
  5
3EBA
330
2388
100
AcDbEntity
  8
SUNPOU
100
AcDbLine
 10
601.346731668159
 20
300.475062310336
 30
0.0
 11
598.8155901145585
 21
307.001418294776
 31
0.0
  0
LINE
  5
3EBB
330
2388
100
AcDbEntity
  8
SUNPOU
100
AcDbLine
 10
609.1720673418949
 20
280.2980294486655
 30
0.0
 11
603.8778732217596
 21
293.948706325896
 31
0.0
  0
INSERT
  5
3EBC
330
2388
100
AcDbEntity
  8
SUNPOU
100
AcDbBlockReference
  2
_OPEN
 10
609.1720673418949
 20
280.2980294486655
 30
0.0
 41
7.0
 42
7.0
 43
7.0
 50
111.1979769481631
  0
INSERT
  5
3EBD
330
2388
100
AcDbEntity
  8
SUNPOU
100
AcDbBlockReference
  2
_OPEN
 10
603.8778732217596
 20
293.948706325896
 30
0.0
 41
7.0
 42
7.0
 43
7.0
 50
291.1979769481631
  0
MTEXT
  5
3EBE
330
2388
100
AcDbEntity
  8
SUNPOU
100
AcDbMText
 10
611.186653127856
 20
288.9313261398525
 30
0.0
 40
6.0
 41
0.0
 71
     5
 72
     1
  1
\A1;15
 11
0.3615916505143681
 21
-0.9323365692057215
 31
0.0
 73
     1
 44
1.0
  0
POINT
  5
3EBF
330
2388
100
AcDbEntity
  8
DEFPOINTS
 62
     0
100
AcDbPoint
 10
586.4492088552806
 20
271.4853365049799
 30
0.0
  0
POINT
  5
3EC0
330
2388
100
AcDbEntity
  8
DEFPOINTS
 62
     0
100
AcDbPoint
 10
581.1550147351454
 20
285.1360133822104
 30
0.0
  0
POINT
  5
3EC1
330
2388
100
AcDbEntity
  8
DEFPOINTS
 62
     0
100
AcDbPoint
 10
603.8778732217596
 20
293.948706325896
 30
0.0
  0
ENDBLK
  5
2395
330
2388
100
AcDbEntity
  8
0
100
AcDbBlockEnd
  0
BLOCK
  5
23A1
330
2397
100
AcDbEntity
  8
0
100
AcDbBlockBegin
  2
*D10
 70
     1
 71
     0
 10
0.0
 20
0.0
 30
0.0
  3
*D10
  1

  0
LINE
  5
3EAE
330
2397
100
AcDbEntity
  8
SUNPOU
100
AcDbLine
 10
522.2014267837234
 20
263.6050569678993
 30
0.0
 11
513.6904743971629
 21
285.5499003775055
 31
0.0
  0
LINE
  5
3EAF
330
2397
100
AcDbEntity
  8
SUNPOU
100
AcDbLine
 10
575.3446112284493
 20
284.2157810472186
 30
0.0
 11
566.8336588418888
 21
306.1606244568248
 31
0.0
  0
LINE
  5
3EB0
330
2397
100
AcDbEntity
  8
SUNPOU
100
AcDbLine
 10
521.3016053331461
 20
285.284032223489
 30
0.0
 11
561.392077808992
 21
300.8324731956071
 31
0.0
  0
INSERT
  5
3EB1
330
2397
100
AcDbEntity
  8
SUNPOU
100
AcDbBlockReference
  2
_OPEN
 10
514.7752493487061
 20
282.7528906698884
 30
0.0
 41
7.0
 42
7.0
 43
7.0
 50
201.1979769481634
  0
INSERT
  5
3EB2
330
2397
100
AcDbEntity
  8
SUNPOU
100
AcDbBlockReference
  2
_OPEN
 10
567.918433793432
 20
303.3636147492077
 30
0.0
 41
7.0
 42
7.0
 43
7.0
 50
21.19797694816344
  0
MTEXT
  5
3EB3
330
2397
100
AcDbEntity
  8
SUNPOU
100
AcDbMText
 10
539.538883318497
 20
297.7199355555766
 30
0.0
 40
6.0
 41
0.0
 71
     5
 72
     1
  1
\A1;57
 11
0.9323365692057193
 21
0.3615916505143738
 31
0.0
 73
     1
 44
1.0
  0
POINT
  5
3EB4
330
2397
100
AcDbEntity
  8
DEFPOINTS
 62
     0
100
AcDbPoint
 10
524.3709766868096
 20
258.011037552665
 30
0.0
  0
POINT
  5
3EB5
330
2397
100
AcDbEntity
  8
DEFPOINTS
 62
     0
100
AcDbPoint
 10
577.5141611315355
 20
278.6217616319842
 30
0.0
  0
POINT
  5
3EB6
330
2397
100
AcDbEntity
  8
DEFPOINTS
 62
     0
100
AcDbPoint
 10
567.918433793432
 20
303.3636147492077
 30
0.0
  0
ENDBLK
  5
23A2
330
2397
100
AcDbEntity
  8
0
100
AcDbBlockEnd
  0
BLOCK
  5
23AE
330
23A4
100
AcDbEntity
  8
0
100
AcDbBlockBegin
  2
*D11
 70
     1
 71
     0
 10
0.0
 20
0.0
 30
0.0
  3
*D11
  1

  0
LINE
  5
3EEA
330
23A4
100
AcDbEntity
  8
SUNPOU
100
AcDbLine
 10
542.5476402249979
 20
216.674994252055
 30
0.0
 11
553.8135915635381
 21
187.6265955822522
 31
0.0
  0
LINE
  5
3EEB
330
23A4
100
AcDbEntity
  8
SUNPOU
100
AcDbLine
 10
591.961478392901
 20
235.8393517293163
 30
0.0
 11
603.2274297314413
 21
206.7909530595134
 31
0.0
  0
LINE
  5
3EEC
330
23A4
100
AcDbEntity
  8
SUNPOU
100
AcDbLine
 10
559.2551725964351
 20
192.9547468434699
 30
0.0
 11
595.6162987954581
 21
207.05682121353
 31
0.0
  0
INSERT
  5
3EED
330
23A4
100
AcDbEntity
  8
SUNPOU
100
AcDbBlockReference
  2
_OPEN
 10
552.7288166119951
 20
190.4236052898693
 30
0.0
 41
7.0
 42
7.0
 43
7.0
 50
201.1979769481628
  0
INSERT
  5
3EEE
330
23A4
100
AcDbEntity
  8
SUNPOU
100
AcDbBlockReference
  2
_OPEN
 10
602.1426547798982
 20
209.5879627671305
 30
0.0
 41
7.0
 42
7.0
 43
7.0
 50
21.19797694816283
  0
MTEXT
  5
3EEF
330
23A4
100
AcDbEntity
  8
SUNPOU
100
AcDbMText
 10
575.6277774433748
 20
204.6674668745285
 30
0.0
 40
6.0
 41
0.0
 71
     5
 72
     1
  1
\A1;53
 11
0.9323365692057232
 21
0.3615916505143639
 31
0.0
 73
     1
 44
1.0
  0
POINT
  5
3EF0
330
23A4
100
AcDbEntity
  8
DEFPOINTS
 62
     0
100
AcDbPoint
 10
540.3780903219117
 20
222.2690136672894
 30
0.0
  0
POINT
  5
3EF1
330
23A4
100
AcDbEntity
  8
DEFPOINTS
 62
     0
100
AcDbPoint
 10
589.7919284898148
 20
241.4333711445506
 30
0.0
  0
POINT
  5
3EF2
330
23A4
100
AcDbEntity
  8
DEFPOINTS
 62
     0
100
AcDbPoint
 10
602.1426547798982
 20
209.5879627671305
 30
0.0
  0
ENDBLK
  5
23AF
330
23A4
100
AcDbEntity
  8
0
100
AcDbBlockEnd
  0
BLOCK
  5
23BB
330
23B1
100
AcDbEntity
  8
0
100
AcDbBlockBegin
  2
*D12
 70
     1
 71
     0
 10
0.0
 20
0.0
 30
0.0
  3
*D12
  1

  0
LINE
  5
3EA5
330
23B1
100
AcDbEntity
  8
SUNPOU
100
AcDbLine
 10
515.7894790460039
 20
256.8671916826933
 30
0.0
 11
500.1747774609064
 21
297.1285121095114
 31
0.0
  0
LINE
  5
3EA6
330
23B1
100
AcDbEntity
  8
SUNPOU
100
AcDbLine
 10
584.7026234585744
 20
283.5940395328263
 30
0.0
 11
569.0879218734769
 21
323.8553599596444
 31
0.0
  0
LINE
  5
3EA7
330
23B1
100
AcDbEntity
  8
SUNPOU
100
AcDbLine
 10
507.7859083968895
 20
296.8626439554948
 30
0.0
 11
563.64634084058
 21
318.5272086984267
 31
0.0
  0
INSERT
  5
3EA8
330
23B1
100
AcDbEntity
  8
SUNPOU
100
AcDbBlockReference
  2
_OPEN
 10
501.2595524124495
 20
294.3315024018942
 30
0.0
 41
7.0
 42
7.0
 43
7.0
 50
201.1979769481631
  0
INSERT
  5
3EA9
330
23B1
100
AcDbEntity
  8
SUNPOU
100
AcDbBlockReference
  2
_OPEN
 10
570.17269682502
 20
321.0583502520273
 30
0.0
 41
7.0
 42
7.0
 43
7.0
 50
21.19797694816301
  0
MTEXT
  5
3EAA
330
23B1
100
AcDbEntity
  8
SUNPOU
100
AcDbMText
 10
533.908166366163
 20
312.3566091729894
 30
0.0
 40
6.0
 41
0.0
 71
     5
 72
     1
  1
\A1;74
 11
0.9323365692057219
 21
0.3615916505143668
 31
0.0
 73
     1
 44
1.0
  0
POINT
  5
3EAB
330
23B1
100
AcDbEntity
  8
DEFPOINTS
 62
     0
100
AcDbPoint
 10
517.9590289490901
 20
251.2731722674589
 30
0.0
  0
POINT
  5
3EAC
330
23B1
100
AcDbEntity
  8
DEFPOINTS
 62
     0
100
AcDbPoint
 10
586.8721733616607
 20
278.0000201175919
 30
0.0
  0
POINT
  5
3EAD
330
23B1
100
AcDbEntity
  8
DEFPOINTS
 62
     0
100
AcDbPoint
 10
570.17269682502
 20
321.0583502520273
 30
0.0
  0
ENDBLK
  5
23BC
330
23B1
100
AcDbEntity
  8
0
100
AcDbBlockEnd
  0
BLOCK
  5
26B0
330
26A6
100
AcDbEntity
  8
0
100
AcDbBlockBegin
  2
*D13
 70
     1
 71
     0
 10
0.0
 20
0.0
 30
0.0
  3
*D13
  1

  0
LINE
  5
3E5B
330
26A6
100
AcDbEntity
  8
SUNPOU
100
AcDbLine
 10
399.1566944659134
 20
447.8334735578137
 30
0.0
 11
448.0648966096105
 21
447.8334735578137
 31
0.0
  0
LINE
  5
3E5C
330
26A6
100
AcDbEntity
  8
SUNPOU
100
AcDbLine
 10
399.4934616402169
 20
373.8762482499914
 30
0.0
 11
448.0648966096105
 21
373.8762482499914
 31
0.0
  0
LINE
  5
3E5D
330
26A6
100
AcDbEntity
  8
SUNPOU
100
AcDbLine
 10
445.0648966096105
 20
440.8334735578137
 30
0.0
 11
445.0648966096105
 21
380.8762482499914
 31
0.0
  0
INSERT
  5
3E5E
330
26A6
100
AcDbEntity
  8
SUNPOU
100
AcDbBlockReference
  2
_OPEN
 10
445.0648966096105
 20
447.8334735578137
 30
0.0
 41
7.0
 42
7.0
 43
7.0
 50
90.0
  0
INSERT
  5
3E5F
330
26A6
100
AcDbEntity
  8
SUNPOU
100
AcDbBlockReference
  2
_OPEN
 10
445.0648966096105
 20
373.8762482499914
 30
0.0
 41
7.0
 42
7.0
 43
7.0
 50
270.0
  0
MTEXT
  5
3E60
330
26A6
100
AcDbEntity
  8
SUNPOU
100
AcDbMText
 10
440.0648966096104
 20
410.8548609039027
 30
0.0
 40
6.0
 41
0.0
 71
     5
 72
     1
  1
\A1;74
 11
6.123031769111886E-17
 21
1.0
 31
0.0
 73
     1
 44
1.0
  0
POINT
  5
3E61
330
26A6
100
AcDbEntity
  8
DEFPOINTS
 62
     0
100
AcDbPoint
 10
393.1566944659134
 20
447.8334735578137
 30
0.0
  0
POINT
  5
3E62
330
26A6
100
AcDbEntity
  8
DEFPOINTS
 62
     0
100
AcDbPoint
 10
393.4934616402169
 20
373.8762482499914
 30
0.0
  0
POINT
  5
3E63
330
26A6
100
AcDbEntity
  8
DEFPOINTS
 62
     0
100
AcDbPoint
 10
445.0648966096105
 20
373.8762482499914
 30
0.0
  0
ENDBLK
  5
26B1
330
26A6
100
AcDbEntity
  8
0
100
AcDbBlockEnd
  0
BLOCK
  5
26C3
330
26B9
100
AcDbEntity
  8
0
100
AcDbBlockBegin
  2
*D14
 70
     1
 71
     0
 10
0.0
 20
0.0
 30
0.0
  3
*D14
  1

  0
LINE
  5
3E9C
330
26B9
100
AcDbEntity
  8
SUNPOU
100
AcDbLine
 10
238.3068269821245
 20
420.8335735578136
 30
0.0
 11
217.3430883188246
 21
420.8335735578136
 31
0.0
  0
LINE
  5
3E9D
330
26B9
100
AcDbEntity
  8
SUNPOU
100
AcDbLine
 10
238.3068269821245
 20
400.8335735578136
 30
0.0
 11
217.3430883188246
 21
400.8335735578136
 31
0.0
  0
LINE
  5
3E9E
330
26B9
100
AcDbEntity
  8
SUNPOU
100
AcDbLine
 10
220.3430883188246
 20
413.8335735578136
 30
0.0
 11
220.3430883188246
 21
407.8335735578136
 31
0.0
  0
INSERT
  5
3E9F
330
26B9
100
AcDbEntity
  8
SUNPOU
100
AcDbBlockReference
  2
_OPEN
 10
220.3430883188246
 20
420.8335735578136
 30
0.0
 41
7.0
 42
7.0
 43
7.0
 50
90.0
  0
INSERT
  5
3EA0
330
26B9
100
AcDbEntity
  8
SUNPOU
100
AcDbBlockReference
  2
_OPEN
 10
220.3430883188246
 20
400.8335735578136
 30
0.0
 41
7.0
 42
7.0
 43
7.0
 50
270.0
  0
MTEXT
  5
3EA1
330
26B9
100
AcDbEntity
  8
SUNPOU
100
AcDbMText
 10
215.3430883188245
 20
410.8335735578137
 30
0.0
 40
6.0
 41
0.0
 71
     5
 72
     1
  1
\A1;20
 11
6.123031769111886E-17
 21
1.0
 31
0.0
 73
     1
 44
1.0
  0
POINT
  5
3EA2
330
26B9
100
AcDbEntity
  8
DEFPOINTS
 62
     0
100
AcDbPoint
 10
244.3068269821245
 20
420.8335735578136
 30
0.0
  0
POINT
  5
3EA3
330
26B9
100
AcDbEntity
  8
DEFPOINTS
 62
     0
100
AcDbPoint
 10
244.3068269821245
 20
400.8335735578136
 30
0.0
  0
POINT
  5
3EA4
330
26B9
100
AcDbEntity
  8
DEFPOINTS
 62
     0
100
AcDbPoint
 10
220.3430883188246
 20
400.8335735578136
 30
0.0
  0
ENDBLK
  5
26C4
330
26B9
100
AcDbEntity
  8
0
100
AcDbBlockEnd
  0
BLOCK
  5
31B6
330
31AC
100
AcDbEntity
  8
0
100
AcDbBlockBegin
  2
*D15
 70
     1
 71
     0
 10
0.0
 20
0.0
 30
0.0
  3
*D15
  1

  0
LINE
  5
3E52
330
31AC
100
AcDbEntity
  8
SUNPOU
100
AcDbLine
 10
383.873133991536
 20
206.4498042409934
 30
0.0
 11
427.3175021982232
 21
223.8275515236684
 31
0.0
  0
LINE
  5
3E53
330
31AC
100
AcDbEntity
  8
SUNPOU
100
AcDbLine
 10
402.4426678092411
 20
160.0259696967306
 30
0.0
 11
445.8870360159284
 21
177.4037169794055
 31
0.0
  0
LINE
  5
3E54
330
31AC
100
AcDbEntity
  8
SUNPOU
100
AcDbLine
 10
427.1318068600461
 20
216.2140426584093
 30
0.0
 11
440.5018712087938
 21
182.78888178654
 31
0.0
  0
INSERT
  5
3E55
330
31AC
100
AcDbEntity
  8
SUNPOU
100
AcDbBlockReference
  2
_OPEN
 10
424.5320721255674
 20
222.713379494606
 30
0.0
 41
7.0
 42
7.0
 43
7.0
 50
111.8014094863518
  0
INSERT
  5
3E56
330
31AC
100
AcDbEntity
  8
SUNPOU
100
AcDbBlockReference
  2
_OPEN
 10
443.1016059432726
 20
176.2895449503432
 30
0.0
 41
7.0
 42
7.0
 43
7.0
 50
291.8014094863518
  0
MTEXT
  5
3E57
330
31AC
100
AcDbEntity
  8
SUNPOU
100
AcDbMText
 10
438.4592224888463
 20
201.3584156042451
 30
0.0
 40
6.0
 41
0.0
 71
     5
 72
     1
  1
\A1;50
 11
0.3713906763541038
 21
-0.9284766908852593
 31
0.0
 73
     1
 44
1.0
  0
POINT
  5
3E58
330
31AC
100
AcDbEntity
  8
DEFPOINTS
 62
     0
100
AcDbPoint
 10
378.3022738462244
 20
204.2214601828688
 30
0.0
  0
POINT
  5
3E59
330
31AC
100
AcDbEntity
  8
DEFPOINTS
 62
     0
100
AcDbPoint
 10
396.8718076639295
 20
157.7976256386059
 30
0.0
  0
POINT
  5
3E5A
330
31AC
100
AcDbEntity
  8
DEFPOINTS
 62
     0
100
AcDbPoint
 10
443.1016059432726
 20
176.2895449503432
 30
0.0
  0
ENDBLK
  5
31B7
330
31AC
100
AcDbEntity
  8
0
100
AcDbBlockEnd
  0
BLOCK
  5
33AC
330
33A2
100
AcDbEntity
  8
0
100
AcDbBlockBegin
  2
*D16
 70
     1
 71
     0
 10
0.0
 20
0.0
 30
0.0
  3
*D16
  1

  0
LINE
  5
3E93
330
33A2
100
AcDbEntity
  8
SUNPOU
100
AcDbLine
 10
273.3010674117492
 20
428.7230475299867
 30
0.0
 11
198.5521322351021
 21
428.7230475299867
 31
0.0
  0
LINE
  5
3E94
330
33A2
100
AcDbEntity
  8
SUNPOU
100
AcDbLine
 10
273.3010674117492
 20
393.0266254714302
 30
0.0
 11
198.5521322351021
 21
393.0266254714302
 31
0.0
  0
LINE
  5
3E95
330
33A2
100
AcDbEntity
  8
SUNPOU
100
AcDbLine
 10
201.5521322351021
 20
421.7230475299867
 30
0.0
 11
201.5521322351021
 21
400.0266254714302
 31
0.0
  0
INSERT
  5
3E96
330
33A2
100
AcDbEntity
  8
SUNPOU
100
AcDbBlockReference
  2
_OPEN
 10
201.5521322351021
 20
428.7230475299867
 30
0.0
 41
7.0
 42
7.0
 43
7.0
 50
90.0
  0
INSERT
  5
3E97
330
33A2
100
AcDbEntity
  8
SUNPOU
100
AcDbBlockReference
  2
_OPEN
 10
201.5521322351021
 20
393.0266254714302
 30
0.0
 41
7.0
 42
7.0
 43
7.0
 50
270.0
  0
MTEXT
  5
3E98
330
33A2
100
AcDbEntity
  8
SUNPOU
100
AcDbMText
 10
196.5521322351021
 20
410.8748365007085
 30
0.0
 40
6.0
 41
0.0
 71
     5
 72
     1
  1
\A1;36
 11
6.123031769111886E-17
 21
1.0
 31
0.0
 73
     1
 44
1.0
  0
POINT
  5
3E99
330
33A2
100
AcDbEntity
  8
DEFPOINTS
 62
     0
100
AcDbPoint
 10
279.3010674117492
 20
428.7230475299867
 30
0.0
  0
POINT
  5
3E9A
330
33A2
100
AcDbEntity
  8
DEFPOINTS
 62
     0
100
AcDbPoint
 10
279.3010674117492
 20
393.0266254714302
 30
0.0
  0
POINT
  5
3E9B
330
33A2
100
AcDbEntity
  8
DEFPOINTS
 62
     0
100
AcDbPoint
 10
201.5521322351021
 20
393.0266254714302
 30
0.0
  0
ENDBLK
  5
33AD
330
33A2
100
AcDbEntity
  8
0
100
AcDbBlockEnd
  0
BLOCK
  5
3A3B
330
3A31
100
AcDbEntity
  8
0
100
AcDbBlockBegin
  2
*D17
 70
     1
 71
     0
 10
0.0
 20
0.0
 30
0.0
  3
*D17
  1

  0
LINE
  5
3EC2
330
3A31
100
AcDbEntity
  8
SUNPOU
100
AcDbLine
 10
509.1320143194307
 20
257.2030582075548
 30
0.0
 11
467.877266662518
 21
241.203071947737
 31
0.0
  0
LINE
  5
3EC3
330
3A31
100
AcDbEntity
  8
SUNPOU
100
AcDbLine
 10
527.2650085207466
 20
210.4485118040837
 30
0.0
 11
486.0102608638339
 21
194.4485255442659
 31
0.0
  0
LINE
  5
3EC4
330
3A31
100
AcDbEntity
  8
SUNPOU
100
AcDbLine
 10
473.2054179237358
 20
235.7614909148401
 30
0.0
 11
486.2761290178505
 21
202.0596564802491
 31
0.0
  0
INSERT
  5
3EC5
330
3A31
100
AcDbEntity
  8
SUNPOU
100
AcDbBlockReference
  2
_OPEN
 10
470.6742763701352
 20
242.2878468992802
 30
0.0
 41
7.0
 42
7.0
 43
7.0
 50
111.1979769481635
  0
INSERT
  5
3EC6
330
3A31
100
AcDbEntity
  8
SUNPOU
100
AcDbBlockReference
  2
_OPEN
 10
488.8072705714511
 20
195.533300495809
 30
0.0
 41
7.0
 42
7.0
 43
7.0
 50
291.1979769481636
  0
MTEXT
  5
3EC7
330
3A31
100
AcDbEntity
  8
SUNPOU
100
AcDbMText
 10
484.4024563168217
 20
220.7185319501165
 30
0.0
 40
6.0
 41
0.0
 71
     5
 72
     1
  1
\A1;50
 11
0.3615916505143755
 21
-0.9323365692057186
 31
0.0
 73
     1
 44
1.0
  0
POINT
  5
3EC8
330
3A31
100
AcDbEntity
  8
DEFPOINTS
 62
     0
100
AcDbPoint
 10
514.726033734665
 20
259.372608110641
 30
0.0
  0
POINT
  5
3EC9
330
3A31
100
AcDbEntity
  8
DEFPOINTS
 62
     0
100
AcDbPoint
 10
532.859027935981
 20
212.6180617071699
 30
0.0
  0
POINT
  5
3ECA
330
3A31
100
AcDbEntity
  8
DEFPOINTS
 62
     0
100
AcDbPoint
 10
488.8072705714511
 20
195.533300495809
 30
0.0
  0
ENDBLK
  5
3A3C
330
3A31
100
AcDbEntity
  8
0
100
AcDbBlockEnd
  0
ENDSEC
  0
SECTION
  2
ENTITIES
  0
LINE
  5
14E8
330
1A
100
AcDbEntity
  8
SEIHIN
100
AcDbLine
 10
359.3022738462244
 20
186.6283053477579
 30
0.0
 11
349.9094458078241
 21
205.3853495140579
 31
0.0
  0
LINE
  5
14E9
330
1A
100
AcDbEntity
  8
SEIHIN
100
AcDbLine
 10
361.3022738462241
 20
186.1283053477579
 30
0.0
 11
361.3022738462241
 21
205.9873561367578
 31
0.0
  0
LINE
  5
14EA
330
1A
100
AcDbEntity
  8
SEIHIN
100
AcDbLine
 10
371.8055921091245
 20
186.6283053477579
 30
0.0
 11
361.8885804759239
 21
206.4321199646578
 31
0.0
  0
LINE
  5
14EB
330
1A
100
AcDbEntity
  8
SEIHIN
100
AcDbLine
 10
349.3237475094238
 20
186.1283053477579
 30
0.0
 11
349.3237475094238
 21
204.9393708765578
 31
0.0
  0
LINE
  5
14F1
330
1A
100
AcDbEntity
  8
SEIHIN
100
AcDbLine
 10
300.748083642324
 20
183.4959632629578
 30
0.0
 11
314.0065831069244
 21
196.0377870808579
 31
0.0
  0
LINE
  5
14F5
330
1A
100
AcDbEntity
  8
SEIHIN
100
AcDbLine
 10
309.0940048443242
 20
173.4959632629579
 30
0.0
 11
318.6393370884241
 21
182.5253316020579
 31
0.0
  0
LINE
  5
14FA
330
1A
100
AcDbEntity
  8
CENTER L
  6
CENTER
 62
     1
 48
5.0
100
AcDbLine
 10
289.3022738462244
 20
145.763226724658
 30
0.0
 11
289.3022738462244
 21
191.6281253620117
 31
0.0
  0
ARC
  5
14FF
330
1A
100
AcDbEntity
  8
SEIHIN
100
AcDbCircle
 10
279.6242392777242
 20
145.138287526658
 30
0.0
 40
19.99999999999979
100
AcDbArc
 50
24.22774531799798
 51
45.17888544669912
  0
ARC
  5
1500
330
1A
100
AcDbEntity
  8
SEIHIN
100
AcDbCircle
 10
279.6242392777242
 20
145.138287526658
 30
0.0
 40
19.50000000000008
100
AcDbArc
 50
24.22774531799798
 51
40.95354965840421
  0
LINE
  5
1501
330
1A
100
AcDbEntity
  8
SEIHIN
100
AcDbLine
 10
293.5266087210241
 20
157.815386695858
 30
0.0
 11
292.843324708824
 21
156.448818671358
 31
0.0
  0
LINE
  5
1502
330
1A
100
AcDbEntity
  8
SEIHIN
100
AcDbLine
 10
292.2221523184242
 20
156.3245078793579
 30
0.0
 11
293.7221523184242
 21
159.3245078793579
 31
0.0
  0
LINE
  5
1503
330
1A
100
AcDbEntity
  8
SEIHIN
100
AcDbLine
 10
284.7221523184242
 20
159.3245078793579
 30
0.0
 11
286.2221523184242
 21
156.3245078793579
 31
0.0
  0
LINE
  5
1504
330
1A
100
AcDbEntity
  8
SEIHIN
100
AcDbLine
 10
284.9176959158242
 20
157.815386695858
 30
0.0
 11
285.6009799281244
 21
156.448818671358
 31
0.0
  0
ARC
  5
1505
330
1A
100
AcDbEntity
  8
SEIHIN
100
AcDbCircle
 10
298.8200653592242
 20
145.138287526658
 30
0.0
 40
19.9999999999998
100
AcDbArc
 50
134.8211145533009
 51
155.772254682002
  0
ARC
  5
1506
330
1A
100
AcDbEntity
  8
SEIHIN
100
AcDbCircle
 10
298.8200653592242
 20
145.138287526658
 30
0.0
 40
19.49999999999999
100
AcDbArc
 50
139.0464503415958
 51
155.772254682002
  0
LINE
  5
1507
330
1A
100
AcDbEntity
  8
SEIHIN
100
AcDbLine
 10
297.8931485821242
 20
150.5686090834579
 30
0.0
 11
295.028386343324
 21
149.9956566357579
 31
0.0
  0
LINE
  5
1508
330
1A
100
AcDbEntity
  8
SEIHIN
100
AcDbLine
 10
297.9912066497243
 20
150.0783187456579
 30
0.0
 11
295.126444410824
 21
149.505366297858
 31
0.0
  0
ARC
  5
1509
330
1A
100
AcDbEntity
  8
SEIHIN
100
AcDbCircle
 10
294.9303282757244
 20
150.485946973558
 30
0.0
 40
0.5000000000003146
100
AcDbArc
 50
195.945395900892
 51
281.3099324739712
  0
ARC
  5
150A
330
1A
100
AcDbEntity
  8
SEIHIN
100
AcDbCircle
 10
294.9303282757244
 20
150.485946973558
 30
0.0
 40
1.000000000000188
100
AcDbArc
 50
195.9453959008983
 51
281.3099324739977
  0
ARC
  5
150B
330
1A
100
AcDbEntity
  8
SEIHIN
100
AcDbCircle
 10
293.2905383043242
 20
156.225211873558
 30
0.0
 40
0.4999999999998817
100
AcDbArc
 50
153.4349488228994
 51
195.9453959010048
  0
ARC
  5
150C
330
1A
100
AcDbEntity
  8
SEIHIN
100
AcDbCircle
 10
291.8450016120244
 20
155.8245078793579
 30
0.0
 40
0.4999999999996549
100
AcDbArc
 50
15.94539590100562
 51
89.99999999973944
  0
LINE
  5
150D
330
1A
100
AcDbEntity
  8
SEIHIN
100
AcDbLine
 10
291.7221523184242
 20
156.3245078793579
 30
0.0
 11
291.7221523184242
 21
152.763226724658
 31
0.0
  0
LINE
  5
150E
330
1A
100
AcDbEntity
  8
SEIHIN
100
AcDbLine
 10
292.8097763304243
 20
156.0878513096579
 30
0.0
 11
294.4495663019241
 21
150.3485864096579
 31
0.0
  0
LINE
  5
150F
330
1A
100
AcDbEntity
  8
SEIHIN
100
AcDbLine
 10
292.3257635859243
 20
155.9618684433579
 30
0.0
 11
293.9688043281242
 21
150.2112258456579
 31
0.0
  0
LINE
  5
1510
330
1A
100
AcDbEntity
  8
SEIHIN
100
AcDbLine
 10
286.7221523184242
 20
156.3245078793579
 30
0.0
 11
286.7221523184242
 21
152.763226724658
 31
0.0
  0
ARC
  5
1511
330
1A
100
AcDbEntity
  8
SEIHIN
100
AcDbCircle
 10
285.1537663326242
 20
156.225211873558
 30
0.0
 40
0.5000000000001278
100
AcDbArc
 50
344.0546040989944
 51
26.56505117710056
  0
ARC
  5
1512
330
1A
100
AcDbEntity
  8
SEIHIN
100
AcDbCircle
 10
286.5993030248244
 20
155.8245078793579
 30
0.0
 40
0.5
100
AcDbArc
 50
90.00000000031267
 51
164.0546040990069
  0
ARC
  5
1513
330
1A
100
AcDbEntity
  8
SEIHIN
100
AcDbCircle
 10
283.5139763611244
 20
150.485946973558
 30
0.0
 40
1.000000000000136
100
AcDbArc
 50
258.6900675259756
 51
344.0546040990955
  0
ARC
  5
1514
330
1A
100
AcDbEntity
  8
SEIHIN
100
AcDbCircle
 10
283.5139763611244
 20
150.485946973558
 30
0.0
 40
0.5000000000000705
100
AcDbArc
 50
258.6900675259756
 51
344.0546040990955
  0
LINE
  5
1515
330
1A
100
AcDbEntity
  8
SEIHIN
100
AcDbLine
 10
286.1185410510241
 20
155.9618684433579
 30
0.0
 11
284.4755003088242
 21
150.2112258456579
 31
0.0
  0
LINE
  5
1516
330
1A
100
AcDbEntity
  8
SEIHIN
100
AcDbLine
 10
285.634528306424
 20
156.0878513096579
 30
0.0
 11
283.9947383350243
 21
150.3485864096579
 31
0.0
  0
LINE
  5
1517
330
1A
100
AcDbEntity
  8
SEIHIN
100
AcDbLine
 10
286.7221523184242
 20
152.763226724658
 30
0.0
 11
291.7221523184242
 21
152.763226724658
 31
0.0
  0
LINE
  5
1518
330
1A
100
AcDbEntity
  8
SEIHIN
100
AcDbLine
 10
292.2221523184242
 20
156.3245078793579
 30
0.0
 11
286.2221523184242
 21
156.3245078793579
 31
0.0
  0
LINE
  5
1519
330
1A
100
AcDbEntity
  8
SEIHIN
100
AcDbLine
 10
280.1932533697243
 20
151.2640817600579
 30
0.0
 11
281.037596008224
 21
153.1403987345579
 31
0.0
  0
LINE
  5
151A
330
1A
100
AcDbEntity
  8
SEIHIN
100
AcDbLine
 10
279.737292617124
 20
151.4692640986579
 30
0.0
 11
280.5816352557242
 21
153.345581073258
 31
0.0
  0
ARC
  5
151B
330
1A
100
AcDbEntity
  8
SEIHIN
100
AcDbCircle
 10
280.6492141223241
 20
151.0588994213579
 30
0.0
 40
0.9999999999998734
100
AcDbArc
 50
155.7722546819983
 51
258.6900675258959
  0
ARC
  5
151C
330
1A
100
AcDbEntity
  8
SEIHIN
100
AcDbCircle
 10
280.6492141223241
 20
151.0588994213579
 30
0.0
 40
0.5000000000001695
100
AcDbArc
 50
155.772254682002
 51
258.6900675260288
  0
LINE
  5
151D
330
1A
100
AcDbEntity
  8
SEIHIN
100
AcDbLine
 10
280.453097987124
 20
150.0783187456579
 30
0.0
 11
283.3178602260243
 21
149.505366297858
 31
0.0
  0
LINE
  5
151E
330
1A
100
AcDbEntity
  8
SEIHIN
100
AcDbLine
 10
280.5511560547241
 20
150.5686090834579
 30
0.0
 11
283.4159182936244
 21
149.9956566357579
 31
0.0
  0
ARC
  5
151F
330
1A
100
AcDbEntity
  8
SEIHIN
100
AcDbCircle
 10
297.7950905146242
 20
151.0588994213579
 30
0.0
 40
0.4999999999999771
100
AcDbArc
 50
281.3099324739712
 51
24.22774531802189
  0
LINE
  5
1520
330
1A
100
AcDbEntity
  8
SEIHIN
100
AcDbLine
 10
298.7070120197243
 20
151.4692640986579
 30
0.0
 11
297.8626693812241
 21
153.345581073258
 31
0.0
  0
LINE
  5
1521
330
1A
100
AcDbEntity
  8
SEIHIN
100
AcDbLine
 10
298.2510512672241
 20
151.2640817600579
 30
0.0
 11
297.4067086286243
 21
153.1403987345579
 31
0.0
  0
ARC
  5
1522
330
1A
100
AcDbEntity
  8
SEIHIN
100
AcDbCircle
 10
297.7950905146242
 20
151.0588994213579
 30
0.0
 40
0.9999999999999577
100
AcDbArc
 50
281.3099324741041
 51
24.22774531800169
  0
LINE
  5
1523
330
1A
100
AcDbEntity
  8
SEIHIN
100
AcDbLine
 10
294.7221523184242
 20
161.8245078793579
 30
0.0
 11
294.7221523184242
 21
160.3245078793579
 31
0.0
  0
ARC
  5
1524
330
1A
100
AcDbEntity
  8
SEIHIN
100
AcDbCircle
 10
293.9738222606241
 20
157.591779849458
 30
0.0
 40
0.5000000000002178
100
AcDbArc
 50
40.95354965547276
 51
153.4349409757035
  0
LINE
  5
1525
330
1A
100
AcDbEntity
  8
SEIHIN
100
AcDbLine
 10
293.2221523184242
 20
160.3245078793579
 30
0.0
 11
293.7221523184242
 21
159.3245078793579
 31
0.0
  0
LINE
  5
1526
330
1A
100
AcDbEntity
  8
SEIHIN
100
AcDbLine
 10
283.7221523184242
 20
161.8245078793579
 30
0.0
 11
283.7221523184242
 21
160.3245078793579
 31
0.0
  0
ARC
  5
1527
330
1A
100
AcDbEntity
  8
SEIHIN
100
AcDbCircle
 10
284.4704823763243
 20
157.591779849458
 30
0.0
 40
0.499999999999988
100
AcDbArc
 50
26.56505902429721
 51
139.0464503445266
  0
LINE
  5
1528
330
1A
100
AcDbEntity
  8
SEIHIN
100
AcDbLine
 10
285.2221523184242
 20
160.3245078793579
 30
0.0
 11
284.7221523184242
 21
159.3245078793579
 31
0.0
  0
LINE
  5
152A
330
1A
100
AcDbEntity
  8
SEIHIN
100
AcDbLine
 10
294.7221523184242
 20
160.3245078793579
 30
0.0
 11
283.7221523184242
 21
160.3245078793579
 31
0.0
  0
LINE
  5
152B
330
1A
100
AcDbEntity
  8
SEIHIN
100
AcDbLine
 10
293.7221523184242
 20
159.3245078793579
 30
0.0
 11
284.7221523184242
 21
159.3245078793579
 31
0.0
  0
LINE
  5
152C
330
1A
100
AcDbEntity
  8
SEIHIN
100
AcDbLine
 10
294.7221523184242
 20
161.8245078793579
 30
0.0
 11
283.7221523184242
 21
161.8245078793579
 31
0.0
  0
LINE
  5
1541
330
1A
100
AcDbEntity
  8
SEIHIN
100
AcDbLine
 10
279.3022738462244
 20
182.1283053477579
 30
0.0
 11
279.3022738462244
 21
176.1283053477579
 31
0.0
  0
LINE
  5
1542
330
1A
100
AcDbEntity
  8
SEIHIN
100
AcDbLine
 10
283.3022738462244
 20
172.1283053477579
 30
0.0
 11
305.6580055749244
 21
172.1283053477579
 31
0.0
  0
LINE
  5
1547
330
1A
100
AcDbEntity
  8
SEIHIN
100
AcDbLine
 10
279.162680349624
 20
177.1283053477579
 30
0.0
 11
279.3022738462244
 21
177.1283053477579
 31
0.0
  0
LINE
  5
154C
330
1A
100
AcDbEntity
  8
SEIHIN
100
AcDbLine
 10
279.3022738462244
 20
176.1283053477579
 30
0.0
 11
283.3022738462244
 21
172.1283053477579
 31
0.0
  0
LINE
  5
154D
330
1A
100
AcDbEntity
  8
SEIHIN
100
AcDbLine
 10
304.0022738462242
 20
172.129001305924
 30
0.0
 11
304.6022738462241
 21
172.129001305924
 31
0.0
  0
LINE
  5
154E
330
1A
100
AcDbEntity
  8
SEIHIN
100
AcDbLine
 10
299.0022738462242
 20
172.129001305924
 30
0.0
 11
299.6022738462241
 21
172.129001305924
 31
0.0
  0
ARC
  5
1552
330
1A
100
AcDbEntity
  8
SEIHIN
100
AcDbCircle
 10
305.6580055749244
 20
177.1283053477579
 30
0.0
 40
4.999999999999943
100
AcDbArc
 50
270.0
 51
313.4088597288031
  0
LINE
  5
1553
330
1A
100
AcDbEntity
  8
SEIHIN
100
AcDbLine
 10
279.3022738462244
 20
182.1283053477579
 30
0.0
 11
297.3120843729241
 21
182.1283053477579
 31
0.0
  0
LINE
  5
1554
330
1A
100
AcDbEntity
  8
SEIHIN
100
AcDbLine
 10
294.7221523184242
 20
183.1283053477579
 30
0.0
 11
294.7221523184242
 21
182.1283053477579
 31
0.0
  0
LINE
  5
1555
330
1A
100
AcDbEntity
  8
SEIHIN
100
AcDbLine
 10
283.7221523184242
 20
183.1283053477579
 30
0.0
 11
283.7221523184242
 21
182.1283053477579
 31
0.0
  0
ARC
  5
1556
330
1A
100
AcDbEntity
  8
SEIHIN
100
AcDbCircle
 10
289.2221523184242
 20
173.7949720144579
 30
0.0
 40
10.83333333329988
100
AcDbArc
 50
59.48976259390525
 51
120.5102374060948
  0
LINE
  5
1557
330
1A
100
AcDbEntity
  8
SEIHIN
100
AcDbLine
 10
283.7221523184242
 20
183.1283053477579
 30
0.0
 11
294.7221523184242
 21
183.1283053477579
 31
0.0
  0
ARC
  5
1558
330
1A
100
AcDbEntity
  8
SEIHIN
100
AcDbCircle
 10
297.3120843729241
 20
187.1283053477579
 30
0.0
 40
5.0
100
AcDbArc
 50
270.0
 51
313.4088597288043
  0
LINE
  5
156C
330
1A
100
AcDbEntity
  8
SEIHIN
100
AcDbLine
 10
351.323747509424
 20
186.6283053477579
 30
0.0
 11
361.3022738462241
 21
186.6283053477579
 31
0.0
  0
LINE
  5
1571
330
1A
100
AcDbEntity
  8
SEIHIN
100
AcDbLine
 10
328.9473348966242
 20
186.6283053477579
 30
0.0
 11
349.3237475094238
 21
186.6283053477579
 31
0.0
  0
ARC
  5
1572
330
1A
100
AcDbEntity
  8
SEIHIN
100
AcDbCircle
 10
328.9473348966242
 20
171.6283053477579
 30
0.0
 40
14.99999999999994
100
AcDbArc
 50
90.0
 51
133.4088597288031
  0
LINE
  5
1573
330
1A
100
AcDbEntity
  8
SEIHIN
100
AcDbLine
 10
351.323747509424
 20
186.1283053477579
 30
0.0
 11
351.323747509424
 21
186.6283053477579
 31
0.0
  0
LINE
  5
1574
330
1A
100
AcDbEntity
  8
SEIHIN
100
AcDbLine
 10
349.3237475094238
 20
186.1283053477579
 30
0.0
 11
351.323747509424
 21
186.1283053477579
 31
0.0
  0
LINE
  5
1577
330
1A
100
AcDbEntity
  8
SEIHIN
100
AcDbLine
 10
363.3022738462248
 20
186.1283053477579
 30
0.0
 11
363.3022738462248
 21
186.6283053477579
 31
0.0
  0
LINE
  5
1578
330
1A
100
AcDbEntity
  8
SEIHIN
100
AcDbLine
 10
361.3022738462241
 20
186.1283053477579
 30
0.0
 11
363.3022738462248
 21
186.1283053477579
 31
0.0
  0
ARC
  5
157C
330
1A
100
AcDbEntity
  8
SEIHIN
100
AcDbCircle
 10
324.3145809150246
 20
185.1407608265579
 30
0.0
 40
15.00000000000002
100
AcDbArc
 50
94.99999999999982
 51
133.4088597288043
  0
ARC
  5
1587
330
1A
100
AcDbEntity
  8
SEIHIN
100
AcDbCircle
 10
355.7673213404248
 20
205.8608941425578
 30
0.0
 40
0.1000000000000011
100
AcDbArc
 50
26.60000000000829
 51
95.00000000007823
  0
LINE
  5
1588
330
1A
100
AcDbEntity
  8
SEIHIN
100
AcDbLine
 10
361.3022738462241
 20
203.4340622111578
 30
0.0
 11
351.323747509424
 21
202.5610542779578
 31
0.0
  0
LINE
  5
1589
330
1A
100
AcDbEntity
  8
SEIHIN
100
AcDbLine
 10
355.3130106778242
 20
202.9100695810578
 30
0.0
 11
355.3130106778242
 21
205.4633635066578
 31
0.0
  0
LINE
  5
158A
330
1A
100
AcDbEntity
  8
SEIHIN
100
AcDbLine
 10
349.3237475094238
 20
202.3860769509578
 30
0.0
 11
323.0072447738244
 21
200.0836812978579
 31
0.0
  0
LINE
  5
158B
330
1A
100
AcDbEntity
  8
SEIHIN
100
AcDbLine
 10
355.7586057661249
 20
205.9605136124579
 30
0.0
 11
355.7694328064249
 21
205.9614608556578
 31
0.0
  0
ARC
  5
158C
330
1A
100
AcDbEntity
  8
SEIHIN
100
AcDbCircle
 10
355.8130106778247
 20
205.4633635066578
 30
0.0
 40
0.5000000000000135
100
AcDbArc
 50
94.99999999997365
 51
180.0
  0
ARC
  5
158D
330
1A
100
AcDbEntity
  8
SEIHIN
100
AcDbCircle
 10
349.820030384124
 20
205.3405736052578
 30
0.0
 40
0.1000000000000011
100
AcDbArc
 50
26.60000000000829
 51
95.00000000007823
  0
LINE
  5
158E
330
1A
100
AcDbEntity
  8
SEIHIN
100
AcDbLine
 10
349.8113148098241
 20
205.4401930750578
 30
0.0
 11
349.7801696381241
 21
205.4374682255578
 31
0.0
  0
ARC
  5
158F
330
1A
100
AcDbEntity
  8
SEIHIN
100
AcDbCircle
 10
349.8237475094238
 20
204.9393708765578
 30
0.0
 40
0.5000000000000135
100
AcDbArc
 50
94.99999999997365
 51
180.0
  0
LINE
  5
1591
330
1A
100
AcDbEntity
  8
SEIHIN
100
AcDbLine
 10
357.2710384657241
 20
203.0813748153578
 30
0.0
 11
355.8567367641249
 21
205.9056700513578
 31
0.0
  0
LINE
  5
1592
330
1A
100
AcDbEntity
  8
SEIHIN
100
AcDbLine
 10
370.3022738462248
 20
204.2214601828578
 30
0.0
 11
363.3022738462248
 21
203.6090395381578
 31
0.0
  0
LINE
  5
1594
330
1A
100
AcDbEntity
  8
SEIHIN
100
AcDbLine
 10
370.3022738462248
 20
204.2214601828578
 30
0.0
 11
378.3022738462248
 21
204.2214601828578
 31
0.0
  0
ARC
  5
1595
330
1A
100
AcDbEntity
  8
SEIHIN
100
AcDbCircle
 10
361.7991650522242
 20
206.3873440558578
 30
0.0
 40
0.1000000000000011
100
AcDbArc
 50
26.60000000000829
 51
90.44530641717813
  0
ARC
  5
1596
330
1A
100
AcDbEntity
  8
SEIHIN
100
AcDbCircle
 10
361.8022738462241
 20
205.9873561367578
 30
0.0
 40
0.4999999999999835
100
AcDbArc
 50
90.44530641723026
 51
180.0
  0
LINE
  5
1598
330
1A
100
AcDbEntity
  8
SEIHIN
100
AcDbLine
 10
329.4981844233246
 20
174.6867712991578
 30
0.0
 11
310.3528590540091
 21
174.6867712991578
 31
0.0
  0
LINE
  5
1599
330
1A
100
AcDbEntity
  8
SEIHIN
100
AcDbLine
 10
331.6215894300246
 20
164.1380760217578
 30
0.0
 11
331.6215894300246
 21
174.4116304579579
 31
0.0
  0
ARC
  5
159A
330
1A
100
AcDbEntity
  8
SEIHIN
100
AcDbCircle
 10
334.9868298796243
 20
187.2295755764579
 30
0.0
 40
11.81931558380006
100
AcDbArc
 50
270.0
 51
316.6846843178972
  0
ARC
  5
159B
330
1A
100
AcDbEntity
  8
SEIHIN
100
AcDbCircle
 10
334.9868298796243
 20
187.2295755764579
 30
0.0
 40
10.0
100
AcDbArc
 50
270.0
 51
316.684684317904
  0
LINE
  5
159C
330
1A
100
AcDbEntity
  8
SEIHIN
100
AcDbLine
 10
327.1924549108246
 20
177.079606490358
 30
0.0
 11
326.8022754555243
 21
177.0775929709579
 31
0.0
  0
LINE
  5
159D
330
1A
100
AcDbEntity
  8
SEIHIN
100
AcDbLine
 10
327.5676400726245
 20
177.0855688174579
 30
0.0
 11
327.1924549108246
 21
177.079606490358
 31
0.0
  0
LINE
  5
159E
330
1A
100
AcDbEntity
  8
SEIHIN
100
AcDbLine
 10
327.9134140676244
 20
177.0952489843579
 30
0.0
 11
327.5676400726245
 21
177.0855688174579
 31
0.0
  0
LINE
  5
159F
330
1A
100
AcDbEntity
  8
SEIHIN
100
AcDbLine
 10
328.2164887851243
 20
177.1082781871579
 30
0.0
 11
327.9134140676244
 21
177.0952489843579
 31
0.0
  0
LINE
  5
15A0
330
1A
100
AcDbEntity
  8
SEIHIN
100
AcDbLine
 10
328.4652115172246
 20
177.1241553743579
 30
0.0
 11
328.2164887851243
 21
177.1082781871579
 31
0.0
  0
LINE
  5
15A1
330
1A
100
AcDbEntity
  8
SEIHIN
100
AcDbLine
 10
328.6500343447244
 20
177.1422677358579
 30
0.0
 11
328.4652115172246
 21
177.1241553743579
 31
0.0
  0
LINE
  5
15A2
330
1A
100
AcDbEntity
  8
SEIHIN
100
AcDbLine
 10
328.7638456886245
 20
177.1619205047579
 30
0.0
 11
328.6500343447244
 21
177.1422677358579
 31
0.0
  0
LINE
  5
15A3
330
1A
100
AcDbEntity
  8
SEIHIN
100
AcDbLine
 10
328.8022720581246
 20
177.1823611726579
 30
0.0
 11
328.7638456886245
 21
177.1619205047579
 31
0.0
  0
LINE
  5
15A4
330
1A
100
AcDbEntity
  8
SEIHIN
100
AcDbLine
 10
328.7638456886245
 20
177.1845050772579
 30
0.0
 11
328.8022720581246
 21
177.1981266012579
 31
0.0
  0
LINE
  5
15A5
330
1A
100
AcDbEntity
  8
SEIHIN
100
AcDbLine
 10
328.6500343447244
 20
177.1714069565579
 30
0.0
 11
328.7638456886245
 21
177.1845050772579
 31
0.0
  0
LINE
  5
15A6
330
1A
100
AcDbEntity
  8
SEIHIN
100
AcDbLine
 10
328.4652115172246
 20
177.1593351533579
 30
0.0
 11
328.6500343447244
 21
177.1714069565579
 31
0.0
  0
LINE
  5
15A7
330
1A
100
AcDbEntity
  8
SEIHIN
100
AcDbLine
 10
328.2164887851243
 20
177.1487553288579
 30
0.0
 11
328.4652115172246
 21
177.1593351533579
 31
0.0
  0
LINE
  5
15A8
330
1A
100
AcDbEntity
  8
SEIHIN
100
AcDbLine
 10
327.9134140676244
 20
177.140071677158
 30
0.0
 11
328.2164887851243
 21
177.1487553288579
 31
0.0
  0
LINE
  5
15A9
330
1A
100
AcDbEntity
  8
SEIHIN
100
AcDbLine
 10
327.5676400726245
 20
177.1336194743579
 30
0.0
 11
327.9134140676244
 21
177.140071677158
 31
0.0
  0
LINE
  5
15AA
330
1A
100
AcDbEntity
  8
SEIHIN
100
AcDbLine
 10
327.1924549108246
 20
177.1296464522579
 30
0.0
 11
327.5676400726245
 21
177.1336194743579
 31
0.0
  0
LINE
  5
15AB
330
1A
100
AcDbEntity
  8
SEIHIN
100
AcDbLine
 10
326.8022754555243
 20
177.1283053477579
 30
0.0
 11
327.1924549108246
 21
177.1296464522579
 31
0.0
  0
LINE
  5
15AC
330
1A
100
AcDbEntity
  8
SEIHIN
100
AcDbLine
 10
332.4257315462244
 20
175.3906064351579
 30
0.0
 11
332.6202177768244
 21
175.4102592041579
 31
0.0
  0
LINE
  5
15AD
330
1A
100
AcDbEntity
  8
SEIHIN
100
AcDbLine
 10
332.2386921709247
 20
175.3334604819579
 30
0.0
 11
332.4257315462244
 21
175.3906064351579
 31
0.0
  0
LINE
  5
15AE
330
1A
100
AcDbEntity
  8
SEIHIN
100
AcDbLine
 10
332.0662596589243
 20
175.2410118152579
 30
0.0
 11
332.2386921709247
 21
175.3334604819579
 31
0.0
  0
LINE
  5
15AF
330
1A
100
AcDbEntity
  8
SEIHIN
100
AcDbLine
 10
331.9150464004244
 20
175.1168031861579
 30
0.0
 11
332.0662596589243
 21
175.2410118152579
 31
0.0
  0
LINE
  5
15B0
330
1A
100
AcDbEntity
  8
SEIHIN
100
AcDbLine
 10
331.7908377712245
 20
174.9655880650579
 30
0.0
 11
331.9150464004244
 21
175.1168031861579
 31
0.0
  0
LINE
  5
15B1
330
1A
100
AcDbEntity
  8
SEIHIN
100
AcDbLine
 10
331.6983909672247
 20
174.7931592782579
 30
0.0
 11
331.7908377712245
 21
174.9655880650579
 31
0.0
  0
LINE
  5
15B2
330
1A
100
AcDbEntity
  8
SEIHIN
100
AcDbLine
 10
331.6412450140244
 20
174.6061180403578
 30
0.0
 11
331.6983909672247
 21
174.7931592782579
 31
0.0
  0
LINE
  5
15B3
330
1A
100
AcDbEntity
  8
SEIHIN
100
AcDbLine
 10
331.6215903824243
 20
174.4116299470579
 30
0.0
 11
331.6412450140244
 21
174.6061180403578
 31
0.0
  0
LINE
  5
15B4
330
1A
100
AcDbEntity
  8
SEIHIN
100
AcDbLine
 10
329.8755170172246
 20
174.6839486678579
 30
0.0
 11
329.4981860881246
 21
174.6867705752579
 31
0.0
  0
LINE
  5
15B5
330
1A
100
AcDbEntity
  8
SEIHIN
100
AcDbLine
 10
330.2392990654246
 20
174.6755779405579
 30
0.0
 11
329.8755170172246
 21
174.6839486678579
 31
0.0
  0
LINE
  5
15B6
330
1A
100
AcDbEntity
  8
SEIHIN
100
AcDbLine
 10
330.5764601892245
 20
174.6619638671579
 30
0.0
 11
330.2392990654246
 21
174.6755779405579
 31
0.0
  0
LINE
  5
15B7
330
1A
100
AcDbEntity
  8
SEIHIN
100
AcDbLine
 10
330.8748931950247
 20
174.6435944607579
 30
0.0
 11
330.5764601892245
 21
174.6619638671579
 31
0.0
  0
LINE
  5
15B8
330
1A
100
AcDbEntity
  8
SEIHIN
100
AcDbLine
 10
331.1238766974245
 20
174.6211272349578
 30
0.0
 11
330.8748931950247
 21
174.6435944607579
 31
0.0
  0
LINE
  5
15B9
330
1A
100
AcDbEntity
  8
SEIHIN
100
AcDbLine
 10
331.3144699996244
 20
174.5953705778579
 30
0.0
 11
331.1238766974245
 21
174.6211272349578
 31
0.0
  0
LINE
  5
15BA
330
1A
100
AcDbEntity
  8
SEIHIN
100
AcDbLine
 10
331.4398260182245
 20
174.5672502239579
 30
0.0
 11
331.3144699996244
 21
174.5953705778579
 31
0.0
  0
LINE
  5
15BB
330
1A
100
AcDbEntity
  8
SEIHIN
100
AcDbLine
 10
331.4954446023246
 20
174.5377757271579
 30
0.0
 11
331.4398260182245
 21
174.5672502239579
 31
0.0
  0
LINE
  5
15BC
330
1A
100
AcDbEntity
  8
SEIHIN
100
AcDbLine
 10
332.6202189647245
 20
175.4102599926579
 30
0.0
 11
334.9868298796243
 21
175.4102599926579
 31
0.0
  0
LINE
  5
15BD
330
1A
100
AcDbEntity
  8
SEIHIN
100
AcDbLine
 10
331.6215894300246
 20
174.4116304579579
 30
0.0
 11
331.4954434928245
 21
174.5377763950579
 31
0.0
  0
LINE
  5
15BE
330
1A
100
AcDbEntity
  8
SEIHIN
100
AcDbLine
 10
334.9868298796243
 20
177.2295755764579
 30
0.0
 11
328.8022720581246
 21
177.2295755019579
 31
0.0
  0
LINE
  5
15BF
330
1A
100
AcDbEntity
  8
SEIHIN
100
AcDbLine
 10
328.8022720581246
 20
177.2295755019579
 30
0.0
 11
328.8022720581246
 21
177.1823611726579
 31
0.0
  0
ARC
  5
15C1
330
1A
100
AcDbEntity
  8
SEIHIN
100
AcDbCircle
 10
362.8022738462244
 20
183.7295755764579
 30
0.0
 40
11.0
100
AcDbArc
 50
0.0
 51
14.42897827908416
  0
ARC
  5
15C2
330
1A
100
AcDbEntity
  8
SEIHIN
100
AcDbCircle
 10
261.4242322569246
 20
192.8295755764578
 30
0.0
 40
1.180684416200052
100
AcDbArc
 50
90.0
 51
192.8042660652966
  0
ARC
  5
15C3
330
1A
100
AcDbEntity
  8
SEIHIN
100
AcDbCircle
 10
260.7530680801244
 20
190.8295755764578
 30
0.0
 40
5.000000000000211
100
AcDbArc
 50
19.26259914129926
 51
90.0
  0
ARC
  5
15C4
330
1A
100
AcDbEntity
  8
SEIHIN
100
AcDbCircle
 10
261.4629092333246
 20
191.8295755764578
 30
0.0
 40
2.180684416200021
100
AcDbArc
 50
19.26259914130233
 51
90.0
  0
ARC
  5
15C5
330
1A
100
AcDbEntity
  8
SEIHIN
100
AcDbCircle
 10
246.3050057277244
 20
195.4575748967579
 30
0.0
 40
1.999999999999997
100
AcDbArc
 50
182.4453492580996
 51
258.3106308246065
  0
LINE
  5
15C6
330
1A
100
AcDbEntity
  8
SEIHIN
100
AcDbLine
 10
245.8997945197245
 20
193.4990540577579
 30
0.0
 11
255.6524820221246
 21
191.4812566434579
 31
0.0
  0
LINE
  5
15C7
330
1A
100
AcDbEntity
  8
SEIHIN
100
AcDbLine
 10
329.4846906617247
 20
162.9065613503578
 30
0.0
 11
277.1304578846246
 21
163.6140509824578
 31
0.0
  0
LINE
  5
15C8
330
1A
100
AcDbEntity
  8
SEIHIN
100
AcDbLine
 10
278.3022740250246
 20
162.1501684805578
 30
0.0
 11
326.8022754555243
 21
161.4945434650577
 31
0.0
  0
LINE
  5
15C9
330
1A
100
AcDbEntity
  8
SEIHIN
100
AcDbLine
 10
278.6105268961244
 20
177.1283053477579
 30
0.0
 11
279.3022738462244
 21
177.1283053477579
 31
0.0
  0
TEXT
  5
15CA
330
1A
100
AcDbEntity
  8
SEIHIN
100
AcDbText
 10
277.0918164357097
 20
168.7718686471121
 30
0.0
 40
3.174999952316284
  1
10
  7
Style2
100
AcDbText
  0
TEXT
  5
15CB
330
1A
100
AcDbEntity
  8
SEIHIN
100
AcDbText
 10
287.6363859192345
 20
168.7756685238143
 30
0.0
 40
3.174999952316284
  1
20
  7
Style2
100
AcDbText
  0
TEXT
  5
15CC
330
1A
100
AcDbEntity
  8
SEIHIN
100
AcDbText
 10
297.5244191895404
 20
168.7919505750963
 30
0.0
 40
3.174999952316284
  1
30
  7
Style2
100
AcDbText
  0
TEXT
  5
15CD
330
1A
100
AcDbEntity
  8
SEIHIN
100
AcDbText
 10
312.7536799938075
 20
168.7587892288195
 30
0.0
 40
3.174999952316284
  1
45
  7
Style2
100
AcDbText
  0
LINE
  5
15CE
330
1A
100
AcDbEntity
  8
SEIHIN
100
AcDbLine
 10
273.4829582625246
 20
175.8438859401579
 30
0.0
 11
273.4829582625246
 21
165.8841326495577
 31
0.0
  0
LINE
  5
15CF
330
1A
100
AcDbEntity
  8
SEIHIN
100
AcDbLine
 10
275.6063632691246
 20
175.0241770294579
 30
0.0
 11
275.6063632691246
 21
164.7288104963578
 31
0.0
  0
ARC
  5
15D0
330
1A
100
AcDbEntity
  8
SEIHIN
100
AcDbCircle
 10
277.3122767604243
 20
177.0686477900579
 30
0.0
 40
13.18068441619969
100
AcDbArc
 50
192.8042660652997
 51
246.6519006451989
  0
ARC
  5
15D1
330
1A
100
AcDbEntity
  8
SEIHIN
100
AcDbCircle
 10
277.3122767604243
 20
177.0686477900579
 30
0.0
 40
14.99999999999994
100
AcDbArc
 50
192.8042660652997
 51
266.139151902798
  0
LINE
  5
15D2
330
1A
100
AcDbEntity
  8
SEIHIN
100
AcDbLine
 10
277.4767347937245
 20
162.1550970395577
 30
0.0
 11
277.1107101207247
 21
162.1525228639577
 31
0.0
  0
LINE
  5
15D3
330
1A
100
AcDbEntity
  8
SEIHIN
100
AcDbLine
 10
277.8799825674244
 20
162.1543035527578
 30
0.0
 11
277.4767347937245
 21
162.1550970395577
 31
0.0
  0
LINE
  5
15D4
330
1A
100
AcDbEntity
  8
SEIHIN
100
AcDbLine
 10
278.3022740250246
 20
162.1501684805578
 30
0.0
 11
277.8799825674244
 21
162.1543035527578
 31
0.0
  0
LINE
  5
15D5
330
1A
100
AcDbEntity
  8
SEIHIN
100
AcDbLine
 10
276.3683864241245
 20
162.1426843722578
 30
0.0
 11
276.3022774225244
 21
162.1291578432577
 31
0.0
  0
LINE
  5
15D6
330
1A
100
AcDbEntity
  8
SEIHIN
100
AcDbLine
 10
276.6461813217245
 20
162.1490844210577
 30
0.0
 11
276.3683864241245
 21
162.1426843722578
 31
0.0
  0
LINE
  5
15D7
330
1A
100
AcDbEntity
  8
SEIHIN
100
AcDbLine
 10
277.1107101207247
 20
162.1525228639577
 30
0.0
 11
276.6461813217245
 21
162.1490844210577
 31
0.0
  0
LINE
  5
15D8
330
1A
100
AcDbEntity
  8
SEIHIN
100
AcDbLine
 10
275.4734152322246
 20
163.7671344598577
 30
0.0
 11
275.4696079856246
 21
163.7395896633578
 31
0.0
  0
LINE
  5
15D9
330
1A
100
AcDbEntity
  8
SEIHIN
100
AcDbLine
 10
275.4819983011246
 20
163.8292220106577
 30
0.0
 11
275.4734152322246
 21
163.7671344598577
 31
0.0
  0
LINE
  5
15DA
330
1A
100
AcDbEntity
  8
SEIHIN
100
AcDbLine
 10
275.4950517183245
 20
163.9236208667578
 30
0.0
 11
275.4819983011246
 21
163.8292220106577
 31
0.0
  0
LINE
  5
15DB
330
1A
100
AcDbEntity
  8
SEIHIN
100
AcDbLine
 10
275.5120986467243
 20
164.0469410141578
 30
0.0
 11
275.4950517183245
 21
163.9236208667578
 31
0.0
  0
LINE
  5
15DC
330
1A
100
AcDbEntity
  8
SEIHIN
100
AcDbLine
 10
275.5325355893244
 20
164.1947512199577
 30
0.0
 11
275.5120986467243
 21
164.0469410141578
 31
0.0
  0
LINE
  5
15DD
330
1A
100
AcDbEntity
  8
SEIHIN
100
AcDbLine
 10
275.5556174880246
 20
164.3617448081578
 30
0.0
 11
275.5325355893244
 21
164.1947512199577
 31
0.0
  0
LINE
  5
15DE
330
1A
100
AcDbEntity
  8
SEIHIN
100
AcDbLine
 10
275.5805247789247
 20
164.5419203361577
 30
0.0
 11
275.5556174880246
 21
164.3617448081578
 31
0.0
  0
LINE
  5
15DF
330
1A
100
AcDbEntity
  8
SEIHIN
100
AcDbLine
 10
275.6063633924243
 20
164.7288106998578
 30
0.0
 11
275.5805247789247
 21
164.5419203361577
 31
0.0
  0
LINE
  5
15E0
330
1A
100
AcDbEntity
  8
SEIHIN
100
AcDbLine
 10
273.4516927367245
 20
165.6406332423578
 30
0.0
 11
273.4829553729244
 21
165.8841331174577
 31
0.0
  0
LINE
  5
15E1
330
1A
100
AcDbEntity
  8
SEIHIN
100
AcDbLine
 10
273.3618163829244
 20
165.4118855168577
 30
0.0
 11
273.4516927367245
 21
165.6406332423578
 31
0.0
  0
LINE
  5
15E2
330
1A
100
AcDbEntity
  8
SEIHIN
100
AcDbLine
 10
273.2187801366247
 20
165.2117498835578
 30
0.0
 11
273.3618163829244
 21
165.4118855168577
 31
0.0
  0
LINE
  5
15E3
330
1A
100
AcDbEntity
  8
SEIHIN
100
AcDbLine
 10
273.0312490230247
 20
165.0523502995578
 30
0.0
 11
273.2187801366247
 21
165.2117498835578
 31
0.0
  0
LINE
  5
15E4
330
1A
100
AcDbEntity
  8
SEIHIN
100
AcDbLine
 10
272.8105777269245
 20
164.9433445801578
 30
0.0
 11
273.0312490230247
 21
165.0523502995578
 31
0.0
  0
LINE
  5
15E5
330
1A
100
AcDbEntity
  8
SEIHIN
100
AcDbLine
 10
272.5701400405244
 20
164.8913376649577
 30
0.0
 11
272.8105777269245
 21
164.9433445801578
 31
0.0
  0
LINE
  5
15E6
330
1A
100
AcDbEntity
  8
SEIHIN
100
AcDbLine
 10
272.3245092993245
 20
164.8994792868577
 30
0.0
 11
272.5701400405244
 21
164.8913376649577
 31
0.0
  0
LINE
  5
15E7
330
1A
100
AcDbEntity
  8
SEIHIN
100
AcDbLine
 10
272.0885568624246
 20
164.9672777076578
 30
0.0
 11
272.3245092993245
 21
164.8994792868577
 31
0.0
  0
ARC
  5
15E8
330
1A
100
AcDbEntity
  8
SEIHIN
100
AcDbCircle
 10
277.3122767604243
 20
177.0686477900579
 30
0.0
 40
13.45582525750012
100
AcDbArc
 50
262.1290677277981
 51
269.2257798351029
  0
LINE
  5
15E9
330
1A
100
AcDbEntity
  8
SEIHIN
100
AcDbLine
 10
276.3022738460245
 20
162.1026899485578
 30
0.0
 11
276.3022774225244
 21
162.1423975249578
 31
0.0
  0
ARC
  5
15EA
330
1A
100
AcDbEntity
  8
SEIHIN
100
AcDbCircle
 10
278.6105265316244
 20
188.2295755764579
 30
0.0
 40
10.99999999999989
100
AcDbArc
 50
199.2625991412993
 51
257.8869563829032
  0
ARC
  5
15EB
330
1A
100
AcDbEntity
  8
SEIHIN
100
AcDbCircle
 10
278.6105265316244
 20
188.2295755764579
 30
0.0
 40
12.81931558379976
100
AcDbArc
 50
199.2625991412993
 51
243.6821247702013
  0
LINE
  5
15EC
330
1A
100
AcDbEntity
  8
SEIHIN
100
AcDbLine
 10
259.5151182809245
 20
187.6930600638578
 30
0.0
 11
262.6852839235246
 21
173.744331236258
 31
0.0
  0
LINE
  5
15ED
330
1A
100
AcDbEntity
  8
SEIHIN
100
AcDbLine
 10
264.4593583243245
 20
174.1475299636579
 30
0.0
 11
260.2729080903243
 21
192.5679109930579
 31
0.0
  0
LINE
  5
15EE
330
1A
100
AcDbEntity
  8
SEIHIN
100
AcDbLine
 10
277.8520428901245
 20
177.1560345461579
 30
0.0
 11
278.3022740250246
 21
177.1325838436579
 31
0.0
  0
LINE
  5
15EF
330
1A
100
AcDbEntity
  8
SEIHIN
100
AcDbLine
 10
277.2261866694246
 20
177.2259824594579
 30
0.0
 11
277.8520428901245
 21
177.1560345461579
 31
0.0
  0
LINE
  5
15F0
330
1A
100
AcDbEntity
  8
SEIHIN
100
AcDbLine
 10
276.7296278244246
 20
177.3158290108579
 30
0.0
 11
277.2261866694246
 21
177.2259824594579
 31
0.0
  0
LINE
  5
15F1
330
1A
100
AcDbEntity
  8
SEIHIN
100
AcDbLine
 10
276.4126950269244
 20
177.3958631476579
 30
0.0
 11
276.7296278244246
 21
177.3158290108579
 31
0.0
  0
LINE
  5
15F2
330
1A
100
AcDbEntity
  8
SEIHIN
100
AcDbLine
 10
276.3022774225244
 20
177.4422392865579
 30
0.0
 11
276.4126950269244
 21
177.3958631476579
 31
0.0
  0
LINE
  5
15F3
330
1A
100
AcDbEntity
  8
SEIHIN
100
AcDbLine
 10
273.4731280571243
 20
175.9820894023579
 30
0.0
 11
273.4829553729244
 21
175.8438867201579
 31
0.0
  0
LINE
  5
15F4
330
1A
100
AcDbEntity
  8
SEIHIN
100
AcDbLine
 10
273.4443017607243
 20
176.1176359524579
 30
0.0
 11
273.4731280571243
 21
175.9820894023579
 31
0.0
  0
LINE
  5
15F5
330
1A
100
AcDbEntity
  8
SEIHIN
100
AcDbLine
 10
273.3970352774245
 20
176.2479242553579
 30
0.0
 11
273.4443017607243
 21
176.1176359524579
 31
0.0
  0
LINE
  5
15F6
330
1A
100
AcDbEntity
  8
SEIHIN
100
AcDbLine
 10
273.3322301274245
 20
176.3704490532579
 30
0.0
 11
273.3970352774245
 21
176.2479242553579
 31
0.0
  0
LINE
  5
15F7
330
1A
100
AcDbEntity
  8
SEIHIN
100
AcDbLine
 10
273.2511380082244
 20
176.4828578253579
 30
0.0
 11
273.3322301274245
 21
176.3704490532579
 31
0.0
  0
LINE
  5
15F8
330
1A
100
AcDbEntity
  8
SEIHIN
100
AcDbLine
 10
273.1553086405245
 20
176.5829917659579
 30
0.0
 11
273.2511380082244
 21
176.4828578253579
 31
0.0
  0
LINE
  5
15F9
330
1A
100
AcDbEntity
  8
SEIHIN
100
AcDbLine
 10
273.0465897685247
 20
176.6689248999579
 30
0.0
 11
273.1553086405245
 21
176.5829917659579
 31
0.0
  0
LINE
  5
15FA
330
1A
100
AcDbEntity
  8
SEIHIN
100
AcDbLine
 10
272.9270750051244
 20
176.7390050610579
 30
0.0
 11
273.0465897685247
 21
176.6689248999579
 31
0.0
  0
LINE
  5
15FB
330
1A
100
AcDbEntity
  8
SEIHIN
100
AcDbLine
 10
278.4563818341246
 20
177.1293745061579
 30
0.0
 11
278.3022740250246
 21
177.1325838436579
 31
0.0
  0
LINE
  5
15FC
330
1A
100
AcDbEntity
  8
SEIHIN
100
AcDbLine
 10
278.6105268961244
 20
177.1283053477579
 30
0.0
 11
278.4563818341246
 21
177.1293745061579
 31
0.0
  0
ARC
  5
15FD
330
1A
100
AcDbEntity
  8
SEIHIN
100
AcDbCircle
 10
278.6105265316244
 20
188.2295755764579
 30
0.0
 40
13.54280427730001
100
AcDbArc
 50
257.1836201120005
 51
270.0
  0
LINE
  5
15FE
330
1A
100
AcDbEntity
  8
SEIHIN
100
AcDbLine
 10
279.5522738462244
 20
172.5775929709579
 30
0.0
 11
279.5522738462244
 21
174.0775929709579
 31
0.0
  0
LINE
  5
15FF
330
1A
100
AcDbEntity
  8
SEIHIN
100
AcDbLine
 10
279.0522738462244
 20
172.5775929709579
 30
0.0
 11
279.0522738462244
 21
174.0775929709579
 31
0.0
  0
LINE
  5
1600
330
1A
100
AcDbEntity
  8
SEIHIN
100
AcDbLine
 10
279.0522738462244
 20
172.5775929709579
 30
0.0
 11
279.5522738462244
 21
172.5775929709579
 31
0.0
  0
LINE
  5
1601
330
1A
100
AcDbEntity
  8
SEIHIN
100
AcDbLine
 10
279.0522738462244
 20
174.0775929709579
 30
0.0
 11
279.5522738462244
 21
174.0775929709579
 31
0.0
  0
LINE
  5
1602
330
1A
100
AcDbEntity
  8
SEIHIN
100
AcDbLine
 10
276.3022774225244
 20
177.4260733892579
 30
0.0
 11
276.3022738398245
 21
177.4744851764579
 31
0.0
  0
ARC
  5
1603
330
1A
100
AcDbEntity
  8
SEIHIN
100
AcDbCircle
 10
254.6394540019244
 20
186.5849545459579
 30
0.0
 40
5.000000000000136
100
AcDbArc
 50
12.80426606529974
 51
78.31063082459974
  0
LINE
  5
1604
330
1A
100
AcDbEntity
  8
SEIHIN
100
AcDbLine
 10
268.2263450344246
 20
184.6006949456579
 30
0.0
 11
265.4731505789243
 21
192.4790667722579
 31
0.0
  0
LINE
  5
1605
330
1A
100
AcDbEntity
  8
SEIHIN
100
AcDbLine
 10
263.5215113030245
 20
192.5489795254579
 30
0.0
 11
266.5088811051244
 21
184.0005059381579
 31
0.0
  0
LINE
  5
160A
330
1A
100
AcDbEntity
  8
SEIHIN
100
AcDbLine
 10
284.0522738462244
 20
172.0775929709579
 30
0.0
 11
284.0522738462244
 21
172.1283053477579
 31
0.0
  0
LINE
  5
160B
330
1A
100
AcDbEntity
  8
SEIHIN
100
AcDbLine
 10
284.5522738462244
 20
172.0775929709579
 30
0.0
 11
284.5522738462244
 21
172.1283053477579
 31
0.0
  0
LINE
  5
160C
330
1A
100
AcDbEntity
  8
SEIHIN
100
AcDbLine
 10
284.0522738462244
 20
172.0775929709579
 30
0.0
 11
284.5522738462244
 21
172.0775929709579
 31
0.0
  0
LINE
  5
1612
330
1A
100
AcDbEntity
  8
SEIHIN
100
AcDbLine
 10
294.5522738462244
 20
172.0775929709579
 30
0.0
 11
294.5522738462244
 21
172.1283053477579
 31
0.0
  0
LINE
  5
1613
330
1A
100
AcDbEntity
  8
SEIHIN
100
AcDbLine
 10
294.0522738462244
 20
172.0775929709579
 30
0.0
 11
294.0522738462244
 21
172.1283053477579
 31
0.0
  0
LINE
  5
1614
330
1A
100
AcDbEntity
  8
SEIHIN
100
AcDbLine
 10
294.0522738462244
 20
172.0775929709579
 30
0.0
 11
294.5522738462244
 21
172.0775929709579
 31
0.0
  0
LINE
  5
1616
330
1A
100
AcDbEntity
  8
SEIHIN
100
AcDbLine
 10
314.0522738462244
 20
172.5775929709579
 30
0.0
 11
314.0522738462244
 21
174.0775929709579
 31
0.0
  0
LINE
  5
1617
330
1A
100
AcDbEntity
  8
SEIHIN
100
AcDbLine
 10
314.5522738462244
 20
172.5775929709579
 30
0.0
 11
314.5522738462244
 21
174.0775929709579
 31
0.0
  0
LINE
  5
1618
330
1A
100
AcDbEntity
  8
SEIHIN
100
AcDbLine
 10
314.0522738462244
 20
172.5775929709579
 30
0.0
 11
314.5522738462244
 21
172.5775929709579
 31
0.0
  0
LINE
  5
1619
330
1A
100
AcDbEntity
  8
SEIHIN
100
AcDbLine
 10
314.0522738462244
 20
174.0775929709579
 30
0.0
 11
314.5522738462244
 21
174.0775929709579
 31
0.0
  0
LINE
  5
161A
330
1A
100
AcDbEntity
  8
SEIHIN
100
AcDbLine
 10
304.5522738462244
 20
172.0775929709579
 30
0.0
 11
304.5522738462244
 21
172.1283053477579
 31
0.0
  0
LINE
  5
161B
330
1A
100
AcDbEntity
  8
SEIHIN
100
AcDbLine
 10
304.0522738462244
 20
172.0775929709579
 30
0.0
 11
304.0522738462244
 21
172.1283053477579
 31
0.0
  0
LINE
  5
161C
330
1A
100
AcDbEntity
  8
SEIHIN
100
AcDbLine
 10
304.0522738462244
 20
172.0775929709579
 30
0.0
 11
304.5522738462244
 21
172.0775929709579
 31
0.0
  0
LINE
  5
161E
330
1A
100
AcDbEntity
  8
SEIHIN
100
AcDbLine
 10
309.5522738462244
 20
172.0775929709579
 30
0.0
 11
309.5522738462244
 21
173.9294609674622
 31
0.0
  0
LINE
  5
161F
330
1A
100
AcDbEntity
  8
SEIHIN
100
AcDbLine
 10
309.0522738462244
 20
172.0775929709579
 30
0.0
 11
309.0522738462244
 21
173.4569373598758
 31
0.0
  0
LINE
  5
1620
330
1A
100
AcDbEntity
  8
SEIHIN
100
AcDbLine
 10
309.0522738462244
 20
172.0775929709579
 30
0.0
 11
309.5522738462244
 21
172.0775929709579
 31
0.0
  0
LINE
  5
1622
330
1A
100
AcDbEntity
  8
SEIHIN
100
AcDbLine
 10
368.8022738462244
 20
183.8295755764578
 30
0.0
 11
368.8022738462244
 21
167.8140128868579
 31
0.0
  0
LINE
  5
1623
330
1A
100
AcDbEntity
  8
SEIHIN
100
AcDbLine
 10
373.8022738462244
 20
163.9295755764577
 30
0.0
 11
373.8022738462244
 21
183.7295755764579
 31
0.0
  0
LINE
  5
1624
330
1A
100
AcDbEntity
  8
SEIHIN
100
AcDbLine
 10
355.4603879889362
 20
186.6283053477579
 30
0.0
 11
340.1578815049245
 21
165.5108463999578
 31
0.0
  0
LINE
  5
1625
330
1A
100
AcDbEntity
  8
SEIHIN
100
AcDbLine
 10
341.6310720128247
 20
164.4433170463578
 30
0.0
 11
356.9067680398246
 21
185.5237775635579
 31
0.0
  0
ARC
  5
1626
330
1A
100
AcDbEntity
  8
SEIHIN
100
AcDbCircle
 10
342.4408218556243
 20
163.8565417979578
 30
0.0
 40
0.9999999999999129
100
AcDbArc
 50
144.0714975772011
 51
284.0362434679067
  0
LINE
  5
1627
330
1A
100
AcDbEntity
  8
SEIHIN
100
AcDbLine
 10
339.3022747105244
 20
161.2295747419578
 30
0.0
 11
344.3022736674245
 21
161.2295747419578
 31
0.0
  0
LINE
  5
1628
330
1A
100
AcDbEntity
  8
SEIHIN
100
AcDbLine
 10
327.1924549108246
 20
161.4879273494578
 30
0.0
 11
326.8022754555243
 21
161.4945434650577
 31
0.0
  0
LINE
  5
1629
330
1A
100
AcDbEntity
  8
SEIHIN
100
AcDbLine
 10
327.5676400726245
 20
161.4788786193578
 30
0.0
 11
327.1924549108246
 21
161.4879273494578
 31
0.0
  0
LINE
  5
162A
330
1A
100
AcDbEntity
  8
SEIHIN
100
AcDbLine
 10
327.9134140676244
 20
161.4677474518578
 30
0.0
 11
327.5676400726245
 21
161.4788786193578
 31
0.0
  0
LINE
  5
162B
330
1A
100
AcDbEntity
  8
SEIHIN
100
AcDbLine
 10
328.2164887851243
 20
161.4549622555578
 30
0.0
 11
327.9134140676244
 21
161.4677474518578
 31
0.0
  0
LINE
  5
162C
330
1A
100
AcDbEntity
  8
SEIHIN
100
AcDbLine
 10
328.4652115172246
 20
161.4410110434578
 30
0.0
 11
328.2164887851243
 21
161.4549622555578
 31
0.0
  0
LINE
  5
162D
330
1A
100
AcDbEntity
  8
SEIHIN
100
AcDbLine
 10
328.6500343447244
 20
161.4264302571578
 30
0.0
 11
328.4652115172246
 21
161.4410110434578
 31
0.0
  0
LINE
  5
162E
330
1A
100
AcDbEntity
  8
SEIHIN
100
AcDbLine
 10
328.7638456886245
 20
161.4117861410577
 30
0.0
 11
328.6500343447244
 21
161.4264302571578
 31
0.0
  0
LINE
  5
162F
330
1A
100
AcDbEntity
  8
SEIHIN
100
AcDbLine
 10
328.8022720581246
 20
161.3976337631577
 30
0.0
 11
328.7638456886245
 21
161.4117861410577
 31
0.0
  0
LINE
  5
1630
330
1A
100
AcDbEntity
  8
SEIHIN
100
AcDbLine
 10
332.4141570693244
 20
163.1614581366577
 30
0.0
 11
332.6067247754245
 21
163.1395385285577
 31
0.0
  0
LINE
  5
1631
330
1A
100
AcDbEntity
  8
SEIHIN
100
AcDbLine
 10
332.2293491429243
 20
163.2201426347577
 30
0.0
 11
332.4141570693244
 21
163.1614581366577
 31
0.0
  0
LINE
  5
1632
330
1A
100
AcDbEntity
  8
SEIHIN
100
AcDbLine
 10
332.0592523878247
 20
163.3133792003577
 30
0.0
 11
332.2293491429243
 21
163.2201426347577
 31
0.0
  0
LINE
  5
1633
330
1A
100
AcDbEntity
  8
SEIHIN
100
AcDbLine
 10
331.9102705782245
 20
163.4376586099578
 30
0.0
 11
332.0592523878247
 21
163.3133792003577
 31
0.0
  0
LINE
  5
1634
330
1A
100
AcDbEntity
  8
SEIHIN
100
AcDbLine
 10
331.7880177265245
 20
163.5883037617577
 30
0.0
 11
331.9102705782245
 21
163.4376586099578
 31
0.0
  0
LINE
  5
1635
330
1A
100
AcDbEntity
  8
SEIHIN
100
AcDbLine
 10
331.6970871156243
 20
163.7596447636578
 30
0.0
 11
331.7880177265245
 21
163.5883037617577
 31
0.0
  0
LINE
  5
1636
330
1A
100
AcDbEntity
  8
SEIHIN
100
AcDbLine
 10
331.6409060126246
 20
163.9452312757578
 30
0.0
 11
331.6970871156243
 21
163.7596447636578
 31
0.0
  0
LINE
  5
1637
330
1A
100
AcDbEntity
  8
SEIHIN
100
AcDbLine
 10
331.6215903824243
 20
164.1380765160578
 30
0.0
 11
331.6409060126246
 21
163.9452312757578
 31
0.0
  0
LINE
  5
1638
330
1A
100
AcDbEntity
  8
SEIHIN
100
AcDbLine
 10
330.0506913429247
 20
162.9017383476578
 30
0.0
 11
329.4846893614247
 21
162.9065625985578
 31
0.0
  0
LINE
  5
1639
330
1A
100
AcDbEntity
  8
SEIHIN
100
AcDbLine
 10
330.5963644152246
 20
162.9027330001578
 30
0.0
 11
330.0506913429247
 21
162.9017383476578
 31
0.0
  0
LINE
  5
163A
330
1A
100
AcDbEntity
  8
SEIHIN
100
AcDbLine
 10
331.1021061009244
 20
162.9095130284578
 30
0.0
 11
330.5963644152246
 21
162.9027330001578
 31
0.0
  0
LINE
  5
163B
330
1A
100
AcDbEntity
  8
SEIHIN
100
AcDbLine
 10
331.5497556096245
 20
162.9218362887577
 30
0.0
 11
331.1021061009244
 21
162.9095130284578
 31
0.0
  0
LINE
  5
163C
330
1A
100
AcDbEntity
  8
SEIHIN
100
AcDbLine
 10
331.9232308632245
 20
162.9392594715577
 30
0.0
 11
331.5497556096245
 21
162.9218362887577
 31
0.0
  0
LINE
  5
163D
330
1A
100
AcDbEntity
  8
SEIHIN
100
AcDbLine
 10
332.2091208165246
 20
162.9611530026577
 30
0.0
 11
331.9232308632245
 21
162.9392594715577
 31
0.0
  0
LINE
  5
163E
330
1A
100
AcDbEntity
  8
SEIHIN
100
AcDbLine
 10
332.3971548443244
 20
162.9867345710578
 30
0.0
 11
332.2091208165246
 21
162.9611530026577
 31
0.0
  0
LINE
  5
163F
330
1A
100
AcDbEntity
  8
SEIHIN
100
AcDbLine
 10
332.4805789953246
 20
163.0150840302577
 30
0.0
 11
332.3971548443244
 21
162.9867345710578
 31
0.0
  0
LINE
  5
1640
330
1A
100
AcDbEntity
  8
SEIHIN
100
AcDbLine
 10
338.4434101973245
 20
163.0606635353578
 30
0.0
 11
332.6067252030246
 21
163.1395376568578
 31
0.0
  0
LINE
  5
1641
330
1A
100
AcDbEntity
  8
SEIHIN
100
AcDbLine
 10
332.6067252030246
 20
163.1395376568578
 30
0.0
 11
332.4805792659247
 21
163.0150848770578
 31
0.0
  0
LINE
  5
1642
330
1A
100
AcDbEntity
  8
SEIHIN
100
AcDbLine
 10
328.8022720581246
 20
161.3714673241578
 30
0.0
 11
339.3022747105244
 21
161.2295747419578
 31
0.0
  0
LINE
  5
1643
330
1A
100
AcDbEntity
  8
SEIHIN
100
AcDbLine
 10
328.8022720581246
 20
161.4107207080577
 30
0.0
 11
328.8022720581246
 21
161.3714673241578
 31
0.0
  0
ARC
  5
1644
330
1A
100
AcDbEntity
  8
SEIHIN
100
AcDbCircle
 10
338.4593639355246
 20
164.2412401609577
 30
0.0
 40
1.180684416199934
100
AcDbArc
 50
269.2257798350898
 51
354.4810715147031
  0
ARC
  5
1645
330
1A
100
AcDbEntity
  8
SEIHIN
100
AcDbCircle
 10
342.4408218556243
 20
163.8565417979578
 30
0.0
 40
2.819315583799682
100
AcDbArc
 50
144.0714975771947
 51
174.4810715146999
  0
ARC
  5
1646
330
1A
100
AcDbEntity
  8
SEIHIN
100
AcDbCircle
 10
357.3022738462244
 20
165.5103519828577
 30
0.0
 40
1.0
100
AcDbArc
 50
0.0
 51
104.0362434678799
  0
ARC
  5
1647
330
1A
100
AcDbEntity
  8
SEIHIN
100
AcDbCircle
 10
357.3022738462244
 20
165.5103519828577
 30
0.0
 40
1.000000000000054
100
AcDbArc
 50
284.0362434679067
 51
0.0
  0
LINE
  5
1648
330
1A
100
AcDbEntity
  8
SEIHIN
100
AcDbLine
 10
357.0597382212245
 20
166.4804944829577
 30
0.0
 11
342.6833574807245
 21
162.8863992978578
 31
0.0
  0
LINE
  5
1649
330
1A
100
AcDbEntity
  8
SEIHIN
100
AcDbLine
 10
344.3022736674245
 20
161.2295747419578
 30
0.0
 11
357.5448094712244
 21
164.5402094826578
 31
0.0
  0
LINE
  5
164A
330
1A
100
AcDbEntity
  8
SEIHIN
100
AcDbLine
 10
367.2417276601245
 20
166.9858897238578
 30
0.0
 11
365.3628200324245
 21
168.2576987394578
 31
0.0
  0
ARC
  5
164B
330
1A
100
AcDbEntity
  8
SEIHIN
100
AcDbCircle
 10
364.8022738462244
 20
167.4295755764577
 30
0.0
 40
1.000000000000208
100
AcDbArc
 50
55.906421426799
 51
223.0097155350033
  0
LINE
  5
164C
330
1A
100
AcDbEntity
  8
SEIHIN
100
AcDbLine
 10
364.0710358003246
 20
166.7474532119578
 30
0.0
 11
368.6085597083245
 21
161.8832084829578
 31
0.0
  0
ARC
  5
164D
330
1A
100
AcDbEntity
  8
SEIHIN
100
AcDbCircle
 10
370.8022738462244
 20
163.9295755764577
 30
0.0
 40
2.999999999999873
100
AcDbArc
 50
223.0097155350033
 51
0.0
  0
ARC
  5
164E
330
1A
100
AcDbEntity
  8
SEIHIN
100
AcDbCircle
 10
367.8022738462244
 20
167.8140128868579
 30
0.0
 40
0.9999999999999863
100
AcDbArc
 50
235.9064214268062
 51
0.0
  0
ARC
  5
164F
330
1A
100
AcDbEntity
  8
SEIHIN
100
AcDbCircle
 10
363.3847667820244
 20
180.8295755764578
 30
0.0
 40
8.0
100
AcDbArc
 50
133.5443590704052
 51
144.0714975772011
  0
LINE
  5
1650
330
1A
100
AcDbEntity
  8
SEIHIN
100
AcDbLine
 10
348.1639333448795
 20
186.6283053477579
 30
0.0
 11
342.2627239414244
 21
180.3694468895579
 31
0.0
  0
LINE
  5
1651
330
1A
100
AcDbEntity
  8
SEIHIN
100
AcDbLine
 10
343.5864386867245
 20
179.1213729868579
 30
0.0
 11
350.1929749126398
 21
186.1283053477579
 31
0.0
  0
LINE
  5
1652
330
1A
100
AcDbEntity
  8
SEIHIN
100
AcDbLine
 10
326.8022754555243
 20
177.0775929709579
 30
0.0
 11
326.8022754555243
 21
177.1283053477579
 31
0.0
  0
ARC
  5
1655
330
1A
100
AcDbEntity
  8
SEIHIN
100
AcDbCircle
 10
363.8022738462244
 20
183.8295755764578
 30
0.0
 40
5.0
100
AcDbArc
 50
0.0
 51
34.03823060837268
  0
LINE
  5
1656
330
1A
100
AcDbEntity
  8
SEIHIN
100
AcDbLine
 10
244.3068319326246
 20
195.3817514969579
 30
0.0
 11
244.3068319326246
 21
195.3722419949579
 31
0.0
  0
LINE
  5
1657
330
1A
100
AcDbEntity
  8
SEIHIN
100
AcDbLine
 10
244.3068468338245
 20
195.4243331366579
 30
0.0
 11
244.3068319326246
 21
195.3817514969579
 31
0.0
  0
LINE
  5
1658
330
1A
100
AcDbEntity
  8
SEIHIN
100
AcDbLine
 10
244.3068468338245
 20
195.4632294165579
 30
0.0
 11
244.3068468338245
 21
195.4243331366579
 31
0.0
  0
LINE
  5
1659
330
1A
100
AcDbEntity
  8
SEIHIN
100
AcDbLine
 10
244.3068319326246
 20
195.5061662394579
 30
0.0
 11
244.3068468338245
 21
195.4632294165579
 31
0.0
  0
LINE
  5
165A
330
1A
100
AcDbEntity
  8
SEIHIN
100
AcDbLine
 10
244.3068319326246
 20
195.5429077881579
 30
0.0
 11
244.3068319326246
 21
195.5061662394579
 31
0.0
  0
LINE
  5
165B
330
1A
100
AcDbEntity
  8
SEIHIN
100
AcDbLine
 10
260.7530680801244
 20
195.8295755764578
 30
0.0
 11
254.8638266590244
 21
195.8295755764578
 31
0.0
  0
ARC
  5
165C
330
1A
100
AcDbEntity
  8
SEIHIN
100
AcDbCircle
 10
254.8638266590244
 20
195.3295755764578
 30
0.0
 40
0.5
100
AcDbArc
 50
90.0
 51
104.0362434679067
  0
LINE
  5
165D
330
1A
100
AcDbEntity
  8
SEIHIN
100
AcDbLine
 10
261.4242322569246
 20
194.0102599926579
 30
0.0
 11
261.4629092333246
 21
194.0102599926579
 31
0.0
  0
ARC
  5
165E
330
1A
100
AcDbEntity
  8
SEIHIN
100
AcDbCircle
 10
249.3022738462244
 20
195.3295755764578
 30
0.0
 40
4.999999999999941
100
AcDbArc
 50
104.9381624396987
 51
177.5546507419004
  0
ARC
  5
165F
330
1A
100
AcDbEntity
  8
SEIHIN
100
AcDbCircle
 10
248.2711682433244
 20
199.1943939726579
 30
0.0
 40
1.000000000000002
100
AcDbArc
 50
338.1985905136023
 51
104.9381624396852
  0
LINE
  5
1660
330
1A
100
AcDbEntity
  8
SEIHIN
100
AcDbLine
 10
244.3068269821245
 20
195.5429077770579
 30
0.0
 11
244.3068269821245
 21
195.372242016558
 31
0.0
  0
LINE
  5
1661
330
1A
100
AcDbEntity
  8
SEIHIN
100
AcDbLine
 10
252.7407210334245
 20
195.3295755764578
 30
0.0
 11
250.0178232884243
 21
195.3295755764578
 31
0.0
  0
ARC
  5
1662
330
1A
100
AcDbEntity
  8
SEIHIN
100
AcDbCircle
 10
250.0178232884243
 20
196.8295755764578
 30
0.0
 40
1.499999999999834
100
AcDbArc
 50
158.1985905135962
 51
270.0
  0
LINE
  5
1663
330
1A
100
AcDbEntity
  8
SEIHIN
100
AcDbLine
 10
248.6251082520246
 20
197.3866615909579
 30
0.0
 11
249.1996449341245
 21
198.8230032962579
 31
0.0
  0
ARC
  5
1664
330
1A
100
AcDbEntity
  8
SEIHIN
100
AcDbCircle
 10
252.7407210334245
 20
195.8295755764578
 30
0.0
 40
0.5
100
AcDbArc
 50
270.0
 51
284.0362434678798
  0
LINE
  5
1665
330
1A
100
AcDbEntity
  8
SEIHIN
100
AcDbLine
 10
254.7425588465246
 20
195.8146468264579
 30
0.0
 11
252.8619888459245
 21
195.3445043263579
 31
0.0
  0
LINE
  5
179E
330
1A
100
AcDbEntity
  8
SEIHIN
100
AcDbLine
 10
312.9339093339333
 20
177.1283053477579
 30
0.0
 11
326.8022754555243
 21
177.1283053477579
 31
0.0
  0
LINE
  5
179F
330
1A
100
AcDbEntity
  8
SEIHIN
100
AcDbLine
 10
280.7438078948244
 20
174.6867712991578
 30
0.0
 11
278.6105265316244
 21
174.6867712991578
 31
0.0
  0
LINE
  5
17B6
330
1A
100
AcDbEntity
  8
SUNPOU
  6
Continuous
100
AcDbLine
 10
404.3401071983028
 20
119.1578343984787
 30
0.0
 11
404.3401071983028
 21
139.1293995338032
 31
0.0
  0
LINE
  5
17B7
330
1A
100
AcDbEntity
  8
SUNPOU
  6
Continuous
100
AcDbLine
 10
412.3277241599806
 20
119.1578343984787
 30
0.0
 11
404.3401071983028
 21
119.1578343984787
 31
0.0
  0
TEXT
  5
17B8
330
1A
100
AcDbEntity
  8
SUNPOU
  6
Continuous
 62
     4
 48
5.0
100
AcDbText
 10
406.4259161816153
 20
110.6900959767174
 30
0.0
 40
6.0
  1
4
100
AcDbText
  0
TEXT
  5
17B9
330
1A
100
AcDbEntity
  8
SUNPOU
  6
Continuous
 62
     4
 48
5.0
100
AcDbText
 10
394.1917793997041
 20
125.0050688227134
 30
0.0
 40
6.0
  1
10
100
AcDbText
  0
DIMENSION
  5
17DE
330
1A
100
AcDbEntity
  8
SUNPOU
100
AcDbDimension
  2
*D1
 10
212.7874163393633
 20
155.5692815804813
 30
0.0
 11
207.7874163393633
 21
177.8748646465408
 31
0.0
 70
    32
 71
     5
 42
44.6111661321188
  3
STANDARD
100
AcDbAlignedDimension
 13
248.4375954705015
 23
200.1804477126001
 33
0.0
 14
391.3009475186179
 24
155.5692815804813
 34
0.0
 50
90.0
100
AcDbRotatedDimension
1001
ACAD
1000
DSTYLE
1002
{
1070
    41
1040
7.0
1070
    42
1040
6.0
1070
    43
1040
14.0
1070
    44
1040
3.0
1070
    73
1070
     0
1070
    74
1070
     0
1070
    77
1070
     3
1070
   140
1040
6.0
1070
   141
1040
150.0
1070
   147
1040
2.0
1070
   172
1070
     1
1070
   173
1070
     1
1070
   176
1070
   256
1070
   177
1070
   256
1070
   178
1070
   256
1070
   271
1070
     0
1070
   272
1070
     0
1070
   341
1005
6D
1070
     6
1000
OPEN
1070
     7
1000
OPEN
1070
   371
1070
    -1
1070
   372
1070
    -1
1002
}
  0
DIMENSION
  5
1F22
330
1A
100
AcDbEntity
  8
SUNPOU
100
AcDbDimension
  2
*D2
 10
378.3022738462248
 20
265.4365878629463
 30
0.0
 11
311.3045504141746
 21
270.4365878629463
 31
0.0
 70
    32
 71
     5
 42
133.9954468641004
  3
STANDARD
100
AcDbAlignedDimension
 13
244.3068269821245
 23
195.5429077773903
 33
0.0
 14
378.3022738462248
 24
204.2214601828578
 34
0.0
100
AcDbRotatedDimension
1001
ACAD
1000
DSTYLE
1002
{
1070
    41
1040
7.0
1070
    42
1040
6.0
1070
    43
1040
14.0
1070
    44
1040
3.0
1070
    73
1070
     0
1070
    74
1070
     0
1070
    77
1070
     3
1070
   140
1040
6.0
1070
   141
1040
150.0
1070
   147
1040
2.0
1070
   172
1070
     1
1070
   173
1070
     1
1070
   176
1070
   256
1070
   177
1070
   256
1070
   178
1070
   256
1070
   271
1070
     0
1070
   272
1070
     0
1070
   341
1005
6D
1070
     6
1000
OPEN
1070
     7
1000
OPEN
1070
   371
1070
    -1
1070
   372
1070
    -1
1002
}
  0
DIMENSION
  5
1F2F
330
1A
100
AcDbEntity
  8
SUNPOU
100
AcDbDimension
  2
*D3
 10
413.3022738462248
 20
265.4365878629463
 30
0.0
 11
395.8022738462248
 21
270.4365878629463
 31
0.0
 70
    32
 71
     5
 42
35.0
  3
STANDARD
100
AcDbAlignedDimension
 13
378.3022738462248
 23
204.2214601828578
 33
0.0
 14
413.3022738462248
 24
204.2214601828578
 34
0.0
100
AcDbRotatedDimension
1001
ACAD
1000
DSTYLE
1002
{
1070
    41
1040
7.0
1070
    42
1040
6.0
1070
    43
1040
14.0
1070
    44
1040
3.0
1070
    73
1070
     0
1070
    74
1070
     0
1070
    77
1070
     3
1070
   140
1040
6.0
1070
   141
1040
150.0
1070
   147
1040
2.0
1070
   172
1070
     1
1070
   173
1070
     1
1070
   176
1070
   256
1070
   177
1070
   256
1070
   178
1070
   256
1070
   271
1070
     0
1070
   272
1070
     0
1070
   341
1005
6D
1070
     6
1000
OPEN
1070
     7
1000
OPEN
1070
   371
1070
    -1
1070
   372
1070
    -1
1002
}
  0
TEXT
  5
1F3C
330
1A
100
AcDbEntity
  8
SUNPOU
 48
5.0
100
AcDbText
 10
377.9689771116393
 20
276.8667610473974
 30
0.0
 40
6.0
  1
スライド巾
100
AcDbText
  0
DIMENSION
  5
1F3D
330
1A
100
AcDbEntity
  8
SUNPOU
100
AcDbDimension
  2
*D4
 10
378.3022738462248
 20
252.2309489731346
 30
0.0
 11
328.8022738462246
 21
257.2309489731346
 31
0.0
 70
    32
 71
     5
 42
99.00000000000046
  3
STANDARD
100
AcDbAlignedDimension
 13
279.3022738462244
 23
182.1283053477579
 33
0.0
 14
378.3022738462248
 24
210.2214601828578
 34
0.0
100
AcDbRotatedDimension
1001
ACAD
1000
DSTYLE
1002
{
1070
    41
1040
7.0
1070
    42
1040
6.0
1070
    43
1040
14.0
1070
    44
1040
3.0
1070
    73
1070
     0
1070
    74
1070
     0
1070
    77
1070
     3
1070
   140
1040
6.0
1070
   141
1040
150.0
1070
   147
1040
2.0
1070
   172
1070
     1
1070
   173
1070
     1
1070
   176
1070
   256
1070
   177
1070
   256
1070
   178
1070
   256
1070
   271
1070
     0
1070
   272
1070
     0
1070
   341
1005
6D
1070
     6
1000
OPEN
1070
     7
1000
OPEN
1070
   371
1070
    -1
1070
   372
1070
    -1
1002
}
  0
DIMENSION
  5
1F67
330
1A
100
AcDbEntity
  8
SUNPOU
100
AcDbDimension
  2
*D5
 10
367.9455951790731
 20
240.5740062861918
 30
0.0
 11
348.4455951790731
 21
245.5740062861918
 31
0.0
 70
    32
 71
     5
 42
10.35667866715176
  3
STANDARD
100
AcDbAlignedDimension
 13
378.3022738462248
 23
204.2214601828578
 33
0.0
 14
367.9455951790731
 24
186.6283053477579
 34
0.0
100
AcDbRotatedDimension
1001
ACAD
1000
DSTYLE
1002
{
1070
    41
1040
7.0
1070
    42
1040
6.0
1070
    43
1040
14.0
1070
    44
1040
3.0
1070
    73
1070
     0
1070
    74
1070
     0
1070
    77
1070
     3
1070
   140
1040
6.0
1070
   141
1040
150.0
1070
   147
1040
2.0
1070
   172
1070
     1
1070
   173
1070
     1
1070
   176
1070
   256
1070
   177
1070
   256
1070
   178
1070
   256
1070
   271
1070
     0
1070
   272
1070
     0
1070
   341
1005
6D
1070
     6
1000
OPEN
1070
     7
1000
OPEN
1070
   371
1070
    -1
1070
   372
1070
    -1
1002
}
  0
ARC
  5
2210
330
1A
100
AcDbEntity
  8
SEIHIN
 48
5.0
100
AcDbCircle
 10
579.1459258434874
 20
239.8449981382858
 30
0.0
 40
3.500000000000031
100
AcDbArc
 50
291.197976948169
 51
21.19797694815507
  0
LINE
  5
2211
330
1A
100
AcDbEntity
  8
SEIHIN
 48
5.0
100
AcDbLine
 10
576.063544036409
 20
238.1132586640715
 30
0.0
 11
579.3267216687444
 21
239.378829853683
 31
0.0
  0
LWPOLYLINE
  5
2212
330
1A
100
AcDbEntity
  8
SEIHIN
 48
5.0
100
AcDbPolyline
 90
       13
 70
   128
 43
0.0
 10
592.5285694626858
 20
235.7599277657524
 10
593.7144858739274
 20
236.3118995503162
 10
594.8180594370554
 20
237.0144227458221
 10
595.8204082431903
 20
237.8554755621288
 10
596.7043806939239
 20
238.820671289576
 10
597.4548498934288
 20
239.8934934205196
 10
598.058978454708
 20
241.0555864507985
 10
598.506425798663
 20
242.2870661781156
 10
598.7895420503197
 20
243.5668594073814
 10
598.9034767736025
 20
244.8730726425343
 10
598.8462830698013
 20
246.1833521277619
 10
598.6189388367436
 20
247.4752823414119
 10
598.225335251333
 20
248.7267556746847
  0
LINE
  5
2213
330
1A
100
AcDbEntity
  8
SEIHIN
 48
5.0
100
AcDbLine
 10
532.05227793086
 20
238.2053865130849
 30
0.0
 11
546.9696630952788
 21
243.9908522588929
 31
0.0
  0
LINE
  5
2214
330
1A
100
AcDbEntity
  8
SEIHIN
 48
5.0
100
AcDbLine
 10
546.9696630952788
 20
243.9908522588929
 30
0.0
 11
552.7551294589437
 21
229.0734672665087
 31
0.0
  0
LINE
  5
2215
330
1A
100
AcDbEntity
  8
SEIHIN
 48
5.0
100
AcDbLine
 10
555.3429857508667
 20
227.9319787161061
 30
0.0
 11
548.1111530561766
 21
246.5787092864767
 31
0.0
  0
ARC
  5
2217
330
1A
100
AcDbEntity
  8
SEIHIN
 48
5.0
100
AcDbCircle
 10
527.9450891376216
 20
248.7954604352029
 30
0.0
 40
3.750000000000018
100
AcDbArc
 50
138.4703123460105
 51
83.92564155029454
  0
LINE
  5
2218
330
1A
100
AcDbEntity
  8
SEIHIN
 48
5.0
100
AcDbLine
 10
518.3526323612397
 20
250.021699380926
 30
0.0
 11
529.2324282409643
 21
221.9689731917804
 31
0.0
  0
LINE
  5
221A
330
1A
100
AcDbEntity
  8
SEIHIN
 48
5.0
100
AcDbLine
 10
584.1106874240429
 20
261.6131203000213
 30
0.0
 11
530.9675029793169
 21
241.002396220702
 31
0.0
  0
LINE
  5
221B
330
1A
100
AcDbEntity
  8
SEIHIN
 48
5.0
100
AcDbLine
 10
570.278077672744
 20
253.0306436564556
 30
0.0
 11
576.063544036409
 21
238.1132586640715
 31
0.0
  0
LINE
  5
221C
330
1A
100
AcDbEntity
  8
SEIHIN
 48
5.0
100
AcDbLine
 10
574.9220534402216
 20
235.5254032745335
 30
0.0
 11
567.6902207455314
 21
254.172133844904
 31
0.0
  0
LINE
  5
2224
330
1A
100
AcDbEntity
  8
SEIHIN
 48
5.0
100
AcDbLine
 10
592.5285694626858
 20
235.7599277657524
 30
0.0
 11
542.1823934196444
 21
216.2339781314916
 31
0.0
  0
LINE
  5
2225
330
1A
100
AcDbEntity
  8
SEIHIN
 48
5.0
100
AcDbLine
 10
574.9220534402216
 20
235.5254032745335
 30
0.0
 11
555.3429857508667
 21
227.9319787161061
 31
0.0
  0
LINE
  5
2226
330
1A
100
AcDbEntity
  8
SEIHIN
 48
5.0
100
AcDbLine
 10
550.5767264057047
 20
225.0108873296059
 30
0.0
 11
580.4114966202876
 21
236.5818201460659
 31
0.0
  0
ARC
  5
2227
330
1A
100
AcDbEntity
  8
SEIHIN
 48
5.0
100
AcDbCircle
 10
538.9792341764726
 20
225.8758578452336
 30
0.0
 40
7.000000000000004
100
AcDbArc
 50
21.19797694815507
 51
111.197976948169
  0
CIRCLE
  5
2229
330
1A
100
AcDbEntity
  8
SEIHIN
 48
5.0
100
AcDbCircle
 10
538.7147687295455
 20
226.5577618856358
 30
0.0
 40
2.600000000000014
  0
ARC
  5
222A
330
1A
100
AcDbEntity
  8
SEIHIN
 48
5.0
100
AcDbCircle
 10
538.9792341764726
 20
225.8758578452336
 30
0.0
 40
10.00000000000001
100
AcDbArc
 50
21.19797694815507
 51
111.197976948169
  0
LWPOLYLINE
  5
222B
330
1A
100
AcDbEntity
  8
SEIHIN
 48
5.0
100
AcDbPolyline
 90
       13
 70
   128
 43
0.0
 10
542.1823934196444
 20
216.2339781314916
 10
540.9344235367191
 20
215.8420065040513
 10
539.6457547659502
 20
215.6167372236264
 10
538.3384371477314
 20
215.5620232942061
 10
537.0348374306069
 20
215.6788045574764
 10
535.7572631310749
 20
215.9650828368189
 10
534.5275709004327
 20
216.4159581493766
 10
533.3668042150437
 20
217.0237180908805
 10
532.294821136994
 20
217.7779579744733
 10
531.3299654225915
 20
218.6657797962614
 10
530.4887468874617
 20
219.6719879384052
 10
529.7855570219718
 20
220.7793691240495
 10
529.2324282409643
 20
221.9689731917804
  0
ARC
  5
222C
330
1A
100
AcDbEntity
  8
SEIHIN
 48
5.0
100
AcDbCircle
 10
532.2330737561172
 20
237.739218228482
 30
0.0
 40
3.500000000000012
100
AcDbArc
 50
111.197976948169
 51
201.1979769481551
  0
ARC
  5
222D
330
1A
100
AcDbEntity
  8
SEIHIN
 48
5.0
100
AcDbCircle
 10
532.2330737561172
 20
237.7392182284821
 30
0.0
 40
0.500000000000015
100
AcDbArc
 50
111.197976948169
 51
201.1979769481551
  0
ARC
  5
222F
330
1A
100
AcDbEntity
  8
SEIHIN
 48
5.0
100
AcDbCircle
 10
533.3178487076604
 20
234.9422085208648
 30
0.0
 40
3.500000000000012
100
AcDbArc
 50
201.1979769481551
 51
291.197976948169
  0
LINE
  5
2230
330
1A
100
AcDbEntity
  8
SEIHIN
 48
5.0
100
AcDbLine
 10
535.3633176713288
 20
235.1992235372908
 30
0.0
 11
533.4986445329174
 21
234.476040236262
 31
0.0
  0
ARC
  5
2232
330
1A
100
AcDbEntity
  8
SEIHIN
 48
5.0
100
AcDbCircle
 10
533.3178487076604
 20
234.9422085208648
 30
0.0
 40
0.5000000000000267
100
AcDbArc
 50
201.1979769481551
 51
291.197976948169
  0
LINE
  5
2234
330
1A
100
AcDbEntity
  8
SEIHIN
 48
5.0
100
AcDbLine
 10
530.0546707154401
 20
233.6766377440646
 30
0.0
 11
528.9698957638973
 21
236.4736474516818
 31
0.0
  0
LINE
  5
2235
330
1A
100
AcDbEntity
  8
SEIHIN
 48
5.0
100
AcDbLine
 10
532.8516804230574
 20
234.7614126956077
 30
0.0
 11
531.7669054715142
 21
237.5584224032249
 31
0.0
  0
LINE
  5
2236
330
1A
100
AcDbEntity
  8
SEIHIN
 48
5.0
100
AcDbLine
 10
536.448092622872
 20
232.4022138296735
 30
0.0
 11
534.5834194844605
 21
231.6790305286448
 31
0.0
  0
LINE
  5
223A
330
1A
100
AcDbEntity
  8
SEIHIN
 48
5.0
100
AcDbLine
 10
546.0479776366841
 20
227.0084945450256
 30
0.0
 11
545.5055901609128
 21
228.4069993988342
 31
0.0
  0
ARC
  5
223C
330
1A
100
AcDbEntity
  8
SEIHIN
 48
5.0
100
AcDbCircle
 10
549.3111556289042
 20
228.2740653218258
 30
0.0
 40
3.5
100
AcDbArc
 50
201.1979769481551
 51
291.197976948169
  0
LINE
  5
2244
330
1A
100
AcDbEntity
  8
SEIHIN
 48
5.0
100
AcDbLine
 10
552.7551294589437
 20
229.0734672665087
 30
0.0
 11
549.4919514541615
 21
227.807897037223
 31
0.0
  0
ARC
  5
2245
330
1A
100
AcDbEntity
  8
SEIHIN
 48
5.0
100
AcDbCircle
 10
549.3111556289042
 20
228.2740653218258
 30
0.0
 40
0.4999999999999955
100
AcDbArc
 50
201.1979769481551
 51
291.197976948169
  0
LINE
  5
2246
330
1A
100
AcDbEntity
  8
SEIHIN
 48
5.0
100
AcDbLine
 10
548.8449873443013
 20
228.0932694965687
 30
0.0
 11
548.3025998685297
 21
229.4917743503773
 31
0.0
  0
LINE
  5
2248
330
1A
100
AcDbEntity
  8
SEIHIN
 48
5.0
100
AcDbLine
 10
552.7551294589437
 20
229.0734672665087
 30
0.0
 11
555.3429857508667
 21
227.9319787161061
 31
0.0
  0
LINE
  5
2249
330
1A
100
AcDbEntity
  8
SEIHIN
 48
5.0
100
AcDbLine
 10
576.063544036409
 20
238.1132586640715
 30
0.0
 11
574.9220534402216
 21
235.5254032745335
 31
0.0
  0
LWPOLYLINE
  5
2252
330
1A
100
AcDbEntity
  8
SEIHIN
 48
5.0
100
AcDbPolyline
 90
       13
 70
   128
 43
0.0
 10
518.3526323612397
 20
250.021699380926
 10
517.9590289490901
 20
251.273172267459
 10
517.7316849903618
 20
252.565101773771
 10
517.6744910555465
 20
253.8753818546516
 10
517.7884260964738
 20
255.1815942707816
 10
518.0715417128407
 20
256.4613891380934
 10
518.5189896054551
 20
257.6928674507342
 10
519.1231183616528
 20
258.8549599784309
 10
519.8735877127609
 20
259.9277817184773
 10
520.7575600804737
 20
260.8929776599874
 10
521.7599082549286
 20
261.7340321050328
 10
522.8634821250981
 20
262.4365545088553
 10
524.0493992183287
 20
262.9885245349628
  0
LINE
  5
2253
330
1A
100
AcDbEntity
  8
SEIHIN
100
AcDbLine
 10
518.164903068168
 20
250.5057464036659
 30
0.0
 11
518.3526323612397
 21
250.021699380926
 31
0.0
  0
LINE
  5
225B
330
1A
100
AcDbEntity
  8
SEIHIN
 48
5.0
100
AcDbLine
 10
574.3955752613701
 20
282.5144741692236
 30
0.0
 11
563.4229526559094
 21
278.2589200598746
 31
0.0
  0
LINE
  5
225C
330
1A
100
AcDbEntity
  8
SEIHIN
 48
5.0
100
AcDbLine
 10
548.1111530561766
 20
246.5787092864767
 30
0.0
 11
567.6902207455314
 21
254.172133844904
 31
0.0
  0
LINE
  5
2261
330
1A
100
AcDbEntity
  8
SEIHIN
 48
5.0
100
AcDbLine
 10
560.488877767964
 20
277.1209865962449
 30
0.0
 11
537.9560967117345
 21
268.3820121079416
 31
0.0
  0
LINE
  5
2268
330
1A
100
AcDbEntity
  8
SEIHIN
 48
5.0
100
AcDbLine
 10
524.0493992183287
 20
262.9885245349628
 30
0.0
 11
535.0220218237892
 21
267.2440786443119
 31
0.0
  0
ARC
  5
226B
330
1A
100
AcDbEntity
  8
SEIHIN
 48
5.0
100
AcDbCircle
 10
526.0342982791757
 20
253.7222893343187
 30
0.0
 40
2.6
100
AcDbArc
 50
332.5661332939059
 51
249.8298206024288
  0
LWPOLYLINE
  5
2283
330
1A
100
AcDbEntity
  8
SEIHIN
 48
5.0
100
AcDbPolyline
 90
        3
 70
   128
 43
0.0
 10
535.0220218237892
 20
267.2440786443119
 10
536.4688439620894
 20
267.865167716474
 10
537.9560967117345
 20
268.3820121079416
  0
LINE
  5
2285
330
1A
100
AcDbEntity
  8
SEIHIN
 48
5.0
100
AcDbLine
 10
548.1111530561766
 20
246.5787092864767
 30
0.0
 11
546.9696630952788
 21
243.9908522588929
 31
0.0
  0
LWPOLYLINE
  5
229F
330
1A
100
AcDbEntity
  8
SEIHIN
 48
5.0
100
AcDbPolyline
 90
        3
 70
   128
 43
0.0
 10
563.4229526559094
 20
278.2589200598746
 10
561.9357007745701
 20
277.7420760051655
 10
560.488877767964
 20
277.1209865962449
  0
LINE
  5
22B7
330
1A
100
AcDbEntity
  8
SEIHIN
 48
5.0
100
AcDbLine
 10
587.3455393716087
 20
276.7794818638303
 30
0.0
 11
598.225335251333
 21
248.7267556746847
 31
0.0
  0
ARC
  5
22B8
330
1A
100
AcDbEntity
  8
SEIHIN
 48
5.0
100
AcDbCircle
 10
581.0882735823478
 20
269.4061845145223
 30
0.0
 40
3.75000000000003
100
AcDbArc
 50
138.4703123460105
 51
83.92564155029454
  0
ARC
  5
22B9
330
1A
100
AcDbEntity
  8
SEIHIN
 48
5.0
100
AcDbCircle
 10
586.4610331523865
 20
255.5529326001841
 30
0.0
 40
3.499999999999993
100
AcDbArc
 50
291.197976948169
 51
21.19797694815507
  0
CIRCLE
  5
22BB
330
1A
100
AcDbEntity
  8
SEIHIN
 48
5.0
100
AcDbCircle
 10
588.1286068974487
 20
245.7221193628976
 30
0.0
 40
2.599999999999983
  0
ARC
  5
22BE
330
1A
100
AcDbEntity
  8
SEIHIN
 48
5.0
100
AcDbCircle
 10
588.3930723443757
 20
245.0402153224954
 30
0.0
 40
10.00000000000001
100
AcDbArc
 50
111.197976948169
 51
201.1979769481551
  0
LINE
  5
22BF
330
1A
100
AcDbEntity
  8
SEIHIN
 48
5.0
100
AcDbLine
 10
585.1954623755861
 20
258.8161105924042
 30
0.0
 11
570.278077672744
 21
253.0306436564556
 31
0.0
  0
LINE
  5
22C0
330
1A
100
AcDbEntity
  8
SEIHIN
 48
5.0
100
AcDbLine
 10
567.6902207455314
 20
254.172133844904
 30
0.0
 11
570.278077672744
 21
253.0306436564556
 31
0.0
  0
ARC
  5
22C1
330
1A
100
AcDbEntity
  8
SEIHIN
 48
5.0
100
AcDbCircle
 10
588.3930723443757
 20
245.0402153224954
 30
0.0
 40
7.000000000000012
100
AcDbArc
 50
111.197976948169
 51
201.1979769481551
  0
LINE
  5
22C2
330
1A
100
AcDbEntity
  8
SEIHIN
 48
5.0
100
AcDbLine
 10
582.4091038357074
 20
241.1105689150862
 30
0.0
 11
581.8667163599358
 21
242.5090737688947
 31
0.0
  0
LINE
  5
22C4
330
1A
100
AcDbEntity
  8
SEIHIN
 48
5.0
100
AcDbLine
 10
579.6120941280904
 20
240.025793963543
 30
0.0
 11
579.0697066523185
 21
241.4242988173517
 31
0.0
  0
ARC
  5
22C6
330
1A
100
AcDbEntity
  8
SEIHIN
 48
5.0
100
AcDbCircle
 10
579.1459258434874
 20
239.8449981382858
 30
0.0
 40
0.5000000000000345
100
AcDbArc
 50
291.197976948169
 51
21.19797694815507
  0
LINE
  5
22C7
330
1A
100
AcDbEntity
  8
SEIHIN
 48
5.0
100
AcDbLine
 10
585.8619307907751
 20
251.5665713069353
 30
0.0
 11
587.7266039291867
 21
252.2897546079641
 31
0.0
  0
ARC
  5
22CC
330
1A
100
AcDbEntity
  8
SEIHIN
 48
5.0
100
AcDbCircle
 10
585.3762582008432
 20
258.3499423078014
 30
0.0
 40
3.500000000000023
100
AcDbArc
 50
21.19797694815507
 51
111.197976948169
  0
LINE
  5
22CE
330
1A
100
AcDbEntity
  8
SEIHIN
 48
5.0
100
AcDbLine
 10
586.9272014369893
 20
255.7337284254413
 30
0.0
 11
585.8424264854461
 21
258.5307381330586
 31
0.0
  0
ARC
  5
22CF
330
1A
100
AcDbEntity
  8
SEIHIN
 48
5.0
100
AcDbCircle
 10
585.3762582008432
 20
258.3499423078014
 30
0.0
 40
0.5000000000000267
100
AcDbArc
 50
21.19797694815507
 51
111.197976948169
  0
LINE
  5
22D0
330
1A
100
AcDbEntity
  8
SEIHIN
 48
5.0
100
AcDbLine
 10
584.7771558392319
 20
254.3635810145526
 30
0.0
 11
586.6418289776434
 21
255.0867643155813
 31
0.0
  0
ARC
  5
22D2
330
1A
100
AcDbEntity
  8
SEIHIN
 48
5.0
100
AcDbCircle
 10
586.4610331523865
 20
255.5529326001841
 30
0.0
 40
0.5000000000000033
100
AcDbArc
 50
291.197976948169
 51
21.19797694815507
  0
LINE
  5
22D3
330
1A
100
AcDbEntity
  8
SEIHIN
 48
5.0
100
AcDbLine
 10
589.7242111446063
 20
256.8185033769845
 30
0.0
 11
588.6394361930632
 21
259.6155130846016
 31
0.0
  0
ARC
  5
22D6
330
1A
100
AcDbEntity
  8
SEIHIN
 48
5.0
100
AcDbCircle
 10
579.1774827239018
 20
274.333013413638
 30
0.0
 40
2.600000000000038
100
AcDbArc
 50
332.5661332938982
 51
249.8298206024288
  0
LWPOLYLINE
  5
22D8
330
1A
100
AcDbEntity
  8
SEIHIN
 48
5.0
100
AcDbPolyline
 90
       13
 70
   128
 43
0.0
 10
587.3455393716087
 20
276.7794818638303
 10
586.7924107638615
 20
277.9690854848214
 10
586.0892211727015
 20
279.0764659631277
 10
585.248002406557
 20
280.0826747009245
 10
584.2831470097995
 20
280.9704957036897
 10
583.2111632964603
 20
281.7247372253283
 10
582.0503971597307
 20
282.3324957521563
 10
580.8207051240067
 20
282.7833705621316
 10
579.5431309760779
 20
283.0696484505768
 10
578.2395311759326
 20
283.18642992791
 10
576.9322129260338
 20
283.1317176272285
 10
575.6435444623064
 20
282.9064475551202
 10
574.3955752613701
 20
282.5144741692236
  0
LINE
  5
22DC
330
1A
100
AcDbEntity
  8
SEIHIN
100
AcDbLine
 10
587.1578091893914
 20
277.2635285417295
 30
0.0
 11
587.3455393716087
 21
276.7794818638303
 31
0.0
  0
LINE
  5
2311
330
1A
100
AcDbEntity
  8
CENTER L
  6
CENTER
 62
     1
 48
5.0
100
AcDbLine
 10
573.9638319301358
 20
209.0770671945176
 30
0.0
 11
545.4352999182489
 21
282.4982210924011
 31
0.0
  0
LINE
  5
2314
330
1A
100
AcDbEntity
  8
CENTER L
  6
CENTER
 62
     1
 48
5.0
100
AcDbLine
 10
530.323046497522
 20
255.3856109266848
 30
0.0
 11
521.7455500608294
 21
252.0589677419525
 31
0.0
  0
LINE
  5
2315
330
1A
100
AcDbEntity
  8
CENTER L
  6
CENTER
 62
     1
 48
5.0
100
AcDbLine
 10
533.3060244105546
 20
250.8746124256606
 30
0.0
 11
522.5841538646888
 21
246.7163084447453
 31
0.0
  0
LINE
  5
2316
330
1A
100
AcDbEntity
  8
CENTER L
  6
CENTER
 62
     1
 48
5.0
100
AcDbLine
 10
543.003516947892
 20
228.221083478002
 30
0.0
 11
534.4260205111993
 21
224.8944402932697
 31
0.0
  0
LINE
  5
2317
330
1A
100
AcDbEntity
  8
CENTER L
  6
CENTER
 62
     1
 48
5.0
100
AcDbLine
 10
537.0514471371794
 20
230.8465101039821
 30
0.0
 11
540.3780903219117
 21
222.2690136672894
 31
0.0
  0
LINE
  5
2318
330
1A
100
AcDbEntity
  8
CENTER L
  6
CENTER
 62
     1
 48
5.0
100
AcDbLine
 10
530.0242411280793
 20
243.4345251622701
 30
0.0
 11
524.3709766868096
 21
258.011037552665
 31
0.0
  0
LINE
  5
231D
330
1A
100
AcDbEntity
  8
CENTER L
  6
CENTER
 62
     1
 48
5.0
100
AcDbLine
 10
583.1674255728054
 20
264.0452492415894
 30
0.0
 11
577.5141611315356
 21
278.6217616319843
 31
0.0
  0
LINE
  5
231E
330
1A
100
AcDbEntity
  8
CENTER L
  6
CENTER
 62
     1
 48
5.0
100
AcDbLine
 10
583.4662309422481
 20
275.9963350060041
 30
0.0
 11
574.8887345055555
 21
272.6696918212718
 31
0.0
  0
LINE
  5
231F
330
1A
100
AcDbEntity
  8
CENTER L
  6
CENTER
 62
     1
 48
5.0
100
AcDbLine
 10
586.4492088552807
 20
271.48533650498
 30
0.0
 11
575.7273383094149
 21
267.3270325240646
 31
0.0
  0
LINE
  5
2320
330
1A
100
AcDbEntity
  8
CENTER L
  6
CENTER
 62
     1
 48
5.0
100
AcDbLine
 10
586.4652853050825
 20
250.0108675812439
 30
0.0
 11
589.7919284898147
 21
241.4333711445512
 31
0.0
  0
LINE
  5
2321
330
1A
100
AcDbEntity
  8
CENTER L
  6
CENTER
 62
     1
 48
5.0
100
AcDbLine
 10
592.4173551157951
 20
247.3854409552638
 30
0.0
 11
583.8398586791025
 21
244.0587977705315
 31
0.0
  0
LINE
  5
2322
330
1A
100
AcDbEntity
  8
SUNPOU
100
AcDbLine
 10
508.0941735447185
 20
256.8005484582924
 30
0.0
 11
487.2653950766239
 21
248.7224437981986
 31
0.0
  0
LINE
  5
2327
330
1A
100
AcDbEntity
  8
SUNPOU
100
AcDbLine
 10
526.2271677460343
 20
210.0460020548212
 30
0.0
 11
504.8943005327757
 21
201.7723947325022
 31
0.0
  0
DIMENSION
  5
232A
330
1A
100
AcDbEntity
  8
SUNPOU
100
AcDbDimension
  2
*D6
 10
490.6487983383141
 20
239.998595820084
 30
0.0
 11
493.6187795534978
 21
246.1684780617133
 31
0.0
 70
    33
 71
     5
 42
9.356972863937955
  3
STANDARD
100
AcDbAlignedDimension
 13
508.0941735447185
 23
256.8005484582924
 33
0.0
 14
511.477576806408
 24
248.0767004801775
 34
0.0
1001
ACAD
1000
DSTYLE
1002
{
1070
    41
1040
7.0
1070
    42
1040
6.0
1070
    43
1040
14.0
1070
    44
1040
3.0
1070
    73
1070
     0
1070
    74
1070
     0
1070
    77
1070
     3
1070
   140
1040
6.0
1070
   141
1040
150.0
1070
   147
1040
2.0
1070
   172
1070
     1
1070
   173
1070
     1
1070
   176
1070
   256
1070
   177
1070
   256
1070
   178
1070
   256
1070
   271
1070
     0
1070
   272
1070
     0
1070
   341
1005
6D
1070
     6
1000
OPEN
1070
     7
1000
OPEN
1070
   371
1070
    -1
1070
   372
1070
    -1
1002
}
  0
DIMENSION
  5
2355
330
1A
100
AcDbEntity
  8
SUNPOU
100
AcDbDimension
  2
*D7
 10
501.4645956502716
 20
212.1108850703716
 30
0.0
 11
496.8349338152239
 21
225.1871312416131
 31
0.0
 70
   160
 71
     5
 42
29.91163456504782
  3
STANDARD
100
AcDbAlignedDimension
 13
518.1094369963544
 23
250.6487601325262
 33
0.0
 14
528.9252343083128
 24
222.7610493828143
 34
0.0
 50
111.1979769481636
100
AcDbRotatedDimension
1001
ACAD
1000
DSTYLE
1002
{
1070
   287
1070
     4
1070
   287
1070
     4
1070
   287
1070
     4
1070
   279
1070
     1
1070
    41
1040
7.0
1070
    42
1040
6.0
1070
    43
1040
14.0
1070
    44
1040
3.0
1070
    73
1070
     0
1070
    74
1070
     0
1070
    77
1070
     3
1070
   140
1040
6.0
1070
   141
1040
150.0
1070
   147
1040
2.0
1070
   172
1070
     1
1070
   173
1070
     1
1070
   176
1070
   256
1070
   177
1070
   256
1070
   178
1070
   256
1070
   271
1070
     0
1070
   272
1070
     0
1070
   341
1005
6D
1070
     6
1000
OPEN
1070
     7
1000
OPEN
1070
   371
1070
    -1
1070
   372
1070
    -1
1002
}
  0
DIMENSION
  5
2362
330
1A
100
AcDbEntity
  8
SUNPOU
100
AcDbDimension
  2
*D8
 10
505.3983892779395
 20
201.9678973947273
 30
0.0
 11
508.0931753101342
 21
208.8473494851213
 31
0.0
 70
    32
 71
     5
 42
10.87910526161744
  3
STANDARD
100
AcDbAlignedDimension
 13
528.9252343083128
 23
222.7610493828143
 33
0.0
 14
526.2271677460343
 24
210.0460020548212
 34
0.0
 50
111.1979769481636
100
AcDbRotatedDimension
1001
ACAD
1000
DSTYLE
1002
{
1070
   287
1070
     4
1070
   287
1070
     4
1070
   287
1070
     4
1070
   279
1070
     1
1070
    41
1040
7.0
1070
    42
1040
6.0
1070
    43
1040
14.0
1070
    44
1040
3.0
1070
    73
1070
     0
1070
    74
1070
     0
1070
    77
1070
     3
1070
   140
1040
6.0
1070
   141
1040
150.0
1070
   147
1040
2.0
1070
   172
1070
     1
1070
   173
1070
     1
1070
   176
1070
   256
1070
   177
1070
   256
1070
   178
1070
   256
1070
   271
1070
     0
1070
   272
1070
     0
1070
   341
1005
6D
1070
     6
1000
OPEN
1070
     7
1000
OPEN
1070
   371
1070
    -1
1070
   372
1070
    -1
1002
}
  0
LEADER
  5
2383
330
1A
100
AcDbEntity
  8
SUNPOU
  6
Continuous
 62
     4
100
AcDbLeader
  3
STANDARD
 74
     0
 40
6.0
 41
31.2
 76
     3
 10
586.5981051193694
 20
265.8948973740494
 30
0.0
 10
608.9209445540198
 20
245.7835949359693
 30
0.0
 10
623.7390495504903
 20
245.7835949359693
 30
0.0
1001
ACAD
1000
DSTYLE
1002
{
1070
     6
1000
OPEN
1070
    41
1040
7.0
1070
    42
1040
6.0
1070
    43
1040
14.0
1070
    44
1040
3.0
1070
    73
1070
     0
1070
    74
1070
     0
1070
    77
1070
     3
1070
   140
1040
6.0
1070
   141
1040
150.0
1070
   147
1040
2.0
1070
   172
1070
     1
1070
   173
1070
     1
1070
   176
1070
     4
1070
   177
1070
     4
1070
   178
1070
     4
1070
   271
1070
     0
1070
   272
1070
     2
1070
   341
1005
6D
1070
   343
1005
6D
1070
   344
1005
6D
1002
}
  0
MTEXT
  5
2384
330
1A
100
AcDbEntity
  8
SUNPOU
  6
Continuous
 62
     4
100
AcDbMText
 10
619.351829557509
 20
247.7835949359693
 30
0.0
 40
6.0
 41
0.0
 71
     7
 72
     5
  1
2-φ6.5
 73
     1
 44
1.0
  0
LEADER
  5
2385
330
1A
100
AcDbEntity
  8
SUNPOU
  6
Continuous
 62
     4
100
AcDbLeader
  3
STANDARD
 40
6.0
 41
31.2
 76
     3
 10
523.8070433147993
 20
254.6940469073708
 30
0.0
 10
486.3645271137018
 20
282.0407955406466
 30
0.0
 10
484.5796383446057
 20
282.0407955406466
 30
0.0
1001
ACAD
1000
DSTYLE
1002
{
1070
     6
1000
OPEN
1070
    41
1040
7.0
1070
    42
1040
6.0
1070
    43
1040
14.0
1070
    44
1040
3.0
1070
    73
1070
     0
1070
    74
1070
     0
1070
    77
1070
     3
1070
   140
1040
6.0
1070
   141
1040
150.0
1070
   147
1040
2.0
1070
   172
1070
     1
1070
   173
1070
     1
1070
   176
1070
     4
1070
   177
1070
     4
1070
   178
1070
     4
1070
   271
1070
     0
1070
   272
1070
     2
1070
   341
1005
6D
1070
   343
1005
6D
1070
   344
1005
6D
1002
}
  0
MTEXT
  5
2386
330
1A
100
AcDbEntity
  8
SUNPOU
  6
Continuous
 62
     4
100
AcDbMText
 10
482.5796383446057
 20
284.0407955406466
 30
0.0
 40
6.0
 41
0.0
 71
     9
 72
     5
  1
4-φ4.2
 73
     1
 44
1.0
  0
DIMENSION
  5
2387
330
1A
100
AcDbEntity
  8
SUNPOU
100
AcDbDimension
  2
*D9
 10
603.8778732217596
 20
293.948706325896
 30
0.0
 11
611.186653127856
 21
288.9313261398525
 31
0.0
 70
    33
 71
     5
 42
14.64136163709614
  3
STANDARD
100
AcDbAlignedDimension
 13
586.4492088552807
 23
271.48533650498
 33
0.0
 14
581.1550147351454
 24
285.1360133822104
 34
0.0
1001
ACAD
1000
DSTYLE
1002
{
1070
    41
1040
7.0
1070
    42
1040
6.0
1070
    43
1040
14.0
1070
    44
1040
3.0
1070
    73
1070
     0
1070
    74
1070
     0
1070
    77
1070
     3
1070
   140
1040
6.0
1070
   141
1040
150.0
1070
   147
1040
2.0
1070
   172
1070
     1
1070
   173
1070
     1
1070
   176
1070
   256
1070
   177
1070
   256
1070
   178
1070
   256
1070
   271
1070
     0
1070
   272
1070
     0
1070
   341
1005
6D
1070
     6
1000
OPEN
1070
     7
1000
OPEN
1070
   371
1070
    -1
1070
   372
1070
    -1
1002
}
  0
DIMENSION
  5
2396
330
1A
100
AcDbEntity
  8
SUNPOU
100
AcDbDimension
  2
*D10
 10
567.918433793432
 20
303.3636147492077
 30
0.0
 11
539.538883318497
 21
297.7199355555766
 31
0.0
 70
    33
 71
     5
 42
56.99999999999989
  3
STANDARD
100
AcDbAlignedDimension
 13
524.3709766868096
 23
258.011037552665
 33
0.0
 14
577.5141611315356
 24
278.6217616319843
 34
0.0
1001
ACAD
1000
DSTYLE
1002
{
1070
    41
1040
7.0
1070
    42
1040
6.0
1070
    43
1040
14.0
1070
    44
1040
3.0
1070
    73
1070
     0
1070
    74
1070
     0
1070
    77
1070
     3
1070
   140
1040
6.0
1070
   141
1040
150.0
1070
   147
1040
2.0
1070
   172
1070
     1
1070
   173
1070
     1
1070
   176
1070
   256
1070
   177
1070
   256
1070
   178
1070
   256
1070
   271
1070
     0
1070
   272
1070
     0
1070
   341
1005
6D
1070
     6
1000
OPEN
1070
     7
1000
OPEN
1070
   371
1070
    -1
1070
   372
1070
    -1
1002
}
  0
DIMENSION
  5
23A3
330
1A
100
AcDbEntity
  8
SUNPOU
100
AcDbDimension
  2
*D11
 10
602.1426547798982
 20
209.5879627671305
 30
0.0
 11
575.6277774433748
 21
204.6674668745285
 31
0.0
 70
    33
 71
     5
 42
52.99999999999977
  3
STANDARD
100
AcDbAlignedDimension
 13
540.3780903219117
 23
222.2690136672894
 33
0.0
 14
589.7919284898148
 24
241.4333711445506
 34
0.0
1001
ACAD
1000
DSTYLE
1002
{
1070
    41
1040
7.0
1070
    42
1040
6.0
1070
    43
1040
14.0
1070
    44
1040
3.0
1070
    73
1070
     0
1070
    74
1070
     0
1070
    77
1070
     3
1070
   140
1040
6.0
1070
   141
1040
150.0
1070
   147
1040
2.0
1070
   172
1070
     1
1070
   173
1070
     1
1070
   176
1070
   256
1070
   177
1070
   256
1070
   178
1070
   256
1070
   271
1070
     0
1070
   272
1070
     0
1070
   341
1005
6D
1070
     6
1000
OPEN
1070
     7
1000
OPEN
1070
   371
1070
    -1
1070
   372
1070
    -1
1002
}
  0
DIMENSION
  5
23B0
330
1A
100
AcDbEntity
  8
SUNPOU
100
AcDbDimension
  2
*D12
 10
570.17269682502
 20
321.0583502520273
 30
0.0
 11
533.908166366163
 21
312.3566091729894
 31
0.0
 70
    33
 71
     5
 42
73.91444966197048
  3
STANDARD
100
AcDbAlignedDimension
 13
517.9590289490901
 23
251.273172267459
 33
0.0
 14
586.8721733616607
 24
278.0000201175919
 34
0.0
1001
ACAD
1000
DSTYLE
1002
{
1070
    41
1040
7.0
1070
    42
1040
6.0
1070
    43
1040
14.0
1070
    44
1040
3.0
1070
    73
1070
     0
1070
    74
1070
     0
1070
    77
1070
     3
1070
   140
1040
6.0
1070
   141
1040
150.0
1070
   147
1040
2.0
1070
   172
1070
     1
1070
   173
1070
     1
1070
   176
1070
   256
1070
   177
1070
   256
1070
   178
1070
   256
1070
   271
1070
     0
1070
   272
1070
     0
1070
   341
1005
6D
1070
     6
1000
OPEN
1070
     7
1000
OPEN
1070
   371
1070
    -1
1070
   372
1070
    -1
1002
}
  0
LINE
  5
257C
330
1A
100
AcDbEntity
  8
SEIHIN
 48
5.0
100
AcDbLine
 10
279.3010674117492
 20
425.6811137324761
 30
0.0
 11
279.3010674117492
 21
395.9858333831512
 31
0.0
  0
LINE
  5
264A
330
1A
100
AcDbEntity
  8
CENTER L
  6
CENTER
 62
     1
 48
5.0
100
AcDbLine
 10
230.0771363301681
 20
410.8335735578136
 30
0.0
 11
412.7723524615455
 21
410.8335735578136
 31
0.0
  0
DIMENSION
  5
26A5
330
1A
100
AcDbEntity
  8
SUNPOU
100
AcDbDimension
  2
*D13
 10
445.0648966096105
 20
373.8762482499914
 30
0.0
 11
440.0648966096104
 21
410.8548609039027
 31
0.0
 70
    32
 71
     5
 42
73.95722530782223
  3
STANDARD
100
AcDbAlignedDimension
 13
393.1566944659134
 23
447.8334735578137
 33
0.0
 14
393.4934616402169
 24
373.8762482499914
 34
0.0
 50
90.0
100
AcDbRotatedDimension
1001
ACAD
1000
DSTYLE
1002
{
1070
    41
1040
7.0
1070
    42
1040
6.0
1070
    43
1040
14.0
1070
    44
1040
3.0
1070
    73
1070
     0
1070
    74
1070
     0
1070
    77
1070
     3
1070
   140
1040
6.0
1070
   141
1040
150.0
1070
   147
1040
2.0
1070
   172
1070
     1
1070
   173
1070
     1
1070
   176
1070
   256
1070
   177
1070
   256
1070
   178
1070
   256
1070
   271
1070
     0
1070
   272
1070
     0
1070
   341
1005
6D
1070
     6
1000
OPEN
1070
     7
1000
OPEN
1070
   371
1070
    -1
1070
   372
1070
    -1
1002
}
  0
LINE
  5
26B3
330
1A
100
AcDbEntity
  8
SEIHIN
100
AcDbLine
 10
244.3068269821245
 20
420.8335735578136
 30
0.0
 11
279.3010674117492
 21
420.8335735578136
 31
0.0
  0
LINE
  5
26B4
330
1A
100
AcDbEntity
  8
SEIHIN
100
AcDbLine
 10
244.3068269821245
 20
400.8335735578136
 30
0.0
 11
279.3010674117492
 21
400.8335735578136
 31
0.0
  0
LINE
  5
26B5
330
1A
100
AcDbEntity
  8
SEIHIN
100
AcDbLine
 10
244.3068269821245
 20
400.8335735578137
 30
0.0
 11
244.3068269821245
 21
420.8335735578136
 31
0.0
  0
LINE
  5
26B6
330
1A
100
AcDbEntity
  8
SEIHIN
100
AcDbLine
 10
249.1996449342093
 20
400.8335735578137
 30
0.0
 11
249.1996449342093
 21
420.8335735578136
 31
0.0
  0
LINE
  5
26B7
330
1A
100
AcDbEntity
  8
SEIHIN
100
AcDbLine
 10
263.6472470674195
 20
400.8335735578136
 30
0.0
 11
263.6472470674195
 21
420.8335735578136
 31
0.0
  0
DIMENSION
  5
26B8
330
1A
100
AcDbEntity
  8
SUNPOU
100
AcDbDimension
  2
*D14
 10
220.3430883188246
 20
400.8335735578136
 30
0.0
 11
215.3430883188245
 21
410.8335735578137
 31
0.0
 70
    32
 71
     5
 42
19.99999999999994
  3
STANDARD
100
AcDbAlignedDimension
 13
244.3068269821245
 23
420.8335735578136
 33
0.0
 14
244.3068269821245
 24
400.8335735578136
 34
0.0
 50
90.0
100
AcDbRotatedDimension
1001
ACAD
1000
DSTYLE
1002
{
1070
    41
1040
7.0
1070
    42
1040
6.0
1070
    43
1040
14.0
1070
    44
1040
3.0
1070
    73
1070
     0
1070
    74
1070
     0
1070
    77
1070
     3
1070
   140
1040
6.0
1070
   141
1040
150.0
1070
   147
1040
2.0
1070
   172
1070
     1
1070
   173
1070
     1
1070
   176
1070
   256
1070
   177
1070
   256
1070
   178
1070
   256
1070
   271
1070
     0
1070
   272
1070
     0
1070
   341
1005
6D
1070
     6
1000
OPEN
1070
     7
1000
OPEN
1070
   371
1070
    -1
1070
   372
1070
    -1
1002
}
  0
LINE
  5
2B03
330
1A
100
AcDbEntity
  8
SEIHIN
 48
5.0
100
AcDbLine
 10
328.946128462139
 20
393.4114553823229
 30
0.0
 11
349.3237475094238
 21
393.4114553823229
 31
0.0
  0
LINE
  5
2B04
330
1A
100
AcDbEntity
  8
SEIHIN
 48
5.0
100
AcDbLine
 10
328.946128462139
 20
428.2554917333044
 30
0.0
 11
349.3237475094239
 21
428.2554917333044
 31
0.0
  0
LINE
  5
2BEA
330
1A
100
AcDbEntity
  8
SEIHIN
 48
5.0
100
AcDbLine
 10
279.3010674117492
 20
396.0225140756939
 30
0.0
 11
279.3010674117492
 21
425.6444330399334
 31
0.0
  0
LINE
  5
2BEC
330
1A
100
AcDbEntity
  8
SEIHIN
 48
5.0
100
AcDbLine
 10
303.6384968000385
 20
425.3863997489722
 30
0.0
 11
303.6384968000385
 21
396.2805473666551
 31
0.0
  0
LINE
  5
2BEE
330
1A
100
AcDbEntity
  8
SEIHIN
 48
5.0
100
AcDbLine
 10
323.0060383393746
 20
424.7028333779264
 30
0.0
 11
323.0060383393746
 21
396.9641137377008
 31
0.0
  0
LWPOLYLINE
  5
2C1F
330
1A
100
AcDbEntity
  8
SEIHIN
 48
5.0
100
AcDbPolyline
 90
        5
 70
   128
 43
0.0
 10
305.6567991404319
 20
392.651542582719
 10
306.5981812259812
 20
392.6562288658908
 10
307.5058921040403
 20
392.6701200971615
 10
308.347464913613
 20
392.6927194171393
 10
309.0927984098124
 20
392.7232184968748
  0
LINE
  5
2C22
330
1A
100
AcDbEntity
  8
SEIHIN
 48
5.0
100
AcDbLine
 10
283.3010674117492
 20
392.651542582719
 30
0.0
 11
305.6567991404319
 21
392.651542582719
 31
0.0
  0
LINE
  5
2C23
330
1A
100
AcDbEntity
  8
SEIHIN
 48
5.0
100
AcDbLine
 10
279.3010674117492
 20
393.0266254714302
 30
0.0
 11
279.3010674117492
 21
396.0225140756939
 31
0.0
  0
LINE
  5
2C24
330
1A
100
AcDbEntity
  8
SEIHIN
 48
5.0
100
AcDbLine
 10
279.3010674117492
 20
392.8611736998511
 30
0.0
 11
283.3010674117492
 21
392.651542582719
 31
0.0
  0
LINE
  5
2C25
330
1A
100
AcDbEntity
  8
SEIHIN
 48
5.0
100
AcDbLine
 10
279.3010674117492
 20
393.0266254714302
 30
0.0
 11
279.3010674117492
 21
392.8611736998511
 31
0.0
  0
LWPOLYLINE
  5
2C27
330
1A
100
AcDbEntity
  8
SEIHIN
 48
5.0
100
AcDbPolyline
 90
        9
 70
   128
 43
0.0
 10
303.6384968000385
 20
396.2805473666551
 10
303.6911577031007
 20
395.7096401607494
 10
303.8173393496678
 20
395.1596263365662
 10
304.0124238941761
 20
394.6506346447368
 10
304.2692718648963
 20
394.2012925567681
 10
304.578483445814
 20
393.8280445590331
 10
304.9287424798962
 20
393.544550337052
 10
305.3072306043251
 20
393.3611848745958
 10
305.7000963616669
 20
393.2846587623914
  0
LWPOLYLINE
  5
2C2A
330
1A
100
AcDbEntity
  8
SEIHIN
 48
5.0
100
AcDbPolyline
 90
        8
 70
   128
 43
0.0
 10
318.6381306539978
 20
393.1964276398552
 10
319.8755582230045
 20
393.2514411546997
 10
321.2191372604785
 20
393.2991274901098
 10
322.653144070547
 20
393.3389285803418
 10
324.1607966952223
 20
393.3703786394459
 10
325.7244513110371
 20
393.3931096122863
 10
327.3258087119579
 20
393.4068554818343
 10
328.9461284621392
 20
393.4114553823229
  0
LWPOLYLINE
  5
2C2C
330
1A
100
AcDbEntity
  8
SEIHIN
 48
5.0
100
AcDbPolyline
 90
        9
 70
   128
 43
0.0
 10
323.0060383393746
 20
396.9641137377008
 10
323.01331098297
 20
396.3980453069802
 10
323.0297161139343
 20
395.8523141025649
 10
323.0546643426409
 20
395.3465266921477
 10
323.0872593502962
 20
394.8988545766812
 10
323.1263300911195
 20
394.5253813401079
 10
323.1704728646838
 20
394.2395248120025
 10
323.2181017468728
 20
394.0515550031752
 10
323.2675055676176
 20
393.968225133437
  0
LINE
  5
2C2E
330
1A
100
AcDbEntity
  8
SEIHIN
 48
5.0
100
AcDbLine
 10
309.0927984098124
 20
392.7232184968748
 30
0.0
 11
318.6381306539978
 21
393.1964276398552
 31
0.0
  0
LWPOLYLINE
  5
2C31
330
1A
100
AcDbEntity
  8
SEIHIN
 48
5.0
100
AcDbPolyline
 90
        5
 70
   128
 43
0.0
 10
305.6567991404319
 20
429.0154045329085
 10
306.5981812259812
 20
429.0107182497365
 10
307.5058921040403
 20
428.9968270184658
 10
308.347464913613
 20
428.9742276984881
 10
309.0927984098124
 20
428.9437286187526
  0
LINE
  5
2C33
330
1A
100
AcDbEntity
  8
SEIHIN
 48
5.0
100
AcDbLine
 10
279.3010674117492
 20
428.6403216441971
 30
0.0
 11
279.3010674117492
 21
425.6444330399334
 31
0.0
  0
LWPOLYLINE
  5
2C35
330
1A
100
AcDbEntity
  8
SEIHIN
 48
5.0
100
AcDbPolyline
 90
        9
 70
   128
 43
0.0
 10
303.6384968000385
 20
425.3863997489722
 10
303.6911577031007
 20
425.9573069548779
 10
303.8173393496678
 20
426.5073207790611
 10
304.0124238941761
 20
427.0163124708905
 10
304.2692718648963
 20
427.4656545588592
 10
304.578483445814
 20
427.8389025565942
 10
304.9287424798962
 20
428.1223967785753
 10
305.3072306043251
 20
428.3057622410314
 10
305.7000963616669
 20
428.382288353236
  0
LINE
  5
2C3C
330
1A
100
AcDbEntity
  8
SEIHIN
 48
5.0
100
AcDbLine
 10
283.3010674117492
 20
429.0154045329085
 30
0.0
 11
305.6567991404319
 21
429.0154045329084
 31
0.0
  0
LINE
  5
2C3E
330
1A
100
AcDbEntity
  8
SEIHIN
 48
5.0
100
AcDbLine
 10
279.3010674117492
 20
428.8057734157763
 30
0.0
 11
283.3010674117492
 21
429.0154045329085
 31
0.0
  0
LINE
  5
2C3F
330
1A
100
AcDbEntity
  8
SEIHIN
 48
5.0
100
AcDbLine
 10
279.3010674117492
 20
428.6403216441971
 30
0.0
 11
279.3010674117492
 21
428.8057734157763
 31
0.0
  0
LWPOLYLINE
  5
2C42
330
1A
100
AcDbEntity
  8
SEIHIN
 48
5.0
100
AcDbPolyline
 90
        9
 70
   128
 43
0.0
 10
323.0060383393746
 20
424.7028333779264
 10
323.01331098297
 20
425.2689018086469
 10
323.0297161139343
 20
425.8146330130623
 10
323.0546643426409
 20
426.3204204234795
 10
323.0872593502962
 20
426.768092538946
 10
323.1263300911195
 20
427.1415657755193
 10
323.1704728646838
 20
427.4274223036247
 10
323.2181017468728
 20
427.615392112452
 10
323.2675055676176
 20
427.6987219821902
  0
LWPOLYLINE
  5
2C44
330
1A
100
AcDbEntity
  8
SEIHIN
 48
5.0
100
AcDbPolyline
 90
        8
 70
   128
 43
0.0
 10
318.6381306539978
 20
428.4705194757721
 10
319.8755582230045
 20
428.4155059609277
 10
321.2191372604785
 20
428.3678196255175
 10
322.653144070547
 20
428.3280185352854
 10
324.1607966952223
 20
428.2965684761815
 10
325.7244513110371
 20
428.273837503341
 10
327.3258087119579
 20
428.260091633793
 10
328.9461284621392
 20
428.2554917333044
  0
LINE
  5
2C45
330
1A
100
AcDbEntity
  8
SEIHIN
 48
5.0
100
AcDbLine
 10
309.0927984098124
 20
428.9437286187526
 30
0.0
 11
318.6381306539978
 21
428.4705194757721
 31
0.0
  0
LINE
  5
2D25
330
1A
100
AcDbEntity
  8
SEIHIN
 48
5.0
100
AcDbLine
 10
393.7137804804446
 20
421.3334735578138
 30
0.0
 11
393.7137804804446
 21
400.3334735578138
 31
0.0
  0
LINE
  5
2D28
330
1A
100
AcDbEntity
  8
SEIHIN
 48
5.0
100
AcDbLine
 10
378.3010674117492
 20
397.1803672579583
 30
0.0
 11
378.3010674117492
 21
424.4865798576689
 31
0.0
  0
LINE
  5
2D29
330
1A
100
AcDbEntity
  8
SEIHIN
 48
5.0
100
AcDbLine
 10
396.8706012294543
 20
383.8334735578138
 30
0.0
 11
396.8706012294543
 21
437.8334735578138
 31
0.0
  0
LINE
  5
2D2C
330
1A
100
AcDbEntity
  8
SEIHIN
 48
5.0
100
AcDbLine
 10
386.8430529678934
 20
440.3585998236608
 30
0.0
 11
386.8430529678934
 21
381.3083472919666
 31
0.0
  0
LINE
  5
2D2D
330
1A
100
AcDbEntity
  8
SEIHIN
 48
5.0
100
AcDbLine
 10
395.0136478476837
 20
393.8083472919666
 30
0.0
 11
395.0136478476837
 21
427.8585998236608
 31
0.0
  0
LWPOLYLINE
  5
2D42
330
1A
100
AcDbEntity
  8
SEIHIN
 48
5.0
100
AcDbPolyline
 90
       10
 70
   128
 43
0.0
 10
373.3987104838749
 20
376.5013524458843
 10
373.3529105470367
 20
376.5564175949775
 10
372.9808489773324
 20
377.1034452951641
 10
372.6414872810266
 20
377.7874769629795
 10
372.3417338836181
 20
378.5945876862513
 10
372.0876908998604
 20
379.5083470181688
 10
371.8845299123037
 20
380.5101534537985
 10
371.7363866927866
 20
381.5796131030822
 10
371.6462770100485
 20
382.6949548516273
 10
371.6160352373753
 20
383.8334735578136
  0
LINE
  5
2D43
330
1A
100
AcDbEntity
  8
SEIHIN
 48
5.0
100
AcDbLine
 10
373.3987104838749
 20
376.5013524458843
 30
0.0
 11
374.9585513245621
 21
374.668322167902
 31
0.0
  0
LINE
  5
2D45
330
1A
100
AcDbEntity
  8
SEIHIN
 48
5.0
100
AcDbLine
 10
371.6160352373753
 20
383.8334735578136
 30
0.0
 11
371.6160352373753
 21
391.0179363503136
 31
0.0
  0
LWPOLYLINE
  5
2D4B
330
1A
100
AcDbEntity
  8
SEIHIN
 48
5.0
100
AcDbPolyline
 90
        4
 70
   128
 43
0.0
 10
370.3665441479808
 20
393.4114553823229
 10
370.9692015361437
 20
392.8704894647809
 10
371.4365837419654
 20
392.0569934321957
 10
371.6146946697069
 20
391.138097007988
  0
LWPOLYLINE
  5
2D4D
330
1A
100
AcDbEntity
  8
SEIHIN
 48
5.0
100
AcDbPolyline
 90
        3
 70
   128
 43
0.0
 10
371.6146946697069
 20
391.138097007988
 10
371.6157000618479
 20
391.0780580130621
 10
371.6160352373753
 20
391.0179363503136
  0
LWPOLYLINE
  5
2D51
330
1A
100
AcDbEntity
  8
SEIHIN
 48
5.0
100
AcDbPolyline
 90
       13
 70
   128
 43
0.0
 10
378.3010674117492
 20
383.8334735578136
 10
378.3328403989559
 20
382.5282116356131
 10
378.4276157159562
 20
381.2452831067884
 10
378.5837717307994
 20
380.0066392341627
 10
378.7986365707769
 20
378.8334735578135
 10
379.0685338389047
 20
377.7458592677264
 10
379.3888455180958
 20
376.7624057459481
 10
379.7540909867117
 20
375.8999401549012
 10
380.1580207935195
 20
375.1732195199692
 10
380.5937235875343
 20
374.5946782327007
 10
381.0537443731508
 20
374.1742152949229
 10
381.5302120671848
 20
373.9190249440755
 10
382.0149741752902
 20
373.8334735578137
  0
LWPOLYLINE
  5
2D52
330
1A
100
AcDbEntity
  8
SEIHIN
 48
5.0
100
AcDbPolyline
 90
       13
 70
   128
 43
0.0
 10
393.1566944659134
 20
373.8334735578137
 10
393.6414565740187
 20
373.9190249440756
 10
394.1179242680527
 20
374.174215294923
 10
394.5779450536692
 20
374.5946782327009
 10
395.0136478476837
 20
375.1732195199693
 10
395.4175776544918
 20
375.8999401549013
 10
395.7828231231077
 20
376.7624057459482
 10
396.1031348022988
 20
377.7458592677265
 10
396.3730320704266
 20
378.8334735578138
 10
396.5878969104041
 20
380.0066392341628
 10
396.7440529252473
 20
381.2452831067886
 10
396.8388282422474
 20
382.5282116356132
 10
396.8706012294543
 20
383.8334735578138
  0
LWPOLYLINE
  5
2D53
330
1A
100
AcDbEntity
  8
SEIHIN
 48
5.0
100
AcDbPolyline
 90
       27
 70
   128
 43
0.0
 10
394.1223102244338
 20
384.3334735578138
 10
394.0942511854265
 20
383.7112528306661
 10
394.0117047577611
 20
383.1251933104999
 10
393.8794682397694
 20
382.6093546463877
 10
393.705226737217
 20
382.1937155064902
 10
393.4991065328899
 20
381.9024313268316
 10
393.2730865838477
 20
381.7524304851588
 10
393.040302347979
 20
381.7524304851588
 10
392.8142823989366
 20
381.9024313268316
 10
392.6081621946097
 20
382.1937155064902
 10
392.4339206920571
 20
382.6093546463877
 10
392.3016841740654
 20
383.1251933104999
 10
392.2191377464
 20
383.7112528306661
 10
392.1910787073927
 20
384.3334735578138
 10
392.2191377464
 20
384.9556942849614
 10
392.3016841740654
 20
385.5417538051275
 10
392.4339206920571
 20
386.0575924692398
 10
392.6081621946097
 20
386.4732316091373
 10
392.8142823989366
 20
386.7645157887958
 10
393.040302347979
 20
386.9145166304687
 10
393.2730865838477
 20
386.9145166304687
 10
393.4991065328899
 20
386.7645157887958
 10
393.705226737217
 20
386.4732316091373
 10
393.8794682397694
 20
386.0575924692398
 10
394.0117047577611
 20
385.5417538051275
 10
394.0942511854265
 20
384.9556942849613
 10
394.1223102244338
 20
384.3334735578138
  0
LWPOLYLINE
  5
2D54
330
1A
100
AcDbEntity
  8
SEIHIN
 48
5.0
100
AcDbPolyline
 90
       27
 70
   128
 43
0.0
 10
383.2550161104658
 20
380.6263865674142
 10
383.0997233658994
 20
379.9815458053778
 10
382.8988685000064
 20
379.4354917661481
 10
382.6608879088204
 20
379.0111600560397
 10
382.3957773597157
 20
378.7263736455846
 10
382.11467214471
 20
378.5930942611408
 10
381.8293793709414
 20
378.6169199631051
 10
381.5518820332667
 20
378.7968500136728
 10
381.2938356991443
 20
379.1253269102754
 10
381.0660789462708
 20
379.5885538191881
 10
380.8781781157844
 20
380.1670740763191
 10
380.738025502522
 20
380.8365884147289
 10
380.6515078593151
 20
381.5689755933226
 10
380.6222591389623
 20
382.3334735578137
 10
380.6515078593151
 20
383.0979715223047
 10
380.738025502522
 20
383.8303587008984
 10
380.8781781157844
 20
384.4998730393082
 10
381.0660789462708
 20
385.0783932964392
 10
381.2938356991443
 20
385.5416202053519
 10
381.5518820332667
 20
385.8700971019545
 10
381.8293793709414
 20
386.0500271525222
 10
382.11467214471
 20
386.0738528544864
 10
382.3957773597157
 20
385.9405734700426
 10
382.6608879088204
 20
385.6557870595875
 10
382.8988685000064
 20
385.2314553494792
 10
383.0997233658994
 20
384.6854013102494
 10
383.2550161104658
 20
384.040560548213
  0
LWPOLYLINE
  5
2D55
330
1A
100
AcDbEntity
  8
SEIHIN
 48
5.0
100
AcDbPolyline
 90
       21
 70
   128
 43
0.0
 10
383.2550161104658
 20
384.040560548213
 10
383.4285940712181
 20
384.4615770871707
 10
383.6346440198864
 20
384.7580264043273
 10
383.8611049503667
 20
384.9125560225439
 10
384.0947211123784
 20
384.9161206463442
 10
384.3218179285956
 20
384.7685116226821
 10
384.5291024275604
 20
384.4783691543188
 10
384.7044413395312
 20
384.0626765509063
 10
384.837571309913
 20
383.5457661214772
 10
384.9206996583588
 20
382.9578948978096
 10
384.9489605184875
 20
382.3334735578137
 10
384.9206996583588
 20
381.7090522178177
 10
384.837571309913
 20
381.12118099415
 10
384.7044413395312
 20
380.6042705647211
 10
384.5291024275601
 20
380.1885779613085
 10
384.3218179285956
 20
379.8984354929451
 10
384.0947211123784
 20
379.750826469283
 10
383.8611049503667
 20
379.7543910930833
 10
383.6346440198864
 20
379.9089207112999
 10
383.4285940712181
 20
380.2053700284566
 10
383.2550161104658
 20
380.6263865674142
  0
LINE
  5
2D56
330
1A
100
AcDbEntity
  8
SEIHIN
 48
5.0
100
AcDbLine
 10
390.5569597314346
 20
381.3083472919666
 30
0.0
 11
390.5569597314346
 21
386.3837260895079
 31
0.0
  0
LINE
  5
2D57
330
1A
100
AcDbEntity
  8
SEIHIN
 48
5.0
100
AcDbLine
 10
382.0149741752902
 20
373.8334735578137
 30
0.0
 11
393.1566944659134
 21
373.8334735578137
 31
0.0
  0
LINE
  5
2D58
330
1A
100
AcDbEntity
  8
SEIHIN
 48
5.0
100
AcDbLine
 10
382.0149741752902
 20
373.8334735578137
 30
0.0
 11
376.4441140299786
 21
373.8334735578137
 31
0.0
  0
LINE
  5
2D59
330
1A
100
AcDbEntity
  8
SEIHIN
 48
5.0
100
AcDbLine
 10
383.2550161104658
 20
380.6263865674142
 30
0.0
 11
380.7455403570649
 21
380.9329852035664
 31
0.0
  0
LINE
  5
2D5B
330
1A
100
AcDbEntity
  8
SEIHIN
 48
5.0
100
AcDbLine
 10
387.7621979979116
 20
378.8334735578137
 30
0.0
 11
389.6378147014165
 21
378.8334735578137
 31
0.0
  0
LWPOLYLINE
  5
2D5D
330
1A
100
AcDbEntity
  8
SEIHIN
 48
5.0
100
AcDbPolyline
 90
        7
 70
   128
 43
0.0
 10
387.7621979979116
 20
378.8334735578137
 10
387.4997129543284
 20
378.9086713438794
 10
387.2731311425981
 20
379.1319798553988
 10
387.089337136414
 20
379.496613976249
 10
386.9539154236496
 20
379.9914944831816
 10
386.8709807245208
 20
380.6015846824152
 10
386.8430529678934
 20
381.3083472919666
  0
LWPOLYLINE
  5
2D5E
330
1A
100
AcDbEntity
  8
SEIHIN
 48
5.0
100
AcDbPolyline
 90
        7
 70
   128
 43
0.0
 10
390.5569597314346
 20
381.3083472919666
 10
390.5290319748073
 20
380.6015846824152
 10
390.4460972756784
 20
379.9914944831816
 10
390.3106755629141
 20
379.496613976249
 10
390.1268815567299
 20
379.1319798553988
 10
389.9002997449996
 20
378.9086713438794
 10
389.6378147014165
 20
378.8334735578137
  0
LINE
  5
2D62
330
1A
100
AcDbEntity
  8
SEIHIN
 48
5.0
100
AcDbLine
 10
386.8430529678934
 20
400.3334735578137
 30
0.0
 11
393.7137804804446
 21
400.3334735578138
 31
0.0
  0
LINE
  5
2D63
330
1A
100
AcDbEntity
  8
SEIHIN
 48
5.0
100
AcDbLine
 10
392.3952497914708
 20
391.3334735578137
 30
0.0
 11
394.0945028176658
 21
391.3334735578138
 31
0.0
  0
LWPOLYLINE
  5
2D64
330
1A
100
AcDbEntity
  8
SEIHIN
 48
5.0
100
AcDbPolyline
 90
        7
 70
   128
 43
0.0
 10
390.1949007159477
 20
394.3334735578137
 10
390.4573857595309
 20
394.4086713438795
 10
390.6839675712612
 20
394.6319798553988
 10
390.8677615774453
 20
394.996613976249
 10
391.0031832902097
 20
395.4914944831816
 10
391.0861179893385
 20
396.1015846824153
 10
391.1140457459659
 20
396.8083472919667
  0
LINE
  5
2D67
330
1A
100
AcDbEntity
  8
SEIHIN
 48
5.0
100
AcDbLine
 10
378.3010674117492
 20
397.1803672579583
 30
0.0
 11
378.3010674117492
 21
383.8334735578136
 31
0.0
  0
LINE
  5
2D6A
330
1A
100
AcDbEntity
  8
SEIHIN
 48
5.0
100
AcDbLine
 10
380.7487995977316
 20
383.7441489914707
 30
0.0
 11
383.2550161104658
 21
384.040560548213
 31
0.0
  0
LWPOLYLINE
  5
2D6F
330
1A
100
AcDbEntity
  8
SEIHIN
 48
5.0
100
AcDbPolyline
 90
       10
 70
   128
 43
0.0
 10
392.3952497914708
 20
391.3334735578137
 10
392.038038444722
 20
391.2665367145169
 10
391.7105174881527
 20
391.0666313906029
 10
391.4171160808438
 20
390.7364609626434
 10
391.1618019735032
 20
390.2804904192745
 10
390.948027851446
 20
389.7048859798851
 10
390.7786846429468
 20
389.0174317070778
 10
390.6560624243947
 20
388.2274242405755
 10
390.5818194509396
 20
387.3455470761178
 10
390.5569597314346
 20
386.3837260895078
  0
LINE
  5
2D71
330
1A
100
AcDbEntity
  8
SEIHIN
 48
5.0
100
AcDbLine
 10
388.4956476897527
 20
394.3334735578137
 30
0.0
 11
390.1949007159477
 21
394.3334735578137
 31
0.0
  0
LWPOLYLINE
  5
2D72
330
1A
100
AcDbEntity
  8
SEIHIN
 48
5.0
100
AcDbPolyline
 90
        8
 70
   128
 43
0.0
 10
386.8430529678934
 20
391.8239158973948
 10
386.8790825412287
 20
392.0174317070779
 10
387.0484257497279
 20
392.7048859798852
 10
387.2621998717854
 20
393.2804904192746
 10
387.5175139791257
 20
393.7364609626435
 10
387.8109153864347
 20
394.0666313906029
 10
388.138436343004
 20
394.2665367145169
 10
388.4956476897527
 20
394.3334735578137
  0
LINE
  5
2D74
330
1A
100
AcDbEntity
  8
SEIHIN
 48
5.0
100
AcDbLine
 10
391.1140457459659
 20
398.3334735578138
 30
0.0
 11
386.8430529678934
 21
398.3334735578137
 31
0.0
  0
LINE
  5
2D75
330
1A
100
AcDbEntity
  8
SEIHIN
 48
5.0
100
AcDbLine
 10
391.1140457459659
 20
396.8083472919666
 30
0.0
 11
391.1140457459659
 21
398.3334735578138
 31
0.0
  0
LWPOLYLINE
  5
2D76
330
1A
100
AcDbEntity
  8
SEIHIN
 48
5.0
100
AcDbPolyline
 90
        7
 70
   128
 43
0.0
 10
395.0136478476837
 20
393.8083472919666
 10
394.9857200910566
 20
393.1015846824152
 10
394.9027853919278
 20
392.4914944831816
 10
394.7673636791634
 20
391.996613976249
 10
394.5835696729793
 20
391.6319798553988
 10
394.3569878612487
 20
391.4086713438795
 10
394.0945028176658
 20
391.3334735578137
  0
LWPOLYLINE
  5
2D85
330
1A
100
AcDbEntity
  8
SEIHIN
 48
5.0
100
AcDbPolyline
 90
       10
 70
   128
 43
0.0
 10
373.3987104838749
 20
445.1655946697429
 10
373.3529105470367
 20
445.1105295206498
 10
372.9808489773324
 20
444.5635018204631
 10
372.6414872810266
 20
443.8794701526477
 10
372.3417338836181
 20
443.0723594293759
 10
372.0876908998604
 20
442.1586000974583
 10
371.8845299123037
 20
441.1567936618287
 10
371.7363866927866
 20
440.087334012545
 10
371.6462770100485
 20
438.9719922639999
 10
371.6160352373753
 20
437.8334735578135
  0
LINE
  5
2D86
330
1A
100
AcDbEntity
  8
SEIHIN
 48
5.0
100
AcDbLine
 10
371.6160352373753
 20
437.8334735578135
 30
0.0
 11
371.6160352373753
 21
430.6490107653136
 31
0.0
  0
LWPOLYLINE
  5
2D8B
330
1A
100
AcDbEntity
  8
SEIHIN
 48
5.0
100
AcDbPolyline
 90
        4
 70
   128
 43
0.0
 10
370.366544147981
 20
428.2554917333044
 10
370.9692015361437
 20
428.7964576508462
 10
371.4365837419654
 20
429.6099536834315
 10
371.6146946697069
 20
430.5288501076392
  0
LWPOLYLINE
  5
2D8D
330
1A
100
AcDbEntity
  8
SEIHIN
 48
5.0
100
AcDbPolyline
 90
        3
 70
   128
 43
0.0
 10
371.6146946697069
 20
430.5288501076392
 10
371.6157000618479
 20
430.5888891025651
 10
371.6160352373753
 20
430.6490107653136
  0
LINE
  5
2D90
330
1A
100
AcDbEntity
  8
SEIHIN
 48
5.0
100
AcDbLine
 10
374.9585513245623
 20
446.9986249477253
 30
0.0
 11
373.3987104838749
 21
445.1655946697429
 31
0.0
  0
LWPOLYLINE
  5
2D94
330
1A
100
AcDbEntity
  8
SEIHIN
 48
5.0
100
AcDbPolyline
 90
        8
 70
   128
 43
0.0
 10
386.8430529678934
 20
429.8430312182326
 10
386.8790825412287
 20
429.6495154085495
 10
387.0484257497279
 20
428.9620611357422
 10
387.2621998717854
 20
428.3864566963528
 10
387.5175139791257
 20
427.9304861529839
 10
387.8109153864347
 20
427.6003157250244
 10
388.138436343004
 20
427.4004104011105
 10
388.4956476897527
 20
427.3334735578138
  0
LINE
  5
2D97
330
1A
100
AcDbEntity
  8
SEIHIN
 48
5.0
100
AcDbLine
 10
378.3010674117492
 20
424.4865798576689
 30
0.0
 11
378.3010674117492
 21
437.8334735578135
 31
0.0
  0
LINE
  5
2D98
330
1A
100
AcDbEntity
  8
SEIHIN
 48
5.0
100
AcDbLine
 10
386.8430529678934
 20
421.3334735578137
 30
0.0
 11
393.7137804804446
 21
421.3334735578138
 31
0.0
  0
LINE
  5
2D9A
330
1A
100
AcDbEntity
  8
SEIHIN
 48
5.0
100
AcDbLine
 10
388.4956476897527
 20
427.3334735578138
 30
0.0
 11
390.1949007159477
 21
427.3334735578138
 31
0.0
  0
LINE
  5
2D9B
330
1A
100
AcDbEntity
  8
SEIHIN
 48
5.0
100
AcDbLine
 10
391.1140457459659
 20
423.3334735578138
 30
0.0
 11
386.8430529678934
 21
423.3334735578137
 31
0.0
  0
LINE
  5
2D9C
330
1A
100
AcDbEntity
  8
SEIHIN
 48
5.0
100
AcDbLine
 10
391.1140457459659
 20
424.8585998236608
 30
0.0
 11
391.1140457459659
 21
423.3334735578138
 31
0.0
  0
LWPOLYLINE
  5
2D9D
330
1A
100
AcDbEntity
  8
SEIHIN
 48
5.0
100
AcDbPolyline
 90
        7
 70
   128
 43
0.0
 10
390.1949007159477
 20
427.3334735578138
 10
390.4573857595309
 20
427.2582757717481
 10
390.6839675712612
 20
427.0349672602286
 10
390.8677615774453
 20
426.6703331393784
 10
391.0031832902097
 20
426.1754526324458
 10
391.0861179893385
 20
425.5653624332121
 10
391.1140457459659
 20
424.8585998236608
  0
LINE
  5
2D9E
330
1A
100
AcDbEntity
  8
SEIHIN
 48
5.0
100
AcDbLine
 10
382.0149741752902
 20
447.8334735578137
 30
0.0
 11
393.1566944659134
 21
447.8334735578137
 31
0.0
  0
LINE
  5
2D9F
330
1A
100
AcDbEntity
  8
SEIHIN
 48
5.0
100
AcDbLine
 10
392.3952497914708
 20
430.3334735578137
 30
0.0
 11
394.0945028176658
 21
430.3334735578138
 31
0.0
  0
LWPOLYLINE
  5
2DA0
330
1A
100
AcDbEntity
  8
SEIHIN
 48
5.0
100
AcDbPolyline
 90
       27
 70
   128
 43
0.0
 10
394.1223102244338
 20
437.3334735578138
 10
394.0942511854265
 20
437.9556942849613
 10
394.0117047577611
 20
438.5417538051275
 10
393.8794682397694
 20
439.0575924692398
 10
393.705226737217
 20
439.4732316091373
 10
393.4991065328899
 20
439.7645157887958
 10
393.2730865838477
 20
439.9145166304687
 10
393.040302347979
 20
439.9145166304687
 10
392.8142823989366
 20
439.7645157887958
 10
392.6081621946097
 20
439.4732316091371
 10
392.4339206920571
 20
439.0575924692398
 10
392.3016841740654
 20
438.5417538051275
 10
392.2191377464
 20
437.9556942849613
 10
392.1910787073927
 20
437.3334735578137
 10
392.2191377464
 20
436.711252830666
 10
392.3016841740654
 20
436.1251933104999
 10
392.4339206920571
 20
435.6093546463877
 10
392.6081621946097
 20
435.1937155064902
 10
392.8142823989366
 20
434.9024313268316
 10
393.040302347979
 20
434.7524304851588
 10
393.2730865838477
 20
434.7524304851588
 10
393.4991065328899
 20
434.9024313268316
 10
393.705226737217
 20
435.1937155064903
 10
393.8794682397694
 20
435.6093546463877
 10
394.0117047577611
 20
436.1251933104999
 10
394.0942511854265
 20
436.7112528306661
 10
394.1223102244338
 20
437.3334735578138
  0
LWPOLYLINE
  5
2DA2
330
1A
100
AcDbEntity
  8
SEIHIN
 48
5.0
100
AcDbPolyline
 90
       13
 70
   128
 43
0.0
 10
378.3010674117492
 20
437.8334735578135
 10
378.3328403989559
 20
439.1387354800141
 10
378.4276157159562
 20
440.4216640088387
 10
378.5837717307994
 20
441.6603078814645
 10
378.7986365707769
 20
442.8334735578135
 10
379.0685338389047
 20
443.9210878479008
 10
379.3888455180958
 20
444.9045413696791
 10
379.7540909867117
 20
445.767006960726
 10
380.1580207935195
 20
446.493727595658
 10
380.5937235875343
 20
447.0722688829265
 10
381.0537443731508
 20
447.4927318207043
 10
381.5302120671848
 20
447.7479221715517
 10
382.0149741752902
 20
447.8334735578137
  0
LINE
  5
2DA3
330
1A
100
AcDbEntity
  8
SEIHIN
 48
5.0
100
AcDbLine
 10
390.5569597314346
 20
440.3585998236608
 30
0.0
 11
390.5569597314346
 21
435.2832210261195
 31
0.0
  0
LWPOLYLINE
  5
2DA4
330
1A
100
AcDbEntity
  8
SEIHIN
 48
5.0
100
AcDbPolyline
 90
       27
 70
   128
 43
0.0
 10
383.2550161104658
 20
441.0405605482131
 10
383.0997233658994
 20
441.6854013102494
 10
382.8988685000064
 20
442.2314553494792
 10
382.6608879088204
 20
442.6557870595875
 10
382.3957773597157
 20
442.9405734700426
 10
382.11467214471
 20
443.0738528544864
 10
381.8293793709414
 20
443.0500271525221
 10
381.5518820332667
 20
442.8700971019544
 10
381.2938356991443
 20
442.5416202053519
 10
381.0660789462708
 20
442.0783932964392
 10
380.8781781157844
 20
441.4998730393081
 10
380.738025502522
 20
440.8303587008983
 10
380.6515078593151
 20
440.0979715223046
 10
380.6222591389623
 20
439.3334735578135
 10
380.6515078593151
 20
438.5689755933226
 10
380.738025502522
 20
437.8365884147289
 10
380.8781781157844
 20
437.1670740763191
 10
381.0660789462708
 20
436.588553819188
 10
381.2938356991443
 20
436.1253269102753
 10
381.5518820332667
 20
435.7968500136727
 10
381.8293793709414
 20
435.6169199631051
 10
382.11467214471
 20
435.5930942611408
 10
382.3957773597157
 20
435.7263736455846
 10
382.6608879088204
 20
436.0111600560397
 10
382.8988685000064
 20
436.4354917661481
 10
383.0997233658994
 20
436.9815458053778
 10
383.2550161104658
 20
437.6263865674142
  0
LWPOLYLINE
  5
2DA5
330
1A
100
AcDbEntity
  8
SEIHIN
 48
5.0
100
AcDbPolyline
 90
       21
 70
   128
 43
0.0
 10
383.2550161104658
 20
437.6263865674142
 10
383.4285940712181
 20
437.2053700284566
 10
383.6346440198864
 20
436.9089207112999
 10
383.8611049503667
 20
436.7543910930833
 10
384.0947211123784
 20
436.750826469283
 10
384.3218179285956
 20
436.8984354929451
 10
384.5291024275604
 20
437.1885779613085
 10
384.7044413395312
 20
437.6042705647211
 10
384.837571309913
 20
438.1211809941499
 10
384.9206996583588
 20
438.7090522178177
 10
384.9489605184875
 20
439.3334735578137
 10
384.9206996583588
 20
439.9578948978096
 10
384.837571309913
 20
440.5457661214774
 10
384.7044413395312
 20
441.0626765509063
 10
384.5291024275601
 20
441.4783691543188
 10
384.3218179285956
 20
441.7685116226822
 10
384.0947211123784
 20
441.9161206463442
 10
383.8611049503667
 20
441.9125560225439
 10
383.6346440198864
 20
441.7580264043273
 10
383.4285940712181
 20
441.4615770871706
 10
383.2550161104658
 20
441.0405605482131
  0
LINE
  5
2DAB
330
1A
100
AcDbEntity
  8
SEIHIN
 48
5.0
100
AcDbLine
 10
380.7487995977316
 20
437.9227981241566
 30
0.0
 11
383.2550161104658
 21
437.6263865674142
 31
0.0
  0
LWPOLYLINE
  5
2DAD
330
1A
100
AcDbEntity
  8
SEIHIN
 48
5.0
100
AcDbPolyline
 90
       10
 70
   128
 43
0.0
 10
392.3952497914708
 20
430.3334735578137
 10
392.038038444722
 20
430.4004104011105
 10
391.7105174881527
 20
430.6003157250245
 10
391.4171160808438
 20
430.9304861529839
 10
391.1618019735032
 20
431.3864566963528
 10
390.948027851446
 20
431.9620611357423
 10
390.7786846429468
 20
432.6495154085496
 10
390.6560624243947
 20
433.4395228750518
 10
390.5818194509396
 20
434.3214000395096
 10
390.5569597314346
 20
435.2832210261196
  0
LINE
  5
2DAF
330
1A
100
AcDbEntity
  8
SEIHIN
 48
5.0
100
AcDbLine
 10
383.2550161104658
 20
441.0405605482131
 30
0.0
 11
380.7455403570649
 21
440.7339619120609
 31
0.0
  0
LINE
  5
2DB0
330
1A
100
AcDbEntity
  8
SEIHIN
 48
5.0
100
AcDbLine
 10
382.0149741752902
 20
447.8334735578137
 30
0.0
 11
376.4441140299786
 21
447.8334735578137
 31
0.0
  0
LINE
  5
2DB2
330
1A
100
AcDbEntity
  8
SEIHIN
 48
5.0
100
AcDbLine
 10
387.7621979979116
 20
442.8334735578137
 30
0.0
 11
389.6378147014165
 21
442.8334735578137
 31
0.0
  0
LWPOLYLINE
  5
2DB4
330
1A
100
AcDbEntity
  8
SEIHIN
 48
5.0
100
AcDbPolyline
 90
        7
 70
   128
 43
0.0
 10
387.7621979979116
 20
442.8334735578137
 10
387.4997129543284
 20
442.758275771748
 10
387.2731311425981
 20
442.5349672602285
 10
387.089337136414
 20
442.1703331393783
 10
386.9539154236496
 20
441.6754526324457
 10
386.8709807245208
 20
441.0653624332121
 10
386.8430529678934
 20
440.3585998236607
  0
LWPOLYLINE
  5
2DB5
330
1A
100
AcDbEntity
  8
SEIHIN
 48
5.0
100
AcDbPolyline
 90
        7
 70
   128
 43
0.0
 10
390.5569597314346
 20
440.3585998236608
 10
390.5290319748073
 20
441.0653624332122
 10
390.4460972756784
 20
441.6754526324458
 10
390.3106755629141
 20
442.1703331393784
 10
390.1268815567299
 20
442.5349672602286
 10
389.9002997449996
 20
442.7582757717481
 10
389.6378147014165
 20
442.8334735578137
  0
LWPOLYLINE
  5
2DB6
330
1A
100
AcDbEntity
  8
SEIHIN
 48
5.0
100
AcDbPolyline
 90
       13
 70
   128
 43
0.0
 10
393.1566944659134
 20
447.8334735578137
 10
393.6414565740187
 20
447.7479221715518
 10
394.1179242680527
 20
447.4927318207044
 10
394.5779450536692
 20
447.0722688829266
 10
395.0136478476837
 20
446.4937275956581
 10
395.4175776544918
 20
445.7670069607261
 10
395.7828231231077
 20
444.9045413696792
 10
396.1031348022988
 20
443.921087847901
 10
396.3730320704266
 20
442.8334735578138
 10
396.5878969104041
 20
441.6603078814646
 10
396.7440529252473
 20
440.421664008839
 10
396.8388282422474
 20
439.1387354800142
 10
396.8706012294543
 20
437.8334735578138
  0
LWPOLYLINE
  5
2DB7
330
1A
100
AcDbEntity
  8
SEIHIN
 48
5.0
100
AcDbPolyline
 90
        7
 70
   128
 43
0.0
 10
395.0136478476837
 20
427.8585998236608
 10
394.9857200910566
 20
428.5653624332122
 10
394.9027853919278
 20
429.1754526324458
 10
394.7673636791634
 20
429.6703331393784
 10
394.5835696729793
 20
430.0349672602286
 10
394.3569878612487
 20
430.2582757717481
 10
394.0945028176658
 20
430.3334735578138
  0
LINE
  5
2DDB
330
1A
100
AcDbEntity
  8
SEIHIN
100
AcDbLine
 10
378.3022738462244
 20
204.2214601828688
 30
0.0
 11
382.0161806097653
 21
194.9366932740163
 31
0.0
  0
LINE
  5
2DDD
330
1A
100
AcDbEntity
  8
SEIHIN
100
AcDbLine
 10
372.7314137009128
 20
201.9931161247442
 30
0.0
 11
378.3022738462244
 21
204.2214601828688
 31
0.0
  0
LINE
  5
2DDF
330
1A
100
AcDbEntity
  8
SEIHIN
100
AcDbLine
 10
374.5883670826834
 20
191.9655678631834
 30
0.0
 11
371.6172416718505
 21
199.3933813902655
 31
0.0
  0
LINE
  5
2DE0
330
1A
100
AcDbEntity
  8
SEIHIN
100
AcDbLine
 10
372.7314137009128
 20
201.9931161247442
 30
0.0
 11
376.4453204644537
 21
192.7083492158916
 31
0.0
  0
LWPOLYLINE
  5
2DE1
330
1A
100
AcDbEntity
  8
SEIHIN
100
AcDbPolyline
 90
        9
 70
   128
 43
0.0
 10
378.483378195062
 20
182.2280400822366
 10
378.4782801658289
 20
182.2407490922481
 10
378.0982665344336
 20
183.0365674419117
 10
377.4021152616001
 20
184.0605308903169
 10
376.5043130597371
 20
184.9731293626621
 10
375.7636867132205
 20
185.5199325238355
 10
374.9223718080632
 20
185.9817464761005
 10
374.2294458342215
 20
186.2579402121389
 10
373.495413053766
 20
186.463197856046
  0
LINE
  5
2DF4
330
1A
100
AcDbEntity
  8
SEIHIN
100
AcDbLine
 10
363.3022738462248
 20
186.6283053477579
 30
0.0
 11
371.9840413588652
 21
186.6283053477579
 31
0.0
  0
LINE
  5
2DF8
330
1A
100
AcDbEntity
  8
SEIHIN
100
AcDbLine
 10
371.6159011041821
 20
199.3902533990391
 30
0.0
 11
371.6172416718505
 21
199.3933813902655
 31
0.0
  0
LINE
  5
2DF9
330
1A
100
AcDbEntity
  8
SEIHIN
100
AcDbLine
 10
371.6172416718505
 20
199.3933813902655
 30
0.0
 11
372.7314137009128
 21
201.9931161247442
 31
0.0
  0
LWPOLYLINE
  5
2DFC
330
1A
100
AcDbEntity
  8
SEIHIN
100
AcDbPolyline
 90
        4
 70
   128
 43
0.0
 10
371.9840413588652
 20
186.6283053477579
 10
372.491385374434
 20
186.6098955713292
 10
372.9960607928888
 20
186.5547630762911
 10
373.495413053766
 20
186.463197856046
  0
LINE
  5
2DFE
330
1A
100
AcDbEntity
  8
SEIHIN
100
AcDbLine
 10
382.0161806097653
 20
194.9366932740163
 30
0.0
 11
393.1579009003885
 21
167.0823925474585
 31
0.0
  0
LINE
  5
2DFF
330
1A
100
AcDbEntity
  8
SEIHIN
100
AcDbLine
 10
376.4453204644537
 20
192.7083492158916
 30
0.0
 11
387.5870407550769
 21
164.8540484893339
 31
0.0
  0
LINE
  5
2E00
330
1A
100
AcDbEntity
  8
SEIHIN
100
AcDbLine
 10
385.7300873733066
 20
164.1112671366257
 30
0.0
 11
374.5883670826834
 21
191.9655678631834
 31
0.0
  0
LINE
  5
2E03
330
1A
100
AcDbEntity
  8
SEIHIN
100
AcDbLine
 10
388.7012127841392
 20
156.6834536095436
 30
0.0
 11
391.3009475186179
 21
155.5692815804813
 31
0.0
  0
LINE
  5
2E04
330
1A
100
AcDbEntity
  8
SEIHIN
100
AcDbLine
 10
396.8718076639295
 20
157.7976256386059
 30
0.0
 11
391.3009475186179
 21
155.5692815804813
 31
0.0
  0
LINE
  5
2E05
330
1A
100
AcDbEntity
  8
SEIHIN
100
AcDbLine
 10
388.7012127841392
 20
156.6834536095436
 30
0.0
 11
385.7300873733066
 21
164.1112671366257
 31
0.0
  0
LINE
  5
2E06
330
1A
100
AcDbEntity
  8
SEIHIN
100
AcDbLine
 10
387.5870407550769
 20
164.8540484893339
 30
0.0
 11
391.3009475186179
 21
155.5692815804813
 31
0.0
  0
LINE
  5
2E07
330
1A
100
AcDbEntity
  8
SEIHIN
100
AcDbLine
 10
393.1579009003885
 20
167.0823925474585
 30
0.0
 11
396.8718076639295
 21
157.7976256386059
 31
0.0
  0
LINE
  5
2E0A
330
1A
100
AcDbEntity
  8
SEIHIN
100
AcDbLine
 10
370.3022738462244
 20
204.2214601828688
 30
0.0
 11
378.3022738462244
 21
204.2214601828688
 31
0.0
  0
LINE
  5
2FFB
330
1A
100
AcDbEntity
  8
SUNPOU
  6
Continuous
100
AcDbLine
 10
399.2453581044588
 20
151.8637495372829
 30
0.0
 11
412.3277241599806
 21
119.1578343984787
 31
0.0
  0
LINE
  5
31A5
330
1A
100
AcDbEntity
  8
CENTER L
  6
CENTER
 62
     1
 48
5.0
100
AcDbLine
 10
388.845198803487
 20
198.7453335129318
 30
0.0
 11
369.5502751570658
 21
191.0273640543632
 31
0.0
  0
LINE
  5
31A6
330
1A
100
AcDbEntity
  8
CENTER L
  6
CENTER
 62
     1
 48
5.0
100
AcDbLine
 10
391.0735428616116
 20
193.1744733676203
 30
0.0
 11
371.7786192151903
 21
185.4565039090517
 31
0.0
  0
LINE
  5
31A7
330
1A
100
AcDbEntity
  8
CENTER L
  6
CENTER
 62
     1
 48
5.0
100
AcDbLine
 10
399.98691909411
 20
170.8910327863741
 30
0.0
 11
380.691995447689
 21
163.1730633278056
 31
0.0
  0
DIMENSION
  5
31AB
330
1A
100
AcDbEntity
  8
SUNPOU
100
AcDbDimension
  2
*D15
 10
443.1016059432726
 20
176.2895449503432
 30
0.0
 11
438.4592224888463
 21
201.3584156042451
 31
0.0
 70
    33
 71
     5
 42
49.99999999999994
  3
STANDARD
100
AcDbAlignedDimension
 13
378.3022738462244
 23
204.2214601828688
 33
0.0
 14
396.8718076639295
 24
157.7976256386059
 34
0.0
1001
ACAD
1000
DSTYLE
1002
{
1070
    41
1040
7.0
1070
    42
1040
6.0
1070
    43
1040
14.0
1070
    44
1040
3.0
1070
    73
1070
     0
1070
    74
1070
     0
1070
    77
1070
     3
1070
   140
1040
6.0
1070
   141
1040
150.0
1070
   147
1040
2.0
1070
   172
1070
     1
1070
   173
1070
     1
1070
   176
1070
   256
1070
   177
1070
   256
1070
   178
1070
   256
1070
   271
1070
     0
1070
   272
1070
     0
1070
   341
1005
6D
1070
     6
1000
OPEN
1070
     7
1000
OPEN
1070
   371
1070
    -1
1070
   372
1070
    -1
1002
}
  0
LINE
  5
31B8
330
1A
100
AcDbEntity
  8
SEIHIN
  6
PHANTOM
 62
     6
 48
2.0
100
AcDbLine
 10
413.3022738462244
 20
204.2214601828688
 30
0.0
 11
417.0161806097653
 21
194.9366932740163
 31
0.0
  0
LINE
  5
31B9
330
1A
100
AcDbEntity
  8
CENTER L
  6
CENTER
 62
     1
 48
5.0
100
AcDbLine
 10
423.845198803487
 20
198.7453335129318
 30
0.0
 11
404.5502751570658
 21
191.0273640543632
 31
0.0
  0
LINE
  5
31BA
330
1A
100
AcDbEntity
  8
SEIHIN
  6
PHANTOM
 62
     6
 48
2.0
100
AcDbLine
 10
407.7314137009128
 20
201.9931161247442
 30
0.0
 11
413.3022738462244
 21
204.2214601828688
 31
0.0
  0
LINE
  5
31BB
330
1A
100
AcDbEntity
  8
SEIHIN
  6
PHANTOM
 62
     6
 48
2.0
100
AcDbLine
 10
406.6172416718505
 20
199.3933813902655
 30
0.0
 11
407.7314137009128
 21
201.9931161247442
 31
0.0
  0
LINE
  5
31BC
330
1A
100
AcDbEntity
  8
SEIHIN
  6
PHANTOM
 62
     6
 48
2.0
100
AcDbLine
 10
406.6159011041821
 20
199.3902533990391
 30
0.0
 11
406.6172416718505
 21
199.3933813902655
 31
0.0
  0
LINE
  5
31BD
330
1A
100
AcDbEntity
  8
SEIHIN
  6
PHANTOM
 62
     6
 48
2.0
100
AcDbLine
 10
409.5883670826834
 20
191.9655678631834
 30
0.0
 11
406.6172416718505
 21
199.3933813902655
 31
0.0
  0
LINE
  5
31BE
330
1A
100
AcDbEntity
  8
SEIHIN
  6
PHANTOM
 62
     6
 48
2.0
100
AcDbLine
 10
407.7314137009128
 20
201.9931161247442
 30
0.0
 11
411.4453204644537
 21
192.7083492158916
 31
0.0
  0
LINE
  5
31BF
330
1A
100
AcDbEntity
  8
SEIHIN
  6
PHANTOM
 62
     6
 48
2.0
100
AcDbLine
 10
405.3022738462244
 20
204.2214601828688
 30
0.0
 11
413.3022738462244
 21
204.2214601828688
 31
0.0
  0
LINE
  5
31C0
330
1A
100
AcDbEntity
  8
SEIHIN
  6
PHANTOM
 62
     6
 48
2.0
100
AcDbLine
 10
405.3022738462248
 20
204.2214601828578
 30
0.0
 11
413.3022738462248
 21
204.2214601828578
 31
0.0
  0
LINE
  5
31C1
330
1A
100
AcDbEntity
  8
CENTER L
  6
CENTER
 62
     1
 48
5.0
100
AcDbLine
 10
426.0735428616116
 20
193.1744733676203
 30
0.0
 11
406.7786192151903
 21
185.4565039090517
 31
0.0
  0
LINE
  5
31C2
330
1A
100
AcDbEntity
  8
SEIHIN
  6
PHANTOM
 62
     6
 48
2.0
100
AcDbLine
 10
417.0161806097653
 20
194.9366932740163
 30
0.0
 11
428.1579009003885
 21
167.0823925474585
 31
0.0
  0
LINE
  5
31C3
330
1A
100
AcDbEntity
  8
SEIHIN
  6
PHANTOM
 62
     6
 48
2.0
100
AcDbLine
 10
411.4453204644537
 20
192.7083492158916
 30
0.0
 11
422.5870407550769
 21
164.8540484893339
 31
0.0
  0
LINE
  5
31C4
330
1A
100
AcDbEntity
  8
SEIHIN
  6
PHANTOM
 62
     6
 48
2.0
100
AcDbLine
 10
420.7300873733066
 20
164.1112671366257
 30
0.0
 11
409.5883670826834
 21
191.9655678631834
 31
0.0
  0
LWPOLYLINE
  5
31C5
330
1A
100
AcDbEntity
  8
SEIHIN
  6
PHANTOM
 62
     6
 48
2.0
100
AcDbPolyline
 90
        9
 70
   128
 43
0.0
 10
413.483378195062
 20
182.2280400822366
 10
413.4782801658289
 20
182.2407490922481
 10
413.0982665344336
 20
183.0365674419117
 10
412.4021152616001
 20
184.0605308903169
 10
411.5043130597371
 20
184.9731293626621
 10
410.7636867132205
 20
185.5199325238355
 10
409.9223718080632
 20
185.9817464761005
 10
409.2294458342215
 20
186.2579402121389
 10
408.495413053766
 20
186.463197856046
  0
LINE
  5
31C6
330
1A
100
AcDbEntity
  8
CENTER L
  6
CENTER
 62
     1
 48
5.0
100
AcDbLine
 10
434.98691909411
 20
170.8910327863741
 30
0.0
 11
415.691995447689
 21
163.1730633278056
 31
0.0
  0
LINE
  5
31C7
330
1A
100
AcDbEntity
  8
SEIHIN
  6
PHANTOM
 62
     6
 48
2.0
100
AcDbLine
 10
422.5870407550769
 20
164.8540484893339
 30
0.0
 11
426.3009475186179
 21
155.5692815804813
 31
0.0
  0
LINE
  5
31C8
330
1A
100
AcDbEntity
  8
SEIHIN
  6
PHANTOM
 62
     6
 48
2.0
100
AcDbLine
 10
423.7012127841392
 20
156.6834536095436
 30
0.0
 11
420.7300873733066
 21
164.1112671366257
 31
0.0
  0
LINE
  5
31C9
330
1A
100
AcDbEntity
  8
SEIHIN
  6
PHANTOM
 62
     6
 48
2.0
100
AcDbLine
 10
428.1579009003885
 20
167.0823925474585
 30
0.0
 11
431.8718076639295
 21
157.7976256386059
 31
0.0
  0
LINE
  5
31CA
330
1A
100
AcDbEntity
  8
SEIHIN
  6
PHANTOM
 62
     6
 48
2.0
100
AcDbLine
 10
431.8718076639295
 20
157.7976256386059
 30
0.0
 11
426.3009475186179
 21
155.5692815804813
 31
0.0
  0
LINE
  5
31CB
330
1A
100
AcDbEntity
  8
SEIHIN
  6
PHANTOM
 62
     6
 48
2.0
100
AcDbLine
 10
423.7012127841392
 20
156.6834536095436
 30
0.0
 11
426.3009475186179
 21
155.5692815804813
 31
0.0
  0
LINE
  5
31CC
330
1A
100
AcDbEntity
  8
SEIHIN
  6
PHANTOM
 62
     6
 48
2.0
100
AcDbLine
 10
405.3022738462248
 20
204.2214601828578
 30
0.0
 11
398.3022738462248
 21
203.6090395381578
 31
0.0
  0
LWPOLYLINE
  5
31CD
330
1A
100
AcDbEntity
  8
SEIHIN
  6
PHANTOM
 62
     6
 48
2.0
100
AcDbPolyline
 90
        4
 70
   128
 43
0.0
 10
406.9840413588652
 20
186.6283053477579
 10
407.491385374434
 20
186.6098955713292
 10
407.9960607928888
 20
186.5547630762911
 10
408.495413053766
 20
186.463197856046
  0
ARC
  5
32AE
330
1A
100
AcDbEntity
  8
SEIHIN
 48
5.0
100
AcDbCircle
 10
289.3010658620284
 20
410.8335735578136
 30
0.0
 40
5.0
100
AcDbArc
 50
0.0
 51
180.0
  0
LINE
  5
32AF
330
1A
100
AcDbEntity
  8
CENTER L
 48
5.0
100
AcDbLine
 10
289.3010658620284
 20
403.8335735578136
 30
0.0
 11
289.3010658620284
 21
417.8335735578136
 31
0.0
  0
ARC
  5
32B0
330
1A
100
AcDbEntity
  8
SEIHIN
 48
5.0
100
AcDbCircle
 10
289.3010658620284
 20
410.8335735578136
 30
0.0
 40
5.0
100
AcDbArc
 50
180.0
 51
0.0
  0
LINE
  5
32BB
330
1A
100
AcDbEntity
  8
SEIHIN
 48
5.0
100
AcDbLine
 10
375.0228634422227
 20
374.5946782327007
 30
0.0
 11
375.4828842278392
 21
374.1742152949229
 31
0.0
  0
LINE
  5
32BC
330
1A
100
AcDbEntity
  8
SEIHIN
 48
5.0
100
AcDbLine
 10
375.4828842278392
 20
374.1742152949229
 30
0.0
 11
375.9593519218732
 21
373.9190249440755
 31
0.0
  0
LINE
  5
32BD
330
1A
100
AcDbEntity
  8
SEIHIN
 48
5.0
100
AcDbLine
 10
375.9593519218732
 20
373.9190249440755
 30
0.0
 11
376.4441140299786
 21
373.8334735578137
 31
0.0
  0
LINE
  5
32BE
330
1A
100
AcDbEntity
  8
SEIHIN
 48
5.0
100
AcDbLine
 10
349.3237475094238
 20
392.3749739142016
 30
0.0
 11
349.3237475094239
 21
429.2921732014256
 31
0.0
  0
LINE
  5
32BF
330
1A
100
AcDbEntity
  8
SEIHIN
 48
5.0
100
AcDbLine
 10
350.823747509424
 20
392.3749739142017
 30
0.0
 11
350.8237475094239
 21
429.2921732014256
 31
0.0
  0
LINE
  5
32C0
330
1A
100
AcDbEntity
  8
SEIHIN
 48
5.0
100
AcDbLine
 10
349.3237475094239
 20
392.3749739142016
 30
0.0
 11
350.8237475094239
 21
392.3749739142016
 31
0.0
  0
LINE
  5
32C1
330
1A
100
AcDbEntity
  8
SEIHIN
 48
5.0
100
AcDbLine
 10
349.3237475094239
 20
429.2921732014256
 30
0.0
 11
350.8237475094239
 21
429.2921732014254
 31
0.0
  0
LINE
  5
32C2
330
1A
100
AcDbEntity
  8
SEIHIN
 48
5.0
100
AcDbLine
 10
355.3130106778244
 20
392.3749739142016
 30
0.0
 11
355.3130106778242
 21
429.2921732014256
 31
0.0
  0
LINE
  5
32C3
330
1A
100
AcDbEntity
  8
SEIHIN
 48
5.0
100
AcDbLine
 10
356.8130106778243
 20
392.3749739142017
 30
0.0
 11
356.8130106778243
 21
429.2921732014256
 31
0.0
  0
LINE
  5
32C4
330
1A
100
AcDbEntity
  8
SEIHIN
 48
5.0
100
AcDbLine
 10
355.3130106778242
 20
392.3749739142016
 30
0.0
 11
356.8130106778243
 21
392.3749739142016
 31
0.0
  0
LINE
  5
32C5
330
1A
100
AcDbEntity
  8
SEIHIN
 48
5.0
100
AcDbLine
 10
355.3130106778242
 20
429.2921732014256
 30
0.0
 11
356.8130106778243
 21
429.2921732014254
 31
0.0
  0
LINE
  5
32C6
330
1A
100
AcDbEntity
  8
SEIHIN
 48
5.0
100
AcDbLine
 10
361.3022738462241
 20
392.3749739142017
 30
0.0
 11
361.3022738462241
 21
429.2921732014254
 31
0.0
  0
LINE
  5
32C7
330
1A
100
AcDbEntity
  8
SEIHIN
 48
5.0
100
AcDbLine
 10
362.8022738462242
 20
392.3749739142016
 30
0.0
 11
362.8022738462241
 21
429.2921732014256
 31
0.0
  0
LINE
  5
32C8
330
1A
100
AcDbEntity
  8
SEIHIN
 48
5.0
100
AcDbLine
 10
361.3022738462241
 20
392.3749739142017
 30
0.0
 11
362.8022738462241
 21
392.3749739142016
 31
0.0
  0
LINE
  5
32C9
330
1A
100
AcDbEntity
  8
SEIHIN
 48
5.0
100
AcDbLine
 10
361.3022738462241
 20
429.2921732014254
 30
0.0
 11
362.8022738462241
 21
429.2921732014256
 31
0.0
  0
LINE
  5
32CA
330
1A
100
AcDbEntity
  8
SEIHIN
 48
5.0
100
AcDbLine
 10
350.8237475094239
 20
428.2554917333044
 30
0.0
 11
355.3130106778241
 21
428.2554917333043
 31
0.0
  0
LINE
  5
32CD
330
1A
100
AcDbEntity
  8
SEIHIN
 48
5.0
100
AcDbLine
 10
356.8130106778243
 20
428.2554917333044
 30
0.0
 11
361.3022738462241
 21
428.2554917333045
 31
0.0
  0
LINE
  5
32D0
330
1A
100
AcDbEntity
  8
SEIHIN
 48
5.0
100
AcDbLine
 10
362.8022738462241
 20
428.2554917333044
 30
0.0
 11
370.366544147981
 21
428.2554917333044
 31
0.0
  0
LINE
  5
32D5
330
1A
100
AcDbEntity
  8
SEIHIN
 48
5.0
100
AcDbLine
 10
362.8022738462242
 20
393.4114553823229
 30
0.0
 11
370.366544147981
 21
393.4114553823229
 31
0.0
  0
LINE
  5
32D8
330
1A
100
AcDbEntity
  8
SEIHIN
 48
5.0
100
AcDbLine
 10
356.8130106778243
 20
393.4114553823229
 30
0.0
 11
361.3022738462241
 21
393.411455382323
 31
0.0
  0
LINE
  5
32D9
330
1A
100
AcDbEntity
  8
SEIHIN
 48
5.0
100
AcDbLine
 10
350.823747509424
 20
393.4114553823229
 30
0.0
 11
355.3130106778243
 21
393.4114553823229
 31
0.0
  0
LINE
  5
32E5
330
1A
100
AcDbEntity
  8
SEIHIN
 48
5.0
100
AcDbLine
 10
375.0228634422227
 20
447.0722688829265
 30
0.0
 11
375.4828842278392
 21
447.4927318207043
 31
0.0
  0
LINE
  5
32E6
330
1A
100
AcDbEntity
  8
SEIHIN
 48
5.0
100
AcDbLine
 10
375.4828842278392
 20
447.4927318207043
 30
0.0
 11
375.9593519218732
 21
447.7479221715517
 31
0.0
  0
LINE
  5
32E7
330
1A
100
AcDbEntity
  8
SEIHIN
 48
5.0
100
AcDbLine
 10
375.9593519218732
 20
447.7479221715517
 30
0.0
 11
376.4441140299786
 21
447.8334735578137
 31
0.0
  0
DIMENSION
  5
33A1
330
1A
100
AcDbEntity
  8
SUNPOU
100
AcDbDimension
  2
*D16
 10
201.5521322351021
 20
393.0266254714302
 30
0.0
 11
196.5521322351021
 21
410.8748365007085
 31
0.0
 70
    32
 71
     5
 42
35.69642205855644
  3
STANDARD
100
AcDbAlignedDimension
 13
279.3010674117492
 23
428.7230475299867
 33
0.0
 14
279.3010674117492
 24
393.0266254714302
 34
0.0
 50
90.0
100
AcDbRotatedDimension
1001
ACAD
1000
DSTYLE
1002
{
1070
    41
1040
7.0
1070
    42
1040
6.0
1070
    43
1040
14.0
1070
    44
1040
3.0
1070
    73
1070
     0
1070
    74
1070
     0
1070
    77
1070
     3
1070
   140
1040
6.0
1070
   141
1040
150.0
1070
   147
1040
2.0
1070
   172
1070
     1
1070
   173
1070
     1
1070
   176
1070
   256
1070
   177
1070
   256
1070
   178
1070
   256
1070
   271
1070
     0
1070
   272
1070
     0
1070
   341
1005
6D
1070
     6
1000
OPEN
1070
     7
1000
OPEN
1070
   371
1070
    -1
1070
   372
1070
    -1
1002
}
  0
LINE
  5
3A1A
330
1A
100
AcDbEntity
  8
CENTER L
  6
CENTER
 62
     1
 48
5.0
100
AcDbLine
 10
371.059340991776
 20
439.3334735578135
 30
0.0
 11
391.4179883283823
 21
439.3334735578135
 31
0.0
  0
LINE
  5
3A1B
330
1A
100
AcDbEntity
  8
CENTER L
  6
CENTER
 62
     1
 48
5.0
100
AcDbLine
 10
385.3839136013667
 20
437.3335735578137
 30
0.0
 11
401.3843746303487
 21
437.3335735578137
 31
0.0
  0
LINE
  5
3A2E
330
1A
100
AcDbEntity
  8
CENTER L
  6
CENTER
 62
     1
 48
5.0
100
AcDbLine
 10
371.059340991776
 20
382.3336735578136
 30
0.0
 11
391.4179883283823
 21
382.3336735578136
 31
0.0
  0
LINE
  5
3A2F
330
1A
100
AcDbEntity
  8
CENTER L
  6
CENTER
 62
     1
 48
5.0
100
AcDbLine
 10
385.3839136013667
 20
384.3335735578134
 30
0.0
 11
401.3843746303487
 21
384.3335735578134
 31
0.0
  0
DIMENSION
  5
3A30
330
1A
100
AcDbEntity
  8
SUNPOU
100
AcDbDimension
  2
*D17
 10
488.8072705714511
 20
195.533300495809
 30
0.0
 11
484.4024563168217
 21
220.7185319501165
 31
0.0
 70
    33
 71
     5
 42
50.14771269060324
  3
STANDARD
100
AcDbAlignedDimension
 13
514.7260337346648
 23
259.372608110641
 33
0.0
 14
532.8590279359808
 24
212.6180617071699
 34
0.0
1001
ACAD
1000
DSTYLE
1002
{
1070
    41
1040
7.0
1070
    42
1040
6.0
1070
    43
1040
14.0
1070
    44
1040
3.0
1070
    73
1070
     0
1070
    74
1070
     0
1070
    77
1070
     3
1070
   140
1040
6.0
1070
   141
1040
150.0
1070
   147
1040
2.0
1070
   172
1070
     1
1070
   173
1070
     1
1070
   176
1070
   256
1070
   177
1070
   256
1070
   178
1070
   256
1070
   271
1070
     0
1070
   272
1070
     0
1070
   341
1005
6D
1070
     6
1000
OPEN
1070
     7
1000
OPEN
1070
   371
1070
    -1
1070
   372
1070
    -1
1002
}
  0
LINE
  5
3EF3
330
1A
100
AcDbEntity
  8
ZUWAKU
100
AcDbLine
 10
208.646601303624
 20
15.19999986828872
 30
0.0
 11
447.4243639845474
 21
15.19999986828871
 31
0.0
  0
LINE
  5
3EF4
330
1A
100
AcDbEntity
  8
ZUWAKU
100
AcDbLine
 10
208.646601303624
 20
15.59999986828872
 30
0.0
 11
447.4243639845474
 21
15.59999986828872
 31
0.0
  0
LINE
  5
3EF5
330
1A
100
AcDbEntity
  8
ZUWAKU
100
AcDbLine
 10
208.646601303624
 20
15.39999986828872
 30
0.0
 11
447.4243639845474
 21
15.39999986828872
 31
0.0
  0
LINE
  5
3EF6
330
1A
100
AcDbEntity
  8
ZUWAKU
100
AcDbLine
 10
0.0000000135560185
 20
30.79999986828869
 30
0.0
 11
797.4000000135559
 21
30.79999986828869
 31
0.0
  0
LINE
  5
3EF7
330
1A
100
AcDbEntity
  8
ZUWAKU
100
AcDbLine
 10
0.0000000135560185
 20
30.59999986828869
 30
0.0
 11
797.4000000135559
 21
30.59999986828869
 31
0.0
  0
LINE
  5
3EF8
330
1A
100
AcDbEntity
  8
ZUWAKU
100
AcDbLine
 10
0.0000000135560185
 20
30.39999986828869
 30
0.0
 11
797.4000000135559
 21
30.39999986828869
 31
0.0
  0
LINE
  5
3EF9
330
1A
100
AcDbEntity
  8
ZUWAKU
100
AcDbLine
 10
0.0000000135560185
 20
30.19999986828869
 30
0.0
 11
797.4000000135559
 21
30.19999986828869
 31
0.0
  0
LINE
  5
3EFA
330
1A
100
AcDbEntity
  8
ZUWAKU
100
AcDbLine
 10
0.0000000135560185
 20
29.99999986828868
 30
0.0
 11
797.4000000135559
 21
29.99999986828868
 31
0.0
  0
LWPOLYLINE
  5
3EFB
330
1A
100
AcDbEntity
  8
ZUWAKU
100
AcDbPolyline
 90
        4
 70
     1
 43
0.0
 10
0.2000000135559503
 20
551.3999998682888
 10
0.2000000135559503
 20
0.1999998682887281
 10
797.4000000135559
 20
0.1999998682887512
 10
797.4000000135561
 20
551.3999998682888
  0
LWPOLYLINE
  5
3EFC
330
1A
100
AcDbEntity
  8
ZUWAKU
100
AcDbPolyline
 90
        4
 70
     1
 43
0.0
 10
0.6000000135559276
 20
550.9999998682888
 10
0.6000000135559276
 20
0.5999998682887053
 10
797.0000000135563
 20
0.5999998682887515
 10
797.000000013556
 20
550.9999998682888
  0
LWPOLYLINE
  5
3EFD
330
1A
100
AcDbEntity
  8
ZUWAKU
100
AcDbPolyline
 90
        4
 70
     1
 43
0.0
 10
0.0000000135560185
 20
551.5999998682887
 10
0.0000000135560185
 20
-0.0000001317113174
 10
797.6000000135562
 20
-0.0000001317112499
 10
797.6000000135562
 20
551.5999998682888
  0
LWPOLYLINE
  5
3EFE
330
1A
100
AcDbEntity
  8
ZUWAKU
100
AcDbPolyline
 90
        4
 70
     1
 43
0.0
 10
0.4000000135559958
 20
551.1999998682887
 10
0.4000000135559958
 20
0.3999998682887735
 10
797.2000000135561
 20
0.3999998682887505
 10
797.2000000135561
 20
551.1999998682887
  0
LWPOLYLINE
  5
3EFF
330
1A
100
AcDbEntity
  8
ZUWAKU
100
AcDbPolyline
 90
        4
 70
     1
 43
0.0
 10
0.8000000135559731
 20
550.7999998682888
 10
0.8000000135559731
 20
0.7999998682887508
 10
796.800000013556
 20
0.7999998682887508
 10
796.800000013556
 20
550.7999998682888
  0
TEXT
  5
3F00
330
1A
100
AcDbEntity
  8
moji
100
AcDbText
 10
92.95778960172515
 20
12.74117799856344
 30
0.0
 40
6.0
  1
アーバントップΣ９０
 41
0.9
  7
ｽﾀｲﾙ1
100
AcDbText
  0
HATCH
  5
3F01
330
1A
100
AcDbEntity
  8
ZUWAKU
100
AcDbHatch
 10
0.0
 20
0.0
 30
0.0
210
0.0
220
0.0
230
1.0
  2
ANSI37
 70
     0
 71
     0
 91
        8
 92
        7
 72
     1
 73
     1
 93
       24
 10
14.50226267467588
 20
17.64484834927227
 42
-0.1989123673796348
 10
14.09221216833714
 20
18.63479784293332
 42
0.0
 10
14.09221216833714
 20
19.92499986828869
 42
-0.4142135623730912
 10
14.61721216833712
 20
20.44999986828869
 42
0.0
 10
17.59221216833703
 20
20.44999986828869
 42
0.4142135623731546
 10
18.11721216833712
 20
20.97499986828868
 42
0.0
 10
18.11721216833712
 20
22.72499986828869
 42
0.4142135623731586
 10
17.59221216833703
 20
23.24999986828869
 42
0.0
 10
14.09221216833714
 20
23.24999986828869
 42
0.4142135623730928
 10
11.29221216833719
 20
20.44999986828871
 42
0.0
 10
11.29221216833719
 20
18.63479784293345
 42
0.1989123673796619
 10
12.52236368735362
 20
15.66494936194984
 42
0.0
 10
15.43216166199829
 20
12.75515138730518
 42
-0.1989123673796613
 10
15.84221216833714
 20
11.76520189364399
 42
0.0
 10
15.84221216833714
 20
10.47499986828868
 42
-0.4142135623730911
 10
15.31721216833716
 20
9.949999868288685
 42
0.0
 10
12.34221216833726
 20
9.949999868288685
 42
0.4142135623731526
 10
11.81721216833716
 20
9.424999868288698
 42
0.0
 10
11.81721216833716
 20
7.674999868288676
 42
0.4142135623731526
 10
12.34221216833726
 20
7.149999868288688
 42
0.0
 10
15.84221216833714
 20
7.149999868288688
 42
0.4142135623731044
 10
18.64221216833721
 20
9.949999868288664
 42
0.0
 10
18.64221216833721
 20
11.76520189364394
 42
0.1989123673796604
 10
17.41206064932067
 20
14.73505037462748
 42
0.0
 97
        0
 92
        7
 72
     1
 73
     1
 93
       16
 10
23.54221216833719
 20
19.04999986828869
 42
-0.4142135623730935
 10
24.94221216833716
 20
20.44999986828869
 42
0.0
 10
26.86721216833712
 20
20.44999986828869
 42
0.4142135623731546
 10
27.39221216833721
 20
20.97499986828868
 42
0.0
 10
27.39221216833721
 20
22.72499986828869
 42
0.4142135623730952
 10
26.86721216833723
 20
23.24999986828869
 42
0.0
 10
24.94221216833705
 20
23.24999986828865
 42
0.4142135623730892
 10
20.74221216833712
 20
19.04999986828862
 42
0.0
 10
20.74221216833712
 20
11.34999986828871
 42
0.4142135623730969
 10
24.94221216833716
 20
7.149999868288688
 42
0.0
 10
26.86721216833712
 20
7.149999868288688
 42
0.4142135623731526
 10
27.39221216833721
 20
7.674999868288676
 42
0.0
 10
27.39221216833721
 20
9.424999868288698
 42
0.414213562373089
 10
26.86721216833723
 20
9.949999868288685
 42
0.0
 10
24.94221216833716
 20
9.949999868288685
 42
-0.4142135623730928
 10
23.54221216833719
 20
11.34999986828867
 42
0.0
 97
        0
 92
        7
 72
     1
 73
     1
 93
        2
 10
24.24221216833712
 20
15.19999986828869
 42
1.0
 10
27.74221216833712
 20
15.19999986828869
 42
1.0
 97
        0
 92
        7
 72
     1
 73
     1
 93
       26
 10
37.31485865051513
 20
19.20504706185211
 42
0.0
 10
38.37649828365295
 20
22.5669059001217
 42
0.5069206636600134
 10
37.87586738445759
 20
23.24999986828869
 42
0.0
 10
36.17697800484837
 20
23.24999986828869
 42
0.3272098845218764
 10
35.67634710565301
 20
22.88309383645566
 42
0.0
 10
33.80807723102123
 20
16.96690590012177
 42
-0.3272098845219541
 10
33.30744633182576
 20
16.59999986828868
 42
0.0
 10
33.1672121683373
 20
16.59999986828868
 42
-0.4142135623731526
 10
32.64221216833721
 20
17.12499986828867
 42
0.0
 10
32.64221216833721
 20
22.72499986828869
 42
0.4142135623730952
 10
32.11721216833723
 20
23.24999986828869
 42
0.0
 10
30.36721216833712
 20
23.24999986828869
 42
0.4142135623730872
 10
29.84221216833714
 20
22.72499986828871
 42
0.0
 10
29.84221216833714
 20
7.674999868288676
 42
0.414213562373089
 10
30.36721216833712
 20
7.149999868288688
 42
0.0
 10
32.11721216833712
 20
7.149999868288688
 42
0.4142135623731526
 10
32.64221216833721
 20
7.674999868288676
 42
0.0
 10
32.64221216833721
 20
13.2749998682887
 42
-0.4142135623731526
 10
33.1672121683373
 20
13.79999986828869
 42
0.0
 10
33.30744633182587
 20
13.79999986828869
 42
-0.3272098845218915
 10
33.80807723102123
 20
13.43309383645561
 42
0.0
 10
35.67634710565301
 20
7.51690590012176
 42
0.3272098845218902
 10
36.17697800484837
 20
7.149999868288688
 42
0.0
 10
37.87586738445759
 20
7.149999868288688
 42
0.5069206636600334
 10
38.37649828365295
 20
7.833093836455696
 42
0.0
 10
36.05010690517929
 20
15.19999986828882
 42
0.0
 97
        0
 92
        7
 72
     1
 73
     1
 93
        8
 10
43.49221216833712
 20
22.7249998682887
 42
0.4142135623731546
 10
42.96721216833703
 20
23.24999986828869
 42
0.0
 10
41.21721216833726
 20
23.24999986828869
 42
0.4142135623731506
 10
40.69221216833716
 20
22.72499986828871
 42
0.0
 10
40.69221216833716
 20
7.674999868288676
 42
0.4142135623731526
 10
41.21721216833726
 20
7.149999868288688
 42
0.0
 10
42.96721216833703
 20
7.149999868288688
 42
0.4142135623731526
 10
43.49221216833712
 20
7.674999868288676
 42
0.0
 97
        0
 92
        7
 72
     1
 73
     1
 93
       24
 10
48.39221216833721
 20
19.92499986828869
 42
-0.4142135623731547
 10
48.9172121683373
 20
20.44999986828869
 42
0.0
 10
51.89221216833721
 20
20.44999986828869
 42
0.4142135623730911
 10
52.41721216833719
 20
20.97499986828868
 42
0.0
 10
52.41721216833719
 20
22.72499986828869
 42
0.4142135623730952
 10
51.89221216833721
 20
23.24999986828869
 42
0.0
 10
48.39221216833721
 20
23.24999986828869
 42
0.4142135623731048
 10
45.59221216833714
 20
20.44999986828871
 42
0.0
 10
45.59221216833714
 20
18.63479784293345
 42
0.1989123673796613
 10
46.82236368735369
 20
15.66494936194989
 42
0.0
 10
49.73216166199836
 20
12.75515138730523
 42
-0.1989123673796402
 10
50.14221216833721
 20
11.76520189364415
 42
0.0
 10
50.14221216833721
 20
10.47499986828868
 42
-0.4142135623730911
 10
49.61721216833723
 20
9.949999868288685
 42
0.0
 10
46.64221216833721
 20
9.949999868288685
 42
0.4142135623731526
 10
46.11721216833712
 20
9.424999868288698
 42
0.0
 10
46.11721216833712
 20
7.674999868288676
 42
0.414213562373089
 10
46.6422121683371
 20
7.149999868288688
 42
0.0
 10
50.14221216833721
 20
7.149999868288688
 42
0.4142135623730925
 10
52.94221216833716
 20
9.949999868288664
 42
0.0
 10
52.94221216833716
 20
11.76520189364394
 42
0.1989123673796675
 10
51.71206064932062
 20
14.73505037462759
 42
0.0
 10
48.80226267467606
 20
17.64484834927211
 42
-0.1989123673796653
 10
48.39221216833721
 20
18.63479784293327
 42
0.0
 97
        0
 92
        7
 72
     1
 73
     1
 93
       16
 10
57.84221216833714
 20
22.72499986828868
 42
0.414213562373103
 10
57.31721216833716
 20
23.24999986828869
 42
0.0
 10
55.56721216833716
 20
23.24999986828869
 42
0.4142135623730872
 10
55.04221216833719
 20
22.72499986828871
 42
0.0
 10
55.04221216833719
 20
9.949999868288664
 42
0.4142135623730925
 10
57.84221216833714
 20
7.149999868288688
 42
0.0
 10
61.34221216833714
 20
7.149999868288688
 42
0.4142135623731044
 10
64.14221216833721
 20
9.949999868288664
 42
0.0
 10
64.14221216833721
 20
22.72499986828869
 42
0.4142135623730952
 10
63.61721216833723
 20
23.24999986828869
 42
0.0
 10
61.86721216833712
 20
23.24999986828869
 42
0.4142135623730872
 10
61.34221216833714
 20
22.72499986828871
 42
0.0
 10
61.34221216833714
 20
10.99999986828866
 42
-0.414213562373088
 10
60.29221216833719
 20
9.949999868288685
 42
0.0
 10
58.89221216833721
 20
9.949999868288685
 42
-0.4142135623731197
 10
57.84221216833714
 20
10.99999986828866
 42
0.0
 97
        0
 92
        7
 72
     1
 73
     1
 93
        8
 10
69.04221216833719
 20
22.72499986828871
 42
0.4142135623730872
 10
68.51721216833721
 20
23.24999986828869
 42
0.0
 10
66.76721216833721
 20
23.24999986828869
 42
0.4142135623731506
 10
66.24221216833712
 20
22.72499986828871
 42
0.0
 10
66.24221216833712
 20
7.674999868288676
 42
0.414213562373089
 10
66.7672121683371
 20
7.149999868288688
 42
0.0
 10
68.51721216833721
 20
7.149999868288688
 42
0.414213562373089
 10
69.04221216833719
 20
7.674999868288676
 42
0.0
 97
        0
 75
     0
 76
     1
 52
0.0
 41
0.2
 77
     0
 78
     2
 53
45.0
 43
-900.942304321123
 44
-13.20000013171125
 45
-0.4490128060534576
 46
0.4490128060534577
 79
     0
 53
135.0
 43
-900.942304321123
 44
-13.20000013171125
 45
-0.4490128060534577
 46
-0.4490128060534576
 79
     0
 47
0.057451373970553
 98
        8
 10
16.07985497657933
 20
15.16717351417424
 10
22.40451501999519
 20
18.84406205073969
 10
25.16436789921568
 20
15.5118815143594
 10
30.91405999519316
 20
16.20129751473019
 10
41.83847203251276
 20
16.6609097822718
 10
46.89820090868557
 20
19.41857618469589
 10
56.55768598595637
 20
18.7291577833837
 10
67.82707963317876
 20
19.18877005092531
  0
LINE
  5
3F02
330
1A
100
AcDbEntity
  8
ZUWAKU
100
AcDbLine
 10
24.94221216833716
 20
23.24999986828865
 30
0.0
 11
26.86721216833712
 21
23.24999986828869
 31
0.0
  0
LINE
  5
3F03
330
1A
100
AcDbEntity
  8
ZUWAKU
100
AcDbLine
 10
26.86721216833712
 20
20.44999986828869
 30
0.0
 11
24.94221216833716
 21
20.44999986828869
 31
0.0
  0
LINE
  5
3F04
330
1A
100
AcDbEntity
  8
ZUWAKU
100
AcDbLine
 10
24.94221216833716
 20
9.949999868288685
 30
0.0
 11
26.86721216833712
 21
9.949999868288685
 31
0.0
  0
LINE
  5
3F05
330
1A
100
AcDbEntity
  8
ZUWAKU
100
AcDbLine
 10
26.86721216833712
 20
7.149999868288688
 30
0.0
 11
24.94221216833716
 21
7.149999868288688
 31
0.0
  0
CIRCLE
  5
3F06
330
1A
100
AcDbEntity
  8
ZUWAKU
100
AcDbCircle
 10
25.99221216833712
 20
15.19999986828869
 30
0.0
 40
1.75
  0
ARC
  5
3F07
330
1A
100
AcDbEntity
  8
ZUWAKU
100
AcDbCircle
 10
15.49221216833712
 20
18.63479784293339
 30
0.0
 40
1.4
100
AcDbArc
 50
180.0000000000016
 51
224.9999999999988
  0
LINE
  5
3F08
330
1A
100
AcDbEntity
  8
ZUWAKU
100
AcDbLine
 10
23.54221216833719
 20
19.04999986828869
 30
0.0
 11
23.54221216833719
 21
11.34999986828869
 31
0.0
  0
LINE
  5
3F09
330
1A
100
AcDbEntity
  8
ZUWAKU
100
AcDbLine
 10
20.74221216833712
 20
11.34999986828869
 30
0.0
 11
20.74221216833712
 21
19.04999986828864
 31
0.0
  0
ARC
  5
3F0A
330
1A
100
AcDbEntity
  8
ZUWAKU
100
AcDbCircle
 10
15.49221216833712
 20
18.63479784293339
 30
0.0
 40
4.199999999999999
100
AcDbArc
 50
180.0
 51
225.0
  0
ARC
  5
3F0B
330
1A
100
AcDbEntity
  8
ZUWAKU
100
AcDbCircle
 10
15.84221216833714
 20
9.949999868288685
 30
0.0
 40
2.8
100
AcDbArc
 50
270.0
 51
0.0
  0
ARC
  5
3F0C
330
1A
100
AcDbEntity
  8
ZUWAKU
100
AcDbCircle
 10
24.94221216833716
 20
11.34999986828869
 30
0.0
 40
4.199999999999999
100
AcDbArc
 50
180.0
 51
270.0
  0
ARC
  5
3F0D
330
1A
100
AcDbEntity
  8
ZUWAKU
100
AcDbCircle
 10
14.44221216833716
 20
11.76520189364399
 30
0.0
 40
4.199999999999999
100
AcDbArc
 50
0.0
 51
45.0
  0
LINE
  5
3F0E
330
1A
100
AcDbEntity
  8
ZUWAKU
100
AcDbLine
 10
17.41206064932067
 20
14.73505037462751
 30
0.0
 11
14.50226267467599
 21
17.64484834927219
 31
0.0
  0
LINE
  5
3F0F
330
1A
100
AcDbEntity
  8
ZUWAKU
100
AcDbLine
 10
15.84221216833714
 20
10.47499986828869
 30
0.0
 11
15.84221216833714
 21
11.76520189364403
 31
0.0
  0
ARC
  5
3F10
330
1A
100
AcDbEntity
  8
ZUWAKU
100
AcDbCircle
 10
15.31721216833716
 20
10.47499986828869
 30
0.0
 40
0.5249999999999999
100
AcDbArc
 50
270.0
 51
0.0
  0
ARC
  5
3F11
330
1A
100
AcDbEntity
  8
ZUWAKU
100
AcDbCircle
 10
14.44221216833716
 20
11.76520189364403
 30
0.0
 40
1.4
100
AcDbArc
 50
0.0
 51
45.0
  0
LINE
  5
3F12
330
1A
100
AcDbEntity
  8
ZUWAKU
100
AcDbLine
 10
11.81721216833716
 20
7.674999868288687
 30
0.0
 11
11.81721216833716
 21
9.424999868288687
 31
0.0
  0
ARC
  5
3F13
330
1A
100
AcDbEntity
  8
ZUWAKU
100
AcDbCircle
 10
12.34221216833714
 20
7.674999868288687
 30
0.0
 40
0.5249999999999999
100
AcDbArc
 50
180.0
 51
270.0
  0
ARC
  5
3F14
330
1A
100
AcDbEntity
  8
ZUWAKU
100
AcDbCircle
 10
12.34221216833714
 20
9.424999868288687
 30
0.0
 40
0.5249999999999999
100
AcDbArc
 50
90.0
 51
180.0
  0
LINE
  5
3F15
330
1A
100
AcDbEntity
  8
ZUWAKU
100
AcDbLine
 10
12.34221216833714
 20
7.149999868288688
 30
0.0
 11
15.84221216833714
 21
7.149999868288688
 31
0.0
  0
LINE
  5
3F16
330
1A
100
AcDbEntity
  8
ZUWAKU
100
AcDbLine
 10
12.34221216833714
 20
9.949999868288685
 30
0.0
 11
15.31721216833716
 21
9.949999868288685
 31
0.0
  0
LINE
  5
3F17
330
1A
100
AcDbEntity
  8
ZUWAKU
100
AcDbLine
 10
12.52236368735362
 20
15.66494936194987
 30
0.0
 11
15.43216166199829
 21
12.7551513873052
 31
0.0
  0
LINE
  5
3F18
330
1A
100
AcDbEntity
  8
ZUWAKU
100
AcDbLine
 10
18.64221216833721
 20
9.949999868288685
 30
0.0
 11
18.64221216833721
 21
11.76520189364403
 31
0.0
  0
ARC
  5
3F19
330
1A
100
AcDbEntity
  8
ZUWAKU
100
AcDbCircle
 10
24.94221216833716
 20
11.34999986828869
 30
0.0
 40
1.4
100
AcDbArc
 50
180.0
 51
270.0
  0
ARC
  5
3F1A
330
1A
100
AcDbEntity
  8
ZUWAKU
100
AcDbCircle
 10
17.59221216833714
 20
22.72499986828868
 30
0.0
 40
0.5249999999999999
100
AcDbArc
 50
0.0
 51
90.0
  0
ARC
  5
3F1B
330
1A
100
AcDbEntity
  8
ZUWAKU
100
AcDbCircle
 10
17.59221216833714
 20
20.97499986828868
 30
0.0
 40
0.5249999999999999
100
AcDbArc
 50
270.0
 51
0.0
  0
LINE
  5
3F1C
330
1A
100
AcDbEntity
  8
ZUWAKU
100
AcDbLine
 10
14.09221216833714
 20
23.24999986828869
 30
0.0
 11
17.59221216833714
 21
23.24999986828869
 31
0.0
  0
ARC
  5
3F1D
330
1A
100
AcDbEntity
  8
ZUWAKU
100
AcDbCircle
 10
14.61721216833712
 20
19.92499986828869
 30
0.0
 40
0.5249999999999999
100
AcDbArc
 50
90.0
 51
180.0
  0
LINE
  5
3F1E
330
1A
100
AcDbEntity
  8
ZUWAKU
100
AcDbLine
 10
14.09221216833714
 20
19.92499986828869
 30
0.0
 11
14.09221216833714
 21
18.63479784293335
 31
0.0
  0
LINE
  5
3F1F
330
1A
100
AcDbEntity
  8
ZUWAKU
100
AcDbLine
 10
17.59221216833714
 20
20.44999986828869
 30
0.0
 11
14.61721216833712
 21
20.44999986828869
 31
0.0
  0
LINE
  5
3F20
330
1A
100
AcDbEntity
  8
ZUWAKU
100
AcDbLine
 10
11.29221216833719
 20
20.44999986828869
 30
0.0
 11
11.29221216833719
 21
18.63479784293335
 31
0.0
  0
ARC
  5
3F21
330
1A
100
AcDbEntity
  8
ZUWAKU
100
AcDbCircle
 10
14.09221216833714
 20
20.44999986828869
 30
0.0
 40
2.8
100
AcDbArc
 50
90.0
 51
180.0
  0
LINE
  5
3F22
330
1A
100
AcDbEntity
  8
ZUWAKU
100
AcDbLine
 10
18.11721216833712
 20
22.72499986828868
 30
0.0
 11
18.11721216833712
 21
20.97499986828868
 31
0.0
  0
ARC
  5
3F23
330
1A
100
AcDbEntity
  8
ZUWAKU
100
AcDbCircle
 10
24.94221216833716
 20
19.04999986828869
 30
0.0
 40
1.4
100
AcDbArc
 50
90.0
 51
180.0
  0
ARC
  5
3F24
330
1A
100
AcDbEntity
  8
ZUWAKU
100
AcDbCircle
 10
24.94221216833716
 20
19.04999986828864
 30
0.0
 40
4.199999999999999
100
AcDbArc
 50
90.0
 51
180.0
  0
LINE
  5
3F25
330
1A
100
AcDbEntity
  8
ZUWAKU
100
AcDbLine
 10
79.32662956154422
 20
29.99999986828868
 30
0.0
 11
79.32662956154445
 21
0.7999998682887508
 31
0.0
  0
LINE
  5
3F26
330
1A
100
AcDbEntity
  8
ZUWAKU
100
AcDbLine
 10
79.52662956154427
 20
29.99999986828868
 30
0.0
 11
79.5266295615445
 21
0.7999998682887508
 31
0.0
  0
LINE
  5
3F27
330
1A
100
AcDbEntity
  8
ZUWAKU
100
AcDbLine
 10
79.12662956154441
 20
29.99999986828868
 30
0.0
 11
79.12662956154441
 21
0.7999998682887508
 31
0.0
  0
LINE
  5
3F28
330
1A
100
AcDbEntity
  8
ZUWAKU
100
AcDbLine
 10
64.14221216833721
 20
9.949999868288685
 30
0.0
 11
64.14221216833721
 21
22.72499986828868
 31
0.0
  0
LINE
  5
3F29
330
1A
100
AcDbEntity
  8
ZUWAKU
100
AcDbLine
 10
61.34221216833714
 20
22.72499986828868
 30
0.0
 11
61.34221216833714
 21
10.99999986828868
 31
0.0
  0
LINE
  5
3F2A
330
1A
100
AcDbEntity
  8
ZUWAKU
100
AcDbLine
 10
69.04221216833719
 20
7.674999868288687
 30
0.0
 11
69.04221216833719
 21
22.72499986828868
 31
0.0
  0
LINE
  5
3F2B
330
1A
100
AcDbEntity
  8
ZUWAKU
100
AcDbLine
 10
66.24221216833712
 20
22.72499986828868
 30
0.0
 11
66.24221216833712
 21
7.674999868288687
 31
0.0
  0
ARC
  5
3F2C
330
1A
100
AcDbEntity
  8
ZUWAKU
100
AcDbCircle
 10
49.79221216833719
 20
18.63479784293339
 30
0.0
 40
1.4
100
AcDbArc
 50
180.0000000000016
 51
224.9999999999988
  0
ARC
  5
3F2D
330
1A
100
AcDbEntity
  8
ZUWAKU
100
AcDbCircle
 10
49.79221216833719
 20
18.63479784293339
 30
0.0
 40
4.199999999999999
100
AcDbArc
 50
180.0
 51
225.0
  0
LINE
  5
3F2E
330
1A
100
AcDbEntity
  8
ZUWAKU
100
AcDbLine
 10
37.31485865051513
 20
19.20504706185211
 30
0.0
 11
36.05010690517929
 21
15.19999986828871
 31
0.0
  0
LINE
  5
3F2F
330
1A
100
AcDbEntity
  8
ZUWAKU
100
AcDbLine
 10
40.69221216833716
 20
22.72499986828868
 30
0.0
 11
40.69221216833716
 21
7.674999868288687
 31
0.0
  0
LINE
  5
3F30
330
1A
100
AcDbEntity
  8
ZUWAKU
100
AcDbLine
 10
43.49221216833712
 20
7.674999868288687
 30
0.0
 11
43.49221216833712
 21
22.72499986828868
 31
0.0
  0
LINE
  5
3F31
330
1A
100
AcDbEntity
  8
ZUWAKU
100
AcDbLine
 10
55.04221216833719
 20
22.72499986828868
 30
0.0
 11
55.04221216833719
 21
9.949999868288685
 31
0.0
  0
LINE
  5
3F32
330
1A
100
AcDbEntity
  8
ZUWAKU
100
AcDbLine
 10
57.84221216833714
 20
10.99999986828868
 30
0.0
 11
57.84221216833714
 21
22.72499986828868
 31
0.0
  0
LINE
  5
3F33
330
1A
100
AcDbEntity
  8
ZUWAKU
100
AcDbLine
 10
32.64221216833721
 20
17.12499986828869
 30
0.0
 11
32.64221216833721
 21
22.72499986828868
 31
0.0
  0
LINE
  5
3F34
330
1A
100
AcDbEntity
  8
ZUWAKU
100
AcDbLine
 10
29.84221216833714
 20
22.72499986828868
 30
0.0
 11
29.84221216833714
 21
7.674999868288687
 31
0.0
  0
LINE
  5
3F35
330
1A
100
AcDbEntity
  8
ZUWAKU
100
AcDbLine
 10
35.67634710565301
 20
22.88309383645566
 30
0.0
 11
33.80807723102123
 21
16.96690590012172
 31
0.0
  0
LINE
  5
3F36
330
1A
100
AcDbEntity
  8
ZUWAKU
100
AcDbLine
 10
60.29221216833719
 20
9.949999868288685
 30
0.0
 11
58.89221216833721
 21
9.949999868288685
 31
0.0
  0
LINE
  5
3F37
330
1A
100
AcDbEntity
  8
ZUWAKU
100
AcDbLine
 10
57.84221216833714
 20
7.149999868288688
 30
0.0
 11
61.34221216833714
 21
7.149999868288688
 31
0.0
  0
LINE
  5
3F38
330
1A
100
AcDbEntity
  8
ZUWAKU
100
AcDbLine
 10
41.21721216833714
 20
7.149999868288688
 30
0.0
 11
42.96721216833714
 21
7.149999868288688
 31
0.0
  0
LINE
  5
3F39
330
1A
100
AcDbEntity
  8
ZUWAKU
100
AcDbLine
 10
35.67634710565301
 20
7.516905900121714
 30
0.0
 11
33.80807723102123
 21
13.43309383645565
 31
0.0
  0
ARC
  5
3F3A
330
1A
100
AcDbEntity
  8
ZUWAKU
100
AcDbCircle
 10
33.30744633182587
 20
17.12499986828869
 30
0.0
 40
0.5249999999999999
100
AcDbArc
 50
270.0
 51
342.474431626277
  0
LINE
  5
3F3B
330
1A
100
AcDbEntity
  8
ZUWAKU
100
AcDbLine
 10
33.30744633182587
 20
16.59999986828868
 30
0.0
 11
33.16721216833719
 21
16.59999986828868
 31
0.0
  0
LINE
  5
3F3C
330
1A
100
AcDbEntity
  8
ZUWAKU
100
AcDbLine
 10
33.16721216833719
 20
13.79999986828869
 30
0.0
 11
33.30744633182587
 21
13.79999986828869
 31
0.0
  0
ARC
  5
3F3D
330
1A
100
AcDbEntity
  8
ZUWAKU
100
AcDbCircle
 10
33.16721216833719
 20
17.12499986828869
 30
0.0
 40
0.5249999999999999
100
AcDbArc
 50
180.0
 51
270.0
  0
LINE
  5
3F3E
330
1A
100
AcDbEntity
  8
ZUWAKU
100
AcDbLine
 10
30.36721216833712
 20
7.149999868288688
 30
0.0
 11
32.11721216833712
 21
7.149999868288688
 31
0.0
  0
ARC
  5
3F3F
330
1A
100
AcDbEntity
  8
ZUWAKU
100
AcDbCircle
 10
32.11721216833712
 20
7.674999868288687
 30
0.0
 40
0.5249999999999999
100
AcDbArc
 50
270.0
 51
0.0
  0
LINE
  5
3F40
330
1A
100
AcDbEntity
  8
ZUWAKU
100
AcDbLine
 10
32.64221216833721
 20
7.674999868288687
 30
0.0
 11
32.64221216833721
 21
13.27499986828869
 31
0.0
  0
LINE
  5
3F41
330
1A
100
AcDbEntity
  8
ZUWAKU
100
AcDbLine
 10
27.39221216833721
 20
9.424999868288687
 30
0.0
 11
27.39221216833721
 21
7.674999868288687
 31
0.0
  0
ARC
  5
3F42
330
1A
100
AcDbEntity
  8
ZUWAKU
100
AcDbCircle
 10
26.86721216833712
 20
7.674999868288687
 30
0.0
 40
0.5249999999999999
100
AcDbArc
 50
270.0
 51
0.0
  0
ARC
  5
3F43
330
1A
100
AcDbEntity
  8
ZUWAKU
100
AcDbCircle
 10
26.86721216833712
 20
9.424999868288687
 30
0.0
 40
0.5249999999999999
100
AcDbArc
 50
0.0
 51
90.0
  0
ARC
  5
3F44
330
1A
100
AcDbEntity
  8
ZUWAKU
100
AcDbCircle
 10
30.36721216833712
 20
7.674999868288687
 30
0.0
 40
0.5249999999999999
100
AcDbArc
 50
180.0
 51
270.0
  0
ARC
  5
3F45
330
1A
100
AcDbEntity
  8
ZUWAKU
100
AcDbCircle
 10
33.30744633182587
 20
13.27499986828869
 30
0.0
 40
0.5249999999999999
100
AcDbArc
 50
17.52556837372303
 51
90.0
  0
ARC
  5
3F46
330
1A
100
AcDbEntity
  8
ZUWAKU
100
AcDbCircle
 10
33.16721216833719
 20
13.27499986828869
 30
0.0
 40
0.5249999999999999
100
AcDbArc
 50
90.0
 51
180.0
  0
ARC
  5
3F47
330
1A
100
AcDbEntity
  8
ZUWAKU
100
AcDbCircle
 10
41.21721216833714
 20
7.674999868288687
 30
0.0
 40
0.5249999999999999
100
AcDbArc
 50
180.0
 51
270.0
  0
LINE
  5
3F48
330
1A
100
AcDbEntity
  8
ZUWAKU
100
AcDbLine
 10
36.17697800484848
 20
7.149999868288688
 30
0.0
 11
37.87586738445748
 21
7.149999868288688
 31
0.0
  0
ARC
  5
3F49
330
1A
100
AcDbEntity
  8
ZUWAKU
100
AcDbCircle
 10
37.87586738445748
 20
7.674999868288687
 30
0.0
 40
0.5249999999999999
100
AcDbArc
 50
270.0
 51
17.52556837372303
  0
LINE
  5
3F4A
330
1A
100
AcDbEntity
  8
ZUWAKU
100
AcDbLine
 10
38.37649828365295
 20
7.83309383645566
 30
0.0
 11
36.05010690517929
 21
15.19999986828871
 31
0.0
  0
ARC
  5
3F4B
330
1A
100
AcDbEntity
  8
ZUWAKU
100
AcDbCircle
 10
36.17697800484848
 20
7.674999868288687
 30
0.0
 40
0.5249999999999999
100
AcDbArc
 50
197.525568373723
 51
270.0
  0
ARC
  5
3F4C
330
1A
100
AcDbEntity
  8
ZUWAKU
100
AcDbCircle
 10
57.84221216833714
 20
9.949999868288685
 30
0.0
 40
2.8
100
AcDbArc
 50
180.0
 51
270.0
  0
ARC
  5
3F4D
330
1A
100
AcDbEntity
  8
ZUWAKU
100
AcDbCircle
 10
50.14221216833721
 20
9.949999868288685
 30
0.0
 40
2.8
100
AcDbArc
 50
270.0
 51
0.0
  0
LINE
  5
3F4E
330
1A
100
AcDbEntity
  8
ZUWAKU
100
AcDbLine
 10
51.71206064932073
 20
14.73505037462751
 30
0.0
 11
48.80226267467594
 21
17.64484834927219
 31
0.0
  0
LINE
  5
3F4F
330
1A
100
AcDbEntity
  8
ZUWAKU
100
AcDbLine
 10
50.14221216833721
 20
10.47499986828869
 30
0.0
 11
50.14221216833721
 21
11.76520189364403
 31
0.0
  0
ARC
  5
3F50
330
1A
100
AcDbEntity
  8
ZUWAKU
100
AcDbCircle
 10
48.74221216833712
 20
11.76520189364403
 30
0.0
 40
1.4
100
AcDbArc
 50
0.0
 51
45.0
  0
ARC
  5
3F51
330
1A
100
AcDbEntity
  8
ZUWAKU
100
AcDbCircle
 10
49.61721216833712
 20
10.47499986828869
 30
0.0
 40
0.5249999999999999
100
AcDbArc
 50
270.0
 51
0.0
  0
LINE
  5
3F52
330
1A
100
AcDbEntity
  8
ZUWAKU
100
AcDbLine
 10
46.11721216833712
 20
7.674999868288687
 30
0.0
 11
46.11721216833712
 21
9.424999868288687
 31
0.0
  0
ARC
  5
3F53
330
1A
100
AcDbEntity
  8
ZUWAKU
100
AcDbCircle
 10
46.64221216833721
 20
7.674999868288687
 30
0.0
 40
0.5249999999999999
100
AcDbArc
 50
180.0
 51
270.0
  0
ARC
  5
3F54
330
1A
100
AcDbEntity
  8
ZUWAKU
100
AcDbCircle
 10
42.96721216833714
 20
7.674999868288687
 30
0.0
 40
0.5249999999999999
100
AcDbArc
 50
270.0
 51
0.0
  0
ARC
  5
3F55
330
1A
100
AcDbEntity
  8
ZUWAKU
100
AcDbCircle
 10
46.64221216833721
 20
9.424999868288687
 30
0.0
 40
0.5249999999999999
100
AcDbArc
 50
90.0
 51
180.0
  0
LINE
  5
3F56
330
1A
100
AcDbEntity
  8
ZUWAKU
100
AcDbLine
 10
46.64221216833721
 20
9.949999868288685
 30
0.0
 11
49.61721216833712
 21
9.949999868288685
 31
0.0
  0
LINE
  5
3F57
330
1A
100
AcDbEntity
  8
ZUWAKU
100
AcDbLine
 10
46.64221216833721
 20
7.149999868288688
 30
0.0
 11
50.14221216833721
 21
7.149999868288688
 31
0.0
  0
LINE
  5
3F58
330
1A
100
AcDbEntity
  8
ZUWAKU
100
AcDbLine
 10
46.82236368735369
 20
15.66494936194987
 30
0.0
 11
49.73216166199836
 21
12.7551513873052
 31
0.0
  0
LINE
  5
3F59
330
1A
100
AcDbEntity
  8
ZUWAKU
100
AcDbLine
 10
52.94221216833716
 20
9.949999868288685
 30
0.0
 11
52.94221216833716
 21
11.76520189364403
 31
0.0
  0
ARC
  5
3F5A
330
1A
100
AcDbEntity
  8
ZUWAKU
100
AcDbCircle
 10
48.74221216833712
 20
11.76520189364399
 30
0.0
 40
4.199999999999999
100
AcDbArc
 50
0.0
 51
45.0
  0
ARC
  5
3F5B
330
1A
100
AcDbEntity
  8
ZUWAKU
100
AcDbCircle
 10
58.89221216833721
 20
10.99999986828868
 30
0.0
 40
1.05
100
AcDbArc
 50
180.0
 51
270.0
  0
ARC
  5
3F5C
330
1A
100
AcDbEntity
  8
ZUWAKU
100
AcDbCircle
 10
61.34221216833714
 20
9.949999868288685
 30
0.0
 40
2.8
100
AcDbArc
 50
270.0
 51
0.0
  0
LINE
  5
3F5D
330
1A
100
AcDbEntity
  8
ZUWAKU
100
AcDbLine
 10
66.76721216833721
 20
7.149999868288688
 30
0.0
 11
68.51721216833721
 21
7.149999868288688
 31
0.0
  0
ARC
  5
3F5E
330
1A
100
AcDbEntity
  8
ZUWAKU
100
AcDbCircle
 10
66.76721216833721
 20
7.674999868288687
 30
0.0
 40
0.5249999999999999
100
AcDbArc
 50
180.0
 51
270.0
  0
ARC
  5
3F5F
330
1A
100
AcDbEntity
  8
ZUWAKU
100
AcDbCircle
 10
60.29221216833719
 20
10.99999986828868
 30
0.0
 40
1.05
100
AcDbArc
 50
270.0
 51
0.0
  0
ARC
  5
3F60
330
1A
100
AcDbEntity
  8
ZUWAKU
100
AcDbCircle
 10
68.51721216833721
 20
7.674999868288687
 30
0.0
 40
0.5249999999999999
100
AcDbArc
 50
270.0
 51
0.0
  0
LINE
  5
3F61
330
1A
100
AcDbEntity
  8
ZUWAKU
100
AcDbLine
 10
42.96721216833714
 20
23.24999986828869
 30
0.0
 11
41.21721216833714
 21
23.24999986828869
 31
0.0
  0
ARC
  5
3F62
330
1A
100
AcDbEntity
  8
ZUWAKU
100
AcDbCircle
 10
32.11721216833712
 20
22.72499986828868
 30
0.0
 40
0.5249999999999999
100
AcDbArc
 50
0.0
 51
90.0
  0
LINE
  5
3F63
330
1A
100
AcDbEntity
  8
ZUWAKU
100
AcDbLine
 10
32.11721216833712
 20
23.24999986828869
 30
0.0
 11
30.36721216833712
 21
23.24999986828869
 31
0.0
  0
ARC
  5
3F64
330
1A
100
AcDbEntity
  8
ZUWAKU
100
AcDbCircle
 10
26.86721216833712
 20
22.72499986828868
 30
0.0
 40
0.5249999999999999
100
AcDbArc
 50
0.0
 51
90.0
  0
ARC
  5
3F65
330
1A
100
AcDbEntity
  8
ZUWAKU
100
AcDbCircle
 10
30.36721216833712
 20
22.72499986828868
 30
0.0
 40
0.5249999999999999
100
AcDbArc
 50
90.0
 51
180.0
  0
ARC
  5
3F66
330
1A
100
AcDbEntity
  8
ZUWAKU
100
AcDbCircle
 10
26.86721216833712
 20
20.97499986828868
 30
0.0
 40
0.5249999999999999
100
AcDbArc
 50
270.0
 51
0.0
  0
LINE
  5
3F67
330
1A
100
AcDbEntity
  8
ZUWAKU
100
AcDbLine
 10
27.39221216833721
 20
22.72499986828868
 30
0.0
 11
27.39221216833721
 21
20.97499986828868
 31
0.0
  0
ARC
  5
3F68
330
1A
100
AcDbEntity
  8
ZUWAKU
100
AcDbCircle
 10
41.21721216833714
 20
22.72499986828868
 30
0.0
 40
0.5249999999999999
100
AcDbArc
 50
90.0
 51
180.0
  0
LINE
  5
3F69
330
1A
100
AcDbEntity
  8
ZUWAKU
100
AcDbLine
 10
36.17697800484848
 20
23.24999986828869
 30
0.0
 11
37.87586738445748
 21
23.24999986828869
 31
0.0
  0
ARC
  5
3F6A
330
1A
100
AcDbEntity
  8
ZUWAKU
100
AcDbCircle
 10
37.87586738445748
 20
22.72499986828868
 30
0.0
 40
0.5249999999999999
100
AcDbArc
 50
342.474431626277
 51
90.0
  0
LINE
  5
3F6B
330
1A
100
AcDbEntity
  8
ZUWAKU
100
AcDbLine
 10
38.37649828365295
 20
22.56690590012172
 30
0.0
 11
37.31485865051513
 21
19.20504706185211
 31
0.0
  0
ARC
  5
3F6C
330
1A
100
AcDbEntity
  8
ZUWAKU
100
AcDbCircle
 10
36.17697800484848
 20
22.72499986828868
 30
0.0
 40
0.5249999999999999
100
AcDbArc
 50
90.0
 51
162.474431626277
  0
LINE
  5
3F6D
330
1A
100
AcDbEntity
  8
ZUWAKU
100
AcDbLine
 10
48.39221216833721
 20
23.24999986828869
 30
0.0
 11
51.89221216833721
 21
23.24999986828869
 31
0.0
  0
LINE
  5
3F6E
330
1A
100
AcDbEntity
  8
ZUWAKU
100
AcDbLine
 10
51.89221216833721
 20
20.44999986828869
 30
0.0
 11
48.91721216833719
 21
20.44999986828869
 31
0.0
  0
ARC
  5
3F6F
330
1A
100
AcDbEntity
  8
ZUWAKU
100
AcDbCircle
 10
48.91721216833719
 20
19.92499986828869
 30
0.0
 40
0.5249999999999999
100
AcDbArc
 50
90.0
 51
180.0
  0
LINE
  5
3F70
330
1A
100
AcDbEntity
  8
ZUWAKU
100
AcDbLine
 10
48.39221216833721
 20
19.92499986828869
 30
0.0
 11
48.39221216833721
 21
18.63479784293335
 31
0.0
  0
ARC
  5
3F71
330
1A
100
AcDbEntity
  8
ZUWAKU
100
AcDbCircle
 10
42.96721216833714
 20
22.72499986828868
 30
0.0
 40
0.5249999999999999
100
AcDbArc
 50
0.0
 51
90.0
  0
LINE
  5
3F72
330
1A
100
AcDbEntity
  8
ZUWAKU
100
AcDbLine
 10
45.59221216833714
 20
20.44999986828869
 30
0.0
 11
45.59221216833714
 21
18.63479784293335
 31
0.0
  0
ARC
  5
3F73
330
1A
100
AcDbEntity
  8
ZUWAKU
100
AcDbCircle
 10
48.39221216833721
 20
20.44999986828869
 30
0.0
 40
2.8
100
AcDbArc
 50
90.0
 51
180.0
  0
ARC
  5
3F74
330
1A
100
AcDbEntity
  8
ZUWAKU
100
AcDbCircle
 10
57.31721216833716
 20
22.72499986828868
 30
0.0
 40
0.5249999999999999
100
AcDbArc
 50
0.0
 51
90.0
  0
ARC
  5
3F75
330
1A
100
AcDbEntity
  8
ZUWAKU
100
AcDbCircle
 10
55.56721216833716
 20
22.72499986828868
 30
0.0
 40
0.5249999999999999
100
AcDbArc
 50
90.0
 51
180.0
  0
LINE
  5
3F76
330
1A
100
AcDbEntity
  8
ZUWAKU
100
AcDbLine
 10
57.31721216833716
 20
23.24999986828869
 30
0.0
 11
55.56721216833716
 21
23.24999986828869
 31
0.0
  0
ARC
  5
3F77
330
1A
100
AcDbEntity
  8
ZUWAKU
100
AcDbCircle
 10
51.89221216833721
 20
22.72499986828868
 30
0.0
 40
0.5249999999999999
100
AcDbArc
 50
0.0
 51
90.0
  0
ARC
  5
3F78
330
1A
100
AcDbEntity
  8
ZUWAKU
100
AcDbCircle
 10
51.89221216833721
 20
20.97499986828868
 30
0.0
 40
0.5249999999999999
100
AcDbArc
 50
270.0
 51
0.0
  0
LINE
  5
3F79
330
1A
100
AcDbEntity
  8
ZUWAKU
100
AcDbLine
 10
52.41721216833719
 20
22.72499986828868
 30
0.0
 11
52.41721216833719
 21
20.97499986828868
 31
0.0
  0
LINE
  5
3F7A
330
1A
100
AcDbEntity
  8
ZUWAKU
100
AcDbLine
 10
68.51721216833721
 20
23.24999986828869
 30
0.0
 11
66.76721216833721
 21
23.24999986828869
 31
0.0
  0
ARC
  5
3F7B
330
1A
100
AcDbEntity
  8
ZUWAKU
100
AcDbCircle
 10
66.76721216833721
 20
22.72499986828868
 30
0.0
 40
0.5249999999999999
100
AcDbArc
 50
90.0
 51
180.0
  0
ARC
  5
3F7C
330
1A
100
AcDbEntity
  8
ZUWAKU
100
AcDbCircle
 10
63.61721216833712
 20
22.72499986828868
 30
0.0
 40
0.5249999999999999
100
AcDbArc
 50
0.0
 51
90.0
  0
LINE
  5
3F7D
330
1A
100
AcDbEntity
  8
ZUWAKU
100
AcDbLine
 10
63.61721216833712
 20
23.24999986828869
 30
0.0
 11
61.86721216833712
 21
23.24999986828869
 31
0.0
  0
ARC
  5
3F7E
330
1A
100
AcDbEntity
  8
ZUWAKU
100
AcDbCircle
 10
61.86721216833712
 20
22.72499986828868
 30
0.0
 40
0.5249999999999999
100
AcDbArc
 50
90.0
 51
180.0
  0
ARC
  5
3F7F
330
1A
100
AcDbEntity
  8
ZUWAKU
100
AcDbCircle
 10
68.51721216833721
 20
22.72499986828868
 30
0.0
 40
0.5249999999999999
100
AcDbArc
 50
0.0
 51
90.0
  0
TEXT
  5
3F80
330
1A
100
AcDbEntity
  8
moji
100
AcDbText
 10
239.8272026944071
 20
18.00492092569607
 30
0.0
 40
5.6
  1
ブラケット正面打（吊）自在式
 41
0.9
  7
ｽﾀｲﾙ1
100
AcDbText
  0
TEXT
  5
3F81
330
1A
100
AcDbEntity
  8
moji
100
AcDbText
 10
239.8272026944071
 20
3.204920925696104
 30
0.0
 40
5.6
  1
ＶＭ１２０・Σ９０（Ⅲ）－４－１０～４５
 41
0.9
  7
ｽﾀｲﾙ1
100
AcDbText
  0
LINE
  5
3F82
330
1A
100
AcDbEntity
  8
ZUWAKU
100
AcDbLine
 10
208.246601303624
 20
29.99999986828868
 30
0.0
 11
208.246601303624
 21
0.7999998682887508
 31
0.0
  0
LINE
  5
3F83
330
1A
100
AcDbEntity
  8
ZUWAKU
100
AcDbLine
 10
208.6466013036238
 20
29.99999986828868
 30
0.0
 11
208.646601303624
 21
0.7999998682887508
 31
0.0
  0
LINE
  5
3F84
330
1A
100
AcDbEntity
  8
ZUWAKU
100
AcDbLine
 10
208.4466013036238
 20
29.99999986828868
 30
0.0
 11
208.446601303624
 21
0.7999998682887508
 31
0.0
  0
TEXT
  5
3F85
330
1A
100
AcDbEntity
  8
ZUWAKU
100
AcDbText
 10
209.7240463258336
 20
9.655356406674301
 30
0.0
 40
4.0
  1
サイズ
 41
0.9
  7
ｽﾀｲﾙ1
100
AcDbText
  0
TEXT
  5
3F86
330
1A
100
AcDbEntity
  8
ZUWAKU
100
AcDbText
 10
209.7240463258333
 20
24.05535640667426
 30
0.0
 40
4.0
  1
品名
 41
0.9
  7
ｽﾀｲﾙ1
100
AcDbText
  0
LINE
  5
3F87
330
1A
100
AcDbEntity
  8
ZUWAKU
100
AcDbLine
 10
648.8172025237602
 20
15.19999986828871
 30
0.0
 11
697.2490105620973
 21
15.19999986828872
 31
0.0
  0
LINE
  5
3F88
330
1A
100
AcDbEntity
  8
ZUWAKU
100
AcDbLine
 10
648.8172025237604
 20
15.39999986828872
 30
0.0
 11
697.2490105620973
 21
15.39999986828872
 31
0.0
  0
LINE
  5
3F89
330
1A
100
AcDbEntity
  8
ZUWAKU
100
AcDbLine
 10
648.8172025237602
 20
15.59999986828872
 30
0.0
 11
697.2490105620973
 21
15.59999986828872
 31
0.0
  0
TEXT
  5
3F8A
330
1A
100
AcDbEntity
  8
ZUWAKU
100
AcDbText
 10
658.2039377008584
 20
18.00492092569607
 30
0.0
 40
5.6
  1
　　．　　．　　
 41
0.9
  7
ｽﾀｲﾙ1
100
AcDbText
  0
LINE
  5
3F8B
330
1A
100
AcDbEntity
  8
ZUWAKU
100
AcDbLine
 10
505.1991795116969
 20
15.19999986828872
 30
0.0
 11
552.5269557796685
 21
15.19999986828872
 31
0.0
  0
LINE
  5
3F8C
330
1A
100
AcDbEntity
  8
ZUWAKU
100
AcDbLine
 10
505.1991795116969
 20
15.39999986828872
 30
0.0
 11
552.5269557796685
 21
15.39999986828872
 31
0.0
  0
LINE
  5
3F8D
330
1A
100
AcDbEntity
  8
ZUWAKU
100
AcDbLine
 10
505.1991795116969
 20
15.59999986828872
 30
0.0
 11
552.5269557796685
 21
15.59999986828872
 31
0.0
  0
TEXT
  5
3F8E
330
1A
100
AcDbEntity
  8
moji
100
AcDbText
 10
463.2464320045581
 20
11.94261758994867
 30
0.0
 40
5.6
  1
ＬＭ６４Ｔ
 41
0.9
  7
ｽﾀｲﾙ1
100
AcDbText
  0
LINE
  5
3F8F
330
1A
100
AcDbEntity
  8
ZUWAKU
100
AcDbLine
 10
447.6243639845472
 20
29.99999986828868
 30
0.0
 11
447.6243639845475
 21
0.7999998682887508
 31
0.0
  0
LINE
  5
3F90
330
1A
100
AcDbEntity
  8
ZUWAKU
100
AcDbLine
 10
447.8243639845473
 20
29.99999986828868
 30
0.0
 11
447.8243639845475
 21
0.7999998682887508
 31
0.0
  0
LINE
  5
3F91
330
1A
100
AcDbEntity
  8
ZUWAKU
100
AcDbLine
 10
447.4243639845474
 20
29.99999986828868
 30
0.0
 11
447.4243639845474
 21
0.7999998682887508
 31
0.0
  0
TEXT
  5
3F92
330
1A
100
AcDbEntity
  8
moji
100
AcDbText
 10
528.0409079858689
 20
18.00492092569607
 30
0.0
 40
5.6
  1
Ａ３
 41
0.9
  7
ｽﾀｲﾙ1
100
AcDbText
  0
LINE
  5
3F93
330
1A
100
AcDbEntity
  8
ZUWAKU
100
AcDbLine
 10
504.9991795116969
 20
29.99999986828868
 30
0.0
 11
504.9991795116971
 21
0.7999998682887508
 31
0.0
  0
LINE
  5
3F94
330
1A
100
AcDbEntity
  8
ZUWAKU
100
AcDbLine
 10
505.1991795116969
 20
29.99999986828868
 30
0.0
 11
505.1991795116971
 21
0.7999998682887508
 31
0.0
  0
LINE
  5
3F95
330
1A
100
AcDbEntity
  8
ZUWAKU
100
AcDbLine
 10
504.7991795116971
 20
29.99999986828868
 30
0.0
 11
504.7991795116971
 21
0.7999998682887508
 31
0.0
  0
TEXT
  5
3F97
330
1A
100
AcDbEntity
  8
ZUWAKU
100
AcDbText
 10
506.6766245339068
 20
9.655356406674301
 30
0.0
 40
4.0
  1
縮尺
 41
0.9
  7
ｽﾀｲﾙ1
100
AcDbText
  0
TEXT
  5
3F98
330
1A
100
AcDbEntity
  8
moji
100
AcDbText
 10
528.0409079858689
 20
3.204920925696104
 30
0.0
 40
5.6
  1
１/２
 41
0.9
  7
ｽﾀｲﾙ1
100
AcDbText
  0
TEXT
  5
3F99
330
1A
100
AcDbEntity
  8
ZUWAKU
100
AcDbText
 10
449.3018090067569
 20
24.05535640667426
 30
0.0
 40
4.0
  1
品番
 41
0.9
  7
ｽﾀｲﾙ1
100
AcDbText
  0
TEXT
  5
3F9A
330
1A
100
AcDbEntity
  8
ZUWAKU
100
AcDbText
 10
506.6766245339065
 20
24.05535640667426
 30
0.0
 40
4.0
  1
用紙
 41
0.9
  7
ｽﾀｲﾙ1
100
AcDbText
  0
LINE
  5
3F9B
330
1A
100
AcDbEntity
  8
ZUWAKU
100
AcDbLine
 10
648.6172025237604
 20
29.99999986828868
 30
0.0
 11
648.6172025237606
 21
0.7999998682887508
 31
0.0
  0
LINE
  5
3F9C
330
1A
100
AcDbEntity
  8
ZUWAKU
100
AcDbLine
 10
648.8172025237604
 20
29.99999986828868
 30
0.0
 11
648.8172025237607
 21
0.7999998682887508
 31
0.0
  0
LINE
  5
3F9D
330
1A
100
AcDbEntity
  8
ZUWAKU
100
AcDbLine
 10
648.4172025237606
 20
29.99999986828868
 30
0.0
 11
648.4172025237606
 21
0.7999998682887508
 31
0.0
  0
LINE
  5
3F9E
330
1A
100
AcDbEntity
  8
ZUWAKU
100
AcDbLine
 10
552.7269557796683
 20
29.99999986828868
 30
0.0
 11
552.7269557796685
 21
0.7999998682887508
 31
0.0
  0
LINE
  5
3F9F
330
1A
100
AcDbEntity
  8
ZUWAKU
100
AcDbLine
 10
552.9269557796683
 20
29.99999986828868
 30
0.0
 11
552.9269557796686
 21
0.7999998682887508
 31
0.0
  0
LINE
  5
3FA0
330
1A
100
AcDbEntity
  8
ZUWAKU
100
AcDbLine
 10
552.5269557796685
 20
29.99999986828868
 30
0.0
 11
552.5269557796685
 21
0.7999998682887508
 31
0.0
  0
TEXT
  5
3FA1
330
1A
100
AcDbEntity
  8
ZUWAKU
100
AcDbText
 10
650.2946475459701
 20
24.05535640667426
 30
0.0
 40
4.0
  1
DATE
 41
0.9
  7
ｽﾀｲﾙ1
100
AcDbText
  0
LINE
  5
3FA2
330
1A
100
AcDbEntity
  8
ZUWAKU
100
AcDbLine
 10
697.2490105620973
 20
29.99999986828868
 30
0.0
 11
697.2490105620973
 21
0.7999998682887508
 31
0.0
  0
LINE
  5
3FA3
330
1A
100
AcDbEntity
  8
ZUWAKU
100
AcDbLine
 10
697.4490105620973
 20
29.99999986828868
 30
0.0
 11
697.4490105620973
 21
0.7999998682887508
 31
0.0
  0
LINE
  5
3FA4
330
1A
100
AcDbEntity
  8
ZUWAKU
100
AcDbLine
 10
697.6490105620972
 20
29.99999986828868
 30
0.0
 11
697.6490105620974
 21
0.7999998682887508
 31
0.0
  0
LINE
  5
3FA5
330
1A
100
AcDbEntity
  8
ZUWAKU
100
AcDbLine
 10
697.8490105620972
 20
29.99999986828868
 30
0.0
 11
697.8490105620974
 21
0.7999998682887508
 31
0.0
  0
TEXT
  5
3FA6
330
1A
100
AcDbEntity
  8
ZUWAKU
100
AcDbText
 10
708.5280842057998
 20
17.55383920397549
 30
0.0
 40
6.0
  1
積水化学工業株式会社
 41
0.9
  7
ｽﾀｲﾙ1
100
AcDbText
  0
TEXT
  5
3FA7
330
1A
100
AcDbEntity
  8
ZUWAKU
100
AcDbText
 10
708.5280842057998
 20
6.648840182142749
 30
0.0
 40
6.0
  1
建材事業部
 41
0.9
  7
ｽﾀｲﾙ1
100
AcDbText
  0
VIEWPORT
  5
22
330
17
100
AcDbEntity
 67
     1
  8
0
100
AcDbViewport
 10
313.6808219178082
 20
286.420032064001
 30
0.0
 40
627.3616438356164
 41
572.840064128002
 68
     2
 69
     1
 12
313.6808219178082
 22
286.420032064001
 13
0.0
 23
0.0
 14
1.0
 24
1.0
 15
10.0
 25
10.0
 16
0.0
 26
0.0
 36
1.0
 17
0.0
 27
0.0
 37
0.0
 42
50.0
 43
0.0
 44
0.0
 45
572.840064128002
 50
0.0
 51
0.0
 72
   100
 90
    32768
  1

281
     0
 71
     1
 74
     0
110
0.0
120
0.0
130
0.0
111
1.0
121
0.0
131
0.0
112
0.0
122
1.0
132
0.0
 79
     0
146
0.0
  0
VIEWPORT
  5
64
330
17
100
AcDbEntity
 67
     1
  8
VIEWPORT
100
AcDbViewport
 10
210.0
 20
148.5
 30
0.0
 40
420.0
 41
297.0
 68
     1
 69
     2
 12
420.0
 22
297.0
 13
0.0
 23
0.0
 14
10.0
 24
10.0
 15
0.0
 25
0.0
 16
0.0
 26
0.0
 36
1.0
 17
0.0
 27
0.0
 37
0.0
 42
50.0
 43
0.0
 44
0.0
 45
605.8799999999999
 50
0.0
 51
0.0
 72
   100
 90
    32768
  1

281
     0
 71
     1
 74
     0
110
0.0
120
0.0
130
0.0
111
1.0
121
0.0
131
0.0
112
0.0
122
1.0
132
0.0
 79
     0
146
0.0
  0
ENDSEC
  0
SECTION
  2
OBJECTS
  0
DICTIONARY
  5
C
330
0
100
AcDbDictionary
281
     1
  3
ACAD_GROUP
350
D
  3
ACAD_LAYOUT
350
A98
  3
ACAD_MLINESTYLE
350
E
  3
ACAD_PLOTSETTINGS
350
A99
  3
ACAD_PLOTSTYLENAME
350
A96
  0
DICTIONARY
  5
D
102
{ACAD_REACTORS
330
C
102
}
330
C
100
AcDbDictionary
281
     1
  3
*A1
350
FA3
  3
*A2
350
1597
  3
*A3
350
179D
  3
*A4
350
3390
  3
*A5
350
3A0A
  0
DICTIONARY
  5
A98
102
{ACAD_REACTORS
330
C
102
}
330
C
100
AcDbDictionary
281
     1
  3
Model
350
A9A
  3
ﾚｲｱｳﾄ1
350
A9B
  0
DICTIONARY
  5
E
102
{ACAD_REACTORS
330
C
102
}
330
C
100
AcDbDictionary
281
     1
  3
STANDARD
350
13
  0
DICTIONARY
  5
A99
102
{ACAD_REACTORS
330
C
102
}
330
C
100
AcDbDictionary
281
     1
  0
ACDBDICTIONARYWDFLT
  5
A96
102
{ACAD_REACTORS
330
C
102
}
330
C
100
AcDbDictionary
281
     1
  3
Normal
350
A97
100
AcDbDictionaryWithDefault
340
A97
1001
ACAD
1000
TREAT_AS_HARD
1070
     0
1000
TREAT_AS_HARD
1070
     0
1000
TREAT_AS_HARD
1070
     0
1000
TREAT_AS_HARD
1070
     0
  0
GROUP
  5
FA3
102
{ACAD_REACTORS
330
D
102
}
330
D
100
AcDbGroup
300

 70
     1
 71
     1
  0
GROUP
  5
1597
102
{ACAD_REACTORS
330
D
102
}
330
D
100
AcDbGroup
300

 70
     1
 71
     1
  0
GROUP
  5
179D
102
{ACAD_REACTORS
330
D
102
}
330
D
100
AcDbGroup
300

 70
     1
 71
     1
  0
GROUP
  5
3390
102
{ACAD_REACTORS
330
D
102
}
330
D
100
AcDbGroup
300

 70
     1
 71
     1
  0
GROUP
  5
3A0A
102
{ACAD_REACTORS
330
D
102
}
330
D
100
AcDbGroup
300

 70
     1
 71
     1
  0
LAYOUT
  5
A9A
102
{ACAD_REACTORS
330
A98
102
}
330
A98
100
AcDbPlotSettings
  1

  2
Adobe PDF
  4
A3
  6

 40
3.174999952316284
 41
3.174999952316284
 42
3.17498779296875
 43
3.17498779296875
 44
297.0318298339844
 45
420.1583251953125
 46
2.67
 47
2.85
 48
-8.09872987394283
 49
-9.441603207410708
140
808.114529312747
141
561.2334822198422
142
1.0
143
2.0
 70
 28340
 72
     1
 73
     1
 74
     4
  7
systemprinter.ctb
 75
    17
147
0.5
148
8.09872987394283
149
9.441603207410708
100
AcDbLayout
  1
Model
 70
     1
 71
     0
 10
0.0
 20
0.0
 11
12.0
 21
9.0
 12
0.0
 22
0.0
 32
0.0
 14
0.0
 24
0.0
 34
0.0
 15
0.0
 25
0.0
 35
0.0
146
0.0
 13
0.0
 23
0.0
 33
0.0
 16
1.0
 26
0.0
 36
0.0
 17
0.0
 27
1.0
 37
0.0
 76
     0
330
1A
  0
LAYOUT
  5
A9B
102
{ACAD_REACTORS
330
A98
102
}
330
A98
100
AcDbPlotSettings
  1

  2
C:\PROGRAM FILES\ACAD LT 2000\plotters\DWF ePlot.pc3
  4
ANSI_A_(8.50_x_11.00_Inches)
  6

 40
5.793749809265137
 41
17.79375076293945
 42
5.793746948242188
 43
17.79376220703125
 44
215.8999938964844
 45
279.3999938964844
 46
0.0
 47
0.0
 48
0.0
 49
0.0
140
0.0
141
0.0
142
1.0
143
43.75760864458461
 70
   688
 72
     0
 73
     1
 74
     1
  7
systemprinter.ctb
 75
     0
147
0.0228531684197454
148
0.3255366854427166
149
0.2302009418498301
100
AcDbLayout
  1
ﾚｲｱｳﾄ1
 70
     1
 71
     1
 10
-30.66685116754002
 20
-9.990190459854741
 11
450.6668334081172
 21
361.9494725043409
 12
0.0
 22
0.0
 32
0.0
 14
-0.0128164049386896
 24
-0.0090630292066862
 34
-0.0015258207003583
 15
420.0128183607162
 25
297.0090644122207
 35
0.0000000349246037
146
0.0
 13
0.0
 23
0.0
 33
0.0
 16
1.0
 26
0.0
 36
0.0
 17
0.0
 27
1.0
 37
0.0
 76
     0
330
17
331
64
  0
MLINESTYLE
  5
13
102
{ACAD_REACTORS
330
E
102
}
330
E
100
AcDbMlineStyle
  2
STANDARD
 70
     0
  3

 62
     0
 51
90.0
 52
90.0
 71
     2
 49
0.5
 62
   256
  6
BYLAYER
 49
-0.5
 62
   256
  6
BYLAYER
  0
ACDBPLACEHOLDER
  5
A97
102
{ACAD_REACTORS
330
A96
102
}
330
A96
  0
ENDSEC
  0
EOF
