  0
SECTION
  2
HEADER
  9
$ACADVER
  1
AC1015
  9
$ACADMAINTVER
 70
     6
  9
$DWGCODEPAGE
  3
ANSI_932
  9
$INSBASE
 10
0.0
 20
0.0
 30
0.0
  9
$EXTMIN
 10
0.0000000135560185
 20
-0.0000001317113174
 30
0.0
  9
$EXTMAX
 10
797.600000013556
 20
551.5999998682888
 30
0.0
  9
$LIMMIN
 10
0.0
 20
0.0
  9
$LIMMAX
 10
840.0
 20
594.0
  9
$ORTHOMODE
 70
     1
  9
$REGENMODE
 70
     1
  9
$FILLMODE
 70
     1
  9
$QTEXTMODE
 70
     0
  9
$MIRRTEXT
 70
     1
  9
$LTSCALE
 40
2.0
  9
$ATTMODE
 70
     1
  9
$TEXTSIZE
 40
6.0
  9
$TRACEWID
 40
1.0
  9
$TEXTSTYLE
  7
STANDARD
  9
$CLAYER
  8
SUNPOU
  9
$CELTYPE
  6
BYLAYER
  9
$CECOLOR
 62
   256
  9
$CELTSCALE
 40
1.0
  9
$DISPSILH
 70
     0
  9
$DIMSCALE
 40
1.0
  9
$DIMASZ
 40
7.0
  9
$DIMEXO
 40
6.0
  9
$DIMDLI
 40
14.0
  9
$DIMRND
 40
0.0
  9
$DIMDLE
 40
0.0
  9
$DIMEXE
 40
3.0
  9
$DIMTP
 40
0.0
  9
$DIMTM
 40
0.0
  9
$DIMTXT
 40
6.0
  9
$DIMCEN
 40
150.0
  9
$DIMTSZ
 40
0.0
  9
$DIMTOL
 70
     0
  9
$DIMLIM
 70
     0
  9
$DIMTIH
 70
     0
  9
$DIMTOH
 70
     0
  9
$DIMSE1
 70
     0
  9
$DIMSE2
 70
     0
  9
$DIMTAD
 70
     3
  9
$DIMZIN
 70
     0
  9
$DIMBLK
  1

  9
$DIMASO
 70
     1
  9
$DIMSHO
 70
     1
  9
$DIMPOST
  1

  9
$DIMAPOST
  1

  9
$DIMALT
 70
     0
  9
$DIMALTD
 70
     2
  9
$DIMALTF
 40
25.4
  9
$DIMLFAC
 40
1.0
  9
$DIMTOFL
 70
     1
  9
$DIMTVP
 40
0.0
  9
$DIMTIX
 70
     0
  9
$DIMSOXD
 70
     0
  9
$DIMSAH
 70
     1
  9
$DIMBLK1
  1
OPEN
  9
$DIMBLK2
  1
OPEN
  9
$DIMSTYLE
  2
STANDARD
  9
$DIMCLRD
 70
   256
  9
$DIMCLRE
 70
   256
  9
$DIMCLRT
 70
   256
  9
$DIMTFAC
 40
1.0
  9
$DIMGAP
 40
2.0
  9
$DIMJUST
 70
     0
  9
$DIMSD1
 70
     0
  9
$DIMSD2
 70
     0
  9
$DIMTOLJ
 70
     1
  9
$DIMTZIN
 70
     0
  9
$DIMALTZ
 70
     0
  9
$DIMALTTZ
 70
     0
  9
$DIMUPT
 70
     0
  9
$DIMDEC
 70
     0
  9
$DIMTDEC
 70
     0
  9
$DIMALTU
 70
     2
  9
$DIMALTTD
 70
     2
  9
$DIMTXSTY
  7
STANDARD
  9
$DIMAUNIT
 70
     0
  9
$DIMADEC
 70
     0
  9
$DIMALTRND
 40
0.0
  9
$DIMAZIN
 70
     0
  9
$DIMDSEP
 70
    46
  9
$DIMATFIT
 70
     3
  9
$DIMFRAC
 70
     0
  9
$DIMLDRBLK
  1
OPEN
  9
$DIMLUNIT
 70
     2
  9
$DIMLWD
 70
    -1
  9
$DIMLWE
 70
    -1
  9
$DIMTMOVE
 70
     0
  9
$LUNITS
 70
     2
  9
$LUPREC
 70
     4
  9
$SKETCHINC
 40
1.0
  9
$FILLETRAD
 40
10.0
  9
$AUNITS
 70
     0
  9
$AUPREC
 70
     0
  9
$MENU
  1
.
  9
$ELEVATION
 40
0.0
  9
$PELEVATION
 40
0.0
  9
$THICKNESS
 40
0.0
  9
$LIMCHECK
 70
     0
  9
$CHAMFERA
 40
0.0
  9
$CHAMFERB
 40
0.0
  9
$CHAMFERC
 40
40.0
  9
$CHAMFERD
 40
0.0
  9
$SKPOLY
 70
     0
  9
$TDCREATE
 40
2451030.989786227
  9
$TDUCREATE
 40
2451030.614786227
  9
$TDUPDATE
 40
2455609.790894074
  9
$TDUUPDATE
 40
2455609.415894074
  9
$TDINDWG
 40
0.293244213
  9
$TDUSRTIMER
 40
0.293244213
  9
$USRTIMER
 70
     1
  9
$ANGBASE
 50
0.0
  9
$ANGDIR
 70
     0
  9
$PDMODE
 70
     0
  9
$PDSIZE
 40
0.0
  9
$PLINEWID
 40
0.0
  9
$SPLFRAME
 70
     0
  9
$SPLINETYPE
 70
     6
  9
$SPLINESEGS
 70
     8
  9
$HANDSEED
  5
3E9B
  9
$SURFTAB1
 70
     6
  9
$SURFTAB2
 70
     6
  9
$SURFTYPE
 70
     6
  9
$SURFU
 70
     6
  9
$SURFV
 70
     6
  9
$UCSBASE
  2

  9
$UCSNAME
  2

  9
$UCSORG
 10
0.0
 20
0.0
 30
0.0
  9
$UCSXDIR
 10
1.0
 20
0.0
 30
0.0
  9
$UCSYDIR
 10
0.0
 20
1.0
 30
0.0
  9
$UCSORTHOREF
  2

  9
$UCSORTHOVIEW
 70
     0
  9
$UCSORGTOP
 10
0.0
 20
0.0
 30
0.0
  9
$UCSORGBOTTOM
 10
0.0
 20
0.0
 30
0.0
  9
$UCSORGLEFT
 10
0.0
 20
0.0
 30
0.0
  9
$UCSORGRIGHT
 10
0.0
 20
0.0
 30
0.0
  9
$UCSORGFRONT
 10
0.0
 20
0.0
 30
0.0
  9
$UCSORGBACK
 10
0.0
 20
0.0
 30
0.0
  9
$PUCSBASE
  2

  9
$PUCSNAME
  2

  9
$PUCSORG
 10
0.0
 20
0.0
 30
0.0
  9
$PUCSXDIR
 10
1.0
 20
0.0
 30
0.0
  9
$PUCSYDIR
 10
0.0
 20
1.0
 30
0.0
  9
$PUCSORTHOREF
  2

  9
$PUCSORTHOVIEW
 70
     0
  9
$PUCSORGTOP
 10
0.0
 20
0.0
 30
0.0
  9
$PUCSORGBOTTOM
 10
0.0
 20
0.0
 30
0.0
  9
$PUCSORGLEFT
 10
0.0
 20
0.0
 30
0.0
  9
$PUCSORGRIGHT
 10
0.0
 20
0.0
 30
0.0
  9
$PUCSORGFRONT
 10
0.0
 20
0.0
 30
0.0
  9
$PUCSORGBACK
 10
0.0
 20
0.0
 30
0.0
  9
$USERI1
 70
     0
  9
$USERI2
 70
     0
  9
$USERI3
 70
     0
  9
$USERI4
 70
     0
  9
$USERI5
 70
     0
  9
$USERR1
 40
0.0
  9
$USERR2
 40
0.0
  9
$USERR3
 40
0.0
  9
$USERR4
 40
0.0
  9
$USERR5
 40
0.0
  9
$WORLDVIEW
 70
     1
  9
$SHADEDGE
 70
     3
  9
$SHADEDIF
 70
    70
  9
$TILEMODE
 70
     1
  9
$MAXACTVP
 70
    16
  9
$PINSBASE
 10
0.0
 20
0.0
 30
0.0
  9
$PLIMCHECK
 70
     0
  9
$PEXTMIN
 10
0.0
 20
0.0
 30
0.0
  9
$PEXTMAX
 10
420.0
 20
297.0
 30
0.0
  9
$PLIMMIN
 10
0.0
 20
0.0
  9
$PLIMMAX
 10
420.0
 20
297.0
  9
$UNITMODE
 70
     0
  9
$VISRETAIN
 70
     0
  9
$PLINEGEN
 70
     0
  9
$PSLTSCALE
 70
     1
  9
$TREEDEPTH
 70
  3020
  9
$CMLSTYLE
  2
STANDARD
  9
$CMLJUST
 70
     0
  9
$CMLSCALE
 40
1.0
  9
$PROXYGRAPHICS
 70
     1
  9
$MEASUREMENT
 70
     0
  9
$CELWEIGHT
370
    -1
  9
$ENDCAPS
280
     0
  9
$JOINSTYLE
280
     0
  9
$LWDISPLAY
290
     0
  9
$INSUNITS
 70
     0
  9
$HYPERLINKBASE
  1

  9
$STYLESHEET
  1
systemprinter.ctb
  9
$XEDIT
290
     1
  9
$CEPSNTYPE
380
     0
  9
$PSTYLEMODE
290
     1
  9
$FINGERPRINTGUID
  2
{91E25F26-0CBF-4C93-982E-B5F00895E654}
  9
$VERSIONGUID
  2
{3DFDD02F-76A9-4EED-9BCB-7004F95F1B8B}
  9
$EXTNAMES
290
     1
  9
$PSVPSCALE
 40
0.0
  9
$OLESTARTUP
290
     0
  0
ENDSEC
  0
SECTION
  2
CLASSES
  0
CLASS
  1
ACDBDICTIONARYWDFLT
  2
AcDbDictionaryWithDefault
  3
ObjectDBX Classes
 90
        0
280
     0
281
     0
  0
CLASS
  1
ACDBPLACEHOLDER
  2
AcDbPlaceHolder
  3
ObjectDBX Classes
 90
        0
280
     0
281
     0
  0
CLASS
  1
LAYOUT
  2
AcDbLayout
  3
ObjectDBX Classes
 90
        0
280
     0
281
     0
  0
CLASS
  1
DUMMY
  2
AcDbLongTransaction
  3
DUMMY
 90
        0
280
     0
281
     0
  0
CLASS
  1
LWPOLYLINE
  2
AcDbPolyline
  3
AutoCAD 2000
 90
        0
280
     0
281
     1
  0
CLASS
  1
HATCH
  2
AcDbHatch
  3
AutoCAD 2000
 90
        0
280
     0
281
     1
  0
CLASS
  1
XRECORD
  2
AcDbXrecord
  3
AutoCAD 2000
 90
        0
280
     0
281
     0
  0
CLASS
  1
DUMMY
  2
AcDbLongTransaction
  3
DUMMY
 90
        0
280
     0
281
     0
  0
CLASS
  1
LWPOLYLINE
  2
AcDbPolyline
  3
AutoCAD 2000
 90
        0
280
     0
281
     1
  0
CLASS
  1
HATCH
  2
AcDbHatch
  3
AutoCAD 2000
 90
        0
280
     0
281
     1
  0
CLASS
  1
XRECORD
  2
AcDbXrecord
  3
AutoCAD 2000
 90
        0
280
     0
281
     0
  0
CLASS
  1
DUMMY
  2
AcDbLongTransaction
  3
DUMMY
 90
        0
280
     0
281
     0
  0
CLASS
  1
LWPOLYLINE
  2
AcDbPolyline
  3
AutoCAD 2000
 90
        0
280
     0
281
     1
  0
CLASS
  1
HATCH
  2
AcDbHatch
  3
AutoCAD 2000
 90
        0
280
     0
281
     1
  0
CLASS
  1
XRECORD
  2
AcDbXrecord
  3
AutoCAD 2000
 90
        0
280
     0
281
     0
  0
CLASS
  1
DUMMY
  2
AcDbLongTransaction
  3
DUMMY
 90
        0
280
     0
281
     0
  0
CLASS
  1
LWPOLYLINE
  2
AcDbPolyline
  3
AutoCAD 2000
 90
        0
280
     0
281
     1
  0
CLASS
  1
HATCH
  2
AcDbHatch
  3
AutoCAD 2000
 90
        0
280
     0
281
     1
  0
CLASS
  1
XRECORD
  2
AcDbXrecord
  3
AutoCAD 2000
 90
        0
280
     0
281
     0
  0
CLASS
  1
DUMMY
  2
AcDbLongTransaction
  3
DUMMY
 90
        0
280
     0
281
     0
  0
CLASS
  1
LWPOLYLINE
  2
AcDbPolyline
  3
AutoCAD 2000
 90
        0
280
     0
281
     1
  0
CLASS
  1
HATCH
  2
AcDbHatch
  3
AutoCAD 2000
 90
        0
280
     0
281
     1
  0
CLASS
  1
XRECORD
  2
AcDbXrecord
  3
AutoCAD 2000
 90
        0
280
     0
281
     0
  0
ENDSEC
  0
SECTION
  2
TABLES
  0
TABLE
  2
VPORT
  5
8
330
0
100
AcDbSymbolTable
 70
     2
  0
VPORT
  5
3E62
330
8
100
AcDbSymbolTableRecord
100
AcDbViewportTableRecord
  2
*Active
 70
     0
 10
0.0
 20
0.0
 11
1.0
 21
1.0
 12
412.2160956252013
 22
293.1112983806036
 13
0.0
 23
0.0
 14
5.0
 24
5.0
 15
0.0
 25
0.0
 16
0.0
 26
0.0
 36
1.0
 17
0.0
 27
0.0
 37
0.0
 40
637.2409050141978
 41
1.651537335285505
 42
50.0
 43
0.0
 44
0.0
 50
0.0
 51
0.0
 71
     0
 72
   100
 73
     1
 74
     0
 75
     0
 76
     0
 77
     0
 78
     0
281
     0
 65
     1
110
0.0
120
0.0
130
0.0
111
1.0
121
0.0
131
0.0
112
0.0
122
1.0
132
0.0
 79
     0
146
0.0
  0
ENDTAB
  0
TABLE
  2
LTYPE
  5
5
330
0
100
AcDbSymbolTable
 70
     3
  0
LTYPE
  5
14
330
5
100
AcDbSymbolTableRecord
100
AcDbLinetypeTableRecord
  2
BYBLOCK
 70
     0
  3

 72
    65
 73
     0
 40
0.0
  0
LTYPE
  5
15
330
5
100
AcDbSymbolTableRecord
100
AcDbLinetypeTableRecord
  2
BYLAYER
 70
     0
  3

 72
    65
 73
     0
 40
0.0
  0
LTYPE
  5
16
330
5
100
AcDbSymbolTableRecord
100
AcDbLinetypeTableRecord
  2
CONTINUOUS
 70
     0
  3
Solid line
 72
    65
 73
     0
 40
0.0
  0
LTYPE
  5
115
330
5
100
AcDbSymbolTableRecord
100
AcDbLinetypeTableRecord
  2
PHANTOM
 70
     0
  3
______  __  __  ______  __  __  ______  __  __ 
 72
    65
 73
     6
 40
2.5
 49
1.25
 74
     0
 49
-0.25
 74
     0
 49
0.25
 74
     0
 49
-0.25
 74
     0
 49
0.25
 74
     0
 49
-0.25
 74
     0
  0
LTYPE
  5
135
330
5
100
AcDbSymbolTableRecord
100
AcDbLinetypeTableRecord
  2
CENTER
 70
     0
  3
____ _ ____ _ ____ _ ____ _ ____ _ ____ _ ____ 
 72
    65
 73
     4
 40
2.0
 49
1.25
 74
     0
 49
-0.25
 74
     0
 49
0.25
 74
     0
 49
-0.25
 74
     0
  0
ENDTAB
  0
TABLE
  2
LAYER
  5
2
330
0
100
AcDbSymbolTable
 70
     9
  0
LAYER
  5
F
330
2
100
AcDbSymbolTableRecord
100
AcDbLayerTableRecord
  2
0
 70
     0
 62
     7
  6
CONTINUOUS
370
    -3
390
A97
  0
LAYER
  5
62
330
2
100
AcDbSymbolTableRecord
100
AcDbLayerTableRecord
  2
VIEWPORT
 70
     0
 62
     7
  6
CONTINUOUS
370
    -3
390
A97
  0
LAYER
  5
65
330
2
100
AcDbSymbolTableRecord
100
AcDbLayerTableRecord
  2
ZUWAKU
 70
     0
 62
     7
  6
CONTINUOUS
370
    -3
390
A97
  0
LAYER
  5
143
330
2
100
AcDbSymbolTableRecord
100
AcDbLayerTableRecord
  2
SEIHIN
 70
     0
 62
     3
  6
CONTINUOUS
370
    -3
390
A97
  0
LAYER
  5
444
330
2
100
AcDbSymbolTableRecord
100
AcDbLayerTableRecord
  2
DEFPOINTS
 70
     0
 62
     7
  6
CONTINUOUS
290
     0
370
    -3
390
A97
  0
LAYER
  5
482
330
2
100
AcDbSymbolTableRecord
100
AcDbLayerTableRecord
  2
SUNPOU
 70
     0
 62
     4
  6
CONTINUOUS
370
    -3
390
A97
  0
LAYER
  5
5D4
330
2
100
AcDbSymbolTableRecord
100
AcDbLayerTableRecord
  2
CENTER_L
 70
     0
 62
     1
  6
CENTER
370
    -3
390
A97
  0
LAYER
  5
3477
330
2
100
AcDbSymbolTableRecord
100
AcDbLayerTableRecord
  2
VM120
 70
     0
 62
     7
  6
CONTINUOUS
370
    -3
390
A97
  0
LAYER
  5
3C06
330
2
100
AcDbSymbolTableRecord
100
AcDbLayerTableRecord
  2
MOJI
 70
     0
 62
     2
  6
CONTINUOUS
370
    -3
390
A97
  0
ENDTAB
  0
TABLE
  2
STYLE
  5
3
330
0
100
AcDbSymbolTable
 70
     3
  0
STYLE
  5
10
330
3
100
AcDbSymbolTableRecord
100
AcDbTextStyleTableRecord
  2
STANDARD
 70
     0
 40
0.0
 41
1.0
 50
0.0
 71
     0
 42
6.0
  3
TXT
  4
bigfont.shx
  0
STYLE
  5
D40
330
3
100
AcDbSymbolTableRecord
100
AcDbTextStyleTableRecord
  2
STYLE2
 70
     0
 40
0.0
 41
1.0
 50
0.0
 71
     0
 42
0.35
  3
ＭＳ ゴシック
  4

  0
STYLE
  5
3C07
330
3
100
AcDbSymbolTableRecord
100
AcDbTextStyleTableRecord
  2
ｽﾀｲﾙ1
 70
     0
 40
0.0
 41
1.0
 50
0.0
 71
     0
 42
2.5
  3
MS PGothic.ttf
  4

1001
ACAD
1000
MS PGothic
1071
    32818
  0
ENDTAB
  0
TABLE
  2
VIEW
  5
6
330
0
100
AcDbSymbolTable
 70
     0
  0
ENDTAB
  0
TABLE
  2
UCS
  5
7
330
0
100
AcDbSymbolTable
 70
     0
  0
ENDTAB
  0
TABLE
  2
APPID
  5
9
330
0
100
AcDbSymbolTable
 70
     1
  0
APPID
  5
11
330
9
100
AcDbSymbolTableRecord
100
AcDbRegAppTableRecord
  2
ACAD
 70
     0
  0
ENDTAB
  0
TABLE
  2
DIMSTYLE
  5
A
330
0
100
AcDbSymbolTable
 70
     1
100
AcDbDimStyleTable
  0
DIMSTYLE
105
1D
102
{ACAD_REACTORS
330
17DE
330
1F3D
330
26A5
330
26B8
330
23A3
330
2387
330
2362
330
23B0
330
2396
330
1F22
330
1F67
330
1F2F
330
336B
330
3489
330
38A2
330
38B1
102
}
330
A
100
AcDbSymbolTableRecord
100
AcDbDimStyleTableRecord
  2
STANDARD
 70
     0
340
10
  0
ENDTAB
  0
TABLE
  2
BLOCK_RECORD
  5
1
330
0
100
AcDbSymbolTable
 70
    17
  0
BLOCK_RECORD
  5
1A
330
1
100
AcDbSymbolTableRecord
100
AcDbBlockTableRecord
  2
*MODEL_SPACE
340
3E5F
  0
BLOCK_RECORD
  5
17
330
1
100
AcDbSymbolTableRecord
100
AcDbBlockTableRecord
  2
*PAPER_SPACE
340
3E60
  0
BLOCK_RECORD
  5
6D
330
1
100
AcDbSymbolTableRecord
100
AcDbBlockTableRecord
  2
_OPEN
340
0
102
{BLKREFS
331
3D9E
331
3D9F
331
3D95
331
3D96
331
3D8C
331
3D8D
331
3DB2
331
3DB3
331
3DA9
331
3DAA
331
3E95
331
3E96
331
3DE1
331
3DE2
331
3DD6
331
3DD7
331
3E09
331
3E0A
331
3DCD
331
3DCE
331
3D83
331
3D84
331
3DC4
331
3DC5
331
3D7A
331
3D7B
331
3DBB
331
3DBC
331
3DF5
331
3DF6
331
3DEA
331
3DEB
102
}
  0
BLOCK_RECORD
  5
17DF
330
1
100
AcDbSymbolTableRecord
100
AcDbBlockTableRecord
  2
*D1
340
0
  0
BLOCK_RECORD
  5
1F23
330
1
100
AcDbSymbolTableRecord
100
AcDbBlockTableRecord
  2
*D2
340
0
  0
BLOCK_RECORD
  5
1F30
330
1
100
AcDbSymbolTableRecord
100
AcDbBlockTableRecord
  2
*D3
340
0
  0
BLOCK_RECORD
  5
1F3E
330
1
100
AcDbSymbolTableRecord
100
AcDbBlockTableRecord
  2
*D4
340
0
  0
BLOCK_RECORD
  5
1F68
330
1
100
AcDbSymbolTableRecord
100
AcDbBlockTableRecord
  2
*D5
340
0
  0
BLOCK_RECORD
  5
2363
330
1
100
AcDbSymbolTableRecord
100
AcDbBlockTableRecord
  2
*D6
340
0
  0
BLOCK_RECORD
  5
2388
330
1
100
AcDbSymbolTableRecord
100
AcDbBlockTableRecord
  2
*D7
340
0
  0
BLOCK_RECORD
  5
2397
330
1
100
AcDbSymbolTableRecord
100
AcDbBlockTableRecord
  2
*D8
340
0
  0
BLOCK_RECORD
  5
23A4
330
1
100
AcDbSymbolTableRecord
100
AcDbBlockTableRecord
  2
*D9
340
0
  0
BLOCK_RECORD
  5
23B1
330
1
100
AcDbSymbolTableRecord
100
AcDbBlockTableRecord
  2
*D10
340
0
  0
BLOCK_RECORD
  5
26A6
330
1
100
AcDbSymbolTableRecord
100
AcDbBlockTableRecord
  2
*D11
340
0
  0
BLOCK_RECORD
  5
26B9
330
1
100
AcDbSymbolTableRecord
100
AcDbBlockTableRecord
  2
*D12
340
0
  0
BLOCK_RECORD
  5
336C
330
1
100
AcDbSymbolTableRecord
100
AcDbBlockTableRecord
  2
*D13
340
0
  0
BLOCK_RECORD
  5
348A
330
1
100
AcDbSymbolTableRecord
100
AcDbBlockTableRecord
  2
*D14
340
0
  0
BLOCK_RECORD
  5
38A3
330
1
100
AcDbSymbolTableRecord
100
AcDbBlockTableRecord
  2
*D15
340
0
  0
BLOCK_RECORD
  5
38B2
330
1
100
AcDbSymbolTableRecord
100
AcDbBlockTableRecord
  2
*D16
340
0
  0
ENDTAB
  0
ENDSEC
  0
SECTION
  2
BLOCKS
  0
BLOCK
  5
1B
330
1A
100
AcDbEntity
  8
0
100
AcDbBlockBegin
  2
*MODEL_SPACE
 70
     0
 71
     0
 10
0.0
 20
0.0
 30
0.0
  3
*MODEL_SPACE
  1

  0
ENDBLK
  5
1C
330
1A
100
AcDbEntity
  8
0
100
AcDbBlockEnd
  0
BLOCK
  5
18
330
17
100
AcDbEntity
 67
     1
  8
0
100
AcDbBlockBegin
  2
*PAPER_SPACE
 70
     0
 71
     0
 10
0.0
 20
0.0
 30
0.0
  3
*PAPER_SPACE
  1

  0
ENDBLK
  5
19
330
17
100
AcDbEntity
 67
     1
  8
0
100
AcDbBlockEnd
  0
BLOCK
  5
6E
330
6D
100
AcDbEntity
  8
0
100
AcDbBlockBegin
  2
_OPEN
 70
     0
 71
     0
 10
0.0
 20
0.0
 30
0.0
  3
_OPEN
  1

  0
LINE
  5
6F
330
6D
100
AcDbEntity
  8
0
  6
ByBlock
 62
     0
100
AcDbLine
 10
-1.0
 20
0.1666666666666666
 30
0.0
 11
0.0
 21
0.0
 31
0.0
  0
LINE
  5
70
330
6D
100
AcDbEntity
  8
0
  6
ByBlock
 62
     0
100
AcDbLine
 10
0.0
 20
0.0
 30
0.0
 11
-1.0
 21
-0.1666666666666666
 31
0.0
  0
LINE
  5
71
330
6D
100
AcDbEntity
  8
0
  6
ByBlock
 62
     0
100
AcDbLine
 10
0.0
 20
0.0
 30
0.0
 11
-1.0
 21
0.0
 31
0.0
  0
ENDBLK
  5
72
330
6D
100
AcDbEntity
  8
0
100
AcDbBlockEnd
  0
BLOCK
  5
17E9
330
17DF
100
AcDbEntity
  8
0
100
AcDbBlockBegin
  2
*D1
 70
     1
 71
     0
 10
0.0
 20
0.0
 30
0.0
  3
*D1
  1

  0
LINE
  5
3D9B
330
17DF
100
AcDbEntity
  8
SUNPOU
100
AcDbLine
 10
257.6923096240204
 20
194.3480774875092
 30
0.0
 11
225.0421304928823
 21
194.3480774875092
 31
0.0
  0
LINE
  5
3D9C
330
17DF
100
AcDbEntity
  8
SUNPOU
100
AcDbLine
 10
400.5556616721369
 20
149.7369113553903
 30
0.0
 11
225.0421304928822
 21
149.7369113553904
 31
0.0
  0
LINE
  5
3D9D
330
17DF
100
AcDbEntity
  8
SUNPOU
100
AcDbLine
 10
228.0421304928822
 20
187.3480774875091
 30
0.0
 11
228.0421304928822
 21
156.7369113553903
 31
0.0
  0
INSERT
  5
3D9E
330
17DF
100
AcDbEntity
  8
SUNPOU
100
AcDbBlockReference
  2
_OPEN
 10
228.0421304928823
 20
194.3480774875092
 30
0.0
 41
7.0
 42
7.0
 43
7.0
 50
90.0
  0
INSERT
  5
3D9F
330
17DF
100
AcDbEntity
  8
SUNPOU
100
AcDbBlockReference
  2
_OPEN
 10
228.0421304928822
 20
149.7369113553904
 30
0.0
 41
7.0
 42
7.0
 43
7.0
 50
270.0
  0
MTEXT
  5
3DA0
330
17DF
100
AcDbEntity
  8
SUNPOU
100
AcDbMText
 10
223.0421304928822
 20
172.0424944214498
 30
0.0
 40
6.0
 41
0.0
 71
     5
 72
     1
  1
\A1;45
 11
1.000000000000000E-16
 21
1.0
 31
0.0
 73
     1
 44
1.0
  0
POINT
  5
3DA1
330
17DF
100
AcDbEntity
  8
DEFPOINTS
 62
     0
100
AcDbPoint
 10
263.6923096240205
 20
194.3480774875092
 30
0.0
  0
POINT
  5
3DA2
330
17DF
100
AcDbEntity
  8
DEFPOINTS
 62
     0
100
AcDbPoint
 10
406.5556616721369
 20
149.7369113553903
 30
0.0
  0
POINT
  5
3DA3
330
17DF
100
AcDbEntity
  8
DEFPOINTS
 62
     0
100
AcDbPoint
 10
228.0421304928822
 20
149.7369113553904
 30
0.0
  0
ENDBLK
  5
17EA
330
17DF
100
AcDbEntity
  8
0
100
AcDbBlockEnd
  0
BLOCK
  5
1F2D
330
1F23
100
AcDbEntity
  8
0
100
AcDbBlockBegin
  2
*D2
 70
     1
 71
     0
 10
0.0
 20
0.0
 30
0.0
  3
*D2
  1

  0
LINE
  5
3D92
330
1F23
100
AcDbEntity
  8
SUNPOU
100
AcDbLine
 10
259.5615411356434
 20
195.7105375522993
 30
0.0
 11
259.5615411356434
 21
262.6042176378553
 31
0.0
  0
LINE
  5
3D93
330
1F23
100
AcDbEntity
  8
SUNPOU
100
AcDbLine
 10
393.5569879997438
 20
204.3890899577669
 30
0.0
 11
393.5569879997438
 21
262.6042176378553
 31
0.0
  0
LINE
  5
3D94
330
1F23
100
AcDbEntity
  8
SUNPOU
100
AcDbLine
 10
266.5615411356434
 20
259.6042176378554
 30
0.0
 11
386.5569879997436
 21
259.6042176378554
 31
0.0
  0
INSERT
  5
3D95
330
1F23
100
AcDbEntity
  8
SUNPOU
100
AcDbBlockReference
  2
_OPEN
 10
259.5615411356434
 20
259.6042176378554
 30
0.0
 41
7.0
 42
7.0
 43
7.0
 50
180.0
  0
INSERT
  5
3D96
330
1F23
100
AcDbEntity
  8
SUNPOU
100
AcDbBlockReference
  2
_OPEN
 10
393.5569879997438
 20
259.6042176378554
 30
0.0
 41
7.0
 42
7.0
 43
7.0
  0
MTEXT
  5
3D97
330
1F23
100
AcDbEntity
  8
SUNPOU
100
AcDbMText
 10
326.5592645676936
 20
264.6042176378553
 30
0.0
 40
6.0
 41
0.0
 71
     5
 72
     1
  1
\A1;134
 73
     1
 44
1.0
  0
POINT
  5
3D98
330
1F23
100
AcDbEntity
  8
DEFPOINTS
 62
     0
100
AcDbPoint
 10
259.5615411356434
 20
189.7105375522993
 30
0.0
  0
POINT
  5
3D99
330
1F23
100
AcDbEntity
  8
DEFPOINTS
 62
     0
100
AcDbPoint
 10
393.5569879997438
 20
198.3890899577668
 30
0.0
  0
POINT
  5
3D9A
330
1F23
100
AcDbEntity
  8
DEFPOINTS
 62
     0
100
AcDbPoint
 10
393.5569879997438
 20
259.6042176378554
 30
0.0
  0
ENDBLK
  5
1F2E
330
1F23
100
AcDbEntity
  8
0
100
AcDbBlockEnd
  0
BLOCK
  5
1F3A
330
1F30
100
AcDbEntity
  8
0
100
AcDbBlockBegin
  2
*D3
 70
     1
 71
     0
 10
0.0
 20
0.0
 30
0.0
  3
*D3
  1

  0
LINE
  5
3D89
330
1F30
100
AcDbEntity
  8
SUNPOU
100
AcDbLine
 10
393.5569879997438
 20
204.3890899577669
 30
0.0
 11
393.5569879997438
 21
262.6042176378553
 31
0.0
  0
LINE
  5
3D8A
330
1F30
100
AcDbEntity
  8
SUNPOU
100
AcDbLine
 10
428.5569879997438
 20
204.3890899577669
 30
0.0
 11
428.5569879997438
 21
262.6042176378553
 31
0.0
  0
LINE
  5
3D8B
330
1F30
100
AcDbEntity
  8
SUNPOU
100
AcDbLine
 10
400.5569879997436
 20
259.6042176378554
 30
0.0
 11
421.5569879997436
 21
259.6042176378554
 31
0.0
  0
INSERT
  5
3D8C
330
1F30
100
AcDbEntity
  8
SUNPOU
100
AcDbBlockReference
  2
_OPEN
 10
393.5569879997438
 20
259.6042176378554
 30
0.0
 41
7.0
 42
7.0
 43
7.0
 50
180.0
  0
INSERT
  5
3D8D
330
1F30
100
AcDbEntity
  8
SUNPOU
100
AcDbBlockReference
  2
_OPEN
 10
428.5569879997438
 20
259.6042176378554
 30
0.0
 41
7.0
 42
7.0
 43
7.0
  0
MTEXT
  5
3D8E
330
1F30
100
AcDbEntity
  8
SUNPOU
100
AcDbMText
 10
411.0569879997438
 20
264.6042176378553
 30
0.0
 40
6.0
 41
0.0
 71
     5
 72
     1
  1
\A1;35
 73
     1
 44
1.0
  0
POINT
  5
3D8F
330
1F30
100
AcDbEntity
  8
DEFPOINTS
 62
     0
100
AcDbPoint
 10
393.5569879997438
 20
198.3890899577668
 30
0.0
  0
POINT
  5
3D90
330
1F30
100
AcDbEntity
  8
DEFPOINTS
 62
     0
100
AcDbPoint
 10
428.5569879997438
 20
198.3890899577668
 30
0.0
  0
POINT
  5
3D91
330
1F30
100
AcDbEntity
  8
DEFPOINTS
 62
     0
100
AcDbPoint
 10
428.5569879997438
 20
259.6042176378554
 30
0.0
  0
ENDBLK
  5
1F3B
330
1F30
100
AcDbEntity
  8
0
100
AcDbBlockEnd
  0
BLOCK
  5
1F48
330
1F3E
100
AcDbEntity
  8
0
100
AcDbBlockBegin
  2
*D4
 70
     1
 71
     0
 10
0.0
 20
0.0
 30
0.0
  3
*D4
  1

  0
LINE
  5
3DAF
330
1F3E
100
AcDbEntity
  8
SUNPOU
100
AcDbLine
 10
294.5569879997433
 20
182.2959351226669
 30
0.0
 11
294.5569879997433
 21
249.3985787480436
 31
0.0
  0
LINE
  5
3DB0
330
1F3E
100
AcDbEntity
  8
SUNPOU
100
AcDbLine
 10
393.5569879997438
 20
210.3890899577669
 30
0.0
 11
393.5569879997438
 21
249.3985787480436
 31
0.0
  0
LINE
  5
3DB1
330
1F3E
100
AcDbEntity
  8
SUNPOU
100
AcDbLine
 10
301.5569879997433
 20
246.3985787480436
 30
0.0
 11
386.5569879997436
 21
246.3985787480436
 31
0.0
  0
INSERT
  5
3DB2
330
1F3E
100
AcDbEntity
  8
SUNPOU
100
AcDbBlockReference
  2
_OPEN
 10
294.5569879997433
 20
246.3985787480436
 30
0.0
 41
7.0
 42
7.0
 43
7.0
 50
180.0
  0
INSERT
  5
3DB3
330
1F3E
100
AcDbEntity
  8
SUNPOU
100
AcDbBlockReference
  2
_OPEN
 10
393.5569879997438
 20
246.3985787480436
 30
0.0
 41
7.0
 42
7.0
 43
7.0
  0
MTEXT
  5
3DB4
330
1F3E
100
AcDbEntity
  8
SUNPOU
100
AcDbMText
 10
344.0569879997435
 20
251.3985787480436
 30
0.0
 40
6.0
 41
0.0
 71
     5
 72
     1
  1
\A1;99
 73
     1
 44
1.0
  0
POINT
  5
3DB5
330
1F3E
100
AcDbEntity
  8
DEFPOINTS
 62
     0
100
AcDbPoint
 10
294.5569879997433
 20
176.2959351226669
 30
0.0
  0
POINT
  5
3DB6
330
1F3E
100
AcDbEntity
  8
DEFPOINTS
 62
     0
100
AcDbPoint
 10
393.5569879997438
 20
204.3890899577669
 30
0.0
  0
POINT
  5
3DB7
330
1F3E
100
AcDbEntity
  8
DEFPOINTS
 62
     0
100
AcDbPoint
 10
393.5569879997438
 20
246.3985787480436
 30
0.0
  0
ENDBLK
  5
1F49
330
1F3E
100
AcDbEntity
  8
0
100
AcDbBlockEnd
  0
BLOCK
  5
1F74
330
1F68
100
AcDbEntity
  8
0
100
AcDbBlockBegin
  2
*D5
 70
     1
 71
     0
 10
0.0
 20
0.0
 30
0.0
  3
*D5
  1

  0
LINE
  5
3DA4
330
1F68
100
AcDbEntity
  8
SUNPOU
100
AcDbLine
 10
393.5569879997438
 20
204.3890899577669
 30
0.0
 11
393.5569879997438
 21
237.7416360611008
 31
0.0
  0
LINE
  5
3DA5
330
1F68
100
AcDbEntity
  8
SUNPOU
100
AcDbLine
 10
383.200309332592
 20
186.7959351226669
 30
0.0
 11
383.200309332592
 21
237.7416360611008
 31
0.0
  0
LINE
  5
3DA6
330
1F68
100
AcDbEntity
  8
SUNPOU
100
AcDbLine
 10
400.5569879997436
 20
234.7416360611008
 30
0.0
 11
407.5569879997438
 21
234.7416360611008
 31
0.0
  0
LINE
  5
3DA7
330
1F68
100
AcDbEntity
  8
SUNPOU
100
AcDbLine
 10
376.200309332592
 20
234.7416360611008
 30
0.0
 11
358.200309332592
 21
234.7416360611008
 31
0.0
  0
LINE
  5
3DA8
330
1F68
100
AcDbEntity
  8
SUNPOU
100
AcDbLine
 10
393.5569879997438
 20
234.7416360611008
 30
0.0
 11
383.200309332592
 21
234.7416360611008
 31
0.0
  0
INSERT
  5
3DA9
330
1F68
100
AcDbEntity
  8
SUNPOU
100
AcDbBlockReference
  2
_OPEN
 10
393.5569879997438
 20
234.7416360611008
 30
0.0
 41
7.0
 42
7.0
 43
7.0
 50
180.0
  0
INSERT
  5
3DAA
330
1F68
100
AcDbEntity
  8
SUNPOU
100
AcDbBlockReference
  2
_OPEN
 10
383.200309332592
 20
234.7416360611008
 30
0.0
 41
7.0
 42
7.0
 43
7.0
  0
MTEXT
  5
3DAB
330
1F68
100
AcDbEntity
  8
SUNPOU
100
AcDbMText
 10
363.700309332592
 20
239.7416360611008
 30
0.0
 40
6.0
 41
0.0
 71
     5
 72
     1
  1
\A1;10
 73
     1
 44
1.0
  0
POINT
  5
3DAC
330
1F68
100
AcDbEntity
  8
DEFPOINTS
 62
     0
100
AcDbPoint
 10
393.5569879997438
 20
198.3890899577668
 30
0.0
  0
POINT
  5
3DAD
330
1F68
100
AcDbEntity
  8
DEFPOINTS
 62
     0
100
AcDbPoint
 10
383.200309332592
 20
180.7959351226669
 30
0.0
  0
POINT
  5
3DAE
330
1F68
100
AcDbEntity
  8
DEFPOINTS
 62
     0
100
AcDbPoint
 10
383.200309332592
 20
234.7416360611008
 30
0.0
  0
ENDBLK
  5
1F75
330
1F68
100
AcDbEntity
  8
0
100
AcDbBlockEnd
  0
BLOCK
  5
236F
330
2363
100
AcDbEntity
  8
0
100
AcDbBlockBegin
  2
*D6
 70
     1
 71
     0
 10
0.0
 20
0.0
 30
0.0
  3
*D6
  1

  0
LINE
  5
3E90
330
2363
100
AcDbEntity
  8
SUNPOU
100
AcDbLine
 10
535.8617756128394
 20
225.7929663260743
 30
0.0
 11
512.1587192702403
 21
214.0474826557695
 31
0.0
  0
LINE
  5
3E91
330
2363
100
AcDbEntity
  8
SUNPOU
100
AcDbLine
 10
534.3185696352171
 20
212.88674662245
 30
0.0
 11
516.9890828940141
 21
204.2995332018855
 31
0.0
  0
LINE
  5
3E92
330
2363
100
AcDbEntity
  8
SUNPOU
100
AcDbLine
 10
511.7387677305781
 20
221.6516683915558
 30
0.0
 11
508.6307414220443
 21
227.9238428522561
 31
0.0
  0
LINE
  5
3E93
330
2363
100
AcDbEntity
  8
SUNPOU
100
AcDbLine
 10
522.7851839714195
 20
199.3593700162711
 30
0.0
 11
525.8932102799535
 21
193.0871955555708
 31
0.0
  0
LINE
  5
3E94
330
2363
100
AcDbEntity
  8
SUNPOU
100
AcDbLine
 10
514.846794039112
 20
215.3794939308555
 30
0.0
 11
519.6771576628858
 21
205.6315444769714
 31
0.0
  0
INSERT
  5
3E95
330
2363
100
AcDbEntity
  8
SUNPOU
100
AcDbBlockReference
  2
_OPEN
 10
514.846794039112
 20
215.3794939308555
 30
0.0
 41
7.0
 42
7.0
 43
7.0
 50
296.3596171166296
  0
INSERT
  5
3E96
330
2363
100
AcDbEntity
  8
SUNPOU
100
AcDbBlockReference
  2
_OPEN
 10
519.6771576628858
 20
205.6315444769714
 30
0.0
 41
7.0
 42
7.0
 43
7.0
 50
116.3596171166297
  0
MTEXT
  5
3E97
330
2363
100
AcDbEntity
  8
SUNPOU
100
AcDbMText
 10
521.7421004657847
 20
212.7255379957234
 30
0.0
 40
6.0
 41
0.0
 71
     5
 72
     1
  1
\A1;11
 11
0.4440037583619794
 21
-0.8960249229571893
 31
0.0
 73
     1
 44
1.0
  0
POINT
  5
3E98
330
2363
100
AcDbEntity
  8
DEFPOINTS
 62
     0
100
AcDbPoint
 10
541.2379251505826
 20
228.4569888762462
 30
0.0
  0
POINT
  5
3E99
330
2363
100
AcDbEntity
  8
DEFPOINTS
 62
     0
100
AcDbPoint
 10
539.6947191729603
 20
215.5507691726218
 30
0.0
  0
POINT
  5
3E9A
330
2363
100
AcDbEntity
  8
DEFPOINTS
 62
     0
100
AcDbPoint
 10
519.6771576628858
 20
205.6315444769714
 30
0.0
  0
ENDBLK
  5
2370
330
2363
100
AcDbEntity
  8
0
100
AcDbBlockEnd
  0
BLOCK
  5
2394
330
2388
100
AcDbEntity
  8
0
100
AcDbBlockBegin
  2
*D7
 70
     1
 71
     0
 10
0.0
 20
0.0
 30
0.0
  3
*D7
  1

  0
LINE
  5
3DDC
330
2388
100
AcDbEntity
  8
SUNPOU
100
AcDbLine
 10
599.5212611865807
 20
284.8229054347517
 30
0.0
 11
618.6710593461313
 21
294.3121307195264
 31
0.0
  0
LINE
  5
3DDD
330
2388
100
AcDbEntity
  8
SUNPOU
100
AcDbLine
 10
593.0204415921734
 20
297.9419303676192
 30
0.0
 11
612.1702397517239
 21
307.4311556523937
 31
0.0
  0
LINE
  5
3DDE
330
2388
100
AcDbEntity
  8
SUNPOU
100
AcDbLine
 10
619.0910108857934
 20
286.7079449837401
 30
0.0
 11
622.1990371943273
 21
280.4357705230397
 31
0.0
  0
LINE
  5
3DDF
330
2388
100
AcDbEntity
  8
SUNPOU
100
AcDbLine
 10
606.3741386743186
 20
312.3713188380082
 30
0.0
 11
603.2661123657848
 21
318.6434932987085
 31
0.0
  0
LINE
  5
3DE0
330
2388
100
AcDbEntity
  8
SUNPOU
100
AcDbLine
 10
615.9829845772598
 20
292.9801194444404
 30
0.0
 11
609.4821649828523
 21
306.0991443773078
 31
0.0
  0
INSERT
  5
3DE1
330
2388
100
AcDbEntity
  8
SUNPOU
100
AcDbBlockReference
  2
_OPEN
 10
615.9829845772598
 20
292.9801194444404
 30
0.0
 41
7.0
 42
7.0
 43
7.0
 50
116.3596171166289
  0
INSERT
  5
3DE2
330
2388
100
AcDbEntity
  8
SUNPOU
100
AcDbBlockReference
  2
_OPEN
 10
609.4821649828523
 20
306.0991443773078
 30
0.0
 41
7.0
 42
7.0
 43
7.0
 50
296.3596171166289
  0
MTEXT
  5
3DE3
330
2388
100
AcDbEntity
  8
SUNPOU
100
AcDbMText
 10
617.2126993948421
 20
301.7596507026839
 30
0.0
 40
6.0
 41
0.0
 71
     5
 72
     1
  1
\A1;15
 11
0.4440037583619682
 21
-0.8960249229571948
 31
0.0
 73
     1
 44
1.0
  0
POINT
  5
3DE4
330
2388
100
AcDbEntity
  8
DEFPOINTS
 62
     0
100
AcDbPoint
 10
594.1451116488373
 20
282.1588828845799
 30
0.0
  0
POINT
  5
3DE5
330
2388
100
AcDbEntity
  8
DEFPOINTS
 62
     0
100
AcDbPoint
 10
587.6442920544301
 20
295.2779078174474
 30
0.0
  0
POINT
  5
3DE6
330
2388
100
AcDbEntity
  8
DEFPOINTS
 62
     0
100
AcDbPoint
 10
609.4821649828523
 20
306.0991443773078
 30
0.0
  0
ENDBLK
  5
2395
330
2388
100
AcDbEntity
  8
0
100
AcDbBlockEnd
  0
BLOCK
  5
23A1
330
2397
100
AcDbEntity
  8
0
100
AcDbBlockBegin
  2
*D8
 70
     1
 71
     0
 10
0.0
 20
0.0
 30
0.0
  3
*D8
  1

  0
LINE
  5
3DD3
330
2397
100
AcDbEntity
  8
SUNPOU
100
AcDbLine
 10
530.8668194187085
 20
268.5304552740572
 30
0.0
 11
520.416094570673
 21
289.6206144235064
 31
0.0
  0
LINE
  5
3DD4
330
2397
100
AcDbEntity
  8
SUNPOU
100
AcDbLine
 10
581.9402400272683
 20
293.8386695006899
 30
0.0
 11
571.4895151792327
 21
314.928828650139
 31
0.0
  0
LINE
  5
3DD5
330
2397
100
AcDbEntity
  8
SUNPOU
100
AcDbLine
 10
528.0202803064593
 20
290.0405659631687
 30
0.0
 11
566.5493519936184
 21
309.1327275727336
 31
0.0
  0
INSERT
  5
3DD6
330
2397
100
AcDbEntity
  8
SUNPOU
100
AcDbBlockReference
  2
_OPEN
 10
521.748105845759
 20
286.9325396546348
 30
0.0
 41
7.0
 42
7.0
 43
7.0
 50
206.3596171166294
  0
INSERT
  5
3DD7
330
2397
100
AcDbEntity
  8
SUNPOU
100
AcDbBlockReference
  2
_OPEN
 10
572.8215264543188
 20
312.2407538812674
 30
0.0
 41
7.0
 42
7.0
 43
7.0
 50
26.35961711662948
  0
MTEXT
  5
3DD8
330
2397
100
AcDbEntity
  8
SUNPOU
100
AcDbMText
 10
545.064797358229
 20
304.0667713827371
 30
0.0
 40
6.0
 41
0.0
 71
     5
 72
     1
  1
\A1;57
 11
0.8960249229571905
 21
0.4440037583619768
 31
0.0
 73
     1
 44
1.0
  0
POINT
  5
3DD9
330
2397
100
AcDbEntity
  8
DEFPOINTS
 62
     0
100
AcDbPoint
 10
533.5308419688803
 20
263.1543057363141
 30
0.0
  0
POINT
  5
3DDA
330
2397
100
AcDbEntity
  8
DEFPOINTS
 62
     0
100
AcDbPoint
 10
584.6042625774401
 20
288.4625199629467
 30
0.0
  0
POINT
  5
3DDB
330
2397
100
AcDbEntity
  8
DEFPOINTS
 62
     0
100
AcDbPoint
 10
572.8215264543188
 20
312.2407538812674
 30
0.0
  0
ENDBLK
  5
23A2
330
2397
100
AcDbEntity
  8
0
100
AcDbBlockEnd
  0
BLOCK
  5
23AE
330
23A4
100
AcDbEntity
  8
0
100
AcDbBlockBegin
  2
*D9
 70
     1
 71
     0
 10
0.0
 20
0.0
 30
0.0
  3
*D9
  1

  0
LINE
  5
3E06
330
23A4
100
AcDbEntity
  8
SUNPOU
100
AcDbLine
 10
555.3526271075278
 20
223.6211643674182
 30
0.0
 11
569.1862560885053
 21
195.7041116207756
 31
0.0
  0
LINE
  5
3E07
330
23A4
100
AcDbEntity
  8
SUNPOU
100
AcDbLine
 10
602.8419480242591
 20
247.1533635606025
 30
0.0
 11
616.6755770052365
 21
219.2363108139598
 31
0.0
  0
LINE
  5
3E08
330
23A4
100
AcDbEntity
  8
SUNPOU
100
AcDbLine
 10
574.1264192741197
 20
201.5002126981809
 30
0.0
 11
609.0713912694503
 21
218.8163592742976
 31
0.0
  0
INSERT
  5
3E09
330
23A4
100
AcDbEntity
  8
SUNPOU
100
AcDbBlockReference
  2
_OPEN
 10
567.8542448134193
 20
198.3921863896472
 30
0.0
 41
7.0
 42
7.0
 43
7.0
 50
206.3596171166289
  0
INSERT
  5
3E0A
330
23A4
100
AcDbEntity
  8
SUNPOU
100
AcDbBlockReference
  2
_OPEN
 10
615.3435657301507
 20
221.9243855828314
 30
0.0
 41
7.0
 42
7.0
 43
7.0
 50
26.35961711662889
  0
MTEXT
  5
3E0B
330
23A4
100
AcDbEntity
  8
SUNPOU
100
AcDbMText
 10
589.3788864799751
 20
214.6384106010252
 30
0.0
 40
6.0
 41
0.0
 71
     5
 72
     1
  1
\A1;53
 11
0.8960249229571951
 21
0.4440037583619676
 31
0.0
 73
     1
 44
1.0
  0
POINT
  5
3E0C
330
23A4
100
AcDbEntity
  8
DEFPOINTS
 62
     0
100
AcDbPoint
 10
552.6886045573561
 20
228.9973139051614
 30
0.0
  0
POINT
  5
3E0D
330
23A4
100
AcDbEntity
  8
DEFPOINTS
 62
     0
100
AcDbPoint
 10
600.1779254740873
 20
252.5295130983456
 30
0.0
  0
POINT
  5
3E0E
330
23A4
100
AcDbEntity
  8
DEFPOINTS
 62
     0
100
AcDbPoint
 10
615.3435657301507
 20
221.9243855828314
 30
0.0
  0
ENDBLK
  5
23AF
330
23A4
100
AcDbEntity
  8
0
100
AcDbBlockEnd
  0
BLOCK
  5
23BB
330
23B1
100
AcDbEntity
  8
0
100
AcDbBlockBegin
  2
*D10
 70
     1
 71
     0
 10
0.0
 20
0.0
 30
0.0
  3
*D10
  1

  0
LINE
  5
3DCA
330
23B1
100
AcDbEntity
  8
SUNPOU
100
AcDbLine
 10
525.0870505705566
 20
261.243056941678
 30
0.0
 11
505.9135265701497
 21
299.936322576778
 31
0.0
  0
LINE
  5
3DCB
330
23B1
100
AcDbEntity
  8
SUNPOU
100
AcDbLine
 10
591.3162396343472
 20
294.0613503888496
 30
0.0
 11
572.1427156339403
 21
332.7546160239496
 31
0.0
  0
LINE
  5
3DCC
330
23B1
100
AcDbEntity
  8
SUNPOU
100
AcDbLine
 10
513.5177123059358
 20
300.3562741164402
 30
0.0
 11
567.2025524483257
 21
326.9585149465441
 31
0.0
  0
INSERT
  5
3DCD
330
23B1
100
AcDbEntity
  8
SUNPOU
100
AcDbBlockReference
  2
_OPEN
 10
507.2455378452357
 20
297.2482478079064
 30
0.0
 41
7.0
 42
7.0
 43
7.0
 50
206.359617116629
  0
INSERT
  5
3DCE
330
23B1
100
AcDbEntity
  8
SUNPOU
100
AcDbBlockReference
  2
_OPEN
 10
573.4747269090262
 20
330.066541255078
 30
0.0
 41
7.0
 42
7.0
 43
7.0
 50
26.35961711662903
  0
MTEXT
  5
3DCF
330
23B1
100
AcDbEntity
  8
SUNPOU
100
AcDbMText
 10
538.1401135853209
 20
318.1375191462781
 30
0.0
 40
6.0
 41
0.0
 71
     5
 72
     1
  1
\A1;74
 11
0.8960249229571941
 21
0.4440037583619698
 31
0.0
 73
     1
 44
1.0
  0
POINT
  5
3DD0
330
23B1
100
AcDbEntity
  8
DEFPOINTS
 62
     0
100
AcDbPoint
 10
527.7510731207284
 20
255.8669074039348
 30
0.0
  0
POINT
  5
3DD1
330
23B1
100
AcDbEntity
  8
DEFPOINTS
 62
     0
100
AcDbPoint
 10
593.9802621845189
 20
288.6852008511064
 30
0.0
  0
POINT
  5
3DD2
330
23B1
100
AcDbEntity
  8
DEFPOINTS
 62
     0
100
AcDbPoint
 10
573.4747269090262
 20
330.066541255078
 30
0.0
  0
ENDBLK
  5
23BC
330
23B1
100
AcDbEntity
  8
0
100
AcDbBlockEnd
  0
BLOCK
  5
26B0
330
26A6
100
AcDbEntity
  8
0
100
AcDbBlockBegin
  2
*D11
 70
     1
 71
     0
 10
0.0
 20
0.0
 30
0.0
  3
*D11
  1

  0
LINE
  5
3D80
330
26A6
100
AcDbEntity
  8
SUNPOU
100
AcDbLine
 10
420.1964099776341
 20
442.0011038095599
 30
0.0
 11
469.1046121213313
 21
442.0011038095599
 31
0.0
  0
LINE
  5
3D81
330
26A6
100
AcDbEntity
  8
SUNPOU
100
AcDbLine
 10
420.5331771519377
 20
368.0438785017376
 30
0.0
 11
469.1046121213312
 21
368.0438785017376
 31
0.0
  0
LINE
  5
3D82
330
26A6
100
AcDbEntity
  8
SUNPOU
100
AcDbLine
 10
466.1046121213312
 20
435.0011038095599
 30
0.0
 11
466.1046121213312
 21
375.0438785017377
 31
0.0
  0
INSERT
  5
3D83
330
26A6
100
AcDbEntity
  8
SUNPOU
100
AcDbBlockReference
  2
_OPEN
 10
466.1046121213312
 20
442.0011038095599
 30
0.0
 41
7.0
 42
7.0
 43
7.0
 50
90.0
  0
INSERT
  5
3D84
330
26A6
100
AcDbEntity
  8
SUNPOU
100
AcDbBlockReference
  2
_OPEN
 10
466.1046121213312
 20
368.0438785017376
 30
0.0
 41
7.0
 42
7.0
 43
7.0
 50
270.0
  0
MTEXT
  5
3D85
330
26A6
100
AcDbEntity
  8
SUNPOU
100
AcDbMText
 10
461.1046121213312
 20
405.0224911556489
 30
0.0
 40
6.0
 41
0.0
 71
     5
 72
     1
  1
\A1;74
 11
1.000000000000000E-16
 21
1.0
 31
0.0
 73
     1
 44
1.0
  0
POINT
  5
3D86
330
26A6
100
AcDbEntity
  8
DEFPOINTS
 62
     0
100
AcDbPoint
 10
414.1964099776341
 20
442.0011038095599
 30
0.0
  0
POINT
  5
3D87
330
26A6
100
AcDbEntity
  8
DEFPOINTS
 62
     0
100
AcDbPoint
 10
414.5331771519377
 20
368.0438785017376
 30
0.0
  0
POINT
  5
3D88
330
26A6
100
AcDbEntity
  8
DEFPOINTS
 62
     0
100
AcDbPoint
 10
466.1046121213312
 20
368.0438785017376
 30
0.0
  0
ENDBLK
  5
26B1
330
26A6
100
AcDbEntity
  8
0
100
AcDbBlockEnd
  0
BLOCK
  5
26C3
330
26B9
100
AcDbEntity
  8
0
100
AcDbBlockBegin
  2
*D12
 70
     1
 71
     0
 10
0.0
 20
0.0
 30
0.0
  3
*D12
  1

  0
LINE
  5
3DC1
330
26B9
100
AcDbEntity
  8
SUNPOU
100
AcDbLine
 10
253.5615411356434
 20
415.0012033327226
 30
0.0
 11
232.5978024723435
 21
415.0012033327226
 31
0.0
  0
LINE
  5
3DC2
330
26B9
100
AcDbEntity
  8
SUNPOU
100
AcDbLine
 10
253.5615411356434
 20
395.0012033327226
 30
0.0
 11
232.5978024723435
 21
395.0012033327226
 31
0.0
  0
LINE
  5
3DC3
330
26B9
100
AcDbEntity
  8
SUNPOU
100
AcDbLine
 10
235.5978024723435
 20
408.0012033327226
 30
0.0
 11
235.5978024723435
 21
402.0012033327226
 31
0.0
  0
INSERT
  5
3DC4
330
26B9
100
AcDbEntity
  8
SUNPOU
100
AcDbBlockReference
  2
_OPEN
 10
235.5978024723435
 20
415.0012033327226
 30
0.0
 41
7.0
 42
7.0
 43
7.0
 50
90.0
  0
INSERT
  5
3DC5
330
26B9
100
AcDbEntity
  8
SUNPOU
100
AcDbBlockReference
  2
_OPEN
 10
235.5978024723435
 20
395.0012033327226
 30
0.0
 41
7.0
 42
7.0
 43
7.0
 50
270.0
  0
MTEXT
  5
3DC6
330
26B9
100
AcDbEntity
  8
SUNPOU
100
AcDbMText
 10
230.5978024723435
 20
405.0012033327227
 30
0.0
 40
6.0
 41
0.0
 71
     5
 72
     1
  1
\A1;20
 11
1.000000000000000E-16
 21
1.0
 31
0.0
 73
     1
 44
1.0
  0
POINT
  5
3DC7
330
26B9
100
AcDbEntity
  8
DEFPOINTS
 62
     0
100
AcDbPoint
 10
259.5615411356434
 20
415.0012033327226
 30
0.0
  0
POINT
  5
3DC8
330
26B9
100
AcDbEntity
  8
DEFPOINTS
 62
     0
100
AcDbPoint
 10
259.5615411356434
 20
395.0012033327226
 30
0.0
  0
POINT
  5
3DC9
330
26B9
100
AcDbEntity
  8
DEFPOINTS
 62
     0
100
AcDbPoint
 10
235.5978024723435
 20
395.0012033327226
 30
0.0
  0
ENDBLK
  5
26C4
330
26B9
100
AcDbEntity
  8
0
100
AcDbBlockEnd
  0
BLOCK
  5
3376
330
336C
100
AcDbEntity
  8
0
100
AcDbBlockBegin
  2
*D13
 70
     1
 71
     0
 10
0.0
 20
0.0
 30
0.0
  3
*D13
  1

  0
LINE
  5
3D77
330
336C
100
AcDbEntity
  8
SUNPOU
100
AcDbLine
 10
421.2842309207389
 20
156.3510119807809
 30
0.0
 11
473.5831931468821
 21
182.5004930938511
 31
0.0
  0
LINE
  5
3D78
330
336C
100
AcDbEntity
  8
SUNPOU
100
AcDbLine
 10
398.9235511457417
 20
201.0723715307775
 30
0.0
 11
451.2225133718848
 21
227.2218526438477
 31
0.0
  0
LINE
  5
3D79
330
336C
100
AcDbEntity
  8
SUNPOU
100
AcDbLine
 10
467.7694164053829
 20
187.4198426443507
 30
0.0
 11
451.6697269673848
 21
219.6192215203484
 31
0.0
  0
INSERT
  5
3D7A
330
336C
100
AcDbEntity
  8
SUNPOU
100
AcDbBlockReference
  2
_OPEN
 10
470.8999115738824
 20
181.1588523073513
 30
0.0
 41
7.0
 42
7.0
 43
7.0
 50
296.5650511770768
  0
INSERT
  5
3D7B
330
336C
100
AcDbEntity
  8
SUNPOU
100
AcDbBlockReference
  2
_OPEN
 10
448.5392317988852
 20
225.8802118573479
 30
0.0
 41
7.0
 42
7.0
 43
7.0
 50
116.5650511770768
  0
MTEXT
  5
3D7C
330
336C
100
AcDbEntity
  8
SUNPOU
100
AcDbMText
 10
464.1917076413833
 20
205.7556000598493
 30
0.0
 40
6.0
 41
0.0
 71
     5
 72
     1
  1
\A1;50
 11
0.4472135954999398
 21
-0.8944271909999249
 31
0.0
 73
     1
 44
1.0
  0
POINT
  5
3D7D
330
336C
100
AcDbEntity
  8
DEFPOINTS
 62
     0
100
AcDbPoint
 10
415.9176677747394
 20
153.6677304077812
 30
0.0
  0
POINT
  5
3D7E
330
336C
100
AcDbEntity
  8
DEFPOINTS
 62
     0
100
AcDbPoint
 10
393.5569879997422
 20
198.3890899577778
 30
0.0
  0
POINT
  5
3D7F
330
336C
100
AcDbEntity
  8
DEFPOINTS
 62
     0
100
AcDbPoint
 10
448.5392317988852
 20
225.8802118573479
 30
0.0
  0
ENDBLK
  5
3377
330
336C
100
AcDbEntity
  8
0
100
AcDbBlockEnd
  0
BLOCK
  5
3494
330
348A
100
AcDbEntity
  8
0
100
AcDbBlockBegin
  2
*D14
 70
     1
 71
     0
 10
0.0
 20
0.0
 30
0.0
  3
*D14
  1

  0
LINE
  5
3DB8
330
348A
100
AcDbEntity
  8
SUNPOU
100
AcDbLine
 10
288.5557815652682
 20
422.9734031906854
 30
0.0
 11
210.8740407016735
 21
422.9734031906854
 31
0.0
  0
LINE
  5
3DB9
330
348A
100
AcDbEntity
  8
SUNPOU
100
AcDbLine
 10
288.5557815652682
 20
387.0288034747601
 30
0.0
 11
210.8740407016735
 21
387.0288034747601
 31
0.0
  0
LINE
  5
3DBA
330
348A
100
AcDbEntity
  8
SUNPOU
100
AcDbLine
 10
213.8740407016734
 20
415.9734031906854
 30
0.0
 11
213.8740407016734
 21
394.0288034747601
 31
0.0
  0
INSERT
  5
3DBB
330
348A
100
AcDbEntity
  8
SUNPOU
100
AcDbBlockReference
  2
_OPEN
 10
213.8740407016734
 20
422.9734031906854
 30
0.0
 41
7.0
 42
7.0
 43
7.0
 50
90.0
  0
INSERT
  5
3DBC
330
348A
100
AcDbEntity
  8
SUNPOU
100
AcDbBlockReference
  2
_OPEN
 10
213.8740407016734
 20
387.0288034747601
 30
0.0
 41
7.0
 42
7.0
 43
7.0
 50
270.0
  0
MTEXT
  5
3DBD
330
348A
100
AcDbEntity
  8
SUNPOU
100
AcDbMText
 10
208.8740407016734
 20
405.0011033327227
 30
0.0
 40
6.0
 41
0.0
 71
     5
 72
     1
  1
\A1;36
 11
1.000000000000000E-16
 21
1.0
 31
0.0
 73
     1
 44
1.0
  0
POINT
  5
3DBE
330
348A
100
AcDbEntity
  8
DEFPOINTS
 62
     0
100
AcDbPoint
 10
294.5557815652682
 20
422.9734031906854
 30
0.0
  0
POINT
  5
3DBF
330
348A
100
AcDbEntity
  8
DEFPOINTS
 62
     0
100
AcDbPoint
 10
294.5557815652682
 20
387.0288034747601
 30
0.0
  0
POINT
  5
3DC0
330
348A
100
AcDbEntity
  8
DEFPOINTS
 62
     0
100
AcDbPoint
 10
213.8740407016734
 20
387.0288034747601
 30
0.0
  0
ENDBLK
  5
3495
330
348A
100
AcDbEntity
  8
0
100
AcDbBlockEnd
  0
BLOCK
  5
38AF
330
38A3
100
AcDbEntity
  8
0
100
AcDbBlockBegin
  2
*D15
 70
     1
 71
     0
 10
0.0
 20
0.0
 30
0.0
  3
*D15
  1

  0
LINE
  5
3DF0
330
38A3
100
AcDbEntity
  8
SUNPOU
100
AcDbLine
 10
518.4263663287286
 20
260.9786172722671
 30
0.0
 11
494.7233099861296
 21
249.2331336019621
 31
0.0
  0
LINE
  5
3DF1
330
38A3
100
AcDbEntity
  8
SUNPOU
100
AcDbLine
 10
522.5808974472081
 20
252.5945363827447
 30
0.0
 11
498.8778411046092
 21
240.8490527124397
 31
0.0
  0
LINE
  5
3DF2
330
38A3
100
AcDbEntity
  8
SUNPOU
100
AcDbLine
 10
494.3033584464672
 20
256.8373193377484
 30
0.0
 11
491.1953321379334
 21
263.1094937984487
 31
0.0
  0
LINE
  5
3DF3
330
38A3
100
AcDbEntity
  8
SUNPOU
100
AcDbLine
 10
504.6739421820146
 20
235.9088895268254
 30
0.0
 11
507.7819684905485
 21
229.636715066125
 31
0.0
  0
LINE
  5
3DF4
330
38A3
100
AcDbEntity
  8
SUNPOU
100
AcDbLine
 10
497.4113847550012
 20
250.5651448770481
 30
0.0
 11
501.5659158734806
 21
242.1810639875257
 31
0.0
  0
INSERT
  5
3DF5
330
38A3
100
AcDbEntity
  8
SUNPOU
100
AcDbBlockReference
  2
_OPEN
 10
497.4113847550012
 20
250.5651448770481
 30
0.0
 41
7.0
 42
7.0
 43
7.0
 50
296.3596171166302
  0
INSERT
  5
3DF6
330
38A3
100
AcDbEntity
  8
SUNPOU
100
AcDbBlockReference
  2
_OPEN
 10
501.5659158734806
 20
242.1810639875257
 30
0.0
 41
7.0
 42
7.0
 43
7.0
 50
116.3596171166302
  0
MTEXT
  5
3DF7
330
38A3
100
AcDbEntity
  8
SUNPOU
100
AcDbMText
 10
503.9687749290267
 20
248.5931232240968
 30
0.0
 40
6.0
 41
0.0
 71
     5
 72
     1
  1
\A1;9
 11
0.4440037583619886
 21
-0.8960249229571848
 31
0.0
 73
     1
 44
1.0
  0
POINT
  5
3DF8
330
38A3
100
AcDbEntity
  8
DEFPOINTS
 62
     0
100
AcDbPoint
 10
523.8025158664718
 20
263.6426398224391
 30
0.0
  0
POINT
  5
3DF9
330
38A3
100
AcDbEntity
  8
DEFPOINTS
 62
     0
100
AcDbPoint
 10
527.9570469849514
 20
255.2585589329167
 30
0.0
  0
POINT
  5
3DFA
330
38A3
100
AcDbEntity
  8
DEFPOINTS
 62
     0
100
AcDbPoint
 10
501.5659158734806
 20
242.1810639875257
 30
0.0
  0
ENDBLK
  5
38B0
330
38A3
100
AcDbEntity
  8
0
100
AcDbBlockEnd
  0
BLOCK
  5
38BC
330
38B2
100
AcDbEntity
  8
0
100
AcDbBlockBegin
  2
*D16
 70
     1
 71
     0
 10
0.0
 20
0.0
 30
0.0
  3
*D16
  1

  0
LINE
  5
3DE7
330
38B2
100
AcDbEntity
  8
SUNPOU
100
AcDbLine
 10
518.4263663287286
 20
260.9786172722672
 30
0.0
 11
482.3965196045263
 21
243.1248869251747
 31
0.0
  0
LINE
  5
3DE8
330
38B2
100
AcDbEntity
  8
SUNPOU
100
AcDbLine
 10
540.6921392366133
 20
216.0450168721902
 30
0.0
 11
504.6622925124109
 21
198.1912865250978
 31
0.0
  0
LINE
  5
3DE9
330
38B2
100
AcDbEntity
  8
SUNPOU
100
AcDbLine
 10
488.1926206819318
 20
238.1847237395603
 30
0.0
 11
504.2423409727487
 21
205.795472260884
 31
0.0
  0
INSERT
  5
3DEA
330
38B2
100
AcDbEntity
  8
SUNPOU
100
AcDbBlockReference
  2
_OPEN
 10
485.0845943733979
 20
244.4568982002607
 30
0.0
 41
7.0
 42
7.0
 43
7.0
 50
116.3596171166297
  0
INSERT
  5
3DEB
330
38B2
100
AcDbEntity
  8
SUNPOU
100
AcDbBlockReference
  2
_OPEN
 10
507.3503672812825
 20
199.5232978001837
 30
0.0
 41
7.0
 42
7.0
 43
7.0
 50
296.3596171166297
  0
MTEXT
  5
3DEC
330
38B2
100
AcDbEntity
  8
SUNPOU
100
AcDbMText
 10
500.6976054421261
 20
224.2101167920321
 30
0.0
 40
6.0
 41
0.0
 71
     5
 72
     1
  1
\A1;50
 11
0.444003758361981
 21
-0.8960249229571886
 31
0.0
 73
     1
 44
1.0
  0
POINT
  5
3DED
330
38B2
100
AcDbEntity
  8
DEFPOINTS
 62
     0
100
AcDbPoint
 10
523.8025158664718
 20
263.6426398224391
 30
0.0
  0
POINT
  5
3DEE
330
38B2
100
AcDbEntity
  8
DEFPOINTS
 62
     0
100
AcDbPoint
 10
546.0682887743566
 20
218.7090394223622
 30
0.0
  0
POINT
  5
3DEF
330
38B2
100
AcDbEntity
  8
DEFPOINTS
 62
     0
100
AcDbPoint
 10
507.3503672812825
 20
199.5232978001837
 30
0.0
  0
ENDBLK
  5
38BD
330
38B2
100
AcDbEntity
  8
0
100
AcDbBlockEnd
  0
ENDSEC
  0
SECTION
  2
ENTITIES
  0
LINE
  5
14E8
330
1A
100
AcDbEntity
  8
SEIHIN
100
AcDbLine
 10
374.5569879997433
 20
180.7959351226669
 30
0.0
 11
365.1641599613432
 21
199.5529792889669
 31
0.0
  0
LINE
  5
14E9
330
1A
100
AcDbEntity
  8
SEIHIN
100
AcDbLine
 10
376.5569879997431
 20
180.2959351226669
 30
0.0
 11
376.5569879997431
 21
200.1549859116668
 31
0.0
  0
LINE
  5
14EA
330
1A
100
AcDbEntity
  8
SEIHIN
100
AcDbLine
 10
387.0603062626435
 20
180.7959351226669
 30
0.0
 11
377.1432946294428
 21
200.5997497395668
 31
0.0
  0
LINE
  5
14EB
330
1A
100
AcDbEntity
  8
SEIHIN
100
AcDbLine
 10
364.5784616629426
 20
180.2959351226669
 30
0.0
 11
364.5784616629426
 21
199.1070006514668
 31
0.0
  0
LINE
  5
14F1
330
1A
100
AcDbEntity
  8
SEIHIN
100
AcDbLine
 10
316.0027977958429
 20
177.6635930378669
 30
0.0
 11
329.2612972604433
 21
190.2054168557669
 31
0.0
  0
LINE
  5
14F5
330
1A
100
AcDbEntity
  8
SEIHIN
100
AcDbLine
 10
324.3487189978432
 20
167.6635930378669
 30
0.0
 11
333.894051241943
 21
176.6929613769669
 31
0.0
  0
LINE
  5
14FA
330
1A
100
AcDbEntity
  8
CENTER_L
  6
CENTER
 62
     1
 48
5.0
100
AcDbLine
 10
304.5569879997433
 20
139.930856499567
 30
0.0
 11
304.5569879997433
 21
185.7957551369207
 31
0.0
  0
ARC
  5
14FF
330
1A
100
AcDbEntity
  8
SEIHIN
100
AcDbCircle
 10
294.8789534312431
 20
139.305917301567
 30
0.0
 40
19.99999999999979
100
AcDbArc
 50
24.22774531799797
 51
45.17888544669912
  0
ARC
  5
1500
330
1A
100
AcDbEntity
  8
SEIHIN
100
AcDbCircle
 10
294.8789534312431
 20
139.305917301567
 30
0.0
 40
19.50000000000007
100
AcDbArc
 50
24.22774531799797
 51
40.95354965840421
  0
LINE
  5
1501
330
1A
100
AcDbEntity
  8
SEIHIN
100
AcDbLine
 10
308.7813228745431
 20
151.983016470767
 30
0.0
 11
308.0980388623429
 21
150.616448446267
 31
0.0
  0
LINE
  5
1502
330
1A
100
AcDbEntity
  8
SEIHIN
100
AcDbLine
 10
307.4768664719431
 20
150.4921376542669
 30
0.0
 11
308.9768664719431
 21
153.4921376542669
 31
0.0
  0
LINE
  5
1503
330
1A
100
AcDbEntity
  8
SEIHIN
100
AcDbLine
 10
299.9768664719431
 20
153.4921376542669
 30
0.0
 11
301.4768664719431
 21
150.4921376542669
 31
0.0
  0
LINE
  5
1504
330
1A
100
AcDbEntity
  8
SEIHIN
100
AcDbLine
 10
300.1724100693432
 20
151.983016470767
 30
0.0
 11
300.8556940816433
 21
150.616448446267
 31
0.0
  0
ARC
  5
1505
330
1A
100
AcDbEntity
  8
SEIHIN
100
AcDbCircle
 10
314.0747795127431
 20
139.305917301567
 30
0.0
 40
19.9999999999998
100
AcDbArc
 50
134.8211145533008
 51
155.772254682002
  0
ARC
  5
1506
330
1A
100
AcDbEntity
  8
SEIHIN
100
AcDbCircle
 10
314.0747795127431
 20
139.305917301567
 30
0.0
 40
19.49999999999999
100
AcDbArc
 50
139.0464503415957
 51
155.772254682002
  0
LINE
  5
1507
330
1A
100
AcDbEntity
  8
SEIHIN
100
AcDbLine
 10
313.1478627356432
 20
144.736238858367
 30
0.0
 11
310.2831004968429
 21
144.163286410667
 31
0.0
  0
LINE
  5
1508
330
1A
100
AcDbEntity
  8
SEIHIN
100
AcDbLine
 10
313.2459208032432
 20
144.2459485205669
 30
0.0
 11
310.3811585643429
 21
143.672996072767
 31
0.0
  0
ARC
  5
1509
330
1A
100
AcDbEntity
  8
SEIHIN
100
AcDbCircle
 10
310.1850424292433
 20
144.653576748467
 30
0.0
 40
0.5000000000003146
100
AcDbArc
 50
195.945395900892
 51
281.3099324739711
  0
ARC
  5
150A
330
1A
100
AcDbEntity
  8
SEIHIN
100
AcDbCircle
 10
310.1850424292433
 20
144.653576748467
 30
0.0
 40
1.000000000000188
100
AcDbArc
 50
195.9453959008982
 51
281.3099324739977
  0
ARC
  5
150B
330
1A
100
AcDbEntity
  8
SEIHIN
100
AcDbCircle
 10
308.5452524578431
 20
150.392841648467
 30
0.0
 40
0.4999999999998817
100
AcDbArc
 50
153.4349488228994
 51
195.9453959010048
  0
ARC
  5
150C
330
1A
100
AcDbEntity
  8
SEIHIN
100
AcDbCircle
 10
307.0997157655434
 20
149.9921376542669
 30
0.0
 40
0.4999999999996549
100
AcDbArc
 50
15.94539590100561
 51
89.99999999973944
  0
LINE
  5
150D
330
1A
100
AcDbEntity
  8
SEIHIN
100
AcDbLine
 10
306.9768664719431
 20
150.4921376542669
 30
0.0
 11
306.9768664719431
 21
146.930856499567
 31
0.0
  0
LINE
  5
150E
330
1A
100
AcDbEntity
  8
SEIHIN
100
AcDbLine
 10
308.0644904839432
 20
150.2554810845669
 30
0.0
 11
309.704280455443
 21
144.5162161845669
 31
0.0
  0
LINE
  5
150F
330
1A
100
AcDbEntity
  8
SEIHIN
100
AcDbLine
 10
307.5804777394432
 20
150.1294982182669
 30
0.0
 11
309.2235184816432
 21
144.3788556205669
 31
0.0
  0
LINE
  5
1510
330
1A
100
AcDbEntity
  8
SEIHIN
100
AcDbLine
 10
301.9768664719431
 20
150.4921376542669
 30
0.0
 11
301.9768664719431
 21
146.930856499567
 31
0.0
  0
ARC
  5
1511
330
1A
100
AcDbEntity
  8
SEIHIN
100
AcDbCircle
 10
300.4084804861431
 20
150.392841648467
 30
0.0
 40
0.5000000000001278
100
AcDbArc
 50
344.0546040989943
 51
26.56505117710056
  0
ARC
  5
1512
330
1A
100
AcDbEntity
  8
SEIHIN
100
AcDbCircle
 10
301.8540171783433
 20
149.9921376542669
 30
0.0
 40
0.5
100
AcDbArc
 50
90.00000000031267
 51
164.0546040990069
  0
ARC
  5
1513
330
1A
100
AcDbEntity
  8
SEIHIN
100
AcDbCircle
 10
298.7686905146433
 20
144.653576748467
 30
0.0
 40
1.000000000000136
100
AcDbArc
 50
258.6900675259756
 51
344.0546040990955
  0
ARC
  5
1514
330
1A
100
AcDbEntity
  8
SEIHIN
100
AcDbCircle
 10
298.7686905146433
 20
144.653576748467
 30
0.0
 40
0.5000000000000706
100
AcDbArc
 50
258.6900675259756
 51
344.0546040990955
  0
LINE
  5
1515
330
1A
100
AcDbEntity
  8
SEIHIN
100
AcDbLine
 10
301.373255204543
 20
150.1294982182669
 30
0.0
 11
299.7302144623432
 21
144.3788556205669
 31
0.0
  0
LINE
  5
1516
330
1A
100
AcDbEntity
  8
SEIHIN
100
AcDbLine
 10
300.889242459943
 20
150.2554810845669
 30
0.0
 11
299.2494524885433
 21
144.5162161845669
 31
0.0
  0
LINE
  5
1517
330
1A
100
AcDbEntity
  8
SEIHIN
100
AcDbLine
 10
301.9768664719431
 20
146.930856499567
 30
0.0
 11
306.9768664719431
 21
146.930856499567
 31
0.0
  0
LINE
  5
1518
330
1A
100
AcDbEntity
  8
SEIHIN
100
AcDbLine
 10
307.4768664719431
 20
150.4921376542669
 30
0.0
 11
301.4768664719431
 21
150.4921376542669
 31
0.0
  0
LINE
  5
1519
330
1A
100
AcDbEntity
  8
SEIHIN
100
AcDbLine
 10
295.4479675232432
 20
145.4317115349669
 30
0.0
 11
296.2923101617429
 21
147.3080285094669
 31
0.0
  0
LINE
  5
151A
330
1A
100
AcDbEntity
  8
SEIHIN
100
AcDbLine
 10
294.9920067706429
 20
145.6368938735669
 30
0.0
 11
295.8363494092432
 21
147.513210848167
 31
0.0
  0
ARC
  5
151B
330
1A
100
AcDbEntity
  8
SEIHIN
100
AcDbCircle
 10
295.903928275843
 20
145.2265291962669
 30
0.0
 40
0.9999999999998736
100
AcDbArc
 50
155.7722546819983
 51
258.6900675258959
  0
ARC
  5
151C
330
1A
100
AcDbEntity
  8
SEIHIN
100
AcDbCircle
 10
295.903928275843
 20
145.2265291962669
 30
0.0
 40
0.5000000000001696
100
AcDbArc
 50
155.772254682002
 51
258.6900675260288
  0
LINE
  5
151D
330
1A
100
AcDbEntity
  8
SEIHIN
100
AcDbLine
 10
295.7078121406429
 20
144.2459485205669
 30
0.0
 11
298.5725743795433
 21
143.672996072767
 31
0.0
  0
LINE
  5
151E
330
1A
100
AcDbEntity
  8
SEIHIN
100
AcDbLine
 10
295.805870208243
 20
144.736238858367
 30
0.0
 11
298.6706324471433
 21
144.163286410667
 31
0.0
  0
ARC
  5
151F
330
1A
100
AcDbEntity
  8
SEIHIN
100
AcDbCircle
 10
313.0498046681432
 20
145.2265291962669
 30
0.0
 40
0.4999999999999771
100
AcDbArc
 50
281.3099324739711
 51
24.22774531802188
  0
LINE
  5
1520
330
1A
100
AcDbEntity
  8
SEIHIN
100
AcDbLine
 10
313.9617261732432
 20
145.6368938735669
 30
0.0
 11
313.1173835347431
 21
147.513210848167
 31
0.0
  0
LINE
  5
1521
330
1A
100
AcDbEntity
  8
SEIHIN
100
AcDbLine
 10
313.505765420743
 20
145.4317115349669
 30
0.0
 11
312.6614227821432
 21
147.3080285094669
 31
0.0
  0
ARC
  5
1522
330
1A
100
AcDbEntity
  8
SEIHIN
100
AcDbCircle
 10
313.0498046681432
 20
145.2265291962669
 30
0.0
 40
0.9999999999999576
100
AcDbArc
 50
281.309932474104
 51
24.22774531800168
  0
LINE
  5
1523
330
1A
100
AcDbEntity
  8
SEIHIN
100
AcDbLine
 10
309.9768664719431
 20
155.9921376542669
 30
0.0
 11
309.9768664719431
 21
154.4921376542669
 31
0.0
  0
ARC
  5
1524
330
1A
100
AcDbEntity
  8
SEIHIN
100
AcDbCircle
 10
309.228536414143
 20
151.759409624367
 30
0.0
 40
0.5000000000002178
100
AcDbArc
 50
40.95354965547275
 51
153.4349409757035
  0
LINE
  5
1525
330
1A
100
AcDbEntity
  8
SEIHIN
100
AcDbLine
 10
308.4768664719431
 20
154.4921376542669
 30
0.0
 11
308.9768664719431
 21
153.4921376542669
 31
0.0
  0
LINE
  5
1526
330
1A
100
AcDbEntity
  8
SEIHIN
100
AcDbLine
 10
298.9768664719431
 20
155.9921376542669
 30
0.0
 11
298.9768664719431
 21
154.4921376542669
 31
0.0
  0
ARC
  5
1527
330
1A
100
AcDbEntity
  8
SEIHIN
100
AcDbCircle
 10
299.7251965298433
 20
151.759409624367
 30
0.0
 40
0.499999999999988
100
AcDbArc
 50
26.56505902429721
 51
139.0464503445266
  0
LINE
  5
1528
330
1A
100
AcDbEntity
  8
SEIHIN
100
AcDbLine
 10
300.4768664719431
 20
154.4921376542669
 30
0.0
 11
299.9768664719431
 21
153.4921376542669
 31
0.0
  0
LINE
  5
152A
330
1A
100
AcDbEntity
  8
SEIHIN
100
AcDbLine
 10
309.9768664719431
 20
154.4921376542669
 30
0.0
 11
298.9768664719431
 21
154.4921376542669
 31
0.0
  0
LINE
  5
152B
330
1A
100
AcDbEntity
  8
SEIHIN
100
AcDbLine
 10
308.9768664719431
 20
153.4921376542669
 30
0.0
 11
299.9768664719431
 21
153.4921376542669
 31
0.0
  0
LINE
  5
152C
330
1A
100
AcDbEntity
  8
SEIHIN
100
AcDbLine
 10
309.9768664719431
 20
155.9921376542669
 30
0.0
 11
298.9768664719431
 21
155.9921376542669
 31
0.0
  0
LINE
  5
1541
330
1A
100
AcDbEntity
  8
SEIHIN
100
AcDbLine
 10
294.5569879997433
 20
176.2959351226669
 30
0.0
 11
294.5569879997433
 21
170.2959351226669
 31
0.0
  0
LINE
  5
1542
330
1A
100
AcDbEntity
  8
SEIHIN
100
AcDbLine
 10
298.5569879997433
 20
166.295935122667
 30
0.0
 11
320.9127197284433
 21
166.295935122667
 31
0.0
  0
LINE
  5
1547
330
1A
100
AcDbEntity
  8
SEIHIN
100
AcDbLine
 10
294.4173945031429
 20
171.2959351226669
 30
0.0
 11
294.5569879997433
 21
171.2959351226669
 31
0.0
  0
LINE
  5
154C
330
1A
100
AcDbEntity
  8
SEIHIN
100
AcDbLine
 10
294.5569879997433
 20
170.2959351226669
 30
0.0
 11
298.5569879997433
 21
166.295935122667
 31
0.0
  0
LINE
  5
154D
330
1A
100
AcDbEntity
  8
SEIHIN
100
AcDbLine
 10
319.2569879997431
 20
166.296631080833
 30
0.0
 11
319.856987999743
 21
166.296631080833
 31
0.0
  0
LINE
  5
154E
330
1A
100
AcDbEntity
  8
SEIHIN
100
AcDbLine
 10
314.2569879997431
 20
166.296631080833
 30
0.0
 11
314.856987999743
 21
166.296631080833
 31
0.0
  0
ARC
  5
1552
330
1A
100
AcDbEntity
  8
SEIHIN
100
AcDbCircle
 10
320.9127197284433
 20
171.2959351226669
 30
0.0
 40
4.999999999999943
100
AcDbArc
 50
270.0
 51
313.4088597288031
  0
LINE
  5
1553
330
1A
100
AcDbEntity
  8
SEIHIN
100
AcDbLine
 10
294.5569879997433
 20
176.2959351226669
 30
0.0
 11
312.5667985264432
 21
176.2959351226669
 31
0.0
  0
LINE
  5
1554
330
1A
100
AcDbEntity
  8
SEIHIN
100
AcDbLine
 10
309.9768664719431
 20
177.2959351226669
 30
0.0
 11
309.9768664719431
 21
176.2959351226669
 31
0.0
  0
LINE
  5
1555
330
1A
100
AcDbEntity
  8
SEIHIN
100
AcDbLine
 10
298.9768664719431
 20
177.2959351226669
 30
0.0
 11
298.9768664719431
 21
176.2959351226669
 31
0.0
  0
ARC
  5
1556
330
1A
100
AcDbEntity
  8
SEIHIN
100
AcDbCircle
 10
304.4768664719431
 20
167.9626017893669
 30
0.0
 40
10.83333333329988
100
AcDbArc
 50
59.48976259390525
 51
120.5102374060947
  0
LINE
  5
1557
330
1A
100
AcDbEntity
  8
SEIHIN
100
AcDbLine
 10
298.9768664719431
 20
177.2959351226669
 30
0.0
 11
309.9768664719431
 21
177.2959351226669
 31
0.0
  0
ARC
  5
1558
330
1A
100
AcDbEntity
  8
SEIHIN
100
AcDbCircle
 10
312.5667985264432
 20
181.2959351226669
 30
0.0
 40
5.0
100
AcDbArc
 50
270.0
 51
313.4088597288042
  0
LINE
  5
156C
330
1A
100
AcDbEntity
  8
SEIHIN
100
AcDbLine
 10
366.578461662943
 20
180.7959351226669
 30
0.0
 11
376.5569879997431
 21
180.7959351226669
 31
0.0
  0
LINE
  5
1571
330
1A
100
AcDbEntity
  8
SEIHIN
100
AcDbLine
 10
344.2020490501431
 20
180.7959351226669
 30
0.0
 11
364.5784616629426
 21
180.7959351226669
 31
0.0
  0
ARC
  5
1572
330
1A
100
AcDbEntity
  8
SEIHIN
100
AcDbCircle
 10
344.2020490501431
 20
165.795935122667
 30
0.0
 40
14.99999999999993
100
AcDbArc
 50
90.0
 51
133.4088597288031
  0
LINE
  5
1573
330
1A
100
AcDbEntity
  8
SEIHIN
100
AcDbLine
 10
366.578461662943
 20
180.2959351226669
 30
0.0
 11
366.578461662943
 21
180.7959351226669
 31
0.0
  0
LINE
  5
1574
330
1A
100
AcDbEntity
  8
SEIHIN
100
AcDbLine
 10
364.5784616629426
 20
180.2959351226669
 30
0.0
 11
366.578461662943
 21
180.2959351226669
 31
0.0
  0
LINE
  5
1577
330
1A
100
AcDbEntity
  8
SEIHIN
100
AcDbLine
 10
378.5569879997438
 20
180.2959351226669
 30
0.0
 11
378.5569879997438
 21
180.7959351226669
 31
0.0
  0
LINE
  5
1578
330
1A
100
AcDbEntity
  8
SEIHIN
100
AcDbLine
 10
376.5569879997431
 20
180.2959351226669
 30
0.0
 11
378.5569879997438
 21
180.2959351226669
 31
0.0
  0
ARC
  5
157C
330
1A
100
AcDbEntity
  8
SEIHIN
100
AcDbCircle
 10
339.5692950685436
 20
179.3083906014669
 30
0.0
 40
15.00000000000001
100
AcDbArc
 50
94.99999999999982
 51
133.4088597288042
  0
ARC
  5
1587
330
1A
100
AcDbEntity
  8
SEIHIN
100
AcDbCircle
 10
371.0220354939437
 20
200.0285239174668
 30
0.0
 40
0.1000000000000011
100
AcDbArc
 50
26.60000000000829
 51
95.00000000007825
  0
LINE
  5
1588
330
1A
100
AcDbEntity
  8
SEIHIN
100
AcDbLine
 10
376.5569879997431
 20
197.6016919860668
 30
0.0
 11
366.578461662943
 21
196.7286840528668
 31
0.0
  0
LINE
  5
1589
330
1A
100
AcDbEntity
  8
SEIHIN
100
AcDbLine
 10
370.5677248313431
 20
197.0776993559669
 30
0.0
 11
370.5677248313431
 21
199.6309932815668
 31
0.0
  0
LINE
  5
158A
330
1A
100
AcDbEntity
  8
SEIHIN
100
AcDbLine
 10
364.5784616629426
 20
196.5537067258669
 30
0.0
 11
338.2619589273434
 21
194.2513110727669
 31
0.0
  0
LINE
  5
158B
330
1A
100
AcDbEntity
  8
SEIHIN
100
AcDbLine
 10
371.0133199196438
 20
200.1281433873669
 30
0.0
 11
371.0241469599438
 21
200.1290906305668
 31
0.0
  0
ARC
  5
158C
330
1A
100
AcDbEntity
  8
SEIHIN
100
AcDbCircle
 10
371.0677248313436
 20
199.6309932815668
 30
0.0
 40
0.5000000000000135
100
AcDbArc
 50
94.99999999997365
 51
180.0
  0
ARC
  5
158D
330
1A
100
AcDbEntity
  8
SEIHIN
100
AcDbCircle
 10
365.074744537643
 20
199.5082033801669
 30
0.0
 40
0.1000000000000011
100
AcDbArc
 50
26.60000000000829
 51
95.00000000007825
  0
LINE
  5
158E
330
1A
100
AcDbEntity
  8
SEIHIN
100
AcDbLine
 10
365.0660289633431
 20
199.6078228499669
 30
0.0
 11
365.0348837916432
 21
199.6050980004668
 31
0.0
  0
ARC
  5
158F
330
1A
100
AcDbEntity
  8
SEIHIN
100
AcDbCircle
 10
365.0784616629428
 20
199.1070006514668
 30
0.0
 40
0.5000000000000135
100
AcDbArc
 50
94.99999999997365
 51
180.0
  0
LINE
  5
1591
330
1A
100
AcDbEntity
  8
SEIHIN
100
AcDbLine
 10
372.5257526192431
 20
197.2490045902669
 30
0.0
 11
371.1114509176439
 21
200.0732998262669
 31
0.0
  0
LINE
  5
1592
330
1A
100
AcDbEntity
  8
SEIHIN
100
AcDbLine
 10
385.5569879997436
 20
198.3890899577668
 30
0.0
 11
378.5569879997438
 21
197.7766693130668
 31
0.0
  0
LINE
  5
1594
330
1A
100
AcDbEntity
  8
SEIHIN
100
AcDbLine
 10
385.5569879997436
 20
198.3890899577668
 30
0.0
 11
393.5569879997438
 21
198.3890899577668
 31
0.0
  0
ARC
  5
1595
330
1A
100
AcDbEntity
  8
SEIHIN
100
AcDbCircle
 10
377.0538792057432
 20
200.5549738307668
 30
0.0
 40
0.1000000000000011
100
AcDbArc
 50
26.60000000000829
 51
90.44530641717812
  0
ARC
  5
1596
330
1A
100
AcDbEntity
  8
SEIHIN
100
AcDbCircle
 10
377.0569879997431
 20
200.1549859116668
 30
0.0
 40
0.4999999999999835
100
AcDbArc
 50
90.44530641723027
 51
180.0
  0
LINE
  5
1598
330
1A
100
AcDbEntity
  8
SEIHIN
100
AcDbLine
 10
344.7528985768435
 20
168.8544010740669
 30
0.0
 11
325.607573207528
 21
168.8544010740669
 31
0.0
  0
LINE
  5
1599
330
1A
100
AcDbEntity
  8
SEIHIN
100
AcDbLine
 10
346.8763035835436
 20
158.3057057966668
 30
0.0
 11
346.8763035835436
 21
168.5792602328669
 31
0.0
  0
ARC
  5
159A
330
1A
100
AcDbEntity
  8
SEIHIN
100
AcDbCircle
 10
350.2415440331433
 20
181.3972053513669
 30
0.0
 40
11.81931558380006
100
AcDbArc
 50
270.0
 51
316.6846843178972
  0
ARC
  5
159B
330
1A
100
AcDbEntity
  8
SEIHIN
100
AcDbCircle
 10
350.2415440331433
 20
181.3972053513669
 30
0.0
 40
10.0
100
AcDbArc
 50
270.0
 51
316.684684317904
  0
LINE
  5
159C
330
1A
100
AcDbEntity
  8
SEIHIN
100
AcDbLine
 10
342.4471690643437
 20
171.247236265267
 30
0.0
 11
342.0569896090432
 21
171.2452227458669
 31
0.0
  0
LINE
  5
159D
330
1A
100
AcDbEntity
  8
SEIHIN
100
AcDbLine
 10
342.8223542261434
 20
171.2531985923669
 30
0.0
 11
342.4471690643437
 21
171.247236265267
 31
0.0
  0
LINE
  5
159E
330
1A
100
AcDbEntity
  8
SEIHIN
100
AcDbLine
 10
343.1681282211434
 20
171.2628787592669
 30
0.0
 11
342.8223542261434
 21
171.2531985923669
 31
0.0
  0
LINE
  5
159F
330
1A
100
AcDbEntity
  8
SEIHIN
100
AcDbLine
 10
343.4712029386432
 20
171.2759079620669
 30
0.0
 11
343.1681282211434
 21
171.2628787592669
 31
0.0
  0
LINE
  5
15A0
330
1A
100
AcDbEntity
  8
SEIHIN
100
AcDbLine
 10
343.7199256707435
 20
171.2917851492669
 30
0.0
 11
343.4712029386432
 21
171.2759079620669
 31
0.0
  0
LINE
  5
15A1
330
1A
100
AcDbEntity
  8
SEIHIN
100
AcDbLine
 10
343.9047484982434
 20
171.3098975107669
 30
0.0
 11
343.7199256707435
 21
171.2917851492669
 31
0.0
  0
LINE
  5
15A2
330
1A
100
AcDbEntity
  8
SEIHIN
100
AcDbLine
 10
344.0185598421435
 20
171.3295502796669
 30
0.0
 11
343.9047484982434
 21
171.3098975107669
 31
0.0
  0
LINE
  5
15A3
330
1A
100
AcDbEntity
  8
SEIHIN
100
AcDbLine
 10
344.0569862116435
 20
171.3499909475669
 30
0.0
 11
344.0185598421435
 21
171.3295502796669
 31
0.0
  0
LINE
  5
15A4
330
1A
100
AcDbEntity
  8
SEIHIN
100
AcDbLine
 10
344.0185598421435
 20
171.3521348521669
 30
0.0
 11
344.0569862116435
 21
171.3657563761669
 31
0.0
  0
LINE
  5
15A5
330
1A
100
AcDbEntity
  8
SEIHIN
100
AcDbLine
 10
343.9047484982434
 20
171.3390367314669
 30
0.0
 11
344.0185598421435
 21
171.3521348521669
 31
0.0
  0
LINE
  5
15A6
330
1A
100
AcDbEntity
  8
SEIHIN
100
AcDbLine
 10
343.7199256707435
 20
171.3269649282669
 30
0.0
 11
343.9047484982434
 21
171.3390367314669
 31
0.0
  0
LINE
  5
15A7
330
1A
100
AcDbEntity
  8
SEIHIN
100
AcDbLine
 10
343.4712029386432
 20
171.3163851037669
 30
0.0
 11
343.7199256707435
 21
171.3269649282669
 31
0.0
  0
LINE
  5
15A8
330
1A
100
AcDbEntity
  8
SEIHIN
100
AcDbLine
 10
343.1681282211434
 20
171.307701452067
 30
0.0
 11
343.4712029386432
 21
171.3163851037669
 31
0.0
  0
LINE
  5
15A9
330
1A
100
AcDbEntity
  8
SEIHIN
100
AcDbLine
 10
342.8223542261434
 20
171.301249249267
 30
0.0
 11
343.1681282211434
 21
171.307701452067
 31
0.0
  0
LINE
  5
15AA
330
1A
100
AcDbEntity
  8
SEIHIN
100
AcDbLine
 10
342.4471690643437
 20
171.297276227167
 30
0.0
 11
342.8223542261434
 21
171.301249249267
 31
0.0
  0
LINE
  5
15AB
330
1A
100
AcDbEntity
  8
SEIHIN
100
AcDbLine
 10
342.0569896090432
 20
171.2959351226669
 30
0.0
 11
342.4471690643437
 21
171.297276227167
 31
0.0
  0
LINE
  5
15AC
330
1A
100
AcDbEntity
  8
SEIHIN
100
AcDbLine
 10
347.6804456997434
 20
169.5582362100669
 30
0.0
 11
347.8749319303433
 21
169.5778889790669
 31
0.0
  0
LINE
  5
15AD
330
1A
100
AcDbEntity
  8
SEIHIN
100
AcDbLine
 10
347.4934063244436
 20
169.5010902568669
 30
0.0
 11
347.6804456997434
 21
169.5582362100669
 31
0.0
  0
LINE
  5
15AE
330
1A
100
AcDbEntity
  8
SEIHIN
100
AcDbLine
 10
347.3209738124432
 20
169.408641590167
 30
0.0
 11
347.4934063244436
 21
169.5010902568669
 31
0.0
  0
LINE
  5
15AF
330
1A
100
AcDbEntity
  8
SEIHIN
100
AcDbLine
 10
347.1697605539434
 20
169.2844329610669
 30
0.0
 11
347.3209738124432
 21
169.408641590167
 31
0.0
  0
LINE
  5
15B0
330
1A
100
AcDbEntity
  8
SEIHIN
100
AcDbLine
 10
347.0455519247433
 20
169.1332178399669
 30
0.0
 11
347.1697605539434
 21
169.2844329610669
 31
0.0
  0
LINE
  5
15B1
330
1A
100
AcDbEntity
  8
SEIHIN
100
AcDbLine
 10
346.9531051207437
 20
168.960789053167
 30
0.0
 11
347.0455519247433
 21
169.1332178399669
 31
0.0
  0
LINE
  5
15B2
330
1A
100
AcDbEntity
  8
SEIHIN
100
AcDbLine
 10
346.8959591675434
 20
168.7737478152669
 30
0.0
 11
346.9531051207437
 21
168.960789053167
 31
0.0
  0
LINE
  5
15B3
330
1A
100
AcDbEntity
  8
SEIHIN
100
AcDbLine
 10
346.8763045359433
 20
168.5792597219669
 30
0.0
 11
346.8959591675434
 21
168.7737478152669
 31
0.0
  0
LINE
  5
15B4
330
1A
100
AcDbEntity
  8
SEIHIN
100
AcDbLine
 10
345.1302311707436
 20
168.8515784427669
 30
0.0
 11
344.7529002416436
 21
168.854400350167
 31
0.0
  0
LINE
  5
15B5
330
1A
100
AcDbEntity
  8
SEIHIN
100
AcDbLine
 10
345.4940132189435
 20
168.8432077154669
 30
0.0
 11
345.1302311707436
 21
168.8515784427669
 31
0.0
  0
LINE
  5
15B6
330
1A
100
AcDbEntity
  8
SEIHIN
100
AcDbLine
 10
345.8311743427434
 20
168.8295936420669
 30
0.0
 11
345.4940132189435
 21
168.8432077154669
 31
0.0
  0
LINE
  5
15B7
330
1A
100
AcDbEntity
  8
SEIHIN
100
AcDbLine
 10
346.1296073485436
 20
168.8112242356669
 30
0.0
 11
345.8311743427434
 21
168.8295936420669
 31
0.0
  0
LINE
  5
15B8
330
1A
100
AcDbEntity
  8
SEIHIN
100
AcDbLine
 10
346.3785908509435
 20
168.7887570098669
 30
0.0
 11
346.1296073485436
 21
168.8112242356669
 31
0.0
  0
LINE
  5
15B9
330
1A
100
AcDbEntity
  8
SEIHIN
100
AcDbLine
 10
346.5691841531433
 20
168.7630003527669
 30
0.0
 11
346.3785908509435
 21
168.7887570098669
 31
0.0
  0
LINE
  5
15BA
330
1A
100
AcDbEntity
  8
SEIHIN
100
AcDbLine
 10
346.6945401717434
 20
168.7348799988669
 30
0.0
 11
346.5691841531433
 21
168.7630003527669
 31
0.0
  0
LINE
  5
15BB
330
1A
100
AcDbEntity
  8
SEIHIN
100
AcDbLine
 10
346.7501587558436
 20
168.7054055020669
 30
0.0
 11
346.6945401717434
 21
168.7348799988669
 31
0.0
  0
LINE
  5
15BC
330
1A
100
AcDbEntity
  8
SEIHIN
100
AcDbLine
 10
347.8749331182434
 20
169.5778897675669
 30
0.0
 11
350.2415440331433
 21
169.5778897675669
 31
0.0
  0
LINE
  5
15BD
330
1A
100
AcDbEntity
  8
SEIHIN
100
AcDbLine
 10
346.8763035835436
 20
168.5792602328669
 30
0.0
 11
346.7501576463436
 21
168.7054061699669
 31
0.0
  0
LINE
  5
15BE
330
1A
100
AcDbEntity
  8
SEIHIN
100
AcDbLine
 10
350.2415440331433
 20
171.3972053513669
 30
0.0
 11
344.0569862116435
 21
171.3972052768669
 31
0.0
  0
LINE
  5
15BF
330
1A
100
AcDbEntity
  8
SEIHIN
100
AcDbLine
 10
344.0569862116435
 20
171.3972052768669
 30
0.0
 11
344.0569862116435
 21
171.3499909475669
 31
0.0
  0
ARC
  5
15C1
330
1A
100
AcDbEntity
  8
SEIHIN
100
AcDbCircle
 10
378.0569879997433
 20
177.897205351367
 30
0.0
 40
11.0
100
AcDbArc
 50
0.0
 51
14.42897827908416
  0
ARC
  5
15C2
330
1A
100
AcDbEntity
  8
SEIHIN
100
AcDbCircle
 10
276.6789464104435
 20
186.9972053513669
 30
0.0
 40
1.180684416200051
100
AcDbArc
 50
90.0
 51
192.8042660652965
  0
ARC
  5
15C3
330
1A
100
AcDbEntity
  8
SEIHIN
100
AcDbCircle
 10
276.0077822336433
 20
184.9972053513669
 30
0.0
 40
5.000000000000211
100
AcDbArc
 50
19.26259914129925
 51
90.0
  0
ARC
  5
15C4
330
1A
100
AcDbEntity
  8
SEIHIN
100
AcDbCircle
 10
276.7176233868435
 20
185.9972053513669
 30
0.0
 40
2.18068441620002
100
AcDbArc
 50
19.26259914130232
 51
90.0
  0
ARC
  5
15C5
330
1A
100
AcDbEntity
  8
SEIHIN
100
AcDbCircle
 10
261.5597198812433
 20
189.625204671667
 30
0.0
 40
1.999999999999996
100
AcDbArc
 50
182.4453492580996
 51
258.3106308246064
  0
LINE
  5
15C6
330
1A
100
AcDbEntity
  8
SEIHIN
100
AcDbLine
 10
261.1545086732435
 20
187.666683832667
 30
0.0
 11
270.9071961756435
 21
185.6488864183669
 31
0.0
  0
LINE
  5
15C7
330
1A
100
AcDbEntity
  8
SEIHIN
100
AcDbLine
 10
344.7394048152436
 20
157.0741911252668
 30
0.0
 11
292.3851720381435
 21
157.7816807573668
 31
0.0
  0
LINE
  5
15C8
330
1A
100
AcDbEntity
  8
SEIHIN
100
AcDbLine
 10
293.5569881785436
 20
156.3177982554668
 30
0.0
 11
342.0569896090432
 21
155.6621732399667
 31
0.0
  0
LINE
  5
15C9
330
1A
100
AcDbEntity
  8
SEIHIN
100
AcDbLine
 10
293.8652410496434
 20
171.2959351226669
 30
0.0
 11
294.5569879997433
 21
171.2959351226669
 31
0.0
  0
TEXT
  5
15CA
330
1A
100
AcDbEntity
  8
SEIHIN
100
AcDbText
 10
292.3465305892286
 20
162.9394984220212
 30
0.0
 40
3.174999952316284
  1
10
  7
STYLE2
100
AcDbText
  0
TEXT
  5
15CB
330
1A
100
AcDbEntity
  8
SEIHIN
100
AcDbText
 10
302.8911000727534
 20
162.9432982987233
 30
0.0
 40
3.174999952316284
  1
20
  7
STYLE2
100
AcDbText
  0
TEXT
  5
15CC
330
1A
100
AcDbEntity
  8
SEIHIN
100
AcDbText
 10
312.7791333430593
 20
162.9595803500053
 30
0.0
 40
3.174999952316284
  1
30
  7
STYLE2
100
AcDbText
  0
TEXT
  5
15CD
330
1A
100
AcDbEntity
  8
SEIHIN
100
AcDbText
 10
328.0083941473264
 20
162.9264190037285
 30
0.0
 40
3.174999952316284
  1
45
  7
STYLE2
100
AcDbText
  0
LINE
  5
15CE
330
1A
100
AcDbEntity
  8
SEIHIN
100
AcDbLine
 10
288.7376724160435
 20
170.0115157150669
 30
0.0
 11
288.7376724160435
 21
160.0517624244667
 31
0.0
  0
LINE
  5
15CF
330
1A
100
AcDbEntity
  8
SEIHIN
100
AcDbLine
 10
290.8610774226435
 20
169.1918068043669
 30
0.0
 11
290.8610774226435
 21
158.8964402712668
 31
0.0
  0
ARC
  5
15D0
330
1A
100
AcDbEntity
  8
SEIHIN
100
AcDbCircle
 10
292.5669909139434
 20
171.2362775649669
 30
0.0
 40
13.18068441619968
100
AcDbArc
 50
192.8042660652997
 51
246.6519006451989
  0
ARC
  5
15D1
330
1A
100
AcDbEntity
  8
SEIHIN
100
AcDbCircle
 10
292.5669909139434
 20
171.2362775649669
 30
0.0
 40
14.99999999999993
100
AcDbArc
 50
192.8042660652997
 51
266.139151902798
  0
LINE
  5
15D2
330
1A
100
AcDbEntity
  8
SEIHIN
100
AcDbLine
 10
292.7314489472434
 20
156.3227268144667
 30
0.0
 11
292.3654242742436
 21
156.3201526388668
 31
0.0
  0
LINE
  5
15D3
330
1A
100
AcDbEntity
  8
SEIHIN
100
AcDbLine
 10
293.1346967209433
 20
156.3219333276668
 30
0.0
 11
292.7314489472434
 21
156.3227268144667
 31
0.0
  0
LINE
  5
15D4
330
1A
100
AcDbEntity
  8
SEIHIN
100
AcDbLine
 10
293.5569881785436
 20
156.3177982554668
 30
0.0
 11
293.1346967209433
 21
156.3219333276668
 31
0.0
  0
LINE
  5
15D5
330
1A
100
AcDbEntity
  8
SEIHIN
100
AcDbLine
 10
291.6231005776435
 20
156.3103141471668
 30
0.0
 11
291.5569915760433
 21
156.2967876181668
 31
0.0
  0
LINE
  5
15D6
330
1A
100
AcDbEntity
  8
SEIHIN
100
AcDbLine
 10
291.9008954752434
 20
156.3167141959667
 30
0.0
 11
291.6231005776435
 21
156.3103141471668
 31
0.0
  0
LINE
  5
15D7
330
1A
100
AcDbEntity
  8
SEIHIN
100
AcDbLine
 10
292.3654242742436
 20
156.3201526388668
 30
0.0
 11
291.9008954752434
 21
156.3167141959667
 31
0.0
  0
LINE
  5
15D8
330
1A
100
AcDbEntity
  8
SEIHIN
100
AcDbLine
 10
290.7281293857436
 20
157.9347642347667
 30
0.0
 11
290.7243221391436
 21
157.9072194382668
 31
0.0
  0
LINE
  5
15D9
330
1A
100
AcDbEntity
  8
SEIHIN
100
AcDbLine
 10
290.7367124546435
 20
157.9968517855668
 30
0.0
 11
290.7281293857436
 21
157.9347642347667
 31
0.0
  0
LINE
  5
15DA
330
1A
100
AcDbEntity
  8
SEIHIN
100
AcDbLine
 10
290.7497658718434
 20
158.0912506416668
 30
0.0
 11
290.7367124546435
 21
157.9968517855668
 31
0.0
  0
LINE
  5
15DB
330
1A
100
AcDbEntity
  8
SEIHIN
100
AcDbLine
 10
290.7668128002433
 20
158.2145707890668
 30
0.0
 11
290.7497658718434
 21
158.0912506416668
 31
0.0
  0
LINE
  5
15DC
330
1A
100
AcDbEntity
  8
SEIHIN
100
AcDbLine
 10
290.7872497428434
 20
158.3623809948668
 30
0.0
 11
290.7668128002433
 21
158.2145707890668
 31
0.0
  0
LINE
  5
15DD
330
1A
100
AcDbEntity
  8
SEIHIN
100
AcDbLine
 10
290.8103316415436
 20
158.5293745830668
 30
0.0
 11
290.7872497428434
 21
158.3623809948668
 31
0.0
  0
LINE
  5
15DE
330
1A
100
AcDbEntity
  8
SEIHIN
100
AcDbLine
 10
290.8352389324436
 20
158.7095501110668
 30
0.0
 11
290.8103316415436
 21
158.5293745830668
 31
0.0
  0
LINE
  5
15DF
330
1A
100
AcDbEntity
  8
SEIHIN
100
AcDbLine
 10
290.8610775459433
 20
158.8964404747668
 30
0.0
 11
290.8352389324436
 21
158.7095501110668
 31
0.0
  0
LINE
  5
15E0
330
1A
100
AcDbEntity
  8
SEIHIN
100
AcDbLine
 10
288.7064068902434
 20
159.8082630172668
 30
0.0
 11
288.7376695264433
 21
160.0517628923667
 31
0.0
  0
LINE
  5
15E1
330
1A
100
AcDbEntity
  8
SEIHIN
100
AcDbLine
 10
288.6165305364434
 20
159.5795152917667
 30
0.0
 11
288.7064068902434
 21
159.8082630172668
 31
0.0
  0
LINE
  5
15E2
330
1A
100
AcDbEntity
  8
SEIHIN
100
AcDbLine
 10
288.4734942901436
 20
159.3793796584668
 30
0.0
 11
288.6165305364434
 21
159.5795152917667
 31
0.0
  0
LINE
  5
15E3
330
1A
100
AcDbEntity
  8
SEIHIN
100
AcDbLine
 10
288.2859631765436
 20
159.2199800744668
 30
0.0
 11
288.4734942901436
 21
159.3793796584668
 31
0.0
  0
LINE
  5
15E4
330
1A
100
AcDbEntity
  8
SEIHIN
100
AcDbLine
 10
288.0652918804435
 20
159.1109743550668
 30
0.0
 11
288.2859631765436
 21
159.2199800744668
 31
0.0
  0
LINE
  5
15E5
330
1A
100
AcDbEntity
  8
SEIHIN
100
AcDbLine
 10
287.8248541940434
 20
159.0589674398668
 30
0.0
 11
288.0652918804435
 21
159.1109743550668
 31
0.0
  0
LINE
  5
15E6
330
1A
100
AcDbEntity
  8
SEIHIN
100
AcDbLine
 10
287.5792234528433
 20
159.0671090617667
 30
0.0
 11
287.8248541940434
 21
159.0589674398668
 31
0.0
  0
LINE
  5
15E7
330
1A
100
AcDbEntity
  8
SEIHIN
100
AcDbLine
 10
287.3432710159436
 20
159.1349074825668
 30
0.0
 11
287.5792234528433
 21
159.0671090617667
 31
0.0
  0
ARC
  5
15E8
330
1A
100
AcDbEntity
  8
SEIHIN
100
AcDbCircle
 10
292.5669909139434
 20
171.2362775649669
 30
0.0
 40
13.45582525750011
100
AcDbArc
 50
262.129067727798
 51
269.2257798351028
  0
LINE
  5
15E9
330
1A
100
AcDbEntity
  8
SEIHIN
100
AcDbLine
 10
291.5569879995434
 20
156.2703197234668
 30
0.0
 11
291.5569915760433
 21
156.3100272998668
 31
0.0
  0
ARC
  5
15EA
330
1A
100
AcDbEntity
  8
SEIHIN
100
AcDbCircle
 10
293.8652406851433
 20
182.397205351367
 30
0.0
 40
10.99999999999988
100
AcDbArc
 50
199.2625991412992
 51
257.8869563829032
  0
ARC
  5
15EB
330
1A
100
AcDbEntity
  8
SEIHIN
100
AcDbCircle
 10
293.8652406851433
 20
182.397205351367
 30
0.0
 40
12.81931558379975
100
AcDbArc
 50
199.2625991412992
 51
243.6821247702012
  0
LINE
  5
15EC
330
1A
100
AcDbEntity
  8
SEIHIN
100
AcDbLine
 10
274.7698324344435
 20
181.8606898387669
 30
0.0
 11
277.9399980770435
 21
167.911961011167
 31
0.0
  0
LINE
  5
15ED
330
1A
100
AcDbEntity
  8
SEIHIN
100
AcDbLine
 10
279.7140724778435
 20
168.3151597385669
 30
0.0
 11
275.5276222438433
 21
186.7355407679669
 31
0.0
  0
LINE
  5
15EE
330
1A
100
AcDbEntity
  8
SEIHIN
100
AcDbLine
 10
293.1067570436434
 20
171.3236643210669
 30
0.0
 11
293.5569881785436
 21
171.300213618567
 31
0.0
  0
LINE
  5
15EF
330
1A
100
AcDbEntity
  8
SEIHIN
100
AcDbLine
 10
292.4809008229435
 20
171.3936122343669
 30
0.0
 11
293.1067570436434
 21
171.3236643210669
 31
0.0
  0
LINE
  5
15F0
330
1A
100
AcDbEntity
  8
SEIHIN
100
AcDbLine
 10
291.9843419779435
 20
171.4834587857669
 30
0.0
 11
292.4809008229435
 21
171.3936122343669
 31
0.0
  0
LINE
  5
15F1
330
1A
100
AcDbEntity
  8
SEIHIN
100
AcDbLine
 10
291.6674091804434
 20
171.5634929225669
 30
0.0
 11
291.9843419779435
 21
171.4834587857669
 31
0.0
  0
LINE
  5
15F2
330
1A
100
AcDbEntity
  8
SEIHIN
100
AcDbLine
 10
291.5569915760433
 20
171.6098690614669
 30
0.0
 11
291.6674091804434
 21
171.5634929225669
 31
0.0
  0
LINE
  5
15F3
330
1A
100
AcDbEntity
  8
SEIHIN
100
AcDbLine
 10
288.7278422106433
 20
170.149719177267
 30
0.0
 11
288.7376695264433
 21
170.0115164950669
 31
0.0
  0
LINE
  5
15F4
330
1A
100
AcDbEntity
  8
SEIHIN
100
AcDbLine
 10
288.6990159142433
 20
170.285265727367
 30
0.0
 11
288.7278422106433
 21
170.149719177267
 31
0.0
  0
LINE
  5
15F5
330
1A
100
AcDbEntity
  8
SEIHIN
100
AcDbLine
 10
288.6517494309434
 20
170.415554030267
 30
0.0
 11
288.6990159142433
 21
170.285265727367
 31
0.0
  0
LINE
  5
15F6
330
1A
100
AcDbEntity
  8
SEIHIN
100
AcDbLine
 10
288.5869442809434
 20
170.5380788281669
 30
0.0
 11
288.6517494309434
 21
170.415554030267
 31
0.0
  0
LINE
  5
15F7
330
1A
100
AcDbEntity
  8
SEIHIN
100
AcDbLine
 10
288.5058521617434
 20
170.6504876002669
 30
0.0
 11
288.5869442809434
 21
170.5380788281669
 31
0.0
  0
LINE
  5
15F8
330
1A
100
AcDbEntity
  8
SEIHIN
100
AcDbLine
 10
288.4100227940434
 20
170.7506215408669
 30
0.0
 11
288.5058521617434
 21
170.6504876002669
 31
0.0
  0
LINE
  5
15F9
330
1A
100
AcDbEntity
  8
SEIHIN
100
AcDbLine
 10
288.3013039220436
 20
170.836554674867
 30
0.0
 11
288.4100227940434
 21
170.7506215408669
 31
0.0
  0
LINE
  5
15FA
330
1A
100
AcDbEntity
  8
SEIHIN
100
AcDbLine
 10
288.1817891586433
 20
170.9066348359669
 30
0.0
 11
288.3013039220436
 21
170.836554674867
 31
0.0
  0
LINE
  5
15FB
330
1A
100
AcDbEntity
  8
SEIHIN
100
AcDbLine
 10
293.7110959876436
 20
171.2970042810669
 30
0.0
 11
293.5569881785436
 21
171.300213618567
 31
0.0
  0
LINE
  5
15FC
330
1A
100
AcDbEntity
  8
SEIHIN
100
AcDbLine
 10
293.8652410496434
 20
171.2959351226669
 30
0.0
 11
293.7110959876436
 21
171.2970042810669
 31
0.0
  0
ARC
  5
15FD
330
1A
100
AcDbEntity
  8
SEIHIN
100
AcDbCircle
 10
293.8652406851433
 20
182.397205351367
 30
0.0
 40
13.5428042773
100
AcDbArc
 50
257.1836201120004
 51
270.0
  0
LINE
  5
15FE
330
1A
100
AcDbEntity
  8
SEIHIN
100
AcDbLine
 10
294.8069879997433
 20
166.7452227458669
 30
0.0
 11
294.8069879997433
 21
168.2452227458669
 31
0.0
  0
LINE
  5
15FF
330
1A
100
AcDbEntity
  8
SEIHIN
100
AcDbLine
 10
294.3069879997433
 20
166.7452227458669
 30
0.0
 11
294.3069879997433
 21
168.2452227458669
 31
0.0
  0
LINE
  5
1600
330
1A
100
AcDbEntity
  8
SEIHIN
100
AcDbLine
 10
294.3069879997433
 20
166.7452227458669
 30
0.0
 11
294.8069879997433
 21
166.7452227458669
 31
0.0
  0
LINE
  5
1601
330
1A
100
AcDbEntity
  8
SEIHIN
100
AcDbLine
 10
294.3069879997433
 20
168.2452227458669
 30
0.0
 11
294.8069879997433
 21
168.2452227458669
 31
0.0
  0
LINE
  5
1602
330
1A
100
AcDbEntity
  8
SEIHIN
100
AcDbLine
 10
291.5569915760433
 20
171.5937031641669
 30
0.0
 11
291.5569879933434
 21
171.6421149513669
 31
0.0
  0
ARC
  5
1603
330
1A
100
AcDbEntity
  8
SEIHIN
100
AcDbCircle
 10
269.8941681554433
 20
180.7525843208669
 30
0.0
 40
5.000000000000135
100
AcDbArc
 50
12.80426606529974
 51
78.31063082459973
  0
LINE
  5
1604
330
1A
100
AcDbEntity
  8
SEIHIN
100
AcDbLine
 10
283.4810591879436
 20
178.7683247205669
 30
0.0
 11
280.7278647324433
 21
186.6466965471669
 31
0.0
  0
LINE
  5
1605
330
1A
100
AcDbEntity
  8
SEIHIN
100
AcDbLine
 10
278.7762254565434
 20
186.7166093003669
 30
0.0
 11
281.7635952586433
 21
178.1681357130669
 31
0.0
  0
LINE
  5
160A
330
1A
100
AcDbEntity
  8
SEIHIN
100
AcDbLine
 10
299.3069879997433
 20
166.2452227458669
 30
0.0
 11
299.3069879997433
 21
166.295935122667
 31
0.0
  0
LINE
  5
160B
330
1A
100
AcDbEntity
  8
SEIHIN
100
AcDbLine
 10
299.8069879997433
 20
166.2452227458669
 30
0.0
 11
299.8069879997433
 21
166.295935122667
 31
0.0
  0
LINE
  5
160C
330
1A
100
AcDbEntity
  8
SEIHIN
100
AcDbLine
 10
299.3069879997433
 20
166.2452227458669
 30
0.0
 11
299.8069879997433
 21
166.2452227458669
 31
0.0
  0
LINE
  5
1612
330
1A
100
AcDbEntity
  8
SEIHIN
100
AcDbLine
 10
309.8069879997433
 20
166.2452227458669
 30
0.0
 11
309.8069879997433
 21
166.295935122667
 31
0.0
  0
LINE
  5
1613
330
1A
100
AcDbEntity
  8
SEIHIN
100
AcDbLine
 10
309.3069879997433
 20
166.2452227458669
 30
0.0
 11
309.3069879997433
 21
166.295935122667
 31
0.0
  0
LINE
  5
1614
330
1A
100
AcDbEntity
  8
SEIHIN
100
AcDbLine
 10
309.3069879997433
 20
166.2452227458669
 30
0.0
 11
309.8069879997433
 21
166.2452227458669
 31
0.0
  0
LINE
  5
1616
330
1A
100
AcDbEntity
  8
SEIHIN
100
AcDbLine
 10
329.3069879997433
 20
166.7452227458669
 30
0.0
 11
329.3069879997433
 21
168.2452227458669
 31
0.0
  0
LINE
  5
1617
330
1A
100
AcDbEntity
  8
SEIHIN
100
AcDbLine
 10
329.8069879997433
 20
166.7452227458669
 30
0.0
 11
329.8069879997433
 21
168.2452227458669
 31
0.0
  0
LINE
  5
1618
330
1A
100
AcDbEntity
  8
SEIHIN
100
AcDbLine
 10
329.3069879997433
 20
166.7452227458669
 30
0.0
 11
329.8069879997433
 21
166.7452227458669
 31
0.0
  0
LINE
  5
1619
330
1A
100
AcDbEntity
  8
SEIHIN
100
AcDbLine
 10
329.3069879997433
 20
168.2452227458669
 30
0.0
 11
329.8069879997433
 21
168.2452227458669
 31
0.0
  0
LINE
  5
161A
330
1A
100
AcDbEntity
  8
SEIHIN
100
AcDbLine
 10
319.8069879997433
 20
166.2452227458669
 30
0.0
 11
319.8069879997433
 21
166.295935122667
 31
0.0
  0
LINE
  5
161B
330
1A
100
AcDbEntity
  8
SEIHIN
100
AcDbLine
 10
319.3069879997433
 20
166.2452227458669
 30
0.0
 11
319.3069879997433
 21
166.295935122667
 31
0.0
  0
LINE
  5
161C
330
1A
100
AcDbEntity
  8
SEIHIN
100
AcDbLine
 10
319.3069879997433
 20
166.2452227458669
 30
0.0
 11
319.8069879997433
 21
166.2452227458669
 31
0.0
  0
LINE
  5
161E
330
1A
100
AcDbEntity
  8
SEIHIN
100
AcDbLine
 10
324.8069879997433
 20
166.2452227458669
 30
0.0
 11
324.8069879997433
 21
168.0970907423712
 31
0.0
  0
LINE
  5
161F
330
1A
100
AcDbEntity
  8
SEIHIN
100
AcDbLine
 10
324.3069879997433
 20
166.2452227458669
 30
0.0
 11
324.3069879997433
 21
167.6245671347848
 31
0.0
  0
LINE
  5
1620
330
1A
100
AcDbEntity
  8
SEIHIN
100
AcDbLine
 10
324.3069879997433
 20
166.2452227458669
 30
0.0
 11
324.8069879997433
 21
166.2452227458669
 31
0.0
  0
LINE
  5
1622
330
1A
100
AcDbEntity
  8
SEIHIN
100
AcDbLine
 10
384.0569879997433
 20
177.9972053513669
 30
0.0
 11
384.0569879997433
 21
161.9816426617669
 31
0.0
  0
LINE
  5
1623
330
1A
100
AcDbEntity
  8
SEIHIN
100
AcDbLine
 10
389.0569879997433
 20
158.0972053513668
 30
0.0
 11
389.0569879997433
 21
177.897205351367
 31
0.0
  0
LINE
  5
1624
330
1A
100
AcDbEntity
  8
SEIHIN
100
AcDbLine
 10
370.7151021424551
 20
180.7959351226669
 30
0.0
 11
355.4125956584434
 21
159.6784761748668
 31
0.0
  0
LINE
  5
1625
330
1A
100
AcDbEntity
  8
SEIHIN
100
AcDbLine
 10
356.8857861663436
 20
158.6109468212668
 30
0.0
 11
372.1614821933435
 21
179.691407338467
 31
0.0
  0
ARC
  5
1626
330
1A
100
AcDbEntity
  8
SEIHIN
100
AcDbCircle
 10
357.6955360091433
 20
158.0241715728668
 30
0.0
 40
0.9999999999999129
100
AcDbArc
 50
144.0714975772011
 51
284.0362434679067
  0
LINE
  5
1627
330
1A
100
AcDbEntity
  8
SEIHIN
100
AcDbLine
 10
354.5569888640434
 20
155.3972045168668
 30
0.0
 11
359.5569878209435
 21
155.3972045168668
 31
0.0
  0
LINE
  5
1628
330
1A
100
AcDbEntity
  8
SEIHIN
100
AcDbLine
 10
342.4471690643437
 20
155.6555571243668
 30
0.0
 11
342.0569896090432
 21
155.6621732399667
 31
0.0
  0
LINE
  5
1629
330
1A
100
AcDbEntity
  8
SEIHIN
100
AcDbLine
 10
342.8223542261434
 20
155.6465083942668
 30
0.0
 11
342.4471690643437
 21
155.6555571243668
 31
0.0
  0
LINE
  5
162A
330
1A
100
AcDbEntity
  8
SEIHIN
100
AcDbLine
 10
343.1681282211434
 20
155.6353772267668
 30
0.0
 11
342.8223542261434
 21
155.6465083942668
 31
0.0
  0
LINE
  5
162B
330
1A
100
AcDbEntity
  8
SEIHIN
100
AcDbLine
 10
343.4712029386432
 20
155.6225920304668
 30
0.0
 11
343.1681282211434
 21
155.6353772267668
 31
0.0
  0
LINE
  5
162C
330
1A
100
AcDbEntity
  8
SEIHIN
100
AcDbLine
 10
343.7199256707435
 20
155.6086408183668
 30
0.0
 11
343.4712029386432
 21
155.6225920304668
 31
0.0
  0
LINE
  5
162D
330
1A
100
AcDbEntity
  8
SEIHIN
100
AcDbLine
 10
343.9047484982434
 20
155.5940600320668
 30
0.0
 11
343.7199256707435
 21
155.6086408183668
 31
0.0
  0
LINE
  5
162E
330
1A
100
AcDbEntity
  8
SEIHIN
100
AcDbLine
 10
344.0185598421435
 20
155.5794159159668
 30
0.0
 11
343.9047484982434
 21
155.5940600320668
 31
0.0
  0
LINE
  5
162F
330
1A
100
AcDbEntity
  8
SEIHIN
100
AcDbLine
 10
344.0569862116435
 20
155.5652635380667
 30
0.0
 11
344.0185598421435
 21
155.5794159159668
 31
0.0
  0
LINE
  5
1630
330
1A
100
AcDbEntity
  8
SEIHIN
100
AcDbLine
 10
347.6688712228433
 20
157.3290879115668
 30
0.0
 11
347.8614389289434
 21
157.3071683034668
 31
0.0
  0
LINE
  5
1631
330
1A
100
AcDbEntity
  8
SEIHIN
100
AcDbLine
 10
347.4840632964433
 20
157.3877724096667
 30
0.0
 11
347.6688712228433
 21
157.3290879115668
 31
0.0
  0
LINE
  5
1632
330
1A
100
AcDbEntity
  8
SEIHIN
100
AcDbLine
 10
347.3139665413436
 20
157.4810089752667
 30
0.0
 11
347.4840632964433
 21
157.3877724096667
 31
0.0
  0
LINE
  5
1633
330
1A
100
AcDbEntity
  8
SEIHIN
100
AcDbLine
 10
347.1649847317435
 20
157.6052883848668
 30
0.0
 11
347.3139665413436
 21
157.4810089752667
 31
0.0
  0
LINE
  5
1634
330
1A
100
AcDbEntity
  8
SEIHIN
100
AcDbLine
 10
347.0427318800434
 20
157.7559335366667
 30
0.0
 11
347.1649847317435
 21
157.6052883848668
 31
0.0
  0
LINE
  5
1635
330
1A
100
AcDbEntity
  8
SEIHIN
100
AcDbLine
 10
346.9518012691433
 20
157.9272745385668
 30
0.0
 11
347.0427318800434
 21
157.7559335366667
 31
0.0
  0
LINE
  5
1636
330
1A
100
AcDbEntity
  8
SEIHIN
100
AcDbLine
 10
346.8956201661435
 20
158.1128610506668
 30
0.0
 11
346.9518012691433
 21
157.9272745385668
 31
0.0
  0
LINE
  5
1637
330
1A
100
AcDbEntity
  8
SEIHIN
100
AcDbLine
 10
346.8763045359433
 20
158.3057062909668
 30
0.0
 11
346.8956201661435
 21
158.1128610506668
 31
0.0
  0
LINE
  5
1638
330
1A
100
AcDbEntity
  8
SEIHIN
100
AcDbLine
 10
345.3054054964437
 20
157.0693681225668
 30
0.0
 11
344.7394035149436
 21
157.0741923734668
 31
0.0
  0
LINE
  5
1639
330
1A
100
AcDbEntity
  8
SEIHIN
100
AcDbLine
 10
345.8510785687435
 20
157.0703627750668
 30
0.0
 11
345.3054054964437
 21
157.0693681225668
 31
0.0
  0
LINE
  5
163A
330
1A
100
AcDbEntity
  8
SEIHIN
100
AcDbLine
 10
346.3568202544433
 20
157.0771428033668
 30
0.0
 11
345.8510785687435
 21
157.0703627750668
 31
0.0
  0
LINE
  5
163B
330
1A
100
AcDbEntity
  8
SEIHIN
100
AcDbLine
 10
346.8044697631435
 20
157.0894660636667
 30
0.0
 11
346.3568202544433
 21
157.0771428033668
 31
0.0
  0
LINE
  5
163C
330
1A
100
AcDbEntity
  8
SEIHIN
100
AcDbLine
 10
347.1779450167435
 20
157.1068892464668
 30
0.0
 11
346.8044697631435
 21
157.0894660636667
 31
0.0
  0
LINE
  5
163D
330
1A
100
AcDbEntity
  8
SEIHIN
100
AcDbLine
 10
347.4638349700435
 20
157.1287827775667
 30
0.0
 11
347.1779450167435
 21
157.1068892464668
 31
0.0
  0
LINE
  5
163E
330
1A
100
AcDbEntity
  8
SEIHIN
100
AcDbLine
 10
347.6518689978433
 20
157.1543643459668
 30
0.0
 11
347.4638349700435
 21
157.1287827775667
 31
0.0
  0
LINE
  5
163F
330
1A
100
AcDbEntity
  8
SEIHIN
100
AcDbLine
 10
347.7352931488435
 20
157.1827138051667
 30
0.0
 11
347.6518689978433
 21
157.1543643459668
 31
0.0
  0
LINE
  5
1640
330
1A
100
AcDbEntity
  8
SEIHIN
100
AcDbLine
 10
353.6981243508435
 20
157.2282933102668
 30
0.0
 11
347.8614393565435
 21
157.3071674317668
 31
0.0
  0
LINE
  5
1641
330
1A
100
AcDbEntity
  8
SEIHIN
100
AcDbLine
 10
347.8614393565435
 20
157.3071674317668
 30
0.0
 11
347.7352934194436
 21
157.1827146519668
 31
0.0
  0
LINE
  5
1642
330
1A
100
AcDbEntity
  8
SEIHIN
100
AcDbLine
 10
344.0569862116435
 20
155.5390970990668
 30
0.0
 11
354.5569888640434
 21
155.3972045168668
 31
0.0
  0
LINE
  5
1643
330
1A
100
AcDbEntity
  8
SEIHIN
100
AcDbLine
 10
344.0569862116435
 20
155.5783504829667
 30
0.0
 11
344.0569862116435
 21
155.5390970990668
 31
0.0
  0
ARC
  5
1644
330
1A
100
AcDbEntity
  8
SEIHIN
100
AcDbCircle
 10
353.7140780890435
 20
158.4088699358668
 30
0.0
 40
1.180684416199934
100
AcDbArc
 50
269.2257798350898
 51
354.481071514703
  0
ARC
  5
1645
330
1A
100
AcDbEntity
  8
SEIHIN
100
AcDbCircle
 10
357.6955360091433
 20
158.0241715728668
 30
0.0
 40
2.819315583799681
100
AcDbArc
 50
144.0714975771946
 51
174.4810715146998
  0
ARC
  5
1646
330
1A
100
AcDbEntity
  8
SEIHIN
100
AcDbCircle
 10
372.5569879997433
 20
159.6779817577667
 30
0.0
 40
1.0
100
AcDbArc
 50
0.0
 51
104.0362434678798
  0
ARC
  5
1647
330
1A
100
AcDbEntity
  8
SEIHIN
100
AcDbCircle
 10
372.5569879997433
 20
159.6779817577667
 30
0.0
 40
1.000000000000053
100
AcDbArc
 50
284.0362434679067
 51
0.0
  0
LINE
  5
1648
330
1A
100
AcDbEntity
  8
SEIHIN
100
AcDbLine
 10
372.3144523747435
 20
160.6481242578667
 30
0.0
 11
357.9380716342434
 21
157.0540290727668
 31
0.0
  0
LINE
  5
1649
330
1A
100
AcDbEntity
  8
SEIHIN
100
AcDbLine
 10
359.5569878209435
 20
155.3972045168668
 30
0.0
 11
372.7995236247434
 21
158.7078392575668
 31
0.0
  0
LINE
  5
164A
330
1A
100
AcDbEntity
  8
SEIHIN
100
AcDbLine
 10
382.4964418136435
 20
161.1535194987668
 30
0.0
 11
380.6175341859434
 21
162.4253285143669
 31
0.0
  0
ARC
  5
164B
330
1A
100
AcDbEntity
  8
SEIHIN
100
AcDbCircle
 10
380.0569879997433
 20
161.5972053513667
 30
0.0
 40
1.000000000000208
100
AcDbArc
 50
55.906421426799
 51
223.0097155350032
  0
LINE
  5
164C
330
1A
100
AcDbEntity
  8
SEIHIN
100
AcDbLine
 10
379.3257499538435
 20
160.9150829868668
 30
0.0
 11
383.8632738618433
 21
156.0508382578668
 31
0.0
  0
ARC
  5
164D
330
1A
100
AcDbEntity
  8
SEIHIN
100
AcDbCircle
 10
386.0569879997433
 20
158.0972053513668
 30
0.0
 40
2.999999999999873
100
AcDbArc
 50
223.0097155350032
 51
0.0
  0
ARC
  5
164E
330
1A
100
AcDbEntity
  8
SEIHIN
100
AcDbCircle
 10
383.0569879997433
 20
161.9816426617669
 30
0.0
 40
0.9999999999999865
100
AcDbArc
 50
235.9064214268062
 51
0.0
  0
ARC
  5
164F
330
1A
100
AcDbEntity
  8
SEIHIN
100
AcDbCircle
 10
378.6394809355433
 20
174.9972053513669
 30
0.0
 40
8.0
100
AcDbArc
 50
133.5443590704051
 51
144.0714975772011
  0
LINE
  5
1650
330
1A
100
AcDbEntity
  8
SEIHIN
100
AcDbLine
 10
363.4186474983985
 20
180.7959351226669
 30
0.0
 11
357.5174380949433
 21
174.537076664467
 31
0.0
  0
LINE
  5
1651
330
1A
100
AcDbEntity
  8
SEIHIN
100
AcDbLine
 10
358.8411528402434
 20
173.2890027617669
 30
0.0
 11
365.4476890661587
 21
180.2959351226669
 31
0.0
  0
LINE
  5
1652
330
1A
100
AcDbEntity
  8
SEIHIN
100
AcDbLine
 10
342.0569896090432
 20
171.2452227458669
 30
0.0
 11
342.0569896090432
 21
171.2959351226669
 31
0.0
  0
ARC
  5
1655
330
1A
100
AcDbEntity
  8
SEIHIN
100
AcDbCircle
 10
379.0569879997433
 20
177.9972053513669
 30
0.0
 40
5.0
100
AcDbArc
 50
0.0
 51
34.03823060837268
  0
LINE
  5
1656
330
1A
100
AcDbEntity
  8
SEIHIN
100
AcDbLine
 10
259.5615460861436
 20
189.549381271867
 30
0.0
 11
259.5615460861436
 21
189.5398717698669
 31
0.0
  0
LINE
  5
1657
330
1A
100
AcDbEntity
  8
SEIHIN
100
AcDbLine
 10
259.5615609873434
 20
189.5919629115669
 30
0.0
 11
259.5615460861436
 21
189.549381271867
 31
0.0
  0
LINE
  5
1658
330
1A
100
AcDbEntity
  8
SEIHIN
100
AcDbLine
 10
259.5615609873434
 20
189.6308591914669
 30
0.0
 11
259.5615609873434
 21
189.5919629115669
 31
0.0
  0
LINE
  5
1659
330
1A
100
AcDbEntity
  8
SEIHIN
100
AcDbLine
 10
259.5615460861436
 20
189.6737960143669
 30
0.0
 11
259.5615609873434
 21
189.6308591914669
 31
0.0
  0
LINE
  5
165A
330
1A
100
AcDbEntity
  8
SEIHIN
100
AcDbLine
 10
259.5615460861436
 20
189.7105375630669
 30
0.0
 11
259.5615460861436
 21
189.6737960143669
 31
0.0
  0
LINE
  5
165B
330
1A
100
AcDbEntity
  8
SEIHIN
100
AcDbLine
 10
276.0077822336433
 20
189.9972053513669
 30
0.0
 11
270.1185408125434
 21
189.9972053513669
 31
0.0
  0
ARC
  5
165C
330
1A
100
AcDbEntity
  8
SEIHIN
100
AcDbCircle
 10
270.1185408125434
 20
189.4972053513669
 30
0.0
 40
0.5
100
AcDbArc
 50
90.0
 51
104.0362434679067
  0
LINE
  5
165D
330
1A
100
AcDbEntity
  8
SEIHIN
100
AcDbLine
 10
276.6789464104435
 20
188.1778897675669
 30
0.0
 11
276.7176233868435
 21
188.1778897675669
 31
0.0
  0
ARC
  5
165E
330
1A
100
AcDbEntity
  8
SEIHIN
100
AcDbCircle
 10
264.5569879997433
 20
189.4972053513669
 30
0.0
 40
4.999999999999941
100
AcDbArc
 50
104.9381624396986
 51
177.5546507419004
  0
ARC
  5
165F
330
1A
100
AcDbEntity
  8
SEIHIN
100
AcDbCircle
 10
263.5258823968433
 20
193.3620237475669
 30
0.0
 40
1.000000000000001
100
AcDbArc
 50
338.1985905136022
 51
104.9381624396852
  0
LINE
  5
1660
330
1A
100
AcDbEntity
  8
SEIHIN
100
AcDbLine
 10
259.5615411356434
 20
189.7105375519669
 30
0.0
 11
259.5615411356434
 21
189.539871791467
 31
0.0
  0
LINE
  5
1661
330
1A
100
AcDbEntity
  8
SEIHIN
100
AcDbLine
 10
267.9954351869434
 20
189.4972053513669
 30
0.0
 11
265.2725374419433
 21
189.4972053513669
 31
0.0
  0
ARC
  5
1662
330
1A
100
AcDbEntity
  8
SEIHIN
100
AcDbCircle
 10
265.2725374419433
 20
190.9972053513669
 30
0.0
 40
1.499999999999834
100
AcDbArc
 50
158.1985905135961
 51
270.0
  0
LINE
  5
1663
330
1A
100
AcDbEntity
  8
SEIHIN
100
AcDbLine
 10
263.8798224055435
 20
191.554291365867
 30
0.0
 11
264.4543590876435
 21
192.9906330711669
 31
0.0
  0
ARC
  5
1664
330
1A
100
AcDbEntity
  8
SEIHIN
100
AcDbCircle
 10
267.9954351869434
 20
189.9972053513669
 30
0.0
 40
0.5
100
AcDbArc
 50
270.0
 51
284.0362434678798
  0
LINE
  5
1665
330
1A
100
AcDbEntity
  8
SEIHIN
100
AcDbLine
 10
269.9972730000435
 20
189.9822766013669
 30
0.0
 11
268.1167029994435
 21
189.5121341012669
 31
0.0
  0
LINE
  5
179E
330
1A
100
AcDbEntity
  8
SEIHIN
100
AcDbLine
 10
328.1886234874523
 20
171.2959351226669
 30
0.0
 11
342.0569896090432
 21
171.2959351226669
 31
0.0
  0
LINE
  5
179F
330
1A
100
AcDbEntity
  8
SEIHIN
100
AcDbLine
 10
295.9985220483433
 20
168.8544010740669
 30
0.0
 11
293.8652406851433
 21
168.8544010740669
 31
0.0
  0
LINE
  5
17B6
330
1A
100
AcDbEntity
  8
SUNPOU
  6
Continuous
 62
     4
 48
5.0
100
AcDbLine
 10
425.2448042030037
 20
114.7578388144456
 30
0.0
 11
425.2448042030037
 21
134.72940394977
 31
0.0
  0
LINE
  5
17B7
330
1A
100
AcDbEntity
  8
SUNPOU
  6
Continuous
100
AcDbLine
 10
435.3726135714063
 20
114.7578388144456
 30
0.0
 11
425.2448042030037
 21
114.7578388144456
 31
0.0
  0
TEXT
  5
17B8
330
1A
100
AcDbEntity
  8
SUNPOU
  6
Continuous
 62
     4
 48
5.0
100
AcDbText
 10
428.8107073470877
 20
106.0788350918774
 30
0.0
 40
6.0
  1
5
100
AcDbText
  0
TEXT
  5
17B9
330
1A
100
AcDbEntity
  8
SUNPOU
  6
Continuous
 62
     4
 48
5.0
100
AcDbText
 10
415.096476404405
 20
120.6050732386802
 30
0.0
 40
6.0
  1
10
100
AcDbText
  0
DIMENSION
  5
17DE
330
1A
100
AcDbEntity
  8
SUNPOU
100
AcDbDimension
  2
*D1
 10
228.0421304928822
 20
149.7369113553904
 30
0.0
 11
223.0421304928822
 21
172.0424944214498
 31
0.0
 70
    32
 71
     5
 42
-1.0
  3
STANDARD
100
AcDbAlignedDimension
 13
263.6923096240205
 23
194.3480774875092
 33
0.0
 14
406.5556616721369
 24
149.7369113553903
 34
0.0
 50
90.0
100
AcDbRotatedDimension
1001
ACAD
1000
DSTYLE
1002
{
1070
    41
1040
7.0
1070
    42
1040
6.0
1070
    43
1040
14.0
1070
    44
1040
3.0
1070
    73
1070
     0
1070
    74
1070
     0
1070
    77
1070
     3
1070
   140
1040
6.0
1070
   141
1040
150.0
1070
   147
1040
2.0
1070
   172
1070
     1
1070
   173
1070
     1
1070
   176
1070
   256
1070
   177
1070
   256
1070
   178
1070
   256
1070
   271
1070
     0
1070
   272
1070
     0
1070
   341
1005
6D
1070
     6
1000
OPEN
1070
     7
1000
OPEN
1070
   371
1070
    -1
1070
   372
1070
    -1
1002
}
  0
DIMENSION
  5
1F22
330
1A
100
AcDbEntity
  8
SUNPOU
100
AcDbDimension
  2
*D2
 10
393.5569879997438
 20
259.6042176378554
 30
0.0
 11
326.5592645676936
 21
264.6042176378553
 31
0.0
 70
    32
 71
     5
 42
-1.0
  3
STANDARD
100
AcDbAlignedDimension
 13
259.5615411356434
 23
189.7105375522993
 33
0.0
 14
393.5569879997438
 24
198.3890899577668
 34
0.0
100
AcDbRotatedDimension
1001
ACAD
1000
DSTYLE
1002
{
1070
    41
1040
7.0
1070
    42
1040
6.0
1070
    43
1040
14.0
1070
    44
1040
3.0
1070
    73
1070
     0
1070
    74
1070
     0
1070
    77
1070
     3
1070
   140
1040
6.0
1070
   141
1040
150.0
1070
   147
1040
2.0
1070
   172
1070
     1
1070
   173
1070
     1
1070
   176
1070
   256
1070
   177
1070
   256
1070
   178
1070
   256
1070
   271
1070
     0
1070
   272
1070
     0
1070
   341
1005
6D
1070
     6
1000
OPEN
1070
     7
1000
OPEN
1070
   371
1070
    -1
1070
   372
1070
    -1
1002
}
  0
DIMENSION
  5
1F2F
330
1A
100
AcDbEntity
  8
SUNPOU
100
AcDbDimension
  2
*D3
 10
428.5569879997438
 20
259.6042176378554
 30
0.0
 11
411.0569879997438
 21
264.6042176378553
 31
0.0
 70
    32
 71
     5
 42
-1.0
  3
STANDARD
100
AcDbAlignedDimension
 13
393.5569879997438
 23
198.3890899577668
 33
0.0
 14
428.5569879997438
 24
198.3890899577668
 34
0.0
100
AcDbRotatedDimension
1001
ACAD
1000
DSTYLE
1002
{
1070
    41
1040
7.0
1070
    42
1040
6.0
1070
    43
1040
14.0
1070
    44
1040
3.0
1070
    73
1070
     0
1070
    74
1070
     0
1070
    77
1070
     3
1070
   140
1040
6.0
1070
   141
1040
150.0
1070
   147
1040
2.0
1070
   172
1070
     1
1070
   173
1070
     1
1070
   176
1070
   256
1070
   177
1070
   256
1070
   178
1070
   256
1070
   271
1070
     0
1070
   272
1070
     0
1070
   341
1005
6D
1070
     6
1000
OPEN
1070
     7
1000
OPEN
1070
   371
1070
    -1
1070
   372
1070
    -1
1002
}
  0
TEXT
  5
1F3C
330
1A
100
AcDbEntity
  8
SUNPOU
 48
5.0
100
AcDbText
 10
393.2236912651583
 20
271.0343908223064
 30
0.0
 40
6.0
  1
スライド巾
100
AcDbText
  0
DIMENSION
  5
1F3D
330
1A
100
AcDbEntity
  8
SUNPOU
100
AcDbDimension
  2
*D4
 10
393.5569879997438
 20
246.3985787480436
 30
0.0
 11
344.0569879997435
 21
251.3985787480436
 31
0.0
 70
    32
 71
     5
 42
-1.0
  3
STANDARD
100
AcDbAlignedDimension
 13
294.5569879997433
 23
176.2959351226669
 33
0.0
 14
393.5569879997438
 24
204.3890899577669
 34
0.0
100
AcDbRotatedDimension
1001
ACAD
1000
DSTYLE
1002
{
1070
    41
1040
7.0
1070
    42
1040
6.0
1070
    43
1040
14.0
1070
    44
1040
3.0
1070
    73
1070
     0
1070
    74
1070
     0
1070
    77
1070
     3
1070
   140
1040
6.0
1070
   141
1040
150.0
1070
   147
1040
2.0
1070
   172
1070
     1
1070
   173
1070
     1
1070
   176
1070
   256
1070
   177
1070
   256
1070
   178
1070
   256
1070
   271
1070
     0
1070
   272
1070
     0
1070
   341
1005
6D
1070
     6
1000
OPEN
1070
     7
1000
OPEN
1070
   371
1070
    -1
1070
   372
1070
    -1
1002
}
  0
DIMENSION
  5
1F67
330
1A
100
AcDbEntity
  8
SUNPOU
100
AcDbDimension
  2
*D5
 10
383.200309332592
 20
234.7416360611008
 30
0.0
 11
363.700309332592
 21
239.7416360611008
 31
0.0
 70
    32
 71
     5
 42
-1.0
  3
STANDARD
100
AcDbAlignedDimension
 13
393.5569879997438
 23
198.3890899577668
 33
0.0
 14
383.200309332592
 24
180.7959351226669
 34
0.0
100
AcDbRotatedDimension
1001
ACAD
1000
DSTYLE
1002
{
1070
    41
1040
7.0
1070
    42
1040
6.0
1070
    43
1040
14.0
1070
    44
1040
3.0
1070
    73
1070
     0
1070
    74
1070
     0
1070
    77
1070
     3
1070
   140
1040
6.0
1070
   141
1040
150.0
1070
   147
1040
2.0
1070
   172
1070
     1
1070
   173
1070
     1
1070
   176
1070
   256
1070
   177
1070
   256
1070
   178
1070
   256
1070
   271
1070
     0
1070
   272
1070
     0
1070
   341
1005
6D
1070
     6
1000
OPEN
1070
     7
1000
OPEN
1070
   371
1070
    -1
1070
   372
1070
    -1
1002
}
  0
ARC
  5
2210
330
1A
100
AcDbEntity
  8
SEIHIN
100
AcDbCircle
 10
589.7179931824832
 20
249.989804924618
 30
0.0
 40
3.50000000000003
100
AcDbArc
 50
296.359617116635
 51
26.35961711662111
  0
LINE
  5
2211
330
1A
100
AcDbEntity
  8
SEIHIN
100
AcDbLine
 10
586.8039082268779
 20
247.9877789301125
 30
0.0
 11
589.9399950616639
 21
249.5417924631394
 31
0.0
  0
LWPOLYLINE
  5
2212
330
1A
100
AcDbEntity
  8
SEIHIN
100
AcDbPolyline
 90
       13
 70
   128
 43
0.0
 10
603.4138848984098
 20
247.125280480206
 10
604.5453336572596
 20
247.7817058693433
 10
605.5812290006021
 20
248.5806641205055
 10
606.5038471385348
 20
249.5084834674341
 10
607.2974003368659
 20
250.5492924832274
 10
607.9483089625215
 20
251.6852807336488
 10
608.4454390537773
 20
252.8970122228592
 10
608.7802808624538
 20
254.1637530833225
 10
608.9471114019993
 20
255.4638273476251
 10
608.9430695716698
 20
256.7749939276086
 10
608.7682274414603
 20
258.0748145608755
 10
608.4255755742424
 20
259.3410526013476
 10
607.9209782965635
 20
260.5520401626792
  0
LINE
  5
2213
330
1A
100
AcDbEntity
  8
SEIHIN
100
AcDbLine
 10
542.9628258562773
 20
244.1200239833465
 30
0.0
 11
557.2992247400833
 21
251.2240834625419
 31
0.0
  0
LINE
  5
2214
330
1A
100
AcDbEntity
  8
SEIHIN
100
AcDbLine
 10
557.2992247400833
 20
251.2240834625419
 30
0.0
 11
564.4032848191528
 21
236.8876848056588
 31
0.0
  0
LINE
  5
2215
330
1A
100
AcDbEntity
  8
SEIHIN
100
AcDbLine
 10
567.0833419190883
 20
235.9836437449582
 30
0.0
 11
558.2032671393752
 21
253.904141422051
 31
0.0
  0
ARC
  5
2217
330
1A
100
AcDbEntity
  8
SEIHIN
100
AcDbCircle
 10
537.9195477332736
 20
254.2976470473658
 30
0.0
 40
3.750000000000017
100
AcDbArc
 50
143.6319525144765
 51
89.08728171876058
  0
LINE
  5
2218
330
1A
100
AcDbEntity
  8
SEIHIN
100
AcDbLine
 10
528.2556701856577
 20
254.6559202719439
 30
0.0
 11
541.6151331432152
 21
227.695761620458
 31
0.0
  0
LINE
  5
221A
330
1A
100
AcDbEntity
  8
SEIHIN
100
AcDbLine
 10
592.7042351897513
 20
272.1163129788508
 30
0.0
 11
541.6308145811917
 21
246.808098752218
 31
0.0
  0
LINE
  5
221B
330
1A
100
AcDbEntity
  8
SEIHIN
100
AcDbLine
 10
579.6998481478082
 20
262.3241775869955
 30
0.0
 11
586.8039082268779
 21
247.9877789301125
 31
0.0
  0
LINE
  5
221C
330
1A
100
AcDbEntity
  8
SEIHIN
100
AcDbLine
 10
585.8998650475045
 20
245.3077225448525
 30
0.0
 11
577.0197902677916
 21
263.2282202219452
 31
0.0
  0
LINE
  5
2224
330
1A
100
AcDbEntity
  8
SEIHIN
100
AcDbLine
 10
603.4138848984098
 20
247.125280480206
 30
0.0
 11
555.0285378036509
 21
223.1490769067391
 31
0.0
  0
LINE
  5
2225
330
1A
100
AcDbEntity
  8
SEIHIN
100
AcDbLine
 10
585.8998650475045
 20
245.3077225448525
 30
0.0
 11
567.0833419190883
 21
235.9836437449582
 31
0.0
  0
LINE
  5
2226
330
1A
100
AcDbEntity
  8
SEIHIN
100
AcDbLine
 10
562.5992088021199
 20
232.6455974266846
 30
0.0
 11
591.2720063367499
 21
246.8537176942679
 31
0.0
  0
ARC
  5
2227
330
1A
100
AcDbEntity
  8
SEIHIN
100
AcDbCircle
 10
550.9709283192593
 20
232.4636825786698
 30
0.0
 40
7.000000000000003
100
AcDbArc
 50
26.35961711662111
 51
116.359617116635
  0
CIRCLE
  5
2229
330
1A
100
AcDbEntity
  8
SEIHIN
100
AcDbCircle
 10
550.646187268891
 20
233.1190285507645
 30
0.0
 40
2.600000000000013
  0
ARC
  5
222A
330
1A
100
AcDbEntity
  8
SEIHIN
100
AcDbCircle
 10
550.9709283192593
 20
232.4636825786698
 30
0.0
 40
10.0
100
AcDbArc
 50
26.35961711662111
 51
116.359617116635
  0
LWPOLYLINE
  5
222B
330
1A
100
AcDbEntity
  8
SEIHIN
100
AcDbPolyline
 90
       13
 70
   128
 43
0.0
 10
555.0285378036509
 20
223.1490769067391
 10
553.8208926652449
 20
222.6464201599515
 10
552.5577161672342
 20
222.306128249482
 10
551.2606222952633
 20
222.1340223045718
 10
549.9518025438363
 20
222.1330505983619
 10
548.6536537368025
 20
222.3032299709216
 10
547.3883847244827
 20
222.6416466608755
 10
546.1776475015773
 20
223.1425127322726
 10
545.0421556689202
 20
223.7972522374163
 10
544.0013389755842
 20
224.5946697865909
 10
543.0730073735566
 20
225.521116701335
 10
542.2730426000104
 20
226.5607442492251
 10
541.6151331432152
 20
227.695761620458
  0
ARC
  5
222C
330
1A
100
AcDbEntity
  8
SEIHIN
100
AcDbCircle
 10
543.1848277354585
 20
243.6720115218678
 30
0.0
 40
3.500000000000012
100
AcDbArc
 50
116.359617116635
 51
206.3596171166211
  0
ARC
  5
222D
330
1A
100
AcDbEntity
  8
SEIHIN
100
AcDbCircle
 10
543.1848277354584
 20
243.672011521868
 30
0.0
 40
0.5000000000000151
100
AcDbArc
 50
116.359617116635
 51
206.3596171166211
  0
ARC
  5
222F
330
1A
100
AcDbEntity
  8
SEIHIN
100
AcDbCircle
 10
544.5168390105444
 20
240.9839367529963
 30
0.0
 40
3.500000000000012
100
AcDbArc
 50
206.3596171166211
 51
296.359617116635
  0
LINE
  5
2230
330
1A
100
AcDbEntity
  8
SEIHIN
100
AcDbLine
 10
546.5308907356397
 20
241.4239318082417
 30
0.0
 11
544.7388408897253
 21
240.5359242915177
 31
0.0
  0
ARC
  5
2232
330
1A
100
AcDbEntity
  8
SEIHIN
100
AcDbCircle
 10
544.5168390105444
 20
240.9839367529963
 30
0.0
 40
0.5000000000000267
100
AcDbArc
 50
206.3596171166211
 51
296.359617116635
  0
LINE
  5
2234
330
1A
100
AcDbEntity
  8
SEIHIN
100
AcDbLine
 10
541.3807517801939
 20
239.4299235987295
 30
0.0
 11
540.0487405051083
 21
242.1179983676011
 31
0.0
  0
LINE
  5
2235
330
1A
100
AcDbEntity
  8
SEIHIN
100
AcDbLine
 10
544.0688265490657
 20
240.7619348738153
 30
0.0
 11
542.7368152739797
 21
243.4500096426869
 31
0.0
  0
LINE
  5
2236
330
1A
100
AcDbEntity
  8
SEIHIN
100
AcDbLine
 10
547.8629020107256
 20
238.7358570393701
 30
0.0
 11
546.0708521648111
 21
237.8478495226461
 31
0.0
  0
LINE
  5
223A
330
1A
100
AcDbEntity
  8
SEIHIN
100
AcDbLine
 10
557.9091084175026
 20
234.2276715027679
 30
0.0
 11
557.2431027799598
 21
235.5717088872036
 31
0.0
  0
ARC
  5
223C
330
1A
100
AcDbEntity
  8
SEIHIN
100
AcDbCircle
 10
561.045195647853
 20
235.7816846570347
 30
0.0
 40
3.5
100
AcDbArc
 50
206.3596171166211
 51
296.359617116635
  0
LINE
  5
2244
330
1A
100
AcDbEntity
  8
SEIHIN
100
AcDbLine
 10
564.4032848191528
 20
236.8876848056588
 30
0.0
 11
561.2671975270339
 21
235.3336721955561
 31
0.0
  0
ARC
  5
2245
330
1A
100
AcDbEntity
  8
SEIHIN
100
AcDbCircle
 10
561.045195647853
 20
235.7816846570347
 30
0.0
 40
0.4999999999999955
100
AcDbArc
 50
206.3596171166211
 51
296.359617116635
  0
LINE
  5
2246
330
1A
100
AcDbEntity
  8
SEIHIN
100
AcDbLine
 10
560.5971831863743
 20
235.5596827778537
 30
0.0
 11
559.9311775488311
 21
236.9037201622895
 31
0.0
  0
LINE
  5
2248
330
1A
100
AcDbEntity
  8
SEIHIN
100
AcDbLine
 10
564.4032848191528
 20
236.8876848056588
 30
0.0
 11
567.0833419190883
 21
235.9836437449582
 31
0.0
  0
LINE
  5
2249
330
1A
100
AcDbEntity
  8
SEIHIN
100
AcDbLine
 10
586.8039082268779
 20
247.9877789301125
 30
0.0
 11
585.8998650475045
 21
245.3077225448525
 31
0.0
  0
LWPOLYLINE
  5
2252
330
1A
100
AcDbEntity
  8
SEIHIN
100
AcDbPolyline
 90
       13
 70
   128
 43
0.0
 10
528.2556701856577
 20
254.6559202719439
 10
527.7510731207284
 20
255.8669074039349
 10
527.4084215903637
 20
257.1331447646175
 10
527.2335791764883
 20
258.4329659703387
 10
527.2295377361992
 20
259.7441317631977
 10
527.3963674956632
 20
261.0442076017494
 10
527.7312099780468
 20
262.3109471026338
 10
528.2283403086457
 20
263.5226781088361
 10
528.8792491204572
 20
264.6586659835843
 10
529.6728022168458
 20
265.6994752051035
 10
530.5954195791294
 20
266.6272961173365
 10
531.6313152994927
 20
267.4262536076489
 10
532.7627648957666
 20
268.0826773068163
  0
LINE
  5
225B
330
1A
100
AcDbEntity
  8
SEIHIN
100
AcDbLine
 10
581.1481119905255
 20
292.0588808802832
 30
0.0
 11
570.6028393396068
 21
286.8334227819674
 31
0.0
  0
LINE
  5
225C
330
1A
100
AcDbEntity
  8
SEIHIN
100
AcDbLine
 10
558.2032671393752
 20
253.904141422051
 30
0.0
 11
577.0197902677916
 21
263.2282202219452
 31
0.0
  0
LINE
  5
2261
330
1A
100
AcDbEntity
  8
SEIHIN
100
AcDbLine
 10
567.7830376582662
 20
285.4361373803306
 30
0.0
 11
546.1278392280259
 21
274.705420806769
 31
0.0
  0
LINE
  5
2268
330
1A
100
AcDbEntity
  8
SEIHIN
100
AcDbLine
 10
532.7627648957666
 20
268.0826773068163
 30
0.0
 11
543.308037546685
 21
273.3081354051323
 31
0.0
  0
ARC
  5
226B
330
1A
100
AcDbEntity
  8
SEIHIN
100
AcDbCircle
 10
535.5732592573454
 20
259.0325910907109
 30
0.0
 40
2.599999999999999
100
AcDbArc
 50
337.7277734623719
 51
254.9914607708948
  0
LWPOLYLINE
  5
2283
330
1A
100
AcDbEntity
  8
SEIHIN
100
AcDbPolyline
 90
        3
 70
   128
 43
0.0
 10
543.308037546685
 20
273.3081354051323
 10
544.6931158291225
 20
274.0568703962704
 10
546.1278392280259
 20
274.705420806769
  0
LINE
  5
2285
330
1A
100
AcDbEntity
  8
SEIHIN
100
AcDbLine
 10
558.2032671393752
 20
253.904141422051
 30
0.0
 11
557.2992247400833
 21
251.2240834625419
 31
0.0
  0
LWPOLYLINE
  5
229F
330
1A
100
AcDbEntity
  8
SEIHIN
100
AcDbPolyline
 90
        3
 70
   128
 43
0.0
 10
570.6028393396068
 20
286.8334227819674
 10
569.1681167751917
 20
286.1848727849795
 10
567.7830376582662
 20
285.4361373803306
  0
LINE
  5
22B7
330
1A
100
AcDbEntity
  8
SEIHIN
100
AcDbLine
 10
594.5615153390058
 20
287.5121988141652
 30
0.0
 11
607.9209782965635
 21
260.5520401626792
 31
0.0
  0
ARC
  5
22B8
330
1A
100
AcDbEntity
  8
SEIHIN
100
AcDbCircle
 10
588.9929683418336
 20
279.6058612739986
 30
0.0
 40
3.75000000000003
100
AcDbArc
 50
143.6319525144765
 51
89.08728171876058
  0
ARC
  5
22B9
330
1A
100
AcDbEntity
  8
SEIHIN
100
AcDbCircle
 10
595.5902596191044
 20
266.292150979629
 30
0.0
 40
3.499999999999992
100
AcDbArc
 50
296.359617116635
 51
26.35961711662111
  0
CIRCLE
  5
22BB
330
1A
100
AcDbEntity
  8
SEIHIN
100
AcDbCircle
 10
598.1355081856223
 20
256.6512277439493
 30
0.0
 40
2.599999999999982
  0
ARC
  5
22BE
330
1A
100
AcDbEntity
  8
SEIHIN
100
AcDbCircle
 10
598.4602492359906
 20
255.9958817718546
 30
0.0
 40
10.00000000000001
100
AcDbArc
 50
116.359617116635
 51
206.3596171166211
  0
LINE
  5
22BF
330
1A
100
AcDbEntity
  8
SEIHIN
100
AcDbLine
 10
594.0362464648375
 20
269.4282382099792
 30
0.0
 11
579.6998481478082
 21
262.3241775869955
 31
0.0
  0
LINE
  5
22C0
330
1A
100
AcDbEntity
  8
SEIHIN
100
AcDbLine
 10
577.0197902677916
 20
263.2282202219452
 30
0.0
 11
579.6998481478082
 21
262.3241775869955
 31
0.0
  0
ARC
  5
22C1
330
1A
100
AcDbEntity
  8
SEIHIN
100
AcDbCircle
 10
598.4602492359906
 20
255.9958817718546
 30
0.0
 40
7.000000000000012
100
AcDbArc
 50
116.359617116635
 51
206.3596171166211
  0
LINE
  5
22C2
330
1A
100
AcDbEntity
  8
SEIHIN
100
AcDbLine
 10
592.8540804128332
 20
251.543818078885
 30
0.0
 11
592.1880747752903
 21
252.8878554633207
 31
0.0
  0
LINE
  5
22C4
330
1A
100
AcDbEntity
  8
SEIHIN
100
AcDbLine
 10
590.1660056439617
 20
250.211806803799
 30
0.0
 11
589.5000000064187
 21
251.5558441882348
 31
0.0
  0
ARC
  5
22C6
330
1A
100
AcDbEntity
  8
SEIHIN
100
AcDbCircle
 10
589.7179931824832
 20
249.989804924618
 30
0.0
 40
0.5000000000000346
100
AcDbArc
 50
296.359617116635
 51
26.35961711662111
  0
LINE
  5
22C7
330
1A
100
AcDbEntity
  8
SEIHIN
100
AcDbLine
 10
595.3522229274566
 20
262.2680562325548
 30
0.0
 11
597.1442727733713
 21
263.1560637492788
 31
0.0
  0
ARC
  5
22CC
330
1A
100
AcDbEntity
  8
SEIHIN
100
AcDbCircle
 10
594.2582483440183
 20
268.9802257485006
 30
0.0
 40
3.500000000000023
100
AcDbArc
 50
26.35961711662111
 51
116.359617116635
  0
LINE
  5
22CE
330
1A
100
AcDbEntity
  8
SEIHIN
100
AcDbLine
 10
596.0382720805829
 20
266.51415285881
 30
0.0
 11
594.7062608054969
 21
269.2022276276816
 31
0.0
  0
ARC
  5
22CF
330
1A
100
AcDbEntity
  8
SEIHIN
100
AcDbCircle
 10
594.2582483440183
 20
268.9802257485006
 30
0.0
 40
0.5000000000000267
100
AcDbArc
 50
26.35961711662111
 51
116.359617116635
  0
LINE
  5
22D0
330
1A
100
AcDbEntity
  8
SEIHIN
100
AcDbLine
 10
594.0202116523706
 20
264.9561310014264
 30
0.0
 11
595.8122614982852
 21
265.8441385181504
 31
0.0
  0
ARC
  5
22D2
330
1A
100
AcDbEntity
  8
SEIHIN
100
AcDbCircle
 10
595.5902596191044
 20
266.292150979629
 30
0.0
 40
0.5000000000000034
100
AcDbArc
 50
296.359617116635
 51
26.35961711662111
  0
LINE
  5
22D3
330
1A
100
AcDbEntity
  8
SEIHIN
100
AcDbLine
 10
598.7263468494543
 20
267.846164133896
 30
0.0
 11
597.3943355743685
 21
270.5342389027675
 31
0.0
  0
ARC
  5
22D6
330
1A
100
AcDbEntity
  8
SEIHIN
100
AcDbCircle
 10
586.6466798659054
 20
284.3408053173437
 30
0.0
 40
2.600000000000038
100
AcDbArc
 50
337.7277734623642
 51
254.9914607708948
  0
LWPOLYLINE
  5
22D8
330
1A
100
AcDbEntity
  8
SEIHIN
100
AcDbPolyline
 90
       13
 70
   128
 43
0.0
 10
594.5615153390058
 20
287.5121988141652
 10
593.90360609496
 20
288.6472157560573
 10
593.1036416582675
 20
289.6868426241582
 10
592.1753097725732
 20
290.6132901113565
 10
591.1344934692785
 20
291.4107068734066
 10
589.9990008565399
 20
292.0654479527992
 10
588.7882643073413
 20
292.5663126646177
 10
587.5229955343647
 20
292.9047288715633
 10
586.2248469134868
 20
293.0749078684499
 10
584.9160270601172
 20
293.0739363679658
 10
583.6189324124972
 20
292.90183198836
 10
582.3557562915071
 20
292.5615393170406
 10
581.1481119905255
 20
292.0588808802832
  0
LINE
  5
2311
330
1A
100
AcDbEntity
  8
CENTER_L
  6
CENTER
 62
     1
 48
5.0
100
AcDbLine
 10
587.3249752435137
 20
218.8804311438577
 30
0.0
 11
552.3067370013694
 21
289.4372590832314
 31
0.0
  0
LINE
  5
2314
330
1A
100
AcDbEntity
  8
CENTER_L
  6
CENTER
 62
     1
 48
5.0
100
AcDbLine
 10
539.6949739029486
 20
261.075008379176
 30
0.0
 11
531.4515446117423
 21
256.9901738022458
 31
0.0
  0
LINE
  5
2315
330
1A
100
AcDbEntity
  8
CENTER_L
  6
CENTER
 62
     1
 48
5.0
100
AcDbLine
 10
543.0716910402776
 20
256.8506686579473
 30
0.0
 11
532.7674044262697
 21
251.7446254367845
 31
0.0
  0
LINE
  5
2316
330
1A
100
AcDbEntity
  8
CENTER_L
  6
CENTER
 62
     1
 48
5.0
100
AcDbLine
 10
554.7679019144941
 20
235.1614458392297
 30
0.0
 11
546.5244726232879
 21
231.0766112622995
 31
0.0
  0
LINE
  5
2317
330
1A
100
AcDbEntity
  8
CENTER_L
  6
CENTER
 62
     1
 48
5.0
100
AcDbLine
 10
548.6037699804259
 20
237.2407431963676
 30
0.0
 11
552.6886045573561
 21
228.9973139051614
 31
0.0
  0
LINE
  5
2318
330
1A
100
AcDbEntity
  8
CENTER_L
  6
CENTER
 62
     1
 48
5.0
100
AcDbLine
 10
540.4725693438552
 20
249.145503740362
 30
0.0
 11
533.5308419688803
 21
263.1543057363141
 31
0.0
  0
LINE
  5
231D
330
1A
100
AcDbEntity
  8
CENTER_L
  6
CENTER
 62
     1
 48
5.0
100
AcDbLine
 10
591.5459899524149
 20
274.4537179669947
 30
0.0
 11
584.6042625774401
 21
288.4625199629467
 31
0.0
  0
LINE
  5
231E
330
1A
100
AcDbEntity
  8
CENTER_L
  6
CENTER
 62
     1
 48
5.0
100
AcDbLine
 10
590.7683945115085
 20
286.3832226058087
 30
0.0
 11
582.5249652203023
 21
282.2983880288785
 31
0.0
  0
LINE
  5
231F
330
1A
100
AcDbEntity
  8
CENTER_L
  6
CENTER
 62
     1
 48
5.0
100
AcDbLine
 10
594.1451116488375
 20
282.15888288458
 30
0.0
 11
583.8408250348297
 21
277.0528396634172
 31
0.0
  0
LINE
  5
2320
330
1A
100
AcDbEntity
  8
CENTER_L
  6
CENTER
 62
     1
 48
5.0
100
AcDbLine
 10
596.0930908971569
 20
260.7729423895524
 30
0.0
 11
600.1779254740872
 21
252.5295130983462
 31
0.0
  0
LINE
  5
2321
330
1A
100
AcDbEntity
  8
CENTER_L
  6
CENTER
 62
     1
 48
5.0
100
AcDbLine
 10
602.2572228312253
 20
258.6936450324145
 30
0.0
 11
594.0137935400193
 21
254.6088104554842
 31
0.0
  0
LINE
  5
2322
330
1A
100
AcDbEntity
  8
SUNPOU
100
AcDbLine
 10
523.917269308384
 20
263.6037422862835
 30
0.0
 11
497.4113847550017
 21
250.5651448770489
 31
0.0
  0
LINE
  5
2327
330
1A
100
AcDbEntity
  8
SUNPOU
100
AcDbLine
 10
539.6947191729602
 20
215.5507691726218
 30
0.0
 11
519.1927016263348
 21
205.3914838542381
 31
0.0
  0
DIMENSION
  5
2362
330
1A
100
AcDbEntity
  8
SUNPOU
100
AcDbDimension
  2
*D6
 10
519.6771576628858
 20
205.6315444769714
 30
0.0
 11
521.7421004657847
 21
212.7255379957234
 31
0.0
 70
    32
 71
     5
 42
-1.0
  3
STANDARD
100
AcDbAlignedDimension
 13
541.2379251505826
 23
228.4569888762461
 33
0.0
 14
539.6947191729602
 24
215.5507691726218
 34
0.0
 50
116.3596171166296
100
AcDbRotatedDimension
1001
ACAD
1000
DSTYLE
1002
{
1070
   287
1070
     4
1070
   287
1070
     4
1070
   287
1070
     4
1070
   279
1070
     1
1070
    41
1040
7.0
1070
    42
1040
6.0
1070
    43
1040
14.0
1070
    44
1040
3.0
1070
    73
1070
     0
1070
    74
1070
     0
1070
    77
1070
     3
1070
   140
1040
6.0
1070
   141
1040
150.0
1070
   147
1040
2.0
1070
   172
1070
     1
1070
   173
1070
     1
1070
   176
1070
   256
1070
   177
1070
   256
1070
   178
1070
   256
1070
   271
1070
     0
1070
   272
1070
     0
1070
   341
1005
6D
1070
     6
1000
OPEN
1070
     7
1000
OPEN
1070
   371
1070
    -1
1070
   372
1070
    -1
1002
}
  0
LEADER
  5
2383
330
1A
100
AcDbEntity
  8
SUNPOU
  6
Continuous
 62
     4
100
AcDbLeader
  3
STANDARD
 74
     0
 40
6.0
 41
31.19999999999999
 76
     3
 10
591.6944072776252
 20
280.0120798641087
 30
0.0
 10
614.0172467122754
 20
259.9007774260285
 30
0.0
 10
628.8353517087461
 20
259.9007774260285
 30
0.0
1001
ACAD
1000
DSTYLE
1002
{
1070
     6
1000
OPEN
1070
    41
1040
7.0
1070
    42
1040
6.0
1070
    43
1040
14.0
1070
    44
1040
3.0
1070
    73
1070
     0
1070
    74
1070
     0
1070
    77
1070
     3
1070
   140
1040
6.0
1070
   141
1040
150.0
1070
   147
1040
2.0
1070
   172
1070
     1
1070
   173
1070
     1
1070
   176
1070
     4
1070
   177
1070
     4
1070
   178
1070
     4
1070
   271
1070
     0
1070
   272
1070
     2
1070
   341
1005
6D
1070
   343
1005
6D
1070
   344
1005
6D
1002
}
  0
MTEXT
  5
2384
330
1A
100
AcDbEntity
  8
SUNPOU
  6
Continuous
 62
     4
100
AcDbMText
 10
624.4481317157648
 20
261.9007774260285
 30
0.0
 40
6.0
 41
0.0
 71
     7
 72
     5
  1
2-φ6.5
 73
     1
 44
1.0
  0
LEADER
  5
2385
330
1A
100
AcDbEntity
  8
SUNPOU
  6
Continuous
 62
     4
100
AcDbLeader
  3
STANDARD
 40
6.0
 41
31.19999999999999
 76
     3
 10
534.0941886056074
 20
259.265895136881
 30
0.0
 10
496.6516724045098
 20
286.6126437701569
 30
0.0
 10
494.8667836354136
 20
286.6126437701569
 30
0.0
1001
ACAD
1000
DSTYLE
1002
{
1070
     6
1000
OPEN
1070
    41
1040
7.0
1070
    42
1040
6.0
1070
    43
1040
14.0
1070
    44
1040
3.0
1070
    73
1070
     0
1070
    74
1070
     0
1070
    77
1070
     3
1070
   140
1040
6.0
1070
   141
1040
150.0
1070
   147
1040
2.0
1070
   172
1070
     1
1070
   173
1070
     1
1070
   176
1070
     4
1070
   177
1070
     4
1070
   178
1070
     4
1070
   271
1070
     0
1070
   272
1070
     2
1070
   341
1005
6D
1070
   343
1005
6D
1070
   344
1005
6D
1002
}
  0
MTEXT
  5
2386
330
1A
100
AcDbEntity
  8
SUNPOU
  6
Continuous
 62
     4
100
AcDbMText
 10
492.8667836354136
 20
288.6126437701569
 30
0.0
 40
6.0
 41
0.0
 71
     9
 72
     5
  1
4-φ4.2
 73
     1
 44
1.0
  0
DIMENSION
  5
2387
330
1A
100
AcDbEntity
  8
SUNPOU
100
AcDbDimension
  2
*D7
 10
609.4821649828523
 20
306.0991443773078
 30
0.0
 11
617.2126993948421
 21
301.7596507026839
 31
0.0
 70
    33
 71
     5
 42
-1.0
  3
STANDARD
100
AcDbAlignedDimension
 13
594.1451116488375
 23
282.15888288458
 33
0.0
 14
587.6442920544301
 24
295.2779078174474
 34
0.0
1001
ACAD
1000
DSTYLE
1002
{
1070
    41
1040
7.0
1070
    42
1040
6.0
1070
    43
1040
14.0
1070
    44
1040
3.0
1070
    73
1070
     0
1070
    74
1070
     0
1070
    77
1070
     3
1070
   140
1040
6.0
1070
   141
1040
150.0
1070
   147
1040
2.0
1070
   172
1070
     1
1070
   173
1070
     1
1070
   176
1070
   256
1070
   177
1070
   256
1070
   178
1070
   256
1070
   271
1070
     0
1070
   272
1070
     0
1070
   341
1005
6D
1070
     6
1000
OPEN
1070
     7
1000
OPEN
1070
   371
1070
    -1
1070
   372
1070
    -1
1002
}
  0
DIMENSION
  5
2396
330
1A
100
AcDbEntity
  8
SUNPOU
100
AcDbDimension
  2
*D8
 10
572.8215264543188
 20
312.2407538812674
 30
0.0
 11
545.064797358229
 21
304.0667713827371
 31
0.0
 70
    33
 71
     5
 42
-1.0
  3
STANDARD
100
AcDbAlignedDimension
 13
533.5308419688803
 23
263.1543057363141
 33
0.0
 14
584.6042625774401
 24
288.4625199629467
 34
0.0
1001
ACAD
1000
DSTYLE
1002
{
1070
    41
1040
7.0
1070
    42
1040
6.0
1070
    43
1040
14.0
1070
    44
1040
3.0
1070
    73
1070
     0
1070
    74
1070
     0
1070
    77
1070
     3
1070
   140
1040
6.0
1070
   141
1040
150.0
1070
   147
1040
2.0
1070
   172
1070
     1
1070
   173
1070
     1
1070
   176
1070
   256
1070
   177
1070
   256
1070
   178
1070
   256
1070
   271
1070
     0
1070
   272
1070
     0
1070
   341
1005
6D
1070
     6
1000
OPEN
1070
     7
1000
OPEN
1070
   371
1070
    -1
1070
   372
1070
    -1
1002
}
  0
DIMENSION
  5
23A3
330
1A
100
AcDbEntity
  8
SUNPOU
100
AcDbDimension
  2
*D9
 10
615.3435657301507
 20
221.9243855828314
 30
0.0
 11
589.3788864799751
 21
214.6384106010252
 31
0.0
 70
    33
 71
     5
 42
-1.0
  3
STANDARD
100
AcDbAlignedDimension
 13
552.6886045573561
 23
228.9973139051614
 33
0.0
 14
600.1779254740873
 24
252.5295130983456
 34
0.0
1001
ACAD
1000
DSTYLE
1002
{
1070
    41
1040
7.0
1070
    42
1040
6.0
1070
    43
1040
14.0
1070
    44
1040
3.0
1070
    73
1070
     0
1070
    74
1070
     0
1070
    77
1070
     3
1070
   140
1040
6.0
1070
   141
1040
150.0
1070
   147
1040
2.0
1070
   172
1070
     1
1070
   173
1070
     1
1070
   176
1070
   256
1070
   177
1070
   256
1070
   178
1070
   256
1070
   271
1070
     0
1070
   272
1070
     0
1070
   341
1005
6D
1070
     6
1000
OPEN
1070
     7
1000
OPEN
1070
   371
1070
    -1
1070
   372
1070
    -1
1002
}
  0
DIMENSION
  5
23B0
330
1A
100
AcDbEntity
  8
SUNPOU
100
AcDbDimension
  2
*D10
 10
573.4747269090262
 20
330.066541255078
 30
0.0
 11
538.1401135853209
 21
318.1375191462781
 31
0.0
 70
    33
 71
     5
 42
-1.0
  3
STANDARD
100
AcDbAlignedDimension
 13
527.7510731207284
 23
255.8669074039349
 33
0.0
 14
593.9802621845188
 24
288.6852008511064
 34
0.0
1001
ACAD
1000
DSTYLE
1002
{
1070
    41
1040
7.0
1070
    42
1040
6.0
1070
    43
1040
14.0
1070
    44
1040
3.0
1070
    73
1070
     0
1070
    74
1070
     0
1070
    77
1070
     3
1070
   140
1040
6.0
1070
   141
1040
150.0
1070
   147
1040
2.0
1070
   172
1070
     1
1070
   173
1070
     1
1070
   176
1070
   256
1070
   177
1070
   256
1070
   178
1070
   256
1070
   271
1070
     0
1070
   272
1070
     0
1070
   341
1005
6D
1070
     6
1000
OPEN
1070
     7
1000
OPEN
1070
   371
1070
    -1
1070
   372
1070
    -1
1002
}
  0
LINE
  5
257C
330
1A
100
AcDbEntity
  8
SEIHIN
100
AcDbLine
 10
294.5557815652682
 20
419.8487435073851
 30
0.0
 11
294.5557815652682
 21
390.1534631580602
 31
0.0
  0
LINE
  5
264A
330
1A
100
AcDbEntity
  8
CENTER_L
  6
CENTER
 62
     1
 48
5.0
100
AcDbLine
 10
245.331850483687
 20
405.0012033327226
 30
0.0
 11
428.0270666150644
 21
405.0012033327226
 31
0.0
  0
DIMENSION
  5
26A5
330
1A
100
AcDbEntity
  8
SUNPOU
100
AcDbDimension
  2
*D11
 10
466.1046121213312
 20
368.0438785017376
 30
0.0
 11
461.1046121213312
 21
405.0224911556489
 31
0.0
 70
    32
 71
     5
 42
-1.0
  3
STANDARD
100
AcDbAlignedDimension
 13
414.1964099776341
 23
442.0011038095599
 33
0.0
 14
414.5331771519377
 24
368.0438785017376
 34
0.0
 50
90.0
100
AcDbRotatedDimension
1001
ACAD
1000
DSTYLE
1002
{
1070
    41
1040
7.0
1070
    42
1040
6.0
1070
    43
1040
14.0
1070
    44
1040
3.0
1070
    73
1070
     0
1070
    74
1070
     0
1070
    77
1070
     3
1070
   140
1040
6.0
1070
   141
1040
150.0
1070
   147
1040
2.0
1070
   172
1070
     1
1070
   173
1070
     1
1070
   176
1070
   256
1070
   177
1070
   256
1070
   178
1070
   256
1070
   271
1070
     0
1070
   272
1070
     0
1070
   341
1005
6D
1070
     6
1000
OPEN
1070
     7
1000
OPEN
1070
   371
1070
    -1
1070
   372
1070
    -1
1002
}
  0
LINE
  5
26B3
330
1A
100
AcDbEntity
  8
SEIHIN
100
AcDbLine
 10
259.5615411356434
 20
415.0012033327226
 30
0.0
 11
294.5557815652682
 21
415.0012033327227
 31
0.0
  0
LINE
  5
26B4
330
1A
100
AcDbEntity
  8
SEIHIN
100
AcDbLine
 10
259.5615411356434
 20
395.0012033327226
 30
0.0
 11
294.5557815652682
 21
395.0012033327226
 31
0.0
  0
LINE
  5
26B5
330
1A
100
AcDbEntity
  8
SEIHIN
100
AcDbLine
 10
259.5615411356434
 20
395.0012033327227
 30
0.0
 11
259.5615411356434
 21
415.0012033327226
 31
0.0
  0
LINE
  5
26B6
330
1A
100
AcDbEntity
  8
SEIHIN
100
AcDbLine
 10
264.4543590877282
 20
395.0012033327227
 30
0.0
 11
264.4543590877282
 21
415.0012033327226
 31
0.0
  0
LINE
  5
26B7
330
1A
100
AcDbEntity
  8
SEIHIN
100
AcDbLine
 10
278.9019612209384
 20
395.0012033327226
 30
0.0
 11
278.9019612209384
 21
415.0012033327226
 31
0.0
  0
DIMENSION
  5
26B8
330
1A
100
AcDbEntity
  8
SUNPOU
100
AcDbDimension
  2
*D12
 10
235.5978024723435
 20
395.0012033327226
 30
0.0
 11
230.5978024723435
 21
405.0012033327227
 31
0.0
 70
    32
 71
     5
 42
-1.0
  3
STANDARD
100
AcDbAlignedDimension
 13
259.5615411356434
 23
415.0012033327226
 33
0.0
 14
259.5615411356434
 24
395.0012033327226
 34
0.0
 50
90.0
100
AcDbRotatedDimension
1001
ACAD
1000
DSTYLE
1002
{
1070
    41
1040
7.0
1070
    42
1040
6.0
1070
    43
1040
14.0
1070
    44
1040
3.0
1070
    73
1070
     0
1070
    74
1070
     0
1070
    77
1070
     3
1070
   140
1040
6.0
1070
   141
1040
150.0
1070
   147
1040
2.0
1070
   172
1070
     1
1070
   173
1070
     1
1070
   176
1070
   256
1070
   177
1070
   256
1070
   178
1070
   256
1070
   271
1070
     0
1070
   272
1070
     0
1070
   341
1005
6D
1070
     6
1000
OPEN
1070
     7
1000
OPEN
1070
   371
1070
    -1
1070
   372
1070
    -1
1002
}
  0
LINE
  5
2B03
330
1A
100
AcDbEntity
  8
SEIHIN
100
AcDbLine
 10
344.2008426156579
 20
387.579085157232
 30
0.0
 11
364.5784616629426
 21
387.579085157232
 31
0.0
  0
LINE
  5
2B04
330
1A
100
AcDbEntity
  8
SEIHIN
100
AcDbLine
 10
344.2008426156579
 20
422.4231215082133
 30
0.0
 11
364.5784616629429
 21
422.4231215082133
 31
0.0
  0
LINE
  5
2BEA
330
1A
100
AcDbEntity
  8
SEIHIN
100
AcDbLine
 10
294.5557815652682
 20
390.1901438506029
 30
0.0
 11
294.5557815652682
 21
419.8120628148425
 31
0.0
  0
LINE
  5
2BEC
330
1A
100
AcDbEntity
  8
SEIHIN
100
AcDbLine
 10
318.8932109535575
 20
419.5540295238813
 30
0.0
 11
318.8932109535575
 21
390.4481771415641
 31
0.0
  0
LINE
  5
2BEE
330
1A
100
AcDbEntity
  8
SEIHIN
100
AcDbLine
 10
338.2607524928936
 20
418.8704631528354
 30
0.0
 11
338.2607524928936
 21
391.1317435126098
 31
0.0
  0
LWPOLYLINE
  5
2C1F
330
1A
100
AcDbEntity
  8
SEIHIN
100
AcDbPolyline
 90
        5
 70
   128
 43
0.0
 10
320.9115132939508
 20
386.819172357628
 10
321.8528953795001
 20
386.8238586407998
 10
322.7606062575592
 20
386.8377498720705
 10
323.6021790671319
 20
386.8603491920483
 10
324.3475125633314
 20
386.8908482717839
  0
LINE
  5
2C22
330
1A
100
AcDbEntity
  8
SEIHIN
100
AcDbLine
 10
298.5557815652682
 20
386.819172357628
 30
0.0
 11
320.9115132939508
 21
386.819172357628
 31
0.0
  0
LINE
  5
2C23
330
1A
100
AcDbEntity
  8
SEIHIN
100
AcDbLine
 10
294.5557815652682
 20
387.1942552463394
 30
0.0
 11
294.5557815652682
 21
390.1901438506029
 31
0.0
  0
LINE
  5
2C24
330
1A
100
AcDbEntity
  8
SEIHIN
100
AcDbLine
 10
294.5557815652682
 20
387.0288034747601
 30
0.0
 11
298.5557815652682
 21
386.819172357628
 31
0.0
  0
LINE
  5
2C25
330
1A
100
AcDbEntity
  8
SEIHIN
100
AcDbLine
 10
294.5557815652682
 20
387.1942552463394
 30
0.0
 11
294.5557815652682
 21
387.0288034747601
 31
0.0
  0
LWPOLYLINE
  5
2C27
330
1A
100
AcDbEntity
  8
SEIHIN
100
AcDbPolyline
 90
        9
 70
   128
 43
0.0
 10
318.8932109535575
 20
390.4481771415641
 10
318.9458718566196
 20
389.8772699356583
 10
319.0720535031867
 20
389.3272561114752
 10
319.2671380476951
 20
388.8182644196459
 10
319.5239860184152
 20
388.3689223316772
 10
319.8331975993329
 20
387.9956743339421
 10
320.1834566334151
 20
387.7121801119611
 10
320.5619447578441
 20
387.5288146495049
 10
320.9548105151858
 20
387.4522885373003
  0
LWPOLYLINE
  5
2C2A
330
1A
100
AcDbEntity
  8
SEIHIN
100
AcDbPolyline
 90
        8
 70
   128
 43
0.0
 10
333.8928448075167
 20
387.3640574147643
 10
335.1302723765235
 20
387.4190709296087
 10
336.4738514139975
 20
387.4667572650188
 10
337.9078582240659
 20
387.5065583552508
 10
339.4155108487412
 20
387.5380084143549
 10
340.9791654645561
 20
387.5607393871953
 10
342.5805228654768
 20
387.5744852567433
 10
344.2008426156581
 20
387.579085157232
  0
LWPOLYLINE
  5
2C2C
330
1A
100
AcDbEntity
  8
SEIHIN
100
AcDbPolyline
 90
        9
 70
   128
 43
0.0
 10
338.2607524928936
 20
391.1317435126098
 10
338.2680251364889
 20
390.5656750818894
 10
338.2844302674533
 20
390.0199438774739
 10
338.3093784961598
 20
389.5141564670568
 10
338.3419735038152
 20
389.0664843515904
 10
338.3810442446384
 20
388.6930111150169
 10
338.4251870182028
 20
388.4071545869115
 10
338.4728159003917
 20
388.2191847780844
 10
338.5222197211367
 20
388.135854908346
  0
LINE
  5
2C2E
330
1A
100
AcDbEntity
  8
SEIHIN
100
AcDbLine
 10
324.3475125633314
 20
386.8908482717839
 30
0.0
 11
333.8928448075167
 21
387.3640574147643
 31
0.0
  0
LWPOLYLINE
  5
2C31
330
1A
100
AcDbEntity
  8
SEIHIN
100
AcDbPolyline
 90
        5
 70
   128
 43
0.0
 10
320.9115132939508
 20
423.1830343078175
 10
321.8528953795001
 20
423.1783480246456
 10
322.7606062575592
 20
423.1644567933749
 10
323.6021790671319
 20
423.1418574733971
 10
324.3475125633314
 20
423.1113583936617
  0
LINE
  5
2C33
330
1A
100
AcDbEntity
  8
SEIHIN
100
AcDbLine
 10
294.5557815652682
 20
422.8079514191061
 30
0.0
 11
294.5557815652682
 21
419.8120628148425
 31
0.0
  0
LWPOLYLINE
  5
2C35
330
1A
100
AcDbEntity
  8
SEIHIN
100
AcDbPolyline
 90
        9
 70
   128
 43
0.0
 10
318.8932109535575
 20
419.5540295238813
 10
318.9458718566196
 20
420.1249367297869
 10
319.0720535031867
 20
420.6749505539701
 10
319.2671380476951
 20
421.1839422457995
 10
319.5239860184152
 20
421.6332843337681
 10
319.8331975993329
 20
422.0065323315032
 10
320.1834566334151
 20
422.2900265534843
 10
320.5619447578441
 20
422.4733920159404
 10
320.9548105151858
 20
422.549918128145
  0
LINE
  5
2C3C
330
1A
100
AcDbEntity
  8
SEIHIN
100
AcDbLine
 10
298.5557815652682
 20
423.1830343078175
 30
0.0
 11
320.9115132939508
 21
423.1830343078174
 31
0.0
  0
LINE
  5
2C3E
330
1A
100
AcDbEntity
  8
SEIHIN
100
AcDbLine
 10
294.5557815652682
 20
422.9734031906854
 30
0.0
 11
298.5557815652682
 21
423.1830343078175
 31
0.0
  0
LINE
  5
2C3F
330
1A
100
AcDbEntity
  8
SEIHIN
100
AcDbLine
 10
294.5557815652682
 20
422.8079514191061
 30
0.0
 11
294.5557815652682
 21
422.9734031906854
 31
0.0
  0
LWPOLYLINE
  5
2C42
330
1A
100
AcDbEntity
  8
SEIHIN
100
AcDbPolyline
 90
        9
 70
   128
 43
0.0
 10
338.2607524928936
 20
418.8704631528354
 10
338.2680251364889
 20
419.4365315835559
 10
338.2844302674533
 20
419.9822627879714
 10
338.3093784961598
 20
420.4880501983884
 10
338.3419735038152
 20
420.935722313855
 10
338.3810442446384
 20
421.3091955504283
 10
338.4251870182028
 20
421.5950520785337
 10
338.4728159003917
 20
421.783021887361
 10
338.5222197211367
 20
421.8663517570992
  0
LWPOLYLINE
  5
2C44
330
1A
100
AcDbEntity
  8
SEIHIN
100
AcDbPolyline
 90
        8
 70
   128
 43
0.0
 10
333.8928448075167
 20
422.6381492506811
 10
335.1302723765235
 20
422.5831357358367
 10
336.4738514139975
 20
422.5354494004265
 10
337.9078582240659
 20
422.4956483101944
 10
339.4155108487412
 20
422.4641982510905
 10
340.9791654645561
 20
422.44146727825
 10
342.5805228654768
 20
422.427721408702
 10
344.2008426156581
 20
422.4231215082133
  0
LINE
  5
2C45
330
1A
100
AcDbEntity
  8
SEIHIN
100
AcDbLine
 10
324.3475125633314
 20
423.1113583936617
 30
0.0
 11
333.8928448075167
 21
422.6381492506811
 31
0.0
  0
LINE
  5
2D25
330
1A
100
AcDbEntity
  8
SEIHIN
100
AcDbLine
 10
411.5885657803441
 20
415.5011033327228
 30
0.0
 11
411.5885657803441
 21
394.5011033327228
 31
0.0
  0
LINE
  5
2D28
330
1A
100
AcDbEntity
  8
SEIHIN
100
AcDbLine
 10
393.5557815652681
 20
391.3479970328673
 30
0.0
 11
393.5557815652681
 21
418.6542096325779
 31
0.0
  0
LINE
  5
2D29
330
1A
100
AcDbEntity
  8
SEIHIN
100
AcDbLine
 10
415.9176677747394
 20
378.0011033327228
 30
0.0
 11
415.9176677747394
 21
432.0011033327228
 31
0.0
  0
LINE
  5
2D2C
330
1A
100
AcDbEntity
  8
SEIHIN
100
AcDbLine
 10
402.0977671214124
 20
434.5262295985698
 30
0.0
 11
402.0977671214124
 21
375.4759770668756
 31
0.0
  0
LINE
  5
2D2D
330
1A
100
AcDbEntity
  8
SEIHIN
100
AcDbLine
 10
412.8884331475833
 20
387.9759770668757
 30
0.0
 11
412.8884331475833
 21
422.0262295985698
 31
0.0
  0
LWPOLYLINE
  5
2D42
330
1A
100
AcDbEntity
  8
SEIHIN
100
AcDbPolyline
 90
       10
 70
   128
 43
0.0
 10
388.6534246373938
 20
370.6689822207933
 10
388.6076247005557
 20
370.7240473698865
 10
388.2355631308513
 20
371.2710750700732
 10
387.8962014345455
 20
371.9551067378885
 10
387.596448037137
 20
372.7622174611603
 10
387.3424050533793
 20
373.6759767930778
 10
387.1392440658226
 20
374.6777832287075
 10
386.9911008463056
 20
375.7472428779912
 10
386.9009911635675
 20
376.8625846265363
 10
386.8707493908942
 20
378.0011033327226
  0
LINE
  5
2D43
330
1A
100
AcDbEntity
  8
SEIHIN
100
AcDbLine
 10
388.6534246373938
 20
370.6689822207933
 30
0.0
 11
390.2132654780812
 21
368.835951942811
 31
0.0
  0
LINE
  5
2D45
330
1A
100
AcDbEntity
  8
SEIHIN
100
AcDbLine
 10
386.8707493908942
 20
378.0011033327226
 30
0.0
 11
386.8707493908942
 21
385.1855661252226
 31
0.0
  0
LWPOLYLINE
  5
2D4B
330
1A
100
AcDbEntity
  8
SEIHIN
100
AcDbPolyline
 90
        4
 70
   128
 43
0.0
 10
385.6212583014997
 20
387.579085157232
 10
386.2239156896627
 20
387.0381192396899
 10
386.6912978954843
 20
386.2246232071047
 10
386.8694088232258
 20
385.305726782897
  0
LWPOLYLINE
  5
2D4D
330
1A
100
AcDbEntity
  8
SEIHIN
100
AcDbPolyline
 90
        3
 70
   128
 43
0.0
 10
386.8694088232258
 20
385.305726782897
 10
386.8704142153668
 20
385.2456877879711
 10
386.8707493908942
 20
385.1855661252226
  0
LWPOLYLINE
  5
2D51
330
1A
100
AcDbEntity
  8
SEIHIN
100
AcDbPolyline
 90
       13
 70
   128
 43
0.0
 10
393.5557815652681
 20
378.0011033327226
 10
393.5875545524749
 20
376.6958414105222
 10
393.6823298694752
 20
375.4129128816974
 10
393.8384858843184
 20
374.1742690090717
 10
394.0533507242959
 20
373.0011033327226
 10
394.3232479924237
 20
371.9134890426353
 10
394.6435596716147
 20
370.9300355208572
 10
395.0088051402307
 20
370.0675699298102
 10
395.4127349470385
 20
369.3408492948782
 10
395.8484377410533
 20
368.7623080076098
 10
396.3084585266698
 20
368.341845069832
 10
396.7849262207038
 20
368.0866547189845
 10
397.2696883288091
 20
368.0011033327227
  0
LWPOLYLINE
  5
2D52
330
1A
100
AcDbEntity
  8
SEIHIN
100
AcDbPolyline
 90
       13
 70
   128
 43
0.0
 10
412.2037610111984
 20
368.0011033327228
 10
412.6885231193037
 20
368.0866547189846
 10
413.1649908133377
 20
368.3418450698322
 10
413.6250115989542
 20
368.7623080076099
 10
414.0607143929687
 20
369.3408492948784
 10
414.4646441997768
 20
370.0675699298104
 10
414.8298896683928
 20
370.9300355208573
 10
415.1502013475839
 20
371.9134890426357
 10
415.4200986157116
 20
373.0011033327228
 10
415.6349634556891
 20
374.1742690090719
 10
415.7911194705323
 20
375.4129128816976
 10
415.8858947875323
 20
376.6958414105222
 10
415.9176677747394
 20
378.0011033327228
  0
LWPOLYLINE
  5
2D53
330
1A
100
AcDbEntity
  8
SEIHIN
100
AcDbPolyline
 90
       27
 70
   128
 43
0.0
 10
411.9970955243334
 20
378.5011033327228
 10
411.9690364853262
 20
377.8788826055751
 10
411.8864900576607
 20
377.2928230854089
 10
411.754253539669
 20
376.7769844212967
 10
411.5800120371166
 20
376.3613452813992
 10
411.3738918327895
 20
376.0700611017406
 10
411.1478718837473
 20
375.9200602600678
 10
410.9150876478786
 20
375.9200602600678
 10
410.6890676988362
 20
376.0700611017406
 10
410.4829474945093
 20
376.3613452813992
 10
410.3087059919567
 20
376.7769844212967
 10
410.1764694739649
 20
377.2928230854089
 10
410.0939230462996
 20
377.8788826055751
 10
410.0658640072922
 20
378.5011033327228
 10
410.0939230462996
 20
379.1233240598704
 10
410.1764694739649
 20
379.7093835800364
 10
410.3087059919567
 20
380.2252222441488
 10
410.4829474945093
 20
380.6408613840463
 10
410.6890676988362
 20
380.9321455637048
 10
410.9150876478786
 20
381.0821464053777
 10
411.1478718837473
 20
381.0821464053777
 10
411.3738918327895
 20
380.9321455637048
 10
411.5800120371166
 20
380.6408613840463
 10
411.754253539669
 20
380.2252222441488
 10
411.8864900576607
 20
379.7093835800364
 10
411.9690364853262
 20
379.1233240598704
 10
411.9970955243334
 20
378.5011033327228
  0
LWPOLYLINE
  5
2D54
330
1A
100
AcDbEntity
  8
SEIHIN
100
AcDbPolyline
 90
       27
 70
   128
 43
0.0
 10
398.5097302639847
 20
374.7940163423232
 10
398.3544375194184
 20
374.1491755802869
 10
398.1535826535253
 20
373.6031215410572
 10
397.9156020623394
 20
373.1787898309487
 10
397.6504915132346
 20
372.8940034204936
 10
397.3693862982289
 20
372.7607240360498
 10
397.0840935244603
 20
372.7845497380142
 10
396.8065961867857
 20
372.9644797885819
 10
396.5485498526632
 20
373.2929566851844
 10
396.3207930997897
 20
373.7561835940971
 10
396.1328922693033
 20
374.3347038512282
 10
395.9927396560409
 20
375.0042181896379
 10
395.906222012834
 20
375.7366053682317
 10
395.8769732924812
 20
376.5011033327227
 10
395.906222012834
 20
377.2656012972137
 10
395.9927396560409
 20
377.9979884758075
 10
396.1328922693033
 20
378.6675028142172
 10
396.3207930997897
 20
379.2460230713482
 10
396.5485498526632
 20
379.7092499802608
 10
396.8065961867857
 20
380.0377268768635
 10
397.0840935244603
 20
380.2176569274312
 10
397.3693862982289
 20
380.2414826293954
 10
397.6504915132346
 20
380.1082032449517
 10
397.9156020623394
 20
379.8234168344965
 10
398.1535826535253
 20
379.3990851243882
 10
398.3544375194184
 20
378.8530310851584
 10
398.5097302639847
 20
378.2081903231221
  0
LWPOLYLINE
  5
2D55
330
1A
100
AcDbEntity
  8
SEIHIN
100
AcDbPolyline
 90
       21
 70
   128
 43
0.0
 10
398.5097302639847
 20
378.2081903231221
 10
398.683308224737
 20
378.6292068620797
 10
398.8893581734054
 20
378.9256561792364
 10
399.1158191038857
 20
379.080185797453
 10
399.3494352658973
 20
379.0837504212532
 10
399.5765320821145
 20
378.9361413975911
 10
399.7838165810794
 20
378.6459989292278
 10
399.9591554930502
 20
378.2303063258153
 10
400.0922854634318
 20
377.7133958963863
 10
400.1754138118777
 20
377.1255246727187
 10
400.2036746720064
 20
376.5011033327227
 10
400.1754138118777
 20
375.8766819927267
 10
400.0922854634318
 20
375.288810769059
 10
399.9591554930502
 20
374.7719003396301
 10
399.7838165810791
 20
374.3562077362175
 10
399.5765320821145
 20
374.0660652678541
 10
399.3494352658973
 20
373.918456244192
 10
399.1158191038857
 20
373.9220208679923
 10
398.8893581734054
 20
374.076550486209
 10
398.683308224737
 20
374.3729998033656
 10
398.5097302639847
 20
374.7940163423232
  0
LINE
  5
2D56
330
1A
100
AcDbEntity
  8
SEIHIN
100
AcDbLine
 10
408.4317450313342
 20
375.4759770668757
 30
0.0
 11
408.4317450313342
 21
380.5513558644169
 31
0.0
  0
LINE
  5
2D57
330
1A
100
AcDbEntity
  8
SEIHIN
100
AcDbLine
 10
397.2696883288091
 20
368.0011033327227
 30
0.0
 11
412.2037610111985
 21
368.0011033327228
 31
0.0
  0
LINE
  5
2D58
330
1A
100
AcDbEntity
  8
SEIHIN
100
AcDbLine
 10
397.2696883288091
 20
368.0011033327227
 30
0.0
 11
391.6988281834975
 21
368.0011033327227
 31
0.0
  0
LINE
  5
2D59
330
1A
100
AcDbEntity
  8
SEIHIN
100
AcDbLine
 10
398.5097302639847
 20
374.7940163423232
 30
0.0
 11
396.0002545105838
 21
375.1006149784753
 31
0.0
  0
LINE
  5
2D5B
330
1A
100
AcDbEntity
  8
SEIHIN
100
AcDbLine
 10
403.0169121514306
 20
373.0011033327227
 30
0.0
 11
407.5126000013162
 21
373.0011033327227
 31
0.0
  0
LWPOLYLINE
  5
2D5D
330
1A
100
AcDbEntity
  8
SEIHIN
100
AcDbPolyline
 90
        7
 70
   128
 43
0.0
 10
403.0169121514306
 20
373.0011033327227
 10
402.7544271078474
 20
373.0763011187884
 10
402.527845296117
 20
373.2996096303078
 10
402.344051289933
 20
373.664243751158
 10
402.2086295771687
 20
374.1591242580907
 10
402.1256948780397
 20
374.7692144573242
 10
402.0977671214124
 20
375.4759770668757
  0
LWPOLYLINE
  5
2D5E
330
1A
100
AcDbEntity
  8
SEIHIN
100
AcDbPolyline
 90
        7
 70
   128
 43
0.0
 10
408.4317450313342
 20
375.4759770668757
 10
408.4038172747069
 20
374.7692144573242
 10
408.3208825755781
 20
374.1591242580907
 10
408.1854608628137
 20
373.664243751158
 10
408.0016668566296
 20
373.2996096303078
 10
407.7750850448992
 20
373.0763011187884
 10
407.5126000013162
 20
373.0011033327227
  0
LINE
  5
2D62
330
1A
100
AcDbEntity
  8
SEIHIN
100
AcDbLine
 10
402.0977671214124
 20
394.5011033327226
 30
0.0
 11
411.5885657803441
 21
394.5011033327228
 31
0.0
  0
LINE
  5
2D63
330
1A
100
AcDbEntity
  8
SEIHIN
100
AcDbLine
 10
410.2700350913703
 20
385.5011033327227
 30
0.0
 11
411.9692881175654
 21
385.5011033327228
 31
0.0
  0
LWPOLYLINE
  5
2D64
330
1A
100
AcDbEntity
  8
SEIHIN
100
AcDbPolyline
 90
        7
 70
   128
 43
0.0
 10
408.0696860158473
 20
388.5011033327227
 10
408.3321710594305
 20
388.5763011187885
 10
408.5587528711608
 20
388.7996096303078
 10
408.7425468773449
 20
389.164243751158
 10
408.8779685901092
 20
389.6591242580906
 10
408.9609032892381
 20
390.2692144573244
 10
408.9888310458655
 20
390.9759770668757
  0
LINE
  5
2D67
330
1A
100
AcDbEntity
  8
SEIHIN
100
AcDbLine
 10
393.5557815652681
 20
391.3479970328673
 30
0.0
 11
393.5557815652681
 21
378.0011033327226
 31
0.0
  0
LINE
  5
2D6A
330
1A
100
AcDbEntity
  8
SEIHIN
100
AcDbLine
 10
396.0035137512505
 20
377.9117787663797
 30
0.0
 11
398.5097302639847
 21
378.2081903231221
 31
0.0
  0
LWPOLYLINE
  5
2D6F
330
1A
100
AcDbEntity
  8
SEIHIN
100
AcDbPolyline
 90
       10
 70
   128
 43
0.0
 10
410.2700350913703
 20
385.5011033327227
 10
409.9128237446217
 20
385.4341664894259
 10
409.5853027880523
 20
385.2342611655118
 10
409.2919013807434
 20
384.9040907375523
 10
409.0365872734028
 20
384.4481201941835
 10
408.8228131513456
 20
383.8725157547942
 10
408.6534699428464
 20
383.1850614819869
 10
408.5308477242943
 20
382.3950540154846
 10
408.4566047508393
 20
381.5131768510269
 10
408.4317450313342
 20
380.5513558644168
  0
LINE
  5
2D71
330
1A
100
AcDbEntity
  8
SEIHIN
100
AcDbLine
 10
406.3704329896522
 20
388.5011033327227
 30
0.0
 11
408.0696860158473
 21
388.5011033327227
 31
0.0
  0
LWPOLYLINE
  5
2D72
330
1A
100
AcDbEntity
  8
SEIHIN
100
AcDbPolyline
 90
        8
 70
   128
 43
0.0
 10
404.717838267793
 20
385.9915456723039
 10
404.7538678411283
 20
386.1850614819869
 10
404.9232110496276
 20
386.8725157547942
 10
405.136985171685
 20
387.4481201941837
 10
405.3922992790253
 20
387.9040907375525
 10
405.6857006863343
 20
388.234261165512
 10
406.0132216429036
 20
388.434166489426
 10
406.3704329896522
 20
388.5011033327227
  0
LINE
  5
2D74
330
1A
100
AcDbEntity
  8
SEIHIN
100
AcDbLine
 10
408.9888310458655
 20
392.5011033327228
 30
0.0
 11
402.0977671214124
 21
392.5011033327226
 31
0.0
  0
LINE
  5
2D75
330
1A
100
AcDbEntity
  8
SEIHIN
100
AcDbLine
 10
408.9888310458655
 20
390.9759770668756
 30
0.0
 11
408.9888310458655
 21
392.5011033327228
 31
0.0
  0
LWPOLYLINE
  5
2D76
330
1A
100
AcDbEntity
  8
SEIHIN
100
AcDbPolyline
 90
        7
 70
   128
 43
0.0
 10
412.8884331475833
 20
387.9759770668757
 10
412.8605053909562
 20
387.2692144573242
 10
412.7775706918273
 20
386.6591242580907
 10
412.6421489790631
 20
386.164243751158
 10
412.4583549728789
 20
385.7996096303078
 10
412.2317731611484
 20
385.5763011187885
 10
411.9692881175654
 20
385.5011033327227
  0
LWPOLYLINE
  5
2D85
330
1A
100
AcDbEntity
  8
SEIHIN
100
AcDbPolyline
 90
       10
 70
   128
 43
0.0
 10
388.6534246373938
 20
439.3332244446519
 10
388.6076247005557
 20
439.2781592955588
 10
388.2355631308513
 20
438.7311315953722
 10
387.8962014345455
 20
438.0470999275567
 10
387.596448037137
 20
437.2399892042849
 10
387.3424050533793
 20
436.3262298723673
 10
387.1392440658226
 20
435.3244234367377
 10
386.9911008463056
 20
434.254963787454
 10
386.9009911635675
 20
433.1396220389088
 10
386.8707493908942
 20
432.0011033327226
  0
LINE
  5
2D86
330
1A
100
AcDbEntity
  8
SEIHIN
100
AcDbLine
 10
386.8707493908942
 20
432.0011033327226
 30
0.0
 11
386.8707493908942
 21
424.8166405402226
 31
0.0
  0
LWPOLYLINE
  5
2D8B
330
1A
100
AcDbEntity
  8
SEIHIN
100
AcDbPolyline
 90
        4
 70
   128
 43
0.0
 10
385.6212583014998
 20
422.4231215082133
 10
386.2239156896627
 20
422.9640874257553
 10
386.6912978954843
 20
423.7775834583405
 10
386.8694088232258
 20
424.6964798825483
  0
LWPOLYLINE
  5
2D8D
330
1A
100
AcDbEntity
  8
SEIHIN
100
AcDbPolyline
 90
        3
 70
   128
 43
0.0
 10
386.8694088232258
 20
424.6964798825483
 10
386.8704142153668
 20
424.7565188774742
 10
386.8707493908942
 20
424.8166405402226
  0
LINE
  5
2D90
330
1A
100
AcDbEntity
  8
SEIHIN
100
AcDbLine
 10
390.2132654780813
 20
441.1662547226343
 30
0.0
 11
388.6534246373938
 21
439.3332244446519
 31
0.0
  0
LWPOLYLINE
  5
2D94
330
1A
100
AcDbEntity
  8
SEIHIN
100
AcDbPolyline
 90
        8
 70
   128
 43
0.0
 10
404.717838267793
 20
424.0106609931417
 10
404.7538678411283
 20
423.8171451834585
 10
404.9232110496276
 20
423.1296909106513
 10
405.136985171685
 20
422.5540864712618
 10
405.3922992790253
 20
422.0981159278928
 10
405.6857006863343
 20
421.7679454999334
 10
406.0132216429036
 20
421.5680401760195
 10
406.3704329896522
 20
421.5011033327228
  0
LINE
  5
2D97
330
1A
100
AcDbEntity
  8
SEIHIN
100
AcDbLine
 10
393.5557815652681
 20
418.6542096325779
 30
0.0
 11
393.5557815652681
 21
432.0011033327226
 31
0.0
  0
LINE
  5
2D98
330
1A
100
AcDbEntity
  8
SEIHIN
100
AcDbLine
 10
402.0977671214124
 20
415.5011033327226
 30
0.0
 11
411.5885657803441
 21
415.5011033327228
 31
0.0
  0
LINE
  5
2D9A
330
1A
100
AcDbEntity
  8
SEIHIN
100
AcDbLine
 10
406.3704329896522
 20
421.5011033327228
 30
0.0
 11
408.0696860158473
 21
421.5011033327228
 31
0.0
  0
LINE
  5
2D9B
330
1A
100
AcDbEntity
  8
SEIHIN
100
AcDbLine
 10
408.9888310458655
 20
417.5011033327228
 30
0.0
 11
402.0977671214124
 21
417.5011033327226
 31
0.0
  0
LINE
  5
2D9C
330
1A
100
AcDbEntity
  8
SEIHIN
100
AcDbLine
 10
408.9888310458655
 20
419.0262295985698
 30
0.0
 11
408.9888310458655
 21
417.5011033327228
 31
0.0
  0
LWPOLYLINE
  5
2D9D
330
1A
100
AcDbEntity
  8
SEIHIN
100
AcDbPolyline
 90
        7
 70
   128
 43
0.0
 10
408.0696860158473
 20
421.5011033327228
 10
408.3321710594305
 20
421.4259055466571
 10
408.5587528711608
 20
421.2025970351376
 10
408.7425468773449
 20
420.8379629142875
 10
408.8779685901092
 20
420.3430824073548
 10
408.9609032892381
 20
419.7329922081212
 10
408.9888310458655
 20
419.0262295985698
  0
LINE
  5
2D9E
330
1A
100
AcDbEntity
  8
SEIHIN
100
AcDbLine
 10
397.2696883288091
 20
442.0011033327226
 30
0.0
 11
412.2037610111984
 21
442.0011033327226
 31
0.0
  0
LINE
  5
2D9F
330
1A
100
AcDbEntity
  8
SEIHIN
100
AcDbLine
 10
410.2700350913703
 20
424.5011033327227
 30
0.0
 11
411.9692881175654
 21
424.5011033327228
 31
0.0
  0
LWPOLYLINE
  5
2DA0
330
1A
100
AcDbEntity
  8
SEIHIN
100
AcDbPolyline
 90
       27
 70
   128
 43
0.0
 10
411.9970955243334
 20
431.5011033327228
 10
411.9690364853262
 20
432.1233240598703
 10
411.8864900576607
 20
432.7093835800364
 10
411.754253539669
 20
433.2252222441488
 10
411.5800120371166
 20
433.6408613840463
 10
411.3738918327895
 20
433.9321455637048
 10
411.1478718837473
 20
434.0821464053777
 10
410.9150876478786
 20
434.0821464053777
 10
410.6890676988362
 20
433.9321455637048
 10
410.4829474945093
 20
433.6408613840462
 10
410.3087059919567
 20
433.2252222441488
 10
410.1764694739649
 20
432.7093835800364
 10
410.0939230462996
 20
432.1233240598703
 10
410.0658640072922
 20
431.5011033327227
 10
410.0939230462996
 20
430.878882605575
 10
410.1764694739649
 20
430.292823085409
 10
410.3087059919567
 20
429.7769844212967
 10
410.4829474945093
 20
429.3613452813992
 10
410.6890676988362
 20
429.0700611017406
 10
410.9150876478786
 20
428.9200602600678
 10
411.1478718837473
 20
428.9200602600678
 10
411.3738918327895
 20
429.0700611017406
 10
411.5800120371166
 20
429.3613452813993
 10
411.754253539669
 20
429.7769844212967
 10
411.8864900576607
 20
430.292823085409
 10
411.9690364853262
 20
430.8788826055751
 10
411.9970955243334
 20
431.5011033327228
  0
LWPOLYLINE
  5
2DA2
330
1A
100
AcDbEntity
  8
SEIHIN
100
AcDbPolyline
 90
       13
 70
   128
 43
0.0
 10
393.5557815652681
 20
432.0011033327226
 10
393.5875545524749
 20
433.3063652549231
 10
393.6823298694752
 20
434.5892937837477
 10
393.8384858843184
 20
435.8279376563735
 10
394.0533507242959
 20
437.0011033327226
 10
394.3232479924237
 20
438.0887176228098
 10
394.6435596716147
 20
439.0721711445881
 10
395.0088051402307
 20
439.934636735635
 10
395.4127349470385
 20
440.661357370567
 10
395.8484377410533
 20
441.2398986578355
 10
396.3084585266698
 20
441.6603615956133
 10
396.7849262207038
 20
441.9155519464608
 10
397.2696883288091
 20
442.0011033327226
  0
LINE
  5
2DA3
330
1A
100
AcDbEntity
  8
SEIHIN
100
AcDbLine
 10
408.4317450313342
 20
434.5262295985698
 30
0.0
 11
408.4317450313342
 21
429.4508508010285
 31
0.0
  0
LWPOLYLINE
  5
2DA4
330
1A
100
AcDbEntity
  8
SEIHIN
100
AcDbPolyline
 90
       27
 70
   128
 43
0.0
 10
398.5097302639847
 20
435.2081903231222
 10
398.3544375194184
 20
435.8530310851584
 10
398.1535826535253
 20
436.3990851243882
 10
397.9156020623394
 20
436.8234168344965
 10
397.6504915132346
 20
437.1082032449517
 10
397.3693862982289
 20
437.2414826293954
 10
397.0840935244603
 20
437.2176569274311
 10
396.8065961867857
 20
437.0377268768634
 10
396.5485498526632
 20
436.7092499802608
 10
396.3207930997897
 20
436.2460230713482
 10
396.1328922693033
 20
435.6675028142171
 10
395.9927396560409
 20
434.9979884758074
 10
395.906222012834
 20
434.2656012972136
 10
395.8769732924812
 20
433.5011033327226
 10
395.906222012834
 20
432.7366053682317
 10
395.9927396560409
 20
432.0042181896379
 10
396.1328922693033
 20
431.3347038512282
 10
396.3207930997897
 20
430.7561835940971
 10
396.5485498526632
 20
430.2929566851843
 10
396.8065961867857
 20
429.9644797885817
 10
397.0840935244603
 20
429.7845497380142
 10
397.3693862982289
 20
429.7607240360498
 10
397.6504915132346
 20
429.8940034204936
 10
397.9156020623394
 20
430.1787898309488
 10
398.1535826535253
 20
430.6031215410571
 10
398.3544375194184
 20
431.1491755802869
 10
398.5097302639847
 20
431.7940163423232
  0
LWPOLYLINE
  5
2DA5
330
1A
100
AcDbEntity
  8
SEIHIN
100
AcDbPolyline
 90
       21
 70
   128
 43
0.0
 10
398.5097302639847
 20
431.7940163423232
 10
398.683308224737
 20
431.3729998033656
 10
398.8893581734054
 20
431.0765504862089
 10
399.1158191038857
 20
430.9220208679923
 10
399.3494352658973
 20
430.918456244192
 10
399.5765320821145
 20
431.0660652678541
 10
399.7838165810794
 20
431.3562077362175
 10
399.9591554930502
 20
431.7719003396301
 10
400.0922854634318
 20
432.288810769059
 10
400.1754138118777
 20
432.8766819927268
 10
400.2036746720064
 20
433.5011033327226
 10
400.1754138118777
 20
434.1255246727187
 10
400.0922854634318
 20
434.7133958963863
 10
399.9591554930502
 20
435.2303063258153
 10
399.7838165810791
 20
435.6459989292279
 10
399.5765320821145
 20
435.9361413975911
 10
399.3494352658973
 20
436.0837504212532
 10
399.1158191038857
 20
436.080185797453
 10
398.8893581734054
 20
435.9256561792363
 10
398.683308224737
 20
435.6292068620796
 10
398.5097302639847
 20
435.2081903231222
  0
LINE
  5
2DAB
330
1A
100
AcDbEntity
  8
SEIHIN
100
AcDbLine
 10
396.0035137512505
 20
432.0904278990656
 30
0.0
 11
398.5097302639847
 21
431.7940163423232
 31
0.0
  0
LWPOLYLINE
  5
2DAD
330
1A
100
AcDbEntity
  8
SEIHIN
100
AcDbPolyline
 90
       10
 70
   128
 43
0.0
 10
410.2700350913703
 20
424.5011033327227
 10
409.9128237446217
 20
424.5680401760195
 10
409.5853027880523
 20
424.7679454999335
 10
409.2919013807434
 20
425.0981159278928
 10
409.0365872734028
 20
425.5540864712618
 10
408.8228131513456
 20
426.1296909106514
 10
408.6534699428464
 20
426.8171451834587
 10
408.5308477242943
 20
427.6071526499608
 10
408.4566047508393
 20
428.4890298144186
 10
408.4317450313342
 20
429.4508508010287
  0
LINE
  5
2DAF
330
1A
100
AcDbEntity
  8
SEIHIN
100
AcDbLine
 10
398.5097302639847
 20
435.2081903231222
 30
0.0
 11
396.0002545105838
 21
434.9015916869699
 31
0.0
  0
LINE
  5
2DB0
330
1A
100
AcDbEntity
  8
SEIHIN
100
AcDbLine
 10
397.2696883288091
 20
442.0011033327226
 30
0.0
 11
391.6988281834975
 21
442.0011033327226
 31
0.0
  0
LINE
  5
2DB2
330
1A
100
AcDbEntity
  8
SEIHIN
100
AcDbLine
 10
403.0169121514306
 20
437.0011033327227
 30
0.0
 11
407.5126000013162
 21
437.0011033327227
 31
0.0
  0
LWPOLYLINE
  5
2DB4
330
1A
100
AcDbEntity
  8
SEIHIN
100
AcDbPolyline
 90
        7
 70
   128
 43
0.0
 10
403.0169121514306
 20
437.0011033327227
 10
402.7544271078474
 20
436.925905546657
 10
402.527845296117
 20
436.7025970351376
 10
402.344051289933
 20
436.3379629142874
 10
402.2086295771687
 20
435.8430824073546
 10
402.1256948780397
 20
435.2329922081211
 10
402.0977671214124
 20
434.5262295985697
  0
LWPOLYLINE
  5
2DB5
330
1A
100
AcDbEntity
  8
SEIHIN
100
AcDbPolyline
 90
        7
 70
   128
 43
0.0
 10
408.4317450313342
 20
434.5262295985698
 10
408.4038172747069
 20
435.2329922081214
 10
408.3208825755781
 20
435.8430824073549
 10
408.1854608628137
 20
436.3379629142875
 10
408.0016668566296
 20
436.7025970351376
 10
407.7750850448992
 20
436.9259055466571
 10
407.5126000013162
 20
437.0011033327227
  0
LWPOLYLINE
  5
2DB6
330
1A
100
AcDbEntity
  8
SEIHIN
100
AcDbPolyline
 90
       13
 70
   128
 43
0.0
 10
412.2037610111984
 20
442.0011033327226
 10
412.6885231193037
 20
441.9155519464609
 10
413.1649908133377
 20
441.6603615956134
 10
413.6250115989542
 20
441.2398986578357
 10
414.0607143929687
 20
440.6613573705671
 10
414.4646441997768
 20
439.9346367356351
 10
414.8298896683928
 20
439.0721711445881
 10
415.1502013475839
 20
438.08871762281
 10
415.4200986157116
 20
437.0011033327228
 10
415.6349634556891
 20
435.8279376563736
 10
415.7911194705323
 20
434.589293783748
 10
415.8858947875323
 20
433.3063652549232
 10
415.9176677747394
 20
432.0011033327228
  0
LWPOLYLINE
  5
2DB7
330
1A
100
AcDbEntity
  8
SEIHIN
100
AcDbPolyline
 90
        7
 70
   128
 43
0.0
 10
412.8884331475833
 20
422.0262295985698
 10
412.8605053909562
 20
422.7329922081214
 10
412.7775706918273
 20
423.3430824073549
 10
412.6421489790631
 20
423.8379629142874
 10
412.4583549728789
 20
424.2025970351376
 10
412.2317731611484
 20
424.4259055466571
 10
411.9692881175654
 20
424.5011033327228
  0
LINE
  5
2DDB
330
1A
100
AcDbEntity
  8
SEIHIN
100
AcDbLine
 10
393.5569879997424
 20
198.3890899577775
 30
0.0
 11
398.0291239547417
 21
189.4448180477782
 31
0.0
  0
LINE
  5
2DDD
330
1A
100
AcDbEntity
  8
SEIHIN
100
AcDbLine
 10
388.1904248537429
 20
195.7058083847778
 30
0.0
 11
393.5569879997424
 21
198.3890899577775
 31
0.0
  0
LINE
  5
2DDF
330
1A
100
AcDbEntity
  8
SEIHIN
100
AcDbLine
 10
390.8737064267424
 20
185.8671092837787
 30
0.0
 11
387.2959976627428
 21
193.0225268117781
 31
0.0
  0
LINE
  5
2DE0
330
1A
100
AcDbEntity
  8
SEIHIN
100
AcDbLine
 10
388.1904248537429
 20
195.7058083847778
 30
0.0
 11
392.6625608087422
 21
186.7615364747786
 31
0.0
  0
LWPOLYLINE
  5
2DE1
330
1A
100
AcDbEntity
  8
SEIHIN
100
AcDbPolyline
 90
        9
 70
   128
 43
0.0
 10
395.6118985425625
 20
176.3956698571456
 10
395.6068005133295
 20
176.4083788671571
 10
395.2267868819342
 20
177.2041972168207
 10
394.5306356091007
 20
178.2281606652259
 10
393.6328334072377
 20
179.1407591375711
 10
392.8922070607212
 20
179.6875622987445
 10
392.0508921555638
 20
180.1493762510095
 10
391.357966181722
 20
180.4255699870479
 10
390.6239334012666
 20
180.630827630955
  0
LINE
  5
2DF4
330
1A
100
AcDbEntity
  8
SEIHIN
100
AcDbLine
 10
378.5569879997438
 20
180.7959351226669
 30
0.0
 11
387.2387555123841
 21
180.7959351226669
 31
0.0
  0
LINE
  5
2DF8
330
1A
100
AcDbEntity
  8
SEIHIN
100
AcDbLine
 10
387.2949214912516
 20
193.0192982973043
 30
0.0
 11
387.2959976627428
 21
193.0225268117781
 31
0.0
  0
LINE
  5
2DF9
330
1A
100
AcDbEntity
  8
SEIHIN
100
AcDbLine
 10
387.2959976627428
 20
193.0225268117781
 30
0.0
 11
388.1904248537429
 21
195.7058083847778
 31
0.0
  0
LWPOLYLINE
  5
2DFC
330
1A
100
AcDbEntity
  8
SEIHIN
100
AcDbPolyline
 90
        4
 70
   128
 43
0.0
 10
387.2387555123841
 20
180.7959351226669
 10
387.7460995279531
 20
180.7775253462382
 10
388.2507749464077
 20
180.7223928512001
 10
390.6239334012666
 20
180.630827630955
  0
LINE
  5
2DFE
330
1A
100
AcDbEntity
  8
SEIHIN
100
AcDbLine
 10
398.0291239547417
 20
189.4448180477782
 30
0.0
 11
411.44553181974
 21
162.6120023177805
 31
0.0
  0
LINE
  5
2DFF
330
1A
100
AcDbEntity
  8
SEIHIN
100
AcDbLine
 10
392.6625608087422
 20
186.7615364747786
 30
0.0
 11
406.0789686737404
 21
159.9287207447808
 31
0.0
  0
LINE
  5
2E00
330
1A
100
AcDbEntity
  8
SEIHIN
100
AcDbLine
 10
404.2901142917408
 20
159.034293553781
 30
0.0
 11
390.8737064267424
 21
185.8671092837787
 31
0.0
  0
LINE
  5
2E03
330
1A
100
AcDbEntity
  8
SEIHIN
100
AcDbLine
 10
407.86782305574
 20
151.8788760257816
 30
0.0
 11
410.5511046287397
 21
150.9844488347816
 31
0.0
  0
LINE
  5
2E04
330
1A
100
AcDbEntity
  8
SEIHIN
100
AcDbLine
 10
415.9176677747394
 20
153.6677304077812
 30
0.0
 11
410.5511046287397
 21
150.9844488347816
 31
0.0
  0
LINE
  5
2E05
330
1A
100
AcDbEntity
  8
SEIHIN
100
AcDbLine
 10
407.86782305574
 20
151.8788760257816
 30
0.0
 11
404.2901142917408
 21
159.034293553781
 31
0.0
  0
LINE
  5
2E06
330
1A
100
AcDbEntity
  8
SEIHIN
100
AcDbLine
 10
406.0789686737404
 20
159.9287207447808
 30
0.0
 11
410.5511046287397
 21
150.9844488347816
 31
0.0
  0
LINE
  5
2E07
330
1A
100
AcDbEntity
  8
SEIHIN
100
AcDbLine
 10
411.44553181974
 20
162.6120023177805
 30
0.0
 11
415.9176677747394
 21
153.6677304077812
 31
0.0
  0
LINE
  5
2E0A
330
1A
100
AcDbEntity
  8
SEIHIN
100
AcDbLine
 10
385.5569879997433
 20
198.3890899577779
 30
0.0
 11
393.5569879997433
 21
198.3890899577779
 31
0.0
  0
LINE
  5
31A5
330
1A
100
AcDbEntity
  8
CENTER_L
  6
CENTER
 62
     1
 48
5.0
100
AcDbLine
 10
404.5182627124414
 20
193.8074214153777
 30
0.0
 11
385.9309308741245
 21
184.5137554962197
 31
0.0
  0
LINE
  5
31A6
330
1A
100
AcDbEntity
  8
CENTER_L
  6
CENTER
 62
     1
 48
5.0
100
AcDbLine
 10
407.2015442854408
 20
188.4408582693781
 30
0.0
 11
388.614212447124
 21
179.1471923502201
 31
0.0
  0
LINE
  5
31A7
330
1A
100
AcDbEntity
  8
CENTER_L
  6
CENTER
 62
     1
 48
5.0
100
AcDbLine
 10
417.9346705774394
 20
166.97460568538
 30
0.0
 11
399.3473387391227
 21
157.6809397662221
 31
0.0
  0
LINE
  5
31B8
330
1A
100
AcDbEntity
  8
SEIHIN
  6
PHANTOM
 62
     6
 48
2.0
100
AcDbLine
 10
428.5569879997424
 20
198.3890899577775
 30
0.0
 11
433.029123954742
 21
189.4448180477783
 31
0.0
  0
LINE
  5
31B9
330
1A
100
AcDbEntity
  8
CENTER_L
  6
CENTER
 62
     1
 48
5.0
100
AcDbLine
 10
439.5182627124414
 20
193.8074214153779
 30
0.0
 11
420.9309308741248
 21
184.5137554962195
 31
0.0
  0
LINE
  5
31BA
330
1A
100
AcDbEntity
  8
SEIHIN
  6
PHANTOM
 62
     6
 48
2.0
100
AcDbLine
 10
423.1904248537429
 20
195.7058083847777
 30
0.0
 11
428.5569879997424
 21
198.3890899577775
 31
0.0
  0
LINE
  5
31BB
330
1A
100
AcDbEntity
  8
SEIHIN
  6
PHANTOM
 62
     6
 48
2.0
100
AcDbLine
 10
422.295997662743
 20
193.022526811778
 30
0.0
 11
423.1904248537429
 21
195.7058083847777
 31
0.0
  0
LINE
  5
31BC
330
1A
100
AcDbEntity
  8
SEIHIN
  6
PHANTOM
 62
     6
 48
2.0
100
AcDbLine
 10
422.2949214912518
 20
193.0192982973041
 30
0.0
 11
422.295997662743
 21
193.022526811778
 31
0.0
  0
LINE
  5
31BD
330
1A
100
AcDbEntity
  8
SEIHIN
  6
PHANTOM
 62
     6
 48
2.0
100
AcDbLine
 10
425.8737064267426
 20
185.8671092837786
 30
0.0
 11
422.295997662743
 21
193.022526811778
 31
0.0
  0
LINE
  5
31BE
330
1A
100
AcDbEntity
  8
SEIHIN
  6
PHANTOM
 62
     6
 48
2.0
100
AcDbLine
 10
423.1904248537429
 20
195.7058083847777
 30
0.0
 11
427.6625608087424
 21
186.7615364747786
 31
0.0
  0
LINE
  5
31BF
330
1A
100
AcDbEntity
  8
SEIHIN
  6
PHANTOM
 62
     6
 48
2.0
100
AcDbLine
 10
420.5569879997433
 20
198.3890899577779
 30
0.0
 11
428.5569879997433
 21
198.3890899577779
 31
0.0
  0
LINE
  5
31C0
330
1A
100
AcDbEntity
  8
SEIHIN
  6
PHANTOM
 62
     6
 48
2.0
100
AcDbLine
 10
420.5569879997438
 20
198.3890899577668
 30
0.0
 11
428.5569879997438
 21
198.3890899577668
 31
0.0
  0
LINE
  5
31C1
330
1A
100
AcDbEntity
  8
CENTER_L
  6
CENTER
 62
     1
 48
5.0
100
AcDbLine
 10
442.2015442854411
 20
188.4408582693784
 30
0.0
 11
423.6142124471245
 21
179.14719235022
 31
0.0
  0
LINE
  5
31C2
330
1A
100
AcDbEntity
  8
SEIHIN
  6
PHANTOM
 62
     6
 48
2.0
100
AcDbLine
 10
433.029123954742
 20
189.4448180477783
 30
0.0
 11
446.4455318197408
 21
162.6120023177808
 31
0.0
  0
LINE
  5
31C3
330
1A
100
AcDbEntity
  8
SEIHIN
  6
PHANTOM
 62
     6
 48
2.0
100
AcDbLine
 10
427.6625608087424
 20
186.7615364747786
 30
0.0
 11
441.0789686737413
 21
159.9287207447811
 31
0.0
  0
LINE
  5
31C4
330
1A
100
AcDbEntity
  8
SEIHIN
  6
PHANTOM
 62
     6
 48
2.0
100
AcDbLine
 10
439.2901142917415
 20
159.0342935537812
 30
0.0
 11
425.8737064267426
 21
185.8671092837786
 31
0.0
  0
LWPOLYLINE
  5
31C5
330
1A
100
AcDbEntity
  8
SEIHIN
  6
PHANTOM
 62
     6
 48
2.0
100
AcDbPolyline
 90
        9
 70
   128
 43
0.0
 10
430.5639208962581
 20
176.4866803447475
 10
430.5577850510156
 20
176.498922086482
 10
430.1129949618492
 20
177.2604330728025
 10
429.3342128278847
 20
178.2230472874053
 10
428.3637246738256
 20
179.0579350093342
 10
427.5802470988549
 20
179.5413437098576
 10
426.7034867375031
 20
179.9316950450788
 10
425.9900176561515
 20
180.1493903711808
 10
425.241474682844
 20
180.2929809010824
  0
LINE
  5
31C6
330
1A
100
AcDbEntity
  8
CENTER_L
  6
CENTER
 62
     1
 48
5.0
100
AcDbLine
 10
452.93467057744
 20
166.9746056853805
 30
0.0
 11
434.3473387391236
 21
157.6809397662221
 31
0.0
  0
LINE
  5
31C7
330
1A
100
AcDbEntity
  8
SEIHIN
  6
PHANTOM
 62
     6
 48
2.0
100
AcDbLine
 10
441.0789686737413
 20
159.9287207447811
 30
0.0
 11
445.5511046287407
 21
150.9844488347819
 31
0.0
  0
LINE
  5
31C8
330
1A
100
AcDbEntity
  8
SEIHIN
  6
PHANTOM
 62
     6
 48
2.0
100
AcDbLine
 10
442.867823055741
 20
151.8788760257819
 30
0.0
 11
439.2901142917415
 21
159.0342935537812
 31
0.0
  0
LINE
  5
31C9
330
1A
100
AcDbEntity
  8
SEIHIN
  6
PHANTOM
 62
     6
 48
2.0
100
AcDbLine
 10
446.4455318197408
 20
162.6120023177808
 30
0.0
 11
450.9176677747403
 21
153.6677304077817
 31
0.0
  0
LINE
  5
31CA
330
1A
100
AcDbEntity
  8
SEIHIN
  6
PHANTOM
 62
     6
 48
2.0
100
AcDbLine
 10
450.9176677747403
 20
153.6677304077817
 30
0.0
 11
445.5511046287407
 21
150.9844488347819
 31
0.0
  0
LINE
  5
31CB
330
1A
100
AcDbEntity
  8
SEIHIN
  6
PHANTOM
 62
     6
 48
2.0
100
AcDbLine
 10
442.867823055741
 20
151.8788760257819
 30
0.0
 11
445.5511046287407
 21
150.9844488347819
 31
0.0
  0
LINE
  5
31CC
330
1A
100
AcDbEntity
  8
SEIHIN
  6
PHANTOM
 62
     6
 48
2.0
100
AcDbLine
 10
420.5569879997438
 20
198.3890899577668
 30
0.0
 11
413.5569879997436
 21
197.7766693130668
 31
0.0
  0
LWPOLYLINE
  5
31CD
330
1A
100
AcDbEntity
  8
SEIHIN
  6
PHANTOM
 62
     6
 48
2.0
100
AcDbPolyline
 90
        4
 70
   128
 43
0.0
 10
423.7216122002825
 20
180.332005483962
 10
424.2287325756861
 20
180.3557919265756
 10
424.7362432277436
 20
180.3427608847999
 10
425.241474682844
 20
180.2929809010824
  0
ARC
  5
32AE
330
1A
100
AcDbEntity
  8
SEIHIN
100
AcDbCircle
 10
304.5557800155473
 20
405.0012033327226
 30
0.0
 40
5.0
100
AcDbArc
 50
0.0
 51
180.0
  0
LINE
  5
32AF
330
1A
100
AcDbEntity
  8
CENTER_L
100
AcDbLine
 10
304.5557800155473
 20
398.0012033327226
 30
0.0
 11
304.5557800155473
 21
412.0012033327226
 31
0.0
  0
ARC
  5
32B0
330
1A
100
AcDbEntity
  8
SEIHIN
100
AcDbCircle
 10
304.5557800155473
 20
405.0012033327226
 30
0.0
 40
5.0
100
AcDbArc
 50
180.0
 51
0.0
  0
LINE
  5
32BB
330
1A
100
AcDbEntity
  8
SEIHIN
100
AcDbLine
 10
390.2775775957417
 20
368.7623080076098
 30
0.0
 11
390.7375983813582
 21
368.341845069832
 31
0.0
  0
LINE
  5
32BC
330
1A
100
AcDbEntity
  8
SEIHIN
100
AcDbLine
 10
390.7375983813582
 20
368.341845069832
 30
0.0
 11
391.2140660753922
 21
368.0866547189845
 31
0.0
  0
LINE
  5
32BD
330
1A
100
AcDbEntity
  8
SEIHIN
100
AcDbLine
 10
391.2140660753922
 20
368.0866547189845
 30
0.0
 11
391.6988281834975
 21
368.0011033327227
 31
0.0
  0
LINE
  5
32BE
330
1A
100
AcDbEntity
  8
SEIHIN
100
AcDbLine
 10
364.5784616629426
 20
386.5426036891107
 30
0.0
 11
364.5784616629428
 21
423.4598029763346
 31
0.0
  0
LINE
  5
32BF
330
1A
100
AcDbEntity
  8
SEIHIN
100
AcDbLine
 10
366.0784616629429
 20
386.5426036891107
 30
0.0
 11
366.0784616629428
 21
423.4598029763346
 31
0.0
  0
LINE
  5
32C0
330
1A
100
AcDbEntity
  8
SEIHIN
100
AcDbLine
 10
364.5784616629428
 20
386.5426036891107
 30
0.0
 11
366.0784616629428
 21
386.5426036891107
 31
0.0
  0
LINE
  5
32C1
330
1A
100
AcDbEntity
  8
SEIHIN
100
AcDbLine
 10
364.5784616629428
 20
423.4598029763346
 30
0.0
 11
366.0784616629428
 21
423.4598029763345
 31
0.0
  0
LINE
  5
32C2
330
1A
100
AcDbEntity
  8
SEIHIN
100
AcDbLine
 10
370.5677248313433
 20
386.5426036891107
 30
0.0
 11
370.5677248313431
 21
423.4598029763346
 31
0.0
  0
LINE
  5
32C3
330
1A
100
AcDbEntity
  8
SEIHIN
100
AcDbLine
 10
372.0677248313431
 20
386.5426036891107
 30
0.0
 11
372.0677248313433
 21
423.4598029763346
 31
0.0
  0
LINE
  5
32C4
330
1A
100
AcDbEntity
  8
SEIHIN
100
AcDbLine
 10
370.5677248313431
 20
386.5426036891107
 30
0.0
 11
372.0677248313433
 21
386.5426036891107
 31
0.0
  0
LINE
  5
32C5
330
1A
100
AcDbEntity
  8
SEIHIN
100
AcDbLine
 10
370.5677248313431
 20
423.4598029763346
 30
0.0
 11
372.0677248313433
 21
423.4598029763345
 31
0.0
  0
LINE
  5
32C6
330
1A
100
AcDbEntity
  8
SEIHIN
100
AcDbLine
 10
376.5569879997431
 20
386.5426036891107
 30
0.0
 11
376.5569879997429
 21
423.4598029763345
 31
0.0
  0
LINE
  5
32C7
330
1A
100
AcDbEntity
  8
SEIHIN
100
AcDbLine
 10
378.0569879997431
 20
386.5426036891107
 30
0.0
 11
378.0569879997431
 21
423.4598029763346
 31
0.0
  0
LINE
  5
32C8
330
1A
100
AcDbEntity
  8
SEIHIN
100
AcDbLine
 10
376.5569879997429
 20
386.5426036891107
 30
0.0
 11
378.0569879997431
 21
386.5426036891107
 31
0.0
  0
LINE
  5
32C9
330
1A
100
AcDbEntity
  8
SEIHIN
100
AcDbLine
 10
376.5569879997429
 20
423.4598029763345
 30
0.0
 11
378.0569879997431
 21
423.4598029763346
 31
0.0
  0
LINE
  5
32CA
330
1A
100
AcDbEntity
  8
SEIHIN
100
AcDbLine
 10
366.0784616629428
 20
422.4231215082133
 30
0.0
 11
370.5677248313431
 21
422.4231215082133
 31
0.0
  0
LINE
  5
32CD
330
1A
100
AcDbEntity
  8
SEIHIN
100
AcDbLine
 10
372.0677248313433
 20
422.4231215082133
 30
0.0
 11
376.5569879997431
 21
422.4231215082135
 31
0.0
  0
LINE
  5
32D0
330
1A
100
AcDbEntity
  8
SEIHIN
100
AcDbLine
 10
378.0569879997431
 20
422.4231215082133
 30
0.0
 11
385.6212583015
 21
422.4231215082133
 31
0.0
  0
LINE
  5
32D5
330
1A
100
AcDbEntity
  8
SEIHIN
100
AcDbLine
 10
378.0569879997431
 20
387.579085157232
 30
0.0
 11
385.6212583015
 21
387.579085157232
 31
0.0
  0
LINE
  5
32D8
330
1A
100
AcDbEntity
  8
SEIHIN
100
AcDbLine
 10
372.0677248313431
 20
387.579085157232
 30
0.0
 11
376.5569879997431
 21
387.579085157232
 31
0.0
  0
LINE
  5
32D9
330
1A
100
AcDbEntity
  8
SEIHIN
100
AcDbLine
 10
366.0784616629429
 20
387.579085157232
 30
0.0
 11
370.5677248313433
 21
387.579085157232
 31
0.0
  0
LINE
  5
32E5
330
1A
100
AcDbEntity
  8
SEIHIN
100
AcDbLine
 10
390.2775775957417
 20
441.2398986578355
 30
0.0
 11
390.7375983813582
 21
441.6603615956133
 31
0.0
  0
LINE
  5
32E6
330
1A
100
AcDbEntity
  8
SEIHIN
100
AcDbLine
 10
390.7375983813582
 20
441.6603615956133
 30
0.0
 11
391.2140660753922
 21
441.9155519464608
 31
0.0
  0
LINE
  5
32E7
330
1A
100
AcDbEntity
  8
SEIHIN
100
AcDbLine
 10
391.2140660753922
 20
441.9155519464608
 30
0.0
 11
391.6988281834975
 21
442.0011033327226
 31
0.0
  0
LINE
  5
336A
330
1A
100
AcDbEntity
  8
SUNPOU
  6
Continuous
 62
     4
 48
5.0
100
AcDbLine
 10
420.8370173252387
 20
143.829031306782
 30
0.0
 11
435.3726135714063
 21
114.7578388144456
 31
0.0
  0
DIMENSION
  5
336B
330
1A
100
AcDbEntity
  8
SUNPOU
100
AcDbDimension
  2
*D13
 10
448.5392317988852
 20
225.8802118573479
 30
0.0
 11
464.1917076413833
 21
205.7556000598493
 31
0.0
 70
    33
 71
     5
 42
-1.0
  3
STANDARD
100
AcDbAlignedDimension
 13
415.9176677747394
 23
153.6677304077812
 33
0.0
 14
393.5569879997422
 24
198.3890899577779
 34
0.0
1001
ACAD
1000
DSTYLE
1002
{
1070
    41
1040
7.0
1070
    42
1040
6.0
1070
    43
1040
14.0
1070
    44
1040
3.0
1070
    73
1070
     0
1070
    74
1070
     0
1070
    77
1070
     3
1070
   140
1040
6.0
1070
   141
1040
150.0
1070
   147
1040
2.0
1070
   172
1070
     1
1070
   173
1070
     1
1070
   176
1070
   256
1070
   177
1070
   256
1070
   178
1070
   256
1070
   271
1070
     0
1070
   272
1070
     0
1070
   341
1005
6D
1070
     6
1000
OPEN
1070
     7
1000
OPEN
1070
   371
1070
    -1
1070
   372
1070
    -1
1002
}
  0
LINE
  5
337B
330
1A
100
AcDbEntity
  8
SEIHIN
100
AcDbLine
 10
402.0977671214124
 20
424.0106609931415
 30
0.0
 11
404.717838267793
 21
424.0106609931417
 31
0.0
  0
LINE
  5
337C
330
1A
100
AcDbEntity
  8
SEIHIN
100
AcDbLine
 10
402.0979137474918
 20
385.9915456728695
 30
0.0
 11
404.7179848937945
 21
385.991565882217
 31
0.0
  0
DIMENSION
  5
3489
330
1A
100
AcDbEntity
  8
SUNPOU
100
AcDbDimension
  2
*D14
 10
213.8740407016734
 20
387.0288034747601
 30
0.0
 11
208.8740407016734
 21
405.0011033327227
 31
0.0
 70
    32
 71
     5
 42
-1.0
  3
STANDARD
100
AcDbAlignedDimension
 13
294.5557815652682
 23
422.9734031906854
 33
0.0
 14
294.5557815652682
 24
387.0288034747601
 34
0.0
 50
90.0
100
AcDbRotatedDimension
1001
ACAD
1000
DSTYLE
1002
{
1070
    41
1040
7.0
1070
    42
1040
6.0
1070
    43
1040
14.0
1070
    44
1040
3.0
1070
    73
1070
     0
1070
    74
1070
     0
1070
    77
1070
     3
1070
   140
1040
6.0
1070
   141
1040
150.0
1070
   147
1040
2.0
1070
   172
1070
     1
1070
   173
1070
     1
1070
   176
1070
   256
1070
   177
1070
   256
1070
   178
1070
   256
1070
   271
1070
     0
1070
   272
1070
     0
1070
   341
1005
6D
1070
     6
1000
OPEN
1070
     7
1000
OPEN
1070
   371
1070
    -1
1070
   372
1070
    -1
1002
}
  0
LINE
  5
34B7
330
1A
100
AcDbEntity
  8
VM120
  6
PHANTOM
 62
     8
 48
5.0
100
AcDbLine
 10
264.697498222584
 20
190.329048425981
 30
0.0
 11
264.6974981810828
 21
190.329048425981
 31
0.0
  0
LINE
  5
386E
330
1A
100
AcDbEntity
  8
CENTER_L
  6
CENTER
 62
     1
 48
5.0
100
AcDbLine
 10
384.1862084526594
 20
433.5012033327226
 30
0.0
 11
404.7300956757086
 21
433.5012033327226
 31
0.0
  0
LINE
  5
386F
330
1A
100
AcDbEntity
  8
CENTER_L
  6
CENTER
 62
     1
 48
5.0
100
AcDbLine
 10
403.3975330033802
 20
431.8123136962966
 30
0.0
 11
418.5072645092784
 21
431.8123136962966
 31
0.0
  0
LINE
  5
3870
330
1A
100
AcDbEntity
  8
CENTER_L
  6
CENTER
 62
     1
 48
5.0
100
AcDbLine
 10
384.1863738084164
 20
376.5009489715905
 30
0.0
 11
404.7302610311198
 21
376.5010681657962
 31
0.0
  0
LINE
  5
3871
330
1A
100
AcDbEntity
  8
CENTER_L
  6
CENTER
 62
     1
 48
5.0
100
AcDbLine
 10
403.3976885599936
 20
378.1899500707579
 30
0.0
 11
418.5074200656375
 21
378.1900377363698
 31
0.0
  0
DIMENSION
  5
38A2
330
1A
100
AcDbEntity
  8
SUNPOU
100
AcDbDimension
  2
*D15
 10
501.5659158734806
 20
242.1810639875257
 30
0.0
 11
503.9687749290267
 21
248.5931232240968
 31
0.0
 70
    33
 71
     5
 42
-1.0
  3
STANDARD
100
AcDbAlignedDimension
 13
523.8025158664718
 23
263.642639822439
 33
0.0
 14
527.9570469849514
 24
255.2585589329166
 34
0.0
1001
ACAD
1000
DSTYLE
1002
{
1070
    41
1040
7.0
1070
    42
1040
6.0
1070
    43
1040
14.0
1070
    44
1040
3.0
1070
    73
1070
     0
1070
    74
1070
     0
1070
    77
1070
     3
1070
   140
1040
6.0
1070
   141
1040
150.0
1070
   147
1040
2.0
1070
   172
1070
     1
1070
   173
1070
     1
1070
   176
1070
   256
1070
   177
1070
   256
1070
   178
1070
   256
1070
   271
1070
     0
1070
   272
1070
     0
1070
   341
1005
6D
1070
     6
1000
OPEN
1070
     7
1000
OPEN
1070
   371
1070
    -1
1070
   372
1070
    -1
1002
}
  0
DIMENSION
  5
38B1
330
1A
100
AcDbEntity
  8
SUNPOU
100
AcDbDimension
  2
*D16
 10
507.3503672812825
 20
199.5232978001837
 30
0.0
 11
500.6976054421261
 21
224.2101167920321
 31
0.0
 70
    33
 71
     5
 42
-1.0
  3
STANDARD
100
AcDbAlignedDimension
 13
523.8025158664718
 23
263.642639822439
 33
0.0
 14
546.0682887743566
 24
218.7090394223621
 34
0.0
1001
ACAD
1000
DSTYLE
1002
{
1070
    41
1040
7.0
1070
    42
1040
6.0
1070
    43
1040
14.0
1070
    44
1040
3.0
1070
    73
1070
     0
1070
    74
1070
     0
1070
    77
1070
     3
1070
   140
1040
6.0
1070
   141
1040
150.0
1070
   147
1040
2.0
1070
   172
1070
     1
1070
   173
1070
     1
1070
   176
1070
   256
1070
   177
1070
   256
1070
   178
1070
   256
1070
   271
1070
     0
1070
   272
1070
     0
1070
   341
1005
6D
1070
     6
1000
OPEN
1070
     7
1000
OPEN
1070
   371
1070
    -1
1070
   372
1070
    -1
1002
}
  0
LINE
  5
3CC2
330
1A
100
AcDbEntity
  8
ZUWAKU
100
AcDbLine
 10
208.646601303624
 20
15.19999986828872
 30
0.0
 11
447.4243639845474
 21
15.19999986828871
 31
0.0
  0
LINE
  5
3CC3
330
1A
100
AcDbEntity
  8
ZUWAKU
100
AcDbLine
 10
208.646601303624
 20
15.59999986828871
 30
0.0
 11
447.4243639845474
 21
15.59999986828872
 31
0.0
  0
LINE
  5
3CC4
330
1A
100
AcDbEntity
  8
ZUWAKU
100
AcDbLine
 10
208.646601303624
 20
15.39999986828871
 30
0.0
 11
447.4243639845474
 21
15.39999986828871
 31
0.0
  0
LINE
  5
3CC5
330
1A
100
AcDbEntity
  8
ZUWAKU
100
AcDbLine
 10
0.0000000135560185
 20
30.79999986828869
 30
0.0
 11
797.4000000135559
 21
30.79999986828869
 31
0.0
  0
LINE
  5
3CC6
330
1A
100
AcDbEntity
  8
ZUWAKU
100
AcDbLine
 10
0.0000000135560185
 20
30.5999998682887
 30
0.0
 11
797.4000000135559
 21
30.5999998682887
 31
0.0
  0
LINE
  5
3CC7
330
1A
100
AcDbEntity
  8
ZUWAKU
100
AcDbLine
 10
0.0000000135560185
 20
30.39999986828869
 30
0.0
 11
797.4000000135559
 21
30.39999986828869
 31
0.0
  0
LINE
  5
3CC8
330
1A
100
AcDbEntity
  8
ZUWAKU
100
AcDbLine
 10
0.0000000135560185
 20
30.19999986828868
 30
0.0
 11
797.4000000135559
 21
30.19999986828868
 31
0.0
  0
LINE
  5
3CC9
330
1A
100
AcDbEntity
  8
ZUWAKU
100
AcDbLine
 10
0.0000000135560185
 20
29.99999986828868
 30
0.0
 11
797.4000000135559
 21
29.99999986828868
 31
0.0
  0
LWPOLYLINE
  5
3CCA
330
1A
100
AcDbEntity
  8
ZUWAKU
100
AcDbPolyline
 90
        4
 70
     1
 43
0.0
 10
0.2000000135559503
 20
551.3999998682887
 10
0.2000000135559503
 20
0.1999998682887281
 10
797.4000000135559
 20
0.1999998682887511
 10
797.4000000135561
 20
551.3999998682887
  0
LWPOLYLINE
  5
3CCB
330
1A
100
AcDbEntity
  8
ZUWAKU
100
AcDbPolyline
 90
        4
 70
     1
 43
0.0
 10
0.6000000135559276
 20
550.9999998682888
 10
0.6000000135559276
 20
0.5999998682887054
 10
797.0000000135563
 20
0.5999998682887516
 10
797.000000013556
 20
550.9999998682888
  0
LWPOLYLINE
  5
3CCC
330
1A
100
AcDbEntity
  8
ZUWAKU
100
AcDbPolyline
 90
        4
 70
     1
 43
0.0
 10
0.0000000135560185
 20
551.5999998682887
 10
0.0000000135560185
 20
-0.0000001317113174
 10
797.600000013556
 20
-0.0000001317112499
 10
797.600000013556
 20
551.5999998682888
  0
LWPOLYLINE
  5
3CCD
330
1A
100
AcDbEntity
  8
ZUWAKU
100
AcDbPolyline
 90
        4
 70
     1
 43
0.0
 10
0.4000000135559958
 20
551.1999998682886
 10
0.4000000135559958
 20
0.3999998682887735
 10
797.2000000135561
 20
0.3999998682887504
 10
797.2000000135561
 20
551.1999998682886
  0
LWPOLYLINE
  5
3CCE
330
1A
100
AcDbEntity
  8
ZUWAKU
100
AcDbPolyline
 90
        4
 70
     1
 43
0.0
 10
0.8000000135559731
 20
550.7999998682886
 10
0.8000000135559731
 20
0.7999998682887508
 10
796.8000000135559
 20
0.7999998682887508
 10
796.8000000135559
 20
550.7999998682886
  0
TEXT
  5
3CCF
330
1A
100
AcDbEntity
  8
MOJI
100
AcDbText
 10
92.95778960172515
 20
12.74117799856344
 30
0.0
 40
6.0
  1
アーバントップΣ９０
 41
0.9
  7
ｽﾀｲﾙ1
100
AcDbText
  0
HATCH
  5
3CD0
330
1A
100
AcDbEntity
  8
ZUWAKU
100
AcDbHatch
 10
0.0
 20
0.0
 30
0.0
210
0.0
220
0.0
230
1.0
  2
ANSI37
 70
     0
 71
     0
 91
        8
 92
        7
 72
     1
 73
     1
 93
       24
 10
14.50226267467587
 20
17.64484834927226
 42
-0.1989123673796348
 10
14.09221216833714
 20
18.63479784293331
 42
0.0
 10
14.09221216833714
 20
19.92499986828869
 42
-0.4142135623730912
 10
14.61721216833711
 20
20.44999986828868
 42
0.0
 10
17.59221216833702
 20
20.44999986828868
 42
0.4142135623731546
 10
18.11721216833712
 20
20.97499986828867
 42
0.0
 10
18.11721216833712
 20
22.7249998682887
 42
0.4142135623731586
 10
17.59221216833702
 20
23.24999986828868
 42
0.0
 10
14.09221216833714
 20
23.24999986828868
 42
0.4142135623730928
 10
11.29221216833718
 20
20.44999986828871
 42
0.0
 10
11.29221216833718
 20
18.63479784293344
 42
0.1989123673796619
 10
12.52236368735361
 20
15.66494936194983
 42
0.0
 10
15.43216166199829
 20
12.75515138730518
 42
-0.1989123673796613
 10
15.84221216833714
 20
11.76520189364399
 42
0.0
 10
15.84221216833714
 20
10.47499986828867
 42
-0.4142135623730911
 10
15.31721216833716
 20
9.949999868288684
 42
0.0
 10
12.34221216833725
 20
9.949999868288684
 42
0.4142135623731526
 10
11.81721216833716
 20
9.424999868288696
 42
0.0
 10
11.81721216833716
 20
7.674999868288675
 42
0.4142135623731526
 10
12.34221216833725
 20
7.149999868288687
 42
0.0
 10
15.84221216833714
 20
7.149999868288687
 42
0.4142135623731044
 10
18.64221216833721
 20
9.949999868288664
 42
0.0
 10
18.64221216833721
 20
11.76520189364393
 42
0.1989123673796604
 10
17.41206064932066
 20
14.73505037462747
 42
0.0
 97
        0
 92
        7
 72
     1
 73
     1
 93
       16
 10
23.54221216833718
 20
19.04999986828869
 42
-0.4142135623730935
 10
24.94221216833716
 20
20.44999986828868
 42
0.0
 10
26.86721216833712
 20
20.44999986828868
 42
0.4142135623731546
 10
27.39221216833721
 20
20.97499986828867
 42
0.0
 10
27.39221216833721
 20
22.7249998682887
 42
0.4142135623730951
 10
26.86721216833723
 20
23.24999986828868
 42
0.0
 10
24.94221216833705
 20
23.24999986828864
 42
0.4142135623730892
 10
20.74221216833711
 20
19.04999986828862
 42
0.0
 10
20.74221216833711
 20
11.34999986828871
 42
0.4142135623730969
 10
24.94221216833716
 20
7.149999868288687
 42
0.0
 10
26.86721216833712
 20
7.149999868288687
 42
0.4142135623731526
 10
27.39221216833721
 20
7.674999868288675
 42
0.0
 10
27.39221216833721
 20
9.424999868288696
 42
0.4142135623730891
 10
26.86721216833723
 20
9.949999868288684
 42
0.0
 10
24.94221216833716
 20
9.949999868288684
 42
-0.4142135623730928
 10
23.54221216833718
 20
11.34999986828867
 42
0.0
 97
        0
 92
        7
 72
     1
 73
     1
 93
        2
 10
24.24221216833712
 20
15.19999986828868
 42
1.0
 10
27.74221216833712
 20
15.19999986828868
 42
1.0
 97
        0
 92
        7
 72
     1
 73
     1
 93
       26
 10
37.31485865051513
 20
19.20504706185211
 42
0.0
 10
38.37649828365296
 20
22.5669059001217
 42
0.5069206636600134
 10
37.87586738445759
 20
23.24999986828868
 42
0.0
 10
36.17697800484836
 20
23.24999986828868
 42
0.3272098845218764
 10
35.676347105653
 20
22.88309383645565
 42
0.0
 10
33.80807723102122
 20
16.96690590012176
 42
-0.3272098845219541
 10
33.30744633182575
 20
16.59999986828868
 42
0.0
 10
33.1672121683373
 20
16.59999986828868
 42
-0.4142135623731526
 10
32.64221216833721
 20
17.12499986828867
 42
0.0
 10
32.64221216833721
 20
22.7249998682887
 42
0.4142135623730951
 10
32.11721216833723
 20
23.24999986828868
 42
0.0
 10
30.36721216833711
 20
23.24999986828868
 42
0.4142135623730871
 10
29.84221216833714
 20
22.7249998682887
 42
0.0
 10
29.84221216833714
 20
7.674999868288675
 42
0.4142135623730891
 10
30.36721216833711
 20
7.149999868288687
 42
0.0
 10
32.11721216833712
 20
7.149999868288687
 42
0.4142135623731526
 10
32.64221216833721
 20
7.674999868288675
 42
0.0
 10
32.64221216833721
 20
13.27499986828869
 42
-0.4142135623731526
 10
33.1672121683373
 20
13.79999986828868
 42
0.0
 10
33.30744633182587
 20
13.79999986828868
 42
-0.3272098845218915
 10
33.80807723102122
 20
13.43309383645561
 42
0.0
 10
35.676347105653
 20
7.516905900121759
 42
0.3272098845218902
 10
36.17697800484836
 20
7.149999868288687
 42
0.0
 10
37.87586738445759
 20
7.149999868288687
 42
0.5069206636600335
 10
38.37649828365296
 20
7.833093836455696
 42
0.0
 10
36.05010690517929
 20
15.19999986828882
 42
0.0
 97
        0
 92
        7
 72
     1
 73
     1
 93
        8
 10
43.49221216833711
 20
22.7249998682887
 42
0.4142135623731546
 10
42.96721216833702
 20
23.24999986828868
 42
0.0
 10
41.21721216833726
 20
23.24999986828868
 42
0.4142135623731507
 10
40.69221216833716
 20
22.7249998682887
 42
0.0
 10
40.69221216833716
 20
7.674999868288675
 42
0.4142135623731526
 10
41.21721216833726
 20
7.149999868288687
 42
0.0
 10
42.96721216833702
 20
7.149999868288687
 42
0.4142135623731526
 10
43.49221216833711
 20
7.674999868288675
 42
0.0
 97
        0
 92
        7
 72
     1
 73
     1
 93
       24
 10
48.3922121683372
 20
19.92499986828869
 42
-0.4142135623731546
 10
48.9172121683373
 20
20.44999986828868
 42
0.0
 10
51.89221216833721
 20
20.44999986828868
 42
0.4142135623730911
 10
52.41721216833718
 20
20.97499986828867
 42
0.0
 10
52.41721216833718
 20
22.7249998682887
 42
0.4142135623730952
 10
51.89221216833721
 20
23.24999986828868
 42
0.0
 10
48.3922121683372
 20
23.24999986828868
 42
0.4142135623731048
 10
45.59221216833714
 20
20.44999986828871
 42
0.0
 10
45.59221216833714
 20
18.63479784293344
 42
0.1989123673796613
 10
46.82236368735368
 20
15.66494936194989
 42
0.0
 10
49.73216166199835
 20
12.75515138730522
 42
-0.1989123673796402
 10
50.14221216833721
 20
11.76520189364415
 42
0.0
 10
50.14221216833721
 20
10.47499986828867
 42
-0.4142135623730911
 10
49.61721216833723
 20
9.949999868288684
 42
0.0
 10
46.64221216833721
 20
9.949999868288684
 42
0.4142135623731526
 10
46.11721216833712
 20
9.424999868288696
 42
0.0
 10
46.11721216833712
 20
7.674999868288675
 42
0.4142135623730891
 10
46.6422121683371
 20
7.149999868288687
 42
0.0
 10
50.14221216833721
 20
7.149999868288687
 42
0.4142135623730925
 10
52.94221216833716
 20
9.949999868288664
 42
0.0
 10
52.94221216833716
 20
11.76520189364393
 42
0.1989123673796675
 10
51.71206064932062
 20
14.73505037462759
 42
0.0
 10
48.80226267467604
 20
17.6448483492721
 42
-0.1989123673796652
 10
48.3922121683372
 20
18.63479784293327
 42
0.0
 97
        0
 92
        7
 72
     1
 73
     1
 93
       16
 10
57.84221216833714
 20
22.72499986828867
 42
0.414213562373103
 10
57.31721216833716
 20
23.24999986828868
 42
0.0
 10
55.56721216833716
 20
23.24999986828868
 42
0.4142135623730871
 10
55.04221216833718
 20
22.7249998682887
 42
0.0
 10
55.04221216833718
 20
9.949999868288664
 42
0.4142135623730926
 10
57.84221216833714
 20
7.149999868288687
 42
0.0
 10
61.34221216833714
 20
7.149999868288687
 42
0.4142135623731044
 10
64.14221216833721
 20
9.949999868288664
 42
0.0
 10
64.14221216833721
 20
22.7249998682887
 42
0.4142135623730951
 10
63.61721216833723
 20
23.24999986828868
 42
0.0
 10
61.86721216833712
 20
23.24999986828868
 42
0.4142135623730871
 10
61.34221216833714
 20
22.7249998682887
 42
0.0
 10
61.34221216833714
 20
10.99999986828866
 42
-0.4142135623730879
 10
60.29221216833718
 20
9.949999868288684
 42
0.0
 10
58.89221216833721
 20
9.949999868288684
 42
-0.4142135623731197
 10
57.84221216833714
 20
10.99999986828866
 42
0.0
 97
        0
 92
        7
 72
     1
 73
     1
 93
        8
 10
69.04221216833719
 20
22.7249998682887
 42
0.4142135623730871
 10
68.51721216833721
 20
23.24999986828868
 42
0.0
 10
66.76721216833721
 20
23.24999986828868
 42
0.4142135623731507
 10
66.24221216833712
 20
22.7249998682887
 42
0.0
 10
66.24221216833712
 20
7.674999868288675
 42
0.4142135623730891
 10
66.7672121683371
 20
7.149999868288687
 42
0.0
 10
68.51721216833721
 20
7.149999868288687
 42
0.4142135623730891
 10
69.04221216833719
 20
7.674999868288675
 42
0.0
 97
        0
 75
     0
 76
     1
 52
0.0
 41
0.2
 77
     0
 78
     2
 53
45.0
 43
-900.9423043211231
 44
-13.20000013171124
 45
-0.4490128060534576
 46
0.4490128060534577
 79
     0
 53
135.0
 43
-900.9423043211231
 44
-13.20000013171124
 45
-0.4490128060534577
 46
-0.4490128060534576
 79
     0
 47
0.057451373970553
 98
        8
 10
16.07985497657932
 20
15.16717351417423
 10
22.4045150199952
 20
18.84406205073969
 10
25.16436789921567
 20
15.5118815143594
 10
30.91405999519315
 20
16.20129751473018
 10
41.83847203251275
 20
16.6609097822718
 10
46.89820090868557
 20
19.41857618469589
 10
56.55768598595636
 20
18.72915778338369
 10
67.82707963317876
 20
19.18877005092531
  0
LINE
  5
3CD1
330
1A
100
AcDbEntity
  8
ZUWAKU
100
AcDbLine
 10
24.94221216833716
 20
23.24999986828864
 30
0.0
 11
26.86721216833712
 21
23.24999986828868
 31
0.0
  0
LINE
  5
3CD2
330
1A
100
AcDbEntity
  8
ZUWAKU
100
AcDbLine
 10
26.86721216833712
 20
20.44999986828868
 30
0.0
 11
24.94221216833716
 21
20.44999986828868
 31
0.0
  0
LINE
  5
3CD3
330
1A
100
AcDbEntity
  8
ZUWAKU
100
AcDbLine
 10
24.94221216833716
 20
9.949999868288684
 30
0.0
 11
26.86721216833712
 21
9.949999868288684
 31
0.0
  0
LINE
  5
3CD4
330
1A
100
AcDbEntity
  8
ZUWAKU
100
AcDbLine
 10
26.86721216833712
 20
7.149999868288687
 30
0.0
 11
24.94221216833716
 21
7.149999868288687
 31
0.0
  0
CIRCLE
  5
3CD5
330
1A
100
AcDbEntity
  8
ZUWAKU
100
AcDbCircle
 10
25.99221216833711
 20
15.19999986828868
 30
0.0
 40
1.75
  0
ARC
  5
3CD6
330
1A
100
AcDbEntity
  8
ZUWAKU
100
AcDbCircle
 10
15.49221216833712
 20
18.63479784293338
 30
0.0
 40
1.399999999999999
100
AcDbArc
 50
180.0000000000016
 51
224.9999999999988
  0
LINE
  5
3CD7
330
1A
100
AcDbEntity
  8
ZUWAKU
100
AcDbLine
 10
23.54221216833718
 20
19.04999986828868
 30
0.0
 11
23.54221216833718
 21
11.34999986828869
 31
0.0
  0
LINE
  5
3CD8
330
1A
100
AcDbEntity
  8
ZUWAKU
100
AcDbLine
 10
20.74221216833711
 20
11.34999986828869
 30
0.0
 11
20.74221216833711
 21
19.04999986828864
 31
0.0
  0
ARC
  5
3CD9
330
1A
100
AcDbEntity
  8
ZUWAKU
100
AcDbCircle
 10
15.49221216833712
 20
18.63479784293338
 30
0.0
 40
4.199999999999998
100
AcDbArc
 50
180.0
 51
225.0
  0
ARC
  5
3CDA
330
1A
100
AcDbEntity
  8
ZUWAKU
100
AcDbCircle
 10
15.84221216833714
 20
9.949999868288684
 30
0.0
 40
2.799999999999999
100
AcDbArc
 50
270.0
 51
0.0
  0
ARC
  5
3CDB
330
1A
100
AcDbEntity
  8
ZUWAKU
100
AcDbCircle
 10
24.94221216833716
 20
11.34999986828869
 30
0.0
 40
4.199999999999998
100
AcDbArc
 50
180.0
 51
270.0
  0
ARC
  5
3CDC
330
1A
100
AcDbEntity
  8
ZUWAKU
100
AcDbCircle
 10
14.44221216833716
 20
11.76520189364399
 30
0.0
 40
4.199999999999998
100
AcDbArc
 50
0.0
 51
45.0
  0
LINE
  5
3CDD
330
1A
100
AcDbEntity
  8
ZUWAKU
100
AcDbLine
 10
17.41206064932066
 20
14.73505037462751
 30
0.0
 11
14.50226267467598
 21
17.64484834927218
 31
0.0
  0
LINE
  5
3CDE
330
1A
100
AcDbEntity
  8
ZUWAKU
100
AcDbLine
 10
15.84221216833714
 20
10.47499986828869
 30
0.0
 11
15.84221216833714
 21
11.76520189364403
 31
0.0
  0
ARC
  5
3CDF
330
1A
100
AcDbEntity
  8
ZUWAKU
100
AcDbCircle
 10
15.31721216833716
 20
10.47499986828869
 30
0.0
 40
0.525
100
AcDbArc
 50
270.0
 51
0.0
  0
ARC
  5
3CE0
330
1A
100
AcDbEntity
  8
ZUWAKU
100
AcDbCircle
 10
14.44221216833716
 20
11.76520189364403
 30
0.0
 40
1.399999999999999
100
AcDbArc
 50
0.0
 51
45.0
  0
LINE
  5
3CE1
330
1A
100
AcDbEntity
  8
ZUWAKU
100
AcDbLine
 10
11.81721216833716
 20
7.674999868288686
 30
0.0
 11
11.81721216833716
 21
9.424999868288685
 31
0.0
  0
ARC
  5
3CE2
330
1A
100
AcDbEntity
  8
ZUWAKU
100
AcDbCircle
 10
12.34221216833714
 20
7.674999868288686
 30
0.0
 40
0.525
100
AcDbArc
 50
180.0
 51
270.0
  0
ARC
  5
3CE3
330
1A
100
AcDbEntity
  8
ZUWAKU
100
AcDbCircle
 10
12.34221216833714
 20
9.424999868288685
 30
0.0
 40
0.525
100
AcDbArc
 50
90.0
 51
180.0
  0
LINE
  5
3CE4
330
1A
100
AcDbEntity
  8
ZUWAKU
100
AcDbLine
 10
12.34221216833714
 20
7.149999868288687
 30
0.0
 11
15.84221216833714
 21
7.149999868288687
 31
0.0
  0
LINE
  5
3CE5
330
1A
100
AcDbEntity
  8
ZUWAKU
100
AcDbLine
 10
12.34221216833714
 20
9.949999868288684
 30
0.0
 11
15.31721216833716
 21
9.949999868288684
 31
0.0
  0
LINE
  5
3CE6
330
1A
100
AcDbEntity
  8
ZUWAKU
100
AcDbLine
 10
12.52236368735361
 20
15.66494936194986
 30
0.0
 11
15.43216166199829
 21
12.7551513873052
 31
0.0
  0
LINE
  5
3CE7
330
1A
100
AcDbEntity
  8
ZUWAKU
100
AcDbLine
 10
18.64221216833721
 20
9.949999868288684
 30
0.0
 11
18.64221216833721
 21
11.76520189364403
 31
0.0
  0
ARC
  5
3CE8
330
1A
100
AcDbEntity
  8
ZUWAKU
100
AcDbCircle
 10
24.94221216833716
 20
11.34999986828869
 30
0.0
 40
1.399999999999999
100
AcDbArc
 50
180.0
 51
270.0
  0
ARC
  5
3CE9
330
1A
100
AcDbEntity
  8
ZUWAKU
100
AcDbCircle
 10
17.59221216833714
 20
22.72499986828868
 30
0.0
 40
0.525
100
AcDbArc
 50
0.0
 51
90.0
  0
ARC
  5
3CEA
330
1A
100
AcDbEntity
  8
ZUWAKU
100
AcDbCircle
 10
17.59221216833714
 20
20.97499986828868
 30
0.0
 40
0.525
100
AcDbArc
 50
270.0
 51
0.0
  0
LINE
  5
3CEB
330
1A
100
AcDbEntity
  8
ZUWAKU
100
AcDbLine
 10
14.09221216833714
 20
23.24999986828868
 30
0.0
 11
17.59221216833714
 21
23.24999986828868
 31
0.0
  0
ARC
  5
3CEC
330
1A
100
AcDbEntity
  8
ZUWAKU
100
AcDbCircle
 10
14.61721216833711
 20
19.92499986828868
 30
0.0
 40
0.525
100
AcDbArc
 50
90.0
 51
180.0
  0
LINE
  5
3CED
330
1A
100
AcDbEntity
  8
ZUWAKU
100
AcDbLine
 10
14.09221216833714
 20
19.92499986828868
 30
0.0
 11
14.09221216833714
 21
18.63479784293334
 31
0.0
  0
LINE
  5
3CEE
330
1A
100
AcDbEntity
  8
ZUWAKU
100
AcDbLine
 10
17.59221216833714
 20
20.44999986828868
 30
0.0
 11
14.61721216833711
 21
20.44999986828868
 31
0.0
  0
LINE
  5
3CEF
330
1A
100
AcDbEntity
  8
ZUWAKU
100
AcDbLine
 10
11.29221216833718
 20
20.44999986828868
 30
0.0
 11
11.29221216833718
 21
18.63479784293334
 31
0.0
  0
ARC
  5
3CF0
330
1A
100
AcDbEntity
  8
ZUWAKU
100
AcDbCircle
 10
14.09221216833714
 20
20.44999986828868
 30
0.0
 40
2.799999999999999
100
AcDbArc
 50
90.0
 51
180.0
  0
LINE
  5
3CF1
330
1A
100
AcDbEntity
  8
ZUWAKU
100
AcDbLine
 10
18.11721216833712
 20
22.72499986828868
 30
0.0
 11
18.11721216833712
 21
20.97499986828868
 31
0.0
  0
ARC
  5
3CF2
330
1A
100
AcDbEntity
  8
ZUWAKU
100
AcDbCircle
 10
24.94221216833716
 20
19.04999986828868
 30
0.0
 40
1.399999999999999
100
AcDbArc
 50
90.0
 51
180.0
  0
ARC
  5
3CF3
330
1A
100
AcDbEntity
  8
ZUWAKU
100
AcDbCircle
 10
24.94221216833716
 20
19.04999986828864
 30
0.0
 40
4.199999999999998
100
AcDbArc
 50
90.0
 51
180.0
  0
LINE
  5
3CF4
330
1A
100
AcDbEntity
  8
ZUWAKU
100
AcDbLine
 10
79.32662956154422
 20
29.99999986828868
 30
0.0
 11
79.32662956154445
 21
0.7999998682887508
 31
0.0
  0
LINE
  5
3CF5
330
1A
100
AcDbEntity
  8
ZUWAKU
100
AcDbLine
 10
79.52662956154427
 20
29.99999986828868
 30
0.0
 11
79.52662956154448
 21
0.7999998682887508
 31
0.0
  0
LINE
  5
3CF6
330
1A
100
AcDbEntity
  8
ZUWAKU
100
AcDbLine
 10
79.12662956154441
 20
29.99999986828868
 30
0.0
 11
79.12662956154441
 21
0.7999998682887508
 31
0.0
  0
LINE
  5
3CF7
330
1A
100
AcDbEntity
  8
ZUWAKU
100
AcDbLine
 10
64.14221216833721
 20
9.949999868288684
 30
0.0
 11
64.14221216833721
 21
22.72499986828868
 31
0.0
  0
LINE
  5
3CF8
330
1A
100
AcDbEntity
  8
ZUWAKU
100
AcDbLine
 10
61.34221216833714
 20
22.72499986828868
 30
0.0
 11
61.34221216833714
 21
10.99999986828868
 31
0.0
  0
LINE
  5
3CF9
330
1A
100
AcDbEntity
  8
ZUWAKU
100
AcDbLine
 10
69.04221216833719
 20
7.674999868288686
 30
0.0
 11
69.04221216833719
 21
22.72499986828868
 31
0.0
  0
LINE
  5
3CFA
330
1A
100
AcDbEntity
  8
ZUWAKU
100
AcDbLine
 10
66.24221216833712
 20
22.72499986828868
 30
0.0
 11
66.24221216833712
 21
7.674999868288686
 31
0.0
  0
ARC
  5
3CFB
330
1A
100
AcDbEntity
  8
ZUWAKU
100
AcDbCircle
 10
49.79221216833718
 20
18.63479784293338
 30
0.0
 40
1.399999999999999
100
AcDbArc
 50
180.0000000000016
 51
224.9999999999988
  0
ARC
  5
3CFC
330
1A
100
AcDbEntity
  8
ZUWAKU
100
AcDbCircle
 10
49.79221216833718
 20
18.63479784293338
 30
0.0
 40
4.199999999999998
100
AcDbArc
 50
180.0
 51
225.0
  0
LINE
  5
3CFD
330
1A
100
AcDbEntity
  8
ZUWAKU
100
AcDbLine
 10
37.31485865051513
 20
19.20504706185211
 30
0.0
 11
36.05010690517929
 21
15.1999998682887
 31
0.0
  0
LINE
  5
3CFE
330
1A
100
AcDbEntity
  8
ZUWAKU
100
AcDbLine
 10
40.69221216833716
 20
22.72499986828868
 30
0.0
 11
40.69221216833716
 21
7.674999868288686
 31
0.0
  0
LINE
  5
3CFF
330
1A
100
AcDbEntity
  8
ZUWAKU
100
AcDbLine
 10
43.49221216833711
 20
7.674999868288686
 30
0.0
 11
43.49221216833711
 21
22.72499986828868
 31
0.0
  0
LINE
  5
3D00
330
1A
100
AcDbEntity
  8
ZUWAKU
100
AcDbLine
 10
55.04221216833718
 20
22.72499986828868
 30
0.0
 11
55.04221216833718
 21
9.949999868288684
 31
0.0
  0
LINE
  5
3D01
330
1A
100
AcDbEntity
  8
ZUWAKU
100
AcDbLine
 10
57.84221216833714
 20
10.99999986828868
 30
0.0
 11
57.84221216833714
 21
22.72499986828868
 31
0.0
  0
LINE
  5
3D02
330
1A
100
AcDbEntity
  8
ZUWAKU
100
AcDbLine
 10
32.64221216833721
 20
17.12499986828869
 30
0.0
 11
32.64221216833721
 21
22.72499986828868
 31
0.0
  0
LINE
  5
3D03
330
1A
100
AcDbEntity
  8
ZUWAKU
100
AcDbLine
 10
29.84221216833714
 20
22.72499986828868
 30
0.0
 11
29.84221216833714
 21
7.674999868288686
 31
0.0
  0
LINE
  5
3D04
330
1A
100
AcDbEntity
  8
ZUWAKU
100
AcDbLine
 10
35.676347105653
 20
22.88309383645565
 30
0.0
 11
33.80807723102122
 21
16.96690590012171
 31
0.0
  0
LINE
  5
3D05
330
1A
100
AcDbEntity
  8
ZUWAKU
100
AcDbLine
 10
60.29221216833718
 20
9.949999868288684
 30
0.0
 11
58.89221216833721
 21
9.949999868288684
 31
0.0
  0
LINE
  5
3D06
330
1A
100
AcDbEntity
  8
ZUWAKU
100
AcDbLine
 10
57.84221216833714
 20
7.149999868288687
 30
0.0
 11
61.34221216833714
 21
7.149999868288687
 31
0.0
  0
LINE
  5
3D07
330
1A
100
AcDbEntity
  8
ZUWAKU
100
AcDbLine
 10
41.21721216833714
 20
7.149999868288687
 30
0.0
 11
42.96721216833714
 21
7.149999868288687
 31
0.0
  0
LINE
  5
3D08
330
1A
100
AcDbEntity
  8
ZUWAKU
100
AcDbLine
 10
35.676347105653
 20
7.516905900121713
 30
0.0
 11
33.80807723102122
 21
13.43309383645565
 31
0.0
  0
ARC
  5
3D09
330
1A
100
AcDbEntity
  8
ZUWAKU
100
AcDbCircle
 10
33.30744633182587
 20
17.12499986828869
 30
0.0
 40
0.525
100
AcDbArc
 50
270.0
 51
342.474431626277
  0
LINE
  5
3D0A
330
1A
100
AcDbEntity
  8
ZUWAKU
100
AcDbLine
 10
33.30744633182587
 20
16.59999986828868
 30
0.0
 11
33.16721216833718
 21
16.59999986828868
 31
0.0
  0
LINE
  5
3D0B
330
1A
100
AcDbEntity
  8
ZUWAKU
100
AcDbLine
 10
33.16721216833718
 20
13.79999986828868
 30
0.0
 11
33.30744633182587
 21
13.79999986828868
 31
0.0
  0
ARC
  5
3D0C
330
1A
100
AcDbEntity
  8
ZUWAKU
100
AcDbCircle
 10
33.16721216833718
 20
17.12499986828869
 30
0.0
 40
0.525
100
AcDbArc
 50
180.0
 51
270.0
  0
LINE
  5
3D0D
330
1A
100
AcDbEntity
  8
ZUWAKU
100
AcDbLine
 10
30.36721216833711
 20
7.149999868288687
 30
0.0
 11
32.11721216833712
 21
7.149999868288687
 31
0.0
  0
ARC
  5
3D0E
330
1A
100
AcDbEntity
  8
ZUWAKU
100
AcDbCircle
 10
32.11721216833712
 20
7.674999868288686
 30
0.0
 40
0.525
100
AcDbArc
 50
270.0
 51
0.0
  0
LINE
  5
3D0F
330
1A
100
AcDbEntity
  8
ZUWAKU
100
AcDbLine
 10
32.64221216833721
 20
7.674999868288686
 30
0.0
 11
32.64221216833721
 21
13.27499986828868
 31
0.0
  0
LINE
  5
3D10
330
1A
100
AcDbEntity
  8
ZUWAKU
100
AcDbLine
 10
27.39221216833721
 20
9.424999868288685
 30
0.0
 11
27.39221216833721
 21
7.674999868288686
 31
0.0
  0
ARC
  5
3D11
330
1A
100
AcDbEntity
  8
ZUWAKU
100
AcDbCircle
 10
26.86721216833712
 20
7.674999868288686
 30
0.0
 40
0.525
100
AcDbArc
 50
270.0
 51
0.0
  0
ARC
  5
3D12
330
1A
100
AcDbEntity
  8
ZUWAKU
100
AcDbCircle
 10
26.86721216833712
 20
9.424999868288685
 30
0.0
 40
0.525
100
AcDbArc
 50
0.0
 51
90.0
  0
ARC
  5
3D13
330
1A
100
AcDbEntity
  8
ZUWAKU
100
AcDbCircle
 10
30.36721216833711
 20
7.674999868288686
 30
0.0
 40
0.525
100
AcDbArc
 50
180.0
 51
270.0
  0
ARC
  5
3D14
330
1A
100
AcDbEntity
  8
ZUWAKU
100
AcDbCircle
 10
33.30744633182587
 20
13.27499986828868
 30
0.0
 40
0.525
100
AcDbArc
 50
17.52556837372303
 51
90.0
  0
ARC
  5
3D15
330
1A
100
AcDbEntity
  8
ZUWAKU
100
AcDbCircle
 10
33.16721216833718
 20
13.27499986828868
 30
0.0
 40
0.525
100
AcDbArc
 50
90.0
 51
180.0
  0
ARC
  5
3D16
330
1A
100
AcDbEntity
  8
ZUWAKU
100
AcDbCircle
 10
41.21721216833714
 20
7.674999868288686
 30
0.0
 40
0.525
100
AcDbArc
 50
180.0
 51
270.0
  0
LINE
  5
3D17
330
1A
100
AcDbEntity
  8
ZUWAKU
100
AcDbLine
 10
36.17697800484847
 20
7.149999868288687
 30
0.0
 11
37.87586738445748
 21
7.149999868288687
 31
0.0
  0
ARC
  5
3D18
330
1A
100
AcDbEntity
  8
ZUWAKU
100
AcDbCircle
 10
37.87586738445748
 20
7.674999868288686
 30
0.0
 40
0.525
100
AcDbArc
 50
270.0
 51
17.52556837372303
  0
LINE
  5
3D19
330
1A
100
AcDbEntity
  8
ZUWAKU
100
AcDbLine
 10
38.37649828365296
 20
7.83309383645566
 30
0.0
 11
36.05010690517929
 21
15.1999998682887
 31
0.0
  0
ARC
  5
3D1A
330
1A
100
AcDbEntity
  8
ZUWAKU
100
AcDbCircle
 10
36.17697800484847
 20
7.674999868288686
 30
0.0
 40
0.525
100
AcDbArc
 50
197.525568373723
 51
270.0
  0
ARC
  5
3D1B
330
1A
100
AcDbEntity
  8
ZUWAKU
100
AcDbCircle
 10
57.84221216833714
 20
9.949999868288684
 30
0.0
 40
2.799999999999999
100
AcDbArc
 50
180.0
 51
270.0
  0
ARC
  5
3D1C
330
1A
100
AcDbEntity
  8
ZUWAKU
100
AcDbCircle
 10
50.14221216833721
 20
9.949999868288684
 30
0.0
 40
2.799999999999999
100
AcDbArc
 50
270.0
 51
0.0
  0
LINE
  5
3D1D
330
1A
100
AcDbEntity
  8
ZUWAKU
100
AcDbLine
 10
51.71206064932073
 20
14.73505037462751
 30
0.0
 11
48.80226267467595
 21
17.64484834927218
 31
0.0
  0
LINE
  5
3D1E
330
1A
100
AcDbEntity
  8
ZUWAKU
100
AcDbLine
 10
50.14221216833721
 20
10.47499986828869
 30
0.0
 11
50.14221216833721
 21
11.76520189364403
 31
0.0
  0
ARC
  5
3D1F
330
1A
100
AcDbEntity
  8
ZUWAKU
100
AcDbCircle
 10
48.74221216833712
 20
11.76520189364403
 30
0.0
 40
1.399999999999999
100
AcDbArc
 50
0.0
 51
45.0
  0
ARC
  5
3D20
330
1A
100
AcDbEntity
  8
ZUWAKU
100
AcDbCircle
 10
49.61721216833712
 20
10.47499986828869
 30
0.0
 40
0.525
100
AcDbArc
 50
270.0
 51
0.0
  0
LINE
  5
3D21
330
1A
100
AcDbEntity
  8
ZUWAKU
100
AcDbLine
 10
46.11721216833712
 20
7.674999868288686
 30
0.0
 11
46.11721216833712
 21
9.424999868288685
 31
0.0
  0
ARC
  5
3D22
330
1A
100
AcDbEntity
  8
ZUWAKU
100
AcDbCircle
 10
46.64221216833721
 20
7.674999868288686
 30
0.0
 40
0.525
100
AcDbArc
 50
180.0
 51
270.0
  0
ARC
  5
3D23
330
1A
100
AcDbEntity
  8
ZUWAKU
100
AcDbCircle
 10
42.96721216833714
 20
7.674999868288686
 30
0.0
 40
0.525
100
AcDbArc
 50
270.0
 51
0.0
  0
ARC
  5
3D24
330
1A
100
AcDbEntity
  8
ZUWAKU
100
AcDbCircle
 10
46.64221216833721
 20
9.424999868288685
 30
0.0
 40
0.525
100
AcDbArc
 50
90.0
 51
180.0
  0
LINE
  5
3D25
330
1A
100
AcDbEntity
  8
ZUWAKU
100
AcDbLine
 10
46.64221216833721
 20
9.949999868288684
 30
0.0
 11
49.61721216833712
 21
9.949999868288684
 31
0.0
  0
LINE
  5
3D26
330
1A
100
AcDbEntity
  8
ZUWAKU
100
AcDbLine
 10
46.64221216833721
 20
7.149999868288687
 30
0.0
 11
50.14221216833721
 21
7.149999868288687
 31
0.0
  0
LINE
  5
3D27
330
1A
100
AcDbEntity
  8
ZUWAKU
100
AcDbLine
 10
46.82236368735368
 20
15.66494936194986
 30
0.0
 11
49.73216166199835
 21
12.7551513873052
 31
0.0
  0
LINE
  5
3D28
330
1A
100
AcDbEntity
  8
ZUWAKU
100
AcDbLine
 10
52.94221216833716
 20
9.949999868288684
 30
0.0
 11
52.94221216833716
 21
11.76520189364403
 31
0.0
  0
ARC
  5
3D29
330
1A
100
AcDbEntity
  8
ZUWAKU
100
AcDbCircle
 10
48.74221216833712
 20
11.76520189364399
 30
0.0
 40
4.199999999999998
100
AcDbArc
 50
0.0
 51
45.0
  0
ARC
  5
3D2A
330
1A
100
AcDbEntity
  8
ZUWAKU
100
AcDbCircle
 10
58.89221216833721
 20
10.99999986828868
 30
0.0
 40
1.049999999999999
100
AcDbArc
 50
180.0
 51
270.0
  0
ARC
  5
3D2B
330
1A
100
AcDbEntity
  8
ZUWAKU
100
AcDbCircle
 10
61.34221216833714
 20
9.949999868288684
 30
0.0
 40
2.799999999999999
100
AcDbArc
 50
270.0
 51
0.0
  0
LINE
  5
3D2C
330
1A
100
AcDbEntity
  8
ZUWAKU
100
AcDbLine
 10
66.76721216833721
 20
7.149999868288687
 30
0.0
 11
68.51721216833721
 21
7.149999868288687
 31
0.0
  0
ARC
  5
3D2D
330
1A
100
AcDbEntity
  8
ZUWAKU
100
AcDbCircle
 10
66.76721216833721
 20
7.674999868288686
 30
0.0
 40
0.525
100
AcDbArc
 50
180.0
 51
270.0
  0
ARC
  5
3D2E
330
1A
100
AcDbEntity
  8
ZUWAKU
100
AcDbCircle
 10
60.29221216833718
 20
10.99999986828868
 30
0.0
 40
1.049999999999999
100
AcDbArc
 50
270.0
 51
0.0
  0
ARC
  5
3D2F
330
1A
100
AcDbEntity
  8
ZUWAKU
100
AcDbCircle
 10
68.51721216833721
 20
7.674999868288686
 30
0.0
 40
0.525
100
AcDbArc
 50
270.0
 51
0.0
  0
LINE
  5
3D30
330
1A
100
AcDbEntity
  8
ZUWAKU
100
AcDbLine
 10
42.96721216833714
 20
23.24999986828868
 30
0.0
 11
41.21721216833714
 21
23.24999986828868
 31
0.0
  0
ARC
  5
3D31
330
1A
100
AcDbEntity
  8
ZUWAKU
100
AcDbCircle
 10
32.11721216833712
 20
22.72499986828868
 30
0.0
 40
0.525
100
AcDbArc
 50
0.0
 51
90.0
  0
LINE
  5
3D32
330
1A
100
AcDbEntity
  8
ZUWAKU
100
AcDbLine
 10
32.11721216833712
 20
23.24999986828868
 30
0.0
 11
30.36721216833711
 21
23.24999986828868
 31
0.0
  0
ARC
  5
3D33
330
1A
100
AcDbEntity
  8
ZUWAKU
100
AcDbCircle
 10
26.86721216833712
 20
22.72499986828868
 30
0.0
 40
0.525
100
AcDbArc
 50
0.0
 51
90.0
  0
ARC
  5
3D34
330
1A
100
AcDbEntity
  8
ZUWAKU
100
AcDbCircle
 10
30.36721216833711
 20
22.72499986828868
 30
0.0
 40
0.525
100
AcDbArc
 50
90.0
 51
180.0
  0
ARC
  5
3D35
330
1A
100
AcDbEntity
  8
ZUWAKU
100
AcDbCircle
 10
26.86721216833712
 20
20.97499986828868
 30
0.0
 40
0.525
100
AcDbArc
 50
270.0
 51
0.0
  0
LINE
  5
3D36
330
1A
100
AcDbEntity
  8
ZUWAKU
100
AcDbLine
 10
27.39221216833721
 20
22.72499986828868
 30
0.0
 11
27.39221216833721
 21
20.97499986828868
 31
0.0
  0
ARC
  5
3D37
330
1A
100
AcDbEntity
  8
ZUWAKU
100
AcDbCircle
 10
41.21721216833714
 20
22.72499986828868
 30
0.0
 40
0.525
100
AcDbArc
 50
90.0
 51
180.0
  0
LINE
  5
3D38
330
1A
100
AcDbEntity
  8
ZUWAKU
100
AcDbLine
 10
36.17697800484847
 20
23.24999986828868
 30
0.0
 11
37.87586738445748
 21
23.24999986828868
 31
0.0
  0
ARC
  5
3D39
330
1A
100
AcDbEntity
  8
ZUWAKU
100
AcDbCircle
 10
37.87586738445748
 20
22.72499986828868
 30
0.0
 40
0.525
100
AcDbArc
 50
342.474431626277
 51
90.0
  0
LINE
  5
3D3A
330
1A
100
AcDbEntity
  8
ZUWAKU
100
AcDbLine
 10
38.37649828365296
 20
22.56690590012171
 30
0.0
 11
37.31485865051513
 21
19.20504706185211
 31
0.0
  0
ARC
  5
3D3B
330
1A
100
AcDbEntity
  8
ZUWAKU
100
AcDbCircle
 10
36.17697800484847
 20
22.72499986828868
 30
0.0
 40
0.525
100
AcDbArc
 50
90.0
 51
162.4744316262769
  0
LINE
  5
3D3C
330
1A
100
AcDbEntity
  8
ZUWAKU
100
AcDbLine
 10
48.3922121683372
 20
23.24999986828868
 30
0.0
 11
51.89221216833721
 21
23.24999986828868
 31
0.0
  0
LINE
  5
3D3D
330
1A
100
AcDbEntity
  8
ZUWAKU
100
AcDbLine
 10
51.89221216833721
 20
20.44999986828868
 30
0.0
 11
48.91721216833718
 21
20.44999986828868
 31
0.0
  0
ARC
  5
3D3E
330
1A
100
AcDbEntity
  8
ZUWAKU
100
AcDbCircle
 10
48.91721216833718
 20
19.92499986828868
 30
0.0
 40
0.525
100
AcDbArc
 50
90.0
 51
180.0
  0
LINE
  5
3D3F
330
1A
100
AcDbEntity
  8
ZUWAKU
100
AcDbLine
 10
48.3922121683372
 20
19.92499986828868
 30
0.0
 11
48.3922121683372
 21
18.63479784293334
 31
0.0
  0
ARC
  5
3D40
330
1A
100
AcDbEntity
  8
ZUWAKU
100
AcDbCircle
 10
42.96721216833714
 20
22.72499986828868
 30
0.0
 40
0.525
100
AcDbArc
 50
0.0
 51
90.0
  0
LINE
  5
3D41
330
1A
100
AcDbEntity
  8
ZUWAKU
100
AcDbLine
 10
45.59221216833714
 20
20.44999986828868
 30
0.0
 11
45.59221216833714
 21
18.63479784293334
 31
0.0
  0
ARC
  5
3D42
330
1A
100
AcDbEntity
  8
ZUWAKU
100
AcDbCircle
 10
48.3922121683372
 20
20.44999986828868
 30
0.0
 40
2.799999999999999
100
AcDbArc
 50
90.0
 51
180.0
  0
ARC
  5
3D43
330
1A
100
AcDbEntity
  8
ZUWAKU
100
AcDbCircle
 10
57.31721216833716
 20
22.72499986828868
 30
0.0
 40
0.525
100
AcDbArc
 50
0.0
 51
90.0
  0
ARC
  5
3D44
330
1A
100
AcDbEntity
  8
ZUWAKU
100
AcDbCircle
 10
55.56721216833716
 20
22.72499986828868
 30
0.0
 40
0.525
100
AcDbArc
 50
90.0
 51
180.0
  0
LINE
  5
3D45
330
1A
100
AcDbEntity
  8
ZUWAKU
100
AcDbLine
 10
57.31721216833716
 20
23.24999986828868
 30
0.0
 11
55.56721216833716
 21
23.24999986828868
 31
0.0
  0
ARC
  5
3D46
330
1A
100
AcDbEntity
  8
ZUWAKU
100
AcDbCircle
 10
51.89221216833721
 20
22.72499986828868
 30
0.0
 40
0.525
100
AcDbArc
 50
0.0
 51
90.0
  0
ARC
  5
3D47
330
1A
100
AcDbEntity
  8
ZUWAKU
100
AcDbCircle
 10
51.89221216833721
 20
20.97499986828868
 30
0.0
 40
0.525
100
AcDbArc
 50
270.0
 51
0.0
  0
LINE
  5
3D48
330
1A
100
AcDbEntity
  8
ZUWAKU
100
AcDbLine
 10
52.41721216833718
 20
22.72499986828868
 30
0.0
 11
52.41721216833718
 21
20.97499986828868
 31
0.0
  0
LINE
  5
3D49
330
1A
100
AcDbEntity
  8
ZUWAKU
100
AcDbLine
 10
68.51721216833721
 20
23.24999986828868
 30
0.0
 11
66.76721216833721
 21
23.24999986828868
 31
0.0
  0
ARC
  5
3D4A
330
1A
100
AcDbEntity
  8
ZUWAKU
100
AcDbCircle
 10
66.76721216833721
 20
22.72499986828868
 30
0.0
 40
0.525
100
AcDbArc
 50
90.0
 51
180.0
  0
ARC
  5
3D4B
330
1A
100
AcDbEntity
  8
ZUWAKU
100
AcDbCircle
 10
63.61721216833712
 20
22.72499986828868
 30
0.0
 40
0.525
100
AcDbArc
 50
0.0
 51
90.0
  0
LINE
  5
3D4C
330
1A
100
AcDbEntity
  8
ZUWAKU
100
AcDbLine
 10
63.61721216833712
 20
23.24999986828868
 30
0.0
 11
61.86721216833712
 21
23.24999986828868
 31
0.0
  0
ARC
  5
3D4D
330
1A
100
AcDbEntity
  8
ZUWAKU
100
AcDbCircle
 10
61.86721216833712
 20
22.72499986828868
 30
0.0
 40
0.525
100
AcDbArc
 50
90.0
 51
180.0
  0
ARC
  5
3D4E
330
1A
100
AcDbEntity
  8
ZUWAKU
100
AcDbCircle
 10
68.51721216833721
 20
22.72499986828868
 30
0.0
 40
0.525
100
AcDbArc
 50
0.0
 51
90.0
  0
TEXT
  5
3D4F
330
1A
100
AcDbEntity
  8
MOJI
100
AcDbText
 10
239.827202694407
 20
18.00492092569607
 30
0.0
 40
5.599999999999999
  1
ブラケット正面打（吊）
 41
0.9
  7
ｽﾀｲﾙ1
100
AcDbText
  0
TEXT
  5
3D50
330
1A
100
AcDbEntity
  8
MOJI
100
AcDbText
 10
239.827202694407
 20
3.204920925696104
 30
0.0
 40
5.599999999999999
  1
ＶＭ１２０・Σ９０（Ⅲ）－５－１０～４５
 41
0.9
  7
ｽﾀｲﾙ1
100
AcDbText
  0
LINE
  5
3D51
330
1A
100
AcDbEntity
  8
ZUWAKU
100
AcDbLine
 10
208.2466013036239
 20
29.99999986828868
 30
0.0
 11
208.2466013036239
 21
0.7999998682887508
 31
0.0
  0
LINE
  5
3D52
330
1A
100
AcDbEntity
  8
ZUWAKU
100
AcDbLine
 10
208.6466013036238
 20
29.99999986828868
 30
0.0
 11
208.646601303624
 21
0.7999998682887508
 31
0.0
  0
LINE
  5
3D53
330
1A
100
AcDbEntity
  8
ZUWAKU
100
AcDbLine
 10
208.4466013036237
 20
29.99999986828868
 30
0.0
 11
208.446601303624
 21
0.7999998682887508
 31
0.0
  0
TEXT
  5
3D54
330
1A
100
AcDbEntity
  8
ZUWAKU
100
AcDbText
 10
209.7240463258335
 20
9.655356406674301
 30
0.0
 40
4.0
  1
サイズ
 41
0.9
  7
ｽﾀｲﾙ1
100
AcDbText
  0
TEXT
  5
3D55
330
1A
100
AcDbEntity
  8
ZUWAKU
100
AcDbText
 10
209.7240463258333
 20
24.05535640667426
 30
0.0
 40
4.0
  1
品名
 41
0.9
  7
ｽﾀｲﾙ1
100
AcDbText
  0
LINE
  5
3D56
330
1A
100
AcDbEntity
  8
ZUWAKU
100
AcDbLine
 10
648.8172025237602
 20
15.19999986828871
 30
0.0
 11
697.2490105620973
 21
15.19999986828871
 31
0.0
  0
LINE
  5
3D57
330
1A
100
AcDbEntity
  8
ZUWAKU
100
AcDbLine
 10
648.8172025237603
 20
15.39999986828872
 30
0.0
 11
697.2490105620973
 21
15.39999986828871
 31
0.0
  0
LINE
  5
3D58
330
1A
100
AcDbEntity
  8
ZUWAKU
100
AcDbLine
 10
648.8172025237602
 20
15.59999986828871
 30
0.0
 11
697.2490105620973
 21
15.59999986828871
 31
0.0
  0
TEXT
  5
3D59
330
1A
100
AcDbEntity
  8
ZUWAKU
100
AcDbText
 10
658.2039377008584
 20
18.00492092569607
 30
0.0
 40
5.599999999999999
  1
　　．　　．　　
 41
0.9
  7
ｽﾀｲﾙ1
100
AcDbText
  0
LINE
  5
3D5A
330
1A
100
AcDbEntity
  8
ZUWAKU
100
AcDbLine
 10
505.1991795116968
 20
15.19999986828872
 30
0.0
 11
552.5269557796685
 21
15.19999986828872
 31
0.0
  0
LINE
  5
3D5B
330
1A
100
AcDbEntity
  8
ZUWAKU
100
AcDbLine
 10
505.1991795116968
 20
15.39999986828871
 30
0.0
 11
552.5269557796685
 21
15.39999986828871
 31
0.0
  0
LINE
  5
3D5C
330
1A
100
AcDbEntity
  8
ZUWAKU
100
AcDbLine
 10
505.1991795116968
 20
15.59999986828871
 30
0.0
 11
552.5269557796685
 21
15.59999986828871
 31
0.0
  0
TEXT
  5
3D5D
330
1A
100
AcDbEntity
  8
MOJI
100
AcDbText
 10
463.246432004558
 20
11.94261758994866
 30
0.0
 40
5.599999999999999
  1
ＬＭ６５Ｔ
 41
0.9
  7
ｽﾀｲﾙ1
100
AcDbText
  0
LINE
  5
3D5E
330
1A
100
AcDbEntity
  8
ZUWAKU
100
AcDbLine
 10
447.6243639845472
 20
29.99999986828868
 30
0.0
 11
447.6243639845474
 21
0.7999998682887508
 31
0.0
  0
LINE
  5
3D5F
330
1A
100
AcDbEntity
  8
ZUWAKU
100
AcDbLine
 10
447.8243639845472
 20
29.99999986828868
 30
0.0
 11
447.8243639845475
 21
0.7999998682887508
 31
0.0
  0
LINE
  5
3D60
330
1A
100
AcDbEntity
  8
ZUWAKU
100
AcDbLine
 10
447.4243639845474
 20
29.99999986828868
 30
0.0
 11
447.4243639845474
 21
0.7999998682887508
 31
0.0
  0
TEXT
  5
3D61
330
1A
100
AcDbEntity
  8
MOJI
100
AcDbText
 10
528.0409079858689
 20
18.00492092569607
 30
0.0
 40
5.599999999999999
  1
Ａ３
 41
0.9
  7
ｽﾀｲﾙ1
100
AcDbText
  0
LINE
  5
3D62
330
1A
100
AcDbEntity
  8
ZUWAKU
100
AcDbLine
 10
504.9991795116969
 20
29.99999986828868
 30
0.0
 11
504.999179511697
 21
0.7999998682887508
 31
0.0
  0
LINE
  5
3D63
330
1A
100
AcDbEntity
  8
ZUWAKU
100
AcDbLine
 10
505.1991795116968
 20
29.99999986828868
 30
0.0
 11
505.1991795116971
 21
0.7999998682887508
 31
0.0
  0
LINE
  5
3D64
330
1A
100
AcDbEntity
  8
ZUWAKU
100
AcDbLine
 10
504.799179511697
 20
29.99999986828868
 30
0.0
 11
504.799179511697
 21
0.7999998682887508
 31
0.0
  0
TEXT
  5
3D66
330
1A
100
AcDbEntity
  8
ZUWAKU
100
AcDbText
 10
506.6766245339067
 20
9.655356406674301
 30
0.0
 40
4.0
  1
縮尺
 41
0.9
  7
ｽﾀｲﾙ1
100
AcDbText
  0
TEXT
  5
3D67
330
1A
100
AcDbEntity
  8
MOJI
100
AcDbText
 10
528.0409079858689
 20
3.204920925696104
 30
0.0
 40
5.599999999999999
  1
１/２
 41
0.9
  7
ｽﾀｲﾙ1
100
AcDbText
  0
TEXT
  5
3D68
330
1A
100
AcDbEntity
  8
ZUWAKU
100
AcDbText
 10
449.3018090067569
 20
24.05535640667426
 30
0.0
 40
4.0
  1
品番
 41
0.9
  7
ｽﾀｲﾙ1
100
AcDbText
  0
TEXT
  5
3D69
330
1A
100
AcDbEntity
  8
ZUWAKU
100
AcDbText
 10
506.6766245339065
 20
24.05535640667426
 30
0.0
 40
4.0
  1
用紙
 41
0.9
  7
ｽﾀｲﾙ1
100
AcDbText
  0
LINE
  5
3D6A
330
1A
100
AcDbEntity
  8
ZUWAKU
100
AcDbLine
 10
648.6172025237602
 20
29.99999986828868
 30
0.0
 11
648.6172025237606
 21
0.7999998682887508
 31
0.0
  0
LINE
  5
3D6B
330
1A
100
AcDbEntity
  8
ZUWAKU
100
AcDbLine
 10
648.8172025237603
 20
29.99999986828868
 30
0.0
 11
648.8172025237608
 21
0.7999998682887508
 31
0.0
  0
LINE
  5
3D6C
330
1A
100
AcDbEntity
  8
ZUWAKU
100
AcDbLine
 10
648.4172025237606
 20
29.99999986828868
 30
0.0
 11
648.4172025237606
 21
0.7999998682887508
 31
0.0
  0
LINE
  5
3D6D
330
1A
100
AcDbEntity
  8
ZUWAKU
100
AcDbLine
 10
552.7269557796684
 20
29.99999986828868
 30
0.0
 11
552.7269557796684
 21
0.7999998682887508
 31
0.0
  0
LINE
  5
3D6E
330
1A
100
AcDbEntity
  8
ZUWAKU
100
AcDbLine
 10
552.9269557796683
 20
29.99999986828868
 30
0.0
 11
552.9269557796685
 21
0.7999998682887508
 31
0.0
  0
LINE
  5
3D6F
330
1A
100
AcDbEntity
  8
ZUWAKU
100
AcDbLine
 10
552.5269557796685
 20
29.99999986828868
 30
0.0
 11
552.5269557796685
 21
0.7999998682887508
 31
0.0
  0
TEXT
  5
3D70
330
1A
100
AcDbEntity
  8
ZUWAKU
100
AcDbText
 10
650.29464754597
 20
24.05535640667426
 30
0.0
 40
4.0
  1
DATE
 41
0.9
  7
ｽﾀｲﾙ1
100
AcDbText
  0
LINE
  5
3D71
330
1A
100
AcDbEntity
  8
ZUWAKU
100
AcDbLine
 10
697.2490105620973
 20
29.99999986828868
 30
0.0
 11
697.2490105620973
 21
0.7999998682887508
 31
0.0
  0
LINE
  5
3D72
330
1A
100
AcDbEntity
  8
ZUWAKU
100
AcDbLine
 10
697.4490105620973
 20
29.99999986828868
 30
0.0
 11
697.4490105620973
 21
0.7999998682887508
 31
0.0
  0
LINE
  5
3D73
330
1A
100
AcDbEntity
  8
ZUWAKU
100
AcDbLine
 10
697.6490105620972
 20
29.99999986828868
 30
0.0
 11
697.6490105620974
 21
0.7999998682887508
 31
0.0
  0
LINE
  5
3D74
330
1A
100
AcDbEntity
  8
ZUWAKU
100
AcDbLine
 10
697.8490105620973
 20
29.99999986828868
 30
0.0
 11
697.8490105620973
 21
0.7999998682887508
 31
0.0
  0
TEXT
  5
3D75
330
1A
100
AcDbEntity
  8
ZUWAKU
100
AcDbText
 10
708.5280842057997
 20
17.55383920397548
 30
0.0
 40
6.0
  1
積水化学工業株式会社
 41
0.9
  7
ｽﾀｲﾙ1
100
AcDbText
  0
TEXT
  5
3D76
330
1A
100
AcDbEntity
  8
ZUWAKU
100
AcDbText
 10
708.5280842057997
 20
6.648840182142748
 30
0.0
 40
6.0
  1
建材事業部
 41
0.9
  7
ｽﾀｲﾙ1
100
AcDbText
  0
VIEWPORT
  5
22
330
17
100
AcDbEntity
 67
     1
  8
0
100
AcDbViewport
 10
313.6808219178082
 20
148.5
 30
0.0
 40
627.3616438356165
 41
297.0
 68
     2
 69
     1
 12
313.6808219178082
 22
148.5
 13
0.0
 23
0.0
 14
1.0
 24
1.0
 15
10.0
 25
10.0
 16
0.0
 26
0.0
 36
1.0
 17
0.0
 27
0.0
 37
0.0
 42
50.0
 43
0.0
 44
0.0
 45
297.0
 50
0.0
 51
0.0
 72
   100
 90
    32896
  1

281
     0
 71
     1
 74
     0
110
0.0
120
0.0
130
0.0
111
1.0
121
0.0
131
0.0
112
0.0
122
1.0
132
0.0
 79
     0
146
0.0
  0
VIEWPORT
  5
64
330
17
100
AcDbEntity
 67
     1
  8
VIEWPORT
100
AcDbViewport
 10
210.0
 20
148.5
 30
0.0
 40
420.0
 41
297.0
 68
     1
 69
     2
 12
420.0
 22
297.0
 13
0.0
 23
0.0
 14
10.0
 24
10.0
 15
0.0
 25
0.0
 16
0.0
 26
0.0
 36
1.0
 17
0.0
 27
0.0
 37
0.0
 42
50.0
 43
0.0
 44
0.0
 45
605.8799999999998
 50
0.0
 51
0.0
 72
   100
 90
    32896
  1

281
     0
 71
     1
 74
     0
110
0.0
120
0.0
130
0.0
111
1.0
121
0.0
131
0.0
112
0.0
122
1.0
132
0.0
 79
     0
146
0.0
  0
ENDSEC
  0
SECTION
  2
OBJECTS
  0
DICTIONARY
  5
C
330
0
100
AcDbDictionary
281
     1
  3
ACAD_GROUP
350
D
  3
ACAD_LAYOUT
350
A98
  3
ACAD_MLINESTYLE
350
E
  3
ACAD_PLOTSETTINGS
350
A99
  3
ACAD_PLOTSTYLENAME
350
A96
  0
DICTIONARY
  5
D
102
{ACAD_REACTORS
330
C
102
}
330
C
100
AcDbDictionary
281
     1
  3
*A1
350
FA3
  3
*A2
350
1597
  3
*A3
350
179D
  3
*A4
350
3476
  3
*A5
350
385D
  0
DICTIONARY
  5
A98
102
{ACAD_REACTORS
330
C
102
}
330
C
100
AcDbDictionary
281
     1
  3
Model
350
3E5F
  3
ﾚｲｱｳﾄ1
350
3E60
  0
DICTIONARY
  5
E
102
{ACAD_REACTORS
330
C
102
}
330
C
100
AcDbDictionary
281
     1
  3
STANDARD
350
13
  0
DICTIONARY
  5
A99
102
{ACAD_REACTORS
330
C
102
}
330
C
100
AcDbDictionary
281
     1
  0
ACDBDICTIONARYWDFLT
  5
A96
102
{ACAD_REACTORS
330
C
102
}
330
C
100
AcDbDictionary
281
     1
  3
Normal
350
A97
100
AcDbDictionaryWithDefault
340
A97
1001
ACAD
1000
TREAT_AS_HARD
1070
     0
1000
TREAT_AS_HARD
1070
     0
1000
TREAT_AS_HARD
1070
     0
  0
GROUP
  5
FA3
102
{ACAD_REACTORS
330
D
102
}
330
D
100
AcDbGroup
300

 70
     1
 71
     1
  0
GROUP
  5
1597
102
{ACAD_REACTORS
330
D
102
}
330
D
100
AcDbGroup
300

 70
     1
 71
     1
  0
GROUP
  5
179D
102
{ACAD_REACTORS
330
D
102
}
330
D
100
AcDbGroup
300

 70
     1
 71
     1
  0
GROUP
  5
3476
102
{ACAD_REACTORS
330
D
102
}
330
D
100
AcDbGroup
300

 70
     1
 71
     1
  0
GROUP
  5
385D
102
{ACAD_REACTORS
330
D
102
}
330
D
100
AcDbGroup
300

 70
     1
 71
     1
  0
LAYOUT
  5
3E5F
102
{ACAD_REACTORS
330
A98
102
}
330
A98
100
AcDbPlotSettings
  1

  2
EPSON LP-9200C
  4

  6

 40
0.0
 41
0.0
 42
0.0
 43
0.0
 44
0.0
 45
0.0
 46
0.0
 47
0.0
 48
0.0
 49
0.0
140
0.0
141
0.0
142
1.0
143
1.0
 70
  1712
 72
     0
 73
     0
 74
     0
  7

 75
     0
147
1.0
148
0.0
149
0.0
100
AcDbLayout
  1
Model
 70
     1
 71
     0
 10
0.0
 20
0.0
 11
12.0
 21
9.0
 12
0.0
 22
0.0
 32
0.0
 14
0.0
 24
0.0
 34
0.0
 15
0.0
 25
0.0
 35
0.0
146
0.0
 13
0.0
 23
0.0
 33
0.0
 16
1.0
 26
0.0
 36
0.0
 17
0.0
 27
1.0
 37
0.0
 76
     0
330
1A
  0
LAYOUT
  5
3E60
102
{ACAD_REACTORS
330
A98
102
}
330
A98
100
AcDbPlotSettings
  1

  2
EPSON LP-9200C
  4

  6

 40
0.0
 41
0.0
 42
0.0
 43
0.0
 44
0.0
 45
0.0
 46
0.0
 47
0.0
 48
0.0
 49
0.0
140
0.0
141
0.0
142
1.0
143
1.0
 70
   688
 72
     0
 73
     0
 74
     5
  7

 75
    16
147
1.0
148
0.0
149
0.0
100
AcDbLayout
  1
ﾚｲｱｳﾄ1
 70
     1
 71
     1
 10
0.0
 20
0.0
 11
420.0
 21
297.0
 12
0.0
 22
0.0
 32
0.0
 14
0.0
 24
0.0
 34
0.0
 15
420.0
 25
297.0
 35
0.0
146
0.0
 13
0.0
 23
0.0
 33
0.0
 16
1.0
 26
0.0
 36
0.0
 17
0.0
 27
1.0
 37
0.0
 76
     0
330
17
331
64
  0
MLINESTYLE
  5
13
102
{ACAD_REACTORS
330
E
102
}
330
E
100
AcDbMlineStyle
  2
STANDARD
 70
     0
  3

 62
     0
 51
90.0
 52
90.0
 71
     2
 49
0.5
 62
   256
  6
BYLAYER
 49
-0.5
 62
   256
  6
BYLAYER
  0
ACDBPLACEHOLDER
  5
A97
102
{ACAD_REACTORS
330
A96
102
}
330
A96
  0
ENDSEC
  0
EOF
