  0
SECTION
  2
HEADER
  9
$ACADVER
  1
AC1015
  9
$ACADMAINTVER
 70
     6
  9
$DWGCODEPAGE
  3
ANSI_932
  9
$INSBASE
 10
0.0
 20
0.0
 30
0.0
  9
$EXTMIN
 10
-0.0000004049029485
 20
0.0000003755800435
 30
0.0
  9
$EXTMAX
 10
797.5999995950972
 20
551.6000003755802
 30
0.0
  9
$LIMMIN
 10
0.0
 20
0.0
  9
$LIMMAX
 10
840.0
 20
594.0
  9
$ORTHOMODE
 70
     0
  9
$REGENMODE
 70
     1
  9
$FILLMODE
 70
     1
  9
$QTEXTMODE
 70
     0
  9
$MIRRTEXT
 70
     1
  9
$LTSCALE
 40
2.0
  9
$ATTMODE
 70
     1
  9
$TEXTSIZE
 40
6.0
  9
$TRACEWID
 40
1.0
  9
$TEXTSTYLE
  7
STANDARD
  9
$CLAYER
  8
SUNPOU
  9
$CELTYPE
  6
BYLAYER
  9
$CECOLOR
 62
   256
  9
$CELTSCALE
 40
1.0
  9
$DISPSILH
 70
     0
  9
$DIMSCALE
 40
1.0
  9
$DIMASZ
 40
7.0
  9
$DIMEXO
 40
6.0
  9
$DIMDLI
 40
14.0
  9
$DIMRND
 40
0.0
  9
$DIMDLE
 40
0.0
  9
$DIMEXE
 40
3.0
  9
$DIMTP
 40
0.0
  9
$DIMTM
 40
0.0
  9
$DIMTXT
 40
6.0
  9
$DIMCEN
 40
150.0
  9
$DIMTSZ
 40
0.0
  9
$DIMTOL
 70
     0
  9
$DIMLIM
 70
     0
  9
$DIMTIH
 70
     0
  9
$DIMTOH
 70
     0
  9
$DIMSE1
 70
     0
  9
$DIMSE2
 70
     0
  9
$DIMTAD
 70
     3
  9
$DIMZIN
 70
     0
  9
$DIMBLK
  1

  9
$DIMASO
 70
     1
  9
$DIMSHO
 70
     1
  9
$DIMPOST
  1

  9
$DIMAPOST
  1

  9
$DIMALT
 70
     0
  9
$DIMALTD
 70
     2
  9
$DIMALTF
 40
25.4
  9
$DIMLFAC
 40
1.0
  9
$DIMTOFL
 70
     1
  9
$DIMTVP
 40
0.0
  9
$DIMTIX
 70
     0
  9
$DIMSOXD
 70
     0
  9
$DIMSAH
 70
     1
  9
$DIMBLK1
  1
OPEN
  9
$DIMBLK2
  1
OPEN
  9
$DIMSTYLE
  2
STANDARD
  9
$DIMCLRD
 70
   256
  9
$DIMCLRE
 70
   256
  9
$DIMCLRT
 70
   256
  9
$DIMTFAC
 40
1.0
  9
$DIMGAP
 40
2.0
  9
$DIMJUST
 70
     0
  9
$DIMSD1
 70
     0
  9
$DIMSD2
 70
     0
  9
$DIMTOLJ
 70
     1
  9
$DIMTZIN
 70
     0
  9
$DIMALTZ
 70
     0
  9
$DIMALTTZ
 70
     0
  9
$DIMUPT
 70
     0
  9
$DIMDEC
 70
     0
  9
$DIMTDEC
 70
     0
  9
$DIMALTU
 70
     2
  9
$DIMALTTD
 70
     2
  9
$DIMTXSTY
  7
STANDARD
  9
$DIMAUNIT
 70
     0
  9
$DIMADEC
 70
     0
  9
$DIMALTRND
 40
0.0
  9
$DIMAZIN
 70
     0
  9
$DIMDSEP
 70
    46
  9
$DIMATFIT
 70
     3
  9
$DIMFRAC
 70
     0
  9
$DIMLDRBLK
  1
OPEN
  9
$DIMLUNIT
 70
     2
  9
$DIMLWD
 70
    -1
  9
$DIMLWE
 70
    -1
  9
$DIMTMOVE
 70
     0
  9
$LUNITS
 70
     2
  9
$LUPREC
 70
     4
  9
$SKETCHINC
 40
1.0
  9
$FILLETRAD
 40
10.0
  9
$AUNITS
 70
     0
  9
$AUPREC
 70
     0
  9
$MENU
  1
.
  9
$ELEVATION
 40
0.0
  9
$PELEVATION
 40
0.0
  9
$THICKNESS
 40
0.0
  9
$LIMCHECK
 70
     0
  9
$CHAMFERA
 40
0.0
  9
$CHAMFERB
 40
0.0
  9
$CHAMFERC
 40
40.0
  9
$CHAMFERD
 40
0.0
  9
$SKPOLY
 70
     0
  9
$TDCREATE
 40
2451030.614786227
  9
$TDUCREATE
 40
2451030.239786227
  9
$TDUPDATE
 40
2455609.412746968
  9
$TDUUPDATE
 40
2455609.037746968
  9
$TDINDWG
 40
0.1893366435
  9
$TDUSRTIMER
 40
0.1893366435
  9
$USRTIMER
 70
     1
  9
$ANGBASE
 50
0.0
  9
$ANGDIR
 70
     0
  9
$PDMODE
 70
     0
  9
$PDSIZE
 40
0.0
  9
$PLINEWID
 40
0.0
  9
$SPLFRAME
 70
     0
  9
$SPLINETYPE
 70
     6
  9
$SPLINESEGS
 70
     8
  9
$HANDSEED
  5
4F85
  9
$SURFTAB1
 70
     6
  9
$SURFTAB2
 70
     6
  9
$SURFTYPE
 70
     6
  9
$SURFU
 70
     6
  9
$SURFV
 70
     6
  9
$UCSBASE
  2

  9
$UCSNAME
  2

  9
$UCSORG
 10
0.0
 20
0.0
 30
0.0
  9
$UCSXDIR
 10
1.0
 20
0.0
 30
0.0
  9
$UCSYDIR
 10
0.0
 20
1.0
 30
0.0
  9
$UCSORTHOREF
  2

  9
$UCSORTHOVIEW
 70
     0
  9
$UCSORGTOP
 10
0.0
 20
0.0
 30
0.0
  9
$UCSORGBOTTOM
 10
0.0
 20
0.0
 30
0.0
  9
$UCSORGLEFT
 10
0.0
 20
0.0
 30
0.0
  9
$UCSORGRIGHT
 10
0.0
 20
0.0
 30
0.0
  9
$UCSORGFRONT
 10
0.0
 20
0.0
 30
0.0
  9
$UCSORGBACK
 10
0.0
 20
0.0
 30
0.0
  9
$PUCSBASE
  2

  9
$PUCSNAME
  2

  9
$PUCSORG
 10
0.0
 20
0.0
 30
0.0
  9
$PUCSXDIR
 10
1.0
 20
0.0
 30
0.0
  9
$PUCSYDIR
 10
0.0
 20
1.0
 30
0.0
  9
$PUCSORTHOREF
  2

  9
$PUCSORTHOVIEW
 70
     0
  9
$PUCSORGTOP
 10
0.0
 20
0.0
 30
0.0
  9
$PUCSORGBOTTOM
 10
0.0
 20
0.0
 30
0.0
  9
$PUCSORGLEFT
 10
0.0
 20
0.0
 30
0.0
  9
$PUCSORGRIGHT
 10
0.0
 20
0.0
 30
0.0
  9
$PUCSORGFRONT
 10
0.0
 20
0.0
 30
0.0
  9
$PUCSORGBACK
 10
0.0
 20
0.0
 30
0.0
  9
$USERI1
 70
     0
  9
$USERI2
 70
     0
  9
$USERI3
 70
     0
  9
$USERI4
 70
     0
  9
$USERI5
 70
     0
  9
$USERR1
 40
0.0
  9
$USERR2
 40
0.0
  9
$USERR3
 40
0.0
  9
$USERR4
 40
0.0
  9
$USERR5
 40
0.0
  9
$WORLDVIEW
 70
     1
  9
$SHADEDGE
 70
     3
  9
$SHADEDIF
 70
    70
  9
$TILEMODE
 70
     1
  9
$MAXACTVP
 70
    16
  9
$PINSBASE
 10
0.0
 20
0.0
 30
0.0
  9
$PLIMCHECK
 70
     0
  9
$PEXTMIN
 10
0.0
 20
0.0
 30
0.0
  9
$PEXTMAX
 10
420.0
 20
297.0
 30
0.0
  9
$PLIMMIN
 10
0.0
 20
0.0
  9
$PLIMMAX
 10
420.0
 20
297.0
  9
$UNITMODE
 70
     0
  9
$VISRETAIN
 70
     0
  9
$PLINEGEN
 70
     0
  9
$PSLTSCALE
 70
     1
  9
$TREEDEPTH
 70
  3020
  9
$CMLSTYLE
  2
STANDARD
  9
$CMLJUST
 70
     0
  9
$CMLSCALE
 40
1.0
  9
$PROXYGRAPHICS
 70
     1
  9
$MEASUREMENT
 70
     0
  9
$CELWEIGHT
370
    -1
  9
$ENDCAPS
280
     0
  9
$JOINSTYLE
280
     0
  9
$LWDISPLAY
290
     0
  9
$INSUNITS
 70
     0
  9
$HYPERLINKBASE
  1

  9
$STYLESHEET
  1
systemprinter.ctb
  9
$XEDIT
290
     1
  9
$CEPSNTYPE
380
     0
  9
$PSTYLEMODE
290
     1
  9
$FINGERPRINTGUID
  2
{91E25F26-0CBF-4C93-982E-B5F00895E654}
  9
$VERSIONGUID
  2
{1209BD1C-1231-4752-A474-76E7F0D7F44D}
  9
$EXTNAMES
290
     1
  9
$PSVPSCALE
 40
0.0
  9
$OLESTARTUP
290
     0
  0
ENDSEC
  0
SECTION
  2
CLASSES
  0
CLASS
  1
ACDBDICTIONARYWDFLT
  2
AcDbDictionaryWithDefault
  3
ObjectDBX Classes
 90
        0
280
     0
281
     0
  0
CLASS
  1
ACDBPLACEHOLDER
  2
AcDbPlaceHolder
  3
ObjectDBX Classes
 90
        0
280
     0
281
     0
  0
CLASS
  1
LAYOUT
  2
AcDbLayout
  3
ObjectDBX Classes
 90
        0
280
     0
281
     0
  0
CLASS
  1
DUMMY
  2
AcDbLongTransaction
  3
DUMMY
 90
        0
280
     0
281
     0
  0
CLASS
  1
LWPOLYLINE
  2
AcDbPolyline
  3
AutoCAD 2000
 90
        0
280
     0
281
     1
  0
CLASS
  1
HATCH
  2
AcDbHatch
  3
AutoCAD 2000
 90
        0
280
     0
281
     1
  0
CLASS
  1
XRECORD
  2
AcDbXrecord
  3
AutoCAD 2000
 90
        0
280
     0
281
     0
  0
CLASS
  1
DUMMY
  2
AcDbLongTransaction
  3
DUMMY
 90
        0
280
     0
281
     0
  0
CLASS
  1
LWPOLYLINE
  2
AcDbPolyline
  3
AutoCAD 2000
 90
        0
280
     0
281
     1
  0
CLASS
  1
HATCH
  2
AcDbHatch
  3
AutoCAD 2000
 90
        0
280
     0
281
     1
  0
CLASS
  1
XRECORD
  2
AcDbXrecord
  3
AutoCAD 2000
 90
        0
280
     0
281
     0
  0
CLASS
  1
DUMMY
  2
AcDbLongTransaction
  3
DUMMY
 90
        0
280
     0
281
     0
  0
CLASS
  1
LWPOLYLINE
  2
AcDbPolyline
  3
AutoCAD 2000
 90
        0
280
     0
281
     1
  0
CLASS
  1
HATCH
  2
AcDbHatch
  3
AutoCAD 2000
 90
        0
280
     0
281
     1
  0
CLASS
  1
XRECORD
  2
AcDbXrecord
  3
AutoCAD 2000
 90
        0
280
     0
281
     0
  0
CLASS
  1
DUMMY
  2
AcDbLongTransaction
  3
DUMMY
 90
        0
280
     0
281
     0
  0
CLASS
  1
LWPOLYLINE
  2
AcDbPolyline
  3
AutoCAD 2000
 90
        0
280
     0
281
     1
  0
CLASS
  1
HATCH
  2
AcDbHatch
  3
AutoCAD 2000
 90
        0
280
     0
281
     1
  0
CLASS
  1
XRECORD
  2
AcDbXrecord
  3
AutoCAD 2000
 90
        0
280
     0
281
     0
  0
CLASS
  1
DUMMY
  2
AcDbLongTransaction
  3
DUMMY
 90
        0
280
     0
281
     0
  0
CLASS
  1
LWPOLYLINE
  2
AcDbPolyline
  3
AutoCAD 2000
 90
        0
280
     0
281
     1
  0
CLASS
  1
HATCH
  2
AcDbHatch
  3
AutoCAD 2000
 90
        0
280
     0
281
     1
  0
CLASS
  1
XRECORD
  2
AcDbXrecord
  3
AutoCAD 2000
 90
        0
280
     0
281
     0
  0
CLASS
  1
DUMMY
  2
AcDbLongTransaction
  3
DUMMY
 90
        0
280
     0
281
     0
  0
CLASS
  1
LWPOLYLINE
  2
AcDbPolyline
  3
AutoCAD 2000
 90
        0
280
     0
281
     1
  0
CLASS
  1
HATCH
  2
AcDbHatch
  3
AutoCAD 2000
 90
        0
280
     0
281
     1
  0
CLASS
  1
XRECORD
  2
AcDbXrecord
  3
AutoCAD 2000
 90
        0
280
     0
281
     0
  0
CLASS
  1
DUMMY
  2
AcDbLongTransaction
  3
DUMMY
 90
        0
280
     0
281
     0
  0
CLASS
  1
LWPOLYLINE
  2
AcDbPolyline
  3
AutoCAD 2000
 90
        0
280
     0
281
     1
  0
CLASS
  1
HATCH
  2
AcDbHatch
  3
AutoCAD 2000
 90
        0
280
     0
281
     1
  0
CLASS
  1
XRECORD
  2
AcDbXrecord
  3
AutoCAD 2000
 90
        0
280
     0
281
     0
  0
ENDSEC
  0
SECTION
  2
TABLES
  0
TABLE
  2
VPORT
  5
8
330
0
100
AcDbSymbolTable
 70
     2
  0
VPORT
  5
4F84
330
8
100
AcDbSymbolTableRecord
100
AcDbViewportTableRecord
  2
*Active
 70
     0
 10
0.0
 20
0.0
 11
1.0
 21
1.0
 12
454.6506125459713
 22
296.9909369707933
 13
0.0
 23
0.0
 14
5.0
 24
5.0
 15
0.0
 25
0.0
 16
0.0
 26
0.0
 36
1.0
 17
0.0
 27
0.0
 37
0.0
 40
598.5583919900701
 41
1.651537335285505
 42
50.0
 43
0.0
 44
0.0
 50
0.0
 51
0.0
 71
     0
 72
   100
 73
     1
 74
     0
 75
     0
 76
     0
 77
     0
 78
     0
281
     0
 65
     1
110
0.0
120
0.0
130
0.0
111
1.0
121
0.0
131
0.0
112
0.0
122
1.0
132
0.0
 79
     0
146
0.0
  0
ENDTAB
  0
TABLE
  2
LTYPE
  5
5
330
0
100
AcDbSymbolTable
 70
     3
  0
LTYPE
  5
14
330
5
100
AcDbSymbolTableRecord
100
AcDbLinetypeTableRecord
  2
BYBLOCK
 70
     0
  3

 72
    65
 73
     0
 40
0.0
  0
LTYPE
  5
15
330
5
100
AcDbSymbolTableRecord
100
AcDbLinetypeTableRecord
  2
BYLAYER
 70
     0
  3

 72
    65
 73
     0
 40
0.0
  0
LTYPE
  5
16
330
5
100
AcDbSymbolTableRecord
100
AcDbLinetypeTableRecord
  2
CONTINUOUS
 70
     0
  3
Solid line
 72
    65
 73
     0
 40
0.0
  0
LTYPE
  5
115
330
5
100
AcDbSymbolTableRecord
100
AcDbLinetypeTableRecord
  2
PHANTOM
 70
     0
  3
______  __  __  ______  __  __  ______  __  __ 
 72
    65
 73
     6
 40
2.5
 49
1.25
 74
     0
 49
-0.25
 74
     0
 49
0.25
 74
     0
 49
-0.25
 74
     0
 49
0.25
 74
     0
 49
-0.25
 74
     0
  0
LTYPE
  5
135
330
5
100
AcDbSymbolTableRecord
100
AcDbLinetypeTableRecord
  2
CENTER
 70
     0
  3
____ _ ____ _ ____ _ ____ _ ____ _ ____ _ ____ 
 72
    65
 73
     4
 40
2.0
 49
1.25
 74
     0
 49
-0.25
 74
     0
 49
0.25
 74
     0
 49
-0.25
 74
     0
  0
ENDTAB
  0
TABLE
  2
LAYER
  5
2
330
0
100
AcDbSymbolTable
 70
     8
  0
LAYER
  5
F
330
2
100
AcDbSymbolTableRecord
100
AcDbLayerTableRecord
  2
0
 70
     0
 62
     7
  6
CONTINUOUS
370
    -3
390
A97
  0
LAYER
  5
62
330
2
100
AcDbSymbolTableRecord
100
AcDbLayerTableRecord
  2
VIEWPORT
 70
     0
 62
     7
  6
CONTINUOUS
370
    -3
390
A97
  0
LAYER
  5
65
330
2
100
AcDbSymbolTableRecord
100
AcDbLayerTableRecord
  2
ZUWAKU
 70
     0
 62
     7
  6
CONTINUOUS
370
    -3
390
A97
  0
LAYER
  5
143
330
2
100
AcDbSymbolTableRecord
100
AcDbLayerTableRecord
  2
SEIHIN
 70
     0
 62
     3
  6
CONTINUOUS
370
    -3
390
A97
  0
LAYER
  5
444
330
2
100
AcDbSymbolTableRecord
100
AcDbLayerTableRecord
  2
DEFPOINTS
 70
     0
 62
     7
  6
CONTINUOUS
290
     0
370
    -3
390
A97
  0
LAYER
  5
482
330
2
100
AcDbSymbolTableRecord
100
AcDbLayerTableRecord
  2
SUNPOU
 70
     0
 62
     4
  6
CONTINUOUS
370
    -3
390
A97
  0
LAYER
  5
5D4
330
2
100
AcDbSymbolTableRecord
100
AcDbLayerTableRecord
  2
CENTER L
 70
     0
 62
     1
  6
CENTER
370
    -3
390
A97
  0
LAYER
  5
46B1
330
2
100
AcDbSymbolTableRecord
100
AcDbLayerTableRecord
  2
moji
 70
     0
 62
     2
  6
CONTINUOUS
370
    -3
390
A97
  0
ENDTAB
  0
TABLE
  2
STYLE
  5
3
330
0
100
AcDbSymbolTable
 70
     3
  0
STYLE
  5
10
330
3
100
AcDbSymbolTableRecord
100
AcDbTextStyleTableRecord
  2
STANDARD
 70
     0
 40
0.0
 41
1.0
 50
0.0
 71
     0
 42
6.0
  3
TXT
  4
bigfont.shx
  0
STYLE
  5
D40
330
3
100
AcDbSymbolTableRecord
100
AcDbTextStyleTableRecord
  2
Style2
 70
     0
 40
0.0
 41
1.0
 50
0.0
 71
     0
 42
0.35
  3
ＭＳ ゴシック
  4

  0
STYLE
  5
46B2
330
3
100
AcDbSymbolTableRecord
100
AcDbTextStyleTableRecord
  2
ｽﾀｲﾙ1
 70
     0
 40
0.0
 41
1.0
 50
0.0
 71
     0
 42
2.5
  3
MS PGothic.ttf
  4

1001
ACAD
1000
MS PGothic
1071
    32818
  0
ENDTAB
  0
TABLE
  2
VIEW
  5
6
330
0
100
AcDbSymbolTable
 70
     0
  0
ENDTAB
  0
TABLE
  2
UCS
  5
7
330
0
100
AcDbSymbolTable
 70
     0
  0
ENDTAB
  0
TABLE
  2
APPID
  5
9
330
0
100
AcDbSymbolTable
 70
     1
  0
APPID
  5
11
330
9
100
AcDbSymbolTableRecord
100
AcDbRegAppTableRecord
  2
ACAD
 70
     0
  0
ENDTAB
  0
TABLE
  2
DIMSTYLE
  5
A
330
0
100
AcDbSymbolTable
 70
     1
100
AcDbDimStyleTable
  0
DIMSTYLE
105
1D
102
{ACAD_REACTORS
330
2387
330
2396
330
23A3
330
23B0
330
26A5
330
26B8
330
27B2
330
3ABC
330
3AD9
330
3AE8
330
41CE
330
41C7
330
41CD
330
41FF
330
41FE
330
41C8
102
}
330
A
100
AcDbSymbolTableRecord
100
AcDbDimStyleTableRecord
  2
STANDARD
 70
     0
340
10
  0
ENDTAB
  0
TABLE
  2
BLOCK_RECORD
  5
1
330
0
100
AcDbSymbolTable
 70
    18
  0
BLOCK_RECORD
  5
1A
330
1
100
AcDbSymbolTableRecord
100
AcDbBlockTableRecord
  2
*MODEL_SPACE
340
A9A
  0
BLOCK_RECORD
  5
17
330
1
100
AcDbSymbolTableRecord
100
AcDbBlockTableRecord
  2
*PAPER_SPACE
340
A9B
  0
BLOCK_RECORD
  5
6D
330
1
100
AcDbSymbolTableRecord
100
AcDbBlockTableRecord
  2
_OPEN
340
0
102
{BLKREFS
331
47FE
331
47FF
331
47CB
331
47CC
331
47D4
331
47D5
331
47C2
331
47C3
331
4781
331
4782
331
47B9
331
47BA
331
47B0
331
47B1
331
47E8
331
47E9
331
47DF
331
47E0
331
47F3
331
47F4
331
4D9A
331
4D9B
331
4DA3
331
4DA4
331
4DAC
331
4DAD
331
4DB5
331
4DB6
331
4DC0
331
4DC1
331
4DC9
331
4DCA
102
}
  0
BLOCK_RECORD
  5
2388
330
1
100
AcDbSymbolTableRecord
100
AcDbBlockTableRecord
  2
*D1
340
0
  0
BLOCK_RECORD
  5
2397
330
1
100
AcDbSymbolTableRecord
100
AcDbBlockTableRecord
  2
*D2
340
0
  0
BLOCK_RECORD
  5
23A4
330
1
100
AcDbSymbolTableRecord
100
AcDbBlockTableRecord
  2
*D3
340
0
  0
BLOCK_RECORD
  5
23B1
330
1
100
AcDbSymbolTableRecord
100
AcDbBlockTableRecord
  2
*D4
340
0
  0
BLOCK_RECORD
  5
26A6
330
1
100
AcDbSymbolTableRecord
100
AcDbBlockTableRecord
  2
*D5
340
0
  0
BLOCK_RECORD
  5
26B9
330
1
100
AcDbSymbolTableRecord
100
AcDbBlockTableRecord
  2
*D6
340
0
  0
BLOCK_RECORD
  5
27B3
330
1
100
AcDbSymbolTableRecord
100
AcDbBlockTableRecord
  2
*D7
340
0
  0
BLOCK_RECORD
  5
3ABD
330
1
100
AcDbSymbolTableRecord
100
AcDbBlockTableRecord
  2
*D8
340
0
  0
BLOCK_RECORD
  5
3ADA
330
1
100
AcDbSymbolTableRecord
100
AcDbBlockTableRecord
  2
*D9
340
0
  0
BLOCK_RECORD
  5
3AE9
330
1
100
AcDbSymbolTableRecord
100
AcDbBlockTableRecord
  2
*D10
340
0
  0
BLOCK_RECORD
  5
4404
330
1
100
AcDbSymbolTableRecord
100
AcDbBlockTableRecord
  2
*D11
340
0
  0
BLOCK_RECORD
  5
4410
330
1
100
AcDbSymbolTableRecord
100
AcDbBlockTableRecord
  2
*D12
340
0
  0
BLOCK_RECORD
  5
441C
330
1
100
AcDbSymbolTableRecord
100
AcDbBlockTableRecord
  2
*D13
340
0
  0
BLOCK_RECORD
  5
4428
330
1
100
AcDbSymbolTableRecord
100
AcDbBlockTableRecord
  2
*D14
340
0
  0
BLOCK_RECORD
  5
4434
330
1
100
AcDbSymbolTableRecord
100
AcDbBlockTableRecord
  2
*D15
340
0
  0
BLOCK_RECORD
  5
4442
330
1
100
AcDbSymbolTableRecord
100
AcDbBlockTableRecord
  2
*D16
340
0
  0
ENDTAB
  0
ENDSEC
  0
SECTION
  2
BLOCKS
  0
BLOCK
  5
1B
330
1A
100
AcDbEntity
  8
0
100
AcDbBlockBegin
  2
*MODEL_SPACE
 70
     0
 71
     0
 10
0.0
 20
0.0
 30
0.0
  3
*MODEL_SPACE
  1

  0
ENDBLK
  5
1C
330
1A
100
AcDbEntity
  8
0
100
AcDbBlockEnd
  0
BLOCK
  5
18
330
17
100
AcDbEntity
 67
     1
  8
0
100
AcDbBlockBegin
  2
*PAPER_SPACE
 70
     0
 71
     0
 10
0.0
 20
0.0
 30
0.0
  3
*PAPER_SPACE
  1

  0
ENDBLK
  5
19
330
17
100
AcDbEntity
 67
     1
  8
0
100
AcDbBlockEnd
  0
BLOCK
  5
6E
330
6D
100
AcDbEntity
  8
0
100
AcDbBlockBegin
  2
_OPEN
 70
     0
 71
     0
 10
0.0
 20
0.0
 30
0.0
  3
_OPEN
  1

  0
LINE
  5
6F
330
6D
100
AcDbEntity
  8
0
  6
ByBlock
 62
     0
100
AcDbLine
 10
-1.0
 20
0.1666666666666667
 30
0.0
 11
0.0
 21
0.0
 31
0.0
  0
LINE
  5
70
330
6D
100
AcDbEntity
  8
0
  6
ByBlock
 62
     0
100
AcDbLine
 10
0.0
 20
0.0
 30
0.0
 11
-1.0
 21
-0.1666666666666667
 31
0.0
  0
LINE
  5
71
330
6D
100
AcDbEntity
  8
0
  6
ByBlock
 62
     0
100
AcDbLine
 10
0.0
 20
0.0
 30
0.0
 11
-1.0
 21
0.0
 31
0.0
  0
ENDBLK
  5
72
330
6D
100
AcDbEntity
  8
0
100
AcDbBlockEnd
  0
BLOCK
  5
2394
330
2388
100
AcDbEntity
  8
0
100
AcDbBlockBegin
  2
*D1
 70
     1
 71
     0
 10
0.0
 20
0.0
 30
0.0
  3
*D1
  1

  0
LINE
  5
47F9
330
2388
100
AcDbEntity
  8
SUNPOU
100
AcDbLine
 10
573.8709117181993
 20
286.803201266414
 30
0.0
 11
592.1972060320267
 21
297.7989778547102
 31
0.0
  0
LINE
  5
47FA
330
2388
100
AcDbEntity
  8
SUNPOU
100
AcDbLine
 10
566.3379933022341
 20
299.358065293023
 30
0.0
 11
584.6642876160614
 21
310.3538418813192
 31
0.0
  0
LINE
  5
47FB
330
2388
100
AcDbEntity
  8
SUNPOU
100
AcDbLine
 10
593.2261975428818
 20
290.2530401084398
 30
0.0
 11
596.8276678308744
 21
284.250589628452
 31
0.0
  0
LINE
  5
47FC
330
2388
100
AcDbEntity
  8
SUNPOU
100
AcDbLine
 10
578.4903385509313
 20
314.8128050950245
 30
0.0
 11
574.8888682629386
 21
320.8152555750123
 31
0.0
  0
LINE
  5
47FD
330
2388
100
AcDbEntity
  8
SUNPOU
100
AcDbLine
 10
589.6247272548891
 20
296.2554905884276
 30
0.0
 11
582.0918088389238
 21
308.8103546150367
 31
0.0
  0
INSERT
  5
47FE
330
2388
100
AcDbEntity
  8
SUNPOU
100
AcDbBlockReference
  2
_OPEN
 10
589.6247272548891
 20
296.2554905884276
 30
0.0
 41
7.0
 42
7.0
 43
7.0
 50
120.963756532073
  0
INSERT
  5
47FF
330
2388
100
AcDbEntity
  8
SUNPOU
100
AcDbBlockReference
  2
_OPEN
 10
582.0918088389238
 20
308.8103546150367
 30
0.0
 41
7.0
 42
7.0
 43
7.0
 50
300.963756532073
  0
MTEXT
  5
4800
330
2388
100
AcDbEntity
  8
SUNPOU
100
AcDbMText
 10
590.1457326754693
 20
305.1054013788698
 30
0.0
 40
6.0
 41
0.0
 71
     5
 72
     5
  1
\A1;15
 11
0.5144957554275189
 21
-0.8574929257125488
 31
0.0
 73
     1
 44
1.0
  0
POINT
  5
4801
330
2388
100
AcDbEntity
  8
DEFPOINTS
 62
     0
100
AcDbPoint
 10
568.725954163924
 20
283.7162267338488
 30
0.0
  0
POINT
  5
4802
330
2388
100
AcDbEntity
  8
DEFPOINTS
 62
     0
100
AcDbPoint
 10
561.1930357479588
 20
296.2710907604579
 30
0.0
  0
POINT
  5
4803
330
2388
100
AcDbEntity
  8
DEFPOINTS
 62
     0
100
AcDbPoint
 10
582.0918088389238
 20
308.8103546150367
 30
0.0
  0
ENDBLK
  5
2395
330
2388
100
AcDbEntity
  8
0
100
AcDbBlockEnd
  0
BLOCK
  5
23A1
330
2397
100
AcDbEntity
  8
0
100
AcDbBlockBegin
  2
*D2
 70
     1
 71
     0
 10
0.0
 20
0.0
 30
0.0
  3
*D2
  1

  0
LINE
  5
47C8
330
2397
100
AcDbEntity
  8
SUNPOU
100
AcDbLine
 10
506.7458224741112
 20
265.0523690830227
 30
0.0
 11
494.6358944066293
 21
285.2355825288258
 31
0.0
  0
LINE
  5
47C9
330
2397
100
AcDbEntity
  8
SUNPOU
100
AcDbLine
 10
555.6229192397262
 20
294.3786271423916
 30
0.0
 11
543.5129911722444
 21
314.5618405881948
 31
0.0
  0
LINE
  5
47CA
330
2397
100
AcDbEntity
  8
SUNPOU
100
AcDbLine
 10
502.1818321528997
 20
286.2645740396809
 30
0.0
 11
539.0540279585391
 21
308.3878915230645
 31
0.0
  0
INSERT
  5
47CB
330
2397
100
AcDbEntity
  8
SUNPOU
100
AcDbBlockReference
  2
_OPEN
 10
496.1793816729119
 20
282.6631037516882
 30
0.0
 41
7.0
 42
7.0
 43
7.0
 50
210.9637565320735
  0
INSERT
  5
47CC
330
2397
100
AcDbEntity
  8
SUNPOU
100
AcDbBlockReference
  2
_OPEN
 10
545.0564784385269
 20
311.9893618110572
 30
0.0
 41
7.0
 42
7.0
 43
7.0
 50
30.9637565320735
  0
MTEXT
  5
47CD
330
2397
100
AcDbEntity
  8
SUNPOU
100
AcDbMText
 10
518.0454512785817
 20
301.6136974099354
 30
0.0
 40
6.0
 41
0.0
 71
     5
 72
     5
  1
\A1;57
 11
0.8574929257125443
 21
0.5144957554275262
 31
0.0
 73
     1
 44
1.0
  0
POINT
  5
47CE
330
2397
100
AcDbEntity
  8
DEFPOINTS
 62
     0
100
AcDbPoint
 10
509.8327970066763
 20
259.9074115287474
 30
0.0
  0
POINT
  5
47CF
330
2397
100
AcDbEntity
  8
DEFPOINTS
 62
     0
100
AcDbPoint
 10
558.7098937722914
 20
289.2336695881164
 30
0.0
  0
POINT
  5
47D0
330
2397
100
AcDbEntity
  8
DEFPOINTS
 62
     0
100
AcDbPoint
 10
545.0564784385269
 20
311.9893618110572
 30
0.0
  0
ENDBLK
  5
23A2
330
2397
100
AcDbEntity
  8
0
100
AcDbBlockEnd
  0
BLOCK
  5
23AE
330
23A4
100
AcDbEntity
  8
0
100
AcDbBlockBegin
  2
*D3
 70
     1
 71
     0
 10
0.0
 20
0.0
 30
0.0
  3
*D3
  1

  0
LINE
  5
47D1
330
23A4
100
AcDbEntity
  8
SUNPOU
100
AcDbLine
 10
534.7575273622161
 20
222.2534955327446
 30
0.0
 11
550.7874443591564
 21
195.53696720451
 31
0.0
  0
LINE
  5
47D2
330
23A4
100
AcDbEntity
  8
SUNPOU
100
AcDbLine
 10
580.2046524249812
 20
249.521770570403
 30
0.0
 11
596.2345694219216
 21
222.8052422421683
 31
0.0
  0
LINE
  5
47D3
330
23A4
100
AcDbEntity
  8
SUNPOU
100
AcDbLine
 10
555.2464075728617
 20
201.7109162696403
 30
0.0
 11
588.6886316756511
 21
221.7762507313133
 31
0.0
  0
INSERT
  5
47D4
330
23A4
100
AcDbEntity
  8
SUNPOU
100
AcDbBlockReference
  2
_OPEN
 10
549.2439570928739
 20
198.1094459816476
 30
0.0
 41
7.0
 42
7.0
 43
7.0
 50
210.9637565320729
  0
INSERT
  5
47D5
330
23A4
100
AcDbEntity
  8
SUNPOU
100
AcDbBlockReference
  2
_OPEN
 10
594.691082155639
 20
225.377721019306
 30
0.0
 41
7.0
 42
7.0
 43
7.0
 50
30.96375653207284
  0
MTEXT
  5
47D6
330
23A4
100
AcDbEntity
  8
SUNPOU
100
AcDbMText
 10
569.3950408471189
 20
216.0310481290396
 30
0.0
 40
6.0
 41
0.0
 71
     5
 72
     5
  1
\A1;53
 11
0.8574929257125503
 21
0.5144957554275164
 31
0.0
 73
     1
 44
1.0
  0
POINT
  5
47D7
330
23A4
100
AcDbEntity
  8
DEFPOINTS
 62
     0
100
AcDbPoint
 10
531.670552829651
 20
227.3984530870199
 30
0.0
  0
POINT
  5
47D8
330
23A4
100
AcDbEntity
  8
DEFPOINTS
 62
     0
100
AcDbPoint
 10
577.1176778924162
 20
254.6667281246782
 30
0.0
  0
POINT
  5
47D9
330
23A4
100
AcDbEntity
  8
DEFPOINTS
 62
     0
100
AcDbPoint
 10
594.691082155639
 20
225.377721019306
 30
0.0
  0
ENDBLK
  5
23AF
330
23A4
100
AcDbEntity
  8
0
100
AcDbBlockEnd
  0
BLOCK
  5
23BB
330
23B1
100
AcDbEntity
  8
0
100
AcDbBlockBegin
  2
*D4
 70
     1
 71
     0
 10
0.0
 20
0.0
 30
0.0
  3
*D4
  1

  0
LINE
  5
47BF
330
23B1
100
AcDbEntity
  8
SUNPOU
100
AcDbLine
 10
501.569670765933
 20
257.3245391232762
 30
0.0
 11
479.3520734393022
 21
294.3538680009949
 31
0.0
  0
LINE
  5
47C0
330
23B1
100
AcDbEntity
  8
SUNPOU
100
AcDbLine
 10
564.9507884590089
 20
295.3532097391211
 30
0.0
 11
542.733191132378
 21
332.3825386168398
 31
0.0
  0
LINE
  5
47C1
330
23B1
100
AcDbEntity
  8
SUNPOU
100
AcDbLine
 10
486.8980111855726
 20
295.3828595118499
 30
0.0
 11
538.2742279186728
 21
326.2085895517095
 31
0.0
  0
INSERT
  5
47C2
330
23B1
100
AcDbEntity
  8
SUNPOU
100
AcDbBlockReference
  2
_OPEN
 10
480.8955607055847
 20
291.7813892238573
 30
0.0
 41
7.0
 42
7.0
 43
7.0
 50
210.9637565320731
  0
INSERT
  5
47C3
330
23B1
100
AcDbEntity
  8
SUNPOU
100
AcDbBlockReference
  2
_OPEN
 10
544.2766783986606
 20
329.8100598397022
 30
0.0
 41
7.0
 42
7.0
 43
7.0
 50
30.96375653207312
  0
MTEXT
  5
47C4
330
23B1
100
AcDbEntity
  8
SUNPOU
100
AcDbMText
 10
510.0136407749851
 20
315.0831891603425
 30
0.0
 40
6.0
 41
0.0
 71
     5
 72
     5
  1
\A1;74
 11
0.8574929257125478
 21
0.5144957554275206
 31
0.0
 73
     1
 44
1.0
  0
POINT
  5
47C5
330
23B1
100
AcDbEntity
  8
DEFPOINTS
 62
     0
100
AcDbPoint
 10
504.6566452984981
 20
252.179581569001
 30
0.0
  0
POINT
  5
47C6
330
23B1
100
AcDbEntity
  8
DEFPOINTS
 62
     0
100
AcDbPoint
 10
568.037762991574
 20
290.2082521848458
 30
0.0
  0
POINT
  5
47C7
330
23B1
100
AcDbEntity
  8
DEFPOINTS
 62
     0
100
AcDbPoint
 10
544.2766783986606
 20
329.8100598397022
 30
0.0
  0
ENDBLK
  5
23BC
330
23B1
100
AcDbEntity
  8
0
100
AcDbBlockEnd
  0
BLOCK
  5
26B0
330
26A6
100
AcDbEntity
  8
0
100
AcDbBlockBegin
  2
*D5
 70
     1
 71
     0
 10
0.0
 20
0.0
 30
0.0
  3
*D5
  1

  0
LINE
  5
477E
330
26A6
100
AcDbEntity
  8
SUNPOU
100
AcDbLine
 10
423.6065610074388
 20
441.3448313755109
 30
0.0
 11
472.5147631511359
 21
441.3448313755109
 31
0.0
  0
LINE
  5
477F
330
26A6
100
AcDbEntity
  8
SUNPOU
100
AcDbLine
 10
423.9433281817423
 20
367.3876060676887
 30
0.0
 11
472.5147631511359
 21
367.3876060676887
 31
0.0
  0
LINE
  5
4780
330
26A6
100
AcDbEntity
  8
SUNPOU
100
AcDbLine
 10
469.5147631511359
 20
434.3448313755109
 30
0.0
 11
469.5147631511359
 21
374.3876060676887
 31
0.0
  0
INSERT
  5
4781
330
26A6
100
AcDbEntity
  8
SUNPOU
100
AcDbBlockReference
  2
_OPEN
 10
469.5147631511359
 20
441.3448313755109
 30
0.0
 41
7.0
 42
7.0
 43
7.0
 50
90.0
  0
INSERT
  5
4782
330
26A6
100
AcDbEntity
  8
SUNPOU
100
AcDbBlockReference
  2
_OPEN
 10
469.5147631511359
 20
367.3876060676887
 30
0.0
 41
7.0
 42
7.0
 43
7.0
 50
270.0
  0
MTEXT
  5
4783
330
26A6
100
AcDbEntity
  8
SUNPOU
100
AcDbMText
 10
464.5147631511358
 20
404.3662187215999
 30
0.0
 40
6.0
 41
0.0
 71
     5
 72
     5
  1
\A1;74
 11
6.123031769111886E-17
 21
1.0
 31
0.0
 73
     1
 44
1.0
  0
POINT
  5
4784
330
26A6
100
AcDbEntity
  8
DEFPOINTS
 62
     0
100
AcDbPoint
 10
417.6065610074388
 20
441.3448313755109
 30
0.0
  0
POINT
  5
4785
330
26A6
100
AcDbEntity
  8
DEFPOINTS
 62
     0
100
AcDbPoint
 10
417.9433281817423
 20
367.3876060676887
 30
0.0
  0
POINT
  5
4786
330
26A6
100
AcDbEntity
  8
DEFPOINTS
 62
     0
100
AcDbPoint
 10
469.5147631511359
 20
367.3876060676887
 30
0.0
  0
ENDBLK
  5
26B1
330
26A6
100
AcDbEntity
  8
0
100
AcDbBlockEnd
  0
BLOCK
  5
26C3
330
26B9
100
AcDbEntity
  8
0
100
AcDbBlockBegin
  2
*D6
 70
     1
 71
     0
 10
0.0
 20
0.0
 30
0.0
  3
*D6
  1

  0
LINE
  5
47B6
330
26B9
100
AcDbEntity
  8
SUNPOU
100
AcDbLine
 10
256.9716921654481
 20
414.3449308986736
 30
0.0
 11
236.0079535021482
 21
414.3449308986736
 31
0.0
  0
LINE
  5
47B7
330
26B9
100
AcDbEntity
  8
SUNPOU
100
AcDbLine
 10
256.9716921654481
 20
394.3449308986737
 30
0.0
 11
236.0079535021482
 21
394.3449308986737
 31
0.0
  0
LINE
  5
47B8
330
26B9
100
AcDbEntity
  8
SUNPOU
100
AcDbLine
 10
239.0079535021482
 20
407.3449308986736
 30
0.0
 11
239.0079535021482
 21
401.3449308986737
 31
0.0
  0
INSERT
  5
47B9
330
26B9
100
AcDbEntity
  8
SUNPOU
100
AcDbBlockReference
  2
_OPEN
 10
239.0079535021482
 20
414.3449308986736
 30
0.0
 41
7.0
 42
7.0
 43
7.0
 50
90.0
  0
INSERT
  5
47BA
330
26B9
100
AcDbEntity
  8
SUNPOU
100
AcDbBlockReference
  2
_OPEN
 10
239.0079535021482
 20
394.3449308986737
 30
0.0
 41
7.0
 42
7.0
 43
7.0
 50
270.0
  0
MTEXT
  5
47BB
330
26B9
100
AcDbEntity
  8
SUNPOU
100
AcDbMText
 10
234.0079535021482
 20
404.3449308986737
 30
0.0
 40
6.0
 41
0.0
 71
     5
 72
     5
  1
\A1;20
 11
6.123031769111886E-17
 21
1.0
 31
0.0
 73
     1
 44
1.0
  0
POINT
  5
47BC
330
26B9
100
AcDbEntity
  8
DEFPOINTS
 62
     0
100
AcDbPoint
 10
262.9716921654481
 20
414.3449308986736
 30
0.0
  0
POINT
  5
47BD
330
26B9
100
AcDbEntity
  8
DEFPOINTS
 62
     0
100
AcDbPoint
 10
262.9716921654481
 20
394.3449308986737
 30
0.0
  0
POINT
  5
47BE
330
26B9
100
AcDbEntity
  8
DEFPOINTS
 62
     0
100
AcDbPoint
 10
239.0079535021482
 20
394.3449308986737
 30
0.0
  0
ENDBLK
  5
26C4
330
26B9
100
AcDbEntity
  8
0
100
AcDbBlockEnd
  0
BLOCK
  5
27BD
330
27B3
100
AcDbEntity
  8
0
100
AcDbBlockBegin
  2
*D7
 70
     1
 71
     0
 10
0.0
 20
0.0
 30
0.0
  3
*D7
  1

  0
LINE
  5
47AD
330
27B3
100
AcDbEntity
  8
SUNPOU
100
AcDbLine
 10
291.9659331315146
 20
422.3538117987229
 30
0.0
 11
217.779464835216
 21
422.3538117987229
 31
0.0
  0
LINE
  5
47AE
330
27B3
100
AcDbEntity
  8
SUNPOU
100
AcDbLine
 10
291.9659331315146
 20
386.3360499986243
 30
0.0
 11
217.779464835216
 21
386.3360499986243
 31
0.0
  0
LINE
  5
47AF
330
27B3
100
AcDbEntity
  8
SUNPOU
100
AcDbLine
 10
220.779464835216
 20
415.3538117987229
 30
0.0
 11
220.779464835216
 21
393.3360499986243
 31
0.0
  0
INSERT
  5
47B0
330
27B3
100
AcDbEntity
  8
SUNPOU
100
AcDbBlockReference
  2
_OPEN
 10
220.779464835216
 20
422.3538117987229
 30
0.0
 41
7.0
 42
7.0
 43
7.0
 50
90.0
  0
INSERT
  5
47B1
330
27B3
100
AcDbEntity
  8
SUNPOU
100
AcDbBlockReference
  2
_OPEN
 10
220.779464835216
 20
386.3360499986243
 30
0.0
 41
7.0
 42
7.0
 43
7.0
 50
270.0
  0
MTEXT
  5
47B2
330
27B3
100
AcDbEntity
  8
SUNPOU
100
AcDbMText
 10
215.779464835216
 20
404.3449308986737
 30
0.0
 40
6.0
 41
0.0
 71
     5
 72
     5
  1
\A1;36
 11
6.123031769111886E-17
 21
1.0
 31
0.0
 73
     1
 44
1.0
  0
POINT
  5
47B3
330
27B3
100
AcDbEntity
  8
DEFPOINTS
 62
     0
100
AcDbPoint
 10
297.9659331315146
 20
422.3538117987229
 30
0.0
  0
POINT
  5
47B4
330
27B3
100
AcDbEntity
  8
DEFPOINTS
 62
     0
100
AcDbPoint
 10
297.9659331315146
 20
386.3360499986243
 30
0.0
  0
POINT
  5
47B5
330
27B3
100
AcDbEntity
  8
DEFPOINTS
 62
     0
100
AcDbPoint
 10
220.779464835216
 20
386.3360499986243
 30
0.0
  0
ENDBLK
  5
27BE
330
27B3
100
AcDbEntity
  8
0
100
AcDbBlockEnd
  0
BLOCK
  5
3AC7
330
3ABD
100
AcDbEntity
  8
0
100
AcDbBlockBegin
  2
*D8
 70
     1
 71
     0
 10
0.0
 20
0.0
 30
0.0
  3
*D8
  1

  0
LINE
  5
47E5
330
3ABD
100
AcDbEntity
  8
SUNPOU
100
AcDbLine
 10
528.7457214980458
 20
218.3709552135712
 30
0.0
 11
492.3679184463663
 21
196.5442733825635
 31
0.0
  0
LINE
  5
47E6
330
3ABD
100
AcDbEntity
  8
SUNPOU
100
AcDbLine
 10
502.989082515743
 20
261.2986868507426
 30
0.0
 11
466.6112794640634
 21
239.4720050197349
 31
0.0
  0
LINE
  5
47E7
330
3ABD
100
AcDbEntity
  8
SUNPOU
100
AcDbLine
 10
491.3389269355112
 20
204.0902111288338
 30
0.0
 11
472.7852285291937
 21
235.0130418060296
 31
0.0
  0
INSERT
  5
47E8
330
3ABD
100
AcDbEntity
  8
SUNPOU
100
AcDbBlockReference
  2
_OPEN
 10
494.9403972235039
 20
198.087760648846
 30
0.0
 41
7.0
 42
7.0
 43
7.0
 50
300.9637565320735
  0
INSERT
  5
47E9
330
3ABD
100
AcDbEntity
  8
SUNPOU
100
AcDbBlockReference
  2
_OPEN
 10
469.1837582412011
 20
241.0154922860174
 30
0.0
 41
7.0
 42
7.0
 43
7.0
 50
120.9637565320735
  0
MTEXT
  5
47EA
330
3ABD
100
AcDbEntity
  8
SUNPOU
100
AcDbMText
 10
486.3495423609152
 20
222.1241052445694
 30
0.0
 40
6.0
 41
0.0
 71
     5
 72
     5
  1
\A1;50
 11
0.5144957554275265
 21
-0.8574929257125442
 31
0.0
 73
     1
 44
1.0
  0
POINT
  5
47EB
330
3ABD
100
AcDbEntity
  8
DEFPOINTS
 62
     0
100
AcDbPoint
 10
533.8906790523211
 20
221.4579297461363
 30
0.0
  0
POINT
  5
47EC
330
3ABD
100
AcDbEntity
  8
DEFPOINTS
 62
     0
100
AcDbPoint
 10
508.1340400700182
 20
264.3856613833077
 30
0.0
  0
POINT
  5
47ED
330
3ABD
100
AcDbEntity
  8
DEFPOINTS
 62
     0
100
AcDbPoint
 10
469.1837582412011
 20
241.0154922860174
 30
0.0
  0
ENDBLK
  5
3AC8
330
3ABD
100
AcDbEntity
  8
0
100
AcDbBlockEnd
  0
BLOCK
  5
3AE6
330
3ADA
100
AcDbEntity
  8
0
100
AcDbBlockBegin
  2
*D9
 70
     1
 71
     0
 10
0.0
 20
0.0
 30
0.0
  3
*D9
  1

  0
LINE
  5
47DA
330
3ADA
100
AcDbEntity
  8
SUNPOU
100
AcDbLine
 10
501.9673191869742
 20
260.4863570334614
 30
0.0
 11
480.8591996119669
 21
247.8214852884568
 31
0.0
  0
LINE
  5
47DB
330
3ADA
100
AcDbEntity
  8
SUNPOU
100
AcDbLine
 10
506.6714550427653
 20
252.646130607143
 30
0.0
 11
485.563335467758
 21
239.9812588621384
 31
0.0
  0
LINE
  5
47DC
330
3ADA
100
AcDbEntity
  8
SUNPOU
100
AcDbLine
 10
479.8302081011118
 20
255.3674230347272
 30
0.0
 11
476.2287378131191
 21
261.369873514715
 31
0.0
  0
LINE
  5
47DD
330
3ADA
100
AcDbEntity
  8
SUNPOU
100
AcDbLine
 10
491.7372845328883
 20
235.5222956484332
 30
0.0
 11
495.338754820881
 21
229.5198451684454
 31
0.0
  0
LINE
  5
47DE
330
3ADA
100
AcDbEntity
  8
SUNPOU
100
AcDbLine
 10
483.4316783891045
 20
249.3649725547394
 30
0.0
 11
488.1358142448956
 21
241.524746128421
 31
0.0
  0
INSERT
  5
47DF
330
3ADA
100
AcDbEntity
  8
SUNPOU
100
AcDbBlockReference
  2
_OPEN
 10
483.4316783891045
 20
249.3649725547394
 30
0.0
 41
7.0
 42
7.0
 43
7.0
 50
300.9637565320738
  0
INSERT
  5
47E0
330
3ADA
100
AcDbEntity
  8
SUNPOU
100
AcDbBlockReference
  2
_OPEN
 10
488.1358142448956
 20
241.524746128421
 30
0.0
 41
7.0
 42
7.0
 43
7.0
 50
120.9637565320738
  0
MTEXT
  5
47E1
330
3ADA
100
AcDbEntity
  8
SUNPOU
100
AcDbMText
 10
490.0712109455628
 20
248.0173381187178
 30
0.0
 40
6.0
 41
0.0
 71
     5
 72
     5
  1
\A1;9
 11
0.514495755427531
 21
-0.8574929257125414
 31
0.0
 73
     1
 44
1.0
  0
POINT
  5
47E2
330
3ADA
100
AcDbEntity
  8
DEFPOINTS
 62
     0
100
AcDbPoint
 10
507.1122767412495
 20
263.5733315660266
 30
0.0
  0
POINT
  5
47E3
330
3ADA
100
AcDbEntity
  8
DEFPOINTS
 62
     0
100
AcDbPoint
 10
511.8164125970406
 20
255.7331051397082
 30
0.0
  0
POINT
  5
47E4
330
3ADA
100
AcDbEntity
  8
DEFPOINTS
 62
     0
100
AcDbPoint
 10
488.1358142448956
 20
241.524746128421
 30
0.0
  0
ENDBLK
  5
3AE7
330
3ADA
100
AcDbEntity
  8
0
100
AcDbBlockEnd
  0
BLOCK
  5
3AF5
330
3AE9
100
AcDbEntity
  8
0
100
AcDbBlockBegin
  2
*D10
 70
     1
 71
     0
 10
0.0
 20
0.0
 30
0.0
  3
*D10
  1

  0
LINE
  5
47EE
330
3AE9
100
AcDbEntity
  8
SUNPOU
100
AcDbLine
 10
524.1589148004091
 20
228.2559460127325
 30
0.0
 11
500.9527444893744
 21
214.3322438261114
 31
0.0
  0
LINE
  5
47EF
330
3AE9
100
AcDbEntity
  8
SUNPOU
100
AcDbLine
 10
529.756168280361
 20
218.9271902128131
 30
0.0
 11
506.5499979693261
 21
205.003488026192
 31
0.0
  0
LINE
  5
47F0
330
3AE9
100
AcDbEntity
  8
SUNPOU
100
AcDbLine
 10
499.9237529785193
 20
221.8781815723818
 30
0.0
 11
496.3222826905266
 21
227.8806320523696
 31
0.0
  0
LINE
  5
47F1
330
3AE9
100
AcDbEntity
  8
SUNPOU
100
AcDbLine
 10
512.7239470344565
 20
200.5445248124868
 30
0.0
 11
516.3254173224492
 21
194.5420743324991
 31
0.0
  0
LINE
  5
47F2
330
3AE9
100
AcDbEntity
  8
SUNPOU
100
AcDbLine
 10
503.525223266512
 20
215.875731092394
 30
0.0
 11
509.1224767464638
 21
206.5469752924746
 31
0.0
  0
INSERT
  5
47F3
330
3AE9
100
AcDbEntity
  8
SUNPOU
100
AcDbBlockReference
  2
_OPEN
 10
503.525223266512
 20
215.875731092394
 30
0.0
 41
7.0
 42
7.0
 43
7.0
 50
300.963756532074
  0
INSERT
  5
47F4
330
3AE9
100
AcDbEntity
  8
SUNPOU
100
AcDbBlockReference
  2
_OPEN
 10
509.1224767464638
 20
206.5469752924746
 30
0.0
 41
7.0
 42
7.0
 43
7.0
 50
120.963756532074
  0
MTEXT
  5
47F5
330
3AE9
100
AcDbEntity
  8
SUNPOU
100
AcDbMText
 10
510.6113146350506
 20
213.783831969572
 30
0.0
 40
6.0
 41
0.0
 71
     5
 72
     5
  1
\A1;11
 11
0.5144957554275337
 21
-0.8574929257125399
 31
0.0
 73
     1
 44
1.0
  0
POINT
  5
47F6
330
3AE9
100
AcDbEntity
  8
DEFPOINTS
 62
     0
100
AcDbPoint
 10
529.3038723546844
 20
231.3429205452977
 30
0.0
  0
POINT
  5
47F7
330
3AE9
100
AcDbEntity
  8
DEFPOINTS
 62
     0
100
AcDbPoint
 10
534.9011258346361
 20
222.0141647453783
 30
0.0
  0
POINT
  5
47F8
330
3AE9
100
AcDbEntity
  8
DEFPOINTS
 62
     0
100
AcDbPoint
 10
509.1224767464638
 20
206.5469752924746
 30
0.0
  0
ENDBLK
  5
3AF6
330
3AE9
100
AcDbEntity
  8
0
100
AcDbBlockEnd
  0
BLOCK
  5
440E
330
4404
100
AcDbEntity
  8
0
100
AcDbBlockBegin
  2
*D11
 70
     1
 71
     0
 10
0.0
 20
0.0
 30
0.0
  3
*D11
  1

  0
LINE
  5
4D97
330
4404
100
AcDbEntity
  8
SUNPOU
100
AcDbLine
 10
396.9671390295484
 20
203.7328175237179
 30
0.0
 11
396.9671390295484
 21
261.9479452038064
 31
0.0
  0
LINE
  5
4D98
330
4404
100
AcDbEntity
  8
SUNPOU
100
AcDbLine
 10
431.9671390295484
 20
203.7328175237179
 30
0.0
 11
431.9671390295484
 21
261.9479452038064
 31
0.0
  0
LINE
  5
4D99
330
4404
100
AcDbEntity
  8
SUNPOU
100
AcDbLine
 10
403.9671390295484
 20
258.9479452038064
 30
0.0
 11
424.9671390295484
 21
258.9479452038064
 31
0.0
  0
INSERT
  5
4D9A
330
4404
100
AcDbEntity
  8
SUNPOU
100
AcDbBlockReference
  2
_OPEN
 10
396.9671390295484
 20
258.9479452038064
 30
0.0
 41
7.0
 42
7.0
 43
7.0
 50
180.0
  0
INSERT
  5
4D9B
330
4404
100
AcDbEntity
  8
SUNPOU
100
AcDbBlockReference
  2
_OPEN
 10
431.9671390295484
 20
258.9479452038064
 30
0.0
 41
7.0
 42
7.0
 43
7.0
  0
MTEXT
  5
4D9C
330
4404
100
AcDbEntity
  8
SUNPOU
100
AcDbMText
 10
414.4671390295484
 20
263.9479452038064
 30
0.0
 40
6.0
 41
0.0
 71
     5
 72
     5
  1
\A1;35
 73
     1
 44
1.0
  0
POINT
  5
4D9D
330
4404
100
AcDbEntity
  8
DEFPOINTS
 62
     0
100
AcDbPoint
 10
396.9671390295484
 20
197.7328175237179
 30
0.0
  0
POINT
  5
4D9E
330
4404
100
AcDbEntity
  8
DEFPOINTS
 62
     0
100
AcDbPoint
 10
431.9671390295484
 20
197.7328175237179
 30
0.0
  0
POINT
  5
4D9F
330
4404
100
AcDbEntity
  8
DEFPOINTS
 62
     0
100
AcDbPoint
 10
431.9671390295484
 20
258.9479452038064
 30
0.0
  0
ENDBLK
  5
440F
330
4404
100
AcDbEntity
  8
0
100
AcDbBlockEnd
  0
BLOCK
  5
441A
330
4410
100
AcDbEntity
  8
0
100
AcDbBlockBegin
  2
*D12
 70
     1
 71
     0
 10
0.0
 20
0.0
 30
0.0
  3
*D12
  1

  0
LINE
  5
4DA0
330
4410
100
AcDbEntity
  8
SUNPOU
100
AcDbLine
 10
427.9116751991443
 20
157.8204943640824
 30
0.0
 11
462.5948816857247
 21
178.6304182560308
 31
0.0
  0
LINE
  5
4DA1
330
4410
100
AcDbEntity
  8
SUNPOU
100
AcDbLine
 10
402.1120965838238
 20
200.8197920562831
 30
0.0
 11
436.7953030704041
 21
221.6297159482315
 31
0.0
  0
LINE
  5
4DA2
330
4410
100
AcDbEntity
  8
SUNPOU
100
AcDbLine
 10
456.4209326205943
 20
183.0893814697361
 30
0.0
 11
437.8242945812592
 21
214.0837782019611
 31
0.0
  0
INSERT
  5
4DA3
330
4410
100
AcDbEntity
  8
SUNPOU
100
AcDbBlockReference
  2
_OPEN
 10
460.022402908587
 20
177.0869309897482
 30
0.0
 41
7.0
 42
7.0
 43
7.0
 50
300.9637565320737
  0
INSERT
  5
4DA4
330
4410
100
AcDbEntity
  8
SUNPOU
100
AcDbBlockReference
  2
_OPEN
 10
434.2228242932665
 20
220.0862286819489
 30
0.0
 41
7.0
 42
7.0
 43
7.0
 50
120.9637565320737
  0
MTEXT
  5
4DA5
330
4410
100
AcDbEntity
  8
SUNPOU
100
AcDbMText
 10
451.4100782294894
 20
201.1590586129862
 30
0.0
 40
6.0
 41
0.0
 71
     5
 72
     5
  1
\A1;50
 11
0.5144957554275296
 21
-0.8574929257125424
 31
0.0
 73
     1
 44
1.0
  0
POINT
  5
4DA6
330
4410
100
AcDbEntity
  8
DEFPOINTS
 62
     0
100
AcDbPoint
 10
422.766717644869
 20
154.7335198315172
 30
0.0
  0
POINT
  5
4DA7
330
4410
100
AcDbEntity
  8
DEFPOINTS
 62
     0
100
AcDbPoint
 10
396.9671390295485
 20
197.7328175237179
 30
0.0
  0
POINT
  5
4DA8
330
4410
100
AcDbEntity
  8
DEFPOINTS
 62
     0
100
AcDbPoint
 10
434.2228242932665
 20
220.0862286819489
 30
0.0
  0
ENDBLK
  5
441B
330
4410
100
AcDbEntity
  8
0
100
AcDbBlockEnd
  0
BLOCK
  5
4426
330
441C
100
AcDbEntity
  8
0
100
AcDbBlockBegin
  2
*D13
 70
     1
 71
     0
 10
0.0
 20
0.0
 30
0.0
  3
*D13
  1

  0
LINE
  5
4DA9
330
441C
100
AcDbEntity
  8
SUNPOU
100
AcDbLine
 10
262.9716921654481
 20
195.0542651182503
 30
0.0
 11
262.9716921654481
 21
261.9479452038064
 31
0.0
  0
LINE
  5
4DAA
330
441C
100
AcDbEntity
  8
SUNPOU
100
AcDbLine
 10
396.9671390295484
 20
203.7328175237179
 30
0.0
 11
396.9671390295484
 21
261.9479452038064
 31
0.0
  0
LINE
  5
4DAB
330
441C
100
AcDbEntity
  8
SUNPOU
100
AcDbLine
 10
269.9716921654481
 20
258.9479452038064
 30
0.0
 11
389.9671390295484
 21
258.9479452038064
 31
0.0
  0
INSERT
  5
4DAC
330
441C
100
AcDbEntity
  8
SUNPOU
100
AcDbBlockReference
  2
_OPEN
 10
262.9716921654481
 20
258.9479452038064
 30
0.0
 41
7.0
 42
7.0
 43
7.0
 50
180.0
  0
INSERT
  5
4DAD
330
441C
100
AcDbEntity
  8
SUNPOU
100
AcDbBlockReference
  2
_OPEN
 10
396.9671390295484
 20
258.9479452038064
 30
0.0
 41
7.0
 42
7.0
 43
7.0
  0
MTEXT
  5
4DAE
330
441C
100
AcDbEntity
  8
SUNPOU
100
AcDbMText
 10
329.9694155974983
 20
263.9479452038064
 30
0.0
 40
6.0
 41
0.0
 71
     5
 72
     5
  1
\A1;134
 73
     1
 44
1.0
  0
POINT
  5
4DAF
330
441C
100
AcDbEntity
  8
DEFPOINTS
 62
     0
100
AcDbPoint
 10
262.9716921654481
 20
189.0542651182503
 30
0.0
  0
POINT
  5
4DB0
330
441C
100
AcDbEntity
  8
DEFPOINTS
 62
     0
100
AcDbPoint
 10
396.9671390295484
 20
197.7328175237179
 30
0.0
  0
POINT
  5
4DB1
330
441C
100
AcDbEntity
  8
DEFPOINTS
 62
     0
100
AcDbPoint
 10
396.9671390295484
 20
258.9479452038064
 30
0.0
  0
ENDBLK
  5
4427
330
441C
100
AcDbEntity
  8
0
100
AcDbBlockEnd
  0
BLOCK
  5
4432
330
4428
100
AcDbEntity
  8
0
100
AcDbBlockBegin
  2
*D14
 70
     1
 71
     0
 10
0.0
 20
0.0
 30
0.0
  3
*D14
  1

  0
LINE
  5
4DB2
330
4428
100
AcDbEntity
  8
SUNPOU
100
AcDbLine
 10
261.1024606538251
 20
193.6918050534602
 30
0.0
 11
228.452281522687
 21
193.6918050534602
 31
0.0
  0
LINE
  5
4DB3
330
4428
100
AcDbEntity
  8
SUNPOU
100
AcDbLine
 10
411.4017922238689
 20
152.0469653045171
 30
0.0
 11
228.4522815226869
 21
152.0469653045171
 31
0.0
  0
LINE
  5
4DB4
330
4428
100
AcDbEntity
  8
SUNPOU
100
AcDbLine
 10
231.4522815226869
 20
186.6918050534602
 30
0.0
 11
231.4522815226869
 21
159.0469653045171
 31
0.0
  0
INSERT
  5
4DB5
330
4428
100
AcDbEntity
  8
SUNPOU
100
AcDbBlockReference
  2
_OPEN
 10
231.452281522687
 20
193.6918050534602
 30
0.0
 41
7.0
 42
7.0
 43
7.0
 50
90.0
  0
INSERT
  5
4DB6
330
4428
100
AcDbEntity
  8
SUNPOU
100
AcDbBlockReference
  2
_OPEN
 10
231.4522815226869
 20
152.0469653045171
 30
0.0
 41
7.0
 42
7.0
 43
7.0
 50
270.0
  0
MTEXT
  5
4DB7
330
4428
100
AcDbEntity
  8
SUNPOU
100
AcDbMText
 10
226.4522815226869
 20
172.8693851789887
 30
0.0
 40
6.0
 41
0.0
 71
     5
 72
     5
  1
\A1;42
 11
6.123031769111886E-17
 21
1.0
 31
0.0
 73
     1
 44
1.0
  0
POINT
  5
4DB8
330
4428
100
AcDbEntity
  8
DEFPOINTS
 62
     0
100
AcDbPoint
 10
267.1024606538251
 20
193.6918050534602
 30
0.0
  0
POINT
  5
4DB9
330
4428
100
AcDbEntity
  8
DEFPOINTS
 62
     0
100
AcDbPoint
 10
417.4017922238689
 20
152.0469653045171
 30
0.0
  0
POINT
  5
4DBA
330
4428
100
AcDbEntity
  8
DEFPOINTS
 62
     0
100
AcDbPoint
 10
231.4522815226869
 20
152.0469653045171
 30
0.0
  0
ENDBLK
  5
4433
330
4428
100
AcDbEntity
  8
0
100
AcDbBlockEnd
  0
BLOCK
  5
4440
330
4434
100
AcDbEntity
  8
0
100
AcDbBlockBegin
  2
*D15
 70
     1
 71
     0
 10
0.0
 20
0.0
 30
0.0
  3
*D15
  1

  0
LINE
  5
4DBB
330
4434
100
AcDbEntity
  8
SUNPOU
100
AcDbLine
 10
396.9671390295484
 20
203.7328175237179
 30
0.0
 11
396.9671390295484
 21
237.0853636270518
 31
0.0
  0
LINE
  5
4DBC
330
4434
100
AcDbEntity
  8
SUNPOU
100
AcDbLine
 10
386.6104603623967
 20
186.1396626886179
 30
0.0
 11
386.6104603623967
 21
237.0853636270518
 31
0.0
  0
LINE
  5
4DBD
330
4434
100
AcDbEntity
  8
SUNPOU
100
AcDbLine
 10
403.9671390295484
 20
234.0853636270518
 30
0.0
 11
410.9671390295484
 21
234.0853636270518
 31
0.0
  0
LINE
  5
4DBE
330
4434
100
AcDbEntity
  8
SUNPOU
100
AcDbLine
 10
379.6104603623967
 20
234.0853636270518
 30
0.0
 11
361.6104603623967
 21
234.0853636270518
 31
0.0
  0
LINE
  5
4DBF
330
4434
100
AcDbEntity
  8
SUNPOU
100
AcDbLine
 10
396.9671390295484
 20
234.0853636270518
 30
0.0
 11
386.6104603623967
 21
234.0853636270518
 31
0.0
  0
INSERT
  5
4DC0
330
4434
100
AcDbEntity
  8
SUNPOU
100
AcDbBlockReference
  2
_OPEN
 10
396.9671390295484
 20
234.0853636270518
 30
0.0
 41
7.0
 42
7.0
 43
7.0
 50
180.0
  0
INSERT
  5
4DC1
330
4434
100
AcDbEntity
  8
SUNPOU
100
AcDbBlockReference
  2
_OPEN
 10
386.6104603623967
 20
234.0853636270518
 30
0.0
 41
7.0
 42
7.0
 43
7.0
  0
MTEXT
  5
4DC2
330
4434
100
AcDbEntity
  8
SUNPOU
100
AcDbMText
 10
367.1104603623967
 20
239.0853636270518
 30
0.0
 40
6.0
 41
0.0
 71
     5
 72
     5
  1
\A1;10
 73
     1
 44
1.0
  0
POINT
  5
4DC3
330
4434
100
AcDbEntity
  8
DEFPOINTS
 62
     0
100
AcDbPoint
 10
396.9671390295484
 20
197.7328175237179
 30
0.0
  0
POINT
  5
4DC4
330
4434
100
AcDbEntity
  8
DEFPOINTS
 62
     0
100
AcDbPoint
 10
386.6104603623967
 20
180.1396626886179
 30
0.0
  0
POINT
  5
4DC5
330
4434
100
AcDbEntity
  8
DEFPOINTS
 62
     0
100
AcDbPoint
 10
386.6104603623967
 20
234.0853636270518
 30
0.0
  0
ENDBLK
  5
4441
330
4434
100
AcDbEntity
  8
0
100
AcDbBlockEnd
  0
BLOCK
  5
444C
330
4442
100
AcDbEntity
  8
0
100
AcDbBlockBegin
  2
*D16
 70
     1
 71
     0
 10
0.0
 20
0.0
 30
0.0
  3
*D16
  1

  0
LINE
  5
4DC6
330
4442
100
AcDbEntity
  8
SUNPOU
100
AcDbLine
 10
297.967139029548
 20
181.6396626886179
 30
0.0
 11
297.967139029548
 21
248.7423063139946
 31
0.0
  0
LINE
  5
4DC7
330
4442
100
AcDbEntity
  8
SUNPOU
100
AcDbLine
 10
396.9671390295484
 20
209.7328175237179
 30
0.0
 11
396.9671390295484
 21
248.7423063139946
 31
0.0
  0
LINE
  5
4DC8
330
4442
100
AcDbEntity
  8
SUNPOU
100
AcDbLine
 10
304.967139029548
 20
245.7423063139946
 30
0.0
 11
389.9671390295484
 21
245.7423063139946
 31
0.0
  0
INSERT
  5
4DC9
330
4442
100
AcDbEntity
  8
SUNPOU
100
AcDbBlockReference
  2
_OPEN
 10
297.967139029548
 20
245.7423063139946
 30
0.0
 41
7.0
 42
7.0
 43
7.0
 50
180.0
  0
INSERT
  5
4DCA
330
4442
100
AcDbEntity
  8
SUNPOU
100
AcDbBlockReference
  2
_OPEN
 10
396.9671390295484
 20
245.7423063139946
 30
0.0
 41
7.0
 42
7.0
 43
7.0
  0
MTEXT
  5
4DCB
330
4442
100
AcDbEntity
  8
SUNPOU
100
AcDbMText
 10
347.4671390295482
 20
250.7423063139946
 30
0.0
 40
6.0
 41
0.0
 71
     5
 72
     5
  1
\A1;99
 73
     1
 44
1.0
  0
POINT
  5
4DCC
330
4442
100
AcDbEntity
  8
DEFPOINTS
 62
     0
100
AcDbPoint
 10
297.967139029548
 20
175.6396626886179
 30
0.0
  0
POINT
  5
4DCD
330
4442
100
AcDbEntity
  8
DEFPOINTS
 62
     0
100
AcDbPoint
 10
396.9671390295484
 20
203.7328175237179
 30
0.0
  0
POINT
  5
4DCE
330
4442
100
AcDbEntity
  8
DEFPOINTS
 62
     0
100
AcDbPoint
 10
396.9671390295484
 20
245.7423063139946
 30
0.0
  0
ENDBLK
  5
444D
330
4442
100
AcDbEntity
  8
0
100
AcDbBlockEnd
  0
ENDSEC
  0
SECTION
  2
ENTITIES
  0
ARC
  5
2210
330
1A
100
AcDbEntity
  8
SEIHIN
  6
Continuous
100
AcDbCircle
 10
566.8953637039472
 20
251.2955868068351
 30
0.0
 40
3.500000000000031
100
AcDbArc
 50
300.9637565320791
 51
30.96375653206514
  0
LINE
  5
2211
330
1A
100
AcDbEntity
  8
SEIHIN
  6
Continuous
100
AcDbLine
 10
564.151386766358
 20
249.0661048541971
 30
0.0
 11
567.1526115816607
 21
250.8668403439788
 31
0.0
  0
LWPOLYLINE
  5
2212
330
1A
100
AcDbEntity
  8
SEIHIN
  6
Continuous
100
AcDbPolyline
 90
       13
 70
   128
 43
0.0
 10
580.7769979608064
 20
249.5396880210803
 10
581.852103745425
 20
250.2848176321456
 10
582.8205232110879
 20
251.164350001069
 10
583.6656872066131
 20
252.163234774026
 10
584.3731329578579
 20
253.2643844436822
 10
584.9307543123734
 20
254.4489559987334
 10
585.329013382433
 20
255.6966824281606
 10
585.5610922071112
 20
256.9862136854558
 10
585.6230262176986
 20
258.2954843602818
 10
585.5137488589935
 20
259.6020954714134
 10
585.2351331087939
 20
260.8836869480172
 10
584.7919448361038
 20
262.1183339551396
 10
584.1917687453265
 20
263.2849092619246
  0
LINE
  5
2213
330
1A
100
AcDbEntity
  8
SEIHIN
  6
Continuous
100
AcDbLine
 10
520.7622443006121
 20
241.6916660388546
 30
0.0
 11
534.482131280673
 21
249.9235974825619
 31
0.0
  0
LINE
  5
2214
330
1A
100
AcDbEntity
  8
SEIHIN
  6
Continuous
100
AcDbLine
 10
534.482131280673
 20
249.9235974825619
 30
0.0
 11
542.7140633041034
 21
236.2037107768443
 31
0.0
  0
LINE
  5
2215
330
1A
100
AcDbEntity
  8
SEIHIN
  6
Continuous
100
AcDbLine
 10
545.4580403027052
 20
235.5177176795833
 30
0.0
 11
535.1681256432069
 21
252.6675754454139
 31
0.0
  0
ARC
  5
2217
330
1A
100
AcDbEntity
  8
SEIHIN
  6
Continuous
100
AcDbCircle
 10
514.9182730754619
 20
251.4316180807716
 30
0.0
 40
3.750000000000018
100
AcDbArc
 50
148.2360919299206
 51
93.69142113420463
  0
LINE
  5
2218
330
1A
100
AcDbEntity
  8
SEIHIN
  6
Continuous
100
AcDbLine
 10
505.2568211427488
 20
251.0130066730936
 30
0.0
 11
520.7372914248292
 21
225.2122228696262
 31
0.0
  0
LINE
  5
221A
330
1A
100
AcDbEntity
  8
SEIHIN
  6
Continuous
100
AcDbLine
 10
568.0958537999446
 20
273.5904028753612
 30
0.0
 11
519.2187570343297
 21
244.2641448159922
 31
0.0
  0
LINE
  5
221B
330
1A
100
AcDbEntity
  8
SEIHIN
  6
Continuous
100
AcDbLine
 10
555.9194547429274
 20
262.7859915599146
 30
0.0
 11
564.151386766358
 21
249.0661048541971
 31
0.0
  0
LINE
  5
221C
330
1A
100
AcDbEntity
  8
SEIHIN
  6
Continuous
100
AcDbLine
 10
563.4653914998934
 20
246.3221283978963
 30
0.0
 11
553.1754768403949
 21
263.4719861637269
 31
0.0
  0
LINE
  5
2224
330
1A
100
AcDbEntity
  8
SEIHIN
  6
Continuous
100
AcDbLine
 10
580.7769979608064
 20
249.5396880210803
 30
0.0
 11
534.4723787712304
 21
221.7569165073349
 31
0.0
  0
LINE
  5
2225
330
1A
100
AcDbEntity
  8
SEIHIN
  6
Continuous
100
AcDbLine
 10
563.4653914998934
 20
246.3221283978963
 30
0.0
 11
545.4580403027052
 21
235.5177176795833
 31
0.0
  0
LINE
  5
2226
330
1A
100
AcDbEntity
  8
SEIHIN
  6
Continuous
100
AcDbLine
 10
541.2563252251421
 20
231.8304973931603
 30
0.0
 11
568.6960988479434
 21
248.2943615668412
 31
0.0
  0
ARC
  5
2227
330
1A
100
AcDbEntity
  8
SEIHIN
  6
Continuous
100
AcDbCircle
 10
529.6801707280225
 20
230.715756589734
 30
0.0
 40
7.000000000000004
100
AcDbArc
 50
30.96375653206514
 51
120.9637565320791
  0
CIRCLE
  5
2229
330
1A
100
AcDbEntity
  8
SEIHIN
  6
Continuous
100
AcDbCircle
 10
529.3038723546845
 20
231.3429205452977
 30
0.0
 40
2.600000000000014
  0
ARC
  5
222A
330
1A
100
AcDbEntity
  8
SEIHIN
  6
Continuous
100
AcDbCircle
 10
529.6801707280225
 20
230.715756589734
 30
0.0
 40
10.00000000000001
100
AcDbArc
 50
30.96375653206514
 51
120.9637565320791
  0
LWPOLYLINE
  5
222B
330
1A
100
AcDbEntity
  8
SEIHIN
  6
Continuous
100
AcDbPolyline
 90
       13
 70
   128
 43
0.0
 10
534.4723787712306
 20
221.756916507335
 10
533.3089793334113
 20
221.1589429849375
 10
532.0771945534613
 20
220.718352806493
 10
530.7981014029579
 20
220.4426832918329
 10
529.4935831056166
 20
220.3366545323373
 10
528.1859628607996
 20
220.402081127789
 10
526.8976117430416
 20
220.6378414445257
 10
525.6505764808735
 20
221.0399042497132
 10
524.4661922333977
 20
221.6013839697014
 10
523.3647247159075
 20
222.312680985562
 10
522.3650220013511
 20
223.1616202835516
 10
521.4841867704502
 20
224.1336791157476
 10
520.7372914248292
 20
225.2122228696262
  0
ARC
  5
222C
330
1A
100
AcDbEntity
  8
SEIHIN
  6
Continuous
100
AcDbCircle
 10
521.0194921783259
 20
241.2629195759982
 30
0.0
 40
3.500000000000012
100
AcDbArc
 50
120.9637565320791
 51
210.9637565320652
  0
ARC
  5
222D
330
1A
100
AcDbEntity
  8
SEIHIN
  6
Continuous
100
AcDbCircle
 10
521.0194921783259
 20
241.2629195759983
 30
0.0
 40
0.500000000000015
100
AcDbArc
 50
120.9637565320791
 51
210.9637565320652
  0
ARC
  5
222F
330
1A
100
AcDbEntity
  8
SEIHIN
  6
Continuous
100
AcDbCircle
 10
522.5629794446086
 20
238.6904407988607
 30
0.0
 40
3.500000000000012
100
AcDbArc
 50
210.9637565320652
 51
300.9637565320791
  0
LINE
  5
2230
330
1A
100
AcDbEntity
  8
SEIHIN
  6
Continuous
100
AcDbLine
 10
524.5352131737473
 20
239.2906858468595
 30
0.0
 11
522.8202273223221
 21
238.2616943360044
 31
0.0
  0
ARC
  5
2232
330
1A
100
AcDbEntity
  8
SEIHIN
  6
Continuous
100
AcDbCircle
 10
522.5629794446086
 20
238.6904407988607
 30
0.0
 40
0.5000000000000267
100
AcDbArc
 50
210.9637565320652
 51
300.9637565320791
  0
LINE
  5
2234
330
1A
100
AcDbEntity
  8
SEIHIN
  6
Continuous
100
AcDbLine
 10
519.5617542046144
 20
236.8897056548644
 30
0.0
 11
518.0182669383321
 21
239.462184432002
 31
0.0
  0
LINE
  5
2235
330
1A
100
AcDbEntity
  8
SEIHIN
  6
Continuous
100
AcDbLine
 10
522.1342329817522
 20
238.4331929211469
 30
0.0
 11
520.5907457154696
 21
241.0056716982846
 31
0.0
  0
LINE
  5
2236
330
1A
100
AcDbEntity
  8
SEIHIN
  6
Continuous
100
AcDbLine
 10
526.0787004400299
 20
236.7182070697218
 30
0.0
 11
524.3637145886048
 21
235.6892155588668
 31
0.0
  0
LINE
  5
223A
330
1A
100
AcDbEntity
  8
SEIHIN
  6
Continuous
100
AcDbLine
 10
536.4543648411516
 20
233.0309874891579
 30
0.0
 11
535.6826212080105
 21
234.3172268777267
 31
0.0
  0
ARC
  5
223C
330
1A
100
AcDbEntity
  8
SEIHIN
  6
Continuous
100
AcDbCircle
 10
539.4555900811456
 20
234.8317226331542
 30
0.0
 40
3.5
100
AcDbArc
 50
210.9637565320652
 51
300.9637565320791
  0
LINE
  5
2244
330
1A
100
AcDbEntity
  8
SEIHIN
  6
Continuous
100
AcDbLine
 10
542.7140633041034
 20
236.2037107768443
 30
0.0
 11
539.7128379588594
 21
234.402976170298
 31
0.0
  0
ARC
  5
2245
330
1A
100
AcDbEntity
  8
SEIHIN
  6
Continuous
100
AcDbCircle
 10
539.4555900811456
 20
234.8317226331542
 30
0.0
 40
0.4999999999999955
100
AcDbArc
 50
210.9637565320652
 51
300.9637565320791
  0
LINE
  5
2246
330
1A
100
AcDbEntity
  8
SEIHIN
  6
Continuous
100
AcDbLine
 10
539.0268436182894
 20
234.5744747554404
 30
0.0
 11
538.2550999851479
 21
235.8607141440093
 31
0.0
  0
LINE
  5
2248
330
1A
100
AcDbEntity
  8
SEIHIN
  6
Continuous
100
AcDbLine
 10
542.7140633041034
 20
236.2037107768443
 30
0.0
 11
545.4580403027052
 21
235.5177176795833
 31
0.0
  0
LINE
  5
2249
330
1A
100
AcDbEntity
  8
SEIHIN
  6
Continuous
100
AcDbLine
 10
564.151386766358
 20
249.0661048541971
 30
0.0
 11
563.4653914998934
 21
246.3221283978963
 31
0.0
  0
LWPOLYLINE
  5
2252
330
1A
100
AcDbEntity
  8
SEIHIN
  6
Continuous
100
AcDbPolyline
 90
       13
 70
   128
 43
0.0
 10
505.2568211427488
 20
251.0130066730936
 10
504.6566452984982
 20
252.179581569001
 10
504.2134574161417
 20
253.4142279255672
 10
503.9348413372402
 20
254.6958199500077
 10
503.8255644305002
 20
256.0024303078638
 10
503.8874975371568
 20
257.311702489241
 10
504.1195771425026
 20
258.6012324454237
 10
504.5178364899046
 20
259.8489584126137
 10
505.0754580601308
 20
261.033529608147
 10
505.7829036932483
 20
262.1346794746821
 10
506.6280667899788
 20
263.1335657456303
 10
507.5964866925202
 20
264.0130973864228
 10
508.6715934475162
 20
264.7582253801926
  0
LINE
  5
225B
330
1A
100
AcDbEntity
  8
SEIHIN
  6
Continuous
100
AcDbLine
 10
554.976212637092
 20
292.5409968939379
 30
0.0
 11
544.8844211409032
 21
286.4859219962248
 31
0.0
  0
LINE
  5
225C
330
1A
100
AcDbEntity
  8
SEIHIN
  6
Continuous
100
AcDbLine
 10
535.1681256432069
 20
252.6675754454139
 30
0.0
 11
553.1754768403949
 21
263.4719861637269
 31
0.0
  0
LINE
  5
2261
330
1A
100
AcDbEntity
  8
SEIHIN
  6
Continuous
100
AcDbLine
 10
542.1858801386261
 20
284.8667973948585
 30
0.0
 11
521.4619259459819
 21
272.432424879272
 31
0.0
  0
LINE
  5
2268
330
1A
100
AcDbEntity
  8
SEIHIN
  6
Continuous
100
AcDbLine
 10
508.6715934475162
 20
264.7582253801926
 30
0.0
 11
518.7633849437048
 21
270.8133002779057
 31
0.0
  0
ARC
  5
226B
330
1A
100
AcDbEntity
  8
SEIHIN
  6
Continuous
100
AcDbCircle
 10
512.199477481643
 20
255.9629440704697
 30
0.0
 40
2.6
100
AcDbArc
 50
342.331912877816
 51
259.5956001863389
  0
LWPOLYLINE
  5
2283
330
1A
100
AcDbEntity
  8
SEIHIN
  6
Continuous
100
AcDbPolyline
 90
        3
 70
   128
 43
0.0
 10
518.7633849437048
 20
270.8133002779057
 10
520.083892031854
 20
271.670800695155
 10
521.4619259459819
 20
272.432424879272
  0
LINE
  5
2285
330
1A
100
AcDbEntity
  8
SEIHIN
  6
Continuous
100
AcDbLine
 10
535.1681256432069
 20
252.6675754454139
 30
0.0
 11
534.482131280673
 21
249.9235974825619
 31
0.0
  0
LWPOLYLINE
  5
229F
330
1A
100
AcDbEntity
  8
SEIHIN
  6
Continuous
100
AcDbPolyline
 90
        3
 70
   128
 43
0.0
 10
544.8844211409032
 20
286.4859219962248
 10
543.5063880253777
 20
285.7242982912692
 10
542.1858801386261
 20
284.8667973948585
  0
LINE
  5
22B7
330
1A
100
AcDbEntity
  8
SEIHIN
  6
Continuous
100
AcDbLine
 10
568.7112984632463
 20
289.085693065392
 30
0.0
 11
584.1917687453265
 21
263.2849092619246
 31
0.0
  0
ARC
  5
22B8
330
1A
100
AcDbEntity
  8
SEIHIN
  6
Continuous
100
AcDbCircle
 10
563.795369841077
 20
280.7578761401406
 30
0.0
 40
3.75000000000003
100
AcDbArc
 50
148.2360919299206
 51
93.69142113420463
  0
ARC
  5
22B9
330
1A
100
AcDbEntity
  8
SEIHIN
  6
Continuous
100
AcDbCircle
 10
571.4400762102237
 20
268.0166988582297
 30
0.0
 40
3.499999999999993
100
AcDbArc
 50
300.9637565320791
 51
30.96375653206514
  0
CIRCLE
  5
22BB
330
1A
100
AcDbEntity
  8
SEIHIN
  6
Continuous
100
AcDbCircle
 10
574.7509974174493
 20
258.6111955829566
 30
0.0
 40
2.599999999999983
  0
ARC
  5
22BE
330
1A
100
AcDbEntity
  8
SEIHIN
  6
Continuous
100
AcDbCircle
 10
575.1272957907873
 20
257.9840316273929
 30
0.0
 40
10.00000000000001
100
AcDbArc
 50
120.9637565320791
 51
210.9637565320652
  0
LINE
  5
22BF
330
1A
100
AcDbEntity
  8
SEIHIN
  6
Continuous
100
AcDbLine
 10
569.6393410662273
 20
271.0179240982236
 30
0.0
 11
555.9194547429274
 21
262.7859915599146
 31
0.0
  0
LINE
  5
22C0
330
1A
100
AcDbEntity
  8
SEIHIN
  6
Continuous
100
AcDbLine
 10
553.1754768403949
 20
263.4719861637269
 30
0.0
 11
555.9194547429274
 21
262.7859915599146
 31
0.0
  0
ARC
  5
22C1
330
1A
100
AcDbEntity
  8
SEIHIN
  6
Continuous
100
AcDbCircle
 10
575.1272957907873
 20
257.9840316273929
 30
0.0
 40
7.000000000000012
100
AcDbArc
 50
120.9637565320791
 51
210.9637565320652
  0
LINE
  5
22C2
330
1A
100
AcDbEntity
  8
SEIHIN
  6
Continuous
100
AcDbLine
 10
569.896588943941
 20
253.0963219508314
 30
0.0
 11
569.1248453107997
 21
254.3825613394002
 31
0.0
  0
LINE
  5
22C4
330
1A
100
AcDbEntity
  8
SEIHIN
  6
Continuous
100
AcDbLine
 10
567.3241101668035
 20
251.5528346845488
 30
0.0
 11
566.5523665336619
 21
252.8390740731177
 31
0.0
  0
ARC
  5
22C6
330
1A
100
AcDbEntity
  8
SEIHIN
  6
Continuous
100
AcDbCircle
 10
566.8953637039472
 20
251.2955868068351
 30
0.0
 40
0.5000000000000345
100
AcDbArc
 50
300.9637565320791
 51
30.96375653206514
  0
LINE
  5
22C7
330
1A
100
AcDbEntity
  8
SEIHIN
  6
Continuous
100
AcDbLine
 10
571.5258255027948
 20
263.9864821073807
 30
0.0
 11
573.2408113542199
 21
265.0154736182358
 31
0.0
  0
ARC
  5
22CC
330
1A
100
AcDbEntity
  8
SEIHIN
  6
Continuous
100
AcDbCircle
 10
569.896588943941
 20
270.5891776353673
 30
0.0
 40
3.500000000000023
100
AcDbArc
 50
30.96375653206514
 51
120.9637565320791
  0
LINE
  5
22CE
330
1A
100
AcDbEntity
  8
SEIHIN
  6
Continuous
100
AcDbLine
 10
571.86882267308
 20
268.2739467359434
 30
0.0
 11
570.3253354067973
 21
270.8464255130811
 31
0.0
  0
ARC
  5
22CF
330
1A
100
AcDbEntity
  8
SEIHIN
  6
Continuous
100
AcDbCircle
 10
569.896588943941
 20
270.5891776353673
 30
0.0
 40
0.5000000000000267
100
AcDbArc
 50
30.96375653206514
 51
120.9637565320791
  0
LINE
  5
22D0
330
1A
100
AcDbEntity
  8
SEIHIN
  6
Continuous
100
AcDbLine
 10
569.9823382365121
 20
266.5589608845183
 30
0.0
 11
571.6973240879372
 21
267.5879523953734
 31
0.0
  0
ARC
  5
22D2
330
1A
100
AcDbEntity
  8
SEIHIN
  6
Continuous
100
AcDbCircle
 10
571.4400762102237
 20
268.0166988582297
 30
0.0
 40
0.5000000000000033
100
AcDbArc
 50
300.9637565320791
 51
30.96375653206514
  0
LINE
  5
22D3
330
1A
100
AcDbEntity
  8
SEIHIN
  6
Continuous
100
AcDbLine
 10
574.4413014502175
 20
269.817434002226
 30
0.0
 11
572.8978141839348
 21
272.3899127793636
 31
0.0
  0
ARC
  5
22D6
330
1A
100
AcDbEntity
  8
SEIHIN
  6
Continuous
100
AcDbCircle
 10
561.0765742472581
 20
285.2892021298387
 30
0.0
 40
2.600000000000038
100
AcDbArc
 50
342.3319128778083
 51
259.5956001863389
  0
LWPOLYLINE
  5
22D8
330
1A
100
AcDbEntity
  8
SEIHIN
  6
Continuous
100
AcDbPolyline
 90
       13
 70
   128
 43
0.0
 10
568.7112984632463
 20
289.085693065392
 10
567.9644033641516
 20
290.164236408393
 10
567.0835685235845
 20
291.1362945900328
 10
566.0838654803258
 20
291.9852344358592
 10
564.9823984148011
 20
292.6965306984442
 10
563.7980132633946
 20
293.2580119249835
 10
562.5509787818942
 20
293.6600734290587
 10
561.2626279414785
 20
293.895833283558
 10
559.9550079123721
 20
293.9612595194918
 10
558.6504894969036
 20
293.8552309568752
 10
557.3713954476054
 20
293.5795629402062
 10
556.1396111045339
 20
293.138972033631
 10
554.976212637092
 20
292.5409968939379
  0
LINE
  5
22DC
330
1A
100
AcDbEntity
  8
0
  6
Continuous
 62
     7
100
AcDbLine
 10
568.4441841620796
 20
289.5308826405315
 30
0.0
 11
568.7112984632463
 21
289.085693065392
 31
0.0
  0
LINE
  5
2311
330
1A
100
AcDbEntity
  8
CENTER L
  6
CENTER
 62
     1
 48
5.0
100
AcDbLine
 10
567.0072464469888
 20
220.0945106372685
 30
0.0
 11
526.438346446989
 21
287.6127106372683
 31
0.0
  0
LINE
  5
2314
330
1A
100
AcDbEntity
  8
CENTER L
  6
CENTER
 62
     1
 48
5.0
100
AcDbLine
 10
516.1439449399207
 20
258.3296245454363
 30
0.0
 11
508.2550100233653
 21
253.5962635955031
 31
0.0
  0
LINE
  5
2315
330
1A
100
AcDbEntity
  8
CENTER L
  6
CENTER
 62
     1
 48
5.0
100
AcDbLine
 10
519.8488573983091
 20
254.3899686744799
 30
0.0
 11
509.9876887526148
 21
248.4732674870633
 31
0.0
  0
LINE
  5
2316
330
1A
100
AcDbEntity
  8
CENTER L
  6
CENTER
 62
     1
 48
5.0
100
AcDbLine
 10
533.2483398129622
 20
233.7096010202644
 30
0.0
 11
525.3594048964068
 21
228.9762400703311
 31
0.0
  0
LINE
  5
2317
330
1A
100
AcDbEntity
  8
CENTER L
  6
CENTER
 62
     1
 48
5.0
100
AcDbLine
 10
526.9371918797178
 20
235.2873880035754
 30
0.0
 11
531.670552829651
 21
227.3984530870199
 31
0.0
  0
LINE
  5
2318
330
1A
100
AcDbEntity
  8
CENTER L
  6
CENTER
 62
     1
 48
5.0
100
AcDbLine
 10
517.8766236691702
 20
246.5010337579245
 30
0.0
 11
509.8327970066764
 21
259.9074115287474
 31
0.0
  0
LINE
  5
231D
330
1A
100
AcDbEntity
  8
CENTER L
  6
CENTER
 62
     1
 48
5.0
100
AcDbLine
 10
566.7537204347852
 20
275.8272918172935
 30
0.0
 11
558.7098937722915
 21
289.2336695881164
 31
0.0
  0
LINE
  5
231E
330
1A
100
AcDbEntity
  8
CENTER L
  6
CENTER
 62
     1
 48
5.0
100
AcDbLine
 10
565.0210417055358
 20
287.6558826048053
 30
0.0
 11
557.1321067889804
 21
282.9225216548721
 31
0.0
  0
LINE
  5
231F
330
1A
100
AcDbEntity
  8
CENTER L
  6
CENTER
 62
     1
 48
5.0
100
AcDbLine
 10
568.7259541639241
 20
283.7162267338489
 30
0.0
 11
558.8647855182298
 21
277.7995255464323
 31
0.0
  0
LINE
  5
2320
330
1A
100
AcDbEntity
  8
CENTER L
  6
CENTER
 62
     1
 48
5.0
100
AcDbLine
 10
572.3843169424827
 20
262.5556630412343
 30
0.0
 11
577.1176778924158
 21
254.6667281246788
 31
0.0
  0
LINE
  5
2321
330
1A
100
AcDbEntity
  8
CENTER L
  6
CENTER
 62
     1
 48
5.0
100
AcDbLine
 10
578.695464875727
 20
260.9778760579233
 30
0.0
 11
570.8065299591716
 21
256.24451510799
 31
0.0
  0
LEADER
  5
2383
330
1A
100
AcDbEntity
  8
SUNPOU
  6
Continuous
 62
     4
100
AcDbLeader
  3
STANDARD
 74
     0
 40
6.0
 41
31.2
 76
     3
 10
568.5821416189708
 20
281.0334640130968
 30
0.0
 10
590.9049810536212
 20
260.9221615750166
 30
0.0
 10
605.7230860500918
 20
260.9221615750166
 30
0.0
1001
ACAD
1000
DSTYLE
1002
{
1070
     6
1000
OPEN
1070
    41
1040
7.0
1070
    42
1040
6.0
1070
    43
1040
14.0
1070
    44
1040
3.0
1070
    73
1070
     0
1070
    74
1070
     0
1070
    77
1070
     3
1070
   140
1040
6.0
1070
   141
1040
150.0
1070
   147
1040
2.0
1070
   172
1070
     1
1070
   173
1070
     1
1070
   176
1070
     4
1070
   177
1070
     4
1070
   178
1070
     4
1070
   271
1070
     0
1070
   272
1070
     2
1070
   341
1005
6D
1070
   343
1005
6D
1070
   344
1005
6D
1002
}
  0
MTEXT
  5
2384
330
1A
100
AcDbEntity
  8
SUNPOU
  6
Continuous
 62
     4
100
AcDbMText
 10
601.3358660571104
 20
262.9221615750166
 30
0.0
 40
6.0
 41
0.0
 71
     7
 72
     5
  1
2-φ6.5
 73
     1
 44
1.0
  0
LEADER
  5
2385
330
1A
100
AcDbEntity
  8
SUNPOU
  6
Continuous
 62
     4
100
AcDbLeader
  3
STANDARD
 40
6.0
 41
31.2
 76
     3
 10
508.5947829362468
 20
258.1747620379622
 30
0.0
 10
471.1522667351493
 20
285.5215106712381
 30
0.0
 10
469.3673779660531
 20
285.5215106712381
 30
0.0
1001
ACAD
1000
DSTYLE
1002
{
1070
     6
1000
OPEN
1070
    41
1040
7.0
1070
    42
1040
6.0
1070
    43
1040
14.0
1070
    44
1040
3.0
1070
    73
1070
     0
1070
    74
1070
     0
1070
    77
1070
     3
1070
   140
1040
6.0
1070
   141
1040
150.0
1070
   147
1040
2.0
1070
   172
1070
     1
1070
   173
1070
     1
1070
   176
1070
     4
1070
   177
1070
     4
1070
   178
1070
     4
1070
   271
1070
     0
1070
   272
1070
     2
1070
   341
1005
6D
1070
   343
1005
6D
1070
   344
1005
6D
1002
}
  0
MTEXT
  5
2386
330
1A
100
AcDbEntity
  8
SUNPOU
  6
Continuous
 62
     4
100
AcDbMText
 10
467.3673779660531
 20
287.5215106712381
 30
0.0
 40
6.0
 41
0.0
 71
     9
 72
     5
  1
4-φ4.2
 73
     1
 44
1.0
  0
DIMENSION
  5
2387
330
1A
100
AcDbEntity
  8
SUNPOU
100
AcDbDimension
  2
*D1
 10
582.0918088389238
 20
308.8103546150367
 30
0.0
 11
590.1457326754693
 21
305.1054013788698
 31
0.0
 70
    33
 71
     5
 42
-1.0
  3
STANDARD
100
AcDbAlignedDimension
 13
568.7259541639241
 23
283.7162267338489
 33
0.0
 14
561.1930357479589
 24
296.2710907604579
 34
0.0
1001
ACAD
1000
DSTYLE
1002
{
1070
    41
1040
7.0
1070
    42
1040
6.0
1070
    43
1040
14.0
1070
    44
1040
3.0
1070
    73
1070
     0
1070
    74
1070
     0
1070
    77
1070
     3
1070
   140
1040
6.0
1070
   141
1040
150.0
1070
   147
1040
2.0
1070
   172
1070
     1
1070
   173
1070
     1
1070
   176
1070
   256
1070
   177
1070
   256
1070
   178
1070
   256
1070
   271
1070
     0
1070
   272
1070
     0
1070
   341
1005
6D
1070
     6
1000
OPEN
1070
     7
1000
OPEN
1070
   371
1070
    -1
1070
   372
1070
    -1
1002
}
  0
DIMENSION
  5
2396
330
1A
100
AcDbEntity
  8
SUNPOU
100
AcDbDimension
  2
*D2
 10
545.0564784385269
 20
311.9893618110572
 30
0.0
 11
518.0454512785817
 21
301.6136974099354
 31
0.0
 70
    33
 71
     5
 42
-1.0
  3
STANDARD
100
AcDbAlignedDimension
 13
509.8327970066764
 23
259.9074115287474
 33
0.0
 14
558.7098937722915
 24
289.2336695881164
 34
0.0
1001
ACAD
1000
DSTYLE
1002
{
1070
    41
1040
7.0
1070
    42
1040
6.0
1070
    43
1040
14.0
1070
    44
1040
3.0
1070
    73
1070
     0
1070
    74
1070
     0
1070
    77
1070
     3
1070
   140
1040
6.0
1070
   141
1040
150.0
1070
   147
1040
2.0
1070
   172
1070
     1
1070
   173
1070
     1
1070
   176
1070
   256
1070
   177
1070
   256
1070
   178
1070
   256
1070
   271
1070
     0
1070
   272
1070
     0
1070
   341
1005
6D
1070
     6
1000
OPEN
1070
     7
1000
OPEN
1070
   371
1070
    -1
1070
   372
1070
    -1
1002
}
  0
DIMENSION
  5
23A3
330
1A
100
AcDbEntity
  8
SUNPOU
100
AcDbDimension
  2
*D3
 10
594.691082155639
 20
225.377721019306
 30
0.0
 11
569.3950408471189
 21
216.0310481290396
 31
0.0
 70
    33
 71
     5
 42
-1.0
  3
STANDARD
100
AcDbAlignedDimension
 13
531.670552829651
 23
227.3984530870199
 33
0.0
 14
577.1176778924161
 24
254.6667281246782
 34
0.0
1001
ACAD
1000
DSTYLE
1002
{
1070
    41
1040
7.0
1070
    42
1040
6.0
1070
    43
1040
14.0
1070
    44
1040
3.0
1070
    73
1070
     0
1070
    74
1070
     0
1070
    77
1070
     3
1070
   140
1040
6.0
1070
   141
1040
150.0
1070
   147
1040
2.0
1070
   172
1070
     1
1070
   173
1070
     1
1070
   176
1070
   256
1070
   177
1070
   256
1070
   178
1070
   256
1070
   271
1070
     0
1070
   272
1070
     0
1070
   341
1005
6D
1070
     6
1000
OPEN
1070
     7
1000
OPEN
1070
   371
1070
    -1
1070
   372
1070
    -1
1002
}
  0
DIMENSION
  5
23B0
330
1A
100
AcDbEntity
  8
SUNPOU
100
AcDbDimension
  2
*D4
 10
544.2766783986606
 20
329.8100598397022
 30
0.0
 11
510.0136407749851
 21
315.0831891603425
 31
0.0
 70
    33
 71
     5
 42
-1.0
  3
STANDARD
100
AcDbAlignedDimension
 13
504.6566452984982
 23
252.179581569001
 33
0.0
 14
568.037762991574
 24
290.2082521848458
 34
0.0
1001
ACAD
1000
DSTYLE
1002
{
1070
    41
1040
7.0
1070
    42
1040
6.0
1070
    43
1040
14.0
1070
    44
1040
3.0
1070
    73
1070
     0
1070
    74
1070
     0
1070
    77
1070
     3
1070
   140
1040
6.0
1070
   141
1040
150.0
1070
   147
1040
2.0
1070
   172
1070
     1
1070
   173
1070
     1
1070
   176
1070
   256
1070
   177
1070
   256
1070
   178
1070
   256
1070
   271
1070
     0
1070
   272
1070
     0
1070
   341
1005
6D
1070
     6
1000
OPEN
1070
     7
1000
OPEN
1070
   371
1070
    -1
1070
   372
1070
    -1
1002
}
  0
LINE
  5
257B
330
1A
100
AcDbEntity
  8
SEIHIN
  6
Continuous
100
AcDbLine
 10
416.002275916277
 20
416.8448310849383
 30
0.0
 11
416.0022755458913
 21
420.3448308986738
 31
0.0
  0
LINE
  5
257C
330
1A
100
AcDbEntity
  8
SEIHIN
  6
Continuous
100
AcDbLine
 10
297.9659325950728
 20
419.1924710733362
 30
0.0
 11
297.9659325950728
 21
389.4971907240113
 31
0.0
  0
LINE
  5
257E
330
1A
100
AcDbEntity
  8
SEIHIN
  6
Continuous
100
AcDbLine
 10
319.4117423911693
 20
419.0777896106868
 30
0.0
 11
319.4117423911693
 21
389.6118721866607
 31
0.0
  0
LINE
  5
2583
330
1A
100
AcDbEntity
  8
SEIHIN
  6
Continuous
100
AcDbLine
 10
422.766717644869
 20
431.3448315990283
 30
0.0
 11
422.766717644869
 21
377.3448301983192
 31
0.0
  0
LINE
  5
2584
330
1A
100
AcDbEntity
  8
SEIHIN
  6
Continuous
100
AcDbLine
 10
408.7993349699059
 20
432.8448308986737
 30
0.0
 11
408.7993349699059
 21
375.8448308986737
 31
0.0
  0
LINE
  5
2585
330
1A
100
AcDbEntity
  8
SEIHIN
  6
Continuous
100
AcDbLine
 10
420.1182415893115
 20
388.3448308986738
 30
0.0
 11
420.1182415893115
 21
420.3448308986738
 31
0.0
  0
LINE
  5
2587
330
1A
100
AcDbEntity
  8
SEIHIN
  6
Continuous
100
AcDbLine
 10
341.6709035226983
 20
418.2508714113292
 30
0.0
 11
341.6709035226983
 21
390.4387903860181
 31
0.0
  0
LWPOLYLINE
  5
2589
330
1A
100
AcDbEntity
  8
SEIHIN
  6
Continuous
100
AcDbPolyline
 90
        3
 70
   128
 43
0.0
 10
396.9659325950728
 20
419.5758814496112
 10
396.9371695813847
 20
418.002375638218
 10
396.9659325950728
 20
416.4288688955022
  0
LINE
  5
25AA
330
1A
100
AcDbEntity
  8
SEIHIN
  6
Continuous
100
AcDbLine
 10
418.7462521069633
 20
414.8448307571127
 30
0.0
 11
408.799334923266
 21
414.8448307571127
 31
0.0
  0
LINE
  5
25D4
330
1A
100
AcDbEntity
  8
SEIHIN
  6
Continuous
100
AcDbLine
 10
396.9659325950728
 20
416.4288688955022
 30
0.0
 11
396.9659325950728
 21
392.260792901845
 31
0.0
  0
LINE
  5
25E5
330
1A
100
AcDbEntity
  8
SEIHIN
  6
Continuous
100
AcDbLine
 10
408.799334923266
 20
416.8448310849382
 30
0.0
 11
416.002275916277
 21
416.8448310849383
 31
0.0
  0
LINE
  5
25E9
330
1A
100
AcDbEntity
  8
SEIHIN
  6
Continuous
100
AcDbLine
 10
418.7462521069633
 20
414.8448307571127
 30
0.0
 11
418.7462521069633
 21
393.8448310402348
 31
0.0
  0
LINE
  5
25EA
330
1A
100
AcDbEntity
  8
SEIHIN
  6
Continuous
100
AcDbLine
 10
347.6109919422255
 20
421.8035305422856
 30
0.0
 11
367.9886126927475
 21
421.8035305422856
 31
0.0
  0
LINE
  5
25ED
330
1A
100
AcDbEntity
  8
SEIHIN
  6
Continuous
100
AcDbLine
 10
301.9659337871657
 20
422.5634431970432
 30
0.0
 11
324.3216616385565
 21
422.5634431970432
 31
0.0
  0
LINE
  5
25F0
330
1A
100
AcDbEntity
  8
SEIHIN
  6
Continuous
100
AcDbLine
 10
297.9659331315146
 20
422.3538117987229
 30
0.0
 11
301.9659337871657
 21
422.5634431970432
 31
0.0
  0
LINE
  5
25F2
330
1A
100
AcDbEntity
  8
SEIHIN
  6
Continuous
100
AcDbLine
 10
297.9659325950728
 20
419.1924710733362
 30
0.0
 11
297.9659325950728
 21
422.1883596775999
 31
0.0
  0
LINE
  5
25F3
330
1A
100
AcDbEntity
  8
SEIHIN
  6
Continuous
100
AcDbLine
 10
297.9659331315146
 20
422.3538117987229
 30
0.0
 11
297.9659325950728
 21
422.1883596775999
 31
0.0
  0
LWPOLYLINE
  5
25F7
330
1A
100
AcDbEntity
  8
SEIHIN
  6
Continuous
100
AcDbPolyline
 90
        9
 70
   128
 43
0.0
 10
319.4117439263449
 20
419.0777896476104
 10
319.464404630004
 20
419.6486969051077
 10
319.5905876629935
 20
420.1987108719661
 10
319.7856662147627
 20
420.7077028733804
 10
320.0425175302611
 20
421.1570436638905
 10
320.3517315261946
 20
421.5302916747643
 10
320.7019907706366
 20
421.8137862664773
 10
321.0804728143797
 20
421.9971525055482
 10
321.4733419292555
 20
422.0736774188592
  0
LWPOLYLINE
  5
25F8
330
1A
100
AcDbEntity
  8
SEIHIN
  6
Continuous
100
AcDbPolyline
 90
        8
 70
   128
 43
0.0
 10
347.6109919422255
 20
421.8035305422856
 10
345.9906732016192
 20
421.8081294131591
 10
344.3893161886321
 20
421.8218757343604
 10
342.8256628387557
 20
421.8446055931165
 10
341.3180080526457
 20
421.8760563564612
 10
339.8840022557364
 20
421.91585735801
 10
338.5404241555319
 20
421.9635447991206
 10
337.3029944770918
 20
422.0185580236031
  0
LINE
  5
25FA
330
1A
100
AcDbEntity
  8
SEIHIN
  6
Continuous
100
AcDbLine
 10
327.7576607936011
 20
422.4917667490556
 30
0.0
 11
337.3029944770918
 21
422.0185580236031
 31
0.0
  0
LWPOLYLINE
  5
25FC
330
1A
100
AcDbEntity
  8
SEIHIN
  6
Continuous
100
AcDbPolyline
 90
        5
 70
   128
 43
0.0
 10
327.7576607936011
 20
422.4917667490556
 10
327.0123270624266
 20
422.5222657007291
 10
326.1707541816817
 20
422.5448651743247
 10
325.2630499475584
 20
422.5587567818477
 10
324.3216616385565
 20
422.5634431970432
  0
LWPOLYLINE
  5
25FE
330
1A
100
AcDbEntity
  8
SEIHIN
  6
Continuous
100
AcDbPolyline
 90
        9
 70
   128
 43
0.0
 10
341.670904802619
 20
418.2508711275769
 10
341.6781765692816
 20
418.8169401642991
 10
341.694582747756
 20
419.3626709786369
 10
341.7195310168848
 20
419.8684582990719
 10
341.7521235817061
 20
420.3161301595284
 10
341.7911944263564
 20
420.6896035504652
 10
341.8353391163931
 20
420.9754599762274
 10
341.882966952859
 20
421.1634306741072
 10
341.9323717527972
 20
421.2467598301483
  0
LINE
  5
2602
330
1A
100
AcDbEntity
  8
SEIHIN
  6
Continuous
100
AcDbLine
 10
402.1260896981643
 20
441.3448313755108
 30
0.0
 11
417.6065610074388
 21
441.3448313755109
 31
0.0
  0
LWPOLYLINE
  5
2603
330
1A
100
AcDbEntity
  8
SEIHIN
  6
Continuous
100
AcDbPolyline
 90
       26
 70
   128
 43
0.0
 10
415.8317749672519
 20
430.8448305857493
 10
415.873801829754
 20
430.1982375365807
 10
415.9972393237935
 20
429.592270640762
 10
416.1943313949691
 20
429.0650079530789
 10
416.4526951783286
 20
428.6495784801557
 10
416.7560958587514
 20
428.3720834684684
 10
417.0854711257802
 20
428.2499610019042
 10
417.4201232665168
 20
428.2908833158328
 10
417.7390248798715
 20
428.4922799599483
 10
418.022139491974
 20
428.8414961231067
 10
418.251676979004
 20
429.3165898454502
 10
418.4132167422162
 20
429.8877066505268
 10
418.4966055029021
 20
430.5189645421817
 10
418.4966055029021
 20
431.170696629317
 10
418.4132167422162
 20
431.801954520972
 10
418.251676979004
 20
432.3730731886938
 10
418.022139491974
 20
432.8481650483921
 10
417.7390248798715
 20
433.1973812115505
 10
417.4201232665168
 20
433.3987778556659
 10
417.0854711257802
 20
433.4397001695945
 10
416.7560958587514
 20
433.3175777030303
 10
416.4526951783286
 20
433.0400826913431
 10
416.1943313949691
 20
432.6246532184197
 10
415.9972393237935
 20
432.0973905307366
 10
415.873801829754
 20
431.4914254975631
 10
415.8317749672519
 20
430.8448305857493
  0
LWPOLYLINE
  5
2604
330
1A
100
AcDbEntity
  8
SEIHIN
  6
Continuous
100
AcDbPolyline
 90
       11
 70
   128
 43
0.0
 10
413.9442933076011
 20
430.8448305857493
 10
413.9886317127334
 20
429.749788953097
 10
414.1205610060082
 20
428.6817128342702
 10
414.3368290089952
 20
427.6668971908404
 10
414.6321122818576
 20
426.7303349954202
 10
414.999139057933
 20
425.8950839323117
 10
415.4288717829572
 20
425.1817113292529
 10
415.9107287698375
 20
424.6077856552913
 10
416.4328468316184
 20
424.1874350738838
 10
416.9823681288348
 20
423.9310121667697
 10
417.5457624071227
 20
423.8448313010051
  0
LWPOLYLINE
  5
2605
330
1A
100
AcDbEntity
  8
SEIHIN
  6
Continuous
100
AcDbPolyline
 90
        5
 70
   128
 43
0.0
 10
396.0715054119887
 20
441.3448313755108
 10
395.4877745411308
 20
441.2592800838066
 10
394.9140315228091
 20
441.0040902477814
 10
394.3600929626213
 20
440.5836279076649
 10
393.8354375124858
 20
440.0050865990235
  0
LINE
  5
2608
330
1A
100
AcDbEntity
  8
SEIHIN
  6
Continuous
100
AcDbLine
 10
393.8354375124858
 20
440.0050865990235
 30
0.0
 11
392.4937966400732
 21
438.2730341289491
 31
0.0
  0
LWPOLYLINE
  5
2609
330
1A
100
AcDbEntity
  8
SEIHIN
  6
Continuous
100
AcDbPolyline
 90
        9
 70
   128
 43
0.0
 10
390.7049424298988
 20
431.3448315990282
 10
390.7413580738889
 20
432.4833492321087
 10
390.8498646044122
 20
433.5986918342425
 10
391.0282524586605
 20
434.6681518984152
 10
391.2728908755766
 20
435.6699588281227
 10
391.5787991420315
 20
436.583716658981
 10
391.9397499696301
 20
437.3908268791748
 10
392.3483956889199
 20
438.0748609584881
 10
392.4937965632366
 20
438.2730352264954
  0
LINE
  5
260A
330
1A
100
AcDbEntity
  8
SEIHIN
  6
Continuous
100
AcDbLine
 10
390.7049424298988
 20
424.2005108428313
 30
0.0
 11
390.7049422580734
 21
431.3448308986736
 31
0.0
  0
LWPOLYLINE
  5
260D
330
1A
100
AcDbEntity
  8
SEIHIN
  6
Continuous
100
AcDbPolyline
 90
        6
 70
   128
 43
0.0
 10
390.703871408938
 20
424.0806477648331
 10
390.6326080025123
 20
423.5035351050211
 10
390.4421944455193
 20
422.9504561555697
 10
390.1397949368642
 20
422.442220388086
 10
389.7367874444412
 20
421.9979515803171
 10
389.4755970791283
 20
421.8035305422856
  0
LWPOLYLINE
  5
2610
330
1A
100
AcDbEntity
  8
SEIHIN
  6
Continuous
100
AcDbPolyline
 90
        3
 70
   128
 43
0.0
 10
390.7049424298988
 20
424.2005108428313
 10
390.7046746746586
 20
424.1405392569615
 10
390.703871408938
 20
424.0806477648331
  0
LWPOLYLINE
  5
2619
330
1A
100
AcDbEntity
  8
SEIHIN
  6
Continuous
100
AcDbPolyline
 90
       13
 70
   128
 43
0.0
 10
402.1260896981643
 20
441.3448313755108
 10
401.4525539525734
 20
441.2592800838066
 10
400.7905426253514
 20
441.0040902477814
 10
400.1513829273121
 20
440.5836279076649
 10
399.5460111466186
 20
440.0050865990235
 10
398.9847849872844
 20
439.2783644181801
 10
398.4773075492071
 20
438.4159001094414
 10
398.0322617855804
 20
437.4324458223892
 10
397.6572625390203
 20
436.3448324185921
 10
397.3587261564048
 20
435.1716658604456
 10
397.141760680121
 20
433.9330217373682
 10
397.0100784529008
 20
432.6500932258678
 10
396.9659325950728
 20
431.3448315990282
  0
LWPOLYLINE
  5
261A
330
1A
100
AcDbEntity
  8
SEIHIN
  6
Continuous
100
AcDbPolyline
 90
       20
 70
   128
 43
0.0
 10
402.7839619950341
 20
434.5631583166434
 10
402.5288364202665
 20
434.9993376565291
 10
402.2254008152472
 20
435.2965133768631
 10
401.8932320461558
 20
435.435507683189
 10
401.5537607767569
 20
435.4073575270487
 10
401.2288903170215
 20
435.2138752621723
 10
400.9395800814913
 20
434.8675480616404
 10
400.7044958700375
 20
434.3907164913727
 10
400.5388054349409
 20
433.8141458612992
 10
400.4531984967129
 20
433.1750369203402
 10
400.4531984967129
 20
432.5146249068094
 10
400.5388054349409
 20
431.8755159658505
 10
400.7044958700375
 20
431.2989453357769
 10
400.9395800814913
 20
430.8221137655092
 10
401.2288903170215
 20
430.4757865649773
 10
401.5537607767569
 20
430.2823043001009
 10
401.8932320461558
 20
430.2541541439606
 10
402.2254008152472
 20
430.3931484502865
 10
402.5288364202665
 20
430.6903241706206
 10
402.7839619950341
 20
431.1265035105063
  0
LWPOLYLINE
  5
261B
330
1A
100
AcDbEntity
  8
SEIHIN
  6
Continuous
100
AcDbPolyline
 90
       27
 70
   128
 43
0.0
 10
402.7839619950341
 20
431.1265035105063
 10
402.9998942562328
 20
430.4838313293768
 10
403.2786279269444
 20
429.9400767815424
 10
403.6084851534055
 20
429.5180218798233
 10
403.9756460399316
 20
429.2353487146212
 10
404.3647274658965
 20
429.1039037090851
 10
404.7594280266152
 20
429.1291891169859
 10
405.1432111584531
 20
429.3101506811692
 10
405.4999980428206
 20
429.6392037105871
 10
405.8148400210725
 20
430.1025609058453
 10
406.074545840262
 20
430.6808116418434
 10
406.2682357900725
 20
431.3497284931256
 10
406.3877933942662
 20
432.0812842381312
 10
406.4282100000368
 20
432.8448309135749
 10
406.3877933942662
 20
433.6083775890185
 10
406.2682357900725
 20
434.3399333340241
 10
406.074545840262
 20
435.0088501853062
 10
405.8148400210725
 20
435.5871009213043
 10
405.4999980428206
 20
436.0504599792076
 10
405.1432111584531
 20
436.3795111459805
 10
404.7594280266152
 20
436.5604708475186
 10
404.3647274658965
 20
436.5857581180645
 10
403.9756460399316
 20
436.4543112498833
 10
403.6084851534055
 20
436.1716399473263
 10
403.2786279269444
 20
435.7495869082524
 10
402.9998942562328
 20
435.2058304977728
 10
402.7839619950341
 20
434.5631583166434
  0
LWPOLYLINE
  5
261C
330
1A
100
AcDbEntity
  8
SEIHIN
  6
Continuous
100
AcDbPolyline
 90
        9
 70
   128
 43
0.0
 10
408.799334923266
 20
432.8448309135749
 10
408.8339354195581
 20
433.5276468229606
 10
408.9364079111205
 20
434.184223650129
 10
409.1028138347851
 20
434.7893262785985
 10
409.326757798432
 20
435.3197051716163
 10
409.5996353127943
 20
435.754973678024
 10
409.9109587543593
 20
436.0784108323171
 10
410.2487643533336
 20
436.277579752834
 10
410.6000704043494
 20
436.3448324185922
  0
LWPOLYLINE
  5
261D
330
1A
100
AcDbEntity
  8
SEIHIN
  6
Continuous
100
AcDbPolyline
 90
        9
 70
   128
 43
0.0
 10
412.1435578265177
 20
436.3448324185922
 10
412.494862946211
 20
436.277579752834
 10
412.8326685451852
 20
436.0784108323171
 10
413.1439929180728
 20
435.754973678024
 10
413.41686856979
 20
435.3197051716163
 10
413.640814396082
 20
434.7893262785985
 10
413.807219388424
 20
434.184223650129
 10
413.909692811309
 20
433.5276468229606
 10
413.9442933076011
 20
432.8448309135749
  0
LINE
  5
2621
330
1A
100
AcDbEntity
  8
SEIHIN
  6
Continuous
100
AcDbLine
 10
396.9659325950728
 20
431.3448315990282
 30
0.0
 11
396.9659325950728
 21
419.5758814496112
 31
0.0
  0
LINE
  5
2626
330
1A
100
AcDbEntity
  8
SEIHIN
  6
Continuous
100
AcDbLine
 10
400.6561488197135
 20
431.4348532390906
 30
0.0
 11
402.7839622183591
 21
431.1265042392211
 31
0.0
  0
LINE
  5
2627
330
1A
100
AcDbEntity
  8
SEIHIN
  6
Continuous
100
AcDbLine
 10
402.7839622183591
 20
434.5631575581263
 30
0.0
 11
400.6561488197135
 21
434.2548085880591
 31
0.0
  0
LWPOLYLINE
  5
2628
330
1A
100
AcDbEntity
  8
SEIHIN
  6
Continuous
100
AcDbPolyline
 90
       13
 70
   128
 43
0.0
 10
414.9732836806165
 20
420.8448308092668
 10
414.3017330490933
 20
420.930382100971
 10
413.6416712128507
 20
421.1855719369962
 10
413.0043932520734
 20
421.6060361397579
 10
412.4008049541102
 20
422.1845774483992
 10
411.841231892346
 20
422.9112977665974
 10
411.3352499254929
 20
423.7737639379813
 10
410.8915147655593
 20
424.7572163623883
 10
410.5176204168187
 20
425.8448316288306
 10
410.2199632027136
 20
427.0179963243319
 10
410.0036365264045
 20
428.2566404474093
 10
409.8723423951255
 20
429.5395689589097
 10
409.828326227604
 20
430.8448305857493
  0
LWPOLYLINE
  5
262B
330
1A
100
AcDbEntity
  8
SEIHIN
  6
Continuous
100
AcDbPolyline
 90
        9
 70
   128
 43
0.0
 10
416.002275916277
 20
420.344831658633
 10
415.997332456051
 20
420.4423765224531
 10
415.9826939278232
 20
420.5361718815877
 10
415.9589209877835
 20
420.6226153803184
 10
415.9269300573455
 20
420.6983840596988
 10
415.8879467570172
 20
420.7605666053607
 10
415.843472378789
 20
420.8067713809326
 10
415.7952149682628
 20
420.8352232855871
 10
415.7450278573619
 20
420.8448308092668
  0
LINE
  5
262C
330
1A
100
AcDbEntity
  8
SEIHIN
  6
Continuous
100
AcDbLine
 10
415.7450276681775
 20
420.8448308986738
 30
0.0
 11
414.9732840350362
 21
420.8448308986738
 31
0.0
  0
LINE
  5
262F
330
1A
100
AcDbEntity
  8
SEIHIN
  6
Continuous
100
AcDbLine
 10
409.828326480761
 20
430.8448308986738
 30
0.0
 11
409.828326480761
 21
432.8448308986738
 31
0.0
  0
LWPOLYLINE
  5
2630
330
1A
100
AcDbEntity
  8
SEIHIN
  6
Continuous
100
AcDbPolyline
 90
        9
 70
   128
 43
0.0
 10
409.828326227604
 20
432.8448309135749
 10
409.8233836987005
 20
432.9423757773949
 10
409.8087442391501
 20
433.0361729991748
 10
409.7849722304331
 20
433.1226164979054
 10
409.7529803686725
 20
433.1983851772858
 10
409.7139979996668
 20
433.2605658603026
 10
409.669522690116
 20
433.3067706358744
 10
409.6212652795898
 20
433.3352244031741
 10
409.5710781686889
 20
433.3448300642087
  0
LINE
  5
2631
330
1A
100
AcDbEntity
  8
SEIHIN
  6
Continuous
100
AcDbLine
 10
409.5710786030472
 20
433.3448308986738
 30
0.0
 11
408.8178049125658
 21
433.3448300642087
 31
0.0
  0
LINE
  5
2632
330
1A
100
AcDbEntity
  8
SEIHIN
  6
Continuous
100
AcDbLine
 10
413.9442925241812
 20
430.8448308986738
 30
0.0
 11
413.9442925241812
 21
432.8448308986738
 31
0.0
  0
LINE
  5
2633
330
1A
100
AcDbEntity
  8
SEIHIN
  6
Continuous
100
AcDbLine
 10
396.0715054040729
 20
441.3448308986737
 30
0.0
 11
402.1260896981643
 21
441.3448313755108
 31
0.0
  0
LINE
  5
2634
330
1A
100
AcDbEntity
  8
SEIHIN
  6
Continuous
100
AcDbLine
 10
412.1435573801848
 20
436.3448308986738
 30
0.0
 11
410.6000701139022
 21
436.3448308986737
 31
0.0
  0
LWPOLYLINE
  5
2635
330
1A
100
AcDbEntity
  8
SEIHIN
  6
Continuous
100
AcDbPolyline
 90
       13
 70
   128
 43
0.0
 10
422.766717644869
 20
431.3448315990283
 10
422.722571092187
 20
432.650093225868
 10
422.590889530717
 20
433.9330217373683
 10
422.3739230357991
 20
435.1716658604457
 10
422.0753875845061
 20
436.3448324185922
 10
421.7003886871921
 20
437.4324458223894
 10
421.2553412937509
 20
438.4159001094415
 10
420.7478636228429
 20
439.2783644181802
 10
420.1866393261539
 20
440.0050865990236
 10
419.5812666141378
 20
440.583627907665
 10
418.9421073817597
 20
441.0040902477815
 10
418.2800953560458
 20
441.2592800838067
 10
417.6065610074388
 20
441.3448313755109
  0
LINE
  5
2636
330
1A
100
AcDbEntity
  8
SEIHIN
  6
Continuous
100
AcDbLine
 10
418.3175064453151
 20
423.8448308986738
 30
0.0
 11
417.5457628121739
 21
423.8448308986738
 31
0.0
  0
LWPOLYLINE
  5
2637
330
1A
100
AcDbEntity
  8
SEIHIN
  6
Continuous
100
AcDbPolyline
 90
        9
 70
   128
 43
0.0
 10
418.3175065838681
 20
423.8448313010051
 10
418.668812634884
 20
423.777578635247
 10
419.0066182338582
 20
423.57840971473
 10
419.3179407441007
 20
423.2549744230821
 10
419.590818258463
 20
422.8197040540292
 10
419.8147622221099
 20
422.2893270236566
 10
419.981169077097
 20
421.684222532542
 10
420.0836406373368
 20
421.0276475680187
 10
420.1182411336289
 20
420.344831658633
  0
LINE
  5
264A
330
1A
100
AcDbEntity
  8
CENTER L
  6
CENTER
 62
     1
 48
5.0
100
AcDbLine
 10
248.7420015134917
 20
404.3449308986736
 30
0.0
 11
431.4372176448691
 21
404.3449308986736
 31
0.0
  0
DIMENSION
  5
26A5
330
1A
100
AcDbEntity
  8
SUNPOU
100
AcDbDimension
  2
*D5
 10
469.5147631511359
 20
367.3876060676887
 30
0.0
 11
464.5147631511358
 21
404.3662187215999
 31
0.0
 70
    32
 71
     5
 42
-1.0
  3
STANDARD
100
AcDbAlignedDimension
 13
417.6065610074388
 23
441.3448313755109
 33
0.0
 14
417.9433281817423
 24
367.3876060676887
 34
0.0
 50
90.0
100
AcDbRotatedDimension
1001
ACAD
1000
DSTYLE
1002
{
1070
    41
1040
7.0
1070
    42
1040
6.0
1070
    43
1040
14.0
1070
    44
1040
3.0
1070
    73
1070
     0
1070
    74
1070
     0
1070
    77
1070
     3
1070
   140
1040
6.0
1070
   141
1040
150.0
1070
   147
1040
2.0
1070
   172
1070
     1
1070
   173
1070
     1
1070
   176
1070
   256
1070
   177
1070
   256
1070
   178
1070
   256
1070
   271
1070
     0
1070
   272
1070
     0
1070
   341
1005
6D
1070
     6
1000
OPEN
1070
     7
1000
OPEN
1070
   371
1070
    -1
1070
   372
1070
    -1
1002
}
  0
LINE
  5
26B3
330
1A
100
AcDbEntity
  8
SEIHIN
  6
Continuous
100
AcDbLine
 10
262.9716921654481
 20
414.3449308986736
 30
0.0
 11
297.9659325950728
 21
414.3449308986737
 31
0.0
  0
LINE
  5
26B4
330
1A
100
AcDbEntity
  8
SEIHIN
  6
Continuous
100
AcDbLine
 10
262.9716921654481
 20
394.3449308986737
 30
0.0
 11
297.9659325950728
 21
394.3449308986736
 31
0.0
  0
LINE
  5
26B5
330
1A
100
AcDbEntity
  8
SEIHIN
  6
Continuous
100
AcDbLine
 10
262.9716921654481
 20
394.3449308986737
 30
0.0
 11
262.9716921654481
 21
414.3449308986736
 31
0.0
  0
LINE
  5
26B6
330
1A
100
AcDbEntity
  8
SEIHIN
  6
Continuous
100
AcDbLine
 10
267.8645101175329
 20
394.3449308986737
 30
0.0
 11
267.8645101175329
 21
414.3449308986736
 31
0.0
  0
LINE
  5
26B7
330
1A
100
AcDbEntity
  8
SEIHIN
  6
Continuous
100
AcDbLine
 10
282.3121122507431
 20
394.3449308986736
 30
0.0
 11
282.3121122507431
 21
414.3449308986736
 31
0.0
  0
DIMENSION
  5
26B8
330
1A
100
AcDbEntity
  8
SUNPOU
100
AcDbDimension
  2
*D6
 10
239.0079535021482
 20
394.3449308986737
 30
0.0
 11
234.0079535021482
 21
404.3449308986737
 31
0.0
 70
    32
 71
     5
 42
-1.0
  3
STANDARD
100
AcDbAlignedDimension
 13
262.9716921654481
 23
414.3449308986736
 33
0.0
 14
262.9716921654481
 24
394.3449308986737
 34
0.0
 50
90.0
100
AcDbRotatedDimension
1001
ACAD
1000
DSTYLE
1002
{
1070
    41
1040
7.0
1070
    42
1040
6.0
1070
    43
1040
14.0
1070
    44
1040
3.0
1070
    73
1070
     0
1070
    74
1070
     0
1070
    77
1070
     3
1070
   140
1040
6.0
1070
   141
1040
150.0
1070
   147
1040
2.0
1070
   172
1070
     1
1070
   173
1070
     1
1070
   176
1070
   256
1070
   177
1070
   256
1070
   178
1070
   256
1070
   271
1070
     0
1070
   272
1070
     0
1070
   341
1005
6D
1070
     6
1000
OPEN
1070
     7
1000
OPEN
1070
   371
1070
    -1
1070
   372
1070
    -1
1002
}
  0
LINE
  5
26C5
330
1A
100
AcDbEntity
  8
CENTER L
  6
CENTER
 62
     1
 48
5.0
100
AcDbLine
 10
307.965931045352
 20
397.3449308986736
 30
0.0
 11
307.965931045352
 21
411.3449308986736
 31
0.0
  0
ARC
  5
26C6
330
1A
100
AcDbEntity
  8
SEIHIN
  6
Continuous
100
AcDbCircle
 10
307.965931045352
 20
404.3449308986736
 30
0.0
 40
5.0
100
AcDbArc
 50
180.0
 51
0.0
  0
ARC
  5
26C7
330
1A
100
AcDbEntity
  8
SEIHIN
  6
Continuous
100
AcDbCircle
 10
307.965931045352
 20
404.3449308986736
 30
0.0
 40
5.0
100
AcDbArc
 50
0.0
 51
180.0
  0
LINE
  5
26DD
330
1A
100
AcDbEntity
  8
SEIHIN
100
AcDbLine
 10
379.9671390295478
 20
385.8863312550618
 30
0.0
 11
379.9671390295477
 21
422.8035305422855
 31
0.0
  0
LINE
  5
26DE
330
1A
100
AcDbEntity
  8
SEIHIN
100
AcDbLine
 10
373.977875861148
 20
385.8863312550616
 30
0.0
 11
373.9778758611478
 21
422.8035305422856
 31
0.0
  0
LINE
  5
26DF
330
1A
100
AcDbEntity
  8
SEIHIN
100
AcDbLine
 10
367.9886126927474
 20
385.8863312550616
 30
0.0
 11
367.9886126927475
 21
422.8035305422856
 31
0.0
  0
LINE
  5
26E4
330
1A
100
AcDbEntity
  8
SEIHIN
100
AcDbLine
 10
369.4886126927476
 20
385.8863312550618
 30
0.0
 11
369.4886126927475
 21
422.8035305422856
 31
0.0
  0
LINE
  5
26E5
330
1A
100
AcDbEntity
  8
SEIHIN
100
AcDbLine
 10
375.4778758611479
 20
385.8863312550618
 30
0.0
 11
375.4778758611479
 21
422.8035305422856
 31
0.0
  0
LINE
  5
26E6
330
1A
100
AcDbEntity
  8
SEIHIN
100
AcDbLine
 10
381.4671390295478
 20
385.8863312550616
 30
0.0
 11
381.4671390295478
 21
422.8035305422856
 31
0.0
  0
LINE
  5
26E7
330
1A
100
AcDbEntity
  8
SEIHIN
100
AcDbLine
 10
367.9886126927475
 20
422.8035305422856
 30
0.0
 11
369.4886126927475
 21
422.8035305422856
 31
0.0
  0
LINE
  5
26E8
330
1A
100
AcDbEntity
  8
SEIHIN
100
AcDbLine
 10
373.9778758611478
 20
422.8035305422856
 30
0.0
 11
375.4778758611479
 21
422.8035305422856
 31
0.0
  0
LINE
  5
26E9
330
1A
100
AcDbEntity
  8
SEIHIN
100
AcDbLine
 10
379.9671390295477
 20
422.8035305422855
 30
0.0
 11
381.4671390295478
 21
422.8035305422856
 31
0.0
  0
LINE
  5
26EA
330
1A
100
AcDbEntity
  8
SEIHIN
100
AcDbLine
 10
369.4886126927474
 20
421.8035305422856
 30
0.0
 11
373.9778758611478
 21
421.8035305422857
 31
0.0
  0
LINE
  5
26ED
330
1A
100
AcDbEntity
  8
SEIHIN
100
AcDbLine
 10
375.4778758611479
 20
421.8035305422856
 30
0.0
 11
379.9671390295477
 21
421.8035305422857
 31
0.0
  0
LINE
  5
26F0
330
1A
100
AcDbEntity
  8
SEIHIN
  6
Continuous
100
AcDbLine
 10
381.4671390295478
 20
421.8035305422857
 30
0.0
 11
389.4999954202162
 21
421.8035305422856
 31
0.0
  0
LINE
  5
26F5
330
1A
100
AcDbEntity
  8
SEIHIN
  6
Continuous
100
AcDbLine
 10
347.6109919422255
 20
386.8863312550616
 30
0.0
 11
367.9886126927475
 21
386.8863312550616
 31
0.0
  0
LWPOLYLINE
  5
26F6
330
1A
100
AcDbEntity
  8
SEIHIN
  6
Continuous
100
AcDbPolyline
 90
        5
 70
   128
 43
0.0
 10
327.7576607936011
 20
386.1980950482917
 10
327.0123270624266
 20
386.1675960966182
 10
326.1707541816817
 20
386.1449966230225
 10
325.2630499475584
 20
386.1311050154995
 10
324.3216616385565
 20
386.1264186003041
  0
LINE
  5
26FB
330
1A
100
AcDbEntity
  8
SEIHIN
  6
Continuous
100
AcDbLine
 10
301.9659337871657
 20
386.1264186003041
 30
0.0
 11
324.3216616385565
 21
386.1264186003041
 31
0.0
  0
LINE
  5
26FC
330
1A
100
AcDbEntity
  8
SEIHIN
  6
Continuous
100
AcDbLine
 10
297.9659331315146
 20
386.3360499986243
 30
0.0
 11
301.9659337871657
 21
386.1264186003041
 31
0.0
  0
LINE
  5
26FD
330
1A
100
AcDbEntity
  8
SEIHIN
  6
Continuous
100
AcDbLine
 10
297.9659325950728
 20
389.4973907240111
 30
0.0
 11
297.9659325950728
 21
386.5015021197474
 31
0.0
  0
LINE
  5
26FE
330
1A
100
AcDbEntity
  8
SEIHIN
  6
Continuous
100
AcDbLine
 10
297.9659331315146
 20
386.3360499986243
 30
0.0
 11
297.9659325950728
 21
386.5015021197474
 31
0.0
  0
LWPOLYLINE
  5
2701
330
1A
100
AcDbEntity
  8
SEIHIN
  6
Continuous
100
AcDbPolyline
 90
        9
 70
   128
 43
0.0
 10
319.4117439263449
 20
389.6120721497369
 10
319.464404630004
 20
389.0411648922396
 10
319.5905876629935
 20
388.4911509253812
 10
319.7856662147627
 20
387.9821589239669
 10
320.0425175302611
 20
387.5328181334567
 10
320.3517315261946
 20
387.1595701225829
 10
320.7019907706366
 20
386.87607553087
 10
321.0804728143797
 20
386.6927092917991
 10
321.4733419292555
 20
386.6161843784881
  0
LWPOLYLINE
  5
2704
330
1A
100
AcDbEntity
  8
SEIHIN
  6
Continuous
100
AcDbPolyline
 90
        8
 70
   128
 43
0.0
 10
347.6109919422255
 20
386.8863312550616
 10
345.9906732016192
 20
386.8817323841882
 10
344.3893161886321
 20
386.8679860629869
 10
342.8256628387557
 20
386.8452562042308
 10
341.3180080526457
 20
386.813805440886
 10
339.8840022557364
 20
386.7740044393373
 10
338.5404241555319
 20
386.7263169982267
 10
337.3029944770918
 20
386.6713037737441
  0
LINE
  5
2705
330
1A
100
AcDbEntity
  8
SEIHIN
  6
Continuous
100
AcDbLine
 10
327.7576607936011
 20
386.1980950482917
 30
0.0
 11
337.3029944770918
 21
386.6713037737441
 31
0.0
  0
LWPOLYLINE
  5
2706
330
1A
100
AcDbEntity
  8
SEIHIN
  6
Continuous
100
AcDbPolyline
 90
        9
 70
   128
 43
0.0
 10
341.670904802619
 20
390.4389906697703
 10
341.6781765692816
 20
389.8729216330481
 10
341.694582747756
 20
389.3271908187104
 10
341.7195310168848
 20
388.8214034982753
 10
341.7521235817061
 20
388.3737316378189
 10
341.7911944263564
 20
388.000258246882
 10
341.8353391163931
 20
387.7144018211199
 10
341.882966952859
 20
387.5264311232401
 10
341.9323717527972
 20
387.4431019671989
  0
LINE
  5
2707
330
1A
100
AcDbEntity
  8
SEIHIN
  6
Continuous
100
AcDbLine
 10
393.8354375124858
 20
368.6847751983238
 30
0.0
 11
392.4937966400732
 21
370.4168276683981
 31
0.0
  0
LWPOLYLINE
  5
2708
330
1A
100
AcDbEntity
  8
SEIHIN
  6
Continuous
100
AcDbPolyline
 90
       13
 70
   128
 43
0.0
 10
422.766717644869
 20
377.3450301983189
 10
422.722571092187
 20
376.0397685714793
 10
422.590889530717
 20
374.7568400599789
 10
422.3739230357991
 20
373.5181959369015
 10
422.0753875845061
 20
372.345029378755
 10
421.7003886871921
 20
371.2574159749579
 10
421.2553412937509
 20
370.2739616879057
 10
420.7478636228429
 20
369.411497379167
 10
420.1866393261539
 20
368.6847751983237
 10
419.5812666141378
 20
368.1062338896822
 10
418.9421073817597
 20
367.6857715495657
 10
418.2800953560458
 20
367.4305817135405
 10
417.6065610074388
 20
367.3450304218363
  0
LWPOLYLINE
  5
2709
330
1A
100
AcDbEntity
  8
SEIHIN
  6
Continuous
100
AcDbPolyline
 90
       13
 70
   128
 43
0.0
 10
402.1260896981643
 20
367.3450304218364
 10
401.4525539525734
 20
367.4305817135406
 10
400.7905426253514
 20
367.6857715495659
 10
400.1513829273121
 20
368.1062338896824
 10
399.5460111466186
 20
368.6847751983238
 10
398.9847849872844
 20
369.4114973791671
 10
398.4773075492071
 20
370.2739616879059
 10
398.0322617855804
 20
371.257415974958
 10
397.6572625390203
 20
372.3450293787552
 10
397.3587261564048
 20
373.5181959369016
 10
397.141760680121
 20
374.7568400599791
 10
397.0100784529008
 20
376.0397685714794
 10
396.9659325950728
 20
377.3450301983191
  0
LWPOLYLINE
  5
270B
330
1A
100
AcDbEntity
  8
SEIHIN
  6
Continuous
100
AcDbPolyline
 90
        6
 70
   128
 43
0.0
 10
390.703871408938
 20
384.6092140325142
 10
390.6326080025123
 20
385.1863266923261
 10
390.4421944455193
 20
385.7394056417776
 10
390.1397949368642
 20
386.2476414092613
 10
389.7367874444412
 20
386.6919102170301
 10
389.4755970791283
 20
386.8863312550616
  0
LINE
  5
270C
330
1A
100
AcDbEntity
  8
SEIHIN
100
AcDbLine
 10
373.9778758611478
 20
385.8863312550616
 30
0.0
 11
375.4778758611479
 21
385.8863312550617
 31
0.0
  0
LINE
  5
270D
330
1A
100
AcDbEntity
  8
SEIHIN
100
AcDbLine
 10
369.4886126927474
 20
386.8863312550617
 30
0.0
 11
373.9778758611478
 21
386.8863312550616
 31
0.0
  0
LINE
  5
2710
330
1A
100
AcDbEntity
  8
SEIHIN
100
AcDbLine
 10
367.9886126927475
 20
385.8863312550616
 30
0.0
 11
369.4886126927475
 21
385.8863312550617
 31
0.0
  0
LINE
  5
2712
330
1A
100
AcDbEntity
  8
SEIHIN
  6
Continuous
100
AcDbLine
 10
381.4671390295478
 20
386.8863312550615
 30
0.0
 11
389.4999954202162
 21
386.8863312550616
 31
0.0
  0
LINE
  5
2715
330
1A
100
AcDbEntity
  8
SEIHIN
100
AcDbLine
 10
375.4778758611479
 20
386.8863312550616
 30
0.0
 11
379.9671390295477
 21
386.8863312550616
 31
0.0
  0
LINE
  5
2716
330
1A
100
AcDbEntity
  8
SEIHIN
100
AcDbLine
 10
379.9671390295477
 20
385.8863312550618
 30
0.0
 11
381.4671390295478
 21
385.8863312550616
 31
0.0
  0
LWPOLYLINE
  5
2717
330
1A
100
AcDbEntity
  8
SEIHIN
  6
Continuous
100
AcDbPolyline
 90
        3
 70
   128
 43
0.0
 10
396.9659325950728
 20
389.113980347736
 10
396.9371695813847
 20
390.6874861591293
 10
396.9659325950728
 20
392.2609929018451
  0
LINE
  5
2719
330
1A
100
AcDbEntity
  8
SEIHIN
  6
Continuous
100
AcDbLine
 10
418.7462521069633
 20
393.8450310402345
 30
0.0
 11
408.799334923266
 21
393.8450310402346
 31
0.0
  0
LINE
  5
271A
330
1A
100
AcDbEntity
  8
SEIHIN
  6
Continuous
100
AcDbLine
 10
396.9659325950728
 20
377.3450301983191
 30
0.0
 11
396.9659325950728
 21
389.113980347736
 31
0.0
  0
LINE
  5
271B
330
1A
100
AcDbEntity
  8
SEIHIN
  6
Continuous
100
AcDbLine
 10
390.7049424298988
 20
384.489350954516
 30
0.0
 11
390.7049422580734
 21
377.3450308986737
 31
0.0
  0
LWPOLYLINE
  5
271C
330
1A
100
AcDbEntity
  8
SEIHIN
  6
Continuous
100
AcDbPolyline
 90
        3
 70
   128
 43
0.0
 10
390.7049424298988
 20
384.489350954516
 10
390.7046746746586
 20
384.5493225403858
 10
390.703871408938
 20
384.6092140325142
  0
LWPOLYLINE
  5
2723
330
1A
100
AcDbEntity
  8
SEIHIN
  6
Continuous
100
AcDbPolyline
 90
        9
 70
   128
 43
0.0
 10
390.7049424298988
 20
377.345030198319
 10
390.7413580738889
 20
376.2065125652385
 10
390.8498646044122
 20
375.0911699631048
 10
391.0282524586605
 20
374.021709898932
 10
391.2728908755766
 20
373.0199029692245
 10
391.5787991420315
 20
372.1061451383663
 10
391.9397499696301
 20
371.2990349181724
 10
392.3483956889199
 20
370.6150008388592
 10
392.4937965632366
 20
370.4168265708519
  0
LINE
  5
2724
330
1A
100
AcDbEntity
  8
SEIHIN
  6
Continuous
100
AcDbLine
 10
402.7839622183591
 20
374.126704239221
 30
0.0
 11
400.6561488197135
 21
374.4350532092882
 31
0.0
  0
LINE
  5
2725
330
1A
100
AcDbEntity
  8
SEIHIN
  6
Continuous
100
AcDbLine
 10
400.6561488197135
 20
377.2550085582567
 30
0.0
 11
402.7839622183591
 21
377.5633575581262
 31
0.0
  0
LWPOLYLINE
  5
2726
330
1A
100
AcDbEntity
  8
SEIHIN
  6
Continuous
100
AcDbPolyline
 90
       27
 70
   128
 43
0.0
 10
402.7839619950341
 20
377.563358286841
 10
402.9998942562328
 20
378.2060304679704
 10
403.2786279269444
 20
378.7497850158048
 10
403.6084851534055
 20
379.1718399175239
 10
403.9756460399316
 20
379.4545130827261
 10
404.3647274658965
 20
379.5859580882622
 10
404.7594280266152
 20
379.5606726803613
 10
405.1432111584531
 20
379.3797111161781
 10
405.4999980428206
 20
379.0506580867601
 10
405.8148400210725
 20
378.587300891502
 10
406.074545840262
 20
378.0090501555038
 10
406.2682357900725
 20
377.3401333042216
 10
406.3877933942662
 20
376.608577559216
 10
406.4282100000368
 20
375.8450308837724
 10
406.3877933942662
 20
375.0814842083287
 10
406.2682357900725
 20
374.3499284633231
 10
406.074545840262
 20
373.6810116120411
 10
405.8148400210725
 20
373.1027608760429
 10
405.4999980428206
 20
372.6394018181396
 10
405.1432111584531
 20
372.3103506513668
 10
404.7594280266152
 20
372.1293909498287
 10
404.3647274658965
 20
372.1041036792827
 10
403.9756460399316
 20
372.235550547464
 10
403.6084851534055
 20
372.518221850021
 10
403.2786279269444
 20
372.9402748890949
 10
402.9998942562328
 20
373.4840312995744
 10
402.7839619950341
 20
374.1267034807039
  0
LWPOLYLINE
  5
2727
330
1A
100
AcDbEntity
  8
SEIHIN
  6
Continuous
100
AcDbPolyline
 90
       20
 70
   128
 43
0.0
 10
402.7839619950341
 20
374.1267034807039
 10
402.5288364202665
 20
373.6905241408182
 10
402.2254008152472
 20
373.3933484204841
 10
401.8932320461558
 20
373.2543541141582
 10
401.5537607767569
 20
373.2825042702986
 10
401.2288903170215
 20
373.4759865351749
 10
400.9395800814913
 20
373.8223137357069
 10
400.7044958700375
 20
374.2991453059746
 10
400.5388054349409
 20
374.8757159360481
 10
400.4531984967129
 20
375.5148248770071
 10
400.4531984967129
 20
376.1752368905378
 10
400.5388054349409
 20
376.8143458314968
 10
400.7044958700375
 20
377.3909164615703
 10
400.9395800814913
 20
377.867748031838
 10
401.2288903170215
 20
378.21407523237
 10
401.5537607767569
 20
378.4075574972463
 10
401.8932320461558
 20
378.4357076533867
 10
402.2254008152472
 20
378.2967133470608
 10
402.5288364202665
 20
377.9995376267267
 10
402.7839619950341
 20
377.563358286841
  0
LWPOLYLINE
  5
2728
330
1A
100
AcDbEntity
  8
SEIHIN
  6
Continuous
100
AcDbPolyline
 90
       11
 70
   128
 43
0.0
 10
413.9442933076011
 20
377.8450312115979
 10
413.9886317127334
 20
378.9400728442502
 10
414.1205610060082
 20
380.0081489630771
 10
414.3368290089952
 20
381.0229646065068
 10
414.6321122818576
 20
381.9595268019271
 10
414.999139057933
 20
382.7947778650355
 10
415.4288717829572
 20
383.5081504680944
 10
415.9107287698375
 20
384.082076142056
 10
416.4328468316184
 20
384.5024267234635
 10
416.9823681288348
 20
384.7588496305775
 10
417.5457624071227
 20
384.8450304963421
  0
LWPOLYLINE
  5
2729
330
1A
100
AcDbEntity
  8
SEIHIN
  6
Continuous
100
AcDbPolyline
 90
       13
 70
   128
 43
0.0
 10
414.9732836806165
 20
387.8450309880805
 10
414.3017330490933
 20
387.7594796963763
 10
413.6416712128507
 20
387.504289860351
 10
413.0043932520734
 20
387.0838256575894
 10
412.4008049541102
 20
386.505284348948
 10
411.841231892346
 20
385.7785640307498
 10
411.3352499254929
 20
384.916097859366
 10
410.8915147655593
 20
383.9326454349589
 10
410.5176204168187
 20
382.8450301685166
 10
410.2199632027136
 20
381.6718654730153
 10
410.0036365264045
 20
380.4332213499379
 10
409.8723423951255
 20
379.1502928384376
 10
409.828326227604
 20
377.8450312115979
  0
LWPOLYLINE
  5
272A
330
1A
100
AcDbEntity
  8
SEIHIN
  6
Continuous
100
AcDbPolyline
 90
       26
 70
   128
 43
0.0
 10
415.8317749672519
 20
377.8450312115979
 10
415.873801829754
 20
378.4916242607665
 10
415.9972393237935
 20
379.0975911565852
 10
416.1943313949691
 20
379.6248538442683
 10
416.4526951783286
 20
380.0402833171916
 10
416.7560958587514
 20
380.3177783288788
 10
417.0854711257802
 20
380.439900795443
 10
417.4201232665168
 20
380.3989784815144
 10
417.7390248798715
 20
380.197581837399
 10
418.022139491974
 20
379.8483656742405
 10
418.251676979004
 20
379.3732719518971
 10
418.4132167422162
 20
378.8021551468205
 10
418.4966055029021
 20
378.1708972551655
 10
418.4966055029021
 20
377.5191651680302
 10
418.4132167422162
 20
376.8879072763752
 10
418.251676979004
 20
376.3167886086535
 10
418.022139491974
 20
375.8416967489552
 10
417.7390248798715
 20
375.4924805857968
 10
417.4201232665168
 20
375.2910839416813
 10
417.0854711257802
 20
375.2501616277527
 10
416.7560958587514
 20
375.3722840943169
 10
416.4526951783286
 20
375.6497791060042
 10
416.1943313949691
 20
376.0652085789275
 10
415.9972393237935
 20
376.5924712666106
 10
415.873801829754
 20
377.1984362997842
 10
415.8317749672519
 20
377.8450312115979
  0
LINE
  5
272B
330
1A
100
AcDbEntity
  8
SEIHIN
  6
Continuous
100
AcDbLine
 10
408.799334923266
 20
391.845030712409
 30
0.0
 11
416.002275916277
 21
391.845030712409
 31
0.0
  0
LINE
  5
272C
330
1A
100
AcDbEntity
  8
SEIHIN
  6
Continuous
100
AcDbLine
 10
415.7450276681775
 20
387.8450308986735
 30
0.0
 11
414.9732840350362
 21
387.8450308986735
 31
0.0
  0
LWPOLYLINE
  5
272D
330
1A
100
AcDbEntity
  8
SEIHIN
  6
Continuous
100
AcDbPolyline
 90
        9
 70
   128
 43
0.0
 10
418.3175065838681
 20
384.8450304963421
 10
418.668812634884
 20
384.9122831621003
 10
419.0066182338582
 20
385.1114520826172
 10
419.3179407441007
 20
385.4348873742651
 10
419.590818258463
 20
385.870157743318
 10
419.8147622221099
 20
386.4005347736907
 10
419.981169077097
 20
387.0056392648053
 10
420.0836406373368
 20
387.6622142293286
 10
420.1182411336289
 20
388.3450301387143
  0
LINE
  5
272E
330
1A
100
AcDbEntity
  8
SEIHIN
  6
Continuous
100
AcDbLine
 10
416.002275916277
 20
391.845030712409
 30
0.0
 11
416.0022755458913
 21
388.3450308986735
 31
0.0
  0
LWPOLYLINE
  5
272F
330
1A
100
AcDbEntity
  8
SEIHIN
  6
Continuous
100
AcDbPolyline
 90
        9
 70
   128
 43
0.0
 10
416.002275916277
 20
388.3450301387143
 10
415.997332456051
 20
388.2474852748942
 10
415.9826939278232
 20
388.1536899157595
 10
415.9589209877835
 20
388.0672464170289
 10
415.9269300573455
 20
387.9914777376484
 10
415.8879467570172
 20
387.9292951919865
 10
415.843472378789
 20
387.8830904164147
 10
415.7952149682628
 20
387.8546385117602
 10
415.7450278573619
 20
387.8450309880805
  0
LINE
  5
2730
330
1A
100
AcDbEntity
  8
SEIHIN
  6
Continuous
100
AcDbLine
 10
418.3175064453151
 20
384.8450308986735
 30
0.0
 11
417.5457628121739
 21
384.8450308986735
 31
0.0
  0
LINE
  5
2731
330
1A
100
AcDbEntity
  8
SEIHIN
  6
Continuous
100
AcDbLine
 10
412.1435573801848
 20
372.3450308986735
 30
0.0
 11
410.6000701139022
 21
372.3450308986735
 31
0.0
  0
LINE
  5
2732
330
1A
100
AcDbEntity
  8
SEIHIN
  6
Continuous
100
AcDbLine
 10
413.9442925241812
 20
377.8450308986735
 30
0.0
 11
413.9442925241812
 21
375.8450308986735
 31
0.0
  0
LINE
  5
2733
330
1A
100
AcDbEntity
  8
SEIHIN
  6
Continuous
100
AcDbLine
 10
409.5710786030472
 20
375.3450308986735
 30
0.0
 11
408.8178049125658
 21
375.3450317331386
 31
0.0
  0
LWPOLYLINE
  5
2734
330
1A
100
AcDbEntity
  8
SEIHIN
  6
Continuous
100
AcDbPolyline
 90
        9
 70
   128
 43
0.0
 10
409.828326227604
 20
375.8450308837724
 10
409.8233836987005
 20
375.7474860199523
 10
409.8087442391501
 20
375.6536887981725
 10
409.7849722304331
 20
375.5672452994418
 10
409.7529803686725
 20
375.4914766200614
 10
409.7139979996668
 20
375.4292959370446
 10
409.669522690116
 20
375.3830911614728
 10
409.6212652795898
 20
375.3546373941732
 10
409.5710781686889
 20
375.3450317331386
  0
LINE
  5
2735
330
1A
100
AcDbEntity
  8
SEIHIN
  6
Continuous
100
AcDbLine
 10
409.828326480761
 20
377.8450308986735
 30
0.0
 11
409.828326480761
 21
375.8450308986735
 31
0.0
  0
LWPOLYLINE
  5
2736
330
1A
100
AcDbEntity
  8
SEIHIN
  6
Continuous
100
AcDbPolyline
 90
        9
 70
   128
 43
0.0
 10
412.1435578265177
 20
372.3450293787551
 10
412.494862946211
 20
372.4122820445132
 10
412.8326685451852
 20
372.6114509650302
 10
413.1439929180728
 20
372.9348881193233
 10
413.41686856979
 20
373.370156625731
 10
413.640814396082
 20
373.9005355187488
 10
413.807219388424
 20
374.5056381472182
 10
413.909692811309
 20
375.1622149743867
 10
413.9442933076011
 20
375.8450308837724
  0
LWPOLYLINE
  5
2737
330
1A
100
AcDbEntity
  8
SEIHIN
  6
Continuous
100
AcDbPolyline
 90
        9
 70
   128
 43
0.0
 10
408.799334923266
 20
375.8450308837724
 10
408.8339354195581
 20
375.1622149743867
 10
408.9364079111205
 20
374.5056381472182
 10
409.1028138347851
 20
373.9005355187488
 10
409.326757798432
 20
373.370156625731
 10
409.5996353127943
 20
372.9348881193233
 10
409.9109587543593
 20
372.6114509650302
 10
410.2487643533336
 20
372.4122820445132
 10
410.6000704043494
 20
372.3450293787551
  0
LINE
  5
2738
330
1A
100
AcDbEntity
  8
SEIHIN
  6
Continuous
100
AcDbLine
 10
402.1260896981643
 20
367.3450304218364
 30
0.0
 11
417.6065610074388
 21
367.3450304218363
 31
0.0
  0
LINE
  5
2739
330
1A
100
AcDbEntity
  8
SEIHIN
  6
Continuous
100
AcDbLine
 10
396.0715054040729
 20
367.3450308986735
 30
0.0
 11
402.1260896981643
 21
367.3450304218364
 31
0.0
  0
LWPOLYLINE
  5
273A
330
1A
100
AcDbEntity
  8
SEIHIN
  6
Continuous
100
AcDbPolyline
 90
        5
 70
   128
 43
0.0
 10
396.0715054119887
 20
367.3450304218364
 10
395.4877745411308
 20
367.4305817135406
 10
394.9140315228091
 20
367.6857715495659
 10
394.3600929626213
 20
368.1062338896824
 10
393.8354375124858
 20
368.6847751983238
  0
DIMENSION
  5
27B2
330
1A
100
AcDbEntity
  8
SUNPOU
100
AcDbDimension
  2
*D7
 10
220.779464835216
 20
386.3360499986243
 30
0.0
 11
215.779464835216
 21
404.3449308986737
 31
0.0
 70
    32
 71
     5
 42
-1.0
  3
STANDARD
100
AcDbAlignedDimension
 13
297.9659331315146
 23
422.3538117987229
 33
0.0
 14
297.9659331315146
 24
386.3360499986243
 34
0.0
 50
90.0
100
AcDbRotatedDimension
1001
ACAD
1000
DSTYLE
1002
{
1070
    41
1040
7.0
1070
    42
1040
6.0
1070
    43
1040
14.0
1070
    44
1040
3.0
1070
    73
1070
     0
1070
    74
1070
     0
1070
    77
1070
     3
1070
   140
1040
6.0
1070
   141
1040
150.0
1070
   147
1040
2.0
1070
   172
1070
     1
1070
   173
1070
     1
1070
   176
1070
   256
1070
   177
1070
   256
1070
   178
1070
   256
1070
   271
1070
     0
1070
   272
1070
     0
1070
   341
1005
6D
1070
     6
1000
OPEN
1070
     7
1000
OPEN
1070
   371
1070
    -1
1070
   372
1070
    -1
1002
}
  0
DIMENSION
  5
3ABC
330
1A
100
AcDbEntity
  8
SUNPOU
100
AcDbDimension
  2
*D8
 10
469.1837582412011
 20
241.0154922860174
 30
0.0
 11
486.3495423609152
 21
222.1241052445694
 31
0.0
 70
    33
 71
     5
 42
-1.0
  3
STANDARD
100
AcDbAlignedDimension
 13
533.8906790523211
 23
221.4579297461363
 33
0.0
 14
508.1340400700182
 24
264.3856613833077
 34
0.0
1001
ACAD
1000
DSTYLE
1002
{
1070
    41
1040
7.0
1070
    42
1040
6.0
1070
    43
1040
14.0
1070
    44
1040
3.0
1070
    73
1070
     0
1070
    74
1070
     0
1070
    77
1070
     3
1070
   140
1040
6.0
1070
   141
1040
150.0
1070
   147
1040
2.0
1070
   172
1070
     1
1070
   173
1070
     1
1070
   176
1070
   256
1070
   177
1070
   256
1070
   178
1070
   256
1070
   271
1070
     0
1070
   272
1070
     0
1070
   341
1005
6D
1070
     6
1000
OPEN
1070
     7
1000
OPEN
1070
   371
1070
    -1
1070
   372
1070
    -1
1002
}
  0
DIMENSION
  5
3AD9
330
1A
100
AcDbEntity
  8
SUNPOU
100
AcDbDimension
  2
*D9
 10
488.1358142448956
 20
241.524746128421
 30
0.0
 11
490.0712109455628
 21
248.0173381187178
 31
0.0
 70
    33
 71
     5
 42
-1.0
  3
STANDARD
100
AcDbAlignedDimension
 13
507.1122767412495
 23
263.5733315660266
 33
0.0
 14
511.8164125970406
 24
255.7331051397082
 34
0.0
1001
ACAD
1000
DSTYLE
1002
{
1070
    41
1040
7.0
1070
    42
1040
6.0
1070
    43
1040
14.0
1070
    44
1040
3.0
1070
    73
1070
     0
1070
    74
1070
     0
1070
    77
1070
     3
1070
   140
1040
6.0
1070
   141
1040
150.0
1070
   147
1040
2.0
1070
   172
1070
     1
1070
   173
1070
     1
1070
   176
1070
   256
1070
   177
1070
   256
1070
   178
1070
   256
1070
   271
1070
     0
1070
   272
1070
     0
1070
   341
1005
6D
1070
     6
1000
OPEN
1070
     7
1000
OPEN
1070
   371
1070
    -1
1070
   372
1070
    -1
1002
}
  0
DIMENSION
  5
3AE8
330
1A
100
AcDbEntity
  8
SUNPOU
100
AcDbDimension
  2
*D10
 10
509.1224767464638
 20
206.5469752924746
 30
0.0
 11
510.6113146350506
 21
213.783831969572
 31
0.0
 70
    33
 71
     5
 42
-1.0
  3
STANDARD
100
AcDbAlignedDimension
 13
529.3038723546844
 23
231.3429205452977
 33
0.0
 14
534.9011258346361
 24
222.0141647453783
 34
0.0
1001
ACAD
1000
DSTYLE
1002
{
1070
    41
1040
7.0
1070
    42
1040
6.0
1070
    43
1040
14.0
1070
    44
1040
3.0
1070
    73
1070
     0
1070
    74
1070
     0
1070
    77
1070
     3
1070
   140
1040
6.0
1070
   141
1040
150.0
1070
   147
1040
2.0
1070
   172
1070
     1
1070
   173
1070
     1
1070
   176
1070
   256
1070
   177
1070
   256
1070
   178
1070
   256
1070
   271
1070
     0
1070
   272
1070
     0
1070
   341
1005
6D
1070
     6
1000
OPEN
1070
     7
1000
OPEN
1070
   371
1070
    -1
1070
   372
1070
    -1
1002
}
  0
LINE
  5
3BE3
330
1A
100
AcDbEntity
  8
CENTER L
  6
CENTER
 62
     1
 48
5.0
100
AcDbLine
 10
393.8001072654074
 20
432.5147249068095
 30
0.0
 11
412.0371389960132
 21
432.5147249068095
 31
0.0
  0
LINE
  5
3BE4
330
1A
100
AcDbEntity
  8
CENTER L
  6
CENTER
 62
     1
 48
5.0
100
AcDbLine
 10
407.6176205024667
 20
430.5216340611651
 30
0.0
 11
424.7999388385064
 21
430.5216340611651
 31
0.0
  0
LINE
  5
3BE5
330
1A
100
AcDbEntity
  8
CENTER L
  6
CENTER
 62
     1
 48
5.0
100
AcDbLine
 10
393.8002707052279
 20
376.1749185231133
 30
0.0
 11
412.0373024355268
 21
376.1750243331039
 31
0.0
  0
LINE
  5
3BE6
330
1A
100
AcDbEntity
  8
CENTER L
  6
CENTER
 62
     1
 48
5.0
100
AcDbLine
 10
407.6177723782801
 20
378.1680895369756
 30
0.0
 11
424.8000907140306
 21
378.1681892275924
 31
0.0
  0
TEXT
  5
41C6
330
1A
100
AcDbEntity
  8
SUNPOU
 48
5.0
100
AcDbText
 10
396.633842294963
 20
270.3781183882574
 30
0.0
 40
6.0
  1
スライド巾
100
AcDbText
  0
DIMENSION
  5
41C7
330
1A
100
AcDbEntity
  8
SUNPOU
100
AcDbDimension
  2
*D11
 10
431.9671390295484
 20
258.9479452038064
 30
0.0
 11
414.4671390295484
 21
263.9479452038064
 31
0.0
 70
    32
 71
     5
 42
-1.0
  3
STANDARD
100
AcDbAlignedDimension
 13
396.9671390295484
 23
197.7328175237179
 33
0.0
 14
431.9671390295484
 24
197.7328175237179
 34
0.0
100
AcDbRotatedDimension
1001
ACAD
1000
DSTYLE
1002
{
1070
    41
1040
7.0
1070
    42
1040
6.0
1070
    43
1040
14.0
1070
    44
1040
3.0
1070
    73
1070
     0
1070
    74
1070
     0
1070
    77
1070
     3
1070
   140
1040
6.0
1070
   141
1040
150.0
1070
   147
1040
2.0
1070
   172
1070
     1
1070
   173
1070
     1
1070
   176
1070
   256
1070
   177
1070
   256
1070
   178
1070
   256
1070
   271
1070
     0
1070
   272
1070
     0
1070
   341
1005
6D
1070
     6
1000
OPEN
1070
     7
1000
OPEN
1070
   371
1070
    -1
1070
   372
1070
    -1
1002
}
  0
DIMENSION
  5
41C8
330
1A
100
AcDbEntity
  8
SUNPOU
100
AcDbDimension
  2
*D12
 10
434.2228242932665
 20
220.0862286819489
 30
0.0
 11
451.4100782294894
 21
201.1590586129862
 31
0.0
 70
    33
 71
     5
 42
-1.0
  3
STANDARD
100
AcDbAlignedDimension
 13
422.766717644869
 23
154.7335198315172
 33
0.0
 14
396.9671390295484
 24
197.7328175237179
 34
0.0
1001
ACAD
1000
DSTYLE
1002
{
1070
    41
1040
7.0
1070
    42
1040
6.0
1070
    43
1040
14.0
1070
    44
1040
3.0
1070
    73
1070
     0
1070
    74
1070
     0
1070
    77
1070
     3
1070
   140
1040
6.0
1070
   141
1040
150.0
1070
   147
1040
2.0
1070
   172
1070
     1
1070
   173
1070
     1
1070
   176
1070
   256
1070
   177
1070
   256
1070
   178
1070
   256
1070
   271
1070
     0
1070
   272
1070
     0
1070
   341
1005
6D
1070
     6
1000
OPEN
1070
     7
1000
OPEN
1070
   371
1070
    -1
1070
   372
1070
    -1
1002
}
  0
TEXT
  5
41C9
330
1A
100
AcDbEntity
  8
SUNPOU
  6
Continuous
 62
     4
 48
5.0
100
AcDbText
 10
422.5566575162025
 20
124.9405195182667
 30
0.0
 40
6.0
  1
10
100
AcDbText
  0
LINE
  5
41CA
330
1A
100
AcDbEntity
  8
SEIHIN
  6
PHANTOM
 62
     6
 48
5.0
100
AcDbLine
 10
423.9671390295484
 20
197.7328175237179
 30
0.0
 11
416.9671390295484
 21
197.1203968790179
 31
0.0
  0
DIMENSION
  5
41CD
330
1A
100
AcDbEntity
  8
SUNPOU
100
AcDbDimension
  2
*D13
 10
396.9671390295484
 20
258.9479452038064
 30
0.0
 11
329.9694155974983
 21
263.9479452038064
 31
0.0
 70
    32
 71
     5
 42
-1.0
  3
STANDARD
100
AcDbAlignedDimension
 13
262.9716921654481
 23
189.0542651182503
 33
0.0
 14
396.9671390295484
 24
197.7328175237179
 34
0.0
100
AcDbRotatedDimension
1001
ACAD
1000
DSTYLE
1002
{
1070
    41
1040
7.0
1070
    42
1040
6.0
1070
    43
1040
14.0
1070
    44
1040
3.0
1070
    73
1070
     0
1070
    74
1070
     0
1070
    77
1070
     3
1070
   140
1040
6.0
1070
   141
1040
150.0
1070
   147
1040
2.0
1070
   172
1070
     1
1070
   173
1070
     1
1070
   176
1070
   256
1070
   177
1070
   256
1070
   178
1070
   256
1070
   271
1070
     0
1070
   272
1070
     0
1070
   341
1005
6D
1070
     6
1000
OPEN
1070
     7
1000
OPEN
1070
   371
1070
    -1
1070
   372
1070
    -1
1002
}
  0
DIMENSION
  5
41CE
330
1A
100
AcDbEntity
  8
SUNPOU
100
AcDbDimension
  2
*D14
 10
231.4522815226869
 20
152.0469653045171
 30
0.0
 11
226.4522815226869
 21
172.8693851789887
 31
0.0
 70
    32
 71
     5
 42
-1.0
  3
STANDARD
100
AcDbAlignedDimension
 13
267.1024606538251
 23
193.6918050534602
 33
0.0
 14
417.4017922238689
 24
152.0469653045171
 34
0.0
 50
90.0
100
AcDbRotatedDimension
1001
ACAD
1000
DSTYLE
1002
{
1070
    41
1040
7.0
1070
    42
1040
6.0
1070
    43
1040
14.0
1070
    44
1040
3.0
1070
    73
1070
     0
1070
    74
1070
     0
1070
    77
1070
     3
1070
   140
1040
6.0
1070
   141
1040
150.0
1070
   147
1040
2.0
1070
   172
1070
     1
1070
   173
1070
     1
1070
   176
1070
   256
1070
   177
1070
   256
1070
   178
1070
   256
1070
   271
1070
     0
1070
   272
1070
     0
1070
   341
1005
6D
1070
     6
1000
OPEN
1070
     7
1000
OPEN
1070
   371
1070
    -1
1070
   372
1070
    -1
1002
}
  0
ARC
  5
41CF
330
1A
100
AcDbEntity
  8
SEIHIN
  6
Continuous
 62
     3
100
AcDbCircle
 10
297.275391714948
 20
181.740932917318
 30
0.0
 40
10.99999999999989
100
AcDbArc
 50
199.2625991412993
 51
257.8869563829032
  0
ARC
  5
41D0
330
1A
100
AcDbEntity
  8
SEIHIN
  6
Continuous
 62
     3
100
AcDbCircle
 10
295.9771419437479
 20
170.5800051309179
 30
0.0
 40
14.99999999999994
100
AcDbArc
 50
192.8042660652997
 51
266.1391519027979
  0
ARC
  5
41D1
330
1A
100
AcDbEntity
  8
SEIHIN
  6
Continuous
 62
     3
100
AcDbCircle
 10
295.9771419437479
 20
170.5800051309179
 30
0.0
 40
13.18068441619969
100
AcDbArc
 50
192.8042660652997
 51
246.6519006451986
  0
LINE
  5
41D2
330
1A
100
AcDbEntity
  8
SEIHIN
  6
Continuous
 62
     3
100
AcDbLine
 10
292.1478234458482
 20
169.3552432810179
 30
0.0
 11
292.1478234458482
 21
159.3954899904178
 31
0.0
  0
LINE
  5
41D3
330
1A
100
AcDbEntity
  8
SEIHIN
  6
Continuous
 62
     3
100
AcDbLine
 10
290.7534220457483
 20
158.4786350485178
 30
0.0
 11
290.9893744826482
 21
158.4108366277178
 31
0.0
  0
LINE
  5
41D4
330
1A
100
AcDbEntity
  8
SEIHIN
  6
Continuous
 62
     3
100
AcDbLine
 10
290.9893744826482
 20
158.4108366277178
 30
0.0
 11
291.235005223848
 21
158.4026950058178
 31
0.0
  0
LINE
  5
41D5
330
1A
100
AcDbEntity
  8
SEIHIN
  6
Continuous
 62
     3
100
AcDbLine
 10
291.235005223848
 20
158.4026950058178
 30
0.0
 11
291.4754429102482
 21
158.4547019210179
 31
0.0
  0
LINE
  5
41D6
330
1A
100
AcDbEntity
  8
SEIHIN
  6
Continuous
 62
     3
100
AcDbLine
 10
291.4754429102482
 20
158.4547019210179
 30
0.0
 11
291.6961142063483
 21
158.5637076404179
 31
0.0
  0
LINE
  5
41D7
330
1A
100
AcDbEntity
  8
SEIHIN
  6
Continuous
 62
     3
100
AcDbLine
 10
291.6961142063483
 20
158.5637076404179
 30
0.0
 11
291.8836453199483
 21
158.7231072244178
 31
0.0
  0
LINE
  5
41D8
330
1A
100
AcDbEntity
  8
SEIHIN
  6
Continuous
 62
     3
100
AcDbLine
 10
291.8836453199483
 20
158.7231072244178
 30
0.0
 11
292.026681566248
 21
158.9232428577178
 31
0.0
  0
LINE
  5
41D9
330
1A
100
AcDbEntity
  8
SEIHIN
  6
Continuous
 62
     3
100
AcDbLine
 10
292.026681566248
 20
158.9232428577178
 30
0.0
 11
292.1165579200481
 21
159.1519905832178
 31
0.0
  0
LINE
  5
41DA
330
1A
100
AcDbEntity
  8
SEIHIN
  6
Continuous
 62
     3
100
AcDbLine
 10
292.1165579200481
 20
159.1519905832178
 30
0.0
 11
292.147820556248
 21
159.3954904583178
 31
0.0
  0
LINE
  5
41DB
330
1A
100
AcDbEntity
  8
SEIHIN
  6
Continuous
 62
     3
100
AcDbLine
 10
282.1863764863481
 20
186.0603368663179
 30
0.0
 11
285.173746288448
 21
177.5118632790179
 31
0.0
  0
LINE
  5
41DC
330
1A
100
AcDbEntity
  8
SEIHIN
  6
Continuous
 62
     3
100
AcDbLine
 10
286.8912102177483
 20
178.112052286518
 30
0.0
 11
284.138015762248
 21
185.9904241131179
 31
0.0
  0
ARC
  5
41DD
330
1A
100
AcDbEntity
  8
SEIHIN
  6
Continuous
 62
     3
100
AcDbCircle
 10
273.304319185248
 20
180.0963118868179
 30
0.0
 40
5.000000000000136
100
AcDbArc
 50
12.80426606529967
 51
78.31063082459991
  0
LINE
  5
41DE
330
1A
100
AcDbEntity
  8
SEIHIN
  6
Continuous
 62
     3
100
AcDbLine
 10
283.1242235076481
 20
167.658887304518
 30
0.0
 11
278.937773273648
 21
186.079268333918
 31
0.0
  0
LINE
  5
41DF
330
1A
100
AcDbEntity
  8
SEIHIN
  6
Continuous
 62
     3
100
AcDbLine
 10
278.1799834642482
 20
181.2044174047179
 30
0.0
 11
281.3501491068482
 21
167.255688577118
 31
0.0
  0
ARC
  5
41E0
330
1A
100
AcDbEntity
  8
SEIHIN
  6
Continuous
 62
     3
100
AcDbCircle
 10
297.275391714948
 20
181.740932917318
 30
0.0
 40
12.81931558379976
100
AcDbArc
 50
199.2625991412993
 51
243.682124770202
  0
LINE
  5
41E1
330
1A
100
AcDbEntity
  8
SEIHIN
  6
Continuous
 62
     3
100
AcDbLine
 10
291.591940188448
 20
170.250362401918
 30
0.0
 11
291.7114549518483
 21
170.180282240818
 31
0.0
  0
LINE
  5
41E2
330
1A
100
AcDbEntity
  8
SEIHIN
  6
Continuous
 62
     3
100
AcDbLine
 10
291.7114549518483
 20
170.180282240818
 30
0.0
 11
291.8201738238481
 21
170.094349106818
 31
0.0
  0
LINE
  5
41E3
330
1A
100
AcDbEntity
  8
SEIHIN
  6
Continuous
 62
     3
100
AcDbLine
 10
291.8201738238481
 20
170.094349106818
 30
0.0
 11
291.916003191548
 21
169.9942151662179
 31
0.0
  0
LINE
  5
41E4
330
1A
100
AcDbEntity
  8
SEIHIN
  6
Continuous
 62
     3
100
AcDbLine
 10
291.916003191548
 20
169.9942151662179
 30
0.0
 11
291.9970953107481
 21
169.8818063941179
 31
0.0
  0
LINE
  5
41E5
330
1A
100
AcDbEntity
  8
SEIHIN
  6
Continuous
 62
     3
100
AcDbLine
 10
291.9970953107481
 20
169.8818063941179
 30
0.0
 11
292.0619004607481
 21
169.759281596218
 31
0.0
  0
LINE
  5
41E6
330
1A
100
AcDbEntity
  8
SEIHIN
  6
Continuous
 62
     3
100
AcDbLine
 10
292.0619004607481
 20
169.759281596218
 30
0.0
 11
292.109166944048
 21
169.628993293318
 31
0.0
  0
LINE
  5
41E7
330
1A
100
AcDbEntity
  8
SEIHIN
  6
Continuous
 62
     3
100
AcDbLine
 10
292.109166944048
 20
169.628993293318
 30
0.0
 11
292.1379932404479
 21
169.493446743218
 31
0.0
  0
LINE
  5
41E8
330
1A
100
AcDbEntity
  8
SEIHIN
  6
Continuous
 62
     3
100
AcDbLine
 10
292.1379932404479
 20
169.493446743218
 30
0.0
 11
292.147820556248
 21
169.355244061018
 31
0.0
  0
LINE
  5
41E9
330
1A
100
AcDbEntity
  8
SEIHIN
  6
Continuous
 62
     3
100
AcDbLine
 10
279.4179332634481
 20
189.3409329173179
 30
0.0
 11
273.5286918423481
 21
189.3409329173179
 31
0.0
  0
LINE
  5
41EA
330
1A
100
AcDbEntity
  8
SEIHIN
  6
Continuous
 62
     3
100
AcDbLine
 10
267.2899734353482
 20
190.898018931818
 30
0.0
 11
267.8645101174482
 21
192.3343606371179
 31
0.0
  0
ARC
  5
41EB
330
1A
100
AcDbEntity
  8
SEIHIN
  6
Continuous
 62
     3
100
AcDbCircle
 10
268.682688471748
 20
190.3409329173179
 30
0.0
 40
1.499999999999834
100
AcDbArc
 50
158.1985905135957
 51
270.0
  0
ARC
  5
41EC
330
1A
100
AcDbEntity
  8
SEIHIN
  6
Continuous
 62
     3
100
AcDbCircle
 10
266.936033426648
 20
192.7057513135179
 30
0.0
 40
1.000000000000002
100
AcDbArc
 50
338.1985905136023
 51
104.938162439685
  0
LINE
  5
41ED
330
1A
100
AcDbEntity
  8
SEIHIN
  6
Continuous
 62
     3
100
AcDbLine
 10
264.5646597030482
 20
187.010411398618
 30
0.0
 11
274.3173472054482
 21
184.9926139843179
 31
0.0
  0
LINE
  5
41EE
330
1A
100
AcDbEntity
  8
SEIHIN
  6
Continuous
 62
     3
100
AcDbLine
 10
262.9716921654481
 20
189.0542651179179
 30
0.0
 11
262.9716921654481
 21
188.883599357418
 31
0.0
  0
ARC
  5
41EF
330
1A
100
AcDbEntity
  8
SEIHIN
  6
Continuous
 62
     3
100
AcDbCircle
 10
267.967139029548
 20
188.8409329173179
 30
0.0
 40
4.999999999999941
100
AcDbArc
 50
104.9381624396985
 51
177.5546507419004
  0
LINE
  5
41F0
330
1A
100
AcDbEntity
  8
SEIHIN
  6
Continuous
 62
     3
100
AcDbLine
 10
262.9716971159483
 20
189.054265129018
 30
0.0
 11
262.9716971159483
 21
189.017523580318
 31
0.0
  0
LINE
  5
41F1
330
1A
100
AcDbEntity
  8
SEIHIN
  6
Continuous
 62
     3
100
AcDbLine
 10
262.9716971159483
 20
189.017523580318
 30
0.0
 11
262.9717120171481
 21
188.9745867574179
 31
0.0
  0
LINE
  5
41F2
330
1A
100
AcDbEntity
  8
SEIHIN
  6
Continuous
 62
     3
100
AcDbLine
 10
262.9717120171481
 20
188.9745867574179
 30
0.0
 11
262.9717120171481
 21
188.9356904775179
 31
0.0
  0
LINE
  5
41F3
330
1A
100
AcDbEntity
  8
SEIHIN
  6
Continuous
 62
     3
100
AcDbLine
 10
262.9717120171481
 20
188.9356904775179
 30
0.0
 11
262.9716971159483
 21
188.893108837818
 31
0.0
  0
LINE
  5
41F4
330
1A
100
AcDbEntity
  8
SEIHIN
  6
Continuous
 62
     3
100
AcDbLine
 10
262.9716971159483
 20
188.893108837818
 30
0.0
 11
262.9716971159483
 21
188.883599335818
 31
0.0
  0
ARC
  5
41F5
330
1A
100
AcDbEntity
  8
SEIHIN
  6
Continuous
 62
     3
100
AcDbCircle
 10
264.969870911048
 20
188.968932237618
 30
0.0
 40
1.999999999999997
100
AcDbArc
 50
182.4453492580996
 51
258.3106308246066
  0
LINE
  5
41F6
330
1A
100
AcDbEntity
  8
SEIHIN
  6
Continuous
 62
     3
100
AcDbLine
 10
273.4074240298482
 20
189.3260041673179
 30
0.0
 11
271.5268540292482
 21
188.8558616672179
 31
0.0
  0
ARC
  5
41F7
330
1A
100
AcDbEntity
  8
SEIHIN
  6
Continuous
 62
     3
100
AcDbCircle
 10
271.4055862167481
 20
189.3409329173179
 30
0.0
 40
0.5
100
AcDbArc
 50
270.0
 51
284.0362434678798
  0
LINE
  5
41F8
330
1A
100
AcDbEntity
  8
SEIHIN
  6
Continuous
 62
     3
100
AcDbLine
 10
271.4055862167481
 20
188.8409329173179
 30
0.0
 11
268.682688471748
 21
188.8409329173179
 31
0.0
  0
ARC
  5
41F9
330
1A
100
AcDbEntity
  8
SEIHIN
  6
Continuous
 62
     3
100
AcDbCircle
 10
273.5286918423481
 20
188.8409329173179
 30
0.0
 40
0.5
100
AcDbArc
 50
90.0
 51
104.0362434679067
  0
ARC
  5
41FA
330
1A
100
AcDbEntity
  8
SEIHIN
  6
Continuous
 62
     3
100
AcDbCircle
 10
279.4179332634481
 20
184.3409329173179
 30
0.0
 40
5.000000000000211
100
AcDbArc
 50
19.26259914129926
 51
90.0
  0
LINE
  5
41FB
330
1A
100
AcDbEntity
  8
SEIHIN
  6
Continuous
 62
     3
100
AcDbLine
 10
280.0890974402482
 20
187.521617333518
 30
0.0
 11
280.1277744166482
 21
187.521617333518
 31
0.0
  0
ARC
  5
41FC
330
1A
100
AcDbEntity
  8
SEIHIN
  6
Continuous
 62
     3
100
AcDbCircle
 10
280.1277744166482
 20
185.3409329173179
 30
0.0
 40
2.180684416200021
100
AcDbArc
 50
19.26259914130263
 51
90.0
  0
ARC
  5
41FD
330
1A
100
AcDbEntity
  8
SEIHIN
  6
Continuous
 62
     3
100
AcDbCircle
 10
280.0890974402482
 20
186.3409329173179
 30
0.0
 40
1.180684416200052
100
AcDbArc
 50
90.0
 51
192.8042660652965
  0
DIMENSION
  5
41FE
330
1A
100
AcDbEntity
  8
SUNPOU
100
AcDbDimension
  2
*D15
 10
386.6104603623967
 20
234.0853636270518
 30
0.0
 11
367.1104603623967
 21
239.0853636270518
 31
0.0
 70
    32
 71
     5
 42
-1.0
  3
STANDARD
100
AcDbAlignedDimension
 13
396.9671390295484
 23
197.7328175237179
 33
0.0
 14
386.6104603623967
 24
180.1396626886179
 34
0.0
100
AcDbRotatedDimension
1001
ACAD
1000
DSTYLE
1002
{
1070
    41
1040
7.0
1070
    42
1040
6.0
1070
    43
1040
14.0
1070
    44
1040
3.0
1070
    73
1070
     0
1070
    74
1070
     0
1070
    77
1070
     3
1070
   140
1040
6.0
1070
   141
1040
150.0
1070
   147
1040
2.0
1070
   172
1070
     1
1070
   173
1070
     1
1070
   176
1070
   256
1070
   177
1070
   256
1070
   178
1070
   256
1070
   271
1070
     0
1070
   272
1070
     0
1070
   341
1005
6D
1070
     6
1000
OPEN
1070
     7
1000
OPEN
1070
   371
1070
    -1
1070
   372
1070
    -1
1002
}
  0
DIMENSION
  5
41FF
330
1A
100
AcDbEntity
  8
SUNPOU
100
AcDbDimension
  2
*D16
 10
396.9671390295484
 20
245.7423063139946
 30
0.0
 11
347.4671390295482
 21
250.7423063139946
 31
0.0
 70
    32
 71
     5
 42
-1.0
  3
STANDARD
100
AcDbAlignedDimension
 13
297.967139029548
 23
175.6396626886179
 33
0.0
 14
396.9671390295484
 24
203.7328175237179
 34
0.0
100
AcDbRotatedDimension
1001
ACAD
1000
DSTYLE
1002
{
1070
    41
1040
7.0
1070
    42
1040
6.0
1070
    43
1040
14.0
1070
    44
1040
3.0
1070
    73
1070
     0
1070
    74
1070
     0
1070
    77
1070
     3
1070
   140
1040
6.0
1070
   141
1040
150.0
1070
   147
1040
2.0
1070
   172
1070
     1
1070
   173
1070
     1
1070
   176
1070
   256
1070
   177
1070
   256
1070
   178
1070
   256
1070
   271
1070
     0
1070
   272
1070
     0
1070
   341
1005
6D
1070
     6
1000
OPEN
1070
     7
1000
OPEN
1070
   371
1070
    -1
1070
   372
1070
    -1
1002
}
  0
ARC
  5
4200
330
1A
100
AcDbEntity
  8
SEIHIN
  6
Continuous
 62
     3
100
AcDbCircle
 10
357.1242291188482
 20
157.7525975018178
 30
0.0
 40
1.180684416199934
100
AcDbArc
 50
269.2257798350898
 51
354.4810715147031
  0
LINE
  5
4201
330
1A
100
AcDbEntity
  8
SEIHIN
  6
Continuous
 62
     3
100
AcDbLine
 10
347.4671372414482
 20
154.8828246650179
 30
0.0
 11
357.9671398938481
 21
154.7409320828178
 31
0.0
  0
ARC
  5
4202
330
1A
100
AcDbEntity
  8
SEIHIN
  6
Continuous
 62
     3
100
AcDbCircle
 10
353.651695062948
 20
180.740932917318
 30
0.0
 40
10.0
100
AcDbArc
 50
270.0
 51
316.6846843179047
  0
ARC
  5
4203
330
1A
100
AcDbEntity
  8
SEIHIN
  6
Continuous
 62
     3
100
AcDbCircle
 10
353.651695062948
 20
180.740932917318
 30
0.0
 40
11.81931558380006
100
AcDbArc
 50
270.0
 51
316.6846843178967
  0
LINE
  5
4204
330
1A
100
AcDbEntity
  8
SEIHIN
  6
Continuous
 62
     3
100
AcDbLine
 10
367.9886126927474
 20
195.8974342918179
 30
0.0
 11
341.672109957148
 21
193.5950386387179
 31
0.0
  0
LINE
  5
4205
330
1A
100
AcDbEntity
  8
SEIHIN
  6
Continuous
 62
     3
100
AcDbLine
 10
347.6122000799478
 20
180.1396626886179
 30
0.0
 11
367.9886126927474
 21
180.1396626886179
 31
0.0
  0
LINE
  5
4206
330
1A
100
AcDbEntity
  8
SEIHIN
  6
Continuous
 62
     3
100
AcDbLine
 10
294.2712284524482
 20
168.5355343703179
 30
0.0
 11
294.2712284524482
 21
158.2401678372179
 31
0.0
  0
LINE
  5
4207
330
1A
100
AcDbEntity
  8
SEIHIN
  6
Continuous
 62
     3
100
AcDbLine
 10
350.2864546133483
 20
157.6494333626178
 30
0.0
 11
350.2864546133483
 21
167.922987798818
 31
0.0
  0
LINE
  5
4208
330
1A
100
AcDbEntity
  8
CENTER L
  6
CENTER
 62
     1
 48
5.0
100
AcDbLine
 10
307.967139029548
 20
139.274584065518
 30
0.0
 11
307.967139029548
 21
185.1394827028718
 31
0.0
  0
LINE
  5
4209
330
1A
100
AcDbEntity
  8
SEIHIN
  6
Continuous
 62
     3
100
AcDbLine
 10
296.9671392083483
 20
155.6615258214178
 30
0.0
 11
345.4671406388479
 21
155.0059008059178
 31
0.0
  0
LINE
  5
420A
330
1A
100
AcDbEntity
  8
SEIHIN
  6
Continuous
 62
     3
100
AcDbLine
 10
348.1495558450483
 20
156.4179186912179
 30
0.0
 11
295.7953230679482
 21
157.1254083233178
 31
0.0
  0
LINE
  5
420B
330
1A
100
AcDbEntity
  8
SEIHIN
  6
Continuous
 62
     3
100
AcDbLine
 10
313.3870175017478
 20
155.335865220218
 30
0.0
 11
302.3870175017478
 21
155.335865220218
 31
0.0
  0
LINE
  5
420C
330
1A
100
AcDbEntity
  8
SEIHIN
  6
Continuous
 62
     3
100
AcDbLine
 10
312.3870175017478
 20
152.835865220218
 30
0.0
 11
303.3870175017478
 21
152.835865220218
 31
0.0
  0
LINE
  5
420D
330
1A
100
AcDbEntity
  8
SEIHIN
  6
Continuous
 62
     3
100
AcDbLine
 10
313.3870175017478
 20
153.835865220218
 30
0.0
 11
302.3870175017478
 21
153.835865220218
 31
0.0
  0
LINE
  5
420E
330
1A
100
AcDbEntity
  8
SEIHIN
  6
Continuous
 62
     3
100
AcDbLine
 10
310.8870175017478
 20
149.835865220218
 30
0.0
 11
304.8870175017478
 21
149.835865220218
 31
0.0
  0
LINE
  5
420F
330
1A
100
AcDbEntity
  8
SEIHIN
  6
Continuous
 62
     3
100
AcDbLine
 10
305.3870175017478
 20
146.274584065518
 30
0.0
 11
310.3870175017478
 21
146.274584065518
 31
0.0
  0
ARC
  5
4210
330
1A
100
AcDbEntity
  8
SEIHIN
  6
Continuous
 62
     3
100
AcDbCircle
 10
303.8186315159478
 20
149.736569214418
 30
0.0
 40
0.5000000000001278
100
AcDbArc
 50
344.0546040989944
 51
26.56505117710056
  0
ARC
  5
4211
330
1A
100
AcDbEntity
  8
SEIHIN
  6
Continuous
 62
     3
100
AcDbCircle
 10
317.4849305425478
 20
138.649644867518
 30
0.0
 40
19.49999999999999
100
AcDbArc
 50
139.0464503415955
 51
155.7722546820022
  0
ARC
  5
4212
330
1A
100
AcDbEntity
  8
SEIHIN
  6
Continuous
 62
     3
100
AcDbCircle
 10
317.4849305425478
 20
138.649644867518
 30
0.0
 40
19.9999999999998
100
AcDbArc
 50
134.821114553302
 51
155.7722546820022
  0
LINE
  5
4213
330
1A
100
AcDbEntity
  8
SEIHIN
  6
Continuous
 62
     3
100
AcDbLine
 10
303.3870175017478
 20
152.835865220218
 30
0.0
 11
304.8870175017478
 21
149.835865220218
 31
0.0
  0
LINE
  5
4214
330
1A
100
AcDbEntity
  8
SEIHIN
  6
Continuous
 62
     3
100
AcDbLine
 10
299.2160212380477
 20
144.079966424318
 30
0.0
 11
302.080783476948
 21
143.507013976618
 31
0.0
  0
LINE
  5
4215
330
1A
100
AcDbEntity
  8
SEIHIN
  6
Continuous
 62
     3
100
AcDbLine
 10
299.1179631704476
 20
143.589676086518
 30
0.0
 11
301.982725409348
 21
143.016723638718
 31
0.0
  0
ARC
  5
4216
330
1A
100
AcDbEntity
  8
SEIHIN
  6
Continuous
 62
     3
100
AcDbCircle
 10
299.3140793056477
 20
144.570256762218
 30
0.0
 40
0.5000000000001695
100
AcDbArc
 50
155.7722546820022
 51
258.6900675260288
  0
ARC
  5
4217
330
1A
100
AcDbEntity
  8
SEIHIN
  6
Continuous
 62
     3
100
AcDbCircle
 10
299.3140793056477
 20
144.570256762218
 30
0.0
 40
0.9999999999998734
100
AcDbArc
 50
155.7722546819979
 51
258.6900675258959
  0
LINE
  5
4218
330
1A
100
AcDbEntity
  8
SEIHIN
  6
Continuous
 62
     3
100
AcDbLine
 10
298.4021578004476
 20
144.980621439518
 30
0.0
 11
299.2465004390479
 21
146.856938414118
 31
0.0
  0
LINE
  5
4219
330
1A
100
AcDbEntity
  8
SEIHIN
  6
Continuous
 62
     3
100
AcDbLine
 10
298.8581185530479
 20
144.7754391009179
 30
0.0
 11
299.7024611915476
 21
146.651756075418
 31
0.0
  0
LINE
  5
421A
330
1A
100
AcDbEntity
  8
SEIHIN
  6
Continuous
 62
     3
100
AcDbLine
 10
304.2993934897477
 20
149.5992086505179
 30
0.0
 11
302.6596035183479
 21
143.859943750518
 31
0.0
  0
LINE
  5
421B
330
1A
100
AcDbEntity
  8
SEIHIN
  6
Continuous
 62
     3
100
AcDbLine
 10
304.7834062343477
 20
149.473225784218
 30
0.0
 11
303.1403654921478
 21
143.722583186518
 31
0.0
  0
ARC
  5
421C
330
1A
100
AcDbEntity
  8
SEIHIN
  6
Continuous
 62
     3
100
AcDbCircle
 10
302.178841544448
 20
143.9973043144181
 30
0.0
 40
0.5000000000000705
100
AcDbArc
 50
258.6900675259756
 51
344.0546040990955
  0
ARC
  5
421D
330
1A
100
AcDbEntity
  8
SEIHIN
  6
Continuous
 62
     3
100
AcDbCircle
 10
302.178841544448
 20
143.9973043144181
 30
0.0
 40
1.000000000000136
100
AcDbArc
 50
258.6900675259756
 51
344.0546040990955
  0
ARC
  5
421E
330
1A
100
AcDbEntity
  8
SEIHIN
  6
Continuous
 62
     3
100
AcDbCircle
 10
305.264168208148
 20
149.335865220218
 30
0.0
 40
0.5
100
AcDbArc
 50
90.00000000031267
 51
164.054604099007
  0
LINE
  5
421F
330
1A
100
AcDbEntity
  8
SEIHIN
  6
Continuous
 62
     3
100
AcDbLine
 10
305.3870175017478
 20
149.835865220218
 30
0.0
 11
305.3870175017478
 21
146.274584065518
 31
0.0
  0
LINE
  5
4220
330
1A
100
AcDbEntity
  8
SEIHIN
  6
Continuous
 62
     3
100
AcDbLine
 10
294.9671390293481
 20
155.6140472894178
 30
0.0
 11
294.967142605848
 21
155.6537548658178
 31
0.0
  0
ARC
  5
4221
330
1A
100
AcDbEntity
  8
SEIHIN
  6
Continuous
 62
     3
100
AcDbCircle
 10
295.9771419437479
 20
170.5800051309179
 30
0.0
 40
13.45582525750012
100
AcDbArc
 50
262.1290677277981
 51
269.2257798351029
  0
LINE
  5
4222
330
1A
100
AcDbEntity
  8
SEIHIN
  6
Continuous
 62
     3
100
AcDbLine
 10
294.271228575748
 20
158.2401680407179
 30
0.0
 11
294.2453899622483
 21
158.0532776770178
 31
0.0
  0
LINE
  5
4223
330
1A
100
AcDbEntity
  8
SEIHIN
  6
Continuous
 62
     3
100
AcDbLine
 10
294.2453899622483
 20
158.0532776770178
 30
0.0
 11
294.2204826713482
 21
157.8731021490179
 31
0.0
  0
LINE
  5
4224
330
1A
100
AcDbEntity
  8
SEIHIN
  6
Continuous
 62
     3
100
AcDbLine
 10
294.2204826713482
 20
157.8731021490179
 30
0.0
 11
294.1974007726481
 21
157.7061085608178
 31
0.0
  0
LINE
  5
4225
330
1A
100
AcDbEntity
  8
SEIHIN
  6
Continuous
 62
     3
100
AcDbLine
 10
294.1974007726481
 20
157.7061085608178
 30
0.0
 11
294.176963830048
 21
157.5582983550179
 31
0.0
  0
LINE
  5
4226
330
1A
100
AcDbEntity
  8
SEIHIN
  6
Continuous
 62
     3
100
AcDbLine
 10
294.176963830048
 20
157.5582983550179
 30
0.0
 11
294.1599169016481
 21
157.4349782076178
 31
0.0
  0
LINE
  5
4227
330
1A
100
AcDbEntity
  8
SEIHIN
  6
Continuous
 62
     3
100
AcDbLine
 10
294.1599169016481
 20
157.4349782076178
 30
0.0
 11
294.1468634844482
 21
157.3405793515178
 31
0.0
  0
LINE
  5
4228
330
1A
100
AcDbEntity
  8
SEIHIN
  6
Continuous
 62
     3
100
AcDbLine
 10
294.1468634844482
 20
157.3405793515178
 30
0.0
 11
294.1382804155483
 21
157.2784918007178
 31
0.0
  0
LINE
  5
4229
330
1A
100
AcDbEntity
  8
SEIHIN
  6
Continuous
 62
     3
100
AcDbLine
 10
294.1382804155483
 20
157.2784918007178
 30
0.0
 11
294.1344731689483
 21
157.2509470042179
 31
0.0
  0
LINE
  5
422A
330
1A
100
AcDbEntity
  8
SEIHIN
  6
Continuous
 62
     3
100
AcDbLine
 10
295.7755753040483
 20
155.6638802048178
 30
0.0
 11
295.3110465050481
 21
155.6604417619178
 31
0.0
  0
LINE
  5
422B
330
1A
100
AcDbEntity
  8
SEIHIN
  6
Continuous
 62
     3
100
AcDbLine
 10
295.3110465050481
 20
155.6604417619178
 30
0.0
 11
295.0332516074482
 21
155.6540417131178
 31
0.0
  0
LINE
  5
422C
330
1A
100
AcDbEntity
  8
SEIHIN
  6
Continuous
 62
     3
100
AcDbLine
 10
295.0332516074482
 20
155.6540417131178
 30
0.0
 11
294.967142605848
 21
155.6405151841178
 31
0.0
  0
LINE
  5
422D
330
1A
100
AcDbEntity
  8
SEIHIN
  6
Continuous
 62
     3
100
AcDbLine
 10
296.9671392083483
 20
155.6615258214178
 30
0.0
 11
296.544847750748
 21
155.6656608936179
 31
0.0
  0
LINE
  5
422E
330
1A
100
AcDbEntity
  8
SEIHIN
  6
Continuous
 62
     3
100
AcDbLine
 10
296.544847750748
 20
155.6656608936179
 30
0.0
 11
296.1415999770481
 21
155.6664543804178
 31
0.0
  0
LINE
  5
422F
330
1A
100
AcDbEntity
  8
SEIHIN
  6
Continuous
 62
     3
100
AcDbLine
 10
296.1415999770481
 20
155.6664543804178
 30
0.0
 11
295.7755753040483
 21
155.6638802048178
 31
0.0
  0
LINE
  5
4230
330
1A
100
AcDbEntity
  8
SEIHIN
  6
Continuous
 62
     3
100
AcDbLine
 10
303.8870175017478
 20
153.835865220218
 30
0.0
 11
303.3870175017478
 21
152.835865220218
 31
0.0
  0
ARC
  5
4231
330
1A
100
AcDbEntity
  8
SEIHIN
  6
Continuous
 62
     3
100
AcDbCircle
 10
303.1353475596479
 20
151.103137190318
 30
0.0
 40
0.499999999999988
100
AcDbArc
 50
26.56505902429794
 51
139.046450344527
  0
LINE
  5
4232
330
1A
100
AcDbEntity
  8
SEIHIN
  6
Continuous
 62
     3
100
AcDbLine
 10
302.3870175017478
 20
155.335865220218
 30
0.0
 11
302.3870175017478
 21
153.835865220218
 31
0.0
  0
LINE
  5
4233
330
1A
100
AcDbEntity
  8
SEIHIN
  6
Continuous
 62
     3
100
AcDbLine
 10
303.5825610991478
 20
151.326744036718
 30
0.0
 11
304.265845111448
 21
149.960176012218
 31
0.0
  0
ARC
  5
4234
330
1A
100
AcDbEntity
  8
SEIHIN
  6
Continuous
 62
     3
100
AcDbCircle
 10
311.9554034876478
 20
149.736569214418
 30
0.0
 40
0.4999999999998817
100
AcDbArc
 50
153.4349488228994
 51
195.9453959010048
  0
LINE
  5
4235
330
1A
100
AcDbEntity
  8
SEIHIN
  6
Continuous
 62
     3
100
AcDbLine
 10
310.8870175017478
 20
149.835865220218
 30
0.0
 11
312.3870175017478
 21
152.835865220218
 31
0.0
  0
ARC
  5
4236
330
1A
100
AcDbEntity
  8
SEIHIN
  6
Continuous
 62
     3
100
AcDbCircle
 10
298.2891044610478
 20
138.649644867518
 30
0.0
 40
19.50000000000008
100
AcDbArc
 50
24.22774531799783
 51
40.95354965840453
  0
ARC
  5
4237
330
1A
100
AcDbEntity
  8
SEIHIN
  6
Continuous
 62
     3
100
AcDbCircle
 10
298.2891044610478
 20
138.649644867518
 30
0.0
 40
19.99999999999979
100
AcDbArc
 50
24.22774531799783
 51
45.17888544669797
  0
ARC
  5
4238
330
1A
100
AcDbEntity
  8
SEIHIN
  6
Continuous
 62
     3
100
AcDbCircle
 10
316.4599556979479
 20
144.570256762218
 30
0.0
 40
0.9999999999999577
100
AcDbArc
 50
281.3099324741041
 51
24.22774531800213
  0
LINE
  5
4239
330
1A
100
AcDbEntity
  8
SEIHIN
  6
Continuous
 62
     3
100
AcDbLine
 10
316.9159164505477
 20
144.7754391009179
 30
0.0
 11
316.0715738119479
 21
146.651756075418
 31
0.0
  0
LINE
  5
423A
330
1A
100
AcDbEntity
  8
SEIHIN
  6
Continuous
 62
     3
100
AcDbLine
 10
317.3718772030479
 20
144.980621439518
 30
0.0
 11
316.5275345645478
 21
146.856938414118
 31
0.0
  0
ARC
  5
423B
330
1A
100
AcDbEntity
  8
SEIHIN
  6
Continuous
 62
     3
100
AcDbCircle
 10
316.4599556979479
 20
144.570256762218
 30
0.0
 40
0.4999999999999771
100
AcDbArc
 50
281.3099324739712
 51
24.22774531802189
  0
LINE
  5
423C
330
1A
100
AcDbEntity
  8
SEIHIN
  6
Continuous
 62
     3
100
AcDbLine
 10
310.9906287692479
 20
149.473225784218
 30
0.0
 11
312.6336695114478
 21
143.722583186518
 31
0.0
  0
LINE
  5
423D
330
1A
100
AcDbEntity
  8
SEIHIN
  6
Continuous
 62
     3
100
AcDbLine
 10
311.4746415137479
 20
149.5992086505179
 30
0.0
 11
313.1144314852477
 21
143.859943750518
 31
0.0
  0
LINE
  5
423E
330
1A
100
AcDbEntity
  8
SEIHIN
  6
Continuous
 62
     3
100
AcDbLine
 10
310.3870175017478
 20
149.835865220218
 30
0.0
 11
310.3870175017478
 21
146.274584065518
 31
0.0
  0
ARC
  5
423F
330
1A
100
AcDbEntity
  8
SEIHIN
  6
Continuous
 62
     3
100
AcDbCircle
 10
310.509866795348
 20
149.335865220218
 30
0.0
 40
0.4999999999996549
100
AcDbArc
 50
15.94539590100562
 51
89.99999999973944
  0
ARC
  5
4240
330
1A
100
AcDbEntity
  8
SEIHIN
  6
Continuous
 62
     3
100
AcDbCircle
 10
313.595193459048
 20
143.9973043144181
 30
0.0
 40
1.000000000000188
100
AcDbArc
 50
195.9453959008981
 51
281.3099324739977
  0
ARC
  5
4241
330
1A
100
AcDbEntity
  8
SEIHIN
  6
Continuous
 62
     3
100
AcDbCircle
 10
313.595193459048
 20
143.9973043144181
 30
0.0
 40
0.5000000000003146
100
AcDbArc
 50
195.9453959008918
 51
281.3099324739712
  0
LINE
  5
4242
330
1A
100
AcDbEntity
  8
SEIHIN
  6
Continuous
 62
     3
100
AcDbLine
 10
316.6560718330479
 20
143.589676086518
 30
0.0
 11
313.7913095941476
 21
143.016723638718
 31
0.0
  0
LINE
  5
4243
330
1A
100
AcDbEntity
  8
SEIHIN
  6
Continuous
 62
     3
100
AcDbLine
 10
316.5580137654479
 20
144.079966424318
 30
0.0
 11
313.6932515266476
 21
143.507013976618
 31
0.0
  0
LINE
  5
4244
330
1A
100
AcDbEntity
  8
SEIHIN
  6
Continuous
 62
     3
100
AcDbLine
 10
311.8870175017478
 20
153.835865220218
 30
0.0
 11
312.3870175017478
 21
152.835865220218
 31
0.0
  0
ARC
  5
4245
330
1A
100
AcDbEntity
  8
SEIHIN
  6
Continuous
 62
     3
100
AcDbCircle
 10
312.6386874439477
 20
151.103137190318
 30
0.0
 40
0.5000000000002178
100
AcDbArc
 50
40.95354965547305
 51
153.4349409757028
  0
LINE
  5
4246
330
1A
100
AcDbEntity
  8
SEIHIN
  6
Continuous
 62
     3
100
AcDbLine
 10
313.3870175017478
 20
155.335865220218
 30
0.0
 11
313.3870175017478
 21
153.835865220218
 31
0.0
  0
LINE
  5
4247
330
1A
100
AcDbEntity
  8
SEIHIN
  6
Continuous
 62
     3
100
AcDbLine
 10
312.1914739043477
 20
151.326744036718
 30
0.0
 11
311.5081898921476
 21
149.960176012218
 31
0.0
  0
LINE
  5
4248
330
1A
100
AcDbEntity
  8
SEIHIN
  6
Continuous
 62
     3
100
AcDbLine
 10
349.766971284248
 20
156.4208703693178
 30
0.0
 11
349.2612295985482
 21
156.4140903410178
 31
0.0
  0
LINE
  5
4249
330
1A
100
AcDbEntity
  8
SEIHIN
  6
Continuous
 62
     3
100
AcDbLine
 10
347.4671372414482
 20
154.9220780489178
 30
0.0
 11
347.4671372414482
 21
154.8828246650179
 31
0.0
  0
LINE
  5
424A
330
1A
100
AcDbEntity
  8
SEIHIN
  6
Continuous
 62
     3
100
AcDbLine
 10
349.2612295985482
 20
156.4140903410178
 30
0.0
 11
348.7155565262483
 21
156.4130956885178
 31
0.0
  0
LINE
  5
424B
330
1A
100
AcDbEntity
  8
SEIHIN
  6
Continuous
 62
     3
100
AcDbLine
 10
348.7155565262483
 20
156.4130956885178
 30
0.0
 11
348.1495545447483
 21
156.4179199394178
 31
0.0
  0
LINE
  5
424C
330
1A
100
AcDbEntity
  8
SEIHIN
  6
Continuous
 62
     3
100
AcDbLine
 10
347.4671372414482
 20
154.9089911040178
 30
0.0
 11
347.4287108719482
 21
154.9231434819178
 31
0.0
  0
LINE
  5
424D
330
1A
100
AcDbEntity
  8
SEIHIN
  6
Continuous
 62
     3
100
AcDbLine
 10
347.4287108719482
 20
154.9231434819178
 30
0.0
 11
347.314899528048
 21
154.9377875980178
 31
0.0
  0
LINE
  5
424E
330
1A
100
AcDbEntity
  8
SEIHIN
  6
Continuous
 62
     3
100
AcDbLine
 10
347.314899528048
 20
154.9377875980178
 30
0.0
 11
347.1300767005482
 21
154.9523683843179
 31
0.0
  0
LINE
  5
424F
330
1A
100
AcDbEntity
  8
SEIHIN
  6
Continuous
 62
     3
100
AcDbLine
 10
347.1300767005482
 20
154.9523683843179
 30
0.0
 11
346.8813539684479
 21
154.9663195964178
 31
0.0
  0
LINE
  5
4250
330
1A
100
AcDbEntity
  8
SEIHIN
  6
Continuous
 62
     3
100
AcDbLine
 10
346.8813539684479
 20
154.9663195964178
 30
0.0
 11
346.5782792509481
 21
154.9791047927178
 31
0.0
  0
LINE
  5
4251
330
1A
100
AcDbEntity
  8
SEIHIN
  6
Continuous
 62
     3
100
AcDbLine
 10
346.5782792509481
 20
154.9791047927178
 30
0.0
 11
346.2325052559481
 21
154.9902359602179
 31
0.0
  0
LINE
  5
4252
330
1A
100
AcDbEntity
  8
SEIHIN
  6
Continuous
 62
     3
100
AcDbLine
 10
346.2325052559481
 20
154.9902359602179
 30
0.0
 11
345.8573200941482
 21
154.9992846903178
 31
0.0
  0
LINE
  5
4253
330
1A
100
AcDbEntity
  8
SEIHIN
  6
Continuous
 62
     3
100
AcDbLine
 10
345.8573200941482
 20
154.9992846903178
 30
0.0
 11
345.4671406388479
 21
155.0059008059178
 31
0.0
  0
LINE
  5
4254
330
1A
100
AcDbEntity
  8
SEIHIN
  6
Continuous
 62
     3
100
AcDbLine
 10
351.2715903863482
 20
156.6508949977178
 30
0.0
 11
351.1454444492483
 21
156.5264422179178
 31
0.0
  0
LINE
  5
4255
330
1A
100
AcDbEntity
  8
SEIHIN
  6
Continuous
 62
     3
100
AcDbLine
 10
357.1082753806481
 20
156.5720208762178
 30
0.0
 11
351.2715903863482
 21
156.6508949977178
 31
0.0
  0
LINE
  5
4256
330
1A
100
AcDbEntity
  8
SEIHIN
  6
Continuous
 62
     3
100
AcDbLine
 10
351.1454441786482
 20
156.5264413711178
 30
0.0
 11
351.062020027648
 21
156.4980919119178
 31
0.0
  0
LINE
  5
4257
330
1A
100
AcDbEntity
  8
SEIHIN
  6
Continuous
 62
     3
100
AcDbLine
 10
351.062020027648
 20
156.4980919119178
 30
0.0
 11
350.8739859998482
 21
156.4725103435178
 31
0.0
  0
LINE
  5
4258
330
1A
100
AcDbEntity
  8
SEIHIN
  6
Continuous
 62
     3
100
AcDbLine
 10
350.8739859998482
 20
156.4725103435178
 30
0.0
 11
350.5880960465481
 21
156.4506168124178
 31
0.0
  0
LINE
  5
4259
330
1A
100
AcDbEntity
  8
SEIHIN
  6
Continuous
 62
     3
100
AcDbLine
 10
350.5880960465481
 20
156.4506168124178
 30
0.0
 11
350.2146207929482
 21
156.4331936296178
 31
0.0
  0
LINE
  5
425A
330
1A
100
AcDbEntity
  8
SEIHIN
  6
Continuous
 62
     3
100
AcDbLine
 10
350.2146207929482
 20
156.4331936296178
 30
0.0
 11
349.766971284248
 21
156.4208703693178
 31
0.0
  0
LINE
  5
425B
330
1A
100
AcDbEntity
  8
SEIHIN
  6
Continuous
 62
     3
100
AcDbLine
 10
350.2864555657479
 20
157.6494338569179
 30
0.0
 11
350.3057711959482
 21
157.4565886166178
 31
0.0
  0
LINE
  5
425C
330
1A
100
AcDbEntity
  8
SEIHIN
  6
Continuous
 62
     3
100
AcDbLine
 10
350.3057711959482
 20
157.4565886166178
 30
0.0
 11
350.3619522989479
 21
157.2710021045178
 31
0.0
  0
LINE
  5
425D
330
1A
100
AcDbEntity
  8
SEIHIN
  6
Continuous
 62
     3
100
AcDbLine
 10
350.3619522989479
 20
157.2710021045178
 30
0.0
 11
350.4528829098481
 21
157.0996611026178
 31
0.0
  0
LINE
  5
425E
330
1A
100
AcDbEntity
  8
SEIHIN
  6
Continuous
 62
     3
100
AcDbLine
 10
350.4528829098481
 20
157.0996611026178
 30
0.0
 11
350.5751357615482
 21
156.9490159508178
 31
0.0
  0
LINE
  5
425F
330
1A
100
AcDbEntity
  8
SEIHIN
  6
Continuous
 62
     3
100
AcDbLine
 10
350.5751357615482
 20
156.9490159508178
 30
0.0
 11
350.7241175711483
 21
156.8247365412178
 31
0.0
  0
LINE
  5
4260
330
1A
100
AcDbEntity
  8
SEIHIN
  6
Continuous
 62
     3
100
AcDbLine
 10
350.7241175711483
 20
156.8247365412178
 30
0.0
 11
350.894214326248
 21
156.7314999756178
 31
0.0
  0
LINE
  5
4261
330
1A
100
AcDbEntity
  8
SEIHIN
  6
Continuous
 62
     3
100
AcDbLine
 10
350.894214326248
 20
156.7314999756178
 30
0.0
 11
351.079022252648
 21
156.6728154775178
 31
0.0
  0
LINE
  5
4262
330
1A
100
AcDbEntity
  8
SEIHIN
  6
Continuous
 62
     3
100
AcDbLine
 10
351.079022252648
 20
156.6728154775178
 30
0.0
 11
351.2715899587481
 21
156.6508958694178
 31
0.0
  0
ARC
  5
4263
330
1A
100
AcDbEntity
  8
SEIHIN
  6
Continuous
 62
     3
100
AcDbCircle
 10
324.322870758248
 20
170.6396626886179
 30
0.0
 40
4.999999999999943
100
AcDbArc
 50
270.0
 51
313.408859728803
  0
LINE
  5
4264
330
1A
100
AcDbEntity
  8
SEIHIN
  6
Continuous
 62
     3
100
AcDbLine
 10
319.4129488256476
 20
177.0073206038179
 30
0.0
 11
332.671448290248
 21
189.549144421718
 31
0.0
  0
TEXT
  5
4265
330
1A
100
AcDbEntity
  8
SEIHIN
  6
Continuous
 62
     3
100
AcDbText
 10
306.3012511025581
 20
162.2870258646744
 30
0.0
 40
3.174999952316284
  1
20
  7
Style2
100
AcDbText
  0
LINE
  5
4266
330
1A
100
AcDbEntity
  8
SEIHIN
  6
Continuous
 62
     3
100
AcDbLine
 10
302.3870175017478
 20
176.6396626886179
 30
0.0
 11
313.3870175017478
 21
176.6396626886179
 31
0.0
  0
ARC
  5
4267
330
1A
100
AcDbEntity
  8
SEIHIN
  6
Continuous
 62
     3
100
AcDbCircle
 10
307.8870175017478
 20
167.3063293553179
 30
0.0
 40
10.83333333329988
100
AcDbArc
 50
59.48976259390368
 51
120.5102374060963
  0
LINE
  5
4268
330
1A
100
AcDbEntity
  8
SEIHIN
  6
Continuous
 62
     3
100
AcDbLine
 10
297.967139029548
 20
175.6396626886179
 30
0.0
 11
315.9769495562478
 21
175.6396626886179
 31
0.0
  0
LINE
  5
4269
330
1A
100
AcDbEntity
  8
SEIHIN
  6
Continuous
 62
     3
100
AcDbLine
 10
301.967139029548
 20
165.639662688618
 30
0.0
 11
324.322870758248
 21
165.639662688618
 31
0.0
  0
LINE
  5
426A
330
1A
100
AcDbEntity
  8
SEIHIN
  6
Continuous
 62
     3
100
AcDbLine
 10
297.967139029548
 20
175.6396626886179
 30
0.0
 11
297.967139029548
 21
169.6396626886179
 31
0.0
  0
LINE
  5
426B
330
1A
100
AcDbEntity
  8
SEIHIN
  6
Continuous
 62
     3
100
AcDbLine
 10
297.967139029548
 20
169.6396626886179
 30
0.0
 11
301.967139029548
 21
165.639662688618
 31
0.0
  0
LINE
  5
426C
330
1A
100
AcDbEntity
  8
SEIHIN
  6
Continuous
 62
     3
100
AcDbLine
 10
299.408673078148
 20
168.1981286400179
 30
0.0
 11
297.275391714948
 21
168.1981286400179
 31
0.0
  0
LINE
  5
426D
330
1A
100
AcDbEntity
  8
SEIHIN
  6
Continuous
 62
     3
100
AcDbLine
 10
294.967142605848
 20
170.937430730118
 30
0.0
 11
294.9671390231481
 21
170.9858425173179
 31
0.0
  0
LINE
  5
426E
330
1A
100
AcDbEntity
  8
SEIHIN
  6
Continuous
 62
     3
100
AcDbLine
 10
297.717139029548
 20
167.5889503118179
 30
0.0
 11
298.217139029548
 21
167.5889503118179
 31
0.0
  0
LINE
  5
426F
330
1A
100
AcDbEntity
  8
SEIHIN
  6
Continuous
 62
     3
100
AcDbLine
 10
297.717139029548
 20
166.0889503118179
 30
0.0
 11
298.217139029548
 21
166.0889503118179
 31
0.0
  0
LINE
  5
4270
330
1A
100
AcDbEntity
  8
SEIHIN
  6
Continuous
 62
     3
100
AcDbLine
 10
297.717139029548
 20
166.0889503118179
 30
0.0
 11
297.717139029548
 21
167.5889503118179
 31
0.0
  0
LINE
  5
4271
330
1A
100
AcDbEntity
  8
SEIHIN
  6
Continuous
 62
     3
100
AcDbLine
 10
298.217139029548
 20
166.0889503118179
 30
0.0
 11
298.217139029548
 21
167.5889503118179
 31
0.0
  0
ARC
  5
4272
330
1A
100
AcDbEntity
  8
SEIHIN
  6
Continuous
 62
     3
100
AcDbCircle
 10
297.275391714948
 20
181.740932917318
 30
0.0
 40
13.54280427730001
100
AcDbArc
 50
257.1836201120007
 51
270.0
  0
LINE
  5
4273
330
1A
100
AcDbEntity
  8
SEIHIN
  6
Continuous
 62
     3
100
AcDbLine
 10
297.275392079448
 20
170.6396626886179
 30
0.0
 11
297.1212470174482
 21
170.640731847018
 31
0.0
  0
LINE
  5
4274
330
1A
100
AcDbEntity
  8
SEIHIN
  6
Continuous
 62
     3
100
AcDbLine
 10
297.1212470174482
 20
170.640731847018
 30
0.0
 11
296.9671392083483
 21
170.643941184518
 31
0.0
  0
LINE
  5
4275
330
1A
100
AcDbEntity
  8
SEIHIN
  6
Continuous
 62
     3
100
AcDbLine
 10
294.967142605848
 20
170.9535966274179
 30
0.0
 11
295.0775602102481
 21
170.907220488518
 31
0.0
  0
LINE
  5
4276
330
1A
100
AcDbEntity
  8
SEIHIN
  6
Continuous
 62
     3
100
AcDbLine
 10
295.0775602102481
 20
170.907220488518
 30
0.0
 11
295.3944930077482
 21
170.827186351718
 31
0.0
  0
LINE
  5
4277
330
1A
100
AcDbEntity
  8
SEIHIN
  6
Continuous
 62
     3
100
AcDbLine
 10
295.3944930077482
 20
170.827186351718
 30
0.0
 11
295.8910518527482
 21
170.737339800318
 31
0.0
  0
LINE
  5
4278
330
1A
100
AcDbEntity
  8
SEIHIN
  6
Continuous
 62
     3
100
AcDbLine
 10
295.8910518527482
 20
170.737339800318
 30
0.0
 11
296.5169080734481
 21
170.667391887018
 31
0.0
  0
LINE
  5
4279
330
1A
100
AcDbEntity
  8
SEIHIN
  6
Continuous
 62
     3
100
AcDbLine
 10
296.5169080734481
 20
170.667391887018
 30
0.0
 11
296.9671392083483
 21
170.643941184518
 31
0.0
  0
TEXT
  5
427A
330
1A
100
AcDbEntity
  8
SEIHIN
  6
Continuous
 62
     3
100
AcDbText
 10
295.7566816190333
 20
162.2832259879722
 30
0.0
 40
3.174999952316284
  1
10
  7
Style2
100
AcDbText
  0
LINE
  5
427B
330
1A
100
AcDbEntity
  8
SEIHIN
  6
Continuous
 62
     3
100
AcDbLine
 10
297.275392079448
 20
170.6396626886179
 30
0.0
 11
297.967139029548
 21
170.6396626886179
 31
0.0
  0
LINE
  5
427C
330
1A
100
AcDbEntity
  8
SEIHIN
  6
Continuous
 62
     2
100
AcDbLine
 10
297.8275455329476
 20
170.6396626886179
 30
0.0
 11
297.967139029548
 21
170.6396626886179
 31
0.0
  0
LINE
  5
427D
330
1A
100
AcDbEntity
  8
SEIHIN
  6
Continuous
 62
     3
100
AcDbLine
 10
302.717139029548
 20
165.5889503118179
 30
0.0
 11
303.217139029548
 21
165.5889503118179
 31
0.0
  0
LINE
  5
427E
330
1A
100
AcDbEntity
  8
SEIHIN
  6
Continuous
 62
     3
100
AcDbLine
 10
303.217139029548
 20
165.5889503118179
 30
0.0
 11
303.217139029548
 21
165.639662688618
 31
0.0
  0
LINE
  5
427F
330
1A
100
AcDbEntity
  8
SEIHIN
  6
Continuous
 62
     3
100
AcDbLine
 10
302.717139029548
 20
165.5889503118179
 30
0.0
 11
302.717139029548
 21
165.639662688618
 31
0.0
  0
LINE
  5
4280
330
1A
100
AcDbEntity
  8
SEIHIN
  6
Continuous
 62
     3
100
AcDbLine
 10
302.3870175017478
 20
176.6396626886179
 30
0.0
 11
302.3870175017478
 21
175.6396626886179
 31
0.0
  0
TEXT
  5
4281
330
1A
100
AcDbEntity
  8
SEIHIN
  6
Continuous
 62
     3
100
AcDbText
 10
316.189284372864
 20
162.3033079159564
 30
0.0
 40
3.174999952316284
  1
30
  7
Style2
100
AcDbText
  0
LINE
  5
4282
330
1A
100
AcDbEntity
  8
SEIHIN
  6
Continuous
 62
     3
100
AcDbLine
 10
312.717139029548
 20
165.5889503118179
 30
0.0
 11
313.217139029548
 21
165.5889503118179
 31
0.0
  0
LINE
  5
4283
330
1A
100
AcDbEntity
  8
SEIHIN
  6
Continuous
 62
     3
100
AcDbLine
 10
312.717139029548
 20
165.5889503118179
 30
0.0
 11
312.717139029548
 21
165.639662688618
 31
0.0
  0
LINE
  5
4284
330
1A
100
AcDbEntity
  8
SEIHIN
  6
Continuous
 62
     3
100
AcDbLine
 10
313.217139029548
 20
165.5889503118179
 30
0.0
 11
313.217139029548
 21
165.639662688618
 31
0.0
  0
LINE
  5
4285
330
1A
100
AcDbEntity
  8
SEIHIN
  6
Continuous
 62
     3
100
AcDbLine
 10
322.717139029548
 20
165.5889503118179
 30
0.0
 11
323.217139029548
 21
165.5889503118179
 31
0.0
  0
LINE
  5
4286
330
1A
100
AcDbEntity
  8
SEIHIN
  6
Continuous
 62
     3
100
AcDbLine
 10
322.717139029548
 20
165.5889503118179
 30
0.0
 11
322.717139029548
 21
165.639662688618
 31
0.0
  0
LINE
  5
4287
330
1A
100
AcDbEntity
  8
SEIHIN
  6
Continuous
 62
     3
100
AcDbLine
 10
323.217139029548
 20
165.5889503118179
 30
0.0
 11
323.217139029548
 21
165.639662688618
 31
0.0
  0
LINE
  5
4288
330
1A
100
AcDbEntity
  8
SEIHIN
  6
Continuous
 62
     2
100
AcDbLine
 10
317.6671390295478
 20
165.640358646784
 30
0.0
 11
318.2671390295477
 21
165.640358646784
 31
0.0
  0
LINE
  5
4289
330
1A
100
AcDbEntity
  8
SEIHIN
  6
Continuous
 62
     3
100
AcDbLine
 10
322.6671390295478
 20
165.640358646784
 30
0.0
 11
323.2671390295477
 21
165.640358646784
 31
0.0
  0
ARC
  5
428A
330
1A
100
AcDbEntity
  8
SEIHIN
  6
Continuous
 62
     3
100
AcDbCircle
 10
315.9769495562478
 20
180.6396626886179
 30
0.0
 40
5.0
100
AcDbArc
 50
270.0
 51
313.4088597288035
  0
LINE
  5
428B
330
1A
100
AcDbEntity
  8
SEIHIN
  6
Continuous
 62
     3
100
AcDbLine
 10
313.3870175017478
 20
176.6396626886179
 30
0.0
 11
313.3870175017478
 21
175.6396626886179
 31
0.0
  0
LINE
  5
428C
330
1A
100
AcDbEntity
  8
SEIHIN
  6
Continuous
 62
     3
100
AcDbLine
 10
331.598774517257
 20
170.6396626886179
 30
0.0
 11
345.4671406388479
 21
170.6396626886179
 31
0.0
  0
LINE
  5
428D
330
1A
100
AcDbEntity
  8
SEIHIN
  6
Continuous
 62
     3
100
AcDbLine
 10
348.1630496066482
 20
168.1981286400179
 30
0.0
 11
329.0177242373327
 21
168.1981286400179
 31
0.0
  0
ARC
  5
428E
330
1A
100
AcDbEntity
  8
SEIHIN
  6
Continuous
 62
     3
100
AcDbCircle
 10
347.6122000799478
 20
165.139662688618
 30
0.0
 40
14.99999999999994
100
AcDbArc
 50
90.0
 51
133.408859728803
  0
LINE
  5
428F
330
1A
100
AcDbEntity
  8
SEIHIN
  6
Continuous
 62
     3
100
AcDbLine
 10
327.7588700276478
 20
167.007320603818
 30
0.0
 11
337.3042022717477
 21
176.036688942918
 31
0.0
  0
LINE
  5
4290
330
1A
100
AcDbEntity
  8
SEIHIN
  6
Continuous
 62
     3
100
AcDbLine
 10
332.717139029548
 20
167.5889503118179
 30
0.0
 11
333.217139029548
 21
167.5889503118179
 31
0.0
  0
LINE
  5
4291
330
1A
100
AcDbEntity
  8
SEIHIN
  6
Continuous
 62
     3
100
AcDbLine
 10
332.717139029548
 20
166.0889503118179
 30
0.0
 11
333.217139029548
 21
166.0889503118179
 31
0.0
  0
TEXT
  5
4292
330
1A
100
AcDbEntity
  8
SEIHIN
  6
Continuous
 62
     3
100
AcDbText
 10
331.4185451771311
 20
162.2701465696796
 30
0.0
 40
3.174999952316284
  1
45
  7
Style2
100
AcDbText
  0
LINE
  5
4293
330
1A
100
AcDbEntity
  8
SEIHIN
  6
Continuous
 62
     3
100
AcDbLine
 10
327.717139029548
 20
165.5889503118179
 30
0.0
 11
328.217139029548
 21
165.5889503118179
 31
0.0
  0
LINE
  5
4294
330
1A
100
AcDbEntity
  8
SEIHIN
  6
Continuous
 62
     3
100
AcDbLine
 10
327.717139029548
 20
165.5889503118179
 30
0.0
 11
327.717139029548
 21
166.9682947007358
 31
0.0
  0
LINE
  5
4295
330
1A
100
AcDbEntity
  8
SEIHIN
  6
Continuous
 62
     3
100
AcDbLine
 10
328.217139029548
 20
165.5889503118179
 30
0.0
 11
328.217139029548
 21
167.4408183083222
 31
0.0
  0
LINE
  5
4296
330
1A
100
AcDbEntity
  8
SEIHIN
  6
Continuous
 62
     3
100
AcDbLine
 10
332.717139029548
 20
166.0889503118179
 30
0.0
 11
332.717139029548
 21
167.5889503118179
 31
0.0
  0
LINE
  5
4297
330
1A
100
AcDbEntity
  8
SEIHIN
  6
Continuous
 62
     3
100
AcDbLine
 10
333.217139029548
 20
166.0889503118179
 30
0.0
 11
333.217139029548
 21
167.5889503118179
 31
0.0
  0
LINE
  5
4298
330
1A
100
AcDbEntity
  8
SEIHIN
  6
Continuous
 62
     3
100
AcDbLine
 10
353.651695062948
 20
170.740932917318
 30
0.0
 11
347.4671372414482
 21
170.740932842818
 31
0.0
  0
LINE
  5
4299
330
1A
100
AcDbEntity
  8
SEIHIN
  6
Continuous
 62
     3
100
AcDbLine
 10
349.7887418807482
 20
168.1324845758179
 30
0.0
 11
349.5397583783483
 21
168.1549518016179
 31
0.0
  0
LINE
  5
429A
330
1A
100
AcDbEntity
  8
SEIHIN
  6
Continuous
 62
     3
100
AcDbLine
 10
345.4671406388479
 20
170.5889503118179
 30
0.0
 11
345.4671406388479
 21
170.6396626886179
 31
0.0
  0
LINE
  5
429B
330
1A
100
AcDbEntity
  8
SEIHIN
  6
Continuous
 62
     3
100
AcDbLine
 10
347.4671372414482
 20
170.740932842818
 30
0.0
 11
347.4671372414482
 21
170.693718513518
 31
0.0
  0
LINE
  5
429C
330
1A
100
AcDbEntity
  8
SEIHIN
  6
Continuous
 62
     3
100
AcDbLine
 10
349.5397583783483
 20
168.1549518016179
 30
0.0
 11
349.2413253725481
 21
168.1733212080179
 31
0.0
  0
LINE
  5
429D
330
1A
100
AcDbEntity
  8
SEIHIN
  6
Continuous
 62
     3
100
AcDbLine
 10
349.2413253725481
 20
168.1733212080179
 30
0.0
 11
348.9041642487482
 21
168.186935281418
 31
0.0
  0
LINE
  5
429E
330
1A
100
AcDbEntity
  8
SEIHIN
  6
Continuous
 62
     3
100
AcDbLine
 10
348.9041642487482
 20
168.186935281418
 30
0.0
 11
348.5403822005483
 21
168.1953060087179
 31
0.0
  0
LINE
  5
429F
330
1A
100
AcDbEntity
  8
SEIHIN
  6
Continuous
 62
     3
100
AcDbLine
 10
348.5403822005483
 20
168.1953060087179
 30
0.0
 11
348.1630512714482
 21
168.198127916118
 31
0.0
  0
LINE
  5
42A0
330
1A
100
AcDbEntity
  8
SEIHIN
  6
Continuous
 62
     3
100
AcDbLine
 10
345.4671406388479
 20
170.6396626886179
 30
0.0
 11
345.8573200941482
 21
170.641003793118
 31
0.0
  0
LINE
  5
42A1
330
1A
100
AcDbEntity
  8
SEIHIN
  6
Continuous
 62
     3
100
AcDbLine
 10
345.8573200941482
 20
170.641003793118
 30
0.0
 11
346.2325052559481
 21
170.644976815218
 31
0.0
  0
LINE
  5
42A2
330
1A
100
AcDbEntity
  8
SEIHIN
  6
Continuous
 62
     3
100
AcDbLine
 10
346.2325052559481
 20
170.644976815218
 30
0.0
 11
346.5782792509481
 21
170.651429018018
 31
0.0
  0
LINE
  5
42A3
330
1A
100
AcDbEntity
  8
SEIHIN
  6
Continuous
 62
     3
100
AcDbLine
 10
346.5782792509481
 20
170.651429018018
 30
0.0
 11
346.8813539684479
 21
170.6601126697179
 31
0.0
  0
LINE
  5
42A4
330
1A
100
AcDbEntity
  8
SEIHIN
  6
Continuous
 62
     3
100
AcDbLine
 10
346.8813539684479
 20
170.6601126697179
 30
0.0
 11
347.1300767005482
 21
170.670692494218
 31
0.0
  0
LINE
  5
42A5
330
1A
100
AcDbEntity
  8
SEIHIN
  6
Continuous
 62
     3
100
AcDbLine
 10
347.1300767005482
 20
170.670692494218
 30
0.0
 11
347.314899528048
 21
170.682764297418
 31
0.0
  0
LINE
  5
42A6
330
1A
100
AcDbEntity
  8
SEIHIN
  6
Continuous
 62
     3
100
AcDbLine
 10
347.314899528048
 20
170.682764297418
 30
0.0
 11
347.4287108719482
 21
170.6958624181179
 31
0.0
  0
LINE
  5
42A7
330
1A
100
AcDbEntity
  8
SEIHIN
  6
Continuous
 62
     3
100
AcDbLine
 10
347.4287108719482
 20
170.6958624181179
 30
0.0
 11
347.4671372414482
 21
170.7094839421179
 31
0.0
  0
LINE
  5
42A8
330
1A
100
AcDbEntity
  8
SEIHIN
  6
Continuous
 62
     3
100
AcDbLine
 10
347.4671372414482
 20
170.693718513518
 30
0.0
 11
347.4287108719482
 21
170.6732778456179
 31
0.0
  0
LINE
  5
42A9
330
1A
100
AcDbEntity
  8
SEIHIN
  6
Continuous
 62
     3
100
AcDbLine
 10
347.4287108719482
 20
170.6732778456179
 30
0.0
 11
347.314899528048
 21
170.653625076718
 31
0.0
  0
LINE
  5
42AA
330
1A
100
AcDbEntity
  8
SEIHIN
  6
Continuous
 62
     3
100
AcDbLine
 10
347.314899528048
 20
170.653625076718
 30
0.0
 11
347.1300767005482
 21
170.6355127152179
 31
0.0
  0
LINE
  5
42AB
330
1A
100
AcDbEntity
  8
SEIHIN
  6
Continuous
 62
     3
100
AcDbLine
 10
347.1300767005482
 20
170.6355127152179
 30
0.0
 11
346.8813539684479
 21
170.619635528018
 31
0.0
  0
LINE
  5
42AC
330
1A
100
AcDbEntity
  8
SEIHIN
  6
Continuous
 62
     3
100
AcDbLine
 10
346.8813539684479
 20
170.619635528018
 30
0.0
 11
346.5782792509481
 21
170.606606325218
 31
0.0
  0
LINE
  5
42AD
330
1A
100
AcDbEntity
  8
SEIHIN
  6
Continuous
 62
     3
100
AcDbLine
 10
346.5782792509481
 20
170.606606325218
 30
0.0
 11
346.2325052559481
 21
170.596926158318
 31
0.0
  0
LINE
  5
42AE
330
1A
100
AcDbEntity
  8
SEIHIN
  6
Continuous
 62
     3
100
AcDbLine
 10
346.2325052559481
 20
170.596926158318
 30
0.0
 11
345.8573200941482
 21
170.590963831218
 31
0.0
  0
LINE
  5
42AF
330
1A
100
AcDbEntity
  8
SEIHIN
  6
Continuous
 62
     3
100
AcDbLine
 10
345.8573200941482
 20
170.590963831218
 30
0.0
 11
345.4671406388479
 21
170.5889503118179
 31
0.0
  0
LINE
  5
42B0
330
1A
100
AcDbEntity
  8
SEIHIN
  6
Continuous
 62
     3
100
AcDbLine
 10
350.2864546133483
 20
167.922987798818
 30
0.0
 11
350.1603086761481
 21
168.049133735918
 31
0.0
  0
LINE
  5
42B1
330
1A
100
AcDbEntity
  8
SEIHIN
  6
Continuous
 62
     3
100
AcDbLine
 10
351.2850841480481
 20
168.9216173335179
 30
0.0
 11
353.651695062948
 21
168.9216173335179
 31
0.0
  0
LINE
  5
42B2
330
1A
100
AcDbEntity
  8
SEIHIN
  6
Continuous
 62
     3
100
AcDbLine
 10
350.1603097856482
 20
168.0491330680179
 30
0.0
 11
350.1046912015481
 21
168.078607564818
 31
0.0
  0
LINE
  5
42B3
330
1A
100
AcDbEntity
  8
SEIHIN
  6
Continuous
 62
     3
100
AcDbLine
 10
350.1046912015481
 20
168.078607564818
 30
0.0
 11
349.979335182948
 21
168.106727918718
 31
0.0
  0
LINE
  5
42B4
330
1A
100
AcDbEntity
  8
SEIHIN
  6
Continuous
 62
     3
100
AcDbLine
 10
349.979335182948
 20
168.106727918718
 30
0.0
 11
349.7887418807482
 21
168.1324845758179
 31
0.0
  0
LINE
  5
42B5
330
1A
100
AcDbEntity
  8
SEIHIN
  6
Continuous
 62
     3
100
AcDbLine
 10
350.2864555657479
 20
167.922987287918
 30
0.0
 11
350.3061101973481
 21
168.1174753812179
 31
0.0
  0
LINE
  5
42B6
330
1A
100
AcDbEntity
  8
SEIHIN
  6
Continuous
 62
     3
100
AcDbLine
 10
350.3061101973481
 20
168.1174753812179
 30
0.0
 11
350.3632561505483
 21
168.304516619118
 31
0.0
  0
LINE
  5
42B7
330
1A
100
AcDbEntity
  8
SEIHIN
  6
Continuous
 62
     3
100
AcDbLine
 10
350.3632561505483
 20
168.304516619118
 30
0.0
 11
350.4557029545481
 21
168.476945405918
 31
0.0
  0
LINE
  5
42B8
330
1A
100
AcDbEntity
  8
SEIHIN
  6
Continuous
 62
     3
100
AcDbLine
 10
350.4557029545481
 20
168.476945405918
 30
0.0
 11
350.5799115837481
 21
168.6281605270179
 31
0.0
  0
LINE
  5
42B9
330
1A
100
AcDbEntity
  8
SEIHIN
  6
Continuous
 62
     3
100
AcDbLine
 10
350.5799115837481
 20
168.6281605270179
 30
0.0
 11
350.7311248422479
 21
168.752369156118
 31
0.0
  0
LINE
  5
42BA
330
1A
100
AcDbEntity
  8
SEIHIN
  6
Continuous
 62
     3
100
AcDbLine
 10
350.7311248422479
 20
168.752369156118
 30
0.0
 11
350.9035573542483
 21
168.844817822818
 31
0.0
  0
LINE
  5
42BB
330
1A
100
AcDbEntity
  8
SEIHIN
  6
Continuous
 62
     3
100
AcDbLine
 10
350.9035573542483
 20
168.844817822818
 30
0.0
 11
351.090596729548
 21
168.901963776018
 31
0.0
  0
LINE
  5
42BC
330
1A
100
AcDbEntity
  8
SEIHIN
  6
Continuous
 62
     3
100
AcDbLine
 10
351.090596729548
 20
168.901963776018
 30
0.0
 11
351.285082960148
 21
168.921616545018
 31
0.0
  0
ARC
  5
42BD
330
1A
100
AcDbEntity
  8
SEIHIN
  6
Continuous
 62
     3
100
AcDbCircle
 10
342.9794460983483
 20
178.6521181674179
 30
0.0
 40
15.00000000000002
100
AcDbArc
 50
94.99999999999982
 51
133.4088597288036
  0
ARC
  5
42BE
330
1A
100
AcDbEntity
  8
SEIHIN
  6
Continuous
 62
     3
100
AcDbCircle
 10
383.467139029548
 20
160.9409329173178
 30
0.0
 40
1.000000000000208
100
AcDbArc
 50
55.906421426799
 51
223.0097155350039
  0
LINE
  5
42BF
330
1A
100
AcDbEntity
  8
SEIHIN
  6
Continuous
 62
     3
100
AcDbLine
 10
385.9065928434482
 20
160.4972470647178
 30
0.0
 11
384.0276852157481
 21
161.7690560803179
 31
0.0
  0
LINE
  5
42C0
330
1A
100
AcDbEntity
  8
SEIHIN
  6
Continuous
 62
     3
100
AcDbLine
 10
360.2959371961483
 20
157.9546743872179
 30
0.0
 11
375.5716332231482
 21
179.035134904418
 31
0.0
  0
LINE
  5
42C1
330
1A
100
AcDbEntity
  8
SEIHIN
  6
Continuous
 62
     3
100
AcDbLine
 10
374.1252531722598
 20
180.1396626886179
 30
0.0
 11
358.8227466882481
 21
159.0222037408178
 31
0.0
  0
LINE
  5
42C2
330
1A
100
AcDbEntity
  8
SEIHIN
  6
Continuous
 62
     3
100
AcDbLine
 10
392.467139029548
 20
157.4409329173178
 30
0.0
 11
392.467139029548
 21
177.240932917318
 31
0.0
  0
LINE
  5
42C3
330
1A
100
AcDbEntity
  8
SEIHIN
  6
Continuous
 62
     3
100
AcDbLine
 10
387.467139029548
 20
177.3409329173179
 30
0.0
 11
387.467139029548
 21
161.3253702277179
 31
0.0
  0
ARC
  5
42C8
330
1A
100
AcDbEntity
  8
SEIHIN
  6
Continuous
 62
     3
100
AcDbCircle
 10
389.467139029548
 20
157.4409329173178
 30
0.0
 40
2.999999999999873
100
AcDbArc
 50
223.0097155350039
 51
0.0
  0
LINE
  5
42C9
330
1A
100
AcDbEntity
  8
SEIHIN
  6
Continuous
 62
     3
100
AcDbLine
 10
362.9671388507481
 20
154.7409320828178
 30
0.0
 11
376.2096746545481
 21
158.0515668235179
 31
0.0
  0
LINE
  5
42CA
330
1A
100
AcDbEntity
  8
SEIHIN
  6
Continuous
 62
     3
100
AcDbLine
 10
375.7246034045481
 20
159.9918518238178
 30
0.0
 11
361.3482226640481
 21
156.3977566387178
 31
0.0
  0
ARC
  5
42CB
330
1A
100
AcDbEntity
  8
SEIHIN
  6
Continuous
 62
     3
100
AcDbCircle
 10
361.105687038948
 20
157.3678991388178
 30
0.0
 40
2.819315583799682
100
AcDbArc
 50
144.071497577194
 51
174.4810715146999
  0
LINE
  5
42CC
330
1A
100
AcDbEntity
  8
SEIHIN
  6
Continuous
 62
     3
100
AcDbLine
 10
357.9671398938481
 20
154.7409320828178
 30
0.0
 11
362.9671388507481
 21
154.7409320828178
 31
0.0
  0
ARC
  5
42CD
330
1A
100
AcDbEntity
  8
SEIHIN
  6
Continuous
 62
     3
100
AcDbCircle
 10
361.105687038948
 20
157.3678991388178
 30
0.0
 40
0.9999999999999129
100
AcDbArc
 50
144.0714975772025
 51
284.0362434679067
  0
ARC
  5
42CE
330
1A
100
AcDbEntity
  8
SEIHIN
  6
Continuous
 62
     3
100
AcDbCircle
 10
375.967139029548
 20
159.0217093237178
 30
0.0
 40
1.000000000000054
100
AcDbArc
 50
284.0362434679067
 51
0.0
  0
ARC
  5
42CF
330
1A
100
AcDbEntity
  8
SEIHIN
  6
Continuous
 62
     3
100
AcDbCircle
 10
375.967139029548
 20
159.0217093237178
 30
0.0
 40
1.0
100
AcDbArc
 50
0.0
 51
104.0362434678799
  0
ARC
  5
42D0
330
1A
100
AcDbEntity
  8
SEIHIN
  6
Continuous
 62
     3
100
AcDbCircle
 10
386.467139029548
 20
161.3253702277179
 30
0.0
 40
0.9999999999999863
100
AcDbArc
 50
235.9064214268067
 51
0.0
  0
LINE
  5
42D1
330
1A
100
AcDbEntity
  8
SEIHIN
  6
Continuous
 62
     3
100
AcDbLine
 10
382.7359009836482
 20
160.2588105528178
 30
0.0
 11
387.2734248916481
 21
155.3945658238178
 31
0.0
  0
LINE
  5
42D4
330
1A
100
AcDbEntity
  8
SEIHIN
  6
Continuous
 62
     3
100
AcDbLine
 10
388.9671390295484
 20
197.7328175237179
 30
0.0
 11
396.9671390295484
 21
197.7328175237179
 31
0.0
  0
LINE
  5
42D5
330
1A
100
AcDbEntity
  8
SEIHIN
  6
Continuous
 62
     3
100
AcDbLine
 10
381.9671390295484
 20
180.1396626886179
 30
0.0
 11
394.0797548529846
 21
180.1396626886179
 31
0.0
  0
LINE
  5
42D8
330
1A
100
AcDbEntity
  8
SEIHIN
  6
Continuous
 62
     3
100
AcDbLine
 10
367.9886126927474
 20
179.6396626886179
 30
0.0
 11
367.9886126927474
 21
198.4507282174179
 31
0.0
  0
LINE
  5
42D9
330
1A
100
AcDbEntity
  8
SEIHIN
  6
Continuous
 62
     3
100
AcDbLine
 10
390.4704572924482
 20
180.1396626886179
 30
0.0
 11
380.5534456592475
 21
199.9434773055179
 31
0.0
  0
LINE
  5
42DA
330
1A
100
AcDbEntity
  8
SEIHIN
  6
Continuous
 62
     3
100
AcDbLine
 10
379.9671390295478
 20
179.6396626886179
 30
0.0
 11
379.9671390295478
 21
199.4987134776179
 31
0.0
  0
LINE
  5
42DB
330
1A
100
AcDbEntity
  8
SEIHIN
  6
Continuous
 62
     3
100
AcDbLine
 10
377.967139029548
 20
180.1396626886179
 30
0.0
 11
368.5743109911477
 21
198.8967068549179
 31
0.0
  0
LINE
  5
42DC
330
1A
100
AcDbEntity
  8
SEIHIN
  6
Continuous
 62
     3
100
AcDbLine
 10
369.9886126927477
 20
180.1396626886179
 30
0.0
 11
379.9671390295478
 21
180.1396626886179
 31
0.0
  0
LINE
  5
42DD
330
1A
100
AcDbEntity
  8
SEIHIN
  6
Continuous
 62
     3
100
AcDbLine
 10
362.2513038700481
 20
172.6327303277179
 30
0.0
 11
368.8578400959634
 21
179.6396626886179
 31
0.0
  0
LINE
  5
42DE
330
1A
100
AcDbEntity
  8
SEIHIN
  6
Continuous
 62
     3
100
AcDbLine
 10
366.8287985282032
 20
180.1396626886179
 30
0.0
 11
360.927589124748
 21
173.880804230418
 31
0.0
  0
LINE
  5
42DF
330
1A
100
AcDbEntity
  8
SEIHIN
  6
Continuous
 62
     3
100
AcDbLine
 10
367.9886126927474
 20
179.6396626886179
 30
0.0
 11
369.9886126927477
 21
179.6396626886179
 31
0.0
  0
LINE
  5
42E0
330
1A
100
AcDbEntity
  8
SEIHIN
  6
Continuous
 62
     3
100
AcDbLine
 10
369.9886126927477
 20
179.6396626886179
 30
0.0
 11
369.9886126927477
 21
180.1396626886179
 31
0.0
  0
ARC
  5
42E1
330
1A
100
AcDbEntity
  8
SEIHIN
  6
Continuous
 62
     3
100
AcDbCircle
 10
382.049631965348
 20
174.3409329173179
 30
0.0
 40
8.0
100
AcDbArc
 50
133.5443590704052
 51
144.0714975772025
  0
LINE
  5
42E2
330
1A
100
AcDbEntity
  8
SEIHIN
  6
Continuous
 62
     3
100
AcDbLine
 10
379.9671390295478
 20
179.6396626886179
 30
0.0
 11
381.9671390295484
 21
179.6396626886179
 31
0.0
  0
LINE
  5
42E3
330
1A
100
AcDbEntity
  8
SEIHIN
  6
Continuous
 62
     3
100
AcDbLine
 10
381.9671390295484
 20
179.6396626886179
 30
0.0
 11
381.9671390295484
 21
180.1396626886179
 31
0.0
  0
ARC
  5
42E4
330
1A
100
AcDbEntity
  8
SEIHIN
  6
Continuous
 62
     3
100
AcDbCircle
 10
382.467139029548
 20
177.3409329173179
 30
0.0
 40
5.0
100
AcDbArc
 50
0.0
 51
34.03823060837354
  0
ARC
  5
42E5
330
1A
100
AcDbEntity
  8
SEIHIN
  6
Continuous
 62
     3
100
AcDbCircle
 10
374.4778758611483
 20
198.9747208475179
 30
0.0
 40
0.5000000000000135
100
AcDbArc
 50
94.99999999997365
 51
180.0
  0
LINE
  5
42E6
330
1A
100
AcDbEntity
  8
SEIHIN
  6
Continuous
 62
     3
100
AcDbLine
 10
379.9671390295478
 20
196.9454195520179
 30
0.0
 11
369.9886126927477
 21
196.0724116188179
 31
0.0
  0
ARC
  5
42E7
330
1A
100
AcDbEntity
  8
SEIHIN
  6
Continuous
 62
     3
100
AcDbCircle
 10
368.4886126927474
 20
198.4507282174179
 30
0.0
 40
0.5000000000000135
100
AcDbArc
 50
94.99999999997365
 51
180.0
  0
LINE
  5
42E8
330
1A
100
AcDbEntity
  8
SEIHIN
  6
Continuous
 62
     3
100
AcDbLine
 10
368.4761799931478
 20
198.9515504159179
 30
0.0
 11
368.4450348214477
 21
198.9488255664178
 31
0.0
  0
ARC
  5
42E9
330
1A
100
AcDbEntity
  8
SEIHIN
  6
Continuous
 62
     3
100
AcDbCircle
 10
368.4848955674477
 20
198.8519309461179
 30
0.0
 40
0.1000000000000011
100
AcDbArc
 50
26.60000000000829
 51
95.00000000007823
  0
LINE
  5
42EA
330
1A
100
AcDbEntity
  8
SEIHIN
  6
Continuous
 62
     3
100
AcDbLine
 10
373.9778758611478
 20
196.4214269219179
 30
0.0
 11
373.9778758611478
 21
198.9747208475179
 31
0.0
  0
LINE
  5
42EB
330
1A
100
AcDbEntity
  8
SEIHIN
  6
Continuous
 62
     3
100
AcDbLine
 10
388.9671390295484
 20
197.7328175237179
 30
0.0
 11
381.9671390295484
 21
197.1203968790179
 31
0.0
  0
ARC
  5
42EC
330
1A
100
AcDbEntity
  8
SEIHIN
  6
Continuous
 62
     3
100
AcDbCircle
 10
380.4671390295478
 20
199.4987134776179
 30
0.0
 40
0.4999999999999835
100
AcDbArc
 50
90.44530641723026
 51
180.0
  0
ARC
  5
42ED
330
1A
100
AcDbEntity
  8
SEIHIN
  6
Continuous
 62
     3
100
AcDbCircle
 10
380.4640302355479
 20
199.8987013967179
 30
0.0
 40
0.1000000000000011
100
AcDbArc
 50
26.60000000000829
 51
90.44530641717813
  0
LINE
  5
42EE
330
1A
100
AcDbEntity
  8
SEIHIN
  6
Continuous
 62
     3
100
AcDbLine
 10
375.9359036490478
 20
196.5927321562179
 30
0.0
 11
374.5216019474485
 21
199.4170273922179
 31
0.0
  0
LINE
  5
42EF
330
1A
100
AcDbEntity
  8
SEIHIN
  6
Continuous
 62
     3
100
AcDbLine
 10
374.4234709494485
 20
199.4718709533179
 30
0.0
 11
374.4342979897485
 21
199.4728181965178
 31
0.0
  0
ARC
  5
42F0
330
1A
100
AcDbEntity
  8
SEIHIN
  6
Continuous
 62
     3
100
AcDbCircle
 10
374.4321865237484
 20
199.3722514834179
 30
0.0
 40
0.1000000000000011
100
AcDbArc
 50
26.60000000000829
 51
95.00000000007823
  0
ARC
  5
42F2
330
1A
100
AcDbEntity
  8
SEIHIN
  6
Continuous
 62
     3
100
AcDbCircle
 10
381.467139029548
 20
177.240932917318
 30
0.0
 40
11.0
100
AcDbArc
 50
0.0
 51
15.27908225095655
  0
TEXT
  5
4393
330
1A
100
AcDbEntity
  8
SUNPOU
  6
Continuous
 62
     4
 48
5.0
100
AcDbText
 10
437.0586639688427
 20
109.2311055099183
 30
0.0
 40
6.0
  1
6
100
AcDbText
  0
LINE
  5
43A4
330
1A
100
AcDbEntity
  8
SUNPOU
  6
Continuous
 62
     4
 48
5.0
100
AcDbLine
 10
425.0534968607756
 20
150.9276729100722
 30
0.0
 11
444.7049853148012
 21
118.2217577712681
 31
0.0
  0
LINE
  5
43A5
330
1A
100
AcDbEntity
  8
SUNPOU
  6
Continuous
100
AcDbLine
 10
444.7049853148012
 20
118.2217577712681
 30
0.0
 11
432.7049853148012
 21
118.2217577712681
 31
0.0
  0
LINE
  5
43A6
330
1A
100
AcDbEntity
  8
SUNPOU
  6
Continuous
100
AcDbLine
 10
432.7049853148012
 20
118.2217577712681
 30
0.0
 11
432.7049853148012
 21
138.1933229065925
 31
0.0
  0
LINE
  5
43AD
330
1A
100
AcDbEntity
  8
SEIHIN
  6
PHANTOM
 62
     6
 48
5.0
100
AcDbLine
 10
423.9671390295484
 20
197.7328175237179
 30
0.0
 11
431.9671390295484
 21
197.7328175237179
 31
0.0
  0
LWPOLYLINE
  5
4804
330
1A
100
AcDbEntity
  8
ZUWAKU
100
AcDbPolyline
 90
        4
 70
     1
 43
0.0
 10
0.799999595097006
 20
550.8000003755801
 10
0.799999595097006
 20
0.8000003755801117
 10
796.799999595097
 20
0.8000003755801117
 10
796.799999595097
 20
550.8000003755801
  0
LWPOLYLINE
  5
4805
330
1A
100
AcDbEntity
  8
ZUWAKU
100
AcDbPolyline
 90
        4
 70
     1
 43
0.0
 10
0.3999995950970288
 20
551.2000003755801
 10
0.3999995950970288
 20
0.4000003755801345
 10
797.1999995950971
 20
0.4000003755801114
 10
797.1999995950971
 20
551.2000003755801
  0
LWPOLYLINE
  5
4806
330
1A
100
AcDbEntity
  8
ZUWAKU
100
AcDbPolyline
 90
        4
 70
     1
 43
0.0
 10
-0.0000004049029485
 20
551.6000003755801
 10
-0.0000004049029485
 20
0.0000003755800435
 10
797.5999995950972
 20
0.000000375580111
 10
797.5999995950972
 20
551.6000003755802
  0
LWPOLYLINE
  5
4807
330
1A
100
AcDbEntity
  8
ZUWAKU
100
AcDbPolyline
 90
        4
 70
     1
 43
0.0
 10
0.5999995950969606
 20
551.0000003755802
 10
0.5999995950969606
 20
0.6000003755800663
 10
796.9999995950973
 20
0.6000003755801124
 10
796.9999995950971
 20
551.0000003755802
  0
LWPOLYLINE
  5
4808
330
1A
100
AcDbEntity
  8
ZUWAKU
100
AcDbPolyline
 90
        4
 70
     1
 43
0.0
 10
0.1999995950969833
 20
551.4000003755801
 10
0.1999995950969833
 20
0.200000375580089
 10
797.3999995950969
 20
0.2000003755801121
 10
797.3999995950971
 20
551.4000003755801
  0
LINE
  5
4809
330
1A
100
AcDbEntity
  8
ZUWAKU
100
AcDbLine
 10
-0.0000004049029485
 20
30.00000037558004
 30
0.0
 11
797.3999995950969
 21
30.00000037558004
 31
0.0
  0
LINE
  5
480A
330
1A
100
AcDbEntity
  8
ZUWAKU
100
AcDbLine
 10
-0.0000004049029485
 20
30.20000037558005
 30
0.0
 11
797.3999995950969
 21
30.20000037558005
 31
0.0
  0
LINE
  5
480B
330
1A
100
AcDbEntity
  8
ZUWAKU
100
AcDbLine
 10
-0.0000004049029485
 20
30.40000037558005
 30
0.0
 11
797.3999995950969
 21
30.40000037558005
 31
0.0
  0
LINE
  5
480C
330
1A
100
AcDbEntity
  8
ZUWAKU
100
AcDbLine
 10
-0.0000004049029485
 20
30.60000037558005
 30
0.0
 11
797.3999995950969
 21
30.60000037558005
 31
0.0
  0
LINE
  5
480D
330
1A
100
AcDbEntity
  8
ZUWAKU
100
AcDbLine
 10
-0.0000004049029485
 20
30.80000037558006
 30
0.0
 11
797.3999995950969
 21
30.80000037558006
 31
0.0
  0
LINE
  5
480E
330
1A
100
AcDbEntity
  8
ZUWAKU
100
AcDbLine
 10
208.6466008851651
 20
15.40000037558008
 30
0.0
 11
447.4243635660885
 21
15.40000037558008
 31
0.0
  0
LINE
  5
480F
330
1A
100
AcDbEntity
  8
ZUWAKU
100
AcDbLine
 10
208.6466008851651
 20
15.60000037558008
 30
0.0
 11
447.4243635660885
 21
15.60000037558008
 31
0.0
  0
LINE
  5
4810
330
1A
100
AcDbEntity
  8
ZUWAKU
100
AcDbLine
 10
208.6466008851651
 20
15.20000037558008
 30
0.0
 11
447.4243635660885
 21
15.20000037558008
 31
0.0
  0
TEXT
  5
4811
330
1A
100
AcDbEntity
  8
moji
100
AcDbText
 10
92.95778918326619
 20
12.74117850585481
 30
0.0
 40
6.0
  1
アーバントップΣ９０
 41
0.9
  7
ｽﾀｲﾙ1
100
AcDbText
  0
CIRCLE
  5
4812
330
1A
100
AcDbEntity
  8
ZUWAKU
100
AcDbCircle
 10
25.99221174987815
 20
15.20000037558005
 30
0.0
 40
1.75
  0
LINE
  5
4813
330
1A
100
AcDbEntity
  8
ZUWAKU
100
AcDbLine
 10
26.86721174987815
 20
7.150000375580049
 30
0.0
 11
24.9422117498782
 21
7.150000375580049
 31
0.0
  0
LINE
  5
4814
330
1A
100
AcDbEntity
  8
ZUWAKU
100
AcDbLine
 10
24.9422117498782
 20
9.950000375580046
 30
0.0
 11
26.86721174987815
 21
9.950000375580046
 31
0.0
  0
LINE
  5
4815
330
1A
100
AcDbEntity
  8
ZUWAKU
100
AcDbLine
 10
26.86721174987815
 20
20.45000037558005
 30
0.0
 11
24.9422117498782
 21
20.45000037558005
 31
0.0
  0
LINE
  5
4816
330
1A
100
AcDbEntity
  8
ZUWAKU
100
AcDbLine
 10
24.9422117498782
 20
23.25000037558001
 30
0.0
 11
26.86721174987815
 21
23.25000037558005
 31
0.0
  0
HATCH
  5
4817
330
1A
100
AcDbEntity
  8
ZUWAKU
  6
Continuous
100
AcDbHatch
 10
0.0
 20
0.0
 30
0.0
210
0.0
220
0.0
230
1.0
  2
ANSI37
 70
     0
 71
     0
 91
        8
 92
        7
 72
     1
 73
     1
 93
       24
 10
14.50226225621691
 20
17.64484885656363
 42
-0.1989123673796348
 10
14.09221174987817
 20
18.63479835022468
 42
0.0
 10
14.09221174987817
 20
19.92500037558006
 42
-0.4142135623730912
 10
14.61721174987815
 20
20.45000037558005
 42
0.0
 10
17.59221174987806
 20
20.45000037558005
 42
0.4142135623731546
 10
18.11721174987815
 20
20.97500037558004
 42
0.0
 10
18.11721174987815
 20
22.72500037558005
 42
0.4142135623731586
 10
17.59221174987806
 20
23.25000037558005
 42
0.0
 10
14.09221174987817
 20
23.25000037558005
 42
0.4142135623730928
 10
11.29221174987822
 20
20.45000037558008
 42
0.0
 10
11.29221174987822
 20
18.63479835022481
 42
0.1989123673796619
 10
12.52236326889465
 20
15.6649498692412
 42
0.0
 10
15.43216124353933
 20
12.75515189459654
 42
-0.1989123673796613
 10
15.84221174987817
 20
11.76520240093536
 42
0.0
 10
15.84221174987817
 20
10.47500037558004
 42
-0.4142135623730911
 10
15.3172117498782
 20
9.950000375580046
 42
0.0
 10
12.34221174987829
 20
9.950000375580046
 42
0.4142135623731526
 10
11.8172117498782
 20
9.425000375580058
 42
0.0
 10
11.8172117498782
 20
7.675000375580037
 42
0.4142135623731526
 10
12.34221174987829
 20
7.150000375580049
 42
0.0
 10
15.84221174987817
 20
7.150000375580049
 42
0.4142135623731044
 10
18.64221174987824
 20
9.950000375580025
 42
0.0
 10
18.64221174987824
 20
11.7652024009353
 42
0.1989123673796604
 10
17.4120602308617
 20
14.73505088191884
 42
0.0
 97
        0
 92
        7
 72
     1
 73
     1
 93
       16
 10
23.54221174987822
 20
19.05000037558006
 42
-0.4142135623730935
 10
24.9422117498782
 20
20.45000037558005
 42
0.0
 10
26.86721174987815
 20
20.45000037558005
 42
0.4142135623731546
 10
27.39221174987824
 20
20.97500037558004
 42
0.0
 10
27.39221174987824
 20
22.72500037558005
 42
0.4142135623730952
 10
26.86721174987827
 20
23.25000037558005
 42
0.0
 10
24.94221174987808
 20
23.25000037558001
 42
0.4142135623730892
 10
20.74221174987815
 20
19.05000037557998
 42
0.0
 10
20.74221174987815
 20
11.35000037558007
 42
0.4142135623730969
 10
24.9422117498782
 20
7.150000375580049
 42
0.0
 10
26.86721174987815
 20
7.150000375580049
 42
0.4142135623731526
 10
27.39221174987824
 20
7.675000375580037
 42
0.0
 10
27.39221174987824
 20
9.425000375580058
 42
0.414213562373089
 10
26.86721174987827
 20
9.950000375580046
 42
0.0
 10
24.9422117498782
 20
9.950000375580046
 42
-0.4142135623730928
 10
23.54221174987822
 20
11.35000037558003
 42
0.0
 97
        0
 92
        7
 72
     1
 73
     1
 93
        2
 10
24.24221174987815
 20
15.20000037558005
 42
1.0
 10
27.74221174987815
 20
15.20000037558005
 42
1.0
 97
        0
 92
        7
 72
     1
 73
     1
 93
       26
 10
37.31485823205617
 20
19.20504756914347
 42
0.0
 10
38.37649786519398
 20
22.56690640741307
 42
0.5069206636600134
 10
37.87586696599863
 20
23.25000037558005
 42
0.0
 10
36.1769775863894
 20
23.25000037558005
 42
0.3272098845218764
 10
35.67634668719404
 20
22.88309434374702
 42
0.0
 10
33.80807681256226
 20
16.96690640741313
 42
-0.3272098845219541
 10
33.30744591336679
 20
16.60000037558005
 42
0.0
 10
33.16721174987833
 20
16.60000037558005
 42
-0.4142135623731526
 10
32.64221174987824
 20
17.12500037558003
 42
0.0
 10
32.64221174987824
 20
22.72500037558005
 42
0.4142135623730952
 10
32.11721174987827
 20
23.25000037558005
 42
0.0
 10
30.36721174987815
 20
23.25000037558005
 42
0.4142135623730872
 10
29.84221174987817
 20
22.72500037558007
 42
0.0
 10
29.84221174987817
 20
7.675000375580037
 42
0.414213562373089
 10
30.36721174987815
 20
7.150000375580049
 42
0.0
 10
32.11721174987815
 20
7.150000375580049
 42
0.4142135623731526
 10
32.64221174987824
 20
7.675000375580037
 42
0.0
 10
32.64221174987824
 20
13.27500037558006
 42
-0.4142135623731526
 10
33.16721174987833
 20
13.80000037558005
 42
0.0
 10
33.30744591336691
 20
13.80000037558005
 42
-0.3272098845218915
 10
33.80807681256226
 20
13.43309434374697
 42
0.0
 10
35.67634668719404
 20
7.516906407413121
 42
0.3272098845218902
 10
36.1769775863894
 20
7.150000375580049
 42
0.0
 10
37.87586696599863
 20
7.150000375580049
 42
0.5069206636600334
 10
38.37649786519398
 20
7.833094343747057
 42
0.0
 10
36.05010648672032
 20
15.20000037558019
 42
0.0
 97
        0
 92
        7
 72
     1
 73
     1
 93
        8
 10
43.49221174987815
 20
22.72500037558006
 42
0.4142135623731546
 10
42.96721174987806
 20
23.25000037558005
 42
0.0
 10
41.21721174987829
 20
23.25000037558005
 42
0.4142135623731506
 10
40.6922117498782
 20
22.72500037558007
 42
0.0
 10
40.6922117498782
 20
7.675000375580037
 42
0.4142135623731526
 10
41.21721174987829
 20
7.150000375580049
 42
0.0
 10
42.96721174987806
 20
7.150000375580049
 42
0.4142135623731526
 10
43.49221174987815
 20
7.675000375580037
 42
0.0
 97
        0
 92
        7
 72
     1
 73
     1
 93
       24
 10
48.39221174987824
 20
19.92500037558006
 42
-0.4142135623731547
 10
48.91721174987833
 20
20.45000037558005
 42
0.0
 10
51.89221174987824
 20
20.45000037558005
 42
0.4142135623730911
 10
52.41721174987822
 20
20.97500037558004
 42
0.0
 10
52.41721174987822
 20
22.72500037558005
 42
0.4142135623730952
 10
51.89221174987824
 20
23.25000037558005
 42
0.0
 10
48.39221174987824
 20
23.25000037558005
 42
0.4142135623731048
 10
45.59221174987817
 20
20.45000037558008
 42
0.0
 10
45.59221174987817
 20
18.63479835022481
 42
0.1989123673796613
 10
46.82236326889472
 20
15.66494986924126
 42
0.0
 10
49.73216124353939
 20
12.75515189459659
 42
-0.1989123673796402
 10
50.14221174987824
 20
11.76520240093552
 42
0.0
 10
50.14221174987824
 20
10.47500037558004
 42
-0.4142135623730911
 10
49.61721174987827
 20
9.950000375580046
 42
0.0
 10
46.64221174987824
 20
9.950000375580046
 42
0.4142135623731526
 10
46.11721174987815
 20
9.425000375580058
 42
0.0
 10
46.11721174987815
 20
7.675000375580037
 42
0.414213562373089
 10
46.64221174987813
 20
7.150000375580049
 42
0.0
 10
50.14221174987824
 20
7.150000375580049
 42
0.4142135623730925
 10
52.9422117498782
 20
9.950000375580025
 42
0.0
 10
52.9422117498782
 20
11.7652024009353
 42
0.1989123673796675
 10
51.71206023086165
 20
14.73505088191895
 42
0.0
 10
48.80226225621709
 20
17.64484885656347
 42
-0.1989123673796653
 10
48.39221174987824
 20
18.63479835022464
 42
0.0
 97
        0
 92
        7
 72
     1
 73
     1
 93
       16
 10
57.84221174987817
 20
22.72500037558004
 42
0.414213562373103
 10
57.3172117498782
 20
23.25000037558005
 42
0.0
 10
55.5672117498782
 20
23.25000037558005
 42
0.4142135623730872
 10
55.04221174987822
 20
22.72500037558007
 42
0.0
 10
55.04221174987822
 20
9.950000375580025
 42
0.4142135623730925
 10
57.84221174987817
 20
7.150000375580049
 42
0.0
 10
61.34221174987817
 20
7.150000375580049
 42
0.4142135623731044
 10
64.14221174987824
 20
9.950000375580025
 42
0.0
 10
64.14221174987824
 20
22.72500037558005
 42
0.4142135623730952
 10
63.61721174987827
 20
23.25000037558005
 42
0.0
 10
61.86721174987815
 20
23.25000037558005
 42
0.4142135623730872
 10
61.34221174987817
 20
22.72500037558007
 42
0.0
 10
61.34221174987817
 20
11.00000037558002
 42
-0.414213562373088
 10
60.29221174987822
 20
9.950000375580046
 42
0.0
 10
58.89221174987824
 20
9.950000375580046
 42
-0.4142135623731197
 10
57.84221174987817
 20
11.00000037558002
 42
0.0
 97
        0
 92
        7
 72
     1
 73
     1
 93
        8
 10
69.04221174987822
 20
22.72500037558007
 42
0.4142135623730872
 10
68.51721174987824
 20
23.25000037558005
 42
0.0
 10
66.76721174987824
 20
23.25000037558005
 42
0.4142135623731506
 10
66.24221174987815
 20
22.72500037558007
 42
0.0
 10
66.24221174987815
 20
7.675000375580037
 42
0.414213562373089
 10
66.76721174987813
 20
7.150000375580049
 42
0.0
 10
68.51721174987824
 20
7.150000375580049
 42
0.414213562373089
 10
69.04221174987822
 20
7.675000375580037
 42
0.0
 97
        0
 75
     0
 76
     1
 52
0.0
 41
0.2
 77
     0
 78
     2
 53
45.0
 43
-900.9423047395819
 44
-13.19999962441989
 45
-0.4490128060534576
 46
0.4490128060534577
 79
     0
 53
135.0
 43
-900.9423047395819
 44
-13.19999962441989
 45
-0.4490128060534577
 46
-0.4490128060534576
 79
     0
 47
0.057451373970553
 98
        8
 10
16.07985455812036
 20
15.1671740214656
 10
22.40451460153622
 20
18.84406255803106
 10
25.16436748075671
 20
15.51188202165076
 10
30.91405957673419
 20
16.20129802202155
 10
41.83847161405379
 20
16.66091028956316
 10
46.8982004902266
 20
19.41857669198726
 10
56.5576855674974
 20
18.72915829067506
 10
67.82707921471979
 20
19.18877055821668
  0
ARC
  5
4818
330
1A
100
AcDbEntity
  8
ZUWAKU
100
AcDbCircle
 10
15.49221174987815
 20
18.63479835022475
 30
0.0
 40
4.199999999999999
100
AcDbArc
 50
180.0
 51
225.0
  0
LINE
  5
4819
330
1A
100
AcDbEntity
  8
ZUWAKU
100
AcDbLine
 10
20.74221174987815
 20
11.35000037558005
 30
0.0
 11
20.74221174987815
 21
19.05000037558001
 31
0.0
  0
LINE
  5
481A
330
1A
100
AcDbEntity
  8
ZUWAKU
100
AcDbLine
 10
23.54221174987822
 20
19.05000037558005
 30
0.0
 11
23.54221174987822
 21
11.35000037558005
 31
0.0
  0
ARC
  5
481B
330
1A
100
AcDbEntity
  8
ZUWAKU
100
AcDbCircle
 10
15.49221174987815
 20
18.63479835022475
 30
0.0
 40
1.4
100
AcDbArc
 50
180.0000000000016
 51
224.9999999999988
  0
ARC
  5
481C
330
1A
100
AcDbEntity
  8
ZUWAKU
100
AcDbCircle
 10
24.9422117498782
 20
11.35000037558005
 30
0.0
 40
4.199999999999999
100
AcDbArc
 50
180.0
 51
270.0
  0
ARC
  5
481D
330
1A
100
AcDbEntity
  8
ZUWAKU
100
AcDbCircle
 10
15.84221174987817
 20
9.950000375580046
 30
0.0
 40
2.8
100
AcDbArc
 50
270.0
 51
0.0
  0
ARC
  5
481E
330
1A
100
AcDbEntity
  8
ZUWAKU
100
AcDbCircle
 10
14.4422117498782
 20
11.76520240093535
 30
0.0
 40
4.199999999999999
100
AcDbArc
 50
0.0
 51
45.0
  0
LINE
  5
481F
330
1A
100
AcDbEntity
  8
ZUWAKU
100
AcDbLine
 10
12.52236326889465
 20
15.66494986924123
 30
0.0
 11
15.43216124353933
 21
12.75515189459657
 31
0.0
  0
LINE
  5
4820
330
1A
100
AcDbEntity
  8
ZUWAKU
100
AcDbLine
 10
12.34221174987817
 20
9.950000375580046
 30
0.0
 11
15.3172117498782
 21
9.950000375580046
 31
0.0
  0
LINE
  5
4821
330
1A
100
AcDbEntity
  8
ZUWAKU
100
AcDbLine
 10
12.34221174987817
 20
7.150000375580049
 30
0.0
 11
15.84221174987817
 21
7.150000375580049
 31
0.0
  0
ARC
  5
4822
330
1A
100
AcDbEntity
  8
ZUWAKU
100
AcDbCircle
 10
12.34221174987817
 20
9.425000375580048
 30
0.0
 40
0.5249999999999999
100
AcDbArc
 50
90.0
 51
180.0
  0
ARC
  5
4823
330
1A
100
AcDbEntity
  8
ZUWAKU
100
AcDbCircle
 10
12.34221174987817
 20
7.675000375580048
 30
0.0
 40
0.5249999999999999
100
AcDbArc
 50
180.0
 51
270.0
  0
LINE
  5
4824
330
1A
100
AcDbEntity
  8
ZUWAKU
100
AcDbLine
 10
11.8172117498782
 20
7.675000375580048
 30
0.0
 11
11.8172117498782
 21
9.425000375580048
 31
0.0
  0
ARC
  5
4825
330
1A
100
AcDbEntity
  8
ZUWAKU
100
AcDbCircle
 10
14.4422117498782
 20
11.76520240093539
 30
0.0
 40
1.4
100
AcDbArc
 50
0.0
 51
45.0
  0
ARC
  5
4826
330
1A
100
AcDbEntity
  8
ZUWAKU
100
AcDbCircle
 10
15.3172117498782
 20
10.47500037558005
 30
0.0
 40
0.5249999999999999
100
AcDbArc
 50
270.0
 51
0.0
  0
LINE
  5
4827
330
1A
100
AcDbEntity
  8
ZUWAKU
100
AcDbLine
 10
15.84221174987817
 20
10.47500037558005
 30
0.0
 11
15.84221174987817
 21
11.76520240093539
 31
0.0
  0
LINE
  5
4828
330
1A
100
AcDbEntity
  8
ZUWAKU
100
AcDbLine
 10
17.4120602308617
 20
14.73505088191887
 30
0.0
 11
14.50226225621702
 21
17.64484885656355
 31
0.0
  0
ARC
  5
4829
330
1A
100
AcDbEntity
  8
ZUWAKU
100
AcDbCircle
 10
24.9422117498782
 20
11.35000037558005
 30
0.0
 40
1.4
100
AcDbArc
 50
180.0
 51
270.0
  0
LINE
  5
482A
330
1A
100
AcDbEntity
  8
ZUWAKU
100
AcDbLine
 10
18.64221174987824
 20
9.950000375580046
 30
0.0
 11
18.64221174987824
 21
11.76520240093539
 31
0.0
  0
ARC
  5
482B
330
1A
100
AcDbEntity
  8
ZUWAKU
100
AcDbCircle
 10
17.59221174987817
 20
20.97500037558005
 30
0.0
 40
0.5249999999999999
100
AcDbArc
 50
270.0
 51
0.0
  0
ARC
  5
482C
330
1A
100
AcDbEntity
  8
ZUWAKU
100
AcDbCircle
 10
17.59221174987817
 20
22.72500037558005
 30
0.0
 40
0.5249999999999999
100
AcDbArc
 50
0.0
 51
90.0
  0
ARC
  5
482D
330
1A
100
AcDbEntity
  8
ZUWAKU
100
AcDbCircle
 10
14.09221174987817
 20
20.45000037558005
 30
0.0
 40
2.8
100
AcDbArc
 50
90.0
 51
180.0
  0
LINE
  5
482E
330
1A
100
AcDbEntity
  8
ZUWAKU
100
AcDbLine
 10
11.29221174987822
 20
20.45000037558005
 30
0.0
 11
11.29221174987822
 21
18.63479835022471
 31
0.0
  0
LINE
  5
482F
330
1A
100
AcDbEntity
  8
ZUWAKU
100
AcDbLine
 10
17.59221174987817
 20
20.45000037558005
 30
0.0
 11
14.61721174987815
 21
20.45000037558005
 31
0.0
  0
LINE
  5
4830
330
1A
100
AcDbEntity
  8
ZUWAKU
100
AcDbLine
 10
14.09221174987817
 20
19.92500037558005
 30
0.0
 11
14.09221174987817
 21
18.63479835022471
 31
0.0
  0
ARC
  5
4831
330
1A
100
AcDbEntity
  8
ZUWAKU
100
AcDbCircle
 10
14.61721174987815
 20
19.92500037558005
 30
0.0
 40
0.5249999999999999
100
AcDbArc
 50
90.0
 51
180.0
  0
LINE
  5
4832
330
1A
100
AcDbEntity
  8
ZUWAKU
100
AcDbLine
 10
14.09221174987817
 20
23.25000037558005
 30
0.0
 11
17.59221174987817
 21
23.25000037558005
 31
0.0
  0
ARC
  5
4833
330
1A
100
AcDbEntity
  8
ZUWAKU
100
AcDbCircle
 10
24.9422117498782
 20
19.05000037558001
 30
0.0
 40
4.199999999999999
100
AcDbArc
 50
90.0
 51
180.0
  0
ARC
  5
4834
330
1A
100
AcDbEntity
  8
ZUWAKU
100
AcDbCircle
 10
24.9422117498782
 20
19.05000037558005
 30
0.0
 40
1.4
100
AcDbArc
 50
90.0
 51
180.0
  0
LINE
  5
4835
330
1A
100
AcDbEntity
  8
ZUWAKU
100
AcDbLine
 10
18.11721174987815
 20
22.72500037558005
 30
0.0
 11
18.11721174987815
 21
20.97500037558005
 31
0.0
  0
LINE
  5
4836
330
1A
100
AcDbEntity
  8
ZUWAKU
100
AcDbLine
 10
35.67634668719404
 20
22.88309434374702
 30
0.0
 11
33.80807681256226
 21
16.96690640741308
 31
0.0
  0
LINE
  5
4837
330
1A
100
AcDbEntity
  8
ZUWAKU
100
AcDbLine
 10
29.84221174987817
 20
22.72500037558005
 30
0.0
 11
29.84221174987817
 21
7.675000375580048
 31
0.0
  0
LINE
  5
4838
330
1A
100
AcDbEntity
  8
ZUWAKU
100
AcDbLine
 10
32.64221174987824
 20
17.12500037558005
 30
0.0
 11
32.64221174987824
 21
22.72500037558005
 31
0.0
  0
LINE
  5
4839
330
1A
100
AcDbEntity
  8
ZUWAKU
100
AcDbLine
 10
57.84221174987817
 20
11.00000037558004
 30
0.0
 11
57.84221174987817
 21
22.72500037558005
 31
0.0
  0
LINE
  5
483A
330
1A
100
AcDbEntity
  8
ZUWAKU
100
AcDbLine
 10
55.04221174987822
 20
22.72500037558005
 30
0.0
 11
55.04221174987822
 21
9.950000375580046
 31
0.0
  0
LINE
  5
483B
330
1A
100
AcDbEntity
  8
ZUWAKU
100
AcDbLine
 10
43.49221174987815
 20
7.675000375580048
 30
0.0
 11
43.49221174987815
 21
22.72500037558005
 31
0.0
  0
LINE
  5
483C
330
1A
100
AcDbEntity
  8
ZUWAKU
100
AcDbLine
 10
40.6922117498782
 20
22.72500037558005
 30
0.0
 11
40.6922117498782
 21
7.675000375580048
 31
0.0
  0
LINE
  5
483D
330
1A
100
AcDbEntity
  8
ZUWAKU
100
AcDbLine
 10
37.31485823205617
 20
19.20504756914347
 30
0.0
 11
36.05010648672032
 21
15.20000037558007
 31
0.0
  0
ARC
  5
483E
330
1A
100
AcDbEntity
  8
ZUWAKU
100
AcDbCircle
 10
49.79221174987822
 20
18.63479835022475
 30
0.0
 40
4.199999999999999
100
AcDbArc
 50
180.0
 51
225.0
  0
ARC
  5
483F
330
1A
100
AcDbEntity
  8
ZUWAKU
100
AcDbCircle
 10
49.79221174987822
 20
18.63479835022475
 30
0.0
 40
1.4
100
AcDbArc
 50
180.0000000000016
 51
224.9999999999988
  0
LINE
  5
4840
330
1A
100
AcDbEntity
  8
ZUWAKU
100
AcDbLine
 10
66.24221174987815
 20
22.72500037558005
 30
0.0
 11
66.24221174987815
 21
7.675000375580048
 31
0.0
  0
LINE
  5
4841
330
1A
100
AcDbEntity
  8
ZUWAKU
100
AcDbLine
 10
69.04221174987822
 20
7.675000375580048
 30
0.0
 11
69.04221174987822
 21
22.72500037558005
 31
0.0
  0
LINE
  5
4842
330
1A
100
AcDbEntity
  8
ZUWAKU
100
AcDbLine
 10
61.34221174987817
 20
22.72500037558005
 30
0.0
 11
61.34221174987817
 21
11.00000037558004
 31
0.0
  0
LINE
  5
4843
330
1A
100
AcDbEntity
  8
ZUWAKU
100
AcDbLine
 10
64.14221174987824
 20
9.950000375580046
 30
0.0
 11
64.14221174987824
 21
22.72500037558005
 31
0.0
  0
LINE
  5
4844
330
1A
100
AcDbEntity
  8
ZUWAKU
100
AcDbLine
 10
79.12662914308544
 20
30.00000037558004
 30
0.0
 11
79.12662914308544
 21
0.8000003755801117
 31
0.0
  0
LINE
  5
4845
330
1A
100
AcDbEntity
  8
ZUWAKU
100
AcDbLine
 10
79.5266291430853
 20
30.00000037558004
 30
0.0
 11
79.52662914308553
 21
0.8000003755801117
 31
0.0
  0
LINE
  5
4846
330
1A
100
AcDbEntity
  8
ZUWAKU
100
AcDbLine
 10
79.32662914308526
 20
30.00000037558004
 30
0.0
 11
79.32662914308548
 21
0.8000003755801117
 31
0.0
  0
LINE
  5
4847
330
1A
100
AcDbEntity
  8
ZUWAKU
100
AcDbLine
 10
57.84221174987817
 20
7.150000375580049
 30
0.0
 11
61.34221174987817
 21
7.150000375580049
 31
0.0
  0
LINE
  5
4848
330
1A
100
AcDbEntity
  8
ZUWAKU
100
AcDbLine
 10
60.29221174987822
 20
9.950000375580046
 30
0.0
 11
58.89221174987824
 21
9.950000375580046
 31
0.0
  0
LINE
  5
4849
330
1A
100
AcDbEntity
  8
ZUWAKU
100
AcDbLine
 10
41.21721174987817
 20
7.150000375580049
 30
0.0
 11
42.96721174987817
 21
7.150000375580049
 31
0.0
  0
LINE
  5
484A
330
1A
100
AcDbEntity
  8
ZUWAKU
100
AcDbLine
 10
35.67634668719404
 20
7.516906407413075
 30
0.0
 11
33.80807681256226
 21
13.43309434374702
 31
0.0
  0
ARC
  5
484B
330
1A
100
AcDbEntity
  8
ZUWAKU
100
AcDbCircle
 10
33.16721174987822
 20
13.27500037558005
 30
0.0
 40
0.5249999999999999
100
AcDbArc
 50
90.0
 51
180.0
  0
ARC
  5
484C
330
1A
100
AcDbEntity
  8
ZUWAKU
100
AcDbCircle
 10
33.30744591336691
 20
13.27500037558005
 30
0.0
 40
0.5249999999999999
100
AcDbArc
 50
17.52556837372303
 51
90.0
  0
ARC
  5
484D
330
1A
100
AcDbEntity
  8
ZUWAKU
100
AcDbCircle
 10
30.36721174987815
 20
7.675000375580048
 30
0.0
 40
0.5249999999999999
100
AcDbArc
 50
180.0
 51
270.0
  0
ARC
  5
484E
330
1A
100
AcDbEntity
  8
ZUWAKU
100
AcDbCircle
 10
26.86721174987815
 20
9.425000375580048
 30
0.0
 40
0.5249999999999999
100
AcDbArc
 50
0.0
 51
90.0
  0
ARC
  5
484F
330
1A
100
AcDbEntity
  8
ZUWAKU
100
AcDbCircle
 10
26.86721174987815
 20
7.675000375580048
 30
0.0
 40
0.5249999999999999
100
AcDbArc
 50
270.0
 51
0.0
  0
LINE
  5
4850
330
1A
100
AcDbEntity
  8
ZUWAKU
100
AcDbLine
 10
27.39221174987824
 20
9.425000375580048
 30
0.0
 11
27.39221174987824
 21
7.675000375580048
 31
0.0
  0
LINE
  5
4851
330
1A
100
AcDbEntity
  8
ZUWAKU
100
AcDbLine
 10
32.64221174987824
 20
7.675000375580048
 30
0.0
 11
32.64221174987824
 21
13.27500037558005
 31
0.0
  0
ARC
  5
4852
330
1A
100
AcDbEntity
  8
ZUWAKU
100
AcDbCircle
 10
32.11721174987815
 20
7.675000375580048
 30
0.0
 40
0.5249999999999999
100
AcDbArc
 50
270.0
 51
0.0
  0
LINE
  5
4853
330
1A
100
AcDbEntity
  8
ZUWAKU
100
AcDbLine
 10
30.36721174987815
 20
7.150000375580049
 30
0.0
 11
32.11721174987815
 21
7.150000375580049
 31
0.0
  0
ARC
  5
4854
330
1A
100
AcDbEntity
  8
ZUWAKU
100
AcDbCircle
 10
33.16721174987822
 20
17.12500037558005
 30
0.0
 40
0.5249999999999999
100
AcDbArc
 50
180.0
 51
270.0
  0
LINE
  5
4855
330
1A
100
AcDbEntity
  8
ZUWAKU
100
AcDbLine
 10
33.16721174987822
 20
13.80000037558005
 30
0.0
 11
33.30744591336691
 21
13.80000037558005
 31
0.0
  0
LINE
  5
4856
330
1A
100
AcDbEntity
  8
ZUWAKU
100
AcDbLine
 10
33.30744591336691
 20
16.60000037558005
 30
0.0
 11
33.16721174987822
 21
16.60000037558005
 31
0.0
  0
ARC
  5
4857
330
1A
100
AcDbEntity
  8
ZUWAKU
100
AcDbCircle
 10
33.30744591336691
 20
17.12500037558005
 30
0.0
 40
0.5249999999999999
100
AcDbArc
 50
270.0
 51
342.474431626277
  0
ARC
  5
4858
330
1A
100
AcDbEntity
  8
ZUWAKU
100
AcDbCircle
 10
36.17697758638951
 20
7.675000375580048
 30
0.0
 40
0.5249999999999999
100
AcDbArc
 50
197.525568373723
 51
270.0
  0
LINE
  5
4859
330
1A
100
AcDbEntity
  8
ZUWAKU
100
AcDbLine
 10
38.37649786519398
 20
7.833094343747021
 30
0.0
 11
36.05010648672032
 21
15.20000037558007
 31
0.0
  0
ARC
  5
485A
330
1A
100
AcDbEntity
  8
ZUWAKU
100
AcDbCircle
 10
37.87586696599851
 20
7.675000375580048
 30
0.0
 40
0.5249999999999999
100
AcDbArc
 50
270.0
 51
17.52556837372303
  0
LINE
  5
485B
330
1A
100
AcDbEntity
  8
ZUWAKU
100
AcDbLine
 10
36.17697758638951
 20
7.150000375580049
 30
0.0
 11
37.87586696599851
 21
7.150000375580049
 31
0.0
  0
ARC
  5
485C
330
1A
100
AcDbEntity
  8
ZUWAKU
100
AcDbCircle
 10
41.21721174987817
 20
7.675000375580048
 30
0.0
 40
0.5249999999999999
100
AcDbArc
 50
180.0
 51
270.0
  0
ARC
  5
485D
330
1A
100
AcDbEntity
  8
ZUWAKU
100
AcDbCircle
 10
50.14221174987824
 20
9.950000375580046
 30
0.0
 40
2.8
100
AcDbArc
 50
270.0
 51
0.0
  0
ARC
  5
485E
330
1A
100
AcDbEntity
  8
ZUWAKU
100
AcDbCircle
 10
57.84221174987817
 20
9.950000375580046
 30
0.0
 40
2.8
100
AcDbArc
 50
180.0
 51
270.0
  0
LINE
  5
485F
330
1A
100
AcDbEntity
  8
ZUWAKU
100
AcDbLine
 10
51.71206023086177
 20
14.73505088191887
 30
0.0
 11
48.80226225621698
 21
17.64484885656355
 31
0.0
  0
LINE
  5
4860
330
1A
100
AcDbEntity
  8
ZUWAKU
100
AcDbLine
 10
46.82236326889472
 20
15.66494986924123
 30
0.0
 11
49.73216124353939
 21
12.75515189459657
 31
0.0
  0
LINE
  5
4861
330
1A
100
AcDbEntity
  8
ZUWAKU
100
AcDbLine
 10
46.64221174987824
 20
7.150000375580049
 30
0.0
 11
50.14221174987824
 21
7.150000375580049
 31
0.0
  0
LINE
  5
4862
330
1A
100
AcDbEntity
  8
ZUWAKU
100
AcDbLine
 10
46.64221174987824
 20
9.950000375580046
 30
0.0
 11
49.61721174987815
 21
9.950000375580046
 31
0.0
  0
ARC
  5
4863
330
1A
100
AcDbEntity
  8
ZUWAKU
100
AcDbCircle
 10
46.64221174987824
 20
9.425000375580048
 30
0.0
 40
0.5249999999999999
100
AcDbArc
 50
90.0
 51
180.0
  0
ARC
  5
4864
330
1A
100
AcDbEntity
  8
ZUWAKU
100
AcDbCircle
 10
42.96721174987817
 20
7.675000375580048
 30
0.0
 40
0.5249999999999999
100
AcDbArc
 50
270.0
 51
0.0
  0
ARC
  5
4865
330
1A
100
AcDbEntity
  8
ZUWAKU
100
AcDbCircle
 10
46.64221174987824
 20
7.675000375580048
 30
0.0
 40
0.5249999999999999
100
AcDbArc
 50
180.0
 51
270.0
  0
LINE
  5
4866
330
1A
100
AcDbEntity
  8
ZUWAKU
100
AcDbLine
 10
46.11721174987815
 20
7.675000375580048
 30
0.0
 11
46.11721174987815
 21
9.425000375580048
 31
0.0
  0
ARC
  5
4867
330
1A
100
AcDbEntity
  8
ZUWAKU
100
AcDbCircle
 10
49.61721174987815
 20
10.47500037558005
 30
0.0
 40
0.5249999999999999
100
AcDbArc
 50
270.0
 51
0.0
  0
ARC
  5
4868
330
1A
100
AcDbEntity
  8
ZUWAKU
100
AcDbCircle
 10
48.74221174987815
 20
11.76520240093539
 30
0.0
 40
1.4
100
AcDbArc
 50
0.0
 51
45.0
  0
LINE
  5
4869
330
1A
100
AcDbEntity
  8
ZUWAKU
100
AcDbLine
 10
50.14221174987824
 20
10.47500037558005
 30
0.0
 11
50.14221174987824
 21
11.76520240093539
 31
0.0
  0
ARC
  5
486A
330
1A
100
AcDbEntity
  8
ZUWAKU
100
AcDbCircle
 10
58.89221174987824
 20
11.00000037558004
 30
0.0
 40
1.05
100
AcDbArc
 50
180.0
 51
270.0
  0
ARC
  5
486B
330
1A
100
AcDbEntity
  8
ZUWAKU
100
AcDbCircle
 10
48.74221174987815
 20
11.76520240093535
 30
0.0
 40
4.199999999999999
100
AcDbArc
 50
0.0
 51
45.0
  0
LINE
  5
486C
330
1A
100
AcDbEntity
  8
ZUWAKU
100
AcDbLine
 10
52.9422117498782
 20
9.950000375580046
 30
0.0
 11
52.9422117498782
 21
11.76520240093539
 31
0.0
  0
ARC
  5
486D
330
1A
100
AcDbEntity
  8
ZUWAKU
100
AcDbCircle
 10
61.34221174987817
 20
9.950000375580046
 30
0.0
 40
2.8
100
AcDbArc
 50
270.0
 51
0.0
  0
LINE
  5
486E
330
1A
100
AcDbEntity
  8
ZUWAKU
100
AcDbLine
 10
66.76721174987824
 20
7.150000375580049
 30
0.0
 11
68.51721174987824
 21
7.150000375580049
 31
0.0
  0
ARC
  5
486F
330
1A
100
AcDbEntity
  8
ZUWAKU
100
AcDbCircle
 10
60.29221174987822
 20
11.00000037558004
 30
0.0
 40
1.05
100
AcDbArc
 50
270.0
 51
0.0
  0
ARC
  5
4870
330
1A
100
AcDbEntity
  8
ZUWAKU
100
AcDbCircle
 10
66.76721174987824
 20
7.675000375580048
 30
0.0
 40
0.5249999999999999
100
AcDbArc
 50
180.0
 51
270.0
  0
ARC
  5
4871
330
1A
100
AcDbEntity
  8
ZUWAKU
100
AcDbCircle
 10
68.51721174987824
 20
7.675000375580048
 30
0.0
 40
0.5249999999999999
100
AcDbArc
 50
270.0
 51
0.0
  0
LINE
  5
4872
330
1A
100
AcDbEntity
  8
ZUWAKU
100
AcDbLine
 10
42.96721174987817
 20
23.25000037558005
 30
0.0
 11
41.21721174987817
 21
23.25000037558005
 31
0.0
  0
LINE
  5
4873
330
1A
100
AcDbEntity
  8
ZUWAKU
100
AcDbLine
 10
27.39221174987824
 20
22.72500037558005
 30
0.0
 11
27.39221174987824
 21
20.97500037558005
 31
0.0
  0
ARC
  5
4874
330
1A
100
AcDbEntity
  8
ZUWAKU
100
AcDbCircle
 10
26.86721174987815
 20
20.97500037558005
 30
0.0
 40
0.5249999999999999
100
AcDbArc
 50
270.0
 51
0.0
  0
ARC
  5
4875
330
1A
100
AcDbEntity
  8
ZUWAKU
100
AcDbCircle
 10
30.36721174987815
 20
22.72500037558005
 30
0.0
 40
0.5249999999999999
100
AcDbArc
 50
90.0
 51
180.0
  0
ARC
  5
4876
330
1A
100
AcDbEntity
  8
ZUWAKU
100
AcDbCircle
 10
26.86721174987815
 20
22.72500037558005
 30
0.0
 40
0.5249999999999999
100
AcDbArc
 50
0.0
 51
90.0
  0
LINE
  5
4877
330
1A
100
AcDbEntity
  8
ZUWAKU
100
AcDbLine
 10
32.11721174987815
 20
23.25000037558005
 30
0.0
 11
30.36721174987815
 21
23.25000037558005
 31
0.0
  0
ARC
  5
4878
330
1A
100
AcDbEntity
  8
ZUWAKU
100
AcDbCircle
 10
32.11721174987815
 20
22.72500037558005
 30
0.0
 40
0.5249999999999999
100
AcDbArc
 50
0.0
 51
90.0
  0
ARC
  5
4879
330
1A
100
AcDbEntity
  8
ZUWAKU
100
AcDbCircle
 10
36.17697758638951
 20
22.72500037558005
 30
0.0
 40
0.5249999999999999
100
AcDbArc
 50
90.0
 51
162.474431626277
  0
LINE
  5
487A
330
1A
100
AcDbEntity
  8
ZUWAKU
100
AcDbLine
 10
38.37649786519398
 20
22.56690640741308
 30
0.0
 11
37.31485823205617
 21
19.20504756914347
 31
0.0
  0
ARC
  5
487B
330
1A
100
AcDbEntity
  8
ZUWAKU
100
AcDbCircle
 10
37.87586696599851
 20
22.72500037558005
 30
0.0
 40
0.5249999999999999
100
AcDbArc
 50
342.474431626277
 51
90.0
  0
LINE
  5
487C
330
1A
100
AcDbEntity
  8
ZUWAKU
100
AcDbLine
 10
36.17697758638951
 20
23.25000037558005
 30
0.0
 11
37.87586696599851
 21
23.25000037558005
 31
0.0
  0
ARC
  5
487D
330
1A
100
AcDbEntity
  8
ZUWAKU
100
AcDbCircle
 10
41.21721174987817
 20
22.72500037558005
 30
0.0
 40
0.5249999999999999
100
AcDbArc
 50
90.0
 51
180.0
  0
LINE
  5
487E
330
1A
100
AcDbEntity
  8
ZUWAKU
100
AcDbLine
 10
51.89221174987824
 20
20.45000037558005
 30
0.0
 11
48.91721174987822
 21
20.45000037558005
 31
0.0
  0
LINE
  5
487F
330
1A
100
AcDbEntity
  8
ZUWAKU
100
AcDbLine
 10
48.39221174987824
 20
23.25000037558005
 30
0.0
 11
51.89221174987824
 21
23.25000037558005
 31
0.0
  0
ARC
  5
4880
330
1A
100
AcDbEntity
  8
ZUWAKU
100
AcDbCircle
 10
48.39221174987824
 20
20.45000037558005
 30
0.0
 40
2.8
100
AcDbArc
 50
90.0
 51
180.0
  0
LINE
  5
4881
330
1A
100
AcDbEntity
  8
ZUWAKU
100
AcDbLine
 10
45.59221174987817
 20
20.45000037558005
 30
0.0
 11
45.59221174987817
 21
18.63479835022471
 31
0.0
  0
ARC
  5
4882
330
1A
100
AcDbEntity
  8
ZUWAKU
100
AcDbCircle
 10
42.96721174987817
 20
22.72500037558005
 30
0.0
 40
0.5249999999999999
100
AcDbArc
 50
0.0
 51
90.0
  0
LINE
  5
4883
330
1A
100
AcDbEntity
  8
ZUWAKU
100
AcDbLine
 10
48.39221174987824
 20
19.92500037558005
 30
0.0
 11
48.39221174987824
 21
18.63479835022471
 31
0.0
  0
ARC
  5
4884
330
1A
100
AcDbEntity
  8
ZUWAKU
100
AcDbCircle
 10
48.91721174987822
 20
19.92500037558005
 30
0.0
 40
0.5249999999999999
100
AcDbArc
 50
90.0
 51
180.0
  0
LINE
  5
4885
330
1A
100
AcDbEntity
  8
ZUWAKU
100
AcDbLine
 10
52.41721174987822
 20
22.72500037558005
 30
0.0
 11
52.41721174987822
 21
20.97500037558005
 31
0.0
  0
ARC
  5
4886
330
1A
100
AcDbEntity
  8
ZUWAKU
100
AcDbCircle
 10
51.89221174987824
 20
20.97500037558005
 30
0.0
 40
0.5249999999999999
100
AcDbArc
 50
270.0
 51
0.0
  0
ARC
  5
4887
330
1A
100
AcDbEntity
  8
ZUWAKU
100
AcDbCircle
 10
51.89221174987824
 20
22.72500037558005
 30
0.0
 40
0.5249999999999999
100
AcDbArc
 50
0.0
 51
90.0
  0
LINE
  5
4888
330
1A
100
AcDbEntity
  8
ZUWAKU
100
AcDbLine
 10
57.3172117498782
 20
23.25000037558005
 30
0.0
 11
55.5672117498782
 21
23.25000037558005
 31
0.0
  0
ARC
  5
4889
330
1A
100
AcDbEntity
  8
ZUWAKU
100
AcDbCircle
 10
55.5672117498782
 20
22.72500037558005
 30
0.0
 40
0.5249999999999999
100
AcDbArc
 50
90.0
 51
180.0
  0
ARC
  5
488A
330
1A
100
AcDbEntity
  8
ZUWAKU
100
AcDbCircle
 10
57.3172117498782
 20
22.72500037558005
 30
0.0
 40
0.5249999999999999
100
AcDbArc
 50
0.0
 51
90.0
  0
LINE
  5
488B
330
1A
100
AcDbEntity
  8
ZUWAKU
100
AcDbLine
 10
68.51721174987824
 20
23.25000037558005
 30
0.0
 11
66.76721174987824
 21
23.25000037558005
 31
0.0
  0
ARC
  5
488C
330
1A
100
AcDbEntity
  8
ZUWAKU
100
AcDbCircle
 10
61.86721174987815
 20
22.72500037558005
 30
0.0
 40
0.5249999999999999
100
AcDbArc
 50
90.0
 51
180.0
  0
LINE
  5
488D
330
1A
100
AcDbEntity
  8
ZUWAKU
100
AcDbLine
 10
63.61721174987815
 20
23.25000037558005
 30
0.0
 11
61.86721174987815
 21
23.25000037558005
 31
0.0
  0
ARC
  5
488E
330
1A
100
AcDbEntity
  8
ZUWAKU
100
AcDbCircle
 10
63.61721174987815
 20
22.72500037558005
 30
0.0
 40
0.5249999999999999
100
AcDbArc
 50
0.0
 51
90.0
  0
ARC
  5
488F
330
1A
100
AcDbEntity
  8
ZUWAKU
100
AcDbCircle
 10
66.76721174987824
 20
22.72500037558005
 30
0.0
 40
0.5249999999999999
100
AcDbArc
 50
90.0
 51
180.0
  0
ARC
  5
4890
330
1A
100
AcDbEntity
  8
ZUWAKU
100
AcDbCircle
 10
68.51721174987824
 20
22.72500037558005
 30
0.0
 40
0.5249999999999999
100
AcDbArc
 50
0.0
 51
90.0
  0
TEXT
  5
4891
330
1A
100
AcDbEntity
  8
moji
100
AcDbText
 10
239.8272022759481
 20
3.204921432987465
 30
0.0
 40
5.6
  1
ＶＭ１２０・Σ９０（Ⅲ）－６－１０～４５
 41
0.9
  7
ｽﾀｲﾙ1
100
AcDbText
  0
TEXT
  5
4892
330
1A
100
AcDbEntity
  8
moji
100
AcDbText
 10
239.8272022759481
 20
18.00492143298743
 30
0.0
 40
5.6
  1
ブラケット正面打（吊）
 41
0.9
  7
ｽﾀｲﾙ1
100
AcDbText
  0
LINE
  5
4893
330
1A
100
AcDbEntity
  8
ZUWAKU
100
AcDbLine
 10
208.4466008851648
 20
30.00000037558004
 30
0.0
 11
208.446600885165
 21
0.8000003755801117
 31
0.0
  0
LINE
  5
4894
330
1A
100
AcDbEntity
  8
ZUWAKU
100
AcDbLine
 10
208.6466008851648
 20
30.00000037558004
 30
0.0
 11
208.6466008851651
 21
0.8000003755801117
 31
0.0
  0
LINE
  5
4895
330
1A
100
AcDbEntity
  8
ZUWAKU
100
AcDbLine
 10
208.246600885165
 20
30.00000037558004
 30
0.0
 11
208.246600885165
 21
0.8000003755801117
 31
0.0
  0
TEXT
  5
4896
330
1A
100
AcDbEntity
  8
ZUWAKU
100
AcDbText
 10
209.7240459073746
 20
9.655356913965662
 30
0.0
 40
4.0
  1
サイズ
 41
0.9
  7
ｽﾀｲﾙ1
100
AcDbText
  0
TEXT
  5
4897
330
1A
100
AcDbEntity
  8
ZUWAKU
100
AcDbText
 10
209.7240459073744
 20
24.05535691396563
 30
0.0
 40
4.0
  1
品名
 41
0.9
  7
ｽﾀｲﾙ1
100
AcDbText
  0
TEXT
  5
4898
330
1A
100
AcDbEntity
  8
ZUWAKU
100
AcDbText
 10
658.2039372823995
 20
18.00492143298743
 30
0.0
 40
5.6
  1
　　．　　．　　
 41
0.9
  7
ｽﾀｲﾙ1
100
AcDbText
  0
LINE
  5
4899
330
1A
100
AcDbEntity
  8
ZUWAKU
100
AcDbLine
 10
648.8172021053013
 20
15.60000037558008
 30
0.0
 11
697.2490101436383
 21
15.60000037558008
 31
0.0
  0
LINE
  5
489A
330
1A
100
AcDbEntity
  8
ZUWAKU
100
AcDbLine
 10
648.8172021053015
 20
15.40000037558008
 30
0.0
 11
697.2490101436383
 21
15.40000037558008
 31
0.0
  0
LINE
  5
489B
330
1A
100
AcDbEntity
  8
ZUWAKU
100
AcDbLine
 10
648.8172021053013
 20
15.20000037558008
 30
0.0
 11
697.2490101436383
 21
15.20000037558008
 31
0.0
  0
LINE
  5
489C
330
1A
100
AcDbEntity
  8
ZUWAKU
100
AcDbLine
 10
505.1991790932379
 20
15.60000037558008
 30
0.0
 11
552.5269553612095
 21
15.60000037558008
 31
0.0
  0
LINE
  5
489D
330
1A
100
AcDbEntity
  8
ZUWAKU
100
AcDbLine
 10
505.1991790932379
 20
15.40000037558008
 30
0.0
 11
552.5269553612095
 21
15.40000037558008
 31
0.0
  0
LINE
  5
489E
330
1A
100
AcDbEntity
  8
ZUWAKU
100
AcDbLine
 10
505.1991790932379
 20
15.20000037558008
 30
0.0
 11
552.5269553612095
 21
15.20000037558008
 31
0.0
  0
LINE
  5
489F
330
1A
100
AcDbEntity
  8
ZUWAKU
100
AcDbLine
 10
504.7991790932381
 20
30.00000037558004
 30
0.0
 11
504.7991790932381
 21
0.8000003755801117
 31
0.0
  0
LINE
  5
48A0
330
1A
100
AcDbEntity
  8
ZUWAKU
100
AcDbLine
 10
505.1991790932379
 20
30.00000037558004
 30
0.0
 11
505.1991790932382
 21
0.8000003755801117
 31
0.0
  0
LINE
  5
48A1
330
1A
100
AcDbEntity
  8
ZUWAKU
100
AcDbLine
 10
504.9991790932379
 20
30.00000037558004
 30
0.0
 11
504.9991790932381
 21
0.8000003755801117
 31
0.0
  0
TEXT
  5
48A2
330
1A
100
AcDbEntity
  8
moji
100
AcDbText
 10
528.0409075674099
 20
18.00492143298743
 30
0.0
 40
5.6
  1
Ａ３
 41
0.9
  7
ｽﾀｲﾙ1
100
AcDbText
  0
LINE
  5
48A3
330
1A
100
AcDbEntity
  8
ZUWAKU
100
AcDbLine
 10
447.4243635660885
 20
30.00000037558004
 30
0.0
 11
447.4243635660885
 21
0.8000003755801117
 31
0.0
  0
LINE
  5
48A4
330
1A
100
AcDbEntity
  8
ZUWAKU
100
AcDbLine
 10
447.8243635660883
 20
30.00000037558004
 30
0.0
 11
447.8243635660886
 21
0.8000003755801117
 31
0.0
  0
LINE
  5
48A5
330
1A
100
AcDbEntity
  8
ZUWAKU
100
AcDbLine
 10
447.6243635660883
 20
30.00000037558004
 30
0.0
 11
447.6243635660885
 21
0.8000003755801117
 31
0.0
  0
TEXT
  5
48A6
330
1A
100
AcDbEntity
  8
moji
100
AcDbText
 10
463.2464315860991
 20
11.94261809724003
 30
0.0
 40
5.6
  1
ＬＭ６６Ｔ
 41
0.9
  7
ｽﾀｲﾙ1
100
AcDbText
  0
TEXT
  5
48A7
330
1A
100
AcDbEntity
  8
ZUWAKU
100
AcDbText
 10
506.6766241154478
 20
9.655356913965662
 30
0.0
 40
4.0
  1
縮尺
 41
0.9
  7
ｽﾀｲﾙ1
100
AcDbText
  0
TEXT
  5
48A8
330
1A
100
AcDbEntity
  8
moji
100
AcDbText
 10
528.0409075674099
 20
3.204921432987465
 30
0.0
 40
5.6
  1
１/２
 41
0.9
  7
ｽﾀｲﾙ1
100
AcDbText
  0
TEXT
  5
48A9
330
1A
100
AcDbEntity
  8
ZUWAKU
100
AcDbText
 10
449.3018085882979
 20
24.05535691396563
 30
0.0
 40
4.0
  1
品番
 41
0.9
  7
ｽﾀｲﾙ1
100
AcDbText
  0
TEXT
  5
48AA
330
1A
100
AcDbEntity
  8
ZUWAKU
100
AcDbText
 10
506.6766241154476
 20
24.05535691396563
 30
0.0
 40
4.0
  1
用紙
 41
0.9
  7
ｽﾀｲﾙ1
100
AcDbText
  0
LINE
  5
48AB
330
1A
100
AcDbEntity
  8
ZUWAKU
100
AcDbLine
 10
552.5269553612095
 20
30.00000037558004
 30
0.0
 11
552.5269553612095
 21
0.8000003755801117
 31
0.0
  0
LINE
  5
48AC
330
1A
100
AcDbEntity
  8
ZUWAKU
100
AcDbLine
 10
552.9269553612094
 20
30.00000037558004
 30
0.0
 11
552.9269553612096
 21
0.8000003755801117
 31
0.0
  0
LINE
  5
48AD
330
1A
100
AcDbEntity
  8
ZUWAKU
100
AcDbLine
 10
552.7269553612093
 20
30.00000037558004
 30
0.0
 11
552.7269553612096
 21
0.8000003755801117
 31
0.0
  0
LINE
  5
48AE
330
1A
100
AcDbEntity
  8
ZUWAKU
100
AcDbLine
 10
648.4172021053016
 20
30.00000037558004
 30
0.0
 11
648.4172021053016
 21
0.8000003755801117
 31
0.0
  0
LINE
  5
48AF
330
1A
100
AcDbEntity
  8
ZUWAKU
100
AcDbLine
 10
648.8172021053015
 20
30.00000037558004
 30
0.0
 11
648.8172021053017
 21
0.8000003755801117
 31
0.0
  0
LINE
  5
48B0
330
1A
100
AcDbEntity
  8
ZUWAKU
100
AcDbLine
 10
648.6172021053014
 20
30.00000037558004
 30
0.0
 11
648.6172021053017
 21
0.8000003755801117
 31
0.0
  0
TEXT
  5
48B1
330
1A
100
AcDbEntity
  8
ZUWAKU
100
AcDbText
 10
650.2946471275111
 20
24.05535691396563
 30
0.0
 40
4.0
  1
DATE
 41
0.9
  7
ｽﾀｲﾙ1
100
AcDbText
  0
TEXT
  5
48B2
330
1A
100
AcDbEntity
  8
ZUWAKU
100
AcDbText
 10
708.5280837873409
 20
17.55383971126685
 30
0.0
 40
6.0
  1
積水化学工業株式会社
 41
0.9
  7
ｽﾀｲﾙ1
100
AcDbText
  0
LINE
  5
48B3
330
1A
100
AcDbEntity
  8
ZUWAKU
100
AcDbLine
 10
697.8490101436382
 20
30.00000037558004
 30
0.0
 11
697.8490101436385
 21
0.8000003755801117
 31
0.0
  0
LINE
  5
48B4
330
1A
100
AcDbEntity
  8
ZUWAKU
100
AcDbLine
 10
697.6490101436382
 20
30.00000037558004
 30
0.0
 11
697.6490101436384
 21
0.8000003755801117
 31
0.0
  0
LINE
  5
48B5
330
1A
100
AcDbEntity
  8
ZUWAKU
100
AcDbLine
 10
697.4490101436384
 20
30.00000037558004
 30
0.0
 11
697.4490101436384
 21
0.8000003755801117
 31
0.0
  0
LINE
  5
48B6
330
1A
100
AcDbEntity
  8
ZUWAKU
100
AcDbLine
 10
697.2490101436383
 20
30.00000037558004
 30
0.0
 11
697.2490101436383
 21
0.8000003755801117
 31
0.0
  0
TEXT
  5
48B7
330
1A
100
AcDbEntity
  8
ZUWAKU
100
AcDbText
 10
708.5280837873409
 20
6.64884068943411
 30
0.0
 40
6.0
  1
建材事業部
 41
0.9
  7
ｽﾀｲﾙ1
100
AcDbText
  0
LINE
  5
4B17
330
1A
100
AcDbEntity
  8
SEIHIN
  6
Continuous
 62
     3
100
AcDbLine
 10
391.6022136085483
 20
195.0462629967179
 30
0.0
 11
390.7094233105479
 21
192.362436347318
 31
0.0
  0
LINE
  5
4B18
330
1A
100
AcDbEntity
  8
SEIHIN
  6
Continuous
 62
     3
100
AcDbLine
 10
391.6022136085483
 20
195.0462629967179
 30
0.0
 11
396.9671390295484
 21
197.7328175237179
 31
0.0
  0
LINE
  5
4B19
330
1A
100
AcDbEntity
  8
SEIHIN
  6
Continuous
 62
     3
100
AcDbLine
 10
388.9671390295484
 20
197.7328175237179
 30
0.0
 11
396.9671390295484
 21
197.7328175237179
 31
0.0
  0
LINE
  5
4B1A
330
1A
100
AcDbEntity
  8
SEIHIN
  6
Continuous
 62
     3
100
AcDbLine
 10
396.9671390295484
 20
197.7328175237179
 30
0.0
 11
422.766717644869
 21
154.7335198315172
 31
0.0
  0
LINE
  5
4B1B
330
1A
100
AcDbEntity
  8
SEIHIN
  6
Continuous
 62
     3
100
AcDbLine
 10
391.6022136085483
 20
195.0462629967179
 30
0.0
 11
417.4017922238688
 21
152.0469653045172
 31
0.0
  0
LINE
  5
4B1C
330
1A
100
AcDbEntity
  8
SEIHIN
  6
Continuous
 62
     3
100
AcDbLine
 10
390.7094233105479
 20
192.362436347318
 30
0.0
 11
414.4829238750442
 21
152.739935406491
 31
0.0
  0
ARC
  5
4B1D
330
1A
100
AcDbEntity
  8
SEIHIN
  6
Continuous
 62
     3
100
AcDbCircle
 10
394.0797548529846
 20
173.1396626886179
 30
0.0
 40
7.0
100
AcDbArc
 50
30.96375653207185
 51
90.0
  0
LINE
  5
4B1E
330
1A
100
AcDbEntity
  8
SEIHIN
  6
Continuous
 62
     3
100
AcDbLine
 10
417.4017922238692
 20
152.0469653045172
 30
0.0
 11
422.766717644869
 21
154.7335198315172
 31
0.0
  0
LINE
  5
4B1F
330
1A
100
AcDbEntity
  8
SEIHIN
  6
Continuous
 62
     3
100
AcDbLine
 10
414.4829238750442
 20
152.7399354064911
 30
0.0
 11
417.4017922238688
 21
152.0469653045172
 31
0.0
  0
LINE
  5
4B20
330
1A
100
AcDbEntity
  8
CENTER L
  6
CENTER
 62
     1
 48
5.0
100
AcDbLine
 10
391.4362927136226
 20
182.7185007618866
 30
0.0
 11
407.4596527556529
 21
192.3325167871048
 31
0.0
  0
LINE
  5
4B21
330
1A
100
AcDbEntity
  8
CENTER L
  6
CENTER
 62
     1
 48
5.0
100
AcDbLine
 10
394.0162505751542
 20
178.4185709926674
 30
0.0
 11
410.0396106171844
 21
188.0325870178854
 31
0.0
  0
LINE
  5
4B22
330
1A
100
AcDbEntity
  8
CENTER L
  6
CENTER
 62
     1
 48
5.0
100
AcDbLine
 10
406.9160398828174
 20
156.9189221465622
 30
0.0
 11
422.9393999248476
 21
166.5329381717804
 31
0.0
  0
LINE
  5
4B23
330
1A
100
AcDbEntity
  8
SEIHIN
  6
PHANTOM
 62
     6
 48
5.0
100
AcDbLine
 10
452.4017922238692
 20
152.0469653045172
 30
0.0
 11
457.766717644869
 21
154.7335198315172
 31
0.0
  0
LINE
  5
4B24
330
1A
100
AcDbEntity
  8
SEIHIN
  6
PHANTOM
 62
     6
 48
5.0
100
AcDbLine
 10
426.6022136085483
 20
195.0462629967179
 30
0.0
 11
452.4017922238688
 21
152.0469653045172
 31
0.0
  0
LINE
  5
4B25
330
1A
100
AcDbEntity
  8
SEIHIN
  6
PHANTOM
 62
     6
 48
5.0
100
AcDbLine
 10
449.4829238750442
 20
152.7399354064911
 30
0.0
 11
452.4017922238688
 21
152.0469653045172
 31
0.0
  0
LINE
  5
4B26
330
1A
100
AcDbEntity
  8
SEIHIN
  6
PHANTOM
 62
     6
 48
5.0
100
AcDbLine
 10
431.9671390295484
 20
197.7328175237179
 30
0.0
 11
457.766717644869
 21
154.7335198315172
 31
0.0
  0
LINE
  5
4B27
330
1A
100
AcDbEntity
  8
SEIHIN
  6
PHANTOM
 62
     6
 48
5.0
100
AcDbLine
 10
425.7094233105479
 20
192.362436347318
 30
0.0
 11
449.4829238750442
 21
152.739935406491
 31
0.0
  0
LINE
  5
4B28
330
1A
100
AcDbEntity
  8
SEIHIN
  6
PHANTOM
 62
     6
 48
5.0
100
AcDbLine
 10
426.6022136085483
 20
195.0462629967179
 30
0.0
 11
425.7094233105479
 21
192.362436347318
 31
0.0
  0
LINE
  5
4B29
330
1A
100
AcDbEntity
  8
SEIHIN
  6
PHANTOM
 62
     6
 48
5.0
100
AcDbLine
 10
426.6022136085483
 20
195.0462629967179
 30
0.0
 11
431.9671390295484
 21
197.7328175237179
 31
0.0
  0
ARC
  5
4B2A
330
1A
100
AcDbEntity
  8
SEIHIN
  6
PHANTOM
 62
     6
 48
5.0
100
AcDbCircle
 10
429.0797548529846
 20
173.1396626886179
 30
0.0
 40
7.0
100
AcDbArc
 50
30.96375653207185
 51
90.0
  0
LINE
  5
4B2B
330
1A
100
AcDbEntity
  8
CENTER L
  6
CENTER
 62
     1
 48
5.0
100
AcDbLine
 10
426.4362927136226
 20
182.7185007618866
 30
0.0
 11
442.4596527556529
 21
192.3325167871048
 31
0.0
  0
LINE
  5
4B2C
330
1A
100
AcDbEntity
  8
CENTER L
  6
CENTER
 62
     1
 48
5.0
100
AcDbLine
 10
429.0162505751542
 20
178.4185709926674
 30
0.0
 11
445.0396106171844
 21
188.0325870178854
 31
0.0
  0
LINE
  5
4B2D
330
1A
100
AcDbEntity
  8
CENTER L
  6
CENTER
 62
     1
 48
5.0
100
AcDbLine
 10
441.9160398828174
 20
156.9189221465622
 30
0.0
 11
457.9393999248476
 21
166.5329381717804
 31
0.0
  0
VIEWPORT
  5
22
330
17
100
AcDbEntity
 67
     1
  8
0
100
AcDbViewport
 10
313.6808219178083
 20
148.5
 30
0.0
 40
627.3616438356165
 41
297.0
 68
     2
 69
     1
 12
313.6808219178083
 22
148.5
 13
0.0
 23
0.0
 14
1.0
 24
1.0
 15
10.0
 25
10.0
 16
0.0
 26
0.0
 36
1.0
 17
0.0
 27
0.0
 37
0.0
 42
50.0
 43
0.0
 44
0.0
 45
297.0
 50
0.0
 51
0.0
 72
   100
 90
    32768
  1

281
     0
 71
     1
 74
     0
110
0.0
120
0.0
130
0.0
111
1.0
121
0.0
131
0.0
112
0.0
122
1.0
132
0.0
 79
     0
146
0.0
  0
VIEWPORT
  5
64
330
17
100
AcDbEntity
 67
     1
  8
VIEWPORT
100
AcDbViewport
 10
210.0
 20
148.5
 30
0.0
 40
420.0
 41
297.0
 68
     1
 69
     2
 12
420.0
 22
297.0
 13
0.0
 23
0.0
 14
10.0
 24
10.0
 15
0.0
 25
0.0
 16
0.0
 26
0.0
 36
1.0
 17
0.0
 27
0.0
 37
0.0
 42
50.0
 43
0.0
 44
0.0
 45
605.8799999999999
 50
0.0
 51
0.0
 72
   100
 90
    32768
  1

281
     0
 71
     1
 74
     0
110
0.0
120
0.0
130
0.0
111
1.0
121
0.0
131
0.0
112
0.0
122
1.0
132
0.0
 79
     0
146
0.0
  0
ENDSEC
  0
SECTION
  2
OBJECTS
  0
DICTIONARY
  5
C
330
0
100
AcDbDictionary
281
     1
  3
ACAD_GROUP
350
D
  3
ACAD_LAYOUT
350
A98
  3
ACAD_MLINESTYLE
350
E
  3
ACAD_PLOTSETTINGS
350
A99
  3
ACAD_PLOTSTYLENAME
350
A96
  0
DICTIONARY
  5
D
102
{ACAD_REACTORS
330
C
102
}
330
C
100
AcDbDictionary
281
     1
  3
*A1
350
FA3
  3
*A2
350
1597
  3
*A3
350
179D
  3
*A4
350
3BBE
  3
*A5
350
3BD4
  0
DICTIONARY
  5
A98
102
{ACAD_REACTORS
330
C
102
}
330
C
100
AcDbDictionary
281
     1
  3
Model
350
A9A
  3
ﾚｲｱｳﾄ1
350
A9B
  0
DICTIONARY
  5
E
102
{ACAD_REACTORS
330
C
102
}
330
C
100
AcDbDictionary
281
     1
  3
STANDARD
350
13
  0
DICTIONARY
  5
A99
102
{ACAD_REACTORS
330
C
102
}
330
C
100
AcDbDictionary
281
     1
  0
ACDBDICTIONARYWDFLT
  5
A96
102
{ACAD_REACTORS
330
C
102
}
330
C
100
AcDbDictionary
281
     1
  3
Normal
350
A97
100
AcDbDictionaryWithDefault
340
A97
1001
ACAD
1000
TREAT_AS_HARD
1070
     0
1000
TREAT_AS_HARD
1070
     0
1000
TREAT_AS_HARD
1070
     0
1000
TREAT_AS_HARD
1070
     0
1000
TREAT_AS_HARD
1070
     0
1000
TREAT_AS_HARD
1070
     0
1000
TREAT_AS_HARD
1070
     0
  0
GROUP
  5
FA3
102
{ACAD_REACTORS
330
D
102
}
330
D
100
AcDbGroup
300

 70
     1
 71
     1
  0
GROUP
  5
1597
102
{ACAD_REACTORS
330
D
102
}
330
D
100
AcDbGroup
300

 70
     1
 71
     1
  0
GROUP
  5
179D
102
{ACAD_REACTORS
330
D
102
}
330
D
100
AcDbGroup
300

 70
     1
 71
     1
  0
GROUP
  5
3BBE
102
{ACAD_REACTORS
330
D
102
}
330
D
100
AcDbGroup
300

 70
     1
 71
     1
  0
GROUP
  5
3BD4
102
{ACAD_REACTORS
330
D
102
}
330
D
100
AcDbGroup
300

 70
     1
 71
     1
  0
LAYOUT
  5
A9A
102
{ACAD_REACTORS
330
A98
102
}
330
A98
100
AcDbPlotSettings
  1

  2
Canon LASER SHOT LBP-2360
  4
A4
  6

 40
5.873749732971191
 41
5.873747825622559
 42
5.873748779296875
 43
5.873748779296875
 44
209.9733276367188
 45
296.9259948730469
 46
0.0
 47
1.73
 48
0.0
 49
0.0
140
0.0
141
0.0
142
1.0
143
2.829871751605871
 70
 28340
 72
     1
 73
     1
 74
     1
  7
systemprinter.ctb
 75
     0
147
0.3533729044196186
148
-10.0360127096485
149
-2.836945966394751
100
AcDbLayout
  1
Model
 70
     1
 71
     0
 10
0.0
 20
0.0
 11
12.0
 21
9.0
 12
0.0
 22
0.0
 32
0.0
 14
0.0
 24
0.0
 34
0.0
 15
0.0
 25
0.0
 35
0.0
146
0.0
 13
0.0
 23
0.0
 33
0.0
 16
1.0
 26
0.0
 36
0.0
 17
0.0
 27
1.0
 37
0.0
 76
     0
330
1A
  0
LAYOUT
  5
A9B
102
{ACAD_REACTORS
330
A98
102
}
330
A98
100
AcDbPlotSettings
  1

  2
C:\PROGRAM FILES\ACAD LT 2000\plotters\DWF ePlot.pc3
  4

  6

 40
0.0
 41
0.0
 42
0.0
 43
0.0
 44
0.0
 45
0.0
 46
0.0
 47
0.0
 48
0.0
 49
0.0
140
0.0
141
0.0
142
1.0
143
1.0
 70
   688
 72
     0
 73
     0
 74
     5
  7
systemprinter.ctb
 75
    16
147
1.0
148
0.0
149
0.0
100
AcDbLayout
  1
ﾚｲｱｳﾄ1
 70
     1
 71
     1
 10
0.0
 20
0.0
 11
420.0
 21
297.0
 12
0.0
 22
0.0
 32
0.0
 14
0.0
 24
0.0
 34
0.0
 15
420.0
 25
297.0
 35
0.0
146
0.0
 13
0.0
 23
0.0
 33
0.0
 16
1.0
 26
0.0
 36
0.0
 17
0.0
 27
1.0
 37
0.0
 76
     0
330
17
331
64
  0
MLINESTYLE
  5
13
102
{ACAD_REACTORS
330
E
102
}
330
E
100
AcDbMlineStyle
  2
STANDARD
 70
     0
  3

 62
     0
 51
90.0
 52
90.0
 71
     2
 49
0.5
 62
   256
  6
BYLAYER
 49
-0.5
 62
   256
  6
BYLAYER
  0
ACDBPLACEHOLDER
  5
A97
102
{ACAD_REACTORS
330
A96
102
}
330
A96
  0
ENDSEC
  0
EOF
