  0
SECTION
  2
HEADER
  9
$ACADVER
  1
AC1014
  9
$ACADMAINTVER
 70
     9
  9
$DWGCODEPAGE
  3
ANSI_932
  9
$INSBASE
 10
0.0
 20
0.0
 30
0.0
  9
$EXTMIN
 10
-0.0076112427352655
 20
-0.0045292325963828
 30
-0.000000000000013
  9
$EXTMAX
 10
398.8403303939794
 20
275.8213247580297
 30
0.0000000000000023
  9
$LIMMIN
 10
0.0
 20
0.0
  9
$LIMMAX
 10
420.0
 20
297.0
  9
$ORTHOMODE
 70
     1
  9
$REGENMODE
 70
     1
  9
$FILLMODE
 70
     1
  9
$QTEXTMODE
 70
     0
  9
$MIRRTEXT
 70
     1
  9
$DRAGMODE
 70
     2
  9
$LTSCALE
 40
1.0
  9
$OSMODE
 70
    35
  9
$ATTMODE
 70
     1
  9
$TEXTSIZE
 40
2.5
  9
$TRACEWID
 40
1.0
  9
$TEXTSTYLE
  7
STANDARD
  9
$CLAYER
  8
SUNPOU
  9
$CELTYPE
  6
BYLAYER
  9
$CECOLOR
 62
   256
  9
$CELTSCALE
 40
1.0
  9
$DELOBJ
 70
     1
  9
$DISPSILH
 70
     0
  9
$DIMSCALE
 40
1.0
  9
$DIMASZ
 40
3.0
  9
$DIMEXO
 40
3.0
  9
$DIMDLI
 40
7.0
  9
$DIMRND
 40
0.0
  9
$DIMDLE
 40
0.0
  9
$DIMEXE
 40
1.5
  9
$DIMTP
 40
0.0
  9
$DIMTM
 40
0.0
  9
$DIMTXT
 40
3.0
  9
$DIMCEN
 40
150.0
  9
$DIMTSZ
 40
0.0
  9
$DIMTOL
 70
     0
  9
$DIMLIM
 70
     0
  9
$DIMTIH
 70
     0
  9
$DIMTOH
 70
     0
  9
$DIMSE1
 70
     0
  9
$DIMSE2
 70
     0
  9
$DIMTAD
 70
     3
  9
$DIMZIN
 70
     0
  9
$DIMBLK
  1

  9
$DIMASO
 70
     1
  9
$DIMSHO
 70
     1
  9
$DIMPOST
  1

  9
$DIMAPOST
  1

  9
$DIMALT
 70
     0
  9
$DIMALTD
 70
     2
  9
$DIMALTF
 40
25.4
  9
$DIMLFAC
 40
1.0
  9
$DIMTOFL
 70
     1
  9
$DIMTVP
 40
0.0
  9
$DIMTIX
 70
     0
  9
$DIMSOXD
 70
     0
  9
$DIMSAH
 70
     1
  9
$DIMBLK1
  1
OPEN
  9
$DIMBLK2
  1
OPEN
  9
$DIMSTYLE
  2
STANDARD
  9
$DIMCLRD
 70
   256
  9
$DIMCLRE
 70
   256
  9
$DIMCLRT
 70
   256
  9
$DIMTFAC
 40
1.0
  9
$DIMGAP
 40
1.0
  9
$DIMJUST
 70
     0
  9
$DIMSD1
 70
     0
  9
$DIMSD2
 70
     0
  9
$DIMTOLJ
 70
     1
  9
$DIMTZIN
 70
     0
  9
$DIMALTZ
 70
     0
  9
$DIMALTTZ
 70
     0
  9
$DIMFIT
 70
     3
  9
$DIMUPT
 70
     1
  9
$DIMUNIT
 70
     2
  9
$DIMDEC
 70
     0
  9
$DIMTDEC
 70
     0
  9
$DIMALTU
 70
     2
  9
$DIMALTTD
 70
     2
  9
$DIMTXSTY
  7
STANDARD
  9
$DIMAUNIT
 70
     0
  9
$LUNITS
 70
     2
  9
$LUPREC
 70
     4
  9
$SKETCHINC
 40
1.0
  9
$FILLETRAD
 40
0.6
  9
$AUNITS
 70
     0
  9
$AUPREC
 70
     0
  9
$MENU
  1
.
  9
$ELEVATION
 40
0.0
  9
$PELEVATION
 40
0.0
  9
$THICKNESS
 40
0.0
  9
$LIMCHECK
 70
     0
  9
$BLIPMODE
 70
     0
  9
$CHAMFERA
 40
10.0
  9
$CHAMFERB
 40
10.0
  9
$CHAMFERC
 40
20.0
  9
$CHAMFERD
 40
0.0
  9
$SKPOLY
 70
     0
  9
$TDCREATE
 40
2451100.394552546
  9
$TDUPDATE
 40
2454216.594991493
  9
$TDINDWG
 40
0.1295662153
  9
$TDUSRTIMER
 40
0.1295662153
  9
$USRTIMER
 70
     1
  9
$ANGBASE
 50
0.0
  9
$ANGDIR
 70
     0
  9
$PDMODE
 70
     0
  9
$PDSIZE
 40
0.0
  9
$PLINEWID
 40
0.0
  9
$COORDS
 70
     0
  9
$SPLFRAME
 70
     0
  9
$SPLINETYPE
 70
     6
  9
$SPLINESEGS
 70
     8
  9
$ATTDIA
 70
     0
  9
$ATTREQ
 70
     1
  9
$HANDLING
 70
 10241
  9
$HANDSEED
  5
1068
  9
$SURFTAB1
 70
     6
  9
$SURFTAB2
 70
     6
  9
$SURFTYPE
 70
     6
  9
$SURFU
 70
     6
  9
$SURFV
 70
     6
  9
$UCSNAME
  2

  9
$UCSORG
 10
0.0
 20
0.0
 30
0.0
  9
$UCSXDIR
 10
1.0
 20
0.0
 30
0.0
  9
$UCSYDIR
 10
0.0
 20
1.0
 30
0.0
  9
$PUCSNAME
  2

  9
$PUCSORG
 10
0.0
 20
0.0
 30
0.0
  9
$PUCSXDIR
 10
1.0
 20
0.0
 30
0.0
  9
$PUCSYDIR
 10
0.0
 20
1.0
 30
0.0
  9
$USERI1
 70
     0
  9
$USERI2
 70
     0
  9
$USERI3
 70
     0
  9
$USERI4
 70
     0
  9
$USERI5
 70
     0
  9
$USERR1
 40
0.0
  9
$USERR2
 40
0.0
  9
$USERR3
 40
0.0
  9
$USERR4
 40
0.0
  9
$USERR5
 40
0.0
  9
$WORLDVIEW
 70
     1
  9
$SHADEDGE
 70
     3
  9
$SHADEDIF
 70
    70
  9
$TILEMODE
 70
     1
  9
$MAXACTVP
 70
    16
  9
$PINSBASE
 10
0.0
 20
0.0
 30
0.0
  9
$PLIMCHECK
 70
     0
  9
$PEXTMIN
 10
0.0
 20
0.0
 30
0.0
  9
$PEXTMAX
 10
420.0
 20
297.0
 30
0.0
  9
$PLIMMIN
 10
0.0
 20
0.0
  9
$PLIMMAX
 10
420.0
 20
297.0
  9
$UNITMODE
 70
     0
  9
$VISRETAIN
 70
     0
  9
$PLINEGEN
 70
     0
  9
$PSLTSCALE
 70
     1
  9
$TREEDEPTH
 70
  3020
  9
$PICKSTYLE
 70
     1
  9
$CMLSTYLE
  2
STANDARD
  9
$CMLJUST
 70
     0
  9
$CMLSCALE
 40
1.0
  9
$PROXYGRAPHICS
 70
     1
  9
$MEASUREMENT
 70
     1
  0
ENDSEC
  0
SECTION
  2
CLASSES
  0
CLASS
  1
ACDBDICTIONARYWDFLT
  2
AcDbDictionaryWithDefault
  3
AutoCAD 2000
 90
        0
280
     0
281
     0
  0
CLASS
  1
ACDBPLACEHOLDER
  2
AcDbPlaceHolder
  3
AutoCAD 2000
 90
        0
280
     0
281
     0
  0
CLASS
  1
LAYOUT
  2
AcDbLayout
  3
AutoCAD 2000
 90
        0
280
     0
281
     0
  0
CLASS
  1
LONG_TRANSACTION
  2
AcDbLongTransaction
  3
AutoCAD 2000
 90
        0
280
     0
281
     0
  0
CLASS
  1
LWPOLYLINE
  2
AcDbPolyline
  3
AutoCAD 2000
 90
        0
280
     0
281
     1
  0
CLASS
  1
HATCH
  2
AcDbHatch
  3
AutoCAD 2000
 90
        0
280
     0
281
     1
  0
CLASS
  1
XRECORD
  2
AcDbXrecord
  3
AutoCAD 2000
 90
        0
280
     0
281
     0
  0
CLASS
  1
LONG_TRANSACTION
  2
AcDbLongTransaction
  3
AutoCAD 2000
 90
        0
280
     0
281
     0
  0
CLASS
  1
LWPOLYLINE
  2
AcDbPolyline
  3
AutoCAD 2000
 90
        0
280
     0
281
     1
  0
CLASS
  1
HATCH
  2
AcDbHatch
  3
AutoCAD 2000
 90
        0
280
     0
281
     1
  0
CLASS
  1
XRECORD
  2
AcDbXrecord
  3
AutoCAD 2000
 90
        0
280
     0
281
     0
  0
CLASS
  1
LONG_TRANSACTION
  2
AcDbLongTransaction
  3
AutoCAD 2000
 90
        0
280
     0
281
     0
  0
CLASS
  1
LWPOLYLINE
  2
AcDbPolyline
  3
AutoCAD 2000
 90
        0
280
     0
281
     1
  0
CLASS
  1
HATCH
  2
AcDbHatch
  3
AutoCAD 2000
 90
        0
280
     0
281
     1
  0
CLASS
  1
XRECORD
  2
AcDbXrecord
  3
AutoCAD 2000
 90
        0
280
     0
281
     0
  0
CLASS
  1
LONG_TRANSACTION
  2
AcDbLongTransaction
  3
AutoCAD 2000
 90
        0
280
     0
281
     0
  0
CLASS
  1
LWPOLYLINE
  2
AcDbPolyline
  3
AutoCAD 2000
 90
        0
280
     0
281
     1
  0
CLASS
  1
HATCH
  2
AcDbHatch
  3
AutoCAD 2000
 90
        0
280
     0
281
     1
  0
CLASS
  1
XRECORD
  2
AcDbXrecord
  3
AutoCAD 2000
 90
        0
280
     0
281
     0
  0
CLASS
  1
LONG_TRANSACTION
  2
AcDbLongTransaction
  3
AutoCAD 2000
 90
        0
280
     0
281
     0
  0
CLASS
  1
LWPOLYLINE
  2
AcDbPolyline
  3
AutoCAD 2000
 90
        0
280
     0
281
     1
  0
CLASS
  1
HATCH
  2
AcDbHatch
  3
AutoCAD 2000
 90
        0
280
     0
281
     1
  0
CLASS
  1
XRECORD
  2
AcDbXrecord
  3
AutoCAD 2000
 90
        0
280
     0
281
     0
  0
ENDSEC
  0
SECTION
  2
TABLES
  0
TABLE
  2
VPORT
  5
8
330
0
100
AcDbSymbolTable
 70
     5
  0
VPORT
  5
1003
330
8
100
AcDbSymbolTableRecord
100
AcDbViewportTableRecord
  2
*ACTIVE
 70
     0
 10
0.0
 20
0.0
 11
1.0
 21
1.0
 12
203.1086939470375
 22
141.1443149233634
 13
0.0
 23
0.0
 14
5.0
 24
5.0
 15
0.0
 25
0.0
 16
0.0
 26
0.0
 36
1.0
 17
0.0
 27
0.0
 37
0.0
 40
318.2700227859768
 41
1.566326530612244
 42
50.0
 43
0.0
 44
0.0
 50
0.0
 51
0.0
 71
     0
 72
   100
 73
     1
 74
     0
 75
     0
 76
     0
 77
     0
 78
     0
  0
ENDTAB
  0
TABLE
  2
LTYPE
  5
5
330
0
100
AcDbSymbolTable
 70
     4
  0
LTYPE
  5
14
330
5
100
AcDbSymbolTableRecord
100
AcDbLinetypeTableRecord
  2
BYBLOCK
 70
     0
  3

 72
    65
 73
     0
 40
0.0
  0
LTYPE
  5
15
330
5
100
AcDbSymbolTableRecord
100
AcDbLinetypeTableRecord
  2
BYLAYER
 70
     0
  3

 72
    65
 73
     0
 40
0.0
  0
LTYPE
  5
16
330
5
100
AcDbSymbolTableRecord
100
AcDbLinetypeTableRecord
  2
CONTINUOUS
 70
     0
  3
Solid line
 72
    65
 73
     0
 40
0.0
  0
LTYPE
  5
120
330
5
100
AcDbSymbolTableRecord
100
AcDbLinetypeTableRecord
  2
CENTER
 70
     0
  3
____ _ ____ _ ____ _ ____ _ ____ _ ____ _ ____ 
 72
    65
 73
     4
 40
2.0
 49
1.25
 74
     0
 49
-0.25
 74
     0
 49
0.25
 74
     0
 49
-0.25
 74
     0
  0
ENDTAB
  0
TABLE
  2
LAYER
  5
2
330
0
100
AcDbSymbolTable
 70
    10
  0
LAYER
  5
F
330
2
100
AcDbSymbolTableRecord
100
AcDbLayerTableRecord
  2
0
 70
     0
 62
     7
  6
CONTINUOUS
  0
LAYER
  5
62
330
2
100
AcDbSymbolTableRecord
100
AcDbLayerTableRecord
  2
VIEWPORT
 70
     0
 62
     7
  6
CONTINUOUS
  0
LAYER
  5
6B
330
2
100
AcDbSymbolTableRecord
100
AcDbLayerTableRecord
  2
ZUWAKU
 70
     0
 62
     7
  6
CONTINUOUS
  0
LAYER
  5
1F2
330
2
100
AcDbSymbolTableRecord
100
AcDbLayerTableRecord
  2
SEIHIN
 70
     0
 62
     3
  6
CONTINUOUS
  0
LAYER
  5
1F3
330
2
100
AcDbSymbolTableRecord
100
AcDbLayerTableRecord
  2
SUNPOU
 70
     0
 62
     4
  6
CONTINUOUS
  0
LAYER
  5
1F4
330
2
100
AcDbSymbolTableRecord
100
AcDbLayerTableRecord
  2
CENTER_L
 70
     0
 62
     1
  6
CENTER
  0
LAYER
  5
1F5
330
2
100
AcDbSymbolTableRecord
100
AcDbLayerTableRecord
  2
DEFPOINTS
 70
     0
 62
     7
  6
CONTINUOUS
  0
LAYER
  5
A03
330
2
100
AcDbSymbolTableRecord
100
AcDbLayerTableRecord
  2
MOJI
 70
     0
 62
     2
  6
CONTINUOUS
  0
ENDTAB
  0
TABLE
  2
STYLE
  5
3
330
0
100
AcDbSymbolTable
 70
     2
  0
STYLE
  5
10
330
3
100
AcDbSymbolTableRecord
100
AcDbTextStyleTableRecord
  2
STANDARD
 70
     0
 40
0.0
 41
1.0
 50
0.0
 71
     0
 42
2.5
  3
TXT
  4
bigfont.shx
  0
STYLE
  5
A04
330
3
100
AcDbSymbolTableRecord
100
AcDbTextStyleTableRecord
  2
ｽﾀｲﾙ1
 70
     0
 40
0.0
 41
1.0
 50
0.0
 71
     0
 42
2.5
  3
MS PGothic.ttf
  4

1001
ACAD
1000
MS PGothic
1071
    32818
  0
ENDTAB
  0
TABLE
  2
VIEW
  5
6
330
0
100
AcDbSymbolTable
 70
     0
  0
ENDTAB
  0
TABLE
  2
UCS
  5
7
330
0
100
AcDbSymbolTable
 70
     0
  0
ENDTAB
  0
TABLE
  2
APPID
  5
9
330
0
100
AcDbSymbolTable
 70
     1
  0
APPID
  5
11
330
9
100
AcDbSymbolTableRecord
100
AcDbRegAppTableRecord
  2
ACAD
 70
     0
  0
ENDTAB
  0
TABLE
  2
DIMSTYLE
  5
A
330
0
100
AcDbSymbolTable
 70
     1
  0
DIMSTYLE
105
1D
102
{ACAD_REACTORS
330
EC3
330
ED1
330
EF9
330
F06
330
F1C
330
FA4
330
DC3
330
D8A
330
D7F
330
DFC
330
DC8
330
DBD
330
E0B
330
FEC
102
}
330
A
100
AcDbSymbolTableRecord
100
AcDbDimStyleTableRecord
  2
STANDARD
 70
     0
  3

  4

  5

  6

  7

 40
1.0
 41
0.18
 42
0.0625
 43
0.38
 44
0.18
 45
0.0
 46
0.0
 47
0.0
 48
0.0
140
0.18
141
0.09
142
0.0
143
25.4
144
1.0
145
0.0
146
1.0
147
0.09
 71
     0
 72
     0
 73
     1
 74
     1
 75
     0
 76
     0
 77
     0
 78
     0
170
     0
171
     2
172
     0
173
     0
174
     0
175
     0
176
     0
177
     0
178
     0
270
     2
271
     4
272
     4
273
     2
274
     2
340
10
275
     0
280
     0
281
     0
282
     0
283
     1
284
     0
285
     0
286
     0
287
     3
288
     0
  0
ENDTAB
  0
TABLE
  2
BLOCK_RECORD
  5
1
330
0
100
AcDbSymbolTable
 70
    37
  0
BLOCK_RECORD
  5
1A
102
{ACAD_XDICTIONARY
360
651
102
}
330
1
100
AcDbSymbolTableRecord
100
AcDbBlockTableRecord
  2
*MODEL_SPACE
  0
BLOCK_RECORD
  5
17
102
{ACAD_XDICTIONARY
360
64F
102
}
330
1
100
AcDbSymbolTableRecord
100
AcDbBlockTableRecord
  2
*PAPER_SPACE
  0
BLOCK_RECORD
  5
B2
330
1
100
AcDbSymbolTableRecord
100
AcDbBlockTableRecord
  2
_OPEN
  0
BLOCK_RECORD
  5
EC4
330
1
100
AcDbSymbolTableRecord
100
AcDbBlockTableRecord
  2
*D30
  0
BLOCK_RECORD
  5
ED2
330
1
100
AcDbSymbolTableRecord
100
AcDbBlockTableRecord
  2
*D31
  0
BLOCK_RECORD
  5
EFA
330
1
100
AcDbSymbolTableRecord
100
AcDbBlockTableRecord
  2
*D32
  0
BLOCK_RECORD
  5
F07
330
1
100
AcDbSymbolTableRecord
100
AcDbBlockTableRecord
  2
*D33
  0
BLOCK_RECORD
  5
F1D
330
1
100
AcDbSymbolTableRecord
100
AcDbBlockTableRecord
  2
*D34
  0
BLOCK_RECORD
  5
FA5
330
1
100
AcDbSymbolTableRecord
100
AcDbBlockTableRecord
  2
*D35
  0
BLOCK_RECORD
  5
FED
330
1
100
AcDbSymbolTableRecord
100
AcDbBlockTableRecord
  2
*D36
  0
ENDTAB
  0
ENDSEC
  0
SECTION
  2
BLOCKS
  0
BLOCK
  5
1B
330
1A
100
AcDbEntity
  8
0
100
AcDbBlockBegin
  2
*MODEL_SPACE
 70
     0
 10
0.0
 20
0.0
 30
0.0
  3
*MODEL_SPACE
  1

  0
ENDBLK
  5
1C
330
1A
100
AcDbEntity
  8
0
100
AcDbBlockEnd
  0
BLOCK
  5
18
330
17
100
AcDbEntity
 67
     1
  8
0
100
AcDbBlockBegin
  2
*PAPER_SPACE
 70
     0
 10
0.0
 20
0.0
 30
0.0
  3
*PAPER_SPACE
  1

  0
ENDBLK
  5
19
330
17
100
AcDbEntity
 67
     1
  8
0
100
AcDbBlockEnd
  0
BLOCK
  5
B3
330
B2
100
AcDbEntity
  8
0
100
AcDbBlockBegin
  2
_OPEN
 70
     0
 10
0.0
 20
0.0
 30
0.0
  3
_OPEN
  1

  0
LINE
  5
B4
330
B2
100
AcDbEntity
  8
0
  6
BYBLOCK
 62
     0
100
AcDbLine
 10
-1.0
 20
0.1666666666666666
 30
0.0
 11
0.0
 21
0.0
 31
0.0
  0
LINE
  5
B5
330
B2
100
AcDbEntity
  8
0
  6
BYBLOCK
 62
     0
100
AcDbLine
 10
0.0
 20
0.0
 30
0.0
 11
-1.0
 21
-0.1666666666666666
 31
0.0
  0
LINE
  5
B6
330
B2
100
AcDbEntity
  8
0
  6
BYBLOCK
 62
     0
100
AcDbLine
 10
0.0
 20
0.0
 30
0.0
 11
-1.0
 21
0.0
 31
0.0
  0
ENDBLK
  5
B7
330
B2
100
AcDbEntity
  8
0
100
AcDbBlockEnd
  0
BLOCK
  5
ECE
330
EC4
100
AcDbEntity
  8
0
100
AcDbBlockBegin
  2
*D30
 70
     1
 10
0.0
 20
0.0
 30
0.0
  3
*D30
  1

  0
LINE
  5
1027
330
EC4
100
AcDbEntity
  8
SUNPOU
100
AcDbLine
 10
259.4903606909855
 20
102.8855396464575
 30
0.0
 11
259.4903606909855
 21
69.3326581606259
 31
0.0
  0
LINE
  5
1028
330
EC4
100
AcDbEntity
  8
SUNPOU
100
AcDbLine
 10
210.9903606909855
 20
102.3854896464575
 30
0.0
 11
210.9903606909855
 21
69.3326581606259
 31
0.0
  0
LINE
  5
1029
330
EC4
100
AcDbEntity
  8
SUNPOU
100
AcDbLine
 10
256.4903606909855
 20
70.83265816062589
 30
0.0
 11
213.9903606909855
 21
70.83265816062589
 31
0.0
  0
INSERT
  5
102A
330
EC4
100
AcDbEntity
  8
SUNPOU
100
AcDbBlockReference
  2
_OPEN
 10
259.4903606909855
 20
70.83265816062589
 30
0.0
 41
3.0
 42
3.0
 43
3.0
  0
INSERT
  5
102B
330
EC4
100
AcDbEntity
  8
SUNPOU
100
AcDbBlockReference
  2
_OPEN
 10
210.9903606909855
 20
70.83265816062589
 30
0.0
 41
3.0
 42
3.0
 43
3.0
 50
180.0
  0
MTEXT
  5
102C
330
EC4
100
AcDbEntity
  8
SUNPOU
100
AcDbMText
 10
234.1403606909855
 20
73.33265816062589
 30
0.0
 40
3.0
 41
0.0
 71
     5
 72
     1
  1
\A1;49
  0
POINT
  5
102D
330
EC4
100
AcDbEntity
  8
DEFPOINTS
 62
     0
100
AcDbPoint
 10
259.4903606909855
 20
105.8855396464575
 30
0.0
  0
POINT
  5
102E
330
EC4
100
AcDbEntity
  8
DEFPOINTS
 62
     0
100
AcDbPoint
 10
210.9903606909855
 20
105.3854896464575
 30
0.0
  0
POINT
  5
102F
330
EC4
100
AcDbEntity
  8
DEFPOINTS
 62
     0
100
AcDbPoint
 10
210.9903606909855
 20
70.83265816062589
 30
0.0
  0
ENDBLK
  5
ECF
330
EC4
100
AcDbEntity
  8
0
100
AcDbBlockEnd
  0
BLOCK
  5
EDC
330
ED2
100
AcDbEntity
  8
0
100
AcDbBlockBegin
  2
*D31
 70
     1
 10
0.0
 20
0.0
 30
0.0
  3
*D31
  1

  0
LINE
  5
1030
330
ED2
100
AcDbEntity
  8
SUNPOU
100
AcDbLine
 10
259.4903606909855
 20
99.88553964645756
 30
0.0
 11
259.4903606909855
 21
60.31895558657857
 31
0.0
  0
LINE
  5
1031
330
ED2
100
AcDbEntity
  8
SUNPOU
100
AcDbLine
 10
147.1022606909826
 20
110.3855360808333
 30
0.0
 11
147.1022606909826
 21
60.31895558657857
 31
0.0
  0
LINE
  5
1032
330
ED2
100
AcDbEntity
  8
SUNPOU
100
AcDbLine
 10
256.4903606909855
 20
61.81895558657856
 30
0.0
 11
150.1022606909826
 21
61.81895558657856
 31
0.0
  0
INSERT
  5
1033
330
ED2
100
AcDbEntity
  8
SUNPOU
100
AcDbBlockReference
  2
_OPEN
 10
259.4903606909855
 20
61.81895558657856
 30
0.0
 41
3.0
 42
3.0
 43
3.0
  0
INSERT
  5
1034
330
ED2
100
AcDbEntity
  8
SUNPOU
100
AcDbBlockReference
  2
_OPEN
 10
147.1022606909826
 20
61.81895558657856
 30
0.0
 41
3.0
 42
3.0
 43
3.0
 50
180.0
  0
MTEXT
  5
1035
330
ED2
100
AcDbEntity
  8
SUNPOU
100
AcDbMText
 10
203.2963106909841
 20
64.31895558657856
 30
0.0
 40
3.0
 41
0.0
 71
     5
 72
     1
  1
\A1;112
  0
POINT
  5
1036
330
ED2
100
AcDbEntity
  8
DEFPOINTS
 62
     0
100
AcDbPoint
 10
259.4903606909855
 20
102.8855396464575
 30
0.0
  0
POINT
  5
1037
330
ED2
100
AcDbEntity
  8
DEFPOINTS
 62
     0
100
AcDbPoint
 10
147.1022606909826
 20
113.3855360808333
 30
0.0
  0
POINT
  5
1038
330
ED2
100
AcDbEntity
  8
DEFPOINTS
 62
     0
100
AcDbPoint
 10
147.1022606909826
 20
61.81895558657856
 30
0.0
  0
ENDBLK
  5
EDD
330
ED2
100
AcDbEntity
  8
0
100
AcDbBlockEnd
  0
BLOCK
  5
F04
330
EFA
100
AcDbEntity
  8
0
100
AcDbBlockBegin
  2
*D32
 70
     1
 10
0.0
 20
0.0
 30
0.0
  3
*D32
  1

  0
LINE
  5
1039
330
EFA
100
AcDbEntity
  8
SUNPOU
100
AcDbLine
 10
262.4903606909855
 20
120.8855396464575
 30
0.0
 11
282.6341579707582
 21
120.8855396464575
 31
0.0
  0
LINE
  5
103A
330
EFA
100
AcDbEntity
  8
SUNPOU
100
AcDbLine
 10
262.4903606909855
 20
105.8855396464575
 30
0.0
 11
282.6341579707582
 21
105.8855396464575
 31
0.0
  0
LINE
  5
103B
330
EFA
100
AcDbEntity
  8
SUNPOU
100
AcDbLine
 10
281.1341579707582
 20
117.8855396464575
 30
0.0
 11
281.1341579707582
 21
108.8855396464575
 31
0.0
  0
INSERT
  5
103C
330
EFA
100
AcDbEntity
  8
SUNPOU
100
AcDbBlockReference
  2
_OPEN
 10
281.1341579707582
 20
120.8855396464575
 30
0.0
 41
3.0
 42
3.0
 43
3.0
 50
90.0
  0
INSERT
  5
103D
330
EFA
100
AcDbEntity
  8
SUNPOU
100
AcDbBlockReference
  2
_OPEN
 10
281.1341579707582
 20
105.8855396464575
 30
0.0
 41
3.0
 42
3.0
 43
3.0
 50
270.0
  0
MTEXT
  5
103E
330
EFA
100
AcDbEntity
  8
SUNPOU
100
AcDbMText
 10
278.6341579707582
 20
113.5766819590845
 30
0.0
 40
3.0
 41
0.0
 71
     5
 72
     1
  1
\A1;15
 11
0.0000000000000001
 21
1.0
 31
0.0
  0
POINT
  5
103F
330
EFA
100
AcDbEntity
  8
DEFPOINTS
 62
     0
100
AcDbPoint
 10
259.4903606909855
 20
120.8855396464575
 30
0.0
  0
POINT
  5
1040
330
EFA
100
AcDbEntity
  8
DEFPOINTS
 62
     0
100
AcDbPoint
 10
259.4903606909855
 20
105.8855396464575
 30
0.0
  0
POINT
  5
1041
330
EFA
100
AcDbEntity
  8
DEFPOINTS
 62
     0
100
AcDbPoint
 10
281.1341579707582
 20
105.8855396464575
 30
0.0
  0
ENDBLK
  5
F05
330
EFA
100
AcDbEntity
  8
0
100
AcDbBlockEnd
  0
BLOCK
  5
F11
330
F07
100
AcDbEntity
  8
0
100
AcDbBlockBegin
  2
*D33
 70
     1
 10
0.0
 20
0.0
 30
0.0
  3
*D33
  1

  0
LINE
  5
1042
330
F07
100
AcDbEntity
  8
SUNPOU
100
AcDbLine
 10
295.3640966180326
 20
215.8098313140897
 30
0.0
 11
312.9034678414825
 21
215.8098313140897
 31
0.0
  0
LINE
  5
1043
330
F07
100
AcDbEntity
  8
SUNPOU
100
AcDbLine
 10
297.8157875102922
 20
208.3097088269932
 30
0.0
 11
312.9034678414825
 21
208.3097088269932
 31
0.0
  0
LINE
  5
1044
330
F07
100
AcDbEntity
  8
SUNPOU
100
AcDbLine
 10
311.4034678414824
 20
218.8098313140897
 30
0.0
 11
311.4034678414824
 21
221.8098313140897
 31
0.0
  0
LINE
  5
1045
330
F07
100
AcDbEntity
  8
SUNPOU
100
AcDbLine
 10
311.4034678414824
 20
205.3097088269932
 30
0.0
 11
311.4034678414824
 21
202.3097088269932
 31
0.0
  0
LINE
  5
1046
330
F07
100
AcDbEntity
  8
SUNPOU
100
AcDbLine
 10
311.4034678414824
 20
215.8098313140897
 30
0.0
 11
311.4034678414824
 21
208.3097088269932
 31
0.0
  0
INSERT
  5
1047
330
F07
100
AcDbEntity
  8
SUNPOU
100
AcDbBlockReference
  2
_OPEN
 10
311.4034678414824
 20
215.8098313140897
 30
0.0
 41
3.0
 42
3.0
 43
3.0
 50
270.0
  0
INSERT
  5
1048
330
F07
100
AcDbEntity
  8
SUNPOU
100
AcDbBlockReference
  2
_OPEN
 10
311.4034678414824
 20
208.3097088269932
 30
0.0
 41
3.0
 42
3.0
 43
3.0
 50
90.0
  0
MTEXT
  5
1049
330
F07
100
AcDbEntity
  8
SUNPOU
100
AcDbMText
 10
308.9034678414824
 20
212.0597700705415
 30
0.0
 40
3.0
 41
0.0
 71
     5
 72
     1
  1
\A1;8
 11
0.0000000000000001
 21
1.0
 31
0.0
  0
POINT
  5
104A
330
F07
100
AcDbEntity
  8
DEFPOINTS
 62
     0
100
AcDbPoint
 10
292.3640966180325
 20
215.8098313140897
 30
0.0
  0
POINT
  5
104B
330
F07
100
AcDbEntity
  8
DEFPOINTS
 62
     0
100
AcDbPoint
 10
294.8157875102922
 20
208.3097088269932
 30
0.0
  0
POINT
  5
104C
330
F07
100
AcDbEntity
  8
DEFPOINTS
 62
     0
100
AcDbPoint
 10
311.4034678414824
 20
208.3097088269932
 30
0.0
  0
ENDBLK
  5
F12
330
F07
100
AcDbEntity
  8
0
100
AcDbBlockEnd
  0
BLOCK
  5
F27
330
F1D
100
AcDbEntity
  8
0
100
AcDbBlockBegin
  2
*D34
 70
     1
 10
0.0
 20
0.0
 30
0.0
  3
*D34
  1

  0
LINE
  5
104D
330
F1D
100
AcDbEntity
  8
SUNPOU
100
AcDbLine
 10
160.0354606909855
 20
193.3099746478846
 30
0.0
 11
130.2190300134885
 21
193.3099746478846
 31
0.0
  0
LINE
  5
104E
330
F1D
100
AcDbEntity
  8
SUNPOU
100
AcDbLine
 10
160.0362606909855
 20
180.3099746478847
 30
0.0
 11
130.2190300134884
 21
180.3099746478847
 31
0.0
  0
LINE
  5
104F
330
F1D
100
AcDbEntity
  8
SUNPOU
100
AcDbLine
 10
131.7190300134885
 20
190.3099746478846
 30
0.0
 11
131.7190300134885
 21
183.3099746478847
 31
0.0
  0
INSERT
  5
1050
330
F1D
100
AcDbEntity
  8
SUNPOU
100
AcDbBlockReference
  2
_OPEN
 10
131.7190300134885
 20
193.3099746478846
 30
0.0
 41
3.0
 42
3.0
 43
3.0
 50
90.0
  0
INSERT
  5
1051
330
F1D
100
AcDbEntity
  8
SUNPOU
100
AcDbBlockReference
  2
_OPEN
 10
131.7190300134885
 20
180.3099746478847
 30
0.0
 41
3.0
 42
3.0
 43
3.0
 50
270.0
  0
MTEXT
  5
1052
330
F1D
100
AcDbEntity
  8
SUNPOU
100
AcDbMText
 10
129.2190300134884
 20
186.3963743410752
 30
0.0
 40
3.0
 41
0.0
 71
     5
 72
     1
  1
\A1;13
 11
0.0000000000000001
 21
1.0
 31
0.0
  0
POINT
  5
1053
330
F1D
100
AcDbEntity
  8
DEFPOINTS
 62
     0
100
AcDbPoint
 10
163.0354606909855
 20
193.3099746478846
 30
0.0
  0
POINT
  5
1054
330
F1D
100
AcDbEntity
  8
DEFPOINTS
 62
     0
100
AcDbPoint
 10
163.0362606909855
 20
180.3099746478847
 30
0.0
  0
POINT
  5
1055
330
F1D
100
AcDbEntity
  8
DEFPOINTS
 62
     0
100
AcDbPoint
 10
131.7190300134885
 20
180.3099746478847
 30
0.0
  0
ENDBLK
  5
F28
330
F1D
100
AcDbEntity
  8
0
100
AcDbBlockEnd
  0
BLOCK
  5
FAF
330
FA5
100
AcDbEntity
  8
0
100
AcDbBlockBegin
  2
*D35
 70
     1
 10
0.0
 20
0.0
 30
0.0
  3
*D35
  1

  0
LINE
  5
1056
330
FA5
100
AcDbEntity
  8
SUNPOU
100
AcDbLine
 10
256.4904606909855
 20
215.8098313140897
 30
0.0
 11
247.4666688009449
 21
215.8098313140897
 31
0.0
  0
LINE
  5
1057
330
FA5
100
AcDbEntity
  8
SUNPOU
100
AcDbLine
 10
254.4904567515455
 20
194.1098352534953
 30
0.0
 11
247.4666688009449
 21
194.1098352534953
 31
0.0
  0
LINE
  5
1058
330
FA5
100
AcDbEntity
  8
SUNPOU
100
AcDbLine
 10
248.9666688009449
 20
212.8098313140897
 30
0.0
 11
248.9666688009449
 21
197.1098352534953
 31
0.0
  0
INSERT
  5
1059
330
FA5
100
AcDbEntity
  8
SUNPOU
100
AcDbBlockReference
  2
_OPEN
 10
248.9666688009449
 20
215.8098313140897
 30
0.0
 41
3.0
 42
3.0
 43
3.0
 50
90.0
  0
INSERT
  5
105A
330
FA5
100
AcDbEntity
  8
SUNPOU
100
AcDbBlockReference
  2
_OPEN
 10
248.9666688009449
 20
194.1098352534953
 30
0.0
 41
3.0
 42
3.0
 43
3.0
 50
270.0
  0
MTEXT
  5
105B
330
FA5
100
AcDbEntity
  8
SUNPOU
100
AcDbMText
 10
246.4666688009448
 20
207.2050447588601
 30
0.0
 40
3.0
 41
0.0
 71
     5
 72
     1
  1
\A1;21.7
 11
0.0000000000000001
 21
1.0
 31
0.0
  0
POINT
  5
105C
330
FA5
100
AcDbEntity
  8
DEFPOINTS
 62
     0
100
AcDbPoint
 10
259.4904606909855
 20
215.8098313140897
 30
0.0
  0
POINT
  5
105D
330
FA5
100
AcDbEntity
  8
DEFPOINTS
 62
     0
100
AcDbPoint
 10
257.4904567515456
 20
194.1098352534953
 30
0.0
  0
POINT
  5
105E
330
FA5
100
AcDbEntity
  8
DEFPOINTS
 62
     0
100
AcDbPoint
 10
248.9666688009449
 20
194.1098352534953
 30
0.0
  0
ENDBLK
  5
FB0
330
FA5
100
AcDbEntity
  8
0
100
AcDbBlockEnd
  0
BLOCK
  5
FF7
330
FED
100
AcDbEntity
  8
0
100
AcDbBlockBegin
  2
*D36
 70
     1
 10
0.0
 20
0.0
 30
0.0
  3
*D36
  1

  0
LINE
  5
105F
330
FED
100
AcDbEntity
  8
SUNPOU
100
AcDbLine
 10
308.3596276758874
 20
208.3097088269932
 30
0.0
 11
312.9034678414825
 21
208.3097088269932
 31
0.0
  0
LINE
  5
1060
330
FED
100
AcDbEntity
  8
SUNPOU
100
AcDbLine
 10
297.8157875102922
 20
186.8098746478849
 30
0.0
 11
312.9034678414825
 21
186.8098746478849
 31
0.0
  0
LINE
  5
1061
330
FED
100
AcDbEntity
  8
SUNPOU
100
AcDbLine
 10
311.4034678414826
 20
205.3097088269932
 30
0.0
 11
311.4034678414826
 21
189.8098746478849
 31
0.0
  0
INSERT
  5
1062
330
FED
100
AcDbEntity
  8
SUNPOU
100
AcDbBlockReference
  2
_OPEN
 10
311.4034678414826
 20
208.3097088269932
 30
0.0
 41
3.0
 42
3.0
 43
3.0
 50
90.0
  0
INSERT
  5
1063
330
FED
100
AcDbEntity
  8
SUNPOU
100
AcDbBlockReference
  2
_OPEN
 10
311.4034678414826
 20
186.8098746478849
 30
0.0
 41
3.0
 42
3.0
 43
3.0
 50
270.0
  0
MTEXT
  5
1064
330
FED
100
AcDbEntity
  8
SUNPOU
100
AcDbMText
 10
308.9034678414825
 20
197.559791737439
 30
0.0
 40
3.0
 41
0.0
 71
     5
 72
     1
  1
\A1;21
 11
0.0000000000000001
 21
1.0
 31
0.0
  0
POINT
  5
1065
330
FED
100
AcDbEntity
  8
DEFPOINTS
 62
     0
100
AcDbPoint
 10
305.3596276758874
 20
208.3097088269932
 30
0.0
  0
POINT
  5
1066
330
FED
100
AcDbEntity
  8
DEFPOINTS
 62
     0
100
AcDbPoint
 10
294.8157875102922
 20
186.8098746478849
 30
0.0
  0
POINT
  5
1067
330
FED
100
AcDbEntity
  8
DEFPOINTS
 62
     0
100
AcDbPoint
 10
311.4034678414826
 20
186.8098746478849
 30
0.0
  0
ENDBLK
  5
FF8
330
FED
100
AcDbEntity
  8
0
100
AcDbBlockEnd
  0
ENDSEC
  0
SECTION
  2
ENTITIES
  0
LWPOLYLINE
  5
ABF
330
1A
100
AcDbEntity
  8
ZUWAKU
100
AcDbPolyline
 90
        4
 70
     1
 43
0.0
 10
0.3999995171010369
 20
275.3999999613564
 10
0.3999995171010369
 20
0.3999999613564
 10
398.399999517101
 20
0.3999999613564
 10
398.399999517101
 20
275.3999999613564
  0
LWPOLYLINE
  5
AC0
330
1A
100
AcDbEntity
  8
ZUWAKU
100
AcDbPolyline
 90
        4
 70
     1
 43
0.0
 10
0.1999995171010482
 20
275.5999999613564
 10
0.1999995171010482
 20
0.1999999613564114
 10
398.5999995171011
 20
0.1999999613563998
 10
398.5999995171011
 20
275.5999999613564
  0
LWPOLYLINE
  5
AC1
330
1A
100
AcDbEntity
  8
ZUWAKU
100
AcDbPolyline
 90
        4
 70
     1
 43
0.0
 10
-0.0000004828989404
 20
275.7999999613563
 10
-0.0000004828989404
 20
-0.0000000386436341
 10
398.7999995171011
 20
-0.0000000386436003
 10
398.7999995171011
 20
275.7999999613564
  0
LWPOLYLINE
  5
AC2
330
1A
100
AcDbEntity
  8
ZUWAKU
100
AcDbPolyline
 90
        4
 70
     1
 43
0.0
 10
0.2999995171010141
 20
275.4999999613564
 10
0.2999995171010141
 20
0.2999999613563773
 10
398.4999995171012
 20
0.2999999613564004
 10
398.499999517101
 20
275.4999999613564
  0
LWPOLYLINE
  5
AC3
330
1A
100
AcDbEntity
  8
ZUWAKU
100
AcDbPolyline
 90
        4
 70
     1
 43
0.0
 10
0.0999995171010255
 20
275.6999999613564
 10
0.0999995171010255
 20
0.0999999613563887
 10
398.6999995171009
 20
0.0999999613564002
 10
398.6999995171011
 20
275.6999999613564
  0
LINE
  5
AC4
330
1A
100
AcDbEntity
  8
ZUWAKU
100
AcDbLine
 10
-0.0000004828989404
 20
14.99999996135636
 30
0.0
 11
398.6999995171009
 21
14.99999996135636
 31
0.0
  0
LINE
  5
AC5
330
1A
100
AcDbEntity
  8
ZUWAKU
100
AcDbLine
 10
-0.0000004828989404
 20
15.09999996135636
 30
0.0
 11
398.6999995171009
 21
15.09999996135636
 31
0.0
  0
LINE
  5
AC6
330
1A
100
AcDbEntity
  8
ZUWAKU
100
AcDbLine
 10
-0.0000004828989404
 20
15.19999996135636
 30
0.0
 11
398.6999995171009
 21
15.19999996135636
 31
0.0
  0
LINE
  5
AC7
330
1A
100
AcDbEntity
  8
ZUWAKU
100
AcDbLine
 10
-0.0000004828989404
 20
15.29999996135637
 30
0.0
 11
398.6999995171009
 21
15.29999996135637
 31
0.0
  0
LINE
  5
AC8
330
1A
100
AcDbEntity
  8
ZUWAKU
100
AcDbLine
 10
-0.0000004828989404
 20
15.39999996135637
 30
0.0
 11
398.6999995171009
 21
15.39999996135637
 31
0.0
  0
LINE
  5
AC9
330
1A
100
AcDbEntity
  8
ZUWAKU
100
AcDbLine
 10
104.323300162135
 20
7.699999961356382
 30
0.0
 11
223.7121815025967
 21
7.699999961356382
 31
0.0
  0
LINE
  5
ACA
330
1A
100
AcDbEntity
  8
ZUWAKU
100
AcDbLine
 10
104.323300162135
 20
7.799999961356382
 30
0.0
 11
223.7121815025967
 21
7.799999961356386
 31
0.0
  0
LINE
  5
ACB
330
1A
100
AcDbEntity
  8
ZUWAKU
100
AcDbLine
 10
104.323300162135
 20
7.599999961356385
 30
0.0
 11
223.7121815025967
 21
7.599999961356381
 31
0.0
  0
TEXT
  5
ACC
330
1A
100
AcDbEntity
  8
MOJI
100
AcDbText
 10
46.47889431118563
 20
6.370589026493746
 30
0.0
 40
3.0
  1
たてとい 丸トップＵＴ６０
 41
0.9
  7
ｽﾀｲﾙ1
100
AcDbText
  0
CIRCLE
  5
ACD
330
1A
100
AcDbEntity
  8
ZUWAKU
100
AcDbCircle
 10
12.99610559449161
 20
7.599999961356367
 30
0.0
 40
0.875
  0
LINE
  5
ACE
330
1A
100
AcDbEntity
  8
ZUWAKU
100
AcDbLine
 10
13.43360559449161
 20
3.574999961356368
 30
0.0
 11
12.47110559449163
 21
3.574999961356368
 31
0.0
  0
LINE
  5
ACF
330
1A
100
AcDbEntity
  8
ZUWAKU
100
AcDbLine
 10
12.47110559449163
 20
4.974999961356367
 30
0.0
 11
13.43360559449161
 21
4.974999961356367
 31
0.0
  0
LINE
  5
AD0
330
1A
100
AcDbEntity
  8
ZUWAKU
100
AcDbLine
 10
13.43360559449161
 20
10.22499996135636
 30
0.0
 11
12.47110559449163
 21
10.22499996135636
 31
0.0
  0
LINE
  5
AD1
330
1A
100
AcDbEntity
  8
ZUWAKU
100
AcDbLine
 10
12.47110559449163
 20
11.62499996135634
 30
0.0
 11
13.43360559449161
 21
11.62499996135637
 31
0.0
  0
HATCH
  5
AD2
330
1A
100
AcDbEntity
  8
ZUWAKU
100
AcDbHatch
 10
0.0
 20
0.0
 30
0.0
210
0.0
220
0.0
230
1.0
  2
ANSI37
 70
     0
 71
     0
 91
        8
 92
        7
 72
     1
 73
     1
 93
       24
 10
7.251130847660988
 20
8.822424201848157
 42
-0.1989123673796348
 10
7.046105594491621
 20
9.317398948678683
 42
0.0
 10
7.046105594491621
 20
9.962499961356371
 42
-0.4142135623730912
 10
7.308605594491609
 20
10.22499996135636
 42
0.0
 10
8.796105594491564
 20
10.22499996135636
 42
0.4142135623731546
 10
9.058605594491609
 20
10.48749996135636
 42
0.0
 10
9.058605594491609
 20
11.36249996135637
 42
0.4142135623731586
 10
8.796105594491564
 20
11.62499996135637
 42
0.0
 10
7.046105594491621
 20
11.62499996135637
 42
0.4142135623730928
 10
5.646105594491643
 20
10.22499996135638
 42
0.0
 10
5.646105594491643
 20
9.317398948678746
 42
0.1989123673796619
 10
6.261181353999859
 20
7.832474708186943
 42
0.0
 10
7.716080341322197
 20
6.377575720864614
 42
-0.1989123673796613
 10
7.921105594491621
 20
5.882600974034021
 42
0.0
 10
7.921105594491621
 20
5.237499961356363
 42
-0.4142135623730911
 10
7.658605594491632
 20
4.974999961356367
 42
0.0
 10
6.171105594491677
 20
4.974999961356367
 42
0.4142135623731526
 10
5.908605594491632
 20
4.712499961356373
 42
0.0
 10
5.908605594491632
 20
3.837499961356362
 42
0.4142135623731526
 10
6.171105594491677
 20
3.574999961356368
 42
0.0
 10
7.921105594491621
 20
3.574999961356368
 42
0.4142135623731044
 10
9.321105594491655
 20
4.974999961356356
 42
0.0
 10
9.321105594491655
 20
5.882600974033993
 42
0.1989123673796604
 10
8.706029834983382
 20
7.367525214525763
 42
0.0
 97
        0
 92
        7
 72
     1
 73
     1
 93
       16
 10
11.77110559449164
 20
9.524999961356371
 42
-0.4142135623730935
 10
12.47110559449163
 20
10.22499996135636
 42
0.0
 10
13.43360559449161
 20
10.22499996135636
 42
0.4142135623731546
 10
13.69610559449165
 20
10.48749996135636
 42
0.0
 10
13.69610559449165
 20
11.36249996135637
 42
0.4142135623730951
 10
13.43360559449166
 20
11.62499996135637
 42
0.0
 10
12.47110559449157
 20
11.62499996135634
 42
0.4142135623730892
 10
10.3711055944916
 20
9.524999961356336
 42
0.0
 10
10.3711055944916
 20
5.67499996135638
 42
0.4142135623730969
 10
12.47110559449163
 20
3.574999961356368
 42
0.0
 10
13.43360559449161
 20
3.574999961356368
 42
0.4142135623731526
 10
13.69610559449165
 20
3.837499961356362
 42
0.0
 10
13.69610559449165
 20
4.712499961356373
 42
0.4142135623730891
 10
13.43360559449166
 20
4.974999961356367
 42
0.0
 10
12.47110559449163
 20
4.974999961356367
 42
-0.4142135623730928
 10
11.77110559449164
 20
5.674999961356361
 42
0.0
 97
        0
 92
        7
 72
     1
 73
     1
 93
        2
 10
12.12110559449161
 20
7.599999961356367
 42
1.0
 10
13.87110559449161
 20
7.599999961356367
 42
1.0
 97
        0
 92
        7
 72
     1
 73
     1
 93
       26
 10
18.65742883558061
 20
9.602523558138081
 42
0.0
 10
19.18824865214952
 20
11.28345297727287
 42
0.5069206636600134
 10
18.93793320255184
 20
11.62499996135637
 42
0.0
 10
18.08848851274723
 20
11.62499996135637
 42
0.3272098845218764
 10
17.83817306314955
 20
11.44154694543985
 42
0.0
 10
16.90403812583366
 20
8.483452977272907
 42
-0.3272098845219541
 10
16.65372267623593
 20
8.299999961356366
 42
0.0
 10
16.5836055944917
 20
8.299999961356366
 42
-0.4142135623731526
 10
16.32110559449165
 20
8.56249996135636
 42
0.0
 10
16.32110559449165
 20
11.36249996135637
 42
0.4142135623730951
 10
16.05860559449166
 20
11.62499996135637
 42
0.0
 10
15.18360559449161
 20
11.62499996135637
 42
0.4142135623730871
 10
14.92110559449162
 20
11.36249996135637
 42
0.0
 10
14.92110559449162
 20
3.837499961356362
 42
0.4142135623730891
 10
15.18360559449161
 20
3.574999961356368
 42
0.0
 10
16.05860559449161
 20
3.574999961356368
 42
0.4142135623731526
 10
16.32110559449165
 20
3.837499961356362
 42
0.0
 10
16.32110559449165
 20
6.637499961356374
 42
-0.4142135623731526
 10
16.5836055944917
 20
6.899999961356368
 42
0.0
 10
16.65372267623598
 20
6.899999961356368
 42
-0.3272098845218915
 10
16.90403812583366
 20
6.71654694543983
 42
0.0
 10
17.83817306314955
 20
3.758452977272904
 42
0.3272098845218902
 10
18.08848851274723
 20
3.574999961356368
 42
0.0
 10
18.93793320255184
 20
3.574999961356368
 42
0.5069206636600335
 10
19.18824865214952
 20
3.916546945439872
 42
0.0
 10
18.02505296291269
 20
7.599999961356436
 42
0.0
 97
        0
 92
        7
 72
     1
 73
     1
 93
        8
 10
21.74610559449161
 20
11.36249996135637
 42
0.4142135623731546
 10
21.48360559449156
 20
11.62499996135637
 42
0.0
 10
20.60860559449167
 20
11.62499996135637
 42
0.4142135623731507
 10
20.34610559449163
 20
11.36249996135637
 42
0.0
 10
20.34610559449163
 20
3.837499961356362
 42
0.4142135623731526
 10
20.60860559449167
 20
3.574999961356368
 42
0.0
 10
21.48360559449156
 20
3.574999961356368
 42
0.4142135623731526
 10
21.74610559449161
 20
3.837499961356362
 42
0.0
 97
        0
 92
        7
 72
     1
 73
     1
 93
       24
 10
24.19610559449165
 20
9.962499961356371
 42
-0.4142135623731546
 10
24.4586055944917
 20
10.22499996135636
 42
0.0
 10
25.94610559449165
 20
10.22499996135636
 42
0.4142135623730911
 10
26.20860559449164
 20
10.48749996135636
 42
0.0
 10
26.20860559449164
 20
11.36249996135637
 42
0.4142135623730952
 10
25.94610559449165
 20
11.62499996135637
 42
0.0
 10
24.19610559449165
 20
11.62499996135637
 42
0.4142135623731048
 10
22.79610559449162
 20
10.22499996135638
 42
0.0
 10
22.79610559449162
 20
9.317398948678746
 42
0.1989123673796613
 10
23.41118135399989
 20
7.832474708186971
 42
0.0
 10
24.86608034132223
 20
6.377575720864637
 42
-0.1989123673796402
 10
25.07110559449165
 20
5.882600974034101
 42
0.0
 10
25.07110559449165
 20
5.237499961356363
 42
-0.4142135623730911
 10
24.80860559449166
 20
4.974999961356367
 42
0.0
 10
23.32110559449165
 20
4.974999961356367
 42
0.4142135623731526
 10
23.05860559449161
 20
4.712499961356373
 42
0.0
 10
23.05860559449161
 20
3.837499961356362
 42
0.4142135623730891
 10
23.3211055944916
 20
3.574999961356368
 42
0.0
 10
25.07110559449165
 20
3.574999961356368
 42
0.4142135623730925
 10
26.47110559449163
 20
4.974999961356356
 42
0.0
 10
26.47110559449163
 20
5.882600974033993
 42
0.1989123673796675
 10
25.85602983498336
 20
7.367525214525819
 42
0.0
 10
24.40113084766108
 20
8.822424201848077
 42
-0.1989123673796652
 10
24.19610559449165
 20
9.317398948678661
 42
0.0
 97
        0
 92
        7
 72
     1
 73
     1
 93
       16
 10
28.92110559449162
 20
11.36249996135636
 42
0.414213562373103
 10
28.65860559449163
 20
11.62499996135637
 42
0.0
 10
27.78360559449163
 20
11.62499996135637
 42
0.4142135623730871
 10
27.52110559449164
 20
11.36249996135637
 42
0.0
 10
27.52110559449164
 20
4.974999961356356
 42
0.4142135623730926
 10
28.92110559449162
 20
3.574999961356368
 42
0.0
 10
30.67110559449162
 20
3.574999961356368
 42
0.4142135623731044
 10
32.07110559449165
 20
4.974999961356356
 42
0.0
 10
32.07110559449165
 20
11.36249996135637
 42
0.4142135623730951
 10
31.80860559449167
 20
11.62499996135637
 42
0.0
 10
30.93360559449161
 20
11.62499996135637
 42
0.4142135623730871
 10
30.67110559449162
 20
11.36249996135637
 42
0.0
 10
30.67110559449162
 20
5.499999961356355
 42
-0.414213562373088
 10
30.14610559449164
 20
4.974999961356367
 42
0.0
 10
29.44610559449165
 20
4.974999961356367
 42
-0.4142135623731197
 10
28.92110559449162
 20
5.499999961356355
 42
0.0
 97
        0
 92
        7
 72
     1
 73
     1
 93
        8
 10
34.52110559449164
 20
11.36249996135637
 42
0.4142135623730871
 10
34.25860559449165
 20
11.62499996135637
 42
0.0
 10
33.38360559449165
 20
11.62499996135637
 42
0.4142135623731507
 10
33.12110559449161
 20
11.36249996135637
 42
0.0
 10
33.12110559449161
 20
3.837499961356362
 42
0.4142135623730891
 10
33.3836055944916
 20
3.574999961356368
 42
0.0
 10
34.25860559449165
 20
3.574999961356368
 42
0.4142135623730891
 10
34.52110559449164
 20
3.837499961356362
 42
0.0
 97
        0
 75
     0
 76
     1
 52
0.0
 41
0.1
 77
     0
 78
     2
 53
45.0
 43
-450.4711526502384
 44
-6.600000038643599
 45
-0.2245064030267288
 46
0.2245064030267288
 79
     0
 53
135.0
 43
-450.4711526502384
 44
-6.600000038643599
 45
-0.2245064030267288
 46
-0.2245064030267288
 79
     0
 47
0.057451373970553
 98
        8
 10
8.039926998612713
 20
7.583586784299143
 10
11.20225702032064
 20
9.422031052581871
 10
12.58218345993088
 20
7.755940784391725
 10
15.45702950791962
 20
8.100648784577117
 10
20.91923552657942
 20
8.330454918347925
 10
23.44909996466583
 20
9.709288119559971
 10
28.27884250330123
 20
9.364578918903873
 10
33.91353932691242
 20
9.594385052674681
  0
ARC
  5
AD3
330
1A
100
AcDbEntity
  8
ZUWAKU
100
AcDbCircle
 10
7.746105594491609
 20
9.317398948678718
 30
0.0
 40
2.099999999999999
100
AcDbArc
 50
180.0
 51
225.0
  0
LINE
  5
AD4
330
1A
100
AcDbEntity
  8
ZUWAKU
100
AcDbLine
 10
10.3711055944916
 20
5.67499996135637
 30
0.0
 11
10.3711055944916
 21
9.524999961356346
 31
0.0
  0
LINE
  5
AD5
330
1A
100
AcDbEntity
  8
ZUWAKU
100
AcDbLine
 10
11.77110559449164
 20
9.524999961356368
 30
0.0
 11
11.77110559449164
 21
5.67499996135637
 31
0.0
  0
ARC
  5
AD6
330
1A
100
AcDbEntity
  8
ZUWAKU
100
AcDbCircle
 10
7.746105594491609
 20
9.317398948678718
 30
0.0
 40
0.7
100
AcDbArc
 50
180.0000000000016
 51
224.9999999999988
  0
ARC
  5
AD7
330
1A
100
AcDbEntity
  8
ZUWAKU
100
AcDbCircle
 10
12.47110559449163
 20
5.67499996135637
 30
0.0
 40
2.099999999999999
100
AcDbArc
 50
180.0
 51
270.0
  0
ARC
  5
AD8
330
1A
100
AcDbEntity
  8
ZUWAKU
100
AcDbCircle
 10
7.921105594491621
 20
4.974999961356367
 30
0.0
 40
1.399999999999999
100
AcDbArc
 50
270.0
 51
0.0
  0
ARC
  5
AD9
330
1A
100
AcDbEntity
  8
ZUWAKU
100
AcDbCircle
 10
7.221105594491632
 20
5.882600974034019
 30
0.0
 40
2.099999999999999
100
AcDbArc
 50
0.0
 51
45.0
  0
LINE
  5
ADA
330
1A
100
AcDbEntity
  8
ZUWAKU
100
AcDbLine
 10
6.261181353999859
 20
7.832474708186957
 30
0.0
 11
7.716080341322197
 21
6.377575720864626
 31
0.0
  0
LINE
  5
ADB
330
1A
100
AcDbEntity
  8
ZUWAKU
100
AcDbLine
 10
6.171105594491621
 20
4.974999961356367
 30
0.0
 11
7.658605594491632
 21
4.974999961356367
 31
0.0
  0
LINE
  5
ADC
330
1A
100
AcDbEntity
  8
ZUWAKU
100
AcDbLine
 10
6.171105594491621
 20
3.574999961356368
 30
0.0
 11
7.921105594491621
 21
3.574999961356368
 31
0.0
  0
ARC
  5
ADD
330
1A
100
AcDbEntity
  8
ZUWAKU
100
AcDbCircle
 10
6.171105594491621
 20
4.712499961356368
 30
0.0
 40
0.2625
100
AcDbArc
 50
90.0
 51
180.0
  0
ARC
  5
ADE
330
1A
100
AcDbEntity
  8
ZUWAKU
100
AcDbCircle
 10
6.171105594491621
 20
3.837499961356368
 30
0.0
 40
0.2625
100
AcDbArc
 50
180.0
 51
270.0
  0
LINE
  5
ADF
330
1A
100
AcDbEntity
  8
ZUWAKU
100
AcDbLine
 10
5.908605594491632
 20
3.837499961356368
 30
0.0
 11
5.908605594491632
 21
4.712499961356368
 31
0.0
  0
ARC
  5
AE0
330
1A
100
AcDbEntity
  8
ZUWAKU
100
AcDbCircle
 10
7.221105594491632
 20
5.882600974034041
 30
0.0
 40
0.7
100
AcDbArc
 50
0.0
 51
45.0
  0
ARC
  5
AE1
330
1A
100
AcDbEntity
  8
ZUWAKU
100
AcDbCircle
 10
7.658605594491632
 20
5.23749996135637
 30
0.0
 40
0.2625
100
AcDbArc
 50
270.0
 51
0.0
  0
LINE
  5
AE2
330
1A
100
AcDbEntity
  8
ZUWAKU
100
AcDbLine
 10
7.921105594491621
 20
5.23749996135637
 30
0.0
 11
7.921105594491621
 21
5.882600974034041
 31
0.0
  0
LINE
  5
AE3
330
1A
100
AcDbEntity
  8
ZUWAKU
100
AcDbLine
 10
8.706029834983382
 20
7.36752521452578
 30
0.0
 11
7.251130847661045
 21
8.822424201848118
 31
0.0
  0
ARC
  5
AE4
330
1A
100
AcDbEntity
  8
ZUWAKU
100
AcDbCircle
 10
12.47110559449163
 20
5.67499996135637
 30
0.0
 40
0.7
100
AcDbArc
 50
180.0
 51
270.0
  0
LINE
  5
AE5
330
1A
100
AcDbEntity
  8
ZUWAKU
100
AcDbLine
 10
9.321105594491655
 20
4.974999961356367
 30
0.0
 11
9.321105594491655
 21
5.882600974034041
 31
0.0
  0
ARC
  5
AE6
330
1A
100
AcDbEntity
  8
ZUWAKU
100
AcDbCircle
 10
8.796105594491621
 20
10.48749996135636
 30
0.0
 40
0.2625
100
AcDbArc
 50
270.0
 51
0.0
  0
ARC
  5
AE7
330
1A
100
AcDbEntity
  8
ZUWAKU
100
AcDbCircle
 10
8.796105594491621
 20
11.36249996135636
 30
0.0
 40
0.2625
100
AcDbArc
 50
0.0
 51
90.0
  0
ARC
  5
AE8
330
1A
100
AcDbEntity
  8
ZUWAKU
100
AcDbCircle
 10
7.046105594491621
 20
10.22499996135636
 30
0.0
 40
1.399999999999999
100
AcDbArc
 50
90.0
 51
180.0
  0
LINE
  5
AE9
330
1A
100
AcDbEntity
  8
ZUWAKU
100
AcDbLine
 10
5.646105594491643
 20
10.22499996135636
 30
0.0
 11
5.646105594491643
 21
9.317398948678697
 31
0.0
  0
LINE
  5
AEA
330
1A
100
AcDbEntity
  8
ZUWAKU
100
AcDbLine
 10
8.796105594491621
 20
10.22499996135636
 30
0.0
 11
7.308605594491609
 21
10.22499996135636
 31
0.0
  0
LINE
  5
AEB
330
1A
100
AcDbEntity
  8
ZUWAKU
100
AcDbLine
 10
7.046105594491621
 20
9.962499961356368
 30
0.0
 11
7.046105594491621
 21
9.317398948678697
 31
0.0
  0
ARC
  5
AEC
330
1A
100
AcDbEntity
  8
ZUWAKU
100
AcDbCircle
 10
7.308605594491609
 20
9.962499961356368
 30
0.0
 40
0.2625
100
AcDbArc
 50
90.0
 51
180.0
  0
LINE
  5
AED
330
1A
100
AcDbEntity
  8
ZUWAKU
100
AcDbLine
 10
7.046105594491621
 20
11.62499996135637
 30
0.0
 11
8.796105594491621
 21
11.62499996135637
 31
0.0
  0
ARC
  5
AEE
330
1A
100
AcDbEntity
  8
ZUWAKU
100
AcDbCircle
 10
12.47110559449163
 20
9.524999961356346
 30
0.0
 40
2.099999999999999
100
AcDbArc
 50
90.0
 51
180.0
  0
ARC
  5
AEF
330
1A
100
AcDbEntity
  8
ZUWAKU
100
AcDbCircle
 10
12.47110559449163
 20
9.524999961356368
 30
0.0
 40
0.7
100
AcDbArc
 50
90.0
 51
180.0
  0
LINE
  5
AF0
330
1A
100
AcDbEntity
  8
ZUWAKU
100
AcDbLine
 10
9.058605594491609
 20
11.36249996135636
 30
0.0
 11
9.058605594491609
 21
10.48749996135636
 31
0.0
  0
LINE
  5
AF1
330
1A
100
AcDbEntity
  8
ZUWAKU
100
AcDbLine
 10
17.83817306314955
 20
11.44154694543985
 30
0.0
 11
16.90403812583366
 21
8.483452977272882
 31
0.0
  0
LINE
  5
AF2
330
1A
100
AcDbEntity
  8
ZUWAKU
100
AcDbLine
 10
14.92110559449162
 20
11.36249996135636
 30
0.0
 11
14.92110559449162
 21
3.837499961356368
 31
0.0
  0
LINE
  5
AF3
330
1A
100
AcDbEntity
  8
ZUWAKU
100
AcDbLine
 10
16.32110559449165
 20
8.562499961356369
 30
0.0
 11
16.32110559449165
 21
11.36249996135636
 31
0.0
  0
LINE
  5
AF4
330
1A
100
AcDbEntity
  8
ZUWAKU
100
AcDbLine
 10
28.92110559449162
 20
5.499999961356365
 30
0.0
 11
28.92110559449162
 21
11.36249996135636
 31
0.0
  0
LINE
  5
AF5
330
1A
100
AcDbEntity
  8
ZUWAKU
100
AcDbLine
 10
27.52110559449164
 20
11.36249996135636
 30
0.0
 11
27.52110559449164
 21
4.974999961356367
 31
0.0
  0
LINE
  5
AF6
330
1A
100
AcDbEntity
  8
ZUWAKU
100
AcDbLine
 10
21.74610559449161
 20
3.837499961356368
 30
0.0
 11
21.74610559449161
 21
11.36249996135636
 31
0.0
  0
LINE
  5
AF7
330
1A
100
AcDbEntity
  8
ZUWAKU
100
AcDbLine
 10
20.34610559449163
 20
11.36249996135636
 30
0.0
 11
20.34610559449163
 21
3.837499961356368
 31
0.0
  0
LINE
  5
AF8
330
1A
100
AcDbEntity
  8
ZUWAKU
100
AcDbLine
 10
18.65742883558061
 20
9.602523558138081
 30
0.0
 11
18.02505296291269
 21
7.599999961356378
 31
0.0
  0
ARC
  5
AF9
330
1A
100
AcDbEntity
  8
ZUWAKU
100
AcDbCircle
 10
24.89610559449164
 20
9.317398948678718
 30
0.0
 40
2.099999999999999
100
AcDbArc
 50
180.0
 51
225.0
  0
ARC
  5
AFA
330
1A
100
AcDbEntity
  8
ZUWAKU
100
AcDbCircle
 10
24.89610559449164
 20
9.317398948678718
 30
0.0
 40
0.7
100
AcDbArc
 50
180.0000000000016
 51
224.9999999999988
  0
LINE
  5
AFB
330
1A
100
AcDbEntity
  8
ZUWAKU
100
AcDbLine
 10
33.12110559449161
 20
11.36249996135636
 30
0.0
 11
33.12110559449161
 21
3.837499961356368
 31
0.0
  0
LINE
  5
AFC
330
1A
100
AcDbEntity
  8
ZUWAKU
100
AcDbLine
 10
34.52110559449164
 20
3.837499961356368
 30
0.0
 11
34.52110559449164
 21
11.36249996135636
 31
0.0
  0
LINE
  5
AFD
330
1A
100
AcDbEntity
  8
ZUWAKU
100
AcDbLine
 10
30.67110559449162
 20
11.36249996135636
 30
0.0
 11
30.67110559449162
 21
5.499999961356365
 31
0.0
  0
LINE
  5
AFE
330
1A
100
AcDbEntity
  8
ZUWAKU
100
AcDbLine
 10
32.07110559449165
 20
4.974999961356367
 30
0.0
 11
32.07110559449165
 21
11.36249996135636
 31
0.0
  0
LINE
  5
AFF
330
1A
100
AcDbEntity
  8
ZUWAKU
100
AcDbLine
 10
39.56331429109525
 20
14.99999996135636
 30
0.0
 11
39.56331429109525
 21
0.3999999613564
 31
0.0
  0
LINE
  5
B00
330
1A
100
AcDbEntity
  8
ZUWAKU
100
AcDbLine
 10
39.76331429109518
 20
14.99999996135636
 30
0.0
 11
39.7633142910953
 21
0.3999999613564
 31
0.0
  0
LINE
  5
B01
330
1A
100
AcDbEntity
  8
ZUWAKU
100
AcDbLine
 10
39.66331429109516
 20
14.99999996135636
 30
0.0
 11
39.66331429109527
 21
0.3999999613564
 31
0.0
  0
LINE
  5
B02
330
1A
100
AcDbEntity
  8
ZUWAKU
100
AcDbLine
 10
28.92110559449162
 20
3.574999961356368
 30
0.0
 11
30.67110559449162
 21
3.574999961356368
 31
0.0
  0
LINE
  5
B03
330
1A
100
AcDbEntity
  8
ZUWAKU
100
AcDbLine
 10
30.14610559449164
 20
4.974999961356367
 30
0.0
 11
29.44610559449165
 21
4.974999961356367
 31
0.0
  0
LINE
  5
B04
330
1A
100
AcDbEntity
  8
ZUWAKU
100
AcDbLine
 10
20.60860559449162
 20
3.574999961356368
 30
0.0
 11
21.48360559449162
 21
3.574999961356368
 31
0.0
  0
LINE
  5
B05
330
1A
100
AcDbEntity
  8
ZUWAKU
100
AcDbLine
 10
17.83817306314955
 20
3.758452977272881
 30
0.0
 11
16.90403812583366
 21
6.716546945439851
 31
0.0
  0
ARC
  5
B06
330
1A
100
AcDbEntity
  8
ZUWAKU
100
AcDbCircle
 10
16.58360559449164
 20
6.637499961356368
 30
0.0
 40
0.2625
100
AcDbArc
 50
90.0
 51
180.0
  0
ARC
  5
B07
330
1A
100
AcDbEntity
  8
ZUWAKU
100
AcDbCircle
 10
16.65372267623598
 20
6.637499961356368
 30
0.0
 40
0.2625
100
AcDbArc
 50
17.52556837372303
 51
90.0
  0
ARC
  5
B08
330
1A
100
AcDbEntity
  8
ZUWAKU
100
AcDbCircle
 10
15.18360559449161
 20
3.837499961356368
 30
0.0
 40
0.2625
100
AcDbArc
 50
180.0
 51
270.0
  0
ARC
  5
B09
330
1A
100
AcDbEntity
  8
ZUWAKU
100
AcDbCircle
 10
13.43360559449161
 20
4.712499961356368
 30
0.0
 40
0.2625
100
AcDbArc
 50
0.0
 51
90.0
  0
ARC
  5
B0A
330
1A
100
AcDbEntity
  8
ZUWAKU
100
AcDbCircle
 10
13.43360559449161
 20
3.837499961356368
 30
0.0
 40
0.2625
100
AcDbArc
 50
270.0
 51
0.0
  0
LINE
  5
B0B
330
1A
100
AcDbEntity
  8
ZUWAKU
100
AcDbLine
 10
13.69610559449165
 20
4.712499961356368
 30
0.0
 11
13.69610559449165
 21
3.837499961356368
 31
0.0
  0
LINE
  5
B0C
330
1A
100
AcDbEntity
  8
ZUWAKU
100
AcDbLine
 10
16.32110559449165
 20
3.837499961356368
 30
0.0
 11
16.32110559449165
 21
6.637499961356368
 31
0.0
  0
ARC
  5
B0D
330
1A
100
AcDbEntity
  8
ZUWAKU
100
AcDbCircle
 10
16.05860559449161
 20
3.837499961356368
 30
0.0
 40
0.2625
100
AcDbArc
 50
270.0
 51
0.0
  0
LINE
  5
B0E
330
1A
100
AcDbEntity
  8
ZUWAKU
100
AcDbLine
 10
15.18360559449161
 20
3.574999961356368
 30
0.0
 11
16.05860559449161
 21
3.574999961356368
 31
0.0
  0
ARC
  5
B0F
330
1A
100
AcDbEntity
  8
ZUWAKU
100
AcDbCircle
 10
16.58360559449164
 20
8.562499961356369
 30
0.0
 40
0.2625
100
AcDbArc
 50
180.0
 51
270.0
  0
LINE
  5
B10
330
1A
100
AcDbEntity
  8
ZUWAKU
100
AcDbLine
 10
16.58360559449164
 20
6.899999961356368
 30
0.0
 11
16.65372267623598
 21
6.899999961356368
 31
0.0
  0
LINE
  5
B11
330
1A
100
AcDbEntity
  8
ZUWAKU
100
AcDbLine
 10
16.65372267623598
 20
8.299999961356366
 30
0.0
 11
16.58360559449164
 21
8.299999961356366
 31
0.0
  0
ARC
  5
B12
330
1A
100
AcDbEntity
  8
ZUWAKU
100
AcDbCircle
 10
16.65372267623598
 20
8.562499961356369
 30
0.0
 40
0.2625
100
AcDbArc
 50
270.0
 51
342.4744316262769
  0
ARC
  5
B13
330
1A
100
AcDbEntity
  8
ZUWAKU
100
AcDbCircle
 10
18.08848851274729
 20
3.837499961356368
 30
0.0
 40
0.2625
100
AcDbArc
 50
197.525568373723
 51
270.0
  0
LINE
  5
B14
330
1A
100
AcDbEntity
  8
ZUWAKU
100
AcDbLine
 10
19.18824865214952
 20
3.916546945439854
 30
0.0
 11
18.02505296291269
 21
7.599999961356378
 31
0.0
  0
ARC
  5
B15
330
1A
100
AcDbEntity
  8
ZUWAKU
100
AcDbCircle
 10
18.93793320255179
 20
3.837499961356368
 30
0.0
 40
0.2625
100
AcDbArc
 50
270.0
 51
17.52556837372303
  0
LINE
  5
B16
330
1A
100
AcDbEntity
  8
ZUWAKU
100
AcDbLine
 10
18.08848851274729
 20
3.574999961356368
 30
0.0
 11
18.93793320255179
 21
3.574999961356368
 31
0.0
  0
ARC
  5
B17
330
1A
100
AcDbEntity
  8
ZUWAKU
100
AcDbCircle
 10
20.60860559449162
 20
3.837499961356368
 30
0.0
 40
0.2625
100
AcDbArc
 50
180.0
 51
270.0
  0
ARC
  5
B18
330
1A
100
AcDbEntity
  8
ZUWAKU
100
AcDbCircle
 10
25.07110559449165
 20
4.974999961356367
 30
0.0
 40
1.399999999999999
100
AcDbArc
 50
270.0
 51
0.0
  0
ARC
  5
B19
330
1A
100
AcDbEntity
  8
ZUWAKU
100
AcDbCircle
 10
28.92110559449162
 20
4.974999961356367
 30
0.0
 40
1.399999999999999
100
AcDbArc
 50
180.0
 51
270.0
  0
LINE
  5
B1A
330
1A
100
AcDbEntity
  8
ZUWAKU
100
AcDbLine
 10
25.85602983498342
 20
7.36752521452578
 30
0.0
 11
24.40113084766102
 21
8.822424201848118
 31
0.0
  0
LINE
  5
B1B
330
1A
100
AcDbEntity
  8
ZUWAKU
100
AcDbLine
 10
23.41118135399989
 20
7.832474708186957
 30
0.0
 11
24.86608034132223
 21
6.377575720864626
 31
0.0
  0
LINE
  5
B1C
330
1A
100
AcDbEntity
  8
ZUWAKU
100
AcDbLine
 10
23.32110559449165
 20
3.574999961356368
 30
0.0
 11
25.07110559449165
 21
3.574999961356368
 31
0.0
  0
LINE
  5
B1D
330
1A
100
AcDbEntity
  8
ZUWAKU
100
AcDbLine
 10
23.32110559449165
 20
4.974999961356367
 30
0.0
 11
24.80860559449161
 21
4.974999961356367
 31
0.0
  0
ARC
  5
B1E
330
1A
100
AcDbEntity
  8
ZUWAKU
100
AcDbCircle
 10
23.32110559449165
 20
4.712499961356368
 30
0.0
 40
0.2625
100
AcDbArc
 50
90.0
 51
180.0
  0
ARC
  5
B1F
330
1A
100
AcDbEntity
  8
ZUWAKU
100
AcDbCircle
 10
21.48360559449162
 20
3.837499961356368
 30
0.0
 40
0.2625
100
AcDbArc
 50
270.0
 51
0.0
  0
ARC
  5
B20
330
1A
100
AcDbEntity
  8
ZUWAKU
100
AcDbCircle
 10
23.32110559449165
 20
3.837499961356368
 30
0.0
 40
0.2625
100
AcDbArc
 50
180.0
 51
270.0
  0
LINE
  5
B21
330
1A
100
AcDbEntity
  8
ZUWAKU
100
AcDbLine
 10
23.05860559449161
 20
3.837499961356368
 30
0.0
 11
23.05860559449161
 21
4.712499961356368
 31
0.0
  0
ARC
  5
B22
330
1A
100
AcDbEntity
  8
ZUWAKU
100
AcDbCircle
 10
24.80860559449161
 20
5.23749996135637
 30
0.0
 40
0.2625
100
AcDbArc
 50
270.0
 51
0.0
  0
ARC
  5
B23
330
1A
100
AcDbEntity
  8
ZUWAKU
100
AcDbCircle
 10
24.37110559449161
 20
5.882600974034041
 30
0.0
 40
0.7
100
AcDbArc
 50
0.0
 51
45.0
  0
LINE
  5
B24
330
1A
100
AcDbEntity
  8
ZUWAKU
100
AcDbLine
 10
25.07110559449165
 20
5.23749996135637
 30
0.0
 11
25.07110559449165
 21
5.882600974034041
 31
0.0
  0
ARC
  5
B25
330
1A
100
AcDbEntity
  8
ZUWAKU
100
AcDbCircle
 10
29.44610559449165
 20
5.499999961356365
 30
0.0
 40
0.525
100
AcDbArc
 50
180.0
 51
270.0
  0
ARC
  5
B26
330
1A
100
AcDbEntity
  8
ZUWAKU
100
AcDbCircle
 10
24.37110559449161
 20
5.882600974034019
 30
0.0
 40
2.099999999999999
100
AcDbArc
 50
0.0
 51
45.0
  0
LINE
  5
B27
330
1A
100
AcDbEntity
  8
ZUWAKU
100
AcDbLine
 10
26.47110559449163
 20
4.974999961356367
 30
0.0
 11
26.47110559449163
 21
5.882600974034041
 31
0.0
  0
ARC
  5
B28
330
1A
100
AcDbEntity
  8
ZUWAKU
100
AcDbCircle
 10
30.67110559449162
 20
4.974999961356367
 30
0.0
 40
1.399999999999999
100
AcDbArc
 50
270.0
 51
0.0
  0
LINE
  5
B29
330
1A
100
AcDbEntity
  8
ZUWAKU
100
AcDbLine
 10
33.38360559449165
 20
3.574999961356368
 30
0.0
 11
34.25860559449165
 21
3.574999961356368
 31
0.0
  0
ARC
  5
B2A
330
1A
100
AcDbEntity
  8
ZUWAKU
100
AcDbCircle
 10
30.14610559449164
 20
5.499999961356365
 30
0.0
 40
0.525
100
AcDbArc
 50
270.0
 51
0.0
  0
ARC
  5
B2B
330
1A
100
AcDbEntity
  8
ZUWAKU
100
AcDbCircle
 10
33.38360559449165
 20
3.837499961356368
 30
0.0
 40
0.2625
100
AcDbArc
 50
180.0
 51
270.0
  0
ARC
  5
B2C
330
1A
100
AcDbEntity
  8
ZUWAKU
100
AcDbCircle
 10
34.25860559449165
 20
3.837499961356368
 30
0.0
 40
0.2625
100
AcDbArc
 50
270.0
 51
0.0
  0
LINE
  5
B2D
330
1A
100
AcDbEntity
  8
ZUWAKU
100
AcDbLine
 10
21.48360559449162
 20
11.62499996135637
 30
0.0
 11
20.60860559449162
 21
11.62499996135637
 31
0.0
  0
LINE
  5
B2E
330
1A
100
AcDbEntity
  8
ZUWAKU
100
AcDbLine
 10
13.69610559449165
 20
11.36249996135636
 30
0.0
 11
13.69610559449165
 21
10.48749996135636
 31
0.0
  0
ARC
  5
B2F
330
1A
100
AcDbEntity
  8
ZUWAKU
100
AcDbCircle
 10
13.43360559449161
 20
10.48749996135636
 30
0.0
 40
0.2625
100
AcDbArc
 50
270.0
 51
0.0
  0
ARC
  5
B30
330
1A
100
AcDbEntity
  8
ZUWAKU
100
AcDbCircle
 10
15.18360559449161
 20
11.36249996135636
 30
0.0
 40
0.2625
100
AcDbArc
 50
90.0
 51
180.0
  0
ARC
  5
B31
330
1A
100
AcDbEntity
  8
ZUWAKU
100
AcDbCircle
 10
13.43360559449161
 20
11.36249996135636
 30
0.0
 40
0.2625
100
AcDbArc
 50
0.0
 51
90.0
  0
LINE
  5
B32
330
1A
100
AcDbEntity
  8
ZUWAKU
100
AcDbLine
 10
16.05860559449161
 20
11.62499996135637
 30
0.0
 11
15.18360559449161
 21
11.62499996135637
 31
0.0
  0
ARC
  5
B33
330
1A
100
AcDbEntity
  8
ZUWAKU
100
AcDbCircle
 10
16.05860559449161
 20
11.36249996135636
 30
0.0
 40
0.2625
100
AcDbArc
 50
0.0
 51
90.0
  0
ARC
  5
B34
330
1A
100
AcDbEntity
  8
ZUWAKU
100
AcDbCircle
 10
18.08848851274729
 20
11.36249996135636
 30
0.0
 40
0.2625
100
AcDbArc
 50
90.0
 51
162.4744316262769
  0
LINE
  5
B35
330
1A
100
AcDbEntity
  8
ZUWAKU
100
AcDbLine
 10
19.18824865214952
 20
11.28345297727288
 30
0.0
 11
18.65742883558061
 21
9.602523558138081
 31
0.0
  0
ARC
  5
B36
330
1A
100
AcDbEntity
  8
ZUWAKU
100
AcDbCircle
 10
18.93793320255179
 20
11.36249996135636
 30
0.0
 40
0.2625
100
AcDbArc
 50
342.4744316262769
 51
90.0
  0
LINE
  5
B37
330
1A
100
AcDbEntity
  8
ZUWAKU
100
AcDbLine
 10
18.08848851274729
 20
11.62499996135637
 30
0.0
 11
18.93793320255179
 21
11.62499996135637
 31
0.0
  0
ARC
  5
B38
330
1A
100
AcDbEntity
  8
ZUWAKU
100
AcDbCircle
 10
20.60860559449162
 20
11.36249996135636
 30
0.0
 40
0.2625
100
AcDbArc
 50
90.0
 51
180.0
  0
LINE
  5
B39
330
1A
100
AcDbEntity
  8
ZUWAKU
100
AcDbLine
 10
25.94610559449165
 20
10.22499996135636
 30
0.0
 11
24.45860559449164
 21
10.22499996135636
 31
0.0
  0
LINE
  5
B3A
330
1A
100
AcDbEntity
  8
ZUWAKU
100
AcDbLine
 10
24.19610559449165
 20
11.62499996135637
 30
0.0
 11
25.94610559449165
 21
11.62499996135637
 31
0.0
  0
ARC
  5
B3B
330
1A
100
AcDbEntity
  8
ZUWAKU
100
AcDbCircle
 10
24.19610559449165
 20
10.22499996135636
 30
0.0
 40
1.399999999999999
100
AcDbArc
 50
90.0
 51
180.0
  0
LINE
  5
B3C
330
1A
100
AcDbEntity
  8
ZUWAKU
100
AcDbLine
 10
22.79610559449162
 20
10.22499996135636
 30
0.0
 11
22.79610559449162
 21
9.317398948678697
 31
0.0
  0
ARC
  5
B3D
330
1A
100
AcDbEntity
  8
ZUWAKU
100
AcDbCircle
 10
21.48360559449162
 20
11.36249996135636
 30
0.0
 40
0.2625
100
AcDbArc
 50
0.0
 51
90.0
  0
LINE
  5
B3E
330
1A
100
AcDbEntity
  8
ZUWAKU
100
AcDbLine
 10
24.19610559449165
 20
9.962499961356368
 30
0.0
 11
24.19610559449165
 21
9.317398948678697
 31
0.0
  0
ARC
  5
B3F
330
1A
100
AcDbEntity
  8
ZUWAKU
100
AcDbCircle
 10
24.45860559449164
 20
9.962499961356368
 30
0.0
 40
0.2625
100
AcDbArc
 50
90.0
 51
180.0
  0
LINE
  5
B40
330
1A
100
AcDbEntity
  8
ZUWAKU
100
AcDbLine
 10
26.20860559449164
 20
11.36249996135636
 30
0.0
 11
26.20860559449164
 21
10.48749996135636
 31
0.0
  0
ARC
  5
B41
330
1A
100
AcDbEntity
  8
ZUWAKU
100
AcDbCircle
 10
25.94610559449165
 20
10.48749996135636
 30
0.0
 40
0.2625
100
AcDbArc
 50
270.0
 51
0.0
  0
ARC
  5
B42
330
1A
100
AcDbEntity
  8
ZUWAKU
100
AcDbCircle
 10
25.94610559449165
 20
11.36249996135636
 30
0.0
 40
0.2625
100
AcDbArc
 50
0.0
 51
90.0
  0
LINE
  5
B43
330
1A
100
AcDbEntity
  8
ZUWAKU
100
AcDbLine
 10
28.65860559449163
 20
11.62499996135637
 30
0.0
 11
27.78360559449163
 21
11.62499996135637
 31
0.0
  0
ARC
  5
B44
330
1A
100
AcDbEntity
  8
ZUWAKU
100
AcDbCircle
 10
27.78360559449163
 20
11.36249996135636
 30
0.0
 40
0.2625
100
AcDbArc
 50
90.0
 51
180.0
  0
ARC
  5
B45
330
1A
100
AcDbEntity
  8
ZUWAKU
100
AcDbCircle
 10
28.65860559449163
 20
11.36249996135636
 30
0.0
 40
0.2625
100
AcDbArc
 50
0.0
 51
90.0
  0
LINE
  5
B46
330
1A
100
AcDbEntity
  8
ZUWAKU
100
AcDbLine
 10
34.25860559449165
 20
11.62499996135637
 30
0.0
 11
33.38360559449165
 21
11.62499996135637
 31
0.0
  0
ARC
  5
B47
330
1A
100
AcDbEntity
  8
ZUWAKU
100
AcDbCircle
 10
30.93360559449161
 20
11.36249996135636
 30
0.0
 40
0.2625
100
AcDbArc
 50
90.0
 51
180.0
  0
LINE
  5
B48
330
1A
100
AcDbEntity
  8
ZUWAKU
100
AcDbLine
 10
31.80860559449161
 20
11.62499996135637
 30
0.0
 11
30.93360559449161
 21
11.62499996135637
 31
0.0
  0
ARC
  5
B49
330
1A
100
AcDbEntity
  8
ZUWAKU
100
AcDbCircle
 10
31.80860559449161
 20
11.36249996135636
 30
0.0
 40
0.2625
100
AcDbArc
 50
0.0
 51
90.0
  0
ARC
  5
B4A
330
1A
100
AcDbEntity
  8
ZUWAKU
100
AcDbCircle
 10
33.38360559449165
 20
11.36249996135636
 30
0.0
 40
0.2625
100
AcDbArc
 50
90.0
 51
180.0
  0
ARC
  5
B4B
330
1A
100
AcDbEntity
  8
ZUWAKU
100
AcDbCircle
 10
34.25860559449165
 20
11.36249996135636
 30
0.0
 40
0.2625
100
AcDbArc
 50
0.0
 51
90.0
  0
LINE
  5
B4C
330
1A
100
AcDbEntity
  8
ZUWAKU
100
AcDbLine
 10
104.2233001621349
 20
14.99999996135636
 30
0.0
 11
104.223300162135
 21
0.3999999613564
 31
0.0
  0
LINE
  5
B4D
330
1A
100
AcDbEntity
  8
ZUWAKU
100
AcDbLine
 10
104.3233001621349
 20
14.99999996135636
 30
0.0
 11
104.323300162135
 21
0.3999999613564
 31
0.0
  0
LINE
  5
B4E
330
1A
100
AcDbEntity
  8
ZUWAKU
100
AcDbLine
 10
104.123300162135
 20
14.99999996135636
 30
0.0
 11
104.123300162135
 21
0.3999999613564
 31
0.0
  0
TEXT
  5
B4F
330
1A
100
AcDbEntity
  8
MOJI
100
AcDbText
 10
119.9136008575266
 20
9.002460490060059
 30
0.0
 40
2.799999999999999
  1
ステンレス金具
 41
0.9
  7
ｽﾀｲﾙ1
100
AcDbText
  0
TEXT
  5
B50
330
1A
100
AcDbEntity
  8
ZUWAKU
100
AcDbText
 10
104.8620226732398
 20
4.827678230549174
 30
0.0
 40
2.0
  1
サイズ
 41
0.9
  7
ｽﾀｲﾙ1
100
AcDbText
  0
TEXT
  5
B51
330
1A
100
AcDbEntity
  8
MOJI
100
AcDbText
 10
119.9136008575266
 20
1.602460490060076
 30
0.0
 40
2.799999999999999
  1
ＵＴ６０（Ｔ字Ｌ４９）
 41
0.9
  7
ｽﾀｲﾙ1
100
AcDbText
  0
TEXT
  5
B52
330
1A
100
AcDbEntity
  8
ZUWAKU
100
AcDbText
 10
104.8620226732397
 20
12.02767823054915
 30
0.0
 40
2.0
  1
品名
 41
0.9
  7
ｽﾀｲﾙ1
100
AcDbText
  0
TEXT
  5
B53
330
1A
100
AcDbEntity
  8
ZUWAKU
100
AcDbText
 10
329.1019683607522
 20
9.002460490060059
 30
0.0
 40
2.799999999999999
  1
　　．　　．　　
 41
0.9
  7
ｽﾀｲﾙ1
100
AcDbText
  0
LINE
  5
B54
330
1A
100
AcDbEntity
  8
ZUWAKU
100
AcDbLine
 10
324.4086007722031
 20
7.799999961356382
 30
0.0
 11
348.6245047913716
 21
7.799999961356382
 31
0.0
  0
LINE
  5
B55
330
1A
100
AcDbEntity
  8
ZUWAKU
100
AcDbLine
 10
324.4086007722032
 20
7.699999961356384
 30
0.0
 11
348.6245047913716
 21
7.699999961356382
 31
0.0
  0
LINE
  5
B56
330
1A
100
AcDbEntity
  8
ZUWAKU
100
AcDbLine
 10
324.4086007722031
 20
7.599999961356381
 30
0.0
 11
348.6245047913716
 21
7.599999961356383
 31
0.0
  0
LINE
  5
B57
330
1A
100
AcDbEntity
  8
ZUWAKU
100
AcDbLine
 10
252.5995892661715
 20
7.799999961356382
 30
0.0
 11
276.2634774001572
 21
7.799999961356382
 31
0.0
  0
LINE
  5
B58
330
1A
100
AcDbEntity
  8
ZUWAKU
100
AcDbLine
 10
252.5995892661715
 20
7.699999961356382
 30
0.0
 11
276.2634774001572
 21
7.699999961356382
 31
0.0
  0
LINE
  5
B59
330
1A
100
AcDbEntity
  8
ZUWAKU
100
AcDbLine
 10
252.5995892661715
 20
7.599999961356385
 30
0.0
 11
276.2634774001572
 21
7.599999961356385
 31
0.0
  0
LINE
  5
B5A
330
1A
100
AcDbEntity
  8
ZUWAKU
100
AcDbLine
 10
252.3995892661715
 20
14.99999996135636
 30
0.0
 11
252.3995892661715
 21
0.3999999613564
 31
0.0
  0
LINE
  5
B5B
330
1A
100
AcDbEntity
  8
ZUWAKU
100
AcDbLine
 10
252.5995892661715
 20
14.99999996135636
 30
0.0
 11
252.5995892661716
 21
0.3999999613564
 31
0.0
  0
LINE
  5
B5C
330
1A
100
AcDbEntity
  8
ZUWAKU
100
AcDbLine
 10
252.4995892661714
 20
14.99999996135636
 30
0.0
 11
252.4995892661716
 21
0.3999999613564
 31
0.0
  0
TEXT
  5
B5D
330
1A
100
AcDbEntity
  8
MOJI
100
AcDbText
 10
264.0204535032574
 20
9.002460490060059
 30
0.0
 40
2.799999999999999
  1
Ａ３
 41
0.9
  7
ｽﾀｲﾙ1
100
AcDbText
  0
LINE
  5
B5E
330
1A
100
AcDbEntity
  8
ZUWAKU
100
AcDbLine
 10
223.7121815025967
 20
14.99999996135636
 30
0.0
 11
223.7121815025967
 21
0.3999999613564
 31
0.0
  0
LINE
  5
B5F
330
1A
100
AcDbEntity
  8
ZUWAKU
100
AcDbLine
 10
223.9121815025967
 20
14.99999996135636
 30
0.0
 11
223.9121815025967
 21
0.3999999613564
 31
0.0
  0
LINE
  5
B60
330
1A
100
AcDbEntity
  8
ZUWAKU
100
AcDbLine
 10
223.8121815025966
 20
14.99999996135636
 30
0.0
 11
223.8121815025968
 21
0.3999999613564
 31
0.0
  0
TEXT
  5
B61
330
1A
100
AcDbEntity
  8
MOJI
100
AcDbText
 10
230.0556265037627
 20
5.971308822186358
 30
0.0
 40
2.799999999999999
  1
ＬＭ７０Ｇ
 41
0.9
  7
ｽﾀｲﾙ1
100
AcDbText
  0
TEXT
  5
B63
330
1A
100
AcDbEntity
  8
ZUWAKU
100
AcDbText
 10
253.3383117772764
 20
4.827678230549174
 30
0.0
 40
2.0
  1
縮尺
 41
0.9
  7
ｽﾀｲﾙ1
100
AcDbText
  0
TEXT
  5
B64
330
1A
100
AcDbEntity
  8
MOJI
100
AcDbText
 10
264.0204535032574
 20
1.602460490060076
 30
0.0
 40
2.799999999999999
  1
１/１
 41
0.9
  7
ｽﾀｲﾙ1
100
AcDbText
  0
TEXT
  5
B65
330
1A
100
AcDbEntity
  8
ZUWAKU
100
AcDbText
 10
224.6509040137015
 20
12.02767823054915
 30
0.0
 40
2.0
  1
品番
 41
0.9
  7
ｽﾀｲﾙ1
100
AcDbText
  0
TEXT
  5
B66
330
1A
100
AcDbEntity
  8
ZUWAKU
100
AcDbText
 10
253.3383117772763
 20
12.02767823054915
 30
0.0
 40
2.0
  1
用紙
 41
0.9
  7
ｽﾀｲﾙ1
100
AcDbText
  0
LINE
  5
B67
330
1A
100
AcDbEntity
  8
ZUWAKU
100
AcDbLine
 10
276.2634774001572
 20
14.99999996135636
 30
0.0
 11
276.2634774001572
 21
0.3999999613564
 31
0.0
  0
LINE
  5
B68
330
1A
100
AcDbEntity
  8
ZUWAKU
100
AcDbLine
 10
276.4634774001572
 20
14.99999996135636
 30
0.0
 11
276.4634774001573
 21
0.3999999613564
 31
0.0
  0
LINE
  5
B69
330
1A
100
AcDbEntity
  8
ZUWAKU
100
AcDbLine
 10
276.3634774001571
 20
14.99999996135636
 30
0.0
 11
276.3634774001573
 21
0.3999999613564
 31
0.0
  0
LINE
  5
B6A
330
1A
100
AcDbEntity
  8
ZUWAKU
100
AcDbLine
 10
324.2086007722033
 20
14.99999996135636
 30
0.0
 11
324.2086007722033
 21
0.3999999613564
 31
0.0
  0
LINE
  5
B6B
330
1A
100
AcDbEntity
  8
ZUWAKU
100
AcDbLine
 10
324.4086007722032
 20
14.99999996135636
 30
0.0
 11
324.4086007722033
 21
0.3999999613564
 31
0.0
  0
LINE
  5
B6C
330
1A
100
AcDbEntity
  8
ZUWAKU
100
AcDbLine
 10
324.3086007722032
 20
14.99999996135636
 30
0.0
 11
324.3086007722033
 21
0.3999999613564
 31
0.0
  0
TEXT
  5
B6D
330
1A
100
AcDbEntity
  8
ZUWAKU
100
AcDbText
 10
325.1473232833081
 20
12.02767823054915
 30
0.0
 40
2.0
  1
DATE
 41
0.9
  7
ｽﾀｲﾙ1
100
AcDbText
  0
TEXT
  5
B6E
330
1A
100
AcDbEntity
  8
ZUWAKU
100
AcDbText
 10
354.2640416132229
 20
8.776919629199767
 30
0.0
 40
3.0
  1
積水化学工業株式会社
 41
0.9
  7
ｽﾀｲﾙ1
100
AcDbText
  0
LINE
  5
B6F
330
1A
100
AcDbEntity
  8
ZUWAKU
100
AcDbLine
 10
348.9245047913716
 20
14.99999996135636
 30
0.0
 11
348.9245047913717
 21
0.3999999613564
 31
0.0
  0
LINE
  5
B70
330
1A
100
AcDbEntity
  8
ZUWAKU
100
AcDbLine
 10
348.8245047913716
 20
14.99999996135636
 30
0.0
 11
348.8245047913717
 21
0.3999999613564
 31
0.0
  0
LINE
  5
B71
330
1A
100
AcDbEntity
  8
ZUWAKU
100
AcDbLine
 10
348.7245047913717
 20
14.99999996135636
 30
0.0
 11
348.7245047913717
 21
0.3999999613564
 31
0.0
  0
LINE
  5
B72
330
1A
100
AcDbEntity
  8
ZUWAKU
100
AcDbLine
 10
348.6245047913716
 20
14.99999996135636
 30
0.0
 11
348.6245047913716
 21
0.3999999613564
 31
0.0
  0
TEXT
  5
B73
330
1A
100
AcDbEntity
  8
ZUWAKU
100
AcDbText
 10
354.2640416132229
 20
3.324420118283399
 30
0.0
 40
3.0
  1
建材事業部
 41
0.9
  7
ｽﾀｲﾙ1
100
AcDbText
  0
LINE
  5
C01
330
1A
100
AcDbEntity
  8
CENTER_L
  6
CENTER
 62
     1
 48
5.0
100
AcDbLine
 10
297.8157875102922
 20
208.3097088269932
 30
0.0
 11
253.4557868797803
 21
208.3098503954046
 31
0.0
  0
LINE
  5
C02
330
1A
100
AcDbEntity
  8
CENTER_L
  6
CENTER
 62
     1
 48
5.0
100
AcDbLine
 10
317.5836856337255
 20
113.3854324261202
 30
0.0
 11
129.9129692824934
 21
113.3855465321248
 31
0.0
  0
LINE
  5
C03
330
1A
100
AcDbEntity
  8
CENTER_L
  6
CENTER
 62
     1
 48
5.0
100
AcDbLine
 10
186.7469583599829
 20
186.8098746478849
 30
0.0
 11
297.8157875102922
 21
186.8098746478849
 31
0.0
  0
LINE
  5
C04
330
1A
100
AcDbEntity
  8
SEIHIN
  6
CONTINUOUS
 62
     3
 48
0.5
100
AcDbLine
 10
257.4904567515456
 20
194.1098352534953
 30
0.0
 11
211.7904622667615
 21
194.1098760266873
 31
0.0
  0
LINE
  5
C05
330
1A
100
AcDbEntity
  8
SEIHIN
  6
CONTINUOUS
 62
     3
 48
0.5
100
AcDbLine
 10
257.4904591152096
 20
195.3098352534929
 30
0.0
 11
211.7904646304254
 21
195.3098760266849
 31
0.0
  0
LINE
  5
C06
330
1A
100
AcDbEntity
  8
SEIHIN
  6
CONTINUOUS
 62
     3
 48
0.5
100
AcDbLine
 10
259.4903606909855
 20
105.8855396464575
 30
0.0
 11
209.7903606909855
 21
105.8855396464575
 31
0.0
  0
LINE
  5
C07
330
1A
100
AcDbEntity
  8
SEIHIN
  6
CONTINUOUS
 62
     3
 48
0.5
100
AcDbLine
 10
209.7903606909855
 20
120.8855396464575
 30
0.0
 11
259.4903606909855
 21
120.8855396464575
 31
0.0
  0
ARC
  5
C08
330
1A
100
AcDbEntity
  8
SEIHIN
  6
CONTINUOUS
 62
     3
 48
0.5
100
AcDbCircle
 10
179.9522540963114
 20
113.3855287267867
 30
0.0
 40
32.84999340532761
100
AcDbArc
 50
117.7422341707102
 51
179.999980954302
  0
ARC
  5
C09
330
1A
100
AcDbEntity
  8
SEIHIN
  6
CONTINUOUS
 62
     3
 48
0.5
100
AcDbCircle
 10
179.9522781242248
 20
113.3855427524443
 30
0.0
 40
29.85001743323946
100
AcDbArc
 50
20.20417162351378
 51
180.0000059618034
  0
ARC
  5
C0A
330
1A
100
AcDbEntity
  8
SEIHIN
  6
CONTINUOUS
 62
     3
 48
0.5
100
AcDbCircle
 10
179.9522101853759
 20
113.3855786041511
 30
0.0
 40
31.34999059540163
100
AcDbArc
 50
20.20421763112052
 51
84.50571553829041
  0
ARC
  5
C0B
330
1A
100
AcDbEntity
  8
SEIHIN
  6
CONTINUOUS
 62
     3
 48
0.5
100
AcDbCircle
 10
179.9522681730412
 20
113.3855478826925
 30
0.0
 40
31.35000748205674
100
AcDbArc
 50
95.49401889457284
 51
180.0000150526759
  0
LINE
  5
C0C
330
1A
100
AcDbEntity
  8
CENTER_L
  6
CENTER
 62
     1
 48
5.0
100
AcDbLine
 10
179.9522606909854
 20
78.26313964645764
 30
0.0
 11
179.9522606909854
 21
153.6452396464575
 31
0.0
  0
ARC
  5
C0D
330
1A
100
AcDbEntity
  8
SEIHIN
  6
CONTINUOUS
 62
     3
 48
0.5
100
AcDbCircle
 10
179.9522588125961
 20
113.3855424321817
 30
0.0
 40
31.3499981216107
100
AcDbArc
 50
180.0000050912356
 51
247.9828852194486
  0
ARC
  5
C0E
330
1A
100
AcDbEntity
  8
SEIHIN
  6
CONTINUOUS
 62
     3
 48
0.5
100
AcDbCircle
 10
179.9522773711139
 20
113.3855120268871
 30
0.0
 40
32.85001668014006
100
AcDbArc
 50
179.9999518269707
 51
242.2575442434004
  0
ARC
  5
C0F
330
1A
100
AcDbEntity
  8
SEIHIN
  6
CONTINUOUS
 62
     3
 48
0.5
100
AcDbCircle
 10
179.9522409759969
 20
113.3855282289524
 30
0.0
 40
29.85002465233659
100
AcDbArc
 50
260.3573075898012
 51
339.7954414136239
  0
ARC
  5
C10
330
1A
100
AcDbEntity
  8
SEIHIN
  6
CONTINUOUS
 62
     3
 48
0.5
100
AcDbCircle
 10
179.9522597802633
 20
113.3855391140803
 30
0.0
 40
31.34999186012666
100
AcDbArc
 50
260.8227253257258
 51
339.795513643148
  0
ARC
  5
C11
330
1A
100
AcDbEntity
  8
SEIHIN
  6
CONTINUOUS
 62
     3
 48
0.5
100
AcDbCircle
 10
179.9522672043842
 20
113.3855299868267
 30
0.0
 40
29.85000651340039
100
AcDbArc
 50
179.9999814587613
 51
247.9828219702606
  0
ARC
  5
C12
330
1A
100
AcDbEntity
  8
SEIHIN
  6
CONTINUOUS
 62
     3
 48
0.5
100
AcDbCircle
 10
171.3562026876567
 20
80.15047732245369
 30
0.0
 40
0.4999651137826246
100
AcDbArc
 50
191.9987210681305
 51
282.0011026130904
  0
ARC
  5
C13
330
1A
100
AcDbEntity
  8
SEIHIN
  6
CONTINUOUS
 62
     3
 48
0.5
100
AcDbCircle
 10
171.3562606909854
 20
80.15043964645768
 30
0.0
 40
1.999999832500057
100
AcDbArc
 50
191.9993162217498
 51
281.9993162217502
  0
ARC
  5
C14
330
1A
100
AcDbEntity
  8
SEIHIN
  6
CONTINUOUS
 62
     3
 48
0.5
100
AcDbCircle
 10
168.0122545907287
 20
83.85824691718232
 30
0.0
 40
0.5000392635087876
100
AcDbArc
 50
12.00336441221008
 51
67.98911266757058
  0
LINE
  5
C15
330
1A
100
AcDbEntity
  8
SEIHIN
  6
CONTINUOUS
 62
     3
 48
0.5
100
AcDbLine
 10
170.8671606909855
 20
80.04653964645756
 30
0.0
 11
169.9685606909854
 21
84.27403964645758
 31
0.0
  0
ARC
  5
C16
330
1A
100
AcDbEntity
  8
SEIHIN
  6
CONTINUOUS
 62
     3
 48
0.5
100
AcDbCircle
 10
165.3589442857422
 20
85.63923411627092
 30
0.0
 40
1.500035684570647
100
AcDbArc
 50
242.2566810425462
 51
335.002023097954
  0
LINE
  5
C17
330
1A
100
AcDbEntity
  8
SEIHIN
  6
CONTINUOUS
 62
     3
 48
0.5
100
AcDbLine
 10
168.5013606909854
 20
83.96223964645763
 30
0.0
 11
169.3999606909854
 21
79.73463964645763
 31
0.0
  0
ARC
  5
C18
330
1A
100
AcDbEntity
  8
SEIHIN
  6
CONTINUOUS
 62
     3
 48
0.5
100
AcDbCircle
 10
168.012216472165
 20
83.85829236127493
 30
0.0
 40
2.000032126654146
100
AcDbArc
 50
11.99757571575422
 51
67.98087340185666
  0
LINE
  5
C19
330
1A
100
AcDbEntity
  8
SEIHIN
  6
CONTINUOUS
 62
     3
 48
0.5
100
AcDbLine
 10
171.4601606909854
 20
79.66143964645765
 30
0.0
 11
183.5136606909855
 21
82.22333964645768
 31
0.0
  0
LINE
  5
C1A
330
1A
100
AcDbEntity
  8
SEIHIN
  6
CONTINUOUS
 62
     3
 48
0.5
100
AcDbLine
 10
183.6070606909855
 20
80.70963964645761
 30
0.0
 11
171.7720606909855
 21
78.19413964645763
 31
0.0
  0
LINE
  5
C1B
330
1A
100
AcDbEntity
  8
SEIHIN
  6
CONTINUOUS
 62
     3
 48
0.5
100
AcDbLine
 10
174.9522606909854
 20
82.43683964645764
 30
0.0
 11
174.9522606909854
 21
83.95723964645759
 31
0.0
  0
LINE
  5
C1C
330
1A
100
AcDbEntity
  8
SEIHIN
  6
CONTINUOUS
 62
     3
 48
0.5
100
AcDbLine
 10
191.3363606909855
 20
78.9478396464576
 30
0.0
 11
183.8250606909855
 21
80.70743964645764
 31
0.0
  0
LINE
  5
C1D
330
1A
100
AcDbEntity
  8
SEIHIN
  6
CONTINUOUS
 62
     3
 48
0.5
100
AcDbLine
 10
191.6784606909854
 20
80.40833964645758
 30
0.0
 11
183.9496606909855
 21
82.21883964645762
 31
0.0
  0
ARC
  5
C1E
330
1A
100
AcDbEntity
  8
SEIHIN
  6
CONTINUOUS
 62
     3
 48
0.5
100
AcDbCircle
 10
183.7111369109591
 20
80.22063780746291
 30
0.0
 40
0.4999546560480791
100
AcDbArc
 50
76.82840234576231
 51
102.0152083327001
  0
ARC
  5
C1F
330
1A
100
AcDbEntity
  8
SEIHIN
  6
CONTINUOUS
 62
     3
 48
0.5
100
AcDbCircle
 10
183.7215888416485
 20
81.24523935513826
 30
0.0
 40
0.9999571469404513
100
AcDbArc
 50
76.81584484205432
 51
102.0014861064111
  0
LINE
  5
C20
330
1A
100
AcDbEntity
  8
SEIHIN
  6
CONTINUOUS
 62
     3
 48
0.5
100
AcDbLine
 10
191.6784606909854
 20
80.40833964645758
 30
0.0
 11
191.3363606909855
 21
78.9478396464576
 31
0.0
  0
LINE
  5
C21
330
1A
100
AcDbEntity
  8
SEIHIN
  6
CONTINUOUS
 62
     3
 48
0.5
100
AcDbLine
 10
209.7903606909855
 20
105.8855396464575
 30
0.0
 11
209.7903606909855
 21
120.8855396464575
 31
0.0
  0
LINE
  5
C22
330
1A
100
AcDbEntity
  8
SEIHIN
  6
CONTINUOUS
 62
     3
 48
0.5
100
AcDbLine
 10
210.9903606909855
 20
120.8855396464575
 30
0.0
 11
210.9903606909855
 21
105.8855396464575
 31
0.0
  0
LINE
  5
C23
330
1A
100
AcDbEntity
  8
SEIHIN
  6
CONTINUOUS
 62
     3
 48
0.5
100
AcDbLine
 10
212.4903606909855
 20
120.8855396464575
 30
0.0
 11
212.4903606909855
 21
105.8855396464575
 31
0.0
  0
LINE
  5
C24
330
1A
100
AcDbEntity
  8
SEIHIN
  6
CONTINUOUS
 62
     3
 48
0.5
100
AcDbLine
 10
212.4903606909855
 20
117.3854963240988
 30
0.0
 11
212.4903606909855
 21
109.3854963240988
 31
0.0
  0
LINE
  5
C25
330
1A
100
AcDbEntity
  8
SEIHIN
  6
CONTINUOUS
 62
     3
 48
0.5
100
AcDbLine
 10
214.4903606909855
 20
109.3854963240988
 30
0.0
 11
214.4903606909855
 21
117.3854963240988
 31
0.0
  0
LINE
  5
C26
330
1A
100
AcDbEntity
  8
SEIHIN
  6
CONTINUOUS
 62
     3
 48
0.5
100
AcDbLine
 10
208.7903606909855
 20
110.8854979657306
 30
0.0
 11
208.7903606909855
 21
115.8854979657306
 31
0.0
  0
LINE
  5
C27
330
1A
100
AcDbEntity
  8
SEIHIN
  6
CONTINUOUS
 62
     3
 48
0.5
100
AcDbLine
 10
209.7903606909855
 20
115.8854979657306
 30
0.0
 11
209.7903606909855
 21
110.8854979657306
 31
0.0
  0
ARC
  5
C28
330
1A
100
AcDbEntity
  8
SEIHIN
  6
CONTINUOUS
 62
     3
 48
0.5
100
AcDbCircle
 10
209.8424681727876
 20
102.385444865221
 30
0.0
 40
1.999994781250517
100
AcDbArc
 50
90.00021433840112
 51
159.7938891257103
  0
ARC
  5
C29
330
1A
100
AcDbEntity
  8
SEIHIN
  6
CONTINUOUS
 62
     3
 48
0.5
100
AcDbCircle
 10
209.8424121110691
 20
102.3854057587543
 30
0.0
 40
0.5000338900630875
100
AcDbArc
 50
89.99443352893321
 51
159.7910764237405
  0
LINE
  5
C2A
330
1A
100
AcDbEntity
  8
SEIHIN
  6
CONTINUOUS
 62
     3
 48
0.5
100
AcDbLine
 10
212.4903606909855
 20
104.8854396464575
 30
0.0
 11
212.4903606909855
 21
105.8855396464575
 31
0.0
  0
LINE
  5
C2B
330
1A
100
AcDbEntity
  8
SEIHIN
  6
CONTINUOUS
 62
     3
 48
0.5
100
AcDbLine
 10
210.9903606909855
 20
104.8854396464575
 30
0.0
 11
210.9903606909855
 21
105.8855396464575
 31
0.0
  0
LINE
  5
C2C
330
1A
100
AcDbEntity
  8
SEIHIN
  6
CONTINUOUS
 62
     3
 48
0.5
100
AcDbLine
 10
210.4903606909855
 20
104.3854396464575
 30
0.0
 11
209.8424606909855
 21
104.3854396464575
 31
0.0
  0
LINE
  5
C2D
330
1A
100
AcDbEntity
  8
SEIHIN
  6
CONTINUOUS
 62
     3
 48
0.5
100
AcDbLine
 10
210.4903606909855
 20
102.8854396464575
 30
0.0
 11
209.8424606909855
 21
102.8854396464575
 31
0.0
  0
ARC
  5
C2E
330
1A
100
AcDbEntity
  8
SEIHIN
  6
CONTINUOUS
 62
     3
 48
0.5
100
AcDbCircle
 10
210.4903606909855
 20
104.8854396464575
 30
0.0
 40
2.0
100
AcDbArc
 50
270.0
 51
0.0
  0
ARC
  5
C2F
330
1A
100
AcDbEntity
  8
SEIHIN
  6
CONTINUOUS
 62
     3
 48
0.5
100
AcDbCircle
 10
210.4903606909855
 20
104.8854396464575
 30
0.0
 40
0.5
100
AcDbArc
 50
270.0
 51
0.0
  0
LINE
  5
C30
330
1A
100
AcDbEntity
  8
SEIHIN
  6
CONTINUOUS
 62
     3
 48
0.5
100
AcDbLine
 10
209.7903606909855
 20
110.8854979657306
 30
0.0
 11
208.7903606909855
 21
110.8854979657306
 31
0.0
  0
LINE
  5
C31
330
1A
100
AcDbEntity
  8
SEIHIN
  6
CONTINUOUS
 62
     3
 48
0.5
100
AcDbLine
 10
212.4903606909855
 20
109.3854963240988
 30
0.0
 11
214.4903606909855
 21
109.3854963240988
 31
0.0
  0
ARC
  5
C32
330
1A
100
AcDbEntity
  8
SEIHIN
  6
CONTINUOUS
 62
     3
 48
0.5
100
AcDbCircle
 10
209.8424929286033
 20
124.3855171587048
 30
0.0
 40
1.999977512507131
100
AcDbArc
 50
200.2027131268757
 51
269.9990764498929
  0
ARC
  5
C33
330
1A
100
AcDbEntity
  8
SEIHIN
  6
CONTINUOUS
 62
     3
 48
0.5
100
AcDbCircle
 10
210.4903606909855
 20
121.8855396464575
 30
0.0
 40
2.0
100
AcDbArc
 50
0.0
 51
90.0
  0
LINE
  5
C34
330
1A
100
AcDbEntity
  8
SEIHIN
  6
CONTINUOUS
 62
     3
 48
0.5
100
AcDbLine
 10
208.7903606909855
 20
115.8854979657306
 30
0.0
 11
209.7903606909855
 21
115.8854979657306
 31
0.0
  0
LINE
  5
C35
330
1A
100
AcDbEntity
  8
SEIHIN
  6
CONTINUOUS
 62
     3
 48
0.5
100
AcDbLine
 10
210.9903606909855
 20
121.8855396464575
 30
0.0
 11
210.9903606909855
 21
120.8855396464575
 31
0.0
  0
LINE
  5
C36
330
1A
100
AcDbEntity
  8
SEIHIN
  6
CONTINUOUS
 62
     3
 48
0.5
100
AcDbLine
 10
212.4903606909855
 20
121.8855396464575
 30
0.0
 11
212.4903606909855
 21
120.8855396464575
 31
0.0
  0
ARC
  5
C37
330
1A
100
AcDbEntity
  8
SEIHIN
  6
CONTINUOUS
 62
     3
 48
0.5
100
AcDbCircle
 10
210.4903606909855
 20
121.8855396464575
 30
0.0
 40
0.5
100
AcDbArc
 50
0.0
 51
90.0
  0
LINE
  5
C38
330
1A
100
AcDbEntity
  8
SEIHIN
  6
CONTINUOUS
 62
     3
 48
0.5
100
AcDbLine
 10
210.4903606909855
 20
122.3855396464575
 30
0.0
 11
209.8424606909855
 21
122.3855396464575
 31
0.0
  0
LINE
  5
C39
330
1A
100
AcDbEntity
  8
SEIHIN
  6
CONTINUOUS
 62
     3
 48
0.5
100
AcDbLine
 10
214.4903606909855
 20
117.3854963240988
 30
0.0
 11
212.4903606909855
 21
117.3854963240988
 31
0.0
  0
ARC
  5
C3A
330
1A
100
AcDbEntity
  8
SEIHIN
  6
CONTINUOUS
 62
     3
 48
0.5
100
AcDbCircle
 10
209.8424121110692
 20
124.3855735341608
 30
0.0
 40
0.5000338900630889
100
AcDbArc
 50
200.2089235762594
 51
270.0055664710668
  0
LINE
  5
C3B
330
1A
100
AcDbEntity
  8
SEIHIN
  6
CONTINUOUS
 62
     3
 48
0.5
100
AcDbLine
 10
210.4903606909855
 20
123.8855396464575
 30
0.0
 11
209.8424606909855
 21
123.8855396464575
 31
0.0
  0
LINE
  5
C3C
330
1A
100
AcDbEntity
  8
SEIHIN
  6
CONTINUOUS
 62
     3
 48
0.5
100
AcDbLine
 10
148.1761606909854
 20
183.3892746478849
 30
0.0
 11
160.7206606909855
 21
184.3167746478848
 31
0.0
  0
LINE
  5
C3D
330
1A
100
AcDbEntity
  8
SEIHIN
  6
CONTINUOUS
 62
     3
 48
0.5
100
AcDbLine
 10
148.1761606909854
 20
190.2305746478848
 30
0.0
 11
160.7206606909855
 21
189.3031746478846
 31
0.0
  0
LINE
  5
C3E
330
1A
100
AcDbEntity
  8
SEIHIN
  6
CONTINUOUS
 62
     3
 48
0.5
100
AcDbLine
 10
163.0362606909855
 20
180.3099746478847
 30
0.0
 11
148.6023606909854
 21
180.8098746478848
 31
0.0
  0
LINE
  5
C3F
330
1A
100
AcDbEntity
  8
SEIHIN
  6
CONTINUOUS
 62
     3
 48
0.5
100
AcDbLine
 10
151.1023606909854
 20
185.8099746478846
 30
0.0
 11
147.1023606909854
 21
185.8099746478846
 31
0.0
  0
LINE
  5
C40
330
1A
100
AcDbEntity
  8
SEIHIN
  6
CONTINUOUS
 62
     3
 48
0.5
100
AcDbLine
 10
151.1024606909855
 20
187.8099746478846
 30
0.0
 11
147.1024606909855
 21
187.8099746478846
 31
0.0
  0
LINE
  5
C41
330
1A
100
AcDbEntity
  8
SEIHIN
  6
CONTINUOUS
 62
     3
 48
0.5
100
AcDbLine
 10
148.6024606909855
 20
192.8098746478848
 30
0.0
 11
163.0363606909855
 21
193.3099746478846
 31
0.0
  0
LINE
  5
C42
330
1A
100
AcDbEntity
  8
SEIHIN
  6
CONTINUOUS
 62
     3
 48
0.5
100
AcDbLine
 10
148.1024606909855
 20
187.8099746478846
 30
0.0
 11
148.1023606909855
 21
185.8099746478846
 31
0.0
  0
LINE
  5
C43
330
1A
100
AcDbEntity
  8
SEIHIN
  6
CONTINUOUS
 62
     3
 48
0.5
100
AcDbLine
 10
148.6023606909854
 20
180.8098746478848
 30
0.0
 11
148.6023606909854
 21
183.4207746478848
 31
0.0
  0
ARC
  5
C44
330
1A
100
AcDbEntity
  8
SEIHIN
  6
CONTINUOUS
 62
     3
 48
0.5
100
AcDbCircle
 10
148.1023741233049
 20
184.386562172827
 30
0.0
 40
1.000013432397389
100
AcDbArc
 50
179.9992852414392
 51
274.2314476183859
  0
LINE
  5
C45
330
1A
100
AcDbEntity
  8
SEIHIN
  6
CONTINUOUS
 62
     3
 48
0.5
100
AcDbLine
 10
147.1023606909854
 20
184.3865746478847
 30
0.0
 11
147.1023606909854
 21
185.8099746478846
 31
0.0
  0
LINE
  5
C46
330
1A
100
AcDbEntity
  8
SEIHIN
  6
CONTINUOUS
 62
     3
 48
0.5
100
AcDbLine
 10
148.6024606909855
 20
190.1990746478847
 30
0.0
 11
148.6024606909855
 21
192.8098746478848
 31
0.0
  0
LINE
  5
C47
330
1A
100
AcDbEntity
  8
SEIHIN
  6
CONTINUOUS
 62
     3
 48
0.5
100
AcDbLine
 10
147.1024606909855
 20
187.8099746478846
 30
0.0
 11
147.1024606909855
 21
189.2332746478848
 31
0.0
  0
ARC
  5
C48
330
1A
100
AcDbEntity
  8
SEIHIN
  6
CONTINUOUS
 62
     3
 48
0.5
100
AcDbCircle
 10
148.1024704358905
 20
189.233283699219
 30
0.0
 40
1.000009744945923
100
AcDbArc
 50
85.77407006447186
 51
180.0005185981908
  0
LINE
  5
C49
330
1A
100
AcDbEntity
  8
SEIHIN
  6
CONTINUOUS
 62
     3
 48
0.5
100
AcDbLine
 10
212.4904606909855
 20
180.3098746478848
 30
0.0
 11
163.0362606909855
 21
180.3099746478847
 31
0.0
  0
LINE
  5
C4A
330
1A
100
AcDbEntity
  8
SEIHIN
  6
CONTINUOUS
 62
     3
 48
0.5
100
AcDbLine
 10
212.4904606909855
 20
193.3098746478849
 30
0.0
 11
163.0354606909855
 21
193.3099746478846
 31
0.0
  0
LINE
  5
C4B
330
1A
100
AcDbEntity
  8
CENTER_L
  6
CENTER
 62
     1
 48
5.0
100
AcDbLine
 10
171.2151963322811
 20
147.2355396464575
 30
0.0
 11
188.6893250496897
 21
147.2355396464575
 31
0.0
  0
ARC
  5
C4C
330
1A
100
AcDbEntity
  8
SEIHIN
  6
CONTINUOUS
 62
     3
 48
0.5
100
AcDbCircle
 10
165.35897475559
 20
141.1318349048353
 30
0.0
 40
1.500012409945032
100
AcDbArc
 50
24.99882432683858
 51
117.7407857890264
  0
ARC
  5
C4D
330
1A
100
AcDbEntity
  8
SEIHIN
  6
CONTINUOUS
 62
     3
 48
0.5
100
AcDbCircle
 10
179.9522606909854
 20
147.2355396464575
 30
0.0
 40
4.000000000000014
100
AcDbArc
 50
180.0
 51
0.0
  0
ARC
  5
C4E
330
1A
100
AcDbEntity
  8
SEIHIN
  6
CONTINUOUS
 62
     3
 48
0.5
100
AcDbCircle
 10
179.9522606909854
 20
147.2355396464575
 30
0.0
 40
4.0
100
AcDbArc
 50
0.0
 51
180.0
  0
LINE
  5
C4F
330
1A
100
AcDbEntity
  8
SEIHIN
  6
CONTINUOUS
 62
     3
 48
0.5
100
AcDbLine
 10
151.1024606909855
 20
187.8099746478846
 30
0.0
 11
151.1023606909854
 21
185.8099746478846
 31
0.0
  0
ARC
  5
C50
330
1A
100
AcDbEntity
  8
SEIHIN
  6
CONTINUOUS
 62
     3
 48
0.5
100
AcDbCircle
 10
160.5362606909854
 20
186.8099746478846
 30
0.0
 40
2.5
100
AcDbArc
 50
269.9999999999967
 51
0.0
  0
ARC
  5
C51
330
1A
100
AcDbEntity
  8
SEIHIN
  6
CONTINUOUS
 62
     3
 48
0.5
100
AcDbCircle
 10
160.5362606909854
 20
186.8099746478846
 30
0.0
 40
2.500000000000056
100
AcDbArc
 50
0.0000000000024427
 51
90.0
  0
LINE
  5
C52
330
1A
100
AcDbEntity
  8
SEIHIN
  6
CONTINUOUS
 62
     3
 48
0.5
100
AcDbLine
 10
183.4523606909855
 20
183.0599746478846
 30
0.0
 11
175.4523606909854
 21
183.0599746478846
 31
0.0
  0
LINE
  5
C53
330
1A
100
AcDbEntity
  8
SEIHIN
  6
CONTINUOUS
 62
     3
 48
0.5
100
AcDbLine
 10
177.4523606909854
 20
193.8099746478846
 30
0.0
 11
182.4523606909855
 21
193.8099746478846
 31
0.0
  0
LINE
  5
C54
330
1A
100
AcDbEntity
  8
SEIHIN
  6
CONTINUOUS
 62
     3
 48
0.5
100
AcDbLine
 10
183.4523606909855
 20
190.5601746478847
 30
0.0
 11
175.4523606909854
 21
190.5601746478847
 31
0.0
  0
LINE
  5
C55
330
1A
100
AcDbEntity
  8
SEIHIN
  6
CONTINUOUS
 62
     3
 48
0.5
100
AcDbLine
 10
184.4523606909855
 20
189.5600746478848
 30
0.0
 11
176.4523606909855
 21
189.5601746478848
 31
0.0
  0
LINE
  5
C56
330
1A
100
AcDbEntity
  8
SEIHIN
  6
CONTINUOUS
 62
     3
 48
0.5
100
AcDbLine
 10
175.9523606909855
 20
178.8099746478847
 30
0.0
 11
183.9523606909854
 21
178.8099746478847
 31
0.0
  0
LINE
  5
C57
330
1A
100
AcDbEntity
  8
SEIHIN
  6
CONTINUOUS
 62
     3
 48
0.5
100
AcDbLine
 10
184.4523606909855
 20
184.0598746478846
 30
0.0
 11
176.4523606909855
 21
184.0599746478846
 31
0.0
  0
LINE
  5
C58
330
1A
100
AcDbEntity
  8
SEIHIN
  6
CONTINUOUS
 62
     3
 48
0.5
100
AcDbLine
 10
175.4523606909854
 20
186.8099746478846
 30
0.0
 11
175.4523606909854
 21
183.0599746478846
 31
0.0
  0
LINE
  5
C59
330
1A
100
AcDbEntity
  8
SEIHIN
  6
CONTINUOUS
 62
     3
 48
0.5
100
AcDbLine
 10
176.4523606909855
 20
186.8099746478846
 30
0.0
 11
176.4523606909855
 21
184.0599746478846
 31
0.0
  0
LINE
  5
C5A
330
1A
100
AcDbEntity
  8
SEIHIN
  6
CONTINUOUS
 62
     3
 48
0.5
100
AcDbLine
 10
175.9523606909855
 20
178.8099746478847
 30
0.0
 11
175.9523606909855
 21
183.0599746478846
 31
0.0
  0
LINE
  5
C5B
330
1A
100
AcDbEntity
  8
SEIHIN
  6
CONTINUOUS
 62
     3
 48
0.5
100
AcDbLine
 10
175.9523606909855
 20
193.3100746478847
 30
0.0
 11
175.9523606909855
 21
190.5600746478848
 31
0.0
  0
LINE
  5
C5C
330
1A
100
AcDbEntity
  8
SEIHIN
  6
CONTINUOUS
 62
     3
 48
0.5
100
AcDbLine
 10
175.4523606909854
 20
186.8100746478848
 30
0.0
 11
175.4523606909854
 21
190.5600746478848
 31
0.0
  0
LINE
  5
C5D
330
1A
100
AcDbEntity
  8
SEIHIN
  6
CONTINUOUS
 62
     3
 48
0.5
100
AcDbLine
 10
176.4523606909855
 20
186.8100746478848
 30
0.0
 11
176.4523606909855
 21
189.5600746478848
 31
0.0
  0
LINE
  5
C5E
330
1A
100
AcDbEntity
  8
SEIHIN
  6
CONTINUOUS
 62
     3
 48
0.5
100
AcDbLine
 10
177.4523606909854
 20
193.3099746478846
 30
0.0
 11
177.4523606909854
 21
193.8099746478846
 31
0.0
  0
LINE
  5
C5F
330
1A
100
AcDbEntity
  8
SEIHIN
  6
CONTINUOUS
 62
     3
 48
0.5
100
AcDbLine
 10
183.9523606909854
 20
184.0599746478846
 30
0.0
 11
183.9523606909854
 21
186.8099746478846
 31
0.0
  0
LINE
  5
C60
330
1A
100
AcDbEntity
  8
SEIHIN
  6
CONTINUOUS
 62
     3
 48
0.5
100
AcDbLine
 10
184.4523606909855
 20
184.0599746478846
 30
0.0
 11
184.4523606909855
 21
180.3099746478847
 31
0.0
  0
LINE
  5
C61
330
1A
100
AcDbEntity
  8
SEIHIN
  6
CONTINUOUS
 62
     3
 48
0.5
100
AcDbLine
 10
183.4523606909855
 20
183.0599746478846
 30
0.0
 11
183.4523606909855
 21
180.3099746478847
 31
0.0
  0
LINE
  5
C62
330
1A
100
AcDbEntity
  8
SEIHIN
  6
CONTINUOUS
 62
     3
 48
0.5
100
AcDbLine
 10
183.9523606909854
 20
178.8099746478847
 30
0.0
 11
183.9523606909854
 21
180.3099746478847
 31
0.0
  0
LINE
  5
C63
330
1A
100
AcDbEntity
  8
SEIHIN
  6
CONTINUOUS
 62
     3
 48
0.5
100
AcDbLine
 10
183.9523606909854
 20
189.5601746478848
 30
0.0
 11
183.9523606909854
 21
186.8100746478848
 31
0.0
  0
LINE
  5
C64
330
1A
100
AcDbEntity
  8
SEIHIN
  6
CONTINUOUS
 62
     3
 48
0.5
100
AcDbLine
 10
182.4523606909855
 20
193.3099746478846
 30
0.0
 11
182.4523606909855
 21
193.8099746478846
 31
0.0
  0
LINE
  5
C65
330
1A
100
AcDbEntity
  8
SEIHIN
  6
CONTINUOUS
 62
     3
 48
0.5
100
AcDbLine
 10
183.4523606909855
 20
190.5601746478847
 30
0.0
 11
183.4523606909855
 21
193.3100746478847
 31
0.0
  0
LINE
  5
C66
330
1A
100
AcDbEntity
  8
SEIHIN
  6
CONTINUOUS
 62
     3
 48
0.5
100
AcDbLine
 10
184.4523606909855
 20
189.5600746478848
 30
0.0
 11
184.4523606909855
 21
193.3100746478847
 31
0.0
  0
ARC
  5
C67
330
1A
100
AcDbEntity
  8
SEIHIN
  6
CONTINUOUS
 62
     3
 48
0.5
100
AcDbCircle
 10
211.7904606909855
 20
193.3098760266888
 30
0.0
 40
2.0
100
AcDbArc
 50
89.99988714335945
 51
180.0
  0
ARC
  5
C68
330
1A
100
AcDbEntity
  8
SEIHIN
  6
CONTINUOUS
 62
     3
 48
0.5
100
AcDbCircle
 10
211.7904606909855
 20
193.3098760266888
 30
0.0
 40
0.8000000000000113
100
AcDbArc
 50
89.99988714335945
 51
180.0
  0
LINE
  5
C69
330
1A
100
AcDbEntity
  8
SEIHIN
  6
CONTINUOUS
 62
     3
 48
0.5
100
AcDbLine
 10
210.9904606909855
 20
180.3098746478848
 30
0.0
 11
210.9904606909855
 21
193.3098760266888
 31
0.0
  0
LINE
  5
C6A
330
1A
100
AcDbEntity
  8
SEIHIN
  6
CONTINUOUS
 62
     3
 48
0.5
100
AcDbLine
 10
209.7904606909855
 20
180.3098746478848
 30
0.0
 11
209.7904606909855
 21
193.3098760266888
 31
0.0
  0
LINE
  5
C6B
330
1A
100
AcDbEntity
  8
SEIHIN
  6
CONTINUOUS
 62
     3
 48
0.5
100
AcDbLine
 10
212.4904606909855
 20
180.3098746478848
 30
0.0
 11
212.4904606909855
 21
193.3098746478849
 31
0.0
  0
LINE
  5
C6C
330
1A
100
AcDbEntity
  8
SEIHIN
  6
CONTINUOUS
 62
     3
 48
0.5
100
AcDbLine
 10
214.4904606909855
 20
182.8098746478849
 30
0.0
 11
214.4904606909855
 21
190.8098746478849
 31
0.0
  0
LINE
  5
C6D
330
1A
100
AcDbEntity
  8
SEIHIN
  6
CONTINUOUS
 62
     3
 48
0.5
100
AcDbLine
 10
212.4904606909855
 20
190.8098746478849
 30
0.0
 11
212.4904606909855
 21
182.8098746478849
 31
0.0
  0
LINE
  5
C6E
330
1A
100
AcDbEntity
  8
SEIHIN
  6
CONTINUOUS
 62
     3
 48
0.5
100
AcDbLine
 10
208.9904606909853
 20
180.3098746478848
 30
0.0
 11
208.9904606909853
 21
193.3098746478849
 31
0.0
  0
LINE
  5
C6F
330
1A
100
AcDbEntity
  8
SEIHIN
  6
CONTINUOUS
 62
     3
 48
0.5
100
AcDbLine
 10
212.4904606909855
 20
182.8098746478849
 30
0.0
 11
214.4904606909855
 21
182.8098746478849
 31
0.0
  0
LINE
  5
C70
330
1A
100
AcDbEntity
  8
SEIHIN
  6
CONTINUOUS
 62
     3
 48
0.5
100
AcDbLine
 10
214.4904606909855
 20
190.8098746478849
 30
0.0
 11
212.4904606909855
 21
190.8098746478849
 31
0.0
  0
LINE
  5
C71
330
1A
100
AcDbEntity
  8
SEIHIN
  6
CONTINUOUS
 62
     3
 48
0.5
100
AcDbLine
 10
258.2903606909856
 20
120.8855396464575
 30
0.0
 11
258.2903606909856
 21
105.8855396464575
 31
0.0
  0
LINE
  5
C72
330
1A
100
AcDbEntity
  8
SEIHIN
  6
CONTINUOUS
 62
     3
 48
0.5
100
AcDbLine
 10
259.4903606909855
 20
120.8855396464575
 30
0.0
 11
259.4903606909855
 21
105.8855396464575
 31
0.0
  0
LINE
  5
C73
330
1A
100
AcDbEntity
  8
SEIHIN
  6
CONTINUOUS
 62
     3
 48
0.5
100
AcDbLine
 10
279.3640966180325
 20
180.3098746478848
 30
0.0
 11
279.3640966180325
 21
213.8098313140897
 31
0.0
  0
LINE
  5
C74
330
1A
100
AcDbEntity
  8
SEIHIN
  6
CONTINUOUS
 62
     3
 48
0.5
100
AcDbLine
 10
294.3640966180325
 20
213.8098313140897
 30
0.0
 11
294.3640966180325
 21
180.3098746478848
 31
0.0
  0
LINE
  5
C75
330
1A
100
AcDbEntity
  8
SEIHIN
  6
CONTINUOUS
 62
     3
 48
0.5
100
AcDbLine
 10
258.2904606909855
 20
196.1098352534914
 30
0.0
 11
258.2904606909855
 21
215.8098336777536
 31
0.0
  0
LINE
  5
C76
330
1A
100
AcDbEntity
  8
SEIHIN
  6
CONTINUOUS
 62
     3
 48
0.5
100
AcDbLine
 10
259.4904606909855
 20
196.1098352534914
 30
0.0
 11
259.4904606909855
 21
215.8098313140897
 31
0.0
  0
CIRCLE
  5
C77
330
1A
100
AcDbEntity
  8
SEIHIN
  6
CONTINUOUS
 62
     3
 48
0.5
100
AcDbCircle
 10
286.8640966180326
 20
208.3097694383101
 30
0.0
 40
2.149999999999919
  0
LINE
  5
C78
330
1A
100
AcDbEntity
  8
SEIHIN
  6
CONTINUOUS
 62
     3
 48
0.5
100
AcDbLine
 10
279.3640966180325
 20
194.1098352534953
 30
0.0
 11
294.3640966180325
 21
194.1098352534953
 31
0.0
  0
ARC
  5
C79
330
1A
100
AcDbEntity
  8
SEIHIN
  6
CONTINUOUS
 62
     3
 48
0.5
100
AcDbCircle
 10
257.4904606909855
 20
196.1098352534914
 30
0.0
 40
2.000000000000014
100
AcDbArc
 50
269.9998871433594
 51
0.0
  0
ARC
  5
C7A
330
1A
100
AcDbEntity
  8
SEIHIN
  6
CONTINUOUS
 62
     3
 48
0.5
100
AcDbCircle
 10
257.4904606909855
 20
196.1098352534914
 30
0.0
 40
0.8000000000000285
100
AcDbArc
 50
269.9998871433626
 51
0.0
  0
LINE
  5
C7B
330
1A
100
AcDbEntity
  8
SEIHIN
  6
CONTINUOUS
 62
     3
 48
0.5
100
AcDbLine
 10
281.3640966180325
 20
215.8098313140897
 30
0.0
 11
292.3640966180325
 21
215.8098313140897
 31
0.0
  0
LINE
  5
C7C
330
1A
100
AcDbEntity
  8
SEIHIN
  6
CONTINUOUS
 62
     3
 48
0.5
100
AcDbLine
 10
259.4904606909855
 20
215.8098313140897
 30
0.0
 11
258.2904606909855
 21
215.8098336777536
 31
0.0
  0
LINE
  5
C7D
330
1A
100
AcDbEntity
  8
SEIHIN
  6
CONTINUOUS
 62
     3
 48
0.5
100
AcDbLine
 10
279.3640966180325
 20
213.8098313140897
 30
0.0
 11
281.3640966180325
 21
215.8098313140897
 31
0.0
  0
LINE
  5
C7E
330
1A
100
AcDbEntity
  8
SEIHIN
  6
CONTINUOUS
 62
     3
 48
0.5
100
AcDbLine
 10
292.3640966180325
 20
215.8098313140897
 30
0.0
 11
294.3640966180325
 21
213.8098313140897
 31
0.0
  0
DIMENSION
  5
EC3
330
1A
100
AcDbEntity
  8
SUNPOU
100
AcDbDimension
  2
*D30
 10
210.9903606909855
 20
70.83265816062589
 30
0.0
 11
234.1403606909855
 21
70.83265816062589
 31
0.0
 70
   160
  3
STANDARD
100
AcDbAlignedDimension
 13
259.4903606909855
 23
105.8855396464575
 33
0.0
 14
210.9903606909855
 24
105.3854896464575
 34
0.0
100
AcDbRotatedDimension
1001
ACAD
1000
DSTYLE
1002
{
1070
    41
1040
3.0
1070
    42
1040
3.0
1070
    43
1040
7.0
1070
    44
1040
1.5
1070
    73
1070
     0
1070
    74
1070
     0
1070
    77
1070
     3
1070
   140
1040
3.0
1070
   141
1040
150.0
1070
   147
1040
1.0
1070
   172
1070
     1
1070
   173
1070
     1
1070
   176
1070
   256
1070
   177
1070
   256
1070
   178
1070
   256
1070
   271
1070
     0
1070
   272
1070
     0
1070
   288
1070
     1
1070
   341
1005
B2
1070
     6
1000
OPEN
1070
     7
1000
OPEN
1070
   371
1070
    -1
1070
   372
1070
    -1
1002
}
  0
DIMENSION
  5
ED1
330
1A
100
AcDbEntity
  8
SUNPOU
100
AcDbDimension
  2
*D31
 10
147.1022606909826
 20
61.81895558657856
 30
0.0
 11
203.2963106909841
 21
61.81895558657856
 31
0.0
 70
   160
  3
STANDARD
100
AcDbAlignedDimension
 13
259.4903606909855
 23
102.8855396464575
 33
0.0
 14
147.1022606909826
 24
113.3855360808333
 34
0.0
100
AcDbRotatedDimension
1001
ACAD
1000
DSTYLE
1002
{
1070
    41
1040
3.0
1070
    42
1040
3.0
1070
    43
1040
7.0
1070
    44
1040
1.5
1070
    73
1070
     0
1070
    74
1070
     0
1070
    77
1070
     3
1070
   140
1040
3.0
1070
   141
1040
150.0
1070
   147
1040
1.0
1070
   172
1070
     1
1070
   173
1070
     1
1070
   176
1070
   256
1070
   177
1070
   256
1070
   178
1070
   256
1070
   271
1070
     0
1070
   272
1070
     0
1070
   288
1070
     1
1070
   341
1005
B2
1070
     6
1000
OPEN
1070
     7
1000
OPEN
1070
   371
1070
    -1
1070
   372
1070
    -1
1002
}
  0
DIMENSION
  5
EF9
330
1A
100
AcDbEntity
  8
SUNPOU
100
AcDbDimension
  2
*D32
 10
281.1341579707582
 20
105.8855396464575
 30
0.0
 11
281.1341579707582
 21
113.5766819590845
 31
0.0
 70
   160
  3
STANDARD
100
AcDbAlignedDimension
 13
259.4903606909855
 23
120.8855396464575
 33
0.0
 14
259.4903606909855
 24
105.8855396464575
 34
0.0
 50
90.0
100
AcDbRotatedDimension
1001
ACAD
1000
DSTYLE
1002
{
1070
    41
1040
3.0
1070
    42
1040
3.0
1070
    43
1040
7.0
1070
    44
1040
1.5
1070
    73
1070
     0
1070
    74
1070
     0
1070
    77
1070
     3
1070
   140
1040
3.0
1070
   141
1040
150.0
1070
   147
1040
1.0
1070
   172
1070
     1
1070
   173
1070
     1
1070
   176
1070
   256
1070
   177
1070
   256
1070
   178
1070
   256
1070
   271
1070
     0
1070
   272
1070
     0
1070
   288
1070
     1
1070
   341
1005
B2
1070
     6
1000
OPEN
1070
     7
1000
OPEN
1070
   371
1070
    -1
1070
   372
1070
    -1
1002
}
  0
DIMENSION
  5
F06
330
1A
100
AcDbEntity
  8
SUNPOU
100
AcDbDimension
  2
*D33
 10
311.4034678414824
 20
208.3097088269932
 30
0.0
 11
311.4034678414824
 21
212.0597700705415
 31
0.0
 70
   160
  3
STANDARD
100
AcDbAlignedDimension
 13
292.3640966180325
 23
215.8098313140897
 33
0.0
 14
294.8157875102922
 24
208.3097088269932
 34
0.0
 50
90.0
100
AcDbRotatedDimension
1001
ACAD
1000
DSTYLE
1002
{
1070
    41
1040
3.0
1070
    42
1040
3.0
1070
    43
1040
7.0
1070
    44
1040
1.5
1070
    73
1070
     0
1070
    74
1070
     0
1070
    77
1070
     3
1070
   140
1040
3.0
1070
   141
1040
150.0
1070
   147
1040
1.0
1070
   172
1070
     1
1070
   173
1070
     1
1070
   176
1070
   256
1070
   177
1070
   256
1070
   178
1070
   256
1070
   271
1070
     0
1070
   272
1070
     0
1070
   288
1070
     1
1070
   341
1005
B2
1070
     6
1000
OPEN
1070
     7
1000
OPEN
1070
   371
1070
    -1
1070
   372
1070
    -1
1002
}
  0
DIMENSION
  5
F1C
330
1A
100
AcDbEntity
  8
SUNPOU
100
AcDbDimension
  2
*D34
 10
131.7190300134885
 20
180.3099746478847
 30
0.0
 11
131.7190300134884
 21
186.3963743410752
 31
0.0
 70
   160
  3
STANDARD
100
AcDbAlignedDimension
 13
163.0354606909855
 23
193.3099746478846
 33
0.0
 14
163.0362606909855
 24
180.3099746478847
 34
0.0
 50
90.0
100
AcDbRotatedDimension
1001
ACAD
1000
DSTYLE
1002
{
1070
    41
1040
3.0
1070
    42
1040
3.0
1070
    43
1040
7.0
1070
    44
1040
1.5
1070
    73
1070
     0
1070
    74
1070
     0
1070
    77
1070
     3
1070
   140
1040
3.0
1070
   141
1040
150.0
1070
   147
1040
1.0
1070
   172
1070
     1
1070
   173
1070
     1
1070
   176
1070
   256
1070
   177
1070
   256
1070
   178
1070
   256
1070
   271
1070
     0
1070
   272
1070
     0
1070
   288
1070
     1
1070
   341
1005
B2
1070
     6
1000
OPEN
1070
     7
1000
OPEN
1070
   371
1070
    -1
1070
   372
1070
    -1
1002
}
  0
DIMENSION
  5
FA4
330
1A
100
AcDbEntity
  8
SUNPOU
100
AcDbDimension
  2
*D35
 10
248.9666688009449
 20
194.1098352534953
 30
0.0
 11
248.9666688009449
 21
207.2050447588601
 31
0.0
 70
   160
  1
21.7
  3
STANDARD
100
AcDbAlignedDimension
 13
259.4904606909855
 23
215.8098313140897
 33
0.0
 14
257.4904567515456
 24
194.1098352534953
 34
0.0
 50
90.0
100
AcDbRotatedDimension
1001
ACAD
1000
DSTYLE
1002
{
1070
    41
1040
3.0
1070
    42
1040
3.0
1070
    43
1040
7.0
1070
    44
1040
1.5
1070
    73
1070
     0
1070
    74
1070
     0
1070
    77
1070
     3
1070
   140
1040
3.0
1070
   141
1040
150.0
1070
   147
1040
1.0
1070
   172
1070
     1
1070
   173
1070
     1
1070
   176
1070
   256
1070
   177
1070
   256
1070
   178
1070
   256
1070
   271
1070
     0
1070
   272
1070
     0
1070
   288
1070
     1
1070
   341
1005
B2
1070
     6
1000
OPEN
1070
     7
1000
OPEN
1070
   371
1070
    -1
1070
   372
1070
    -1
1002
}
  0
DIMENSION
  5
FEC
330
1A
100
AcDbEntity
  8
SUNPOU
100
AcDbDimension
  2
*D36
 10
311.4034678414826
 20
186.8098746478849
 30
0.0
 11
311.4034678414825
 21
197.559791737439
 31
0.0
 70
   160
  3
STANDARD
100
AcDbAlignedDimension
 13
305.3596276758874
 23
208.3097088269932
 33
0.0
 14
294.8157875102922
 24
186.8098746478849
 34
0.0
 50
90.0
100
AcDbRotatedDimension
1001
ACAD
1000
DSTYLE
1002
{
1070
    41
1040
3.0
1070
    42
1040
3.0
1070
    43
1040
7.0
1070
    44
1040
1.5
1070
    73
1070
     0
1070
    74
1070
     0
1070
    77
1070
     3
1070
   140
1040
3.0
1070
   141
1040
150.0
1070
   147
1040
1.0
1070
   172
1070
     1
1070
   173
1070
     1
1070
   176
1070
   256
1070
   177
1070
   256
1070
   178
1070
   256
1070
   271
1070
     0
1070
   272
1070
     0
1070
   288
1070
     1
1070
   341
1005
B2
1070
     6
1000
OPEN
1070
     7
1000
OPEN
1070
   371
1070
    -1
1070
   372
1070
    -1
1002
}
  0
VIEWPORT
  5
22
330
17
100
AcDbEntity
 67
     1
  8
0
100
AcDbViewport
 10
313.6808219178082
 20
148.5
 30
0.0
 40
627.3616438356165
 41
297.0
 68
     2
 69
     1
1001
ACAD
1000
MVIEW
1002
{
1070
    16
1010
0.0
1020
0.0
1030
0.0
1010
0.0
1020
0.0
1030
1.0
1040
0.0
1040
297.0
1040
313.6808219178082
1040
148.5
1040
50.0
1040
0.0
1040
0.0
1070
     0
1070
   100
1070
     1
1070
     0
1070
     0
1070
     0
1070
     0
1070
     0
1040
0.0
1040
0.0
1040
0.0
1040
1.0
1040
1.0
1040
10.0
1040
10.0
1070
     0
1002
{
1002
}
1002
}
  0
VIEWPORT
  5
64
330
17
100
AcDbEntity
 67
     1
  8
VIEWPORT
100
AcDbViewport
 10
210.0
 20
148.5
 30
0.0
 40
420.0
 41
297.0
 68
     1
 69
     2
1001
ACAD
1000
MVIEW
1002
{
1070
    16
1010
0.0
1020
0.0
1030
0.0
1010
0.0
1020
0.0
1030
1.0
1040
0.0
1040
302.9399999999998
1040
210.0
1040
148.5
1040
50.0
1040
0.0
1040
0.0
1070
     0
1070
   100
1070
     1
1070
     0
1070
     0
1070
     0
1070
     0
1070
     0
1040
0.0
1040
0.0
1040
0.0
1040
5.0
1040
5.0
1040
0.0
1040
0.0
1070
     0
1002
{
1002
}
1002
}
  0
ENDSEC
  0
SECTION
  2
OBJECTS
  0
DICTIONARY
  5
C
330
0
100
AcDbDictionary
  3
ACAD_GROUP
350
D
  3
ACAD_LAYOUT
350
624
  3
ACAD_MLINESTYLE
350
E
  3
ACAD_PLOTSETTINGS
350
625
  3
ACAD_PLOTSTYLENAME
350
622
  3
ACDBHEADERROUNDTRIPXREC
350
1004
  0
DICTIONARY
  5
651
330
1A
100
AcDbDictionary
280
     1
  3
ACAD_LAYOUTSELFREF
360
1026
  0
DICTIONARY
  5
64F
330
17
100
AcDbDictionary
280
     1
  3
ACAD_LAYOUTSELFREF
360
1025
  0
DICTIONARY
  5
D
102
{ACAD_REACTORS
330
C
102
}
330
C
100
AcDbDictionary
  0
DICTIONARY
  5
624
102
{ACAD_REACTORS
330
C
102
}
330
C
100
AcDbDictionary
  0
DICTIONARY
  5
E
102
{ACAD_REACTORS
330
C
102
}
330
C
100
AcDbDictionary
  3
STANDARD
350
13
  0
DICTIONARY
  5
625
102
{ACAD_REACTORS
330
C
102
}
330
C
100
AcDbDictionary
  0
ACDBDICTIONARYWDFLT
  5
622
102
{ACAD_REACTORS
330
C
102
}
330
C
100
AcDbDictionary
281
     1
  3
Normal
350
623
100
AcDbDictionaryWithDefault
340
623
1001
ACAD
1000
TREAT_AS_HARD
1070
     0
1000
TREAT_AS_HARD
1070
     0
1000
TREAT_AS_HARD
1070
     0
1000
TREAT_AS_HARD
1070
     0
  0
DICTIONARY
  5
1004
102
{ACAD_REACTORS
330
C
102
}
330
C
100
AcDbDictionary
  3
TSTACKALIGN
350
1005
  3
TSTACKSIZE
350
1006
  3
HYPERLINKBASE
350
1007
  3
STYLESHEET
350
1008
  3
LAYOUTDICT
350
1009
  3
PLOTSETDICT
350
100A
  3
PLOTSTYLNAMDICT
350
100B
  3
LWETCUNION
350
100C
  3
INSUNITS
350
100D
  3
CEPSNTYPE
350
100E
  3
FINGERPRINTGUID
350
100F
  3
VERSIONGUID
350
1010
  3
PSVPSCALE
350
1011
  3
DIMSTYLEDATA
350
1012
  3
PUCSORTHOREF
350
1013
  3
PUCSORTHOVIEW
350
1014
  3
PUCSBASE
350
1015
  3
PUCSORGTOP
350
1016
  3
PUCSORGBOTTOM
350
1017
  3
PUCSORGLEFT
350
1018
  3
PUCSORGRIGHT
350
1019
  3
PUCSORGFRONT
350
101A
  3
PUCSORGBACK
350
101B
  3
UCSORTHOREF
350
101C
  3
UCSORTHOVIEW
350
101D
  3
UCSBASE
350
101E
  3
UCSORGTOP
350
101F
  3
UCSORGBOTTOM
350
1020
  3
UCSORGLEFT
350
1021
  3
UCSORGRIGHT
350
1022
  3
UCSORGFRONT
350
1023
  3
UCSORGBACK
350
1024
  0
XRECORD
  5
1026
102
{ACAD_REACTORS
330
651
102
}
330
651
100
AcDbXrecord
340
1A
  0
XRECORD
  5
1025
102
{ACAD_REACTORS
330
64F
102
}
330
64F
100
AcDbXrecord
340
17
  0
MLINESTYLE
  5
13
102
{ACAD_REACTORS
330
E
102
}
330
E
100
AcDbMlineStyle
  2
STANDARD
 70
     0
  3

 62
     0
 51
90.0
 52
90.0
 71
     2
 49
0.5
 62
   256
  6
BYLAYER
 49
-0.5
 62
   256
  6
BYLAYER
  0
ACDBPLACEHOLDER
  5
623
102
{ACAD_REACTORS
330
622
102
}
330
622
100
AcDbPlaceHolder
280
     0
  0
XRECORD
  5
1005
102
{ACAD_REACTORS
330
1004
102
}
330
1004
100
AcDbXrecord
 90
        1
  0
XRECORD
  5
1006
102
{ACAD_REACTORS
330
1004
102
}
330
1004
100
AcDbXrecord
 90
       70
  0
XRECORD
  5
1007
102
{ACAD_REACTORS
330
1004
102
}
330
1004
100
AcDbXrecord
  1

  0
XRECORD
  5
1008
102
{ACAD_REACTORS
330
1004
102
}
330
1004
100
AcDbXrecord
  1
systemprinter.ctb
  0
XRECORD
  5
1009
102
{ACAD_REACTORS
330
1004
102
}
330
1004
100
AcDbXrecord
340
624
  0
XRECORD
  5
100A
102
{ACAD_REACTORS
330
1004
102
}
330
1004
100
AcDbXrecord
340
625
  0
XRECORD
  5
100B
102
{ACAD_REACTORS
330
1004
102
}
330
1004
100
AcDbXrecord
340
622
  0
XRECORD
  5
100C
102
{ACAD_REACTORS
330
1004
102
}
330
1004
100
AcDbXrecord
 90
    10781
  0
XRECORD
  5
100D
102
{ACAD_REACTORS
330
1004
102
}
330
1004
100
AcDbXrecord
 90
        0
  0
XRECORD
  5
100E
102
{ACAD_REACTORS
330
1004
102
}
330
1004
100
AcDbXrecord
 90
        0
  0
XRECORD
  5
100F
102
{ACAD_REACTORS
330
1004
102
}
330
1004
100
AcDbXrecord
  1
{137E7082-72B8-11D5-AA3E-50A453C10000}
  0
XRECORD
  5
1010
102
{ACAD_REACTORS
330
1004
102
}
330
1004
100
AcDbXrecord
  1
{53873882-1FBB-4088-A553-E3E7BAA7F0F1}
  0
XRECORD
  5
1011
102
{ACAD_REACTORS
330
1004
102
}
330
1004
100
AcDbXrecord
 40
0.0
  0
XRECORD
  5
1012
102
{ACAD_REACTORS
330
1004
102
}
330
1004
100
AcDbXrecord
1000
DSTYLE
1002
{
1070
   341
340
B2
1070
   343
340
B2
1070
   344
340
B2
1070
   371
 70
    -1
1070
   372
 70
    -1
1002
}
  0
XRECORD
  5
1013
102
{ACAD_REACTORS
330
1004
102
}
330
1004
100
AcDbXrecord
340
0
  0
XRECORD
  5
1014
102
{ACAD_REACTORS
330
1004
102
}
330
1004
100
AcDbXrecord
 70
     0
  0
XRECORD
  5
1015
102
{ACAD_REACTORS
330
1004
102
}
330
1004
100
AcDbXrecord
340
0
  0
XRECORD
  5
1016
102
{ACAD_REACTORS
330
1004
102
}
330
1004
100
AcDbXrecord
 10
0.0
 20
0.0
 30
0.0
  0
XRECORD
  5
1017
102
{ACAD_REACTORS
330
1004
102
}
330
1004
100
AcDbXrecord
 10
0.0
 20
0.0
 30
0.0
  0
XRECORD
  5
1018
102
{ACAD_REACTORS
330
1004
102
}
330
1004
100
AcDbXrecord
 10
0.0
 20
0.0
 30
0.0
  0
XRECORD
  5
1019
102
{ACAD_REACTORS
330
1004
102
}
330
1004
100
AcDbXrecord
 10
0.0
 20
0.0
 30
0.0
  0
XRECORD
  5
101A
102
{ACAD_REACTORS
330
1004
102
}
330
1004
100
AcDbXrecord
 10
0.0
 20
0.0
 30
0.0
  0
XRECORD
  5
101B
102
{ACAD_REACTORS
330
1004
102
}
330
1004
100
AcDbXrecord
 10
0.0
 20
0.0
 30
0.0
  0
XRECORD
  5
101C
102
{ACAD_REACTORS
330
1004
102
}
330
1004
100
AcDbXrecord
340
0
  0
XRECORD
  5
101D
102
{ACAD_REACTORS
330
1004
102
}
330
1004
100
AcDbXrecord
 70
     0
  0
XRECORD
  5
101E
102
{ACAD_REACTORS
330
1004
102
}
330
1004
100
AcDbXrecord
340
0
  0
XRECORD
  5
101F
102
{ACAD_REACTORS
330
1004
102
}
330
1004
100
AcDbXrecord
 10
0.0
 20
0.0
 30
0.0
  0
XRECORD
  5
1020
102
{ACAD_REACTORS
330
1004
102
}
330
1004
100
AcDbXrecord
 10
0.0
 20
0.0
 30
0.0
  0
XRECORD
  5
1021
102
{ACAD_REACTORS
330
1004
102
}
330
1004
100
AcDbXrecord
 10
0.0
 20
0.0
 30
0.0
  0
XRECORD
  5
1022
102
{ACAD_REACTORS
330
1004
102
}
330
1004
100
AcDbXrecord
 10
0.0
 20
0.0
 30
0.0
  0
XRECORD
  5
1023
102
{ACAD_REACTORS
330
1004
102
}
330
1004
100
AcDbXrecord
 10
0.0
 20
0.0
 30
0.0
  0
XRECORD
  5
1024
102
{ACAD_REACTORS
330
1004
102
}
330
1004
100
AcDbXrecord
 10
0.0
 20
0.0
 30
0.0
  0
ENDSEC
  0
EOF
