  0
SECTION
  2
HEADER
  9
$ACADVER
  1
AC1014
  9
$ACADMAINTVER
 70
     9
  9
$DWGCODEPAGE
  3
ANSI_932
  9
$INSBASE
 10
0.0
 20
0.0
 30
0.0
  9
$EXTMIN
 10
-0.0128164049386896
 20
-0.0090630292066862
 30
-0.0015258207003583
  9
$EXTMAX
 10
398.8000497813338
 20
275.8226172440017
 30
0.0000000349246037
  9
$LIMMIN
 10
0.0
 20
0.0
  9
$LIMMAX
 10
420.0
 20
297.0
  9
$ORTHOMODE
 70
     0
  9
$REGENMODE
 70
     1
  9
$FILLMODE
 70
     1
  9
$QTEXTMODE
 70
     0
  9
$MIRRTEXT
 70
     1
  9
$DRAGMODE
 70
     2
  9
$LTSCALE
 40
1.0
  9
$OSMODE
 70
    35
  9
$ATTMODE
 70
     1
  9
$TEXTSIZE
 40
2.5
  9
$TRACEWID
 40
1.0
  9
$TEXTSTYLE
  7
STANDARD
  9
$CLAYER
  8
SEIHIN
  9
$CELTYPE
  6
BYLAYER
  9
$CECOLOR
 62
   256
  9
$CELTSCALE
 40
1.0
  9
$DELOBJ
 70
     1
  9
$DISPSILH
 70
     0
  9
$DIMSCALE
 40
1.0
  9
$DIMASZ
 40
3.0
  9
$DIMEXO
 40
3.0
  9
$DIMDLI
 40
7.0
  9
$DIMRND
 40
0.0
  9
$DIMDLE
 40
0.0
  9
$DIMEXE
 40
1.5
  9
$DIMTP
 40
0.0
  9
$DIMTM
 40
0.0
  9
$DIMTXT
 40
3.0
  9
$DIMCEN
 40
150.0
  9
$DIMTSZ
 40
0.0
  9
$DIMTOL
 70
     0
  9
$DIMLIM
 70
     0
  9
$DIMTIH
 70
     0
  9
$DIMTOH
 70
     0
  9
$DIMSE1
 70
     0
  9
$DIMSE2
 70
     0
  9
$DIMTAD
 70
     3
  9
$DIMZIN
 70
     0
  9
$DIMBLK
  1

  9
$DIMASO
 70
     1
  9
$DIMSHO
 70
     1
  9
$DIMPOST
  1

  9
$DIMAPOST
  1

  9
$DIMALT
 70
     0
  9
$DIMALTD
 70
     2
  9
$DIMALTF
 40
25.4
  9
$DIMLFAC
 40
1.0
  9
$DIMTOFL
 70
     1
  9
$DIMTVP
 40
0.0
  9
$DIMTIX
 70
     0
  9
$DIMSOXD
 70
     0
  9
$DIMSAH
 70
     1
  9
$DIMBLK1
  1
OPEN
  9
$DIMBLK2
  1
OPEN
  9
$DIMSTYLE
  2
STANDARD
  9
$DIMCLRD
 70
   256
  9
$DIMCLRE
 70
   256
  9
$DIMCLRT
 70
   256
  9
$DIMTFAC
 40
1.0
  9
$DIMGAP
 40
1.0
  9
$DIMJUST
 70
     0
  9
$DIMSD1
 70
     0
  9
$DIMSD2
 70
     0
  9
$DIMTOLJ
 70
     1
  9
$DIMTZIN
 70
     0
  9
$DIMALTZ
 70
     0
  9
$DIMALTTZ
 70
     0
  9
$DIMFIT
 70
     3
  9
$DIMUPT
 70
     0
  9
$DIMUNIT
 70
     2
  9
$DIMDEC
 70
     0
  9
$DIMTDEC
 70
     0
  9
$DIMALTU
 70
     2
  9
$DIMALTTD
 70
     2
  9
$DIMTXSTY
  7
STANDARD
  9
$DIMAUNIT
 70
     0
  9
$LUNITS
 70
     2
  9
$LUPREC
 70
     4
  9
$SKETCHINC
 40
1.0
  9
$FILLETRAD
 40
10.0
  9
$AUNITS
 70
     0
  9
$AUPREC
 70
     0
  9
$MENU
  1
.
  9
$ELEVATION
 40
0.0
  9
$PELEVATION
 40
0.0
  9
$THICKNESS
 40
0.0
  9
$LIMCHECK
 70
     0
  9
$BLIPMODE
 70
     0
  9
$CHAMFERA
 40
10.0
  9
$CHAMFERB
 40
10.0
  9
$CHAMFERC
 40
20.0
  9
$CHAMFERD
 40
0.0
  9
$SKPOLY
 70
     0
  9
$TDCREATE
 40
2451071.916141319
  9
$TDUPDATE
 40
2454209.381515474
  9
$TDINDWG
 40
0.0854645833
  9
$TDUSRTIMER
 40
0.0854644097
  9
$USRTIMER
 70
     1
  9
$ANGBASE
 50
0.0
  9
$ANGDIR
 70
     0
  9
$PDMODE
 70
     0
  9
$PDSIZE
 40
0.0
  9
$PLINEWID
 40
0.0
  9
$COORDS
 70
     0
  9
$SPLFRAME
 70
     0
  9
$SPLINETYPE
 70
     6
  9
$SPLINESEGS
 70
     8
  9
$ATTDIA
 70
     0
  9
$ATTREQ
 70
     1
  9
$HANDLING
 70
 10241
  9
$HANDSEED
  5
120D
  9
$SURFTAB1
 70
     6
  9
$SURFTAB2
 70
     6
  9
$SURFTYPE
 70
     6
  9
$SURFU
 70
     6
  9
$SURFV
 70
     6
  9
$UCSNAME
  2

  9
$UCSORG
 10
0.0
 20
0.0
 30
0.0
  9
$UCSXDIR
 10
1.0
 20
0.0
 30
0.0
  9
$UCSYDIR
 10
0.0
 20
1.0
 30
0.0
  9
$PUCSNAME
  2

  9
$PUCSORG
 10
0.0
 20
0.0
 30
0.0
  9
$PUCSXDIR
 10
1.0
 20
0.0
 30
0.0
  9
$PUCSYDIR
 10
0.0
 20
1.0
 30
0.0
  9
$USERI1
 70
     0
  9
$USERI2
 70
     0
  9
$USERI3
 70
     0
  9
$USERI4
 70
     0
  9
$USERI5
 70
     0
  9
$USERR1
 40
0.0
  9
$USERR2
 40
0.0
  9
$USERR3
 40
0.0
  9
$USERR4
 40
0.0
  9
$USERR5
 40
0.0
  9
$WORLDVIEW
 70
     1
  9
$SHADEDGE
 70
     3
  9
$SHADEDIF
 70
    70
  9
$TILEMODE
 70
     1
  9
$MAXACTVP
 70
    16
  9
$PINSBASE
 10
0.0
 20
0.0
 30
0.0
  9
$PLIMCHECK
 70
     0
  9
$PEXTMIN
 10
0.0
 20
0.0
 30
0.0
  9
$PEXTMAX
 10
420.0
 20
297.0
 30
0.0
  9
$PLIMMIN
 10
0.0
 20
0.0
  9
$PLIMMAX
 10
420.0
 20
297.0
  9
$UNITMODE
 70
     0
  9
$VISRETAIN
 70
     0
  9
$PLINEGEN
 70
     0
  9
$PSLTSCALE
 70
     1
  9
$TREEDEPTH
 70
  3020
  9
$PICKSTYLE
 70
     1
  9
$CMLSTYLE
  2
STANDARD
  9
$CMLJUST
 70
     0
  9
$CMLSCALE
 40
1.0
  9
$PROXYGRAPHICS
 70
     1
  9
$MEASUREMENT
 70
     0
  0
ENDSEC
  0
SECTION
  2
CLASSES
  0
CLASS
  1
ACDBDICTIONARYWDFLT
  2
AcDbDictionaryWithDefault
  3
AutoCAD 2000
 90
        0
280
     0
281
     0
  0
CLASS
  1
ACDBPLACEHOLDER
  2
AcDbPlaceHolder
  3
AutoCAD 2000
 90
        0
280
     0
281
     0
  0
CLASS
  1
LAYOUT
  2
AcDbLayout
  3
AutoCAD 2000
 90
        0
280
     0
281
     0
  0
CLASS
  1
DICTIONARYVAR
  2
AcDbDictionaryVar
  3
AutoCAD 2000
 90
        0
280
     0
281
     0
  0
CLASS
  1
LONG_TRANSACTION
  2
AcDbLongTransaction
  3
AutoCAD 2000
 90
        0
280
     0
281
     0
  0
CLASS
  1
LWPOLYLINE
  2
AcDbPolyline
  3
AutoCAD 2000
 90
        0
280
     0
281
     1
  0
CLASS
  1
HATCH
  2
AcDbHatch
  3
AutoCAD 2000
 90
        0
280
     0
281
     1
  0
CLASS
  1
XRECORD
  2
AcDbXrecord
  3
AutoCAD 2000
 90
        0
280
     0
281
     0
  0
CLASS
  1
LONG_TRANSACTION
  2
AcDbLongTransaction
  3
AutoCAD 2000
 90
        0
280
     0
281
     0
  0
CLASS
  1
LWPOLYLINE
  2
AcDbPolyline
  3
AutoCAD 2000
 90
        0
280
     0
281
     1
  0
CLASS
  1
HATCH
  2
AcDbHatch
  3
AutoCAD 2000
 90
        0
280
     0
281
     1
  0
CLASS
  1
XRECORD
  2
AcDbXrecord
  3
AutoCAD 2000
 90
        0
280
     0
281
     0
  0
CLASS
  1
LONG_TRANSACTION
  2
AcDbLongTransaction
  3
AutoCAD 2000
 90
        0
280
     0
281
     0
  0
CLASS
  1
LWPOLYLINE
  2
AcDbPolyline
  3
AutoCAD 2000
 90
        0
280
     0
281
     1
  0
CLASS
  1
HATCH
  2
AcDbHatch
  3
AutoCAD 2000
 90
        0
280
     0
281
     1
  0
CLASS
  1
XRECORD
  2
AcDbXrecord
  3
AutoCAD 2000
 90
        0
280
     0
281
     0
  0
CLASS
  1
LONG_TRANSACTION
  2
AcDbLongTransaction
  3
AutoCAD 2000
 90
        0
280
     0
281
     0
  0
CLASS
  1
LWPOLYLINE
  2
AcDbPolyline
  3
AutoCAD 2000
 90
        0
280
     0
281
     1
  0
CLASS
  1
HATCH
  2
AcDbHatch
  3
AutoCAD 2000
 90
        0
280
     0
281
     1
  0
CLASS
  1
XRECORD
  2
AcDbXrecord
  3
AutoCAD 2000
 90
        0
280
     0
281
     0
  0
CLASS
  1
LONG_TRANSACTION
  2
AcDbLongTransaction
  3
AutoCAD 2000
 90
        0
280
     0
281
     0
  0
CLASS
  1
LWPOLYLINE
  2
AcDbPolyline
  3
AutoCAD 2000
 90
        0
280
     0
281
     1
  0
CLASS
  1
HATCH
  2
AcDbHatch
  3
AutoCAD 2000
 90
        0
280
     0
281
     1
  0
CLASS
  1
XRECORD
  2
AcDbXrecord
  3
AutoCAD 2000
 90
        0
280
     0
281
     0
  0
CLASS
  1
LONG_TRANSACTION
  2
AcDbLongTransaction
  3
AutoCAD 2000
 90
        0
280
     0
281
     0
  0
CLASS
  1
LWPOLYLINE
  2
AcDbPolyline
  3
AutoCAD 2000
 90
        0
280
     0
281
     1
  0
CLASS
  1
HATCH
  2
AcDbHatch
  3
AutoCAD 2000
 90
        0
280
     0
281
     1
  0
CLASS
  1
XRECORD
  2
AcDbXrecord
  3
AutoCAD 2000
 90
        0
280
     0
281
     0
  0
CLASS
  1
LONG_TRANSACTION
  2
AcDbLongTransaction
  3
AutoCAD 2000
 90
        0
280
     0
281
     0
  0
CLASS
  1
LWPOLYLINE
  2
AcDbPolyline
  3
AutoCAD 2000
 90
        0
280
     0
281
     1
  0
CLASS
  1
HATCH
  2
AcDbHatch
  3
AutoCAD 2000
 90
        0
280
     0
281
     1
  0
CLASS
  1
XRECORD
  2
AcDbXrecord
  3
AutoCAD 2000
 90
        0
280
     0
281
     0
  0
CLASS
  1
LONG_TRANSACTION
  2
AcDbLongTransaction
  3
AutoCAD 2000
 90
        0
280
     0
281
     0
  0
CLASS
  1
LWPOLYLINE
  2
AcDbPolyline
  3
AutoCAD 2000
 90
        0
280
     0
281
     1
  0
CLASS
  1
HATCH
  2
AcDbHatch
  3
AutoCAD 2000
 90
        0
280
     0
281
     1
  0
CLASS
  1
XRECORD
  2
AcDbXrecord
  3
AutoCAD 2000
 90
        0
280
     0
281
     0
  0
ENDSEC
  0
SECTION
  2
TABLES
  0
TABLE
  2
VPORT
  5
8
330
0
100
AcDbSymbolTable
 70
     3
  0
VPORT
  5
11D1
330
8
100
AcDbSymbolTableRecord
100
AcDbViewportTableRecord
  2
*ACTIVE
 70
     0
 10
0.0
 20
0.0
 11
1.0
 21
1.0
 12
216.2823806062858
 22
134.7217363200594
 13
0.0
 23
0.0
 14
5.0
 24
5.0
 15
0.0
 25
0.0
 16
0.0
 26
0.0
 36
1.0
 17
0.0
 27
0.0
 37
0.0
 40
307.937824783658
 41
1.566326530612244
 42
50.0
 43
0.0
 44
0.0
 50
0.0
 51
0.0
 71
     0
 72
   100
 73
     1
 74
     0
 75
     0
 76
     0
 77
     0
 78
     0
  0
ENDTAB
  0
TABLE
  2
LTYPE
  5
5
330
0
100
AcDbSymbolTable
 70
     2
  0
LTYPE
  5
14
330
5
100
AcDbSymbolTableRecord
100
AcDbLinetypeTableRecord
  2
BYBLOCK
 70
     0
  3

 72
    65
 73
     0
 40
0.0
  0
LTYPE
  5
15
330
5
100
AcDbSymbolTableRecord
100
AcDbLinetypeTableRecord
  2
BYLAYER
 70
     0
  3

 72
    65
 73
     0
 40
0.0
  0
LTYPE
  5
16
330
5
100
AcDbSymbolTableRecord
100
AcDbLinetypeTableRecord
  2
CONTINUOUS
 70
     0
  3
Solid line
 72
    65
 73
     0
 40
0.0
  0
LTYPE
  5
120
330
5
100
AcDbSymbolTableRecord
100
AcDbLinetypeTableRecord
  2
CENTER
 70
     0
  3
____ _ ____ _ ____ _ ____ _ ____ _ ____ _ ____ 
 72
    65
 73
     4
 40
2.0
 49
1.25
 74
     0
 49
-0.25
 74
     0
 49
0.25
 74
     0
 49
-0.25
 74
     0
  0
ENDTAB
  0
TABLE
  2
LAYER
  5
2
330
0
100
AcDbSymbolTable
 70
    11
  0
LAYER
  5
F
330
2
100
AcDbSymbolTableRecord
100
AcDbLayerTableRecord
  2
0
 70
     0
 62
     7
  6
CONTINUOUS
  0
LAYER
  5
62
330
2
100
AcDbSymbolTableRecord
100
AcDbLayerTableRecord
  2
VIEWPORT
 70
     0
 62
     7
  6
CONTINUOUS
  0
LAYER
  5
134
330
2
100
AcDbSymbolTableRecord
100
AcDbLayerTableRecord
  2
SUNPOU
 70
     0
 62
     4
  6
CONTINUOUS
  0
LAYER
  5
136
330
2
100
AcDbSymbolTableRecord
100
AcDbLayerTableRecord
  2
SEIHIN
 70
     0
 62
     3
  6
CONTINUOUS
  0
LAYER
  5
38D
330
2
100
AcDbSymbolTableRecord
100
AcDbLayerTableRecord
  2
DEFPOINTS
 70
     0
 62
     7
  6
CONTINUOUS
  0
LAYER
  5
B28
330
2
100
AcDbSymbolTableRecord
100
AcDbLayerTableRecord
  2
ZUWAKU
 70
     0
 62
     7
  6
CONTINUOUS
  0
LAYER
  5
B29
330
2
100
AcDbSymbolTableRecord
100
AcDbLayerTableRecord
  2
MOJI
 70
     0
 62
     2
  6
CONTINUOUS
  0
LAYER
  5
D6A
330
2
100
AcDbSymbolTableRecord
100
AcDbLayerTableRecord
  2
CENTER_L
 70
     0
 62
     1
  6
CENTER
  0
ENDTAB
  0
TABLE
  2
STYLE
  5
3
330
0
100
AcDbSymbolTable
 70
     2
  0
STYLE
  5
10
330
3
100
AcDbSymbolTableRecord
100
AcDbTextStyleTableRecord
  2
STANDARD
 70
     0
 40
0.0
 41
1.0
 50
0.0
 71
     0
 42
2.5
  3
TXT
  4
bigfont.shx
  0
STYLE
  5
B2A
330
3
100
AcDbSymbolTableRecord
100
AcDbTextStyleTableRecord
  2
ｽﾀｲﾙ1
 70
     0
 40
0.0
 41
1.0
 50
0.0
 71
     0
 42
2.5
  3
MS PGothic.ttf
  4

1001
ACAD
1000
MS PGothic
1071
    32818
  0
ENDTAB
  0
TABLE
  2
VIEW
  5
6
330
0
100
AcDbSymbolTable
 70
     0
  0
ENDTAB
  0
TABLE
  2
UCS
  5
7
330
0
100
AcDbSymbolTable
 70
     0
  0
ENDTAB
  0
TABLE
  2
APPID
  5
9
330
0
100
AcDbSymbolTable
 70
     1
  0
APPID
  5
11
330
9
100
AcDbSymbolTableRecord
100
AcDbRegAppTableRecord
  2
ACAD
 70
     0
  0
ENDTAB
  0
TABLE
  2
DIMSTYLE
  5
A
330
0
100
AcDbSymbolTable
 70
     1
  0
DIMSTYLE
105
1D
102
{ACAD_REACTORS
330
E2F
330
E30
330
E31
330
E35
330
E76
330
E8D
330
E8E
330
E8F
330
3B9
330
3AC
330
3D1
330
3DE
330
476
330
3ED
330
45F
330
821
330
523
330
4EF
330
11C3
102
}
330
A
100
AcDbSymbolTableRecord
100
AcDbDimStyleTableRecord
  2
STANDARD
 70
     0
  3

  4

  5

  6

  7

 40
1.0
 41
0.18
 42
0.0625
 43
0.38
 44
0.18
 45
0.0
 46
0.0
 47
0.0
 48
0.0
140
0.18
141
0.09
142
0.0
143
25.4
144
1.0
145
0.0
146
1.0
147
0.09
 71
     0
 72
     0
 73
     1
 74
     1
 75
     0
 76
     0
 77
     0
 78
     0
170
     0
171
     2
172
     0
173
     0
174
     0
175
     0
176
     0
177
     0
178
     0
270
     2
271
     4
272
     4
273
     2
274
     2
340
10
275
     0
280
     0
281
     0
282
     0
283
     1
284
     0
285
     0
286
     0
287
     3
288
     0
  0
ENDTAB
  0
TABLE
  2
BLOCK_RECORD
  5
1
330
0
100
AcDbSymbolTable
 70
    39
  0
BLOCK_RECORD
  5
1A
102
{ACAD_XDICTIONARY
360
598
102
}
330
1
100
AcDbSymbolTableRecord
100
AcDbBlockTableRecord
  2
*MODEL_SPACE
  0
BLOCK_RECORD
  5
17
102
{ACAD_XDICTIONARY
360
596
102
}
330
1
100
AcDbSymbolTableRecord
100
AcDbBlockTableRecord
  2
*PAPER_SPACE
  0
BLOCK_RECORD
  5
B2
330
1
100
AcDbSymbolTableRecord
100
AcDbBlockTableRecord
  2
_OPEN
  0
BLOCK_RECORD
  5
EE7
330
1
100
AcDbSymbolTableRecord
100
AcDbBlockTableRecord
  2
*D20
  0
BLOCK_RECORD
  5
EF3
330
1
100
AcDbSymbolTableRecord
100
AcDbBlockTableRecord
  2
*D21
  0
BLOCK_RECORD
  5
EFF
330
1
100
AcDbSymbolTableRecord
100
AcDbBlockTableRecord
  2
*D22
  0
BLOCK_RECORD
  5
F0B
330
1
100
AcDbSymbolTableRecord
100
AcDbBlockTableRecord
  2
*D23
  0
BLOCK_RECORD
  5
F14
330
1
100
AcDbSymbolTableRecord
100
AcDbBlockTableRecord
  2
*D24
  0
BLOCK_RECORD
  5
F20
330
1
100
AcDbSymbolTableRecord
100
AcDbBlockTableRecord
  2
*D25
  0
BLOCK_RECORD
  5
F2E
330
1
100
AcDbSymbolTableRecord
100
AcDbBlockTableRecord
  2
*D26
  0
BLOCK_RECORD
  5
F3A
330
1
100
AcDbSymbolTableRecord
100
AcDbBlockTableRecord
  2
*D27
  0
ENDTAB
  0
ENDSEC
  0
SECTION
  2
BLOCKS
  0
BLOCK
  5
1B
330
1A
100
AcDbEntity
  8
0
100
AcDbBlockBegin
  2
*MODEL_SPACE
 70
     0
 10
0.0
 20
0.0
 30
0.0
  3
*MODEL_SPACE
  1

  0
ENDBLK
  5
1C
330
1A
100
AcDbEntity
  8
0
100
AcDbBlockEnd
  0
BLOCK
  5
18
330
17
100
AcDbEntity
 67
     1
  8
0
100
AcDbBlockBegin
  2
*PAPER_SPACE
 70
     0
 10
0.0
 20
0.0
 30
0.0
  3
*PAPER_SPACE
  1

  0
ENDBLK
  5
19
330
17
100
AcDbEntity
 67
     1
  8
0
100
AcDbBlockEnd
  0
BLOCK
  5
B3
330
B2
100
AcDbEntity
  8
0
100
AcDbBlockBegin
  2
_OPEN
 70
     0
 10
0.0
 20
0.0
 30
0.0
  3
_OPEN
  1

  0
LINE
  5
B4
330
B2
100
AcDbEntity
  8
0
  6
BYBLOCK
 62
     0
100
AcDbLine
 10
-1.0
 20
0.1666666666666666
 30
0.0
 11
0.0
 21
0.0
 31
0.0
  0
LINE
  5
B5
330
B2
100
AcDbEntity
  8
0
  6
BYBLOCK
 62
     0
100
AcDbLine
 10
0.0
 20
0.0
 30
0.0
 11
-1.0
 21
-0.1666666666666666
 31
0.0
  0
LINE
  5
B6
330
B2
100
AcDbEntity
  8
0
  6
BYBLOCK
 62
     0
100
AcDbLine
 10
0.0
 20
0.0
 30
0.0
 11
-1.0
 21
0.0
 31
0.0
  0
ENDBLK
  5
B7
330
B2
100
AcDbEntity
  8
0
100
AcDbBlockEnd
  0
BLOCK
  5
EF1
330
EE7
100
AcDbEntity
  8
0
100
AcDbBlockBegin
  2
*D20
 70
     1
 10
0.0
 20
0.0
 30
0.0
  3
*D20
  1

  0
LINE
  5
FF5
330
EE7
100
AcDbEntity
  8
SUNPOU
  6
CONTINUOUS
 62
     4
100
AcDbLine
 10
183.5390558510249
 20
95.81370831690156
 30
0.0
 11
183.5390558510249
 21
54.93623777528404
 31
0.0
  0
LINE
  5
FF6
330
EE7
100
AcDbEntity
  8
SUNPOU
  6
CONTINUOUS
 62
     4
100
AcDbLine
 10
207.5390562972165
 20
93.26351997603294
 30
0.0
 11
207.5390562972165
 21
54.93623777528404
 31
0.0
  0
LINE
  5
FF7
330
EE7
100
AcDbEntity
  8
SUNPOU
  6
CONTINUOUS
 62
     4
100
AcDbLine
 10
186.5390558510249
 20
56.43623777528404
 30
0.0
 11
204.5390562972165
 21
56.43623777528404
 31
0.0
  0
INSERT
  5
FF8
330
EE7
100
AcDbEntity
  8
SUNPOU
  6
CONTINUOUS
 62
     4
100
AcDbBlockReference
  2
_OPEN
 10
183.5390558510249
 20
56.43623777528404
 30
0.0
 41
3.0
 42
3.0
 43
3.0
 50
180.0
  0
INSERT
  5
FF9
330
EE7
100
AcDbEntity
  8
SUNPOU
  6
CONTINUOUS
 62
     4
100
AcDbBlockReference
  2
_OPEN
 10
207.5390562972165
 20
56.43623777528404
 30
0.0
 41
3.0
 42
3.0
 43
3.0
  0
MTEXT
  5
FFA
330
EE7
100
AcDbEntity
  8
SUNPOU
  6
CONTINUOUS
 62
     4
100
AcDbMText
 10
195.5390560741207
 20
58.93623777528404
 30
0.0
 40
3.0
 41
0.0
 71
     5
 72
     1
  1
\A1;24
1001
ACAD
1000
MTEXTBEGIN
1070
    73
1070
     1
1070
    44
1040
1.0
1070
    74
1070
     0
1000
MTEXTEND
  0
POINT
  5
FFB
330
EE7
100
AcDbEntity
  8
DEFPOINTS
  6
CONTINUOUS
 62
     0
100
AcDbPoint
 10
183.5390558510249
 20
98.81370831690157
 30
0.0
  0
POINT
  5
FFC
330
EE7
100
AcDbEntity
  8
DEFPOINTS
  6
CONTINUOUS
 62
     0
100
AcDbPoint
 10
207.5390562972165
 20
96.26351997603295
 30
0.0
  0
POINT
  5
FFD
330
EE7
100
AcDbEntity
  8
DEFPOINTS
  6
CONTINUOUS
 62
     0
100
AcDbPoint
 10
207.5390562972165
 20
56.43623777528404
 30
0.0
  0
ENDBLK
  5
EF2
330
EE7
100
AcDbEntity
  8
0
100
AcDbBlockEnd
  0
BLOCK
  5
EFD
330
EF3
100
AcDbEntity
  8
0
100
AcDbBlockBegin
  2
*D21
 70
     1
 10
0.0
 20
0.0
 30
0.0
  3
*D21
  1

  0
LINE
  5
FDD
330
EF3
100
AcDbEntity
  8
SUNPOU
  6
CONTINUOUS
 62
     4
100
AcDbLine
 10
195.5389887550641
 20
108.8137083169015
 30
0.0
 11
195.5389887550641
 21
125.9994679508437
 31
0.0
  0
LINE
  5
FDE
330
EF3
100
AcDbEntity
  8
SUNPOU
  6
CONTINUOUS
 62
     4
100
AcDbLine
 10
277.538342755064
 20
101.8138013240207
 30
0.0
 11
277.538342755064
 21
125.9994679508437
 31
0.0
  0
LINE
  5
FDF
330
EF3
100
AcDbEntity
  8
SUNPOU
  6
CONTINUOUS
 62
     4
100
AcDbLine
 10
198.538988755064
 20
124.4994679508437
 30
0.0
 11
274.538342755064
 21
124.4994679508437
 31
0.0
  0
INSERT
  5
FE0
330
EF3
100
AcDbEntity
  8
SUNPOU
  6
CONTINUOUS
 62
     4
100
AcDbBlockReference
  2
_OPEN
 10
195.5389887550641
 20
124.4994679508437
 30
0.0
 41
3.0
 42
3.0
 43
3.0
 50
180.0
  0
INSERT
  5
FE1
330
EF3
100
AcDbEntity
  8
SUNPOU
  6
CONTINUOUS
 62
     4
100
AcDbBlockReference
  2
_OPEN
 10
277.538342755064
 20
124.4994679508437
 30
0.0
 41
3.0
 42
3.0
 43
3.0
  0
MTEXT
  5
FE2
330
EF3
100
AcDbEntity
  8
SUNPOU
  6
CONTINUOUS
 62
     4
100
AcDbMText
 10
232.5349739813685
 20
126.9994679508437
 30
0.0
 40
3.0
 41
0.0
 71
     5
 72
     1
  1
\A1;82
1001
ACAD
1000
MTEXTBEGIN
1070
    73
1070
     1
1070
    44
1040
1.0
1070
    74
1070
     0
1000
MTEXTEND
  0
POINT
  5
FE3
330
EF3
100
AcDbEntity
  8
DEFPOINTS
  6
CONTINUOUS
 62
     0
100
AcDbPoint
 10
195.5389887550641
 20
105.8137083169015
 30
0.0
  0
POINT
  5
FE4
330
EF3
100
AcDbEntity
  8
DEFPOINTS
  6
CONTINUOUS
 62
     0
100
AcDbPoint
 10
277.538342755064
 20
98.81380132402071
 30
0.0
  0
POINT
  5
FE5
330
EF3
100
AcDbEntity
  8
DEFPOINTS
  6
CONTINUOUS
 62
     0
100
AcDbPoint
 10
277.538342755064
 20
124.4994679508437
 30
0.0
  0
ENDBLK
  5
EFE
330
EF3
100
AcDbEntity
  8
0
100
AcDbBlockEnd
  0
BLOCK
  5
F09
330
EFF
100
AcDbEntity
  8
0
100
AcDbBlockBegin
  2
*D22
 70
     1
 10
0.0
 20
0.0
 30
0.0
  3
*D22
  1

  0
LINE
  5
FE6
330
EFF
100
AcDbEntity
  8
SUNPOU
  6
CONTINUOUS
 62
     4
100
AcDbLine
 10
277.5376998979215
 20
101.8137013240206
 30
0.0
 11
277.5376998979215
 21
151.4745612242886
 31
0.0
  0
LINE
  5
FE7
330
EFF
100
AcDbEntity
  8
SUNPOU
  6
CONTINUOUS
 62
     4
100
AcDbLine
 10
120.539068106649
 20
101.8137083169015
 30
0.0
 11
120.539068106649
 21
151.4745612242886
 31
0.0
  0
LINE
  5
FE8
330
EFF
100
AcDbEntity
  8
SUNPOU
  6
CONTINUOUS
 62
     4
100
AcDbLine
 10
274.5376998979216
 20
149.9745612242886
 30
0.0
 11
123.539068106649
 21
149.9745612242886
 31
0.0
  0
INSERT
  5
FE9
330
EFF
100
AcDbEntity
  8
SUNPOU
  6
CONTINUOUS
 62
     4
100
AcDbBlockReference
  2
_OPEN
 10
277.5376998979215
 20
149.9745612242886
 30
0.0
 41
3.0
 42
3.0
 43
3.0
  0
INSERT
  5
FEA
330
EFF
100
AcDbEntity
  8
SUNPOU
  6
CONTINUOUS
 62
     4
100
AcDbBlockReference
  2
_OPEN
 10
120.539068106649
 20
149.9745612242886
 30
0.0
 41
3.0
 42
3.0
 43
3.0
 50
180.0
  0
MTEXT
  5
FEB
330
EFF
100
AcDbEntity
  8
SUNPOU
  6
CONTINUOUS
 62
     4
100
AcDbMText
 10
199.0383840022852
 20
152.4745612242886
 30
0.0
 40
3.0
 41
0.0
 71
     5
 72
     1
  1
\A1;157
1001
ACAD
1000
MTEXTBEGIN
1070
    73
1070
     1
1070
    44
1040
1.0
1070
    74
1070
     0
1000
MTEXTEND
  0
POINT
  5
FEC
330
EFF
100
AcDbEntity
  8
DEFPOINTS
  6
CONTINUOUS
 62
     0
100
AcDbPoint
 10
277.5376998979215
 20
98.81370132402068
 30
0.0
  0
POINT
  5
FED
330
EFF
100
AcDbEntity
  8
DEFPOINTS
  6
CONTINUOUS
 62
     0
100
AcDbPoint
 10
120.539068106649
 20
98.81370831690157
 30
0.0
  0
POINT
  5
FEE
330
EFF
100
AcDbEntity
  8
DEFPOINTS
  6
CONTINUOUS
 62
     0
100
AcDbPoint
 10
120.539068106649
 20
149.9745612242886
 30
0.0
  0
ENDBLK
  5
F0A
330
EFF
100
AcDbEntity
  8
0
100
AcDbBlockEnd
  0
BLOCK
  5
F12
330
F0B
100
AcDbEntity
  8
0
100
AcDbBlockBegin
  2
*D23
 70
     1
 10
0.0
 20
0.0
 30
0.0
  3
*D23
  1

  0
LINE
  5
11F5
330
F0B
100
AcDbEntity
  8
SUNPOU
  6
CONTINUOUS
 62
     4
100
AcDbLine
 10
139.0678632344447
 20
76.01916630353342
 30
0.0
 11
167.5879484152584
 21
121.8758301862631
 31
0.0
  0
MTEXT
  5
11F6
330
F0B
100
AcDbEntity
  8
SUNPOU
  6
CONTINUOUS
 62
     4
100
AcDbMText
 10
154.5464291302756
 20
106.2099289905916
 30
0.0
 40
3.0
 41
0.0
 71
     5
 72
     1
  1
\A1;\U+220560
 11
0.5281289991622349
 21
0.8491641538853935
 31
0.0
  0
INSERT
  5
11F7
330
F0B
100
AcDbEntity
  8
SUNPOU
  6
CONTINUOUS
 62
     4
100
AcDbBlockReference
  2
_OPEN
 10
137.483476236958
 20
73.47167384187724
 30
0.0
 41
3.0
 42
3.0
 43
3.0
 50
238.1208742097286
  0
INSERT
  5
11F8
330
F0B
100
AcDbEntity
  8
SUNPOU
  6
CONTINUOUS
 62
     4
100
AcDbBlockReference
  2
_OPEN
 10
169.1723354127452
 20
124.4233226479192
 30
0.0
 41
3.0
 42
3.0
 43
3.0
 50
58.12087420972859
  0
POINT
  5
11F9
330
F0B
100
AcDbEntity
  8
DEFPOINTS
  6
CONTINUOUS
 62
     0
100
AcDbPoint
 10
169.1723354127452
 20
124.4233226479192
 30
0.0
  0
POINT
  5
11FA
330
F0B
100
AcDbEntity
  8
DEFPOINTS
  6
CONTINUOUS
 62
     0
100
AcDbPoint
 10
137.483476236958
 20
73.47167384187724
 30
0.0
  0
ENDBLK
  5
F13
330
F0B
100
AcDbEntity
  8
0
100
AcDbBlockEnd
  0
BLOCK
  5
F1E
330
F14
100
AcDbEntity
  8
0
100
AcDbBlockBegin
  2
*D24
 70
     1
 10
0.0
 20
0.0
 30
0.0
  3
*D24
  1

  0
LINE
  5
FFE
330
F14
100
AcDbEntity
  8
SUNPOU
  6
CONTINUOUS
 62
     4
100
AcDbLine
 10
118.538988755064
 20
201.5614577276514
 30
0.0
 11
93.42897398434812
 21
201.5614577276514
 31
0.0
  0
LINE
  5
FFF
330
F14
100
AcDbEntity
  8
SUNPOU
  6
CONTINUOUS
 62
     4
100
AcDbLine
 10
118.538988755064
 20
183.5614577276515
 30
0.0
 11
93.42897398434812
 21
183.5614577276515
 31
0.0
  0
LINE
  5
1000
330
F14
100
AcDbEntity
  8
SUNPOU
  6
CONTINUOUS
 62
     4
100
AcDbLine
 10
94.92897398434811
 20
198.5614577276514
 30
0.0
 11
94.92897398434811
 21
186.5614577276515
 31
0.0
  0
INSERT
  5
1001
330
F14
100
AcDbEntity
  8
SUNPOU
  6
CONTINUOUS
 62
     4
100
AcDbBlockReference
  2
_OPEN
 10
94.92897398434811
 20
201.5614577276514
 30
0.0
 41
3.0
 42
3.0
 43
3.0
 50
90.0
  0
INSERT
  5
1002
330
F14
100
AcDbEntity
  8
SUNPOU
  6
CONTINUOUS
 62
     4
100
AcDbBlockReference
  2
_OPEN
 10
94.92897398434811
 20
183.5614577276515
 30
0.0
 41
3.0
 42
3.0
 43
3.0
 50
270.0
  0
MTEXT
  5
1003
330
F14
100
AcDbEntity
  8
SUNPOU
  6
CONTINUOUS
 62
     4
100
AcDbMText
 10
92.42897398434809
 20
193.64298155892
 30
0.0
 40
3.0
 41
0.0
 71
     5
 72
     1
  1
\A1;18
 11
0.0000000000000001
 21
1.0
 31
0.0
1001
ACAD
1000
MTEXTBEGIN
1070
    73
1070
     1
1070
    44
1040
1.0
1070
    74
1070
     0
1000
MTEXTEND
  0
POINT
  5
1004
330
F14
100
AcDbEntity
  8
DEFPOINTS
  6
CONTINUOUS
 62
     0
100
AcDbPoint
 10
121.538988755064
 20
201.5614577276514
 30
0.0
  0
POINT
  5
1005
330
F14
100
AcDbEntity
  8
DEFPOINTS
  6
CONTINUOUS
 62
     0
100
AcDbPoint
 10
121.538988755064
 20
183.5614577276515
 30
0.0
  0
POINT
  5
1006
330
F14
100
AcDbEntity
  8
DEFPOINTS
  6
CONTINUOUS
 62
     0
100
AcDbPoint
 10
94.92897398434811
 20
183.5614577276515
 30
0.0
  0
ENDBLK
  5
F1F
330
F14
100
AcDbEntity
  8
0
100
AcDbBlockEnd
  0
BLOCK
  5
F2C
330
F20
100
AcDbEntity
  8
0
100
AcDbBlockBegin
  2
*D25
 70
     1
 10
0.0
 20
0.0
 30
0.0
  3
*D25
  1

  0
LINE
  5
1007
330
F20
100
AcDbEntity
  8
SUNPOU
  6
CONTINUOUS
 62
     4
100
AcDbLine
 10
270.5383427550642
 20
101.0637083169015
 30
0.0
 11
303.3520606929048
 21
101.0637083169015
 31
0.0
  0
LINE
  5
1008
330
F20
100
AcDbEntity
  8
SUNPOU
  6
CONTINUOUS
 62
     4
100
AcDbLine
 10
270.5383427550641
 20
96.56370831690157
 30
0.0
 11
303.3520606929048
 21
96.56370831690155
 31
0.0
  0
LINE
  5
1009
330
F20
100
AcDbEntity
  8
SUNPOU
  6
CONTINUOUS
 62
     4
100
AcDbLine
 10
301.8520606929048
 20
104.0637083169015
 30
0.0
 11
301.8520606929048
 21
107.0637083169015
 31
0.0
  0
LINE
  5
100A
330
F20
100
AcDbEntity
  8
SUNPOU
  6
CONTINUOUS
 62
     4
100
AcDbLine
 10
301.8520606929048
 20
93.56370831690155
 30
0.0
 11
301.8520606929048
 21
77.21380831690163
 31
0.0
  0
LINE
  5
100B
330
F20
100
AcDbEntity
  8
SUNPOU
  6
CONTINUOUS
 62
     4
100
AcDbLine
 10
301.8520606929048
 20
101.0637083169015
 30
0.0
 11
301.8520606929048
 21
96.56370831690155
 31
0.0
  0
INSERT
  5
100C
330
F20
100
AcDbEntity
  8
SUNPOU
  6
CONTINUOUS
 62
     4
100
AcDbBlockReference
  2
_OPEN
 10
301.8520606929048
 20
101.0637083169015
 30
0.0
 41
3.0
 42
3.0
 43
3.0
 50
270.0
  0
INSERT
  5
100D
330
F20
100
AcDbEntity
  8
SUNPOU
  6
CONTINUOUS
 62
     4
100
AcDbBlockReference
  2
_OPEN
 10
301.8520606929048
 20
96.56370831690155
 30
0.0
 41
3.0
 42
3.0
 43
3.0
 50
90.0
  0
MTEXT
  5
100E
330
F20
100
AcDbEntity
  8
SUNPOU
  6
CONTINUOUS
 62
     4
100
AcDbMText
 10
299.3520606929048
 20
83.61380831690167
 30
0.0
 40
3.0
 41
0.0
 71
     5
 72
     1
  1
\A1;φ 4.5
 11
0.0000000000000001
 21
1.0
 31
0.0
1001
ACAD
1000
MTEXTBEGIN
1070
    73
1070
     1
1070
    44
1040
1.0
1070
    74
1070
     0
1000
MTEXTEND
  0
POINT
  5
100F
330
F20
100
AcDbEntity
  8
DEFPOINTS
  6
CONTINUOUS
 62
     0
100
AcDbPoint
 10
267.5383427550642
 20
101.0637083169015
 30
0.0
  0
POINT
  5
1010
330
F20
100
AcDbEntity
  8
DEFPOINTS
  6
CONTINUOUS
 62
     0
100
AcDbPoint
 10
267.5383427550641
 20
96.56370831690157
 30
0.0
  0
POINT
  5
1011
330
F20
100
AcDbEntity
  8
DEFPOINTS
  6
CONTINUOUS
 62
     0
100
AcDbPoint
 10
301.8520606929048
 20
96.56370831690155
 30
0.0
  0
ENDBLK
  5
F2D
330
F20
100
AcDbEntity
  8
0
100
AcDbBlockEnd
  0
BLOCK
  5
F38
330
F2E
100
AcDbEntity
  8
0
100
AcDbBlockBegin
  2
*D26
 70
     1
 10
0.0
 20
0.0
 30
0.0
  3
*D26
  1

  0
LINE
  5
11FB
330
F2E
100
AcDbEntity
  8
SUNPOU
  6
CONTINUOUS
 62
     4
100
AcDbLine
 10
217.5390562972165
 20
93.26353296304594
 30
0.0
 11
217.5390562972165
 21
54.93623777528404
 31
0.0
  0
LINE
  5
11FC
330
F2E
100
AcDbEntity
  8
SUNPOU
  6
CONTINUOUS
 62
     4
100
AcDbLine
 10
227.5390501651283
 20
92.5135215357008
 30
0.0
 11
227.5390501651283
 21
54.93623777528404
 31
0.0
  0
LINE
  5
11FD
330
F2E
100
AcDbEntity
  8
SUNPOU
  6
CONTINUOUS
 62
     4
100
AcDbLine
 10
220.5390562972165
 20
56.43623777528404
 30
0.0
 11
224.5390501651284
 21
56.43623777528404
 31
0.0
  0
INSERT
  5
11FE
330
F2E
100
AcDbEntity
  8
SUNPOU
  6
CONTINUOUS
 62
     4
100
AcDbBlockReference
  2
_OPEN
 10
217.5390562972165
 20
56.43623777528404
 30
0.0
 41
3.0
 42
3.0
 43
3.0
 50
180.0
  0
INSERT
  5
11FF
330
F2E
100
AcDbEntity
  8
SUNPOU
  6
CONTINUOUS
 62
     4
100
AcDbBlockReference
  2
_OPEN
 10
227.5390501651283
 20
56.43623777528404
 30
0.0
 41
3.0
 42
3.0
 43
3.0
  0
MTEXT
  5
1200
330
F2E
100
AcDbEntity
  8
SUNPOU
  6
CONTINUOUS
 62
     4
100
AcDbMText
 10
222.5390532311724
 20
58.93623777528404
 30
0.0
 40
3.0
 41
0.0
 71
     5
 72
     1
  1
\A1;10
  0
POINT
  5
1201
330
F2E
100
AcDbEntity
  8
DEFPOINTS
  6
CONTINUOUS
 62
     0
100
AcDbPoint
 10
217.5390562972165
 20
96.26353296304595
 30
0.0
  0
POINT
  5
1202
330
F2E
100
AcDbEntity
  8
DEFPOINTS
  6
CONTINUOUS
 62
     0
100
AcDbPoint
 10
227.5390501651283
 20
95.5135215357008
 30
0.0
  0
POINT
  5
1203
330
F2E
100
AcDbEntity
  8
DEFPOINTS
  6
CONTINUOUS
 62
     0
100
AcDbPoint
 10
227.5390501651283
 20
56.43623777528404
 30
0.0
  0
ENDBLK
  5
F39
330
F2E
100
AcDbEntity
  8
0
100
AcDbBlockEnd
  0
BLOCK
  5
F44
330
F3A
100
AcDbEntity
  8
0
100
AcDbBlockBegin
  2
*D27
 70
     1
 10
0.0
 20
0.0
 30
0.0
  3
*D27
  1

  0
LINE
  5
1204
330
F3A
100
AcDbEntity
  8
SUNPOU
  6
CONTINUOUS
 62
     4
100
AcDbLine
 10
207.5390562972165
 20
93.26351997603294
 30
0.0
 11
207.5390562972165
 21
54.93623777528404
 31
0.0
  0
LINE
  5
1205
330
F3A
100
AcDbEntity
  8
SUNPOU
  6
CONTINUOUS
 62
     4
100
AcDbLine
 10
217.5390562972165
 20
93.26353296304594
 30
0.0
 11
217.5390562972165
 21
54.93623777528404
 31
0.0
  0
LINE
  5
1206
330
F3A
100
AcDbEntity
  8
SUNPOU
  6
CONTINUOUS
 62
     4
100
AcDbLine
 10
210.5390562972165
 20
56.43623777528404
 30
0.0
 11
214.5390562972165
 21
56.43623777528404
 31
0.0
  0
INSERT
  5
1207
330
F3A
100
AcDbEntity
  8
SUNPOU
  6
CONTINUOUS
 62
     4
100
AcDbBlockReference
  2
_OPEN
 10
207.5390562972165
 20
56.43623777528404
 30
0.0
 41
3.0
 42
3.0
 43
3.0
 50
180.0
  0
INSERT
  5
1208
330
F3A
100
AcDbEntity
  8
SUNPOU
  6
CONTINUOUS
 62
     4
100
AcDbBlockReference
  2
_OPEN
 10
217.5390562972165
 20
56.43623777528404
 30
0.0
 41
3.0
 42
3.0
 43
3.0
  0
MTEXT
  5
1209
330
F3A
100
AcDbEntity
  8
SUNPOU
  6
CONTINUOUS
 62
     4
100
AcDbMText
 10
212.5390562972165
 20
58.93623777528404
 30
0.0
 40
3.0
 41
0.0
 71
     5
 72
     1
  1
\A1;10
  0
POINT
  5
120A
330
F3A
100
AcDbEntity
  8
DEFPOINTS
  6
CONTINUOUS
 62
     0
100
AcDbPoint
 10
207.5390562972165
 20
96.26351997603295
 30
0.0
  0
POINT
  5
120B
330
F3A
100
AcDbEntity
  8
DEFPOINTS
  6
CONTINUOUS
 62
     0
100
AcDbPoint
 10
217.5390562972165
 20
96.26353296304595
 30
0.0
  0
POINT
  5
120C
330
F3A
100
AcDbEntity
  8
DEFPOINTS
  6
CONTINUOUS
 62
     0
100
AcDbPoint
 10
217.5390562972165
 20
56.43623777528404
 30
0.0
  0
ENDBLK
  5
F45
330
F3A
100
AcDbEntity
  8
0
100
AcDbBlockEnd
  0
ENDSEC
  0
SECTION
  2
ENTITIES
  0
LINE
  5
BE5
330
1A
100
AcDbEntity
  8
ZUWAKU
100
AcDbLine
 10
104.3233011219516
 20
7.600000053532422
 30
0.0
 11
223.7121824624133
 21
7.600000053532419
 31
0.0
  0
LINE
  5
BE6
330
1A
100
AcDbEntity
  8
ZUWAKU
100
AcDbLine
 10
104.3233011219516
 20
7.80000005353242
 30
0.0
 11
223.7121824624133
 21
7.800000053532423
 31
0.0
  0
LINE
  5
BE7
330
1A
100
AcDbEntity
  8
ZUWAKU
100
AcDbLine
 10
104.3233011219516
 20
7.70000005353242
 30
0.0
 11
223.7121824624133
 21
7.70000005353242
 31
0.0
  0
LINE
  5
BE8
330
1A
100
AcDbEntity
  8
ZUWAKU
100
AcDbLine
 10
0.0000004769176485
 20
15.4000000535324
 30
0.0
 11
398.7000004769175
 21
15.4000000535324
 31
0.0
  0
LINE
  5
BE9
330
1A
100
AcDbEntity
  8
ZUWAKU
100
AcDbLine
 10
0.0000004769176485
 20
15.3000000535324
 30
0.0
 11
398.7000004769175
 21
15.3000000535324
 31
0.0
  0
LINE
  5
BEA
330
1A
100
AcDbEntity
  8
ZUWAKU
100
AcDbLine
 10
0.0000004769176485
 20
15.2000000535324
 30
0.0
 11
398.7000004769175
 21
15.2000000535324
 31
0.0
  0
LINE
  5
BEB
330
1A
100
AcDbEntity
  8
ZUWAKU
100
AcDbLine
 10
0.0000004769176485
 20
15.1000000535324
 30
0.0
 11
398.7000004769175
 21
15.1000000535324
 31
0.0
  0
LINE
  5
BEC
330
1A
100
AcDbEntity
  8
ZUWAKU
100
AcDbLine
 10
0.0000004769176485
 20
15.0000000535324
 30
0.0
 11
398.7000004769175
 21
15.0000000535324
 31
0.0
  0
LWPOLYLINE
  5
BED
330
1A
100
AcDbEntity
  8
ZUWAKU
100
AcDbPolyline
 90
        4
 70
     1
 43
0.0
 10
0.1000004769176144
 20
275.7000000535324
 10
0.1000004769176144
 20
0.1000000535324261
 10
398.7000004769175
 20
0.1000000535324377
 10
398.7000004769177
 20
275.7000000535324
  0
LWPOLYLINE
  5
BEE
330
1A
100
AcDbEntity
  8
ZUWAKU
100
AcDbPolyline
 90
        4
 70
     1
 43
0.0
 10
0.300000476917603
 20
275.5000000535324
 10
0.300000476917603
 20
0.3000000535324148
 10
398.5000004769177
 20
0.3000000535324379
 10
398.5000004769176
 20
275.5000000535324
  0
LWPOLYLINE
  5
BEF
330
1A
100
AcDbEntity
  8
ZUWAKU
100
AcDbPolyline
 90
        4
 70
     1
 43
0.0
 10
0.0000004769176485
 20
275.8000000535324
 10
0.0000004769176485
 20
0.0000000535324034
 10
398.8000004769176
 20
0.0000000535324371
 10
398.8000004769176
 20
275.8000000535324
  0
LWPOLYLINE
  5
BF0
330
1A
100
AcDbEntity
  8
ZUWAKU
100
AcDbPolyline
 90
        4
 70
     1
 43
0.0
 10
0.2000004769176371
 20
275.6000000535324
 10
0.2000004769176371
 20
0.2000000535324489
 10
398.6000004769176
 20
0.2000000535324373
 10
398.6000004769176
 20
275.6000000535324
  0
LWPOLYLINE
  5
BF1
330
1A
100
AcDbEntity
  8
ZUWAKU
100
AcDbPolyline
 90
        4
 70
     1
 43
0.0
 10
0.4000004769176258
 20
275.4000000535324
 10
0.4000004769176258
 20
0.4000000535324375
 10
398.4000004769176
 20
0.4000000535324375
 10
398.4000004769176
 20
275.4000000535324
  0
TEXT
  5
BF2
330
1A
100
AcDbEntity
  8
MOJI
100
AcDbText
 10
46.47889527100221
 20
6.370589118669784
 30
0.0
 40
3.0
  1
丸トップＵＴ６０
 41
0.9
  7
ｽﾀｲﾙ1
100
AcDbText
  0
HATCH
  5
BF3
330
1A
100
AcDbEntity
  8
ZUWAKU
100
AcDbHatch
 10
0.0
 20
0.0
 30
0.0
210
0.0
220
0.0
230
1.0
  2
ANSI37
 70
     0
 71
     0
 91
        8
 92
        7
 72
     1
 73
     1
 93
       24
 10
7.251131807477577
 20
8.822424294024195
 42
-0.1989123673796348
 10
7.046106554308209
 20
9.31739904085472
 42
0.0
 10
7.046106554308209
 20
9.962500053532409
 42
-0.4142135623730912
 10
7.308606554308198
 20
10.2250000535324
 42
0.0
 10
8.796106554308153
 20
10.2250000535324
 42
0.4142135623731546
 10
9.058606554308198
 20
10.4875000535324
 42
0.0
 10
9.058606554308198
 20
11.3625000535324
 42
0.4142135623731586
 10
8.796106554308153
 20
11.6250000535324
 42
0.0
 10
7.046106554308209
 20
11.6250000535324
 42
0.4142135623730928
 10
5.646106554308232
 20
10.22500005353242
 42
0.0
 10
5.646106554308232
 20
9.317399040854784
 42
0.1989123673796619
 10
6.261182313816448
 20
7.83247480036298
 42
0.0
 10
7.716081301138785
 20
6.377575813040651
 42
-0.1989123673796613
 10
7.921106554308209
 20
5.882601066210058
 42
0.0
 10
7.921106554308209
 20
5.2375000535324
 42
-0.4142135623730911
 10
7.658606554308221
 20
4.975000053532404
 42
0.0
 10
6.171106554308266
 20
4.975000053532404
 42
0.4142135623731526
 10
5.908606554308221
 20
4.71250005353241
 42
0.0
 10
5.908606554308221
 20
3.8375000535324
 42
0.4142135623731526
 10
6.171106554308266
 20
3.575000053532406
 42
0.0
 10
7.921106554308209
 20
3.575000053532406
 42
0.4142135623731044
 10
9.321106554308244
 20
4.975000053532394
 42
0.0
 10
9.321106554308244
 20
5.88260106621003
 42
0.1989123673796604
 10
8.706030794799971
 20
7.3675253067018
 42
0.0
 97
        0
 92
        7
 72
     1
 73
     1
 93
       16
 10
11.77110655430823
 20
9.525000053532409
 42
-0.4142135623730935
 10
12.47110655430822
 20
10.2250000535324
 42
0.0
 10
13.43360655430819
 20
10.2250000535324
 42
0.4142135623731546
 10
13.69610655430824
 20
10.4875000535324
 42
0.0
 10
13.69610655430824
 20
11.3625000535324
 42
0.4142135623730951
 10
13.43360655430825
 20
11.6250000535324
 42
0.0
 10
12.47110655430816
 20
11.62500005353238
 42
0.4142135623730892
 10
10.37110655430819
 20
9.525000053532373
 42
0.0
 10
10.37110655430819
 20
5.675000053532418
 42
0.4142135623730969
 10
12.47110655430822
 20
3.575000053532406
 42
0.0
 10
13.43360655430819
 20
3.575000053532406
 42
0.4142135623731526
 10
13.69610655430824
 20
3.8375000535324
 42
0.0
 10
13.69610655430824
 20
4.71250005353241
 42
0.4142135623730891
 10
13.43360655430825
 20
4.975000053532404
 42
0.0
 10
12.47110655430822
 20
4.975000053532404
 42
-0.4142135623730928
 10
11.77110655430823
 20
5.675000053532398
 42
0.0
 97
        0
 92
        7
 72
     1
 73
     1
 93
        2
 10
12.12110655430819
 20
7.600000053532404
 42
1.0
 10
13.87110655430819
 20
7.600000053532404
 42
1.0
 97
        0
 92
        7
 72
     1
 73
     1
 93
       26
 10
18.6574297953972
 20
9.602523650314118
 42
0.0
 10
19.18824961196611
 20
11.28345306944891
 42
0.5069206636600134
 10
18.93793416236843
 20
11.6250000535324
 42
0.0
 10
18.08848947256382
 20
11.6250000535324
 42
0.3272098845218764
 10
17.83817402296614
 20
11.44154703761589
 42
0.0
 10
16.90403908565025
 20
8.483453069448945
 42
-0.3272098845219541
 10
16.65372363605252
 20
8.300000053532404
 42
0.0
 10
16.58360655430828
 20
8.300000053532404
 42
-0.4142135623731526
 10
16.32110655430824
 20
8.562500053532398
 42
0.0
 10
16.32110655430824
 20
11.3625000535324
 42
0.4142135623730951
 10
16.05860655430825
 20
11.6250000535324
 42
0.0
 10
15.1836065543082
 20
11.6250000535324
 42
0.4142135623730871
 10
14.9211065543082
 20
11.36250005353241
 42
0.0
 10
14.9211065543082
 20
3.8375000535324
 42
0.4142135623730891
 10
15.1836065543082
 20
3.575000053532406
 42
0.0
 10
16.05860655430819
 20
3.575000053532406
 42
0.4142135623731526
 10
16.32110655430824
 20
3.8375000535324
 42
0.0
 10
16.32110655430824
 20
6.637500053532411
 42
-0.4142135623731526
 10
16.58360655430828
 20
6.900000053532405
 42
0.0
 10
16.65372363605257
 20
6.900000053532405
 42
-0.3272098845218915
 10
16.90403908565025
 20
6.716547037615868
 42
0.0
 10
17.83817402296614
 20
3.758453069448941
 42
0.3272098845218902
 10
18.08848947256382
 20
3.575000053532406
 42
0.0
 10
18.93793416236843
 20
3.575000053532406
 42
0.5069206636600335
 10
19.18824961196611
 20
3.916547037615909
 42
0.0
 10
18.02505392272928
 20
7.600000053532474
 42
0.0
 97
        0
 92
        7
 72
     1
 73
     1
 93
        8
 10
21.74610655430819
 20
11.36250005353241
 42
0.4142135623731546
 10
21.48360655430815
 20
11.6250000535324
 42
0.0
 10
20.60860655430826
 20
11.6250000535324
 42
0.4142135623731507
 10
20.34610655430822
 20
11.36250005353241
 42
0.0
 10
20.34610655430822
 20
3.8375000535324
 42
0.4142135623731526
 10
20.60860655430826
 20
3.575000053532406
 42
0.0
 10
21.48360655430815
 20
3.575000053532406
 42
0.4142135623731526
 10
21.74610655430819
 20
3.8375000535324
 42
0.0
 97
        0
 92
        7
 72
     1
 73
     1
 93
       24
 10
24.19610655430824
 20
9.962500053532409
 42
-0.4142135623731546
 10
24.45860655430829
 20
10.2250000535324
 42
0.0
 10
25.94610655430824
 20
10.2250000535324
 42
0.4142135623730911
 10
26.20860655430823
 20
10.4875000535324
 42
0.0
 10
26.20860655430823
 20
11.3625000535324
 42
0.4142135623730952
 10
25.94610655430824
 20
11.6250000535324
 42
0.0
 10
24.19610655430824
 20
11.6250000535324
 42
0.4142135623731048
 10
22.79610655430821
 20
10.22500005353242
 42
0.0
 10
22.79610655430821
 20
9.317399040854784
 42
0.1989123673796613
 10
23.41118231381648
 20
7.832474800363009
 42
0.0
 10
24.86608130113882
 20
6.377575813040675
 42
-0.1989123673796402
 10
25.07110655430824
 20
5.882601066210138
 42
0.0
 10
25.07110655430824
 20
5.2375000535324
 42
-0.4142135623730911
 10
24.80860655430825
 20
4.975000053532404
 42
0.0
 10
23.32110655430824
 20
4.975000053532404
 42
0.4142135623731526
 10
23.05860655430819
 20
4.71250005353241
 42
0.0
 10
23.05860655430819
 20
3.8375000535324
 42
0.4142135623730891
 10
23.32110655430818
 20
3.575000053532406
 42
0.0
 10
25.07110655430824
 20
3.575000053532406
 42
0.4142135623730925
 10
26.47110655430822
 20
4.975000053532394
 42
0.0
 10
26.47110655430822
 20
5.88260106621003
 42
0.1989123673796675
 10
25.85603079479994
 20
7.367525306701857
 42
0.0
 10
24.40113180747767
 20
8.822424294024115
 42
-0.1989123673796652
 10
24.19610655430824
 20
9.317399040854699
 42
0.0
 97
        0
 92
        7
 72
     1
 73
     1
 93
       16
 10
28.92110655430821
 20
11.3625000535324
 42
0.414213562373103
 10
28.65860655430822
 20
11.6250000535324
 42
0.0
 10
27.78360655430822
 20
11.6250000535324
 42
0.4142135623730871
 10
27.52110655430823
 20
11.36250005353241
 42
0.0
 10
27.52110655430823
 20
4.975000053532394
 42
0.4142135623730926
 10
28.92110655430821
 20
3.575000053532406
 42
0.0
 10
30.67110655430821
 20
3.575000053532406
 42
0.4142135623731044
 10
32.07110655430824
 20
4.975000053532394
 42
0.0
 10
32.07110655430824
 20
11.3625000535324
 42
0.4142135623730951
 10
31.80860655430825
 20
11.6250000535324
 42
0.0
 10
30.93360655430819
 20
11.6250000535324
 42
0.4142135623730871
 10
30.67110655430821
 20
11.36250005353241
 42
0.0
 10
30.67110655430821
 20
5.500000053532392
 42
-0.414213562373088
 10
30.14610655430823
 20
4.975000053532404
 42
0.0
 10
29.44610655430824
 20
4.975000053532404
 42
-0.4142135623731197
 10
28.92110655430821
 20
5.500000053532392
 42
0.0
 97
        0
 92
        7
 72
     1
 73
     1
 93
        8
 10
34.52110655430823
 20
11.36250005353241
 42
0.4142135623730871
 10
34.25860655430824
 20
11.6250000535324
 42
0.0
 10
33.38360655430824
 20
11.6250000535324
 42
0.4142135623731507
 10
33.12110655430819
 20
11.36250005353241
 42
0.0
 10
33.12110655430819
 20
3.8375000535324
 42
0.4142135623730891
 10
33.38360655430818
 20
3.575000053532406
 42
0.0
 10
34.25860655430824
 20
3.575000053532406
 42
0.4142135623730891
 10
34.52110655430823
 20
3.8375000535324
 42
0.0
 97
        0
 75
     0
 76
     1
 52
0.0
 41
0.1
 77
     0
 78
     2
 53
45.0
 43
-450.4711516904218
 44
-6.599999946467562
 45
-0.2245064030267288
 46
0.2245064030267288
 79
     0
 53
135.0
 43
-450.4711516904218
 44
-6.599999946467562
 45
-0.2245064030267288
 46
-0.2245064030267288
 79
     0
 47
0.057451373970553
 98
        8
 10
8.039927958429302
 20
7.58358687647518
 10
11.20225798013723
 20
9.422031144757909
 10
12.58218441974747
 20
7.755940876567763
 10
15.45703046773621
 20
8.100648876753155
 10
20.91923648639601
 20
8.330455010523962
 10
23.44910092448242
 20
9.709288211736009
 10
28.27884346311782
 20
9.364579011079911
 10
33.91354028672902
 20
9.594385144850718
  0
LINE
  5
BF4
330
1A
100
AcDbEntity
  8
ZUWAKU
100
AcDbLine
 10
12.47110655430822
 20
11.62500005353238
 30
0.0
 11
13.43360655430819
 21
11.6250000535324
 31
0.0
  0
LINE
  5
BF5
330
1A
100
AcDbEntity
  8
ZUWAKU
100
AcDbLine
 10
13.43360655430819
 20
10.2250000535324
 30
0.0
 11
12.47110655430822
 21
10.2250000535324
 31
0.0
  0
LINE
  5
BF6
330
1A
100
AcDbEntity
  8
ZUWAKU
100
AcDbLine
 10
12.47110655430822
 20
4.975000053532404
 30
0.0
 11
13.43360655430819
 21
4.975000053532404
 31
0.0
  0
LINE
  5
BF7
330
1A
100
AcDbEntity
  8
ZUWAKU
100
AcDbLine
 10
13.43360655430819
 20
3.575000053532406
 30
0.0
 11
12.47110655430822
 21
3.575000053532406
 31
0.0
  0
CIRCLE
  5
BF8
330
1A
100
AcDbEntity
  8
ZUWAKU
100
AcDbCircle
 10
12.9961065543082
 20
7.600000053532404
 30
0.0
 40
0.875
  0
ARC
  5
BF9
330
1A
100
AcDbEntity
  8
ZUWAKU
100
AcDbCircle
 10
7.746106554308198
 20
9.317399040854756
 30
0.0
 40
0.7
100
AcDbArc
 50
180.0000000000016
 51
224.9999999999988
  0
LINE
  5
BFA
330
1A
100
AcDbEntity
  8
ZUWAKU
100
AcDbLine
 10
11.77110655430823
 20
9.525000053532405
 30
0.0
 11
11.77110655430823
 21
5.675000053532407
 31
0.0
  0
LINE
  5
BFB
330
1A
100
AcDbEntity
  8
ZUWAKU
100
AcDbLine
 10
10.37110655430819
 20
5.675000053532407
 30
0.0
 11
10.37110655430819
 21
9.525000053532384
 31
0.0
  0
ARC
  5
BFC
330
1A
100
AcDbEntity
  8
ZUWAKU
100
AcDbCircle
 10
7.746106554308198
 20
9.317399040854756
 30
0.0
 40
2.099999999999999
100
AcDbArc
 50
180.0
 51
225.0
  0
ARC
  5
BFD
330
1A
100
AcDbEntity
  8
ZUWAKU
100
AcDbCircle
 10
7.921106554308209
 20
4.975000053532404
 30
0.0
 40
1.399999999999999
100
AcDbArc
 50
270.0
 51
0.0
  0
ARC
  5
BFE
330
1A
100
AcDbEntity
  8
ZUWAKU
100
AcDbCircle
 10
12.47110655430822
 20
5.675000053532407
 30
0.0
 40
2.099999999999999
100
AcDbArc
 50
180.0
 51
270.0
  0
ARC
  5
BFF
330
1A
100
AcDbEntity
  8
ZUWAKU
100
AcDbCircle
 10
7.221106554308221
 20
5.882601066210057
 30
0.0
 40
2.099999999999999
100
AcDbArc
 50
0.0
 51
45.0
  0
LINE
  5
C00
330
1A
100
AcDbEntity
  8
ZUWAKU
100
AcDbLine
 10
8.706030794799971
 20
7.367525306701818
 30
0.0
 11
7.251131807477634
 21
8.822424294024155
 31
0.0
  0
LINE
  5
C01
330
1A
100
AcDbEntity
  8
ZUWAKU
100
AcDbLine
 10
7.921106554308209
 20
5.237500053532407
 30
0.0
 11
7.921106554308209
 21
5.882601066210078
 31
0.0
  0
ARC
  5
C02
330
1A
100
AcDbEntity
  8
ZUWAKU
100
AcDbCircle
 10
7.658606554308221
 20
5.237500053532407
 30
0.0
 40
0.2625
100
AcDbArc
 50
270.0
 51
0.0
  0
ARC
  5
C03
330
1A
100
AcDbEntity
  8
ZUWAKU
100
AcDbCircle
 10
7.221106554308221
 20
5.882601066210078
 30
0.0
 40
0.7
100
AcDbArc
 50
0.0
 51
45.0
  0
LINE
  5
C04
330
1A
100
AcDbEntity
  8
ZUWAKU
100
AcDbLine
 10
5.908606554308221
 20
3.837500053532405
 30
0.0
 11
5.908606554308221
 21
4.712500053532405
 31
0.0
  0
ARC
  5
C05
330
1A
100
AcDbEntity
  8
ZUWAKU
100
AcDbCircle
 10
6.171106554308209
 20
3.837500053532405
 30
0.0
 40
0.2625
100
AcDbArc
 50
180.0
 51
270.0
  0
ARC
  5
C06
330
1A
100
AcDbEntity
  8
ZUWAKU
100
AcDbCircle
 10
6.171106554308209
 20
4.712500053532405
 30
0.0
 40
0.2625
100
AcDbArc
 50
90.0
 51
180.0
  0
LINE
  5
C07
330
1A
100
AcDbEntity
  8
ZUWAKU
100
AcDbLine
 10
6.171106554308209
 20
3.575000053532406
 30
0.0
 11
7.921106554308209
 21
3.575000053532406
 31
0.0
  0
LINE
  5
C08
330
1A
100
AcDbEntity
  8
ZUWAKU
100
AcDbLine
 10
6.171106554308209
 20
4.975000053532404
 30
0.0
 11
7.658606554308221
 21
4.975000053532404
 31
0.0
  0
LINE
  5
C09
330
1A
100
AcDbEntity
  8
ZUWAKU
100
AcDbLine
 10
6.261182313816448
 20
7.832474800362994
 30
0.0
 11
7.716081301138785
 21
6.377575813040664
 31
0.0
  0
LINE
  5
C0A
330
1A
100
AcDbEntity
  8
ZUWAKU
100
AcDbLine
 10
9.321106554308244
 20
4.975000053532404
 30
0.0
 11
9.321106554308244
 21
5.882601066210078
 31
0.0
  0
ARC
  5
C0B
330
1A
100
AcDbEntity
  8
ZUWAKU
100
AcDbCircle
 10
12.47110655430822
 20
5.675000053532407
 30
0.0
 40
0.7
100
AcDbArc
 50
180.0
 51
270.0
  0
ARC
  5
C0C
330
1A
100
AcDbEntity
  8
ZUWAKU
100
AcDbCircle
 10
8.796106554308209
 20
11.3625000535324
 30
0.0
 40
0.2625
100
AcDbArc
 50
0.0
 51
90.0
  0
ARC
  5
C0D
330
1A
100
AcDbEntity
  8
ZUWAKU
100
AcDbCircle
 10
8.796106554308209
 20
10.4875000535324
 30
0.0
 40
0.2625
100
AcDbArc
 50
270.0
 51
0.0
  0
LINE
  5
C0E
330
1A
100
AcDbEntity
  8
ZUWAKU
100
AcDbLine
 10
7.046106554308209
 20
11.6250000535324
 30
0.0
 11
8.796106554308209
 21
11.6250000535324
 31
0.0
  0
ARC
  5
C0F
330
1A
100
AcDbEntity
  8
ZUWAKU
100
AcDbCircle
 10
7.308606554308198
 20
9.962500053532405
 30
0.0
 40
0.2625
100
AcDbArc
 50
90.0
 51
180.0
  0
LINE
  5
C10
330
1A
100
AcDbEntity
  8
ZUWAKU
100
AcDbLine
 10
7.046106554308209
 20
9.962500053532405
 30
0.0
 11
7.046106554308209
 21
9.317399040854734
 31
0.0
  0
LINE
  5
C11
330
1A
100
AcDbEntity
  8
ZUWAKU
100
AcDbLine
 10
8.796106554308209
 20
10.2250000535324
 30
0.0
 11
7.308606554308198
 21
10.2250000535324
 31
0.0
  0
LINE
  5
C12
330
1A
100
AcDbEntity
  8
ZUWAKU
100
AcDbLine
 10
5.646106554308232
 20
10.2250000535324
 30
0.0
 11
5.646106554308232
 21
9.317399040854734
 31
0.0
  0
ARC
  5
C13
330
1A
100
AcDbEntity
  8
ZUWAKU
100
AcDbCircle
 10
7.046106554308209
 20
10.2250000535324
 30
0.0
 40
1.399999999999999
100
AcDbArc
 50
90.0
 51
180.0
  0
LINE
  5
C14
330
1A
100
AcDbEntity
  8
ZUWAKU
100
AcDbLine
 10
9.058606554308198
 20
11.3625000535324
 30
0.0
 11
9.058606554308198
 21
10.4875000535324
 31
0.0
  0
ARC
  5
C15
330
1A
100
AcDbEntity
  8
ZUWAKU
100
AcDbCircle
 10
12.47110655430822
 20
9.525000053532405
 30
0.0
 40
0.7
100
AcDbArc
 50
90.0
 51
180.0
  0
ARC
  5
C16
330
1A
100
AcDbEntity
  8
ZUWAKU
100
AcDbCircle
 10
12.47110655430822
 20
9.525000053532384
 30
0.0
 40
2.099999999999999
100
AcDbArc
 50
90.0
 51
180.0
  0
LINE
  5
C17
330
1A
100
AcDbEntity
  8
ZUWAKU
100
AcDbLine
 10
39.66331525091175
 20
15.0000000535324
 30
0.0
 11
39.66331525091186
 21
0.4000000535324375
 31
0.0
  0
LINE
  5
C18
330
1A
100
AcDbEntity
  8
ZUWAKU
100
AcDbLine
 10
39.76331525091177
 20
15.0000000535324
 30
0.0
 11
39.76331525091188
 21
0.4000000535324375
 31
0.0
  0
LINE
  5
C19
330
1A
100
AcDbEntity
  8
ZUWAKU
100
AcDbLine
 10
39.56331525091184
 20
15.0000000535324
 30
0.0
 11
39.56331525091184
 21
0.4000000535324375
 31
0.0
  0
LINE
  5
C1A
330
1A
100
AcDbEntity
  8
ZUWAKU
100
AcDbLine
 10
32.07110655430824
 20
4.975000053532404
 30
0.0
 11
32.07110655430824
 21
11.3625000535324
 31
0.0
  0
LINE
  5
C1B
330
1A
100
AcDbEntity
  8
ZUWAKU
100
AcDbLine
 10
30.67110655430821
 20
11.3625000535324
 30
0.0
 11
30.67110655430821
 21
5.500000053532403
 31
0.0
  0
LINE
  5
C1C
330
1A
100
AcDbEntity
  8
ZUWAKU
100
AcDbLine
 10
34.52110655430823
 20
3.837500053532405
 30
0.0
 11
34.52110655430823
 21
11.3625000535324
 31
0.0
  0
LINE
  5
C1D
330
1A
100
AcDbEntity
  8
ZUWAKU
100
AcDbLine
 10
33.12110655430819
 20
11.3625000535324
 30
0.0
 11
33.12110655430819
 21
3.837500053532405
 31
0.0
  0
ARC
  5
C1E
330
1A
100
AcDbEntity
  8
ZUWAKU
100
AcDbCircle
 10
24.89610655430823
 20
9.317399040854756
 30
0.0
 40
0.7
100
AcDbArc
 50
180.0000000000016
 51
224.9999999999988
  0
ARC
  5
C1F
330
1A
100
AcDbEntity
  8
ZUWAKU
100
AcDbCircle
 10
24.89610655430823
 20
9.317399040854756
 30
0.0
 40
2.099999999999999
100
AcDbArc
 50
180.0
 51
225.0
  0
LINE
  5
C20
330
1A
100
AcDbEntity
  8
ZUWAKU
100
AcDbLine
 10
18.6574297953972
 20
9.602523650314118
 30
0.0
 11
18.02505392272928
 21
7.600000053532415
 31
0.0
  0
LINE
  5
C21
330
1A
100
AcDbEntity
  8
ZUWAKU
100
AcDbLine
 10
20.34610655430822
 20
11.3625000535324
 30
0.0
 11
20.34610655430822
 21
3.837500053532405
 31
0.0
  0
LINE
  5
C22
330
1A
100
AcDbEntity
  8
ZUWAKU
100
AcDbLine
 10
21.74610655430819
 20
3.837500053532405
 30
0.0
 11
21.74610655430819
 21
11.3625000535324
 31
0.0
  0
LINE
  5
C23
330
1A
100
AcDbEntity
  8
ZUWAKU
100
AcDbLine
 10
27.52110655430823
 20
11.3625000535324
 30
0.0
 11
27.52110655430823
 21
4.975000053532404
 31
0.0
  0
LINE
  5
C24
330
1A
100
AcDbEntity
  8
ZUWAKU
100
AcDbLine
 10
28.92110655430821
 20
5.500000053532403
 30
0.0
 11
28.92110655430821
 21
11.3625000535324
 31
0.0
  0
LINE
  5
C25
330
1A
100
AcDbEntity
  8
ZUWAKU
100
AcDbLine
 10
16.32110655430824
 20
8.562500053532406
 30
0.0
 11
16.32110655430824
 21
11.3625000535324
 31
0.0
  0
LINE
  5
C26
330
1A
100
AcDbEntity
  8
ZUWAKU
100
AcDbLine
 10
14.9211065543082
 20
11.3625000535324
 30
0.0
 11
14.9211065543082
 21
3.837500053532405
 31
0.0
  0
LINE
  5
C27
330
1A
100
AcDbEntity
  8
ZUWAKU
100
AcDbLine
 10
17.83817402296614
 20
11.44154703761589
 30
0.0
 11
16.90403908565025
 21
8.48345306944892
 31
0.0
  0
LINE
  5
C28
330
1A
100
AcDbEntity
  8
ZUWAKU
100
AcDbLine
 10
30.14610655430823
 20
4.975000053532404
 30
0.0
 11
29.44610655430824
 21
4.975000053532404
 31
0.0
  0
LINE
  5
C29
330
1A
100
AcDbEntity
  8
ZUWAKU
100
AcDbLine
 10
28.92110655430821
 20
3.575000053532406
 30
0.0
 11
30.67110655430821
 21
3.575000053532406
 31
0.0
  0
LINE
  5
C2A
330
1A
100
AcDbEntity
  8
ZUWAKU
100
AcDbLine
 10
20.60860655430821
 20
3.575000053532406
 30
0.0
 11
21.4836065543082
 21
3.575000053532406
 31
0.0
  0
LINE
  5
C2B
330
1A
100
AcDbEntity
  8
ZUWAKU
100
AcDbLine
 10
17.83817402296614
 20
3.758453069448918
 30
0.0
 11
16.90403908565025
 21
6.716547037615889
 31
0.0
  0
ARC
  5
C2C
330
1A
100
AcDbEntity
  8
ZUWAKU
100
AcDbCircle
 10
16.65372363605257
 20
8.562500053532406
 30
0.0
 40
0.2625
100
AcDbArc
 50
270.0
 51
342.4744316262769
  0
LINE
  5
C2D
330
1A
100
AcDbEntity
  8
ZUWAKU
100
AcDbLine
 10
16.65372363605257
 20
8.300000053532404
 30
0.0
 11
16.58360655430823
 21
8.300000053532404
 31
0.0
  0
LINE
  5
C2E
330
1A
100
AcDbEntity
  8
ZUWAKU
100
AcDbLine
 10
16.58360655430823
 20
6.900000053532405
 30
0.0
 11
16.65372363605257
 21
6.900000053532405
 31
0.0
  0
ARC
  5
C2F
330
1A
100
AcDbEntity
  8
ZUWAKU
100
AcDbCircle
 10
16.58360655430823
 20
8.562500053532406
 30
0.0
 40
0.2625
100
AcDbArc
 50
180.0
 51
270.0
  0
LINE
  5
C30
330
1A
100
AcDbEntity
  8
ZUWAKU
100
AcDbLine
 10
15.1836065543082
 20
3.575000053532406
 30
0.0
 11
16.05860655430819
 21
3.575000053532406
 31
0.0
  0
ARC
  5
C31
330
1A
100
AcDbEntity
  8
ZUWAKU
100
AcDbCircle
 10
16.05860655430819
 20
3.837500053532405
 30
0.0
 40
0.2625
100
AcDbArc
 50
270.0
 51
0.0
  0
LINE
  5
C32
330
1A
100
AcDbEntity
  8
ZUWAKU
100
AcDbLine
 10
16.32110655430824
 20
3.837500053532405
 30
0.0
 11
16.32110655430824
 21
6.637500053532406
 31
0.0
  0
LINE
  5
C33
330
1A
100
AcDbEntity
  8
ZUWAKU
100
AcDbLine
 10
13.69610655430824
 20
4.712500053532405
 30
0.0
 11
13.69610655430824
 21
3.837500053532405
 31
0.0
  0
ARC
  5
C34
330
1A
100
AcDbEntity
  8
ZUWAKU
100
AcDbCircle
 10
13.43360655430819
 20
3.837500053532405
 30
0.0
 40
0.2625
100
AcDbArc
 50
270.0
 51
0.0
  0
ARC
  5
C35
330
1A
100
AcDbEntity
  8
ZUWAKU
100
AcDbCircle
 10
13.43360655430819
 20
4.712500053532405
 30
0.0
 40
0.2625
100
AcDbArc
 50
0.0
 51
90.0
  0
ARC
  5
C36
330
1A
100
AcDbEntity
  8
ZUWAKU
100
AcDbCircle
 10
15.1836065543082
 20
3.837500053532405
 30
0.0
 40
0.2625
100
AcDbArc
 50
180.0
 51
270.0
  0
ARC
  5
C37
330
1A
100
AcDbEntity
  8
ZUWAKU
100
AcDbCircle
 10
16.65372363605257
 20
6.637500053532406
 30
0.0
 40
0.2625
100
AcDbArc
 50
17.52556837372303
 51
90.0
  0
ARC
  5
C38
330
1A
100
AcDbEntity
  8
ZUWAKU
100
AcDbCircle
 10
16.58360655430823
 20
6.637500053532406
 30
0.0
 40
0.2625
100
AcDbArc
 50
90.0
 51
180.0
  0
ARC
  5
C39
330
1A
100
AcDbEntity
  8
ZUWAKU
100
AcDbCircle
 10
20.60860655430821
 20
3.837500053532405
 30
0.0
 40
0.2625
100
AcDbArc
 50
180.0
 51
270.0
  0
LINE
  5
C3A
330
1A
100
AcDbEntity
  8
ZUWAKU
100
AcDbLine
 10
18.08848947256388
 20
3.575000053532406
 30
0.0
 11
18.93793416236837
 21
3.575000053532406
 31
0.0
  0
ARC
  5
C3B
330
1A
100
AcDbEntity
  8
ZUWAKU
100
AcDbCircle
 10
18.93793416236837
 20
3.837500053532405
 30
0.0
 40
0.2625
100
AcDbArc
 50
270.0
 51
17.52556837372303
  0
LINE
  5
C3C
330
1A
100
AcDbEntity
  8
ZUWAKU
100
AcDbLine
 10
19.18824961196611
 20
3.916547037615892
 30
0.0
 11
18.02505392272928
 21
7.600000053532415
 31
0.0
  0
ARC
  5
C3D
330
1A
100
AcDbEntity
  8
ZUWAKU
100
AcDbCircle
 10
18.08848947256388
 20
3.837500053532405
 30
0.0
 40
0.2625
100
AcDbArc
 50
197.525568373723
 51
270.0
  0
ARC
  5
C3E
330
1A
100
AcDbEntity
  8
ZUWAKU
100
AcDbCircle
 10
28.92110655430821
 20
4.975000053532404
 30
0.0
 40
1.399999999999999
100
AcDbArc
 50
180.0
 51
270.0
  0
ARC
  5
C3F
330
1A
100
AcDbEntity
  8
ZUWAKU
100
AcDbCircle
 10
25.07110655430824
 20
4.975000053532404
 30
0.0
 40
1.399999999999999
100
AcDbArc
 50
270.0
 51
0.0
  0
LINE
  5
C40
330
1A
100
AcDbEntity
  8
ZUWAKU
100
AcDbLine
 10
25.8560307948
 20
7.367525306701818
 30
0.0
 11
24.40113180747761
 21
8.822424294024155
 31
0.0
  0
LINE
  5
C41
330
1A
100
AcDbEntity
  8
ZUWAKU
100
AcDbLine
 10
25.07110655430824
 20
5.237500053532407
 30
0.0
 11
25.07110655430824
 21
5.882601066210078
 31
0.0
  0
ARC
  5
C42
330
1A
100
AcDbEntity
  8
ZUWAKU
100
AcDbCircle
 10
24.37110655430819
 20
5.882601066210078
 30
0.0
 40
0.7
100
AcDbArc
 50
0.0
 51
45.0
  0
ARC
  5
C43
330
1A
100
AcDbEntity
  8
ZUWAKU
100
AcDbCircle
 10
24.8086065543082
 20
5.237500053532407
 30
0.0
 40
0.2625
100
AcDbArc
 50
270.0
 51
0.0
  0
LINE
  5
C44
330
1A
100
AcDbEntity
  8
ZUWAKU
100
AcDbLine
 10
23.05860655430819
 20
3.837500053532405
 30
0.0
 11
23.05860655430819
 21
4.712500053532405
 31
0.0
  0
ARC
  5
C45
330
1A
100
AcDbEntity
  8
ZUWAKU
100
AcDbCircle
 10
23.32110655430824
 20
3.837500053532405
 30
0.0
 40
0.2625
100
AcDbArc
 50
180.0
 51
270.0
  0
ARC
  5
C46
330
1A
100
AcDbEntity
  8
ZUWAKU
100
AcDbCircle
 10
21.4836065543082
 20
3.837500053532405
 30
0.0
 40
0.2625
100
AcDbArc
 50
270.0
 51
0.0
  0
ARC
  5
C47
330
1A
100
AcDbEntity
  8
ZUWAKU
100
AcDbCircle
 10
23.32110655430824
 20
4.712500053532405
 30
0.0
 40
0.2625
100
AcDbArc
 50
90.0
 51
180.0
  0
LINE
  5
C48
330
1A
100
AcDbEntity
  8
ZUWAKU
100
AcDbLine
 10
23.32110655430824
 20
4.975000053532404
 30
0.0
 11
24.8086065543082
 21
4.975000053532404
 31
0.0
  0
LINE
  5
C49
330
1A
100
AcDbEntity
  8
ZUWAKU
100
AcDbLine
 10
23.32110655430824
 20
3.575000053532406
 30
0.0
 11
25.07110655430824
 21
3.575000053532406
 31
0.0
  0
LINE
  5
C4A
330
1A
100
AcDbEntity
  8
ZUWAKU
100
AcDbLine
 10
23.41118231381648
 20
7.832474800362994
 30
0.0
 11
24.86608130113882
 21
6.377575813040664
 31
0.0
  0
LINE
  5
C4B
330
1A
100
AcDbEntity
  8
ZUWAKU
100
AcDbLine
 10
26.47110655430822
 20
4.975000053532404
 30
0.0
 11
26.47110655430822
 21
5.882601066210078
 31
0.0
  0
ARC
  5
C4C
330
1A
100
AcDbEntity
  8
ZUWAKU
100
AcDbCircle
 10
24.37110655430819
 20
5.882601066210057
 30
0.0
 40
2.099999999999999
100
AcDbArc
 50
0.0
 51
45.0
  0
ARC
  5
C4D
330
1A
100
AcDbEntity
  8
ZUWAKU
100
AcDbCircle
 10
29.44610655430824
 20
5.500000053532403
 30
0.0
 40
0.525
100
AcDbArc
 50
180.0
 51
270.0
  0
ARC
  5
C4E
330
1A
100
AcDbEntity
  8
ZUWAKU
100
AcDbCircle
 10
30.67110655430821
 20
4.975000053532404
 30
0.0
 40
1.399999999999999
100
AcDbArc
 50
270.0
 51
0.0
  0
LINE
  5
C4F
330
1A
100
AcDbEntity
  8
ZUWAKU
100
AcDbLine
 10
33.38360655430824
 20
3.575000053532406
 30
0.0
 11
34.25860655430824
 21
3.575000053532406
 31
0.0
  0
ARC
  5
C50
330
1A
100
AcDbEntity
  8
ZUWAKU
100
AcDbCircle
 10
33.38360655430824
 20
3.837500053532405
 30
0.0
 40
0.2625
100
AcDbArc
 50
180.0
 51
270.0
  0
ARC
  5
C51
330
1A
100
AcDbEntity
  8
ZUWAKU
100
AcDbCircle
 10
30.14610655430823
 20
5.500000053532403
 30
0.0
 40
0.525
100
AcDbArc
 50
270.0
 51
0.0
  0
ARC
  5
C52
330
1A
100
AcDbEntity
  8
ZUWAKU
100
AcDbCircle
 10
34.25860655430824
 20
3.837500053532405
 30
0.0
 40
0.2625
100
AcDbArc
 50
270.0
 51
0.0
  0
LINE
  5
C53
330
1A
100
AcDbEntity
  8
ZUWAKU
100
AcDbLine
 10
21.4836065543082
 20
11.6250000535324
 30
0.0
 11
20.60860655430821
 21
11.6250000535324
 31
0.0
  0
ARC
  5
C54
330
1A
100
AcDbEntity
  8
ZUWAKU
100
AcDbCircle
 10
16.05860655430819
 20
11.3625000535324
 30
0.0
 40
0.2625
100
AcDbArc
 50
0.0
 51
90.0
  0
LINE
  5
C55
330
1A
100
AcDbEntity
  8
ZUWAKU
100
AcDbLine
 10
16.05860655430819
 20
11.6250000535324
 30
0.0
 11
15.1836065543082
 21
11.6250000535324
 31
0.0
  0
ARC
  5
C56
330
1A
100
AcDbEntity
  8
ZUWAKU
100
AcDbCircle
 10
13.43360655430819
 20
11.3625000535324
 30
0.0
 40
0.2625
100
AcDbArc
 50
0.0
 51
90.0
  0
ARC
  5
C57
330
1A
100
AcDbEntity
  8
ZUWAKU
100
AcDbCircle
 10
15.1836065543082
 20
11.3625000535324
 30
0.0
 40
0.2625
100
AcDbArc
 50
90.0
 51
180.0
  0
ARC
  5
C58
330
1A
100
AcDbEntity
  8
ZUWAKU
100
AcDbCircle
 10
13.43360655430819
 20
10.4875000535324
 30
0.0
 40
0.2625
100
AcDbArc
 50
270.0
 51
0.0
  0
LINE
  5
C59
330
1A
100
AcDbEntity
  8
ZUWAKU
100
AcDbLine
 10
13.69610655430824
 20
11.3625000535324
 30
0.0
 11
13.69610655430824
 21
10.4875000535324
 31
0.0
  0
ARC
  5
C5A
330
1A
100
AcDbEntity
  8
ZUWAKU
100
AcDbCircle
 10
20.60860655430821
 20
11.3625000535324
 30
0.0
 40
0.2625
100
AcDbArc
 50
90.0
 51
180.0
  0
LINE
  5
C5B
330
1A
100
AcDbEntity
  8
ZUWAKU
100
AcDbLine
 10
18.08848947256388
 20
11.6250000535324
 30
0.0
 11
18.93793416236837
 21
11.6250000535324
 31
0.0
  0
ARC
  5
C5C
330
1A
100
AcDbEntity
  8
ZUWAKU
100
AcDbCircle
 10
18.93793416236837
 20
11.3625000535324
 30
0.0
 40
0.2625
100
AcDbArc
 50
342.4744316262769
 51
90.0
  0
LINE
  5
C5D
330
1A
100
AcDbEntity
  8
ZUWAKU
100
AcDbLine
 10
19.18824961196611
 20
11.28345306944892
 30
0.0
 11
18.6574297953972
 21
9.602523650314118
 31
0.0
  0
ARC
  5
C5E
330
1A
100
AcDbEntity
  8
ZUWAKU
100
AcDbCircle
 10
18.08848947256388
 20
11.3625000535324
 30
0.0
 40
0.2625
100
AcDbArc
 50
90.0
 51
162.4744316262769
  0
LINE
  5
C5F
330
1A
100
AcDbEntity
  8
ZUWAKU
100
AcDbLine
 10
24.19610655430824
 20
11.6250000535324
 30
0.0
 11
25.94610655430824
 21
11.6250000535324
 31
0.0
  0
LINE
  5
C60
330
1A
100
AcDbEntity
  8
ZUWAKU
100
AcDbLine
 10
25.94610655430824
 20
10.2250000535324
 30
0.0
 11
24.45860655430823
 21
10.2250000535324
 31
0.0
  0
ARC
  5
C61
330
1A
100
AcDbEntity
  8
ZUWAKU
100
AcDbCircle
 10
24.45860655430823
 20
9.962500053532405
 30
0.0
 40
0.2625
100
AcDbArc
 50
90.0
 51
180.0
  0
LINE
  5
C62
330
1A
100
AcDbEntity
  8
ZUWAKU
100
AcDbLine
 10
24.19610655430824
 20
9.962500053532405
 30
0.0
 11
24.19610655430824
 21
9.317399040854734
 31
0.0
  0
ARC
  5
C63
330
1A
100
AcDbEntity
  8
ZUWAKU
100
AcDbCircle
 10
21.4836065543082
 20
11.3625000535324
 30
0.0
 40
0.2625
100
AcDbArc
 50
0.0
 51
90.0
  0
LINE
  5
C64
330
1A
100
AcDbEntity
  8
ZUWAKU
100
AcDbLine
 10
22.79610655430821
 20
10.2250000535324
 30
0.0
 11
22.79610655430821
 21
9.317399040854734
 31
0.0
  0
ARC
  5
C65
330
1A
100
AcDbEntity
  8
ZUWAKU
100
AcDbCircle
 10
24.19610655430824
 20
10.2250000535324
 30
0.0
 40
1.399999999999999
100
AcDbArc
 50
90.0
 51
180.0
  0
ARC
  5
C66
330
1A
100
AcDbEntity
  8
ZUWAKU
100
AcDbCircle
 10
28.65860655430822
 20
11.3625000535324
 30
0.0
 40
0.2625
100
AcDbArc
 50
0.0
 51
90.0
  0
ARC
  5
C67
330
1A
100
AcDbEntity
  8
ZUWAKU
100
AcDbCircle
 10
27.78360655430822
 20
11.3625000535324
 30
0.0
 40
0.2625
100
AcDbArc
 50
90.0
 51
180.0
  0
LINE
  5
C68
330
1A
100
AcDbEntity
  8
ZUWAKU
100
AcDbLine
 10
28.65860655430822
 20
11.6250000535324
 30
0.0
 11
27.78360655430822
 21
11.6250000535324
 31
0.0
  0
ARC
  5
C69
330
1A
100
AcDbEntity
  8
ZUWAKU
100
AcDbCircle
 10
25.94610655430824
 20
11.3625000535324
 30
0.0
 40
0.2625
100
AcDbArc
 50
0.0
 51
90.0
  0
ARC
  5
C6A
330
1A
100
AcDbEntity
  8
ZUWAKU
100
AcDbCircle
 10
25.94610655430824
 20
10.4875000535324
 30
0.0
 40
0.2625
100
AcDbArc
 50
270.0
 51
0.0
  0
LINE
  5
C6B
330
1A
100
AcDbEntity
  8
ZUWAKU
100
AcDbLine
 10
26.20860655430823
 20
11.3625000535324
 30
0.0
 11
26.20860655430823
 21
10.4875000535324
 31
0.0
  0
LINE
  5
C6C
330
1A
100
AcDbEntity
  8
ZUWAKU
100
AcDbLine
 10
34.25860655430824
 20
11.6250000535324
 30
0.0
 11
33.38360655430824
 21
11.6250000535324
 31
0.0
  0
ARC
  5
C6D
330
1A
100
AcDbEntity
  8
ZUWAKU
100
AcDbCircle
 10
33.38360655430824
 20
11.3625000535324
 30
0.0
 40
0.2625
100
AcDbArc
 50
90.0
 51
180.0
  0
ARC
  5
C6E
330
1A
100
AcDbEntity
  8
ZUWAKU
100
AcDbCircle
 10
31.80860655430819
 20
11.3625000535324
 30
0.0
 40
0.2625
100
AcDbArc
 50
0.0
 51
90.0
  0
LINE
  5
C6F
330
1A
100
AcDbEntity
  8
ZUWAKU
100
AcDbLine
 10
31.80860655430819
 20
11.6250000535324
 30
0.0
 11
30.93360655430819
 21
11.6250000535324
 31
0.0
  0
ARC
  5
C70
330
1A
100
AcDbEntity
  8
ZUWAKU
100
AcDbCircle
 10
30.93360655430819
 20
11.3625000535324
 30
0.0
 40
0.2625
100
AcDbArc
 50
90.0
 51
180.0
  0
ARC
  5
C71
330
1A
100
AcDbEntity
  8
ZUWAKU
100
AcDbCircle
 10
34.25860655430824
 20
11.3625000535324
 30
0.0
 40
0.2625
100
AcDbArc
 50
0.0
 51
90.0
  0
TEXT
  5
C72
330
1A
100
AcDbEntity
  8
MOJI
100
AcDbText
 10
119.9136018173431
 20
1.602460582236114
 30
0.0
 40
2.799999999999999
  1
ＵＴ６０－Ｌ９０
 41
0.9
  7
ｽﾀｲﾙ1
100
AcDbText
  0
TEXT
  5
C73
330
1A
100
AcDbEntity
  8
MOJI
100
AcDbText
 10
119.9136018173431
 20
9.002460582236096
 30
0.0
 40
2.799999999999999
  1
ブラケットデンデン（打込）
 41
0.9
  7
ｽﾀｲﾙ1
100
AcDbText
  0
LINE
  5
C74
330
1A
100
AcDbEntity
  8
ZUWAKU
100
AcDbLine
 10
104.1233011219516
 20
15.0000000535324
 30
0.0
 11
104.1233011219516
 21
0.4000000535324375
 31
0.0
  0
LINE
  5
C75
330
1A
100
AcDbEntity
  8
ZUWAKU
100
AcDbLine
 10
104.3233011219515
 20
15.0000000535324
 30
0.0
 11
104.3233011219516
 21
0.4000000535324375
 31
0.0
  0
LINE
  5
C76
330
1A
100
AcDbEntity
  8
ZUWAKU
100
AcDbLine
 10
104.2233011219515
 20
15.0000000535324
 30
0.0
 11
104.2233011219516
 21
0.4000000535324375
 31
0.0
  0
TEXT
  5
C77
330
1A
100
AcDbEntity
  8
ZUWAKU
100
AcDbText
 10
104.8620236330564
 20
4.827678322725212
 30
0.0
 40
2.0
  1
サイズ
 41
0.9
  7
ｽﾀｲﾙ1
100
AcDbText
  0
TEXT
  5
C78
330
1A
100
AcDbEntity
  8
ZUWAKU
100
AcDbText
 10
104.8620236330563
 20
12.02767832272519
 30
0.0
 40
2.0
  1
品名
 41
0.9
  7
ｽﾀｲﾙ1
100
AcDbText
  0
LINE
  5
C79
330
1A
100
AcDbEntity
  8
ZUWAKU
100
AcDbLine
 10
324.4086017320197
 20
7.600000053532419
 30
0.0
 11
348.6245057511883
 21
7.60000005353242
 31
0.0
  0
LINE
  5
C7A
330
1A
100
AcDbEntity
  8
ZUWAKU
100
AcDbLine
 10
324.4086017320198
 20
7.700000053532422
 30
0.0
 11
348.6245057511883
 21
7.70000005353242
 31
0.0
  0
LINE
  5
C7B
330
1A
100
AcDbEntity
  8
ZUWAKU
100
AcDbLine
 10
324.4086017320197
 20
7.80000005353242
 30
0.0
 11
348.6245057511883
 21
7.80000005353242
 31
0.0
  0
TEXT
  5
C7C
330
1A
100
AcDbEntity
  8
ZUWAKU
100
AcDbText
 10
329.1019693205688
 20
9.002460582236096
 30
0.0
 40
2.799999999999999
  1
　　．　　．　　
 41
0.9
  7
ｽﾀｲﾙ1
100
AcDbText
  0
LINE
  5
C7D
330
1A
100
AcDbEntity
  8
ZUWAKU
100
AcDbLine
 10
252.5995902259881
 20
7.600000053532422
 30
0.0
 11
276.2634783599738
 21
7.600000053532422
 31
0.0
  0
LINE
  5
C7E
330
1A
100
AcDbEntity
  8
ZUWAKU
100
AcDbLine
 10
252.5995902259881
 20
7.70000005353242
 30
0.0
 11
276.2634783599738
 21
7.70000005353242
 31
0.0
  0
LINE
  5
C7F
330
1A
100
AcDbEntity
  8
ZUWAKU
100
AcDbLine
 10
252.5995902259881
 20
7.80000005353242
 30
0.0
 11
276.2634783599738
 21
7.80000005353242
 31
0.0
  0
TEXT
  5
C80
330
1A
100
AcDbEntity
  8
MOJI
100
AcDbText
 10
231.6232164724187
 20
5.971308914362396
 30
0.0
 40
2.799999999999999
  1
ＬＭ７３□
 41
0.9
  7
ｽﾀｲﾙ1
100
AcDbText
  0
LINE
  5
C81
330
1A
100
AcDbEntity
  8
ZUWAKU
100
AcDbLine
 10
223.8121824624132
 20
15.0000000535324
 30
0.0
 11
223.8121824624133
 21
0.4000000535324375
 31
0.0
  0
LINE
  5
C82
330
1A
100
AcDbEntity
  8
ZUWAKU
100
AcDbLine
 10
223.9121824624132
 20
15.0000000535324
 30
0.0
 11
223.9121824624134
 21
0.4000000535324375
 31
0.0
  0
LINE
  5
C83
330
1A
100
AcDbEntity
  8
ZUWAKU
100
AcDbLine
 10
223.7121824624133
 20
15.0000000535324
 30
0.0
 11
223.7121824624133
 21
0.4000000535324375
 31
0.0
  0
TEXT
  5
C84
330
1A
100
AcDbEntity
  8
MOJI
100
AcDbText
 10
264.020454463074
 20
9.002460582236096
 30
0.0
 40
2.799999999999999
  1
Ａ３
 41
0.9
  7
ｽﾀｲﾙ1
100
AcDbText
  0
LINE
  5
C85
330
1A
100
AcDbEntity
  8
ZUWAKU
100
AcDbLine
 10
252.499590225988
 20
15.0000000535324
 30
0.0
 11
252.4995902259882
 21
0.4000000535324375
 31
0.0
  0
LINE
  5
C86
330
1A
100
AcDbEntity
  8
ZUWAKU
100
AcDbLine
 10
252.5995902259881
 20
15.0000000535324
 30
0.0
 11
252.5995902259882
 21
0.4000000535324375
 31
0.0
  0
LINE
  5
C87
330
1A
100
AcDbEntity
  8
ZUWAKU
100
AcDbLine
 10
252.3995902259881
 20
15.0000000535324
 30
0.0
 11
252.3995902259881
 21
0.4000000535324375
 31
0.0
  0
TEXT
  5
C88
330
1A
100
AcDbEntity
  8
ZUWAKU
100
AcDbText
 10
230.6528771881791
 20
1.307035509102149
 30
0.0
 40
1.5
  1
□には色品番が入ります
 41
0.9
  7
ｽﾀｲﾙ1
100
AcDbText
  0
TEXT
  5
C89
330
1A
100
AcDbEntity
  8
ZUWAKU
100
AcDbText
 10
253.338312737093
 20
4.827678322725212
 30
0.0
 40
2.0
  1
縮尺
 41
0.9
  7
ｽﾀｲﾙ1
100
AcDbText
  0
TEXT
  5
C8A
330
1A
100
AcDbEntity
  8
MOJI
100
AcDbText
 10
264.020454463074
 20
1.602460582236114
 30
0.0
 40
2.799999999999999
  1
１/１
 41
0.9
  7
ｽﾀｲﾙ1
100
AcDbText
  0
TEXT
  5
C8B
330
1A
100
AcDbEntity
  8
ZUWAKU
100
AcDbText
 10
224.650904973518
 20
12.02767832272519
 30
0.0
 40
2.0
  1
品番
 41
0.9
  7
ｽﾀｲﾙ1
100
AcDbText
  0
TEXT
  5
C8C
330
1A
100
AcDbEntity
  8
ZUWAKU
100
AcDbText
 10
253.3383127370929
 20
12.02767832272519
 30
0.0
 40
2.0
  1
用紙
 41
0.9
  7
ｽﾀｲﾙ1
100
AcDbText
  0
LINE
  5
C8D
330
1A
100
AcDbEntity
  8
ZUWAKU
100
AcDbLine
 10
324.3086017320198
 20
15.0000000535324
 30
0.0
 11
324.3086017320199
 21
0.4000000535324375
 31
0.0
  0
LINE
  5
C8E
330
1A
100
AcDbEntity
  8
ZUWAKU
100
AcDbLine
 10
324.4086017320198
 20
15.0000000535324
 30
0.0
 11
324.4086017320199
 21
0.4000000535324375
 31
0.0
  0
LINE
  5
C8F
330
1A
100
AcDbEntity
  8
ZUWAKU
100
AcDbLine
 10
324.2086017320199
 20
15.0000000535324
 30
0.0
 11
324.2086017320199
 21
0.4000000535324375
 31
0.0
  0
LINE
  5
C90
330
1A
100
AcDbEntity
  8
ZUWAKU
100
AcDbLine
 10
276.3634783599737
 20
15.0000000535324
 30
0.0
 11
276.3634783599739
 21
0.4000000535324375
 31
0.0
  0
LINE
  5
C91
330
1A
100
AcDbEntity
  8
ZUWAKU
100
AcDbLine
 10
276.4634783599738
 20
15.0000000535324
 30
0.0
 11
276.4634783599739
 21
0.4000000535324375
 31
0.0
  0
LINE
  5
C92
330
1A
100
AcDbEntity
  8
ZUWAKU
100
AcDbLine
 10
276.2634783599738
 20
15.0000000535324
 30
0.0
 11
276.2634783599738
 21
0.4000000535324375
 31
0.0
  0
TEXT
  5
C93
330
1A
100
AcDbEntity
  8
ZUWAKU
100
AcDbText
 10
325.1473242431246
 20
12.02767832272519
 30
0.0
 40
2.0
  1
DATE
 41
0.9
  7
ｽﾀｲﾙ1
100
AcDbText
  0
LINE
  5
C94
330
1A
100
AcDbEntity
  8
ZUWAKU
100
AcDbLine
 10
348.6245057511883
 20
15.0000000535324
 30
0.0
 11
348.6245057511883
 21
0.4000000535324375
 31
0.0
  0
LINE
  5
C95
330
1A
100
AcDbEntity
  8
ZUWAKU
100
AcDbLine
 10
348.7245057511882
 20
15.0000000535324
 30
0.0
 11
348.7245057511882
 21
0.4000000535324375
 31
0.0
  0
LINE
  5
C96
330
1A
100
AcDbEntity
  8
ZUWAKU
100
AcDbLine
 10
348.8245057511882
 20
15.0000000535324
 30
0.0
 11
348.8245057511883
 21
0.4000000535324375
 31
0.0
  0
LINE
  5
C97
330
1A
100
AcDbEntity
  8
ZUWAKU
100
AcDbLine
 10
348.9245057511882
 20
15.0000000535324
 30
0.0
 11
348.9245057511883
 21
0.4000000535324375
 31
0.0
  0
TEXT
  5
C98
330
1A
100
AcDbEntity
  8
ZUWAKU
100
AcDbText
 10
354.2640425730395
 20
8.776919721375804
 30
0.0
 40
3.0
  1
積水化学工業株式会社
 41
0.9
  7
ｽﾀｲﾙ1
100
AcDbText
  0
TEXT
  5
C99
330
1A
100
AcDbEntity
  8
ZUWAKU
100
AcDbText
 10
354.2640425730395
 20
3.324420210459436
 30
0.0
 40
3.0
  1
建材事業部
 41
0.9
  7
ｽﾀｲﾙ1
100
AcDbText
  0
LINE
  5
E2B
330
1A
100
AcDbEntity
  8
SEIHIN
  6
CONTINUOUS
 62
     3
 48
5.0
100
AcDbLine
 10
206.5383427550642
 20
194.8114577276515
 30
0.0
 11
195.5383427550638
 21
194.8114577276515
 31
0.0
  0
LINE
  5
E2C
330
1A
100
AcDbEntity
  8
SEIHIN
  6
CONTINUOUS
 62
     3
 48
5.0
100
AcDbLine
 10
206.5383427550643
 20
190.3114577276515
 30
0.0
 11
195.5383427550639
 21
190.3114577276515
 31
0.0
  0
LINE
  5
E2D
330
1A
100
AcDbEntity
  8
SEIHIN
  6
CONTINUOUS
 62
     3
 48
5.0
100
AcDbLine
 10
206.5383427550643
 20
96.56370831690157
 30
0.0
 11
195.5383427550639
 21
96.56370831690157
 31
0.0
  0
LINE
  5
E2E
330
1A
100
AcDbEntity
  8
SEIHIN
  6
CONTINUOUS
 62
     3
 48
5.0
100
AcDbLine
 10
206.5383427550642
 20
101.0637083169015
 30
0.0
 11
195.5383427550638
 21
101.0637083169015
 31
0.0
  0
DIMENSION
  5
E2F
330
1A
100
AcDbEntity
  8
SUNPOU
  6
CONTINUOUS
 48
0.5
100
AcDbDimension
  2
*D20
 10
207.5390562972165
 20
56.43623777528404
 30
0.0
 11
195.5390560741207
 21
58.93623777528404
 31
0.0
 70
    32
  3
STANDARD
100
AcDbAlignedDimension
 13
183.5390558510249
 23
98.81370831690157
 33
0.0
 14
207.5390562972165
 24
96.26351997603295
 34
0.0
100
AcDbRotatedDimension
1001
ACAD
1000
DSTYLE
1002
{
1070
    41
1040
3.0
1070
    42
1040
3.0
1070
    43
1040
7.0
1070
    44
1040
1.5
1070
    73
1070
     0
1070
    74
1070
     0
1070
    77
1070
     3
1070
   140
1040
3.0
1070
   141
1040
150.0
1070
   147
1040
1.0
1070
   172
1070
     1
1070
   173
1070
     1
1070
   176
1070
     4
1070
   177
1070
     4
1070
   178
1070
     4
1070
   271
1070
     0
1070
   272
1070
     2
1070
   341
1005
B2
1070
     6
1000
OPEN
1070
     7
1000
OPEN
1002
}
  0
DIMENSION
  5
E30
330
1A
100
AcDbEntity
  8
SUNPOU
  6
CONTINUOUS
 48
0.5
100
AcDbDimension
  2
*D21
 10
277.538342755064
 20
124.4994679508437
 30
0.0
 11
232.5349739813685
 21
124.4994679508437
 31
0.0
 70
   160
  3
STANDARD
100
AcDbAlignedDimension
 13
195.5389887550641
 23
105.8137083169015
 33
0.0
 14
277.538342755064
 24
98.81380132402071
 34
0.0
100
AcDbRotatedDimension
1001
ACAD
1000
DSTYLE
1002
{
1070
   288
1070
     1
1070
   140
1040
3.0
1070
    74
1070
     0
1070
   172
1070
     1
1070
    73
1070
     0
1070
   272
1070
     2
1070
    77
1070
     3
1070
   173
1070
     1
1070
   147
1040
1.0
1070
    42
1040
3.0
1070
    44
1040
1.5
1070
    43
1040
7.0
1070
   271
1070
     0
1070
   178
1070
     4
1070
   177
1070
     4
1070
   176
1070
     4
1070
   141
1040
150.0
1070
     7
1000
_OPEN
1070
     6
1000
_OPEN
1070
    41
1040
3.0
1002
}
  0
DIMENSION
  5
E31
330
1A
100
AcDbEntity
  8
SUNPOU
  6
CONTINUOUS
 48
0.5
100
AcDbDimension
  2
*D22
 10
120.539068106649
 20
149.9745612242886
 30
0.0
 11
199.0383840022852
 21
152.4745612242886
 31
0.0
 70
    32
  3
STANDARD
100
AcDbAlignedDimension
 13
277.5376998979215
 23
98.81370132402068
 33
0.0
 14
120.539068106649
 24
98.81370831690157
 34
0.0
100
AcDbRotatedDimension
1001
ACAD
1000
DSTYLE
1002
{
1070
   140
1040
3.0
1070
    74
1070
     0
1070
   172
1070
     1
1070
    73
1070
     0
1070
   272
1070
     2
1070
    77
1070
     3
1070
   173
1070
     1
1070
   147
1040
1.0
1070
    42
1040
3.0
1070
    44
1040
1.5
1070
    43
1040
7.0
1070
   271
1070
     0
1070
   178
1070
     4
1070
   177
1070
     4
1070
   176
1070
     4
1070
   141
1040
150.0
1070
     7
1000
_OPEN
1070
     6
1000
_OPEN
1070
    41
1040
3.0
1002
}
  0
LINE
  5
E32
330
1A
100
AcDbEntity
  8
CENTER_L
 62
     1
 48
0.5
100
AcDbLine
 10
116.320288755064
 20
192.5614577276516
 30
0.0
 11
297.6923807129769
 21
192.5616577276517
 31
0.0
  0
LINE
  5
E33
330
1A
100
AcDbEntity
  8
CENTER_L
 62
     1
 48
0.5
100
AcDbLine
 10
116.320288755064
 20
98.81370831690157
 30
0.0
 11
293.7653789935936
 21
98.81370831690157
 31
0.0
  0
ARC
  5
E34
330
1A
100
AcDbEntity
  8
SEIHIN
  6
CONTINUOUS
 62
     3
 48
0.5
100
AcDbCircle
 10
153.5390710302868
 20
98.81369200511455
 30
0.0
 40
30.00000073140751
100
AcDbArc
 50
52.16033571668043
 51
213.0852380821509
  0
DIMENSION
  5
E35
330
1A
100
AcDbEntity
  8
SUNPOU
  6
CONTINUOUS
 48
0.5
100
AcDbDimension
  2
*D23
 10
137.483476236958
 20
73.47167384187724
 30
0.0
 11
154.5464291302756
 21
106.2099289905916
 31
0.0
 70
   163
  3
STANDARD
100
AcDbDiametricDimension
 15
169.1723354127452
 25
124.4233226479192
 35
0.0
 40
0.0
1001
ACAD
1000
DSTYLE
1002
{
1070
   287
1070
     5
1070
   287
1070
     5
1070
   287
1070
     5
1070
   287
1070
     5
1070
   287
1070
     5
1070
    41
1040
3.0
1070
    42
1040
3.0
1070
    43
1040
7.0
1070
    44
1040
1.5
1070
    73
1070
     0
1070
    74
1070
     0
1070
    77
1070
     3
1070
   140
1040
3.0
1070
   141
1040
150.0
1070
   147
1040
1.0
1070
   172
1070
     1
1070
   173
1070
     1
1070
   176
1070
     4
1070
   177
1070
     4
1070
   178
1070
     4
1070
   271
1070
     0
1070
   272
1070
     2
1070
   279
1070
     2
1070
   288
1070
     1
1070
     6
1000
OPEN
1070
     7
1000
OPEN
1002
}
  0
ARC
  5
E36
330
1A
100
AcDbEntity
  8
SEIHIN
  6
CONTINUOUS
 62
     3
 48
0.5
100
AcDbCircle
 10
153.5390857294153
 20
98.8137088516337
 30
0.0
 40
30.00002224349183
100
AcDbArc
 50
213.0852497150278
 51
306.8696342758285
  0
ARC
  5
E37
330
1A
100
AcDbEntity
  8
SEIHIN
  6
CONTINUOUS
 62
     3
 48
0.5
100
AcDbCircle
 10
153.5390897005417
 20
98.81371783751701
 30
0.0
 40
31.99997718139744
100
AcDbArc
 50
53.55147222774998
 51
295.1057878214037
  0
ARC
  5
E38
330
1A
100
AcDbEntity
  8
SEIHIN
  6
CONTINUOUS
 62
     3
 48
0.5
100
AcDbCircle
 10
153.5390881506564
 20
98.81369979471607
 30
0.0
 40
33.00002004400853
100
AcDbArc
 50
57.36670176691594
 51
294.5198742614921
  0
ARC
  5
E39
330
1A
100
AcDbEntity
  8
SEIHIN
  6
CONTINUOUS
 62
     3
 48
0.5
100
AcDbCircle
 10
153.5390379796808
 20
98.81361319795878
 30
0.0
 40
32.99996009043882
100
AcDbArc
 50
319.4932748642852
 51
344.3196557287436
  0
ARC
  5
E3A
330
1A
100
AcDbEntity
  8
SEIHIN
  6
CONTINUOUS
 62
     3
 48
0.5
100
AcDbCircle
 10
153.5390419951129
 20
98.8136236537888
 30
0.0
 40
33.99995498781402
100
AcDbArc
 50
317.8562860592352
 51
344.3197578362928
  0
ARC
  5
E3B
330
1A
100
AcDbEntity
  8
SEIHIN
  6
CONTINUOUS
 62
     3
 48
0.5
100
AcDbCircle
 10
153.5390887017002
 20
98.81354397301926
 30
0.0
 40
30.99997257768559
100
AcDbArc
 50
334.2839672106016
 51
25.67937658569761
  0
ARC
  5
E3C
330
1A
100
AcDbEntity
  8
SEIHIN
  6
CONTINUOUS
 62
     3
 48
0.5
100
AcDbCircle
 10
153.5390609516567
 20
98.8136549529894
 30
0.0
 40
29.99999399103715
100
AcDbArc
 50
306.8697338965237
 51
358.0900795119251
  0
LINE
  5
E3D
330
1A
100
AcDbEntity
  8
CENTER_L
 62
     1
 48
0.5
100
AcDbLine
 10
153.5390887550639
 20
61.59310831690163
 30
0.0
 11
153.5390887550639
 21
134.4147083169015
 31
0.0
  0
LINE
  5
E3E
330
1A
100
AcDbEntity
  8
CENTER_L
 62
     1
 48
0.5
100
AcDbLine
 10
166.8969567370465
 20
70.81370831690162
 30
0.0
 11
184.1810207730815
 21
70.81370831690162
 31
0.0
  0
LINE
  5
E3F
330
1A
100
AcDbEntity
  8
SEIHIN
  6
CONTINUOUS
 62
     3
 48
0.5
100
AcDbLine
 10
172.003488755064
 20
74.34920831690163
 30
0.0
 11
171.539088755064
 21
74.81370831690163
 31
0.0
  0
LINE
  5
E40
330
1A
100
AcDbEntity
  8
SEIHIN
  6
CONTINUOUS
 62
     3
 48
0.5
100
AcDbLine
 10
172.003488755064
 20
74.34920831690163
 30
0.0
 11
171.539088755064
 21
74.81370831690163
 31
0.0
  0
ARC
  5
E41
330
1A
100
AcDbEntity
  8
SEIHIN
  6
CONTINUOUS
 62
     3
 48
0.5
100
AcDbCircle
 10
171.5389747924937
 20
68.8137158270004
 30
0.0
 40
2.999985585773595
100
AcDbArc
 50
178.3134860220826
 51
305.1375102476067
  0
ARC
  5
E42
330
1A
100
AcDbEntity
  8
SEIHIN
  6
CONTINUOUS
 62
     3
 48
0.5
100
AcDbCircle
 10
175.5390289818656
 20
70.81370964842855
 30
0.0
 40
4.999979552968912
100
AcDbArc
 50
135.0003367421488
 51
48.79198948395672
  0
ARC
  5
E43
330
1A
100
AcDbEntity
  8
SEIHIN
  6
CONTINUOUS
 62
     3
 48
0.5
100
AcDbCircle
 10
153.5388887550639
 20
98.81370831826735
 30
0.0
 40
28.99998689514277
100
AcDbArc
 50
262.0718546280925
 51
277.9281453719074
  0
LINE
  5
E44
330
1A
100
AcDbEntity
  8
SEIHIN
  6
CONTINUOUS
 62
     3
 48
0.5
100
AcDbLine
 10
149.538988755064
 20
70.09090831690165
 30
0.0
 11
148.538988755064
 21
69.23330831690157
 31
0.0
  0
LINE
  5
E45
330
1A
100
AcDbEntity
  8
SEIHIN
  6
CONTINUOUS
 62
     3
 48
0.5
100
AcDbLine
 10
157.5389887550641
 20
70.09090831690165
 30
0.0
 11
158.5389887550641
 21
69.23330831690157
 31
0.0
  0
ARC
  5
E46
330
1A
100
AcDbEntity
  8
SEIHIN
  6
CONTINUOUS
 62
     3
 48
0.5
100
AcDbCircle
 10
167.5407156628267
 20
68.93139064734388
 30
0.0
 40
1.000007787236081
100
AcDbArc
 50
358.3105552467273
 51
115.1078572264342
  0
ARC
  5
E47
330
1A
100
AcDbEntity
  8
SEIHIN
  6
CONTINUOUS
 62
     3
 48
0.5
100
AcDbCircle
 10
167.6495109659126
 20
67.87999748800053
 30
0.0
 40
0.9999995899415395
100
AcDbArc
 50
13.49797071584696
 51
114.5207259312739
  0
LINE
  5
E48
330
1A
100
AcDbEntity
  8
CENTER_L
 62
     1
 48
0.5
100
AcDbLine
 10
175.5389887550641
 20
62.17167629888416
 30
0.0
 11
175.5389887550641
 21
79.45574033491908
 31
0.0
  0
ARC
  5
E49
330
1A
100
AcDbEntity
  8
SEIHIN
  6
CONTINUOUS
 62
     3
 48
0.5
100
AcDbCircle
 10
175.5389887550641
 20
70.81370831690162
 30
0.0
 40
2.25
100
AcDbArc
 50
0.0
 51
180.0
  0
ARC
  5
E4A
330
1A
100
AcDbEntity
  8
SEIHIN
  6
CONTINUOUS
 62
     3
 48
0.5
100
AcDbCircle
 10
175.5389887550641
 20
70.81370831690162
 30
0.0
 40
2.400000000000005
100
AcDbArc
 50
0.0
 51
180.0
  0
ARC
  5
E4B
330
1A
100
AcDbEntity
  8
SEIHIN
  6
CONTINUOUS
 62
     3
 48
0.5
100
AcDbCircle
 10
175.5389887550641
 20
70.81370831690162
 30
0.0
 40
2.25
100
AcDbArc
 50
180.0
 51
0.0
  0
ARC
  5
E4C
330
1A
100
AcDbEntity
  8
SEIHIN
  6
CONTINUOUS
 62
     3
 48
0.5
100
AcDbCircle
 10
175.5389887550641
 20
70.81370831690162
 30
0.0
 40
2.400000000000005
100
AcDbArc
 50
180.0
 51
0.0
  0
ARC
  5
E4D
330
1A
100
AcDbEntity
  8
SEIHIN
  6
CONTINUOUS
 62
     3
 48
0.5
100
AcDbCircle
 10
179.4902880118926
 20
75.32892108008468
 30
0.0
 40
0.9999483636654158
100
AcDbArc
 50
137.8540164817813
 51
228.8118933489858
  0
ARC
  5
E4E
330
1A
100
AcDbEntity
  8
SEIHIN
  6
CONTINUOUS
 62
     3
 48
0.5
100
AcDbCircle
 10
180.1506883074314
 20
76.07991449949259
 30
0.0
 40
2.000042968288538
100
AcDbArc
 50
139.4936021397547
 51
228.7888689713208
  0
ARC
  5
E4F
330
1A
100
AcDbEntity
  8
SEIHIN
  6
CONTINUOUS
 62
     3
 48
0.5
100
AcDbCircle
 10
180.5760531018039
 20
85.81368589889882
 30
0.0
 40
0.9999775826328592
100
AcDbArc
 50
270.0020428271258
 51
334.3236382137444
  0
LINE
  5
E50
330
1A
100
AcDbEntity
  8
SEIHIN
  6
CONTINUOUS
 62
     3
 48
0.5
100
AcDbLine
 10
180.072088755064
 20
84.81370831690156
 30
0.0
 11
180.5760887550641
 21
84.81370831690156
 31
0.0
  0
ARC
  5
E51
330
1A
100
AcDbEntity
  8
SEIHIN
  6
CONTINUOUS
 62
     3
 48
0.5
100
AcDbCircle
 10
175.0389898748749
 20
128.1137110956534
 30
0.0
 40
3.999997221248225
100
AcDbArc
 50
90.00001604012124
 51
226.1020726949513
  0
ARC
  5
E52
330
1A
100
AcDbEntity
  8
SEIHIN
  6
CONTINUOUS
 62
     3
 48
0.5
100
AcDbCircle
 10
153.538988755064
 20
98.81370831656012
 30
0.0
 40
28.99998689412843
100
AcDbArc
 50
82.071854627813
 51
97.92814537218701
  0
LINE
  5
E53
330
1A
100
AcDbEntity
  8
SEIHIN
  6
CONTINUOUS
 62
     3
 48
0.5
100
AcDbLine
 10
149.538988755064
 20
127.5365083169016
 30
0.0
 11
148.538988755064
 21
128.3941083169015
 31
0.0
  0
LINE
  5
E54
330
1A
100
AcDbEntity
  8
SEIHIN
  6
CONTINUOUS
 62
     3
 48
0.5
100
AcDbLine
 10
158.5389887550641
 20
128.3941083169015
 30
0.0
 11
157.5389887550641
 21
127.5365083169016
 31
0.0
  0
LINE
  5
E55
330
1A
100
AcDbEntity
  8
SEIHIN
  6
CONTINUOUS
 62
     3
 48
0.5
100
AcDbLine
 10
170.3674887550639
 20
127.2004083169016
 30
0.0
 11
171.1446887550639
 21
127.2004083169016
 31
0.0
  0
ARC
  5
E56
330
1A
100
AcDbEntity
  8
SEIHIN
  6
CONTINUOUS
 62
     3
 48
0.5
100
AcDbCircle
 10
180.576053101804
 20
111.8137307349043
 30
0.0
 40
0.9999775826328388
100
AcDbArc
 50
25.6763617862621
 51
89.99795717287737
  0
ARC
  5
E57
330
1A
100
AcDbEntity
  8
SEIHIN
  6
CONTINUOUS
 62
     3
 48
0.5
100
AcDbCircle
 10
153.539079011118
 20
98.81373472776784
 30
0.0
 40
29.99997683991848
100
AcDbArc
 50
1.909973085569264
 51
38.59169197789289
  0
ARC
  5
E58
330
1A
100
AcDbEntity
  8
SEIHIN
  6
CONTINUOUS
 62
     3
 48
0.5
100
AcDbCircle
 10
153.5391328822968
 20
98.81361729186346
 30
0.0
 40
32.99998828037068
100
AcDbArc
 50
15.68048587942382
 51
36.0463364354521
  0
ARC
  5
E59
330
1A
100
AcDbEntity
  8
SEIHIN
  6
CONTINUOUS
 62
     3
 48
0.5
100
AcDbCircle
 10
153.5391312869383
 20
98.81362058262135
 30
0.0
 40
34.00001189145251
100
AcDbArc
 50
15.68051699384277
 51
36.0462186456284
  0
ARC
  5
E5A
330
1A
100
AcDbEntity
  8
SEIHIN
  6
CONTINUOUS
 62
     3
 48
0.5
100
AcDbCircle
 10
189.1621095007642
 20
108.8136925930897
 30
0.0
 40
3.999984276242003
100
AcDbArc
 50
195.6804608958081
 51
269.9997028385658
  0
ARC
  5
E5B
330
1A
100
AcDbEntity
  8
SEIHIN
  6
CONTINUOUS
 62
     3
 48
0.5
100
AcDbCircle
 10
189.1621246500367
 20
108.8136811108215
 30
0.0
 40
2.999972794134699
100
AcDbArc
 50
195.6797418545529
 51
269.9993144503018
  0
ARC
  5
E5C
330
1A
100
AcDbEntity
  8
SEIHIN
  6
CONTINUOUS
 62
     3
 48
0.5
100
AcDbCircle
 10
189.162109500764
 20
88.81372404071342
 30
0.0
 40
3.999984276241949
100
AcDbArc
 50
90.00029716143084
 51
164.3195391041902
  0
ARC
  5
E5D
330
1A
100
AcDbEntity
  8
SEIHIN
  6
CONTINUOUS
 62
     3
 48
0.5
100
AcDbCircle
 10
189.1621246500367
 20
88.81373552298169
 30
0.0
 40
2.999972794134695
100
AcDbArc
 50
90.00068554969812
 51
164.320258145447
  0
ARC
  5
E5E
330
1A
100
AcDbEntity
  8
SEIHIN
  6
CONTINUOUS
 62
     3
 48
0.5
100
AcDbCircle
 10
183.5390887550638
 20
98.81370831690157
 30
0.0
 40
1.000039449221876
100
AcDbArc
 50
269.0431537514013
 51
90.95684624859858
  0
LINE
  5
E5F
330
1A
100
AcDbEntity
  8
SEIHIN
  6
CONTINUOUS
 62
     3
 48
0.5
100
AcDbLine
 10
195.5389887550641
 20
91.81370831690163
 30
0.0
 11
195.5389887550641
 21
105.8137083169015
 31
0.0
  0
LINE
  5
E60
330
1A
100
AcDbEntity
  8
SEIHIN
  6
CONTINUOUS
 62
     3
 48
0.5
100
AcDbLine
 10
195.5389887550641
 20
92.81370831690157
 30
0.0
 11
189.162088755064
 21
92.81370831690157
 31
0.0
  0
LINE
  5
E61
330
1A
100
AcDbEntity
  8
SEIHIN
  6
CONTINUOUS
 62
     3
 48
0.5
100
AcDbLine
 10
195.5389887550641
 20
91.81370831690163
 30
0.0
 11
189.162088755064
 21
91.81370831690163
 31
0.0
  0
LINE
  5
E62
330
1A
100
AcDbEntity
  8
SEIHIN
  6
CONTINUOUS
 62
     3
 48
0.5
100
AcDbLine
 10
195.5389887550641
 20
104.8137083169015
 30
0.0
 11
189.162088755064
 21
104.8137083169015
 31
0.0
  0
LINE
  5
E63
330
1A
100
AcDbEntity
  8
SEIHIN
  6
CONTINUOUS
 62
     3
 48
0.5
100
AcDbLine
 10
195.5389887550641
 20
105.8137083169015
 30
0.0
 11
189.162088755064
 21
105.8137083169015
 31
0.0
  0
ARC
  5
E64
330
1A
100
AcDbEntity
  8
SEIHIN
  6
CONTINUOUS
 62
     3
 48
0.5
100
AcDbCircle
 10
175.538970938503
 20
124.8137075451964
 30
0.0
 40
3.000017816561054
100
AcDbArc
 50
0.0000147383968669
 51
184.9603249068201
  0
ARC
  5
E65
330
1A
100
AcDbEntity
  8
SEIHIN
  6
CONTINUOUS
 62
     3
 48
0.5
100
AcDbCircle
 10
175.538965939132
 20
124.813721400781
 30
0.0
 40
3.300017459728334
100
AcDbArc
 50
307.6073004083987
 51
172.7285047839637
  0
ARC
  5
E66
330
1A
100
AcDbEntity
  8
SEIHIN
  6
CONTINUOUS
 62
     3
 48
0.5
100
AcDbCircle
 10
175.53898071523
 20
124.8137258090136
 30
0.0
 40
6.299982507893
100
AcDbArc
 50
319.3694333177615
 51
89.99992688097881
  0
ARC
  5
E67
330
1A
100
AcDbEntity
  8
SEIHIN
  6
CONTINUOUS
 62
     3
 48
0.5
100
AcDbCircle
 10
175.5389821169421
 20
124.8137227590534
 30
0.0
 40
7.299985557851063
100
AcDbArc
 50
319.3703043496418
 51
89.99994789902537
  0
ARC
  5
E68
330
1A
100
AcDbEntity
  8
SEIHIN
  6
CONTINUOUS
 62
     3
 48
0.5
100
AcDbCircle
 10
175.5390174720055
 20
124.8137621651159
 30
0.0
 40
2.999971283541721
100
AcDbArc
 50
303.8574870532644
 51
359.9989715650174
  0
ARC
  5
E69
330
1A
100
AcDbEntity
  8
SEIHIN
  6
CONTINUOUS
 62
     3
 48
0.5
100
AcDbCircle
 10
179.5666906303617
 20
119.5852238150411
 30
0.0
 40
3.300043063354758
100
AcDbArc
 50
127.6086906608162
 51
218.5930237366747
  0
ARC
  5
E6A
330
1A
100
AcDbEntity
  8
SEIHIN
  6
CONTINUOUS
 62
     3
 48
0.5
100
AcDbCircle
 10
174.7032541436005
 20
126.0594094919487
 30
0.0
 40
4.500044480377723
100
AcDbArc
 50
232.2554683416024
 51
303.8563970531148
  0
LINE
  5
E6B
330
1A
100
AcDbEntity
  8
SEIHIN
  6
CONTINUOUS
 62
     3
 48
0.5
100
AcDbLine
 10
180.072088755064
 20
112.8137083169016
 30
0.0
 11
180.5760887550641
 21
112.8137083169016
 31
0.0
  0
ARC
  5
E6C
330
1A
100
AcDbEntity
  8
SEIHIN
  6
CONTINUOUS
 62
     3
 48
0.5
100
AcDbCircle
 10
181.8380855003201
 20
119.408926991553
 30
0.0
 40
1.999976018987851
100
AcDbArc
 50
139.3679774992851
 51
216.0447109784399
  0
ARC
  5
E6D
330
1A
100
AcDbEntity
  8
SEIHIN
  6
CONTINUOUS
 62
     3
 48
0.5
100
AcDbCircle
 10
181.8380885319504
 20
119.4090027397994
 30
0.0
 40
0.9999987875029436
100
AcDbArc
 50
139.3673813806752
 51
216.0502910874602
  0
ARC
  5
E6E
330
1A
100
AcDbEntity
  8
SEIHIN
  6
CONTINUOUS
 62
     3
 48
0.5
100
AcDbCircle
 10
153.5445172472599
 20
98.8098838902065
 30
0.0
 40
32.99998069950273
100
AcDbArc
 50
54.57400106727025
 51
55.11890506025633
  0
LINE
  5
E6F
330
1A
100
AcDbEntity
  8
SEIHIN
  6
CONTINUOUS
 62
     3
 48
0.5
100
AcDbLine
 10
173.2599887550641
 20
127.2004083169016
 30
0.0
 11
173.721288755064
 21
127.2004083169016
 31
0.0
  0
LINE
  5
E70
330
1A
100
AcDbEntity
  8
SEIHIN
  6
CONTINUOUS
 62
     3
 48
0.5
100
AcDbLine
 10
175.5389887550641
 20
132.1137083169015
 30
0.0
 11
175.0389887550641
 21
132.1137083169015
 31
0.0
  0
LINE
  5
E71
330
1A
100
AcDbEntity
  8
SEIHIN
  6
CONTINUOUS
 62
     3
 48
0.5
100
AcDbLine
 10
175.5389887550641
 20
131.1137083169015
 30
0.0
 11
172.3931887550641
 21
131.1137083169015
 31
0.0
  0
LINE
  5
E72
330
1A
100
AcDbEntity
  8
SEIHIN
  6
CONTINUOUS
 62
     3
 48
0.5
100
AcDbLine
 10
120.538988755064
 20
199.0614577276515
 30
0.0
 11
171.050988755064
 21
199.0614577276515
 31
0.0
  0
LINE
  5
E73
330
1A
100
AcDbEntity
  8
SEIHIN
  6
CONTINUOUS
 62
     3
 48
0.5
100
AcDbLine
 10
120.538988755064
 20
186.0614577276516
 30
0.0
 11
171.050988755064
 21
186.0614577276516
 31
0.0
  0
LINE
  5
E74
330
1A
100
AcDbEntity
  8
SEIHIN
  6
CONTINUOUS
 62
     3
 48
0.5
100
AcDbLine
 10
121.538988755064
 20
201.5614577276514
 30
0.0
 11
195.5389887550641
 21
201.5614577276514
 31
0.0
  0
LINE
  5
E75
330
1A
100
AcDbEntity
  8
SEIHIN
  6
CONTINUOUS
 62
     3
 48
0.5
100
AcDbLine
 10
121.538988755064
 20
183.5614577276516
 30
0.0
 11
195.5389887550641
 21
183.5614577276516
 31
0.0
  0
DIMENSION
  5
E76
330
1A
100
AcDbEntity
  8
SUNPOU
  6
CONTINUOUS
 48
0.5
100
AcDbDimension
  2
*D24
 10
94.92897398434811
 20
183.5614577276515
 30
0.0
 11
94.92897398434809
 21
193.64298155892
 31
0.0
 70
   160
  3
STANDARD
100
AcDbAlignedDimension
 13
121.538988755064
 23
201.5614577276514
 33
0.0
 14
121.538988755064
 24
183.5614577276515
 34
0.0
 50
90.0
100
AcDbRotatedDimension
1001
ACAD
1000
DSTYLE
1002
{
1070
   288
1070
     1
1070
   140
1040
3.0
1070
    74
1070
     0
1070
   172
1070
     1
1070
    73
1070
     0
1070
   272
1070
     2
1070
    77
1070
     3
1070
   173
1070
     1
1070
   147
1040
1.0
1070
    42
1040
3.0
1070
    44
1040
1.5
1070
    43
1040
7.0
1070
   271
1070
     0
1070
   178
1070
     4
1070
   177
1070
     4
1070
   176
1070
     4
1070
   141
1040
150.0
1070
     7
1000
_OPEN
1070
     6
1000
_OPEN
1070
    41
1040
3.0
1002
}
  0
LINE
  5
E77
330
1A
100
AcDbEntity
  8
SEIHIN
  6
CONTINUOUS
 62
     3
 48
0.5
100
AcDbLine
 10
120.538988755064
 20
199.0614577276515
 30
0.0
 11
120.538988755064
 21
192.5614577276516
 31
0.0
  0
LINE
  5
E78
330
1A
100
AcDbEntity
  8
SEIHIN
  6
CONTINUOUS
 62
     3
 48
0.5
100
AcDbLine
 10
120.538988755064
 20
186.0614577276516
 30
0.0
 11
120.538988755064
 21
192.5614577276516
 31
0.0
  0
LINE
  5
E79
330
1A
100
AcDbEntity
  8
SEIHIN
  6
CONTINUOUS
 62
     3
 48
0.5
100
AcDbLine
 10
121.538988755064
 20
183.5614577276516
 30
0.0
 11
120.538988755064
 21
186.0614577276516
 31
0.0
  0
LINE
  5
E7A
330
1A
100
AcDbEntity
  8
SEIHIN
  6
CONTINUOUS
 62
     3
 48
0.5
100
AcDbLine
 10
121.538988755064
 20
201.5614577276514
 30
0.0
 11
120.538988755064
 21
199.0614577276515
 31
0.0
  0
LINE
  5
E7B
330
1A
100
AcDbEntity
  8
CENTER_L
 62
     1
 48
0.5
100
AcDbLine
 10
153.5390887550639
 20
175.8027509160864
 30
0.0
 11
153.5390887550639
 21
210.2183534416436
 31
0.0
  0
LINE
  5
E7C
330
1A
100
AcDbEntity
  8
SEIHIN
  6
CONTINUOUS
 62
     3
 48
0.5
100
AcDbLine
 10
170.3674887550639
 20
194.5615577276516
 30
0.0
 11
170.3674887550639
 21
192.5615577276516
 31
0.0
  0
LINE
  5
E7D
330
1A
100
AcDbEntity
  8
SEIHIN
  6
CONTINUOUS
 62
     3
 48
0.5
100
AcDbLine
 10
171.051088755064
 20
183.5614577276516
 30
0.0
 11
171.051088755064
 21
201.5614577276514
 31
0.0
  0
LINE
  5
E7E
330
1A
100
AcDbEntity
  8
SEIHIN
  6
CONTINUOUS
 62
     3
 48
0.5
100
AcDbLine
 10
170.3674887550639
 20
190.5613577276516
 30
0.0
 11
170.3674887550639
 21
192.5613577276516
 31
0.0
  0
LINE
  5
E7F
330
1A
100
AcDbEntity
  8
SEIHIN
  6
CONTINUOUS
 62
     3
 48
0.5
100
AcDbLine
 10
170.3674887550639
 20
190.5614577276516
 30
0.0
 11
171.050988755064
 21
190.5614577276516
 31
0.0
  0
LINE
  5
E80
330
1A
100
AcDbEntity
  8
SEIHIN
  6
CONTINUOUS
 62
     3
 48
0.5
100
AcDbLine
 10
170.3674887550639
 20
194.5614577276515
 30
0.0
 11
171.050988755064
 21
194.5614577276515
 31
0.0
  0
LINE
  5
E81
330
1A
100
AcDbEntity
  8
SEIHIN
  6
CONTINUOUS
 62
     3
 48
0.5
100
AcDbLine
 10
175.0390887550638
 20
186.0614577276516
 30
0.0
 11
195.5389887550641
 21
186.0614577276516
 31
0.0
  0
LINE
  5
E82
330
1A
100
AcDbEntity
  8
SEIHIN
  6
CONTINUOUS
 62
     3
 48
0.5
100
AcDbLine
 10
175.0390887550638
 20
199.0614577276515
 30
0.0
 11
195.5389887550641
 21
199.0614577276515
 31
0.0
  0
LINE
  5
E83
330
1A
100
AcDbEntity
  8
SEIHIN
  6
CONTINUOUS
 62
     3
 48
0.5
100
AcDbLine
 10
182.838688755064
 20
199.0614577276515
 30
0.0
 11
182.838688755064
 21
192.5614577276516
 31
0.0
  0
LINE
  5
E84
330
1A
100
AcDbEntity
  8
SEIHIN
  6
CONTINUOUS
 62
     3
 48
0.5
100
AcDbLine
 10
175.0390887550638
 20
186.0614577276516
 30
0.0
 11
172.5066887550638
 21
183.5614577276516
 31
0.0
  0
LINE
  5
E85
330
1A
100
AcDbEntity
  8
SEIHIN
  6
CONTINUOUS
 62
     3
 48
0.5
100
AcDbLine
 10
182.838688755064
 20
186.0614577276516
 30
0.0
 11
182.838688755064
 21
192.5614577276516
 31
0.0
  0
LINE
  5
E86
330
1A
100
AcDbEntity
  8
SEIHIN
  6
CONTINUOUS
 62
     3
 48
0.5
100
AcDbLine
 10
181.8386887550639
 20
183.5614577276516
 30
0.0
 11
182.838688755064
 21
186.0614577276516
 31
0.0
  0
LINE
  5
E87
330
1A
100
AcDbEntity
  8
SEIHIN
  6
CONTINUOUS
 62
     3
 48
0.5
100
AcDbLine
 10
175.0390887550638
 20
199.0614577276515
 30
0.0
 11
172.5066887550638
 21
201.5614577276514
 31
0.0
  0
LINE
  5
E88
330
1A
100
AcDbEntity
  8
SEIHIN
  6
CONTINUOUS
 62
     3
 48
0.5
100
AcDbLine
 10
181.8386887550639
 20
201.5614577276514
 30
0.0
 11
182.838688755064
 21
199.0614577276515
 31
0.0
  0
LINE
  5
E89
330
1A
100
AcDbEntity
  8
SEIHIN
  6
CONTINUOUS
 62
     3
 48
0.5
100
AcDbLine
 10
195.5389887550641
 20
183.5614577276516
 30
0.0
 11
195.5389887550641
 21
201.5614577276514
 31
0.0
  0
LINE
  5
E8A
330
1A
100
AcDbEntity
  8
SEIHIN
  6
CONTINUOUS
 62
     3
 48
5.0
100
AcDbLine
 10
267.538342755064
 20
98.81380132402071
 30
0.0
 11
277.538342755064
 21
98.81380132402071
 31
0.0
  0
LINE
  5
E8B
330
1A
100
AcDbEntity
  8
SEIHIN
  6
CONTINUOUS
 62
     3
 48
5.0
100
AcDbLine
 10
277.538342755064
 20
98.81380132402071
 30
0.0
 11
267.538342755064
 21
101.0637083169015
 31
0.0
  0
LINE
  5
E8C
330
1A
100
AcDbEntity
  8
SEIHIN
  6
CONTINUOUS
 62
     3
 48
5.0
100
AcDbLine
 10
277.538342755064
 20
98.81380132402071
 30
0.0
 11
267.5383427550641
 21
96.56370831690157
 31
0.0
  0
DIMENSION
  5
E8D
330
1A
100
AcDbEntity
  8
SUNPOU
  6
CONTINUOUS
 48
0.5
100
AcDbDimension
  2
*D25
 10
301.8520606929048
 20
96.56370831690155
 30
0.0
 11
301.8520606929048
 21
83.61380831690167
 31
0.0
 70
   160
  1
φ <>
  3
STANDARD
100
AcDbAlignedDimension
 13
267.5383427550642
 23
101.0637083169015
 33
0.0
 14
267.5383427550641
 24
96.56370831690157
 34
0.0
 50
90.0
100
AcDbRotatedDimension
1001
ACAD
1000
DSTYLE
1002
{
1070
   288
1070
     1
1070
   140
1040
3.0
1070
    74
1070
     0
1070
   172
1070
     1
1070
    73
1070
     0
1070
   272
1070
     2
1070
    77
1070
     3
1070
   173
1070
     1
1070
   147
1040
1.0
1070
    42
1040
3.0
1070
    44
1040
1.5
1070
    43
1040
7.0
1070
   271
1070
     1
1070
   178
1070
     4
1070
   177
1070
     4
1070
   176
1070
     4
1070
   141
1040
150.0
1070
     7
1000
_OPEN
1070
     6
1000
_OPEN
1070
    41
1040
3.0
1002
}
  0
DIMENSION
  5
E8E
330
1A
100
AcDbEntity
  8
SUNPOU
  6
CONTINUOUS
 48
0.5
100
AcDbDimension
  2
*D26
 10
227.5390501651283
 20
56.43623777528404
 30
0.0
 11
222.5390532311724
 21
58.93623777528404
 31
0.0
 70
    32
  3
STANDARD
100
AcDbAlignedDimension
 13
217.5390562972165
 23
96.26353296304595
 33
0.0
 14
227.5390501651283
 24
95.5135215357008
 34
0.0
100
AcDbRotatedDimension
1001
ACAD
1000
DSTYLE
1002
{
1070
   287
1070
     4
1070
   287
1070
     4
1070
   287
1070
     4
1070
   287
1070
     4
1070
   287
1070
     4
1070
   287
1070
     4
1070
   287
1070
     4
1070
   287
1070
     4
1070
   287
1070
     4
1070
   287
1070
     4
1070
   279
1070
     1
1070
    41
1040
3.0
1070
    42
1040
3.0
1070
    43
1040
7.0
1070
    44
1040
1.5
1070
    73
1070
     0
1070
    74
1070
     0
1070
    77
1070
     3
1070
   140
1040
3.0
1070
   141
1040
150.0
1070
   147
1040
1.0
1070
   172
1070
     1
1070
   173
1070
     1
1070
   176
1070
     4
1070
   177
1070
     4
1070
   178
1070
     4
1070
   271
1070
     0
1070
   272
1070
     2
1070
   341
1005
B2
1070
     6
1000
OPEN
1070
     7
1000
OPEN
1002
}
  0
DIMENSION
  5
E8F
330
1A
100
AcDbEntity
  8
SUNPOU
  6
CONTINUOUS
 48
0.5
100
AcDbDimension
  2
*D27
 10
217.5390562972165
 20
56.43623777528404
 30
0.0
 11
212.5390562972165
 21
58.93623777528404
 31
0.0
 70
    32
  3
STANDARD
100
AcDbAlignedDimension
 13
207.5390562972165
 23
96.26351997603295
 33
0.0
 14
217.5390562972165
 24
96.26353296304595
 34
0.0
100
AcDbRotatedDimension
1001
ACAD
1000
DSTYLE
1002
{
1070
   287
1070
     4
1070
   287
1070
     4
1070
   287
1070
     4
1070
   287
1070
     4
1070
   287
1070
     4
1070
   287
1070
     4
1070
   287
1070
     4
1070
   287
1070
     4
1070
   287
1070
     4
1070
   287
1070
     4
1070
   279
1070
     1
1070
    41
1040
3.0
1070
    42
1040
3.0
1070
    43
1040
7.0
1070
    44
1040
1.5
1070
    73
1070
     0
1070
    74
1070
     0
1070
    77
1070
     3
1070
   140
1040
3.0
1070
   141
1040
150.0
1070
   147
1040
1.0
1070
   172
1070
     1
1070
   173
1070
     1
1070
   176
1070
     4
1070
   177
1070
     4
1070
   178
1070
     4
1070
   271
1070
     0
1070
   272
1070
     2
1070
   341
1005
B2
1070
     6
1000
OPEN
1070
     7
1000
OPEN
1002
}
  0
LINE
  5
E90
330
1A
100
AcDbEntity
  8
SEIHIN
  6
CONTINUOUS
 62
     3
 48
5.0
100
AcDbLine
 10
267.5383427550642
 20
101.0637083169015
 30
0.0
 11
228.5383427550642
 21
101.0637083169015
 31
0.0
  0
LINE
  5
E91
330
1A
100
AcDbEntity
  8
SEIHIN
  6
CONTINUOUS
 62
     3
 48
5.0
100
AcDbLine
 10
267.5383427550643
 20
96.56370831690157
 30
0.0
 11
228.5383427550643
 21
96.56370831690157
 31
0.0
  0
LINE
  5
E92
330
1A
100
AcDbEntity
  8
SEIHIN
  6
CONTINUOUS
 62
     3
 48
5.0
100
AcDbLine
 10
226.5383427550643
 20
96.56370831690157
 30
0.0
 11
218.5383427550643
 21
96.56370831690157
 31
0.0
  0
LINE
  5
E93
330
1A
100
AcDbEntity
  8
SEIHIN
  6
CONTINUOUS
 62
     3
 48
5.0
100
AcDbLine
 10
226.5383427550642
 20
101.0637083169015
 30
0.0
 11
218.5383427550642
 21
101.0637083169015
 31
0.0
  0
LINE
  5
E94
330
1A
100
AcDbEntity
  8
SEIHIN
  6
CONTINUOUS
 62
     3
 48
5.0
100
AcDbLine
 10
218.0383427550642
 20
100.7637083169015
 30
0.0
 11
218.0383427550643
 21
96.86370831690158
 31
0.0
  0
LINE
  5
E95
330
1A
100
AcDbEntity
  8
SEIHIN
  6
CONTINUOUS
 62
     3
 48
5.0
100
AcDbLine
 10
217.038342755064
 20
100.7637083169015
 30
0.0
 11
217.0383427550641
 21
96.86370831690158
 31
0.0
  0
LINE
  5
E96
330
1A
100
AcDbEntity
  8
SEIHIN
  6
CONTINUOUS
 62
     3
 48
5.0
100
AcDbLine
 10
218.5383427550642
 20
101.0637083169015
 30
0.0
 11
218.5383427550643
 21
96.56370831690157
 31
0.0
  0
LINE
  5
E97
330
1A
100
AcDbEntity
  8
SEIHIN
  6
CONTINUOUS
 62
     3
 48
5.0
100
AcDbLine
 10
216.5383427550642
 20
101.0637083169015
 30
0.0
 11
216.5383427550643
 21
96.56370831690157
 31
0.0
  0
LINE
  5
E98
330
1A
100
AcDbEntity
  8
SEIHIN
  6
CONTINUOUS
 62
     3
 48
5.0
100
AcDbLine
 10
208.0383427550643
 20
96.86370831690158
 30
0.0
 11
208.0383427550642
 21
100.7637083169015
 31
0.0
  0
LINE
  5
E99
330
1A
100
AcDbEntity
  8
SEIHIN
  6
CONTINUOUS
 62
     3
 48
5.0
100
AcDbLine
 10
208.5383427550642
 20
101.0637083169015
 30
0.0
 11
208.5383427550643
 21
96.56370831690157
 31
0.0
  0
LINE
  5
E9A
330
1A
100
AcDbEntity
  8
SEIHIN
  6
CONTINUOUS
 62
     3
 48
5.0
100
AcDbLine
 10
207.038342755064
 20
100.7637083169015
 30
0.0
 11
207.0383427550641
 21
96.86370831690158
 31
0.0
  0
LINE
  5
E9B
330
1A
100
AcDbEntity
  8
SEIHIN
  6
CONTINUOUS
 62
     3
 48
5.0
100
AcDbLine
 10
206.5383427550642
 20
101.0637083169015
 30
0.0
 11
206.5383427550643
 21
96.56370831690157
 31
0.0
  0
LINE
  5
E9C
330
1A
100
AcDbEntity
  8
SEIHIN
  6
CONTINUOUS
 62
     3
 48
5.0
100
AcDbLine
 10
216.5383427550643
 20
96.56370831690157
 30
0.0
 11
208.5383427550643
 21
96.56370831690157
 31
0.0
  0
LINE
  5
E9D
330
1A
100
AcDbEntity
  8
SEIHIN
  6
CONTINUOUS
 62
     3
 48
5.0
100
AcDbLine
 10
208.0383427550643
 20
96.86370831690158
 30
0.0
 11
208.5383427550643
 21
96.56370831690157
 31
0.0
  0
LINE
  5
E9E
330
1A
100
AcDbEntity
  8
SEIHIN
  6
CONTINUOUS
 62
     3
 48
5.0
100
AcDbLine
 10
207.0383427550641
 20
96.86370831690158
 30
0.0
 11
206.5383427550643
 21
96.56370831690157
 31
0.0
  0
LINE
  5
E9F
330
1A
100
AcDbEntity
  8
SEIHIN
  6
CONTINUOUS
 62
     3
 48
5.0
100
AcDbLine
 10
208.0383427550643
 20
96.86370831690158
 30
0.0
 11
207.0383427550641
 21
96.86370831690158
 31
0.0
  0
LINE
  5
EA0
330
1A
100
AcDbEntity
  8
SEIHIN
  6
CONTINUOUS
 62
     3
 48
5.0
100
AcDbLine
 10
217.0383427550641
 20
96.86370831690158
 30
0.0
 11
216.5383427550643
 21
96.56370831690157
 31
0.0
  0
LINE
  5
EA1
330
1A
100
AcDbEntity
  8
SEIHIN
  6
CONTINUOUS
 62
     3
 48
5.0
100
AcDbLine
 10
218.0383427550643
 20
96.86370831690158
 30
0.0
 11
217.0383427550641
 21
96.86370831690158
 31
0.0
  0
LINE
  5
EA2
330
1A
100
AcDbEntity
  8
SEIHIN
  6
CONTINUOUS
 62
     3
 48
5.0
100
AcDbLine
 10
218.0383427550643
 20
96.86370831690158
 30
0.0
 11
218.5383427550643
 21
96.56370831690157
 31
0.0
  0
LINE
  5
EA3
330
1A
100
AcDbEntity
  8
SEIHIN
  6
CONTINUOUS
 62
     3
 48
5.0
100
AcDbLine
 10
216.5383427550642
 20
101.0637083169015
 30
0.0
 11
208.5383427550642
 21
101.0637083169015
 31
0.0
  0
LINE
  5
EA4
330
1A
100
AcDbEntity
  8
SEIHIN
  6
CONTINUOUS
 62
     3
 48
5.0
100
AcDbLine
 10
208.0383427550642
 20
100.7637083169015
 30
0.0
 11
208.5383427550642
 21
101.0637083169015
 31
0.0
  0
LINE
  5
EA5
330
1A
100
AcDbEntity
  8
SEIHIN
  6
CONTINUOUS
 62
     3
 48
5.0
100
AcDbLine
 10
207.038342755064
 20
100.7637083169015
 30
0.0
 11
206.5383427550642
 21
101.0637083169015
 31
0.0
  0
LINE
  5
EA6
330
1A
100
AcDbEntity
  8
SEIHIN
  6
CONTINUOUS
 62
     3
 48
5.0
100
AcDbLine
 10
208.0383427550642
 20
100.7637083169015
 30
0.0
 11
207.038342755064
 21
100.7637083169015
 31
0.0
  0
LINE
  5
EA7
330
1A
100
AcDbEntity
  8
SEIHIN
  6
CONTINUOUS
 62
     3
 48
5.0
100
AcDbLine
 10
217.038342755064
 20
100.7637083169015
 30
0.0
 11
216.5383427550642
 21
101.0637083169015
 31
0.0
  0
LINE
  5
EA8
330
1A
100
AcDbEntity
  8
SEIHIN
  6
CONTINUOUS
 62
     3
 48
5.0
100
AcDbLine
 10
218.0383427550642
 20
100.7637083169015
 30
0.0
 11
217.038342755064
 21
100.7637083169015
 31
0.0
  0
LINE
  5
EA9
330
1A
100
AcDbEntity
  8
SEIHIN
  6
CONTINUOUS
 62
     3
 48
5.0
100
AcDbLine
 10
218.0383427550642
 20
100.7637083169015
 30
0.0
 11
218.5383427550642
 21
101.0637083169015
 31
0.0
  0
LINE
  5
EAA
330
1A
100
AcDbEntity
  8
SEIHIN
  6
CONTINUOUS
 62
     3
 48
5.0
100
AcDbLine
 10
228.5383427550642
 20
101.0637083169015
 30
0.0
 11
228.5383427550643
 21
96.56370831690157
 31
0.0
  0
LINE
  5
EAB
330
1A
100
AcDbEntity
  8
SEIHIN
  6
CONTINUOUS
 62
     3
 48
5.0
100
AcDbLine
 10
228.0383427550642
 20
100.7637083169015
 30
0.0
 11
228.0383427550643
 21
96.86370831690153
 31
0.0
  0
LINE
  5
EAC
330
1A
100
AcDbEntity
  8
SEIHIN
  6
CONTINUOUS
 62
     3
 48
5.0
100
AcDbLine
 10
227.038342755064
 20
100.7637083169015
 30
0.0
 11
227.0383427550641
 21
96.86370831690153
 31
0.0
  0
LINE
  5
EAD
330
1A
100
AcDbEntity
  8
SEIHIN
  6
CONTINUOUS
 62
     3
 48
5.0
100
AcDbLine
 10
226.5383427550642
 20
101.0637083169015
 30
0.0
 11
226.5383427550643
 21
96.56370831690152
 31
0.0
  0
LINE
  5
EAE
330
1A
100
AcDbEntity
  8
SEIHIN
  6
CONTINUOUS
 62
     3
 48
5.0
100
AcDbLine
 10
228.0383427550643
 20
96.86370831690153
 30
0.0
 11
227.0383427550641
 21
96.86370831690153
 31
0.0
  0
LINE
  5
EAF
330
1A
100
AcDbEntity
  8
SEIHIN
  6
CONTINUOUS
 62
     3
 48
5.0
100
AcDbLine
 10
227.0383427550641
 20
96.86370831690153
 30
0.0
 11
226.5383427550643
 21
96.56370831690152
 31
0.0
  0
LINE
  5
EB0
330
1A
100
AcDbEntity
  8
SEIHIN
  6
CONTINUOUS
 62
     3
 48
5.0
100
AcDbLine
 10
228.0383427550643
 20
96.86370831690153
 30
0.0
 11
228.5383427550643
 21
96.56370831690152
 31
0.0
  0
LINE
  5
EB1
330
1A
100
AcDbEntity
  8
SEIHIN
  6
CONTINUOUS
 62
     3
 48
5.0
100
AcDbLine
 10
227.038342755064
 20
100.7637083169015
 30
0.0
 11
226.5383427550642
 21
101.0637083169015
 31
0.0
  0
LINE
  5
EB2
330
1A
100
AcDbEntity
  8
SEIHIN
  6
CONTINUOUS
 62
     3
 48
5.0
100
AcDbLine
 10
228.0383427550642
 20
100.7637083169015
 30
0.0
 11
227.038342755064
 21
100.7637083169015
 31
0.0
  0
LINE
  5
EB3
330
1A
100
AcDbEntity
  8
SEIHIN
  6
CONTINUOUS
 62
     3
 48
5.0
100
AcDbLine
 10
228.0383427550642
 20
100.7637083169015
 30
0.0
 11
228.5383427550642
 21
101.0637083169015
 31
0.0
  0
LINE
  5
EB4
330
1A
100
AcDbEntity
  8
SEIHIN
  6
CONTINUOUS
 62
     3
 48
5.0
100
AcDbLine
 10
267.538342755064
 20
101.0637083169015
 30
0.0
 11
266.8454495362506
 21
100.6708150980881
 31
0.0
  0
ARC
  5
EB5
330
1A
100
AcDbEntity
  8
SEIHIN
  6
CONTINUOUS
 62
     3
 48
5.0
100
AcDbCircle
 10
267.2775455921771
 20
97.53875482046124
 30
0.0
 40
0.7249892747399255
100
AcDbArc
 50
126.5841936583414
 51
233.4158063416673
  0
LINE
  5
EB6
330
1A
100
AcDbEntity
  8
SEIHIN
  6
CONTINUOUS
 62
     3
 48
5.0
100
AcDbLine
 10
267.5383427550641
 20
96.56370831690157
 30
0.0
 11
266.8454495362507
 21
96.95660153571509
 31
0.0
  0
LINE
  5
EB7
330
1A
100
AcDbEntity
  8
SEIHIN
  6
CONTINUOUS
 62
     3
 48
5.0
100
AcDbLine
 10
267.538342755064
 20
98.81380132402071
 30
0.0
 11
266.8454495362506
 21
98.12090810520729
 31
0.0
  0
LINE
  5
EB8
330
1A
100
AcDbEntity
  8
SEIHIN
  6
CONTINUOUS
 62
     3
 48
5.0
100
AcDbLine
 10
267.538342755064
 20
98.81380132402071
 30
0.0
 11
266.8454495362506
 21
99.50669454283426
 31
0.0
  0
ARC
  5
EB9
330
1A
100
AcDbEntity
  8
SEIHIN
  6
CONTINUOUS
 62
     3
 48
5.0
100
AcDbCircle
 10
267.2773607463996
 20
100.0887548204612
 30
0.0
 40
0.7248044289624155
100
AcDbArc
 50
126.5768423842561
 51
233.4231576157486
  0
LINE
  5
EBA
330
1A
100
AcDbEntity
  8
SEIHIN
  6
CONTINUOUS
 62
     3
 48
5.0
100
AcDbLine
 10
267.538342755064
 20
192.5615507347707
 30
0.0
 11
277.538342755064
 21
192.5615507347707
 31
0.0
  0
LINE
  5
EBB
330
1A
100
AcDbEntity
  8
SEIHIN
  6
CONTINUOUS
 62
     3
 48
5.0
100
AcDbLine
 10
277.538342755064
 20
192.5615507347707
 30
0.0
 11
267.538342755064
 21
194.8114577276515
 31
0.0
  0
LINE
  5
EBC
330
1A
100
AcDbEntity
  8
SEIHIN
  6
CONTINUOUS
 62
     3
 48
5.0
100
AcDbLine
 10
277.538342755064
 20
192.5615507347707
 30
0.0
 11
267.5383427550641
 21
190.3114577276515
 31
0.0
  0
LINE
  5
EBD
330
1A
100
AcDbEntity
  8
SEIHIN
  6
CONTINUOUS
 62
     3
 48
5.0
100
AcDbLine
 10
267.5383427550642
 20
194.8114577276515
 30
0.0
 11
228.5383427550642
 21
194.8114577276515
 31
0.0
  0
LINE
  5
EBE
330
1A
100
AcDbEntity
  8
SEIHIN
  6
CONTINUOUS
 62
     3
 48
5.0
100
AcDbLine
 10
267.5383427550643
 20
190.3114577276515
 30
0.0
 11
228.5383427550643
 21
190.3114577276515
 31
0.0
  0
LINE
  5
EBF
330
1A
100
AcDbEntity
  8
SEIHIN
  6
CONTINUOUS
 62
     3
 48
5.0
100
AcDbLine
 10
226.5383427550642
 20
194.8114577276515
 30
0.0
 11
218.5383427550642
 21
194.8114577276515
 31
0.0
  0
LINE
  5
EC0
330
1A
100
AcDbEntity
  8
SEIHIN
  6
CONTINUOUS
 62
     3
 48
5.0
100
AcDbLine
 10
226.5383427550643
 20
190.3114577276515
 30
0.0
 11
218.5383427550643
 21
190.3114577276515
 31
0.0
  0
LINE
  5
EC1
330
1A
100
AcDbEntity
  8
SEIHIN
  6
CONTINUOUS
 62
     3
 48
5.0
100
AcDbLine
 10
206.5383427550642
 20
194.8114577276515
 30
0.0
 11
206.5383427550643
 21
190.3114577276515
 31
0.0
  0
LINE
  5
EC2
330
1A
100
AcDbEntity
  8
SEIHIN
  6
CONTINUOUS
 62
     3
 48
5.0
100
AcDbLine
 10
207.038342755064
 20
194.5114577276515
 30
0.0
 11
207.0383427550641
 21
190.6114577276515
 31
0.0
  0
LINE
  5
EC3
330
1A
100
AcDbEntity
  8
SEIHIN
  6
CONTINUOUS
 62
     3
 48
5.0
100
AcDbLine
 10
208.5383427550642
 20
194.8114577276515
 30
0.0
 11
208.5383427550643
 21
190.3114577276515
 31
0.0
  0
LINE
  5
EC4
330
1A
100
AcDbEntity
  8
SEIHIN
  6
CONTINUOUS
 62
     3
 48
5.0
100
AcDbLine
 10
208.0383427550643
 20
190.6114577276515
 30
0.0
 11
208.0383427550642
 21
194.5114577276515
 31
0.0
  0
LINE
  5
EC5
330
1A
100
AcDbEntity
  8
SEIHIN
  6
CONTINUOUS
 62
     3
 48
5.0
100
AcDbLine
 10
216.5383427550642
 20
194.8114577276515
 30
0.0
 11
216.5383427550643
 21
190.3114577276515
 31
0.0
  0
LINE
  5
EC6
330
1A
100
AcDbEntity
  8
SEIHIN
  6
CONTINUOUS
 62
     3
 48
5.0
100
AcDbLine
 10
218.5383427550642
 20
194.8114577276515
 30
0.0
 11
218.5383427550643
 21
190.3114577276515
 31
0.0
  0
LINE
  5
EC7
330
1A
100
AcDbEntity
  8
SEIHIN
  6
CONTINUOUS
 62
     3
 48
5.0
100
AcDbLine
 10
217.038342755064
 20
194.5114577276515
 30
0.0
 11
217.0383427550641
 21
190.6114577276515
 31
0.0
  0
LINE
  5
EC8
330
1A
100
AcDbEntity
  8
SEIHIN
  6
CONTINUOUS
 62
     3
 48
5.0
100
AcDbLine
 10
218.0383427550642
 20
194.5114577276515
 30
0.0
 11
218.0383427550643
 21
190.6114577276515
 31
0.0
  0
LINE
  5
EC9
330
1A
100
AcDbEntity
  8
SEIHIN
  6
CONTINUOUS
 62
     3
 48
5.0
100
AcDbLine
 10
216.5383427550643
 20
190.3114577276515
 30
0.0
 11
208.5383427550643
 21
190.3114577276515
 31
0.0
  0
LINE
  5
ECA
330
1A
100
AcDbEntity
  8
SEIHIN
  6
CONTINUOUS
 62
     3
 48
5.0
100
AcDbLine
 10
208.0383427550643
 20
190.6114577276515
 30
0.0
 11
208.5383427550643
 21
190.3114577276515
 31
0.0
  0
LINE
  5
ECB
330
1A
100
AcDbEntity
  8
SEIHIN
  6
CONTINUOUS
 62
     3
 48
5.0
100
AcDbLine
 10
207.0383427550641
 20
190.6114577276515
 30
0.0
 11
206.5383427550643
 21
190.3114577276515
 31
0.0
  0
LINE
  5
ECC
330
1A
100
AcDbEntity
  8
SEIHIN
  6
CONTINUOUS
 62
     3
 48
5.0
100
AcDbLine
 10
208.0383427550643
 20
190.6114577276515
 30
0.0
 11
207.0383427550641
 21
190.6114577276515
 31
0.0
  0
LINE
  5
ECD
330
1A
100
AcDbEntity
  8
SEIHIN
  6
CONTINUOUS
 62
     3
 48
5.0
100
AcDbLine
 10
217.0383427550641
 20
190.6114577276515
 30
0.0
 11
216.5383427550643
 21
190.3114577276515
 31
0.0
  0
LINE
  5
ECE
330
1A
100
AcDbEntity
  8
SEIHIN
  6
CONTINUOUS
 62
     3
 48
5.0
100
AcDbLine
 10
218.0383427550643
 20
190.6114577276515
 30
0.0
 11
217.0383427550641
 21
190.6114577276515
 31
0.0
  0
LINE
  5
ECF
330
1A
100
AcDbEntity
  8
SEIHIN
  6
CONTINUOUS
 62
     3
 48
5.0
100
AcDbLine
 10
218.0383427550643
 20
190.6114577276515
 30
0.0
 11
218.5383427550643
 21
190.3114577276515
 31
0.0
  0
LINE
  5
ED0
330
1A
100
AcDbEntity
  8
SEIHIN
  6
CONTINUOUS
 62
     3
 48
5.0
100
AcDbLine
 10
216.5383427550642
 20
194.8114577276515
 30
0.0
 11
208.5383427550642
 21
194.8114577276515
 31
0.0
  0
LINE
  5
ED1
330
1A
100
AcDbEntity
  8
SEIHIN
  6
CONTINUOUS
 62
     3
 48
5.0
100
AcDbLine
 10
208.0383427550642
 20
194.5114577276515
 30
0.0
 11
208.5383427550642
 21
194.8114577276515
 31
0.0
  0
LINE
  5
ED2
330
1A
100
AcDbEntity
  8
SEIHIN
  6
CONTINUOUS
 62
     3
 48
5.0
100
AcDbLine
 10
207.038342755064
 20
194.5114577276515
 30
0.0
 11
206.5383427550642
 21
194.8114577276515
 31
0.0
  0
LINE
  5
ED3
330
1A
100
AcDbEntity
  8
SEIHIN
  6
CONTINUOUS
 62
     3
 48
5.0
100
AcDbLine
 10
208.0383427550642
 20
194.5114577276515
 30
0.0
 11
207.038342755064
 21
194.5114577276515
 31
0.0
  0
LINE
  5
ED4
330
1A
100
AcDbEntity
  8
SEIHIN
  6
CONTINUOUS
 62
     3
 48
5.0
100
AcDbLine
 10
217.038342755064
 20
194.5114577276515
 30
0.0
 11
216.5383427550642
 21
194.8114577276515
 31
0.0
  0
LINE
  5
ED5
330
1A
100
AcDbEntity
  8
SEIHIN
  6
CONTINUOUS
 62
     3
 48
5.0
100
AcDbLine
 10
218.0383427550642
 20
194.5114577276515
 30
0.0
 11
217.038342755064
 21
194.5114577276515
 31
0.0
  0
LINE
  5
ED6
330
1A
100
AcDbEntity
  8
SEIHIN
  6
CONTINUOUS
 62
     3
 48
5.0
100
AcDbLine
 10
218.0383427550642
 20
194.5114577276515
 30
0.0
 11
218.5383427550642
 21
194.8114577276515
 31
0.0
  0
LINE
  5
ED7
330
1A
100
AcDbEntity
  8
SEIHIN
  6
CONTINUOUS
 62
     3
 48
5.0
100
AcDbLine
 10
226.5383427550642
 20
194.8114577276515
 30
0.0
 11
226.5383427550643
 21
190.3114577276515
 31
0.0
  0
LINE
  5
ED8
330
1A
100
AcDbEntity
  8
SEIHIN
  6
CONTINUOUS
 62
     3
 48
5.0
100
AcDbLine
 10
227.038342755064
 20
194.5114577276515
 30
0.0
 11
227.0383427550641
 21
190.6114577276515
 31
0.0
  0
LINE
  5
ED9
330
1A
100
AcDbEntity
  8
SEIHIN
  6
CONTINUOUS
 62
     3
 48
5.0
100
AcDbLine
 10
228.0383427550642
 20
194.5114577276515
 30
0.0
 11
228.0383427550643
 21
190.6114577276515
 31
0.0
  0
LINE
  5
EDA
330
1A
100
AcDbEntity
  8
SEIHIN
  6
CONTINUOUS
 62
     3
 48
5.0
100
AcDbLine
 10
228.5383427550642
 20
194.8114577276515
 30
0.0
 11
228.5383427550643
 21
190.3114577276515
 31
0.0
  0
LINE
  5
EDB
330
1A
100
AcDbEntity
  8
SEIHIN
  6
CONTINUOUS
 62
     3
 48
5.0
100
AcDbLine
 10
228.0383427550643
 20
190.6114577276515
 30
0.0
 11
227.0383427550641
 21
190.6114577276515
 31
0.0
  0
LINE
  5
EDC
330
1A
100
AcDbEntity
  8
SEIHIN
  6
CONTINUOUS
 62
     3
 48
5.0
100
AcDbLine
 10
227.0383427550641
 20
190.6114577276515
 30
0.0
 11
226.5383427550643
 21
190.3114577276515
 31
0.0
  0
LINE
  5
EDD
330
1A
100
AcDbEntity
  8
SEIHIN
  6
CONTINUOUS
 62
     3
 48
5.0
100
AcDbLine
 10
228.0383427550643
 20
190.6114577276515
 30
0.0
 11
228.5383427550643
 21
190.3114577276515
 31
0.0
  0
LINE
  5
EDE
330
1A
100
AcDbEntity
  8
SEIHIN
  6
CONTINUOUS
 62
     3
 48
5.0
100
AcDbLine
 10
227.038342755064
 20
194.5114577276515
 30
0.0
 11
226.5383427550642
 21
194.8114577276515
 31
0.0
  0
LINE
  5
EDF
330
1A
100
AcDbEntity
  8
SEIHIN
  6
CONTINUOUS
 62
     3
 48
5.0
100
AcDbLine
 10
228.0383427550642
 20
194.5114577276515
 30
0.0
 11
227.038342755064
 21
194.5114577276515
 31
0.0
  0
LINE
  5
EE0
330
1A
100
AcDbEntity
  8
SEIHIN
  6
CONTINUOUS
 62
     3
 48
5.0
100
AcDbLine
 10
228.0383427550642
 20
194.5114577276515
 30
0.0
 11
228.5383427550642
 21
194.8114577276515
 31
0.0
  0
ARC
  5
EE1
330
1A
100
AcDbEntity
  8
SEIHIN
  6
CONTINUOUS
 62
     3
 48
5.0
100
AcDbCircle
 10
267.2773607463996
 20
193.8365042312112
 30
0.0
 40
0.7248044289624155
100
AcDbArc
 50
126.5768423842561
 51
233.4231576157486
  0
LINE
  5
EE2
330
1A
100
AcDbEntity
  8
SEIHIN
  6
CONTINUOUS
 62
     3
 48
5.0
100
AcDbLine
 10
267.538342755064
 20
192.5615507347707
 30
0.0
 11
266.8454495362506
 21
193.2544439535842
 31
0.0
  0
LINE
  5
EE3
330
1A
100
AcDbEntity
  8
SEIHIN
  6
CONTINUOUS
 62
     3
 48
5.0
100
AcDbLine
 10
267.538342755064
 20
192.5615507347707
 30
0.0
 11
266.8454495362506
 21
191.8686575159572
 31
0.0
  0
ARC
  5
EE4
330
1A
100
AcDbEntity
  8
SEIHIN
  6
CONTINUOUS
 62
     3
 48
5.0
100
AcDbCircle
 10
267.2775455921771
 20
191.2865042312112
 30
0.0
 40
0.7249892747399255
100
AcDbArc
 50
126.5841936583414
 51
233.4158063416673
  0
LINE
  5
EE5
330
1A
100
AcDbEntity
  8
SEIHIN
  6
CONTINUOUS
 62
     3
 48
5.0
100
AcDbLine
 10
267.5383427550641
 20
190.3114577276515
 30
0.0
 11
266.8454495362507
 21
190.704350946465
 31
0.0
  0
LINE
  5
EE6
330
1A
100
AcDbEntity
  8
SEIHIN
  6
CONTINUOUS
 62
     3
 48
5.0
100
AcDbLine
 10
267.538342755064
 20
194.8114577276515
 30
0.0
 11
266.8454495362506
 21
194.4185645088381
 31
0.0
  0
LINE
  5
11B6
330
1A
100
AcDbEntity
  8
SEIHIN
100
AcDbLine
 10
183.5223887550638
 20
97.81380831690157
 30
0.0
 11
183.5223887550639
 21
99.81360831690167
 31
0.0
  0
VIEWPORT
  5
22
330
17
100
AcDbEntity
 67
     1
  8
0
100
AcDbViewport
 10
313.6808219178082
 20
148.5
 30
0.0
 40
627.3616438356165
 41
297.0
 68
     2
 69
     1
1001
ACAD
1000
MVIEW
1002
{
1070
    16
1010
0.0
1020
0.0
1030
0.0
1010
0.0
1020
0.0
1030
1.0
1040
0.0
1040
297.0
1040
313.6808219178082
1040
148.5
1040
50.0
1040
0.0
1040
0.0
1070
     0
1070
   100
1070
     1
1070
     0
1070
     0
1070
     0
1070
     0
1070
     0
1040
0.0
1040
0.0
1040
0.0
1040
1.0
1040
1.0
1040
10.0
1040
10.0
1070
     0
1002
{
1002
}
1002
}
  0
VIEWPORT
  5
64
330
17
100
AcDbEntity
 67
     1
  8
VIEWPORT
100
AcDbViewport
 10
210.0
 20
148.5
 30
0.0
 40
420.0
 41
297.0
 68
     1
 69
     2
1001
ACAD
1000
MVIEW
1002
{
1070
    16
1010
0.0
1020
0.0
1030
0.0
1010
0.0
1020
0.0
1030
1.0
1040
0.0
1040
302.9399999999998
1040
210.0
1040
148.5
1040
50.0
1040
0.0
1040
0.0
1070
     0
1070
   100
1070
     1
1070
     0
1070
     0
1070
     0
1070
     0
1070
     0
1040
0.0
1040
0.0
1040
0.0
1040
5.0
1040
5.0
1040
0.0
1040
0.0
1070
     0
1002
{
1002
}
1002
}
  0
ENDSEC
  0
SECTION
  2
OBJECTS
  0
DICTIONARY
  5
C
330
0
100
AcDbDictionary
  3
ACAD_GROUP
350
D
  3
ACAD_LAYOUT
350
46C
  3
ACAD_MLINESTYLE
350
E
  3
ACAD_PLOTSETTINGS
350
46D
  3
ACAD_PLOTSTYLENAME
350
74E
  3
ACDBHEADERROUNDTRIPXREC
350
11D2
1001
ACAD
1000
TREAT_AS_HARD
1070
     0
  0
DICTIONARY
  5
598
330
1A
100
AcDbDictionary
280
     1
  3
ACAD_LAYOUTSELFREF
360
11F4
1001
ACAD
1000
TREAT_AS_HARD
1070
     1
  0
DICTIONARY
  5
596
330
17
100
AcDbDictionary
280
     1
  3
ACAD_LAYOUTSELFREF
360
11F3
1001
ACAD
1000
TREAT_AS_HARD
1070
     1
  0
DICTIONARY
  5
D
102
{ACAD_REACTORS
330
C
102
}
330
C
100
AcDbDictionary
  3
*A1
350
11B5
1001
ACAD
1000
TREAT_AS_HARD
1070
     0
  0
DICTIONARY
  5
46C
102
{ACAD_REACTORS
330
C
102
}
330
C
100
AcDbDictionary
1001
ACAD
1000
TREAT_AS_HARD
1070
     0
  0
DICTIONARY
  5
E
102
{ACAD_REACTORS
330
C
102
}
330
C
100
AcDbDictionary
  3
STANDARD
350
13
1001
ACAD
1000
TREAT_AS_HARD
1070
     0
  0
DICTIONARY
  5
46D
102
{ACAD_REACTORS
330
C
102
}
330
C
100
AcDbDictionary
1001
ACAD
1000
TREAT_AS_HARD
1070
     0
  0
ACDBDICTIONARYWDFLT
  5
74E
102
{ACAD_REACTORS
330
C
102
}
330
C
100
AcDbDictionary
281
     1
  3
Normal
350
74F
100
AcDbDictionaryWithDefault
340
74F
1001
ACAD
1000
TREAT_AS_HARD
1070
     0
1000
TREAT_AS_HARD
1070
     0
1000
TREAT_AS_HARD
1070
     0
  0
DICTIONARY
  5
11D2
102
{ACAD_REACTORS
330
C
102
}
330
C
100
AcDbDictionary
  3
TSTACKALIGN
350
11D3
  3
TSTACKSIZE
350
11D4
  3
HYPERLINKBASE
350
11D5
  3
STYLESHEET
350
11D6
  3
LAYOUTDICT
350
11D7
  3
PLOTSETDICT
350
11D8
  3
PLOTSTYLNAMDICT
350
11D9
  3
LWETCUNION
350
11DA
  3
INSUNITS
350
11DB
  3
CEPSNTYPE
350
11DC
  3
FINGERPRINTGUID
350
11DD
  3
VERSIONGUID
350
11DE
  3
PSVPSCALE
350
11DF
  3
DIMSTYLEDATA
350
11E0
  3
PUCSORTHOREF
350
11E1
  3
PUCSORTHOVIEW
350
11E2
  3
PUCSBASE
350
11E3
  3
PUCSORGTOP
350
11E4
  3
PUCSORGBOTTOM
350
11E5
  3
PUCSORGLEFT
350
11E6
  3
PUCSORGRIGHT
350
11E7
  3
PUCSORGFRONT
350
11E8
  3
PUCSORGBACK
350
11E9
  3
UCSORTHOREF
350
11EA
  3
UCSORTHOVIEW
350
11EB
  3
UCSBASE
350
11EC
  3
UCSORGTOP
350
11ED
  3
UCSORGBOTTOM
350
11EE
  3
UCSORGLEFT
350
11EF
  3
UCSORGRIGHT
350
11F0
  3
UCSORGFRONT
350
11F1
  3
UCSORGBACK
350
11F2
  0
XRECORD
  5
11F4
102
{ACAD_REACTORS
330
598
102
}
330
598
100
AcDbXrecord
340
1A
  0
XRECORD
  5
11F3
102
{ACAD_REACTORS
330
596
102
}
330
596
100
AcDbXrecord
340
17
  0
GROUP
  5
11B5
102
{ACAD_REACTORS
330
D
102
}
330
D
100
AcDbGroup
300

 70
     1
 71
     1
  0
MLINESTYLE
  5
13
102
{ACAD_REACTORS
330
E
102
}
330
E
100
AcDbMlineStyle
  2
STANDARD
 70
     0
  3

 62
     0
 51
90.0
 52
90.0
 71
     2
 49
0.5
 62
   256
  6
BYLAYER
 49
-0.5
 62
   256
  6
BYLAYER
  0
ACDBPLACEHOLDER
  5
74F
102
{ACAD_REACTORS
330
74E
102
}
330
74E
100
AcDbPlaceHolder
280
     0
  0
XRECORD
  5
11D3
102
{ACAD_REACTORS
330
11D2
102
}
330
11D2
100
AcDbXrecord
 90
        1
  0
XRECORD
  5
11D4
102
{ACAD_REACTORS
330
11D2
102
}
330
11D2
100
AcDbXrecord
 90
       70
  0
XRECORD
  5
11D5
102
{ACAD_REACTORS
330
11D2
102
}
330
11D2
100
AcDbXrecord
  1

  0
XRECORD
  5
11D6
102
{ACAD_REACTORS
330
11D2
102
}
330
11D2
100
AcDbXrecord
  1
systemprinter.ctb
  0
XRECORD
  5
11D7
102
{ACAD_REACTORS
330
11D2
102
}
330
11D2
100
AcDbXrecord
340
46C
  0
XRECORD
  5
11D8
102
{ACAD_REACTORS
330
11D2
102
}
330
11D2
100
AcDbXrecord
340
46D
  0
XRECORD
  5
11D9
102
{ACAD_REACTORS
330
11D2
102
}
330
11D2
100
AcDbXrecord
340
74E
  0
XRECORD
  5
11DA
102
{ACAD_REACTORS
330
11D2
102
}
330
11D2
100
AcDbXrecord
 90
    10781
  0
XRECORD
  5
11DB
102
{ACAD_REACTORS
330
11D2
102
}
330
11D2
100
AcDbXrecord
 90
        0
  0
XRECORD
  5
11DC
102
{ACAD_REACTORS
330
11D2
102
}
330
11D2
100
AcDbXrecord
 90
        0
  0
XRECORD
  5
11DD
102
{ACAD_REACTORS
330
11D2
102
}
330
11D2
100
AcDbXrecord
  1
{B32BAAB5-9BF2-4BC9-AA15-A91486D21245}
  0
XRECORD
  5
11DE
102
{ACAD_REACTORS
330
11D2
102
}
330
11D2
100
AcDbXrecord
  1
{7DB97CCF-CB85-4F83-807C-2159BD2C69F0}
  0
XRECORD
  5
11DF
102
{ACAD_REACTORS
330
11D2
102
}
330
11D2
100
AcDbXrecord
 40
0.0
  0
XRECORD
  5
11E0
102
{ACAD_REACTORS
330
11D2
102
}
330
11D2
100
AcDbXrecord
1000
DSTYLE
1002
{
1070
   341
340
B2
1070
   343
340
B2
1070
   344
340
B2
1002
}
  0
XRECORD
  5
11E1
102
{ACAD_REACTORS
330
11D2
102
}
330
11D2
100
AcDbXrecord
340
0
  0
XRECORD
  5
11E2
102
{ACAD_REACTORS
330
11D2
102
}
330
11D2
100
AcDbXrecord
 70
     0
  0
XRECORD
  5
11E3
102
{ACAD_REACTORS
330
11D2
102
}
330
11D2
100
AcDbXrecord
340
0
  0
XRECORD
  5
11E4
102
{ACAD_REACTORS
330
11D2
102
}
330
11D2
100
AcDbXrecord
 10
0.0
 20
0.0
 30
0.0
  0
XRECORD
  5
11E5
102
{ACAD_REACTORS
330
11D2
102
}
330
11D2
100
AcDbXrecord
 10
0.0
 20
0.0
 30
0.0
  0
XRECORD
  5
11E6
102
{ACAD_REACTORS
330
11D2
102
}
330
11D2
100
AcDbXrecord
 10
0.0
 20
0.0
 30
0.0
  0
XRECORD
  5
11E7
102
{ACAD_REACTORS
330
11D2
102
}
330
11D2
100
AcDbXrecord
 10
0.0
 20
0.0
 30
0.0
  0
XRECORD
  5
11E8
102
{ACAD_REACTORS
330
11D2
102
}
330
11D2
100
AcDbXrecord
 10
0.0
 20
0.0
 30
0.0
  0
XRECORD
  5
11E9
102
{ACAD_REACTORS
330
11D2
102
}
330
11D2
100
AcDbXrecord
 10
0.0
 20
0.0
 30
0.0
  0
XRECORD
  5
11EA
102
{ACAD_REACTORS
330
11D2
102
}
330
11D2
100
AcDbXrecord
340
0
  0
XRECORD
  5
11EB
102
{ACAD_REACTORS
330
11D2
102
}
330
11D2
100
AcDbXrecord
 70
     0
  0
XRECORD
  5
11EC
102
{ACAD_REACTORS
330
11D2
102
}
330
11D2
100
AcDbXrecord
340
0
  0
XRECORD
  5
11ED
102
{ACAD_REACTORS
330
11D2
102
}
330
11D2
100
AcDbXrecord
 10
0.0
 20
0.0
 30
0.0
  0
XRECORD
  5
11EE
102
{ACAD_REACTORS
330
11D2
102
}
330
11D2
100
AcDbXrecord
 10
0.0
 20
0.0
 30
0.0
  0
XRECORD
  5
11EF
102
{ACAD_REACTORS
330
11D2
102
}
330
11D2
100
AcDbXrecord
 10
0.0
 20
0.0
 30
0.0
  0
XRECORD
  5
11F0
102
{ACAD_REACTORS
330
11D2
102
}
330
11D2
100
AcDbXrecord
 10
0.0
 20
0.0
 30
0.0
  0
XRECORD
  5
11F1
102
{ACAD_REACTORS
330
11D2
102
}
330
11D2
100
AcDbXrecord
 10
0.0
 20
0.0
 30
0.0
  0
XRECORD
  5
11F2
102
{ACAD_REACTORS
330
11D2
102
}
330
11D2
100
AcDbXrecord
 10
0.0
 20
0.0
 30
0.0
  0
ENDSEC
  0
EOF
