  0
SECTION
  2
HEADER
  9
$ACADVER
  1
AC1014
  9
$ACADMAINTVER
 70
     9
  9
$DWGCODEPAGE
  3
ANSI_932
  9
$INSBASE
 10
0.0
 20
0.0
 30
0.0
  9
$EXTMIN
 10
-0.0128164049386896
 20
-0.0090630292066862
 30
-0.0015258207003583
  9
$EXTMAX
 10
398.8000497813338
 20
275.8226172440017
 30
0.0000000349246037
  9
$LIMMIN
 10
0.0
 20
0.0
  9
$LIMMAX
 10
420.0
 20
297.0
  9
$ORTHOMODE
 70
     1
  9
$REGENMODE
 70
     1
  9
$FILLMODE
 70
     1
  9
$QTEXTMODE
 70
     0
  9
$MIRRTEXT
 70
     1
  9
$DRAGMODE
 70
     2
  9
$LTSCALE
 40
1.0
  9
$OSMODE
 70
    37
  9
$ATTMODE
 70
     1
  9
$TEXTSIZE
 40
2.5
  9
$TRACEWID
 40
1.0
  9
$TEXTSTYLE
  7
STANDARD
  9
$CLAYER
  8
SUNPOU
  9
$CELTYPE
  6
BYLAYER
  9
$CECOLOR
 62
   256
  9
$CELTSCALE
 40
1.0
  9
$DELOBJ
 70
     1
  9
$DISPSILH
 70
     0
  9
$DIMSCALE
 40
1.0
  9
$DIMASZ
 40
3.0
  9
$DIMEXO
 40
3.0
  9
$DIMDLI
 40
7.0
  9
$DIMRND
 40
0.0
  9
$DIMDLE
 40
0.0
  9
$DIMEXE
 40
1.5
  9
$DIMTP
 40
0.0
  9
$DIMTM
 40
0.0
  9
$DIMTXT
 40
3.0
  9
$DIMCEN
 40
150.0
  9
$DIMTSZ
 40
0.0
  9
$DIMTOL
 70
     0
  9
$DIMLIM
 70
     0
  9
$DIMTIH
 70
     0
  9
$DIMTOH
 70
     0
  9
$DIMSE1
 70
     0
  9
$DIMSE2
 70
     0
  9
$DIMTAD
 70
     3
  9
$DIMZIN
 70
     0
  9
$DIMBLK
  1

  9
$DIMASO
 70
     1
  9
$DIMSHO
 70
     1
  9
$DIMPOST
  1

  9
$DIMAPOST
  1

  9
$DIMALT
 70
     0
  9
$DIMALTD
 70
     2
  9
$DIMALTF
 40
25.4
  9
$DIMLFAC
 40
1.0
  9
$DIMTOFL
 70
     1
  9
$DIMTVP
 40
0.0
  9
$DIMTIX
 70
     0
  9
$DIMSOXD
 70
     0
  9
$DIMSAH
 70
     1
  9
$DIMBLK1
  1
OPEN
  9
$DIMBLK2
  1
OPEN
  9
$DIMSTYLE
  2
STANDARD
  9
$DIMCLRD
 70
   256
  9
$DIMCLRE
 70
   256
  9
$DIMCLRT
 70
   256
  9
$DIMTFAC
 40
1.0
  9
$DIMGAP
 40
1.0
  9
$DIMJUST
 70
     0
  9
$DIMSD1
 70
     0
  9
$DIMSD2
 70
     0
  9
$DIMTOLJ
 70
     1
  9
$DIMTZIN
 70
     0
  9
$DIMALTZ
 70
     0
  9
$DIMALTTZ
 70
     0
  9
$DIMFIT
 70
     3
  9
$DIMUPT
 70
     0
  9
$DIMUNIT
 70
     2
  9
$DIMDEC
 70
     0
  9
$DIMTDEC
 70
     0
  9
$DIMALTU
 70
     2
  9
$DIMALTTD
 70
     2
  9
$DIMTXSTY
  7
STANDARD
  9
$DIMAUNIT
 70
     0
  9
$LUNITS
 70
     2
  9
$LUPREC
 70
     4
  9
$SKETCHINC
 40
1.0
  9
$FILLETRAD
 40
10.0
  9
$AUNITS
 70
     0
  9
$AUPREC
 70
     0
  9
$MENU
  1
.
  9
$ELEVATION
 40
0.0
  9
$PELEVATION
 40
0.0
  9
$THICKNESS
 40
0.0
  9
$LIMCHECK
 70
     0
  9
$BLIPMODE
 70
     0
  9
$CHAMFERA
 40
10.0
  9
$CHAMFERB
 40
10.0
  9
$CHAMFERC
 40
20.0
  9
$CHAMFERD
 40
0.0
  9
$SKPOLY
 70
     0
  9
$TDCREATE
 40
2451071.916141319
  9
$TDUPDATE
 40
2454579.499584629
  9
$TDINDWG
 40
0.0830557176
  9
$TDUSRTIMER
 40
0.0830555440
  9
$USRTIMER
 70
     1
  9
$ANGBASE
 50
0.0
  9
$ANGDIR
 70
     0
  9
$PDMODE
 70
     0
  9
$PDSIZE
 40
0.0
  9
$PLINEWID
 40
0.0
  9
$COORDS
 70
     0
  9
$SPLFRAME
 70
     0
  9
$SPLINETYPE
 70
     6
  9
$SPLINESEGS
 70
     8
  9
$ATTDIA
 70
     0
  9
$ATTREQ
 70
     1
  9
$HANDLING
 70
 10241
  9
$HANDSEED
  5
D42
  9
$SURFTAB1
 70
     6
  9
$SURFTAB2
 70
     6
  9
$SURFTYPE
 70
     6
  9
$SURFU
 70
     6
  9
$SURFV
 70
     6
  9
$UCSNAME
  2

  9
$UCSORG
 10
0.0
 20
0.0
 30
0.0
  9
$UCSXDIR
 10
1.0
 20
0.0
 30
0.0
  9
$UCSYDIR
 10
0.0
 20
1.0
 30
0.0
  9
$PUCSNAME
  2

  9
$PUCSORG
 10
0.0
 20
0.0
 30
0.0
  9
$PUCSXDIR
 10
1.0
 20
0.0
 30
0.0
  9
$PUCSYDIR
 10
0.0
 20
1.0
 30
0.0
  9
$USERI1
 70
     0
  9
$USERI2
 70
     0
  9
$USERI3
 70
     0
  9
$USERI4
 70
     0
  9
$USERI5
 70
     0
  9
$USERR1
 40
0.0
  9
$USERR2
 40
0.0
  9
$USERR3
 40
0.0
  9
$USERR4
 40
0.0
  9
$USERR5
 40
0.0
  9
$WORLDVIEW
 70
     1
  9
$SHADEDGE
 70
     3
  9
$SHADEDIF
 70
    70
  9
$TILEMODE
 70
     1
  9
$MAXACTVP
 70
    16
  9
$PINSBASE
 10
0.0
 20
0.0
 30
0.0
  9
$PLIMCHECK
 70
     0
  9
$PEXTMIN
 10
0.0
 20
0.0
 30
0.0
  9
$PEXTMAX
 10
420.0
 20
297.0
 30
0.0
  9
$PLIMMIN
 10
0.0
 20
0.0
  9
$PLIMMAX
 10
420.0
 20
297.0
  9
$UNITMODE
 70
     0
  9
$VISRETAIN
 70
     0
  9
$PLINEGEN
 70
     0
  9
$PSLTSCALE
 70
     1
  9
$TREEDEPTH
 70
  3020
  9
$PICKSTYLE
 70
     1
  9
$CMLSTYLE
  2
STANDARD
  9
$CMLJUST
 70
     0
  9
$CMLSCALE
 40
1.0
  9
$PROXYGRAPHICS
 70
     1
  9
$MEASUREMENT
 70
     0
  0
ENDSEC
  0
SECTION
  2
CLASSES
  0
CLASS
  1
ACDBDICTIONARYWDFLT
  2
AcDbDictionaryWithDefault
  3
AutoCAD 2000
 90
        0
280
     0
281
     0
  0
CLASS
  1
ACDBPLACEHOLDER
  2
AcDbPlaceHolder
  3
AutoCAD 2000
 90
        0
280
     0
281
     0
  0
CLASS
  1
LAYOUT
  2
AcDbLayout
  3
AutoCAD 2000
 90
        0
280
     0
281
     0
  0
CLASS
  1
DICTIONARYVAR
  2
AcDbDictionaryVar
  3
AutoCAD 2000
 90
        0
280
     0
281
     0
  0
CLASS
  1
LONG_TRANSACTION
  2
AcDbLongTransaction
  3
AutoCAD 2000
 90
        0
280
     0
281
     0
  0
CLASS
  1
LWPOLYLINE
  2
AcDbPolyline
  3
AutoCAD 2000
 90
        0
280
     0
281
     1
  0
CLASS
  1
HATCH
  2
AcDbHatch
  3
AutoCAD 2000
 90
        0
280
     0
281
     1
  0
CLASS
  1
XRECORD
  2
AcDbXrecord
  3
AutoCAD 2000
 90
        0
280
     0
281
     0
  0
CLASS
  1
LONG_TRANSACTION
  2
AcDbLongTransaction
  3
AutoCAD 2000
 90
        0
280
     0
281
     0
  0
CLASS
  1
LWPOLYLINE
  2
AcDbPolyline
  3
AutoCAD 2000
 90
        0
280
     0
281
     1
  0
CLASS
  1
HATCH
  2
AcDbHatch
  3
AutoCAD 2000
 90
        0
280
     0
281
     1
  0
CLASS
  1
XRECORD
  2
AcDbXrecord
  3
AutoCAD 2000
 90
        0
280
     0
281
     0
  0
CLASS
  1
LONG_TRANSACTION
  2
AcDbLongTransaction
  3
AutoCAD 2000
 90
        0
280
     0
281
     0
  0
CLASS
  1
LWPOLYLINE
  2
AcDbPolyline
  3
AutoCAD 2000
 90
        0
280
     0
281
     1
  0
CLASS
  1
HATCH
  2
AcDbHatch
  3
AutoCAD 2000
 90
        0
280
     0
281
     1
  0
CLASS
  1
XRECORD
  2
AcDbXrecord
  3
AutoCAD 2000
 90
        0
280
     0
281
     0
  0
CLASS
  1
LONG_TRANSACTION
  2
AcDbLongTransaction
  3
AutoCAD 2000
 90
        0
280
     0
281
     0
  0
CLASS
  1
LWPOLYLINE
  2
AcDbPolyline
  3
AutoCAD 2000
 90
        0
280
     0
281
     1
  0
CLASS
  1
HATCH
  2
AcDbHatch
  3
AutoCAD 2000
 90
        0
280
     0
281
     1
  0
CLASS
  1
XRECORD
  2
AcDbXrecord
  3
AutoCAD 2000
 90
        0
280
     0
281
     0
  0
CLASS
  1
LONG_TRANSACTION
  2
AcDbLongTransaction
  3
AutoCAD 2000
 90
        0
280
     0
281
     0
  0
CLASS
  1
LWPOLYLINE
  2
AcDbPolyline
  3
AutoCAD 2000
 90
        0
280
     0
281
     1
  0
CLASS
  1
HATCH
  2
AcDbHatch
  3
AutoCAD 2000
 90
        0
280
     0
281
     1
  0
CLASS
  1
XRECORD
  2
AcDbXrecord
  3
AutoCAD 2000
 90
        0
280
     0
281
     0
  0
CLASS
  1
LONG_TRANSACTION
  2
AcDbLongTransaction
  3
AutoCAD 2000
 90
        0
280
     0
281
     0
  0
CLASS
  1
LWPOLYLINE
  2
AcDbPolyline
  3
AutoCAD 2000
 90
        0
280
     0
281
     1
  0
CLASS
  1
HATCH
  2
AcDbHatch
  3
AutoCAD 2000
 90
        0
280
     0
281
     1
  0
CLASS
  1
XRECORD
  2
AcDbXrecord
  3
AutoCAD 2000
 90
        0
280
     0
281
     0
  0
CLASS
  1
LONG_TRANSACTION
  2
AcDbLongTransaction
  3
AutoCAD 2000
 90
        0
280
     0
281
     0
  0
CLASS
  1
LWPOLYLINE
  2
AcDbPolyline
  3
AutoCAD 2000
 90
        0
280
     0
281
     1
  0
CLASS
  1
HATCH
  2
AcDbHatch
  3
AutoCAD 2000
 90
        0
280
     0
281
     1
  0
CLASS
  1
XRECORD
  2
AcDbXrecord
  3
AutoCAD 2000
 90
        0
280
     0
281
     0
  0
CLASS
  1
LONG_TRANSACTION
  2
AcDbLongTransaction
  3
AutoCAD 2000
 90
        0
280
     0
281
     0
  0
CLASS
  1
LWPOLYLINE
  2
AcDbPolyline
  3
AutoCAD 2000
 90
        0
280
     0
281
     1
  0
CLASS
  1
HATCH
  2
AcDbHatch
  3
AutoCAD 2000
 90
        0
280
     0
281
     1
  0
CLASS
  1
XRECORD
  2
AcDbXrecord
  3
AutoCAD 2000
 90
        0
280
     0
281
     0
  0
ENDSEC
  0
SECTION
  2
TABLES
  0
TABLE
  2
VPORT
  5
8
330
0
100
AcDbSymbolTable
 70
     3
  0
VPORT
  5
D0C
330
8
100
AcDbSymbolTableRecord
100
AcDbViewportTableRecord
  2
*ACTIVE
 70
     0
 10
0.0
 20
0.0
 11
1.0
 21
1.0
 12
195.4555480411338
 22
137.8178721202211
 13
0.0
 23
0.0
 14
5.0
 24
5.0
 15
0.0
 25
0.0
 16
0.0
 26
0.0
 36
1.0
 17
0.0
 27
0.0
 37
0.0
 40
380.9369893932731
 41
1.570153061224489
 42
50.0
 43
0.0
 44
0.0
 50
0.0
 51
0.0
 71
     0
 72
   100
 73
     1
 74
     0
 75
     0
 76
     0
 77
     0
 78
     0
  0
ENDTAB
  0
TABLE
  2
LTYPE
  5
5
330
0
100
AcDbSymbolTable
 70
     2
  0
LTYPE
  5
14
330
5
100
AcDbSymbolTableRecord
100
AcDbLinetypeTableRecord
  2
BYBLOCK
 70
     0
  3

 72
    65
 73
     0
 40
0.0
  0
LTYPE
  5
15
330
5
100
AcDbSymbolTableRecord
100
AcDbLinetypeTableRecord
  2
BYLAYER
 70
     0
  3

 72
    65
 73
     0
 40
0.0
  0
LTYPE
  5
16
330
5
100
AcDbSymbolTableRecord
100
AcDbLinetypeTableRecord
  2
CONTINUOUS
 70
     0
  3
Solid line
 72
    65
 73
     0
 40
0.0
  0
LTYPE
  5
120
330
5
100
AcDbSymbolTableRecord
100
AcDbLinetypeTableRecord
  2
CENTER
 70
     0
  3
____ _ ____ _ ____ _ ____ _ ____ _ ____ _ ____ 
 72
    65
 73
     4
 40
2.0
 49
1.25
 74
     0
 49
-0.25
 74
     0
 49
0.25
 74
     0
 49
-0.25
 74
     0
  0
ENDTAB
  0
TABLE
  2
LAYER
  5
2
330
0
100
AcDbSymbolTable
 70
     8
  0
LAYER
  5
F
330
2
100
AcDbSymbolTableRecord
100
AcDbLayerTableRecord
  2
0
 70
     0
 62
     7
  6
CONTINUOUS
  0
LAYER
  5
62
330
2
100
AcDbSymbolTableRecord
100
AcDbLayerTableRecord
  2
VIEWPORT
 70
     0
 62
     7
  6
CONTINUOUS
  0
LAYER
  5
134
330
2
100
AcDbSymbolTableRecord
100
AcDbLayerTableRecord
  2
SUNPOU
 70
     0
 62
     4
  6
CONTINUOUS
  0
LAYER
  5
135
330
2
100
AcDbSymbolTableRecord
100
AcDbLayerTableRecord
  2
CENTER_L
 70
     0
 62
     1
  6
CENTER
  0
LAYER
  5
136
330
2
100
AcDbSymbolTableRecord
100
AcDbLayerTableRecord
  2
SEIHIN
 70
     0
 62
     3
  6
CONTINUOUS
  0
LAYER
  5
38D
330
2
100
AcDbSymbolTableRecord
100
AcDbLayerTableRecord
  2
DEFPOINTS
 70
     0
 62
     7
  6
CONTINUOUS
  0
LAYER
  5
B28
330
2
100
AcDbSymbolTableRecord
100
AcDbLayerTableRecord
  2
ZUWAKU
 70
     0
 62
     7
  6
CONTINUOUS
  0
LAYER
  5
B29
330
2
100
AcDbSymbolTableRecord
100
AcDbLayerTableRecord
  2
MOJI
 70
     0
 62
     2
  6
CONTINUOUS
  0
ENDTAB
  0
TABLE
  2
STYLE
  5
3
330
0
100
AcDbSymbolTable
 70
     2
  0
STYLE
  5
10
330
3
100
AcDbSymbolTableRecord
100
AcDbTextStyleTableRecord
  2
STANDARD
 70
     0
 40
0.0
 41
1.0
 50
0.0
 71
     0
 42
2.5
  3
TXT
  4
bigfont.shx
  0
STYLE
  5
B2A
330
3
100
AcDbSymbolTableRecord
100
AcDbTextStyleTableRecord
  2
ｽﾀｲﾙ1
 70
     0
 40
0.0
 41
1.0
 50
0.0
 71
     0
 42
2.5
  3
MS PGothic.ttf
  4

1001
ACAD
1000
MS PGothic
1071
    32818
  0
ENDTAB
  0
TABLE
  2
VIEW
  5
6
330
0
100
AcDbSymbolTable
 70
     0
  0
ENDTAB
  0
TABLE
  2
UCS
  5
7
330
0
100
AcDbSymbolTable
 70
     0
  0
ENDTAB
  0
TABLE
  2
APPID
  5
9
330
0
100
AcDbSymbolTable
 70
     1
  0
APPID
  5
11
330
9
100
AcDbSymbolTableRecord
100
AcDbRegAppTableRecord
  2
ACAD
 70
     0
  0
ENDTAB
  0
TABLE
  2
DIMSTYLE
  5
A
330
0
100
AcDbSymbolTable
 70
     1
  0
DIMSTYLE
105
1D
102
{ACAD_REACTORS
330
3AC
330
3B9
330
3D1
330
3DE
330
3ED
330
45F
330
476
330
4EF
330
523
330
821
102
}
330
A
100
AcDbSymbolTableRecord
100
AcDbDimStyleTableRecord
  2
STANDARD
 70
     0
  3

  4

  5

  6

  7

 40
1.0
 41
0.18
 42
0.0625
 43
0.38
 44
0.18
 45
0.0
 46
0.0
 47
0.0
 48
0.0
140
0.18
141
0.09
142
0.0
143
25.4
144
1.0
145
0.0
146
1.0
147
0.09
 71
     0
 72
     0
 73
     1
 74
     1
 75
     0
 76
     0
 77
     0
 78
     0
170
     0
171
     2
172
     0
173
     0
174
     0
175
     0
176
     0
177
     0
178
     0
270
     2
271
     4
272
     4
273
     2
274
     2
340
10
275
     0
280
     0
281
     0
282
     0
283
     1
284
     0
285
     0
286
     0
287
     3
288
     0
  0
ENDTAB
  0
TABLE
  2
BLOCK_RECORD
  5
1
330
0
100
AcDbSymbolTable
 70
    11
  0
BLOCK_RECORD
  5
1A
102
{ACAD_XDICTIONARY
360
598
102
}
330
1
100
AcDbSymbolTableRecord
100
AcDbBlockTableRecord
  2
*MODEL_SPACE
  0
BLOCK_RECORD
  5
17
102
{ACAD_XDICTIONARY
360
596
102
}
330
1
100
AcDbSymbolTableRecord
100
AcDbBlockTableRecord
  2
*PAPER_SPACE
  0
BLOCK_RECORD
  5
B2
330
1
100
AcDbSymbolTableRecord
100
AcDbBlockTableRecord
  2
_OPEN
  0
BLOCK_RECORD
  5
3A0
330
1
100
AcDbSymbolTableRecord
100
AcDbBlockTableRecord
  2
*D1
  0
BLOCK_RECORD
  5
3AD
330
1
100
AcDbSymbolTableRecord
100
AcDbBlockTableRecord
  2
*D2
  0
BLOCK_RECORD
  5
3C5
330
1
100
AcDbSymbolTableRecord
100
AcDbBlockTableRecord
  2
*D3
  0
BLOCK_RECORD
  5
3D2
330
1
100
AcDbSymbolTableRecord
100
AcDbBlockTableRecord
  2
*D4
  0
BLOCK_RECORD
  5
3DF
330
1
100
AcDbSymbolTableRecord
100
AcDbBlockTableRecord
  2
*D5
  0
BLOCK_RECORD
  5
453
330
1
100
AcDbSymbolTableRecord
100
AcDbBlockTableRecord
  2
*D6
  0
BLOCK_RECORD
  5
477
330
1
100
AcDbSymbolTableRecord
100
AcDbBlockTableRecord
  2
*D7
  0
BLOCK_RECORD
  5
4F0
330
1
100
AcDbSymbolTableRecord
100
AcDbBlockTableRecord
  2
*D8
  0
BLOCK_RECORD
  5
524
330
1
100
AcDbSymbolTableRecord
100
AcDbBlockTableRecord
  2
*D9
  0
BLOCK_RECORD
  5
822
330
1
100
AcDbSymbolTableRecord
100
AcDbBlockTableRecord
  2
*D10
  0
ENDTAB
  0
ENDSEC
  0
SECTION
  2
BLOCKS
  0
BLOCK
  5
1B
330
1A
100
AcDbEntity
  8
0
100
AcDbBlockBegin
  2
*MODEL_SPACE
 70
     0
 10
0.0
 20
0.0
 30
0.0
  3
*MODEL_SPACE
  1

  0
ENDBLK
  5
1C
330
1A
100
AcDbEntity
  8
0
100
AcDbBlockEnd
  0
BLOCK
  5
18
330
17
100
AcDbEntity
 67
     1
  8
0
100
AcDbBlockBegin
  2
*PAPER_SPACE
 70
     0
 10
0.0
 20
0.0
 30
0.0
  3
*PAPER_SPACE
  1

  0
ENDBLK
  5
19
330
17
100
AcDbEntity
 67
     1
  8
0
100
AcDbBlockEnd
  0
BLOCK
  5
B3
330
B2
100
AcDbEntity
  8
0
100
AcDbBlockBegin
  2
_OPEN
 70
     0
 10
0.0
 20
0.0
 30
0.0
  3
_OPEN
  1

  0
LINE
  5
B4
330
B2
100
AcDbEntity
  8
0
  6
BYBLOCK
 62
     0
100
AcDbLine
 10
-1.0
 20
0.1666666666666666
 30
0.0
 11
0.0
 21
0.0
 31
0.0
  0
LINE
  5
B5
330
B2
100
AcDbEntity
  8
0
  6
BYBLOCK
 62
     0
100
AcDbLine
 10
0.0
 20
0.0
 30
0.0
 11
-1.0
 21
-0.1666666666666666
 31
0.0
  0
LINE
  5
B6
330
B2
100
AcDbEntity
  8
0
  6
BYBLOCK
 62
     0
100
AcDbLine
 10
0.0
 20
0.0
 30
0.0
 11
-1.0
 21
0.0
 31
0.0
  0
ENDBLK
  5
B7
330
B2
100
AcDbEntity
  8
0
100
AcDbBlockEnd
  0
BLOCK
  5
3A1
330
3A0
100
AcDbEntity
  8
0
100
AcDbBlockBegin
  2
*D1
 70
     1
 10
0.0
 20
0.0
 30
0.0
  3
*D1
  1

  0
LINE
  5
CA3
330
3A0
100
AcDbEntity
  8
SUNPOU
  6
CONTINUOUS
 62
     4
100
AcDbLine
 10
161.1553767220162
 20
124.2338558299717
 30
0.0
 11
161.1553767220162
 21
159.7132650616174
 31
0.0
  0
LINE
  5
CA4
330
3A0
100
AcDbEntity
  8
SUNPOU
  6
CONTINUOUS
 62
     4
100
AcDbLine
 10
228.8555037220162
 20
124.2705558299717
 30
0.0
 11
228.8555037220162
 21
159.7132650616174
 31
0.0
  0
LINE
  5
CA5
330
3A0
100
AcDbEntity
  8
SUNPOU
  6
CONTINUOUS
 62
     4
100
AcDbLine
 10
164.1553767220162
 20
158.2132650616174
 30
0.0
 11
225.8555037220162
 21
158.2132650616174
 31
0.0
  0
INSERT
  5
CA6
330
3A0
100
AcDbEntity
  8
SUNPOU
  6
CONTINUOUS
 62
     4
100
AcDbBlockReference
  2
_OPEN
 10
161.1553767220162
 20
158.2132650616174
 30
0.0
 41
3.0
 42
3.0
 43
3.0
 50
180.0
  0
INSERT
  5
CA7
330
3A0
100
AcDbEntity
  8
SUNPOU
  6
CONTINUOUS
 62
     4
100
AcDbBlockReference
  2
_OPEN
 10
228.8555037220162
 20
158.2132650616174
 30
0.0
 41
3.0
 42
3.0
 43
3.0
  0
MTEXT
  5
CA8
330
3A0
100
AcDbEntity
  8
SUNPOU
  6
CONTINUOUS
 62
     4
100
AcDbMText
 10
195.0054402220162
 20
160.7132650616174
 30
0.0
 40
3.0
 41
0.0
 71
     5
 72
     1
  1
\A1;68
1001
ACAD
1000
MTEXTBEGIN
1070
    73
1070
     1
1070
    44
1040
1.0
1070
    74
1070
     0
1000
MTEXTEND
  0
POINT
  5
CA9
330
3A0
100
AcDbEntity
  8
DEFPOINTS
  6
CONTINUOUS
 62
     0
100
AcDbPoint
 10
161.1553767220162
 20
121.2338558299717
 30
0.0
  0
POINT
  5
CAA
330
3A0
100
AcDbEntity
  8
DEFPOINTS
  6
CONTINUOUS
 62
     0
100
AcDbPoint
 10
228.8555037220162
 20
121.2705558299717
 30
0.0
  0
POINT
  5
CAB
330
3A0
100
AcDbEntity
  8
DEFPOINTS
  6
CONTINUOUS
 62
     0
100
AcDbPoint
 10
228.8555037220162
 20
158.2132650616174
 30
0.0
  0
ENDBLK
  5
3AB
330
3A0
100
AcDbEntity
  8
0
100
AcDbBlockEnd
  0
BLOCK
  5
3AE
330
3AD
100
AcDbEntity
  8
0
100
AcDbBlockBegin
  2
*D2
 70
     1
 10
0.0
 20
0.0
 30
0.0
  3
*D2
  1

  0
LINE
  5
CFC
330
3AD
100
AcDbEntity
  8
SUNPOU
  6
CONTINUOUS
 62
     4
100
AcDbLine
 10
161.1553767220162
 20
124.2338558299717
 30
0.0
 11
161.1553767220162
 21
168.5225821413801
 31
0.0
  0
LINE
  5
CFD
330
3AD
100
AcDbEntity
  8
SUNPOU
  6
CONTINUOUS
 62
     4
100
AcDbLine
 10
318.6549252966487
 20
102.9839651623083
 30
0.0
 11
318.6549252966487
 21
168.5225821413801
 31
0.0
  0
LINE
  5
CFE
330
3AD
100
AcDbEntity
  8
SUNPOU
  6
CONTINUOUS
 62
     4
100
AcDbLine
 10
164.1553767220162
 20
167.0225821413801
 30
0.0
 11
315.6549252966487
 21
167.0225821413801
 31
0.0
  0
INSERT
  5
CFF
330
3AD
100
AcDbEntity
  8
SUNPOU
  6
CONTINUOUS
 62
     4
100
AcDbBlockReference
  2
_OPEN
 10
161.1553767220162
 20
167.0225821413801
 30
0.0
 41
3.0
 42
3.0
 43
3.0
 50
180.0
  0
INSERT
  5
D00
330
3AD
100
AcDbEntity
  8
SUNPOU
  6
CONTINUOUS
 62
     4
100
AcDbBlockReference
  2
_OPEN
 10
318.6549252966487
 20
167.0225821413801
 30
0.0
 41
3.0
 42
3.0
 43
3.0
  0
MTEXT
  5
D01
330
3AD
100
AcDbEntity
  8
SUNPOU
  6
CONTINUOUS
 62
     4
100
AcDbMText
 10
239.9051510093324
 20
169.5225821413801
 30
0.0
 40
3.0
 41
0.0
 71
     5
 72
     1
  1
\A1;157.5
1001
ACAD
1000
MTEXTBEGIN
1070
    73
1070
     1
1070
    44
1040
1.0
1070
    74
1070
     0
1000
MTEXTEND
  0
POINT
  5
D02
330
3AD
100
AcDbEntity
  8
DEFPOINTS
  6
CONTINUOUS
 62
     0
100
AcDbPoint
 10
161.1553767220162
 20
121.2338558299717
 30
0.0
  0
POINT
  5
D03
330
3AD
100
AcDbEntity
  8
DEFPOINTS
  6
CONTINUOUS
 62
     0
100
AcDbPoint
 10
318.6549252966487
 20
99.98396516230837
 30
0.0
  0
POINT
  5
D04
330
3AD
100
AcDbEntity
  8
DEFPOINTS
  6
CONTINUOUS
 62
     0
100
AcDbPoint
 10
318.6549252966487
 20
167.0225821413801
 30
0.0
  0
ENDBLK
  5
3B8
330
3AD
100
AcDbEntity
  8
0
100
AcDbBlockEnd
  0
BLOCK
  5
3C6
330
3C5
100
AcDbEntity
  8
0
100
AcDbBlockBegin
  2
*D3
 70
     1
 10
0.0
 20
0.0
 30
0.0
  3
*D3
  1

  0
LINE
  5
CAC
330
3C5
100
AcDbEntity
  8
SUNPOU
  6
CONTINUOUS
 62
     4
100
AcDbLine
 10
170.2553767220162
 20
133.3336558299717
 30
0.0
 11
131.0445495849302
 21
133.3336558299717
 31
0.0
  0
LINE
  5
CAD
330
3C5
100
AcDbEntity
  8
SUNPOU
  6
CONTINUOUS
 62
     4
100
AcDbLine
 10
170.2552767220162
 20
66.63381382997181
 30
0.0
 11
131.0445495849302
 21
66.63381382997183
 31
0.0
  0
LINE
  5
CAE
330
3C5
100
AcDbEntity
  8
SUNPOU
  6
CONTINUOUS
 62
     4
100
AcDbLine
 10
132.5445495849302
 20
130.3336558299717
 30
0.0
 11
132.5445495849302
 21
69.63381382997183
 31
0.0
  0
INSERT
  5
CAF
330
3C5
100
AcDbEntity
  8
SUNPOU
  6
CONTINUOUS
 62
     4
100
AcDbBlockReference
  2
_OPEN
 10
132.5445495849302
 20
133.3336558299717
 30
0.0
 41
3.0
 42
3.0
 43
3.0
 50
90.0
  0
INSERT
  5
CB0
330
3C5
100
AcDbEntity
  8
SUNPOU
  6
CONTINUOUS
 62
     4
100
AcDbBlockReference
  2
_OPEN
 10
132.5445495849302
 20
66.63381382997183
 30
0.0
 41
3.0
 42
3.0
 43
3.0
 50
270.0
  0
MTEXT
  5
CB1
330
3C5
100
AcDbEntity
  8
SUNPOU
  6
CONTINUOUS
 62
     4
100
AcDbMText
 10
130.0445495849302
 20
99.98373482997182
 30
0.0
 40
3.0
 41
0.0
 71
     5
 72
     1
  1
\A1;67
 11
0.0000000000000001
 21
1.0
 31
0.0
1001
ACAD
1000
MTEXTBEGIN
1070
    73
1070
     1
1070
    44
1040
1.0
1070
    74
1070
     0
1000
MTEXTEND
  0
POINT
  5
CB2
330
3C5
100
AcDbEntity
  8
DEFPOINTS
  6
CONTINUOUS
 62
     0
100
AcDbPoint
 10
173.2553767220162
 20
133.3336558299717
 30
0.0
  0
POINT
  5
CB3
330
3C5
100
AcDbEntity
  8
DEFPOINTS
  6
CONTINUOUS
 62
     0
100
AcDbPoint
 10
173.2552767220162
 20
66.63381382997181
 30
0.0
  0
POINT
  5
CB4
330
3C5
100
AcDbEntity
  8
DEFPOINTS
  6
CONTINUOUS
 62
     0
100
AcDbPoint
 10
132.5445495849302
 20
66.63381382997183
 30
0.0
  0
ENDBLK
  5
3D0
330
3C5
100
AcDbEntity
  8
0
100
AcDbBlockEnd
  0
BLOCK
  5
3D3
330
3D2
100
AcDbEntity
  8
0
100
AcDbBlockBegin
  2
*D4
 70
     1
 10
0.0
 20
0.0
 30
0.0
  3
*D4
  1

  0
LINE
  5
CB5
330
3D2
100
AcDbEntity
  8
SUNPOU
  6
CONTINUOUS
 62
     4
100
AcDbLine
 10
159.1552767220161
 20
228.9837558299717
 30
0.0
 11
131.0445495849302
 21
228.9837558299717
 31
0.0
  0
LINE
  5
CB6
330
3D2
100
AcDbEntity
  8
SUNPOU
  6
CONTINUOUS
 62
     4
100
AcDbLine
 10
159.1552767220161
 20
210.9837558299717
 30
0.0
 11
131.0445495849302
 21
210.9837558299717
 31
0.0
  0
LINE
  5
CB7
330
3D2
100
AcDbEntity
  8
SUNPOU
  6
CONTINUOUS
 62
     4
100
AcDbLine
 10
132.5445495849302
 20
225.9837558299717
 30
0.0
 11
132.5445495849302
 21
213.9837558299717
 31
0.0
  0
INSERT
  5
CB8
330
3D2
100
AcDbEntity
  8
SUNPOU
  6
CONTINUOUS
 62
     4
100
AcDbBlockReference
  2
_OPEN
 10
132.5445495849302
 20
228.9837558299717
 30
0.0
 41
3.0
 42
3.0
 43
3.0
 50
90.0
  0
INSERT
  5
CB9
330
3D2
100
AcDbEntity
  8
SUNPOU
  6
CONTINUOUS
 62
     4
100
AcDbBlockReference
  2
_OPEN
 10
132.5445495849302
 20
210.9837558299717
 30
0.0
 41
3.0
 42
3.0
 43
3.0
 50
270.0
  0
MTEXT
  5
CBA
330
3D2
100
AcDbEntity
  8
SUNPOU
  6
CONTINUOUS
 62
     4
100
AcDbMText
 10
130.0445495849301
 20
219.9837558299718
 30
0.0
 40
3.0
 41
0.0
 71
     5
 72
     1
  1
\A1;18
 11
0.0000000000000001
 21
1.0
 31
0.0
1001
ACAD
1000
MTEXTBEGIN
1070
    73
1070
     1
1070
    44
1040
1.0
1070
    74
1070
     0
1000
MTEXTEND
  0
POINT
  5
CBB
330
3D2
100
AcDbEntity
  8
DEFPOINTS
  6
CONTINUOUS
 62
     0
100
AcDbPoint
 10
162.1552767220161
 20
228.9837558299717
 30
0.0
  0
POINT
  5
CBC
330
3D2
100
AcDbEntity
  8
DEFPOINTS
  6
CONTINUOUS
 62
     0
100
AcDbPoint
 10
162.1552767220161
 20
210.9837558299717
 30
0.0
  0
POINT
  5
CBD
330
3D2
100
AcDbEntity
  8
DEFPOINTS
  6
CONTINUOUS
 62
     0
100
AcDbPoint
 10
132.5445495849302
 20
210.9837558299717
 30
0.0
  0
ENDBLK
  5
3DD
330
3D2
100
AcDbEntity
  8
0
100
AcDbBlockEnd
  0
BLOCK
  5
408
330
3DF
100
AcDbEntity
  8
0
100
AcDbBlockBegin
  2
*D5
 70
     1
 10
0.0
 20
0.0
 30
0.0
  3
*D5
  1

  0
LINE
  5
CC7
330
3DF
100
AcDbEntity
  8
SUNPOU
  6
CONTINUOUS
 62
     4
100
AcDbLine
 10
311.6552802201362
 20
102.2338674160453
 30
0.0
 11
349.7027377401928
 21
102.2338674160453
 31
0.0
  0
LINE
  5
CC8
330
3DF
100
AcDbEntity
  8
SUNPOU
  6
CONTINUOUS
 62
     4
100
AcDbLine
 10
311.6552802201362
 20
97.73386741604532
 30
0.0
 11
349.7027377401928
 21
97.73386741604532
 31
0.0
  0
LINE
  5
CC9
330
3DF
100
AcDbEntity
  8
SUNPOU
  6
CONTINUOUS
 62
     4
100
AcDbLine
 10
348.2027377401927
 20
105.2338674160453
 30
0.0
 11
348.2027377401927
 21
108.2338674160453
 31
0.0
  0
LINE
  5
CCA
330
3DF
100
AcDbEntity
  8
SUNPOU
  6
CONTINUOUS
 62
     4
100
AcDbLine
 10
348.2027377401927
 20
94.73386741604533
 30
0.0
 11
348.2027377401927
 21
80.73386741604533
 31
0.0
  0
LINE
  5
CCB
330
3DF
100
AcDbEntity
  8
SUNPOU
  6
CONTINUOUS
 62
     4
100
AcDbLine
 10
348.2027377401927
 20
102.2338674160453
 30
0.0
 11
348.2027377401927
 21
97.73386741604532
 31
0.0
  0
INSERT
  5
CCC
330
3DF
100
AcDbEntity
  8
SUNPOU
  6
CONTINUOUS
 62
     4
100
AcDbBlockReference
  2
_OPEN
 10
348.2027377401927
 20
102.2338674160453
 30
0.0
 41
3.0
 42
3.0
 43
3.0
 50
270.0
  0
INSERT
  5
CCD
330
3DF
100
AcDbEntity
  8
SUNPOU
  6
CONTINUOUS
 62
     4
100
AcDbBlockReference
  2
_OPEN
 10
348.2027377401927
 20
97.73386741604532
 30
0.0
 41
3.0
 42
3.0
 43
3.0
 50
90.0
  0
MTEXT
  5
CCE
330
3DF
100
AcDbEntity
  8
SUNPOU
  6
CONTINUOUS
 62
     4
100
AcDbMText
 10
345.7027377401928
 20
86.23386741604539
 30
0.0
 40
3.0
 41
0.0
 71
     5
 72
     1
  1
\A1;φ4.5
 11
0.0000000000000001
 21
1.0
 31
0.0
1001
ACAD
1000
MTEXTBEGIN
1070
    73
1070
     1
1070
    44
1040
1.0
1070
    74
1070
     0
1000
MTEXTEND
  0
POINT
  5
CCF
330
3DF
100
AcDbEntity
  8
DEFPOINTS
  6
CONTINUOUS
 62
     0
100
AcDbPoint
 10
308.6552802201361
 20
102.2338674160453
 30
0.0
  0
POINT
  5
CD0
330
3DF
100
AcDbEntity
  8
DEFPOINTS
  6
CONTINUOUS
 62
     0
100
AcDbPoint
 10
308.6552802201361
 20
97.73386741604532
 30
0.0
  0
POINT
  5
CD1
330
3DF
100
AcDbEntity
  8
DEFPOINTS
  6
CONTINUOUS
 62
     0
100
AcDbPoint
 10
348.2027377401927
 20
97.73386741604532
 30
0.0
  0
ENDBLK
  5
414
330
3DF
100
AcDbEntity
  8
0
100
AcDbBlockEnd
  0
BLOCK
  5
454
330
453
100
AcDbEntity
  8
0
100
AcDbBlockBegin
  2
*D6
 70
     1
 10
0.0
 20
0.0
 30
0.0
  3
*D6
  1

  0
LINE
  5
CD2
330
453
100
AcDbEntity
  8
SUNPOU
 62
     4
100
AcDbLine
 10
236.8553767220162
 20
109.9836558299717
 30
0.0
 11
236.8553767220162
 21
129.3706457009267
 31
0.0
  0
LINE
  5
CD3
330
453
100
AcDbEntity
  8
SUNPOU
 62
     4
100
AcDbLine
 10
318.6552767220162
 20
102.9838558299717
 30
0.0
 11
318.6552767220162
 21
129.3706457009267
 31
0.0
  0
LINE
  5
CD4
330
453
100
AcDbEntity
  8
SUNPOU
 62
     4
100
AcDbLine
 10
239.8553767220162
 20
127.8706457009267
 30
0.0
 11
315.6552767220162
 21
127.8706457009267
 31
0.0
  0
INSERT
  5
CD5
330
453
100
AcDbEntity
  8
SUNPOU
 62
     4
100
AcDbBlockReference
  2
_OPEN
 10
236.8553767220162
 20
127.8706457009267
 30
0.0
 41
3.0
 42
3.0
 43
3.0
 50
180.0
  0
INSERT
  5
CD6
330
453
100
AcDbEntity
  8
SUNPOU
 62
     4
100
AcDbBlockReference
  2
_OPEN
 10
318.6552767220162
 20
127.8706457009267
 30
0.0
 41
3.0
 42
3.0
 43
3.0
  0
MTEXT
  5
CD7
330
453
100
AcDbEntity
  8
SUNPOU
 62
     4
100
AcDbMText
 10
277.7553267220162
 20
130.3706457009267
 30
0.0
 40
3.0
 41
0.0
 71
     5
 72
     1
  1
\A1;82
1001
ACAD
1000
MTEXTBEGIN
1070
    73
1070
     1
1070
    44
1040
1.0
1070
    74
1070
     0
1000
MTEXTEND
  0
POINT
  5
CD8
330
453
100
AcDbEntity
  8
DEFPOINTS
 62
     0
100
AcDbPoint
 10
236.8553767220162
 20
106.9836558299717
 30
0.0
  0
POINT
  5
CD9
330
453
100
AcDbEntity
  8
DEFPOINTS
 62
     0
100
AcDbPoint
 10
318.6552767220162
 20
99.9838558299718
 30
0.0
  0
POINT
  5
CDA
330
453
100
AcDbEntity
  8
DEFPOINTS
 62
     0
100
AcDbPoint
 10
318.6552767220162
 20
127.8706457009267
 30
0.0
  0
ENDBLK
  5
45E
330
453
100
AcDbEntity
  8
0
100
AcDbBlockEnd
  0
BLOCK
  5
481
330
477
100
AcDbEntity
  8
0
100
AcDbBlockBegin
  2
*D7
 70
     1
 10
0.0
 20
0.0
 30
0.0
  3
*D7
  1

  0
LINE
  5
CBE
330
477
100
AcDbEntity
  8
SUNPOU
 62
     4
100
AcDbLine
 10
228.8554767220161
 20
124.2705558299717
 30
0.0
 11
228.8554767220161
 21
159.7132650616174
 31
0.0
  0
LINE
  5
CBF
330
477
100
AcDbEntity
  8
SUNPOU
 62
     4
100
AcDbLine
 10
318.6552767220162
 20
102.9841558299717
 30
0.0
 11
318.6552767220162
 21
159.7132650616174
 31
0.0
  0
LINE
  5
CC0
330
477
100
AcDbEntity
  8
SUNPOU
 62
     4
100
AcDbLine
 10
231.8554767220161
 20
158.2132650616174
 30
0.0
 11
315.6552767220162
 21
158.2132650616174
 31
0.0
  0
INSERT
  5
CC1
330
477
100
AcDbEntity
  8
SUNPOU
 62
     4
100
AcDbBlockReference
  2
_OPEN
 10
228.8554767220161
 20
158.2132650616174
 30
0.0
 41
3.0
 42
3.0
 43
3.0
 50
180.0
  0
INSERT
  5
CC2
330
477
100
AcDbEntity
  8
SUNPOU
 62
     4
100
AcDbBlockReference
  2
_OPEN
 10
318.6552767220162
 20
158.2132650616174
 30
0.0
 41
3.0
 42
3.0
 43
3.0
  0
MTEXT
  5
CC3
330
477
100
AcDbEntity
  8
SUNPOU
 62
     4
100
AcDbMText
 10
273.7553767220162
 20
160.7132650616174
 30
0.0
 40
3.0
 41
0.0
 71
     5
 72
     1
  1
\A1;90
1001
ACAD
1000
MTEXTBEGIN
1070
    73
1070
     1
1070
    44
1040
1.0
1070
    74
1070
     0
1000
MTEXTEND
  0
POINT
  5
CC4
330
477
100
AcDbEntity
  8
DEFPOINTS
 62
     0
100
AcDbPoint
 10
228.8554767220161
 20
121.2705558299717
 30
0.0
  0
POINT
  5
CC5
330
477
100
AcDbEntity
  8
DEFPOINTS
 62
     0
100
AcDbPoint
 10
318.6552767220162
 20
99.98415582997179
 30
0.0
  0
POINT
  5
CC6
330
477
100
AcDbEntity
  8
DEFPOINTS
 62
     0
100
AcDbPoint
 10
318.6552767220162
 20
158.2132650616174
 30
0.0
  0
ENDBLK
  5
482
330
477
100
AcDbEntity
  8
0
100
AcDbBlockEnd
  0
BLOCK
  5
4FA
330
4F0
100
AcDbEntity
  8
0
100
AcDbBlockBegin
  2
*D8
 70
     1
 10
0.0
 20
0.0
 30
0.0
  3
*D8
  1

  0
LINE
  5
D30
330
4F0
100
AcDbEntity
  8
SUNPOU
 62
     4
100
AcDbLine
 10
248.6546038318809
 20
94.18367171140763
 30
0.0
 11
248.6546038318809
 21
56.10630140145438
 31
0.0
  0
LINE
  5
D31
330
4F0
100
AcDbEntity
  8
SUNPOU
 62
     4
100
AcDbLine
 10
258.6546038318809
 20
94.18368469842064
 30
0.0
 11
258.6546038318809
 21
56.10630140145438
 31
0.0
  0
LINE
  5
D32
330
4F0
100
AcDbEntity
  8
SUNPOU
 62
     4
100
AcDbLine
 10
251.6546038318809
 20
57.60630140145439
 30
0.0
 11
255.6546038318809
 21
57.60630140145439
 31
0.0
  0
INSERT
  5
D33
330
4F0
100
AcDbEntity
  8
SUNPOU
 62
     4
100
AcDbBlockReference
  2
_OPEN
 10
248.6546038318809
 20
57.60630140145439
 30
0.0
 41
3.0
 42
3.0
 43
3.0
 50
180.0
  0
INSERT
  5
D34
330
4F0
100
AcDbEntity
  8
SUNPOU
 62
     4
100
AcDbBlockReference
  2
_OPEN
 10
258.6546038318809
 20
57.60630140145439
 30
0.0
 41
3.0
 42
3.0
 43
3.0
  0
MTEXT
  5
D35
330
4F0
100
AcDbEntity
  8
SUNPOU
 62
     4
100
AcDbMText
 10
253.6546038318809
 20
60.10630140145439
 30
0.0
 40
3.0
 41
0.0
 71
     5
 72
     1
  1
\A1;10
  0
POINT
  5
D36
330
4F0
100
AcDbEntity
  8
DEFPOINTS
 62
     0
100
AcDbPoint
 10
248.6546038318809
 20
97.18367171140764
 30
0.0
  0
POINT
  5
D37
330
4F0
100
AcDbEntity
  8
DEFPOINTS
 62
     0
100
AcDbPoint
 10
258.6546038318809
 20
97.18368469842065
 30
0.0
  0
POINT
  5
D38
330
4F0
100
AcDbEntity
  8
DEFPOINTS
 62
     0
100
AcDbPoint
 10
258.6546038318809
 20
57.60630140145439
 30
0.0
  0
ENDBLK
  5
4FB
330
4F0
100
AcDbEntity
  8
0
100
AcDbBlockEnd
  0
BLOCK
  5
52E
330
524
100
AcDbEntity
  8
0
100
AcDbBlockBegin
  2
*D9
 70
     1
 10
0.0
 20
0.0
 30
0.0
  3
*D9
  1

  0
LINE
  5
D39
330
524
100
AcDbEntity
  8
SUNPOU
 62
     4
100
AcDbLine
 10
258.6546038318809
 20
94.18368469842064
 30
0.0
 11
258.6546038318809
 21
56.10630140145438
 31
0.0
  0
LINE
  5
D3A
330
524
100
AcDbEntity
  8
SUNPOU
 62
     4
100
AcDbLine
 10
268.6545976997926
 20
93.43367327107555
 30
0.0
 11
268.6545976997926
 21
56.10630140145438
 31
0.0
  0
LINE
  5
D3B
330
524
100
AcDbEntity
  8
SUNPOU
 62
     4
100
AcDbLine
 10
261.6546038318809
 20
57.60630140145439
 30
0.0
 11
265.6545976997926
 21
57.60630140145439
 31
0.0
  0
INSERT
  5
D3C
330
524
100
AcDbEntity
  8
SUNPOU
 62
     4
100
AcDbBlockReference
  2
_OPEN
 10
258.6546038318809
 20
57.60630140145439
 30
0.0
 41
3.0
 42
3.0
 43
3.0
 50
180.0
  0
INSERT
  5
D3D
330
524
100
AcDbEntity
  8
SUNPOU
 62
     4
100
AcDbBlockReference
  2
_OPEN
 10
268.6545976997926
 20
57.60630140145439
 30
0.0
 41
3.0
 42
3.0
 43
3.0
  0
MTEXT
  5
D3E
330
524
100
AcDbEntity
  8
SUNPOU
 62
     4
100
AcDbMText
 10
263.6546007658367
 20
60.10630140145439
 30
0.0
 40
3.0
 41
0.0
 71
     5
 72
     1
  1
\A1;10
  0
POINT
  5
D3F
330
524
100
AcDbEntity
  8
DEFPOINTS
 62
     0
100
AcDbPoint
 10
258.6546038318809
 20
97.18368469842065
 30
0.0
  0
POINT
  5
D40
330
524
100
AcDbEntity
  8
DEFPOINTS
 62
     0
100
AcDbPoint
 10
268.6545976997926
 20
96.43367327107556
 30
0.0
  0
POINT
  5
D41
330
524
100
AcDbEntity
  8
DEFPOINTS
 62
     0
100
AcDbPoint
 10
268.6545976997926
 20
57.60630140145439
 30
0.0
  0
ENDBLK
  5
52F
330
524
100
AcDbEntity
  8
0
100
AcDbBlockEnd
  0
BLOCK
  5
82C
330
822
100
AcDbEntity
  8
0
100
AcDbBlockBegin
  2
*D10
 70
     1
 10
0.0
 20
0.0
 30
0.0
  3
*D10
  1

  0
LINE
  5
CDB
330
822
100
AcDbEntity
  8
SUNPOU
100
AcDbLine
 10
224.8553767220162
 20
83.98375582997182
 30
0.0
 11
224.8553767220162
 21
56.10630140145438
 31
0.0
  0
LINE
  5
CDC
330
822
100
AcDbEntity
  8
SUNPOU
100
AcDbLine
 10
248.6546038318809
 20
94.18367171140763
 30
0.0
 11
248.6546038318809
 21
56.10630140145438
 31
0.0
  0
LINE
  5
CDD
330
822
100
AcDbEntity
  8
SUNPOU
100
AcDbLine
 10
227.8553767220162
 20
57.60630140145439
 30
0.0
 11
245.6546038318809
 21
57.60630140145439
 31
0.0
  0
INSERT
  5
CDE
330
822
100
AcDbEntity
  8
SUNPOU
100
AcDbBlockReference
  2
_OPEN
 10
224.8553767220162
 20
57.60630140145439
 30
0.0
 41
3.0
 42
3.0
 43
3.0
 50
180.0
  0
INSERT
  5
CDF
330
822
100
AcDbEntity
  8
SUNPOU
100
AcDbBlockReference
  2
_OPEN
 10
248.6546038318809
 20
57.60630140145439
 30
0.0
 41
3.0
 42
3.0
 43
3.0
  0
MTEXT
  5
CE0
330
822
100
AcDbEntity
  8
SUNPOU
100
AcDbMText
 10
236.7549902769486
 20
60.10630140145439
 30
0.0
 40
3.0
 41
0.0
 71
     5
 72
     1
  1
\A1;24
1001
ACAD
1000
MTEXTBEGIN
1070
    73
1070
     1
1070
    44
1040
1.0
1070
    74
1070
     0
1000
MTEXTEND
  0
POINT
  5
CE1
330
822
100
AcDbEntity
  8
DEFPOINTS
 62
     0
100
AcDbPoint
 10
224.8553767220162
 20
86.98375582997183
 30
0.0
  0
POINT
  5
CE2
330
822
100
AcDbEntity
  8
DEFPOINTS
 62
     0
100
AcDbPoint
 10
248.6546038318809
 20
97.18367171140764
 30
0.0
  0
POINT
  5
CE3
330
822
100
AcDbEntity
  8
DEFPOINTS
 62
     0
100
AcDbPoint
 10
248.6546038318809
 20
57.60630140145439
 30
0.0
  0
ENDBLK
  5
82D
330
822
100
AcDbEntity
  8
0
100
AcDbBlockEnd
  0
ENDSEC
  0
SECTION
  2
ENTITIES
  0
LINE
  5
25D
330
1A
100
AcDbEntity
  8
SEIHIN
  6
CONTINUOUS
 62
     3
 48
5.0
100
AcDbLine
 10
207.1555767220161
 20
226.4837558299717
 30
0.0
 11
161.1552767220162
 21
226.4837558299717
 31
0.0
  0
LINE
  5
25E
330
1A
100
AcDbEntity
  8
SEIHIN
  6
CONTINUOUS
 62
     3
 48
5.0
100
AcDbLine
 10
207.1555767220161
 20
213.4837558299717
 30
0.0
 11
161.1552767220162
 21
213.4837558299717
 31
0.0
  0
ARC
  5
260
330
1A
100
AcDbEntity
  8
SEIHIN
  6
CONTINUOUS
 62
     3
 48
5.0
100
AcDbCircle
 10
207.1554767220162
 20
135.8336558299717
 30
0.0
 40
3.0
100
AcDbArc
 50
90.0
 51
180.0
  0
LINE
  5
261
330
1A
100
AcDbEntity
  8
SEIHIN
  6
CONTINUOUS
 62
     3
 48
5.0
100
AcDbLine
 10
205.1552767220161
 20
65.14665582997182
 30
0.0
 11
205.7191767220161
 21
65.14665582997182
 31
0.0
  0
ARC
  5
262
330
1A
100
AcDbEntity
  8
SEIHIN
  6
CONTINUOUS
 62
     3
 48
5.0
100
AcDbCircle
 10
208.1552767220162
 20
62.63375582997181
 30
0.0
 40
3.499969
100
AcDbArc
 50
92.38751200000001
 51
270.0
  0
LINE
  5
263
330
1A
100
AcDbEntity
  8
SEIHIN
  6
CONTINUOUS
 62
     3
 48
5.0
100
AcDbLine
 10
173.2552767220162
 20
66.63385582997182
 30
0.0
 11
206.9125767220162
 21
66.63375582997182
 31
0.0
  0
LINE
  5
264
330
1A
100
AcDbEntity
  8
SEIHIN
  6
CONTINUOUS
 62
     3
 48
5.0
100
AcDbLine
 10
173.2552767220162
 20
67.63385582997182
 30
0.0
 11
205.8637767220162
 21
67.63375582997182
 31
0.0
  0
LINE
  5
267
330
1A
100
AcDbEntity
  8
SEIHIN
  6
CONTINUOUS
 62
     3
 48
5.0
100
AcDbLine
 10
236.8553767220162
 20
228.9837558299717
 30
0.0
 11
162.1552767220161
 21
228.9837558299717
 31
0.0
  0
LINE
  5
268
330
1A
100
AcDbEntity
  8
CENTER_L
  6
CENTER
 62
     1
 48
5.0
100
AcDbLine
 10
326.6691484368426
 20
219.9836605345941
 30
0.0
 11
152.3450767220161
 21
219.9838558299717
 31
0.0
  0
LINE
  5
269
330
1A
100
AcDbEntity
  8
SEIHIN
  6
CONTINUOUS
 62
     3
 48
5.0
100
AcDbLine
 10
236.8553767220162
 20
210.9837558299717
 30
0.0
 11
162.1552767220161
 21
210.9837558299717
 31
0.0
  0
LINE
  5
26A
330
1A
100
AcDbEntity
  8
SEIHIN
  6
CONTINUOUS
 62
     3
 48
5.0
100
AcDbLine
 10
199.5054767220162
 20
130.3336558299717
 30
0.0
 11
211.1554767220162
 21
130.3336558299717
 31
0.0
  0
LINE
  5
26B
330
1A
100
AcDbEntity
  8
SEIHIN
  6
CONTINUOUS
 62
     3
 48
5.0
100
AcDbLine
 10
211.1552767220162
 20
69.63375582997182
 30
0.0
 11
199.5053767220161
 21
69.63375582997182
 31
0.0
  0
LINE
  5
26C
330
1A
100
AcDbEntity
  8
CENTER_L
  6
CENTER
 62
     1
 48
5.0
100
AcDbLine
 10
326.6684767220162
 20
99.98395582997178
 30
0.0
 11
155.1312767220162
 21
99.98375582997178
 31
0.0
  0
LINE
  5
274
330
1A
100
AcDbEntity
  8
SEIHIN
  6
CONTINUOUS
 62
     3
 48
5.0
100
AcDbLine
 10
81.07047672201625
 20
140.8337558299717
 30
0.0
 11
63.07057672201626
 21
140.8338558299717
 31
0.0
  0
LINE
  5
275
330
1A
100
AcDbEntity
  8
SEIHIN
  6
CONTINUOUS
 62
     3
 48
5.0
100
AcDbLine
 10
81.07047672201625
 20
138.8339558299717
 30
0.0
 11
63.07047672201625
 21
138.8339558299717
 31
0.0
  0
LINE
  5
276
330
1A
100
AcDbEntity
  8
SEIHIN
  6
CONTINUOUS
 62
     3
 48
5.0
100
AcDbLine
 10
78.57047672201625
 20
124.1953558299717
 30
0.0
 11
65.57037672201625
 21
124.1954558299718
 31
0.0
  0
LINE
  5
277
330
1A
100
AcDbEntity
  8
SEIHIN
  6
CONTINUOUS
 62
     3
 48
5.0
100
AcDbLine
 10
78.57047672201625
 20
133.3338558299717
 30
0.0
 11
65.57037672201625
 21
133.3339558299717
 31
0.0
  0
LINE
  5
278
330
1A
100
AcDbEntity
  8
SEIHIN
  6
CONTINUOUS
 62
     3
 48
5.0
100
AcDbLine
 10
78.57037672201625
 20
75.77245582997182
 30
0.0
 11
65.57037672201625
 21
75.77255582997182
 31
0.0
  0
LINE
  5
279
330
1A
100
AcDbEntity
  8
SEIHIN
  6
CONTINUOUS
 62
     3
 48
5.0
100
AcDbLine
 10
75.57037672201625
 20
65.14685582997183
 30
0.0
 11
68.57037672201625
 21
65.14685582997183
 31
0.0
  0
LINE
  5
27B
330
1A
100
AcDbEntity
  8
SEIHIN
  6
CONTINUOUS
 62
     3
 48
5.0
100
AcDbLine
 10
78.57037672201625
 20
66.63385582997182
 30
0.0
 11
65.57037672201625
 21
66.63395582997182
 31
0.0
  0
LINE
  5
27C
330
1A
100
AcDbEntity
  8
SEIHIN
  6
CONTINUOUS
 62
     3
 48
5.0
100
AcDbLine
 10
78.57037672201625
 20
59.13385582997182
 30
0.0
 11
65.57037672201625
 21
59.13385582997182
 31
0.0
  0
LINE
  5
27D
330
1A
100
AcDbEntity
  8
CENTER_L
  6
CENTER
 62
     1
 48
5.0
100
AcDbLine
 10
86.75087672201627
 20
99.9838558299718
 30
0.0
 11
57.59317672201627
 21
99.9838558299718
 31
0.0
  0
LINE
  5
27F
330
1A
100
AcDbEntity
  8
SEIHIN
  6
CONTINUOUS
 62
     3
 48
5.0
100
AcDbLine
 10
63.07037672201625
 20
60.63385582997181
 30
0.0
 11
65.57037672201625
 21
59.13385582997182
 31
0.0
  0
LINE
  5
281
330
1A
100
AcDbEntity
  8
SEIHIN
  6
CONTINUOUS
 62
     3
 48
5.0
100
AcDbLine
 10
65.57037672201625
 20
136.0836573273032
 30
0.0
 11
65.57037672201625
 21
66.63395582997182
 31
0.0
  0
LINE
  5
282
330
1A
100
AcDbEntity
  8
CENTER_L
  6
CENTER
 62
     1
 48
5.0
100
AcDbLine
 10
72.07057672201625
 20
146.5740558299717
 30
0.0
 11
72.07037672201625
 21
51.6889558299718
 31
0.0
  0
LINE
  5
285
330
1A
100
AcDbEntity
  8
SEIHIN
  6
CONTINUOUS
 62
     3
 48
5.0
100
AcDbLine
 10
63.07037672201625
 20
60.63385582997181
 30
0.0
 11
63.07037672201625
 21
140.8337558299717
 31
0.0
  0
LINE
  5
286
330
1A
100
AcDbEntity
  8
SEIHIN
  6
CONTINUOUS
 62
     3
 48
5.0
100
AcDbLine
 10
63.07047672201625
 20
68.13395582997182
 30
0.0
 11
65.57037672201625
 21
66.63395582997182
 31
0.0
  0
LINE
  5
287
330
1A
100
AcDbEntity
  8
SEIHIN
  6
CONTINUOUS
 62
     3
 48
5.0
100
AcDbLine
 10
68.57037672201625
 20
65.14665582997182
 30
0.0
 11
68.57037672201625
 21
66.63385582997182
 31
0.0
  0
LINE
  5
288
330
1A
100
AcDbEntity
  8
SEIHIN
  6
CONTINUOUS
 62
     3
 48
5.0
100
AcDbLine
 10
63.07037672201625
 20
77.27255582997182
 30
0.0
 11
65.57037672201625
 21
75.77255582997182
 31
0.0
  0
LINE
  5
289
330
1A
100
AcDbEntity
  8
SEIHIN
  6
CONTINUOUS
 62
     3
 48
5.0
100
AcDbLine
 10
65.57037672201625
 20
124.1954558299718
 30
0.0
 11
63.07037672201625
 21
122.6954558299717
 31
0.0
  0
LINE
  5
28A
330
1A
100
AcDbEntity
  8
SEIHIN
  6
CONTINUOUS
 62
     3
 48
5.0
100
AcDbLine
 10
65.57037672201625
 20
133.3339558299717
 30
0.0
 11
63.07037672201625
 21
131.8339558299717
 31
0.0
  0
LINE
  5
28B
330
1A
100
AcDbEntity
  8
SEIHIN
  6
CONTINUOUS
 62
     3
 48
5.0
100
AcDbLine
 10
68.57037672201625
 20
138.8336558299717
 30
0.0
 11
68.57037672201625
 21
140.8336558299717
 31
0.0
  0
LINE
  5
28E
330
1A
100
AcDbEntity
  8
SEIHIN
  6
CONTINUOUS
 62
     3
 48
5.0
100
AcDbLine
 10
78.57047672201625
 20
59.13385582997182
 30
0.0
 11
81.07047672201625
 21
60.63385582997181
 31
0.0
  0
LINE
  5
290
330
1A
100
AcDbEntity
  8
SEIHIN
  6
CONTINUOUS
 62
     3
 48
5.0
100
AcDbLine
 10
78.57047672201625
 20
136.0836573273032
 30
0.0
 11
78.57047672201625
 21
66.6338558292026
 31
0.0
  0
LINE
  5
299
330
1A
100
AcDbEntity
  8
SEIHIN
  6
CONTINUOUS
 62
     3
 48
5.0
100
AcDbLine
 10
81.07047672201625
 20
60.63385582997181
 30
0.0
 11
81.07047672201625
 21
140.8337558299717
 31
0.0
  0
LINE
  5
29A
330
1A
100
AcDbEntity
  8
SEIHIN
  6
CONTINUOUS
 62
     3
 48
5.0
100
AcDbLine
 10
75.57037672201625
 20
65.14665582997182
 30
0.0
 11
75.57037672201625
 21
66.63385582997182
 31
0.0
  0
LINE
  5
29B
330
1A
100
AcDbEntity
  8
SEIHIN
  6
CONTINUOUS
 62
     3
 48
5.0
100
AcDbLine
 10
78.57047672201625
 20
66.63385582997182
 30
0.0
 11
81.07047672201625
 21
68.13385582997182
 31
0.0
  0
LINE
  5
29C
330
1A
100
AcDbEntity
  8
SEIHIN
  6
CONTINUOUS
 62
     3
 48
5.0
100
AcDbLine
 10
78.57047672201625
 20
75.77255582997182
 30
0.0
 11
81.07047672201625
 21
77.27255582997182
 31
0.0
  0
LINE
  5
2A1
330
1A
100
AcDbEntity
  8
SEIHIN
  6
CONTINUOUS
 62
     3
 48
5.0
100
AcDbLine
 10
81.07047672201625
 20
122.6953558299717
 30
0.0
 11
78.57047672201625
 21
124.1953558299717
 31
0.0
  0
LINE
  5
2A2
330
1A
100
AcDbEntity
  8
SEIHIN
  6
CONTINUOUS
 62
     3
 48
5.0
100
AcDbLine
 10
81.07047672201625
 20
131.8339558299717
 30
0.0
 11
78.57047672201625
 21
133.3338558299717
 31
0.0
  0
LINE
  5
2A3
330
1A
100
AcDbEntity
  8
SEIHIN
  6
CONTINUOUS
 62
     3
 48
5.0
100
AcDbLine
 10
75.57037672201625
 20
138.8336558299717
 30
0.0
 11
75.57037672201625
 21
140.8336558299717
 31
0.0
  0
LINE
  5
2A8
330
1A
100
AcDbEntity
  8
SEIHIN
  6
CONTINUOUS
 62
     3
 48
5.0
100
AcDbLine
 10
161.1552767220162
 20
99.9838558299718
 30
0.0
 11
161.1553767220162
 21
121.2338558299717
 31
0.0
  0
LINE
  5
2A9
330
1A
100
AcDbEntity
  8
SEIHIN
  6
CONTINUOUS
 62
     3
 48
5.0
100
AcDbLine
 10
162.1552767220161
 20
99.9838558299718
 30
0.0
 11
162.1553767220162
 21
121.2338558299717
 31
0.0
  0
LINE
  5
2AA
330
1A
100
AcDbEntity
  8
SEIHIN
  6
CONTINUOUS
 62
     3
 48
5.0
100
AcDbLine
 10
164.1552767220162
 20
99.9838558299718
 30
0.0
 11
164.1553767220162
 21
119.6475558299717
 31
0.0
  0
ARC
  5
2AD
330
1A
100
AcDbEntity
  8
SEIHIN
  6
CONTINUOUS
 62
     3
 48
5.0
100
AcDbCircle
 10
173.2552767220162
 20
69.63385582997182
 30
0.0
 40
3.000041999999998
100
AcDbArc
 50
189.1989
 51
270.0
  0
ARC
  5
2AE
330
1A
100
AcDbEntity
  8
SEIHIN
  6
CONTINUOUS
 62
     3
 48
5.0
100
AcDbCircle
 10
173.2552767220162
 20
69.63385582997182
 30
0.0
 40
2.000016999999999
100
AcDbArc
 50
189.2009379999999
 51
270.0
  0
ARC
  5
2AF
330
1A
100
AcDbEntity
  8
SEIHIN
  6
CONTINUOUS
 62
     3
 48
5.0
100
AcDbCircle
 10
162.3966767220162
 20
67.87535582997183
 30
0.0
 40
9.000002
100
AcDbArc
 50
9.199104
 51
80.800794
  0
ARC
  5
2B0
330
1A
100
AcDbEntity
  8
SEIHIN
  6
CONTINUOUS
 62
     3
 48
5.0
100
AcDbCircle
 10
162.3966767220162
 20
67.87535582997183
 30
0.0
 40
11.000022
100
AcDbArc
 50
16.80506099999999
 51
73.194788
  0
LINE
  5
2B1
330
1A
100
AcDbEntity
  8
SEIHIN
  6
CONTINUOUS
 62
     3
 48
5.0
100
AcDbLine
 10
161.1552767220162
 20
99.9838558299718
 30
0.0
 11
161.1552767220162
 21
78.7338558299718
 31
0.0
  0
LINE
  5
2B2
330
1A
100
AcDbEntity
  8
SEIHIN
  6
CONTINUOUS
 62
     3
 48
5.0
100
AcDbLine
 10
162.1552767220161
 20
99.9838558299718
 30
0.0
 11
162.1552767220161
 21
78.7338558299718
 31
0.0
  0
LINE
  5
2B3
330
1A
100
AcDbEntity
  8
SEIHIN
  6
CONTINUOUS
 62
     3
 48
5.0
100
AcDbLine
 10
164.1552767220162
 20
99.9838558299718
 30
0.0
 11
164.1552767220162
 21
80.32015582997182
 31
0.0
  0
ARC
  5
2B4
330
1A
100
AcDbEntity
  8
SEIHIN
  6
CONTINUOUS
 62
     3
 48
5.0
100
AcDbCircle
 10
162.3966767220162
 20
67.87535582997183
 30
0.0
 40
7.999994
100
AcDbArc
 50
9.198932
 51
80.80036099999999
  0
ARC
  5
2B5
330
1A
100
AcDbEntity
  8
SEIHIN
  6
CONTINUOUS
 62
     3
 48
5.0
100
AcDbCircle
 10
166.1552767220162
 20
80.32015582997182
 30
0.0
 40
2.000016
100
AcDbArc
 50
180.0
 51
253.193194
  0
ARC
  5
2B6
330
1A
100
AcDbEntity
  8
SEIHIN
  6
CONTINUOUS
 62
     3
 48
5.0
100
AcDbCircle
 10
164.1552767220162
 20
78.7338558299718
 30
0.0
 40
2.000016999999999
100
AcDbArc
 50
180.0
 51
260.7990619999999
  0
ARC
  5
2B7
330
1A
100
AcDbEntity
  8
SEIHIN
  6
CONTINUOUS
 62
     3
 48
5.0
100
AcDbCircle
 10
164.1552767220162
 20
78.7338558299718
 30
0.0
 40
2.999991999999998
100
AcDbArc
 50
180.0
 51
260.8007939999999
  0
LINE
  5
2B8
330
1A
100
AcDbEntity
  8
SEIHIN
  6
CONTINUOUS
 62
     3
 48
5.0
100
AcDbLine
 10
174.8415767220162
 20
69.63385582997182
 30
0.0
 11
189.5053767220162
 21
69.63375582997182
 31
0.0
  0
ARC
  5
2BC
330
1A
100
AcDbEntity
  8
SEIHIN
  6
CONTINUOUS
 62
     3
 48
5.0
100
AcDbCircle
 10
174.8415767220162
 20
71.63385582997182
 30
0.0
 40
2.000016
100
AcDbArc
 50
196.8068059999999
 51
270.0
  0
LINE
  5
2BD
330
1A
100
AcDbEntity
  8
SEIHIN
  6
CONTINUOUS
 62
     3
 48
5.0
100
AcDbLine
 10
198.5053767220162
 20
70.63385582997182
 30
0.0
 11
190.5053767220162
 21
70.63385582997182
 31
0.0
  0
ARC
  5
2BE
330
1A
100
AcDbEntity
  8
SEIHIN
  6
CONTINUOUS
 62
     3
 48
5.0
100
AcDbCircle
 10
190.5053767220162
 20
69.63385582997182
 30
0.0
 40
1.0
100
AcDbArc
 50
90.0
 51
180.0
  0
LINE
  5
2BF
330
1A
100
AcDbEntity
  8
SEIHIN
  6
CONTINUOUS
 62
     3
 48
5.0
100
AcDbLine
 10
205.1552767220161
 20
65.13375582997182
 30
0.0
 11
205.1552767220161
 21
66.63375582997182
 31
0.0
  0
ARC
  5
2C0
330
1A
100
AcDbEntity
  8
SEIHIN
  6
CONTINUOUS
 62
     3
 48
5.0
100
AcDbCircle
 10
198.5053767220162
 20
69.63385582997182
 30
0.0
 40
1.0
100
AcDbArc
 50
359.99427
 51
90.0
  0
ARC
  5
2C1
330
1A
100
AcDbEntity
  8
SEIHIN
  6
CONTINUOUS
 62
     3
 48
5.0
100
AcDbCircle
 10
173.2553767220162
 20
130.3336558299717
 30
0.0
 40
2.999991999999998
100
AcDbArc
 50
90.0
 51
170.8007939999999
  0
ARC
  5
2C2
330
1A
100
AcDbEntity
  8
SEIHIN
  6
CONTINUOUS
 62
     3
 48
5.0
100
AcDbCircle
 10
173.2553767220162
 20
130.3336558299717
 30
0.0
 40
2.000016999999999
100
AcDbArc
 50
90.0
 51
170.799062
  0
ARC
  5
2C3
330
1A
100
AcDbEntity
  8
SEIHIN
  6
CONTINUOUS
 62
     3
 48
5.0
100
AcDbCircle
 10
162.3968767220162
 20
132.0923558299717
 30
0.0
 40
8.999945
100
AcDbArc
 50
279.198577
 51
350.800794
  0
ARC
  5
2C4
330
1A
100
AcDbEntity
  8
SEIHIN
  6
CONTINUOUS
 62
     3
 48
5.0
100
AcDbCircle
 10
162.3968767220162
 20
132.0923558299717
 30
0.0
 40
10.999911
100
AcDbArc
 50
286.8047129999999
 51
343.1946379999998
  0
ARC
  5
2C5
330
1A
100
AcDbEntity
  8
SEIHIN
  6
CONTINUOUS
 62
     3
 48
5.0
100
AcDbCircle
 10
162.3968767220162
 20
132.0923558299717
 30
0.0
 40
7.999985999999998
100
AcDbArc
 50
279.1989319999998
 51
350.801068
  0
ARC
  5
2C6
330
1A
100
AcDbEntity
  8
SEIHIN
  6
CONTINUOUS
 62
     3
 48
5.0
100
AcDbCircle
 10
166.1553767220162
 20
119.6475558299717
 30
0.0
 40
2.000000999999999
100
AcDbArc
 50
106.8040639999999
 51
180.0
  0
ARC
  5
2C7
330
1A
100
AcDbEntity
  8
SEIHIN
  6
CONTINUOUS
 62
     3
 48
5.0
100
AcDbCircle
 10
164.1553767220162
 20
121.2338558299717
 30
0.0
 40
2.999991999999998
100
AcDbArc
 50
99.19920600000002
 51
180.0
  0
ARC
  5
2C8
330
1A
100
AcDbEntity
  8
SEIHIN
  6
CONTINUOUS
 62
     3
 48
5.0
100
AcDbCircle
 10
164.1553767220162
 20
121.2338558299717
 30
0.0
 40
2.000008999999999
100
AcDbArc
 50
99.19811000000002
 51
180.0
  0
ARC
  5
2C9
330
1A
100
AcDbEntity
  8
SEIHIN
  6
CONTINUOUS
 62
     3
 48
5.0
100
AcDbCircle
 10
198.5053767220162
 20
130.3336558299717
 30
0.0
 40
1.0
100
AcDbArc
 50
270.0
 51
0.0
  0
ARC
  5
2CA
330
1A
100
AcDbEntity
  8
SEIHIN
  6
CONTINUOUS
 62
     3
 48
5.0
100
AcDbCircle
 10
190.5053767220162
 20
130.3336558299717
 30
0.0
 40
1.0
100
AcDbArc
 50
180.0
 51
270.0
  0
ARC
  5
2CB
330
1A
100
AcDbEntity
  8
SEIHIN
  6
CONTINUOUS
 62
     3
 48
5.0
100
AcDbCircle
 10
174.8416767220162
 20
128.3336558299717
 30
0.0
 40
2.000062999999999
100
AcDbArc
 50
90.0
 51
163.1940219999999
  0
LINE
  5
2CF
330
1A
100
AcDbEntity
  8
SEIHIN
  6
CONTINUOUS
 62
     3
 48
5.0
100
AcDbLine
 10
198.5053767220162
 20
129.3336558299717
 30
0.0
 11
190.5053767220162
 21
129.3336558299717
 31
0.0
  0
LINE
  5
2D0
330
1A
100
AcDbEntity
  8
SEIHIN
  6
CONTINUOUS
 62
     3
 48
5.0
100
AcDbLine
 10
174.8416767220162
 20
130.3336558299717
 30
0.0
 11
189.5053767220162
 21
130.3336558299717
 31
0.0
  0
LINE
  5
2D1
330
1A
100
AcDbEntity
  8
SEIHIN
  6
CONTINUOUS
 62
     3
 48
5.0
100
AcDbLine
 10
173.2553767220162
 20
133.3336558299717
 30
0.0
 11
201.1763767220162
 21
133.3336558299717
 31
0.0
  0
LINE
  5
2D2
330
1A
100
AcDbEntity
  8
SEIHIN
  6
CONTINUOUS
 62
     3
 48
5.0
100
AcDbLine
 10
173.2553767220162
 20
132.3336558299717
 30
0.0
 11
201.1554767220162
 21
132.3336558299717
 31
0.0
  0
ARC
  5
2D3
330
1A
100
AcDbEntity
  8
SEIHIN
  6
CONTINUOUS
 62
     3
 48
5.0
100
AcDbCircle
 10
201.1763767220162
 20
136.3336558299717
 30
0.0
 40
3.000016999999998
100
AcDbArc
 50
270.0
 51
355.219864
  0
LINE
  5
2D4
330
1A
100
AcDbEntity
  8
SEIHIN
  6
CONTINUOUS
 62
     3
 48
5.0
100
AcDbLine
 10
204.1554767220161
 20
135.3336558299717
 30
0.0
 11
204.1554767220161
 21
135.8336558299717
 31
0.0
  0
ARC
  5
2D5
330
1A
100
AcDbEntity
  8
SEIHIN
  6
CONTINUOUS
 62
     3
 48
5.0
100
AcDbCircle
 10
201.1554767220162
 20
135.3336558299717
 30
0.0
 40
3.0
100
AcDbArc
 50
270.0
 51
0.0
  0
LINE
  5
2E7
330
1A
100
AcDbEntity
  8
SEIHIN
  6
CONTINUOUS
 62
     3
 48
5.0
100
AcDbLine
 10
170.5233767220162
 20
226.4837558299717
 30
0.0
 11
170.5233767220162
 21
219.9837558299717
 31
0.0
  0
LINE
  5
2E8
330
1A
100
AcDbEntity
  8
SEIHIN
  6
CONTINUOUS
 62
     3
 48
5.0
100
AcDbLine
 10
161.1552767220162
 20
219.9837558299717
 30
0.0
 11
161.1552767220162
 21
226.4836558299717
 31
0.0
  0
LINE
  5
2E9
330
1A
100
AcDbEntity
  8
SEIHIN
  6
CONTINUOUS
 62
     3
 48
5.0
100
AcDbLine
 10
170.5233767220162
 20
213.4837558299717
 30
0.0
 11
171.5233767220162
 21
210.9837558299717
 31
0.0
  0
LINE
  5
2EA
330
1A
100
AcDbEntity
  8
SEIHIN
  6
CONTINUOUS
 62
     3
 48
5.0
100
AcDbLine
 10
161.1552767220162
 20
213.4837558299717
 30
0.0
 11
162.1552767220161
 21
210.9837558299717
 31
0.0
  0
LINE
  5
2EB
330
1A
100
AcDbEntity
  8
SEIHIN
  6
CONTINUOUS
 62
     3
 48
5.0
100
AcDbLine
 10
161.1552767220162
 20
219.9837558299717
 30
0.0
 11
161.1552767220162
 21
213.4838558299717
 31
0.0
  0
LINE
  5
2EC
330
1A
100
AcDbEntity
  8
SEIHIN
  6
CONTINUOUS
 62
     3
 48
5.0
100
AcDbLine
 10
170.5233767220162
 20
213.4837558299717
 30
0.0
 11
170.5233767220162
 21
219.9837558299717
 31
0.0
  0
LINE
  5
2ED
330
1A
100
AcDbEntity
  8
SEIHIN
  6
CONTINUOUS
 62
     3
 48
5.0
100
AcDbLine
 10
161.1552767220162
 20
226.4837558299717
 30
0.0
 11
162.1552767220161
 21
228.9837558299717
 31
0.0
  0
LINE
  5
2EE
330
1A
100
AcDbEntity
  8
SEIHIN
  6
CONTINUOUS
 62
     3
 48
5.0
100
AcDbLine
 10
170.5233767220162
 20
226.4837558299717
 30
0.0
 11
171.5233767220162
 21
228.9837558299717
 31
0.0
  0
ARC
  5
2FA
330
1A
100
AcDbEntity
  8
SEIHIN
  6
CONTINUOUS
 62
     3
 48
5.0
100
AcDbCircle
 10
211.1552767220162
 20
65.13375582997182
 30
0.0
 40
6.000027999999998
100
AcDbArc
 50
270.0
 51
343.1481919999999
  0
ARC
  5
2FB
330
1A
100
AcDbEntity
  8
SEIHIN
  6
CONTINUOUS
 62
     3
 48
5.0
100
AcDbCircle
 10
211.1552767220162
 20
65.13375582997182
 30
0.0
 40
5.000007
100
AcDbArc
 50
270.0
 51
343.1480819999998
  0
LINE
  5
2FC
330
1A
100
AcDbEntity
  8
SEIHIN
  6
CONTINUOUS
 62
     3
 48
5.0
100
AcDbLine
 10
205.7057767220162
 20
60.13375582997181
 30
0.0
 11
211.1552767220162
 21
60.13375582997181
 31
0.0
  0
LINE
  5
2FD
330
1A
100
AcDbEntity
  8
SEIHIN
  6
CONTINUOUS
 62
     3
 48
5.0
100
AcDbLine
 10
208.1552767220162
 20
59.13375582997179
 30
0.0
 11
211.1552767220162
 21
59.13375582997179
 31
0.0
  0
ARC
  5
305
330
1A
100
AcDbEntity
  8
SEIHIN
  6
CONTINUOUS
 62
     3
 48
5.0
100
AcDbCircle
 10
233.8553767220162
 20
111.9837558299717
 30
0.0
 40
6.0
100
AcDbArc
 50
180.0
 51
270.0
  0
ARC
  5
306
330
1A
100
AcDbEntity
  8
SEIHIN
  6
CONTINUOUS
 62
     3
 48
5.0
100
AcDbCircle
 10
233.8553767220162
 20
111.9837558299717
 30
0.0
 40
5.0
100
AcDbArc
 50
180.0
 51
270.0
  0
LINE
  5
307
330
1A
100
AcDbEntity
  8
SEIHIN
  6
CONTINUOUS
 62
     3
 48
5.0
100
AcDbLine
 10
225.8553767220162
 20
113.9837558299717
 30
0.0
 11
225.8553767220162
 21
99.98375582997178
 31
0.0
  0
LINE
  5
308
330
1A
100
AcDbEntity
  8
SEIHIN
  6
CONTINUOUS
 62
     3
 48
5.0
100
AcDbLine
 10
224.8553767220162
 20
100.4837558299717
 30
0.0
 11
224.8554767220161
 21
112.9837558299717
 31
0.0
  0
LINE
  5
30A
330
1A
100
AcDbEntity
  8
SEIHIN
  6
CONTINUOUS
 62
     3
 48
5.0
100
AcDbLine
 10
236.8553767220162
 20
92.98365582997178
 30
0.0
 11
236.8553767220162
 21
106.9836558299717
 31
0.0
  0
LINE
  5
30B
330
1A
100
AcDbEntity
  8
SEIHIN
  6
CONTINUOUS
 62
     3
 48
5.0
100
AcDbLine
 10
224.8553767220162
 20
84.98375582997182
 30
0.0
 11
224.8553767220162
 21
79.55385582997182
 31
0.0
  0
LINE
  5
30C
330
1A
100
AcDbEntity
  8
SEIHIN
  6
CONTINUOUS
 62
     3
 48
5.0
100
AcDbLine
 10
227.8553767220162
 20
87.98365582997183
 30
0.0
 11
227.8553767220162
 21
78.8489558299718
 31
0.0
  0
LINE
  5
30D
330
1A
100
AcDbEntity
  8
SEIHIN
  6
CONTINUOUS
 62
     3
 48
5.0
100
AcDbLine
 10
228.8553767220162
 20
87.98365582997183
 30
0.0
 11
228.8553767220162
 21
78.8489558299718
 31
0.0
  0
ARC
  5
30E
330
1A
100
AcDbEntity
  8
SEIHIN
  6
CONTINUOUS
 62
     3
 48
5.0
100
AcDbCircle
 10
226.6138767220162
 20
67.87515582997182
 30
0.0
 40
8.000040999999999
100
AcDbArc
 50
93.95366199999999
 51
163.148123
  0
ARC
  5
30F
330
1A
100
AcDbEntity
  8
SEIHIN
  6
CONTINUOUS
 62
     3
 48
5.0
100
AcDbCircle
 10
226.6138767220162
 20
67.87515582997182
 30
0.0
 40
9.000004999999998
100
AcDbArc
 50
93.95399000000002
 51
163.148008
  0
ARC
  5
310
330
1A
100
AcDbEntity
  8
SEIHIN
  6
CONTINUOUS
 62
     3
 48
5.0
100
AcDbCircle
 10
226.6138767220162
 20
67.87515582997182
 30
0.0
 40
10.999985
100
AcDbArc
 50
103.2896119999999
 51
166.7098809999998
  0
ARC
  5
311
330
1A
100
AcDbEntity
  8
SEIHIN
  6
CONTINUOUS
 62
     3
 48
5.0
100
AcDbCircle
 10
211.1552767220162
 20
65.13375582997182
 30
0.0
 40
4.500017999999998
100
AcDbArc
 50
33.74868699999999
 51
90.0
  0
ARC
  5
312
330
1A
100
AcDbEntity
  8
SEIHIN
  6
CONTINUOUS
 62
     3
 48
5.0
100
AcDbCircle
 10
211.1552767220162
 20
65.13375582997182
 30
0.0
 40
3.300016999999998
100
AcDbArc
 50
162.416658
 51
345.6786759999998
  0
ARC
  5
313
330
1A
100
AcDbEntity
  8
SEIHIN
  6
CONTINUOUS
 62
     3
 48
5.0
100
AcDbCircle
 10
211.1552767220162
 20
65.13375582997182
 30
0.0
 40
4.499986999999999
100
AcDbArc
 50
164.174232
 51
171.222377
  0
ARC
  5
314
330
1A
100
AcDbEntity
  8
SEIHIN
  6
CONTINUOUS
 62
     3
 48
5.0
100
AcDbCircle
 10
205.8637767220162
 20
66.63375582997182
 30
0.0
 40
1.000013999999998
100
AcDbArc
 50
344.169506
 51
90.0
  0
LINE
  5
315
330
1A
100
AcDbEntity
  8
SEIHIN
  6
CONTINUOUS
 62
     3
 48
5.0
100
AcDbLine
 10
218.9574767220162
 20
70.19435582997182
 30
0.0
 11
216.8976767220162
 21
63.39435582997179
 31
0.0
  0
LINE
  5
316
330
1A
100
AcDbEntity
  8
SEIHIN
  6
CONTINUOUS
 62
     3
 48
5.0
100
AcDbLine
 10
215.9557767220162
 20
70.59615582997182
 30
0.0
 11
214.3527767220162
 21
64.3174558299718
 31
0.0
  0
LINE
  5
317
330
1A
100
AcDbEntity
  8
SEIHIN
  6
CONTINUOUS
 62
     3
 48
5.0
100
AcDbLine
 10
218.0003767220162
 20
70.48425582997182
 30
0.0
 11
215.9406767220162
 21
63.68425582997182
 31
0.0
  0
LINE
  5
318
330
1A
100
AcDbEntity
  8
SEIHIN
  6
CONTINUOUS
 62
     3
 48
5.0
100
AcDbLine
 10
215.6274767220162
 20
65.63375582997181
 30
0.0
 11
215.6400767220162
 21
65.63375582997181
 31
0.0
  0
ARC
  5
319
330
1A
100
AcDbEntity
  8
SEIHIN
  6
CONTINUOUS
 62
     3
 48
5.0
100
AcDbCircle
 10
225.8553767220162
 20
78.84905582997179
 30
0.0
 40
2.000029999999999
100
AcDbArc
 50
273.9535629999999
 51
0.0
  0
ARC
  5
31A
330
1A
100
AcDbEntity
  8
SEIHIN
  6
CONTINUOUS
 62
     3
 48
5.0
100
AcDbCircle
 10
225.8553767220162
 20
78.84905582997179
 30
0.0
 40
3.000021999999998
100
AcDbArc
 50
273.954581
 51
359.9980899999998
  0
ARC
  5
31B
330
1A
100
AcDbEntity
  8
SEIHIN
  6
CONTINUOUS
 62
     3
 48
5.0
100
AcDbCircle
 10
223.8553767220162
 20
79.55385582997182
 30
0.0
 40
0.999993
100
AcDbArc
 50
283.291372
 51
0.0
  0
LINE
  5
31C
330
1A
100
AcDbEntity
  8
SEIHIN
  6
CONTINUOUS
 62
     3
 48
5.0
100
AcDbLine
 10
225.8553767220162
 20
85.98375582997183
 30
0.0
 11
225.8553767220162
 21
99.98375582997178
 31
0.0
  0
LINE
  5
31D
330
1A
100
AcDbEntity
  8
SEIHIN
  6
CONTINUOUS
 62
     3
 48
5.0
100
AcDbLine
 10
224.8553767220162
 20
99.48375582997179
 30
0.0
 11
224.8553767220162
 21
86.98375582997183
 31
0.0
  0
ARC
  5
31E
330
1A
100
AcDbEntity
  8
SEIHIN
  6
CONTINUOUS
 62
     3
 48
5.0
100
AcDbCircle
 10
233.8553767220162
 20
87.98375582997183
 30
0.0
 40
6.0
100
AcDbArc
 50
90.0
 51
180.0
  0
ARC
  5
31F
330
1A
100
AcDbEntity
  8
SEIHIN
  6
CONTINUOUS
 62
     3
 48
5.0
100
AcDbCircle
 10
233.8553767220162
 20
87.98375582997183
 30
0.0
 40
5.0
100
AcDbArc
 50
90.0
 51
180.0
  0
ARC
  5
320
330
1A
100
AcDbEntity
  8
SEIHIN
  6
CONTINUOUS
 62
     3
 48
5.0
100
AcDbCircle
 10
224.8553767220162
 20
85.98375582997183
 30
0.0
 40
1.0
100
AcDbArc
 50
270.0
 51
90.0
  0
LINE
  5
321
330
1A
100
AcDbEntity
  8
SEIHIN
  6
CONTINUOUS
 62
     3
 48
5.0
100
AcDbLine
 10
236.8553767220162
 20
93.98365582997177
 30
0.0
 11
233.8553767220162
 21
93.98375582997179
 31
0.0
  0
LINE
  5
322
330
1A
100
AcDbEntity
  8
SEIHIN
  6
CONTINUOUS
 62
     3
 48
5.0
100
AcDbLine
 10
236.8553767220162
 20
92.98365582997178
 30
0.0
 11
233.8553767220162
 21
92.98375582997179
 31
0.0
  0
LINE
  5
326
330
1A
100
AcDbEntity
  8
SEIHIN
  6
CONTINUOUS
 62
     3
 48
5.0
100
AcDbLine
 10
236.8553767220162
 20
105.9836558299717
 30
0.0
 11
233.8553767220162
 21
105.9837558299717
 31
0.0
  0
ARC
  5
32A
330
1A
100
AcDbEntity
  8
SEIHIN
  6
CONTINUOUS
 62
     3
 48
5.0
100
AcDbCircle
 10
213.6409767220162
 20
127.3336558299717
 30
0.0
 40
5.999997
100
AcDbArc
 50
20.487309
 51
63.81204399999999
  0
ARC
  5
32B
330
1A
100
AcDbEntity
  8
SEIHIN
  6
CONTINUOUS
 62
     3
 48
5.0
100
AcDbCircle
 10
213.6409767220162
 20
127.3336558299717
 30
0.0
 40
5.000015
100
AcDbArc
 50
20.48751
 51
63.860808
  0
ARC
  5
32C
330
1A
100
AcDbEntity
  8
SEIHIN
  6
CONTINUOUS
 62
     3
 48
5.0
100
AcDbCircle
 10
213.6409767220162
 20
127.3336558299717
 30
0.0
 40
2.999976999999999
100
AcDbArc
 50
20.487643
 51
90.0
  0
ARC
  5
32D
330
1A
100
AcDbEntity
  8
SEIHIN
  6
CONTINUOUS
 62
     3
 48
5.0
100
AcDbCircle
 10
226.7554767220162
 20
132.2336558299717
 30
0.0
 40
10.999978
100
AcDbArc
 50
200.4867299999999
 51
256.015173
  0
ARC
  5
32E
330
1A
100
AcDbEntity
  8
SEIHIN
  6
CONTINUOUS
 62
     3
 48
5.0
100
AcDbCircle
 10
226.7554767220162
 20
132.2336558299717
 30
0.0
 40
7.999964
100
AcDbArc
 50
200.487309
 51
265.3064819999999
  0
ARC
  5
32F
330
1A
100
AcDbEntity
  8
SEIHIN
  6
CONTINUOUS
 62
     3
 48
5.0
100
AcDbCircle
 10
226.7554767220162
 20
132.2336558299717
 30
0.0
 40
9.000013
100
AcDbArc
 50
200.4871979999999
 51
265.3066729999999
  0
LINE
  5
330
330
1A
100
AcDbEntity
  8
SEIHIN
  6
CONTINUOUS
 62
     3
 48
5.0
100
AcDbLine
 10
224.8554767220161
 20
114.9837558299717
 30
0.0
 11
224.8554767220161
 21
120.4136558299717
 31
0.0
  0
LINE
  5
331
330
1A
100
AcDbEntity
  8
SEIHIN
  6
CONTINUOUS
 62
     3
 48
5.0
100
AcDbLine
 10
227.8553767220162
 20
111.9836558299717
 30
0.0
 11
227.8553767220162
 21
121.2705558299717
 31
0.0
  0
LINE
  5
332
330
1A
100
AcDbEntity
  8
SEIHIN
  6
CONTINUOUS
 62
     3
 48
5.0
100
AcDbLine
 10
228.8554767220161
 20
111.9837558299717
 30
0.0
 11
228.8554767220161
 21
121.2705558299717
 31
0.0
  0
ARC
  5
333
330
1A
100
AcDbEntity
  8
SEIHIN
  6
CONTINUOUS
 62
     3
 48
5.0
100
AcDbCircle
 10
224.8554767220161
 20
113.9837558299717
 30
0.0
 40
1.0
100
AcDbArc
 50
270.0
 51
90.0
  0
LINE
  5
334
330
1A
100
AcDbEntity
  8
SEIHIN
  6
CONTINUOUS
 62
     3
 48
5.0
100
AcDbLine
 10
236.8553767220162
 20
106.9836558299717
 30
0.0
 11
233.8553767220162
 21
106.9837558299717
 31
0.0
  0
ARC
  5
335
330
1A
100
AcDbEntity
  8
SEIHIN
  6
CONTINUOUS
 62
     3
 48
5.0
100
AcDbCircle
 10
225.8554767220162
 20
121.2705558299717
 30
0.0
 40
3.000027
100
AcDbArc
 50
0.0
 51
85.308047
  0
ARC
  5
336
330
1A
100
AcDbEntity
  8
SEIHIN
  6
CONTINUOUS
 62
     3
 48
5.0
100
AcDbCircle
 10
223.8554767220162
 20
120.5893558299717
 30
0.0
 40
0.9999749999999998
100
AcDbArc
 50
0.0
 51
76.01239599999998
  0
ARC
  5
337
330
1A
100
AcDbEntity
  8
SEIHIN
  6
CONTINUOUS
 62
     3
 48
5.0
100
AcDbCircle
 10
225.8553767220162
 20
121.2705558299717
 30
0.0
 40
2.000004999999998
100
AcDbArc
 50
0.0
 51
85.30511300000002
  0
LINE
  5
338
330
1A
100
AcDbEntity
  8
SEIHIN
  6
CONTINUOUS
 62
     3
 48
5.0
100
AcDbLine
 10
211.1554767220162
 20
130.3336558299717
 30
0.0
 11
213.6409767220162
 21
130.3336558299717
 31
0.0
  0
CIRCLE
  5
339
330
1A
100
AcDbEntity
  8
SEIHIN
  6
CONTINUOUS
 62
     3
 48
5.0
100
AcDbCircle
 10
211.1554767220162
 20
135.8336558299717
 30
0.0
 40
2.25
  0
CIRCLE
  5
33A
330
1A
100
AcDbEntity
  8
SEIHIN
  6
CONTINUOUS
 62
     3
 48
5.0
100
AcDbCircle
 10
211.1554767220162
 20
135.8336558299717
 30
0.0
 40
2.399999999999999
  0
ARC
  5
33B
330
1A
100
AcDbEntity
  8
SEIHIN
  6
CONTINUOUS
 62
     3
 48
5.0
100
AcDbCircle
 10
211.1554767220162
 20
135.8336558299717
 30
0.0
 40
5.00002
100
AcDbArc
 50
328.739102
 51
270.0
  0
LINE
  5
33C
330
1A
100
AcDbEntity
  8
SEIHIN
  6
CONTINUOUS
 62
     3
 48
5.0
100
AcDbLine
 10
211.1554767220162
 20
130.8336558299717
 30
0.0
 11
211.1554767220162
 21
130.3336558299717
 31
0.0
  0
LINE
  5
33D
330
1A
100
AcDbEntity
  8
SEIHIN
  6
CONTINUOUS
 62
     3
 48
5.0
100
AcDbLine
 10
211.1554767220162
 20
130.8336558299717
 30
0.0
 11
211.1554767220162
 21
130.3336558299717
 31
0.0
  0
ARC
  5
33E
330
1A
100
AcDbEntity
  8
SEIHIN
  6
CONTINUOUS
 62
     3
 48
5.0
100
AcDbCircle
 10
216.7302767220162
 20
133.6151558299717
 30
0.0
 40
0.999994
100
AcDbArc
 50
158.3017989999999
 51
243.8141649999999
  0
ARC
  5
33F
330
1A
100
AcDbEntity
  8
SEIHIN
  6
CONTINUOUS
 62
     3
 48
5.0
100
AcDbCircle
 10
216.2843767220161
 20
132.7200558299717
 30
0.0
 40
1.000028
100
AcDbArc
 50
148.7404659999999
 51
243.8602649999999
  0
LINE
  5
35A
330
1A
100
AcDbEntity
  8
SEIHIN
  6
CONTINUOUS
 62
     3
 48
5.0
100
AcDbLine
 10
228.8677767220162
 20
226.4837558299717
 30
0.0
 11
228.8677767220162
 21
219.9837558299717
 31
0.0
  0
LINE
  5
35B
330
1A
100
AcDbEntity
  8
SEIHIN
  6
CONTINUOUS
 62
     3
 48
5.0
100
AcDbLine
 10
213.4054767220162
 20
222.4835558299717
 30
0.0
 11
213.4054767220162
 21
226.9835558299717
 31
0.0
  0
LINE
  5
35C
330
1A
100
AcDbEntity
  8
SEIHIN
  6
CONTINUOUS
 62
     3
 48
5.0
100
AcDbLine
 10
211.1554767220162
 20
222.4835558299717
 30
0.0
 11
211.1554767220162
 21
226.9835558299717
 31
0.0
  0
LINE
  5
35D
330
1A
100
AcDbEntity
  8
SEIHIN
  6
CONTINUOUS
 62
     3
 48
5.0
100
AcDbLine
 10
216.1554767220162
 20
210.9836558299717
 30
0.0
 11
216.1554767220162
 21
228.9836558299717
 31
0.0
  0
LINE
  5
35E
330
1A
100
AcDbEntity
  8
SEIHIN
  6
CONTINUOUS
 62
     3
 48
5.0
100
AcDbLine
 10
236.8553767220162
 20
219.9837558299717
 30
0.0
 11
236.8553767220162
 21
228.9837558299717
 31
0.0
  0
LINE
  5
35F
330
1A
100
AcDbEntity
  8
SEIHIN
  6
CONTINUOUS
 62
     3
 48
5.0
100
AcDbLine
 10
207.1555767220161
 20
210.9836558299717
 30
0.0
 11
207.1555767220161
 21
228.9836558299717
 31
0.0
  0
LINE
  5
360
330
1A
100
AcDbEntity
  8
SEIHIN
  6
CONTINUOUS
 62
     3
 48
5.0
100
AcDbLine
 10
236.8553767220162
 20
213.4837558299717
 30
0.0
 11
216.1554767220162
 21
213.4837558299717
 31
0.0
  0
LINE
  5
361
330
1A
100
AcDbEntity
  8
SEIHIN
  6
CONTINUOUS
 62
     3
 48
5.0
100
AcDbLine
 10
211.1557767220161
 20
212.9835558299717
 30
0.0
 11
213.7528767220162
 21
212.9835558299717
 31
0.0
  0
LINE
  5
362
330
1A
100
AcDbEntity
  8
SEIHIN
  6
CONTINUOUS
 62
     3
 48
5.0
100
AcDbLine
 10
213.4055767220161
 20
213.4834558299717
 30
0.0
 11
211.1554767220162
 21
213.4834558299717
 31
0.0
  0
LINE
  5
363
330
1A
100
AcDbEntity
  8
SEIHIN
  6
CONTINUOUS
 62
     3
 48
5.0
100
AcDbLine
 10
216.1550767220161
 20
217.4835558299717
 30
0.0
 11
207.1554767220162
 21
217.4834558299717
 31
0.0
  0
LINE
  5
364
330
1A
100
AcDbEntity
  8
SEIHIN
  6
CONTINUOUS
 62
     3
 48
5.0
100
AcDbLine
 10
216.1550767220161
 20
222.4835558299717
 30
0.0
 11
207.1554767220162
 21
222.4834558299717
 31
0.0
  0
LINE
  5
365
330
1A
100
AcDbEntity
  8
SEIHIN
  6
CONTINUOUS
 62
     3
 48
5.0
100
AcDbLine
 10
211.1554767220162
 20
212.9835558299717
 30
0.0
 11
211.1554767220162
 21
217.4835558299717
 31
0.0
  0
LINE
  5
366
330
1A
100
AcDbEntity
  8
SEIHIN
  6
CONTINUOUS
 62
     3
 48
5.0
100
AcDbLine
 10
213.4054767220162
 20
217.4835558299717
 30
0.0
 11
213.4054767220162
 21
212.9835558299717
 31
0.0
  0
LINE
  5
367
330
1A
100
AcDbEntity
  8
SEIHIN
  6
CONTINUOUS
 62
     3
 48
5.0
100
AcDbLine
 10
216.1550767220161
 20
212.9834558299717
 30
0.0
 11
213.9055767220161
 21
212.9834558299717
 31
0.0
  0
LINE
  5
368
330
1A
100
AcDbEntity
  8
SEIHIN
  6
CONTINUOUS
 62
     3
 48
5.0
100
AcDbLine
 10
228.8677767220162
 20
213.4837558299717
 30
0.0
 11
227.8677767220162
 21
210.9837558299717
 31
0.0
  0
LINE
  5
369
330
1A
100
AcDbEntity
  8
SEIHIN
  6
CONTINUOUS
 62
     3
 48
5.0
100
AcDbLine
 10
236.8553767220162
 20
219.9837558299717
 30
0.0
 11
236.8553767220162
 21
210.9837558299717
 31
0.0
  0
LINE
  5
36A
330
1A
100
AcDbEntity
  8
SEIHIN
  6
CONTINUOUS
 62
     3
 48
5.0
100
AcDbLine
 10
228.8677767220162
 20
213.4837558299717
 30
0.0
 11
228.8677767220162
 21
219.9837558299717
 31
0.0
  0
LINE
  5
36B
330
1A
100
AcDbEntity
  8
SEIHIN
  6
CONTINUOUS
 62
     3
 48
5.0
100
AcDbLine
 10
236.8553767220162
 20
226.4837558299717
 30
0.0
 11
216.1554767220162
 21
226.4837558299717
 31
0.0
  0
LINE
  5
36C
330
1A
100
AcDbEntity
  8
SEIHIN
  6
CONTINUOUS
 62
     3
 48
5.0
100
AcDbLine
 10
211.1554767220162
 20
222.9835558299717
 30
0.0
 11
213.4054767220162
 21
222.9835558299717
 31
0.0
  0
LINE
  5
36D
330
1A
100
AcDbEntity
  8
SEIHIN
  6
CONTINUOUS
 62
     3
 48
5.0
100
AcDbLine
 10
211.1557767220161
 20
226.9835558299717
 30
0.0
 11
213.7528767220162
 21
226.9835558299717
 31
0.0
  0
LINE
  5
36E
330
1A
100
AcDbEntity
  8
SEIHIN
  6
CONTINUOUS
 62
     3
 48
5.0
100
AcDbLine
 10
216.1549767220162
 20
226.9835558299717
 30
0.0
 11
213.9054767220162
 21
226.9835558299717
 31
0.0
  0
LINE
  5
36F
330
1A
100
AcDbEntity
  8
SEIHIN
  6
CONTINUOUS
 62
     3
 48
5.0
100
AcDbLine
 10
228.8677767220162
 20
226.4837558299717
 30
0.0
 11
227.8677767220162
 21
228.9837558299717
 31
0.0
  0
LINE
  5
37F
330
1A
100
AcDbEntity
  8
CENTER_L
  6
CENTER
 62
     1
 48
5.0
100
AcDbLine
 10
194.5053767220161
 20
140.3336558299717
 30
0.0
 11
194.5053767220162
 21
59.63379269326624
 31
0.0
  0
LINE
  5
382
330
1A
100
AcDbEntity
  8
CENTER_L
  6
CENTER
 62
     1
 48
5.0
100
AcDbLine
 10
203.5412815324282
 20
135.8336558299717
 30
0.0
 11
218.7696719116042
 21
135.8336558299717
 31
0.0
  0
LINE
  5
383
330
1A
100
AcDbEntity
  8
CENTER_L
  6
CENTER
 62
     1
 48
5.0
100
AcDbLine
 10
211.1554767220162
 20
128.2194606403838
 30
0.0
 11
211.1554767220162
 21
143.4478510195597
 31
0.0
  0
DIMENSION
  5
3AC
330
1A
100
AcDbEntity
  8
SUNPOU
  6
CONTINUOUS
 62
     4
 48
5.0
100
AcDbDimension
  2
*D1
 10
228.8555037220162
 20
158.2132650616174
 30
0.0
 11
195.0054402220162
 21
160.7132650616174
 31
0.0
 70
    32
  3
STANDARD
100
AcDbAlignedDimension
 13
161.1553767220162
 23
121.2338558299717
 33
0.0
 14
228.8555037220162
 24
121.2705558299717
 34
0.0
100
AcDbRotatedDimension
1001
ACAD
1000
DSTYLE
1002
{
1070
   140
1040
3.0
1070
    74
1070
     0
1070
   172
1070
     1
1070
    73
1070
     0
1070
   272
1070
     2
1070
    77
1070
     3
1070
   173
1070
     1
1070
   147
1040
1.0
1070
    42
1040
3.0
1070
    44
1040
1.5
1070
    43
1040
7.0
1070
   271
1070
     0
1070
   178
1070
     4
1070
   177
1070
     4
1070
   176
1070
     4
1070
   141
1040
150.0
1070
     7
1000
_OPEN
1070
     6
1000
_OPEN
1070
    41
1040
3.0
1002
}
  0
DIMENSION
  5
3B9
330
1A
100
AcDbEntity
  8
SUNPOU
  6
CONTINUOUS
 62
     4
 48
5.0
100
AcDbDimension
  2
*D2
 10
318.6549252966487
 20
167.0225821413801
 30
0.0
 11
239.9051510093324
 21
169.5225821413801
 31
0.0
 70
    32
  1
157.5
  3
STANDARD
100
AcDbAlignedDimension
 13
161.1553767220162
 23
121.2338558299717
 33
0.0
 14
318.6549252966487
 24
99.98396516230837
 34
0.0
100
AcDbRotatedDimension
1001
ACAD
1000
DSTYLE
1002
{
1070
   140
1040
3.0
1070
    74
1070
     0
1070
   172
1070
     1
1070
    73
1070
     0
1070
   272
1070
     2
1070
    77
1070
     3
1070
   173
1070
     1
1070
   147
1040
1.0
1070
    42
1040
3.0
1070
    44
1040
1.5
1070
    43
1040
7.0
1070
   271
1070
     0
1070
   178
1070
     4
1070
   177
1070
     4
1070
   176
1070
     4
1070
   141
1040
150.0
1070
     7
1000
_OPEN
1070
     6
1000
_OPEN
1070
    41
1040
3.0
1002
}
  0
DIMENSION
  5
3D1
330
1A
100
AcDbEntity
  8
SUNPOU
  6
CONTINUOUS
 62
     4
 48
5.0
100
AcDbDimension
  2
*D3
 10
132.5445495849302
 20
66.63381382997183
 30
0.0
 11
130.0445495849302
 21
99.98373482997182
 31
0.0
 70
    32
  3
STANDARD
100
AcDbAlignedDimension
 13
173.2553767220162
 23
133.3336558299717
 33
0.0
 14
173.2552767220162
 24
66.63381382997181
 34
0.0
 50
90.0
100
AcDbRotatedDimension
1001
ACAD
1000
DSTYLE
1002
{
1070
   140
1040
3.0
1070
    74
1070
     0
1070
   172
1070
     1
1070
    73
1070
     0
1070
   272
1070
     2
1070
    77
1070
     3
1070
   173
1070
     1
1070
   147
1040
1.0
1070
    42
1040
3.0
1070
    44
1040
1.5
1070
    43
1040
7.0
1070
   271
1070
     0
1070
   178
1070
     4
1070
   177
1070
     4
1070
   176
1070
     4
1070
   141
1040
150.0
1070
     7
1000
_OPEN
1070
     6
1000
_OPEN
1070
    41
1040
3.0
1002
}
  0
DIMENSION
  5
3DE
330
1A
100
AcDbEntity
  8
SUNPOU
  6
CONTINUOUS
 62
     4
 48
5.0
100
AcDbDimension
  2
*D4
 10
132.5445495849302
 20
210.9837558299717
 30
0.0
 11
130.0445495849301
 21
219.9837558299718
 31
0.0
 70
    32
  3
STANDARD
100
AcDbAlignedDimension
 13
162.1552767220161
 23
228.9837558299717
 33
0.0
 14
162.1552767220161
 24
210.9837558299717
 34
0.0
 50
90.0
100
AcDbRotatedDimension
1001
ACAD
1000
DSTYLE
1002
{
1070
   140
1040
3.0
1070
    74
1070
     0
1070
   172
1070
     1
1070
    73
1070
     0
1070
   272
1070
     2
1070
    77
1070
     3
1070
   173
1070
     1
1070
   147
1040
1.0
1070
    42
1040
3.0
1070
    44
1040
1.5
1070
    43
1040
7.0
1070
   271
1070
     0
1070
   178
1070
     4
1070
   177
1070
     4
1070
   176
1070
     4
1070
   141
1040
150.0
1070
     7
1000
_OPEN
1070
     6
1000
_OPEN
1070
    41
1040
3.0
1002
}
  0
DIMENSION
  5
3ED
330
1A
100
AcDbEntity
  8
SUNPOU
  6
CONTINUOUS
 62
     4
 48
5.0
100
AcDbDimension
  2
*D5
 10
348.2027377401927
 20
97.73386741604532
 30
0.0
 11
345.7027377401928
 21
86.23386741604539
 31
0.0
 70
    32
  1
φ<>
  3
STANDARD
100
AcDbAlignedDimension
 13
308.6552802201361
 23
102.2338674160453
 33
0.0
 14
308.6552802201361
 24
97.73386741604532
 34
0.0
 50
90.0
100
AcDbRotatedDimension
1001
ACAD
1000
DSTYLE
1002
{
1070
   140
1040
3.0
1070
    74
1070
     0
1070
   172
1070
     1
1070
    73
1070
     0
1070
   272
1070
     2
1070
    77
1070
     3
1070
   173
1070
     1
1070
   147
1040
1.0
1070
    42
1040
3.0
1070
    44
1040
1.5
1070
    43
1040
7.0
1070
   271
1070
     1
1070
   178
1070
     4
1070
   177
1070
     4
1070
   176
1070
     4
1070
   141
1040
150.0
1070
     7
1000
_OPEN
1070
     6
1000
_OPEN
1070
    41
1040
3.0
1002
}
  0
DIMENSION
  5
45F
330
1A
100
AcDbEntity
  8
SUNPOU
100
AcDbDimension
  2
*D6
 10
318.6552767220162
 20
127.8706457009267
 30
0.0
 11
277.7553267220162
 21
130.3706457009267
 31
0.0
 70
    32
  3
STANDARD
100
AcDbAlignedDimension
 13
236.8553767220162
 23
106.9836558299717
 33
0.0
 14
318.6552767220162
 24
99.9838558299718
 34
0.0
100
AcDbRotatedDimension
1001
ACAD
1000
DSTYLE
1002
{
1070
   140
1040
3.0
1070
    74
1070
     0
1070
   172
1070
     1
1070
    73
1070
     0
1070
   272
1070
     2
1070
    77
1070
     3
1070
   173
1070
     1
1070
   147
1040
1.0
1070
    42
1040
3.0
1070
    44
1040
1.5
1070
    43
1040
7.0
1070
   271
1070
     0
1070
   178
1070
     4
1070
   177
1070
     4
1070
   176
1070
     4
1070
   141
1040
150.0
1070
     7
1000
_OPEN
1070
     6
1000
_OPEN
1070
    41
1040
3.0
1002
}
  0
DIMENSION
  5
476
330
1A
100
AcDbEntity
  8
SUNPOU
100
AcDbDimension
  2
*D7
 10
318.6552767220162
 20
158.2132650616174
 30
0.0
 11
273.7553767220162
 21
160.7132650616174
 31
0.0
 70
    32
  3
STANDARD
100
AcDbAlignedDimension
 13
228.8554767220161
 23
121.2705558299717
 33
0.0
 14
318.6552767220162
 24
99.98415582997179
 34
0.0
100
AcDbRotatedDimension
1001
ACAD
1000
DSTYLE
1002
{
1070
    41
1040
3.0
1070
    42
1040
3.0
1070
    43
1040
7.0
1070
    44
1040
1.5
1070
    73
1070
     0
1070
    74
1070
     0
1070
    77
1070
     3
1070
   140
1040
3.0
1070
   141
1040
150.0
1070
   147
1040
1.0
1070
   172
1070
     1
1070
   173
1070
     1
1070
   176
1070
     4
1070
   177
1070
     4
1070
   178
1070
     4
1070
   271
1070
     0
1070
   272
1070
     2
1070
   341
1005
B2
1070
     6
1000
OPEN
1070
     7
1000
OPEN
1002
}
  0
DIMENSION
  5
4EF
330
1A
100
AcDbEntity
  8
SUNPOU
100
AcDbDimension
  2
*D8
 10
258.6546038318809
 20
57.60630140145439
 30
0.0
 11
253.6546038318809
 21
60.10630140145439
 31
0.0
 70
    32
  3
STANDARD
100
AcDbAlignedDimension
 13
248.6546038318809
 23
97.18367171140764
 33
0.0
 14
258.6546038318809
 24
97.18368469842065
 34
0.0
100
AcDbRotatedDimension
1001
ACAD
1000
DSTYLE
1002
{
1070
   287
1070
     4
1070
   287
1070
     4
1070
   287
1070
     4
1070
   287
1070
     4
1070
   287
1070
     4
1070
   287
1070
     4
1070
   287
1070
     4
1070
   287
1070
     4
1070
   279
1070
     1
1070
    41
1040
3.0
1070
    42
1040
3.0
1070
    43
1040
7.0
1070
    44
1040
1.5
1070
    73
1070
     0
1070
    74
1070
     0
1070
    77
1070
     3
1070
   140
1040
3.0
1070
   141
1040
150.0
1070
   147
1040
1.0
1070
   172
1070
     1
1070
   173
1070
     1
1070
   176
1070
     4
1070
   177
1070
     4
1070
   178
1070
     4
1070
   271
1070
     0
1070
   272
1070
     2
1070
   341
1005
B2
1070
     6
1000
OPEN
1070
     7
1000
OPEN
1002
}
  0
DIMENSION
  5
523
330
1A
100
AcDbEntity
  8
SUNPOU
100
AcDbDimension
  2
*D9
 10
268.6545976997926
 20
57.60630140145439
 30
0.0
 11
263.6546007658367
 21
60.10630140145439
 31
0.0
 70
    32
  3
STANDARD
100
AcDbAlignedDimension
 13
258.6546038318809
 23
97.18368469842065
 33
0.0
 14
268.6545976997926
 24
96.43367327107556
 34
0.0
100
AcDbRotatedDimension
1001
ACAD
1000
DSTYLE
1002
{
1070
   287
1070
     4
1070
   287
1070
     4
1070
   287
1070
     4
1070
   287
1070
     4
1070
   287
1070
     4
1070
   287
1070
     4
1070
   287
1070
     4
1070
   287
1070
     4
1070
   279
1070
     1
1070
    41
1040
3.0
1070
    42
1040
3.0
1070
    43
1040
7.0
1070
    44
1040
1.5
1070
    73
1070
     0
1070
    74
1070
     0
1070
    77
1070
     3
1070
   140
1040
3.0
1070
   141
1040
150.0
1070
   147
1040
1.0
1070
   172
1070
     1
1070
   173
1070
     1
1070
   176
1070
     4
1070
   177
1070
     4
1070
   178
1070
     4
1070
   271
1070
     0
1070
   272
1070
     2
1070
   341
1005
B2
1070
     6
1000
OPEN
1070
     7
1000
OPEN
1002
}
  0
LINE
  5
69F
330
1A
100
AcDbEntity
  8
CENTER_L
  6
CENTER
 62
     1
 48
5.0
100
AcDbLine
 10
194.5053767220161
 20
235.9837558299717
 30
0.0
 11
194.5053767220162
 21
203.9837558299717
 31
0.0
  0
LINE
  5
6EB
330
1A
100
AcDbEntity
  8
SEIHIN
100
AcDbLine
 10
81.07047672201625
 20
66.13066704130929
 30
0.0
 11
75.57037672201625
 21
66.13066704130929
 31
0.0
  0
LINE
  5
6EC
330
1A
100
AcDbEntity
  8
SEIHIN
  6
CONTINUOUS
 62
     3
 48
5.0
100
AcDbLine
 10
65.57037672201625
 20
66.13066704130929
 30
0.0
 11
65.57037672201625
 21
59.13375582997179
 31
0.0
  0
LINE
  5
6ED
330
1A
100
AcDbEntity
  8
SEIHIN
  6
CONTINUOUS
 62
     3
 48
5.0
100
AcDbLine
 10
78.57047672201625
 20
66.13066704130929
 30
0.0
 11
78.57047672201625
 21
59.13375582997179
 31
0.0
  0
LINE
  5
753
330
1A
100
AcDbEntity
  8
SEIHIN
100
AcDbLine
 10
68.57037672201625
 20
66.13066704130929
 30
0.0
 11
63.07037672201625
 21
66.13066704130929
 31
0.0
  0
DIMENSION
  5
821
330
1A
100
AcDbEntity
  8
SUNPOU
100
AcDbDimension
  2
*D10
 10
248.6546038318809
 20
57.60630140145439
 30
0.0
 11
236.7549902769486
 21
60.10630140145439
 31
0.0
 70
    32
  3
STANDARD
100
AcDbAlignedDimension
 13
224.8553767220162
 23
86.98375582997183
 33
0.0
 14
248.6546038318809
 24
97.18367171140764
 34
0.0
100
AcDbRotatedDimension
1001
ACAD
1000
DSTYLE
1002
{
1070
    41
1040
3.0
1070
    42
1040
3.0
1070
    43
1040
7.0
1070
    44
1040
1.5
1070
    73
1070
     0
1070
    74
1070
     0
1070
    77
1070
     3
1070
   140
1040
3.0
1070
   141
1040
150.0
1070
   147
1040
1.0
1070
   172
1070
     1
1070
   173
1070
     1
1070
   176
1070
   256
1070
   177
1070
   256
1070
   178
1070
   256
1070
   271
1070
     0
1070
   272
1070
     0
1070
   341
1005
B2
1070
     6
1000
OPEN
1070
     7
1000
OPEN
1002
}
  0
LINE
  5
AA3
330
1A
100
AcDbEntity
  8
SEIHIN
  6
CONTINUOUS
 62
     3
 48
5.0
100
AcDbLine
 10
247.6552802201363
 20
102.2338674160453
 30
0.0
 11
236.8553767220162
 21
102.2338674160453
 31
0.0
  0
LINE
  5
AA4
330
1A
100
AcDbEntity
  8
SEIHIN
  6
CONTINUOUS
 62
     3
 48
5.0
100
AcDbLine
 10
247.6552802201363
 20
97.73386741604532
 30
0.0
 11
236.8553767220162
 21
97.73386741604532
 31
0.0
  0
LINE
  5
AB2
330
1A
100
AcDbEntity
  8
SEIHIN
  6
CONTINUOUS
 62
     3
 48
5.0
100
AcDbLine
 10
308.6552802201361
 20
102.2338674160453
 30
0.0
 11
307.9623870013227
 21
102.0909741972319
 31
0.0
  0
LINE
  5
AB3
330
1A
100
AcDbEntity
  8
SEIHIN
  6
CONTINUOUS
 62
     3
 48
5.0
100
AcDbLine
 10
308.6552802201361
 20
99.98386741604534
 30
0.0
 11
307.9623870013227
 21
99.29097419723191
 31
0.0
  0
LINE
  5
AB4
330
1A
100
AcDbEntity
  8
SEIHIN
  6
CONTINUOUS
 62
     3
 48
5.0
100
AcDbLine
 10
308.6552802201361
 20
99.98386741604534
 30
0.0
 11
307.9623870013227
 21
100.6767606348588
 31
0.0
  0
LINE
  5
AB5
330
1A
100
AcDbEntity
  8
SEIHIN
  6
CONTINUOUS
 62
     3
 48
5.0
100
AcDbLine
 10
308.6552802201361
 20
97.73386741604532
 30
0.0
 11
307.9623870013227
 21
97.87676063485886
 31
0.0
  0
LINE
  5
AB6
330
1A
100
AcDbEntity
  8
SEIHIN
  6
CONTINUOUS
 62
     3
 48
5.0
100
AcDbLine
 10
308.6552802201361
 20
102.2338674160453
 30
0.0
 11
269.6552802201362
 21
102.2338674160453
 31
0.0
  0
LINE
  5
AB7
330
1A
100
AcDbEntity
  8
SEIHIN
  6
CONTINUOUS
 62
     3
 48
5.0
100
AcDbLine
 10
308.6552802201361
 20
97.73386741604532
 30
0.0
 11
269.6552802201362
 21
97.73386741604532
 31
0.0
  0
LINE
  5
AB9
330
1A
100
AcDbEntity
  8
SEIHIN
  6
CONTINUOUS
 62
     3
 48
5.0
100
AcDbLine
 10
259.1552802201363
 20
101.9338674160453
 30
0.0
 11
258.1552802201363
 21
101.9338674160453
 31
0.0
  0
LINE
  5
ABA
330
1A
100
AcDbEntity
  8
SEIHIN
  6
CONTINUOUS
 62
     3
 48
5.0
100
AcDbLine
 10
259.1552802201363
 20
98.03386741604533
 30
0.0
 11
258.1552802201363
 21
98.03386741604533
 31
0.0
  0
LINE
  5
ABB
330
1A
100
AcDbEntity
  8
SEIHIN
  6
CONTINUOUS
 62
     3
 48
5.0
100
AcDbLine
 10
257.6552802201363
 20
97.73386741604532
 30
0.0
 11
249.6552802201363
 21
97.73386741604532
 31
0.0
  0
LINE
  5
ABC
330
1A
100
AcDbEntity
  8
SEIHIN
  6
CONTINUOUS
 62
     3
 48
5.0
100
AcDbLine
 10
257.6552802201363
 20
102.2338674160453
 30
0.0
 11
249.6552802201363
 21
102.2338674160453
 31
0.0
  0
LINE
  5
ABD
330
1A
100
AcDbEntity
  8
SEIHIN
  6
CONTINUOUS
 62
     3
 48
5.0
100
AcDbLine
 10
247.6552802201363
 20
102.2338674160453
 30
0.0
 11
247.6552802201363
 21
97.73386741604532
 31
0.0
  0
LINE
  5
ABE
330
1A
100
AcDbEntity
  8
SEIHIN
  6
CONTINUOUS
 62
     3
 48
5.0
100
AcDbLine
 10
248.1552802201363
 20
101.9338674160453
 30
0.0
 11
248.1552802201363
 21
98.03386741604533
 31
0.0
  0
LINE
  5
ABF
330
1A
100
AcDbEntity
  8
SEIHIN
  6
CONTINUOUS
 62
     3
 48
5.0
100
AcDbLine
 10
249.1552802201363
 20
98.03386741604533
 30
0.0
 11
249.1552802201363
 21
101.9338674160453
 31
0.0
  0
LINE
  5
AC0
330
1A
100
AcDbEntity
  8
SEIHIN
  6
CONTINUOUS
 62
     3
 48
5.0
100
AcDbLine
 10
249.6552802201363
 20
102.2338674160453
 30
0.0
 11
249.6552802201363
 21
97.73386741604532
 31
0.0
  0
LINE
  5
AC1
330
1A
100
AcDbEntity
  8
SEIHIN
  6
CONTINUOUS
 62
     3
 48
5.0
100
AcDbLine
 10
249.1552802201363
 20
98.03386741604533
 30
0.0
 11
249.6552802201363
 21
97.73386741604532
 31
0.0
  0
LINE
  5
AC2
330
1A
100
AcDbEntity
  8
SEIHIN
  6
CONTINUOUS
 62
     3
 48
5.0
100
AcDbLine
 10
248.1552802201363
 20
98.03386741604533
 30
0.0
 11
247.6552802201363
 21
97.73386741604532
 31
0.0
  0
LINE
  5
AC3
330
1A
100
AcDbEntity
  8
SEIHIN
  6
CONTINUOUS
 62
     3
 48
5.0
100
AcDbLine
 10
249.1552802201363
 20
98.03386741604533
 30
0.0
 11
248.1552802201363
 21
98.03386741604533
 31
0.0
  0
LINE
  5
AC4
330
1A
100
AcDbEntity
  8
SEIHIN
  6
CONTINUOUS
 62
     3
 48
5.0
100
AcDbLine
 10
249.1552802201363
 20
101.9338674160453
 30
0.0
 11
249.6552802201363
 21
102.2338674160453
 31
0.0
  0
LINE
  5
AC5
330
1A
100
AcDbEntity
  8
SEIHIN
  6
CONTINUOUS
 62
     3
 48
5.0
100
AcDbLine
 10
248.1552802201363
 20
101.9338674160453
 30
0.0
 11
247.6552802201363
 21
102.2338674160453
 31
0.0
  0
LINE
  5
AC6
330
1A
100
AcDbEntity
  8
SEIHIN
  6
CONTINUOUS
 62
     3
 48
5.0
100
AcDbLine
 10
249.1552802201363
 20
101.9338674160453
 30
0.0
 11
248.1552802201363
 21
101.9338674160453
 31
0.0
  0
LINE
  5
AC7
330
1A
100
AcDbEntity
  8
SEIHIN
  6
CONTINUOUS
 62
     3
 48
5.0
100
AcDbLine
 10
257.6552802201363
 20
102.2338674160453
 30
0.0
 11
257.6552802201363
 21
97.73386741604532
 31
0.0
  0
LINE
  5
AC8
330
1A
100
AcDbEntity
  8
SEIHIN
  6
CONTINUOUS
 62
     3
 48
5.0
100
AcDbLine
 10
258.1552802201363
 20
101.9338674160453
 30
0.0
 11
258.1552802201363
 21
98.03386741604533
 31
0.0
  0
LINE
  5
AC9
330
1A
100
AcDbEntity
  8
SEIHIN
  6
CONTINUOUS
 62
     3
 48
5.0
100
AcDbLine
 10
258.1552802201363
 20
98.03386741604533
 30
0.0
 11
257.6552802201363
 21
97.73386741604532
 31
0.0
  0
LINE
  5
ACA
330
1A
100
AcDbEntity
  8
SEIHIN
  6
CONTINUOUS
 62
     3
 48
5.0
100
AcDbLine
 10
258.1552802201363
 20
101.9338674160453
 30
0.0
 11
257.6552802201363
 21
102.2338674160453
 31
0.0
  0
LINE
  5
ACC
330
1A
100
AcDbEntity
  8
SEIHIN
  6
CONTINUOUS
 62
     3
 48
5.0
100
AcDbLine
 10
267.6552802201362
 20
97.73386741604532
 30
0.0
 11
259.6552802201363
 21
97.73386741604532
 31
0.0
  0
LINE
  5
ACD
330
1A
100
AcDbEntity
  8
SEIHIN
  6
CONTINUOUS
 62
     3
 48
5.0
100
AcDbLine
 10
267.6552802201362
 20
102.2338674160453
 30
0.0
 11
259.6552802201363
 21
102.2338674160453
 31
0.0
  0
LINE
  5
ACE
330
1A
100
AcDbEntity
  8
SEIHIN
  6
CONTINUOUS
 62
     3
 48
5.0
100
AcDbLine
 10
259.1552802201363
 20
101.9338674160453
 30
0.0
 11
259.1552802201363
 21
98.03386741604533
 31
0.0
  0
LINE
  5
ACF
330
1A
100
AcDbEntity
  8
SEIHIN
  6
CONTINUOUS
 62
     3
 48
5.0
100
AcDbLine
 10
259.6552802201363
 20
102.2338674160453
 30
0.0
 11
259.6552802201363
 21
97.73386741604532
 31
0.0
  0
LINE
  5
AD0
330
1A
100
AcDbEntity
  8
SEIHIN
  6
CONTINUOUS
 62
     3
 48
5.0
100
AcDbLine
 10
259.1552802201363
 20
98.03386741604533
 30
0.0
 11
259.6552802201363
 21
97.73386741604532
 31
0.0
  0
LINE
  5
AD1
330
1A
100
AcDbEntity
  8
SEIHIN
  6
CONTINUOUS
 62
     3
 48
5.0
100
AcDbLine
 10
259.1552802201363
 20
101.9338674160453
 30
0.0
 11
259.6552802201363
 21
102.2338674160453
 31
0.0
  0
LINE
  5
AD2
330
1A
100
AcDbEntity
  8
SEIHIN
  6
CONTINUOUS
 62
     3
 48
5.0
100
AcDbLine
 10
269.6552802201362
 20
102.2338674160453
 30
0.0
 11
269.6552802201362
 21
97.73386741604532
 31
0.0
  0
LINE
  5
AD3
330
1A
100
AcDbEntity
  8
SEIHIN
  6
CONTINUOUS
 62
     3
 48
5.0
100
AcDbLine
 10
269.1552802201361
 20
101.9338674160453
 30
0.0
 11
269.1552802201361
 21
98.03386741604528
 31
0.0
  0
LINE
  5
AD4
330
1A
100
AcDbEntity
  8
SEIHIN
  6
CONTINUOUS
 62
     3
 48
5.0
100
AcDbLine
 10
267.6552802201362
 20
102.2338674160453
 30
0.0
 11
267.6552802201362
 21
97.73386741604527
 31
0.0
  0
LINE
  5
AD5
330
1A
100
AcDbEntity
  8
SEIHIN
  6
CONTINUOUS
 62
     3
 48
5.0
100
AcDbLine
 10
268.1552802201362
 20
101.9338674160453
 30
0.0
 11
268.1552802201362
 21
98.03386741604528
 31
0.0
  0
LINE
  5
AD6
330
1A
100
AcDbEntity
  8
SEIHIN
  6
CONTINUOUS
 62
     3
 48
5.0
100
AcDbLine
 10
269.1552802201361
 20
98.03386741604528
 30
0.0
 11
268.1552802201362
 21
98.03386741604528
 31
0.0
  0
LINE
  5
AD7
330
1A
100
AcDbEntity
  8
SEIHIN
  6
CONTINUOUS
 62
     3
 48
5.0
100
AcDbLine
 10
268.1552802201362
 20
98.03386741604528
 30
0.0
 11
267.6552802201362
 21
97.73386741604527
 31
0.0
  0
LINE
  5
AD8
330
1A
100
AcDbEntity
  8
SEIHIN
  6
CONTINUOUS
 62
     3
 48
5.0
100
AcDbLine
 10
269.1552802201361
 20
98.03386741604528
 30
0.0
 11
269.6552802201362
 21
97.73386741604527
 31
0.0
  0
LINE
  5
AD9
330
1A
100
AcDbEntity
  8
SEIHIN
  6
CONTINUOUS
 62
     3
 48
5.0
100
AcDbLine
 10
269.1552802201361
 20
101.9338674160453
 30
0.0
 11
268.1552802201362
 21
101.9338674160453
 31
0.0
  0
LINE
  5
ADA
330
1A
100
AcDbEntity
  8
SEIHIN
  6
CONTINUOUS
 62
     3
 48
5.0
100
AcDbLine
 10
268.1552802201362
 20
101.9338674160453
 30
0.0
 11
267.6552802201362
 21
102.2338674160453
 31
0.0
  0
LINE
  5
ADB
330
1A
100
AcDbEntity
  8
SEIHIN
  6
CONTINUOUS
 62
     3
 48
5.0
100
AcDbLine
 10
269.1552802201361
 20
101.9338674160453
 30
0.0
 11
269.6552802201362
 21
102.2338674160453
 31
0.0
  0
ARC
  5
ADC
330
1A
100
AcDbEntity
  8
SEIHIN
  6
CONTINUOUS
 62
     3
 48
5.0
100
AcDbCircle
 10
308.6694937825094
 20
98.5838674160454
 30
0.0
 40
1.000000000000048
100
AcDbArc
 50
135.0000000000057
 51
224.9999999999953
  0
ARC
  5
ADD
330
1A
100
AcDbEntity
  8
SEIHIN
  6
CONTINUOUS
 62
     3
 48
5.0
100
AcDbCircle
 10
308.6694937825094
 20
101.3838674160454
 30
0.0
 40
1.000000000000048
100
AcDbArc
 50
135.0000000000057
 51
224.9999999999953
  0
LINE
  5
ADE
330
1A
100
AcDbEntity
  8
SEIHIN
  6
CONTINUOUS
 62
     3
 48
5.0
100
AcDbLine
 10
318.6552802201361
 20
99.98386741604534
 30
0.0
 11
308.6552802201361
 21
102.2338674160453
 31
0.0
  0
LINE
  5
ADF
330
1A
100
AcDbEntity
  8
SEIHIN
  6
CONTINUOUS
 62
     3
 48
5.0
100
AcDbLine
 10
318.6552802201361
 20
99.98386741604534
 30
0.0
 11
308.6552802201361
 21
97.73386741604532
 31
0.0
  0
LINE
  5
AE0
330
1A
100
AcDbEntity
  8
SEIHIN
  6
CONTINUOUS
 62
     3
 48
5.0
100
AcDbLine
 10
308.6552802201361
 20
99.98386741604534
 30
0.0
 11
318.6552802201361
 21
99.98386741604534
 31
0.0
  0
LINE
  5
AF9
330
1A
100
AcDbEntity
  8
SEIHIN
  6
CONTINUOUS
 62
     3
 48
5.0
100
AcDbLine
 10
269.1554146558879
 20
218.0335721212695
 30
0.0
 11
269.6554146558879
 21
217.7335721212695
 31
0.0
  0
LINE
  5
AFA
330
1A
100
AcDbEntity
  8
SEIHIN
  6
CONTINUOUS
 62
     3
 48
5.0
100
AcDbLine
 10
269.1554146558879
 20
221.9335721212695
 30
0.0
 11
269.6554146558879
 21
222.2335721212695
 31
0.0
  0
LINE
  5
AFB
330
1A
100
AcDbEntity
  8
SEIHIN
  6
CONTINUOUS
 62
     3
 48
5.0
100
AcDbLine
 10
257.655414655888
 20
217.7335721212696
 30
0.0
 11
249.655414655888
 21
217.7335721212696
 31
0.0
  0
LINE
  5
AFC
330
1A
100
AcDbEntity
  8
SEIHIN
  6
CONTINUOUS
 62
     3
 48
5.0
100
AcDbLine
 10
257.655414655888
 20
222.2335721212695
 30
0.0
 11
249.655414655888
 21
222.2335721212695
 31
0.0
  0
LINE
  5
AFD
330
1A
100
AcDbEntity
  8
SEIHIN
  6
CONTINUOUS
 62
     3
 48
5.0
100
AcDbLine
 10
247.655414655888
 20
217.7335721212696
 30
0.0
 11
236.855511157768
 21
217.7335721212695
 31
0.0
  0
LINE
  5
AFE
330
1A
100
AcDbEntity
  8
SEIHIN
  6
CONTINUOUS
 62
     3
 48
5.0
100
AcDbLine
 10
247.655414655888
 20
222.2335721212695
 30
0.0
 11
236.855511157768
 21
222.2335721212696
 31
0.0
  0
LINE
  5
AFF
330
1A
100
AcDbEntity
  8
SEIHIN
  6
CONTINUOUS
 62
     3
 48
5.0
100
AcDbLine
 10
247.655414655888
 20
222.2335721212695
 30
0.0
 11
247.655414655888
 21
217.7335721212696
 31
0.0
  0
LINE
  5
B00
330
1A
100
AcDbEntity
  8
SEIHIN
  6
CONTINUOUS
 62
     3
 48
5.0
100
AcDbLine
 10
248.1554146558881
 20
221.9335721212695
 30
0.0
 11
248.1554146558881
 21
218.0335721212696
 31
0.0
  0
LINE
  5
B01
330
1A
100
AcDbEntity
  8
SEIHIN
  6
CONTINUOUS
 62
     3
 48
5.0
100
AcDbLine
 10
249.155414655888
 20
218.0335721212696
 30
0.0
 11
249.155414655888
 21
221.9335721212695
 31
0.0
  0
LINE
  5
B02
330
1A
100
AcDbEntity
  8
SEIHIN
  6
CONTINUOUS
 62
     3
 48
5.0
100
AcDbLine
 10
249.655414655888
 20
222.2335721212695
 30
0.0
 11
249.655414655888
 21
217.7335721212696
 31
0.0
  0
LINE
  5
B03
330
1A
100
AcDbEntity
  8
SEIHIN
  6
CONTINUOUS
 62
     3
 48
5.0
100
AcDbLine
 10
249.155414655888
 20
218.0335721212696
 30
0.0
 11
248.1554146558881
 21
218.0335721212696
 31
0.0
  0
LINE
  5
B04
330
1A
100
AcDbEntity
  8
SEIHIN
  6
CONTINUOUS
 62
     3
 48
5.0
100
AcDbLine
 10
248.1554146558881
 20
218.0335721212696
 30
0.0
 11
247.655414655888
 21
217.7335721212696
 31
0.0
  0
LINE
  5
B05
330
1A
100
AcDbEntity
  8
SEIHIN
  6
CONTINUOUS
 62
     3
 48
5.0
100
AcDbLine
 10
249.155414655888
 20
218.0335721212696
 30
0.0
 11
249.655414655888
 21
217.7335721212696
 31
0.0
  0
LINE
  5
B06
330
1A
100
AcDbEntity
  8
SEIHIN
  6
CONTINUOUS
 62
     3
 48
5.0
100
AcDbLine
 10
249.155414655888
 20
221.9335721212695
 30
0.0
 11
248.1554146558881
 21
221.9335721212695
 31
0.0
  0
LINE
  5
B07
330
1A
100
AcDbEntity
  8
SEIHIN
  6
CONTINUOUS
 62
     3
 48
5.0
100
AcDbLine
 10
248.1554146558881
 20
221.9335721212695
 30
0.0
 11
247.655414655888
 21
222.2335721212695
 31
0.0
  0
LINE
  5
B08
330
1A
100
AcDbEntity
  8
SEIHIN
  6
CONTINUOUS
 62
     3
 48
5.0
100
AcDbLine
 10
249.155414655888
 20
221.9335721212695
 30
0.0
 11
249.655414655888
 21
222.2335721212695
 31
0.0
  0
LINE
  5
B09
330
1A
100
AcDbEntity
  8
SEIHIN
  6
CONTINUOUS
 62
     3
 48
5.0
100
AcDbLine
 10
267.6554146558879
 20
217.7335721212696
 30
0.0
 11
259.655414655888
 21
217.7335721212696
 31
0.0
  0
LINE
  5
B0A
330
1A
100
AcDbEntity
  8
SEIHIN
  6
CONTINUOUS
 62
     3
 48
5.0
100
AcDbLine
 10
267.6554146558879
 20
222.2335721212695
 30
0.0
 11
259.655414655888
 21
222.2335721212695
 31
0.0
  0
LINE
  5
B0B
330
1A
100
AcDbEntity
  8
SEIHIN
  6
CONTINUOUS
 62
     3
 48
5.0
100
AcDbLine
 10
259.155414655888
 20
221.9335721212695
 30
0.0
 11
259.155414655888
 21
218.0335721212696
 31
0.0
  0
LINE
  5
B0C
330
1A
100
AcDbEntity
  8
SEIHIN
  6
CONTINUOUS
 62
     3
 48
5.0
100
AcDbLine
 10
259.655414655888
 20
222.2335721212695
 30
0.0
 11
259.655414655888
 21
217.7335721212696
 31
0.0
  0
LINE
  5
B0D
330
1A
100
AcDbEntity
  8
SEIHIN
  6
CONTINUOUS
 62
     3
 48
5.0
100
AcDbLine
 10
257.655414655888
 20
222.2335721212695
 30
0.0
 11
257.655414655888
 21
217.7335721212696
 31
0.0
  0
LINE
  5
B0E
330
1A
100
AcDbEntity
  8
SEIHIN
  6
CONTINUOUS
 62
     3
 48
5.0
100
AcDbLine
 10
258.155414655888
 20
221.9335721212695
 30
0.0
 11
258.155414655888
 21
218.0335721212696
 31
0.0
  0
LINE
  5
B0F
330
1A
100
AcDbEntity
  8
SEIHIN
  6
CONTINUOUS
 62
     3
 48
5.0
100
AcDbLine
 10
259.155414655888
 20
218.0335721212696
 30
0.0
 11
259.655414655888
 21
217.7335721212696
 31
0.0
  0
LINE
  5
B10
330
1A
100
AcDbEntity
  8
SEIHIN
  6
CONTINUOUS
 62
     3
 48
5.0
100
AcDbLine
 10
258.155414655888
 20
218.0335721212696
 30
0.0
 11
257.655414655888
 21
217.7335721212696
 31
0.0
  0
LINE
  5
B11
330
1A
100
AcDbEntity
  8
SEIHIN
  6
CONTINUOUS
 62
     3
 48
5.0
100
AcDbLine
 10
259.155414655888
 20
218.0335721212696
 30
0.0
 11
258.155414655888
 21
218.0335721212696
 31
0.0
  0
LINE
  5
B12
330
1A
100
AcDbEntity
  8
SEIHIN
  6
CONTINUOUS
 62
     3
 48
5.0
100
AcDbLine
 10
259.155414655888
 20
221.9335721212695
 30
0.0
 11
259.655414655888
 21
222.2335721212695
 31
0.0
  0
LINE
  5
B13
330
1A
100
AcDbEntity
  8
SEIHIN
  6
CONTINUOUS
 62
     3
 48
5.0
100
AcDbLine
 10
258.155414655888
 20
221.9335721212695
 30
0.0
 11
257.655414655888
 21
222.2335721212695
 31
0.0
  0
LINE
  5
B14
330
1A
100
AcDbEntity
  8
SEIHIN
  6
CONTINUOUS
 62
     3
 48
5.0
100
AcDbLine
 10
259.155414655888
 20
221.9335721212695
 30
0.0
 11
258.155414655888
 21
221.9335721212695
 31
0.0
  0
LINE
  5
B15
330
1A
100
AcDbEntity
  8
SEIHIN
  6
CONTINUOUS
 62
     3
 48
5.0
100
AcDbLine
 10
269.1554146558879
 20
221.9335721212695
 30
0.0
 11
269.1554146558879
 21
218.0335721212695
 31
0.0
  0
LINE
  5
B16
330
1A
100
AcDbEntity
  8
SEIHIN
  6
CONTINUOUS
 62
     3
 48
5.0
100
AcDbLine
 10
267.6554146558879
 20
222.2335721212695
 30
0.0
 11
267.6554146558879
 21
217.7335721212695
 31
0.0
  0
LINE
  5
B17
330
1A
100
AcDbEntity
  8
SEIHIN
  6
CONTINUOUS
 62
     3
 48
5.0
100
AcDbLine
 10
268.1554146558879
 20
221.9335721212695
 30
0.0
 11
268.1554146558879
 21
218.0335721212695
 31
0.0
  0
LINE
  5
B18
330
1A
100
AcDbEntity
  8
SEIHIN
  6
CONTINUOUS
 62
     3
 48
5.0
100
AcDbLine
 10
269.1554146558879
 20
218.0335721212695
 30
0.0
 11
268.1554146558879
 21
218.0335721212695
 31
0.0
  0
LINE
  5
B19
330
1A
100
AcDbEntity
  8
SEIHIN
  6
CONTINUOUS
 62
     3
 48
5.0
100
AcDbLine
 10
268.1554146558879
 20
218.0335721212695
 30
0.0
 11
267.6554146558879
 21
217.7335721212695
 31
0.0
  0
LINE
  5
B1A
330
1A
100
AcDbEntity
  8
SEIHIN
  6
CONTINUOUS
 62
     3
 48
5.0
100
AcDbLine
 10
269.1554146558879
 20
221.9335721212695
 30
0.0
 11
268.1554146558879
 21
221.9335721212695
 31
0.0
  0
LINE
  5
B1B
330
1A
100
AcDbEntity
  8
SEIHIN
  6
CONTINUOUS
 62
     3
 48
5.0
100
AcDbLine
 10
268.1554146558879
 20
221.9335721212695
 30
0.0
 11
267.6554146558879
 21
222.2335721212695
 31
0.0
  0
LINE
  5
B1C
330
1A
100
AcDbEntity
  8
SEIHIN
  6
CONTINUOUS
 62
     3
 48
5.0
100
AcDbLine
 10
308.6554146558879
 20
217.7335721212696
 30
0.0
 11
269.6554146558879
 21
217.7335721212696
 31
0.0
  0
LINE
  5
B1D
330
1A
100
AcDbEntity
  8
SEIHIN
  6
CONTINUOUS
 62
     3
 48
5.0
100
AcDbLine
 10
308.6554146558879
 20
222.2335721212695
 30
0.0
 11
269.6554146558879
 21
222.2335721212695
 31
0.0
  0
LINE
  5
B1E
330
1A
100
AcDbEntity
  8
SEIHIN
  6
CONTINUOUS
 62
     3
 48
5.0
100
AcDbLine
 10
269.6554146558879
 20
222.2335721212695
 30
0.0
 11
269.6554146558879
 21
217.7335721212696
 31
0.0
  0
LINE
  5
B1F
330
1A
100
AcDbEntity
  8
SEIHIN
  6
CONTINUOUS
 62
     3
 48
5.0
100
AcDbLine
 10
318.6554146558878
 20
219.9835721212695
 30
0.0
 11
308.6554146558879
 21
222.2335721212695
 31
0.0
  0
LINE
  5
B20
330
1A
100
AcDbEntity
  8
SEIHIN
  6
CONTINUOUS
 62
     3
 48
5.0
100
AcDbLine
 10
318.6554146558878
 20
219.9835721212695
 30
0.0
 11
308.6554146558879
 21
217.7335721212696
 31
0.0
  0
LINE
  5
B21
330
1A
100
AcDbEntity
  8
SEIHIN
  6
CONTINUOUS
 62
     3
 48
5.0
100
AcDbLine
 10
308.6554146558879
 20
219.9835721212695
 30
0.0
 11
318.6554146558878
 21
219.9835721212695
 31
0.0
  0
ARC
  5
B22
330
1A
100
AcDbEntity
  8
SEIHIN
  6
CONTINUOUS
 62
     3
 48
5.0
100
AcDbCircle
 10
308.6696282182612
 20
221.3835721212696
 30
0.0
 40
1.000000000000048
100
AcDbArc
 50
135.0000000000057
 51
224.9999999999953
  0
ARC
  5
B23
330
1A
100
AcDbEntity
  8
SEIHIN
  6
CONTINUOUS
 62
     3
 48
5.0
100
AcDbCircle
 10
308.6696282182612
 20
218.5835721212696
 30
0.0
 40
1.000000000000048
100
AcDbArc
 50
135.0000000000057
 51
224.9999999999953
  0
LINE
  5
B24
330
1A
100
AcDbEntity
  8
SEIHIN
  6
CONTINUOUS
 62
     3
 48
5.0
100
AcDbLine
 10
308.6554146558879
 20
219.9835721212695
 30
0.0
 11
307.9625214370745
 21
219.2906789024561
 31
0.0
  0
LINE
  5
B25
330
1A
100
AcDbEntity
  8
SEIHIN
  6
CONTINUOUS
 62
     3
 48
5.0
100
AcDbLine
 10
308.6554146558879
 20
219.9835721212695
 30
0.0
 11
307.9625214370745
 21
220.6764653400831
 31
0.0
  0
LINE
  5
B26
330
1A
100
AcDbEntity
  8
SEIHIN
  6
CONTINUOUS
 62
     3
 48
5.0
100
AcDbLine
 10
308.6554146558879
 20
217.7335721212696
 30
0.0
 11
307.9625214370745
 21
217.8764653400831
 31
0.0
  0
LINE
  5
B27
330
1A
100
AcDbEntity
  8
SEIHIN
  6
CONTINUOUS
 62
     3
 48
5.0
100
AcDbLine
 10
308.6554146558879
 20
222.2335721212695
 30
0.0
 11
307.9625214370745
 21
222.0906789024561
 31
0.0
  0
LINE
  5
BE5
330
1A
100
AcDbEntity
  8
ZUWAKU
100
AcDbLine
 10
104.3233011219516
 20
7.600000053532422
 30
0.0
 11
223.7121824624133
 21
7.600000053532419
 31
0.0
  0
LINE
  5
BE6
330
1A
100
AcDbEntity
  8
ZUWAKU
100
AcDbLine
 10
104.3233011219516
 20
7.80000005353242
 30
0.0
 11
223.7121824624133
 21
7.800000053532423
 31
0.0
  0
LINE
  5
BE7
330
1A
100
AcDbEntity
  8
ZUWAKU
100
AcDbLine
 10
104.3233011219516
 20
7.70000005353242
 30
0.0
 11
223.7121824624133
 21
7.70000005353242
 31
0.0
  0
LINE
  5
BE8
330
1A
100
AcDbEntity
  8
ZUWAKU
100
AcDbLine
 10
0.0000004769176485
 20
15.4000000535324
 30
0.0
 11
398.7000004769175
 21
15.4000000535324
 31
0.0
  0
LINE
  5
BE9
330
1A
100
AcDbEntity
  8
ZUWAKU
100
AcDbLine
 10
0.0000004769176485
 20
15.3000000535324
 30
0.0
 11
398.7000004769175
 21
15.3000000535324
 31
0.0
  0
LINE
  5
BEA
330
1A
100
AcDbEntity
  8
ZUWAKU
100
AcDbLine
 10
0.0000004769176485
 20
15.2000000535324
 30
0.0
 11
398.7000004769175
 21
15.2000000535324
 31
0.0
  0
LINE
  5
BEB
330
1A
100
AcDbEntity
  8
ZUWAKU
100
AcDbLine
 10
0.0000004769176485
 20
15.1000000535324
 30
0.0
 11
398.7000004769175
 21
15.1000000535324
 31
0.0
  0
LINE
  5
BEC
330
1A
100
AcDbEntity
  8
ZUWAKU
100
AcDbLine
 10
0.0000004769176485
 20
15.0000000535324
 30
0.0
 11
398.7000004769175
 21
15.0000000535324
 31
0.0
  0
LWPOLYLINE
  5
BED
330
1A
100
AcDbEntity
  8
ZUWAKU
100
AcDbPolyline
 90
        4
 70
     1
 43
0.0
 10
0.1000004769176144
 20
275.7000000535324
 10
0.1000004769176144
 20
0.1000000535324261
 10
398.7000004769175
 20
0.1000000535324377
 10
398.7000004769177
 20
275.7000000535324
  0
LWPOLYLINE
  5
BEE
330
1A
100
AcDbEntity
  8
ZUWAKU
100
AcDbPolyline
 90
        4
 70
     1
 43
0.0
 10
0.300000476917603
 20
275.5000000535324
 10
0.300000476917603
 20
0.3000000535324148
 10
398.5000004769177
 20
0.3000000535324379
 10
398.5000004769176
 20
275.5000000535324
  0
LWPOLYLINE
  5
BEF
330
1A
100
AcDbEntity
  8
ZUWAKU
100
AcDbPolyline
 90
        4
 70
     1
 43
0.0
 10
0.0000004769176485
 20
275.8000000535324
 10
0.0000004769176485
 20
0.0000000535324034
 10
398.8000004769176
 20
0.0000000535324371
 10
398.8000004769176
 20
275.8000000535324
  0
LWPOLYLINE
  5
BF0
330
1A
100
AcDbEntity
  8
ZUWAKU
100
AcDbPolyline
 90
        4
 70
     1
 43
0.0
 10
0.2000004769176371
 20
275.6000000535324
 10
0.2000004769176371
 20
0.2000000535324489
 10
398.6000004769176
 20
0.2000000535324373
 10
398.6000004769176
 20
275.6000000535324
  0
LWPOLYLINE
  5
BF1
330
1A
100
AcDbEntity
  8
ZUWAKU
100
AcDbPolyline
 90
        4
 70
     1
 43
0.0
 10
0.4000004769176258
 20
275.4000000535324
 10
0.4000004769176258
 20
0.4000000535324375
 10
398.4000004769176
 20
0.4000000535324375
 10
398.4000004769176
 20
275.4000000535324
  0
TEXT
  5
BF2
330
1A
100
AcDbEntity
  8
MOJI
100
AcDbText
 10
43.50288820152957
 20
6.370589118669784
 30
0.0
 40
3.0
  1
たてとい デンデン（ライナートップＹ６０）
 41
0.8
  7
ｽﾀｲﾙ1
100
AcDbText
  0
HATCH
  5
BF3
330
1A
100
AcDbEntity
  8
ZUWAKU
100
AcDbHatch
 10
0.0
 20
0.0
 30
0.0
210
0.0
220
0.0
230
1.0
  2
ANSI37
 70
     0
 71
     0
 91
        8
 92
        7
 72
     1
 73
     1
 93
       24
 10
7.251131807477577
 20
8.822424294024195
 42
-0.1989123673796348
 10
7.046106554308209
 20
9.31739904085472
 42
0.0
 10
7.046106554308209
 20
9.962500053532409
 42
-0.4142135623730912
 10
7.308606554308198
 20
10.2250000535324
 42
0.0
 10
8.796106554308153
 20
10.2250000535324
 42
0.4142135623731546
 10
9.058606554308198
 20
10.4875000535324
 42
0.0
 10
9.058606554308198
 20
11.3625000535324
 42
0.4142135623731586
 10
8.796106554308153
 20
11.6250000535324
 42
0.0
 10
7.046106554308209
 20
11.6250000535324
 42
0.4142135623730928
 10
5.646106554308232
 20
10.22500005353242
 42
0.0
 10
5.646106554308232
 20
9.317399040854784
 42
0.1989123673796619
 10
6.261182313816448
 20
7.83247480036298
 42
0.0
 10
7.716081301138785
 20
6.377575813040651
 42
-0.1989123673796613
 10
7.921106554308209
 20
5.882601066210058
 42
0.0
 10
7.921106554308209
 20
5.2375000535324
 42
-0.4142135623730911
 10
7.658606554308221
 20
4.975000053532404
 42
0.0
 10
6.171106554308266
 20
4.975000053532404
 42
0.4142135623731526
 10
5.908606554308221
 20
4.71250005353241
 42
0.0
 10
5.908606554308221
 20
3.8375000535324
 42
0.4142135623731526
 10
6.171106554308266
 20
3.575000053532406
 42
0.0
 10
7.921106554308209
 20
3.575000053532406
 42
0.4142135623731044
 10
9.321106554308244
 20
4.975000053532394
 42
0.0
 10
9.321106554308244
 20
5.88260106621003
 42
0.1989123673796604
 10
8.706030794799971
 20
7.3675253067018
 42
0.0
 97
        0
 92
        7
 72
     1
 73
     1
 93
       16
 10
11.77110655430823
 20
9.525000053532409
 42
-0.4142135623730935
 10
12.47110655430822
 20
10.2250000535324
 42
0.0
 10
13.43360655430819
 20
10.2250000535324
 42
0.4142135623731546
 10
13.69610655430824
 20
10.4875000535324
 42
0.0
 10
13.69610655430824
 20
11.3625000535324
 42
0.4142135623730951
 10
13.43360655430825
 20
11.6250000535324
 42
0.0
 10
12.47110655430816
 20
11.62500005353238
 42
0.4142135623730892
 10
10.37110655430819
 20
9.525000053532373
 42
0.0
 10
10.37110655430819
 20
5.675000053532418
 42
0.4142135623730969
 10
12.47110655430822
 20
3.575000053532406
 42
0.0
 10
13.43360655430819
 20
3.575000053532406
 42
0.4142135623731526
 10
13.69610655430824
 20
3.8375000535324
 42
0.0
 10
13.69610655430824
 20
4.71250005353241
 42
0.4142135623730891
 10
13.43360655430825
 20
4.975000053532404
 42
0.0
 10
12.47110655430822
 20
4.975000053532404
 42
-0.4142135623730928
 10
11.77110655430823
 20
5.675000053532398
 42
0.0
 97
        0
 92
        7
 72
     1
 73
     1
 93
        2
 10
12.12110655430819
 20
7.600000053532404
 42
1.0
 10
13.87110655430819
 20
7.600000053532404
 42
1.0
 97
        0
 92
        7
 72
     1
 73
     1
 93
       26
 10
18.6574297953972
 20
9.602523650314118
 42
0.0
 10
19.18824961196611
 20
11.28345306944891
 42
0.5069206636600134
 10
18.93793416236843
 20
11.6250000535324
 42
0.0
 10
18.08848947256382
 20
11.6250000535324
 42
0.3272098845218764
 10
17.83817402296614
 20
11.44154703761589
 42
0.0
 10
16.90403908565025
 20
8.483453069448945
 42
-0.3272098845219541
 10
16.65372363605252
 20
8.300000053532404
 42
0.0
 10
16.58360655430828
 20
8.300000053532404
 42
-0.4142135623731526
 10
16.32110655430824
 20
8.562500053532398
 42
0.0
 10
16.32110655430824
 20
11.3625000535324
 42
0.4142135623730951
 10
16.05860655430825
 20
11.6250000535324
 42
0.0
 10
15.1836065543082
 20
11.6250000535324
 42
0.4142135623730871
 10
14.9211065543082
 20
11.36250005353241
 42
0.0
 10
14.9211065543082
 20
3.8375000535324
 42
0.4142135623730891
 10
15.1836065543082
 20
3.575000053532406
 42
0.0
 10
16.05860655430819
 20
3.575000053532406
 42
0.4142135623731526
 10
16.32110655430824
 20
3.8375000535324
 42
0.0
 10
16.32110655430824
 20
6.637500053532411
 42
-0.4142135623731526
 10
16.58360655430828
 20
6.900000053532405
 42
0.0
 10
16.65372363605257
 20
6.900000053532405
 42
-0.3272098845218915
 10
16.90403908565025
 20
6.716547037615868
 42
0.0
 10
17.83817402296614
 20
3.758453069448941
 42
0.3272098845218902
 10
18.08848947256382
 20
3.575000053532406
 42
0.0
 10
18.93793416236843
 20
3.575000053532406
 42
0.5069206636600335
 10
19.18824961196611
 20
3.916547037615909
 42
0.0
 10
18.02505392272928
 20
7.600000053532474
 42
0.0
 97
        0
 92
        7
 72
     1
 73
     1
 93
        8
 10
21.74610655430819
 20
11.36250005353241
 42
0.4142135623731546
 10
21.48360655430815
 20
11.6250000535324
 42
0.0
 10
20.60860655430826
 20
11.6250000535324
 42
0.4142135623731507
 10
20.34610655430822
 20
11.36250005353241
 42
0.0
 10
20.34610655430822
 20
3.8375000535324
 42
0.4142135623731526
 10
20.60860655430826
 20
3.575000053532406
 42
0.0
 10
21.48360655430815
 20
3.575000053532406
 42
0.4142135623731526
 10
21.74610655430819
 20
3.8375000535324
 42
0.0
 97
        0
 92
        7
 72
     1
 73
     1
 93
       24
 10
24.19610655430824
 20
9.962500053532409
 42
-0.4142135623731546
 10
24.45860655430829
 20
10.2250000535324
 42
0.0
 10
25.94610655430824
 20
10.2250000535324
 42
0.4142135623730911
 10
26.20860655430823
 20
10.4875000535324
 42
0.0
 10
26.20860655430823
 20
11.3625000535324
 42
0.4142135623730952
 10
25.94610655430824
 20
11.6250000535324
 42
0.0
 10
24.19610655430824
 20
11.6250000535324
 42
0.4142135623731048
 10
22.79610655430821
 20
10.22500005353242
 42
0.0
 10
22.79610655430821
 20
9.317399040854784
 42
0.1989123673796613
 10
23.41118231381648
 20
7.832474800363009
 42
0.0
 10
24.86608130113882
 20
6.377575813040675
 42
-0.1989123673796402
 10
25.07110655430824
 20
5.882601066210138
 42
0.0
 10
25.07110655430824
 20
5.2375000535324
 42
-0.4142135623730911
 10
24.80860655430825
 20
4.975000053532404
 42
0.0
 10
23.32110655430824
 20
4.975000053532404
 42
0.4142135623731526
 10
23.05860655430819
 20
4.71250005353241
 42
0.0
 10
23.05860655430819
 20
3.8375000535324
 42
0.4142135623730891
 10
23.32110655430818
 20
3.575000053532406
 42
0.0
 10
25.07110655430824
 20
3.575000053532406
 42
0.4142135623730925
 10
26.47110655430822
 20
4.975000053532394
 42
0.0
 10
26.47110655430822
 20
5.88260106621003
 42
0.1989123673796675
 10
25.85603079479994
 20
7.367525306701857
 42
0.0
 10
24.40113180747767
 20
8.822424294024115
 42
-0.1989123673796652
 10
24.19610655430824
 20
9.317399040854699
 42
0.0
 97
        0
 92
        7
 72
     1
 73
     1
 93
       16
 10
28.92110655430821
 20
11.3625000535324
 42
0.414213562373103
 10
28.65860655430822
 20
11.6250000535324
 42
0.0
 10
27.78360655430822
 20
11.6250000535324
 42
0.4142135623730871
 10
27.52110655430823
 20
11.36250005353241
 42
0.0
 10
27.52110655430823
 20
4.975000053532394
 42
0.4142135623730926
 10
28.92110655430821
 20
3.575000053532406
 42
0.0
 10
30.67110655430821
 20
3.575000053532406
 42
0.4142135623731044
 10
32.07110655430824
 20
4.975000053532394
 42
0.0
 10
32.07110655430824
 20
11.3625000535324
 42
0.4142135623730951
 10
31.80860655430825
 20
11.6250000535324
 42
0.0
 10
30.93360655430819
 20
11.6250000535324
 42
0.4142135623730871
 10
30.67110655430821
 20
11.36250005353241
 42
0.0
 10
30.67110655430821
 20
5.500000053532392
 42
-0.414213562373088
 10
30.14610655430823
 20
4.975000053532404
 42
0.0
 10
29.44610655430824
 20
4.975000053532404
 42
-0.4142135623731197
 10
28.92110655430821
 20
5.500000053532392
 42
0.0
 97
        0
 92
        7
 72
     1
 73
     1
 93
        8
 10
34.52110655430823
 20
11.36250005353241
 42
0.4142135623730871
 10
34.25860655430824
 20
11.6250000535324
 42
0.0
 10
33.38360655430824
 20
11.6250000535324
 42
0.4142135623731507
 10
33.12110655430819
 20
11.36250005353241
 42
0.0
 10
33.12110655430819
 20
3.8375000535324
 42
0.4142135623730891
 10
33.38360655430818
 20
3.575000053532406
 42
0.0
 10
34.25860655430824
 20
3.575000053532406
 42
0.4142135623730891
 10
34.52110655430823
 20
3.8375000535324
 42
0.0
 97
        0
 75
     0
 76
     1
 52
0.0
 41
0.1
 77
     0
 78
     2
 53
45.0
 43
-450.4711516904218
 44
-6.599999946467562
 45
-0.2245064030267288
 46
0.2245064030267288
 79
     0
 53
135.0
 43
-450.4711516904218
 44
-6.599999946467562
 45
-0.2245064030267288
 46
-0.2245064030267288
 79
     0
 47
0.057451373970553
 98
        8
 10
8.039927958429302
 20
7.58358687647518
 10
11.20225798013723
 20
9.422031144757909
 10
12.58218441974747
 20
7.755940876567763
 10
15.45703046773621
 20
8.100648876753155
 10
20.91923648639601
 20
8.330455010523962
 10
23.44910092448242
 20
9.709288211736009
 10
28.27884346311782
 20
9.364579011079911
 10
33.91354028672902
 20
9.594385144850718
  0
LINE
  5
BF4
330
1A
100
AcDbEntity
  8
ZUWAKU
100
AcDbLine
 10
12.47110655430822
 20
11.62500005353238
 30
0.0
 11
13.43360655430819
 21
11.6250000535324
 31
0.0
  0
LINE
  5
BF5
330
1A
100
AcDbEntity
  8
ZUWAKU
100
AcDbLine
 10
13.43360655430819
 20
10.2250000535324
 30
0.0
 11
12.47110655430822
 21
10.2250000535324
 31
0.0
  0
LINE
  5
BF6
330
1A
100
AcDbEntity
  8
ZUWAKU
100
AcDbLine
 10
12.47110655430822
 20
4.975000053532404
 30
0.0
 11
13.43360655430819
 21
4.975000053532404
 31
0.0
  0
LINE
  5
BF7
330
1A
100
AcDbEntity
  8
ZUWAKU
100
AcDbLine
 10
13.43360655430819
 20
3.575000053532406
 30
0.0
 11
12.47110655430822
 21
3.575000053532406
 31
0.0
  0
CIRCLE
  5
BF8
330
1A
100
AcDbEntity
  8
ZUWAKU
100
AcDbCircle
 10
12.9961065543082
 20
7.600000053532404
 30
0.0
 40
0.875
  0
ARC
  5
BF9
330
1A
100
AcDbEntity
  8
ZUWAKU
100
AcDbCircle
 10
7.746106554308198
 20
9.317399040854756
 30
0.0
 40
0.7
100
AcDbArc
 50
180.0000000000016
 51
224.9999999999988
  0
LINE
  5
BFA
330
1A
100
AcDbEntity
  8
ZUWAKU
100
AcDbLine
 10
11.77110655430823
 20
9.525000053532405
 30
0.0
 11
11.77110655430823
 21
5.675000053532407
 31
0.0
  0
LINE
  5
BFB
330
1A
100
AcDbEntity
  8
ZUWAKU
100
AcDbLine
 10
10.37110655430819
 20
5.675000053532407
 30
0.0
 11
10.37110655430819
 21
9.525000053532384
 31
0.0
  0
ARC
  5
BFC
330
1A
100
AcDbEntity
  8
ZUWAKU
100
AcDbCircle
 10
7.746106554308198
 20
9.317399040854756
 30
0.0
 40
2.099999999999999
100
AcDbArc
 50
180.0
 51
225.0
  0
ARC
  5
BFD
330
1A
100
AcDbEntity
  8
ZUWAKU
100
AcDbCircle
 10
7.921106554308209
 20
4.975000053532404
 30
0.0
 40
1.399999999999999
100
AcDbArc
 50
270.0
 51
0.0
  0
ARC
  5
BFE
330
1A
100
AcDbEntity
  8
ZUWAKU
100
AcDbCircle
 10
12.47110655430822
 20
5.675000053532407
 30
0.0
 40
2.099999999999999
100
AcDbArc
 50
180.0
 51
270.0
  0
ARC
  5
BFF
330
1A
100
AcDbEntity
  8
ZUWAKU
100
AcDbCircle
 10
7.221106554308221
 20
5.882601066210057
 30
0.0
 40
2.099999999999999
100
AcDbArc
 50
0.0
 51
45.0
  0
LINE
  5
C00
330
1A
100
AcDbEntity
  8
ZUWAKU
100
AcDbLine
 10
8.706030794799971
 20
7.367525306701818
 30
0.0
 11
7.251131807477634
 21
8.822424294024155
 31
0.0
  0
LINE
  5
C01
330
1A
100
AcDbEntity
  8
ZUWAKU
100
AcDbLine
 10
7.921106554308209
 20
5.237500053532407
 30
0.0
 11
7.921106554308209
 21
5.882601066210078
 31
0.0
  0
ARC
  5
C02
330
1A
100
AcDbEntity
  8
ZUWAKU
100
AcDbCircle
 10
7.658606554308221
 20
5.237500053532407
 30
0.0
 40
0.2625
100
AcDbArc
 50
270.0
 51
0.0
  0
ARC
  5
C03
330
1A
100
AcDbEntity
  8
ZUWAKU
100
AcDbCircle
 10
7.221106554308221
 20
5.882601066210078
 30
0.0
 40
0.7
100
AcDbArc
 50
0.0
 51
45.0
  0
LINE
  5
C04
330
1A
100
AcDbEntity
  8
ZUWAKU
100
AcDbLine
 10
5.908606554308221
 20
3.837500053532405
 30
0.0
 11
5.908606554308221
 21
4.712500053532405
 31
0.0
  0
ARC
  5
C05
330
1A
100
AcDbEntity
  8
ZUWAKU
100
AcDbCircle
 10
6.171106554308209
 20
3.837500053532405
 30
0.0
 40
0.2625
100
AcDbArc
 50
180.0
 51
270.0
  0
ARC
  5
C06
330
1A
100
AcDbEntity
  8
ZUWAKU
100
AcDbCircle
 10
6.171106554308209
 20
4.712500053532405
 30
0.0
 40
0.2625
100
AcDbArc
 50
90.0
 51
180.0
  0
LINE
  5
C07
330
1A
100
AcDbEntity
  8
ZUWAKU
100
AcDbLine
 10
6.171106554308209
 20
3.575000053532406
 30
0.0
 11
7.921106554308209
 21
3.575000053532406
 31
0.0
  0
LINE
  5
C08
330
1A
100
AcDbEntity
  8
ZUWAKU
100
AcDbLine
 10
6.171106554308209
 20
4.975000053532404
 30
0.0
 11
7.658606554308221
 21
4.975000053532404
 31
0.0
  0
LINE
  5
C09
330
1A
100
AcDbEntity
  8
ZUWAKU
100
AcDbLine
 10
6.261182313816448
 20
7.832474800362994
 30
0.0
 11
7.716081301138785
 21
6.377575813040664
 31
0.0
  0
LINE
  5
C0A
330
1A
100
AcDbEntity
  8
ZUWAKU
100
AcDbLine
 10
9.321106554308244
 20
4.975000053532404
 30
0.0
 11
9.321106554308244
 21
5.882601066210078
 31
0.0
  0
ARC
  5
C0B
330
1A
100
AcDbEntity
  8
ZUWAKU
100
AcDbCircle
 10
12.47110655430822
 20
5.675000053532407
 30
0.0
 40
0.7
100
AcDbArc
 50
180.0
 51
270.0
  0
ARC
  5
C0C
330
1A
100
AcDbEntity
  8
ZUWAKU
100
AcDbCircle
 10
8.796106554308209
 20
11.3625000535324
 30
0.0
 40
0.2625
100
AcDbArc
 50
0.0
 51
90.0
  0
ARC
  5
C0D
330
1A
100
AcDbEntity
  8
ZUWAKU
100
AcDbCircle
 10
8.796106554308209
 20
10.4875000535324
 30
0.0
 40
0.2625
100
AcDbArc
 50
270.0
 51
0.0
  0
LINE
  5
C0E
330
1A
100
AcDbEntity
  8
ZUWAKU
100
AcDbLine
 10
7.046106554308209
 20
11.6250000535324
 30
0.0
 11
8.796106554308209
 21
11.6250000535324
 31
0.0
  0
ARC
  5
C0F
330
1A
100
AcDbEntity
  8
ZUWAKU
100
AcDbCircle
 10
7.308606554308198
 20
9.962500053532405
 30
0.0
 40
0.2625
100
AcDbArc
 50
90.0
 51
180.0
  0
LINE
  5
C10
330
1A
100
AcDbEntity
  8
ZUWAKU
100
AcDbLine
 10
7.046106554308209
 20
9.962500053532405
 30
0.0
 11
7.046106554308209
 21
9.317399040854734
 31
0.0
  0
LINE
  5
C11
330
1A
100
AcDbEntity
  8
ZUWAKU
100
AcDbLine
 10
8.796106554308209
 20
10.2250000535324
 30
0.0
 11
7.308606554308198
 21
10.2250000535324
 31
0.0
  0
LINE
  5
C12
330
1A
100
AcDbEntity
  8
ZUWAKU
100
AcDbLine
 10
5.646106554308232
 20
10.2250000535324
 30
0.0
 11
5.646106554308232
 21
9.317399040854734
 31
0.0
  0
ARC
  5
C13
330
1A
100
AcDbEntity
  8
ZUWAKU
100
AcDbCircle
 10
7.046106554308209
 20
10.2250000535324
 30
0.0
 40
1.399999999999999
100
AcDbArc
 50
90.0
 51
180.0
  0
LINE
  5
C14
330
1A
100
AcDbEntity
  8
ZUWAKU
100
AcDbLine
 10
9.058606554308198
 20
11.3625000535324
 30
0.0
 11
9.058606554308198
 21
10.4875000535324
 31
0.0
  0
ARC
  5
C15
330
1A
100
AcDbEntity
  8
ZUWAKU
100
AcDbCircle
 10
12.47110655430822
 20
9.525000053532405
 30
0.0
 40
0.7
100
AcDbArc
 50
90.0
 51
180.0
  0
ARC
  5
C16
330
1A
100
AcDbEntity
  8
ZUWAKU
100
AcDbCircle
 10
12.47110655430822
 20
9.525000053532384
 30
0.0
 40
2.099999999999999
100
AcDbArc
 50
90.0
 51
180.0
  0
LINE
  5
C17
330
1A
100
AcDbEntity
  8
ZUWAKU
100
AcDbLine
 10
39.66331525091175
 20
15.0000000535324
 30
0.0
 11
39.66331525091186
 21
0.4000000535324375
 31
0.0
  0
LINE
  5
C18
330
1A
100
AcDbEntity
  8
ZUWAKU
100
AcDbLine
 10
39.76331525091177
 20
15.0000000535324
 30
0.0
 11
39.76331525091188
 21
0.4000000535324375
 31
0.0
  0
LINE
  5
C19
330
1A
100
AcDbEntity
  8
ZUWAKU
100
AcDbLine
 10
39.56331525091184
 20
15.0000000535324
 30
0.0
 11
39.56331525091184
 21
0.4000000535324375
 31
0.0
  0
LINE
  5
C1A
330
1A
100
AcDbEntity
  8
ZUWAKU
100
AcDbLine
 10
32.07110655430824
 20
4.975000053532404
 30
0.0
 11
32.07110655430824
 21
11.3625000535324
 31
0.0
  0
LINE
  5
C1B
330
1A
100
AcDbEntity
  8
ZUWAKU
100
AcDbLine
 10
30.67110655430821
 20
11.3625000535324
 30
0.0
 11
30.67110655430821
 21
5.500000053532403
 31
0.0
  0
LINE
  5
C1C
330
1A
100
AcDbEntity
  8
ZUWAKU
100
AcDbLine
 10
34.52110655430823
 20
3.837500053532405
 30
0.0
 11
34.52110655430823
 21
11.3625000535324
 31
0.0
  0
LINE
  5
C1D
330
1A
100
AcDbEntity
  8
ZUWAKU
100
AcDbLine
 10
33.12110655430819
 20
11.3625000535324
 30
0.0
 11
33.12110655430819
 21
3.837500053532405
 31
0.0
  0
ARC
  5
C1E
330
1A
100
AcDbEntity
  8
ZUWAKU
100
AcDbCircle
 10
24.89610655430823
 20
9.317399040854756
 30
0.0
 40
0.7
100
AcDbArc
 50
180.0000000000016
 51
224.9999999999988
  0
ARC
  5
C1F
330
1A
100
AcDbEntity
  8
ZUWAKU
100
AcDbCircle
 10
24.89610655430823
 20
9.317399040854756
 30
0.0
 40
2.099999999999999
100
AcDbArc
 50
180.0
 51
225.0
  0
LINE
  5
C20
330
1A
100
AcDbEntity
  8
ZUWAKU
100
AcDbLine
 10
18.6574297953972
 20
9.602523650314118
 30
0.0
 11
18.02505392272928
 21
7.600000053532415
 31
0.0
  0
LINE
  5
C21
330
1A
100
AcDbEntity
  8
ZUWAKU
100
AcDbLine
 10
20.34610655430822
 20
11.3625000535324
 30
0.0
 11
20.34610655430822
 21
3.837500053532405
 31
0.0
  0
LINE
  5
C22
330
1A
100
AcDbEntity
  8
ZUWAKU
100
AcDbLine
 10
21.74610655430819
 20
3.837500053532405
 30
0.0
 11
21.74610655430819
 21
11.3625000535324
 31
0.0
  0
LINE
  5
C23
330
1A
100
AcDbEntity
  8
ZUWAKU
100
AcDbLine
 10
27.52110655430823
 20
11.3625000535324
 30
0.0
 11
27.52110655430823
 21
4.975000053532404
 31
0.0
  0
LINE
  5
C24
330
1A
100
AcDbEntity
  8
ZUWAKU
100
AcDbLine
 10
28.92110655430821
 20
5.500000053532403
 30
0.0
 11
28.92110655430821
 21
11.3625000535324
 31
0.0
  0
LINE
  5
C25
330
1A
100
AcDbEntity
  8
ZUWAKU
100
AcDbLine
 10
16.32110655430824
 20
8.562500053532406
 30
0.0
 11
16.32110655430824
 21
11.3625000535324
 31
0.0
  0
LINE
  5
C26
330
1A
100
AcDbEntity
  8
ZUWAKU
100
AcDbLine
 10
14.9211065543082
 20
11.3625000535324
 30
0.0
 11
14.9211065543082
 21
3.837500053532405
 31
0.0
  0
LINE
  5
C27
330
1A
100
AcDbEntity
  8
ZUWAKU
100
AcDbLine
 10
17.83817402296614
 20
11.44154703761589
 30
0.0
 11
16.90403908565025
 21
8.48345306944892
 31
0.0
  0
LINE
  5
C28
330
1A
100
AcDbEntity
  8
ZUWAKU
100
AcDbLine
 10
30.14610655430823
 20
4.975000053532404
 30
0.0
 11
29.44610655430824
 21
4.975000053532404
 31
0.0
  0
LINE
  5
C29
330
1A
100
AcDbEntity
  8
ZUWAKU
100
AcDbLine
 10
28.92110655430821
 20
3.575000053532406
 30
0.0
 11
30.67110655430821
 21
3.575000053532406
 31
0.0
  0
LINE
  5
C2A
330
1A
100
AcDbEntity
  8
ZUWAKU
100
AcDbLine
 10
20.60860655430821
 20
3.575000053532406
 30
0.0
 11
21.4836065543082
 21
3.575000053532406
 31
0.0
  0
LINE
  5
C2B
330
1A
100
AcDbEntity
  8
ZUWAKU
100
AcDbLine
 10
17.83817402296614
 20
3.758453069448918
 30
0.0
 11
16.90403908565025
 21
6.716547037615889
 31
0.0
  0
ARC
  5
C2C
330
1A
100
AcDbEntity
  8
ZUWAKU
100
AcDbCircle
 10
16.65372363605257
 20
8.562500053532406
 30
0.0
 40
0.2625
100
AcDbArc
 50
270.0
 51
342.4744316262769
  0
LINE
  5
C2D
330
1A
100
AcDbEntity
  8
ZUWAKU
100
AcDbLine
 10
16.65372363605257
 20
8.300000053532404
 30
0.0
 11
16.58360655430823
 21
8.300000053532404
 31
0.0
  0
LINE
  5
C2E
330
1A
100
AcDbEntity
  8
ZUWAKU
100
AcDbLine
 10
16.58360655430823
 20
6.900000053532405
 30
0.0
 11
16.65372363605257
 21
6.900000053532405
 31
0.0
  0
ARC
  5
C2F
330
1A
100
AcDbEntity
  8
ZUWAKU
100
AcDbCircle
 10
16.58360655430823
 20
8.562500053532406
 30
0.0
 40
0.2625
100
AcDbArc
 50
180.0
 51
270.0
  0
LINE
  5
C30
330
1A
100
AcDbEntity
  8
ZUWAKU
100
AcDbLine
 10
15.1836065543082
 20
3.575000053532406
 30
0.0
 11
16.05860655430819
 21
3.575000053532406
 31
0.0
  0
ARC
  5
C31
330
1A
100
AcDbEntity
  8
ZUWAKU
100
AcDbCircle
 10
16.05860655430819
 20
3.837500053532405
 30
0.0
 40
0.2625
100
AcDbArc
 50
270.0
 51
0.0
  0
LINE
  5
C32
330
1A
100
AcDbEntity
  8
ZUWAKU
100
AcDbLine
 10
16.32110655430824
 20
3.837500053532405
 30
0.0
 11
16.32110655430824
 21
6.637500053532406
 31
0.0
  0
LINE
  5
C33
330
1A
100
AcDbEntity
  8
ZUWAKU
100
AcDbLine
 10
13.69610655430824
 20
4.712500053532405
 30
0.0
 11
13.69610655430824
 21
3.837500053532405
 31
0.0
  0
ARC
  5
C34
330
1A
100
AcDbEntity
  8
ZUWAKU
100
AcDbCircle
 10
13.43360655430819
 20
3.837500053532405
 30
0.0
 40
0.2625
100
AcDbArc
 50
270.0
 51
0.0
  0
ARC
  5
C35
330
1A
100
AcDbEntity
  8
ZUWAKU
100
AcDbCircle
 10
13.43360655430819
 20
4.712500053532405
 30
0.0
 40
0.2625
100
AcDbArc
 50
0.0
 51
90.0
  0
ARC
  5
C36
330
1A
100
AcDbEntity
  8
ZUWAKU
100
AcDbCircle
 10
15.1836065543082
 20
3.837500053532405
 30
0.0
 40
0.2625
100
AcDbArc
 50
180.0
 51
270.0
  0
ARC
  5
C37
330
1A
100
AcDbEntity
  8
ZUWAKU
100
AcDbCircle
 10
16.65372363605257
 20
6.637500053532406
 30
0.0
 40
0.2625
100
AcDbArc
 50
17.52556837372303
 51
90.0
  0
ARC
  5
C38
330
1A
100
AcDbEntity
  8
ZUWAKU
100
AcDbCircle
 10
16.58360655430823
 20
6.637500053532406
 30
0.0
 40
0.2625
100
AcDbArc
 50
90.0
 51
180.0
  0
ARC
  5
C39
330
1A
100
AcDbEntity
  8
ZUWAKU
100
AcDbCircle
 10
20.60860655430821
 20
3.837500053532405
 30
0.0
 40
0.2625
100
AcDbArc
 50
180.0
 51
270.0
  0
LINE
  5
C3A
330
1A
100
AcDbEntity
  8
ZUWAKU
100
AcDbLine
 10
18.08848947256388
 20
3.575000053532406
 30
0.0
 11
18.93793416236837
 21
3.575000053532406
 31
0.0
  0
ARC
  5
C3B
330
1A
100
AcDbEntity
  8
ZUWAKU
100
AcDbCircle
 10
18.93793416236837
 20
3.837500053532405
 30
0.0
 40
0.2625
100
AcDbArc
 50
270.0
 51
17.52556837372303
  0
LINE
  5
C3C
330
1A
100
AcDbEntity
  8
ZUWAKU
100
AcDbLine
 10
19.18824961196611
 20
3.916547037615892
 30
0.0
 11
18.02505392272928
 21
7.600000053532415
 31
0.0
  0
ARC
  5
C3D
330
1A
100
AcDbEntity
  8
ZUWAKU
100
AcDbCircle
 10
18.08848947256388
 20
3.837500053532405
 30
0.0
 40
0.2625
100
AcDbArc
 50
197.525568373723
 51
270.0
  0
ARC
  5
C3E
330
1A
100
AcDbEntity
  8
ZUWAKU
100
AcDbCircle
 10
28.92110655430821
 20
4.975000053532404
 30
0.0
 40
1.399999999999999
100
AcDbArc
 50
180.0
 51
270.0
  0
ARC
  5
C3F
330
1A
100
AcDbEntity
  8
ZUWAKU
100
AcDbCircle
 10
25.07110655430824
 20
4.975000053532404
 30
0.0
 40
1.399999999999999
100
AcDbArc
 50
270.0
 51
0.0
  0
LINE
  5
C40
330
1A
100
AcDbEntity
  8
ZUWAKU
100
AcDbLine
 10
25.8560307948
 20
7.367525306701818
 30
0.0
 11
24.40113180747761
 21
8.822424294024155
 31
0.0
  0
LINE
  5
C41
330
1A
100
AcDbEntity
  8
ZUWAKU
100
AcDbLine
 10
25.07110655430824
 20
5.237500053532407
 30
0.0
 11
25.07110655430824
 21
5.882601066210078
 31
0.0
  0
ARC
  5
C42
330
1A
100
AcDbEntity
  8
ZUWAKU
100
AcDbCircle
 10
24.37110655430819
 20
5.882601066210078
 30
0.0
 40
0.7
100
AcDbArc
 50
0.0
 51
45.0
  0
ARC
  5
C43
330
1A
100
AcDbEntity
  8
ZUWAKU
100
AcDbCircle
 10
24.8086065543082
 20
5.237500053532407
 30
0.0
 40
0.2625
100
AcDbArc
 50
270.0
 51
0.0
  0
LINE
  5
C44
330
1A
100
AcDbEntity
  8
ZUWAKU
100
AcDbLine
 10
23.05860655430819
 20
3.837500053532405
 30
0.0
 11
23.05860655430819
 21
4.712500053532405
 31
0.0
  0
ARC
  5
C45
330
1A
100
AcDbEntity
  8
ZUWAKU
100
AcDbCircle
 10
23.32110655430824
 20
3.837500053532405
 30
0.0
 40
0.2625
100
AcDbArc
 50
180.0
 51
270.0
  0
ARC
  5
C46
330
1A
100
AcDbEntity
  8
ZUWAKU
100
AcDbCircle
 10
21.4836065543082
 20
3.837500053532405
 30
0.0
 40
0.2625
100
AcDbArc
 50
270.0
 51
0.0
  0
ARC
  5
C47
330
1A
100
AcDbEntity
  8
ZUWAKU
100
AcDbCircle
 10
23.32110655430824
 20
4.712500053532405
 30
0.0
 40
0.2625
100
AcDbArc
 50
90.0
 51
180.0
  0
LINE
  5
C48
330
1A
100
AcDbEntity
  8
ZUWAKU
100
AcDbLine
 10
23.32110655430824
 20
4.975000053532404
 30
0.0
 11
24.8086065543082
 21
4.975000053532404
 31
0.0
  0
LINE
  5
C49
330
1A
100
AcDbEntity
  8
ZUWAKU
100
AcDbLine
 10
23.32110655430824
 20
3.575000053532406
 30
0.0
 11
25.07110655430824
 21
3.575000053532406
 31
0.0
  0
LINE
  5
C4A
330
1A
100
AcDbEntity
  8
ZUWAKU
100
AcDbLine
 10
23.41118231381648
 20
7.832474800362994
 30
0.0
 11
24.86608130113882
 21
6.377575813040664
 31
0.0
  0
LINE
  5
C4B
330
1A
100
AcDbEntity
  8
ZUWAKU
100
AcDbLine
 10
26.47110655430822
 20
4.975000053532404
 30
0.0
 11
26.47110655430822
 21
5.882601066210078
 31
0.0
  0
ARC
  5
C4C
330
1A
100
AcDbEntity
  8
ZUWAKU
100
AcDbCircle
 10
24.37110655430819
 20
5.882601066210057
 30
0.0
 40
2.099999999999999
100
AcDbArc
 50
0.0
 51
45.0
  0
ARC
  5
C4D
330
1A
100
AcDbEntity
  8
ZUWAKU
100
AcDbCircle
 10
29.44610655430824
 20
5.500000053532403
 30
0.0
 40
0.525
100
AcDbArc
 50
180.0
 51
270.0
  0
ARC
  5
C4E
330
1A
100
AcDbEntity
  8
ZUWAKU
100
AcDbCircle
 10
30.67110655430821
 20
4.975000053532404
 30
0.0
 40
1.399999999999999
100
AcDbArc
 50
270.0
 51
0.0
  0
LINE
  5
C4F
330
1A
100
AcDbEntity
  8
ZUWAKU
100
AcDbLine
 10
33.38360655430824
 20
3.575000053532406
 30
0.0
 11
34.25860655430824
 21
3.575000053532406
 31
0.0
  0
ARC
  5
C50
330
1A
100
AcDbEntity
  8
ZUWAKU
100
AcDbCircle
 10
33.38360655430824
 20
3.837500053532405
 30
0.0
 40
0.2625
100
AcDbArc
 50
180.0
 51
270.0
  0
ARC
  5
C51
330
1A
100
AcDbEntity
  8
ZUWAKU
100
AcDbCircle
 10
30.14610655430823
 20
5.500000053532403
 30
0.0
 40
0.525
100
AcDbArc
 50
270.0
 51
0.0
  0
ARC
  5
C52
330
1A
100
AcDbEntity
  8
ZUWAKU
100
AcDbCircle
 10
34.25860655430824
 20
3.837500053532405
 30
0.0
 40
0.2625
100
AcDbArc
 50
270.0
 51
0.0
  0
LINE
  5
C53
330
1A
100
AcDbEntity
  8
ZUWAKU
100
AcDbLine
 10
21.4836065543082
 20
11.6250000535324
 30
0.0
 11
20.60860655430821
 21
11.6250000535324
 31
0.0
  0
ARC
  5
C54
330
1A
100
AcDbEntity
  8
ZUWAKU
100
AcDbCircle
 10
16.05860655430819
 20
11.3625000535324
 30
0.0
 40
0.2625
100
AcDbArc
 50
0.0
 51
90.0
  0
LINE
  5
C55
330
1A
100
AcDbEntity
  8
ZUWAKU
100
AcDbLine
 10
16.05860655430819
 20
11.6250000535324
 30
0.0
 11
15.1836065543082
 21
11.6250000535324
 31
0.0
  0
ARC
  5
C56
330
1A
100
AcDbEntity
  8
ZUWAKU
100
AcDbCircle
 10
13.43360655430819
 20
11.3625000535324
 30
0.0
 40
0.2625
100
AcDbArc
 50
0.0
 51
90.0
  0
ARC
  5
C57
330
1A
100
AcDbEntity
  8
ZUWAKU
100
AcDbCircle
 10
15.1836065543082
 20
11.3625000535324
 30
0.0
 40
0.2625
100
AcDbArc
 50
90.0
 51
180.0
  0
ARC
  5
C58
330
1A
100
AcDbEntity
  8
ZUWAKU
100
AcDbCircle
 10
13.43360655430819
 20
10.4875000535324
 30
0.0
 40
0.2625
100
AcDbArc
 50
270.0
 51
0.0
  0
LINE
  5
C59
330
1A
100
AcDbEntity
  8
ZUWAKU
100
AcDbLine
 10
13.69610655430824
 20
11.3625000535324
 30
0.0
 11
13.69610655430824
 21
10.4875000535324
 31
0.0
  0
ARC
  5
C5A
330
1A
100
AcDbEntity
  8
ZUWAKU
100
AcDbCircle
 10
20.60860655430821
 20
11.3625000535324
 30
0.0
 40
0.2625
100
AcDbArc
 50
90.0
 51
180.0
  0
LINE
  5
C5B
330
1A
100
AcDbEntity
  8
ZUWAKU
100
AcDbLine
 10
18.08848947256388
 20
11.6250000535324
 30
0.0
 11
18.93793416236837
 21
11.6250000535324
 31
0.0
  0
ARC
  5
C5C
330
1A
100
AcDbEntity
  8
ZUWAKU
100
AcDbCircle
 10
18.93793416236837
 20
11.3625000535324
 30
0.0
 40
0.2625
100
AcDbArc
 50
342.4744316262769
 51
90.0
  0
LINE
  5
C5D
330
1A
100
AcDbEntity
  8
ZUWAKU
100
AcDbLine
 10
19.18824961196611
 20
11.28345306944892
 30
0.0
 11
18.6574297953972
 21
9.602523650314118
 31
0.0
  0
ARC
  5
C5E
330
1A
100
AcDbEntity
  8
ZUWAKU
100
AcDbCircle
 10
18.08848947256388
 20
11.3625000535324
 30
0.0
 40
0.2625
100
AcDbArc
 50
90.0
 51
162.4744316262769
  0
LINE
  5
C5F
330
1A
100
AcDbEntity
  8
ZUWAKU
100
AcDbLine
 10
24.19610655430824
 20
11.6250000535324
 30
0.0
 11
25.94610655430824
 21
11.6250000535324
 31
0.0
  0
LINE
  5
C60
330
1A
100
AcDbEntity
  8
ZUWAKU
100
AcDbLine
 10
25.94610655430824
 20
10.2250000535324
 30
0.0
 11
24.45860655430823
 21
10.2250000535324
 31
0.0
  0
ARC
  5
C61
330
1A
100
AcDbEntity
  8
ZUWAKU
100
AcDbCircle
 10
24.45860655430823
 20
9.962500053532405
 30
0.0
 40
0.2625
100
AcDbArc
 50
90.0
 51
180.0
  0
LINE
  5
C62
330
1A
100
AcDbEntity
  8
ZUWAKU
100
AcDbLine
 10
24.19610655430824
 20
9.962500053532405
 30
0.0
 11
24.19610655430824
 21
9.317399040854734
 31
0.0
  0
ARC
  5
C63
330
1A
100
AcDbEntity
  8
ZUWAKU
100
AcDbCircle
 10
21.4836065543082
 20
11.3625000535324
 30
0.0
 40
0.2625
100
AcDbArc
 50
0.0
 51
90.0
  0
LINE
  5
C64
330
1A
100
AcDbEntity
  8
ZUWAKU
100
AcDbLine
 10
22.79610655430821
 20
10.2250000535324
 30
0.0
 11
22.79610655430821
 21
9.317399040854734
 31
0.0
  0
ARC
  5
C65
330
1A
100
AcDbEntity
  8
ZUWAKU
100
AcDbCircle
 10
24.19610655430824
 20
10.2250000535324
 30
0.0
 40
1.399999999999999
100
AcDbArc
 50
90.0
 51
180.0
  0
ARC
  5
C66
330
1A
100
AcDbEntity
  8
ZUWAKU
100
AcDbCircle
 10
28.65860655430822
 20
11.3625000535324
 30
0.0
 40
0.2625
100
AcDbArc
 50
0.0
 51
90.0
  0
ARC
  5
C67
330
1A
100
AcDbEntity
  8
ZUWAKU
100
AcDbCircle
 10
27.78360655430822
 20
11.3625000535324
 30
0.0
 40
0.2625
100
AcDbArc
 50
90.0
 51
180.0
  0
LINE
  5
C68
330
1A
100
AcDbEntity
  8
ZUWAKU
100
AcDbLine
 10
28.65860655430822
 20
11.6250000535324
 30
0.0
 11
27.78360655430822
 21
11.6250000535324
 31
0.0
  0
ARC
  5
C69
330
1A
100
AcDbEntity
  8
ZUWAKU
100
AcDbCircle
 10
25.94610655430824
 20
11.3625000535324
 30
0.0
 40
0.2625
100
AcDbArc
 50
0.0
 51
90.0
  0
ARC
  5
C6A
330
1A
100
AcDbEntity
  8
ZUWAKU
100
AcDbCircle
 10
25.94610655430824
 20
10.4875000535324
 30
0.0
 40
0.2625
100
AcDbArc
 50
270.0
 51
0.0
  0
LINE
  5
C6B
330
1A
100
AcDbEntity
  8
ZUWAKU
100
AcDbLine
 10
26.20860655430823
 20
11.3625000535324
 30
0.0
 11
26.20860655430823
 21
10.4875000535324
 31
0.0
  0
LINE
  5
C6C
330
1A
100
AcDbEntity
  8
ZUWAKU
100
AcDbLine
 10
34.25860655430824
 20
11.6250000535324
 30
0.0
 11
33.38360655430824
 21
11.6250000535324
 31
0.0
  0
ARC
  5
C6D
330
1A
100
AcDbEntity
  8
ZUWAKU
100
AcDbCircle
 10
33.38360655430824
 20
11.3625000535324
 30
0.0
 40
0.2625
100
AcDbArc
 50
90.0
 51
180.0
  0
ARC
  5
C6E
330
1A
100
AcDbEntity
  8
ZUWAKU
100
AcDbCircle
 10
31.80860655430819
 20
11.3625000535324
 30
0.0
 40
0.2625
100
AcDbArc
 50
0.0
 51
90.0
  0
LINE
  5
C6F
330
1A
100
AcDbEntity
  8
ZUWAKU
100
AcDbLine
 10
31.80860655430819
 20
11.6250000535324
 30
0.0
 11
30.93360655430819
 21
11.6250000535324
 31
0.0
  0
ARC
  5
C70
330
1A
100
AcDbEntity
  8
ZUWAKU
100
AcDbCircle
 10
30.93360655430819
 20
11.3625000535324
 30
0.0
 40
0.2625
100
AcDbArc
 50
90.0
 51
180.0
  0
ARC
  5
C71
330
1A
100
AcDbEntity
  8
ZUWAKU
100
AcDbCircle
 10
34.25860655430824
 20
11.3625000535324
 30
0.0
 40
0.2625
100
AcDbArc
 50
0.0
 51
90.0
  0
TEXT
  5
C72
330
1A
100
AcDbEntity
  8
MOJI
100
AcDbText
 10
119.9136018173431
 20
1.602460582236114
 30
0.0
 40
2.799999999999999
  1
Ｙ６０－Ｌ９０
 41
0.9
  7
ｽﾀｲﾙ1
100
AcDbText
  0
TEXT
  5
C73
330
1A
100
AcDbEntity
  8
MOJI
100
AcDbText
 10
119.9136018173431
 20
9.002460582236096
 30
0.0
 40
2.799999999999999
  1
ブラケットデンデン（打込）
 41
0.9
  7
ｽﾀｲﾙ1
100
AcDbText
  0
LINE
  5
C74
330
1A
100
AcDbEntity
  8
ZUWAKU
100
AcDbLine
 10
104.1233011219516
 20
15.0000000535324
 30
0.0
 11
104.1233011219516
 21
0.4000000535324375
 31
0.0
  0
LINE
  5
C75
330
1A
100
AcDbEntity
  8
ZUWAKU
100
AcDbLine
 10
104.3233011219515
 20
15.0000000535324
 30
0.0
 11
104.3233011219516
 21
0.4000000535324375
 31
0.0
  0
LINE
  5
C76
330
1A
100
AcDbEntity
  8
ZUWAKU
100
AcDbLine
 10
104.2233011219515
 20
15.0000000535324
 30
0.0
 11
104.2233011219516
 21
0.4000000535324375
 31
0.0
  0
TEXT
  5
C77
330
1A
100
AcDbEntity
  8
ZUWAKU
100
AcDbText
 10
104.8620236330564
 20
4.827678322725212
 30
0.0
 40
2.0
  1
サイズ
 41
0.9
  7
ｽﾀｲﾙ1
100
AcDbText
  0
TEXT
  5
C78
330
1A
100
AcDbEntity
  8
ZUWAKU
100
AcDbText
 10
104.8620236330563
 20
12.02767832272519
 30
0.0
 40
2.0
  1
品名
 41
0.9
  7
ｽﾀｲﾙ1
100
AcDbText
  0
LINE
  5
C79
330
1A
100
AcDbEntity
  8
ZUWAKU
100
AcDbLine
 10
324.4086017320197
 20
7.600000053532419
 30
0.0
 11
348.6245057511883
 21
7.60000005353242
 31
0.0
  0
LINE
  5
C7A
330
1A
100
AcDbEntity
  8
ZUWAKU
100
AcDbLine
 10
324.4086017320198
 20
7.700000053532422
 30
0.0
 11
348.6245057511883
 21
7.70000005353242
 31
0.0
  0
LINE
  5
C7B
330
1A
100
AcDbEntity
  8
ZUWAKU
100
AcDbLine
 10
324.4086017320197
 20
7.80000005353242
 30
0.0
 11
348.6245057511883
 21
7.80000005353242
 31
0.0
  0
TEXT
  5
C7C
330
1A
100
AcDbEntity
  8
ZUWAKU
100
AcDbText
 10
329.1019693205688
 20
9.002460582236096
 30
0.0
 40
2.799999999999999
  1
　　．　　．　　
 41
0.9
  7
ｽﾀｲﾙ1
100
AcDbText
  0
LINE
  5
C7D
330
1A
100
AcDbEntity
  8
ZUWAKU
100
AcDbLine
 10
252.5995902259881
 20
7.600000053532422
 30
0.0
 11
276.2634783599738
 21
7.600000053532422
 31
0.0
  0
LINE
  5
C7E
330
1A
100
AcDbEntity
  8
ZUWAKU
100
AcDbLine
 10
252.5995902259881
 20
7.70000005353242
 30
0.0
 11
276.2634783599738
 21
7.70000005353242
 31
0.0
  0
LINE
  5
C7F
330
1A
100
AcDbEntity
  8
ZUWAKU
100
AcDbLine
 10
252.5995902259881
 20
7.80000005353242
 30
0.0
 11
276.2634783599738
 21
7.80000005353242
 31
0.0
  0
TEXT
  5
C80
330
1A
100
AcDbEntity
  8
MOJI
100
AcDbText
 10
231.6232164724187
 20
5.971308914362396
 30
0.0
 40
2.799999999999999
  1
ＬＭ７４□
 41
0.9
  7
ｽﾀｲﾙ1
100
AcDbText
  0
LINE
  5
C81
330
1A
100
AcDbEntity
  8
ZUWAKU
100
AcDbLine
 10
223.8121824624132
 20
15.0000000535324
 30
0.0
 11
223.8121824624133
 21
0.4000000535324375
 31
0.0
  0
LINE
  5
C82
330
1A
100
AcDbEntity
  8
ZUWAKU
100
AcDbLine
 10
223.9121824624132
 20
15.0000000535324
 30
0.0
 11
223.9121824624134
 21
0.4000000535324375
 31
0.0
  0
LINE
  5
C83
330
1A
100
AcDbEntity
  8
ZUWAKU
100
AcDbLine
 10
223.7121824624133
 20
15.0000000535324
 30
0.0
 11
223.7121824624133
 21
0.4000000535324375
 31
0.0
  0
TEXT
  5
C84
330
1A
100
AcDbEntity
  8
MOJI
100
AcDbText
 10
264.020454463074
 20
9.002460582236096
 30
0.0
 40
2.799999999999999
  1
Ａ３
 41
0.9
  7
ｽﾀｲﾙ1
100
AcDbText
  0
LINE
  5
C85
330
1A
100
AcDbEntity
  8
ZUWAKU
100
AcDbLine
 10
252.499590225988
 20
15.0000000535324
 30
0.0
 11
252.4995902259882
 21
0.4000000535324375
 31
0.0
  0
LINE
  5
C86
330
1A
100
AcDbEntity
  8
ZUWAKU
100
AcDbLine
 10
252.5995902259881
 20
15.0000000535324
 30
0.0
 11
252.5995902259882
 21
0.4000000535324375
 31
0.0
  0
LINE
  5
C87
330
1A
100
AcDbEntity
  8
ZUWAKU
100
AcDbLine
 10
252.3995902259881
 20
15.0000000535324
 30
0.0
 11
252.3995902259881
 21
0.4000000535324375
 31
0.0
  0
TEXT
  5
C88
330
1A
100
AcDbEntity
  8
ZUWAKU
100
AcDbText
 10
230.6528771881791
 20
1.307035509102149
 30
0.0
 40
1.5
  1
□には色品番が入ります
 41
0.9
  7
ｽﾀｲﾙ1
100
AcDbText
  0
TEXT
  5
C89
330
1A
100
AcDbEntity
  8
ZUWAKU
100
AcDbText
 10
253.338312737093
 20
4.827678322725212
 30
0.0
 40
2.0
  1
縮尺
 41
0.9
  7
ｽﾀｲﾙ1
100
AcDbText
  0
TEXT
  5
C8A
330
1A
100
AcDbEntity
  8
MOJI
100
AcDbText
 10
264.020454463074
 20
1.602460582236114
 30
0.0
 40
2.799999999999999
  1
１/１
 41
0.9
  7
ｽﾀｲﾙ1
100
AcDbText
  0
TEXT
  5
C8B
330
1A
100
AcDbEntity
  8
ZUWAKU
100
AcDbText
 10
224.650904973518
 20
12.02767832272519
 30
0.0
 40
2.0
  1
品番
 41
0.9
  7
ｽﾀｲﾙ1
100
AcDbText
  0
TEXT
  5
C8C
330
1A
100
AcDbEntity
  8
ZUWAKU
100
AcDbText
 10
253.3383127370929
 20
12.02767832272519
 30
0.0
 40
2.0
  1
用紙
 41
0.9
  7
ｽﾀｲﾙ1
100
AcDbText
  0
LINE
  5
C8D
330
1A
100
AcDbEntity
  8
ZUWAKU
100
AcDbLine
 10
324.3086017320198
 20
15.0000000535324
 30
0.0
 11
324.3086017320199
 21
0.4000000535324375
 31
0.0
  0
LINE
  5
C8E
330
1A
100
AcDbEntity
  8
ZUWAKU
100
AcDbLine
 10
324.4086017320198
 20
15.0000000535324
 30
0.0
 11
324.4086017320199
 21
0.4000000535324375
 31
0.0
  0
LINE
  5
C8F
330
1A
100
AcDbEntity
  8
ZUWAKU
100
AcDbLine
 10
324.2086017320199
 20
15.0000000535324
 30
0.0
 11
324.2086017320199
 21
0.4000000535324375
 31
0.0
  0
LINE
  5
C90
330
1A
100
AcDbEntity
  8
ZUWAKU
100
AcDbLine
 10
276.3634783599737
 20
15.0000000535324
 30
0.0
 11
276.3634783599739
 21
0.4000000535324375
 31
0.0
  0
LINE
  5
C91
330
1A
100
AcDbEntity
  8
ZUWAKU
100
AcDbLine
 10
276.4634783599738
 20
15.0000000535324
 30
0.0
 11
276.4634783599739
 21
0.4000000535324375
 31
0.0
  0
LINE
  5
C92
330
1A
100
AcDbEntity
  8
ZUWAKU
100
AcDbLine
 10
276.2634783599738
 20
15.0000000535324
 30
0.0
 11
276.2634783599738
 21
0.4000000535324375
 31
0.0
  0
TEXT
  5
C93
330
1A
100
AcDbEntity
  8
ZUWAKU
100
AcDbText
 10
325.1473242431246
 20
12.02767832272519
 30
0.0
 40
2.0
  1
DATE
 41
0.9
  7
ｽﾀｲﾙ1
100
AcDbText
  0
LINE
  5
C94
330
1A
100
AcDbEntity
  8
ZUWAKU
100
AcDbLine
 10
348.6245057511883
 20
15.0000000535324
 30
0.0
 11
348.6245057511883
 21
0.4000000535324375
 31
0.0
  0
LINE
  5
C95
330
1A
100
AcDbEntity
  8
ZUWAKU
100
AcDbLine
 10
348.7245057511882
 20
15.0000000535324
 30
0.0
 11
348.7245057511882
 21
0.4000000535324375
 31
0.0
  0
LINE
  5
C96
330
1A
100
AcDbEntity
  8
ZUWAKU
100
AcDbLine
 10
348.8245057511882
 20
15.0000000535324
 30
0.0
 11
348.8245057511883
 21
0.4000000535324375
 31
0.0
  0
LINE
  5
C97
330
1A
100
AcDbEntity
  8
ZUWAKU
100
AcDbLine
 10
348.9245057511882
 20
15.0000000535324
 30
0.0
 11
348.9245057511883
 21
0.4000000535324375
 31
0.0
  0
TEXT
  5
C98
330
1A
100
AcDbEntity
  8
ZUWAKU
100
AcDbText
 10
354.2640425730395
 20
8.776919721375804
 30
0.0
 40
3.0
  1
積水化学工業株式会社
 41
0.9
  7
ｽﾀｲﾙ1
100
AcDbText
  0
TEXT
  5
C99
330
1A
100
AcDbEntity
  8
ZUWAKU
100
AcDbText
 10
354.2640425730395
 20
3.324420210459436
 30
0.0
 40
3.0
  1
建材事業部
 41
0.9
  7
ｽﾀｲﾙ1
100
AcDbText
  0
VIEWPORT
  5
22
330
17
100
AcDbEntity
 67
     1
  8
0
100
AcDbViewport
 10
313.6808219178082
 20
148.5
 30
0.0
 40
627.3616438356165
 41
297.0
 68
     2
 69
     1
1001
ACAD
1000
MVIEW
1002
{
1070
    16
1010
0.0
1020
0.0
1030
0.0
1010
0.0
1020
0.0
1030
1.0
1040
0.0
1040
297.0
1040
313.6808219178082
1040
148.5
1040
50.0
1040
0.0
1040
0.0
1070
     0
1070
   100
1070
     1
1070
     0
1070
     0
1070
     0
1070
     0
1070
     0
1040
0.0
1040
0.0
1040
0.0
1040
1.0
1040
1.0
1040
10.0
1040
10.0
1070
     0
1002
{
1002
}
1002
}
  0
VIEWPORT
  5
64
330
17
100
AcDbEntity
 67
     1
  8
VIEWPORT
100
AcDbViewport
 10
210.0
 20
148.5
 30
0.0
 40
420.0
 41
297.0
 68
     1
 69
     2
1001
ACAD
1000
MVIEW
1002
{
1070
    16
1010
0.0
1020
0.0
1030
0.0
1010
0.0
1020
0.0
1030
1.0
1040
0.0
1040
302.9399999999998
1040
210.0
1040
148.5
1040
50.0
1040
0.0
1040
0.0
1070
     0
1070
   100
1070
     1
1070
     0
1070
     0
1070
     0
1070
     0
1070
     0
1040
0.0
1040
0.0
1040
0.0
1040
5.0
1040
5.0
1040
0.0
1040
0.0
1070
     0
1002
{
1002
}
1002
}
  0
ENDSEC
  0
SECTION
  2
OBJECTS
  0
DICTIONARY
  5
C
330
0
100
AcDbDictionary
  3
ACAD_GROUP
350
D
  3
ACAD_LAYOUT
350
46C
  3
ACAD_MLINESTYLE
350
E
  3
ACAD_PLOTSETTINGS
350
46D
  3
ACAD_PLOTSTYLENAME
350
74E
  3
ACDBHEADERROUNDTRIPXREC
350
D0D
1001
ACAD
1000
TREAT_AS_HARD
1070
     0
  0
DICTIONARY
  5
598
330
1A
100
AcDbDictionary
280
     1
  3
ACAD_LAYOUTSELFREF
360
D2F
1001
ACAD
1000
TREAT_AS_HARD
1070
     1
  0
DICTIONARY
  5
596
330
17
100
AcDbDictionary
280
     1
  3
ACAD_LAYOUTSELFREF
360
D2E
1001
ACAD
1000
TREAT_AS_HARD
1070
     1
  0
DICTIONARY
  5
D
102
{ACAD_REACTORS
330
C
102
}
330
C
100
AcDbDictionary
1001
ACAD
1000
TREAT_AS_HARD
1070
     0
  0
DICTIONARY
  5
46C
102
{ACAD_REACTORS
330
C
102
}
330
C
100
AcDbDictionary
1001
ACAD
1000
TREAT_AS_HARD
1070
     0
  0
DICTIONARY
  5
E
102
{ACAD_REACTORS
330
C
102
}
330
C
100
AcDbDictionary
  3
STANDARD
350
13
1001
ACAD
1000
TREAT_AS_HARD
1070
     0
  0
DICTIONARY
  5
46D
102
{ACAD_REACTORS
330
C
102
}
330
C
100
AcDbDictionary
1001
ACAD
1000
TREAT_AS_HARD
1070
     0
  0
ACDBDICTIONARYWDFLT
  5
74E
102
{ACAD_REACTORS
330
C
102
}
330
C
100
AcDbDictionary
281
     1
  3
Normal
350
74F
100
AcDbDictionaryWithDefault
340
74F
1001
ACAD
1000
TREAT_AS_HARD
1070
     0
1000
TREAT_AS_HARD
1070
     0
1000
TREAT_AS_HARD
1070
     0
  0
DICTIONARY
  5
D0D
102
{ACAD_REACTORS
330
C
102
}
330
C
100
AcDbDictionary
  3
TSTACKALIGN
350
D0E
  3
TSTACKSIZE
350
D0F
  3
HYPERLINKBASE
350
D10
  3
STYLESHEET
350
D11
  3
LAYOUTDICT
350
D12
  3
PLOTSETDICT
350
D13
  3
PLOTSTYLNAMDICT
350
D14
  3
LWETCUNION
350
D15
  3
INSUNITS
350
D16
  3
CEPSNTYPE
350
D17
  3
FINGERPRINTGUID
350
D18
  3
VERSIONGUID
350
D19
  3
PSVPSCALE
350
D1A
  3
DIMSTYLEDATA
350
D1B
  3
PUCSORTHOREF
350
D1C
  3
PUCSORTHOVIEW
350
D1D
  3
PUCSBASE
350
D1E
  3
PUCSORGTOP
350
D1F
  3
PUCSORGBOTTOM
350
D20
  3
PUCSORGLEFT
350
D21
  3
PUCSORGRIGHT
350
D22
  3
PUCSORGFRONT
350
D23
  3
PUCSORGBACK
350
D24
  3
UCSORTHOREF
350
D25
  3
UCSORTHOVIEW
350
D26
  3
UCSBASE
350
D27
  3
UCSORGTOP
350
D28
  3
UCSORGBOTTOM
350
D29
  3
UCSORGLEFT
350
D2A
  3
UCSORGRIGHT
350
D2B
  3
UCSORGFRONT
350
D2C
  3
UCSORGBACK
350
D2D
  0
XRECORD
  5
D2F
102
{ACAD_REACTORS
330
598
102
}
330
598
100
AcDbXrecord
340
1A
  0
XRECORD
  5
D2E
102
{ACAD_REACTORS
330
596
102
}
330
596
100
AcDbXrecord
340
17
  0
MLINESTYLE
  5
13
102
{ACAD_REACTORS
330
E
102
}
330
E
100
AcDbMlineStyle
  2
STANDARD
 70
     0
  3

 62
     0
 51
90.0
 52
90.0
 71
     2
 49
0.5
 62
   256
  6
BYLAYER
 49
-0.5
 62
   256
  6
BYLAYER
  0
ACDBPLACEHOLDER
  5
74F
102
{ACAD_REACTORS
330
74E
102
}
330
74E
100
AcDbPlaceHolder
280
     0
  0
XRECORD
  5
D0E
102
{ACAD_REACTORS
330
D0D
102
}
330
D0D
100
AcDbXrecord
 90
        1
  0
XRECORD
  5
D0F
102
{ACAD_REACTORS
330
D0D
102
}
330
D0D
100
AcDbXrecord
 90
       70
  0
XRECORD
  5
D10
102
{ACAD_REACTORS
330
D0D
102
}
330
D0D
100
AcDbXrecord
  1

  0
XRECORD
  5
D11
102
{ACAD_REACTORS
330
D0D
102
}
330
D0D
100
AcDbXrecord
  1
systemprinter.ctb
  0
XRECORD
  5
D12
102
{ACAD_REACTORS
330
D0D
102
}
330
D0D
100
AcDbXrecord
340
46C
  0
XRECORD
  5
D13
102
{ACAD_REACTORS
330
D0D
102
}
330
D0D
100
AcDbXrecord
340
46D
  0
XRECORD
  5
D14
102
{ACAD_REACTORS
330
D0D
102
}
330
D0D
100
AcDbXrecord
340
74E
  0
XRECORD
  5
D15
102
{ACAD_REACTORS
330
D0D
102
}
330
D0D
100
AcDbXrecord
 90
    10781
  0
XRECORD
  5
D16
102
{ACAD_REACTORS
330
D0D
102
}
330
D0D
100
AcDbXrecord
 90
        0
  0
XRECORD
  5
D17
102
{ACAD_REACTORS
330
D0D
102
}
330
D0D
100
AcDbXrecord
 90
        0
  0
XRECORD
  5
D18
102
{ACAD_REACTORS
330
D0D
102
}
330
D0D
100
AcDbXrecord
  1
{B32BAAB5-9BF2-4BC9-AA15-A91486D21245}
  0
XRECORD
  5
D19
102
{ACAD_REACTORS
330
D0D
102
}
330
D0D
100
AcDbXrecord
  1
{7599B093-4FDD-4790-80E0-3435DCB51166}
  0
XRECORD
  5
D1A
102
{ACAD_REACTORS
330
D0D
102
}
330
D0D
100
AcDbXrecord
 40
0.0
  0
XRECORD
  5
D1B
102
{ACAD_REACTORS
330
D0D
102
}
330
D0D
100
AcDbXrecord
1000
DSTYLE
1002
{
1070
   341
340
B2
1070
   343
340
B2
1070
   344
340
B2
1002
}
  0
XRECORD
  5
D1C
102
{ACAD_REACTORS
330
D0D
102
}
330
D0D
100
AcDbXrecord
340
0
  0
XRECORD
  5
D1D
102
{ACAD_REACTORS
330
D0D
102
}
330
D0D
100
AcDbXrecord
 70
     0
  0
XRECORD
  5
D1E
102
{ACAD_REACTORS
330
D0D
102
}
330
D0D
100
AcDbXrecord
340
0
  0
XRECORD
  5
D1F
102
{ACAD_REACTORS
330
D0D
102
}
330
D0D
100
AcDbXrecord
 10
0.0
 20
0.0
 30
0.0
  0
XRECORD
  5
D20
102
{ACAD_REACTORS
330
D0D
102
}
330
D0D
100
AcDbXrecord
 10
0.0
 20
0.0
 30
0.0
  0
XRECORD
  5
D21
102
{ACAD_REACTORS
330
D0D
102
}
330
D0D
100
AcDbXrecord
 10
0.0
 20
0.0
 30
0.0
  0
XRECORD
  5
D22
102
{ACAD_REACTORS
330
D0D
102
}
330
D0D
100
AcDbXrecord
 10
0.0
 20
0.0
 30
0.0
  0
XRECORD
  5
D23
102
{ACAD_REACTORS
330
D0D
102
}
330
D0D
100
AcDbXrecord
 10
0.0
 20
0.0
 30
0.0
  0
XRECORD
  5
D24
102
{ACAD_REACTORS
330
D0D
102
}
330
D0D
100
AcDbXrecord
 10
0.0
 20
0.0
 30
0.0
  0
XRECORD
  5
D25
102
{ACAD_REACTORS
330
D0D
102
}
330
D0D
100
AcDbXrecord
340
0
  0
XRECORD
  5
D26
102
{ACAD_REACTORS
330
D0D
102
}
330
D0D
100
AcDbXrecord
 70
     0
  0
XRECORD
  5
D27
102
{ACAD_REACTORS
330
D0D
102
}
330
D0D
100
AcDbXrecord
340
0
  0
XRECORD
  5
D28
102
{ACAD_REACTORS
330
D0D
102
}
330
D0D
100
AcDbXrecord
 10
0.0
 20
0.0
 30
0.0
  0
XRECORD
  5
D29
102
{ACAD_REACTORS
330
D0D
102
}
330
D0D
100
AcDbXrecord
 10
0.0
 20
0.0
 30
0.0
  0
XRECORD
  5
D2A
102
{ACAD_REACTORS
330
D0D
102
}
330
D0D
100
AcDbXrecord
 10
0.0
 20
0.0
 30
0.0
  0
XRECORD
  5
D2B
102
{ACAD_REACTORS
330
D0D
102
}
330
D0D
100
AcDbXrecord
 10
0.0
 20
0.0
 30
0.0
  0
XRECORD
  5
D2C
102
{ACAD_REACTORS
330
D0D
102
}
330
D0D
100
AcDbXrecord
 10
0.0
 20
0.0
 30
0.0
  0
XRECORD
  5
D2D
102
{ACAD_REACTORS
330
D0D
102
}
330
D0D
100
AcDbXrecord
 10
0.0
 20
0.0
 30
0.0
  0
ENDSEC
  0
EOF
