  0
SECTION
  2
HEADER
  9
$ACADVER
  1
AC1014
  9
$ACADMAINTVER
 70
     9
  9
$DWGCODEPAGE
  3
ANSI_932
  9
$INSBASE
 10
0.0
 20
0.0
 30
0.0
  9
$EXTMIN
 10
1289.27191455992
 20
-851.4094829814336
 30
-0.00000001
  9
$EXTMAX
 10
2086.871914559921
 20
-299.8094829814334
 30
0.00000001
  9
$LIMMIN
 10
0.0
 20
0.0
  9
$LIMMAX
 10
840.0
 20
594.0
  9
$ORTHOMODE
 70
     1
  9
$REGENMODE
 70
     1
  9
$FILLMODE
 70
     1
  9
$QTEXTMODE
 70
     0
  9
$MIRRTEXT
 70
     1
  9
$DRAGMODE
 70
     2
  9
$LTSCALE
 40
2.0
  9
$OSMODE
 70
    35
  9
$ATTMODE
 70
     1
  9
$TEXTSIZE
 40
5.0
  9
$TRACEWID
 40
1.0
  9
$TEXTSTYLE
  7
STANDARD
  9
$CLAYER
  8
SUNPOU
  9
$CELTYPE
  6
BYLAYER
  9
$CECOLOR
 62
   256
  9
$CELTSCALE
 40
1.0
  9
$DELOBJ
 70
     1
  9
$DISPSILH
 70
     0
  9
$DIMSCALE
 40
1.0
  9
$DIMASZ
 40
7.0
  9
$DIMEXO
 40
6.0
  9
$DIMDLI
 40
14.0
  9
$DIMRND
 40
0.0
  9
$DIMDLE
 40
0.0
  9
$DIMEXE
 40
3.0
  9
$DIMTP
 40
0.0
  9
$DIMTM
 40
0.0
  9
$DIMTXT
 40
6.0
  9
$DIMCEN
 40
150.0
  9
$DIMTSZ
 40
0.0
  9
$DIMTOL
 70
     0
  9
$DIMLIM
 70
     0
  9
$DIMTIH
 70
     0
  9
$DIMTOH
 70
     0
  9
$DIMSE1
 70
     0
  9
$DIMSE2
 70
     0
  9
$DIMTAD
 70
     3
  9
$DIMZIN
 70
     0
  9
$DIMBLK
  1

  9
$DIMASO
 70
     1
  9
$DIMSHO
 70
     1
  9
$DIMPOST
  1

  9
$DIMAPOST
  1

  9
$DIMALT
 70
     0
  9
$DIMALTD
 70
     2
  9
$DIMALTF
 40
25.4
  9
$DIMLFAC
 40
1.0
  9
$DIMTOFL
 70
     1
  9
$DIMTVP
 40
0.0
  9
$DIMTIX
 70
     0
  9
$DIMSOXD
 70
     0
  9
$DIMSAH
 70
     1
  9
$DIMBLK1
  1
OPEN
  9
$DIMBLK2
  1
OPEN
  9
$DIMSTYLE
  2
STANDARD
  9
$DIMCLRD
 70
   256
  9
$DIMCLRE
 70
   256
  9
$DIMCLRT
 70
   256
  9
$DIMTFAC
 40
1.0
  9
$DIMGAP
 40
2.0
  9
$DIMJUST
 70
     0
  9
$DIMSD1
 70
     0
  9
$DIMSD2
 70
     0
  9
$DIMTOLJ
 70
     1
  9
$DIMTZIN
 70
     0
  9
$DIMALTZ
 70
     0
  9
$DIMALTTZ
 70
     0
  9
$DIMFIT
 70
     5
  9
$DIMUPT
 70
     0
  9
$DIMUNIT
 70
     2
  9
$DIMDEC
 70
     0
  9
$DIMTDEC
 70
     0
  9
$DIMALTU
 70
     2
  9
$DIMALTTD
 70
     2
  9
$DIMTXSTY
  7
STANDARD
  9
$DIMAUNIT
 70
     0
  9
$LUNITS
 70
     2
  9
$LUPREC
 70
     4
  9
$SKETCHINC
 40
1.0
  9
$FILLETRAD
 40
0.1
  9
$AUNITS
 70
     0
  9
$AUPREC
 70
     0
  9
$MENU
  1
.
  9
$ELEVATION
 40
0.0
  9
$PELEVATION
 40
0.0
  9
$THICKNESS
 40
0.0
  9
$LIMCHECK
 70
     0
  9
$BLIPMODE
 70
     0
  9
$CHAMFERA
 40
0.0
  9
$CHAMFERB
 40
0.0
  9
$CHAMFERC
 40
40.0
  9
$CHAMFERD
 40
0.0
  9
$SKPOLY
 70
     0
  9
$TDCREATE
 40
2451029.942521990
  9
$TDUPDATE
 40
2455173.595457025
  9
$TDINDWG
 40
0.2268820486
  9
$TDUSRTIMER
 40
0.2268815046
  9
$USRTIMER
 70
     1
  9
$ANGBASE
 50
0.0
  9
$ANGDIR
 70
     0
  9
$PDMODE
 70
     0
  9
$PDSIZE
 40
0.0
  9
$PLINEWID
 40
0.0
  9
$COORDS
 70
     0
  9
$SPLFRAME
 70
     0
  9
$SPLINETYPE
 70
     6
  9
$SPLINESEGS
 70
     8
  9
$ATTDIA
 70
     0
  9
$ATTREQ
 70
     1
  9
$HANDLING
 70
 10241
  9
$HANDSEED
  5
71DB
  9
$SURFTAB1
 70
     6
  9
$SURFTAB2
 70
     6
  9
$SURFTYPE
 70
     6
  9
$SURFU
 70
     6
  9
$SURFV
 70
     6
  9
$UCSNAME
  2

  9
$UCSORG
 10
0.0
 20
0.0
 30
0.0
  9
$UCSXDIR
 10
1.0
 20
0.0
 30
0.0
  9
$UCSYDIR
 10
0.0
 20
1.0
 30
0.0
  9
$PUCSNAME
  2

  9
$PUCSORG
 10
0.0
 20
0.0
 30
0.0
  9
$PUCSXDIR
 10
1.0
 20
0.0
 30
0.0
  9
$PUCSYDIR
 10
0.0
 20
1.0
 30
0.0
  9
$USERI1
 70
     0
  9
$USERI2
 70
     0
  9
$USERI3
 70
     0
  9
$USERI4
 70
     0
  9
$USERI5
 70
     0
  9
$USERR1
 40
0.0
  9
$USERR2
 40
0.0
  9
$USERR3
 40
0.0
  9
$USERR4
 40
0.0
  9
$USERR5
 40
0.0
  9
$WORLDVIEW
 70
     1
  9
$SHADEDGE
 70
     3
  9
$SHADEDIF
 70
    70
  9
$TILEMODE
 70
     1
  9
$MAXACTVP
 70
    16
  9
$PINSBASE
 10
0.0
 20
0.0
 30
0.0
  9
$PLIMCHECK
 70
     0
  9
$PEXTMIN
 10
0.0
 20
0.0
 30
0.0
  9
$PEXTMAX
 10
420.0
 20
297.0
 30
0.0
  9
$PLIMMIN
 10
0.0
 20
0.0
  9
$PLIMMAX
 10
420.0
 20
297.0
  9
$UNITMODE
 70
     0
  9
$VISRETAIN
 70
     0
  9
$PLINEGEN
 70
     0
  9
$PSLTSCALE
 70
     1
  9
$TREEDEPTH
 70
  3020
  9
$PICKSTYLE
 70
     1
  9
$CMLSTYLE
  2
STANDARD
  9
$CMLJUST
 70
     0
  9
$CMLSCALE
 40
1.0
  9
$PROXYGRAPHICS
 70
     1
  9
$MEASUREMENT
 70
     1
  0
ENDSEC
  0
SECTION
  2
CLASSES
  0
CLASS
  1
ACDBDICTIONARYWDFLT
  2
AcDbDictionaryWithDefault
  3
AutoCAD 2000
 90
        0
280
     0
281
     0
  0
CLASS
  1
ACDBPLACEHOLDER
  2
AcDbPlaceHolder
  3
AutoCAD 2000
 90
        0
280
     0
281
     0
  0
CLASS
  1
LAYOUT
  2
AcDbLayout
  3
AutoCAD 2000
 90
        0
280
     0
281
     0
  0
CLASS
  1
LONG_TRANSACTION
  2
AcDbLongTransaction
  3
AutoCAD 2000
 90
        0
280
     0
281
     0
  0
CLASS
  1
LWPOLYLINE
  2
AcDbPolyline
  3
AutoCAD 2000
 90
        0
280
     0
281
     1
  0
CLASS
  1
HATCH
  2
AcDbHatch
  3
AutoCAD 2000
 90
        0
280
     0
281
     1
  0
CLASS
  1
XRECORD
  2
AcDbXrecord
  3
AutoCAD 2000
 90
        0
280
     0
281
     0
  0
CLASS
  1
LONG_TRANSACTION
  2
AcDbLongTransaction
  3
AutoCAD 2000
 90
        0
280
     0
281
     0
  0
CLASS
  1
LWPOLYLINE
  2
AcDbPolyline
  3
AutoCAD 2000
 90
        0
280
     0
281
     1
  0
CLASS
  1
HATCH
  2
AcDbHatch
  3
AutoCAD 2000
 90
        0
280
     0
281
     1
  0
CLASS
  1
XRECORD
  2
AcDbXrecord
  3
AutoCAD 2000
 90
        0
280
     0
281
     0
  0
CLASS
  1
LONG_TRANSACTION
  2
AcDbLongTransaction
  3
AutoCAD 2000
 90
        0
280
     0
281
     0
  0
CLASS
  1
LWPOLYLINE
  2
AcDbPolyline
  3
AutoCAD 2000
 90
        0
280
     0
281
     1
  0
CLASS
  1
HATCH
  2
AcDbHatch
  3
AutoCAD 2000
 90
        0
280
     0
281
     1
  0
CLASS
  1
XRECORD
  2
AcDbXrecord
  3
AutoCAD 2000
 90
        0
280
     0
281
     0
  0
CLASS
  1
LONG_TRANSACTION
  2
AcDbLongTransaction
  3
AutoCAD 2000
 90
        0
280
     0
281
     0
  0
CLASS
  1
LWPOLYLINE
  2
AcDbPolyline
  3
AutoCAD 2000
 90
        0
280
     0
281
     1
  0
CLASS
  1
HATCH
  2
AcDbHatch
  3
AutoCAD 2000
 90
        0
280
     0
281
     1
  0
CLASS
  1
XRECORD
  2
AcDbXrecord
  3
AutoCAD 2000
 90
        0
280
     0
281
     0
  0
CLASS
  1
LONG_TRANSACTION
  2
AcDbLongTransaction
  3
AutoCAD 2000
 90
        0
280
     0
281
     0
  0
CLASS
  1
LWPOLYLINE
  2
AcDbPolyline
  3
AutoCAD 2000
 90
        0
280
     0
281
     1
  0
CLASS
  1
HATCH
  2
AcDbHatch
  3
AutoCAD 2000
 90
        0
280
     0
281
     1
  0
CLASS
  1
XRECORD
  2
AcDbXrecord
  3
AutoCAD 2000
 90
        0
280
     0
281
     0
  0
CLASS
  1
LONG_TRANSACTION
  2
AcDbLongTransaction
  3
AutoCAD 2000
 90
        0
280
     0
281
     0
  0
CLASS
  1
LWPOLYLINE
  2
AcDbPolyline
  3
AutoCAD 2000
 90
        0
280
     0
281
     1
  0
CLASS
  1
HATCH
  2
AcDbHatch
  3
AutoCAD 2000
 90
        0
280
     0
281
     1
  0
CLASS
  1
XRECORD
  2
AcDbXrecord
  3
AutoCAD 2000
 90
        0
280
     0
281
     0
  0
CLASS
  1
LONG_TRANSACTION
  2
AcDbLongTransaction
  3
AutoCAD 2000
 90
        0
280
     0
281
     0
  0
CLASS
  1
LWPOLYLINE
  2
AcDbPolyline
  3
AutoCAD 2000
 90
        0
280
     0
281
     1
  0
CLASS
  1
HATCH
  2
AcDbHatch
  3
AutoCAD 2000
 90
        0
280
     0
281
     1
  0
CLASS
  1
XRECORD
  2
AcDbXrecord
  3
AutoCAD 2000
 90
        0
280
     0
281
     0
  0
CLASS
  1
LONG_TRANSACTION
  2
AcDbLongTransaction
  3
AutoCAD 2000
 90
        0
280
     0
281
     0
  0
CLASS
  1
LWPOLYLINE
  2
AcDbPolyline
  3
AutoCAD 2000
 90
        0
280
     0
281
     1
  0
CLASS
  1
HATCH
  2
AcDbHatch
  3
AutoCAD 2000
 90
        0
280
     0
281
     1
  0
CLASS
  1
XRECORD
  2
AcDbXrecord
  3
AutoCAD 2000
 90
        0
280
     0
281
     0
  0
CLASS
  1
LONG_TRANSACTION
  2
AcDbLongTransaction
  3
AutoCAD 2000
 90
        0
280
     0
281
     0
  0
CLASS
  1
LWPOLYLINE
  2
AcDbPolyline
  3
AutoCAD 2000
 90
        0
280
     0
281
     1
  0
CLASS
  1
HATCH
  2
AcDbHatch
  3
AutoCAD 2000
 90
        0
280
     0
281
     1
  0
CLASS
  1
XRECORD
  2
AcDbXrecord
  3
AutoCAD 2000
 90
        0
280
     0
281
     0
  0
CLASS
  1
LONG_TRANSACTION
  2
AcDbLongTransaction
  3
AutoCAD 2000
 90
        0
280
     0
281
     0
  0
CLASS
  1
LWPOLYLINE
  2
AcDbPolyline
  3
AutoCAD 2000
 90
        0
280
     0
281
     1
  0
CLASS
  1
HATCH
  2
AcDbHatch
  3
AutoCAD 2000
 90
        0
280
     0
281
     1
  0
CLASS
  1
XRECORD
  2
AcDbXrecord
  3
AutoCAD 2000
 90
        0
280
     0
281
     0
  0
CLASS
  1
LONG_TRANSACTION
  2
AcDbLongTransaction
  3
AutoCAD 2000
 90
        0
280
     0
281
     0
  0
CLASS
  1
LWPOLYLINE
  2
AcDbPolyline
  3
AutoCAD 2000
 90
        0
280
     0
281
     1
  0
CLASS
  1
HATCH
  2
AcDbHatch
  3
AutoCAD 2000
 90
        0
280
     0
281
     1
  0
CLASS
  1
XRECORD
  2
AcDbXrecord
  3
AutoCAD 2000
 90
        0
280
     0
281
     0
  0
ENDSEC
  0
SECTION
  2
TABLES
  0
TABLE
  2
VPORT
  5
8
330
0
100
AcDbSymbolTable
 70
     3
  0
VPORT
  5
7107
330
8
100
AcDbSymbolTableRecord
100
AcDbViewportTableRecord
  2
*ACTIVE
 70
     0
 10
0.0
 20
0.0
 11
1.0
 21
1.0
 12
1695.164067232257
 22
-584.6328884183474
 13
0.0
 23
0.0
 14
5.0
 24
5.0
 15
0.0
 25
0.0
 16
0.0
 26
0.0
 36
1.0
 17
0.0
 27
0.0
 37
0.0
 40
644.5391545039974
 41
1.570153061224489
 42
50.0
 43
0.0
 44
0.0
 50
0.0
 51
0.0
 71
     0
 72
   100
 73
     1
 74
     0
 75
     0
 76
     0
 77
     0
 78
     0
  0
ENDTAB
  0
TABLE
  2
LTYPE
  5
5
330
0
100
AcDbSymbolTable
 70
     2
  0
LTYPE
  5
14
330
5
100
AcDbSymbolTableRecord
100
AcDbLinetypeTableRecord
  2
BYBLOCK
 70
     0
  3

 72
    65
 73
     0
 40
0.0
  0
LTYPE
  5
15
330
5
100
AcDbSymbolTableRecord
100
AcDbLinetypeTableRecord
  2
BYLAYER
 70
     0
  3

 72
    65
 73
     0
 40
0.0
  0
LTYPE
  5
16
330
5
100
AcDbSymbolTableRecord
100
AcDbLinetypeTableRecord
  2
CONTINUOUS
 70
     0
  3
Solid line
 72
    65
 73
     0
 40
0.0
  0
LTYPE
  5
135
330
5
100
AcDbSymbolTableRecord
100
AcDbLinetypeTableRecord
  2
CENTER
 70
     0
  3
____ _ ____ _ ____ _ ____ _ ____ _ ____ _ ____ 
 72
    65
 73
     4
 40
2.0
 49
1.25
 74
     0
 49
-0.25
 74
     0
 49
0.25
 74
     0
 49
-0.25
 74
     0
  0
ENDTAB
  0
TABLE
  2
LAYER
  5
2
102
{ACAD_XDICTIONARY
360
4C3C
102
}
330
0
100
AcDbSymbolTable
 70
     9
  0
LAYER
  5
F
330
2
100
AcDbSymbolTableRecord
100
AcDbLayerTableRecord
  2
0
 70
     0
 62
     7
  6
CONTINUOUS
  0
LAYER
  5
62
330
2
100
AcDbSymbolTableRecord
100
AcDbLayerTableRecord
  2
VIEWPORT
 70
     0
 62
     7
  6
CONTINUOUS
  0
LAYER
  5
65
330
2
100
AcDbSymbolTableRecord
100
AcDbLayerTableRecord
  2
ZUWAKU
 70
     0
 62
     7
  6
CONTINUOUS
  0
LAYER
  5
145
330
2
100
AcDbSymbolTableRecord
100
AcDbLayerTableRecord
  2
SEIHIN
 70
     0
 62
     3
  6
CONTINUOUS
  0
LAYER
  5
146
330
2
100
AcDbSymbolTableRecord
100
AcDbLayerTableRecord
  2
SUNPOU
 70
     0
 62
     4
  6
CONTINUOUS
  0
LAYER
  5
381
330
2
100
AcDbSymbolTableRecord
100
AcDbLayerTableRecord
  2
DEFPOINTS
 70
     0
 62
     7
  6
CONTINUOUS
  0
LAYER
  5
3AB9
330
2
100
AcDbSymbolTableRecord
100
AcDbLayerTableRecord
  2
MOJI
 70
     0
 62
     2
  6
CONTINUOUS
  0
LAYER
  5
3D7D
330
2
100
AcDbSymbolTableRecord
100
AcDbLayerTableRecord
  2
CENTER_L
 70
     0
 62
     1
  6
CENTER
  0
LAYER
  5
4C3F
330
2
100
AcDbSymbolTableRecord
100
AcDbLayerTableRecord
  2
KEIJYO
 70
     0
 62
    -7
  6
CONTINUOUS
  0
ENDTAB
  0
TABLE
  2
STYLE
  5
3
330
0
100
AcDbSymbolTable
 70
     2
  0
STYLE
  5
10
330
3
100
AcDbSymbolTableRecord
100
AcDbTextStyleTableRecord
  2
STANDARD
 70
     0
 40
0.0
 41
1.0
 50
0.0
 71
     0
 42
5.0
  3
TXT
  4
bigfont.shx
  0
STYLE
  5
3ABA
330
3
100
AcDbSymbolTableRecord
100
AcDbTextStyleTableRecord
  2
ｽﾀｲﾙ1
 70
     0
 40
0.0
 41
1.0
 50
0.0
 71
     0
 42
2.5
  3
MS PGothic.ttf
  4

1001
ACAD
1000
MS PGothic
1071
    32818
  0
ENDTAB
  0
TABLE
  2
VIEW
  5
6
330
0
100
AcDbSymbolTable
 70
     0
  0
ENDTAB
  0
TABLE
  2
UCS
  5
7
330
0
100
AcDbSymbolTable
 70
     0
  0
ENDTAB
  0
TABLE
  2
APPID
  5
9
330
0
100
AcDbSymbolTable
 70
     1
  0
APPID
  5
11
330
9
100
AcDbSymbolTableRecord
100
AcDbRegAppTableRecord
  2
ACAD
 70
     0
  0
ENDTAB
  0
TABLE
  2
DIMSTYLE
  5
A
330
0
100
AcDbSymbolTable
 70
     1
  0
DIMSTYLE
105
1D
102
{ACAD_REACTORS
330
66E2
330
66E3
330
6A94
330
6828
330
6689
330
6679
330
6682
330
6681
330
66A4
330
679D
330
679C
330
6678
330
6770
330
676F
330
6779
330
677A
330
6E90
330
66E6
330
668A
330
70F7
330
6688
330
66A1
330
6E9D
102
}
330
A
100
AcDbSymbolTableRecord
100
AcDbDimStyleTableRecord
  2
STANDARD
 70
     0
  3

  4

  5

  6

  7

 40
1.0
 41
0.18
 42
0.0625
 43
0.38
 44
0.18
 45
0.0
 46
0.0
 47
0.0
 48
0.0
140
0.18
141
0.09
142
0.0
143
25.4
144
1.0
145
0.0
146
1.0
147
0.09
 71
     0
 72
     0
 73
     1
 74
     1
 75
     0
 76
     0
 77
     0
 78
     0
170
     0
171
     2
172
     0
173
     0
174
     0
175
     0
176
     0
177
     0
178
     0
270
     2
271
     4
272
     4
273
     2
274
     2
340
10
275
     0
280
     0
281
     0
282
     0
283
     1
284
     0
285
     0
286
     0
287
     3
288
     0
  0
ENDTAB
  0
TABLE
  2
BLOCK_RECORD
  5
1
330
0
100
AcDbSymbolTable
 70
    24
  0
BLOCK_RECORD
  5
1A
102
{ACAD_XDICTIONARY
360
88E
102
}
330
1
100
AcDbSymbolTableRecord
100
AcDbBlockTableRecord
  2
*MODEL_SPACE
  0
BLOCK_RECORD
  5
17
102
{ACAD_XDICTIONARY
360
88C
102
}
330
1
100
AcDbSymbolTableRecord
100
AcDbBlockTableRecord
  2
*PAPER_SPACE
  0
BLOCK_RECORD
  5
6D
330
1
100
AcDbSymbolTableRecord
100
AcDbBlockTableRecord
  2
_OPEN
  0
BLOCK_RECORD
  5
6874
330
1
100
AcDbSymbolTableRecord
100
AcDbBlockTableRecord
  2
*D1
  0
BLOCK_RECORD
  5
6881
330
1
100
AcDbSymbolTableRecord
100
AcDbBlockTableRecord
  2
*D2
  0
BLOCK_RECORD
  5
688D
330
1
100
AcDbSymbolTableRecord
100
AcDbBlockTableRecord
  2
*D3
  0
BLOCK_RECORD
  5
6899
330
1
100
AcDbSymbolTableRecord
100
AcDbBlockTableRecord
  2
*D4
  0
BLOCK_RECORD
  5
68B2
330
1
100
AcDbSymbolTableRecord
100
AcDbBlockTableRecord
  2
*D6
  0
BLOCK_RECORD
  5
68D6
330
1
100
AcDbSymbolTableRecord
100
AcDbBlockTableRecord
  2
*D9
  0
BLOCK_RECORD
  5
68E2
330
1
100
AcDbSymbolTableRecord
100
AcDbBlockTableRecord
  2
*D10
  0
BLOCK_RECORD
  5
68EE
330
1
100
AcDbSymbolTableRecord
100
AcDbBlockTableRecord
  2
*D11
  0
BLOCK_RECORD
  5
690A
330
1
100
AcDbSymbolTableRecord
100
AcDbBlockTableRecord
  2
*D13
  0
BLOCK_RECORD
  5
6916
330
1
100
AcDbSymbolTableRecord
100
AcDbBlockTableRecord
  2
*D14
  0
BLOCK_RECORD
  5
6922
330
1
100
AcDbSymbolTableRecord
100
AcDbBlockTableRecord
  2
*D15
  0
BLOCK_RECORD
  5
692E
330
1
100
AcDbSymbolTableRecord
100
AcDbBlockTableRecord
  2
*D16
  0
BLOCK_RECORD
  5
693A
330
1
100
AcDbSymbolTableRecord
100
AcDbBlockTableRecord
  2
*D17
  0
BLOCK_RECORD
  5
6947
330
1
100
AcDbSymbolTableRecord
100
AcDbBlockTableRecord
  2
*D18
  0
BLOCK_RECORD
  5
6953
330
1
100
AcDbSymbolTableRecord
100
AcDbBlockTableRecord
  2
*D19
  0
BLOCK_RECORD
  5
6A95
330
1
100
AcDbSymbolTableRecord
100
AcDbBlockTableRecord
  2
*D20
  0
BLOCK_RECORD
  5
6E91
330
1
100
AcDbSymbolTableRecord
100
AcDbBlockTableRecord
  2
*D21
  0
BLOCK_RECORD
  5
70F8
330
1
100
AcDbSymbolTableRecord
100
AcDbBlockTableRecord
  2
*D23
  0
ENDTAB
  0
ENDSEC
  0
SECTION
  2
BLOCKS
  0
BLOCK
  5
1B
330
1A
100
AcDbEntity
  8
0
100
AcDbBlockBegin
  2
*MODEL_SPACE
 70
     0
 10
0.0
 20
0.0
 30
0.0
  3
*MODEL_SPACE
  1

  0
ENDBLK
  5
1C
330
1A
100
AcDbEntity
  8
0
100
AcDbBlockEnd
  0
BLOCK
  5
18
330
17
100
AcDbEntity
 67
     1
  8
0
100
AcDbBlockBegin
  2
*PAPER_SPACE
 70
     0
 10
0.0
 20
0.0
 30
0.0
  3
*PAPER_SPACE
  1

  0
ENDBLK
  5
19
330
17
100
AcDbEntity
 67
     1
  8
0
100
AcDbBlockEnd
  0
BLOCK
  5
6E
330
6D
100
AcDbEntity
  8
0
100
AcDbBlockBegin
  2
_OPEN
 70
     0
 10
0.0
 20
0.0
 30
0.0
  3
_OPEN
  1

  0
LINE
  5
6F
330
6D
100
AcDbEntity
  8
0
  6
BYBLOCK
 62
     0
100
AcDbLine
 10
-1.0
 20
0.1666666666666666
 30
0.0
 11
0.0
 21
0.0
 31
0.0
  0
LINE
  5
70
330
6D
100
AcDbEntity
  8
0
  6
BYBLOCK
 62
     0
100
AcDbLine
 10
0.0
 20
0.0
 30
0.0
 11
-1.0
 21
-0.1666666666666666
 31
0.0
  0
LINE
  5
71
330
6D
100
AcDbEntity
  8
0
  6
BYBLOCK
 62
     0
100
AcDbLine
 10
0.0
 20
0.0
 30
0.0
 11
-1.0
 21
0.0
 31
0.0
  0
ENDBLK
  5
72
330
6D
100
AcDbEntity
  8
0
100
AcDbBlockEnd
  0
BLOCK
  5
687F
330
6874
100
AcDbEntity
  8
0
100
AcDbBlockBegin
  2
*D1
 70
     1
 10
0.0
 20
0.0
 30
0.0
  3
*D1
  1

  0
LINE
  5
712B
330
6874
100
AcDbEntity
  8
SUNPOU
100
AcDbLine
 10
1645.842684428076
 20
-644.012535065357
 30
0.0
 11
1600.213699744177
 21
-644.012535065357
 31
0.0
  0
LINE
  5
712C
330
6874
100
AcDbEntity
  8
SUNPOU
100
AcDbLine
 10
1639.871158297224
 20
-661.012535065357
 30
0.0
 11
1600.213699744177
 21
-661.012535065357
 31
0.0
  0
LINE
  5
712D
330
6874
100
AcDbEntity
  8
SUNPOU
100
AcDbLine
 10
1603.213699744177
 20
-637.012535065357
 30
0.0
 11
1603.213699744177
 21
-630.012535065357
 31
0.0
  0
LINE
  5
712E
330
6874
100
AcDbEntity
  8
SUNPOU
100
AcDbLine
 10
1603.213699744177
 20
-668.012535065357
 30
0.0
 11
1603.213699744177
 21
-675.012535065357
 31
0.0
  0
MTEXT
  5
712F
330
6874
100
AcDbEntity
  8
SUNPOU
100
AcDbMText
 10
1593.355627504712
 20
-642.1706886871698
 30
0.0
 40
6.0
 41
0.0
 71
     5
 72
     1
  1
\A1;17
 11
0.0000000000000001
 21
1.0
 31
0.0
  0
LINE
  5
7130
330
6874
100
AcDbEntity
  8
SUNPOU
100
AcDbLine
 10
1603.213699744177
 20
-644.012535065357
 30
0.0
 11
1603.213699744177
 21
-661.012535065357
 31
0.0
  0
INSERT
  5
7131
330
6874
100
AcDbEntity
  8
SUNPOU
100
AcDbBlockReference
  2
_OPEN
 10
1603.213699744177
 20
-644.012535065357
 30
0.0
 41
7.0
 42
7.0
 43
7.0
 50
270.0
  0
INSERT
  5
7132
330
6874
100
AcDbEntity
  8
SUNPOU
100
AcDbBlockReference
  2
_OPEN
 10
1603.213699744177
 20
-661.012535065357
 30
0.0
 41
7.0
 42
7.0
 43
7.0
 50
90.0
  0
POINT
  5
7133
330
6874
100
AcDbEntity
  8
DEFPOINTS
 62
     0
100
AcDbPoint
 10
1651.842684428076
 20
-644.012535065357
 30
0.0
  0
POINT
  5
7134
330
6874
100
AcDbEntity
  8
DEFPOINTS
 62
     0
100
AcDbPoint
 10
1645.871158297224
 20
-661.012535065357
 30
0.0
  0
POINT
  5
7135
330
6874
100
AcDbEntity
  8
DEFPOINTS
 62
     0
100
AcDbPoint
 10
1603.213699744177
 20
-661.012535065357
 30
0.0
  0
ENDBLK
  5
6880
330
6874
100
AcDbEntity
  8
0
100
AcDbBlockEnd
  0
BLOCK
  5
688B
330
6881
100
AcDbEntity
  8
0
100
AcDbBlockBegin
  2
*D2
 70
     1
 10
0.0
 20
0.0
 30
0.0
  3
*D2
  1

  0
LINE
  5
7136
330
6881
100
AcDbEntity
  8
SUNPOU
100
AcDbLine
 10
1524.046151621329
 20
-614.3375351758569
 30
0.0
 11
1524.046151621329
 21
-561.0191794539639
 31
0.0
  0
LINE
  5
7137
330
6881
100
AcDbEntity
  8
SUNPOU
100
AcDbLine
 10
1668.651335038176
 20
-611.8100802054067
 30
0.0
 11
1668.651335038176
 21
-561.0191794539639
 31
0.0
  0
LINE
  5
7138
330
6881
100
AcDbEntity
  8
SUNPOU
100
AcDbLine
 10
1531.046151621329
 20
-564.0191794539639
 30
0.0
 11
1661.651335038176
 21
-564.0191794539639
 31
0.0
  0
MTEXT
  5
7139
330
6881
100
AcDbEntity
  8
SUNPOU
100
AcDbMText
 10
1595.667865296553
 20
-558.8345805751607
 30
0.0
 40
6.0
 41
0.0
 71
     5
 72
     1
  1
\A1;145
  0
INSERT
  5
713A
330
6881
100
AcDbEntity
  8
SUNPOU
100
AcDbBlockReference
  2
_OPEN
 10
1524.046151621329
 20
-564.0191794539639
 30
0.0
 41
7.0
 42
7.0
 43
7.0
 50
180.0
  0
INSERT
  5
713B
330
6881
100
AcDbEntity
  8
SUNPOU
100
AcDbBlockReference
  2
_OPEN
 10
1668.651335038176
 20
-564.0191794539639
 30
0.0
 41
7.0
 42
7.0
 43
7.0
  0
POINT
  5
713C
330
6881
100
AcDbEntity
  8
DEFPOINTS
 62
     0
100
AcDbPoint
 10
1524.046151621329
 20
-620.3375351758569
 30
0.0
  0
POINT
  5
713D
330
6881
100
AcDbEntity
  8
DEFPOINTS
 62
     0
100
AcDbPoint
 10
1668.651335038176
 20
-617.8100802054067
 30
0.0
  0
POINT
  5
713E
330
6881
100
AcDbEntity
  8
DEFPOINTS
 62
     0
100
AcDbPoint
 10
1668.651335038176
 20
-564.0191794539639
 30
0.0
  0
ENDBLK
  5
688C
330
6881
100
AcDbEntity
  8
0
100
AcDbBlockEnd
  0
BLOCK
  5
6897
330
688D
100
AcDbEntity
  8
0
100
AcDbBlockBegin
  2
*D3
 70
     1
 10
0.0
 20
0.0
 30
0.0
  3
*D3
  1

  0
LINE
  5
713F
330
688D
100
AcDbEntity
  8
SUNPOU
100
AcDbLine
 10
1523.711186618037
 20
-614.712535065257
 30
0.0
 11
1498.798552153274
 21
-614.712535065257
 31
0.0
  0
LINE
  5
7140
330
688D
100
AcDbEntity
  8
SUNPOU
100
AcDbLine
 10
1525.96771841738
 20
-627.7125350652568
 30
0.0
 11
1498.798552153274
 21
-627.7125350652568
 31
0.0
  0
LINE
  5
7141
330
688D
100
AcDbEntity
  8
SUNPOU
100
AcDbLine
 10
1501.798552153274
 20
-607.712535065257
 30
0.0
 11
1501.798552153274
 21
-600.712535065257
 31
0.0
  0
LINE
  5
7142
330
688D
100
AcDbEntity
  8
SUNPOU
100
AcDbLine
 10
1501.798552153274
 20
-634.7125350652568
 30
0.0
 11
1501.798552153274
 21
-641.7125350652568
 31
0.0
  0
LINE
  5
7143
330
688D
100
AcDbEntity
  8
SUNPOU
100
AcDbLine
 10
1501.798552153274
 20
-614.712535065257
 30
0.0
 11
1501.798552153274
 21
-627.7125350652568
 31
0.0
  0
INSERT
  5
7144
330
688D
100
AcDbEntity
  8
SUNPOU
100
AcDbBlockReference
  2
_OPEN
 10
1501.798552153274
 20
-614.712535065257
 30
0.0
 41
7.0
 42
7.0
 43
7.0
 50
270.0
  0
INSERT
  5
7145
330
688D
100
AcDbEntity
  8
SUNPOU
100
AcDbBlockReference
  2
_OPEN
 10
1501.798552153274
 20
-627.7125350652568
 30
0.0
 41
7.0
 42
7.0
 43
7.0
 50
90.0
  0
MTEXT
  5
7146
330
688D
100
AcDbEntity
  8
SUNPOU
100
AcDbMText
 10
1496.798552153274
 20
-621.2125350652566
 30
0.0
 40
6.0
 41
0.0
 71
     5
 72
     1
  1
\A1;13
 11
0.0000000000000001
 21
1.0
 31
0.0
  0
POINT
  5
7147
330
688D
100
AcDbEntity
  8
DEFPOINTS
 62
     0
100
AcDbPoint
 10
1529.711186618037
 20
-614.712535065257
 30
0.0
  0
POINT
  5
7148
330
688D
100
AcDbEntity
  8
DEFPOINTS
 62
     0
100
AcDbPoint
 10
1531.96771841738
 20
-627.7125350652568
 30
0.0
  0
POINT
  5
7149
330
688D
100
AcDbEntity
  8
DEFPOINTS
 62
     0
100
AcDbPoint
 10
1501.798552153274
 20
-627.7125350652568
 30
0.0
  0
ENDBLK
  5
6898
330
688D
100
AcDbEntity
  8
0
100
AcDbBlockEnd
  0
BLOCK
  5
68A3
330
6899
100
AcDbEntity
  8
0
100
AcDbBlockBegin
  2
*D4
 70
     1
 10
0.0
 20
0.0
 30
0.0
  3
*D4
  1

  0
LINE
  5
714A
330
6899
100
AcDbEntity
  8
SUNPOU
100
AcDbLine
 10
1531.563987498088
 20
-609.3777102776224
 30
0.0
 11
1531.563987498088
 21
-586.6565872644375
 31
0.0
  0
LINE
  5
714B
330
6899
100
AcDbEntity
  8
SUNPOU
100
AcDbLine
 10
1524.046151621329
 20
-614.9625351758568
 30
0.0
 11
1524.046151621329
 21
-586.6565872644375
 31
0.0
  0
LINE
  5
714C
330
6899
100
AcDbEntity
  8
SUNPOU
100
AcDbLine
 10
1538.563987498088
 20
-589.6565872644376
 30
0.0
 11
1545.563987498089
 21
-589.6565872644376
 31
0.0
  0
LINE
  5
714D
330
6899
100
AcDbEntity
  8
SUNPOU
100
AcDbLine
 10
1517.046151621329
 20
-589.6565872644376
 30
0.0
 11
1510.046151621329
 21
-589.6565872644376
 31
0.0
  0
MTEXT
  5
714E
330
6899
100
AcDbEntity
  8
SUNPOU
100
AcDbMText
 10
1528.063033734652
 20
-584.184426371386
 30
0.0
 40
6.0
 41
0.0
 71
     5
 72
     1
  1
\A1;8
  0
LINE
  5
714F
330
6899
100
AcDbEntity
  8
SUNPOU
100
AcDbLine
 10
1531.563987498088
 20
-589.6565872644376
 30
0.0
 11
1524.046151621329
 21
-589.6565872644376
 31
0.0
  0
INSERT
  5
7150
330
6899
100
AcDbEntity
  8
SUNPOU
100
AcDbBlockReference
  2
_OPEN
 10
1531.563987498088
 20
-589.6565872644376
 30
0.0
 41
7.0
 42
7.0
 43
7.0
 50
180.0
  0
INSERT
  5
7151
330
6899
100
AcDbEntity
  8
SUNPOU
100
AcDbBlockReference
  2
_OPEN
 10
1524.046151621329
 20
-589.6565872644376
 30
0.0
 41
7.0
 42
7.0
 43
7.0
  0
POINT
  5
7152
330
6899
100
AcDbEntity
  8
DEFPOINTS
 62
     0
100
AcDbPoint
 10
1531.563987498088
 20
-615.3777102776224
 30
0.0
  0
POINT
  5
7153
330
6899
100
AcDbEntity
  8
DEFPOINTS
 62
     0
100
AcDbPoint
 10
1524.046151621329
 20
-620.9625351758568
 30
0.0
  0
POINT
  5
7154
330
6899
100
AcDbEntity
  8
DEFPOINTS
 62
     0
100
AcDbPoint
 10
1524.046151621329
 20
-589.6565872644376
 30
0.0
  0
ENDBLK
  5
68A4
330
6899
100
AcDbEntity
  8
0
100
AcDbBlockEnd
  0
BLOCK
  5
68BC
330
68B2
100
AcDbEntity
  8
0
100
AcDbBlockBegin
  2
*D6
 70
     1
 10
0.0
 20
0.0
 30
0.0
  3
*D6
  1

  0
LINE
  5
7155
330
68B2
100
AcDbEntity
  8
SUNPOU
100
AcDbLine
 10
1524.046151621329
 20
-614.9625351758568
 30
0.0
 11
1524.046151621329
 21
-574.4106149009326
 31
0.0
  0
LINE
  5
7156
330
68B2
100
AcDbEntity
  8
SUNPOU
100
AcDbLine
 10
1553.884710310576
 20
-606.6345113023569
 30
0.0
 11
1553.884710310576
 21
-574.4106149009326
 31
0.0
  0
LINE
  5
7157
330
68B2
100
AcDbEntity
  8
SUNPOU
100
AcDbLine
 10
1531.046151621329
 20
-577.4106149009326
 30
0.0
 11
1546.884710310576
 21
-577.4106149009326
 31
0.0
  0
INSERT
  5
7158
330
68B2
100
AcDbEntity
  8
SUNPOU
100
AcDbBlockReference
  2
_OPEN
 10
1524.046151621329
 20
-577.4106149009326
 30
0.0
 41
7.0
 42
7.0
 43
7.0
 50
180.0
  0
INSERT
  5
7159
330
68B2
100
AcDbEntity
  8
SUNPOU
100
AcDbBlockReference
  2
_OPEN
 10
1553.884710310576
 20
-577.4106149009326
 30
0.0
 41
7.0
 42
7.0
 43
7.0
  0
MTEXT
  5
715A
330
68B2
100
AcDbEntity
  8
SUNPOU
100
AcDbMText
 10
1538.965430965953
 20
-572.4106149009326
 30
0.0
 40
6.0
 41
0.0
 71
     5
 72
     1
  1
\A1;30
  0
POINT
  5
715B
330
68B2
100
AcDbEntity
  8
DEFPOINTS
 62
     0
100
AcDbPoint
 10
1524.046151621329
 20
-620.9625351758568
 30
0.0
  0
POINT
  5
715C
330
68B2
100
AcDbEntity
  8
DEFPOINTS
 62
     0
100
AcDbPoint
 10
1553.884710310576
 20
-612.6345113023569
 30
0.0
  0
POINT
  5
715D
330
68B2
100
AcDbEntity
  8
DEFPOINTS
 62
     0
100
AcDbPoint
 10
1553.884710310576
 20
-577.4106149009326
 30
0.0
  0
ENDBLK
  5
68BD
330
68B2
100
AcDbEntity
  8
0
100
AcDbBlockEnd
  0
BLOCK
  5
68E0
330
68D6
100
AcDbEntity
  8
0
100
AcDbBlockBegin
  2
*D9
 70
     1
 10
0.0
 20
0.0
 30
0.0
  3
*D9
  1

  0
LINE
  5
715E
330
68D6
100
AcDbEntity
  8
SUNPOU
100
AcDbLine
 10
1529.062212792076
 20
-627.7125350652568
 30
0.0
 11
1498.798552153274
 21
-627.7125350652568
 31
0.0
  0
LINE
  5
715F
330
68D6
100
AcDbEntity
  8
SUNPOU
100
AcDbLine
 10
1535.127018320476
 20
-645.7125350652567
 30
0.0
 11
1498.798552153274
 21
-645.7125350652567
 31
0.0
  0
LINE
  5
7160
330
68D6
100
AcDbEntity
  8
SUNPOU
100
AcDbLine
 10
1501.798552153274
 20
-620.7125350652567
 30
0.0
 11
1501.798552153274
 21
-613.7125350652568
 31
0.0
  0
LINE
  5
7161
330
68D6
100
AcDbEntity
  8
SUNPOU
100
AcDbLine
 10
1501.798552153274
 20
-652.7125350652568
 30
0.0
 11
1501.798552153274
 21
-659.7125350652568
 31
0.0
  0
LINE
  5
7162
330
68D6
100
AcDbEntity
  8
SUNPOU
100
AcDbLine
 10
1501.798552153274
 20
-627.7125350652568
 30
0.0
 11
1501.798552153274
 21
-645.7125350652567
 31
0.0
  0
INSERT
  5
7163
330
68D6
100
AcDbEntity
  8
SUNPOU
100
AcDbBlockReference
  2
_OPEN
 10
1501.798552153274
 20
-627.7125350652568
 30
0.0
 41
7.0
 42
7.0
 43
7.0
 50
270.0
  0
INSERT
  5
7164
330
68D6
100
AcDbEntity
  8
SUNPOU
100
AcDbBlockReference
  2
_OPEN
 10
1501.798552153274
 20
-645.7125350652567
 30
0.0
 41
7.0
 42
7.0
 43
7.0
 50
90.0
  0
MTEXT
  5
7165
330
68D6
100
AcDbEntity
  8
SUNPOU
100
AcDbMText
 10
1496.798552153274
 20
-636.7125350652566
 30
0.0
 40
6.0
 41
0.0
 71
     5
 72
     1
  1
\A1;18
 11
0.0000000000000001
 21
1.0
 31
0.0
  0
POINT
  5
7166
330
68D6
100
AcDbEntity
  8
DEFPOINTS
 62
     0
100
AcDbPoint
 10
1535.062212792076
 20
-627.7125350652568
 30
0.0
  0
POINT
  5
7167
330
68D6
100
AcDbEntity
  8
DEFPOINTS
 62
     0
100
AcDbPoint
 10
1541.127018320476
 20
-645.7125350652567
 30
0.0
  0
POINT
  5
7168
330
68D6
100
AcDbEntity
  8
DEFPOINTS
 62
     0
100
AcDbPoint
 10
1501.798552153274
 20
-645.7125350652567
 30
0.0
  0
ENDBLK
  5
68E1
330
68D6
100
AcDbEntity
  8
0
100
AcDbBlockEnd
  0
BLOCK
  5
68EC
330
68E2
100
AcDbEntity
  8
0
100
AcDbBlockBegin
  2
*D10
 70
     1
 10
0.0
 20
0.0
 30
0.0
  3
*D10
  1

  0
LINE
  5
7169
330
68E2
100
AcDbEntity
  8
SUNPOU
100
AcDbLine
 10
1525.592058319876
 20
-444.8331145882945
 30
0.0
 11
1503.05057943042
 21
-444.8331145882945
 31
0.0
  0
LINE
  5
716A
330
68E2
100
AcDbEntity
  8
SUNPOU
100
AcDbLine
 10
1526.165760832476
 20
-474.8331145882944
 30
0.0
 11
1503.05057943042
 21
-474.8331145882944
 31
0.0
  0
LINE
  5
716B
330
68E2
100
AcDbEntity
  8
SUNPOU
100
AcDbLine
 10
1506.05057943042
 20
-451.8331145882945
 30
0.0
 11
1506.05057943042
 21
-467.8331145882943
 31
0.0
  0
INSERT
  5
716C
330
68E2
100
AcDbEntity
  8
SUNPOU
100
AcDbBlockReference
  2
_OPEN
 10
1506.05057943042
 20
-444.8331145882945
 30
0.0
 41
7.0
 42
7.0
 43
7.0
 50
90.0
  0
INSERT
  5
716D
330
68E2
100
AcDbEntity
  8
SUNPOU
100
AcDbBlockReference
  2
_OPEN
 10
1506.05057943042
 20
-474.8331145882944
 30
0.0
 41
7.0
 42
7.0
 43
7.0
 50
270.0
  0
MTEXT
  5
716E
330
68E2
100
AcDbEntity
  8
SUNPOU
100
AcDbMText
 10
1501.05057943042
 20
-459.8331145882942
 30
0.0
 40
6.0
 41
0.0
 71
     5
 72
     1
  1
\A1;30
 11
0.0000000000000001
 21
1.0
 31
0.0
  0
POINT
  5
716F
330
68E2
100
AcDbEntity
  8
DEFPOINTS
 62
     0
100
AcDbPoint
 10
1531.592058319876
 20
-444.8331145882945
 30
0.0
  0
POINT
  5
7170
330
68E2
100
AcDbEntity
  8
DEFPOINTS
 62
     0
100
AcDbPoint
 10
1532.165760832477
 20
-474.8331145882944
 30
0.0
  0
POINT
  5
7171
330
68E2
100
AcDbEntity
  8
DEFPOINTS
 62
     0
100
AcDbPoint
 10
1506.05057943042
 20
-474.8331145882944
 30
0.0
  0
ENDBLK
  5
68ED
330
68E2
100
AcDbEntity
  8
0
100
AcDbBlockEnd
  0
BLOCK
  5
68FA
330
68EE
100
AcDbEntity
  8
0
100
AcDbBlockBegin
  2
*D11
 70
     1
 10
0.0
 20
0.0
 30
0.0
  3
*D11
  1

  0
LINE
  5
7172
330
68EE
100
AcDbEntity
  8
SUNPOU
100
AcDbLine
 10
1554.321071311153
 20
-457.8331145882942
 30
0.0
 11
1565.993870220647
 21
-457.8331145882942
 31
0.0
  0
LINE
  5
7173
330
68EE
100
AcDbEntity
  8
SUNPOU
100
AcDbLine
 10
1554.321071311153
 20
-461.8331145882941
 30
0.0
 11
1565.993870220647
 21
-461.8331145882941
 31
0.0
  0
LINE
  5
7174
330
68EE
100
AcDbEntity
  8
SUNPOU
100
AcDbLine
 10
1562.993870220646
 20
-450.8331145882943
 30
0.0
 11
1562.993870220646
 21
-443.8331145882942
 31
0.0
  0
LINE
  5
7175
330
68EE
100
AcDbEntity
  8
SUNPOU
100
AcDbLine
 10
1562.993870220646
 20
-468.8331145882941
 30
0.0
 11
1562.993870220646
 21
-475.8331145882941
 31
0.0
  0
MTEXT
  5
7176
330
68EE
100
AcDbEntity
  8
SUNPOU
100
AcDbMText
 10
1558.009186677882
 20
-466.1664172798388
 30
0.0
 40
6.0
 41
0.0
 71
     5
 72
     1
  1
\A1;4
 11
0.0000000000000001
 21
1.0
 31
0.0
  0
LINE
  5
7177
330
68EE
100
AcDbEntity
  8
SUNPOU
100
AcDbLine
 10
1562.993870220646
 20
-457.8331145882942
 30
0.0
 11
1562.993870220646
 21
-461.8331145882941
 31
0.0
  0
INSERT
  5
7178
330
68EE
100
AcDbEntity
  8
SUNPOU
100
AcDbBlockReference
  2
_OPEN
 10
1562.993870220646
 20
-457.8331145882942
 30
0.0
 41
7.0
 42
7.0
 43
7.0
 50
270.0
  0
INSERT
  5
7179
330
68EE
100
AcDbEntity
  8
SUNPOU
100
AcDbBlockReference
  2
_OPEN
 10
1562.993870220646
 20
-461.8331145882941
 30
0.0
 41
7.0
 42
7.0
 43
7.0
 50
90.0
  0
POINT
  5
717A
330
68EE
100
AcDbEntity
  8
DEFPOINTS
 62
     0
100
AcDbPoint
 10
1548.321071311153
 20
-457.8331145882942
 30
0.0
  0
POINT
  5
717B
330
68EE
100
AcDbEntity
  8
DEFPOINTS
 62
     0
100
AcDbPoint
 10
1548.321071311153
 20
-461.8331145882941
 30
0.0
  0
POINT
  5
717C
330
68EE
100
AcDbEntity
  8
DEFPOINTS
 62
     0
100
AcDbPoint
 10
1562.993870220646
 20
-461.8331145882941
 30
0.0
  0
ENDBLK
  5
68FB
330
68EE
100
AcDbEntity
  8
0
100
AcDbBlockEnd
  0
BLOCK
  5
6914
330
690A
100
AcDbEntity
  8
0
100
AcDbBlockBegin
  2
*D13
 70
     1
 10
0.0
 20
0.0
 30
0.0
  3
*D13
  1

  0
LINE
  5
717D
330
690A
100
AcDbEntity
  8
SUNPOU
100
AcDbLine
 10
1838.431505885931
 20
-623.9807173366455
 30
0.0
 11
1838.431505885931
 21
-574.4106149009326
 31
0.0
  0
LINE
  5
717E
330
690A
100
AcDbEntity
  8
SUNPOU
100
AcDbLine
 10
1902.431505885931
 20
-623.9807173366455
 30
0.0
 11
1902.431505885931
 21
-574.4106149009326
 31
0.0
  0
LINE
  5
717F
330
690A
100
AcDbEntity
  8
SUNPOU
100
AcDbLine
 10
1845.431505885931
 20
-577.4106149009326
 30
0.0
 11
1895.431505885931
 21
-577.4106149009326
 31
0.0
  0
INSERT
  5
7180
330
690A
100
AcDbEntity
  8
SUNPOU
100
AcDbBlockReference
  2
_OPEN
 10
1838.431505885931
 20
-577.4106149009326
 30
0.0
 41
7.0
 42
7.0
 43
7.0
 50
180.0
  0
INSERT
  5
7181
330
690A
100
AcDbEntity
  8
SUNPOU
100
AcDbBlockReference
  2
_OPEN
 10
1902.431505885931
 20
-577.4106149009326
 30
0.0
 41
7.0
 42
7.0
 43
7.0
  0
MTEXT
  5
7182
330
690A
100
AcDbEntity
  8
SUNPOU
100
AcDbMText
 10
1870.431505885931
 20
-572.4106149009326
 30
0.0
 40
6.0
 41
0.0
 71
     5
 72
     1
  1
\A1;64
  0
POINT
  5
7183
330
690A
100
AcDbEntity
  8
DEFPOINTS
 62
     0
100
AcDbPoint
 10
1838.431505885931
 20
-629.9807173366454
 30
0.0
  0
POINT
  5
7184
330
690A
100
AcDbEntity
  8
DEFPOINTS
 62
     0
100
AcDbPoint
 10
1902.431505885931
 20
-629.9807173366454
 30
0.0
  0
POINT
  5
7185
330
690A
100
AcDbEntity
  8
DEFPOINTS
 62
     0
100
AcDbPoint
 10
1902.431505885931
 20
-577.4106149009326
 30
0.0
  0
ENDBLK
  5
6915
330
690A
100
AcDbEntity
  8
0
100
AcDbBlockEnd
  0
BLOCK
  5
6920
330
6916
100
AcDbEntity
  8
0
100
AcDbBlockBegin
  2
*D14
 70
     1
 10
0.0
 20
0.0
 30
0.0
  3
*D14
  1

  0
LINE
  5
7186
330
6916
100
AcDbEntity
  8
SUNPOU
100
AcDbLine
 10
1830.431505885931
 20
-619.4071319610568
 30
0.0
 11
1830.431505885931
 21
-561.0191794539639
 31
0.0
  0
LINE
  5
7187
330
6916
100
AcDbEntity
  8
SUNPOU
100
AcDbLine
 10
1910.43150588593
 20
-619.4071347598944
 30
0.0
 11
1910.43150588593
 21
-561.0191794539639
 31
0.0
  0
LINE
  5
7188
330
6916
100
AcDbEntity
  8
SUNPOU
100
AcDbLine
 10
1837.43150588593
 20
-564.0191794539639
 30
0.0
 11
1903.43150588593
 21
-564.0191794539639
 31
0.0
  0
INSERT
  5
7189
330
6916
100
AcDbEntity
  8
SUNPOU
100
AcDbBlockReference
  2
_OPEN
 10
1830.431505885931
 20
-564.0191794539639
 30
0.0
 41
7.0
 42
7.0
 43
7.0
 50
180.0
  0
INSERT
  5
718A
330
6916
100
AcDbEntity
  8
SUNPOU
100
AcDbBlockReference
  2
_OPEN
 10
1910.43150588593
 20
-564.0191794539639
 30
0.0
 41
7.0
 42
7.0
 43
7.0
  0
MTEXT
  5
718B
330
6916
100
AcDbEntity
  8
SUNPOU
100
AcDbMText
 10
1870.43150588593
 20
-559.0191794539639
 30
0.0
 40
6.0
 41
0.0
 71
     5
 72
     1
  1
\A1;80
  0
POINT
  5
718C
330
6916
100
AcDbEntity
  8
DEFPOINTS
 62
     0
100
AcDbPoint
 10
1830.431505885931
 20
-625.4071319610568
 30
0.0
  0
POINT
  5
718D
330
6916
100
AcDbEntity
  8
DEFPOINTS
 62
     0
100
AcDbPoint
 10
1910.43150588593
 20
-625.4071347598944
 30
0.0
  0
POINT
  5
718E
330
6916
100
AcDbEntity
  8
DEFPOINTS
 62
     0
100
AcDbPoint
 10
1910.43150588593
 20
-564.0191794539639
 30
0.0
  0
ENDBLK
  5
6921
330
6916
100
AcDbEntity
  8
0
100
AcDbBlockEnd
  0
BLOCK
  5
692C
330
6922
100
AcDbEntity
  8
0
100
AcDbBlockBegin
  2
*D15
 70
     1
 10
0.0
 20
0.0
 30
0.0
  3
*D15
  1

  0
LINE
  5
718F
330
6922
100
AcDbEntity
  8
SUNPOU
100
AcDbLine
 10
1864.43150588593
 20
-618.7125349816569
 30
0.0
 11
1800.728464653091
 21
-618.7125349816569
 31
0.0
  0
LINE
  5
7190
330
6922
100
AcDbEntity
  8
SUNPOU
100
AcDbLine
 10
1832.431505885931
 20
-633.7125352120945
 30
0.0
 11
1800.728464653091
 21
-633.7125352120945
 31
0.0
  0
LINE
  5
7191
330
6922
100
AcDbEntity
  8
SUNPOU
100
AcDbLine
 10
1803.728464653091
 20
-611.712534981657
 30
0.0
 11
1803.728464653091
 21
-604.7125349816569
 31
0.0
  0
LINE
  5
7192
330
6922
100
AcDbEntity
  8
SUNPOU
100
AcDbLine
 10
1803.728464653091
 20
-640.7125352120945
 30
0.0
 11
1803.728464653091
 21
-647.7125352120944
 31
0.0
  0
LINE
  5
7193
330
6922
100
AcDbEntity
  8
SUNPOU
100
AcDbLine
 10
1803.728464653091
 20
-618.7125349816569
 30
0.0
 11
1803.728464653091
 21
-633.7125352120945
 31
0.0
  0
INSERT
  5
7194
330
6922
100
AcDbEntity
  8
SUNPOU
100
AcDbBlockReference
  2
_OPEN
 10
1803.728464653091
 20
-618.7125349816569
 30
0.0
 41
7.0
 42
7.0
 43
7.0
 50
270.0
  0
INSERT
  5
7195
330
6922
100
AcDbEntity
  8
SUNPOU
100
AcDbBlockReference
  2
_OPEN
 10
1803.728464653091
 20
-633.7125352120945
 30
0.0
 41
7.0
 42
7.0
 43
7.0
 50
90.0
  0
MTEXT
  5
7196
330
6922
100
AcDbEntity
  8
SUNPOU
100
AcDbMText
 10
1798.728464653092
 20
-626.2125350968753
 30
0.0
 40
6.0
 41
0.0
 71
     5
 72
     1
  1
\A1;15
 11
0.0000000000000001
 21
1.0
 31
0.0
  0
POINT
  5
7197
330
6922
100
AcDbEntity
  8
DEFPOINTS
 62
     0
100
AcDbPoint
 10
1870.43150588593
 20
-618.7125349816569
 30
0.0
  0
POINT
  5
7198
330
6922
100
AcDbEntity
  8
DEFPOINTS
 62
     0
100
AcDbPoint
 10
1838.431505885931
 20
-633.7125352120945
 30
0.0
  0
POINT
  5
7199
330
6922
100
AcDbEntity
  8
DEFPOINTS
 62
     0
100
AcDbPoint
 10
1803.728464653091
 20
-633.7125352120945
 30
0.0
  0
ENDBLK
  5
692D
330
6922
100
AcDbEntity
  8
0
100
AcDbBlockEnd
  0
BLOCK
  5
6938
330
692E
100
AcDbEntity
  8
0
100
AcDbBlockBegin
  2
*D16
 70
     1
 10
0.0
 20
0.0
 30
0.0
  3
*D16
  1

  0
LINE
  5
719A
330
692E
100
AcDbEntity
  8
SUNPOU
100
AcDbLine
 10
1832.431505885931
 20
-633.7125352120945
 30
0.0
 11
1800.728464653091
 21
-633.7125352120945
 31
0.0
  0
LINE
  5
719B
330
692E
100
AcDbEntity
  8
SUNPOU
100
AcDbLine
 10
1864.40066694903
 20
-682.7125352120945
 30
0.0
 11
1800.728464653091
 21
-682.7125352120945
 31
0.0
  0
LINE
  5
719C
330
692E
100
AcDbEntity
  8
SUNPOU
100
AcDbLine
 10
1803.728464653091
 20
-640.7125352120945
 30
0.0
 11
1803.728464653091
 21
-675.7125352120945
 31
0.0
  0
INSERT
  5
719D
330
692E
100
AcDbEntity
  8
SUNPOU
100
AcDbBlockReference
  2
_OPEN
 10
1803.728464653091
 20
-633.7125352120945
 30
0.0
 41
7.0
 42
7.0
 43
7.0
 50
90.0
  0
INSERT
  5
719E
330
692E
100
AcDbEntity
  8
SUNPOU
100
AcDbBlockReference
  2
_OPEN
 10
1803.728464653091
 20
-682.7125352120945
 30
0.0
 41
7.0
 42
7.0
 43
7.0
 50
270.0
  0
MTEXT
  5
719F
330
692E
100
AcDbEntity
  8
SUNPOU
100
AcDbMText
 10
1798.728464653092
 20
-658.2125352120941
 30
0.0
 40
6.0
 41
0.0
 71
     5
 72
     1
  1
\A1;49
 11
0.0000000000000001
 21
1.0
 31
0.0
  0
POINT
  5
71A0
330
692E
100
AcDbEntity
  8
DEFPOINTS
 62
     0
100
AcDbPoint
 10
1838.431505885931
 20
-633.7125352120945
 30
0.0
  0
POINT
  5
71A1
330
692E
100
AcDbEntity
  8
DEFPOINTS
 62
     0
100
AcDbPoint
 10
1870.40066694903
 20
-682.7125352120945
 30
0.0
  0
POINT
  5
71A2
330
692E
100
AcDbEntity
  8
DEFPOINTS
 62
     0
100
AcDbPoint
 10
1803.728464653091
 20
-682.7125352120945
 30
0.0
  0
ENDBLK
  5
6939
330
692E
100
AcDbEntity
  8
0
100
AcDbBlockEnd
  0
BLOCK
  5
6945
330
693A
100
AcDbEntity
  8
0
100
AcDbBlockBegin
  2
*D17
 70
     1
 10
0.0
 20
0.0
 30
0.0
  3
*D17
  1

  0
LINE
  5
71A3
330
693A
100
AcDbEntity
  8
SUNPOU
100
AcDbLine
 10
1648.922002628031
 20
-667.5112434994788
 30
0.0
 11
1648.922002628031
 21
-682.0624882921561
 31
0.0
  0
LINE
  5
71A4
330
693A
100
AcDbEntity
  8
SUNPOU
100
AcDbLine
 10
1659.146898822476
 20
-671.7987848708567
 30
0.0
 11
1659.146898822476
 21
-682.0624882921561
 31
0.0
  0
LINE
  5
71A5
330
693A
100
AcDbEntity
  8
SUNPOU
100
AcDbLine
 10
1641.922002628031
 20
-679.062488292156
 30
0.0
 11
1634.922002628031
 21
-679.062488292156
 31
0.0
  0
LINE
  5
71A6
330
693A
100
AcDbEntity
  8
SUNPOU
100
AcDbLine
 10
1666.146898822477
 20
-679.062488292156
 30
0.0
 11
1673.146898822476
 21
-679.062488292156
 31
0.0
  0
MTEXT
  5
71A7
330
693A
100
AcDbEntity
  8
SUNPOU
100
AcDbMText
 10
1643.9155046205
 20
-672.5074320337149
 30
0.0
 40
6.0
 41
0.0
 71
     5
 72
     1
  1
\A1;10
  0
LINE
  5
71A8
330
693A
100
AcDbEntity
  8
SUNPOU
100
AcDbLine
 10
1648.922002628031
 20
-679.062488292156
 30
0.0
 11
1659.146898822476
 21
-679.062488292156
 31
0.0
  0
INSERT
  5
71A9
330
693A
100
AcDbEntity
  8
SUNPOU
100
AcDbBlockReference
  2
_OPEN
 10
1648.922002628031
 20
-679.062488292156
 30
0.0
 41
7.0
 42
7.0
 43
7.0
  0
INSERT
  5
71AA
330
693A
100
AcDbEntity
  8
SUNPOU
100
AcDbBlockReference
  2
_OPEN
 10
1659.146898822476
 20
-679.062488292156
 30
0.0
 41
7.0
 42
7.0
 43
7.0
 50
180.0
  0
POINT
  5
71AB
330
693A
100
AcDbEntity
  8
DEFPOINTS
 62
     0
100
AcDbPoint
 10
1648.922002628031
 20
-661.5112434994788
 30
0.0
  0
POINT
  5
71AC
330
693A
100
AcDbEntity
  8
DEFPOINTS
 62
     0
100
AcDbPoint
 10
1659.146898822476
 20
-665.7987848708566
 30
0.0
  0
POINT
  5
71AD
330
693A
100
AcDbEntity
  8
DEFPOINTS
 62
     0
100
AcDbPoint
 10
1659.146898822476
 20
-679.062488292156
 30
0.0
  0
ENDBLK
  5
6946
330
693A
100
AcDbEntity
  8
0
100
AcDbBlockEnd
  0
BLOCK
  5
6951
330
6947
100
AcDbEntity
  8
0
100
AcDbBlockBegin
  2
*D18
 70
     1
 10
0.0
 20
0.0
 30
0.0
  3
*D18
  1

  0
LINE
  5
71AE
330
6947
100
AcDbEntity
  8
SUNPOU
100
AcDbLine
 10
1674.646798798676
 20
-618.7126728173567
 30
0.0
 11
1699.930933420405
 21
-618.7126728173567
 31
0.0
  0
LINE
  5
71AF
330
6947
100
AcDbEntity
  8
SUNPOU
100
AcDbLine
 10
1668.646798921176
 20
-691.7126377512569
 30
0.0
 11
1699.930933420405
 21
-691.7126377512569
 31
0.0
  0
LINE
  5
71B0
330
6947
100
AcDbEntity
  8
SUNPOU
100
AcDbLine
 10
1696.930933420405
 20
-625.7126728173567
 30
0.0
 11
1696.930933420405
 21
-684.7126377512569
 31
0.0
  0
INSERT
  5
71B1
330
6947
100
AcDbEntity
  8
SUNPOU
100
AcDbBlockReference
  2
_OPEN
 10
1696.930933420405
 20
-618.7126728173567
 30
0.0
 41
7.0
 42
7.0
 43
7.0
 50
90.0
  0
INSERT
  5
71B2
330
6947
100
AcDbEntity
  8
SUNPOU
100
AcDbBlockReference
  2
_OPEN
 10
1696.930933420405
 20
-691.7126377512569
 30
0.0
 41
7.0
 42
7.0
 43
7.0
 50
270.0
  0
MTEXT
  5
71B3
330
6947
100
AcDbEntity
  8
SUNPOU
100
AcDbMText
 10
1691.930933420405
 20
-655.2126552843065
 30
0.0
 40
6.0
 41
0.0
 71
     5
 72
     1
  1
\A1;73
 11
0.0000000000000001
 21
1.0
 31
0.0
  0
POINT
  5
71B4
330
6947
100
AcDbEntity
  8
DEFPOINTS
 62
     0
100
AcDbPoint
 10
1668.646798798676
 20
-618.7126728173567
 30
0.0
  0
POINT
  5
71B5
330
6947
100
AcDbEntity
  8
DEFPOINTS
 62
     0
100
AcDbPoint
 10
1662.646798921176
 20
-691.7126377512569
 30
0.0
  0
POINT
  5
71B6
330
6947
100
AcDbEntity
  8
DEFPOINTS
 62
     0
100
AcDbPoint
 10
1696.930933420405
 20
-691.7126377512569
 30
0.0
  0
ENDBLK
  5
6952
330
6947
100
AcDbEntity
  8
0
100
AcDbBlockEnd
  0
BLOCK
  5
695D
330
6953
100
AcDbEntity
  8
0
100
AcDbBlockBegin
  2
*D19
 70
     1
 10
0.0
 20
0.0
 30
0.0
  3
*D19
  1

  0
LINE
  5
71B7
330
6953
100
AcDbEntity
  8
SUNPOU
100
AcDbLine
 10
1644.723455567076
 20
-602.578924211257
 30
0.0
 11
1644.723455567076
 21
-574.4106149009326
 31
0.0
  0
LINE
  5
71B8
330
6953
100
AcDbEntity
  8
SUNPOU
100
AcDbLine
 10
1668.651335038176
 20
-607.2038950501926
 30
0.0
 11
1668.651335038176
 21
-574.4106149009326
 31
0.0
  0
LINE
  5
71B9
330
6953
100
AcDbEntity
  8
SUNPOU
100
AcDbLine
 10
1651.723455567076
 20
-577.4106149009326
 30
0.0
 11
1661.651335038176
 21
-577.4106149009326
 31
0.0
  0
INSERT
  5
71BA
330
6953
100
AcDbEntity
  8
SUNPOU
100
AcDbBlockReference
  2
_OPEN
 10
1644.723455567076
 20
-577.4106149009326
 30
0.0
 41
7.0
 42
7.0
 43
7.0
 50
180.0
  0
INSERT
  5
71BB
330
6953
100
AcDbEntity
  8
SUNPOU
100
AcDbBlockReference
  2
_OPEN
 10
1668.651335038176
 20
-577.4106149009326
 30
0.0
 41
7.0
 42
7.0
 43
7.0
  0
MTEXT
  5
71BC
330
6953
100
AcDbEntity
  8
SUNPOU
100
AcDbMText
 10
1656.687395302626
 20
-572.4106149009326
 30
0.0
 40
6.0
 41
0.0
 71
     5
 72
     1
  1
\A1;24
  0
POINT
  5
71BD
330
6953
100
AcDbEntity
  8
DEFPOINTS
 62
     0
100
AcDbPoint
 10
1644.723455567076
 20
-608.578924211257
 30
0.0
  0
POINT
  5
71BE
330
6953
100
AcDbEntity
  8
DEFPOINTS
 62
     0
100
AcDbPoint
 10
1668.651335038176
 20
-613.2038950501926
 30
0.0
  0
POINT
  5
71BF
330
6953
100
AcDbEntity
  8
DEFPOINTS
 62
     0
100
AcDbPoint
 10
1668.651335038176
 20
-577.4106149009326
 30
0.0
  0
ENDBLK
  5
695E
330
6953
100
AcDbEntity
  8
0
100
AcDbBlockEnd
  0
BLOCK
  5
6A9F
330
6A95
100
AcDbEntity
  8
0
100
AcDbBlockBegin
  2
*D20
 70
     1
 10
0.0
 20
0.0
 30
0.0
  3
*D20
  1

  0
LINE
  5
71C0
330
6A95
100
AcDbEntity
  8
SUNPOU
100
AcDbLine
 10
1674.646798822477
 20
-419.8331145882945
 30
0.0
 11
1704.868910368164
 21
-419.8331145882945
 31
0.0
  0
LINE
  5
71C1
330
6A95
100
AcDbEntity
  8
SUNPOU
100
AcDbLine
 10
1674.646798822476
 20
-499.8331145882942
 30
0.0
 11
1704.868910368164
 21
-499.8331145882942
 31
0.0
  0
LINE
  5
71C2
330
6A95
100
AcDbEntity
  8
SUNPOU
100
AcDbLine
 10
1701.868910368164
 20
-426.8331145882945
 30
0.0
 11
1701.868910368164
 21
-492.8331145882943
 31
0.0
  0
INSERT
  5
71C3
330
6A95
100
AcDbEntity
  8
SUNPOU
100
AcDbBlockReference
  2
_OPEN
 10
1701.868910368164
 20
-419.8331145882945
 30
0.0
 41
7.0
 42
7.0
 43
7.0
 50
90.0
  0
INSERT
  5
71C4
330
6A95
100
AcDbEntity
  8
SUNPOU
100
AcDbBlockReference
  2
_OPEN
 10
1701.868910368164
 20
-499.8331145882942
 30
0.0
 41
7.0
 42
7.0
 43
7.0
 50
270.0
  0
MTEXT
  5
71C5
330
6A95
100
AcDbEntity
  8
SUNPOU
100
AcDbMText
 10
1696.868910368164
 20
-459.8331145882941
 30
0.0
 40
6.0
 41
0.0
 71
     5
 72
     1
  1
\A1;80
 11
0.0000000000000001
 21
1.0
 31
0.0
  0
POINT
  5
71C6
330
6A95
100
AcDbEntity
  8
DEFPOINTS
 62
     0
100
AcDbPoint
 10
1668.646798822477
 20
-419.8331145882945
 30
0.0
  0
POINT
  5
71C7
330
6A95
100
AcDbEntity
  8
DEFPOINTS
 62
     0
100
AcDbPoint
 10
1668.646798822476
 20
-499.8331145882942
 30
0.0
  0
POINT
  5
71C8
330
6A95
100
AcDbEntity
  8
DEFPOINTS
 62
     0
100
AcDbPoint
 10
1701.868910368164
 20
-499.8331145882942
 30
0.0
  0
ENDBLK
  5
6AA0
330
6A95
100
AcDbEntity
  8
0
100
AcDbBlockEnd
  0
BLOCK
  5
6E9B
330
6E91
100
AcDbEntity
  8
0
100
AcDbBlockBegin
  2
*D21
 70
     1
 10
0.0
 20
0.0
 30
0.0
  3
*D21
  1

  0
LINE
  5
71C9
330
6E91
100
AcDbEntity
  8
SUNPOU
100
AcDbLine
 10
1849.431514551054
 20
-618.7125349816569
 30
0.0
 11
1781.380592217853
 21
-618.7125349816568
 31
0.0
  0
LINE
  5
71CA
330
6E91
100
AcDbEntity
  8
SUNPOU
100
AcDbLine
 10
1864.43150588593
 20
-691.7126377512569
 30
0.0
 11
1781.380592217853
 21
-691.7126377512568
 31
0.0
  0
LINE
  5
71CB
330
6E91
100
AcDbEntity
  8
SUNPOU
100
AcDbLine
 10
1784.380592217853
 20
-625.7125349816568
 30
0.0
 11
1784.380592217853
 21
-684.7126377512568
 31
0.0
  0
INSERT
  5
71CC
330
6E91
100
AcDbEntity
  8
SUNPOU
100
AcDbBlockReference
  2
_OPEN
 10
1784.380592217853
 20
-618.7125349816568
 30
0.0
 41
7.0
 42
7.0
 43
7.0
 50
90.0
  0
INSERT
  5
71CD
330
6E91
100
AcDbEntity
  8
SUNPOU
100
AcDbBlockReference
  2
_OPEN
 10
1784.380592217853
 20
-691.7126377512568
 30
0.0
 41
7.0
 42
7.0
 43
7.0
 50
270.0
  0
MTEXT
  5
71CE
330
6E91
100
AcDbEntity
  8
SUNPOU
100
AcDbMText
 10
1779.380592217854
 20
-655.2125863664565
 30
0.0
 40
6.0
 41
0.0
 71
     5
 72
     1
  1
\A1;73
 11
0.0000000000000001
 21
1.0
 31
0.0
  0
POINT
  5
71CF
330
6E91
100
AcDbEntity
  8
DEFPOINTS
 62
     0
100
AcDbPoint
 10
1855.431514551053
 20
-618.7125349816569
 30
0.0
  0
POINT
  5
71D0
330
6E91
100
AcDbEntity
  8
DEFPOINTS
 62
     0
100
AcDbPoint
 10
1870.43150588593
 20
-691.7126377512569
 30
0.0
  0
POINT
  5
71D1
330
6E91
100
AcDbEntity
  8
DEFPOINTS
 62
     0
100
AcDbPoint
 10
1784.380592217853
 20
-691.7126377512568
 30
0.0
  0
ENDBLK
  5
6E9C
330
6E91
100
AcDbEntity
  8
0
100
AcDbBlockEnd
  0
BLOCK
  5
7102
330
70F8
100
AcDbEntity
  8
0
100
AcDbBlockBegin
  2
*D23
 70
     1
 10
0.0
 20
0.0
 30
0.0
  3
*D23
  1

  0
LINE
  5
71D2
330
70F8
100
AcDbEntity
  8
SUNPOU
100
AcDbLine
 10
1552.835686901933
 20
-603.1954831743259
 30
0.0
 11
1583.829378759604
 21
-603.1954831743259
 31
0.0
  0
LINE
  5
71D3
330
70F8
100
AcDbEntity
  8
SUNPOU
100
AcDbLine
 10
1552.184710310575
 20
-621.712535065257
 30
0.0
 11
1583.829378759604
 21
-621.712535065257
 31
0.0
  0
LINE
  5
71D4
330
70F8
100
AcDbEntity
  8
SUNPOU
100
AcDbLine
 10
1580.829378759604
 20
-610.195483174326
 30
0.0
 11
1580.829378759604
 21
-614.712535065257
 31
0.0
  0
INSERT
  5
71D5
330
70F8
100
AcDbEntity
  8
SUNPOU
100
AcDbBlockReference
  2
_OPEN
 10
1580.829378759604
 20
-603.1954831743259
 30
0.0
 41
7.0
 42
7.0
 43
7.0
 50
90.0
  0
INSERT
  5
71D6
330
70F8
100
AcDbEntity
  8
SUNPOU
100
AcDbBlockReference
  2
_OPEN
 10
1580.829378759604
 20
-621.712535065257
 30
0.0
 41
7.0
 42
7.0
 43
7.0
 50
270.0
  0
MTEXT
  5
71D7
330
70F8
100
AcDbEntity
  8
SUNPOU
100
AcDbMText
 10
1575.829378759604
 20
-612.4540091197912
 30
0.0
 40
6.0
 41
0.0
 71
     5
 72
     1
  1
\A1;19
 11
0.0000000000000001
 21
1.0
 31
0.0
  0
POINT
  5
71D8
330
70F8
100
AcDbEntity
  8
DEFPOINTS
 62
     0
100
AcDbPoint
 10
1546.835686901933
 20
-603.1954831743259
 30
0.0
  0
POINT
  5
71D9
330
70F8
100
AcDbEntity
  8
DEFPOINTS
 62
     0
100
AcDbPoint
 10
1546.184710310575
 20
-621.712535065257
 30
0.0
  0
POINT
  5
71DA
330
70F8
100
AcDbEntity
  8
DEFPOINTS
 62
     0
100
AcDbPoint
 10
1580.829378759604
 20
-621.712535065257
 30
0.0
  0
ENDBLK
  5
7103
330
70F8
100
AcDbEntity
  8
0
100
AcDbBlockEnd
  0
ENDSEC
  0
SECTION
  2
ENTITIES
  0
LWPOLYLINE
  5
5F40
330
1A
100
AcDbEntity
  8
ZUWAKU
100
AcDbPolyline
 90
        4
 70
     1
 43
0.0
 10
1289.47191455992
 20
-300.0094829814336
 10
1289.47191455992
 20
-851.2094829814335
 10
2086.671914559921
 20
-851.2094829814335
 10
2086.671914559921
 20
-300.0094829814336
  0
LWPOLYLINE
  5
5F41
330
1A
100
AcDbEntity
  8
ZUWAKU
100
AcDbPolyline
 90
        4
 70
     1
 43
0.0
 10
1289.87191455992
 20
-300.4094829814334
 10
1289.87191455992
 20
-850.8094829814336
 10
2086.271914559921
 20
-850.8094829814336
 10
2086.27191455992
 20
-300.4094829814334
  0
LWPOLYLINE
  5
5F42
330
1A
100
AcDbEntity
  8
ZUWAKU
100
AcDbPolyline
 90
        4
 70
     1
 43
0.0
 10
1289.27191455992
 20
-299.8094829814336
 10
1289.27191455992
 20
-851.4094829814336
 10
2086.871914559921
 20
-851.4094829814334
 10
2086.871914559921
 20
-299.8094829814334
  0
LWPOLYLINE
  5
5F43
330
1A
100
AcDbEntity
  8
ZUWAKU
100
AcDbPolyline
 90
        4
 70
     1
 43
0.0
 10
1289.67191455992
 20
-300.2094829814336
 10
1289.67191455992
 20
-851.0094829814335
 10
2086.471914559921
 20
-851.0094829814335
 10
2086.471914559921
 20
-300.2094829814336
  0
LWPOLYLINE
  5
5F44
330
1A
100
AcDbEntity
  8
ZUWAKU
100
AcDbPolyline
 90
        4
 70
     1
 43
0.0
 10
1290.07191455992
 20
-300.6094829814336
 10
1290.07191455992
 20
-850.6094829814335
 10
2086.07191455992
 20
-850.6094829814335
 10
2086.07191455992
 20
-300.6094829814336
  0
TEXT
  5
5F49
330
1A
100
AcDbEntity
  8
MOJI
100
AcDbText
 10
1529.099117240771
 20
-833.4045619240262
 30
0.0
 40
5.599999999999998
  1
ブラケット正面打（吊）固定式
 41
0.9
  7
ｽﾀｲﾙ1
100
AcDbText
  0
LINE
  5
5F4A
330
1A
100
AcDbEntity
  8
ZUWAKU
100
AcDbLine
 10
1497.918515849988
 20
-836.2094829814335
 30
0.0
 11
1736.696278530912
 21
-836.2094829814335
 31
0.0
  0
LINE
  5
5F4B
330
1A
100
AcDbEntity
  8
ZUWAKU
100
AcDbLine
 10
1497.918515849988
 20
-835.8094829814335
 30
0.0
 11
1736.696278530912
 21
-835.8094829814335
 31
0.0
  0
LINE
  5
5F4C
330
1A
100
AcDbEntity
  8
ZUWAKU
100
AcDbLine
 10
1497.918515849988
 20
-836.0094829814336
 30
0.0
 11
1736.696278530912
 21
-836.0094829814336
 31
0.0
  0
LINE
  5
5F4D
330
1A
100
AcDbEntity
  8
ZUWAKU
100
AcDbLine
 10
1289.27191455992
 20
-820.6094829814334
 30
0.0
 11
2086.671914559921
 21
-820.6094829814334
 31
0.0
  0
LINE
  5
5F4E
330
1A
100
AcDbEntity
  8
ZUWAKU
100
AcDbLine
 10
1289.27191455992
 20
-820.8094829814335
 30
0.0
 11
2086.671914559921
 21
-820.8094829814335
 31
0.0
  0
LINE
  5
5F4F
330
1A
100
AcDbEntity
  8
ZUWAKU
100
AcDbLine
 10
1289.27191455992
 20
-821.0094829814336
 30
0.0
 11
2086.671914559921
 21
-821.0094829814336
 31
0.0
  0
LINE
  5
5F50
330
1A
100
AcDbEntity
  8
ZUWAKU
100
AcDbLine
 10
1289.27191455992
 20
-821.2094829814335
 30
0.0
 11
2086.671914559921
 21
-821.2094829814335
 31
0.0
  0
LINE
  5
5F51
330
1A
100
AcDbEntity
  8
ZUWAKU
100
AcDbLine
 10
1289.27191455992
 20
-821.4094829814335
 30
0.0
 11
2086.671914559921
 21
-821.4094829814335
 31
0.0
  0
LINE
  5
5F57
330
1A
100
AcDbEntity
  8
ZUWAKU
100
AcDbLine
 10
1337.664126714702
 20
-828.1594829814336
 30
0.0
 11
1341.164126714702
 21
-828.1594829814336
 31
0.0
  0
LINE
  5
5F58
330
1A
100
AcDbEntity
  8
ZUWAKU
100
AcDbLine
 10
1341.164126714702
 20
-830.9594829814335
 30
0.0
 11
1338.189126714701
 21
-830.9594829814335
 31
0.0
  0
LINE
  5
5F59
330
1A
100
AcDbEntity
  8
ZUWAKU
100
AcDbLine
 10
1340.983975195685
 20
-836.6744324750948
 30
0.0
 11
1338.07417722104
 21
-833.76463450045
 31
0.0
  0
ARC
  5
5F5A
330
1A
100
AcDbEntity
  8
ZUWAKU
100
AcDbCircle
 10
1339.414126714702
 20
-841.4594829814335
 30
0.0
 40
2.799999999999998
100
AcDbArc
 50
270.0
 51
0.0
  0
HATCH
  5
5F5B
330
1A
100
AcDbEntity
  8
ZUWAKU
100
AcDbHatch
 10
0.0
 20
0.0
 30
0.0
210
0.0
220
0.0
230
1.0
  2
ANSI37
 70
     0
 71
     0
 91
        8
 92
        7
 72
     1
 73
     1
 93
       24
 10
1303.77417722104
 20
-833.76463450045
 42
-0.1989123673796348
 10
1303.364126714702
 20
-832.7746850067891
 42
0.0
 10
1303.364126714702
 20
-831.4844829814337
 42
-0.4142135623730912
 10
1303.889126714701
 20
-830.9594829814335
 42
0.0
 10
1306.864126714701
 20
-830.9594829814335
 42
0.4142135623731546
 10
1307.389126714701
 20
-830.4344829814336
 42
0.0
 10
1307.389126714701
 20
-828.6844829814336
 42
0.4142135623731586
 10
1306.864126714701
 20
-828.1594829814336
 42
0.0
 10
1303.364126714702
 20
-828.1594829814336
 42
0.4142135623730928
 10
1300.564126714701
 20
-830.9594829814335
 42
0.0
 10
1300.564126714701
 20
-832.7746850067887
 42
0.1989123673796619
 10
1301.794278233718
 20
-835.7445334877724
 42
0.0
 10
1304.704076208363
 20
-838.6543314624171
 42
-0.1989123673796613
 10
1305.114126714701
 20
-839.6442809560783
 42
0.0
 10
1305.114126714701
 20
-840.9344829814335
 42
-0.4142135623730911
 10
1304.589126714702
 20
-841.4594829814335
 42
0.0
 10
1301.614126714702
 20
-841.4594829814335
 42
0.4142135623731526
 10
1301.089126714702
 20
-841.9844829814335
 42
0.0
 10
1301.089126714702
 20
-843.7344829814335
 42
0.4142135623731526
 10
1301.614126714702
 20
-844.2594829814336
 42
0.0
 10
1305.114126714701
 20
-844.2594829814336
 42
0.4142135623731045
 10
1307.914126714702
 20
-841.4594829814337
 42
0.0
 10
1307.914126714702
 20
-839.6442809560783
 42
0.1989123673796604
 10
1306.683975195685
 20
-836.6744324750948
 42
0.0
 97
        0
 92
        7
 72
     1
 73
     1
 93
       16
 10
1312.814126714701
 20
-832.3594829814336
 42
-0.4142135623730935
 10
1314.214126714702
 20
-830.9594829814335
 42
0.0
 10
1316.139126714702
 20
-830.9594829814335
 42
0.4142135623731546
 10
1316.664126714702
 20
-830.4344829814336
 42
0.0
 10
1316.664126714702
 20
-828.6844829814336
 42
0.4142135623730951
 10
1316.139126714702
 20
-828.1594829814336
 42
0.0
 10
1314.214126714701
 20
-828.1594829814336
 42
0.4142135623730893
 10
1310.014126714702
 20
-832.3594829814336
 42
0.0
 10
1310.014126714702
 20
-840.0594829814336
 42
0.4142135623730969
 10
1314.214126714702
 20
-844.2594829814336
 42
0.0
 10
1316.139126714702
 20
-844.2594829814336
 42
0.4142135623731526
 10
1316.664126714702
 20
-843.7344829814335
 42
0.0
 10
1316.664126714702
 20
-841.9844829814335
 42
0.4142135623730891
 10
1316.139126714702
 20
-841.4594829814335
 42
0.0
 10
1314.214126714702
 20
-841.4594829814335
 42
-0.4142135623730928
 10
1312.814126714701
 20
-840.0594829814336
 42
0.0
 97
        0
 92
        7
 72
     1
 73
     1
 93
        2
 10
1313.514126714702
 20
-836.2094829814335
 42
1.0
 10
1317.014126714701
 20
-836.2094829814335
 42
1.0
 97
        0
 92
        7
 72
     1
 73
     1
 93
       26
 10
1326.586773196879
 20
-832.20443578787
 42
0.0
 10
1327.648412830018
 20
-828.8425769496006
 42
0.5069206636600134
 10
1327.147781930822
 20
-828.1594829814336
 42
0.0
 10
1325.448892551213
 20
-828.1594829814336
 42
0.3272098845218764
 10
1324.948261652017
 20
-828.5263890132666
 42
0.0
 10
1323.079991777386
 20
-834.4425769496005
 42
-0.3272098845219541
 10
1322.57936087819
 20
-834.8094829814336
 42
0.0
 10
1322.439126714702
 20
-834.8094829814336
 42
-0.4142135623731526
 10
1321.914126714702
 20
-834.2844829814335
 42
0.0
 10
1321.914126714702
 20
-828.6844829814336
 42
0.4142135623730951
 10
1321.389126714701
 20
-828.1594829814336
 42
0.0
 10
1319.639126714702
 20
-828.1594829814336
 42
0.4142135623730871
 10
1319.114126714701
 20
-828.6844829814336
 42
0.0
 10
1319.114126714701
 20
-843.7344829814335
 42
0.4142135623730891
 10
1319.639126714702
 20
-844.2594829814336
 42
0.0
 10
1321.389126714701
 20
-844.2594829814336
 42
0.4142135623731526
 10
1321.914126714702
 20
-843.7344829814335
 42
0.0
 10
1321.914126714702
 20
-838.1344829814336
 42
-0.4142135623731526
 10
1322.439126714702
 20
-837.6094829814336
 42
0.0
 10
1322.57936087819
 20
-837.6094829814336
 42
-0.3272098845218915
 10
1323.079991777386
 20
-837.9763890132666
 42
0.0
 10
1324.948261652017
 20
-843.8925769496005
 42
0.3272098845218902
 10
1325.448892551213
 20
-844.2594829814336
 42
0.0
 10
1327.147781930822
 20
-844.2594829814336
 42
0.5069206636600336
 10
1327.648412830018
 20
-843.5763890132665
 42
0.0
 10
1325.322021451544
 20
-836.2094829814335
 42
0.0
 97
        0
 92
        7
 72
     1
 73
     1
 93
        8
 10
1332.764126714701
 20
-828.6844829814336
 42
0.4142135623731546
 10
1332.239126714702
 20
-828.1594829814336
 42
0.0
 10
1330.489126714702
 20
-828.1594829814336
 42
0.4142135623731507
 10
1329.964126714702
 20
-828.6844829814336
 42
0.0
 10
1329.964126714702
 20
-843.7344829814335
 42
0.4142135623731526
 10
1330.489126714702
 20
-844.2594829814336
 42
0.0
 10
1332.239126714702
 20
-844.2594829814336
 42
0.4142135623731526
 10
1332.764126714701
 20
-843.7344829814335
 42
0.0
 97
        0
 92
        7
 72
     1
 73
     1
 93
       24
 10
1337.664126714702
 20
-831.4844829814337
 42
-0.4142135623731546
 10
1338.189126714702
 20
-830.9594829814335
 42
0.0
 10
1341.164126714702
 20
-830.9594829814335
 42
0.4142135623730911
 10
1341.689126714701
 20
-830.4344829814336
 42
0.0
 10
1341.689126714701
 20
-828.6844829814336
 42
0.4142135623730952
 10
1341.164126714702
 20
-828.1594829814336
 42
0.0
 10
1337.664126714702
 20
-828.1594829814336
 42
0.4142135623731048
 10
1334.864126714701
 20
-830.9594829814335
 42
0.0
 10
1334.864126714701
 20
-832.7746850067887
 42
0.1989123673796613
 10
1336.094278233718
 20
-835.7445334877724
 42
0.0
 10
1339.004076208363
 20
-838.6543314624171
 42
-0.1989123673796402
 10
1339.414126714702
 20
-839.6442809560781
 42
0.0
 10
1339.414126714702
 20
-840.9344829814335
 42
-0.4142135623730911
 10
1338.889126714701
 20
-841.4594829814335
 42
0.0
 10
1335.914126714702
 20
-841.4594829814335
 42
0.4142135623731526
 10
1335.389126714702
 20
-841.9844829814335
 42
0.0
 10
1335.389126714702
 20
-843.7344829814335
 42
0.4142135623730891
 10
1335.914126714702
 20
-844.2594829814336
 42
0.0
 10
1339.414126714702
 20
-844.2594829814336
 42
0.4142135623730925
 10
1342.214126714702
 20
-841.4594829814337
 42
0.0
 10
1342.214126714702
 20
-839.6442809560783
 42
0.1989123673796675
 10
1340.983975195685
 20
-836.6744324750946
 42
0.0
 10
1338.07417722104
 20
-833.76463450045
 42
-0.1989123673796652
 10
1337.664126714702
 20
-832.7746850067891
 42
0.0
 97
        0
 92
        7
 72
     1
 73
     1
 93
       16
 10
1347.114126714701
 20
-828.6844829814336
 42
0.414213562373103
 10
1346.589126714702
 20
-828.1594829814336
 42
0.0
 10
1344.839126714702
 20
-828.1594829814336
 42
0.4142135623730871
 10
1344.314126714701
 20
-828.6844829814336
 42
0.0
 10
1344.314126714701
 20
-841.4594829814337
 42
0.4142135623730927
 10
1347.114126714701
 20
-844.2594829814336
 42
0.0
 10
1350.614126714702
 20
-844.2594829814336
 42
0.4142135623731045
 10
1353.414126714702
 20
-841.4594829814337
 42
0.0
 10
1353.414126714702
 20
-828.6844829814336
 42
0.4142135623730951
 10
1352.889126714702
 20
-828.1594829814336
 42
0.0
 10
1351.139126714701
 20
-828.1594829814336
 42
0.4142135623730871
 10
1350.614126714702
 20
-828.6844829814336
 42
0.0
 10
1350.614126714702
 20
-840.4094829814336
 42
-0.4142135623730879
 10
1349.564126714701
 20
-841.4594829814335
 42
0.0
 10
1348.164126714702
 20
-841.4594829814335
 42
-0.4142135623731197
 10
1347.114126714701
 20
-840.4094829814336
 42
0.0
 97
        0
 92
        7
 72
     1
 73
     1
 93
        8
 10
1358.314126714702
 20
-828.6844829814336
 42
0.4142135623730871
 10
1357.789126714702
 20
-828.1594829814336
 42
0.0
 10
1356.039126714702
 20
-828.1594829814336
 42
0.4142135623731507
 10
1355.514126714702
 20
-828.6844829814336
 42
0.0
 10
1355.514126714702
 20
-843.7344829814335
 42
0.4142135623730891
 10
1356.039126714702
 20
-844.2594829814336
 42
0.0
 10
1357.789126714702
 20
-844.2594829814336
 42
0.4142135623730891
 10
1358.314126714702
 20
-843.7344829814335
 42
0.0
 97
        0
 75
     0
 76
     1
 52
0.0
 41
0.2
 77
     0
 78
     2
 53
45.0
 43
388.3296102252417
 44
-864.6094829814336
 45
-0.4490128060534576
 46
0.4490128060534577
 79
     0
 53
135.0
 43
388.3296102252417
 44
-864.6094829814336
 45
-0.4490128060534577
 46
-0.4490128060534576
 79
     0
 47
0.057451373970553
 98
        8
 10
1305.351769522944
 20
-836.2423093355481
 10
1311.67642956636
 20
-832.5654207989826
 10
1314.43628244558
 20
-835.8976013353629
 10
1320.185974541558
 20
-835.208185334992
 10
1331.110386578877
 20
-834.7485730674504
 10
1336.17011545505
 20
-831.9909066650264
 10
1345.829600532321
 20
-832.6803250663385
 10
1357.098994179543
 20
-832.2207127987969
  0
LINE
  5
5F5C
330
1A
100
AcDbEntity
  8
ZUWAKU
100
AcDbLine
 10
1337.664126714702
 20
-831.4844829814337
 30
0.0
 11
1337.664126714702
 21
-832.7746850067889
 31
0.0
  0
LINE
  5
5F5D
330
1A
100
AcDbEntity
  8
ZUWAKU
100
AcDbLine
 10
1334.864126714701
 20
-830.9594829814335
 30
0.0
 11
1334.864126714701
 21
-832.7746850067889
 31
0.0
  0
LINE
  5
5F5E
330
1A
100
AcDbEntity
  8
ZUWAKU
100
AcDbLine
 10
1326.586773196879
 20
-832.20443578787
 30
0.0
 11
1325.322021451544
 21
-836.2094829814335
 31
0.0
  0
LINE
  5
5F5F
330
1A
100
AcDbEntity
  8
ZUWAKU
100
AcDbLine
 10
1329.964126714702
 20
-828.6844829814336
 30
0.0
 11
1329.964126714702
 21
-843.7344829814335
 31
0.0
  0
LINE
  5
5F60
330
1A
100
AcDbEntity
  8
ZUWAKU
100
AcDbLine
 10
1332.764126714701
 20
-843.7344829814335
 30
0.0
 11
1332.764126714701
 21
-828.6844829814336
 31
0.0
  0
LINE
  5
5F61
330
1A
100
AcDbEntity
  8
ZUWAKU
100
AcDbLine
 10
1321.914126714702
 20
-834.2844829814335
 30
0.0
 11
1321.914126714702
 21
-828.6844829814336
 31
0.0
  0
LINE
  5
5F62
330
1A
100
AcDbEntity
  8
ZUWAKU
100
AcDbLine
 10
1319.114126714701
 20
-828.6844829814336
 30
0.0
 11
1319.114126714701
 21
-843.7344829814335
 31
0.0
  0
LINE
  5
5F63
330
1A
100
AcDbEntity
  8
ZUWAKU
100
AcDbLine
 10
1324.948261652017
 20
-828.5263890132666
 30
0.0
 11
1323.079991777386
 21
-834.4425769496005
 31
0.0
  0
ARC
  5
5F64
330
1A
100
AcDbEntity
  8
ZUWAKU
100
AcDbCircle
 10
1314.214126714702
 20
-832.3594829814336
 30
0.0
 40
1.399999999999999
100
AcDbArc
 50
90.0
 51
180.0
  0
ARC
  5
5F65
330
1A
100
AcDbEntity
  8
ZUWAKU
100
AcDbCircle
 10
1314.214126714702
 20
-832.3594829814336
 30
0.0
 40
4.199999999999998
100
AcDbArc
 50
90.0
 51
180.0
  0
LINE
  5
5F66
330
1A
100
AcDbEntity
  8
ZUWAKU
100
AcDbLine
 10
1303.364126714702
 20
-831.4844829814337
 30
0.0
 11
1303.364126714702
 21
-832.7746850067889
 31
0.0
  0
LINE
  5
5F67
330
1A
100
AcDbEntity
  8
ZUWAKU
100
AcDbLine
 10
1300.564126714701
 20
-830.9594829814335
 30
0.0
 11
1300.564126714701
 21
-832.7746850067889
 31
0.0
  0
ARC
  5
5F68
330
1A
100
AcDbEntity
  8
ZUWAKU
100
AcDbCircle
 10
1305.114126714701
 20
-841.4594829814335
 30
0.0
 40
2.799999999999998
100
AcDbArc
 50
270.0
 51
0.0
  0
ARC
  5
5F69
330
1A
100
AcDbEntity
  8
ZUWAKU
100
AcDbCircle
 10
1301.614126714701
 20
-843.7344829814335
 30
0.0
 40
0.525
100
AcDbArc
 50
180.0
 51
270.0
  0
LINE
  5
5F6A
330
1A
100
AcDbEntity
  8
ZUWAKU
100
AcDbLine
 10
1301.614126714701
 20
-844.2594829814336
 30
0.0
 11
1305.114126714701
 21
-844.2594829814336
 31
0.0
  0
LINE
  5
5F6B
330
1A
100
AcDbEntity
  8
ZUWAKU
100
AcDbLine
 10
1307.914126714702
 20
-841.4594829814335
 30
0.0
 11
1307.914126714702
 21
-839.6442809560781
 31
0.0
  0
LINE
  5
5F6C
330
1A
100
AcDbEntity
  8
ZUWAKU
100
AcDbLine
 10
1306.683975195685
 20
-836.6744324750948
 30
0.0
 11
1303.77417722104
 21
-833.76463450045
 31
0.0
  0
LINE
  5
5F6D
330
1A
100
AcDbEntity
  8
ZUWAKU
100
AcDbLine
 10
1305.114126714701
 20
-840.9344829814335
 30
0.0
 11
1305.114126714701
 21
-839.6442809560781
 31
0.0
  0
ARC
  5
5F6E
330
1A
100
AcDbEntity
  8
ZUWAKU
100
AcDbCircle
 10
1304.589126714702
 20
-840.9344829814335
 30
0.0
 40
0.525
100
AcDbArc
 50
270.0
 51
0.0
  0
ARC
  5
5F6F
330
1A
100
AcDbEntity
  8
ZUWAKU
100
AcDbCircle
 10
1303.714126714702
 20
-839.6442809560781
 30
0.0
 40
1.399999999999999
100
AcDbArc
 50
0.0
 51
45.0000000000046
  0
LINE
  5
5F70
330
1A
100
AcDbEntity
  8
ZUWAKU
100
AcDbLine
 10
1301.089126714702
 20
-843.7344829814335
 30
0.0
 11
1301.089126714702
 21
-841.9844829814335
 31
0.0
  0
ARC
  5
5F71
330
1A
100
AcDbEntity
  8
ZUWAKU
100
AcDbCircle
 10
1301.614126714701
 20
-841.9844829814335
 30
0.0
 40
0.525
100
AcDbArc
 50
90.0
 51
180.0
  0
LINE
  5
5F72
330
1A
100
AcDbEntity
  8
ZUWAKU
100
AcDbLine
 10
1301.614126714701
 20
-841.4594829814335
 30
0.0
 11
1304.589126714702
 21
-841.4594829814335
 31
0.0
  0
LINE
  5
5F73
330
1A
100
AcDbEntity
  8
ZUWAKU
100
AcDbLine
 10
1301.794278233718
 20
-835.7445334877724
 30
0.0
 11
1304.704076208363
 21
-838.6543314624171
 31
0.0
  0
ARC
  5
5F74
330
1A
100
AcDbEntity
  8
ZUWAKU
100
AcDbCircle
 10
1303.714126714702
 20
-839.6442809560783
 30
0.0
 40
4.199999999999998
100
AcDbArc
 50
0.0
 51
45.0000000000046
  0
ARC
  5
5F75
330
1A
100
AcDbEntity
  8
ZUWAKU
100
AcDbCircle
 10
1304.764126714702
 20
-832.7746850067889
 30
0.0
 40
1.399999999999999
100
AcDbArc
 50
180.0
 51
224.9999999999953
  0
ARC
  5
5F76
330
1A
100
AcDbEntity
  8
ZUWAKU
100
AcDbCircle
 10
1304.764126714702
 20
-832.7746850067889
 30
0.0
 40
4.199999999999998
100
AcDbArc
 50
180.0
 51
225.0000000000046
  0
ARC
  5
5F77
330
1A
100
AcDbEntity
  8
ZUWAKU
100
AcDbCircle
 10
1335.914126714702
 20
-843.7344829814335
 30
0.0
 40
0.525
100
AcDbArc
 50
180.0
 51
270.0
  0
ARC
  5
5F78
330
1A
100
AcDbEntity
  8
ZUWAKU
100
AcDbCircle
 10
1332.239126714702
 20
-843.7344829814335
 30
0.0
 40
0.525
100
AcDbArc
 50
270.0
 51
0.0
  0
ARC
  5
5F79
330
1A
100
AcDbEntity
  8
ZUWAKU
100
AcDbCircle
 10
1330.489126714701
 20
-843.7344829814335
 30
0.0
 40
0.525
100
AcDbArc
 50
180.0
 51
270.0
  0
ARC
  5
5F7A
330
1A
100
AcDbEntity
  8
ZUWAKU
100
AcDbCircle
 10
1327.147781930822
 20
-843.7344829814335
 30
0.0
 40
0.525
100
AcDbArc
 50
270.0
 51
17.52556837372188
  0
ARC
  5
5F7B
330
1A
100
AcDbEntity
  8
ZUWAKU
100
AcDbCircle
 10
1325.448892551213
 20
-843.7344829814335
 30
0.0
 40
0.525
100
AcDbArc
 50
197.5255683737218
 51
270.0
  0
ARC
  5
5F7C
330
1A
100
AcDbEntity
  8
ZUWAKU
100
AcDbCircle
 10
1321.389126714701
 20
-843.7344829814335
 30
0.0
 40
0.525
100
AcDbArc
 50
270.0
 51
0.0
  0
ARC
  5
5F7D
330
1A
100
AcDbEntity
  8
ZUWAKU
100
AcDbCircle
 10
1316.139126714702
 20
-843.7344829814335
 30
0.0
 40
0.525
100
AcDbArc
 50
270.0
 51
0.0
  0
ARC
  5
5F7E
330
1A
100
AcDbEntity
  8
ZUWAKU
100
AcDbCircle
 10
1319.639126714702
 20
-843.7344829814335
 30
0.0
 40
0.525
100
AcDbArc
 50
180.0
 51
270.0
  0
ARC
  5
5F7F
330
1A
100
AcDbEntity
  8
ZUWAKU
100
AcDbCircle
 10
1314.214126714702
 20
-840.0594829814336
 30
0.0
 40
4.199999999999998
100
AcDbArc
 50
180.0
 51
270.0
  0
LINE
  5
5F80
330
1A
100
AcDbEntity
  8
ZUWAKU
100
AcDbLine
 10
1319.639126714702
 20
-844.2594829814336
 30
0.0
 11
1321.389126714701
 21
-844.2594829814336
 31
0.0
  0
LINE
  5
5F81
330
1A
100
AcDbEntity
  8
ZUWAKU
100
AcDbLine
 10
1316.139126714702
 20
-844.2594829814336
 30
0.0
 11
1314.214126714702
 21
-844.2594829814336
 31
0.0
  0
LINE
  5
5F82
330
1A
100
AcDbEntity
  8
ZUWAKU
100
AcDbLine
 10
1335.914126714702
 20
-844.2594829814336
 30
0.0
 11
1339.414126714702
 21
-844.2594829814336
 31
0.0
  0
LINE
  5
5F83
330
1A
100
AcDbEntity
  8
ZUWAKU
100
AcDbLine
 10
1325.448892551213
 20
-844.2594829814336
 30
0.0
 11
1327.147781930822
 21
-844.2594829814336
 31
0.0
  0
LINE
  5
5F84
330
1A
100
AcDbEntity
  8
ZUWAKU
100
AcDbLine
 10
1330.489126714701
 20
-844.2594829814336
 30
0.0
 11
1332.239126714702
 21
-844.2594829814336
 31
0.0
  0
LINE
  5
5F85
330
1A
100
AcDbEntity
  8
ZUWAKU
100
AcDbLine
 10
1324.948261652017
 20
-843.8925769496005
 30
0.0
 11
1323.079991777386
 21
-837.9763890132666
 31
0.0
  0
ARC
  5
5F86
330
1A
100
AcDbEntity
  8
ZUWAKU
100
AcDbCircle
 10
1322.57936087819
 20
-834.2844829814335
 30
0.0
 40
0.525
100
AcDbArc
 50
270.0
 51
342.474431626278
  0
LINE
  5
5F87
330
1A
100
AcDbEntity
  8
ZUWAKU
100
AcDbLine
 10
1322.57936087819
 20
-834.8094829814336
 30
0.0
 11
1322.439126714701
 21
-834.8094829814336
 31
0.0
  0
LINE
  5
5F88
330
1A
100
AcDbEntity
  8
ZUWAKU
100
AcDbLine
 10
1322.439126714701
 20
-837.6094829814336
 30
0.0
 11
1322.57936087819
 21
-837.6094829814336
 31
0.0
  0
ARC
  5
5F89
330
1A
100
AcDbEntity
  8
ZUWAKU
100
AcDbCircle
 10
1322.439126714701
 20
-834.2844829814335
 30
0.0
 40
0.525
100
AcDbArc
 50
180.0
 51
270.0
  0
LINE
  5
5F8A
330
1A
100
AcDbEntity
  8
ZUWAKU
100
AcDbLine
 10
1321.914126714702
 20
-843.7344829814335
 30
0.0
 11
1321.914126714702
 21
-838.1344829814336
 31
0.0
  0
LINE
  5
5F8B
330
1A
100
AcDbEntity
  8
ZUWAKU
100
AcDbLine
 10
1316.664126714702
 20
-841.9844829814335
 30
0.0
 11
1316.664126714702
 21
-843.7344829814335
 31
0.0
  0
ARC
  5
5F8C
330
1A
100
AcDbEntity
  8
ZUWAKU
100
AcDbCircle
 10
1316.139126714702
 20
-841.9844829814335
 30
0.0
 40
0.525
100
AcDbArc
 50
0.0
 51
90.0
  0
ARC
  5
5F8D
330
1A
100
AcDbEntity
  8
ZUWAKU
100
AcDbCircle
 10
1322.57936087819
 20
-838.1344829814336
 30
0.0
 40
0.525
100
AcDbArc
 50
17.52556837372188
 51
90.0
  0
ARC
  5
5F8E
330
1A
100
AcDbEntity
  8
ZUWAKU
100
AcDbCircle
 10
1322.439126714701
 20
-838.1344829814336
 30
0.0
 40
0.525
100
AcDbArc
 50
90.0
 51
180.0
  0
ARC
  5
5F8F
330
1A
100
AcDbEntity
  8
ZUWAKU
100
AcDbCircle
 10
1314.214126714702
 20
-840.0594829814336
 30
0.0
 40
1.399999999999999
100
AcDbArc
 50
180.0
 51
270.0
  0
LINE
  5
5F90
330
1A
100
AcDbEntity
  8
ZUWAKU
100
AcDbLine
 10
1312.814126714701
 20
-832.3594829814336
 30
0.0
 11
1312.814126714701
 21
-840.0594829814336
 31
0.0
  0
LINE
  5
5F91
330
1A
100
AcDbEntity
  8
ZUWAKU
100
AcDbLine
 10
1310.014126714702
 20
-840.0594829814336
 30
0.0
 11
1310.014126714702
 21
-832.3594829814336
 31
0.0
  0
LINE
  5
5F92
330
1A
100
AcDbEntity
  8
ZUWAKU
100
AcDbLine
 10
1314.214126714702
 20
-841.4594829814335
 30
0.0
 11
1316.139126714702
 21
-841.4594829814335
 31
0.0
  0
CIRCLE
  5
5F93
330
1A
100
AcDbEntity
  8
ZUWAKU
100
AcDbCircle
 10
1315.264126714701
 20
-836.2094829814335
 30
0.0
 40
1.75
  0
LINE
  5
5F94
330
1A
100
AcDbEntity
  8
ZUWAKU
100
AcDbLine
 10
1339.414126714702
 20
-840.9344829814335
 30
0.0
 11
1339.414126714702
 21
-839.6442809560781
 31
0.0
  0
ARC
  5
5F95
330
1A
100
AcDbEntity
  8
ZUWAKU
100
AcDbCircle
 10
1338.014126714702
 20
-839.6442809560781
 30
0.0
 40
1.399999999999999
100
AcDbArc
 50
0.0
 51
45.0000000000046
  0
ARC
  5
5F96
330
1A
100
AcDbEntity
  8
ZUWAKU
100
AcDbCircle
 10
1338.889126714701
 20
-840.9344829814335
 30
0.0
 40
0.525
100
AcDbArc
 50
270.0
 51
0.0
  0
LINE
  5
5F97
330
1A
100
AcDbEntity
  8
ZUWAKU
100
AcDbLine
 10
1335.389126714702
 20
-843.7344829814335
 30
0.0
 11
1335.389126714702
 21
-841.9844829814335
 31
0.0
  0
ARC
  5
5F98
330
1A
100
AcDbEntity
  8
ZUWAKU
100
AcDbCircle
 10
1335.914126714702
 20
-841.9844829814335
 30
0.0
 40
0.525
100
AcDbArc
 50
90.0
 51
180.0
  0
LINE
  5
5F99
330
1A
100
AcDbEntity
  8
ZUWAKU
100
AcDbLine
 10
1335.914126714702
 20
-841.4594829814335
 30
0.0
 11
1338.889126714701
 21
-841.4594829814335
 31
0.0
  0
LINE
  5
5F9A
330
1A
100
AcDbEntity
  8
ZUWAKU
100
AcDbLine
 10
1336.094278233718
 20
-835.7445334877724
 30
0.0
 11
1339.004076208363
 21
-838.6543314624171
 31
0.0
  0
LINE
  5
5F9B
330
1A
100
AcDbEntity
  8
ZUWAKU
100
AcDbLine
 10
1327.648412830018
 20
-843.5763890132665
 30
0.0
 11
1325.322021451544
 21
-836.2094829814335
 31
0.0
  0
ARC
  5
5F9C
330
1A
100
AcDbEntity
  8
ZUWAKU
100
AcDbCircle
 10
1339.064126714701
 20
-832.7746850067889
 30
0.0
 40
1.399999999999999
100
AcDbArc
 50
180.0
 51
224.9999999999953
  0
ARC
  5
5F9D
330
1A
100
AcDbEntity
  8
ZUWAKU
100
AcDbCircle
 10
1339.064126714701
 20
-832.7746850067889
 30
0.0
 40
4.199999999999998
100
AcDbArc
 50
180.0
 51
225.0000000000046
  0
LINE
  5
5F9E
330
1A
100
AcDbEntity
  8
ZUWAKU
100
AcDbLine
 10
1307.389126714701
 20
-828.6844829814336
 30
0.0
 11
1307.389126714701
 21
-830.4344829814336
 31
0.0
  0
LINE
  5
5F9F
330
1A
100
AcDbEntity
  8
ZUWAKU
100
AcDbLine
 10
1303.364126714702
 20
-828.1594829814336
 30
0.0
 11
1306.864126714701
 21
-828.1594829814336
 31
0.0
  0
ARC
  5
5FA0
330
1A
100
AcDbEntity
  8
ZUWAKU
100
AcDbCircle
 10
1303.889126714701
 20
-831.4844829814337
 30
0.0
 40
0.525
100
AcDbArc
 50
90.0
 51
180.0
  0
LINE
  5
5FA1
330
1A
100
AcDbEntity
  8
ZUWAKU
100
AcDbLine
 10
1306.864126714701
 20
-830.9594829814335
 30
0.0
 11
1303.889126714701
 21
-830.9594829814335
 31
0.0
  0
ARC
  5
5FA2
330
1A
100
AcDbEntity
  8
ZUWAKU
100
AcDbCircle
 10
1303.364126714702
 20
-830.9594829814335
 30
0.0
 40
2.799999999999998
100
AcDbArc
 50
90.0
 51
180.0
  0
ARC
  5
5FA3
330
1A
100
AcDbEntity
  8
ZUWAKU
100
AcDbCircle
 10
1306.864126714701
 20
-828.6844829814336
 30
0.0
 40
0.525
100
AcDbArc
 50
0.0
 51
90.0
  0
ARC
  5
5FA4
330
1A
100
AcDbEntity
  8
ZUWAKU
100
AcDbCircle
 10
1306.864126714701
 20
-830.4344829814336
 30
0.0
 40
0.525
100
AcDbArc
 50
270.0
 51
0.0
  0
ARC
  5
5FA5
330
1A
100
AcDbEntity
  8
ZUWAKU
100
AcDbCircle
 10
1321.389126714701
 20
-828.6844829814336
 30
0.0
 40
0.525
100
AcDbArc
 50
0.0
 51
90.0
  0
LINE
  5
5FA6
330
1A
100
AcDbEntity
  8
ZUWAKU
100
AcDbLine
 10
1321.389126714701
 20
-828.1594829814336
 30
0.0
 11
1319.639126714702
 21
-828.1594829814336
 31
0.0
  0
ARC
  5
5FA7
330
1A
100
AcDbEntity
  8
ZUWAKU
100
AcDbCircle
 10
1316.139126714702
 20
-828.6844829814336
 30
0.0
 40
0.525
100
AcDbArc
 50
0.0
 51
90.0
  0
ARC
  5
5FA8
330
1A
100
AcDbEntity
  8
ZUWAKU
100
AcDbCircle
 10
1319.639126714702
 20
-828.6844829814336
 30
0.0
 40
0.525
100
AcDbArc
 50
90.0
 51
180.0
  0
ARC
  5
5FA9
330
1A
100
AcDbEntity
  8
ZUWAKU
100
AcDbCircle
 10
1316.139126714702
 20
-830.4344829814336
 30
0.0
 40
0.525
100
AcDbArc
 50
270.0
 51
0.0
  0
LINE
  5
5FAA
330
1A
100
AcDbEntity
  8
ZUWAKU
100
AcDbLine
 10
1316.664126714702
 20
-828.6844829814336
 30
0.0
 11
1316.664126714702
 21
-830.4344829814336
 31
0.0
  0
LINE
  5
5FAB
330
1A
100
AcDbEntity
  8
ZUWAKU
100
AcDbLine
 10
1314.214126714702
 20
-828.1594829814336
 30
0.0
 11
1316.139126714702
 21
-828.1594829814336
 31
0.0
  0
LINE
  5
5FAC
330
1A
100
AcDbEntity
  8
ZUWAKU
100
AcDbLine
 10
1316.139126714702
 20
-830.9594829814335
 30
0.0
 11
1314.214126714702
 21
-830.9594829814335
 31
0.0
  0
ARC
  5
5FAD
330
1A
100
AcDbEntity
  8
ZUWAKU
100
AcDbCircle
 10
1338.189126714701
 20
-831.4844829814337
 30
0.0
 40
0.525
100
AcDbArc
 50
90.0
 51
180.0
  0
ARC
  5
5FAE
330
1A
100
AcDbEntity
  8
ZUWAKU
100
AcDbCircle
 10
1332.239126714702
 20
-828.6844829814336
 30
0.0
 40
0.525
100
AcDbArc
 50
0.0
 51
90.0
  0
ARC
  5
5FAF
330
1A
100
AcDbEntity
  8
ZUWAKU
100
AcDbCircle
 10
1337.664126714702
 20
-830.9594829814335
 30
0.0
 40
2.799999999999998
100
AcDbArc
 50
90.0
 51
180.0
  0
ARC
  5
5FB0
330
1A
100
AcDbEntity
  8
ZUWAKU
100
AcDbCircle
 10
1330.489126714701
 20
-828.6844829814336
 30
0.0
 40
0.525
100
AcDbArc
 50
90.0
 51
180.0
  0
LINE
  5
5FB1
330
1A
100
AcDbEntity
  8
ZUWAKU
100
AcDbLine
 10
1325.448892551213
 20
-828.1594829814336
 30
0.0
 11
1327.147781930822
 21
-828.1594829814336
 31
0.0
  0
ARC
  5
5FB2
330
1A
100
AcDbEntity
  8
ZUWAKU
100
AcDbCircle
 10
1327.147781930822
 20
-828.6844829814336
 30
0.0
 40
0.525
100
AcDbArc
 50
342.474431626278
 51
90.0
  0
LINE
  5
5FB3
330
1A
100
AcDbEntity
  8
ZUWAKU
100
AcDbLine
 10
1327.648412830018
 20
-828.8425769496006
 30
0.0
 11
1326.586773196879
 21
-832.20443578787
 31
0.0
  0
ARC
  5
5FB4
330
1A
100
AcDbEntity
  8
ZUWAKU
100
AcDbCircle
 10
1325.448892551213
 20
-828.6844829814336
 30
0.0
 40
0.525
100
AcDbArc
 50
90.0
 51
162.4744316262781
  0
LINE
  5
5FB5
330
1A
100
AcDbEntity
  8
ZUWAKU
100
AcDbLine
 10
1332.239126714702
 20
-828.1594829814336
 30
0.0
 11
1330.489126714701
 21
-828.1594829814336
 31
0.0
  0
LINE
  5
5FB6
330
1A
100
AcDbEntity
  8
ZUWAKU
100
AcDbLine
 10
1497.518515849988
 20
-821.4094829814335
 30
0.0
 11
1497.518515849988
 21
-850.6094829814335
 31
0.0
  0
LINE
  5
5FB7
330
1A
100
AcDbEntity
  8
ZUWAKU
100
AcDbLine
 10
1497.918515849988
 20
-821.4094829814335
 30
0.0
 11
1497.918515849988
 21
-850.6094829814335
 31
0.0
  0
LINE
  5
5FB8
330
1A
100
AcDbEntity
  8
ZUWAKU
100
AcDbLine
 10
1497.718515849988
 20
-821.4094829814335
 30
0.0
 11
1497.718515849988
 21
-850.6094829814335
 31
0.0
  0
LINE
  5
5FB9
330
1A
100
AcDbEntity
  8
ZUWAKU
100
AcDbLine
 10
1368.598544107909
 20
-821.4094829814335
 30
0.0
 11
1368.598544107909
 21
-850.6094829814335
 31
0.0
  0
LINE
  5
5FBA
330
1A
100
AcDbEntity
  8
ZUWAKU
100
AcDbLine
 10
1368.798544107909
 20
-821.4094829814335
 30
0.0
 11
1368.798544107909
 21
-850.6094829814335
 31
0.0
  0
LINE
  5
5FBB
330
1A
100
AcDbEntity
  8
ZUWAKU
100
AcDbLine
 10
1368.398544107909
 20
-821.4094829814335
 30
0.0
 11
1368.398544107909
 21
-850.6094829814335
 31
0.0
  0
LINE
  5
5FBC
330
1A
100
AcDbEntity
  8
ZUWAKU
100
AcDbLine
 10
1353.414126714702
 20
-841.4594829814335
 30
0.0
 11
1353.414126714702
 21
-828.6844829814336
 31
0.0
  0
LINE
  5
5FBD
330
1A
100
AcDbEntity
  8
ZUWAKU
100
AcDbLine
 10
1350.614126714702
 20
-828.6844829814336
 30
0.0
 11
1350.614126714702
 21
-840.4094829814336
 31
0.0
  0
LINE
  5
5FBE
330
1A
100
AcDbEntity
  8
ZUWAKU
100
AcDbLine
 10
1358.314126714702
 20
-843.7344829814335
 30
0.0
 11
1358.314126714702
 21
-828.6844829814336
 31
0.0
  0
LINE
  5
5FBF
330
1A
100
AcDbEntity
  8
ZUWAKU
100
AcDbLine
 10
1355.514126714702
 20
-828.6844829814336
 30
0.0
 11
1355.514126714702
 21
-843.7344829814335
 31
0.0
  0
LINE
  5
5FC0
330
1A
100
AcDbEntity
  8
ZUWAKU
100
AcDbLine
 10
1344.314126714701
 20
-828.6844829814336
 30
0.0
 11
1344.314126714701
 21
-841.4594829814335
 31
0.0
  0
LINE
  5
5FC1
330
1A
100
AcDbEntity
  8
ZUWAKU
100
AcDbLine
 10
1347.114126714701
 20
-840.4094829814336
 30
0.0
 11
1347.114126714701
 21
-828.6844829814336
 31
0.0
  0
TEXT
  5
5FC2
330
1A
100
AcDbEntity
  8
MOJI
100
AcDbText
 10
1385.056035890871
 20
-839.0135711435091
 30
0.0
 40
5.799999999999999
  1
アートフェイス　シリーズ
 41
0.9
  7
ｽﾀｲﾙ1
100
AcDbText
  0
ARC
  5
5FC4
330
1A
100
AcDbEntity
  8
ZUWAKU
100
AcDbCircle
 10
1357.789126714702
 20
-843.7344829814335
 30
0.0
 40
0.525
100
AcDbArc
 50
270.0
 51
0.0
  0
ARC
  5
5FC5
330
1A
100
AcDbEntity
  8
ZUWAKU
100
AcDbCircle
 10
1356.039126714702
 20
-843.7344829814335
 30
0.0
 40
0.525
100
AcDbArc
 50
180.0
 51
270.0
  0
ARC
  5
5FC6
330
1A
100
AcDbEntity
  8
ZUWAKU
100
AcDbCircle
 10
1350.614126714702
 20
-841.4594829814335
 30
0.0
 40
2.799999999999998
100
AcDbArc
 50
270.0
 51
0.0
  0
ARC
  5
5FC7
330
1A
100
AcDbEntity
  8
ZUWAKU
100
AcDbCircle
 10
1347.114126714701
 20
-841.4594829814335
 30
0.0
 40
2.799999999999998
100
AcDbArc
 50
180.0
 51
270.0
  0
LINE
  5
5FC8
330
1A
100
AcDbEntity
  8
ZUWAKU
100
AcDbLine
 10
1356.039126714702
 20
-844.2594829814336
 30
0.0
 11
1357.789126714702
 21
-844.2594829814336
 31
0.0
  0
LINE
  5
5FC9
330
1A
100
AcDbEntity
  8
ZUWAKU
100
AcDbLine
 10
1347.114126714701
 20
-844.2594829814336
 30
0.0
 11
1350.614126714702
 21
-844.2594829814336
 31
0.0
  0
ARC
  5
5FCA
330
1A
100
AcDbEntity
  8
ZUWAKU
100
AcDbCircle
 10
1349.564126714701
 20
-840.4094829814336
 30
0.0
 40
1.049999999999998
100
AcDbArc
 50
270.0
 51
0.0
  0
LINE
  5
5FCB
330
1A
100
AcDbEntity
  8
ZUWAKU
100
AcDbLine
 10
1342.214126714702
 20
-841.4594829814335
 30
0.0
 11
1342.214126714702
 21
-839.6442809560781
 31
0.0
  0
ARC
  5
5FCC
330
1A
100
AcDbEntity
  8
ZUWAKU
100
AcDbCircle
 10
1338.014126714702
 20
-839.6442809560783
 30
0.0
 40
4.199999999999998
100
AcDbArc
 50
0.0
 51
45.0000000000046
  0
ARC
  5
5FCD
330
1A
100
AcDbEntity
  8
ZUWAKU
100
AcDbCircle
 10
1348.164126714702
 20
-840.4094829814336
 30
0.0
 40
1.049999999999998
100
AcDbArc
 50
180.0
 51
270.0
  0
LINE
  5
5FCE
330
1A
100
AcDbEntity
  8
ZUWAKU
100
AcDbLine
 10
1349.564126714701
 20
-841.4594829814335
 30
0.0
 11
1348.164126714702
 21
-841.4594829814335
 31
0.0
  0
TEXT
  5
5FCF
330
1A
100
AcDbEntity
  8
MOJI
100
AcDbText
 10
1529.099117240771
 20
-848.2045619240262
 30
0.0
 40
5.599999999999998
  1
１２０－０－１０（ＮＡ）
 41
0.9
  7
ｽﾀｲﾙ1
100
AcDbText
  0
TEXT
  5
5FD0
330
1A
100
AcDbEntity
  8
ZUWAKU
100
AcDbText
 10
1498.995960872198
 20
-841.7541264430479
 30
0.0
 40
4.0
  1
サイズ
 41
0.9
  7
ｽﾀｲﾙ1
100
AcDbText
  0
LINE
  5
5FD1
330
1A
100
AcDbEntity
  8
ZUWAKU
100
AcDbLine
 10
1357.789126714702
 20
-828.1594829814336
 30
0.0
 11
1356.039126714702
 21
-828.1594829814336
 31
0.0
  0
ARC
  5
5FD2
330
1A
100
AcDbEntity
  8
ZUWAKU
100
AcDbCircle
 10
1356.039126714702
 20
-828.6844829814336
 30
0.0
 40
0.525
100
AcDbArc
 50
90.0
 51
180.0
  0
ARC
  5
5FD3
330
1A
100
AcDbEntity
  8
ZUWAKU
100
AcDbCircle
 10
1352.889126714702
 20
-828.6844829814336
 30
0.0
 40
0.525
100
AcDbArc
 50
0.0
 51
90.0
  0
LINE
  5
5FD4
330
1A
100
AcDbEntity
  8
ZUWAKU
100
AcDbLine
 10
1352.889126714702
 20
-828.1594829814336
 30
0.0
 11
1351.139126714701
 21
-828.1594829814336
 31
0.0
  0
ARC
  5
5FD5
330
1A
100
AcDbEntity
  8
ZUWAKU
100
AcDbCircle
 10
1351.139126714701
 20
-828.6844829814336
 30
0.0
 40
0.525
100
AcDbArc
 50
90.0
 51
180.0
  0
ARC
  5
5FD6
330
1A
100
AcDbEntity
  8
ZUWAKU
100
AcDbCircle
 10
1346.589126714702
 20
-828.6844829814336
 30
0.0
 40
0.525
100
AcDbArc
 50
0.0
 51
90.0
  0
ARC
  5
5FD7
330
1A
100
AcDbEntity
  8
ZUWAKU
100
AcDbCircle
 10
1344.839126714702
 20
-828.6844829814336
 30
0.0
 40
0.525
100
AcDbArc
 50
90.0
 51
180.0
  0
LINE
  5
5FD8
330
1A
100
AcDbEntity
  8
ZUWAKU
100
AcDbLine
 10
1346.589126714702
 20
-828.1594829814336
 30
0.0
 11
1344.839126714702
 21
-828.1594829814336
 31
0.0
  0
ARC
  5
5FD9
330
1A
100
AcDbEntity
  8
ZUWAKU
100
AcDbCircle
 10
1341.164126714702
 20
-828.6844829814336
 30
0.0
 40
0.525
100
AcDbArc
 50
0.0
 51
90.0
  0
ARC
  5
5FDA
330
1A
100
AcDbEntity
  8
ZUWAKU
100
AcDbCircle
 10
1341.164126714702
 20
-830.4344829814336
 30
0.0
 40
0.525
100
AcDbArc
 50
270.0
 51
0.0
  0
LINE
  5
5FDB
330
1A
100
AcDbEntity
  8
ZUWAKU
100
AcDbLine
 10
1341.689126714701
 20
-828.6844829814336
 30
0.0
 11
1341.689126714701
 21
-830.4344829814336
 31
0.0
  0
ARC
  5
5FDC
330
1A
100
AcDbEntity
  8
ZUWAKU
100
AcDbCircle
 10
1357.789126714702
 20
-828.6844829814336
 30
0.0
 40
0.525
100
AcDbArc
 50
0.0
 51
90.0
  0
TEXT
  5
5FDD
330
1A
100
AcDbEntity
  8
ZUWAKU
100
AcDbText
 10
1498.995960872198
 20
-827.354126443048
 30
0.0
 40
4.0
  1
品名
 41
0.9
  7
ｽﾀｲﾙ1
100
AcDbText
  0
LINE
  5
600C
330
1A
100
AcDbEntity
  8
ZUWAKU
100
AcDbLine
 10
1841.998870326033
 20
-821.4094829814335
 30
0.0
 11
1841.998870326033
 21
-850.6094829814335
 31
0.0
  0
LINE
  5
600D
330
1A
100
AcDbEntity
  8
ZUWAKU
100
AcDbLine
 10
1842.198870326033
 20
-821.4094829814335
 30
0.0
 11
1842.198870326033
 21
-850.6094829814335
 31
0.0
  0
LINE
  5
600E
330
1A
100
AcDbEntity
  8
ZUWAKU
100
AcDbLine
 10
1841.798870326033
 20
-821.4094829814335
 30
0.0
 11
1841.798870326033
 21
-850.6094829814335
 31
0.0
  0
LINE
  5
600F
330
1A
100
AcDbEntity
  8
ZUWAKU
100
AcDbLine
 10
1736.896278530911
 20
-821.4094829814335
 30
0.0
 11
1736.896278530912
 21
-850.6094829814335
 31
0.0
  0
LINE
  5
6010
330
1A
100
AcDbEntity
  8
ZUWAKU
100
AcDbLine
 10
1737.096278530912
 20
-821.4094829814335
 30
0.0
 11
1737.096278530912
 21
-850.6094829814335
 31
0.0
  0
LINE
  5
6011
330
1A
100
AcDbEntity
  8
ZUWAKU
100
AcDbLine
 10
1736.696278530912
 20
-821.4094829814335
 30
0.0
 11
1736.696278530912
 21
-850.6094829814335
 31
0.0
  0
TEXT
  5
6012
330
1A
100
AcDbEntity
  8
MOJI
100
AcDbText
 10
1817.312822532233
 20
-833.4045619240262
 30
0.0
 40
5.599999999999998
  1
Ａ３
 41
0.9
  7
ｽﾀｲﾙ1
100
AcDbText
  0
LINE
  5
6013
330
1A
100
AcDbEntity
  8
ZUWAKU
100
AcDbLine
 10
1794.271094058061
 20
-821.4094829814335
 30
0.0
 11
1794.271094058061
 21
-850.6094829814335
 31
0.0
  0
LINE
  5
6014
330
1A
100
AcDbEntity
  8
ZUWAKU
100
AcDbLine
 10
1794.471094058061
 20
-821.4094829814335
 30
0.0
 11
1794.471094058062
 21
-850.6094829814335
 31
0.0
  0
LINE
  5
6015
330
1A
100
AcDbEntity
  8
ZUWAKU
100
AcDbLine
 10
1794.071094058061
 20
-821.4094829814335
 30
0.0
 11
1794.071094058061
 21
-850.6094829814335
 31
0.0
  0
TEXT
  5
6016
330
1A
100
AcDbEntity
  8
MOJI
100
AcDbText
 10
1752.518346550923
 20
-839.4668652597736
 30
0.0
 40
5.599999999999998
  1
ＬＭ９１Ｔ
 41
0.9
  7
ｽﾀｲﾙ1
100
AcDbText
  0
TEXT
  5
6017
330
1A
100
AcDbEntity
  8
MOJI
100
AcDbText
 10
1817.312822532233
 20
-848.2045619240262
 30
0.0
 40
5.599999999999998
  1
１/２
 41
0.9
  7
ｽﾀｲﾙ1
100
AcDbText
  0
LINE
  5
6018
330
1A
100
AcDbEntity
  8
ZUWAKU
100
AcDbLine
 10
1794.471094058061
 20
-836.2094829814335
 30
0.0
 11
1841.798870326033
 21
-836.2094829814335
 31
0.0
  0
LINE
  5
6019
330
1A
100
AcDbEntity
  8
ZUWAKU
100
AcDbLine
 10
1794.471094058061
 20
-836.0094829814336
 30
0.0
 11
1841.798870326033
 21
-836.0094829814336
 31
0.0
  0
LINE
  5
601A
330
1A
100
AcDbEntity
  8
ZUWAKU
100
AcDbLine
 10
1794.471094058061
 20
-835.8094829814335
 30
0.0
 11
1841.798870326033
 21
-835.8094829814335
 31
0.0
  0
TEXT
  5
601B
330
1A
100
AcDbEntity
  8
ZUWAKU
100
AcDbText
 10
1795.948539080271
 20
-841.7541264430479
 30
0.0
 40
4.0
  1
縮尺
 41
0.9
  7
ｽﾀｲﾙ1
100
AcDbText
  0
TEXT
  5
601C
330
1A
100
AcDbEntity
  8
ZUWAKU
100
AcDbText
 10
1738.573723553121
 20
-827.354126443048
 30
0.0
 40
4.0
  1
品番
 41
0.9
  7
ｽﾀｲﾙ1
100
AcDbText
  0
TEXT
  5
601D
330
1A
100
AcDbEntity
  8
ZUWAKU
100
AcDbText
 10
1795.948539080271
 20
-827.354126443048
 30
0.0
 40
4.0
  1
用紙
 41
0.9
  7
ｽﾀｲﾙ1
100
AcDbText
  0
LINE
  5
601E
330
1A
100
AcDbEntity
  8
ZUWAKU
100
AcDbLine
 10
1986.520925108462
 20
-821.4094829814335
 30
0.0
 11
1986.520925108462
 21
-850.6094829814335
 31
0.0
  0
LINE
  5
601F
330
1A
100
AcDbEntity
  8
ZUWAKU
100
AcDbLine
 10
1986.720925108462
 20
-821.4094829814335
 30
0.0
 11
1986.720925108462
 21
-850.6094829814335
 31
0.0
  0
LINE
  5
6020
330
1A
100
AcDbEntity
  8
ZUWAKU
100
AcDbLine
 10
1986.920925108462
 20
-821.4094829814335
 30
0.0
 11
1986.920925108462
 21
-850.6094829814335
 31
0.0
  0
LINE
  5
6021
330
1A
100
AcDbEntity
  8
ZUWAKU
100
AcDbLine
 10
1987.120925108461
 20
-821.4094829814335
 30
0.0
 11
1987.120925108461
 21
-850.6094829814335
 31
0.0
  0
TEXT
  5
6022
330
1A
100
AcDbEntity
  8
ZUWAKU
100
AcDbText
 10
1997.799998752164
 20
-833.8556436457468
 30
0.0
 40
6.0
  1
積水化学工業株式会社
 41
0.9
  7
ｽﾀｲﾙ1
100
AcDbText
  0
LINE
  5
6023
330
1A
100
AcDbEntity
  8
ZUWAKU
100
AcDbLine
 10
1937.889117070124
 20
-821.4094829814335
 30
0.0
 11
1937.889117070125
 21
-850.6094829814335
 31
0.0
  0
LINE
  5
6024
330
1A
100
AcDbEntity
  8
ZUWAKU
100
AcDbLine
 10
1938.089117070125
 20
-821.4094829814335
 30
0.0
 11
1938.089117070125
 21
-850.6094829814335
 31
0.0
  0
LINE
  5
6025
330
1A
100
AcDbEntity
  8
ZUWAKU
100
AcDbLine
 10
1937.689117070125
 20
-821.4094829814335
 30
0.0
 11
1937.689117070125
 21
-850.6094829814335
 31
0.0
  0
TEXT
  5
6026
330
1A
100
AcDbEntity
  8
ZUWAKU
100
AcDbText
 10
1943.783990559607
 20
-833.4045619240262
 30
0.0
 40
5.599999999999998
  1
　　．　．　　
 41
0.9
  7
ｽﾀｲﾙ1
100
AcDbText
  0
LINE
  5
6027
330
1A
100
AcDbEntity
  8
ZUWAKU
100
AcDbLine
 10
1938.089117070125
 20
-836.2094829814335
 30
0.0
 11
1986.520925108462
 21
-836.2094829814335
 31
0.0
  0
LINE
  5
6028
330
1A
100
AcDbEntity
  8
ZUWAKU
100
AcDbLine
 10
1938.089117070125
 20
-836.0094829814334
 30
0.0
 11
1986.520925108462
 21
-836.0094829814336
 31
0.0
  0
LINE
  5
6029
330
1A
100
AcDbEntity
  8
ZUWAKU
100
AcDbLine
 10
1938.089117070125
 20
-835.8094829814335
 30
0.0
 11
1986.520925108462
 21
-835.8094829814335
 31
0.0
  0
TEXT
  5
602A
330
1A
100
AcDbEntity
  8
ZUWAKU
100
AcDbText
 10
1997.799998752164
 20
-844.7606426675795
 30
0.0
 40
6.0
  1
建材事業部
 41
0.9
  7
ｽﾀｲﾙ1
100
AcDbText
  0
TEXT
  5
602B
330
1A
100
AcDbEntity
  8
ZUWAKU
100
AcDbText
 10
1939.566562092334
 20
-827.354126443048
 30
0.0
 40
4.0
  1
DATE
 41
0.9
  7
ｽﾀｲﾙ1
100
AcDbText
  0
LINE
  5
627F
102
{ACAD_REACTORS
330
6282
102
}
330
1A
100
AcDbEntity
  8
KEIJYO
 62
   251
100
AcDbLine
 10
1524.505199035177
 20
-574.9860824831256
 30
0.0
 11
1526.062833823835
 21
-574.9860824831256
 31
0.0
  0
LINE
  5
6280
102
{ACAD_REACTORS
330
6282
102
}
330
1A
100
AcDbEntity
  8
KEIJYO
 62
   251
100
AcDbLine
 10
1525.284016429506
 20
-574.2072650887968
 30
0.0
 11
1525.284016429506
 21
-575.7648998774543
 31
0.0
  0
CIRCLE
  5
6281
102
{ACAD_REACTORS
330
6282
102
}
330
1A
100
AcDbEntity
  8
KEIJYO
 62
   251
100
AcDbCircle
 10
1525.284016429506
 20
-574.9860824831256
 30
0.0
 40
0.7788173943287319
  0
LINE
  5
6667
330
1A
100
AcDbEntity
  8
SEIHIN
100
AcDbLine
 10
1633.343443503677
 20
-461.8331145882941
 30
0.0
 11
1626.919023707676
 21
-461.8331145882941
 31
0.0
  0
LINE
  5
6668
330
1A
100
AcDbEntity
  8
SEIHIN
100
AcDbLine
 10
1626.919023707676
 20
-457.8331145882942
 30
0.0
 11
1633.343443503677
 21
-457.8331145882942
 31
0.0
  0
ARC
  5
6669
330
1A
100
AcDbEntity
  8
SEIHIN
100
AcDbCircle
 10
1631.750213819076
 20
-460.8331145882943
 30
0.0
 40
1.0
100
AcDbArc
 50
270.0
 51
0.0
  0
ARC
  5
666A
330
1A
100
AcDbEntity
  8
SEIHIN
100
AcDbCircle
 10
1631.750213819076
 20
-458.8331145882947
 30
0.0
 40
1.0
100
AcDbArc
 50
0.0
 51
90.0
  0
LINE
  5
666B
330
1A
100
AcDbEntity
  8
SEIHIN
100
AcDbLine
 10
1617.498921512076
 20
-444.8331145882945
 30
0.0
 11
1655.423709699177
 21
-444.8331145882945
 31
0.0
  0
LINE
  5
666E
330
1A
100
AcDbEntity
  8
SEIHIN
100
AcDbLine
 10
1655.423709699177
 20
-474.8331145882944
 30
0.0
 11
1617.498919883676
 21
-474.8331145882944
 31
0.0
  0
ARC
  5
666F
330
1A
100
AcDbEntity
  8
SEIHIN
100
AcDbCircle
 10
1629.547837318776
 20
-603.0464725327568
 30
0.0
 40
2.499999999999996
100
AcDbArc
 50
12.63457551969735
 51
34.43598500610046
  0
ARC
  5
6670
330
1A
100
AcDbEntity
  8
SEIHIN
100
AcDbCircle
 10
1630.250213819076
 20
-606.179841322857
 30
0.0
 40
2.500000000000003
100
AcDbArc
 50
304.4359850060897
 51
12.63457551969735
  0
ARC
  5
6671
330
1A
100
AcDbEntity
  8
SEIHIN
100
AcDbCircle
 10
1635.339693565767
 20
-612.3780742859637
 30
0.0
 40
5.0
100
AcDbArc
 50
214.4359918238371
 51
293.4346828302379
  0
ARC
  5
6672
330
1A
100
AcDbEntity
  8
SEIHIN
100
AcDbCircle
 10
1630.863371054276
 20
-662.7125550154568
 30
0.0
 40
1.999980049993349
100
AcDbArc
 50
270.000795507894
 51
341.3919051904959
  0
LINE
  5
6673
330
1A
100
AcDbEntity
  8
SEIHIN
100
AcDbLine
 10
1631.049698725276
 20
-669.5550351325567
 30
0.0
 11
1643.598698822476
 21
-667.3012350652567
 31
0.0
  0
LINE
  5
6674
330
1A
100
AcDbEntity
  8
SEIHIN
100
AcDbLine
 10
1624.311098822476
 20
-649.7125350652567
 30
0.0
 11
1635.913798822476
 21
-649.7125350652567
 31
0.0
  0
ARC
  5
6675
330
1A
100
AcDbEntity
  8
SEIHIN
100
AcDbCircle
 10
1655.423709699177
 20
-658.712527073957
 30
0.0
 40
35.00000318771505
100
AcDbArc
 50
92.08227718159873
 51
160.5287372084995
  0
ARC
  5
6676
330
1A
100
AcDbEntity
  8
SEIHIN
100
AcDbCircle
 10
1655.423709699177
 20
-658.712527073957
 30
0.0
 40
39.9999954437451
100
AcDbArc
 50
90.0
 51
161.4632347060981
  0
LINE
  5
6677
330
1A
100
AcDbEntity
  8
SEIHIN
100
AcDbLine
 10
1632.883598822476
 20
-654.7125350652568
 30
0.0
 11
1571.058098822476
 21
-654.7124350652569
 31
0.0
  0
DIMENSION
  5
6678
330
1A
100
AcDbEntity
  8
SUNPOU
100
AcDbDimension
  2
*D1
 10
1603.213699744177
 20
-661.012535065357
 30
0.0
 11
1593.355627504712
 21
-642.1706886871698
 31
0.0
 70
   160
  3
STANDARD
100
AcDbAlignedDimension
 13
1651.842684428076
 23
-644.012535065357
 33
0.0
 14
1645.871158297224
 24
-661.012535065357
 34
0.0
 50
90.0
100
AcDbRotatedDimension
1001
ACAD
1000
DSTYLE
1002
{
1070
   287
1070
     5
1070
    41
1040
7.0
1070
    42
1040
6.0
1070
    43
1040
14.0
1070
    44
1040
3.0
1070
    73
1070
     0
1070
    74
1070
     0
1070
    77
1070
     3
1070
   140
1040
6.0
1070
   141
1040
150.0
1070
   147
1040
2.0
1070
   172
1070
     1
1070
   173
1070
     1
1070
   176
1070
   256
1070
   177
1070
   256
1070
   178
1070
   256
1070
   271
1070
     0
1070
   272
1070
     0
1070
   279
1070
     2
1070
   341
1005
6D
1070
     6
1000
OPEN
1070
     7
1000
OPEN
1070
   371
1070
    -1
1070
   372
1070
    -1
1002
}
  0
DIMENSION
  5
6679
330
1A
100
AcDbEntity
  8
SUNPOU
100
AcDbDimension
  2
*D2
 10
1668.651335038176
 20
-564.0191794539639
 30
0.0
 11
1595.667865296553
 21
-558.8345805751607
 31
0.0
 70
   160
  3
STANDARD
100
AcDbAlignedDimension
 13
1524.046151621329
 23
-620.3375351758569
 33
0.0
 14
1668.651335038176
 24
-617.8100802054067
 34
0.0
100
AcDbRotatedDimension
1001
ACAD
1000
DSTYLE
1002
{
1070
   287
1070
     5
1070
    41
1040
7.0
1070
    42
1040
6.0
1070
    43
1040
14.0
1070
    44
1040
3.0
1070
    73
1070
     0
1070
    74
1070
     0
1070
    77
1070
     3
1070
   140
1040
6.0
1070
   141
1040
150.0
1070
   147
1040
2.0
1070
   172
1070
     1
1070
   173
1070
     1
1070
   176
1070
   256
1070
   177
1070
   256
1070
   178
1070
   256
1070
   271
1070
     0
1070
   272
1070
     0
1070
   279
1070
     2
1070
   341
1005
6D
1070
     6
1000
OPEN
1070
     7
1000
OPEN
1070
   371
1070
    -1
1070
   372
1070
    -1
1002
}
  0
DIMENSION
  5
6681
330
1A
100
AcDbEntity
  8
SUNPOU
100
AcDbDimension
  2
*D3
 10
1501.798552153274
 20
-627.7125350652568
 30
0.0
 11
1496.798552153274
 21
-621.2125350652566
 31
0.0
 70
    32
  3
STANDARD
100
AcDbAlignedDimension
 13
1529.711186618037
 23
-614.712535065257
 33
0.0
 14
1531.96771841738
 24
-627.7125350652568
 34
0.0
 50
90.0
100
AcDbRotatedDimension
1001
ACAD
1000
DSTYLE
1002
{
1070
   287
1070
     5
1070
    41
1040
7.0
1070
    42
1040
6.0
1070
    43
1040
14.0
1070
    44
1040
3.0
1070
    73
1070
     0
1070
    74
1070
     0
1070
    77
1070
     3
1070
   140
1040
6.0
1070
   141
1040
150.0
1070
   147
1040
2.0
1070
   172
1070
     1
1070
   173
1070
     1
1070
   176
1070
   256
1070
   177
1070
   256
1070
   178
1070
   256
1070
   271
1070
     0
1070
   272
1070
     0
1070
   279
1070
     2
1070
   341
1005
6D
1070
     6
1000
OPEN
1070
     7
1000
OPEN
1070
   371
1070
    -1
1070
   372
1070
    -1
1002
}
  0
DIMENSION
  5
6682
330
1A
100
AcDbEntity
  8
SUNPOU
100
AcDbDimension
  2
*D4
 10
1524.046151621329
 20
-589.6565872644376
 30
0.0
 11
1528.063033734652
 21
-584.184426371386
 31
0.0
 70
   160
  3
STANDARD
100
AcDbAlignedDimension
 13
1531.563987498088
 23
-615.3777102776224
 33
0.0
 14
1524.046151621329
 24
-620.9625351758568
 34
0.0
100
AcDbRotatedDimension
1001
ACAD
1000
DSTYLE
1002
{
1070
   287
1070
     5
1070
    41
1040
7.0
1070
    42
1040
6.0
1070
    43
1040
14.0
1070
    44
1040
3.0
1070
    73
1070
     0
1070
    74
1070
     0
1070
    77
1070
     3
1070
   140
1040
6.0
1070
   141
1040
150.0
1070
   147
1040
2.0
1070
   172
1070
     1
1070
   173
1070
     1
1070
   176
1070
   256
1070
   177
1070
   256
1070
   178
1070
   256
1070
   271
1070
     0
1070
   272
1070
     0
1070
   279
1070
     2
1070
   341
1005
6D
1070
     6
1000
OPEN
1070
     7
1000
OPEN
1070
   371
1070
    -1
1070
   372
1070
    -1
1002
}
  0
LINE
  5
6683
330
1A
100
AcDbEntity
  8
SEIHIN
100
AcDbLine
 10
1627.867257245676
 20
-625.9216644977568
 30
0.0
 11
1622.673506545576
 21
-609.2740085704569
 31
0.0
  0
LINE
  5
6684
330
1A
100
AcDbEntity
  8
SEIHIN
100
AcDbLine
 10
1549.184710310576
 20
-618.712535065257
 30
0.0
 11
1549.184710310576
 21
-614.6121877309569
 31
0.0
  0
LINE
  5
6685
330
1A
100
AcDbEntity
  8
SEIHIN
100
AcDbLine
 10
1553.884710310576
 20
-612.6345113023569
 30
0.0
 11
1553.884710310576
 21
-627.203995952057
 31
0.0
  0
LINE
  5
6686
330
1A
100
AcDbEntity
  8
SEIHIN
100
AcDbLine
 10
1530.278044119776
 20
-619.051834215857
 30
0.0
 11
1531.563987498076
 21
-615.377710277657
 31
0.0
  0
ARC
  5
6687
330
1A
100
AcDbEntity
  8
SEIHIN
100
AcDbCircle
 10
1530.795505520476
 20
-620.9625351758568
 30
0.0
 40
6.749353899147132
100
AcDbArc
 50
119.8667508690093
 51
240.1332491309907
  0
DIMENSION
  5
6689
330
1A
100
AcDbEntity
  8
SUNPOU
100
AcDbDimension
  2
*D6
 10
1553.884710310576
 20
-577.4106149009326
 30
0.0
 11
1538.965430965953
 21
-572.4106149009326
 31
0.0
 70
    32
  3
STANDARD
100
AcDbAlignedDimension
 13
1524.046151621329
 23
-620.9625351758568
 33
0.0
 14
1553.884710310576
 24
-612.6345113023569
 34
0.0
100
AcDbRotatedDimension
1001
ACAD
1000
DSTYLE
1002
{
1070
   287
1070
     5
1070
    41
1040
7.0
1070
    42
1040
6.0
1070
    43
1040
14.0
1070
    44
1040
3.0
1070
    73
1070
     0
1070
    74
1070
     0
1070
    77
1070
     3
1070
   140
1040
6.0
1070
   141
1040
150.0
1070
   147
1040
2.0
1070
   172
1070
     1
1070
   173
1070
     1
1070
   176
1070
   256
1070
   177
1070
   256
1070
   178
1070
   256
1070
   271
1070
     0
1070
   272
1070
     0
1070
   279
1070
     2
1070
   341
1005
6D
1070
     6
1000
OPEN
1070
     7
1000
OPEN
1070
   371
1070
    -1
1070
   372
1070
    -1
1002
}
  0
ARC
  5
669B
330
1A
100
AcDbEntity
  8
SEIHIN
100
AcDbCircle
 10
1571.058097600576
 20
-644.7124344027567
 30
0.0
 40
5.000000662499608
100
AcDbArc
 50
213.0684139636935
 51
270.000014002091
  0
LINE
  5
669C
330
1A
100
AcDbEntity
  8
SEIHIN
100
AcDbLine
 10
1563.527098822476
 20
-664.7124350652569
 30
0.0
 11
1630.863398822476
 21
-664.7125350652568
 31
0.0
  0
ARC
  5
669D
330
1A
100
AcDbEntity
  8
SEIHIN
100
AcDbCircle
 10
1571.058123341376
 20
-644.712448358757
 30
0.0
 40
9.99998670651226
100
AcDbArc
 50
213.0690522591025
 51
269.999859516794
  0
LINE
  5
669E
330
1A
100
AcDbEntity
  8
SEIHIN
100
AcDbLine
 10
1563.527098725276
 20
-669.7124351325567
 30
0.0
 11
1629.281998725276
 21
-669.7125351325568
 31
0.0
  0
LINE
  5
669F
330
1A
100
AcDbEntity
  8
SEIHIN
100
AcDbLine
 10
1546.913698822476
 20
-629.598035065257
 30
0.0
 11
1561.693698822477
 21
-663.5114350652568
 31
0.0
  0
LINE
  5
66A0
330
1A
100
AcDbEntity
  8
SEIHIN
100
AcDbLine
 10
1541.161072277776
 20
-628.9134896029568
 30
0.0
 11
1557.109998725276
 21
-665.5090351325569
 31
0.0
  0
ARC
  5
66A2
330
1A
100
AcDbEntity
  8
SEIHIN
100
AcDbCircle
 10
1563.527090875576
 20
-662.7124299907567
 30
0.0
 40
7.000005141786291
100
AcDbArc
 50
203.5478452136988
 51
270.000064250297
  0
ARC
  5
66A3
330
1A
100
AcDbEntity
  8
SEIHIN
100
AcDbCircle
 10
1563.527145278776
 20
-662.7124654957567
 30
0.0
 40
1.9999695700766
100
AcDbArc
 50
203.5463537261971
 51
269.9986691043
  0
DIMENSION
  5
66A4
330
1A
100
AcDbEntity
  8
SUNPOU
100
AcDbDimension
  2
*D9
 10
1501.798552153274
 20
-645.7125350652567
 30
0.0
 11
1496.798552153274
 21
-636.7125350652566
 31
0.0
 70
    32
  3
STANDARD
100
AcDbAlignedDimension
 13
1535.062212792076
 23
-627.7125350652568
 33
0.0
 14
1541.127018320476
 24
-645.7125350652567
 34
0.0
 50
90.0
100
AcDbRotatedDimension
1001
ACAD
1000
DSTYLE
1002
{
1070
   287
1070
     5
1070
    41
1040
7.0
1070
    42
1040
6.0
1070
    43
1040
14.0
1070
    44
1040
3.0
1070
    73
1070
     0
1070
    74
1070
     0
1070
    77
1070
     3
1070
   140
1040
6.0
1070
   141
1040
150.0
1070
   147
1040
2.0
1070
   172
1070
     1
1070
   173
1070
     1
1070
   176
1070
   256
1070
   177
1070
   256
1070
   178
1070
   256
1070
   271
1070
     0
1070
   272
1070
     0
1070
   279
1070
     2
1070
   341
1005
6D
1070
     6
1000
OPEN
1070
     7
1000
OPEN
1070
   371
1070
    -1
1070
   372
1070
    -1
1002
}
  0
LINE
  5
66A5
330
1A
100
AcDbEntity
  8
SEIHIN
100
AcDbLine
 10
1533.998892930076
 20
-639.122116243757
 30
0.0
 11
1540.058484613576
 21
-631.9923559730568
 31
0.0
  0
LINE
  5
66A6
330
1A
100
AcDbEntity
  8
SEIHIN
100
AcDbLine
 10
1530.796799882876
 20
-627.7125350652568
 30
0.0
 11
1539.327625701276
 21
-627.7125350652568
 31
0.0
  0
LINE
  5
66A7
330
1A
100
AcDbEntity
  8
SEIHIN
100
AcDbLine
 10
1546.184710310576
 20
-621.7125350652568
 30
0.0
 11
1532.165760832477
 21
-621.7125350652568
 31
0.0
  0
ARC
  5
66A8
330
1A
100
AcDbEntity
  8
SEIHIN
100
AcDbCircle
 10
1537.046798822476
 20
-641.712535065257
 30
0.0
 40
3.999999999981643
100
AcDbArc
 50
139.6387505752935
 51
270.0
  0
ARC
  5
66A9
330
1A
100
AcDbEntity
  8
SEIHIN
100
AcDbCircle
 10
1530.796292140076
 20
-620.9638364356569
 30
0.0
 40
6.748617320573747
100
AcDbArc
 50
240.1219561298969
 51
256.3684117245011
  0
ARC
  5
66AA
330
1A
100
AcDbEntity
  8
SEIHIN
100
AcDbCircle
 10
1530.796798822476
 20
-620.962535065257
 30
0.0
 40
6.749999999999884
100
AcDbArc
 50
256.3668867542107
 51
270.0000090009962
  0
ARC
  5
66AB
330
1A
100
AcDbEntity
  8
SEIHIN
100
AcDbCircle
 10
1532.165760832477
 20
-619.712535065257
 30
0.0
 40
2.0
100
AcDbArc
 50
160.7099537812957
 51
270.0
  0
LINE
  5
66AC
330
1A
100
AcDbEntity
  8
SEIHIN
100
AcDbLine
 10
1562.677998822476
 20
-650.1689350652569
 30
0.0
 11
1548.668398822476
 21
-628.6529350652571
 31
0.0
  0
LINE
  5
66AD
330
1A
100
AcDbEntity
  8
SEIHIN
100
AcDbLine
 10
1566.867998822476
 20
-647.4406350652568
 30
0.0
 11
1551.594971650576
 21
-623.984279449557
 31
0.0
  0
LINE
  5
66AE
330
1A
100
AcDbEntity
  8
SEIHIN
100
AcDbLine
 10
1545.207237818476
 20
-645.7125350652567
 30
0.0
 11
1537.046798822476
 21
-645.7125350652567
 31
0.0
  0
ARC
  5
66AF
330
1A
100
AcDbEntity
  8
SEIHIN
100
AcDbCircle
 10
1545.207237818476
 20
-650.7125350652568
 30
0.0
 40
5.000000000000018
100
AcDbArc
 50
23.54834548959595
 51
90.0
  0
ARC
  5
66B0
330
1A
100
AcDbEntity
  8
SEIHIN
100
AcDbCircle
 10
1547.152404705868
 20
-626.9861898234609
 30
0.0
 40
5.361703735885653
100
AcDbArc
 50
34.04749530395319
 51
100.397872932971
  0
ARC
  5
66B1
330
1A
100
AcDbEntity
  8
SEIHIN
100
AcDbCircle
 10
1547.830395337076
 20
-629.1985369425568
 30
0.0
 40
0.9999656244022299
100
AcDbArc
 50
33.06708574760303
 51
203.5476658002984
  0
ARC
  5
66B2
330
1A
100
AcDbEntity
  8
SEIHIN
100
AcDbCircle
 10
1537.010578721076
 20
-629.401937151557
 30
0.0
 40
4.000000000000023
100
AcDbArc
 50
319.6387505756906
 51
13.32063522999605
  0
ARC
  5
66B3
330
1A
100
AcDbEntity
  8
SEIHIN
100
AcDbCircle
 10
1539.327625701276
 20
-629.7125350652568
 30
0.0
 40
2.0
100
AcDbArc
 50
23.54834548959595
 51
90.0
  0
ARC
  5
66B4
330
1A
100
AcDbEntity
  8
SEIHIN
100
AcDbCircle
 10
1546.184710310576
 20
-618.712535065257
 30
0.0
 40
3.0
100
AcDbArc
 50
270.0
 51
0.0
  0
ARC
  5
66B5
330
1A
100
AcDbEntity
  8
SEIHIN
100
AcDbCircle
 10
1554.884710310576
 20
-627.203995952057
 30
0.0
 40
0.9999999999999925
100
AcDbArc
 50
180.0
 51
213.0691703453956
  0
ARC
  5
66B6
330
1A
100
AcDbEntity
  8
SEIHIN
100
AcDbCircle
 10
1629.281878714276
 20
-659.7125547303568
 30
0.0
 40
9.999980402881703
100
AcDbArc
 50
270.0006876133958
 51
280.1823964346898
  0
LINE
  5
66B7
330
1A
100
AcDbEntity
  8
SEIHIN
100
AcDbLine
 10
1612.655298822476
 20
-649.7124350652572
 30
0.0
 11
1571.058098822476
 21
-649.7124350652572
 31
0.0
  0
ARC
  5
66B8
330
1A
100
AcDbEntity
  8
SEIHIN
100
AcDbCircle
 10
1612.655295356776
 20
-644.712437555157
 30
0.0
 40
4.999997510534599
100
AcDbArc
 50
270.0000397143098
 51
341.3915150656939
  0
ARC
  5
66B9
330
1A
100
AcDbEntity
  8
SEIHIN
100
AcDbCircle
 10
1624.311067588577
 20
-647.712490893757
 30
0.0
 40
2.000044171769045
100
AcDbArc
 50
160.5295560687003
 51
270.000894766011
  0
LINE
  5
66BA
330
1A
100
AcDbEntity
  8
SEIHIN
100
AcDbLine
 10
1617.498919883676
 20
-645.9960042413569
 30
0.0
 11
1617.393898821976
 21
-646.307935065157
 31
0.0
  0
ARC
  5
66BB
330
1A
100
AcDbEntity
  8
SEIHIN
100
AcDbCircle
 10
1623.094152490677
 20
-627.4107820210568
 30
0.0
 40
5.000000000000016
100
AcDbArc
 50
315.9253963978056
 51
17.32692456669954
  0
LINE
  5
66D8
330
1A
100
AcDbEntity
  8
SEIHIN
100
AcDbLine
 10
1622.537369398576
 20
-458.8331145882947
 30
0.0
 11
1622.537369398576
 21
-460.8331145882943
 31
0.0
  0
LINE
  5
66D9
330
1A
100
AcDbEntity
  8
SEIHIN
100
AcDbLine
 10
1626.256863748776
 20
-458.8331145882947
 30
0.0
 11
1626.256863739276
 21
-460.8331145882943
 31
0.0
  0
LINE
  5
66DA
330
1A
100
AcDbEntity
  8
SEIHIN
100
AcDbLine
 10
1543.118862521876
 20
-458.8331145882947
 30
0.0
 11
1543.118862521876
 21
-460.8331145882943
 31
0.0
  0
LINE
  5
66DB
330
1A
100
AcDbEntity
  8
SEIHIN
100
AcDbLine
 10
1550.191904702176
 20
-460.8331145882943
 30
0.0
 11
1550.191904683176
 21
-458.8331145882947
 31
0.0
  0
LINE
  5
66DD
330
1A
100
AcDbEntity
  8
SEIHIN
100
AcDbLine
 10
1553.884710310576
 20
-458.8331145882947
 30
0.0
 11
1553.884710310576
 21
-460.8331145882943
 31
0.0
  0
LINE
  5
66DE
330
1A
100
AcDbEntity
  8
SEIHIN
100
AcDbLine
 10
1524.046801301977
 20
-458.2498645816944
 30
0.0
 11
1524.046801301977
 21
-461.4163645949942
 31
0.0
  0
LINE
  5
66DF
330
1A
100
AcDbEntity
  8
SEIHIN
100
AcDbLine
 10
1532.165760832477
 20
-474.8331145882944
 30
0.0
 11
1532.165760832477
 21
-444.8331145882945
 31
0.0
  0
LINE
  5
66E0
330
1A
100
AcDbEntity
  8
SEIHIN
100
AcDbLine
 10
1566.867998822476
 20
-472.1789235279438
 30
0.0
 11
1566.867998822476
 21
-447.4205946736026
 31
0.0
  0
LINE
  5
66E1
330
1A
100
AcDbEntity
  8
SEIHIN
100
AcDbLine
 10
1617.498919883676
 20
-470.9333095818731
 30
0.0
 11
1617.498921512076
 21
-448.5116446464931
 31
0.0
  0
DIMENSION
  5
66E2
330
1A
100
AcDbEntity
  8
SUNPOU
100
AcDbDimension
  2
*D10
 10
1506.05057943042
 20
-474.8331145882944
 30
0.0
 11
1501.05057943042
 21
-459.8331145882942
 31
0.0
 70
    32
  3
STANDARD
100
AcDbAlignedDimension
 13
1531.592058319876
 23
-444.8331145882945
 33
0.0
 14
1532.165760832477
 24
-474.8331145882944
 34
0.0
 50
90.0
100
AcDbRotatedDimension
1001
ACAD
1000
DSTYLE
1002
{
1070
    41
1040
7.0
1070
    42
1040
6.0
1070
    43
1040
14.0
1070
    44
1040
3.0
1070
    73
1070
     0
1070
    74
1070
     0
1070
    77
1070
     3
1070
   140
1040
6.0
1070
   141
1040
150.0
1070
   147
1040
2.0
1070
   172
1070
     1
1070
   173
1070
     1
1070
   176
1070
   256
1070
   177
1070
   256
1070
   178
1070
   256
1070
   271
1070
     0
1070
   272
1070
     0
1070
   341
1005
6D
1070
     6
1000
OPEN
1070
     7
1000
OPEN
1070
   371
1070
    -1
1070
   372
1070
    -1
1002
}
  0
DIMENSION
  5
66E3
330
1A
100
AcDbEntity
  8
SUNPOU
100
AcDbDimension
  2
*D11
 10
1562.993870220646
 20
-461.8331145882941
 30
0.0
 11
1558.009186677882
 21
-466.1664172798388
 31
0.0
 70
   160
  3
STANDARD
100
AcDbAlignedDimension
 13
1548.321071311153
 23
-457.8331145882942
 33
0.0
 14
1548.321071311153
 24
-461.8331145882941
 34
0.0
 50
90.0
100
AcDbRotatedDimension
1001
ACAD
1000
DSTYLE
1002
{
1070
   287
1070
     5
1070
    41
1040
7.0
1070
    42
1040
6.0
1070
    43
1040
14.0
1070
    44
1040
3.0
1070
    73
1070
     0
1070
    74
1070
     0
1070
    77
1070
     3
1070
   140
1040
6.0
1070
   141
1040
150.0
1070
   147
1040
2.0
1070
   172
1070
     1
1070
   173
1070
     1
1070
   176
1070
   256
1070
   177
1070
   256
1070
   178
1070
   256
1070
   271
1070
     0
1070
   272
1070
     0
1070
   279
1070
     2
1070
   341
1005
6D
1070
     6
1000
OPEN
1070
     7
1000
OPEN
1070
   371
1070
    -1
1070
   372
1070
    -1
1002
}
  0
LINE
  5
66E5
330
1A
100
AcDbEntity
  8
SEIHIN
100
AcDbLine
 10
1571.058098822476
 20
-474.8331145882944
 30
0.0
 11
1566.867998822476
 21
-474.8331145882944
 31
0.0
  0
LWPOLYLINE
  5
66E7
330
1A
100
AcDbEntity
  8
SEIHIN
100
AcDbPolyline
 90
        3
 70
   128
 43
0.0
 10
1527.782283994776
 20
-614.9230614237571
 10
1528.232194754676
 20
-614.7622791750568
 10
1528.675474497876
 20
-614.7125350244569
  0
LINE
  5
66E8
330
1A
100
AcDbEntity
  8
SEIHIN
100
AcDbLine
 10
1527.434431287776
 20
-615.109590783557
 30
0.0
 11
1527.782283994776
 21
-614.9230614237571
 31
0.0
  0
ARC
  5
66E9
330
1A
100
AcDbEntity
  8
SEIHIN
100
AcDbCircle
 10
1531.092058319876
 20
-615.212535065257
 30
0.0
 40
0.5
100
AcDbArc
 50
340.7099537812957
 51
90.0
  0
LINE
  5
66EA
330
1A
100
AcDbEntity
  8
SEIHIN
100
AcDbLine
 10
1528.675478478876
 20
-614.712535065257
 30
0.0
 11
1529.205798143876
 21
-614.712535065257
 31
0.0
  0
LINE
  5
66EB
330
1A
100
AcDbEntity
  8
SEIHIN
100
AcDbLine
 10
1531.092058319876
 20
-614.712535065257
 30
0.0
 11
1529.205798143876
 21
-614.712535065257
 31
0.0
  0
LINE
  5
66EC
330
1A
100
AcDbEntity
  8
SEIHIN
100
AcDbLine
 10
1549.602852791276
 20
-607.1850559449567
 30
0.0
 11
1552.982166555876
 21
-610.489592353057
 31
0.0
  0
LINE
  5
66ED
330
1A
100
AcDbEntity
  8
SEIHIN
100
AcDbLine
 10
1543.310126736976
 20
-607.715011871957
 30
0.0
 11
1544.541953713676
 21
-604.7495549051571
 31
0.0
  0
ARC
  5
66EE
330
1A
100
AcDbEntity
  8
SEIHIN
100
AcDbCircle
 10
1549.952428832176
 20
-606.8275694534568
 30
0.0
 40
0.5000000000000189
100
AcDbArc
 50
135.6409850727
 51
225.6409850727094
  0
LINE
  5
66EF
330
1A
100
AcDbEntity
  8
SEIHIN
100
AcDbLine
 10
1544.448264088976
 20
-611.0259823058568
 30
0.0
 11
1543.870982317476
 21
-610.4614746085567
 31
0.0
  0
ARC
  5
66F0
330
1A
100
AcDbEntity
  8
SEIHIN
100
AcDbCircle
 10
1545.618862521876
 20
-608.674042150857
 30
0.0
 40
2.500000000000002
100
AcDbArc
 50
157.4423945590984
 51
225.6409850727094
  0
LINE
  5
66F1
330
1A
100
AcDbEntity
  8
SEIHIN
100
AcDbLine
 10
1548.282166555877
 20
-612.4672687816569
 30
0.0
 11
1546.316838006976
 21
-610.5454289655569
 31
0.0
  0
ARC
  5
66F2
330
1A
100
AcDbEntity
  8
SEIHIN
100
AcDbCircle
 10
1546.184710310576
 20
-614.6121877309569
 30
0.0
 40
3.0
100
AcDbArc
 50
0.0
 51
45.6409850727094
  0
ARC
  5
66F3
330
1A
100
AcDbEntity
  8
SEIHIN
100
AcDbCircle
 10
1544.797840129876
 20
-610.668495814357
 30
0.0
 40
0.5000000000000086
100
AcDbArc
 50
225.6409850727094
 51
315.6409850727001
  0
ARC
  5
66F4
330
1A
100
AcDbEntity
  8
SEIHIN
100
AcDbCircle
 10
1545.967261966076
 20
-610.9029154570569
 30
0.0
 40
0.4999999999999881
100
AcDbArc
 50
45.6409850727094
 51
135.6409850727
  0
LINE
  5
66F5
330
1A
100
AcDbEntity
  8
SEIHIN
100
AcDbLine
 10
1545.609775474576
 20
-610.5533394161569
 30
0.0
 11
1545.155326621376
 21
-611.018071855257
 31
0.0
  0
ARC
  5
66F6
330
1A
100
AcDbEntity
  8
SEIHIN
100
AcDbCircle
 10
1546.863654568476
 20
-605.6953267313567
 30
0.0
 40
2.49999999999999
100
AcDbArc
 50
45.6409850727094
 51
135.6409850727
  0
ARC
  5
66F7
330
1A
100
AcDbEntity
  8
SEIHIN
100
AcDbCircle
 10
1546.850689498476
 20
-605.7085851839567
 30
0.0
 40
2.500000000000002
100
AcDbArc
 50
135.6409850727
 51
157.4423945590984
  0
LINE
  5
66F8
330
1A
100
AcDbEntity
  8
SEIHIN
100
AcDbLine
 10
1545.063257040776
 20
-603.9607049795569
 30
0.0
 11
1545.076222110676
 21
-603.9474465269567
 31
0.0
  0
LINE
  5
66F9
330
1A
100
AcDbEntity
  8
SEIHIN
100
AcDbLine
 10
1548.611534772876
 20
-603.907894273657
 30
0.0
 11
1550.041480743076
 21
-605.3061984410567
 31
0.0
  0
ARC
  5
66FA
330
1A
100
AcDbEntity
  8
SEIHIN
100
AcDbCircle
 10
1549.691904702176
 20
-605.6636849326571
 30
0.0
 40
0.4999999999999984
100
AcDbArc
 50
315.6409850727001
 51
45.6409850727094
  0
LINE
  5
66FB
330
1A
100
AcDbEntity
  8
SEIHIN
100
AcDbLine
 10
1550.049391193776
 20
-606.0132609735569
 30
0.0
 11
1549.594942340576
 21
-606.477993412557
 31
0.0
  0
ARC
  5
66FC
330
1A
100
AcDbEntity
  8
SEIHIN
100
AcDbCircle
 10
1550.884710310576
 20
-612.6345113023569
 30
0.0
 40
3.0
100
AcDbArc
 50
0.0
 51
45.6409850727094
  0
LINE
  5
66FD
330
1A
100
AcDbEntity
  8
SEIHIN
100
AcDbLine
 10
1547.404909443976
 20
-474.8331145882944
 30
0.0
 11
1532.165760832477
 21
-474.8331145882944
 31
0.0
  0
ARC
  5
66FE
330
1A
100
AcDbEntity
  8
SEIHIN
100
AcDbCircle
 10
1554.004215864676
 20
-459.8333249774944
 30
0.0
 40
29.99921168482206
100
AcDbArc
 50
183.0248673644025
 51
207.664340686204
  0
LWPOLYLINE
  5
66FF
330
1A
100
AcDbEntity
  8
SEIHIN
100
AcDbPolyline
 90
        3
 70
   128
 43
0.0
 10
1527.782283994776
 20
-474.2379730507946
 10
1528.232194754676
 20
-474.5801391020943
 10
1528.675474497876
 20
-474.7615234866942
  0
LINE
  5
6700
330
1A
100
AcDbEntity
  8
SEIHIN
100
AcDbLine
 10
1527.434431287776
 20
-473.7616863042944
 30
0.0
 11
1527.782283994776
 21
-474.2379730507946
 31
0.0
  0
LINE
  5
6701
330
1A
100
AcDbEntity
  8
SEIHIN
100
AcDbLine
 10
1532.165760832477
 20
-474.8331145882944
 30
0.0
 11
1531.592058319876
 21
-474.8331145882944
 31
0.0
  0
LINE
  5
6702
330
1A
100
AcDbEntity
  8
SEIHIN
100
AcDbLine
 10
1531.592058319876
 20
-474.8331145882944
 30
0.0
 11
1531.092058319876
 21
-474.8331145882944
 31
0.0
  0
ARC
  5
6703
330
1A
100
AcDbEntity
  8
SEIHIN
100
AcDbCircle
 10
1529.205798143876
 20
-472.8331145882943
 30
0.0
 40
2.000000000000014
100
AcDbArc
 50
254.6235497172095
 51
270.0
  0
LINE
  5
6704
330
1A
100
AcDbEntity
  8
SEIHIN
100
AcDbLine
 10
1531.092058319876
 20
-474.8331145882944
 30
0.0
 11
1529.205798143876
 21
-474.8331145882944
 31
0.0
  0
LINE
  5
6705
330
1A
100
AcDbEntity
  8
SEIHIN
100
AcDbLine
 10
1552.283014474177
 20
-461.8331145882941
 30
0.0
 11
1548.903700709476
 21
-461.8331145882941
 31
0.0
  0
LINE
  5
6707
330
1A
100
AcDbEntity
  8
SEIHIN
100
AcDbLine
 10
1566.867998822476
 20
-474.8331145882944
 30
0.0
 11
1551.594971650576
 21
-474.8331145882944
 31
0.0
  0
LINE
  5
6708
330
1A
100
AcDbEntity
  8
SEIHIN
100
AcDbLine
 10
1547.404909443976
 20
-471.76490401625
 30
0.0
 11
1547.404907915176
 21
-461.8331146832944
 31
0.0
  0
LINE
  5
6709
330
1A
100
AcDbEntity
  8
SEIHIN
100
AcDbLine
 10
1551.594971650576
 20
-474.8331145882944
 30
0.0
 11
1547.404909443976
 21
-474.8331145882944
 31
0.0
  0
ARC
  5
670A
330
1A
100
AcDbEntity
  8
SEIHIN
100
AcDbCircle
 10
1544.118862521876
 20
-460.8331145882943
 30
0.0
 40
1.0
100
AcDbArc
 50
180.0
 51
270.0
  0
LINE
  5
670B
330
1A
100
AcDbEntity
  8
SEIHIN
100
AcDbLine
 10
1547.912382691077
 20
-461.8331145882941
 30
0.0
 11
1545.791195093776
 21
-461.8331145882941
 31
0.0
  0
LINE
  5
670C
330
1A
100
AcDbEntity
  8
SEIHIN
100
AcDbLine
 10
1544.233621050976
 20
-461.8331145882941
 30
0.0
 11
1544.118862521876
 21
-461.8331145882941
 31
0.0
  0
LINE
  5
670D
330
1A
100
AcDbEntity
  8
SEIHIN
100
AcDbLine
 10
1545.465448027576
 20
-461.8331145882941
 30
0.0
 11
1544.233621050976
 21
-461.8331145882941
 31
0.0
  0
LINE
  5
670E
330
1A
100
AcDbEntity
  8
SEIHIN
100
AcDbLine
 10
1545.778230023876
 20
-461.8331145882941
 30
0.0
 11
1545.465448027576
 21
-461.8331145882941
 31
0.0
  0
LINE
  5
670F
330
1A
100
AcDbEntity
  8
SEIHIN
100
AcDbLine
 10
1545.791195093776
 20
-461.8331145882941
 30
0.0
 11
1545.778230023876
 21
-461.8331145882941
 31
0.0
  0
LINE
  5
6711
330
1A
100
AcDbEntity
  8
SEIHIN
100
AcDbLine
 10
1548.903700709476
 20
-461.8331145882941
 30
0.0
 11
1548.452428832177
 21
-461.8331145882941
 31
0.0
  0
LINE
  5
6712
330
1A
100
AcDbEntity
  8
SEIHIN
100
AcDbLine
 10
1548.984840783676
 20
-461.8331146832944
 30
0.0
 11
1547.912382691077
 21
-461.8331145882941
 31
0.0
  0
ARC
  5
6713
330
1A
100
AcDbEntity
  8
SEIHIN
100
AcDbCircle
 10
1549.089394581076
 20
-460.7308192471943
 30
0.0
 40
1.10724284824333
100
AcDbArc
 50
264.5816497216978
 51
354.6990273429961
  0
LINE
  5
6715
330
1A
100
AcDbEntity
  8
SEIHIN
100
AcDbLine
 10
1552.884710310576
 20
-461.8331145882941
 30
0.0
 11
1552.283014474177
 21
-461.8331145882941
 31
0.0
  0
ARC
  5
6716
330
1A
100
AcDbEntity
  8
SEIHIN
100
AcDbCircle
 10
1552.884710310576
 20
-460.8331145882943
 30
0.0
 40
1.0
100
AcDbArc
 50
270.0
 51
0.0
  0
ARC
  5
6718
330
1A
100
AcDbEntity
  8
SEIHIN
100
AcDbCircle
 10
1625.537369398576
 20
-608.3805380564568
 30
0.0
 40
3.000000000000006
100
AcDbArc
 50
124.4359850060897
 51
197.3269245666995
  0
LINE
  5
6719
330
1A
100
AcDbEntity
  8
SEIHIN
100
AcDbLine
 10
1627.743782144477
 20
-610.141425100357
 30
0.0
 11
1631.215901381325
 21
-615.2055003273541
 31
0.0
  0
ARC
  5
671A
330
1A
100
AcDbEntity
  8
SEIHIN
100
AcDbCircle
 10
1628.568540581377
 20
-609.5759398920569
 30
0.0
 40
1.00000000000003
100
AcDbArc
 50
124.4359850060897
 51
214.4359918235969
  0
LINE
  5
671B
330
1A
100
AcDbEntity
  8
SEIHIN
100
AcDbLine
 10
1631.663926594376
 20
-608.2417375832569
 30
0.0
 11
1630.998002065276
 21
-608.6983202116568
 31
0.0
  0
LINE
  5
671C
330
1A
100
AcDbEntity
  8
SEIHIN
100
AcDbLine
 10
1630.302880258176
 20
-608.5686835146569
 30
0.0
 11
1629.935314936576
 21
-608.0325904869567
 31
0.0
  0
ARC
  5
671D
330
1A
100
AcDbEntity
  8
SEIHIN
100
AcDbCircle
 10
1630.715259510276
 20
-608.2859409596567
 30
0.0
 40
0.5000000000000016
100
AcDbArc
 50
214.4359850061005
 51
304.4359850060897
  0
ARC
  5
671E
330
1A
100
AcDbEntity
  8
SEIHIN
100
AcDbCircle
 10
1629.522935684476
 20
-608.315333042057
 30
0.0
 40
0.5000000000000016
100
AcDbArc
 50
34.43598500610046
 51
124.4359850060897
  0
LINE
  5
671F
330
1A
100
AcDbEntity
  8
SEIHIN
100
AcDbLine
 10
1629.240193129376
 20
-607.902953789957
 30
0.0
 11
1628.003055471276
 21
-608.7511813878569
 31
0.0
  0
LINE
  5
6720
330
1A
100
AcDbEntity
  8
SEIHIN
100
AcDbLine
 10
1623.840914068076
 20
-605.9062625439566
 30
0.0
 11
1626.582413111776
 21
-604.026588820357
 31
0.0
  0
ARC
  5
6721
330
1A
100
AcDbEntity
  8
SEIHIN
100
AcDbCircle
 10
1629.537350967876
 20
-603.0311782184569
 30
0.0
 40
2.499999999999996
100
AcDbArc
 50
34.43598500610046
 51
124.4359850060897
  0
LINE
  5
6722
330
1A
100
AcDbEntity
  8
SEIHIN
100
AcDbLine
 10
1626.474121184176
 20
-602.1002521782568
 30
0.0
 11
1628.123638192576
 21
-600.969281957957
 31
0.0
  0
ARC
  5
6723
330
1A
100
AcDbEntity
  8
SEIHIN
100
AcDbCircle
 10
1626.756863739276
 20
-602.5126314303571
 30
0.0
 40
0.5000000000000087
100
AcDbArc
 50
124.435985005992
 51
214.4359850060011
  0
ARC
  5
6724
330
1A
100
AcDbEntity
  8
SEIHIN
100
AcDbCircle
 10
1626.299670556676
 20
-603.6142095682569
 30
0.0
 40
0.5000000000000016
100
AcDbArc
 50
304.4359850060897
 51
34.43598500610046
  0
LINE
  5
6725
330
1A
100
AcDbEntity
  8
SEIHIN
100
AcDbLine
 10
1626.712049808776
 20
-603.3314670131566
 30
0.0
 11
1626.344484487176
 21
-602.7953739854567
 31
0.0
  0
LINE
  5
6726
330
1A
100
AcDbEntity
  8
SEIHIN
100
AcDbLine
 10
1631.599247228376
 20
-601.6174654430568
 30
0.0
 11
1631.609733579177
 21
-601.6327597574568
 31
0.0
  0
LINE
  5
6727
330
1A
100
AcDbEntity
  8
SEIHIN
100
AcDbLine
 10
1612.655298822476
 20
-474.8331145882944
 30
0.0
 11
1571.058098822476
 21
-474.8331145882944
 31
0.0
  0
LINE
  5
6728
330
1A
100
AcDbEntity
  8
SEIHIN
100
AcDbLine
 10
1617.393898821976
 20
-474.8331145882944
 30
0.0
 11
1612.655298822476
 21
-474.8331145882944
 31
0.0
  0
LINE
  5
6729
330
1A
100
AcDbEntity
  8
SEIHIN
100
AcDbLine
 10
1617.498919883676
 20
-474.8331145882944
 30
0.0
 11
1617.393898821976
 21
-474.8331145882944
 31
0.0
  0
LINE
  5
672A
330
1A
100
AcDbEntity
  8
SEIHIN
100
AcDbLine
 10
1624.406399178277
 20
-461.8331145882941
 30
0.0
 11
1623.537369398576
 21
-461.8331145882941
 31
0.0
  0
ARC
  5
672B
330
1A
100
AcDbEntity
  8
SEIHIN
100
AcDbCircle
 10
1623.537369398576
 20
-460.8331145882943
 30
0.0
 40
1.0
100
AcDbArc
 50
180.0
 51
270.0
  0
LINE
  5
672C
330
1A
100
AcDbEntity
  8
SEIHIN
100
AcDbLine
 10
1628.689123302677
 20
-461.8331145882941
 30
0.0
 11
1627.451986345876
 21
-461.8331146832944
 31
0.0
  0
LINE
  5
672E
330
1A
100
AcDbEntity
  8
SEIHIN
100
AcDbLine
 10
1627.799670556676
 20
-461.8331145882941
 30
0.0
 11
1627.147898221876
 21
-461.8331145882941
 31
0.0
  0
ARC
  5
672F
330
1A
100
AcDbEntity
  8
SEIHIN
100
AcDbCircle
 10
1627.163695648977
 20
-461.4393085586941
 30
0.0
 40
0.3941228468780998
100
AcDbArc
 50
226.6059106278986
 51
267.7028453516007
  0
LINE
  5
6730
330
1A
100
AcDbEntity
  8
SEIHIN
100
AcDbLine
 10
1626.919023707676
 20
-461.8331145882941
 30
0.0
 11
1626.568540581376
 21
-461.8331145882941
 31
0.0
  0
LINE
  5
6731
330
1A
100
AcDbEntity
  8
SEIHIN
100
AcDbLine
 10
1627.147898221876
 20
-461.8331145882941
 30
0.0
 11
1624.406399178277
 21
-461.8331145882941
 31
0.0
  0
ARC
  5
6732
330
1A
100
AcDbEntity
  8
SEIHIN
100
AcDbCircle
 10
1627.363012550677
 20
-460.7252914215943
 30
0.0
 40
1.111390442405042
100
AcDbArc
 50
185.5673931428024
 51
274.5918012726899
  0
LINE
  5
6733
330
1A
100
AcDbEntity
  8
SEIHIN
100
AcDbLine
 10
1631.713891235476
 20
-461.8331145882941
 30
0.0
 11
1631.011514735176
 21
-461.8331145882941
 31
0.0
  0
LINE
  5
6734
330
1A
100
AcDbEntity
  8
SEIHIN
100
AcDbLine
 10
1631.011514735176
 20
-461.8331145882941
 30
0.0
 11
1630.784975074976
 21
-461.8331145882941
 31
0.0
  0
LINE
  5
6735
330
1A
100
AcDbEntity
  8
SEIHIN
100
AcDbLine
 10
1630.784975074976
 20
-461.8331145882941
 30
0.0
 11
1630.774488724176
 21
-461.8331145882941
 31
0.0
  0
LINE
  5
6736
330
1A
100
AcDbEntity
  8
SEIHIN
100
AcDbLine
 10
1630.774488724176
 20
-461.8331145882941
 30
0.0
 11
1628.689123302677
 21
-461.8331145882941
 31
0.0
  0
LINE
  5
6737
330
1A
100
AcDbEntity
  8
SEIHIN
100
AcDbLine
 10
1631.750213819076
 20
-461.8331145882941
 30
0.0
 11
1631.713891235476
 21
-461.8331145882941
 31
0.0
  0
LINE
  5
6738
330
1A
100
AcDbEntity
  8
SEIHIN
100
AcDbLine
 10
1566.867998822476
 20
-444.8331145882945
 30
0.0
 11
1571.058098822476
 21
-444.8331145882945
 31
0.0
  0
LINE
  5
673A
330
1A
100
AcDbEntity
  8
SEIHIN
100
AcDbLine
 10
1532.165760832477
 20
-444.8331145882945
 30
0.0
 11
1547.404909443976
 21
-444.8331145882945
 31
0.0
  0
ARC
  5
673C
330
1A
100
AcDbEntity
  8
SEIHIN
100
AcDbCircle
 10
1554.001931747776
 20
-459.8322774237946
 30
0.0
 40
29.99689768000398
100
AcDbArc
 50
152.3346940272012
 51
176.9760979222012
  0
LWPOLYLINE
  5
673D
330
1A
100
AcDbEntity
  8
SEIHIN
100
AcDbPolyline
 90
        3
 70
   128
 43
0.0
 10
1528.675474497876
 20
-444.9047056898944
 10
1528.144695136177
 20
-445.1378110736944
 10
1527.782283994776
 20
-445.4282561257946
  0
LINE
  5
673E
330
1A
100
AcDbEntity
  8
SEIHIN
100
AcDbLine
 10
1527.782283994776
 20
-445.4282561257946
 30
0.0
 11
1527.434431287776
 21
-445.9045428723946
 31
0.0
  0
LINE
  5
673F
330
1A
100
AcDbEntity
  8
SEIHIN
100
AcDbLine
 10
1531.592058319876
 20
-444.8331145882945
 30
0.0
 11
1532.165760832477
 21
-444.8331145882945
 31
0.0
  0
LINE
  5
6740
330
1A
100
AcDbEntity
  8
SEIHIN
100
AcDbLine
 10
1531.092058319876
 20
-444.8331145882945
 30
0.0
 11
1531.592058319876
 21
-444.8331145882945
 31
0.0
  0
LINE
  5
6741
330
1A
100
AcDbEntity
  8
SEIHIN
100
AcDbLine
 10
1529.205798143876
 20
-444.8331145882945
 30
0.0
 11
1531.092058319876
 21
-444.8331145882945
 31
0.0
  0
ARC
  5
6742
330
1A
100
AcDbEntity
  8
SEIHIN
100
AcDbCircle
 10
1529.205798143876
 20
-446.8331145882944
 30
0.0
 40
1.999999999999985
100
AcDbArc
 50
90.0
 51
105.3764502827904
  0
LINE
  5
6743
330
1A
100
AcDbEntity
  8
SEIHIN
100
AcDbLine
 10
1548.903700709476
 20
-457.8331145882942
 30
0.0
 11
1552.283014474177
 21
-457.8331145882942
 31
0.0
  0
LINE
  5
6745
330
1A
100
AcDbEntity
  8
SEIHIN
100
AcDbLine
 10
1551.594971650576
 20
-444.8331145882945
 30
0.0
 11
1566.867998822476
 21
-444.8331145882945
 31
0.0
  0
LINE
  5
6746
330
1A
100
AcDbEntity
  8
SEIHIN
100
AcDbLine
 10
1547.404907915176
 20
-457.8331144932944
 30
0.0
 11
1547.404909443976
 21
-447.4205946736026
 31
0.0
  0
ARC
  5
6747
330
1A
100
AcDbEntity
  8
SEIHIN
100
AcDbCircle
 10
1544.118862521876
 20
-458.8331145882947
 30
0.0
 40
1.0
100
AcDbArc
 50
90.0
 51
180.0
  0
LINE
  5
6748
330
1A
100
AcDbEntity
  8
SEIHIN
100
AcDbLine
 10
1545.791195093776
 20
-457.8331145882942
 30
0.0
 11
1547.912382691077
 21
-457.8331145882942
 31
0.0
  0
LINE
  5
6749
330
1A
100
AcDbEntity
  8
SEIHIN
100
AcDbLine
 10
1544.118862521876
 20
-457.8331145882942
 30
0.0
 11
1544.233621050976
 21
-457.8331145882942
 31
0.0
  0
LINE
  5
674A
330
1A
100
AcDbEntity
  8
SEIHIN
100
AcDbLine
 10
1544.233621050976
 20
-457.8331145882942
 30
0.0
 11
1545.465448027576
 21
-457.8331145882942
 31
0.0
  0
LINE
  5
674B
330
1A
100
AcDbEntity
  8
SEIHIN
100
AcDbLine
 10
1545.465448027576
 20
-457.8331145882942
 30
0.0
 11
1545.778230023876
 21
-457.8331145882942
 31
0.0
  0
LINE
  5
674C
330
1A
100
AcDbEntity
  8
SEIHIN
100
AcDbLine
 10
1545.778230023876
 20
-457.8331145882942
 30
0.0
 11
1545.791195093776
 21
-457.8331145882942
 31
0.0
  0
LINE
  5
674F
330
1A
100
AcDbEntity
  8
SEIHIN
100
AcDbLine
 10
1548.452428832177
 20
-457.8331145882942
 30
0.0
 11
1548.903700709476
 21
-457.8331145882942
 31
0.0
  0
LINE
  5
6750
330
1A
100
AcDbEntity
  8
SEIHIN
100
AcDbLine
 10
1547.912382691077
 20
-457.8331145882942
 30
0.0
 11
1548.984840783676
 21
-457.8331144932944
 31
0.0
  0
ARC
  5
6751
330
1A
100
AcDbEntity
  8
SEIHIN
100
AcDbCircle
 10
1549.079220087976
 20
-458.9476911637945
 30
0.0
 40
1.118565423864879
100
AcDbArc
 50
5.879219214597704
 51
94.8401037208014
  0
LINE
  5
6752
330
1A
100
AcDbEntity
  8
SEIHIN
100
AcDbLine
 10
1547.404909443976
 20
-444.8331145882945
 30
0.0
 11
1551.594971650576
 21
-444.8331145882945
 31
0.0
  0
LINE
  5
6754
330
1A
100
AcDbEntity
  8
SEIHIN
100
AcDbLine
 10
1552.283014474177
 20
-457.8331145882942
 30
0.0
 11
1552.884710310576
 21
-457.8331145882942
 31
0.0
  0
ARC
  5
6755
330
1A
100
AcDbEntity
  8
SEIHIN
100
AcDbCircle
 10
1552.884710310576
 20
-458.8331145882947
 30
0.0
 40
1.0
100
AcDbArc
 50
0.0
 51
90.0
  0
LINE
  5
6757
330
1A
100
AcDbEntity
  8
SEIHIN
100
AcDbLine
 10
1571.058098822476
 20
-444.8331145882945
 30
0.0
 11
1612.655298822476
 21
-444.8331145882945
 31
0.0
  0
LINE
  5
6758
330
1A
100
AcDbEntity
  8
SEIHIN
100
AcDbLine
 10
1612.655298822476
 20
-444.8331145882945
 30
0.0
 11
1617.393898822176
 21
-444.8331145882945
 31
0.0
  0
LINE
  5
6759
330
1A
100
AcDbEntity
  8
SEIHIN
100
AcDbLine
 10
1623.537369398576
 20
-457.8331145882942
 30
0.0
 11
1624.406399178277
 21
-457.8331145882942
 31
0.0
  0
ARC
  5
675A
330
1A
100
AcDbEntity
  8
SEIHIN
100
AcDbCircle
 10
1623.537369398576
 20
-458.8331145882947
 30
0.0
 40
1.0
100
AcDbArc
 50
90.0
 51
180.0
  0
LINE
  5
675B
330
1A
100
AcDbEntity
  8
SEIHIN
100
AcDbLine
 10
1627.451986345876
 20
-457.8331144932944
 30
0.0
 11
1628.689123302677
 21
-457.8331145882942
 31
0.0
  0
LINE
  5
675D
330
1A
100
AcDbEntity
  8
SEIHIN
100
AcDbLine
 10
1627.147898221876
 20
-457.8331145882942
 30
0.0
 11
1627.799670556676
 21
-457.8331145882942
 31
0.0
  0
ARC
  5
675E
330
1A
100
AcDbEntity
  8
SEIHIN
100
AcDbCircle
 10
1627.164041968176
 20
-458.2282131639944
 30
0.0
 40
0.3954283449737928
100
AcDbArc
 50
92.33978766229189
 51
133.9622123505999
  0
LINE
  5
675F
330
1A
100
AcDbEntity
  8
SEIHIN
100
AcDbLine
 10
1626.568540581376
 20
-457.8331145882942
 30
0.0
 11
1626.919023707676
 21
-457.8331145882942
 31
0.0
  0
LINE
  5
6760
330
1A
100
AcDbEntity
  8
SEIHIN
100
AcDbLine
 10
1624.406399178277
 20
-457.8331145882942
 30
0.0
 11
1627.147898221876
 21
-457.8331145882942
 31
0.0
  0
ARC
  5
6761
330
1A
100
AcDbEntity
  8
SEIHIN
100
AcDbCircle
 10
1627.353028281376
 20
-458.9290053400945
 30
0.0
 40
1.100349692883139
100
AcDbArc
 50
84.84023085818924
 51
175.0005747263003
  0
LINE
  5
6762
330
1A
100
AcDbEntity
  8
SEIHIN
100
AcDbLine
 10
1631.011514735176
 20
-457.8331145882942
 30
0.0
 11
1631.713891235476
 21
-457.8331145882942
 31
0.0
  0
LINE
  5
6763
330
1A
100
AcDbEntity
  8
SEIHIN
100
AcDbLine
 10
1630.784975074976
 20
-457.8331145882942
 30
0.0
 11
1631.011514735176
 21
-457.8331145882942
 31
0.0
  0
LINE
  5
6764
330
1A
100
AcDbEntity
  8
SEIHIN
100
AcDbLine
 10
1630.774488724176
 20
-457.8331145882942
 30
0.0
 11
1630.784975074976
 21
-457.8331145882942
 31
0.0
  0
LINE
  5
6765
330
1A
100
AcDbEntity
  8
SEIHIN
100
AcDbLine
 10
1628.689123302677
 20
-457.8331145882942
 30
0.0
 11
1630.774488724176
 21
-457.8331145882942
 31
0.0
  0
LINE
  5
6766
330
1A
100
AcDbEntity
  8
SEIHIN
100
AcDbLine
 10
1631.713891235476
 20
-457.8331145882942
 30
0.0
 11
1631.750213819076
 21
-457.8331145882942
 31
0.0
  0
LINE
  5
6767
330
1A
100
AcDbEntity
  8
SEIHIN
100
AcDbLine
 10
1617.393898822176
 20
-444.8331145882945
 30
0.0
 11
1617.498921512076
 21
-444.8331145882945
 31
0.0
  0
LINE
  5
6768
330
1A
100
AcDbEntity
  8
SEIHIN
100
AcDbLine
 10
1885.43150588593
 20
-615.377710277657
 30
0.0
 11
1885.431505550631
 21
-618.7125356801569
 31
0.0
  0
LINE
  5
6769
330
1A
100
AcDbEntity
  8
SEIHIN
100
AcDbLine
 10
1872.431505885931
 20
-610.7069103085571
 30
0.0
 11
1872.43150598093
 21
-617.7125350505571
 31
0.0
  0
LINE
  5
676A
330
1A
100
AcDbEntity
  8
SEIHIN
100
AcDbLine
 10
1872.43150598093
 20
-617.7125350505571
 30
0.0
 11
1872.43150598093
 21
-614.2781973749569
 31
0.0
  0
LINE
  5
676B
330
1A
100
AcDbEntity
  8
SEIHIN
100
AcDbLine
 10
1855.43150622123
 20
-618.7125356801569
 30
0.0
 11
1855.431505885931
 21
-615.377710277657
 31
0.0
  0
LINE
  5
676C
330
1A
100
AcDbEntity
  8
SEIHIN
100
AcDbLine
 10
1868.431505790931
 20
-617.7125350505571
 30
0.0
 11
1868.43150588593
 21
-610.7069103085571
 31
0.0
  0
LINE
  5
676D
330
1A
100
AcDbEntity
  8
SEIHIN
100
AcDbLine
 10
1868.431505790931
 20
-617.7125350505571
 30
0.0
 11
1868.431505790931
 21
-614.2781973749569
 31
0.0
  0
LINE
  5
676E
330
1A
100
AcDbEntity
  8
SEIHIN
100
AcDbLine
 10
1668.651825088477
 20
-617.7125350505571
 30
0.0
 11
1668.669078275677
 21
-614.2781973749569
 31
0.0
  0
DIMENSION
  5
676F
330
1A
100
AcDbEntity
  8
SUNPOU
100
AcDbDimension
  2
*D13
 10
1902.431505885931
 20
-577.4106149009326
 30
0.0
 11
1870.431505885931
 21
-572.4106149009326
 31
0.0
 70
    32
  3
STANDARD
100
AcDbAlignedDimension
 13
1838.431505885931
 23
-629.9807173366454
 33
0.0
 14
1902.431505885931
 24
-629.9807173366454
 34
0.0
100
AcDbRotatedDimension
1001
ACAD
1000
DSTYLE
1002
{
1070
   287
1070
     5
1070
    41
1040
7.0
1070
    42
1040
6.0
1070
    43
1040
14.0
1070
    44
1040
3.0
1070
    73
1070
     0
1070
    74
1070
     0
1070
    77
1070
     3
1070
   140
1040
6.0
1070
   141
1040
150.0
1070
   147
1040
2.0
1070
   172
1070
     1
1070
   173
1070
     1
1070
   176
1070
   256
1070
   177
1070
   256
1070
   178
1070
   256
1070
   271
1070
     0
1070
   272
1070
     0
1070
   279
1070
     2
1070
   341
1005
6D
1070
     6
1000
OPEN
1070
     7
1000
OPEN
1070
   371
1070
    -1
1070
   372
1070
    -1
1002
}
  0
DIMENSION
  5
6770
330
1A
100
AcDbEntity
  8
SUNPOU
100
AcDbDimension
  2
*D14
 10
1910.43150588593
 20
-564.0191794539639
 30
0.0
 11
1870.43150588593
 21
-559.0191794539639
 31
0.0
 70
    32
  3
STANDARD
100
AcDbAlignedDimension
 13
1830.431505885931
 23
-625.4071319610568
 33
0.0
 14
1910.43150588593
 24
-625.4071347598944
 34
0.0
100
AcDbRotatedDimension
1001
ACAD
1000
DSTYLE
1002
{
1070
   287
1070
     5
1070
    41
1040
7.0
1070
    42
1040
6.0
1070
    43
1040
14.0
1070
    44
1040
3.0
1070
    73
1070
     0
1070
    74
1070
     0
1070
    77
1070
     3
1070
   140
1040
6.0
1070
   141
1040
150.0
1070
   147
1040
2.0
1070
   172
1070
     1
1070
   173
1070
     1
1070
   176
1070
   256
1070
   177
1070
   256
1070
   178
1070
   256
1070
   271
1070
     0
1070
   272
1070
     0
1070
   279
1070
     2
1070
   341
1005
6D
1070
     6
1000
OPEN
1070
     7
1000
OPEN
1070
   371
1070
    -1
1070
   372
1070
    -1
1002
}
  0
LINE
  5
6774
330
1A
100
AcDbEntity
  8
SEIHIN
100
AcDbLine
 10
1851.350369674131
 20
-690.7126357246567
 30
0.0
 11
1870.43150588593
 21
-691.7126377512569
 31
0.0
  0
LINE
  5
6775
330
1A
100
AcDbEntity
  8
SEIHIN
100
AcDbLine
 10
1850.989170168643
 20
-678.9605965305566
 30
0.0
 11
1865.93150594183
 21
-678.9605965305566
 31
0.0
  0
LINE
  5
6776
330
1A
100
AcDbEntity
  8
SEIHIN
100
AcDbLine
 10
1892.39459745303
 20
-687.7126370955567
 30
0.0
 11
1848.46841431873
 21
-687.7126370955567
 31
0.0
  0
LINE
  5
6777
330
1A
100
AcDbEntity
  8
SEIHIN
100
AcDbLine
 10
1835.013709889231
 20
-620.4246178863569
 30
0.0
 11
1855.42987081873
 21
-618.7126728173567
 31
0.0
  0
LINE
  5
6778
330
1A
100
AcDbEntity
  8
SEIHIN
100
AcDbLine
 10
1865.93150594183
 20
-645.9605948467567
 30
0.0
 11
1836.756754193239
 21
-645.9605948467567
 31
0.0
  0
DIMENSION
  5
6779
330
1A
100
AcDbEntity
  8
SUNPOU
100
AcDbDimension
  2
*D15
 10
1803.728464653091
 20
-633.7125352120945
 30
0.0
 11
1798.728464653092
 21
-626.2125350968753
 31
0.0
 70
    32
  3
STANDARD
100
AcDbAlignedDimension
 13
1870.43150588593
 23
-618.7125349816569
 33
0.0
 14
1838.431505885931
 24
-633.7125352120945
 34
0.0
 50
90.0
100
AcDbRotatedDimension
1001
ACAD
1000
DSTYLE
1002
{
1070
   287
1070
     5
1070
    41
1040
7.0
1070
    42
1040
6.0
1070
    43
1040
14.0
1070
    44
1040
3.0
1070
    73
1070
     0
1070
    74
1070
     0
1070
    77
1070
     3
1070
   140
1040
6.0
1070
   141
1040
150.0
1070
   147
1040
2.0
1070
   172
1070
     1
1070
   173
1070
     1
1070
   176
1070
   256
1070
   177
1070
   256
1070
   178
1070
   256
1070
   271
1070
     0
1070
   272
1070
     0
1070
   279
1070
     2
1070
   341
1005
6D
1070
     6
1000
OPEN
1070
     7
1000
OPEN
1070
   371
1070
    -1
1070
   372
1070
    -1
1002
}
  0
DIMENSION
  5
677A
330
1A
100
AcDbEntity
  8
SUNPOU
100
AcDbDimension
  2
*D16
 10
1803.728464653091
 20
-682.7125352120945
 30
0.0
 11
1798.728464653092
 21
-658.2125352120941
 31
0.0
 70
    32
  3
STANDARD
100
AcDbAlignedDimension
 13
1838.431505885931
 23
-633.7125352120945
 33
0.0
 14
1870.40066694903
 24
-682.7125352120945
 34
0.0
 50
90.0
100
AcDbRotatedDimension
1001
ACAD
1000
DSTYLE
1002
{
1070
   287
1070
     5
1070
    41
1040
7.0
1070
    42
1040
6.0
1070
    43
1040
14.0
1070
    44
1040
3.0
1070
    73
1070
     0
1070
    74
1070
     0
1070
    77
1070
     3
1070
   140
1040
6.0
1070
   141
1040
150.0
1070
   147
1040
2.0
1070
   172
1070
     1
1070
   173
1070
     1
1070
   176
1070
   256
1070
   177
1070
   256
1070
   178
1070
   256
1070
   271
1070
     0
1070
   272
1070
     0
1070
   279
1070
     2
1070
   341
1005
6D
1070
     6
1000
OPEN
1070
     7
1000
OPEN
1070
   371
1070
    -1
1070
   372
1070
    -1
1002
}
  0
LINE
  5
6797
330
1A
100
AcDbEntity
  8
SEIHIN
100
AcDbLine
 10
1659.823127767777
 20
-663.9013950622568
 30
0.0
 11
1661.087089784077
 21
-662.3533956293568
 31
0.0
  0
LINE
  5
6798
330
1A
100
AcDbEntity
  8
SEIHIN
100
AcDbLine
 10
1647.038798822477
 20
-664.8906350652567
 30
0.0
 11
1648.854404545376
 21
-661.7635928763568
 31
0.0
  0
LINE
  5
6799
330
1A
100
AcDbEntity
  8
SEIHIN
100
AcDbLine
 10
1632.758798822476
 20
-663.3507350652569
 30
0.0
 11
1634.778998822477
 21
-657.3507350652571
 31
0.0
  0
LINE
  5
679A
330
1A
100
AcDbEntity
  8
SEIHIN
100
AcDbLine
 10
1668.646798798676
 20
-687.7126370955567
 30
0.0
 11
1668.646798798676
 21
-650.9605956662571
 31
0.0
  0
LINE
  5
679B
330
1A
100
AcDbEntity
  8
SEIHIN
100
AcDbLine
 10
1661.646798990076
 20
-690.6368111659567
 30
0.0
 11
1661.646798990076
 21
-661.7112023223568
 31
0.0
  0
DIMENSION
  5
679C
330
1A
100
AcDbEntity
  8
SUNPOU
100
AcDbDimension
  2
*D17
 10
1659.146898822476
 20
-679.062488292156
 30
0.0
 11
1643.9155046205
 21
-672.5074320337149
 31
0.0
 70
   160
  3
STANDARD
100
AcDbAlignedDimension
 13
1648.922002628031
 23
-661.5112434994788
 33
0.0
 14
1659.146898822476
 24
-665.7987848708566
 34
0.0
100
AcDbRotatedDimension
1001
ACAD
1000
DSTYLE
1002
{
1070
   287
1070
     5
1070
    41
1040
7.0
1070
    42
1040
6.0
1070
    43
1040
14.0
1070
    44
1040
3.0
1070
    73
1070
     0
1070
    74
1070
     0
1070
    77
1070
     3
1070
   140
1040
6.0
1070
   141
1040
150.0
1070
   147
1040
2.0
1070
   172
1070
     1
1070
   173
1070
     1
1070
   176
1070
   256
1070
   177
1070
   256
1070
   178
1070
   256
1070
   271
1070
     0
1070
   272
1070
     0
1070
   279
1070
     2
1070
   341
1005
6D
1070
     6
1000
OPEN
1070
     7
1000
OPEN
1070
   371
1070
    -1
1070
   372
1070
    -1
1002
}
  0
DIMENSION
  5
679D
330
1A
100
AcDbEntity
  8
SUNPOU
100
AcDbDimension
  2
*D18
 10
1696.930933420405
 20
-691.7126377512569
 30
0.0
 11
1691.930933420405
 21
-655.2126552843065
 31
0.0
 70
    32
  3
STANDARD
100
AcDbAlignedDimension
 13
1668.646798798676
 23
-618.7126728173567
 33
0.0
 14
1662.646798921176
 24
-691.7126377512569
 34
0.0
 50
90.0
100
AcDbRotatedDimension
1001
ACAD
1000
DSTYLE
1002
{
1070
   287
1070
     5
1070
    41
1040
7.0
1070
    42
1040
6.0
1070
    43
1040
14.0
1070
    44
1040
3.0
1070
    73
1070
     0
1070
    74
1070
     0
1070
    77
1070
     3
1070
   140
1040
6.0
1070
   141
1040
150.0
1070
   147
1040
2.0
1070
   172
1070
     1
1070
   173
1070
     1
1070
   176
1070
   256
1070
   177
1070
   256
1070
   178
1070
   256
1070
   271
1070
     0
1070
   272
1070
     0
1070
   279
1070
     2
1070
   341
1005
6D
1070
     6
1000
OPEN
1070
     7
1000
OPEN
1070
   371
1070
    -1
1070
   372
1070
    -1
1002
}
  0
LINE
  5
679E
330
1A
100
AcDbEntity
  8
SEIHIN
100
AcDbLine
 10
1668.646798798676
 20
-687.7126370955567
 30
0.0
 11
1663.773175600376
 21
-690.6368111659567
 31
0.0
  0
LINE
  5
679F
330
1A
100
AcDbEntity
  8
SEIHIN
100
AcDbLine
 10
1661.646798990076
 20
-691.7126377512569
 30
0.0
 11
1663.646798852276
 21
-691.7126377512569
 31
0.0
  0
LINE
  5
67A1
330
1A
100
AcDbEntity
  8
SEIHIN
100
AcDbLine
 10
1661.646798990076
 20
-691.7126377512569
 30
0.0
 11
1661.646798990076
 21
-690.6368111659567
 31
0.0
  0
LINE
  5
67A2
330
1A
100
AcDbEntity
  8
SEIHIN
100
AcDbLine
 10
1663.773175600376
 20
-690.6368111659567
 30
0.0
 11
1663.646798852276
 21
-690.7126357246567
 31
0.0
  0
LINE
  5
67A3
330
1A
100
AcDbEntity
  8
SEIHIN
100
AcDbLine
 10
1663.646798852276
 20
-690.7126357246567
 30
0.0
 11
1663.646798852276
 21
-691.7126377512569
 31
0.0
  0
ARC
  5
67A4
330
1A
100
AcDbEntity
  8
SEIHIN
100
AcDbCircle
 10
1642.714857281276
 20
-662.3799940999567
 30
0.0
 40
4.999978850785738
100
AcDbArc
 50
280.1816226973073
 51
329.8589589947931
  0
ARC
  5
67A5
330
1A
100
AcDbEntity
  8
SEIHIN
100
AcDbCircle
 10
1662.146898822476
 20
-667.6264852597568
 30
0.0
 40
3.0
100
AcDbArc
 50
180.0
 51
219.8051477093051
  0
LINE
  5
67A6
330
1A
100
AcDbEntity
  8
SEIHIN
100
AcDbLine
 10
1660.951462937776
 20
-670.8781320035567
 30
0.0
 11
1659.842220791976
 21
-669.5470214285567
 31
0.0
  0
ARC
  5
67A7
330
1A
100
AcDbEntity
  8
SEIHIN
100
AcDbCircle
 10
1658.646798822476
 20
-672.7986848707566
 30
0.0
 40
2.999999999999971
100
AcDbArc
 50
0.0
 51
39.80556284280243
  0
LINE
  5
67A8
330
1A
100
AcDbEntity
  8
SEIHIN
100
AcDbLine
 10
1659.146898822476
 20
-667.6264852597568
 30
0.0
 11
1659.146898822476
 21
-665.7987848708566
 31
0.0
  0
ARC
  5
67A9
330
1A
100
AcDbEntity
  8
SEIHIN
100
AcDbCircle
 10
1662.146898822476
 20
-665.7987848708566
 30
0.0
 40
3.0
100
AcDbArc
 50
140.7679071848031
 51
180.0
  0
LINE
  5
67AA
330
1A
100
AcDbEntity
  8
SEIHIN
100
AcDbLine
 10
1660.896704803576
 20
-650.9605956662571
 30
0.0
 11
1668.646798798676
 21
-650.9605956662571
 31
0.0
  0
LINE
  5
67AB
330
1A
100
AcDbEntity
  8
SEIHIN
100
AcDbLine
 10
1668.646789252676
 20
-618.7125356801569
 30
0.0
 11
1658.646681617376
 21
-618.7125354473567
 31
0.0
  0
ARC
  5
67AC
330
1A
100
AcDbEntity
  8
SEIHIN
100
AcDbCircle
 10
1648.443875041876
 20
-648.1042537759568
 30
0.0
 40
9.999973475233561
100
AcDbArc
 50
95.00012137739872
 51
161.3913302732994
  0
LWPOLYLINE
  5
67AD
330
1A
100
AcDbEntity
  8
SEIHIN
100
AcDbPolyline
 90
       10
 70
   128
 43
0.0
 10
1660.520823004675
 20
-645.5733288178655
 10
1659.056398357676
 20
-624.5846975062571
 10
1659.000578607776
 20
-623.7846681315568
 10
1658.947842466976
 20
-623.0288365323568
 10
1658.899626965976
 20
-622.337792853657
 10
1658.857245269576
 20
-621.7303628501569
 10
1658.821852217776
 20
-621.2230928641568
 10
1658.794410798176
 20
-620.829802791457
 10
1658.775670725276
 20
-620.561205169957
 10
1658.766140501376
 20
-620.4246178668568
  0
LINE
  5
67AE
330
1A
100
AcDbEntity
  8
SEIHIN
100
AcDbLine
 10
1648.422004296176
 20
-661.012535065357
 30
0.0
 11
1642.450024195277
 21
-661.012535065357
 31
0.0
  0
ARC
  5
67AF
330
1A
100
AcDbEntity
  8
SEIHIN
100
AcDbCircle
 10
1649.538570033676
 20
-649.0125350653568
 30
0.0
 40
4.999999999976513
100
AcDbArc
 50
105.6275161951065
 51
164.9999999999992
  0
LINE
  5
67B1
330
1A
100
AcDbEntity
  8
SEIHIN
100
AcDbLine
 10
1644.708940902277
 20
-647.7184398398568
 30
0.0
 11
1641.484098368976
 21
-659.7537160202571
 31
0.0
  0
ARC
  5
67B4
330
1A
100
AcDbEntity
  8
SEIHIN
100
AcDbCircle
 10
1632.883584489177
 20
-656.7125151150568
 30
0.0
 40
1.999980049852688
100
AcDbArc
 50
341.3906990590012
 51
89.99958937640798
  0
ARC
  5
67B5
330
1A
100
AcDbEntity
  8
SEIHIN
100
AcDbCircle
 10
1642.450024195277
 20
-660.0125350653568
 30
0.0
 40
0.9999999999566886
100
AcDbArc
 50
164.9999999987984
 51
270.0
  0
LINE
  5
67B6
330
1A
100
AcDbEntity
  8
SEIHIN
100
AcDbLine
 10
1637.809298822476
 20
-648.350735065257
 30
0.0
 11
1638.966698822476
 21
-644.9132350652568
 31
0.0
  0
ARC
  5
67B7
330
1A
100
AcDbEntity
  8
SEIHIN
100
AcDbCircle
 10
1635.913837009176
 20
-647.7125076293568
 30
0.0
 40
2.00002743623841
100
AcDbArc
 50
269.9989060475914
 51
341.3909298776015
  0
LINE
  5
67B8
330
1A
100
AcDbEntity
  8
SEIHIN
100
AcDbLine
 10
1661.646798990076
 20
-661.7112023223568
 30
0.0
 11
1660.896704803576
 21
-650.9605956662571
 31
0.0
  0
ARC
  5
67B9
330
1A
100
AcDbEntity
  8
SEIHIN
100
AcDbCircle
 10
1660.146826063876
 20
-649.2257900314569
 30
0.0
 40
3.000027241922344
100
AcDbArc
 50
179.9989502334978
 51
232.7253123190037
  0
ARC
  5
67BA
330
1A
100
AcDbEntity
  8
SEIHIN
100
AcDbCircle
 10
1648.422004296176
 20
-661.5125350653567
 30
0.0
 40
0.5000000000000103
100
AcDbArc
 50
329.8599325814084
 51
90.0
  0
ARC
  5
67BB
330
1A
100
AcDbEntity
  8
SEIHIN
100
AcDbCircle
 10
1658.577769797876
 20
-660.7092200892568
 30
0.0
 40
2.99999999999996
100
AcDbArc
 50
326.7660794334955
 51
359.7655796633018
  0
LINE
  5
67BC
330
1A
100
AcDbEntity
  8
SEIHIN
100
AcDbLine
 10
1660.092055564676
 20
-652.9541189382569
 30
0.0
 11
1658.329898822477
 21
-651.6130350652567
 31
0.0
  0
ARC
  5
67BD
330
1A
100
AcDbEntity
  8
SEIHIN
100
AcDbCircle
 10
1658.275221999476
 20
-655.3414010322572
 30
0.0
 40
3.000000000000318
100
AcDbArc
 50
18.52106035790364
 51
52.72716463429804
  0
ARC
  5
67BE
330
1A
100
AcDbEntity
  8
SEIHIN
100
AcDbCircle
 10
1660.645739396076
 20
-654.5472680003568
 30
0.0
 40
0.4999999999999977
100
AcDbArc
 50
3.991187883898744
 51
18.52106035790364
  0
ARC
  5
67BF
330
1A
100
AcDbEntity
  8
SEIHIN
100
AcDbCircle
 10
1654.146798822476
 20
-647.0125350653567
 30
0.0
 40
3.000000000000013
100
AcDbArc
 50
0.0
 51
70.5370490585957
  0
LINE
  5
67C1
330
1A
100
AcDbEntity
  8
SEIHIN
100
AcDbLine
 10
1654.146798822476
 20
-644.012535065357
 30
0.0
 11
1649.538570033676
 21
-644.012535065357
 31
0.0
  0
LINE
  5
67C2
330
1A
100
AcDbEntity
  8
SEIHIN
100
AcDbLine
 10
1648.357232893276
 20
-644.1540947229569
 30
0.0
 11
1648.191658300376
 21
-644.1973685280568
 31
0.0
  0
LWPOLYLINE
  5
67C3
330
1A
100
AcDbEntity
  8
SEIHIN
100
AcDbPolyline
 90
        3
 70
   128
 43
0.0
 10
1649.538569423777
 20
-644.0125343788569
 10
1648.538569259776
 20
-644.113554938557
 10
1648.357233303977
 20
-644.1540954102569
  0
ARC
  5
67C4
330
1A
100
AcDbEntity
  8
SEIHIN
100
AcDbCircle
 10
1654.146491054776
 20
-647.0143287604569
 30
0.0
 40
3.001794397335225
100
AcDbArc
 50
70.54292426209659
 51
89.99411918361259
  0
LINE
  5
67C5
330
1A
100
AcDbEntity
  8
SEIHIN
100
AcDbLine
 10
1660.520823004675
 20
-645.5733288178655
 30
0.0
 11
1660.896704803576
 21
-650.9605956662571
 31
0.0
  0
LINE
  5
67C6
330
1A
100
AcDbEntity
  8
SEIHIN
100
AcDbLine
 10
1657.146798822476
 20
-649.225735065257
 30
0.0
 11
1657.146798822476
 21
-647.0125350653567
 31
0.0
  0
LINE
  5
67C8
330
1A
100
AcDbEntity
  8
SEIHIN
100
AcDbLine
 10
1647.572298822477
 20
-638.1423350652569
 30
0.0
 11
1655.032898822477
 21
-637.4896350652568
 31
0.0
  0
LINE
  5
67C9
330
1A
100
AcDbEntity
  8
SEIHIN
100
AcDbLine
 10
1659.584898822477
 20
-632.1606350652569
 30
0.0
 11
1659.321498822476
 21
-628.3843350652569
 31
0.0
  0
ARC
  5
67CA
330
1A
100
AcDbEntity
  8
SEIHIN
100
AcDbCircle
 10
1654.597051104576
 20
-632.5086909271569
 30
0.0
 40
4.999976773955431
100
AcDbArc
 50
275.0008170395885
 51
3.991673130598051
  0
LINE
  5
67CB
330
1A
100
AcDbEntity
  8
SEIHIN
100
AcDbLine
 10
1658.646681617376
 20
-618.7125354473567
 30
0.0
 11
1655.423709699177
 21
-618.7125333477568
 31
0.0
  0
ARC
  5
67CC
330
1A
100
AcDbEntity
  8
SEIHIN
100
AcDbCircle
 10
1654.333612777676
 20
-628.7323476146569
 30
0.0
 40
5.000011992986578
100
AcDbArc
 50
3.991147438198233
 51
92.08159552818768
  0
LINE
  5
67CD
330
1A
100
AcDbEntity
  8
SEIHIN
100
AcDbLine
 10
1658.766140501376
 20
-620.4246174011569
 30
0.0
 11
1658.646681617376
 21
-618.7125354473567
 31
0.0
  0
LINE
  5
67CE
330
1A
100
AcDbEntity
  8
SEIHIN
100
AcDbLine
 10
1668.646798798676
 20
-650.9605956662571
 30
0.0
 11
1668.646798822476
 21
-625.4071319610568
 31
0.0
  0
LINE
  5
67CF
330
1A
100
AcDbEntity
  8
SEIHIN
100
AcDbLine
 10
1668.646798822476
 20
-620.4246178863569
 30
0.0
 11
1668.646798822476
 21
-625.4071319610568
 31
0.0
  0
LWPOLYLINE
  5
67D0
330
1A
100
AcDbEntity
  8
SEIHIN
100
AcDbPolyline
 90
        9
 70
   128
 43
0.0
 10
1668.651825088477
 20
-617.7125350505571
 10
1668.650844987876
 20
-617.907625360257
 10
1668.649902605776
 20
-618.0952185232569
 10
1668.649034031076
 20
-618.2681052878568
 10
1668.648272791276
 20
-618.4196419481568
 10
1668.647647990277
 20
-618.5440047111567
 10
1668.647183784177
 20
-618.6364144951569
 10
1668.646897868176
 20
-618.693320399957
 10
1668.646801359876
 20
-618.7125349816569
  0
LINE
  5
67D1
330
1A
100
AcDbEntity
  8
SEIHIN
100
AcDbLine
 10
1668.646798798676
 20
-618.7126728173567
 30
0.0
 11
1668.646789252676
 21
-618.7125356801569
 31
0.0
  0
LINE
  5
67D2
330
1A
100
AcDbEntity
  8
SEIHIN
100
AcDbLine
 10
1668.646798822476
 20
-620.4246178863569
 30
0.0
 11
1668.646798798676
 21
-618.7126728173567
 31
0.0
  0
LINE
  5
67D3
330
1A
100
AcDbEntity
  8
SEIHIN
100
AcDbLine
 10
1848.46841431873
 20
-687.7126370955567
 30
0.0
 11
1830.43150677993
 21
-650.9605956662571
 31
0.0
  0
LINE
  5
67D4
330
1A
100
AcDbEntity
  8
SEIHIN
100
AcDbLine
 10
1834.961322281274
 20
-648.841744237892
 30
0.0
 11
1849.193738256678
 21
-677.8417459216918
 31
0.0
  0
ARC
  5
67D5
330
1A
100
AcDbEntity
  8
SEIHIN
100
AcDbCircle
 10
1851.181368671363
 20
-688.7010343809274
 30
0.0
 40
2.0
100
AcDbArc
 50
206.1405430869409
 51
267.0000658758147
  0
LINE
  5
67D6
330
1A
100
AcDbEntity
  8
SEIHIN
100
AcDbLine
 10
1851.076699055225
 20
-690.6982935707819
 30
0.0
 11
1851.350369674131
 21
-690.7126357246567
 31
0.0
  0
LINE
  5
67D7
330
1A
100
AcDbEntity
  8
SEIHIN
100
AcDbLine
 10
1848.46841431873
 20
-687.7126370955567
 30
0.0
 11
1849.385936580468
 21
-689.5821834074759
 31
0.0
  0
ARC
  5
67D8
330
1A
100
AcDbEntity
  8
SEIHIN
100
AcDbCircle
 10
1850.989170168643
 20
-676.9605965305567
 30
0.0
 40
2.0
100
AcDbArc
 50
206.1405547216349
 51
270.0
  0
LINE
  5
67D9
330
1A
100
AcDbEntity
  8
SEIHIN
100
AcDbLine
 10
1830.43150677993
 20
-650.9605956662571
 30
0.0
 11
1830.431505885931
 21
-625.4071319610568
 31
0.0
  0
ARC
  5
67DB
330
1A
100
AcDbEntity
  8
SEIHIN
100
AcDbCircle
 10
1836.756754193239
 20
-647.9605948467567
 30
0.0
 40
2.0
100
AcDbArc
 50
90.0
 51
206.1405547216349
  0
CIRCLE
  5
67DC
330
1A
100
AcDbEntity
  8
SEIHIN
100
AcDbCircle
 10
1838.431519246531
 20
-633.7181533643569
 30
0.0
 40
2.187410050225468
  0
CIRCLE
  5
67DD
330
1A
100
AcDbEntity
  8
SEIHIN
100
AcDbCircle
 10
1838.431505885931
 20
-633.712535065257
 30
0.0
 40
2.60000000000002
  0
ARC
  5
67DF
330
1A
100
AcDbEntity
  8
SEIHIN
100
AcDbCircle
 10
1835.43150588593
 20
-625.4071319610568
 30
0.0
 40
5.0
100
AcDbArc
 50
94.79317830871101
 51
180.0
  0
LINE
  5
67FB
330
1A
100
AcDbEntity
  8
SEIHIN
100
AcDbLine
 10
1910.43150499183
 20
-650.9605956662571
 30
0.0
 11
1892.39459745303
 21
-687.7126370955567
 31
0.0
  0
LINE
  5
67FC
330
1A
100
AcDbEntity
  8
SEIHIN
100
AcDbLine
 10
1891.669273515084
 20
-677.8417459216965
 30
0.0
 11
1905.901689490577
 21
-648.8417442378964
 31
0.0
  0
LINE
  5
67FD
330
1A
100
AcDbEntity
  8
SEIHIN
100
AcDbLine
 10
1872.93150583003
 20
-647.9605948467567
 30
0.0
 11
1872.93150583003
 21
-676.9605965305567
 31
0.0
  0
LINE
  5
67FE
330
1A
100
AcDbEntity
  8
SEIHIN
100
AcDbLine
 10
1867.931505941831
 20
-676.9605965305567
 30
0.0
 11
1867.931505941831
 21
-647.9605948467567
 31
0.0
  0
LINE
  5
67FF
330
1A
100
AcDbEntity
  8
SEIHIN
100
AcDbLine
 10
1874.93150583003
 20
-678.9605965305566
 30
0.0
 11
1889.873841603121
 21
-678.9605965305566
 31
0.0
  0
LINE
  5
6800
330
1A
100
AcDbEntity
  8
SEIHIN
100
AcDbLine
 10
1870.43150588593
 20
-691.7126377512569
 30
0.0
 11
1889.582593437177
 21
-691.0438619179042
 31
0.0
  0
CIRCLE
  5
6802
330
1A
100
AcDbEntity
  8
SEIHIN
100
AcDbCircle
 10
1870.40066694903
 20
-682.7125350652567
 30
0.0
 40
2.285000000000025
  0
CIRCLE
  5
6803
330
1A
100
AcDbEntity
  8
SEIHIN
100
AcDbCircle
 10
1870.40066694903
 20
-682.7125350652567
 30
0.0
 40
2.60000000000002
  0
ARC
  5
6805
330
1A
100
AcDbEntity
  8
SEIHIN
100
AcDbCircle
 10
1865.93150594183
 20
-676.9605965305567
 30
0.0
 40
2.0
100
AcDbArc
 50
270.0
 51
0.0
  0
ARC
  5
6806
330
1A
100
AcDbEntity
  8
SEIHIN
100
AcDbCircle
 10
1874.93150583003
 20
-676.9605965305567
 30
0.0
 40
2.0
100
AcDbArc
 50
180.0
 51
270.0
  0
ARC
  5
6809
330
1A
100
AcDbEntity
  8
SEIHIN
100
AcDbCircle
 10
1889.512793910109
 20
-689.045080282502
 30
0.0
 40
2.0
100
AcDbArc
 50
272.0000152976239
 51
333.8594389805061
  0
LINE
  5
680A
330
1A
100
AcDbEntity
  8
SEIHIN
100
AcDbLine
 10
1891.30822572522
 20
-689.9262298709883
 30
0.0
 11
1892.39459745303
 21
-687.7126370955567
 31
0.0
  0
ARC
  5
680B
330
1A
100
AcDbEntity
  8
SEIHIN
100
AcDbCircle
 10
1889.873841603121
 20
-676.9605965305567
 30
0.0
 40
2.0
100
AcDbArc
 50
270.0
 51
333.8594452782194
  0
LINE
  5
680C
330
1A
100
AcDbEntity
  8
SEIHIN
100
AcDbLine
 10
1904.106257578614
 20
-645.9605948467567
 30
0.0
 11
1874.93150583003
 21
-645.9605948467567
 31
0.0
  0
LINE
  5
680D
330
1A
100
AcDbEntity
  8
SEIHIN
100
AcDbLine
 10
1905.84930188263
 20
-620.4246178863569
 30
0.0
 11
1885.43314095313
 21
-618.7126728173567
 31
0.0
  0
ARC
  5
680E
330
1A
100
AcDbEntity
  8
SEIHIN
100
AcDbCircle
 10
1865.93150594183
 20
-647.9605948467567
 30
0.0
 40
2.0
100
AcDbArc
 50
0.0
 51
90.0
  0
ARC
  5
680F
330
1A
100
AcDbEntity
  8
SEIHIN
100
AcDbCircle
 10
1874.93150583003
 20
-647.9605948467567
 30
0.0
 40
2.0
100
AcDbArc
 50
90.0
 51
180.0
  0
LINE
  5
6810
330
1A
100
AcDbEntity
  8
SEIHIN
100
AcDbLine
 10
1867.431505859831
 20
-618.7125349816569
 30
0.0
 11
1873.43150591203
 21
-618.7125349816569
 31
0.0
  0
LINE
  5
6811
330
1A
100
AcDbEntity
  8
SEIHIN
100
AcDbLine
 10
1855.43150622123
 20
-618.7125349816569
 30
0.0
 11
1867.431505859831
 21
-618.7125349816569
 31
0.0
  0
LINE
  5
6812
330
1A
100
AcDbEntity
  8
SEIHIN
100
AcDbLine
 10
1855.42987081873
 20
-618.7126728173567
 30
0.0
 11
1855.43150622123
 21
-618.7125356801569
 31
0.0
  0
ARC
  5
6813
330
1A
100
AcDbEntity
  8
SEIHIN
100
AcDbCircle
 10
1867.431505885931
 20
-617.712535065257
 30
0.0
 40
1.0
100
AcDbArc
 50
270.0
 51
0.0
  0
LINE
  5
6814
330
1A
100
AcDbEntity
  8
SEIHIN
100
AcDbLine
 10
1873.43150591203
 20
-618.7125349816569
 30
0.0
 11
1885.431505550631
 21
-618.7125349816569
 31
0.0
  0
ARC
  5
6815
330
1A
100
AcDbEntity
  8
SEIHIN
100
AcDbCircle
 10
1873.431505885931
 20
-617.712535065257
 30
0.0
 40
1.0
100
AcDbArc
 50
180.0
 51
270.0
  0
LINE
  5
6816
330
1A
100
AcDbEntity
  8
SEIHIN
100
AcDbLine
 10
1885.431505550631
 20
-618.7125356801569
 30
0.0
 11
1885.433959585631
 21
-618.7126728173567
 31
0.0
  0
LINE
  5
6817
330
1A
100
AcDbEntity
  8
SEIHIN
100
AcDbLine
 10
1910.431504991931
 20
-650.9605956662568
 30
0.0
 11
1910.43150588593
 21
-625.4071319610567
 31
0.0
  0
ARC
  5
6819
330
1A
100
AcDbEntity
  8
SEIHIN
100
AcDbCircle
 10
1904.106257578614
 20
-647.9605948467567
 30
0.0
 40
2.0
100
AcDbArc
 50
333.8594452782194
 51
90.0
  0
CIRCLE
  5
681A
330
1A
100
AcDbEntity
  8
SEIHIN
100
AcDbCircle
 10
1902.431505885931
 20
-633.712535065257
 30
0.0
 40
2.60000000000002
  0
ELLIPSE
  5
681C
330
1A
100
AcDbEntity
  8
SEIHIN
100
AcDbEllipse
 10
1902.431505885931
 20
-633.7194334540567
 30
0.0
 11
0.0000000000542855
 21
2.197112796245932
 31
0.0
210
0.0
220
0.0
230
1.0
 40
0.999995071
 41
0.0
 42
6.283185307179584
  0
LINE
  5
681F
330
1A
100
AcDbEntity
  8
CENTER_L
  6
CENTER
 62
     1
 48
5.0
100
AcDbLine
 10
1902.431505885931
 20
-637.4443527938681
 30
0.0
 11
1902.431505885931
 21
-630.115297909434
 31
0.0
  0
LINE
  5
6820
330
1A
100
AcDbEntity
  8
CENTER_L
  6
CENTER
 62
     1
 48
5.0
100
AcDbLine
 10
1906.163323937206
 20
-633.7125352120945
 30
0.0
 11
1898.264845306864
 21
-633.7125352120945
 31
0.0
  0
ARC
  5
6822
330
1A
100
AcDbEntity
  8
SEIHIN
100
AcDbCircle
 10
1905.431505885931
 20
-625.4071319610567
 30
0.0
 40
5.0
100
AcDbArc
 50
0.0
 51
85.20682169128898
  0
LINE
  5
6823
330
1A
100
AcDbEntity
  8
SEIHIN
100
AcDbLine
 10
1668.674431896176
 20
-458.8331145407947
 30
0.0
 11
1668.674431896176
 21
-460.8331146357947
 31
0.0
  0
LINE
  5
6824
330
1A
100
AcDbEntity
  8
SEIHIN
100
AcDbLine
 10
1644.723455567077
 20
-460.8331145882943
 30
0.0
 11
1644.723455567077
 21
-458.8331145882947
 31
0.0
  0
LINE
  5
6825
330
1A
100
AcDbEntity
  8
SEIHIN
100
AcDbLine
 10
1633.652492983076
 20
-458.8331145882947
 30
0.0
 11
1633.652492983076
 21
-460.8331145882943
 31
0.0
  0
LINE
  5
6826
330
1A
100
AcDbEntity
  8
SEIHIN
100
AcDbLine
 10
1632.750213819076
 20
-460.8331145882943
 30
0.0
 11
1632.750213819076
 21
-458.8331145882947
 31
0.0
  0
LINE
  5
6827
330
1A
100
AcDbEntity
  8
SEIHIN
100
AcDbLine
 10
1648.774472770576
 20
-605.7690553818567
 30
0.0
 11
1668.674431896176
 21
-613.2125343129571
 31
0.0
  0
DIMENSION
  5
6828
330
1A
100
AcDbEntity
  8
SUNPOU
100
AcDbDimension
  2
*D19
 10
1668.651335038176
 20
-577.4106149009326
 30
0.0
 11
1656.687395302626
 21
-572.4106149009326
 31
0.0
 70
    32
  3
STANDARD
100
AcDbAlignedDimension
 13
1644.723455567076
 23
-608.578924211257
 33
0.0
 14
1668.651335038176
 24
-613.2038950501926
 34
0.0
100
AcDbRotatedDimension
1001
ACAD
1000
DSTYLE
1002
{
1070
   287
1070
     5
1070
    41
1040
7.0
1070
    42
1040
6.0
1070
    43
1040
14.0
1070
    44
1040
3.0
1070
    73
1070
     0
1070
    74
1070
     0
1070
    77
1070
     3
1070
   140
1040
6.0
1070
   141
1040
150.0
1070
   147
1040
2.0
1070
   172
1070
     1
1070
   173
1070
     1
1070
   176
1070
   256
1070
   177
1070
   256
1070
   178
1070
   256
1070
   271
1070
     0
1070
   272
1070
     0
1070
   279
1070
     2
1070
   341
1005
6D
1070
     6
1000
OPEN
1070
     7
1000
OPEN
1070
   371
1070
    -1
1070
   372
1070
    -1
1002
}
  0
ARC
  5
6829
330
1A
100
AcDbEntity
  8
SEIHIN
100
AcDbCircle
 10
1647.723455567076
 20
-608.578924211257
 30
0.0
 40
3.000000000000043
100
AcDbArc
 50
69.49194458521017
 51
180.0
  0
ARC
  5
682A
330
1A
100
AcDbEntity
  8
SEIHIN
100
AcDbCircle
 10
1655.423711527777
 20
-658.7125297410567
 30
0.0
 40
45.4999954437451
100
AcDbArc
 50
103.6016724449928
 51
113.4346828302379
  0
LINE
  5
682B
330
1A
100
AcDbEntity
  8
SEIHIN
100
AcDbLine
 10
1644.723455567077
 20
-614.4886209613567
 30
0.0
 11
1644.723455567077
 21
-608.578924211257
 31
0.0
  0
LINE
  5
682C
330
1A
100
AcDbEntity
  8
SEIHIN
100
AcDbLine
 10
1631.987299679376
 20
-602.4996422200567
 30
0.0
 11
1632.689676179676
 21
-605.6330110100568
 31
0.0
  0
LWPOLYLINE
  5
682D
330
1A
100
AcDbEntity
  8
SEIHIN
100
AcDbPolyline
 90
        9
 70
   128
 43
0.0
 10
1668.674431896176
 20
-613.2125343129571
 10
1668.674329014176
 20
-613.233010603957
 10
1668.674024384376
 20
-613.2936529748569
 10
1668.673529648376
 20
-613.392130791057
 10
1668.672863869176
 20
-613.524659856057
 10
1668.672052599876
 20
-613.686146766757
 10
1668.671127010776
 20
-613.8703856550569
 10
1668.670122724877
 20
-614.0702968396567
 10
1668.669078275677
 20
-614.2781973749569
  0
LINE
  5
682F
330
1A
100
AcDbEntity
  8
SEIHIN
100
AcDbLine
 10
1668.669078275677
 20
-461.8331146832944
 30
0.0
 11
1648.424133702676
 21
-461.8331145882941
 31
0.0
  0
LINE
  5
6830
330
1A
100
AcDbEntity
  8
SEIHIN
100
AcDbLine
 10
1668.646798822476
 20
-499.8331145882942
 30
0.0
 11
1659.113781798076
 21
-499.8331136942942
 31
0.0
  0
LINE
  5
6832
330
1A
100
AcDbEntity
  8
SEIHIN
100
AcDbLine
 10
1668.646789252676
 20
-474.8331142529943
 30
0.0
 11
1658.646681617376
 21
-474.8331142529943
 31
0.0
  0
LINE
  5
6833
330
1A
100
AcDbEntity
  8
SEIHIN
100
AcDbLine
 10
1658.766140501376
 20
-495.2509097695943
 30
0.0
 11
1658.646681617376
 21
-474.8331142529943
 31
0.0
  0
ELLIPSE
  5
6834
330
1A
100
AcDbEntity
  8
SEIHIN
100
AcDbEllipse
 10
1659.113781779876
 20
-494.8331145882944
 30
0.0
 11
0.0
 21
5.0
 31
0.0
210
0.0
220
0.0
230
1.0
 40
0.0697722611
 41
1.654453069917034
 42
3.14159265358979
  0
LINE
  5
6835
330
1A
100
AcDbEntity
  8
SEIHIN
100
AcDbLine
 10
1648.424133702676
 20
-461.8331145882941
 30
0.0
 11
1645.723455567076
 21
-461.8331145882941
 31
0.0
  0
LINE
  5
6836
330
1A
100
AcDbEntity
  8
SEIHIN
100
AcDbLine
 10
1645.723455567076
 20
-461.8331145882941
 30
0.0
 11
1633.343443503677
 21
-461.8331145882941
 31
0.0
  0
LWPOLYLINE
  5
6837
330
1A
100
AcDbEntity
  8
SEIHIN
100
AcDbPolyline
 90
        7
 70
   128
 43
0.0
 10
1633.343443545876
 20
-461.8331146832944
 10
1633.344859156176
 20
-461.8331037402945
 10
1633.441623571676
 20
-461.7800575854942
 10
1633.545439961776
 20
-461.5866359729942
 10
1633.609369668576
 20
-461.3392273370943
 10
1633.640885624476
 20
-461.1024771059945
 10
1633.652493629076
 20
-460.8331146357947
  0
ARC
  5
6838
330
1A
100
AcDbEntity
  8
SEIHIN
100
AcDbCircle
 10
1645.723455567076
 20
-460.8331145882943
 30
0.0
 40
1.0
100
AcDbArc
 50
180.0
 51
270.0
  0
LINE
  5
683A
330
1A
100
AcDbEntity
  8
SEIHIN
100
AcDbLine
 10
1658.646681617376
 20
-474.8331142529943
 30
0.0
 11
1655.423709699177
 21
-474.8331145882944
 31
0.0
  0
LINE
  5
683B
330
1A
100
AcDbEntity
  8
SEIHIN
100
AcDbLine
 10
1668.646798822476
 20
-495.2509105849943
 30
0.0
 11
1668.646798798676
 21
-474.8347496554942
 31
0.0
  0
LINE
  5
683C
330
1A
100
AcDbEntity
  8
SEIHIN
100
AcDbLine
 10
1668.646798822476
 20
-495.2509105849943
 30
0.0
 11
1668.646798822476
 21
-499.8331145882942
 31
0.0
  0
LINE
  5
683D
330
1A
100
AcDbEntity
  8
SEIHIN
100
AcDbLine
 10
1668.646798798676
 20
-474.8331142529943
 30
0.0
 11
1668.646798798676
 21
-462.8331146143943
 31
0.0
  0
LINE
  5
683E
330
1A
100
AcDbEntity
  8
SEIHIN
100
AcDbLine
 10
1668.646798798676
 20
-474.8347496554942
 30
0.0
 11
1668.646789252676
 21
-474.8331142529943
 31
0.0
  0
ELLIPSE
  5
683F
330
1A
100
AcDbEntity
  8
SEIHIN
100
AcDbEllipse
 10
1668.651825089776
 20
-462.8331145882944
 30
0.0
 11
0.0
 21
1.0
 31
0.0
210
0.0
220
0.0
230
1.0
 40
0.0050237332
 41
0.0
 42
1.570796326794897
  0
ELLIPSE
  5
6840
330
1A
100
AcDbEntity
  8
SEIHIN
100
AcDbEllipse
 10
1668.669078286276
 20
-460.8331145882943
 30
0.0
 11
0.0
 21
1.0
 31
0.0
210
0.0
220
0.0
230
1.0
 40
0.0053536066
 41
3.14159265358977
 42
4.71238898038469
  0
LINE
  5
6841
330
1A
100
AcDbEntity
  8
SEIHIN
100
AcDbLine
 10
1668.646789252676
 20
-444.8331149235947
 30
0.0
 11
1658.646675098077
 21
-444.8331149235947
 31
0.0
  0
LINE
  5
6843
330
1A
100
AcDbEntity
  8
SEIHIN
100
AcDbLine
 10
1648.424133702676
 20
-457.8331145882942
 30
0.0
 11
1668.669078275677
 21
-457.8331144932944
 31
0.0
  0
LINE
  5
6845
330
1A
100
AcDbEntity
  8
SEIHIN
100
AcDbLine
 10
1668.646798822477
 20
-419.8331145882945
 30
0.0
 11
1659.113781798077
 21
-419.8331154822945
 31
0.0
  0
LINE
  5
6846
330
1A
100
AcDbEntity
  8
SEIHIN
100
AcDbLine
 10
1658.766140501376
 20
-424.4153194069945
 30
0.0
 11
1658.646681617376
 21
-444.8331149235947
 31
0.0
  0
LINE
  5
6847
330
1A
100
AcDbEntity
  8
SEIHIN
100
AcDbLine
 10
1645.723455567076
 20
-457.8331145882942
 30
0.0
 11
1648.424133702676
 21
-457.8331145882942
 31
0.0
  0
LINE
  5
6848
330
1A
100
AcDbEntity
  8
SEIHIN
100
AcDbLine
 10
1633.343443503677
 20
-457.8331145882942
 30
0.0
 11
1645.723455567076
 21
-457.8331145882942
 31
0.0
  0
LWPOLYLINE
  5
6849
330
1A
100
AcDbEntity
  8
SEIHIN
100
AcDbPolyline
 90
        7
 70
   128
 43
0.0
 10
1633.652493629076
 20
-458.8331145407947
 10
1633.640885624476
 20
-458.5637520706946
 10
1633.609369668576
 20
-458.3270018395943
 10
1633.545439961776
 20
-458.0795932035943
 10
1633.441623571676
 20
-457.8861715911943
 10
1633.344859156176
 20
-457.8331254363943
 10
1633.343443545876
 20
-457.8331144932944
  0
ARC
  5
684A
330
1A
100
AcDbEntity
  8
SEIHIN
100
AcDbCircle
 10
1645.723455567076
 20
-458.8331145882947
 30
0.0
 40
1.0
100
AcDbArc
 50
90.0
 51
180.0
  0
LINE
  5
684C
330
1A
100
AcDbEntity
  8
SEIHIN
100
AcDbLine
 10
1655.423709699177
 20
-444.8331145882945
 30
0.0
 11
1658.646684411376
 21
-444.8331149235947
 31
0.0
  0
ELLIPSE
  5
684D
330
1A
100
AcDbEntity
  8
SEIHIN
100
AcDbEllipse
 10
1659.113781779876
 20
-424.8331145882944
 30
0.0
 11
-0.0000000000000237
 21
-5.0
 31
0.0
210
0.0
220
0.0
230
-1.0
 40
0.0697722611
 41
1.654453069917034
 42
3.14159265358979
  0
LINE
  5
684E
330
1A
100
AcDbEntity
  8
SEIHIN
100
AcDbLine
 10
1668.646798822476
 20
-424.4153185915945
 30
0.0
 11
1668.646798798677
 21
-444.8314795210949
 31
0.0
  0
LINE
  5
684F
330
1A
100
AcDbEntity
  8
SEIHIN
100
AcDbLine
 10
1668.646798798676
 20
-456.8331145621946
 30
0.0
 11
1668.646798798676
 21
-444.8331149235947
 31
0.0
  0
ELLIPSE
  5
6850
330
1A
100
AcDbEntity
  8
SEIHIN
100
AcDbEllipse
 10
1668.651825089776
 20
-456.8331145882947
 30
0.0
 11
0.0
 21
1.0
 31
0.0
210
0.0
220
0.0
230
1.0
 40
0.0050237332
 41
1.570796326794897
 42
3.141592653589767
  0
ELLIPSE
  5
6851
330
1A
100
AcDbEntity
  8
SEIHIN
100
AcDbEllipse
 10
1668.669078286276
 20
-458.8331145882947
 30
0.0
 11
0.0
 21
1.0
 31
0.0
210
0.0
220
0.0
230
1.0
 40
0.0053536066
 41
4.71238898038469
 42
6.283185307179584
  0
LINE
  5
6852
330
1A
100
AcDbEntity
  8
SEIHIN
100
AcDbLine
 10
1668.646789252676
 20
-444.8331149235947
 30
0.0
 11
1668.646798798676
 21
-444.8306608885947
 31
0.0
  0
LINE
  5
6853
330
1A
100
AcDbEntity
  8
SEIHIN
100
AcDbLine
 10
1668.646798822476
 20
-424.4153185915945
 30
0.0
 11
1668.646798822477
 21
-419.8331145882945
 31
0.0
  0
LINE
  5
6854
330
1A
100
AcDbEntity
  8
SEIHIN
100
AcDbLine
 10
1871.43150588593
 20
-600.5311782184569
 30
0.0
 11
1869.43150588593
 21
-600.5311782184569
 31
0.0
  0
LINE
  5
6855
330
1A
100
AcDbEntity
  8
SEIHIN
100
AcDbLine
 10
1871.43150593343
 20
-613.2125343129571
 30
0.0
 11
1869.431505838431
 21
-613.2125343129571
 31
0.0
  0
LINE
  5
6856
330
1A
100
AcDbEntity
  8
SEIHIN
100
AcDbLine
 10
1868.43150588593
 20
-607.416979079057
 30
0.0
 11
1868.43150588593
 21
-605.8517431351569
 31
0.0
  0
LINE
  5
6857
330
1A
100
AcDbEntity
  8
SEIHIN
100
AcDbLine
 10
1855.431505885931
 20
-614.712535065257
 30
0.0
 11
1868.431505790931
 21
-614.7125350244569
 31
0.0
  0
LINE
  5
6858
330
1A
100
AcDbEntity
  8
SEIHIN
100
AcDbLine
 10
1855.431505885931
 20
-615.377710277657
 30
0.0
 11
1855.431505885931
 21
-614.712535065257
 31
0.0
  0
LINE
  5
6859
330
1A
100
AcDbEntity
  8
SEIHIN
100
AcDbLine
 10
1868.431505790931
 20
-614.2781973749569
 30
0.0
 11
1868.43150588593
 21
-606.7056783249568
 31
0.0
  0
ELLIPSE
  5
685A
330
1A
100
AcDbEntity
  8
SEIHIN
100
AcDbEllipse
 10
1869.43150588593
 20
-614.278197304857
 30
0.0
 11
0.0
 21
1.065663007513049
 31
0.0
210
0.0
220
0.0
230
1.0
 40
0.9383829530999999
 41
0.0
 42
1.570796326794897
  0
LINE
  5
685B
330
1A
100
AcDbEntity
  8
SEIHIN
100
AcDbLine
 10
1868.43150588593
 20
-610.7069103085571
 30
0.0
 11
1868.43150588593
 21
-607.926422883657
 31
0.0
  0
LINE
  5
685C
330
1A
100
AcDbEntity
  8
SEIHIN
100
AcDbLine
 10
1868.43150588593
 20
-607.926422883657
 30
0.0
 11
1868.43150588593
 21
-607.0781952857569
 31
0.0
  0
LINE
  5
685D
330
1A
100
AcDbEntity
  8
SEIHIN
100
AcDbLine
 10
1868.43150588593
 20
-607.0781952857569
 30
0.0
 11
1868.43150588593
 21
-606.8153330420569
 31
0.0
  0
LINE
  5
685E
330
1A
100
AcDbEntity
  8
SEIHIN
100
AcDbLine
 10
1868.431505790931
 20
-607.5908190969569
 30
0.0
 11
1868.43150588593
 21
-607.416979079057
 31
0.0
  0
LINE
  5
685F
330
1A
100
AcDbEntity
  8
SEIHIN
100
AcDbLine
 10
1868.43150588593
 20
-606.7056783249568
 30
0.0
 11
1868.43150588593
 21
-606.578924211257
 31
0.0
  0
ARC
  5
6860
330
1A
100
AcDbEntity
  8
SEIHIN
100
AcDbCircle
 10
1869.43150588593
 20
-601.5311782184569
 30
0.0
 40
1.0
100
AcDbArc
 50
90.0
 51
180.0
  0
LINE
  5
6861
330
1A
100
AcDbEntity
  8
SEIHIN
100
AcDbLine
 10
1868.43150588593
 20
-602.1829505532569
 30
0.0
 11
1868.43150588593
 21
-601.5311782184569
 31
0.0
  0
LINE
  5
6862
330
1A
100
AcDbEntity
  8
SEIHIN
100
AcDbLine
 10
1868.43150588593
 20
-602.1982448675569
 30
0.0
 11
1868.43150588593
 21
-602.1829505532569
 31
0.0
  0
LINE
  5
6863
330
1A
100
AcDbEntity
  8
SEIHIN
100
AcDbLine
 10
1868.43150588593
 20
-602.7183743451571
 30
0.0
 11
1868.43150588593
 21
-602.1982448675569
 31
0.0
  0
LINE
  5
6864
330
1A
100
AcDbEntity
  8
SEIHIN
100
AcDbLine
 10
1868.43150588593
 20
-605.8517431351569
 30
0.0
 11
1868.43150588593
 21
-602.7183743451571
 31
0.0
  0
LINE
  5
6865
330
1A
100
AcDbEntity
  8
SEIHIN
100
AcDbLine
 10
1872.431505885931
 20
-605.8517431351569
 30
0.0
 11
1872.431505885931
 21
-607.416979079057
 31
0.0
  0
LINE
  5
6866
330
1A
100
AcDbEntity
  8
SEIHIN
100
AcDbLine
 10
1872.43150598093
 20
-614.7125350244569
 30
0.0
 11
1885.43150588593
 21
-614.712535065257
 31
0.0
  0
LINE
  5
6867
330
1A
100
AcDbEntity
  8
SEIHIN
100
AcDbLine
 10
1872.431505885931
 20
-606.7056783249568
 30
0.0
 11
1872.43150598093
 21
-614.2781973749569
 31
0.0
  0
ELLIPSE
  5
6868
330
1A
100
AcDbEntity
  8
SEIHIN
100
AcDbEllipse
 10
1871.43150588593
 20
-614.278197304857
 30
0.0
 11
0.0
 21
1.065663007513024
 31
0.0
210
0.0
220
0.0
230
1.0
 40
0.9383829530999999
 41
4.712388980384702
 42
6.283185307179584
  0
LINE
  5
6869
330
1A
100
AcDbEntity
  8
SEIHIN
100
AcDbLine
 10
1872.431505885931
 20
-607.926422883657
 30
0.0
 11
1872.431505885931
 21
-610.7069103085571
 31
0.0
  0
LINE
  5
686A
330
1A
100
AcDbEntity
  8
SEIHIN
100
AcDbLine
 10
1872.431505885931
 20
-607.0781952857569
 30
0.0
 11
1872.431505885931
 21
-607.926422883657
 31
0.0
  0
LINE
  5
686B
330
1A
100
AcDbEntity
  8
SEIHIN
100
AcDbLine
 10
1872.431505885931
 20
-606.8153330420569
 30
0.0
 11
1872.431505885931
 21
-607.0781952857569
 31
0.0
  0
LINE
  5
686C
330
1A
100
AcDbEntity
  8
SEIHIN
100
AcDbLine
 10
1872.431505885931
 20
-607.416979079057
 30
0.0
 11
1872.43150598093
 21
-607.5908190969569
 31
0.0
  0
LINE
  5
686D
330
1A
100
AcDbEntity
  8
SEIHIN
100
AcDbLine
 10
1872.431505885931
 20
-606.578924211257
 30
0.0
 11
1872.431505885931
 21
-606.7056783249568
 31
0.0
  0
LINE
  5
686E
330
1A
100
AcDbEntity
  8
SEIHIN
100
AcDbLine
 10
1885.43150588593
 20
-614.712535065257
 30
0.0
 11
1885.43150588593
 21
-615.377710277657
 31
0.0
  0
ARC
  5
686F
330
1A
100
AcDbEntity
  8
SEIHIN
100
AcDbCircle
 10
1871.43150588593
 20
-601.5311782184569
 30
0.0
 40
1.0
100
AcDbArc
 50
0.0
 51
90.0
  0
LINE
  5
6870
330
1A
100
AcDbEntity
  8
SEIHIN
100
AcDbLine
 10
1872.431505885931
 20
-601.5311782184569
 30
0.0
 11
1872.431505885931
 21
-602.1829505532569
 31
0.0
  0
LINE
  5
6871
330
1A
100
AcDbEntity
  8
SEIHIN
100
AcDbLine
 10
1872.431505885931
 20
-602.1829505532569
 30
0.0
 11
1872.431505885931
 21
-602.1982448675569
 31
0.0
  0
LINE
  5
6872
330
1A
100
AcDbEntity
  8
SEIHIN
100
AcDbLine
 10
1872.431505885931
 20
-602.1982448675569
 30
0.0
 11
1872.431505885931
 21
-602.7183743451571
 31
0.0
  0
LINE
  5
6873
330
1A
100
AcDbEntity
  8
SEIHIN
100
AcDbLine
 10
1872.431505885931
 20
-602.7183743451571
 30
0.0
 11
1872.431505885931
 21
-605.8517431351569
 31
0.0
  0
LINE
  5
6A12
330
1A
100
AcDbEntity
  8
CENTER_L
  6
CENTER
 62
     1
 48
5.0
100
AcDbLine
 10
1678.938459618832
 20
-459.8331145882947
 30
0.0
 11
1514.853665839103
 21
-459.8331145882947
 31
0.0
  0
LINE
  5
6A13
330
1A
100
AcDbEntity
  8
CENTER_L
  6
CENTER
 62
     1
 48
5.0
100
AcDbLine
 10
1678.938459618832
 20
-427.8331145882947
 30
0.0
 11
1649.03251062412
 21
-427.8331145882947
 31
0.0
  0
LINE
  5
6A14
330
1A
100
AcDbEntity
  8
CENTER_L
  6
CENTER
 62
     1
 48
5.0
100
AcDbLine
 10
1678.938459618832
 20
-491.8331145882947
 30
0.0
 11
1649.03251062412
 21
-491.8331145882947
 31
0.0
  0
DIMENSION
  5
6A94
330
1A
100
AcDbEntity
  8
SUNPOU
100
AcDbDimension
  2
*D20
 10
1701.868910368164
 20
-499.8331145882942
 30
0.0
 11
1696.868910368164
 21
-459.8331145882941
 31
0.0
 70
    32
  3
STANDARD
100
AcDbAlignedDimension
 13
1668.646798822477
 23
-419.8331145882945
 33
0.0
 14
1668.646798822476
 24
-499.8331145882942
 34
0.0
 50
90.0
100
AcDbRotatedDimension
1001
ACAD
1000
DSTYLE
1002
{
1070
    41
1040
7.0
1070
    42
1040
6.0
1070
    43
1040
14.0
1070
    44
1040
3.0
1070
    73
1070
     0
1070
    74
1070
     0
1070
    77
1070
     3
1070
   140
1040
6.0
1070
   141
1040
150.0
1070
   147
1040
2.0
1070
   172
1070
     1
1070
   173
1070
     1
1070
   176
1070
   256
1070
   177
1070
   256
1070
   178
1070
   256
1070
   271
1070
     0
1070
   272
1070
     0
1070
   341
1005
6D
1070
     6
1000
OPEN
1070
     7
1000
OPEN
1070
   371
1070
    -1
1070
   372
1070
    -1
1002
}
  0
LINE
  5
6C92
330
1A
100
AcDbEntity
  8
CENTER_L
  6
CENTER
 62
     1
 48
5.0
100
AcDbLine
 10
1838.431505885931
 20
-637.4443527938681
 30
0.0
 11
1838.431505885931
 21
-630.115297909434
 31
0.0
  0
LINE
  5
6C93
330
1A
100
AcDbEntity
  8
CENTER_L
  6
CENTER
 62
     1
 48
5.0
100
AcDbLine
 10
1842.163323937206
 20
-633.7125352120945
 30
0.0
 11
1834.264845306864
 21
-633.7125352120945
 31
0.0
  0
LINE
  5
6C94
330
1A
100
AcDbEntity
  8
CENTER_L
  6
CENTER
 62
     1
 48
5.0
100
AcDbLine
 10
1874.132485000305
 20
-682.7125352120942
 30
0.0
 11
1866.234006369964
 21
-682.7125352120942
 31
0.0
  0
LINE
  5
6C95
330
1A
100
AcDbEntity
  8
CENTER_L
  6
CENTER
 62
     1
 48
5.0
100
AcDbLine
 10
1870.40066694903
 20
-686.4443527938679
 30
0.0
 11
1870.40066694903
 21
-679.1152979094338
 31
0.0
  0
LINE
  5
6C96
330
1A
100
AcDbEntity
  8
CENTER_L
  6
CENTER
 62
     1
 48
5.0
100
AcDbLine
 10
1678.938459618832
 20
-633.7125352120945
 30
0.0
 11
1649.03251062412
 21
-633.7125352120944
 31
0.0
  0
LINE
  5
6C97
330
1A
100
AcDbEntity
  8
CENTER_L
  6
CENTER
 62
     1
 48
5.0
100
AcDbLine
 10
1678.938459618832
 20
-682.7125352120944
 30
0.0
 11
1649.03251062412
 21
-682.7125352120942
 31
0.0
  0
DIMENSION
  5
6E90
330
1A
100
AcDbEntity
  8
SUNPOU
100
AcDbDimension
  2
*D21
 10
1784.380592217853
 20
-691.7126377512568
 30
0.0
 11
1779.380592217854
 21
-655.2125863664565
 31
0.0
 70
    32
  3
STANDARD
100
AcDbAlignedDimension
 13
1855.431514551053
 23
-618.7125349816569
 33
0.0
 14
1870.43150588593
 24
-691.7126377512569
 34
0.0
 50
90.0
100
AcDbRotatedDimension
1001
ACAD
1000
DSTYLE
1002
{
1070
   287
1070
     5
1070
    41
1040
7.0
1070
    42
1040
6.0
1070
    43
1040
14.0
1070
    44
1040
3.0
1070
    73
1070
     0
1070
    74
1070
     0
1070
    77
1070
     3
1070
   140
1040
6.0
1070
   141
1040
150.0
1070
   147
1040
2.0
1070
   172
1070
     1
1070
   173
1070
     1
1070
   176
1070
   256
1070
   177
1070
   256
1070
   178
1070
   256
1070
   271
1070
     0
1070
   272
1070
     0
1070
   279
1070
     2
1070
   341
1005
6D
1070
     6
1000
OPEN
1070
     7
1000
OPEN
1070
   371
1070
    -1
1070
   372
1070
    -1
1002
}
  0
LEADER
  5
6EAA
330
1A
100
AcDbEntity
  8
SUNPOU
100
AcDbLeader
  3
STANDARD
 40
6.0
 41
31.19999999999999
 76
     3
 10
1872.57048153165
 20
-683.752508317786
 30
0.0
 10
1898.701925929182
 20
-728.8047141288351
 30
0.0
 10
1934.448329327795
 20
-728.8047141288351
 30
0.0
211
-1.0
221
0.0000000000000001
231
0.0
213
-0.0000000000000004
223
-3.0
233
0.0
1001
ACAD
1000
DSTYLE
1002
{
1070
     6
1000
OPEN
1070
    41
1040
7.0
1070
    42
1040
6.0
1070
    43
1040
14.0
1070
    44
1040
3.0
1070
    73
1070
     0
1070
    74
1070
     0
1070
    77
1070
     0
1070
   140
1040
6.0
1070
   141
1040
150.0
1070
   147
1040
2.0
1070
   172
1070
     1
1070
   173
1070
     1
1070
   176
1070
   256
1070
   177
1070
   256
1070
   178
1070
   256
1070
   271
1070
     0
1070
   272
1070
     0
1070
   341
1005
6D
1070
   343
1005
6D
1070
   344
1005
6D
1070
   371
1070
    -1
1070
   372
1070
    -1
1002
}
  0
TEXT
  5
6EAB
330
1A
100
AcDbEntity
  8
SUNPOU
100
AcDbText
 10
1900.838286356172
 20
-725.9963148377858
 30
0.0
 40
6.0
  1
3-φ4.2
100
AcDbText
  0
LINE
  5
6ECB
330
1A
100
AcDbEntity
  8
CENTER_L
  6
CENTER
 62
     1
 48
5.0
100
AcDbLine
 10
1870.431505885931
 20
-591.7491585909326
 30
0.0
 11
1870.431505885931
 21
-703.39114253923
 31
0.0
  0
TEXT
  5
70D9
330
1A
100
AcDbEntity
  8
MOJI
100
AcDbText
 10
1976.820881568607
 20
-812.0627514570573
 30
0.0
 40
5.599999999999998
  1
※ＶＭ１２０には使用できません
 41
0.9
  7
ｽﾀｲﾙ1
100
AcDbText
  0
DIMENSION
  5
70F7
330
1A
100
AcDbEntity
  8
SUNPOU
100
AcDbDimension
  2
*D23
 10
1580.829378759604
 20
-621.712535065257
 30
0.0
 11
1575.829378759604
 21
-612.4540091197912
 31
0.0
 70
    32
  3
STANDARD
100
AcDbAlignedDimension
 13
1546.835686901933
 23
-603.1954831743259
 33
0.0
 14
1546.184710310575
 24
-621.712535065257
 34
0.0
 50
90.0
100
AcDbRotatedDimension
1001
ACAD
1000
DSTYLE
1002
{
1070
   287
1070
     5
1070
    41
1040
7.0
1070
    42
1040
6.0
1070
    43
1040
14.0
1070
    44
1040
3.0
1070
    73
1070
     0
1070
    74
1070
     0
1070
    77
1070
     3
1070
   140
1040
6.0
1070
   141
1040
150.0
1070
   147
1040
2.0
1070
   172
1070
     1
1070
   173
1070
     1
1070
   176
1070
   256
1070
   177
1070
   256
1070
   178
1070
   256
1070
   271
1070
     0
1070
   272
1070
     0
1070
   279
1070
     2
1070
   341
1005
6D
1070
     6
1000
OPEN
1070
     7
1000
OPEN
1070
   371
1070
    -1
1070
   372
1070
    -1
1002
}
  0
ARC
  5
7105
330
1A
100
AcDbEntity
  8
SEIHIN
100
AcDbCircle
 10
1535.702354467772
 20
-621.0415443357162
 30
0.0
 40
9.456920455881867
100
AcDbArc
 50
137.9910774962899
 51
222.0088864641711
  0
VIEWPORT
  5
22
330
17
100
AcDbEntity
 67
     1
  8
0
100
AcDbViewport
 10
313.6808219178082
 20
148.5
 30
0.0
 40
627.3616438356165
 41
297.0
 68
     2
 69
     1
1001
ACAD
1000
MVIEW
1002
{
1070
    16
1010
0.0
1020
0.0
1030
0.0
1010
0.0
1020
0.0
1030
1.0
1040
0.0
1040
297.0
1040
313.6808219178082
1040
148.5
1040
50.0
1040
0.0
1040
0.0
1070
     0
1070
   100
1070
     1
1070
     0
1070
     0
1070
     0
1070
     0
1070
     0
1040
0.0
1040
0.0
1040
0.0
1040
1.0
1040
1.0
1040
10.0
1040
10.0
1070
     0
1002
{
1002
}
1002
}
  0
VIEWPORT
  5
64
330
17
100
AcDbEntity
 67
     1
  8
VIEWPORT
100
AcDbViewport
 10
210.0
 20
148.5
 30
0.0
 40
420.0
 41
297.0
 68
     1
 69
     2
1001
ACAD
1000
MVIEW
1002
{
1070
    16
1010
0.0
1020
0.0
1030
0.0
1010
0.0
1020
0.0
1030
1.0
1040
0.0
1040
605.8799999999997
1040
420.0
1040
297.0
1040
50.0
1040
0.0
1040
0.0
1070
     0
1070
   100
1070
     1
1070
     0
1070
     0
1070
     0
1070
     0
1070
     0
1040
0.0
1040
0.0
1040
0.0
1040
10.0
1040
10.0
1040
0.0
1040
0.0
1070
     0
1002
{
1002
}
1002
}
  0
ENDSEC
  0
SECTION
  2
OBJECTS
  0
DICTIONARY
  5
C
330
0
100
AcDbDictionary
  3
ACAD_GROUP
350
D
  3
ACAD_LAYOUT
350
85F
  3
ACAD_MLINESTYLE
350
E
  3
ACAD_PLOTSETTINGS
350
860
  3
ACAD_PLOTSTYLENAME
350
85D
  3
ACDBHEADERROUNDTRIPXREC
350
7108
  0
DICTIONARY
  5
4C3C
330
2
100
AcDbDictionary
280
     1
  3
ACAD_LAYERFILTERS
360
4C3D
  0
DICTIONARY
  5
88E
330
1A
100
AcDbDictionary
280
     1
  3
ACAD_LAYOUTSELFREF
360
712A
  0
DICTIONARY
  5
88C
330
17
100
AcDbDictionary
280
     1
  3
ACAD_LAYOUTSELFREF
360
7129
  0
DICTIONARY
  5
D
102
{ACAD_REACTORS
330
C
102
}
330
C
100
AcDbDictionary
  3
*A1
350
2006
  3
*A2
350
356D
  3
*A3
350
35A3
  3
*A4
350
4E20
  3
*A5
350
5721
  3
*A6
350
5C7B
  3
*A7
350
6282
  0
DICTIONARY
  5
85F
102
{ACAD_REACTORS
330
C
102
}
330
C
100
AcDbDictionary
  0
DICTIONARY
  5
E
102
{ACAD_REACTORS
330
C
102
}
330
C
100
AcDbDictionary
  3
STANDARD
350
13
  0
DICTIONARY
  5
860
102
{ACAD_REACTORS
330
C
102
}
330
C
100
AcDbDictionary
  0
ACDBDICTIONARYWDFLT
  5
85D
102
{ACAD_REACTORS
330
C
102
}
330
C
100
AcDbDictionary
281
     1
  3
Normal
350
85E
100
AcDbDictionaryWithDefault
340
85E
1001
ACAD
1000
TREAT_AS_HARD
1070
     0
1000
TREAT_AS_HARD
1070
     0
1000
TREAT_AS_HARD
1070
     0
1000
TREAT_AS_HARD
1070
     0
1000
TREAT_AS_HARD
1070
     0
1000
TREAT_AS_HARD
1070
     0
1000
TREAT_AS_HARD
1070
     0
1000
TREAT_AS_HARD
1070
     0
1000
TREAT_AS_HARD
1070
     0
  0
DICTIONARY
  5
7108
102
{ACAD_REACTORS
330
C
102
}
330
C
100
AcDbDictionary
  3
TSTACKALIGN
350
7109
  3
TSTACKSIZE
350
710A
  3
HYPERLINKBASE
350
710B
  3
STYLESHEET
350
710C
  3
LAYOUTDICT
350
710D
  3
PLOTSETDICT
350
710E
  3
PLOTSTYLNAMDICT
350
710F
  3
LWETCUNION
350
7110
  3
INSUNITS
350
7111
  3
CEPSNTYPE
350
7112
  3
FINGERPRINTGUID
350
7113
  3
VERSIONGUID
350
7114
  3
PSVPSCALE
350
7115
  3
DIMSTYLEDATA
350
7116
  3
PUCSORTHOREF
350
7117
  3
PUCSORTHOVIEW
350
7118
  3
PUCSBASE
350
7119
  3
PUCSORGTOP
350
711A
  3
PUCSORGBOTTOM
350
711B
  3
PUCSORGLEFT
350
711C
  3
PUCSORGRIGHT
350
711D
  3
PUCSORGFRONT
350
711E
  3
PUCSORGBACK
350
711F
  3
UCSORTHOREF
350
7120
  3
UCSORTHOVIEW
350
7121
  3
UCSBASE
350
7122
  3
UCSORGTOP
350
7123
  3
UCSORGBOTTOM
350
7124
  3
UCSORGLEFT
350
7125
  3
UCSORGRIGHT
350
7126
  3
UCSORGFRONT
350
7127
  3
UCSORGBACK
350
7128
  0
DICTIONARY
  5
4C3D
102
{ACAD_REACTORS
330
4C3C
102
}
330
4C3C
100
AcDbDictionary
280
     1
  3
50
360
4C3E
  0
XRECORD
  5
712A
102
{ACAD_REACTORS
330
88E
102
}
330
88E
100
AcDbXrecord
340
1A
  0
XRECORD
  5
7129
102
{ACAD_REACTORS
330
88C
102
}
330
88C
100
AcDbXrecord
340
17
  0
GROUP
  5
2006
102
{ACAD_REACTORS
330
D
102
}
330
D
100
AcDbGroup
300

 70
     1
 71
     1
  0
GROUP
  5
356D
102
{ACAD_REACTORS
330
D
102
}
330
D
100
AcDbGroup
300

 70
     1
 71
     1
  0
GROUP
  5
35A3
102
{ACAD_REACTORS
330
D
102
}
330
D
100
AcDbGroup
300

 70
     1
 71
     1
  0
GROUP
  5
4E20
102
{ACAD_REACTORS
330
D
102
}
330
D
100
AcDbGroup
300

 70
     1
 71
     1
  0
GROUP
  5
5721
102
{ACAD_REACTORS
330
D
102
}
330
D
100
AcDbGroup
300

 70
     1
 71
     1
  0
GROUP
  5
5C7B
102
{ACAD_REACTORS
330
D
102
}
330
D
100
AcDbGroup
300

 70
     1
 71
     1
  0
GROUP
  5
6282
102
{ACAD_REACTORS
330
D
102
}
330
D
100
AcDbGroup
300

 70
     1
 71
     1
340
6280
340
6281
340
627F
  0
MLINESTYLE
  5
13
102
{ACAD_REACTORS
330
E
102
}
330
E
100
AcDbMlineStyle
  2
STANDARD
 70
     0
  3

 62
     0
 51
90.0
 52
90.0
 71
     2
 49
0.5
 62
   256
  6
BYLAYER
 49
-0.5
 62
   256
  6
BYLAYER
  0
ACDBPLACEHOLDER
  5
85E
102
{ACAD_REACTORS
330
85D
102
}
330
85D
100
AcDbPlaceHolder
280
     0
  0
XRECORD
  5
7109
102
{ACAD_REACTORS
330
7108
102
}
330
7108
100
AcDbXrecord
 90
        1
  0
XRECORD
  5
710A
102
{ACAD_REACTORS
330
7108
102
}
330
7108
100
AcDbXrecord
 90
       70
  0
XRECORD
  5
710B
102
{ACAD_REACTORS
330
7108
102
}
330
7108
100
AcDbXrecord
  1

  0
XRECORD
  5
710C
102
{ACAD_REACTORS
330
7108
102
}
330
7108
100
AcDbXrecord
  1
systemprinter.ctb
  0
XRECORD
  5
710D
102
{ACAD_REACTORS
330
7108
102
}
330
7108
100
AcDbXrecord
340
85F
  0
XRECORD
  5
710E
102
{ACAD_REACTORS
330
7108
102
}
330
7108
100
AcDbXrecord
340
860
  0
XRECORD
  5
710F
102
{ACAD_REACTORS
330
7108
102
}
330
7108
100
AcDbXrecord
340
85D
  0
XRECORD
  5
7110
102
{ACAD_REACTORS
330
7108
102
}
330
7108
100
AcDbXrecord
 90
    10781
  0
XRECORD
  5
7111
102
{ACAD_REACTORS
330
7108
102
}
330
7108
100
AcDbXrecord
 90
        0
  0
XRECORD
  5
7112
102
{ACAD_REACTORS
330
7108
102
}
330
7108
100
AcDbXrecord
 90
        0
  0
XRECORD
  5
7113
102
{ACAD_REACTORS
330
7108
102
}
330
7108
100
AcDbXrecord
  1
{FF3C30AF-89FB-45B1-9067-596B98B489D4}
  0
XRECORD
  5
7114
102
{ACAD_REACTORS
330
7108
102
}
330
7108
100
AcDbXrecord
  1
{3ED8EF88-4C09-4456-8282-8566C487D9D9}
  0
XRECORD
  5
7115
102
{ACAD_REACTORS
330
7108
102
}
330
7108
100
AcDbXrecord
 40
0.0
  0
XRECORD
  5
7116
102
{ACAD_REACTORS
330
7108
102
}
330
7108
100
AcDbXrecord
1000
DSTYLE
1002
{
1070
   279
 70
     2
1070
   341
340
6D
1070
   343
340
6D
1070
   344
340
6D
1070
   371
 70
    -1
1070
   372
 70
    -1
1002
}
  0
XRECORD
  5
7117
102
{ACAD_REACTORS
330
7108
102
}
330
7108
100
AcDbXrecord
340
0
  0
XRECORD
  5
7118
102
{ACAD_REACTORS
330
7108
102
}
330
7108
100
AcDbXrecord
 70
     0
  0
XRECORD
  5
7119
102
{ACAD_REACTORS
330
7108
102
}
330
7108
100
AcDbXrecord
340
0
  0
XRECORD
  5
711A
102
{ACAD_REACTORS
330
7108
102
}
330
7108
100
AcDbXrecord
 10
0.0
 20
0.0
 30
0.0
  0
XRECORD
  5
711B
102
{ACAD_REACTORS
330
7108
102
}
330
7108
100
AcDbXrecord
 10
0.0
 20
0.0
 30
0.0
  0
XRECORD
  5
711C
102
{ACAD_REACTORS
330
7108
102
}
330
7108
100
AcDbXrecord
 10
0.0
 20
0.0
 30
0.0
  0
XRECORD
  5
711D
102
{ACAD_REACTORS
330
7108
102
}
330
7108
100
AcDbXrecord
 10
0.0
 20
0.0
 30
0.0
  0
XRECORD
  5
711E
102
{ACAD_REACTORS
330
7108
102
}
330
7108
100
AcDbXrecord
 10
0.0
 20
0.0
 30
0.0
  0
XRECORD
  5
711F
102
{ACAD_REACTORS
330
7108
102
}
330
7108
100
AcDbXrecord
 10
0.0
 20
0.0
 30
0.0
  0
XRECORD
  5
7120
102
{ACAD_REACTORS
330
7108
102
}
330
7108
100
AcDbXrecord
340
0
  0
XRECORD
  5
7121
102
{ACAD_REACTORS
330
7108
102
}
330
7108
100
AcDbXrecord
 70
     0
  0
XRECORD
  5
7122
102
{ACAD_REACTORS
330
7108
102
}
330
7108
100
AcDbXrecord
340
0
  0
XRECORD
  5
7123
102
{ACAD_REACTORS
330
7108
102
}
330
7108
100
AcDbXrecord
 10
0.0
 20
0.0
 30
0.0
  0
XRECORD
  5
7124
102
{ACAD_REACTORS
330
7108
102
}
330
7108
100
AcDbXrecord
 10
0.0
 20
0.0
 30
0.0
  0
XRECORD
  5
7125
102
{ACAD_REACTORS
330
7108
102
}
330
7108
100
AcDbXrecord
 10
0.0
 20
0.0
 30
0.0
  0
XRECORD
  5
7126
102
{ACAD_REACTORS
330
7108
102
}
330
7108
100
AcDbXrecord
 10
0.0
 20
0.0
 30
0.0
  0
XRECORD
  5
7127
102
{ACAD_REACTORS
330
7108
102
}
330
7108
100
AcDbXrecord
 10
0.0
 20
0.0
 30
0.0
  0
XRECORD
  5
7128
102
{ACAD_REACTORS
330
7108
102
}
330
7108
100
AcDbXrecord
 10
0.0
 20
0.0
 30
0.0
  0
XRECORD
  5
4C3E
102
{ACAD_REACTORS
330
4C3D
102
}
330
4C3D
100
AcDbXrecord
  1
50
  1
*-50
  1
*
  1
*
 70
     0
  1
*
  1
*
  0
ENDSEC
  0
EOF
