  0
SECTION
  2
HEADER
  9
$ACADVER
  1
AC1014
  9
$ACADMAINTVER
 70
     9
  9
$DWGCODEPAGE
  3
ANSI_932
  9
$INSBASE
 10
0.0
 20
0.0
 30
0.0
  9
$EXTMIN
 10
1289.27191455992
 20
-851.4094829814336
 30
-0.00000001
  9
$EXTMAX
 10
2086.871914559921
 20
-299.8094829814334
 30
0.00000001
  9
$LIMMIN
 10
0.0
 20
0.0
  9
$LIMMAX
 10
840.0
 20
594.0
  9
$ORTHOMODE
 70
     1
  9
$REGENMODE
 70
     1
  9
$FILLMODE
 70
     1
  9
$QTEXTMODE
 70
     0
  9
$MIRRTEXT
 70
     1
  9
$DRAGMODE
 70
     2
  9
$LTSCALE
 40
2.0
  9
$OSMODE
 70
    35
  9
$ATTMODE
 70
     1
  9
$TEXTSIZE
 40
5.0
  9
$TRACEWID
 40
1.0
  9
$TEXTSTYLE
  7
STANDARD
  9
$CLAYER
  8
SUNPOU
  9
$CELTYPE
  6
BYLAYER
  9
$CECOLOR
 62
   256
  9
$CELTSCALE
 40
1.0
  9
$DELOBJ
 70
     1
  9
$DISPSILH
 70
     0
  9
$DIMSCALE
 40
1.0
  9
$DIMASZ
 40
7.0
  9
$DIMEXO
 40
6.0
  9
$DIMDLI
 40
14.0
  9
$DIMRND
 40
0.0
  9
$DIMDLE
 40
0.0
  9
$DIMEXE
 40
3.0
  9
$DIMTP
 40
0.0
  9
$DIMTM
 40
0.0
  9
$DIMTXT
 40
6.0
  9
$DIMCEN
 40
150.0
  9
$DIMTSZ
 40
0.0
  9
$DIMTOL
 70
     0
  9
$DIMLIM
 70
     0
  9
$DIMTIH
 70
     0
  9
$DIMTOH
 70
     0
  9
$DIMSE1
 70
     0
  9
$DIMSE2
 70
     0
  9
$DIMTAD
 70
     3
  9
$DIMZIN
 70
     0
  9
$DIMBLK
  1

  9
$DIMASO
 70
     1
  9
$DIMSHO
 70
     1
  9
$DIMPOST
  1

  9
$DIMAPOST
  1

  9
$DIMALT
 70
     0
  9
$DIMALTD
 70
     2
  9
$DIMALTF
 40
25.4
  9
$DIMLFAC
 40
1.0
  9
$DIMTOFL
 70
     1
  9
$DIMTVP
 40
0.0
  9
$DIMTIX
 70
     0
  9
$DIMSOXD
 70
     0
  9
$DIMSAH
 70
     1
  9
$DIMBLK1
  1
OPEN
  9
$DIMBLK2
  1
OPEN
  9
$DIMSTYLE
  2
STANDARD
  9
$DIMCLRD
 70
   256
  9
$DIMCLRE
 70
   256
  9
$DIMCLRT
 70
   256
  9
$DIMTFAC
 40
1.0
  9
$DIMGAP
 40
2.0
  9
$DIMJUST
 70
     0
  9
$DIMSD1
 70
     0
  9
$DIMSD2
 70
     0
  9
$DIMTOLJ
 70
     1
  9
$DIMTZIN
 70
     0
  9
$DIMALTZ
 70
     0
  9
$DIMALTTZ
 70
     0
  9
$DIMFIT
 70
     5
  9
$DIMUPT
 70
     0
  9
$DIMUNIT
 70
     2
  9
$DIMDEC
 70
     0
  9
$DIMTDEC
 70
     0
  9
$DIMALTU
 70
     2
  9
$DIMALTTD
 70
     2
  9
$DIMTXSTY
  7
STANDARD
  9
$DIMAUNIT
 70
     0
  9
$LUNITS
 70
     2
  9
$LUPREC
 70
     4
  9
$SKETCHINC
 40
1.0
  9
$FILLETRAD
 40
0.1
  9
$AUNITS
 70
     0
  9
$AUPREC
 70
     0
  9
$MENU
  1
.
  9
$ELEVATION
 40
0.0
  9
$PELEVATION
 40
0.0
  9
$THICKNESS
 40
0.0
  9
$LIMCHECK
 70
     0
  9
$BLIPMODE
 70
     0
  9
$CHAMFERA
 40
0.0
  9
$CHAMFERB
 40
0.0
  9
$CHAMFERC
 40
40.0
  9
$CHAMFERD
 40
0.0
  9
$SKPOLY
 70
     0
  9
$TDCREATE
 40
2451029.942521990
  9
$TDUPDATE
 40
2455173.590150520
  9
$TDINDWG
 40
0.2381993750
  9
$TDUSRTIMER
 40
0.2381988310
  9
$USRTIMER
 70
     1
  9
$ANGBASE
 50
0.0
  9
$ANGDIR
 70
     0
  9
$PDMODE
 70
     0
  9
$PDSIZE
 40
0.0
  9
$PLINEWID
 40
0.0
  9
$COORDS
 70
     0
  9
$SPLFRAME
 70
     0
  9
$SPLINETYPE
 70
     6
  9
$SPLINESEGS
 70
     8
  9
$ATTDIA
 70
     0
  9
$ATTREQ
 70
     1
  9
$HANDLING
 70
 10241
  9
$HANDSEED
  5
7E37
  9
$SURFTAB1
 70
     6
  9
$SURFTAB2
 70
     6
  9
$SURFTYPE
 70
     6
  9
$SURFU
 70
     6
  9
$SURFV
 70
     6
  9
$UCSNAME
  2

  9
$UCSORG
 10
0.0
 20
0.0
 30
0.0
  9
$UCSXDIR
 10
1.0
 20
0.0
 30
0.0
  9
$UCSYDIR
 10
0.0
 20
1.0
 30
0.0
  9
$PUCSNAME
  2

  9
$PUCSORG
 10
0.0
 20
0.0
 30
0.0
  9
$PUCSXDIR
 10
1.0
 20
0.0
 30
0.0
  9
$PUCSYDIR
 10
0.0
 20
1.0
 30
0.0
  9
$USERI1
 70
     0
  9
$USERI2
 70
     0
  9
$USERI3
 70
     0
  9
$USERI4
 70
     0
  9
$USERI5
 70
     0
  9
$USERR1
 40
0.0
  9
$USERR2
 40
0.0
  9
$USERR3
 40
0.0
  9
$USERR4
 40
0.0
  9
$USERR5
 40
0.0
  9
$WORLDVIEW
 70
     1
  9
$SHADEDGE
 70
     3
  9
$SHADEDIF
 70
    70
  9
$TILEMODE
 70
     1
  9
$MAXACTVP
 70
    16
  9
$PINSBASE
 10
0.0
 20
0.0
 30
0.0
  9
$PLIMCHECK
 70
     0
  9
$PEXTMIN
 10
0.0
 20
0.0
 30
0.0
  9
$PEXTMAX
 10
420.0
 20
297.0
 30
0.0
  9
$PLIMMIN
 10
0.0
 20
0.0
  9
$PLIMMAX
 10
420.0
 20
297.0
  9
$UNITMODE
 70
     0
  9
$VISRETAIN
 70
     0
  9
$PLINEGEN
 70
     0
  9
$PSLTSCALE
 70
     1
  9
$TREEDEPTH
 70
  3020
  9
$PICKSTYLE
 70
     1
  9
$CMLSTYLE
  2
STANDARD
  9
$CMLJUST
 70
     0
  9
$CMLSCALE
 40
1.0
  9
$PROXYGRAPHICS
 70
     1
  9
$MEASUREMENT
 70
     1
  0
ENDSEC
  0
SECTION
  2
CLASSES
  0
CLASS
  1
ACDBDICTIONARYWDFLT
  2
AcDbDictionaryWithDefault
  3
AutoCAD 2000
 90
        0
280
     0
281
     0
  0
CLASS
  1
ACDBPLACEHOLDER
  2
AcDbPlaceHolder
  3
AutoCAD 2000
 90
        0
280
     0
281
     0
  0
CLASS
  1
LAYOUT
  2
AcDbLayout
  3
AutoCAD 2000
 90
        0
280
     0
281
     0
  0
CLASS
  1
LONG_TRANSACTION
  2
AcDbLongTransaction
  3
AutoCAD 2000
 90
        0
280
     0
281
     0
  0
CLASS
  1
LWPOLYLINE
  2
AcDbPolyline
  3
AutoCAD 2000
 90
        0
280
     0
281
     1
  0
CLASS
  1
HATCH
  2
AcDbHatch
  3
AutoCAD 2000
 90
        0
280
     0
281
     1
  0
CLASS
  1
XRECORD
  2
AcDbXrecord
  3
AutoCAD 2000
 90
        0
280
     0
281
     0
  0
CLASS
  1
LONG_TRANSACTION
  2
AcDbLongTransaction
  3
AutoCAD 2000
 90
        0
280
     0
281
     0
  0
CLASS
  1
LWPOLYLINE
  2
AcDbPolyline
  3
AutoCAD 2000
 90
        0
280
     0
281
     1
  0
CLASS
  1
HATCH
  2
AcDbHatch
  3
AutoCAD 2000
 90
        0
280
     0
281
     1
  0
CLASS
  1
XRECORD
  2
AcDbXrecord
  3
AutoCAD 2000
 90
        0
280
     0
281
     0
  0
CLASS
  1
LONG_TRANSACTION
  2
AcDbLongTransaction
  3
AutoCAD 2000
 90
        0
280
     0
281
     0
  0
CLASS
  1
LWPOLYLINE
  2
AcDbPolyline
  3
AutoCAD 2000
 90
        0
280
     0
281
     1
  0
CLASS
  1
HATCH
  2
AcDbHatch
  3
AutoCAD 2000
 90
        0
280
     0
281
     1
  0
CLASS
  1
XRECORD
  2
AcDbXrecord
  3
AutoCAD 2000
 90
        0
280
     0
281
     0
  0
CLASS
  1
LONG_TRANSACTION
  2
AcDbLongTransaction
  3
AutoCAD 2000
 90
        0
280
     0
281
     0
  0
CLASS
  1
LWPOLYLINE
  2
AcDbPolyline
  3
AutoCAD 2000
 90
        0
280
     0
281
     1
  0
CLASS
  1
HATCH
  2
AcDbHatch
  3
AutoCAD 2000
 90
        0
280
     0
281
     1
  0
CLASS
  1
XRECORD
  2
AcDbXrecord
  3
AutoCAD 2000
 90
        0
280
     0
281
     0
  0
CLASS
  1
LONG_TRANSACTION
  2
AcDbLongTransaction
  3
AutoCAD 2000
 90
        0
280
     0
281
     0
  0
CLASS
  1
LWPOLYLINE
  2
AcDbPolyline
  3
AutoCAD 2000
 90
        0
280
     0
281
     1
  0
CLASS
  1
HATCH
  2
AcDbHatch
  3
AutoCAD 2000
 90
        0
280
     0
281
     1
  0
CLASS
  1
XRECORD
  2
AcDbXrecord
  3
AutoCAD 2000
 90
        0
280
     0
281
     0
  0
CLASS
  1
LONG_TRANSACTION
  2
AcDbLongTransaction
  3
AutoCAD 2000
 90
        0
280
     0
281
     0
  0
CLASS
  1
LWPOLYLINE
  2
AcDbPolyline
  3
AutoCAD 2000
 90
        0
280
     0
281
     1
  0
CLASS
  1
HATCH
  2
AcDbHatch
  3
AutoCAD 2000
 90
        0
280
     0
281
     1
  0
CLASS
  1
XRECORD
  2
AcDbXrecord
  3
AutoCAD 2000
 90
        0
280
     0
281
     0
  0
CLASS
  1
LONG_TRANSACTION
  2
AcDbLongTransaction
  3
AutoCAD 2000
 90
        0
280
     0
281
     0
  0
CLASS
  1
LWPOLYLINE
  2
AcDbPolyline
  3
AutoCAD 2000
 90
        0
280
     0
281
     1
  0
CLASS
  1
HATCH
  2
AcDbHatch
  3
AutoCAD 2000
 90
        0
280
     0
281
     1
  0
CLASS
  1
XRECORD
  2
AcDbXrecord
  3
AutoCAD 2000
 90
        0
280
     0
281
     0
  0
CLASS
  1
LONG_TRANSACTION
  2
AcDbLongTransaction
  3
AutoCAD 2000
 90
        0
280
     0
281
     0
  0
CLASS
  1
LWPOLYLINE
  2
AcDbPolyline
  3
AutoCAD 2000
 90
        0
280
     0
281
     1
  0
CLASS
  1
HATCH
  2
AcDbHatch
  3
AutoCAD 2000
 90
        0
280
     0
281
     1
  0
CLASS
  1
XRECORD
  2
AcDbXrecord
  3
AutoCAD 2000
 90
        0
280
     0
281
     0
  0
CLASS
  1
LONG_TRANSACTION
  2
AcDbLongTransaction
  3
AutoCAD 2000
 90
        0
280
     0
281
     0
  0
CLASS
  1
LWPOLYLINE
  2
AcDbPolyline
  3
AutoCAD 2000
 90
        0
280
     0
281
     1
  0
CLASS
  1
HATCH
  2
AcDbHatch
  3
AutoCAD 2000
 90
        0
280
     0
281
     1
  0
CLASS
  1
XRECORD
  2
AcDbXrecord
  3
AutoCAD 2000
 90
        0
280
     0
281
     0
  0
CLASS
  1
LONG_TRANSACTION
  2
AcDbLongTransaction
  3
AutoCAD 2000
 90
        0
280
     0
281
     0
  0
CLASS
  1
LWPOLYLINE
  2
AcDbPolyline
  3
AutoCAD 2000
 90
        0
280
     0
281
     1
  0
CLASS
  1
HATCH
  2
AcDbHatch
  3
AutoCAD 2000
 90
        0
280
     0
281
     1
  0
CLASS
  1
XRECORD
  2
AcDbXrecord
  3
AutoCAD 2000
 90
        0
280
     0
281
     0
  0
CLASS
  1
LONG_TRANSACTION
  2
AcDbLongTransaction
  3
AutoCAD 2000
 90
        0
280
     0
281
     0
  0
CLASS
  1
LWPOLYLINE
  2
AcDbPolyline
  3
AutoCAD 2000
 90
        0
280
     0
281
     1
  0
CLASS
  1
HATCH
  2
AcDbHatch
  3
AutoCAD 2000
 90
        0
280
     0
281
     1
  0
CLASS
  1
XRECORD
  2
AcDbXrecord
  3
AutoCAD 2000
 90
        0
280
     0
281
     0
  0
ENDSEC
  0
SECTION
  2
TABLES
  0
TABLE
  2
VPORT
  5
8
330
0
100
AcDbSymbolTable
 70
     3
  0
VPORT
  5
7D51
330
8
100
AcDbSymbolTableRecord
100
AcDbViewportTableRecord
  2
*ACTIVE
 70
     0
 10
0.0
 20
0.0
 11
1.0
 21
1.0
 12
1700.786523733933
 22
-593.7320460004766
 13
0.0
 23
0.0
 14
5.0
 24
5.0
 15
0.0
 25
0.0
 16
0.0
 26
0.0
 36
1.0
 17
0.0
 27
0.0
 37
0.0
 40
638.130058232817
 41
1.570153061224489
 42
50.0
 43
0.0
 44
0.0
 50
0.0
 51
0.0
 71
     0
 72
   100
 73
     1
 74
     0
 75
     0
 76
     0
 77
     0
 78
     0
  0
ENDTAB
  0
TABLE
  2
LTYPE
  5
5
330
0
100
AcDbSymbolTable
 70
     2
  0
LTYPE
  5
14
330
5
100
AcDbSymbolTableRecord
100
AcDbLinetypeTableRecord
  2
BYBLOCK
 70
     0
  3

 72
    65
 73
     0
 40
0.0
  0
LTYPE
  5
15
330
5
100
AcDbSymbolTableRecord
100
AcDbLinetypeTableRecord
  2
BYLAYER
 70
     0
  3

 72
    65
 73
     0
 40
0.0
  0
LTYPE
  5
16
330
5
100
AcDbSymbolTableRecord
100
AcDbLinetypeTableRecord
  2
CONTINUOUS
 70
     0
  3
Solid line
 72
    65
 73
     0
 40
0.0
  0
LTYPE
  5
135
330
5
100
AcDbSymbolTableRecord
100
AcDbLinetypeTableRecord
  2
CENTER
 70
     0
  3
____ _ ____ _ ____ _ ____ _ ____ _ ____ _ ____ 
 72
    65
 73
     4
 40
2.0
 49
1.25
 74
     0
 49
-0.25
 74
     0
 49
0.25
 74
     0
 49
-0.25
 74
     0
  0
ENDTAB
  0
TABLE
  2
LAYER
  5
2
102
{ACAD_XDICTIONARY
360
4C3C
102
}
330
0
100
AcDbSymbolTable
 70
     9
  0
LAYER
  5
F
330
2
100
AcDbSymbolTableRecord
100
AcDbLayerTableRecord
  2
0
 70
     0
 62
     7
  6
CONTINUOUS
  0
LAYER
  5
62
330
2
100
AcDbSymbolTableRecord
100
AcDbLayerTableRecord
  2
VIEWPORT
 70
     0
 62
     7
  6
CONTINUOUS
  0
LAYER
  5
65
330
2
100
AcDbSymbolTableRecord
100
AcDbLayerTableRecord
  2
ZUWAKU
 70
     0
 62
     7
  6
CONTINUOUS
  0
LAYER
  5
145
330
2
100
AcDbSymbolTableRecord
100
AcDbLayerTableRecord
  2
SEIHIN
 70
     0
 62
     3
  6
CONTINUOUS
  0
LAYER
  5
146
330
2
100
AcDbSymbolTableRecord
100
AcDbLayerTableRecord
  2
SUNPOU
 70
     0
 62
     4
  6
CONTINUOUS
  0
LAYER
  5
381
330
2
100
AcDbSymbolTableRecord
100
AcDbLayerTableRecord
  2
DEFPOINTS
 70
     0
 62
     7
  6
CONTINUOUS
  0
LAYER
  5
3AB9
330
2
100
AcDbSymbolTableRecord
100
AcDbLayerTableRecord
  2
MOJI
 70
     0
 62
     2
  6
CONTINUOUS
  0
LAYER
  5
3D7D
330
2
100
AcDbSymbolTableRecord
100
AcDbLayerTableRecord
  2
CENTER_L
 70
     0
 62
     1
  6
CENTER
  0
LAYER
  5
4C3F
330
2
100
AcDbSymbolTableRecord
100
AcDbLayerTableRecord
  2
KEIJYO
 70
     0
 62
    -7
  6
CONTINUOUS
  0
ENDTAB
  0
TABLE
  2
STYLE
  5
3
330
0
100
AcDbSymbolTable
 70
     2
  0
STYLE
  5
10
330
3
100
AcDbSymbolTableRecord
100
AcDbTextStyleTableRecord
  2
STANDARD
 70
     0
 40
0.0
 41
1.0
 50
0.0
 71
     0
 42
5.0
  3
TXT
  4
bigfont.shx
  0
STYLE
  5
3ABA
330
3
100
AcDbSymbolTableRecord
100
AcDbTextStyleTableRecord
  2
ｽﾀｲﾙ1
 70
     0
 40
0.0
 41
1.0
 50
0.0
 71
     0
 42
2.5
  3
MS PGothic.ttf
  4

1001
ACAD
1000
MS PGothic
1071
    32818
  0
ENDTAB
  0
TABLE
  2
VIEW
  5
6
330
0
100
AcDbSymbolTable
 70
     0
  0
ENDTAB
  0
TABLE
  2
UCS
  5
7
330
0
100
AcDbSymbolTable
 70
     0
  0
ENDTAB
  0
TABLE
  2
APPID
  5
9
330
0
100
AcDbSymbolTable
 70
     1
  0
APPID
  5
11
330
9
100
AcDbSymbolTableRecord
100
AcDbRegAppTableRecord
  2
ACAD
 70
     0
  0
ENDTAB
  0
TABLE
  2
DIMSTYLE
  5
A
330
0
100
AcDbSymbolTable
 70
     1
  0
DIMSTYLE
105
1D
102
{ACAD_REACTORS
330
74E7
330
74ED
330
77F6
330
73C0
330
73EE
330
73C5
330
73D8
330
73D5
330
73D1
330
73CB
330
745D
330
744F
330
740A
330
7411
330
73BE
330
73BF
330
740B
330
741E
330
7A02
330
73D7
330
73CC
330
73D6
330
7A0F
330
7406
330
7D41
102
}
330
A
100
AcDbSymbolTableRecord
100
AcDbDimStyleTableRecord
  2
STANDARD
 70
     0
  3

  4

  5

  6

  7

 40
1.0
 41
0.18
 42
0.0625
 43
0.38
 44
0.18
 45
0.0
 46
0.0
 47
0.0
 48
0.0
140
0.18
141
0.09
142
0.0
143
25.4
144
1.0
145
0.0
146
1.0
147
0.09
 71
     0
 72
     0
 73
     1
 74
     1
 75
     0
 76
     0
 77
     0
 78
     0
170
     0
171
     2
172
     0
173
     0
174
     0
175
     0
176
     0
177
     0
178
     0
270
     2
271
     4
272
     4
273
     2
274
     2
340
10
275
     0
280
     0
281
     0
282
     0
283
     1
284
     0
285
     0
286
     0
287
     3
288
     0
  0
ENDTAB
  0
TABLE
  2
BLOCK_RECORD
  5
1
330
0
100
AcDbSymbolTable
 70
    26
  0
BLOCK_RECORD
  5
1A
102
{ACAD_XDICTIONARY
360
88E
102
}
330
1
100
AcDbSymbolTableRecord
100
AcDbBlockTableRecord
  2
*MODEL_SPACE
  0
BLOCK_RECORD
  5
17
102
{ACAD_XDICTIONARY
360
88C
102
}
330
1
100
AcDbSymbolTableRecord
100
AcDbBlockTableRecord
  2
*PAPER_SPACE
  0
BLOCK_RECORD
  5
6D
330
1
100
AcDbSymbolTableRecord
100
AcDbBlockTableRecord
  2
_OPEN
  0
BLOCK_RECORD
  5
757D
330
1
100
AcDbSymbolTableRecord
100
AcDbBlockTableRecord
  2
*D1
  0
BLOCK_RECORD
  5
7589
330
1
100
AcDbSymbolTableRecord
100
AcDbBlockTableRecord
  2
*D2
  0
BLOCK_RECORD
  5
7595
330
1
100
AcDbSymbolTableRecord
100
AcDbBlockTableRecord
  2
*D3
  0
BLOCK_RECORD
  5
75A1
330
1
100
AcDbSymbolTableRecord
100
AcDbBlockTableRecord
  2
*D4
  0
BLOCK_RECORD
  5
75AD
330
1
100
AcDbSymbolTableRecord
100
AcDbBlockTableRecord
  2
*D5
  0
BLOCK_RECORD
  5
75C5
330
1
100
AcDbSymbolTableRecord
100
AcDbBlockTableRecord
  2
*D7
  0
BLOCK_RECORD
  5
75D1
330
1
100
AcDbSymbolTableRecord
100
AcDbBlockTableRecord
  2
*D8
  0
BLOCK_RECORD
  5
75F6
330
1
100
AcDbSymbolTableRecord
100
AcDbBlockTableRecord
  2
*D11
  0
BLOCK_RECORD
  5
7602
330
1
100
AcDbSymbolTableRecord
100
AcDbBlockTableRecord
  2
*D12
  0
BLOCK_RECORD
  5
761C
330
1
100
AcDbSymbolTableRecord
100
AcDbBlockTableRecord
  2
*D14
  0
BLOCK_RECORD
  5
7629
330
1
100
AcDbSymbolTableRecord
100
AcDbBlockTableRecord
  2
*D15
  0
BLOCK_RECORD
  5
7635
330
1
100
AcDbSymbolTableRecord
100
AcDbBlockTableRecord
  2
*D16
  0
BLOCK_RECORD
  5
7641
330
1
100
AcDbSymbolTableRecord
100
AcDbBlockTableRecord
  2
*D17
  0
BLOCK_RECORD
  5
764D
330
1
100
AcDbSymbolTableRecord
100
AcDbBlockTableRecord
  2
*D18
  0
BLOCK_RECORD
  5
7659
330
1
100
AcDbSymbolTableRecord
100
AcDbBlockTableRecord
  2
*D19
  0
BLOCK_RECORD
  5
7665
330
1
100
AcDbSymbolTableRecord
100
AcDbBlockTableRecord
  2
*D20
  0
BLOCK_RECORD
  5
7671
330
1
100
AcDbSymbolTableRecord
100
AcDbBlockTableRecord
  2
*D21
  0
BLOCK_RECORD
  5
77F7
330
1
100
AcDbSymbolTableRecord
100
AcDbBlockTableRecord
  2
*D22
  0
BLOCK_RECORD
  5
7A03
330
1
100
AcDbSymbolTableRecord
100
AcDbBlockTableRecord
  2
*D23
  0
BLOCK_RECORD
  5
7D42
330
1
100
AcDbSymbolTableRecord
100
AcDbBlockTableRecord
  2
*D25
  0
ENDTAB
  0
ENDSEC
  0
SECTION
  2
BLOCKS
  0
BLOCK
  5
1B
330
1A
100
AcDbEntity
  8
0
100
AcDbBlockBegin
  2
*MODEL_SPACE
 70
     0
 10
0.0
 20
0.0
 30
0.0
  3
*MODEL_SPACE
  1

  0
ENDBLK
  5
1C
330
1A
100
AcDbEntity
  8
0
100
AcDbBlockEnd
  0
BLOCK
  5
18
330
17
100
AcDbEntity
 67
     1
  8
0
100
AcDbBlockBegin
  2
*PAPER_SPACE
 70
     0
 10
0.0
 20
0.0
 30
0.0
  3
*PAPER_SPACE
  1

  0
ENDBLK
  5
19
330
17
100
AcDbEntity
 67
     1
  8
0
100
AcDbBlockEnd
  0
BLOCK
  5
6E
330
6D
100
AcDbEntity
  8
0
100
AcDbBlockBegin
  2
_OPEN
 70
     0
 10
0.0
 20
0.0
 30
0.0
  3
_OPEN
  1

  0
LINE
  5
6F
330
6D
100
AcDbEntity
  8
0
  6
BYBLOCK
 62
     0
100
AcDbLine
 10
-1.0
 20
0.1666666666666666
 30
0.0
 11
0.0
 21
0.0
 31
0.0
  0
LINE
  5
70
330
6D
100
AcDbEntity
  8
0
  6
BYBLOCK
 62
     0
100
AcDbLine
 10
0.0
 20
0.0
 30
0.0
 11
-1.0
 21
-0.1666666666666666
 31
0.0
  0
LINE
  5
71
330
6D
100
AcDbEntity
  8
0
  6
BYBLOCK
 62
     0
100
AcDbLine
 10
0.0
 20
0.0
 30
0.0
 11
-1.0
 21
0.0
 31
0.0
  0
ENDBLK
  5
72
330
6D
100
AcDbEntity
  8
0
100
AcDbBlockEnd
  0
BLOCK
  5
7587
330
757D
100
AcDbEntity
  8
0
100
AcDbBlockBegin
  2
*D1
 70
     1
 10
0.0
 20
0.0
 30
0.0
  3
*D1
  1

  0
LINE
  5
7D75
330
757D
100
AcDbEntity
  8
SUNPOU
100
AcDbLine
 10
1821.599305487366
 20
-654.2392351520549
 30
0.0
 11
1821.599305487366
 21
-585.5308433112254
 31
0.0
  0
LINE
  5
7D76
330
757D
100
AcDbEntity
  8
SUNPOU
100
AcDbLine
 10
1885.599405487367
 20
-654.239335152955
 30
0.0
 11
1885.599405487367
 21
-585.5308433112254
 31
0.0
  0
LINE
  5
7D77
330
757D
100
AcDbEntity
  8
SUNPOU
100
AcDbLine
 10
1828.599305487366
 20
-588.5308433112254
 30
0.0
 11
1878.599405487366
 21
-588.5308433112254
 31
0.0
  0
INSERT
  5
7D78
330
757D
100
AcDbEntity
  8
SUNPOU
100
AcDbBlockReference
  2
_OPEN
 10
1821.599305487366
 20
-588.5308433112254
 30
0.0
 41
7.0
 42
7.0
 43
7.0
 50
180.0
  0
INSERT
  5
7D79
330
757D
100
AcDbEntity
  8
SUNPOU
100
AcDbBlockReference
  2
_OPEN
 10
1885.599405487367
 20
-588.5308433112254
 30
0.0
 41
7.0
 42
7.0
 43
7.0
  0
MTEXT
  5
7D7A
330
757D
100
AcDbEntity
  8
SUNPOU
100
AcDbMText
 10
1853.599355487366
 20
-583.5308433112254
 30
0.0
 40
6.0
 41
0.0
 71
     5
 72
     1
  1
\A1;64
  0
POINT
  5
7D7B
330
757D
100
AcDbEntity
  8
DEFPOINTS
 62
     0
100
AcDbPoint
 10
1821.599305487366
 20
-660.239235152055
 30
0.0
  0
POINT
  5
7D7C
330
757D
100
AcDbEntity
  8
DEFPOINTS
 62
     0
100
AcDbPoint
 10
1885.599405487367
 20
-660.239335152955
 30
0.0
  0
POINT
  5
7D7D
330
757D
100
AcDbEntity
  8
DEFPOINTS
 62
     0
100
AcDbPoint
 10
1885.599405487367
 20
-588.5308433112254
 30
0.0
  0
ENDBLK
  5
7588
330
757D
100
AcDbEntity
  8
0
100
AcDbBlockEnd
  0
BLOCK
  5
7593
330
7589
100
AcDbEntity
  8
0
100
AcDbBlockBegin
  2
*D2
 70
     1
 10
0.0
 20
0.0
 30
0.0
  3
*D2
  1

  0
LINE
  5
7D7E
330
7589
100
AcDbEntity
  8
SUNPOU
100
AcDbLine
 10
1813.599405487402
 20
-646.0734079360896
 30
0.0
 11
1813.599405487402
 21
-568.8368081990624
 31
0.0
  0
LINE
  5
7D7F
330
7589
100
AcDbEntity
  8
SUNPOU
100
AcDbLine
 10
1893.599405487367
 20
-646.0734079360552
 30
0.0
 11
1893.599405487367
 21
-568.8368081990624
 31
0.0
  0
LINE
  5
7D80
330
7589
100
AcDbEntity
  8
SUNPOU
100
AcDbLine
 10
1820.599405487402
 20
-571.8368081990624
 30
0.0
 11
1886.599405487367
 21
-571.8368081990624
 31
0.0
  0
INSERT
  5
7D81
330
7589
100
AcDbEntity
  8
SUNPOU
100
AcDbBlockReference
  2
_OPEN
 10
1813.599405487402
 20
-571.8368081990624
 30
0.0
 41
7.0
 42
7.0
 43
7.0
 50
180.0
  0
INSERT
  5
7D82
330
7589
100
AcDbEntity
  8
SUNPOU
100
AcDbBlockReference
  2
_OPEN
 10
1893.599405487367
 20
-571.8368081990624
 30
0.0
 41
7.0
 42
7.0
 43
7.0
  0
MTEXT
  5
7D83
330
7589
100
AcDbEntity
  8
SUNPOU
100
AcDbMText
 10
1853.599405487384
 20
-566.8368081990625
 30
0.0
 40
6.0
 41
0.0
 71
     5
 72
     1
  1
\A1;80
  0
POINT
  5
7D84
330
7589
100
AcDbEntity
  8
DEFPOINTS
 62
     0
100
AcDbPoint
 10
1813.599405487402
 20
-652.0734079360895
 30
0.0
  0
POINT
  5
7D85
330
7589
100
AcDbEntity
  8
DEFPOINTS
 62
     0
100
AcDbPoint
 10
1893.599405487367
 20
-652.0734079360551
 30
0.0
  0
POINT
  5
7D86
330
7589
100
AcDbEntity
  8
DEFPOINTS
 62
     0
100
AcDbPoint
 10
1893.599405487367
 20
-571.8368081990624
 30
0.0
  0
ENDBLK
  5
7594
330
7589
100
AcDbEntity
  8
0
100
AcDbBlockEnd
  0
BLOCK
  5
759F
330
7595
100
AcDbEntity
  8
0
100
AcDbBlockBegin
  2
*D3
 70
     1
 10
0.0
 20
0.0
 30
0.0
  3
*D3
  1

  0
LINE
  5
7D87
330
7595
100
AcDbEntity
  8
SUNPOU
100
AcDbLine
 10
1498.541066889531
 20
-633.7222529089553
 30
0.0
 11
1498.541066889531
 21
-568.8368081990624
 31
0.0
  0
LINE
  5
7D88
330
7595
100
AcDbEntity
  8
SUNPOU
100
AcDbLine
 10
1653.041064487962
 20
-628.932444677939
 30
0.0
 11
1653.041064487962
 21
-568.8368081990624
 31
0.0
  0
LINE
  5
7D89
330
7595
100
AcDbEntity
  8
SUNPOU
100
AcDbLine
 10
1505.541066889531
 20
-571.8368081990624
 30
0.0
 11
1646.041064487962
 21
-571.8368081990624
 31
0.0
  0
MTEXT
  5
7D8A
330
7595
100
AcDbEntity
  8
SUNPOU
100
AcDbMText
 10
1573.05111716578
 20
-565.350029489379
 30
0.0
 40
6.0
 41
0.0
 71
     5
 72
     1
  1
\A1;154
  0
INSERT
  5
7D8B
330
7595
100
AcDbEntity
  8
SUNPOU
100
AcDbBlockReference
  2
_OPEN
 10
1498.541066889531
 20
-571.8368081990624
 30
0.0
 41
7.0
 42
7.0
 43
7.0
 50
180.0
  0
INSERT
  5
7D8C
330
7595
100
AcDbEntity
  8
SUNPOU
100
AcDbBlockReference
  2
_OPEN
 10
1653.041064487962
 20
-571.8368081990624
 30
0.0
 41
7.0
 42
7.0
 43
7.0
  0
POINT
  5
7D8D
330
7595
100
AcDbEntity
  8
DEFPOINTS
 62
     0
100
AcDbPoint
 10
1498.541066889531
 20
-639.7222529089552
 30
0.0
  0
POINT
  5
7D8E
330
7595
100
AcDbEntity
  8
DEFPOINTS
 62
     0
100
AcDbPoint
 10
1653.041064487962
 20
-634.9324446779389
 30
0.0
  0
POINT
  5
7D8F
330
7595
100
AcDbEntity
  8
DEFPOINTS
 62
     0
100
AcDbPoint
 10
1653.041064487962
 20
-571.8368081990624
 30
0.0
  0
ENDBLK
  5
75A0
330
7595
100
AcDbEntity
  8
0
100
AcDbBlockEnd
  0
BLOCK
  5
75AB
330
75A1
100
AcDbEntity
  8
0
100
AcDbBlockBegin
  2
*D4
 70
     1
 10
0.0
 20
0.0
 30
0.0
  3
*D4
  1

  0
LINE
  5
7D90
330
75A1
100
AcDbEntity
  8
SUNPOU
100
AcDbLine
 10
1530.898488226976
 20
-621.7461894871553
 30
0.0
 11
1571.926268157442
 21
-621.7461894871553
 31
0.0
  0
LINE
  5
7D91
330
75A1
100
AcDbEntity
  8
SUNPOU
100
AcDbLine
 10
1527.569950557863
 20
-640.4722527416552
 30
0.0
 11
1571.926268157442
 21
-640.4722527416552
 31
0.0
  0
LINE
  5
7D92
330
75A1
100
AcDbEntity
  8
SUNPOU
100
AcDbLine
 10
1568.926268157442
 20
-628.7461894871553
 30
0.0
 11
1568.926268157442
 21
-633.4722527416552
 31
0.0
  0
INSERT
  5
7D93
330
75A1
100
AcDbEntity
  8
SUNPOU
100
AcDbBlockReference
  2
_OPEN
 10
1568.926268157442
 20
-621.7461894871553
 30
0.0
 41
7.0
 42
7.0
 43
7.0
 50
90.0
  0
INSERT
  5
7D94
330
75A1
100
AcDbEntity
  8
SUNPOU
100
AcDbBlockReference
  2
_OPEN
 10
1568.926268157442
 20
-640.4722527416552
 30
0.0
 41
7.0
 42
7.0
 43
7.0
 50
270.0
  0
MTEXT
  5
7D95
330
75A1
100
AcDbEntity
  8
SUNPOU
100
AcDbMText
 10
1563.926268157442
 20
-631.109221114405
 30
0.0
 40
6.0
 41
0.0
 71
     5
 72
     1
  1
\A1;19
 11
0.0000000000000001
 21
1.0
 31
0.0
  0
POINT
  5
7D96
330
75A1
100
AcDbEntity
  8
DEFPOINTS
 62
     0
100
AcDbPoint
 10
1524.898488226976
 20
-621.7461894871553
 30
0.0
  0
POINT
  5
7D97
330
75A1
100
AcDbEntity
  8
DEFPOINTS
 62
     0
100
AcDbPoint
 10
1521.569950557863
 20
-640.4722527416552
 30
0.0
  0
POINT
  5
7D98
330
75A1
100
AcDbEntity
  8
DEFPOINTS
 62
     0
100
AcDbPoint
 10
1568.926268157442
 20
-640.4722527416552
 30
0.0
  0
ENDBLK
  5
75AC
330
75A1
100
AcDbEntity
  8
0
100
AcDbBlockEnd
  0
BLOCK
  5
75B7
330
75AD
100
AcDbEntity
  8
0
100
AcDbBlockBegin
  2
*D5
 70
     1
 10
0.0
 20
0.0
 30
0.0
  3
*D5
  1

  0
LINE
  5
7D99
330
75AD
100
AcDbEntity
  8
SUNPOU
100
AcDbLine
 10
1475.742139729081
 20
-646.4722527416551
 30
0.0
 11
1478.742139729081
 21
-646.4722527416551
 31
0.0
  0
LINE
  5
7D9A
330
75AD
100
AcDbEntity
  8
SUNPOU
100
AcDbLine
 10
1510.424904380363
 20
-664.5894294601552
 30
0.0
 11
1478.742139729081
 21
-664.5894294601552
 31
0.0
  0
LINE
  5
7D9B
330
75AD
100
AcDbEntity
  8
SUNPOU
100
AcDbLine
 10
1481.742139729081
 20
-653.472252741655
 30
0.0
 11
1481.742139729081
 21
-657.5894294601551
 31
0.0
  0
INSERT
  5
7D9C
330
75AD
100
AcDbEntity
  8
SUNPOU
100
AcDbBlockReference
  2
_OPEN
 10
1481.742139729081
 20
-646.4722527416551
 30
0.0
 41
7.0
 42
7.0
 43
7.0
 50
90.0
  0
INSERT
  5
7D9D
330
75AD
100
AcDbEntity
  8
SUNPOU
100
AcDbBlockReference
  2
_OPEN
 10
1481.742139729081
 20
-664.5894294601552
 30
0.0
 41
7.0
 42
7.0
 43
7.0
 50
270.0
  0
MTEXT
  5
7D9E
330
75AD
100
AcDbEntity
  8
SUNPOU
100
AcDbMText
 10
1476.742139729081
 20
-655.5308411009049
 30
0.0
 40
6.0
 41
0.0
 71
     5
 72
     1
  1
\A1;18
 11
0.0000000000000001
 21
1.0
 31
0.0
  0
POINT
  5
7D9F
330
75AD
100
AcDbEntity
  8
DEFPOINTS
 62
     0
100
AcDbPoint
 10
1481.742139729081
 20
-646.4722527416551
 30
0.0
  0
POINT
  5
7DA0
330
75AD
100
AcDbEntity
  8
DEFPOINTS
 62
     0
100
AcDbPoint
 10
1516.424904380363
 20
-664.5894294601552
 30
0.0
  0
POINT
  5
7DA1
330
75AD
100
AcDbEntity
  8
DEFPOINTS
 62
     0
100
AcDbPoint
 10
1481.742139729081
 20
-664.5894294601552
 30
0.0
  0
ENDBLK
  5
75B8
330
75AD
100
AcDbEntity
  8
0
100
AcDbBlockEnd
  0
BLOCK
  5
75CF
330
75C5
100
AcDbEntity
  8
0
100
AcDbBlockBegin
  2
*D7
 70
     1
 10
0.0
 20
0.0
 30
0.0
  3
*D7
  1

  0
LINE
  5
7DA2
330
75C5
100
AcDbEntity
  8
SUNPOU
100
AcDbLine
 10
1499.025653088663
 20
-633.4722527416552
 30
0.0
 11
1478.742139729081
 21
-633.4722527416552
 31
0.0
  0
LINE
  5
7DA3
330
75C5
100
AcDbEntity
  8
SUNPOU
100
AcDbLine
 10
1500.799767381963
 20
-646.4722527416552
 30
0.0
 11
1478.742139729081
 21
-646.4722527416552
 31
0.0
  0
LINE
  5
7DA4
330
75C5
100
AcDbEntity
  8
SUNPOU
100
AcDbLine
 10
1481.742139729081
 20
-626.4722527416552
 30
0.0
 11
1481.742139729081
 21
-619.4722527416551
 31
0.0
  0
LINE
  5
7DA5
330
75C5
100
AcDbEntity
  8
SUNPOU
100
AcDbLine
 10
1481.742139729081
 20
-653.4722527416552
 30
0.0
 11
1481.742139729081
 21
-660.4722527416551
 31
0.0
  0
LINE
  5
7DA6
330
75C5
100
AcDbEntity
  8
SUNPOU
100
AcDbLine
 10
1481.742139729081
 20
-633.4722527416552
 30
0.0
 11
1481.742139729081
 21
-646.4722527416552
 31
0.0
  0
INSERT
  5
7DA7
330
75C5
100
AcDbEntity
  8
SUNPOU
100
AcDbBlockReference
  2
_OPEN
 10
1481.742139729081
 20
-633.4722527416552
 30
0.0
 41
7.0
 42
7.0
 43
7.0
 50
270.0
  0
INSERT
  5
7DA8
330
75C5
100
AcDbEntity
  8
SUNPOU
100
AcDbBlockReference
  2
_OPEN
 10
1481.742139729081
 20
-646.4722527416552
 30
0.0
 41
7.0
 42
7.0
 43
7.0
 50
90.0
  0
MTEXT
  5
7DA9
330
75C5
100
AcDbEntity
  8
SUNPOU
100
AcDbMText
 10
1476.742139729081
 20
-639.972252741655
 30
0.0
 40
6.0
 41
0.0
 71
     5
 72
     1
  1
\A1;13
 11
0.0000000000000001
 21
1.0
 31
0.0
  0
POINT
  5
7DAA
330
75C5
100
AcDbEntity
  8
DEFPOINTS
 62
     0
100
AcDbPoint
 10
1505.025653088663
 20
-633.4722527416552
 30
0.0
  0
POINT
  5
7DAB
330
75C5
100
AcDbEntity
  8
DEFPOINTS
 62
     0
100
AcDbPoint
 10
1506.799767381964
 20
-646.4722527416552
 30
0.0
  0
POINT
  5
7DAC
330
75C5
100
AcDbEntity
  8
DEFPOINTS
 62
     0
100
AcDbPoint
 10
1481.742139729081
 20
-646.4722527416552
 30
0.0
  0
ENDBLK
  5
75D0
330
75C5
100
AcDbEntity
  8
0
100
AcDbBlockEnd
  0
BLOCK
  5
75DB
330
75D1
100
AcDbEntity
  8
0
100
AcDbBlockBegin
  2
*D8
 70
     1
 10
0.0
 20
0.0
 30
0.0
  3
*D8
  1

  0
LINE
  5
7DAD
330
75D1
100
AcDbEntity
  8
SUNPOU
100
AcDbLine
 10
1506.040269813098
 20
-627.6842285232722
 30
0.0
 11
1506.040269813098
 21
-600.8148672091019
 31
0.0
  0
LINE
  5
7DAE
330
75D1
100
AcDbEntity
  8
SUNPOU
100
AcDbLine
 10
1498.541066889531
 20
-633.0972529089552
 30
0.0
 11
1498.541066889531
 21
-600.8148672091019
 31
0.0
  0
LINE
  5
7DAF
330
75D1
100
AcDbEntity
  8
SUNPOU
100
AcDbLine
 10
1513.040269813098
 20
-603.8148672091019
 30
0.0
 11
1520.040269813098
 21
-603.8148672091019
 31
0.0
  0
LINE
  5
7DB0
330
75D1
100
AcDbEntity
  8
SUNPOU
100
AcDbLine
 10
1491.541066889531
 20
-603.8148672091019
 30
0.0
 11
1484.541066889531
 21
-603.8148672091019
 31
0.0
  0
MTEXT
  5
7DB1
330
75D1
100
AcDbEntity
  8
SUNPOU
100
AcDbMText
 10
1503.28455981088
 20
-597.4227395556158
 30
0.0
 40
6.0
 41
0.0
 71
     5
 72
     1
  1
\A1;7
  0
LINE
  5
7DB2
330
75D1
100
AcDbEntity
  8
SUNPOU
100
AcDbLine
 10
1506.040269813098
 20
-603.8148672091019
 30
0.0
 11
1498.541066889531
 21
-603.8148672091019
 31
0.0
  0
INSERT
  5
7DB3
330
75D1
100
AcDbEntity
  8
SUNPOU
100
AcDbBlockReference
  2
_OPEN
 10
1506.040269813098
 20
-603.8148672091019
 30
0.0
 41
7.0
 42
7.0
 43
7.0
 50
180.0
  0
INSERT
  5
7DB4
330
75D1
100
AcDbEntity
  8
SUNPOU
100
AcDbBlockReference
  2
_OPEN
 10
1498.541066889531
 20
-603.8148672091019
 30
0.0
 41
7.0
 42
7.0
 43
7.0
  0
POINT
  5
7DB5
330
75D1
100
AcDbEntity
  8
DEFPOINTS
 62
     0
100
AcDbPoint
 10
1506.040269813098
 20
-633.6842285232721
 30
0.0
  0
POINT
  5
7DB6
330
75D1
100
AcDbEntity
  8
DEFPOINTS
 62
     0
100
AcDbPoint
 10
1498.541066889531
 20
-639.0972529089553
 30
0.0
  0
POINT
  5
7DB7
330
75D1
100
AcDbEntity
  8
DEFPOINTS
 62
     0
100
AcDbPoint
 10
1498.541066889531
 20
-603.8148672091019
 30
0.0
  0
ENDBLK
  5
75DC
330
75D1
100
AcDbEntity
  8
0
100
AcDbBlockEnd
  0
BLOCK
  5
7600
330
75F6
100
AcDbEntity
  8
0
100
AcDbBlockBegin
  2
*D11
 70
     1
 10
0.0
 20
0.0
 30
0.0
  3
*D11
  1

  0
LINE
  5
7DB8
330
75F6
100
AcDbEntity
  8
SUNPOU
100
AcDbLine
 10
1498.541066889531
 20
-633.7222529089553
 30
0.0
 11
1498.541066889531
 21
-585.0027622045538
 31
0.0
  0
LINE
  5
7DB9
330
75F6
100
AcDbEntity
  8
SUNPOU
100
AcDbLine
 10
1529.456161390662
 20
-625.190559863455
 30
0.0
 11
1529.456161390662
 21
-585.0027622045538
 31
0.0
  0
LINE
  5
7DBA
330
75F6
100
AcDbEntity
  8
SUNPOU
100
AcDbLine
 10
1505.541066889531
 20
-588.0027622045538
 30
0.0
 11
1522.456161390661
 21
-588.0027622045538
 31
0.0
  0
INSERT
  5
7DBB
330
75F6
100
AcDbEntity
  8
SUNPOU
100
AcDbBlockReference
  2
_OPEN
 10
1498.541066889531
 20
-588.0027622045538
 30
0.0
 41
7.0
 42
7.0
 43
7.0
 50
180.0
  0
INSERT
  5
7DBC
330
75F6
100
AcDbEntity
  8
SUNPOU
100
AcDbBlockReference
  2
_OPEN
 10
1529.456161390662
 20
-588.0027622045538
 30
0.0
 41
7.0
 42
7.0
 43
7.0
  0
MTEXT
  5
7DBD
330
75F6
100
AcDbEntity
  8
SUNPOU
100
AcDbMText
 10
1513.998614140096
 20
-583.0027622045538
 30
0.0
 40
6.0
 41
0.0
 71
     5
 72
     1
  1
\A1;31
  0
POINT
  5
7DBE
330
75F6
100
AcDbEntity
  8
DEFPOINTS
 62
     0
100
AcDbPoint
 10
1498.541066889531
 20
-639.7222529089552
 30
0.0
  0
POINT
  5
7DBF
330
75F6
100
AcDbEntity
  8
DEFPOINTS
 62
     0
100
AcDbPoint
 10
1529.456161390662
 20
-631.1905598634551
 30
0.0
  0
POINT
  5
7DC0
330
75F6
100
AcDbEntity
  8
DEFPOINTS
 62
     0
100
AcDbPoint
 10
1529.456161390662
 20
-588.0027622045538
 30
0.0
  0
ENDBLK
  5
7601
330
75F6
100
AcDbEntity
  8
0
100
AcDbBlockEnd
  0
BLOCK
  5
760E
330
7602
100
AcDbEntity
  8
0
100
AcDbBlockBegin
  2
*D12
 70
     1
 10
0.0
 20
0.0
 30
0.0
  3
*D12
  1

  0
LINE
  5
7DC1
330
7602
100
AcDbEntity
  8
SUNPOU
100
AcDbLine
 10
1524.900890471811
 20
-618.2395757297738
 30
0.0
 11
1538.169654280579
 21
-604.970811921941
 31
0.0
  0
LINE
  5
7DC2
330
7602
100
AcDbEntity
  8
SUNPOU
100
AcDbLine
 10
1528.441818328434
 20
-621.7805035866465
 30
0.0
 11
1541.710582137202
 21
-608.5117397788137
 31
0.0
  0
LINE
  5
7DC3
330
7602
100
AcDbEntity
  8
SUNPOU
100
AcDbLine
 10
1531.098586468813
 20
-602.1423847969456
 30
0.0
 11
1526.148839000682
 21
-597.1926373284652
 31
0.0
  0
LINE
  5
7DC4
330
7602
100
AcDbEntity
  8
SUNPOU
100
AcDbLine
 10
1544.539009261699
 20
-615.5828075907791
 30
0.0
 11
1549.48875672983
 21
-620.5325550592594
 31
0.0
  0
MTEXT
  5
7DC5
330
7602
100
AcDbEntity
  8
SUNPOU
100
AcDbMText
 10
1542.463273240007
 20
-603.9805185116493
 30
0.0
 40
6.0
 41
0.0
 71
     5
 72
     1
  1
\A1;5
 11
0.7071067811616202
 21
-0.707106781211475
 31
0.0
  0
LINE
  5
7DC6
330
7602
100
AcDbEntity
  8
SUNPOU
100
AcDbLine
 10
1536.048333936944
 20
-607.0921322654259
 30
0.0
 11
1539.589261793568
 21
-610.6330601222987
 31
0.0
  0
INSERT
  5
7DC7
330
7602
100
AcDbEntity
  8
SUNPOU
100
AcDbBlockReference
  2
_OPEN
 10
1536.048333936944
 20
-607.0921322654259
 30
0.0
 41
7.0
 42
7.0
 43
7.0
 50
314.9999999979801
  0
INSERT
  5
7DC8
330
7602
100
AcDbEntity
  8
SUNPOU
100
AcDbBlockReference
  2
_OPEN
 10
1539.589261793568
 20
-610.6330601222987
 30
0.0
 41
7.0
 42
7.0
 43
7.0
 50
134.9999999979801
  0
POINT
  5
7DC9
330
7602
100
AcDbEntity
  8
DEFPOINTS
 62
     0
100
AcDbPoint
 10
1520.658249784542
 20
-622.4822164167435
 30
0.0
  0
POINT
  5
7DCA
330
7602
100
AcDbEntity
  8
DEFPOINTS
 62
     0
100
AcDbPoint
 10
1524.199177641165
 20
-626.0231442736162
 30
0.0
  0
POINT
  5
7DCB
330
7602
100
AcDbEntity
  8
DEFPOINTS
 62
     0
100
AcDbPoint
 10
1539.589261793568
 20
-610.6330601222987
 30
0.0
  0
ENDBLK
  5
760F
330
7602
100
AcDbEntity
  8
0
100
AcDbBlockEnd
  0
BLOCK
  5
7627
330
761C
100
AcDbEntity
  8
0
100
AcDbBlockBegin
  2
*D14
 70
     1
 10
0.0
 20
0.0
 30
0.0
  3
*D14
  1

  0
LINE
  5
7DCC
330
761C
100
AcDbEntity
  8
SUNPOU
100
AcDbLine
 10
1630.272263944362
 20
-699.8221459477551
 30
0.0
 11
1630.272263944362
 21
-713.7364565313171
 31
0.0
  0
LINE
  5
7DCD
330
761C
100
AcDbEntity
  8
SUNPOU
100
AcDbLine
 10
1643.540964487957
 20
-700.1462079360813
 30
0.0
 11
1643.540964487957
 21
-713.7364565313171
 31
0.0
  0
LINE
  5
7DCE
330
761C
100
AcDbEntity
  8
SUNPOU
100
AcDbLine
 10
1623.272263944362
 20
-710.736456531317
 30
0.0
 11
1616.272263944362
 21
-710.736456531317
 31
0.0
  0
LINE
  5
7DCF
330
761C
100
AcDbEntity
  8
SUNPOU
100
AcDbLine
 10
1650.540964487957
 20
-710.736456531317
 30
0.0
 11
1657.540964487957
 21
-710.736456531317
 31
0.0
  0
MTEXT
  5
7DD0
330
761C
100
AcDbEntity
  8
SUNPOU
100
AcDbMText
 10
1624.351105832056
 20
-705.3551391632325
 30
0.0
 40
6.0
 41
0.0
 71
     5
 72
     1
  1
\A1;13
  0
LINE
  5
7DD1
330
761C
100
AcDbEntity
  8
SUNPOU
100
AcDbLine
 10
1630.272263944362
 20
-710.736456531317
 30
0.0
 11
1643.540964487957
 21
-710.736456531317
 31
0.0
  0
INSERT
  5
7DD2
330
761C
100
AcDbEntity
  8
SUNPOU
100
AcDbBlockReference
  2
_OPEN
 10
1630.272263944362
 20
-710.736456531317
 30
0.0
 41
7.0
 42
7.0
 43
7.0
  0
INSERT
  5
7DD3
330
761C
100
AcDbEntity
  8
SUNPOU
100
AcDbBlockReference
  2
_OPEN
 10
1643.540964487957
 20
-710.736456531317
 30
0.0
 41
7.0
 42
7.0
 43
7.0
 50
180.0
  0
POINT
  5
7DD4
330
761C
100
AcDbEntity
  8
DEFPOINTS
 62
     0
100
AcDbPoint
 10
1630.272263944362
 20
-693.822145947755
 30
0.0
  0
POINT
  5
7DD5
330
761C
100
AcDbEntity
  8
DEFPOINTS
 62
     0
100
AcDbPoint
 10
1643.540964487957
 20
-694.1462079360812
 30
0.0
  0
POINT
  5
7DD6
330
761C
100
AcDbEntity
  8
DEFPOINTS
 62
     0
100
AcDbPoint
 10
1643.540964487957
 20
-710.736456531317
 30
0.0
  0
ENDBLK
  5
7628
330
761C
100
AcDbEntity
  8
0
100
AcDbBlockEnd
  0
BLOCK
  5
7633
330
7629
100
AcDbEntity
  8
0
100
AcDbBlockBegin
  2
*D15
 70
     1
 10
0.0
 20
0.0
 30
0.0
  3
*D15
  1

  0
LINE
  5
7DD7
330
7629
100
AcDbEntity
  8
SUNPOU
100
AcDbLine
 10
1659.041064487962
 20
-645.3867899283552
 30
0.0
 11
1692.586141862844
 21
-645.3867899283552
 31
0.0
  0
LINE
  5
7DD8
330
7629
100
AcDbEntity
  8
SUNPOU
100
AcDbLine
 10
1654.041064543862
 20
-722.7862551758549
 30
0.0
 11
1692.586141862844
 21
-722.7862551758549
 31
0.0
  0
LINE
  5
7DD9
330
7629
100
AcDbEntity
  8
SUNPOU
100
AcDbLine
 10
1689.586141862843
 20
-652.3867899283552
 30
0.0
 11
1689.586141862843
 21
-715.7862551758549
 31
0.0
  0
INSERT
  5
7DDA
330
7629
100
AcDbEntity
  8
SUNPOU
100
AcDbBlockReference
  2
_OPEN
 10
1689.586141862843
 20
-645.3867899283552
 30
0.0
 41
7.0
 42
7.0
 43
7.0
 50
90.0
  0
INSERT
  5
7DDB
330
7629
100
AcDbEntity
  8
SUNPOU
100
AcDbBlockReference
  2
_OPEN
 10
1689.586141862843
 20
-722.7862551758549
 30
0.0
 41
7.0
 42
7.0
 43
7.0
 50
270.0
  0
MTEXT
  5
7DDC
330
7629
100
AcDbEntity
  8
SUNPOU
100
AcDbMText
 10
1684.586141862844
 20
-684.0865225521048
 30
0.0
 40
6.0
 41
0.0
 71
     5
 72
     1
  1
\A1;77
 11
0.0000000000000001
 21
1.0
 31
0.0
  0
POINT
  5
7DDD
330
7629
100
AcDbEntity
  8
DEFPOINTS
 62
     0
100
AcDbPoint
 10
1653.041064487962
 20
-645.3867899283552
 30
0.0
  0
POINT
  5
7DDE
330
7629
100
AcDbEntity
  8
DEFPOINTS
 62
     0
100
AcDbPoint
 10
1648.041064543862
 20
-722.7862551758549
 30
0.0
  0
POINT
  5
7DDF
330
7629
100
AcDbEntity
  8
DEFPOINTS
 62
     0
100
AcDbPoint
 10
1689.586141862843
 20
-722.7862551758549
 30
0.0
  0
ENDBLK
  5
7634
330
7629
100
AcDbEntity
  8
0
100
AcDbBlockEnd
  0
BLOCK
  5
763F
330
7635
100
AcDbEntity
  8
0
100
AcDbBlockBegin
  2
*D16
 70
     1
 10
0.0
 20
0.0
 30
0.0
  3
*D16
  1

  0
LINE
  5
7DE0
330
7635
100
AcDbEntity
  8
SUNPOU
100
AcDbLine
 10
1815.599305487365
 20
-660.239235152055
 30
0.0
 11
1785.846904442075
 21
-660.2392351520549
 31
0.0
  0
LINE
  5
7DE1
330
7635
100
AcDbEntity
  8
SUNPOU
100
AcDbLine
 10
1847.599405487367
 20
-715.232607936055
 30
0.0
 11
1785.846904442075
 21
-715.2326079360549
 31
0.0
  0
LINE
  5
7DE2
330
7635
100
AcDbEntity
  8
SUNPOU
100
AcDbLine
 10
1788.846904442075
 20
-667.2392351520548
 30
0.0
 11
1788.846904442075
 21
-708.2326079360549
 31
0.0
  0
INSERT
  5
7DE3
330
7635
100
AcDbEntity
  8
SUNPOU
100
AcDbBlockReference
  2
_OPEN
 10
1788.846904442075
 20
-660.2392351520549
 30
0.0
 41
7.0
 42
7.0
 43
7.0
 50
90.0
  0
INSERT
  5
7DE4
330
7635
100
AcDbEntity
  8
SUNPOU
100
AcDbBlockReference
  2
_OPEN
 10
1788.846904442075
 20
-715.2326079360549
 30
0.0
 41
7.0
 42
7.0
 43
7.0
 50
270.0
  0
MTEXT
  5
7DE5
330
7635
100
AcDbEntity
  8
SUNPOU
100
AcDbMText
 10
1783.846904442075
 20
-687.7359215440547
 30
0.0
 40
6.0
 41
0.0
 71
     5
 72
     1
  1
\A1;55
 11
0.0000000000000001
 21
1.0
 31
0.0
  0
POINT
  5
7DE6
330
7635
100
AcDbEntity
  8
DEFPOINTS
 62
     0
100
AcDbPoint
 10
1821.599305487366
 20
-660.239235152055
 30
0.0
  0
POINT
  5
7DE7
330
7635
100
AcDbEntity
  8
DEFPOINTS
 62
     0
100
AcDbPoint
 10
1853.599405487367
 20
-715.232607936055
 30
0.0
  0
POINT
  5
7DE8
330
7635
100
AcDbEntity
  8
DEFPOINTS
 62
     0
100
AcDbPoint
 10
1788.846904442075
 20
-715.2326079360549
 30
0.0
  0
ENDBLK
  5
7640
330
7635
100
AcDbEntity
  8
0
100
AcDbBlockEnd
  0
BLOCK
  5
764B
330
7641
100
AcDbEntity
  8
0
100
AcDbBlockBegin
  2
*D17
 70
     1
 10
0.0
 20
0.0
 30
0.0
  3
*D17
  1

  0
LINE
  5
7DE9
330
7641
100
AcDbEntity
  8
SUNPOU
100
AcDbLine
 10
1631.358081215363
 20
-670.2323079360549
 30
0.0
 11
1581.166253682126
 21
-670.2323079360549
 31
0.0
  0
LINE
  5
7DEA
330
7641
100
AcDbEntity
  8
SUNPOU
100
AcDbLine
 10
1620.797517856612
 20
-693.1416354437049
 30
0.0
 11
1581.166253682126
 21
-693.1416354437049
 31
0.0
  0
LINE
  5
7DEB
330
7641
100
AcDbEntity
  8
SUNPOU
100
AcDbLine
 10
1584.166253682126
 20
-677.2323079360549
 30
0.0
 11
1584.166253682126
 21
-686.1416354437048
 31
0.0
  0
MTEXT
  5
7DEC
330
7641
100
AcDbEntity
  8
SUNPOU
100
AcDbMText
 10
1574.986694140022
 20
-672.2330105959493
 30
0.0
 40
6.0
 41
0.0
 71
     5
 72
     1
  1
\A1;23
 11
0.0000000000000001
 21
1.0
 31
0.0
  0
INSERT
  5
7DED
330
7641
100
AcDbEntity
  8
SUNPOU
100
AcDbBlockReference
  2
_OPEN
 10
1584.166253682126
 20
-670.2323079360549
 30
0.0
 41
7.0
 42
7.0
 43
7.0
 50
90.0
  0
INSERT
  5
7DEE
330
7641
100
AcDbEntity
  8
SUNPOU
100
AcDbBlockReference
  2
_OPEN
 10
1584.166253682126
 20
-693.1416354437049
 30
0.0
 41
7.0
 42
7.0
 43
7.0
 50
270.0
  0
POINT
  5
7DEF
330
7641
100
AcDbEntity
  8
DEFPOINTS
 62
     0
100
AcDbPoint
 10
1637.358081215363
 20
-670.2323079360549
 30
0.0
  0
POINT
  5
7DF0
330
7641
100
AcDbEntity
  8
DEFPOINTS
 62
     0
100
AcDbPoint
 10
1626.797517856612
 20
-693.1416354437049
 30
0.0
  0
POINT
  5
7DF1
330
7641
100
AcDbEntity
  8
DEFPOINTS
 62
     0
100
AcDbPoint
 10
1584.166253682126
 20
-693.1416354437049
 30
0.0
  0
ENDBLK
  5
764C
330
7641
100
AcDbEntity
  8
0
100
AcDbBlockEnd
  0
BLOCK
  5
7657
330
764D
100
AcDbEntity
  8
0
100
AcDbBlockBegin
  2
*D18
 70
     1
 10
0.0
 20
0.0
 30
0.0
  3
*D18
  1

  0
LINE
  5
7DF2
330
764D
100
AcDbEntity
  8
SUNPOU
100
AcDbLine
 10
1620.186509524162
 20
-623.923345047855
 30
0.0
 11
1620.186509524162
 21
-600.5833814178633
 31
0.0
  0
LINE
  5
7DF3
330
764D
100
AcDbEntity
  8
SUNPOU
100
AcDbLine
 10
1653.041064487962
 20
-628.3074446779389
 30
0.0
 11
1653.041064487962
 21
-600.5833814178633
 31
0.0
  0
LINE
  5
7DF4
330
764D
100
AcDbEntity
  8
SUNPOU
100
AcDbLine
 10
1627.186509524162
 20
-603.5833814178634
 30
0.0
 11
1646.041064487962
 21
-603.5833814178634
 31
0.0
  0
INSERT
  5
7DF5
330
764D
100
AcDbEntity
  8
SUNPOU
100
AcDbBlockReference
  2
_OPEN
 10
1620.186509524162
 20
-603.5833814178634
 30
0.0
 41
7.0
 42
7.0
 43
7.0
 50
180.0
  0
INSERT
  5
7DF6
330
764D
100
AcDbEntity
  8
SUNPOU
100
AcDbBlockReference
  2
_OPEN
 10
1653.041064487962
 20
-603.5833814178634
 30
0.0
 41
7.0
 42
7.0
 43
7.0
  0
MTEXT
  5
7DF7
330
764D
100
AcDbEntity
  8
SUNPOU
100
AcDbMText
 10
1636.613787006062
 20
-598.5833814178634
 30
0.0
 40
6.0
 41
0.0
 71
     5
 72
     1
  1
\A1;33
  0
POINT
  5
7DF8
330
764D
100
AcDbEntity
  8
DEFPOINTS
 62
     0
100
AcDbPoint
 10
1620.186509524162
 20
-629.923345047855
 30
0.0
  0
POINT
  5
7DF9
330
764D
100
AcDbEntity
  8
DEFPOINTS
 62
     0
100
AcDbPoint
 10
1653.041064487962
 20
-634.307444677939
 30
0.0
  0
POINT
  5
7DFA
330
764D
100
AcDbEntity
  8
DEFPOINTS
 62
     0
100
AcDbPoint
 10
1653.041064487962
 20
-603.5833814178634
 30
0.0
  0
ENDBLK
  5
7658
330
764D
100
AcDbEntity
  8
0
100
AcDbBlockEnd
  0
BLOCK
  5
7663
330
7659
100
AcDbEntity
  8
0
100
AcDbBlockBegin
  2
*D19
 70
     1
 10
0.0
 20
0.0
 30
0.0
  3
*D19
  1

  0
LINE
  5
7DFB
330
7659
100
AcDbEntity
  8
SUNPOU
100
AcDbLine
 10
1608.392990573308
 20
-618.9149031820972
 30
0.0
 11
1608.392990573308
 21
-600.5833814178633
 31
0.0
  0
LINE
  5
7DFC
330
7659
100
AcDbEntity
  8
SUNPOU
100
AcDbLine
 10
1620.186509524162
 20
-597.5833814178634
 30
0.0
 11
1620.186509524162
 21
-600.5833814178633
 31
0.0
  0
LINE
  5
7DFD
330
7659
100
AcDbEntity
  8
SUNPOU
100
AcDbLine
 10
1601.392990573308
 20
-603.5833814178634
 30
0.0
 11
1594.392990573308
 21
-603.5833814178634
 31
0.0
  0
LINE
  5
7DFE
330
7659
100
AcDbEntity
  8
SUNPOU
100
AcDbLine
 10
1627.186509524162
 20
-603.5833814178634
 30
0.0
 11
1634.186509524162
 21
-603.5833814178634
 31
0.0
  0
MTEXT
  5
7DFF
330
7659
100
AcDbEntity
  8
SUNPOU
100
AcDbMText
 10
1614.242716828482
 20
-598.0372672798507
 30
0.0
 40
6.0
 41
0.0
 71
     5
 72
     1
  1
\A1;12
  0
LINE
  5
7E00
330
7659
100
AcDbEntity
  8
SUNPOU
100
AcDbLine
 10
1608.392990573308
 20
-603.5833814178634
 30
0.0
 11
1620.186509524162
 21
-603.5833814178634
 31
0.0
  0
INSERT
  5
7E01
330
7659
100
AcDbEntity
  8
SUNPOU
100
AcDbBlockReference
  2
_OPEN
 10
1608.392990573308
 20
-603.5833814178634
 30
0.0
 41
7.0
 42
7.0
 43
7.0
  0
INSERT
  5
7E02
330
7659
100
AcDbEntity
  8
SUNPOU
100
AcDbBlockReference
  2
_OPEN
 10
1620.186509524162
 20
-603.5833814178634
 30
0.0
 41
7.0
 42
7.0
 43
7.0
 50
180.0
  0
POINT
  5
7E03
330
7659
100
AcDbEntity
  8
DEFPOINTS
 62
     0
100
AcDbPoint
 10
1608.392990573308
 20
-624.9149031820973
 30
0.0
  0
POINT
  5
7E04
330
7659
100
AcDbEntity
  8
DEFPOINTS
 62
     0
100
AcDbPoint
 10
1620.186509524162
 20
-603.5833814178634
 30
0.0
  0
POINT
  5
7E05
330
7659
100
AcDbEntity
  8
DEFPOINTS
 62
     0
100
AcDbPoint
 10
1620.186509524162
 20
-603.5833814178634
 30
0.0
  0
ENDBLK
  5
7664
330
7659
100
AcDbEntity
  8
0
100
AcDbBlockEnd
  0
BLOCK
  5
766F
330
7665
100
AcDbEntity
  8
0
100
AcDbBlockBegin
  2
*D20
 70
     1
 10
0.0
 20
0.0
 30
0.0
  3
*D20
  1

  0
LINE
  5
7E06
330
7665
100
AcDbEntity
  8
SUNPOU
100
AcDbLine
 10
1500.131562032862
 20
-437.4593580191493
 30
0.0
 11
1476.022631354175
 21
-437.4593580191493
 31
0.0
  0
LINE
  5
7E07
330
7665
100
AcDbEntity
  8
SUNPOU
100
AcDbLine
 10
1500.131562032862
 20
-467.4593580191492
 30
0.0
 11
1476.022631354175
 21
-467.4593580191492
 31
0.0
  0
LINE
  5
7E08
330
7665
100
AcDbEntity
  8
SUNPOU
100
AcDbLine
 10
1479.022631354175
 20
-444.4593580191493
 30
0.0
 11
1479.022631354175
 21
-460.4593580191492
 31
0.0
  0
INSERT
  5
7E09
330
7665
100
AcDbEntity
  8
SUNPOU
100
AcDbBlockReference
  2
_OPEN
 10
1479.022631354175
 20
-437.4593580191493
 30
0.0
 41
7.0
 42
7.0
 43
7.0
 50
90.0
  0
INSERT
  5
7E0A
330
7665
100
AcDbEntity
  8
SUNPOU
100
AcDbBlockReference
  2
_OPEN
 10
1479.022631354175
 20
-467.4593580191492
 30
0.0
 41
7.0
 42
7.0
 43
7.0
 50
270.0
  0
MTEXT
  5
7E0B
330
7665
100
AcDbEntity
  8
SUNPOU
100
AcDbMText
 10
1474.022631354175
 20
-452.459358019149
 30
0.0
 40
6.0
 41
0.0
 71
     5
 72
     1
  1
\A1;30
 11
0.0000000000000001
 21
1.0
 31
0.0
  0
POINT
  5
7E0C
330
7665
100
AcDbEntity
  8
DEFPOINTS
 62
     0
100
AcDbPoint
 10
1506.131562032862
 20
-437.4593580191493
 30
0.0
  0
POINT
  5
7E0D
330
7665
100
AcDbEntity
  8
DEFPOINTS
 62
     0
100
AcDbPoint
 10
1506.131562032862
 20
-467.4593580191492
 30
0.0
  0
POINT
  5
7E0E
330
7665
100
AcDbEntity
  8
DEFPOINTS
 62
     0
100
AcDbPoint
 10
1479.022631354175
 20
-467.4593580191492
 30
0.0
  0
ENDBLK
  5
7670
330
7665
100
AcDbEntity
  8
0
100
AcDbBlockEnd
  0
BLOCK
  5
767D
330
7671
100
AcDbEntity
  8
0
100
AcDbBlockBegin
  2
*D21
 70
     1
 10
0.0
 20
0.0
 30
0.0
  3
*D21
  1

  0
LINE
  5
7E0F
330
7671
100
AcDbEntity
  8
SUNPOU
100
AcDbLine
 10
1527.044561024363
 20
-450.4593580191493
 30
0.0
 11
1557.675571759737
 21
-450.4593580191493
 31
0.0
  0
LINE
  5
7E10
330
7671
100
AcDbEntity
  8
SUNPOU
100
AcDbLine
 10
1527.044561024363
 20
-454.4593580191493
 30
0.0
 11
1557.675571759737
 21
-454.4593580191493
 31
0.0
  0
LINE
  5
7E11
330
7671
100
AcDbEntity
  8
SUNPOU
100
AcDbLine
 10
1554.675571759737
 20
-443.4593580191493
 30
0.0
 11
1554.675571759737
 21
-436.4593580191494
 31
0.0
  0
LINE
  5
7E12
330
7671
100
AcDbEntity
  8
SUNPOU
100
AcDbLine
 10
1554.675571759737
 20
-461.4593580191494
 30
0.0
 11
1554.675571759737
 21
-468.4593580191493
 31
0.0
  0
MTEXT
  5
7E13
330
7671
100
AcDbEntity
  8
SUNPOU
100
AcDbMText
 10
1548.750070640002
 20
-458.7900956475066
 30
0.0
 40
6.0
 41
0.0
 71
     5
 72
     1
  1
\A1;4
 11
0.0000000000000001
 21
1.0
 31
0.0
  0
LINE
  5
7E14
330
7671
100
AcDbEntity
  8
SUNPOU
100
AcDbLine
 10
1554.675571759737
 20
-450.4593580191493
 30
0.0
 11
1554.675571759737
 21
-454.4593580191493
 31
0.0
  0
INSERT
  5
7E15
330
7671
100
AcDbEntity
  8
SUNPOU
100
AcDbBlockReference
  2
_OPEN
 10
1554.675571759737
 20
-450.4593580191493
 30
0.0
 41
7.0
 42
7.0
 43
7.0
 50
270.0
  0
INSERT
  5
7E16
330
7671
100
AcDbEntity
  8
SUNPOU
100
AcDbBlockReference
  2
_OPEN
 10
1554.675571759737
 20
-454.4593580191493
 30
0.0
 41
7.0
 42
7.0
 43
7.0
 50
90.0
  0
POINT
  5
7E17
330
7671
100
AcDbEntity
  8
DEFPOINTS
 62
     0
100
AcDbPoint
 10
1521.044561024362
 20
-450.4593580191493
 30
0.0
  0
POINT
  5
7E18
330
7671
100
AcDbEntity
  8
DEFPOINTS
 62
     0
100
AcDbPoint
 10
1521.044561024362
 20
-454.4593580191493
 30
0.0
  0
POINT
  5
7E19
330
7671
100
AcDbEntity
  8
DEFPOINTS
 62
     0
100
AcDbPoint
 10
1554.675571759737
 20
-454.4593580191493
 30
0.0
  0
ENDBLK
  5
767E
330
7671
100
AcDbEntity
  8
0
100
AcDbBlockEnd
  0
BLOCK
  5
7801
330
77F7
100
AcDbEntity
  8
0
100
AcDbBlockBegin
  2
*D22
 70
     1
 10
0.0
 20
0.0
 30
0.0
  3
*D22
  1

  0
LINE
  5
7E1A
330
77F7
100
AcDbEntity
  8
SUNPOU
100
AcDbLine
 10
1659.041064487962
 20
-412.4593580191492
 30
0.0
 11
1695.54509303026
 21
-412.4593580191493
 31
0.0
  0
LINE
  5
7E1B
330
77F7
100
AcDbEntity
  8
SUNPOU
100
AcDbLine
 10
1659.041064487962
 20
-492.459358019149
 30
0.0
 11
1695.54509303026
 21
-492.4593580191491
 31
0.0
  0
LINE
  5
7E1C
330
77F7
100
AcDbEntity
  8
SUNPOU
100
AcDbLine
 10
1692.54509303026
 20
-419.4593580191493
 30
0.0
 11
1692.54509303026
 21
-485.459358019149
 31
0.0
  0
INSERT
  5
7E1D
330
77F7
100
AcDbEntity
  8
SUNPOU
100
AcDbBlockReference
  2
_OPEN
 10
1692.54509303026
 20
-412.4593580191493
 30
0.0
 41
7.0
 42
7.0
 43
7.0
 50
90.0
  0
INSERT
  5
7E1E
330
77F7
100
AcDbEntity
  8
SUNPOU
100
AcDbBlockReference
  2
_OPEN
 10
1692.54509303026
 20
-492.4593580191491
 30
0.0
 41
7.0
 42
7.0
 43
7.0
 50
270.0
  0
MTEXT
  5
7E1F
330
77F7
100
AcDbEntity
  8
SUNPOU
100
AcDbMText
 10
1687.54509303026
 20
-452.4593580191488
 30
0.0
 40
6.0
 41
0.0
 71
     5
 72
     1
  1
\A1;80
 11
0.0000000000000001
 21
1.0
 31
0.0
  0
POINT
  5
7E20
330
77F7
100
AcDbEntity
  8
DEFPOINTS
 62
     0
100
AcDbPoint
 10
1653.041064487962
 20
-412.4593580191492
 30
0.0
  0
POINT
  5
7E21
330
77F7
100
AcDbEntity
  8
DEFPOINTS
 62
     0
100
AcDbPoint
 10
1653.041064487962
 20
-492.459358019149
 30
0.0
  0
POINT
  5
7E22
330
77F7
100
AcDbEntity
  8
DEFPOINTS
 62
     0
100
AcDbPoint
 10
1692.54509303026
 20
-492.4593580191491
 30
0.0
  0
ENDBLK
  5
7802
330
77F7
100
AcDbEntity
  8
0
100
AcDbBlockEnd
  0
BLOCK
  5
7A0D
330
7A03
100
AcDbEntity
  8
0
100
AcDbBlockBegin
  2
*D23
 70
     1
 10
0.0
 20
0.0
 30
0.0
  3
*D23
  1

  0
LINE
  5
7E23
330
7A03
100
AcDbEntity
  8
SUNPOU
100
AcDbLine
 10
1847.595589532267
 20
-723.2324064029547
 30
0.0
 11
1767.602167916887
 21
-723.2324064029545
 31
0.0
  0
LINE
  5
7E24
330
7A03
100
AcDbEntity
  8
SUNPOU
100
AcDbLine
 10
1847.595589532267
 20
-646.2324064029546
 30
0.0
 11
1767.602167916887
 21
-646.2324064029545
 31
0.0
  0
LINE
  5
7E25
330
7A03
100
AcDbEntity
  8
SUNPOU
100
AcDbLine
 10
1770.602167916887
 20
-716.2324064029546
 30
0.0
 11
1770.602167916887
 21
-653.2324064029545
 31
0.0
  0
INSERT
  5
7E26
330
7A03
100
AcDbEntity
  8
SUNPOU
100
AcDbBlockReference
  2
_OPEN
 10
1770.602167916887
 20
-723.2324064029545
 30
0.0
 41
7.0
 42
7.0
 43
7.0
 50
270.0
  0
INSERT
  5
7E27
330
7A03
100
AcDbEntity
  8
SUNPOU
100
AcDbBlockReference
  2
_OPEN
 10
1770.602167916887
 20
-646.2324064029545
 30
0.0
 41
7.0
 42
7.0
 43
7.0
 50
90.0
  0
MTEXT
  5
7E28
330
7A03
100
AcDbEntity
  8
SUNPOU
100
AcDbMText
 10
1765.602167916887
 20
-684.7324064029542
 30
0.0
 40
6.0
 41
0.0
 71
     5
 72
     1
  1
\A1;77
 11
0.0000000000000001
 21
1.0
 31
0.0
  0
POINT
  5
7E29
330
7A03
100
AcDbEntity
  8
DEFPOINTS
 62
     0
100
AcDbPoint
 10
1853.595589532266
 20
-723.2324064029547
 30
0.0
  0
POINT
  5
7E2A
330
7A03
100
AcDbEntity
  8
DEFPOINTS
 62
     0
100
AcDbPoint
 10
1853.595589532266
 20
-646.2324064029546
 30
0.0
  0
POINT
  5
7E2B
330
7A03
100
AcDbEntity
  8
DEFPOINTS
 62
     0
100
AcDbPoint
 10
1770.602167916887
 20
-646.2324064029545
 30
0.0
  0
ENDBLK
  5
7A0E
330
7A03
100
AcDbEntity
  8
0
100
AcDbBlockEnd
  0
BLOCK
  5
7D4E
330
7D42
100
AcDbEntity
  8
0
100
AcDbBlockBegin
  2
*D25
 70
     1
 10
0.0
 20
0.0
 30
0.0
  3
*D25
  1

  0
LINE
  5
7E2C
330
7D42
100
AcDbEntity
  8
SUNPOU
100
AcDbLine
 10
1815.599305487365
 20
-660.239235152055
 30
0.0
 11
1785.846904442075
 21
-660.2392351520549
 31
0.0
  0
LINE
  5
7E2D
330
7D42
100
AcDbEntity
  8
SUNPOU
100
AcDbLine
 10
1801.598878724577
 20
-646.2324064029546
 30
0.0
 11
1785.846904442075
 21
-646.2324064029545
 31
0.0
  0
LINE
  5
7E2E
330
7D42
100
AcDbEntity
  8
SUNPOU
100
AcDbLine
 10
1788.846904442075
 20
-667.2392351520548
 30
0.0
 11
1788.846904442075
 21
-674.2392351520549
 31
0.0
  0
LINE
  5
7E2F
330
7D42
100
AcDbEntity
  8
SUNPOU
100
AcDbLine
 10
1788.846904442075
 20
-639.2324064029545
 30
0.0
 11
1788.846904442075
 21
-632.2324064029545
 31
0.0
  0
LINE
  5
7E30
330
7D42
100
AcDbEntity
  8
SUNPOU
100
AcDbLine
 10
1788.846904442075
 20
-660.2392351520549
 30
0.0
 11
1788.846904442075
 21
-646.2324064029545
 31
0.0
  0
INSERT
  5
7E31
330
7D42
100
AcDbEntity
  8
SUNPOU
100
AcDbBlockReference
  2
_OPEN
 10
1788.846904442075
 20
-660.2392351520549
 30
0.0
 41
7.0
 42
7.0
 43
7.0
 50
90.0
  0
INSERT
  5
7E32
330
7D42
100
AcDbEntity
  8
SUNPOU
100
AcDbBlockReference
  2
_OPEN
 10
1788.846904442075
 20
-646.2324064029545
 30
0.0
 41
7.0
 42
7.0
 43
7.0
 50
270.0
  0
MTEXT
  5
7E33
330
7D42
100
AcDbEntity
  8
SUNPOU
100
AcDbMText
 10
1783.846904442075
 20
-653.2358207775045
 30
0.0
 40
6.0
 41
0.0
 71
     5
 72
     1
  1
\A1;14
 11
0.0000000000000001
 21
1.0
 31
0.0
  0
POINT
  5
7E34
330
7D42
100
AcDbEntity
  8
DEFPOINTS
 62
     0
100
AcDbPoint
 10
1821.599305487366
 20
-660.239235152055
 30
0.0
  0
POINT
  5
7E35
330
7D42
100
AcDbEntity
  8
DEFPOINTS
 62
     0
100
AcDbPoint
 10
1807.598878724577
 20
-646.2324064029546
 30
0.0
  0
POINT
  5
7E36
330
7D42
100
AcDbEntity
  8
DEFPOINTS
 62
     0
100
AcDbPoint
 10
1788.846904442075
 20
-646.2324064029545
 30
0.0
  0
ENDBLK
  5
7D4F
330
7D42
100
AcDbEntity
  8
0
100
AcDbBlockEnd
  0
ENDSEC
  0
SECTION
  2
ENTITIES
  0
LWPOLYLINE
  5
5F40
330
1A
100
AcDbEntity
  8
ZUWAKU
100
AcDbPolyline
 90
        4
 70
     1
 43
0.0
 10
1289.47191455992
 20
-300.0094829814336
 10
1289.47191455992
 20
-851.2094829814335
 10
2086.671914559921
 20
-851.2094829814335
 10
2086.671914559921
 20
-300.0094829814336
  0
LWPOLYLINE
  5
5F41
330
1A
100
AcDbEntity
  8
ZUWAKU
100
AcDbPolyline
 90
        4
 70
     1
 43
0.0
 10
1289.87191455992
 20
-300.4094829814334
 10
1289.87191455992
 20
-850.8094829814336
 10
2086.271914559921
 20
-850.8094829814336
 10
2086.27191455992
 20
-300.4094829814334
  0
LWPOLYLINE
  5
5F42
330
1A
100
AcDbEntity
  8
ZUWAKU
100
AcDbPolyline
 90
        4
 70
     1
 43
0.0
 10
1289.27191455992
 20
-299.8094829814336
 10
1289.27191455992
 20
-851.4094829814336
 10
2086.871914559921
 20
-851.4094829814334
 10
2086.871914559921
 20
-299.8094829814334
  0
LWPOLYLINE
  5
5F43
330
1A
100
AcDbEntity
  8
ZUWAKU
100
AcDbPolyline
 90
        4
 70
     1
 43
0.0
 10
1289.67191455992
 20
-300.2094829814336
 10
1289.67191455992
 20
-851.0094829814335
 10
2086.471914559921
 20
-851.0094829814335
 10
2086.471914559921
 20
-300.2094829814336
  0
LWPOLYLINE
  5
5F44
330
1A
100
AcDbEntity
  8
ZUWAKU
100
AcDbPolyline
 90
        4
 70
     1
 43
0.0
 10
1290.07191455992
 20
-300.6094829814336
 10
1290.07191455992
 20
-850.6094829814335
 10
2086.07191455992
 20
-850.6094829814335
 10
2086.07191455992
 20
-300.6094829814336
  0
TEXT
  5
5F49
330
1A
100
AcDbEntity
  8
MOJI
100
AcDbText
 10
1529.099117240771
 20
-833.4045619240262
 30
0.0
 40
5.599999999999998
  1
ブラケット正面打（吊）固定式
 41
0.9
  7
ｽﾀｲﾙ1
100
AcDbText
  0
LINE
  5
5F4A
330
1A
100
AcDbEntity
  8
ZUWAKU
100
AcDbLine
 10
1497.918515849988
 20
-836.2094829814335
 30
0.0
 11
1736.696278530912
 21
-836.2094829814335
 31
0.0
  0
LINE
  5
5F4B
330
1A
100
AcDbEntity
  8
ZUWAKU
100
AcDbLine
 10
1497.918515849988
 20
-835.8094829814335
 30
0.0
 11
1736.696278530912
 21
-835.8094829814335
 31
0.0
  0
LINE
  5
5F4C
330
1A
100
AcDbEntity
  8
ZUWAKU
100
AcDbLine
 10
1497.918515849988
 20
-836.0094829814336
 30
0.0
 11
1736.696278530912
 21
-836.0094829814336
 31
0.0
  0
LINE
  5
5F4D
330
1A
100
AcDbEntity
  8
ZUWAKU
100
AcDbLine
 10
1289.27191455992
 20
-820.6094829814334
 30
0.0
 11
2086.671914559921
 21
-820.6094829814334
 31
0.0
  0
LINE
  5
5F4E
330
1A
100
AcDbEntity
  8
ZUWAKU
100
AcDbLine
 10
1289.27191455992
 20
-820.8094829814335
 30
0.0
 11
2086.671914559921
 21
-820.8094829814335
 31
0.0
  0
LINE
  5
5F4F
330
1A
100
AcDbEntity
  8
ZUWAKU
100
AcDbLine
 10
1289.27191455992
 20
-821.0094829814336
 30
0.0
 11
2086.671914559921
 21
-821.0094829814336
 31
0.0
  0
LINE
  5
5F50
330
1A
100
AcDbEntity
  8
ZUWAKU
100
AcDbLine
 10
1289.27191455992
 20
-821.2094829814335
 30
0.0
 11
2086.671914559921
 21
-821.2094829814335
 31
0.0
  0
LINE
  5
5F51
330
1A
100
AcDbEntity
  8
ZUWAKU
100
AcDbLine
 10
1289.27191455992
 20
-821.4094829814335
 30
0.0
 11
2086.671914559921
 21
-821.4094829814335
 31
0.0
  0
LINE
  5
5F57
330
1A
100
AcDbEntity
  8
ZUWAKU
100
AcDbLine
 10
1337.664126714702
 20
-828.1594829814336
 30
0.0
 11
1341.164126714702
 21
-828.1594829814336
 31
0.0
  0
LINE
  5
5F58
330
1A
100
AcDbEntity
  8
ZUWAKU
100
AcDbLine
 10
1341.164126714702
 20
-830.9594829814335
 30
0.0
 11
1338.189126714701
 21
-830.9594829814335
 31
0.0
  0
LINE
  5
5F59
330
1A
100
AcDbEntity
  8
ZUWAKU
100
AcDbLine
 10
1340.983975195685
 20
-836.6744324750948
 30
0.0
 11
1338.07417722104
 21
-833.76463450045
 31
0.0
  0
ARC
  5
5F5A
330
1A
100
AcDbEntity
  8
ZUWAKU
100
AcDbCircle
 10
1339.414126714702
 20
-841.4594829814335
 30
0.0
 40
2.799999999999998
100
AcDbArc
 50
270.0
 51
0.0
  0
HATCH
  5
5F5B
330
1A
100
AcDbEntity
  8
ZUWAKU
100
AcDbHatch
 10
0.0
 20
0.0
 30
0.0
210
0.0
220
0.0
230
1.0
  2
ANSI37
 70
     0
 71
     0
 91
        8
 92
        7
 72
     1
 73
     1
 93
       24
 10
1303.77417722104
 20
-833.76463450045
 42
-0.1989123673796348
 10
1303.364126714702
 20
-832.7746850067891
 42
0.0
 10
1303.364126714702
 20
-831.4844829814337
 42
-0.4142135623730912
 10
1303.889126714701
 20
-830.9594829814335
 42
0.0
 10
1306.864126714701
 20
-830.9594829814335
 42
0.4142135623731546
 10
1307.389126714701
 20
-830.4344829814336
 42
0.0
 10
1307.389126714701
 20
-828.6844829814336
 42
0.4142135623731586
 10
1306.864126714701
 20
-828.1594829814336
 42
0.0
 10
1303.364126714702
 20
-828.1594829814336
 42
0.4142135623730928
 10
1300.564126714701
 20
-830.9594829814335
 42
0.0
 10
1300.564126714701
 20
-832.7746850067887
 42
0.1989123673796619
 10
1301.794278233718
 20
-835.7445334877724
 42
0.0
 10
1304.704076208363
 20
-838.6543314624171
 42
-0.1989123673796613
 10
1305.114126714701
 20
-839.6442809560783
 42
0.0
 10
1305.114126714701
 20
-840.9344829814335
 42
-0.4142135623730911
 10
1304.589126714702
 20
-841.4594829814335
 42
0.0
 10
1301.614126714702
 20
-841.4594829814335
 42
0.4142135623731526
 10
1301.089126714702
 20
-841.9844829814335
 42
0.0
 10
1301.089126714702
 20
-843.7344829814335
 42
0.4142135623731526
 10
1301.614126714702
 20
-844.2594829814336
 42
0.0
 10
1305.114126714701
 20
-844.2594829814336
 42
0.4142135623731045
 10
1307.914126714702
 20
-841.4594829814337
 42
0.0
 10
1307.914126714702
 20
-839.6442809560783
 42
0.1989123673796604
 10
1306.683975195685
 20
-836.6744324750948
 42
0.0
 97
        0
 92
        7
 72
     1
 73
     1
 93
       16
 10
1312.814126714701
 20
-832.3594829814336
 42
-0.4142135623730935
 10
1314.214126714702
 20
-830.9594829814335
 42
0.0
 10
1316.139126714702
 20
-830.9594829814335
 42
0.4142135623731546
 10
1316.664126714702
 20
-830.4344829814336
 42
0.0
 10
1316.664126714702
 20
-828.6844829814336
 42
0.4142135623730951
 10
1316.139126714702
 20
-828.1594829814336
 42
0.0
 10
1314.214126714701
 20
-828.1594829814336
 42
0.4142135623730893
 10
1310.014126714702
 20
-832.3594829814336
 42
0.0
 10
1310.014126714702
 20
-840.0594829814336
 42
0.4142135623730969
 10
1314.214126714702
 20
-844.2594829814336
 42
0.0
 10
1316.139126714702
 20
-844.2594829814336
 42
0.4142135623731526
 10
1316.664126714702
 20
-843.7344829814335
 42
0.0
 10
1316.664126714702
 20
-841.9844829814335
 42
0.4142135623730891
 10
1316.139126714702
 20
-841.4594829814335
 42
0.0
 10
1314.214126714702
 20
-841.4594829814335
 42
-0.4142135623730928
 10
1312.814126714701
 20
-840.0594829814336
 42
0.0
 97
        0
 92
        7
 72
     1
 73
     1
 93
        2
 10
1313.514126714702
 20
-836.2094829814335
 42
1.0
 10
1317.014126714701
 20
-836.2094829814335
 42
1.0
 97
        0
 92
        7
 72
     1
 73
     1
 93
       26
 10
1326.586773196879
 20
-832.20443578787
 42
0.0
 10
1327.648412830018
 20
-828.8425769496006
 42
0.5069206636600134
 10
1327.147781930822
 20
-828.1594829814336
 42
0.0
 10
1325.448892551213
 20
-828.1594829814336
 42
0.3272098845218764
 10
1324.948261652017
 20
-828.5263890132666
 42
0.0
 10
1323.079991777386
 20
-834.4425769496005
 42
-0.3272098845219541
 10
1322.57936087819
 20
-834.8094829814336
 42
0.0
 10
1322.439126714702
 20
-834.8094829814336
 42
-0.4142135623731526
 10
1321.914126714702
 20
-834.2844829814335
 42
0.0
 10
1321.914126714702
 20
-828.6844829814336
 42
0.4142135623730951
 10
1321.389126714701
 20
-828.1594829814336
 42
0.0
 10
1319.639126714702
 20
-828.1594829814336
 42
0.4142135623730871
 10
1319.114126714701
 20
-828.6844829814336
 42
0.0
 10
1319.114126714701
 20
-843.7344829814335
 42
0.4142135623730891
 10
1319.639126714702
 20
-844.2594829814336
 42
0.0
 10
1321.389126714701
 20
-844.2594829814336
 42
0.4142135623731526
 10
1321.914126714702
 20
-843.7344829814335
 42
0.0
 10
1321.914126714702
 20
-838.1344829814336
 42
-0.4142135623731526
 10
1322.439126714702
 20
-837.6094829814336
 42
0.0
 10
1322.57936087819
 20
-837.6094829814336
 42
-0.3272098845218915
 10
1323.079991777386
 20
-837.9763890132666
 42
0.0
 10
1324.948261652017
 20
-843.8925769496005
 42
0.3272098845218902
 10
1325.448892551213
 20
-844.2594829814336
 42
0.0
 10
1327.147781930822
 20
-844.2594829814336
 42
0.5069206636600336
 10
1327.648412830018
 20
-843.5763890132665
 42
0.0
 10
1325.322021451544
 20
-836.2094829814335
 42
0.0
 97
        0
 92
        7
 72
     1
 73
     1
 93
        8
 10
1332.764126714701
 20
-828.6844829814336
 42
0.4142135623731546
 10
1332.239126714702
 20
-828.1594829814336
 42
0.0
 10
1330.489126714702
 20
-828.1594829814336
 42
0.4142135623731507
 10
1329.964126714702
 20
-828.6844829814336
 42
0.0
 10
1329.964126714702
 20
-843.7344829814335
 42
0.4142135623731526
 10
1330.489126714702
 20
-844.2594829814336
 42
0.0
 10
1332.239126714702
 20
-844.2594829814336
 42
0.4142135623731526
 10
1332.764126714701
 20
-843.7344829814335
 42
0.0
 97
        0
 92
        7
 72
     1
 73
     1
 93
       24
 10
1337.664126714702
 20
-831.4844829814337
 42
-0.4142135623731546
 10
1338.189126714702
 20
-830.9594829814335
 42
0.0
 10
1341.164126714702
 20
-830.9594829814335
 42
0.4142135623730911
 10
1341.689126714701
 20
-830.4344829814336
 42
0.0
 10
1341.689126714701
 20
-828.6844829814336
 42
0.4142135623730952
 10
1341.164126714702
 20
-828.1594829814336
 42
0.0
 10
1337.664126714702
 20
-828.1594829814336
 42
0.4142135623731048
 10
1334.864126714701
 20
-830.9594829814335
 42
0.0
 10
1334.864126714701
 20
-832.7746850067887
 42
0.1989123673796613
 10
1336.094278233718
 20
-835.7445334877724
 42
0.0
 10
1339.004076208363
 20
-838.6543314624171
 42
-0.1989123673796402
 10
1339.414126714702
 20
-839.6442809560781
 42
0.0
 10
1339.414126714702
 20
-840.9344829814335
 42
-0.4142135623730911
 10
1338.889126714701
 20
-841.4594829814335
 42
0.0
 10
1335.914126714702
 20
-841.4594829814335
 42
0.4142135623731526
 10
1335.389126714702
 20
-841.9844829814335
 42
0.0
 10
1335.389126714702
 20
-843.7344829814335
 42
0.4142135623730891
 10
1335.914126714702
 20
-844.2594829814336
 42
0.0
 10
1339.414126714702
 20
-844.2594829814336
 42
0.4142135623730925
 10
1342.214126714702
 20
-841.4594829814337
 42
0.0
 10
1342.214126714702
 20
-839.6442809560783
 42
0.1989123673796675
 10
1340.983975195685
 20
-836.6744324750946
 42
0.0
 10
1338.07417722104
 20
-833.76463450045
 42
-0.1989123673796652
 10
1337.664126714702
 20
-832.7746850067891
 42
0.0
 97
        0
 92
        7
 72
     1
 73
     1
 93
       16
 10
1347.114126714701
 20
-828.6844829814336
 42
0.414213562373103
 10
1346.589126714702
 20
-828.1594829814336
 42
0.0
 10
1344.839126714702
 20
-828.1594829814336
 42
0.4142135623730871
 10
1344.314126714701
 20
-828.6844829814336
 42
0.0
 10
1344.314126714701
 20
-841.4594829814337
 42
0.4142135623730927
 10
1347.114126714701
 20
-844.2594829814336
 42
0.0
 10
1350.614126714702
 20
-844.2594829814336
 42
0.4142135623731045
 10
1353.414126714702
 20
-841.4594829814337
 42
0.0
 10
1353.414126714702
 20
-828.6844829814336
 42
0.4142135623730951
 10
1352.889126714702
 20
-828.1594829814336
 42
0.0
 10
1351.139126714701
 20
-828.1594829814336
 42
0.4142135623730871
 10
1350.614126714702
 20
-828.6844829814336
 42
0.0
 10
1350.614126714702
 20
-840.4094829814336
 42
-0.4142135623730879
 10
1349.564126714701
 20
-841.4594829814335
 42
0.0
 10
1348.164126714702
 20
-841.4594829814335
 42
-0.4142135623731197
 10
1347.114126714701
 20
-840.4094829814336
 42
0.0
 97
        0
 92
        7
 72
     1
 73
     1
 93
        8
 10
1358.314126714702
 20
-828.6844829814336
 42
0.4142135623730871
 10
1357.789126714702
 20
-828.1594829814336
 42
0.0
 10
1356.039126714702
 20
-828.1594829814336
 42
0.4142135623731507
 10
1355.514126714702
 20
-828.6844829814336
 42
0.0
 10
1355.514126714702
 20
-843.7344829814335
 42
0.4142135623730891
 10
1356.039126714702
 20
-844.2594829814336
 42
0.0
 10
1357.789126714702
 20
-844.2594829814336
 42
0.4142135623730891
 10
1358.314126714702
 20
-843.7344829814335
 42
0.0
 97
        0
 75
     0
 76
     1
 52
0.0
 41
0.2
 77
     0
 78
     2
 53
45.0
 43
388.3296102252417
 44
-864.6094829814336
 45
-0.4490128060534576
 46
0.4490128060534577
 79
     0
 53
135.0
 43
388.3296102252417
 44
-864.6094829814336
 45
-0.4490128060534577
 46
-0.4490128060534576
 79
     0
 47
0.057451373970553
 98
        8
 10
1305.351769522944
 20
-836.2423093355481
 10
1311.67642956636
 20
-832.5654207989826
 10
1314.43628244558
 20
-835.8976013353629
 10
1320.185974541558
 20
-835.208185334992
 10
1331.110386578877
 20
-834.7485730674504
 10
1336.17011545505
 20
-831.9909066650264
 10
1345.829600532321
 20
-832.6803250663385
 10
1357.098994179543
 20
-832.2207127987969
  0
LINE
  5
5F5C
330
1A
100
AcDbEntity
  8
ZUWAKU
100
AcDbLine
 10
1337.664126714702
 20
-831.4844829814337
 30
0.0
 11
1337.664126714702
 21
-832.7746850067889
 31
0.0
  0
LINE
  5
5F5D
330
1A
100
AcDbEntity
  8
ZUWAKU
100
AcDbLine
 10
1334.864126714701
 20
-830.9594829814335
 30
0.0
 11
1334.864126714701
 21
-832.7746850067889
 31
0.0
  0
LINE
  5
5F5E
330
1A
100
AcDbEntity
  8
ZUWAKU
100
AcDbLine
 10
1326.586773196879
 20
-832.20443578787
 30
0.0
 11
1325.322021451544
 21
-836.2094829814335
 31
0.0
  0
LINE
  5
5F5F
330
1A
100
AcDbEntity
  8
ZUWAKU
100
AcDbLine
 10
1329.964126714702
 20
-828.6844829814336
 30
0.0
 11
1329.964126714702
 21
-843.7344829814335
 31
0.0
  0
LINE
  5
5F60
330
1A
100
AcDbEntity
  8
ZUWAKU
100
AcDbLine
 10
1332.764126714701
 20
-843.7344829814335
 30
0.0
 11
1332.764126714701
 21
-828.6844829814336
 31
0.0
  0
LINE
  5
5F61
330
1A
100
AcDbEntity
  8
ZUWAKU
100
AcDbLine
 10
1321.914126714702
 20
-834.2844829814335
 30
0.0
 11
1321.914126714702
 21
-828.6844829814336
 31
0.0
  0
LINE
  5
5F62
330
1A
100
AcDbEntity
  8
ZUWAKU
100
AcDbLine
 10
1319.114126714701
 20
-828.6844829814336
 30
0.0
 11
1319.114126714701
 21
-843.7344829814335
 31
0.0
  0
LINE
  5
5F63
330
1A
100
AcDbEntity
  8
ZUWAKU
100
AcDbLine
 10
1324.948261652017
 20
-828.5263890132666
 30
0.0
 11
1323.079991777386
 21
-834.4425769496005
 31
0.0
  0
ARC
  5
5F64
330
1A
100
AcDbEntity
  8
ZUWAKU
100
AcDbCircle
 10
1314.214126714702
 20
-832.3594829814336
 30
0.0
 40
1.399999999999999
100
AcDbArc
 50
90.0
 51
180.0
  0
ARC
  5
5F65
330
1A
100
AcDbEntity
  8
ZUWAKU
100
AcDbCircle
 10
1314.214126714702
 20
-832.3594829814336
 30
0.0
 40
4.199999999999998
100
AcDbArc
 50
90.0
 51
180.0
  0
LINE
  5
5F66
330
1A
100
AcDbEntity
  8
ZUWAKU
100
AcDbLine
 10
1303.364126714702
 20
-831.4844829814337
 30
0.0
 11
1303.364126714702
 21
-832.7746850067889
 31
0.0
  0
LINE
  5
5F67
330
1A
100
AcDbEntity
  8
ZUWAKU
100
AcDbLine
 10
1300.564126714701
 20
-830.9594829814335
 30
0.0
 11
1300.564126714701
 21
-832.7746850067889
 31
0.0
  0
ARC
  5
5F68
330
1A
100
AcDbEntity
  8
ZUWAKU
100
AcDbCircle
 10
1305.114126714701
 20
-841.4594829814335
 30
0.0
 40
2.799999999999998
100
AcDbArc
 50
270.0
 51
0.0
  0
ARC
  5
5F69
330
1A
100
AcDbEntity
  8
ZUWAKU
100
AcDbCircle
 10
1301.614126714701
 20
-843.7344829814335
 30
0.0
 40
0.525
100
AcDbArc
 50
180.0
 51
270.0
  0
LINE
  5
5F6A
330
1A
100
AcDbEntity
  8
ZUWAKU
100
AcDbLine
 10
1301.614126714701
 20
-844.2594829814336
 30
0.0
 11
1305.114126714701
 21
-844.2594829814336
 31
0.0
  0
LINE
  5
5F6B
330
1A
100
AcDbEntity
  8
ZUWAKU
100
AcDbLine
 10
1307.914126714702
 20
-841.4594829814335
 30
0.0
 11
1307.914126714702
 21
-839.6442809560781
 31
0.0
  0
LINE
  5
5F6C
330
1A
100
AcDbEntity
  8
ZUWAKU
100
AcDbLine
 10
1306.683975195685
 20
-836.6744324750948
 30
0.0
 11
1303.77417722104
 21
-833.76463450045
 31
0.0
  0
LINE
  5
5F6D
330
1A
100
AcDbEntity
  8
ZUWAKU
100
AcDbLine
 10
1305.114126714701
 20
-840.9344829814335
 30
0.0
 11
1305.114126714701
 21
-839.6442809560781
 31
0.0
  0
ARC
  5
5F6E
330
1A
100
AcDbEntity
  8
ZUWAKU
100
AcDbCircle
 10
1304.589126714702
 20
-840.9344829814335
 30
0.0
 40
0.525
100
AcDbArc
 50
270.0
 51
0.0
  0
ARC
  5
5F6F
330
1A
100
AcDbEntity
  8
ZUWAKU
100
AcDbCircle
 10
1303.714126714702
 20
-839.6442809560781
 30
0.0
 40
1.399999999999999
100
AcDbArc
 50
0.0
 51
45.0000000000046
  0
LINE
  5
5F70
330
1A
100
AcDbEntity
  8
ZUWAKU
100
AcDbLine
 10
1301.089126714702
 20
-843.7344829814335
 30
0.0
 11
1301.089126714702
 21
-841.9844829814335
 31
0.0
  0
ARC
  5
5F71
330
1A
100
AcDbEntity
  8
ZUWAKU
100
AcDbCircle
 10
1301.614126714701
 20
-841.9844829814335
 30
0.0
 40
0.525
100
AcDbArc
 50
90.0
 51
180.0
  0
LINE
  5
5F72
330
1A
100
AcDbEntity
  8
ZUWAKU
100
AcDbLine
 10
1301.614126714701
 20
-841.4594829814335
 30
0.0
 11
1304.589126714702
 21
-841.4594829814335
 31
0.0
  0
LINE
  5
5F73
330
1A
100
AcDbEntity
  8
ZUWAKU
100
AcDbLine
 10
1301.794278233718
 20
-835.7445334877724
 30
0.0
 11
1304.704076208363
 21
-838.6543314624171
 31
0.0
  0
ARC
  5
5F74
330
1A
100
AcDbEntity
  8
ZUWAKU
100
AcDbCircle
 10
1303.714126714702
 20
-839.6442809560783
 30
0.0
 40
4.199999999999998
100
AcDbArc
 50
0.0
 51
45.0000000000046
  0
ARC
  5
5F75
330
1A
100
AcDbEntity
  8
ZUWAKU
100
AcDbCircle
 10
1304.764126714702
 20
-832.7746850067889
 30
0.0
 40
1.399999999999999
100
AcDbArc
 50
180.0
 51
224.9999999999953
  0
ARC
  5
5F76
330
1A
100
AcDbEntity
  8
ZUWAKU
100
AcDbCircle
 10
1304.764126714702
 20
-832.7746850067889
 30
0.0
 40
4.199999999999998
100
AcDbArc
 50
180.0
 51
225.0000000000046
  0
ARC
  5
5F77
330
1A
100
AcDbEntity
  8
ZUWAKU
100
AcDbCircle
 10
1335.914126714702
 20
-843.7344829814335
 30
0.0
 40
0.525
100
AcDbArc
 50
180.0
 51
270.0
  0
ARC
  5
5F78
330
1A
100
AcDbEntity
  8
ZUWAKU
100
AcDbCircle
 10
1332.239126714702
 20
-843.7344829814335
 30
0.0
 40
0.525
100
AcDbArc
 50
270.0
 51
0.0
  0
ARC
  5
5F79
330
1A
100
AcDbEntity
  8
ZUWAKU
100
AcDbCircle
 10
1330.489126714701
 20
-843.7344829814335
 30
0.0
 40
0.525
100
AcDbArc
 50
180.0
 51
270.0
  0
ARC
  5
5F7A
330
1A
100
AcDbEntity
  8
ZUWAKU
100
AcDbCircle
 10
1327.147781930822
 20
-843.7344829814335
 30
0.0
 40
0.525
100
AcDbArc
 50
270.0
 51
17.52556837372188
  0
ARC
  5
5F7B
330
1A
100
AcDbEntity
  8
ZUWAKU
100
AcDbCircle
 10
1325.448892551213
 20
-843.7344829814335
 30
0.0
 40
0.525
100
AcDbArc
 50
197.5255683737218
 51
270.0
  0
ARC
  5
5F7C
330
1A
100
AcDbEntity
  8
ZUWAKU
100
AcDbCircle
 10
1321.389126714701
 20
-843.7344829814335
 30
0.0
 40
0.525
100
AcDbArc
 50
270.0
 51
0.0
  0
ARC
  5
5F7D
330
1A
100
AcDbEntity
  8
ZUWAKU
100
AcDbCircle
 10
1316.139126714702
 20
-843.7344829814335
 30
0.0
 40
0.525
100
AcDbArc
 50
270.0
 51
0.0
  0
ARC
  5
5F7E
330
1A
100
AcDbEntity
  8
ZUWAKU
100
AcDbCircle
 10
1319.639126714702
 20
-843.7344829814335
 30
0.0
 40
0.525
100
AcDbArc
 50
180.0
 51
270.0
  0
ARC
  5
5F7F
330
1A
100
AcDbEntity
  8
ZUWAKU
100
AcDbCircle
 10
1314.214126714702
 20
-840.0594829814336
 30
0.0
 40
4.199999999999998
100
AcDbArc
 50
180.0
 51
270.0
  0
LINE
  5
5F80
330
1A
100
AcDbEntity
  8
ZUWAKU
100
AcDbLine
 10
1319.639126714702
 20
-844.2594829814336
 30
0.0
 11
1321.389126714701
 21
-844.2594829814336
 31
0.0
  0
LINE
  5
5F81
330
1A
100
AcDbEntity
  8
ZUWAKU
100
AcDbLine
 10
1316.139126714702
 20
-844.2594829814336
 30
0.0
 11
1314.214126714702
 21
-844.2594829814336
 31
0.0
  0
LINE
  5
5F82
330
1A
100
AcDbEntity
  8
ZUWAKU
100
AcDbLine
 10
1335.914126714702
 20
-844.2594829814336
 30
0.0
 11
1339.414126714702
 21
-844.2594829814336
 31
0.0
  0
LINE
  5
5F83
330
1A
100
AcDbEntity
  8
ZUWAKU
100
AcDbLine
 10
1325.448892551213
 20
-844.2594829814336
 30
0.0
 11
1327.147781930822
 21
-844.2594829814336
 31
0.0
  0
LINE
  5
5F84
330
1A
100
AcDbEntity
  8
ZUWAKU
100
AcDbLine
 10
1330.489126714701
 20
-844.2594829814336
 30
0.0
 11
1332.239126714702
 21
-844.2594829814336
 31
0.0
  0
LINE
  5
5F85
330
1A
100
AcDbEntity
  8
ZUWAKU
100
AcDbLine
 10
1324.948261652017
 20
-843.8925769496005
 30
0.0
 11
1323.079991777386
 21
-837.9763890132666
 31
0.0
  0
ARC
  5
5F86
330
1A
100
AcDbEntity
  8
ZUWAKU
100
AcDbCircle
 10
1322.57936087819
 20
-834.2844829814335
 30
0.0
 40
0.525
100
AcDbArc
 50
270.0
 51
342.474431626278
  0
LINE
  5
5F87
330
1A
100
AcDbEntity
  8
ZUWAKU
100
AcDbLine
 10
1322.57936087819
 20
-834.8094829814336
 30
0.0
 11
1322.439126714701
 21
-834.8094829814336
 31
0.0
  0
LINE
  5
5F88
330
1A
100
AcDbEntity
  8
ZUWAKU
100
AcDbLine
 10
1322.439126714701
 20
-837.6094829814336
 30
0.0
 11
1322.57936087819
 21
-837.6094829814336
 31
0.0
  0
ARC
  5
5F89
330
1A
100
AcDbEntity
  8
ZUWAKU
100
AcDbCircle
 10
1322.439126714701
 20
-834.2844829814335
 30
0.0
 40
0.525
100
AcDbArc
 50
180.0
 51
270.0
  0
LINE
  5
5F8A
330
1A
100
AcDbEntity
  8
ZUWAKU
100
AcDbLine
 10
1321.914126714702
 20
-843.7344829814335
 30
0.0
 11
1321.914126714702
 21
-838.1344829814336
 31
0.0
  0
LINE
  5
5F8B
330
1A
100
AcDbEntity
  8
ZUWAKU
100
AcDbLine
 10
1316.664126714702
 20
-841.9844829814335
 30
0.0
 11
1316.664126714702
 21
-843.7344829814335
 31
0.0
  0
ARC
  5
5F8C
330
1A
100
AcDbEntity
  8
ZUWAKU
100
AcDbCircle
 10
1316.139126714702
 20
-841.9844829814335
 30
0.0
 40
0.525
100
AcDbArc
 50
0.0
 51
90.0
  0
ARC
  5
5F8D
330
1A
100
AcDbEntity
  8
ZUWAKU
100
AcDbCircle
 10
1322.57936087819
 20
-838.1344829814336
 30
0.0
 40
0.525
100
AcDbArc
 50
17.52556837372188
 51
90.0
  0
ARC
  5
5F8E
330
1A
100
AcDbEntity
  8
ZUWAKU
100
AcDbCircle
 10
1322.439126714701
 20
-838.1344829814336
 30
0.0
 40
0.525
100
AcDbArc
 50
90.0
 51
180.0
  0
ARC
  5
5F8F
330
1A
100
AcDbEntity
  8
ZUWAKU
100
AcDbCircle
 10
1314.214126714702
 20
-840.0594829814336
 30
0.0
 40
1.399999999999999
100
AcDbArc
 50
180.0
 51
270.0
  0
LINE
  5
5F90
330
1A
100
AcDbEntity
  8
ZUWAKU
100
AcDbLine
 10
1312.814126714701
 20
-832.3594829814336
 30
0.0
 11
1312.814126714701
 21
-840.0594829814336
 31
0.0
  0
LINE
  5
5F91
330
1A
100
AcDbEntity
  8
ZUWAKU
100
AcDbLine
 10
1310.014126714702
 20
-840.0594829814336
 30
0.0
 11
1310.014126714702
 21
-832.3594829814336
 31
0.0
  0
LINE
  5
5F92
330
1A
100
AcDbEntity
  8
ZUWAKU
100
AcDbLine
 10
1314.214126714702
 20
-841.4594829814335
 30
0.0
 11
1316.139126714702
 21
-841.4594829814335
 31
0.0
  0
CIRCLE
  5
5F93
330
1A
100
AcDbEntity
  8
ZUWAKU
100
AcDbCircle
 10
1315.264126714701
 20
-836.2094829814335
 30
0.0
 40
1.75
  0
LINE
  5
5F94
330
1A
100
AcDbEntity
  8
ZUWAKU
100
AcDbLine
 10
1339.414126714702
 20
-840.9344829814335
 30
0.0
 11
1339.414126714702
 21
-839.6442809560781
 31
0.0
  0
ARC
  5
5F95
330
1A
100
AcDbEntity
  8
ZUWAKU
100
AcDbCircle
 10
1338.014126714702
 20
-839.6442809560781
 30
0.0
 40
1.399999999999999
100
AcDbArc
 50
0.0
 51
45.0000000000046
  0
ARC
  5
5F96
330
1A
100
AcDbEntity
  8
ZUWAKU
100
AcDbCircle
 10
1338.889126714701
 20
-840.9344829814335
 30
0.0
 40
0.525
100
AcDbArc
 50
270.0
 51
0.0
  0
LINE
  5
5F97
330
1A
100
AcDbEntity
  8
ZUWAKU
100
AcDbLine
 10
1335.389126714702
 20
-843.7344829814335
 30
0.0
 11
1335.389126714702
 21
-841.9844829814335
 31
0.0
  0
ARC
  5
5F98
330
1A
100
AcDbEntity
  8
ZUWAKU
100
AcDbCircle
 10
1335.914126714702
 20
-841.9844829814335
 30
0.0
 40
0.525
100
AcDbArc
 50
90.0
 51
180.0
  0
LINE
  5
5F99
330
1A
100
AcDbEntity
  8
ZUWAKU
100
AcDbLine
 10
1335.914126714702
 20
-841.4594829814335
 30
0.0
 11
1338.889126714701
 21
-841.4594829814335
 31
0.0
  0
LINE
  5
5F9A
330
1A
100
AcDbEntity
  8
ZUWAKU
100
AcDbLine
 10
1336.094278233718
 20
-835.7445334877724
 30
0.0
 11
1339.004076208363
 21
-838.6543314624171
 31
0.0
  0
LINE
  5
5F9B
330
1A
100
AcDbEntity
  8
ZUWAKU
100
AcDbLine
 10
1327.648412830018
 20
-843.5763890132665
 30
0.0
 11
1325.322021451544
 21
-836.2094829814335
 31
0.0
  0
ARC
  5
5F9C
330
1A
100
AcDbEntity
  8
ZUWAKU
100
AcDbCircle
 10
1339.064126714701
 20
-832.7746850067889
 30
0.0
 40
1.399999999999999
100
AcDbArc
 50
180.0
 51
224.9999999999953
  0
ARC
  5
5F9D
330
1A
100
AcDbEntity
  8
ZUWAKU
100
AcDbCircle
 10
1339.064126714701
 20
-832.7746850067889
 30
0.0
 40
4.199999999999998
100
AcDbArc
 50
180.0
 51
225.0000000000046
  0
LINE
  5
5F9E
330
1A
100
AcDbEntity
  8
ZUWAKU
100
AcDbLine
 10
1307.389126714701
 20
-828.6844829814336
 30
0.0
 11
1307.389126714701
 21
-830.4344829814336
 31
0.0
  0
LINE
  5
5F9F
330
1A
100
AcDbEntity
  8
ZUWAKU
100
AcDbLine
 10
1303.364126714702
 20
-828.1594829814336
 30
0.0
 11
1306.864126714701
 21
-828.1594829814336
 31
0.0
  0
ARC
  5
5FA0
330
1A
100
AcDbEntity
  8
ZUWAKU
100
AcDbCircle
 10
1303.889126714701
 20
-831.4844829814337
 30
0.0
 40
0.525
100
AcDbArc
 50
90.0
 51
180.0
  0
LINE
  5
5FA1
330
1A
100
AcDbEntity
  8
ZUWAKU
100
AcDbLine
 10
1306.864126714701
 20
-830.9594829814335
 30
0.0
 11
1303.889126714701
 21
-830.9594829814335
 31
0.0
  0
ARC
  5
5FA2
330
1A
100
AcDbEntity
  8
ZUWAKU
100
AcDbCircle
 10
1303.364126714702
 20
-830.9594829814335
 30
0.0
 40
2.799999999999998
100
AcDbArc
 50
90.0
 51
180.0
  0
ARC
  5
5FA3
330
1A
100
AcDbEntity
  8
ZUWAKU
100
AcDbCircle
 10
1306.864126714701
 20
-828.6844829814336
 30
0.0
 40
0.525
100
AcDbArc
 50
0.0
 51
90.0
  0
ARC
  5
5FA4
330
1A
100
AcDbEntity
  8
ZUWAKU
100
AcDbCircle
 10
1306.864126714701
 20
-830.4344829814336
 30
0.0
 40
0.525
100
AcDbArc
 50
270.0
 51
0.0
  0
ARC
  5
5FA5
330
1A
100
AcDbEntity
  8
ZUWAKU
100
AcDbCircle
 10
1321.389126714701
 20
-828.6844829814336
 30
0.0
 40
0.525
100
AcDbArc
 50
0.0
 51
90.0
  0
LINE
  5
5FA6
330
1A
100
AcDbEntity
  8
ZUWAKU
100
AcDbLine
 10
1321.389126714701
 20
-828.1594829814336
 30
0.0
 11
1319.639126714702
 21
-828.1594829814336
 31
0.0
  0
ARC
  5
5FA7
330
1A
100
AcDbEntity
  8
ZUWAKU
100
AcDbCircle
 10
1316.139126714702
 20
-828.6844829814336
 30
0.0
 40
0.525
100
AcDbArc
 50
0.0
 51
90.0
  0
ARC
  5
5FA8
330
1A
100
AcDbEntity
  8
ZUWAKU
100
AcDbCircle
 10
1319.639126714702
 20
-828.6844829814336
 30
0.0
 40
0.525
100
AcDbArc
 50
90.0
 51
180.0
  0
ARC
  5
5FA9
330
1A
100
AcDbEntity
  8
ZUWAKU
100
AcDbCircle
 10
1316.139126714702
 20
-830.4344829814336
 30
0.0
 40
0.525
100
AcDbArc
 50
270.0
 51
0.0
  0
LINE
  5
5FAA
330
1A
100
AcDbEntity
  8
ZUWAKU
100
AcDbLine
 10
1316.664126714702
 20
-828.6844829814336
 30
0.0
 11
1316.664126714702
 21
-830.4344829814336
 31
0.0
  0
LINE
  5
5FAB
330
1A
100
AcDbEntity
  8
ZUWAKU
100
AcDbLine
 10
1314.214126714702
 20
-828.1594829814336
 30
0.0
 11
1316.139126714702
 21
-828.1594829814336
 31
0.0
  0
LINE
  5
5FAC
330
1A
100
AcDbEntity
  8
ZUWAKU
100
AcDbLine
 10
1316.139126714702
 20
-830.9594829814335
 30
0.0
 11
1314.214126714702
 21
-830.9594829814335
 31
0.0
  0
ARC
  5
5FAD
330
1A
100
AcDbEntity
  8
ZUWAKU
100
AcDbCircle
 10
1338.189126714701
 20
-831.4844829814337
 30
0.0
 40
0.525
100
AcDbArc
 50
90.0
 51
180.0
  0
ARC
  5
5FAE
330
1A
100
AcDbEntity
  8
ZUWAKU
100
AcDbCircle
 10
1332.239126714702
 20
-828.6844829814336
 30
0.0
 40
0.525
100
AcDbArc
 50
0.0
 51
90.0
  0
ARC
  5
5FAF
330
1A
100
AcDbEntity
  8
ZUWAKU
100
AcDbCircle
 10
1337.664126714702
 20
-830.9594829814335
 30
0.0
 40
2.799999999999998
100
AcDbArc
 50
90.0
 51
180.0
  0
ARC
  5
5FB0
330
1A
100
AcDbEntity
  8
ZUWAKU
100
AcDbCircle
 10
1330.489126714701
 20
-828.6844829814336
 30
0.0
 40
0.525
100
AcDbArc
 50
90.0
 51
180.0
  0
LINE
  5
5FB1
330
1A
100
AcDbEntity
  8
ZUWAKU
100
AcDbLine
 10
1325.448892551213
 20
-828.1594829814336
 30
0.0
 11
1327.147781930822
 21
-828.1594829814336
 31
0.0
  0
ARC
  5
5FB2
330
1A
100
AcDbEntity
  8
ZUWAKU
100
AcDbCircle
 10
1327.147781930822
 20
-828.6844829814336
 30
0.0
 40
0.525
100
AcDbArc
 50
342.474431626278
 51
90.0
  0
LINE
  5
5FB3
330
1A
100
AcDbEntity
  8
ZUWAKU
100
AcDbLine
 10
1327.648412830018
 20
-828.8425769496006
 30
0.0
 11
1326.586773196879
 21
-832.20443578787
 31
0.0
  0
ARC
  5
5FB4
330
1A
100
AcDbEntity
  8
ZUWAKU
100
AcDbCircle
 10
1325.448892551213
 20
-828.6844829814336
 30
0.0
 40
0.525
100
AcDbArc
 50
90.0
 51
162.4744316262781
  0
LINE
  5
5FB5
330
1A
100
AcDbEntity
  8
ZUWAKU
100
AcDbLine
 10
1332.239126714702
 20
-828.1594829814336
 30
0.0
 11
1330.489126714701
 21
-828.1594829814336
 31
0.0
  0
LINE
  5
5FB6
330
1A
100
AcDbEntity
  8
ZUWAKU
100
AcDbLine
 10
1497.518515849988
 20
-821.4094829814335
 30
0.0
 11
1497.518515849988
 21
-850.6094829814335
 31
0.0
  0
LINE
  5
5FB7
330
1A
100
AcDbEntity
  8
ZUWAKU
100
AcDbLine
 10
1497.918515849988
 20
-821.4094829814335
 30
0.0
 11
1497.918515849988
 21
-850.6094829814335
 31
0.0
  0
LINE
  5
5FB8
330
1A
100
AcDbEntity
  8
ZUWAKU
100
AcDbLine
 10
1497.718515849988
 20
-821.4094829814335
 30
0.0
 11
1497.718515849988
 21
-850.6094829814335
 31
0.0
  0
LINE
  5
5FB9
330
1A
100
AcDbEntity
  8
ZUWAKU
100
AcDbLine
 10
1368.598544107909
 20
-821.4094829814335
 30
0.0
 11
1368.598544107909
 21
-850.6094829814335
 31
0.0
  0
LINE
  5
5FBA
330
1A
100
AcDbEntity
  8
ZUWAKU
100
AcDbLine
 10
1368.798544107909
 20
-821.4094829814335
 30
0.0
 11
1368.798544107909
 21
-850.6094829814335
 31
0.0
  0
LINE
  5
5FBB
330
1A
100
AcDbEntity
  8
ZUWAKU
100
AcDbLine
 10
1368.398544107909
 20
-821.4094829814335
 30
0.0
 11
1368.398544107909
 21
-850.6094829814335
 31
0.0
  0
LINE
  5
5FBC
330
1A
100
AcDbEntity
  8
ZUWAKU
100
AcDbLine
 10
1353.414126714702
 20
-841.4594829814335
 30
0.0
 11
1353.414126714702
 21
-828.6844829814336
 31
0.0
  0
LINE
  5
5FBD
330
1A
100
AcDbEntity
  8
ZUWAKU
100
AcDbLine
 10
1350.614126714702
 20
-828.6844829814336
 30
0.0
 11
1350.614126714702
 21
-840.4094829814336
 31
0.0
  0
LINE
  5
5FBE
330
1A
100
AcDbEntity
  8
ZUWAKU
100
AcDbLine
 10
1358.314126714702
 20
-843.7344829814335
 30
0.0
 11
1358.314126714702
 21
-828.6844829814336
 31
0.0
  0
LINE
  5
5FBF
330
1A
100
AcDbEntity
  8
ZUWAKU
100
AcDbLine
 10
1355.514126714702
 20
-828.6844829814336
 30
0.0
 11
1355.514126714702
 21
-843.7344829814335
 31
0.0
  0
LINE
  5
5FC0
330
1A
100
AcDbEntity
  8
ZUWAKU
100
AcDbLine
 10
1344.314126714701
 20
-828.6844829814336
 30
0.0
 11
1344.314126714701
 21
-841.4594829814335
 31
0.0
  0
LINE
  5
5FC1
330
1A
100
AcDbEntity
  8
ZUWAKU
100
AcDbLine
 10
1347.114126714701
 20
-840.4094829814336
 30
0.0
 11
1347.114126714701
 21
-828.6844829814336
 31
0.0
  0
TEXT
  5
5FC2
330
1A
100
AcDbEntity
  8
MOJI
100
AcDbText
 10
1385.056035890871
 20
-839.0135711435091
 30
0.0
 40
5.799999999999999
  1
アートフェイス　シリーズ
 41
0.9
  7
ｽﾀｲﾙ1
100
AcDbText
  0
ARC
  5
5FC4
330
1A
100
AcDbEntity
  8
ZUWAKU
100
AcDbCircle
 10
1357.789126714702
 20
-843.7344829814335
 30
0.0
 40
0.525
100
AcDbArc
 50
270.0
 51
0.0
  0
ARC
  5
5FC5
330
1A
100
AcDbEntity
  8
ZUWAKU
100
AcDbCircle
 10
1356.039126714702
 20
-843.7344829814335
 30
0.0
 40
0.525
100
AcDbArc
 50
180.0
 51
270.0
  0
ARC
  5
5FC6
330
1A
100
AcDbEntity
  8
ZUWAKU
100
AcDbCircle
 10
1350.614126714702
 20
-841.4594829814335
 30
0.0
 40
2.799999999999998
100
AcDbArc
 50
270.0
 51
0.0
  0
ARC
  5
5FC7
330
1A
100
AcDbEntity
  8
ZUWAKU
100
AcDbCircle
 10
1347.114126714701
 20
-841.4594829814335
 30
0.0
 40
2.799999999999998
100
AcDbArc
 50
180.0
 51
270.0
  0
LINE
  5
5FC8
330
1A
100
AcDbEntity
  8
ZUWAKU
100
AcDbLine
 10
1356.039126714702
 20
-844.2594829814336
 30
0.0
 11
1357.789126714702
 21
-844.2594829814336
 31
0.0
  0
LINE
  5
5FC9
330
1A
100
AcDbEntity
  8
ZUWAKU
100
AcDbLine
 10
1347.114126714701
 20
-844.2594829814336
 30
0.0
 11
1350.614126714702
 21
-844.2594829814336
 31
0.0
  0
ARC
  5
5FCA
330
1A
100
AcDbEntity
  8
ZUWAKU
100
AcDbCircle
 10
1349.564126714701
 20
-840.4094829814336
 30
0.0
 40
1.049999999999998
100
AcDbArc
 50
270.0
 51
0.0
  0
LINE
  5
5FCB
330
1A
100
AcDbEntity
  8
ZUWAKU
100
AcDbLine
 10
1342.214126714702
 20
-841.4594829814335
 30
0.0
 11
1342.214126714702
 21
-839.6442809560781
 31
0.0
  0
ARC
  5
5FCC
330
1A
100
AcDbEntity
  8
ZUWAKU
100
AcDbCircle
 10
1338.014126714702
 20
-839.6442809560783
 30
0.0
 40
4.199999999999998
100
AcDbArc
 50
0.0
 51
45.0000000000046
  0
ARC
  5
5FCD
330
1A
100
AcDbEntity
  8
ZUWAKU
100
AcDbCircle
 10
1348.164126714702
 20
-840.4094829814336
 30
0.0
 40
1.049999999999998
100
AcDbArc
 50
180.0
 51
270.0
  0
LINE
  5
5FCE
330
1A
100
AcDbEntity
  8
ZUWAKU
100
AcDbLine
 10
1349.564126714701
 20
-841.4594829814335
 30
0.0
 11
1348.164126714702
 21
-841.4594829814335
 31
0.0
  0
TEXT
  5
5FCF
330
1A
100
AcDbEntity
  8
MOJI
100
AcDbText
 10
1529.099117240771
 20
-848.2045619240262
 30
0.0
 40
5.599999999999998
  1
１６０－０－１０（ＮＡ）
 41
0.9
  7
ｽﾀｲﾙ1
100
AcDbText
  0
TEXT
  5
5FD0
330
1A
100
AcDbEntity
  8
ZUWAKU
100
AcDbText
 10
1498.995960872198
 20
-841.7541264430479
 30
0.0
 40
4.0
  1
サイズ
 41
0.9
  7
ｽﾀｲﾙ1
100
AcDbText
  0
LINE
  5
5FD1
330
1A
100
AcDbEntity
  8
ZUWAKU
100
AcDbLine
 10
1357.789126714702
 20
-828.1594829814336
 30
0.0
 11
1356.039126714702
 21
-828.1594829814336
 31
0.0
  0
ARC
  5
5FD2
330
1A
100
AcDbEntity
  8
ZUWAKU
100
AcDbCircle
 10
1356.039126714702
 20
-828.6844829814336
 30
0.0
 40
0.525
100
AcDbArc
 50
90.0
 51
180.0
  0
ARC
  5
5FD3
330
1A
100
AcDbEntity
  8
ZUWAKU
100
AcDbCircle
 10
1352.889126714702
 20
-828.6844829814336
 30
0.0
 40
0.525
100
AcDbArc
 50
0.0
 51
90.0
  0
LINE
  5
5FD4
330
1A
100
AcDbEntity
  8
ZUWAKU
100
AcDbLine
 10
1352.889126714702
 20
-828.1594829814336
 30
0.0
 11
1351.139126714701
 21
-828.1594829814336
 31
0.0
  0
ARC
  5
5FD5
330
1A
100
AcDbEntity
  8
ZUWAKU
100
AcDbCircle
 10
1351.139126714701
 20
-828.6844829814336
 30
0.0
 40
0.525
100
AcDbArc
 50
90.0
 51
180.0
  0
ARC
  5
5FD6
330
1A
100
AcDbEntity
  8
ZUWAKU
100
AcDbCircle
 10
1346.589126714702
 20
-828.6844829814336
 30
0.0
 40
0.525
100
AcDbArc
 50
0.0
 51
90.0
  0
ARC
  5
5FD7
330
1A
100
AcDbEntity
  8
ZUWAKU
100
AcDbCircle
 10
1344.839126714702
 20
-828.6844829814336
 30
0.0
 40
0.525
100
AcDbArc
 50
90.0
 51
180.0
  0
LINE
  5
5FD8
330
1A
100
AcDbEntity
  8
ZUWAKU
100
AcDbLine
 10
1346.589126714702
 20
-828.1594829814336
 30
0.0
 11
1344.839126714702
 21
-828.1594829814336
 31
0.0
  0
ARC
  5
5FD9
330
1A
100
AcDbEntity
  8
ZUWAKU
100
AcDbCircle
 10
1341.164126714702
 20
-828.6844829814336
 30
0.0
 40
0.525
100
AcDbArc
 50
0.0
 51
90.0
  0
ARC
  5
5FDA
330
1A
100
AcDbEntity
  8
ZUWAKU
100
AcDbCircle
 10
1341.164126714702
 20
-830.4344829814336
 30
0.0
 40
0.525
100
AcDbArc
 50
270.0
 51
0.0
  0
LINE
  5
5FDB
330
1A
100
AcDbEntity
  8
ZUWAKU
100
AcDbLine
 10
1341.689126714701
 20
-828.6844829814336
 30
0.0
 11
1341.689126714701
 21
-830.4344829814336
 31
0.0
  0
ARC
  5
5FDC
330
1A
100
AcDbEntity
  8
ZUWAKU
100
AcDbCircle
 10
1357.789126714702
 20
-828.6844829814336
 30
0.0
 40
0.525
100
AcDbArc
 50
0.0
 51
90.0
  0
TEXT
  5
5FDD
330
1A
100
AcDbEntity
  8
ZUWAKU
100
AcDbText
 10
1498.995960872198
 20
-827.354126443048
 30
0.0
 40
4.0
  1
品名
 41
0.9
  7
ｽﾀｲﾙ1
100
AcDbText
  0
LINE
  5
600C
330
1A
100
AcDbEntity
  8
ZUWAKU
100
AcDbLine
 10
1841.998870326033
 20
-821.4094829814335
 30
0.0
 11
1841.998870326033
 21
-850.6094829814335
 31
0.0
  0
LINE
  5
600D
330
1A
100
AcDbEntity
  8
ZUWAKU
100
AcDbLine
 10
1842.198870326033
 20
-821.4094829814335
 30
0.0
 11
1842.198870326033
 21
-850.6094829814335
 31
0.0
  0
LINE
  5
600E
330
1A
100
AcDbEntity
  8
ZUWAKU
100
AcDbLine
 10
1841.798870326033
 20
-821.4094829814335
 30
0.0
 11
1841.798870326033
 21
-850.6094829814335
 31
0.0
  0
LINE
  5
600F
330
1A
100
AcDbEntity
  8
ZUWAKU
100
AcDbLine
 10
1736.896278530911
 20
-821.4094829814335
 30
0.0
 11
1736.896278530912
 21
-850.6094829814335
 31
0.0
  0
LINE
  5
6010
330
1A
100
AcDbEntity
  8
ZUWAKU
100
AcDbLine
 10
1737.096278530912
 20
-821.4094829814335
 30
0.0
 11
1737.096278530912
 21
-850.6094829814335
 31
0.0
  0
LINE
  5
6011
330
1A
100
AcDbEntity
  8
ZUWAKU
100
AcDbLine
 10
1736.696278530912
 20
-821.4094829814335
 30
0.0
 11
1736.696278530912
 21
-850.6094829814335
 31
0.0
  0
TEXT
  5
6012
330
1A
100
AcDbEntity
  8
MOJI
100
AcDbText
 10
1817.312822532233
 20
-833.4045619240262
 30
0.0
 40
5.599999999999998
  1
Ａ３
 41
0.9
  7
ｽﾀｲﾙ1
100
AcDbText
  0
LINE
  5
6013
330
1A
100
AcDbEntity
  8
ZUWAKU
100
AcDbLine
 10
1794.271094058061
 20
-821.4094829814335
 30
0.0
 11
1794.271094058061
 21
-850.6094829814335
 31
0.0
  0
LINE
  5
6014
330
1A
100
AcDbEntity
  8
ZUWAKU
100
AcDbLine
 10
1794.471094058061
 20
-821.4094829814335
 30
0.0
 11
1794.471094058062
 21
-850.6094829814335
 31
0.0
  0
LINE
  5
6015
330
1A
100
AcDbEntity
  8
ZUWAKU
100
AcDbLine
 10
1794.071094058061
 20
-821.4094829814335
 30
0.0
 11
1794.071094058061
 21
-850.6094829814335
 31
0.0
  0
TEXT
  5
6016
330
1A
100
AcDbEntity
  8
MOJI
100
AcDbText
 10
1752.518346550923
 20
-839.4668652597736
 30
0.0
 40
5.599999999999998
  1
ＬＭ９２Ｔ
 41
0.9
  7
ｽﾀｲﾙ1
100
AcDbText
  0
TEXT
  5
6017
330
1A
100
AcDbEntity
  8
MOJI
100
AcDbText
 10
1817.312822532233
 20
-848.2045619240262
 30
0.0
 40
5.599999999999998
  1
１/２
 41
0.9
  7
ｽﾀｲﾙ1
100
AcDbText
  0
LINE
  5
6018
330
1A
100
AcDbEntity
  8
ZUWAKU
100
AcDbLine
 10
1794.471094058061
 20
-836.2094829814335
 30
0.0
 11
1841.798870326033
 21
-836.2094829814335
 31
0.0
  0
LINE
  5
6019
330
1A
100
AcDbEntity
  8
ZUWAKU
100
AcDbLine
 10
1794.471094058061
 20
-836.0094829814336
 30
0.0
 11
1841.798870326033
 21
-836.0094829814336
 31
0.0
  0
LINE
  5
601A
330
1A
100
AcDbEntity
  8
ZUWAKU
100
AcDbLine
 10
1794.471094058061
 20
-835.8094829814335
 30
0.0
 11
1841.798870326033
 21
-835.8094829814335
 31
0.0
  0
TEXT
  5
601B
330
1A
100
AcDbEntity
  8
ZUWAKU
100
AcDbText
 10
1795.948539080271
 20
-841.7541264430479
 30
0.0
 40
4.0
  1
縮尺
 41
0.9
  7
ｽﾀｲﾙ1
100
AcDbText
  0
TEXT
  5
601C
330
1A
100
AcDbEntity
  8
ZUWAKU
100
AcDbText
 10
1738.573723553121
 20
-827.354126443048
 30
0.0
 40
4.0
  1
品番
 41
0.9
  7
ｽﾀｲﾙ1
100
AcDbText
  0
TEXT
  5
601D
330
1A
100
AcDbEntity
  8
ZUWAKU
100
AcDbText
 10
1795.948539080271
 20
-827.354126443048
 30
0.0
 40
4.0
  1
用紙
 41
0.9
  7
ｽﾀｲﾙ1
100
AcDbText
  0
LINE
  5
601E
330
1A
100
AcDbEntity
  8
ZUWAKU
100
AcDbLine
 10
1986.520925108462
 20
-821.4094829814335
 30
0.0
 11
1986.520925108462
 21
-850.6094829814335
 31
0.0
  0
LINE
  5
601F
330
1A
100
AcDbEntity
  8
ZUWAKU
100
AcDbLine
 10
1986.720925108462
 20
-821.4094829814335
 30
0.0
 11
1986.720925108462
 21
-850.6094829814335
 31
0.0
  0
LINE
  5
6020
330
1A
100
AcDbEntity
  8
ZUWAKU
100
AcDbLine
 10
1986.920925108462
 20
-821.4094829814335
 30
0.0
 11
1986.920925108462
 21
-850.6094829814335
 31
0.0
  0
LINE
  5
6021
330
1A
100
AcDbEntity
  8
ZUWAKU
100
AcDbLine
 10
1987.120925108461
 20
-821.4094829814335
 30
0.0
 11
1987.120925108461
 21
-850.6094829814335
 31
0.0
  0
TEXT
  5
6022
330
1A
100
AcDbEntity
  8
ZUWAKU
100
AcDbText
 10
1997.799998752164
 20
-833.8556436457468
 30
0.0
 40
6.0
  1
積水化学工業株式会社
 41
0.9
  7
ｽﾀｲﾙ1
100
AcDbText
  0
LINE
  5
6023
330
1A
100
AcDbEntity
  8
ZUWAKU
100
AcDbLine
 10
1937.889117070124
 20
-821.4094829814335
 30
0.0
 11
1937.889117070125
 21
-850.6094829814335
 31
0.0
  0
LINE
  5
6024
330
1A
100
AcDbEntity
  8
ZUWAKU
100
AcDbLine
 10
1938.089117070125
 20
-821.4094829814335
 30
0.0
 11
1938.089117070125
 21
-850.6094829814335
 31
0.0
  0
LINE
  5
6025
330
1A
100
AcDbEntity
  8
ZUWAKU
100
AcDbLine
 10
1937.689117070125
 20
-821.4094829814335
 30
0.0
 11
1937.689117070125
 21
-850.6094829814335
 31
0.0
  0
TEXT
  5
6026
330
1A
100
AcDbEntity
  8
ZUWAKU
100
AcDbText
 10
1943.783990559607
 20
-833.4045619240262
 30
0.0
 40
5.599999999999998
  1
　　．　．　　
 41
0.9
  7
ｽﾀｲﾙ1
100
AcDbText
  0
LINE
  5
6027
330
1A
100
AcDbEntity
  8
ZUWAKU
100
AcDbLine
 10
1938.089117070125
 20
-836.2094829814335
 30
0.0
 11
1986.520925108462
 21
-836.2094829814335
 31
0.0
  0
LINE
  5
6028
330
1A
100
AcDbEntity
  8
ZUWAKU
100
AcDbLine
 10
1938.089117070125
 20
-836.0094829814334
 30
0.0
 11
1986.520925108462
 21
-836.0094829814336
 31
0.0
  0
LINE
  5
6029
330
1A
100
AcDbEntity
  8
ZUWAKU
100
AcDbLine
 10
1938.089117070125
 20
-835.8094829814335
 30
0.0
 11
1986.520925108462
 21
-835.8094829814335
 31
0.0
  0
TEXT
  5
602A
330
1A
100
AcDbEntity
  8
ZUWAKU
100
AcDbText
 10
1997.799998752164
 20
-844.7606426675795
 30
0.0
 40
6.0
  1
建材事業部
 41
0.9
  7
ｽﾀｲﾙ1
100
AcDbText
  0
TEXT
  5
602B
330
1A
100
AcDbEntity
  8
ZUWAKU
100
AcDbText
 10
1939.566562092334
 20
-827.354126443048
 30
0.0
 40
4.0
  1
DATE
 41
0.9
  7
ｽﾀｲﾙ1
100
AcDbText
  0
LINE
  5
627F
102
{ACAD_REACTORS
330
6282
102
}
330
1A
100
AcDbEntity
  8
KEIJYO
 62
   251
100
AcDbLine
 10
1524.505199035177
 20
-574.9860824831256
 30
0.0
 11
1526.062833823835
 21
-574.9860824831256
 31
0.0
  0
LINE
  5
6280
102
{ACAD_REACTORS
330
6282
102
}
330
1A
100
AcDbEntity
  8
KEIJYO
 62
   251
100
AcDbLine
 10
1525.284016429506
 20
-574.2072650887968
 30
0.0
 11
1525.284016429506
 21
-575.7648998774543
 31
0.0
  0
CIRCLE
  5
6281
102
{ACAD_REACTORS
330
6282
102
}
330
1A
100
AcDbEntity
  8
KEIJYO
 62
   251
100
AcDbCircle
 10
1525.284016429506
 20
-574.9860824831256
 30
0.0
 40
0.7788173943287319
  0
DIMENSION
  5
73BE
330
1A
100
AcDbEntity
  8
SUNPOU
100
AcDbDimension
  2
*D1
 10
1885.599405487367
 20
-588.5308433112254
 30
0.0
 11
1853.599355487366
 21
-583.5308433112254
 31
0.0
 70
    32
  3
STANDARD
100
AcDbAlignedDimension
 13
1821.599305487366
 23
-660.239235152055
 33
0.0
 14
1885.599405487367
 24
-660.239335152955
 34
0.0
100
AcDbRotatedDimension
1001
ACAD
1000
DSTYLE
1002
{
1070
   287
1070
     5
1070
    41
1040
7.0
1070
    42
1040
6.0
1070
    43
1040
14.0
1070
    44
1040
3.0
1070
    73
1070
     0
1070
    74
1070
     0
1070
    77
1070
     3
1070
   140
1040
6.0
1070
   141
1040
150.0
1070
   147
1040
2.0
1070
   172
1070
     1
1070
   173
1070
     1
1070
   176
1070
   256
1070
   177
1070
   256
1070
   178
1070
   256
1070
   271
1070
     0
1070
   272
1070
     0
1070
   279
1070
     2
1070
   341
1005
6D
1070
     6
1000
OPEN
1070
     7
1000
OPEN
1070
   371
1070
    -1
1070
   372
1070
    -1
1002
}
  0
DIMENSION
  5
73BF
330
1A
100
AcDbEntity
  8
SUNPOU
100
AcDbDimension
  2
*D2
 10
1893.599405487367
 20
-571.8368081990624
 30
0.0
 11
1853.599405487384
 21
-566.8368081990625
 31
0.0
 70
    32
  3
STANDARD
100
AcDbAlignedDimension
 13
1813.599405487402
 23
-652.0734079360895
 33
0.0
 14
1893.599405487367
 24
-652.0734079360551
 34
0.0
100
AcDbRotatedDimension
1001
ACAD
1000
DSTYLE
1002
{
1070
   287
1070
     5
1070
    41
1040
7.0
1070
    42
1040
6.0
1070
    43
1040
14.0
1070
    44
1040
3.0
1070
    73
1070
     0
1070
    74
1070
     0
1070
    77
1070
     3
1070
   140
1040
6.0
1070
   141
1040
150.0
1070
   147
1040
2.0
1070
   172
1070
     1
1070
   173
1070
     1
1070
   176
1070
   256
1070
   177
1070
   256
1070
   178
1070
   256
1070
   271
1070
     0
1070
   272
1070
     0
1070
   279
1070
     2
1070
   341
1005
6D
1070
     6
1000
OPEN
1070
     7
1000
OPEN
1070
   371
1070
    -1
1070
   372
1070
    -1
1002
}
  0
DIMENSION
  5
73C0
330
1A
100
AcDbEntity
  8
SUNPOU
100
AcDbDimension
  2
*D3
 10
1653.041064487962
 20
-571.8368081990624
 30
0.0
 11
1573.05111716578
 21
-565.350029489379
 31
0.0
 70
   160
  3
STANDARD
100
AcDbAlignedDimension
 13
1498.541066889531
 23
-639.7222529089552
 33
0.0
 14
1653.041064487962
 24
-634.9324446779389
 34
0.0
100
AcDbRotatedDimension
1001
ACAD
1000
DSTYLE
1002
{
1070
   287
1070
     5
1070
    41
1040
7.0
1070
    42
1040
6.0
1070
    43
1040
14.0
1070
    44
1040
3.0
1070
    73
1070
     0
1070
    74
1070
     0
1070
    77
1070
     3
1070
   140
1040
6.0
1070
   141
1040
150.0
1070
   147
1040
2.0
1070
   172
1070
     1
1070
   173
1070
     1
1070
   176
1070
   256
1070
   177
1070
   256
1070
   178
1070
   256
1070
   271
1070
     0
1070
   272
1070
     0
1070
   279
1070
     2
1070
   341
1005
6D
1070
     6
1000
OPEN
1070
     7
1000
OPEN
1070
   371
1070
    -1
1070
   372
1070
    -1
1002
}
  0
ARC
  5
73C1
330
1A
100
AcDbEntity
  8
SEIHIN
100
AcDbCircle
 10
1572.507578175263
 20
-641.2322110113552
 30
0.0
 40
54.99999692486524
100
AcDbArc
 50
244.6711525074966
 51
269.9998815673066
  0
ARC
  5
73C2
330
1A
100
AcDbEntity
  8
SEIHIN
100
AcDbCircle
 10
1572.507717939363
 20
-641.2322199468551
 30
0.0
 40
59.99998798972985
100
AcDbArc
 50
244.6710694814083
 51
269.9997579716902
  0
ARC
  5
73C3
330
1A
100
AcDbEntity
  8
SEIHIN
100
AcDbCircle
 10
1572.507658271963
 20
-641.2322465619552
 30
0.0
 40
44.99995249247488
100
AcDbArc
 50
213.0689982857902
 51
303.4324896461906
  0
ARC
  5
73C4
330
1A
100
AcDbEntity
  8
SEIHIN
100
AcDbCircle
 10
1572.507667889463
 20
-641.2321812608552
 30
0.0
 40
39.99999485893611
100
AcDbArc
 50
213.0691439449011
 51
326.6327649195984
  0
DIMENSION
  5
73C5
330
1A
100
AcDbEntity
  8
SUNPOU
100
AcDbDimension
  2
*D4
 10
1568.926268157442
 20
-640.4722527416552
 30
0.0
 11
1563.926268157442
 21
-631.109221114405
 31
0.0
 70
    32
  3
STANDARD
100
AcDbAlignedDimension
 13
1524.898488226976
 23
-621.7461894871553
 33
0.0
 14
1521.569950557863
 24
-640.4722527416552
 34
0.0
 50
90.0
100
AcDbRotatedDimension
1001
ACAD
1000
DSTYLE
1002
{
1070
   287
1070
     5
1070
    41
1040
7.0
1070
    42
1040
6.0
1070
    43
1040
14.0
1070
    44
1040
3.0
1070
    73
1070
     0
1070
    74
1070
     0
1070
    77
1070
     3
1070
   140
1040
6.0
1070
   141
1040
150.0
1070
   147
1040
2.0
1070
   172
1070
     1
1070
   173
1070
     1
1070
   176
1070
   256
1070
   177
1070
   256
1070
   178
1070
   256
1070
   271
1070
     0
1070
   272
1070
     0
1070
   279
1070
     2
1070
   341
1005
6D
1070
     6
1000
OPEN
1070
     7
1000
OPEN
1070
   371
1070
    -1
1070
   372
1070
    -1
1002
}
  0
LINE
  5
73C6
330
1A
100
AcDbEntity
  8
SEIHIN
100
AcDbLine
 10
1538.987164487959
 20
-663.0582079360551
 30
0.0
 11
1525.760007613863
 21
-642.7439892157552
 31
0.0
  0
ARC
  5
73C7
330
1A
100
AcDbEntity
  8
SEIHIN
100
AcDbCircle
 10
1511.541064487563
 20
-660.5894294601549
 30
0.0
 40
4.000000000000142
100
AcDbArc
 50
139.638750575492
 51
270.0
  0
LINE
  5
73C8
330
1A
100
AcDbEntity
  8
SEIHIN
100
AcDbLine
 10
1520.837664487963
 20
-647.9876079360552
 30
0.0
 11
1531.866064487963
 21
-673.2928079360552
 31
0.0
  0
LINE
  5
73C9
330
1A
100
AcDbEntity
  8
SEIHIN
100
AcDbLine
 10
1534.797064487962
 20
-665.7864079360551
 30
0.0
 11
1522.592364487963
 21
-647.0424079360553
 31
0.0
  0
LINE
  5
73CA
330
1A
100
AcDbEntity
  8
SEIHIN
100
AcDbLine
 10
1515.246499432063
 20
-647.6732126219552
 30
0.0
 11
1527.282464487962
 21
-675.2905079360551
 31
0.0
  0
DIMENSION
  5
73CB
330
1A
100
AcDbEntity
  8
SUNPOU
100
AcDbDimension
  2
*D5
 10
1481.742139729081
 20
-664.5894294601552
 30
0.0
 11
1476.742139729081
 21
-655.5308411009049
 31
0.0
 70
    32
  3
STANDARD
100
AcDbAlignedDimension
 13
1481.742139729081
 23
-646.4722527416551
 33
0.0
 14
1516.424904380363
 24
-664.5894294601552
 34
0.0
 50
90.0
100
AcDbRotatedDimension
1001
ACAD
1000
DSTYLE
1002
{
1070
   287
1070
     5
1070
    41
1040
7.0
1070
    42
1040
6.0
1070
    43
1040
14.0
1070
    44
1040
3.0
1070
    73
1070
     0
1070
    74
1070
     0
1070
    77
1070
     3
1070
   140
1040
6.0
1070
   141
1040
150.0
1070
   147
1040
2.0
1070
   172
1070
     1
1070
   173
1070
     1
1070
   176
1070
   256
1070
   177
1070
   256
1070
   178
1070
   256
1070
   271
1070
     0
1070
   272
1070
     0
1070
   279
1070
     2
1070
   341
1005
6D
1070
     6
1000
OPEN
1070
     7
1000
OPEN
1070
   371
1070
    -1
1070
   372
1070
    -1
1002
}
  0
ARC
  5
73CD
330
1A
100
AcDbEntity
  8
SEIHIN
100
AcDbCircle
 10
1563.951436405663
 20
-659.3095821240549
 30
0.0
 40
35.00002421717731
100
AcDbArc
 50
203.5482036072982
 51
244.6709595215949
  0
ARC
  5
73CE
330
1A
100
AcDbEntity
  8
SEIHIN
100
AcDbCircle
 10
1563.951376888762
 20
-659.3094810471549
 30
0.0
 40
40.00002946349275
100
AcDbArc
 50
203.5485109160028
 51
244.6711845289001
  0
LINE
  5
73CF
330
1A
100
AcDbEntity
  8
SEIHIN
100
AcDbLine
 10
1521.308744273163
 20
-664.5894294601552
 30
0.0
 11
1511.541064487563
 21
-664.5894294601552
 31
0.0
  0
ARC
  5
73D0
330
1A
100
AcDbEntity
  8
SEIHIN
100
AcDbCircle
 10
1521.308744273163
 20
-666.589429460155
 30
0.0
 40
1.999999999999985
100
AcDbArc
 50
23.54817853080183
 51
90.0
  0
DIMENSION
  5
73D1
330
1A
100
AcDbEntity
  8
SUNPOU
100
AcDbDimension
  2
*D7
 10
1481.742139729081
 20
-646.4722527416552
 30
0.0
 11
1476.742139729081
 21
-639.972252741655
 31
0.0
 70
    32
  3
STANDARD
100
AcDbAlignedDimension
 13
1505.025653088663
 23
-633.4722527416552
 33
0.0
 14
1506.799767381964
 24
-646.4722527416552
 34
0.0
 50
90.0
100
AcDbRotatedDimension
1001
ACAD
1000
DSTYLE
1002
{
1070
   287
1070
     5
1070
    41
1040
7.0
1070
    42
1040
6.0
1070
    43
1040
14.0
1070
    44
1040
3.0
1070
    73
1070
     0
1070
    74
1070
     0
1070
    77
1070
     3
1070
   140
1040
6.0
1070
   141
1040
150.0
1070
   147
1040
2.0
1070
   172
1070
     1
1070
   173
1070
     1
1070
   176
1070
   256
1070
   177
1070
   256
1070
   178
1070
   256
1070
   271
1070
     0
1070
   272
1070
     0
1070
   279
1070
     2
1070
   341
1005
6D
1070
     6
1000
OPEN
1070
     7
1000
OPEN
1070
   371
1070
    -1
1070
   372
1070
    -1
1002
}
  0
LINE
  5
73D2
330
1A
100
AcDbEntity
  8
SEIHIN
100
AcDbLine
 10
1529.456161390662
 20
-631.1905598634551
 30
0.0
 11
1529.456161390662
 21
-648.1236573194552
 31
0.0
  0
ARC
  5
73D3
330
1A
100
AcDbEntity
  8
SEIHIN
100
AcDbCircle
 10
1521.756160809263
 20
-633.1682357234551
 30
0.0
 40
3.0
100
AcDbArc
 50
0.0
 51
45.64098507279221
  0
DIMENSION
  5
73D5
330
1A
100
AcDbEntity
  8
SUNPOU
100
AcDbDimension
  2
*D8
 10
1498.541066889531
 20
-603.8148672091019
 30
0.0
 11
1503.28455981088
 21
-597.4227395556158
 31
0.0
 70
   160
  3
STANDARD
100
AcDbAlignedDimension
 13
1506.040269813098
 23
-633.6842285232721
 33
0.0
 14
1498.541066889531
 24
-639.0972529089553
 34
0.0
100
AcDbRotatedDimension
1001
ACAD
1000
DSTYLE
1002
{
1070
   287
1070
     5
1070
    41
1040
7.0
1070
    42
1040
6.0
1070
    43
1040
14.0
1070
    44
1040
3.0
1070
    73
1070
     0
1070
    74
1070
     0
1070
    77
1070
     3
1070
   140
1040
6.0
1070
   141
1040
150.0
1070
   147
1040
2.0
1070
   172
1070
     1
1070
   173
1070
     1
1070
   176
1070
   256
1070
   177
1070
   256
1070
   178
1070
   256
1070
   271
1070
     0
1070
   272
1070
     0
1070
   279
1070
     2
1070
   341
1005
6D
1070
     6
1000
OPEN
1070
     7
1000
OPEN
1070
   371
1070
    -1
1070
   372
1070
    -1
1002
}
  0
DIMENSION
  5
73D8
330
1A
100
AcDbEntity
  8
SUNPOU
100
AcDbDimension
  2
*D11
 10
1529.456161390662
 20
-588.0027622045538
 30
0.0
 11
1513.998614140096
 21
-583.0027622045538
 31
0.0
 70
    32
  3
STANDARD
100
AcDbAlignedDimension
 13
1498.541066889531
 23
-639.7222529089552
 33
0.0
 14
1529.456161390662
 24
-631.1905598634551
 34
0.0
100
AcDbRotatedDimension
1001
ACAD
1000
DSTYLE
1002
{
1070
   287
1070
     5
1070
    41
1040
7.0
1070
    42
1040
6.0
1070
    43
1040
14.0
1070
    44
1040
3.0
1070
    73
1070
     0
1070
    74
1070
     0
1070
    77
1070
     3
1070
   140
1040
6.0
1070
   141
1040
150.0
1070
   147
1040
2.0
1070
   172
1070
     1
1070
   173
1070
     1
1070
   176
1070
   256
1070
   177
1070
   256
1070
   178
1070
   256
1070
   271
1070
     0
1070
   272
1070
     0
1070
   279
1070
     2
1070
   341
1005
6D
1070
     6
1000
OPEN
1070
     7
1000
OPEN
1070
   371
1070
    -1
1070
   372
1070
    -1
1002
}
  0
ARC
  5
73D9
330
1A
100
AcDbEntity
  8
SEIHIN
100
AcDbCircle
 10
1521.754343353663
 20
-647.588019320455
 30
0.0
 40
0.9999856021127015
100
AcDbArc
 50
33.06699050249653
 51
203.5528229690032
  0
ARC
  5
73DA
330
1A
100
AcDbEntity
  8
SEIHIN
100
AcDbCircle
 10
1513.413050527063
 20
-648.4722527416551
 30
0.0
 40
2.000000000000023
100
AcDbArc
 50
23.54817853080183
 51
90.0
  0
ARC
  5
73DB
330
1A
100
AcDbEntity
  8
SEIHIN
100
AcDbCircle
 10
1509.545847700163
 20
-650.5838120039554
 30
0.0
 40
4.000000000000028
100
AcDbArc
 50
319.5330684444049
 51
92.62458010610512
  0
LINE
  5
73DC
330
1A
100
AcDbEntity
  8
SEIHIN
100
AcDbLine
 10
1508.493158595164
 20
-657.9990106386551
 30
0.0
 11
1512.588970379963
 21
-653.1798482816553
 31
0.0
  0
ARC
  5
73DD
330
1A
100
AcDbEntity
  8
SEIHIN
100
AcDbCircle
 10
1530.456161390663
 20
-648.1236573194552
 30
0.0
 40
1.0
100
AcDbArc
 50
180.0
 51
213.0692785109039
  0
LINE
  5
73DE
330
1A
100
AcDbEntity
  8
SEIHIN
100
AcDbLine
 10
1521.756160809263
 20
-640.472252741655
 30
0.0
 11
1506.679074309163
 21
-640.472252741655
 31
0.0
  0
ARC
  5
73DF
330
1A
100
AcDbEntity
  8
SEIHIN
100
AcDbCircle
 10
1505.291074574863
 20
-639.7222529089552
 30
0.0
 40
6.750007685332012
100
AcDbArc
 50
125.6349842047927
 51
234.3650157952072
  0
ARC
  5
73E0
330
1A
100
AcDbEntity
  8
SEIHIN
100
AcDbCircle
 10
1506.679074309163
 20
-638.4722527416552
 30
0.0
 40
1.999999999999893
100
AcDbArc
 50
160.346175941895
 51
270.0
  0
LINE
  5
73E1
330
1A
100
AcDbEntity
  8
SEIHIN
100
AcDbLine
 10
1505.291065013363
 20
-646.4722527416552
 30
0.0
 11
1513.413050527063
 21
-646.4722527416552
 31
0.0
  0
ARC
  5
73E2
330
1A
100
AcDbEntity
  8
SEIHIN
100
AcDbCircle
 10
1505.291166142563
 20
-639.7220372077551
 30
0.0
 40
6.750236344719382
100
AcDbArc
 50
234.3654508076935
 51
251.3252006171037
  0
ARC
  5
73E3
330
1A
100
AcDbEntity
  8
SEIHIN
100
AcDbCircle
 10
1505.291064488063
 20
-639.7222527416552
 30
0.0
 40
6.750000000000017
100
AcDbArc
 50
251.3254223256041
 51
270.0000044588881
  0
LINE
  5
73E4
330
1A
100
AcDbEntity
  8
SEIHIN
100
AcDbLine
 10
1509.362681515763
 20
-646.5880079360552
 30
0.0
 11
1509.362682448963
 21
-646.4722527675552
 31
0.0
  0
LINE
  5
73E5
330
1A
100
AcDbEntity
  8
SEIHIN
100
AcDbLine
 10
1504.795590485963
 20
-637.7995799476551
 30
0.0
 11
1506.102432988663
 21
-634.1404209401551
 31
0.0
  0
LINE
  5
73E6
330
1A
100
AcDbEntity
  8
SEIHIN
100
AcDbLine
 10
1505.631562032863
 20
-633.4722527416552
 30
0.0
 11
1503.169744144463
 21
-633.4722527416552
 31
0.0
  0
LWPOLYLINE
  5
73E7
330
1A
100
AcDbEntity
  8
SEIHIN
100
AcDbPolyline
 90
        3
 70
   128
 43
0.0
 10
1501.358389603162
 20
-634.2362167564551
 10
1501.790493475463
 20
-633.9509004978552
 10
1502.276554452463
 20
-633.6827792478552
  0
LWPOLYLINE
  5
73E8
330
1A
100
AcDbEntity
  8
SEIHIN
100
AcDbPolyline
 90
        3
 70
   128
 43
0.0
 10
1502.276554452463
 20
-633.6827792478552
 10
1502.747341739263
 20
-633.5173670453551
 10
1503.129765140163
 20
-633.4726523859552
  0
ARC
  5
73E9
330
1A
100
AcDbEntity
  8
SEIHIN
100
AcDbCircle
 10
1503.169744144463
 20
-635.4722527416551
 30
0.0
 40
2.000000000000053
100
AcDbArc
 50
90.0
 51
91.14542574049698
  0
ARC
  5
73EA
330
1A
100
AcDbEntity
  8
SEIHIN
100
AcDbCircle
 10
1505.631562032863
 20
-633.9722527416552
 30
0.0
 40
0.5000000000000661
100
AcDbArc
 50
340.3461759418949
 51
90.0
  0
ARC
  5
73EB
330
1A
100
AcDbEntity
  8
SEIHIN
100
AcDbCircle
 10
1521.756160809263
 20
-637.4722527416552
 30
0.0
 40
3.0
100
AcDbArc
 50
270.0
 51
0.0
  0
ARC
  5
73EC
330
1A
100
AcDbEntity
  8
SEIHIN
100
AcDbCircle
 10
1521.569950557863
 20
-645.4722527416552
 30
0.0
 40
5.0
100
AcDbArc
 50
33.06927851090395
 51
90.0
  0
LINE
  5
73ED
330
1A
100
AcDbEntity
  8
SEIHIN
100
AcDbLine
 10
1524.756160809263
 20
-637.4722527416552
 30
0.0
 11
1524.756160809263
 21
-633.1682357234551
 31
0.0
  0
DIMENSION
  5
73EE
330
1A
100
AcDbEntity
  8
SUNPOU
100
AcDbDimension
  2
*D12
 10
1539.589261793568
 20
-610.6330601222987
 30
0.0
 11
1542.463273240007
 21
-603.9805185116493
 31
0.0
 70
   161
  3
STANDARD
100
AcDbAlignedDimension
 13
1520.658249784542
 23
-622.4822164167435
 33
0.0
 14
1524.199177641165
 24
-626.0231442736162
 34
0.0
1001
ACAD
1000
DSTYLE
1002
{
1070
   287
1070
     5
1070
    41
1040
7.0
1070
    42
1040
6.0
1070
    43
1040
14.0
1070
    44
1040
3.0
1070
    73
1070
     0
1070
    74
1070
     0
1070
    77
1070
     3
1070
   140
1040
6.0
1070
   141
1040
150.0
1070
   147
1040
2.0
1070
   172
1070
     1
1070
   173
1070
     1
1070
   176
1070
   256
1070
   177
1070
   256
1070
   178
1070
   256
1070
   271
1070
     0
1070
   272
1070
     0
1070
   279
1070
     2
1070
   341
1005
6D
1070
     6
1000
OPEN
1070
     7
1000
OPEN
1070
   371
1070
    -1
1070
   372
1070
    -1
1002
}
  0
ARC
  5
73F1
330
1A
100
AcDbEntity
  8
SEIHIN
100
AcDbCircle
 10
1525.263356010263
 20
-624.2197337165552
 30
0.0
 40
0.5000000000000142
100
AcDbArc
 50
315.6409850607055
 51
45.6409850735937
  0
LINE
  5
73F2
330
1A
100
AcDbEntity
  8
SEIHIN
100
AcDbLine
 10
1518.881578044863
 20
-626.2710606557552
 30
0.0
 11
1520.121066710362
 21
-623.2871592083552
 31
0.0
  0
LINE
  5
73F4
330
1A
100
AcDbEntity
  8
SEIHIN
100
AcDbLine
 10
1523.853617054562
 20
-631.0233167741552
 30
0.0
 11
1521.888288505663
 21
-629.1014769580551
 31
0.0
  0
LINE
  5
73F6
330
1A
100
AcDbEntity
  8
SEIHIN
100
AcDbLine
 10
1521.181226905563
 20
-629.1093864553552
 30
0.0
 11
1520.726776951563
 21
-629.5741175406552
 31
0.0
  0
ARC
  5
73F7
330
1A
100
AcDbEntity
  8
SEIHIN
100
AcDbCircle
 10
1520.369291392363
 20
-629.2245405462551
 30
0.0
 40
0.5000000000000157
100
AcDbArc
 50
225.6411883915991
 51
315.6408322614018
  0
ARC
  5
73F8
330
1A
100
AcDbEntity
  8
SEIHIN
100
AcDbCircle
 10
1521.538712464763
 20
-629.4589634496551
 30
0.0
 40
0.5000000000000016
100
AcDbArc
 50
45.64098507279221
 51
135.6408322614017
  0
ARC
  5
73F9
330
1A
100
AcDbEntity
  8
SEIHIN
100
AcDbCircle
 10
1521.190313829763
 20
-627.2300909345552
 30
0.0
 40
2.500000000000008
100
AcDbArc
 50
157.4423945599983
 51
225.6411883915991
  0
LINE
  5
73FA
330
1A
100
AcDbEntity
  8
SEIHIN
100
AcDbLine
 10
1520.019716620063
 20
-629.5820282783552
 30
0.0
 11
1519.442439968163
 21
-629.0175295947551
 31
0.0
  0
ARC
  5
73FC
330
1A
100
AcDbEntity
  8
SEIHIN
100
AcDbCircle
 10
1526.456161390663
 20
-631.1905598634551
 30
0.0
 40
3.000000000000043
100
AcDbArc
 50
0.0
 51
45.64098507210124
  0
LINE
  5
73FD
330
1A
100
AcDbEntity
  8
SEIHIN
100
AcDbLine
 10
1525.620842501663
 20
-624.5693097574551
 30
0.0
 11
1525.166393648563
 21
-625.034042196255
 31
0.0
  0
ARC
  5
73FE
330
1A
100
AcDbEntity
  8
SEIHIN
100
AcDbCircle
 10
1525.523880140062
 20
-625.383618237255
 30
0.0
 40
0.5000000000000142
100
AcDbArc
 50
135.6409850607009
 51
225.6409850720967
  0
LINE
  5
73FF
330
1A
100
AcDbEntity
  8
SEIHIN
100
AcDbLine
 10
1525.174304099163
 20
-625.7411047287551
 30
0.0
 11
1528.553617635963
 21
-629.0456409141555
 31
0.0
  0
ARC
  5
7401
330
1A
100
AcDbEntity
  8
SEIHIN
100
AcDbCircle
 10
1522.429802495262
 20
-624.2461894871553
 30
0.0
 40
2.500000000000043
100
AcDbArc
 50
45.6409850735937
 51
157.4423945599983
  0
LINE
  5
7402
330
1A
100
AcDbEntity
  8
SEIHIN
100
AcDbLine
 10
1524.177682699663
 20
-622.4587570293553
 30
0.0
 11
1525.612932051062
 21
-623.8622472249551
 31
0.0
  0
ARC
  5
7403
330
1A
100
AcDbEntity
  8
SEIHIN
100
AcDbCircle
 10
1870.381019983766
 20
-717.6435533826547
 30
0.0
 40
5.000000000000015
100
AcDbArc
 50
271.9999322999121
 51
293.397650481892
  0
ARC
  5
7404
330
1A
100
AcDbEntity
  8
SEIHIN
100
AcDbCircle
 10
1836.832327803367
 20
-717.346957250355
 30
0.0
 40
4.999999999999981
100
AcDbArc
 50
202.9168739176043
 51
257.7119911547847
  0
LINE
  5
7405
330
1A
100
AcDbEntity
  8
SEIHIN
100
AcDbLine
 10
1836.570629410166
 20
-722.3401039487548
 30
0.0
 11
1853.595589532266
 21
-723.2324064029547
 31
0.0
  0
LINE
  5
7407
330
1A
100
AcDbEntity
  8
SEIHIN
100
AcDbLine
 10
1853.605132932067
 20
-723.2324064029547
 30
0.0
 11
1870.555511562967
 21
-722.6405077238549
 31
0.0
  0
LINE
  5
7408
330
1A
100
AcDbEntity
  8
SEIHIN
100
AcDbLine
 10
1648.041064487961
 20
-722.3401039487548
 30
0.0
 11
1648.041064599763
 21
-723.2324064029547
 31
0.0
  0
LINE
  5
7409
330
1A
100
AcDbEntity
  8
SEIHIN
100
AcDbLine
 10
1646.041064271963
 20
-722.7321520699548
 30
0.0
 11
1646.041064487563
 21
-721.7267175939549
 31
0.0
  0
DIMENSION
  5
740A
330
1A
100
AcDbEntity
  8
SUNPOU
100
AcDbDimension
  2
*D14
 10
1643.540964487957
 20
-710.736456531317
 30
0.0
 11
1624.351105832056
 21
-705.3551391632325
 31
0.0
 70
   160
  3
STANDARD
100
AcDbAlignedDimension
 13
1630.272263944362
 23
-693.822145947755
 33
0.0
 14
1643.540964487957
 24
-694.1462079360812
 34
0.0
100
AcDbRotatedDimension
1001
ACAD
1000
DSTYLE
1002
{
1070
   287
1070
     5
1070
    41
1040
7.0
1070
    42
1040
6.0
1070
    43
1040
14.0
1070
    44
1040
3.0
1070
    73
1070
     0
1070
    74
1070
     0
1070
    77
1070
     3
1070
   140
1040
6.0
1070
   141
1040
150.0
1070
   147
1040
2.0
1070
   172
1070
     1
1070
   173
1070
     1
1070
   176
1070
   256
1070
   177
1070
   256
1070
   178
1070
   256
1070
   271
1070
     0
1070
   272
1070
     0
1070
   279
1070
     2
1070
   341
1005
6D
1070
     6
1000
OPEN
1070
     7
1000
OPEN
1070
   371
1070
    -1
1070
   372
1070
    -1
1002
}
  0
DIMENSION
  5
740B
330
1A
100
AcDbEntity
  8
SUNPOU
100
AcDbDimension
  2
*D15
 10
1689.586141862843
 20
-722.7862551758549
 30
0.0
 11
1684.586141862844
 21
-684.0865225521048
 31
0.0
 70
    32
  3
STANDARD
100
AcDbAlignedDimension
 13
1653.041064487962
 23
-645.3867899283552
 33
0.0
 14
1648.041064543862
 24
-722.7862551758549
 34
0.0
 50
90.0
100
AcDbRotatedDimension
1001
ACAD
1000
DSTYLE
1002
{
1070
   287
1070
     5
1070
    41
1040
7.0
1070
    42
1040
6.0
1070
    43
1040
14.0
1070
    44
1040
3.0
1070
    73
1070
     0
1070
    74
1070
     0
1070
    77
1070
     3
1070
   140
1040
6.0
1070
   141
1040
150.0
1070
   147
1040
2.0
1070
   172
1070
     1
1070
   173
1070
     1
1070
   176
1070
   256
1070
   177
1070
   256
1070
   178
1070
   256
1070
   271
1070
     0
1070
   272
1070
     0
1070
   279
1070
     2
1070
   341
1005
6D
1070
     6
1000
OPEN
1070
     7
1000
OPEN
1070
   371
1070
    -1
1070
   372
1070
    -1
1002
}
  0
LINE
  5
740C
330
1A
100
AcDbEntity
  8
SEIHIN
100
AcDbLine
 10
1648.041064599763
 20
-723.2324064029547
 30
0.0
 11
1646.541064353862
 21
-723.2324064029547
 31
0.0
  0
ARC
  5
740D
330
1A
100
AcDbEntity
  8
SEIHIN
100
AcDbCircle
 10
1646.541064487763
 20
-722.7324079360549
 30
0.0
 40
0.4999999999968169
100
AcDbArc
 50
214.239372536798
 51
270.0000000236059
  0
ELLIPSE
  5
740E
330
1A
100
AcDbEntity
  8
SEIHIN
100
AcDbEllipse
 10
1646.541064487563
 20
-722.7321506329547
 30
0.0
 11
0.0
 21
0.5004573030696095
 31
0.0
210
0.0
220
0.0
230
1.0
 40
0.9990862295999999
 41
1.570796326794897
 42
2.168386112885885
  0
LINE
  5
740F
330
1A
100
AcDbEntity
  8
SEIHIN
100
AcDbLine
 10
1853.605132932067
 20
-723.2324064029547
 30
0.0
 11
1853.595589532266
 21
-723.2324064029547
 31
0.0
  0
ARC
  5
7410
330
1A
100
AcDbEntity
  8
SEIHIN
100
AcDbCircle
 10
1818.599379595766
 20
-652.0734352197551
 30
0.0
 40
4.999974108438808
100
AcDbArc
 50
92.99880296009209
 51
179.9996873506011
  0
DIMENSION
  5
7411
330
1A
100
AcDbEntity
  8
SUNPOU
100
AcDbDimension
  2
*D16
 10
1788.846904442075
 20
-715.2326079360549
 30
0.0
 11
1783.846904442075
 21
-687.7359215440547
 31
0.0
 70
    32
  3
STANDARD
100
AcDbAlignedDimension
 13
1821.599305487366
 23
-660.239235152055
 33
0.0
 14
1853.599405487367
 24
-715.232607936055
 34
0.0
 50
90.0
100
AcDbRotatedDimension
1001
ACAD
1000
DSTYLE
1002
{
1070
   287
1070
     5
1070
    41
1040
7.0
1070
    42
1040
6.0
1070
    43
1040
14.0
1070
    44
1040
3.0
1070
    73
1070
     0
1070
    74
1070
     0
1070
    77
1070
     3
1070
   140
1040
6.0
1070
   141
1040
150.0
1070
   147
1040
2.0
1070
   172
1070
     1
1070
   173
1070
     1
1070
   176
1070
   256
1070
   177
1070
   256
1070
   178
1070
   256
1070
   271
1070
     0
1070
   272
1070
     0
1070
   279
1070
     2
1070
   341
1005
6D
1070
     6
1000
OPEN
1070
     7
1000
OPEN
1070
   371
1070
    -1
1070
   372
1070
    -1
1002
}
  0
ARC
  5
7412
330
1A
100
AcDbEntity
  8
SEIHIN
100
AcDbCircle
 10
1638.993732957062
 20
-659.0623820125552
 30
0.0
 40
5.000005674998823
100
AcDbArc
 50
275.3987273182961
 51
3.669096887498052
  0
ARC
  5
7413
330
1A
100
AcDbEntity
  8
SEIHIN
100
AcDbCircle
 10
1639.320756125163
 20
-685.232229637855
 30
0.0
 40
34.9999809322978
100
AcDbArc
 50
91.1343537636938
 51
146.6331199482011
  0
ARC
  5
7414
330
1A
100
AcDbEntity
  8
SEIHIN
100
AcDbCircle
 10
1639.320746092663
 20
-685.2322994501552
 30
0.0
 40
39.99999151412649
100
AcDbArc
 50
101.378031528509
 51
146.6329935801979
  0
ARC
  5
7415
330
1A
100
AcDbEntity
  8
SEIHIN
100
AcDbCircle
 10
1602.700231712263
 20
-659.0801050156552
 30
0.0
 40
5.000001610182228
100
AcDbArc
 50
324.4678656378046
 51
9.742933088497471
  0
LINE
  5
7416
330
1A
100
AcDbEntity
  8
SEIHIN
100
AcDbLine
 10
1643.518181266463
 20
-652.0734077570551
 30
0.0
 11
1645.134035246662
 21
-675.2325084311551
 31
0.0
  0
LINE
  5
7417
330
1A
100
AcDbEntity
  8
SEIHIN
100
AcDbLine
 10
1653.041064487962
 20
-675.2325084311551
 30
0.0
 11
1653.041064487962
 21
-652.0734079360551
 31
0.0
  0
LINE
  5
7418
330
1A
100
AcDbEntity
  8
SEIHIN
100
AcDbLine
 10
1638.541114274262
 20
-671.072145947755
 30
0.0
 11
1635.948313415763
 21
-671.072145947755
 31
0.0
  0
LINE
  5
7419
330
1A
100
AcDbEntity
  8
SEIHIN
100
AcDbLine
 10
1630.035764487963
 20
-664.9314079360553
 30
0.0
 11
1639.464164487963
 21
-664.0402079360549
 31
0.0
  0
LINE
  5
741A
330
1A
100
AcDbEntity
  8
SEIHIN
100
AcDbLine
 10
1630.863664487963
 20
-670.2323079360549
 30
0.0
 11
1643.852497942763
 21
-670.2323079360549
 31
0.0
  0
ARC
  5
741C
330
1A
100
AcDbEntity
  8
SEIHIN
100
AcDbCircle
 10
1623.767455962962
 20
-692.072145947755
 30
0.0
 40
0.9999999999999149
100
AcDbArc
 50
160.0000000000992
 51
270.0
  0
LINE
  5
741D
330
1A
100
AcDbEntity
  8
SEIHIN
100
AcDbLine
 10
1609.930664487962
 20
-693.5636079360551
 30
0.0
 11
1598.641764487961
 21
-679.0080079360552
 31
0.0
  0
DIMENSION
  5
741E
330
1A
100
AcDbEntity
  8
SUNPOU
100
AcDbDimension
  2
*D17
 10
1584.166253682126
 20
-693.1416354437049
 30
0.0
 11
1574.986694140022
 21
-672.2330105959493
 31
0.0
 70
   160
  3
STANDARD
100
AcDbAlignedDimension
 13
1637.358081215363
 23
-670.2323079360549
 33
0.0
 14
1626.797517856612
 24
-693.1416354437049
 34
0.0
 50
90.0
100
AcDbRotatedDimension
1001
ACAD
1000
DSTYLE
1002
{
1070
   287
1070
     5
1070
    41
1040
7.0
1070
    42
1040
6.0
1070
    43
1040
14.0
1070
    44
1040
3.0
1070
    73
1070
     0
1070
    74
1070
     0
1070
    77
1070
     3
1070
   140
1040
6.0
1070
   141
1040
150.0
1070
   147
1040
2.0
1070
   172
1070
     1
1070
   173
1070
     1
1070
   176
1070
   256
1070
   177
1070
   256
1070
   178
1070
   256
1070
   271
1070
     0
1070
   272
1070
     0
1070
   279
1070
     2
1070
   341
1005
6D
1070
     6
1000
OPEN
1070
     7
1000
OPEN
1070
   371
1070
    -1
1070
   372
1070
    -1
1002
}
  0
LINE
  5
741F
330
1A
100
AcDbEntity
  8
SEIHIN
100
AcDbLine
 10
1598.802465694263
 20
-696.2323069823549
 30
0.0
 11
1609.241564487963
 21
-695.1713079360549
 31
0.0
  0
LINE
  5
7420
330
1A
100
AcDbEntity
  8
SEIHIN
100
AcDbLine
 10
1572.507464487961
 20
-701.232207936055
 30
0.0
 11
1604.000765579061
 21
-701.2323096645545
 31
0.0
  0
LINE
  5
7421
330
1A
100
AcDbEntity
  8
SEIHIN
100
AcDbLine
 10
1572.507464487961
 20
-696.2322079360551
 30
0.0
 11
1598.802465694263
 21
-696.2323069823549
 31
0.0
  0
LINE
  5
7422
330
1A
100
AcDbEntity
  8
SEIHIN
100
AcDbLine
 10
1604.000765579061
 20
-701.2323096645545
 30
0.0
 11
1624.820371951663
 21
-699.116401678455
 31
0.0
  0
ARC
  5
7423
330
1A
100
AcDbEntity
  8
SEIHIN
100
AcDbCircle
 10
1609.140488608262
 20
-694.1764516577551
 30
0.0
 40
0.9999776737577183
100
AcDbArc
 50
275.8012577339867
 51
37.79639992150443
  0
LINE
  5
7424
330
1A
100
AcDbEntity
  8
SEIHIN
100
AcDbLine
 10
1629.827579750263
 20
-693.2111249396552
 30
0.0
 11
1623.767455962962
 21
-693.0721459477551
 31
0.0
  0
LINE
  5
7425
330
1A
100
AcDbEntity
  8
SEIHIN
100
AcDbLine
 10
1628.684550704061
 20
-696.5721459477552
 30
0.0
 11
1630.272263944362
 21
-693.822145947755
 31
0.0
  0
ARC
  5
7427
330
1A
100
AcDbEntity
  8
SEIHIN
100
AcDbCircle
 10
1624.314823791062
 20
-694.1420252293551
 30
0.0
 40
5.000000000001653
100
AcDbArc
 50
275.8030715987897
 51
330.9204066740929
  0
ARC
  5
7428
330
1A
100
AcDbEntity
  8
SEIHIN
100
AcDbCircle
 10
1629.785159434563
 20
-693.7093222066546
 30
0.0
 40
0.5000000000032271
100
AcDbArc
 50
346.9590446508999
 51
85.13313938348673
  0
LINE
  5
7429
330
1A
100
AcDbEntity
  8
SEIHIN
100
AcDbLine
 10
1602.592664487962
 20
-675.943707936055
 30
0.0
 11
1613.753764487962
 21
-690.3344079360551
 31
0.0
  0
ARC
  5
742A
330
1A
100
AcDbEntity
  8
SEIHIN
100
AcDbCircle
 10
1603.382858837463
 20
-675.3308722685549
 30
0.0
 40
0.9999873325783076
100
AcDbArc
 50
132.1599694971018
 51
217.7953867106959
  0
ARC
  5
742B
330
1A
100
AcDbEntity
  8
SEIHIN
100
AcDbCircle
 10
1597.851545846562
 20
-679.620804854855
 30
0.0
 40
0.9999827823639378
100
AcDbArc
 50
37.79277933069514
 51
123.4350156830925
  0
LINE
  5
742D
330
1A
100
AcDbEntity
  8
SEIHIN
100
AcDbLine
 10
1615.494264487963
 20
-690.0327079360547
 30
0.0
 11
1621.473364487961
 21
-671.7748079360551
 31
0.0
  0
LINE
  5
742E
330
1A
100
AcDbEntity
  8
SEIHIN
100
AcDbLine
 10
1628.430772449463
 20
-676.3359848011551
 30
0.0
 11
1622.827763342163
 21
-691.7301258043551
 31
0.0
  0
ARC
  5
742F
330
1A
100
AcDbEntity
  8
SEIHIN
100
AcDbCircle
 10
1614.543920595561
 20
-689.7214982087551
 30
0.0
 40
1.000002504088035
100
AcDbArc
 50
217.8000825812952
 51
341.8678975849971
  0
ARC
  5
7430
330
1A
100
AcDbEntity
  8
SEIHIN
100
AcDbCircle
 10
1572.507660679963
 20
-641.2322643570551
 30
0.0
 40
44.99993574086916
100
AcDbArc
 50
312.1598296903083
 51
326.6328667117901
  0
ARC
  5
7431
330
1A
100
AcDbEntity
  8
SEIHIN
100
AcDbCircle
 10
1630.976730706562
 20
-674.8870349357551
 30
0.0
 40
9.999996319038007
100
AcDbArc
 50
95.39932913589115
 51
161.8670615745052
  0
ARC
  5
7433
330
1A
100
AcDbEntity
  8
SEIHIN
100
AcDbCircle
 10
1635.948313415763
 20
-679.072145947755
 30
0.0
 40
8.000000000000042
100
AcDbArc
 50
90.0
 51
160.0000000000992
  0
ARC
  5
7434
330
1A
100
AcDbEntity
  8
SEIHIN
100
AcDbCircle
 10
1646.540789591463
 20
-692.2861142875547
 30
0.0
 40
3.000000000000158
100
AcDbArc
 50
140.1862286465984
 51
180.6186851371962
  0
LINE
  5
7435
330
1A
100
AcDbEntity
  8
SEIHIN
100
AcDbLine
 10
1646.041064487563
 20
-719.2939333871548
 30
0.0
 11
1646.041064271963
 21
-688.199605072855
 31
0.0
  0
LINE
  5
7436
330
1A
100
AcDbEntity
  8
SEIHIN
100
AcDbLine
 10
1653.041064487962
 20
-719.2324057472551
 30
0.0
 11
1653.041064487962
 21
-675.2325084311551
 31
0.0
  0
LINE
  5
7438
330
1A
100
AcDbEntity
  8
SEIHIN
100
AcDbLine
 10
1646.041064487563
 20
-721.7267175939549
 30
0.0
 11
1646.041064487563
 21
-719.2939333871548
 31
0.0
  0
LWPOLYLINE
  5
7439
330
1A
100
AcDbEntity
  8
SEIHIN
100
AcDbPolyline
 90
        7
 70
   128
 43
0.0
 10
1652.938522067163
 20
-719.2939326418552
 10
1651.761397700963
 20
-720.0002104295552
 10
1650.696383072263
 20
-720.6392169249548
 10
1649.770478699563
 20
-721.1947620166549
 10
1649.007158102661
 20
-721.652749205955
 10
1648.425773931863
 20
-722.0015853894551
 10
1648.041064599763
 20
-722.2324043763551
  0
LINE
  5
743A
330
1A
100
AcDbEntity
  8
SEIHIN
100
AcDbLine
 10
1648.041064487961
 20
-722.2324079360549
 30
0.0
 11
1648.041064487961
 21
-722.3401039487548
 31
0.0
  0
LINE
  5
743B
330
1A
100
AcDbEntity
  8
SEIHIN
100
AcDbLine
 10
1653.041064487962
 20
-719.2324057472551
 30
0.0
 11
1652.938522067163
 21
-719.2939326418552
 31
0.0
  0
LINE
  5
743C
330
1A
100
AcDbEntity
  8
SEIHIN
100
AcDbLine
 10
1643.540964487963
 20
-694.146207936055
 30
0.0
 11
1643.540964487963
 21
-692.3185079360551
 31
0.0
  0
ARC
  5
743D
330
1A
100
AcDbEntity
  8
SEIHIN
100
AcDbCircle
 10
1643.041064487563
 20
-699.2857844602552
 30
0.0
 40
3.000000000005086
100
AcDbArc
 50
0.0
 51
39.80557109229355
  0
LINE
  5
743E
330
1A
100
AcDbEntity
  8
SEIHIN
100
AcDbLine
 10
1645.345728326363
 20
-697.3652312612552
 30
0.0
 11
1644.236400648763
 21
-696.0340380480549
 31
0.0
  0
ARC
  5
743F
330
1A
100
AcDbEntity
  8
SEIHIN
100
AcDbCircle
 10
1646.540782303562
 20
-694.1131462789549
 30
0.0
 40
3.000000000000028
100
AcDbArc
 50
180.6314439212006
 51
219.8139887319966
  0
LINE
  5
7440
330
1A
100
AcDbEntity
  8
SEIHIN
100
AcDbLine
 10
1641.541064487563
 20
-678.560782722855
 30
0.0
 11
1641.541064487563
 21
-674.0894294604551
 31
0.0
  0
LINE
  5
7441
330
1A
100
AcDbEntity
  8
SEIHIN
100
AcDbLine
 10
1645.755170593263
 20
-684.1348774982549
 30
0.0
 11
1645.134035246662
 21
-675.2325084311551
 31
0.0
  0
LINE
  5
7442
330
1A
100
AcDbEntity
  8
SEIHIN
100
AcDbLine
 10
1646.041064271963
 20
-688.199605072855
 30
0.0
 11
1645.755170593263
 21
-684.1348774982549
 31
0.0
  0
ARC
  5
7443
330
1A
100
AcDbEntity
  8
SEIHIN
100
AcDbCircle
 10
1642.971051153963
 20
-687.1975008495551
 30
0.0
 40
2.999999999998693
100
AcDbArc
 50
320.1944289049976
 51
359.8743422062996
  0
LINE
  5
7444
330
1A
100
AcDbEntity
  8
SEIHIN
100
AcDbLine
 10
1644.236400648862
 20
-690.365231261155
 30
0.0
 11
1645.275714992663
 21
-689.1180540486548
 31
0.0
  0
ARC
  5
7445
330
1A
100
AcDbEntity
  8
SEIHIN
100
AcDbCircle
 10
1642.813149545663
 20
-684.7218299708551
 30
0.0
 40
3.000000000022122
100
AcDbArc
 50
11.97667270709997
 51
53.99910205890905
  0
ARC
  5
7446
330
1A
100
AcDbEntity
  8
SEIHIN
100
AcDbCircle
 10
1645.258729966762
 20
-684.2030463896549
 30
0.0
 40
0.4999999999999865
100
AcDbArc
 50
4.023292275099611
 51
11.97667270709997
  0
ARC
  5
7447
330
1A
100
AcDbEntity
  8
SEIHIN
100
AcDbCircle
 10
1640.572965169263
 20
-684.8859938942549
 30
0.0
 40
5.234338266210452
100
AcDbArc
 50
8.644124754502646
 51
9.077585433598768
  0
LINE
  5
7448
330
1A
100
AcDbEntity
  8
SEIHIN
100
AcDbLine
 10
1645.741746509663
 20
-684.0601630760548
 30
0.0
 11
1645.755163608362
 21
-684.1347806406551
 31
0.0
  0
LINE
  5
7449
330
1A
100
AcDbEntity
  8
SEIHIN
100
AcDbLine
 10
1644.576543339163
 20
-682.2948066233548
 30
0.0
 11
1642.777670694163
 21
-680.9878060703548
 31
0.0
  0
ARC
  5
744A
330
1A
100
AcDbEntity
  8
SEIHIN
100
AcDbCircle
 10
1644.541064487563
 20
-678.560782722855
 30
0.0
 40
3.000000000000086
100
AcDbArc
 50
180.0
 51
233.9991020602978
  0
LINE
  5
744B
330
1A
100
AcDbEntity
  8
SEIHIN
100
AcDbLine
 10
1645.134035246662
 20
-675.2325084311551
 30
0.0
 11
1653.041064487962
 21
-675.2325084311551
 31
0.0
  0
ARC
  5
744C
330
1A
100
AcDbEntity
  8
SEIHIN
100
AcDbCircle
 10
1638.541114274661
 20
-674.0721459477547
 30
0.0
 40
2.999999999999928
100
AcDbArc
 50
359.6699073951985
 51
90.0000000076081
  0
LINE
  5
744D
330
1A
100
AcDbEntity
  8
SEIHIN
100
AcDbLine
 10
1624.237526852463
 20
-624.1586277569551
 30
0.0
 11
1653.041064392563
 21
-634.932444642255
 31
0.0
  0
LINE
  5
744E
330
1A
100
AcDbEntity
  8
SEIHIN
100
AcDbLine
 10
1635.777687216975
 20
-645.3895327925344
 30
0.0
 11
1643.040864487963
 21
-645.3867899283552
 31
0.0
  0
DIMENSION
  5
744F
330
1A
100
AcDbEntity
  8
SUNPOU
100
AcDbDimension
  2
*D18
 10
1653.041064487962
 20
-603.5833814178634
 30
0.0
 11
1636.613787006062
 21
-598.5833814178634
 31
0.0
 70
    32
  3
STANDARD
100
AcDbAlignedDimension
 13
1620.186509524162
 23
-629.923345047855
 33
0.0
 14
1653.041064487962
 24
-634.307444677939
 34
0.0
100
AcDbRotatedDimension
1001
ACAD
1000
DSTYLE
1002
{
1070
   287
1070
     5
1070
    41
1040
7.0
1070
    42
1040
6.0
1070
    43
1040
14.0
1070
    44
1040
3.0
1070
    73
1070
     0
1070
    74
1070
     0
1070
    77
1070
     3
1070
   140
1040
6.0
1070
   141
1040
150.0
1070
   147
1040
2.0
1070
   172
1070
     1
1070
   173
1070
     1
1070
   176
1070
   256
1070
   177
1070
   256
1070
   178
1070
   256
1070
   271
1070
     0
1070
   272
1070
     0
1070
   279
1070
     2
1070
   341
1005
6D
1070
     6
1000
OPEN
1070
     7
1000
OPEN
1070
   371
1070
    -1
1070
   372
1070
    -1
1002
}
  0
LINE
  5
7450
330
1A
100
AcDbEntity
  8
SEIHIN
100
AcDbLine
 10
1620.186509524162
 20
-632.878193422955
 30
0.0
 11
1620.186509524162
 21
-626.968496672755
 31
0.0
  0
LINE
  5
7451
330
1A
100
AcDbEntity
  8
SEIHIN
100
AcDbLine
 10
1607.473339412663
 20
-657.5909857761547
 30
0.0
 11
1598.136562211363
 21
-627.6635814462552
 31
0.0
  0
LINE
  5
7452
330
1A
100
AcDbEntity
  8
SEIHIN
100
AcDbLine
 10
1603.206835291361
 20
-628.5309973999552
 30
0.0
 11
1607.627273815967
 21
-634.9781933912033
 31
0.0
  0
ARC
  5
7453
330
1A
100
AcDbEntity
  8
SEIHIN
100
AcDbCircle
 10
1602.700234595363
 20
-659.080103099755
 30
0.0
 40
5.000000000000027
100
AcDbArc
 50
9.742911992196978
 51
17.32692216960643
  0
ARC
  5
7454
330
1A
100
AcDbEntity
  8
SEIHIN
100
AcDbCircle
 10
1630.886765525663
 20
-677.102102371055
 30
0.0
 40
45.49999561692745
100
AcDbArc
 50
103.6016724451002
 51
115.3762849852527
  0
ARC
  5
7455
330
1A
100
AcDbEntity
  8
SEIHIN
100
AcDbCircle
 10
1610.101549126632
 20
-633.2817377663708
 30
0.0
 40
3.0
100
AcDbArc
 50
214.4359918238102
 51
295.3762849852762
  0
ARC
  5
7456
330
1A
100
AcDbEntity
  8
SEIHIN
100
AcDbCircle
 10
1639.320746092663
 20
-685.2322994501552
 30
0.0
 40
39.99999151412649
100
AcDbArc
 50
95.08171893240289
 51
101.378031528509
  0
LINE
  5
7457
330
1A
100
AcDbEntity
  8
SEIHIN
100
AcDbLine
 10
1601.937173996061
 20
-620.4898254843552
 30
0.0
 11
1603.592809940062
 21
-619.3546603970552
 31
0.0
  0
LINE
  5
7458
330
1A
100
AcDbEntity
  8
SEIHIN
100
AcDbLine
 10
1599.303970290063
 20
-624.2958351839551
 30
0.0
 11
1602.045466925763
 21
-622.4161639561552
 31
0.0
  0
ARC
  5
7459
330
1A
100
AcDbEntity
  8
SEIHIN
100
AcDbCircle
 10
1601.000425101763
 20
-626.7701110521552
 30
0.0
 40
3.000000000000015
100
AcDbArc
 50
124.4359729947032
 51
197.3269221696064
  0
LINE
  5
745A
330
1A
100
AcDbEntity
  8
SEIHIN
100
AcDbLine
 10
1602.175103709263
 20
-621.7210420897551
 30
0.0
 11
1601.807537213762
 21
-621.1849473499551
 31
0.0
  0
ARC
  5
745B
330
1A
100
AcDbEntity
  8
SEIHIN
100
AcDbCircle
 10
1602.219916465863
 20
-620.9022047948551
 30
0.0
 40
0.5000000000000029
100
AcDbArc
 50
124.4359731676958
 51
214.4359850076074
  0
ARC
  5
745C
330
1A
100
AcDbEntity
  8
SEIHIN
100
AcDbCircle
 10
1601.762724457163
 20
-622.0037846447551
 30
0.0
 40
0.500000000000024
100
AcDbArc
 50
304.4359729947032
 51
34.43598500760742
  0
DIMENSION
  5
745D
330
1A
100
AcDbEntity
  8
SUNPOU
100
AcDbDimension
  2
*D19
 10
1620.186509524162
 20
-603.5833814178634
 30
0.0
 11
1614.242716828482
 21
-598.0372672798507
 31
0.0
 70
   160
  3
STANDARD
100
AcDbAlignedDimension
 13
1608.392990573308
 23
-624.9149031820973
 33
0.0
 14
1620.186509524162
 24
-603.5833814178634
 34
0.0
100
AcDbRotatedDimension
1001
ACAD
1000
DSTYLE
1002
{
1070
   287
1070
     5
1070
    41
1040
7.0
1070
    42
1040
6.0
1070
    43
1040
14.0
1070
    44
1040
3.0
1070
    73
1070
     0
1070
    74
1070
     0
1070
    77
1070
     3
1070
   140
1040
6.0
1070
   141
1040
150.0
1070
   147
1040
2.0
1070
   172
1070
     1
1070
   173
1070
     1
1070
   176
1070
   256
1070
   177
1070
   256
1070
   178
1070
   256
1070
   271
1070
     0
1070
   272
1070
     0
1070
   279
1070
     2
1070
   341
1005
6D
1070
     6
1000
OPEN
1070
     7
1000
OPEN
1070
   371
1070
    -1
1070
   372
1070
    -1
1002
}
  0
ARC
  5
745E
330
1A
100
AcDbEntity
  8
SEIHIN
100
AcDbCircle
 10
1623.186509616562
 20
-626.968496672755
 30
0.0
 40
3.000000092418446
100
AcDbArc
 50
69.49194458490523
 51
180.0
  0
ARC
  5
745F
330
1A
100
AcDbEntity
  8
SEIHIN
100
AcDbCircle
 10
1605.713268282763
 20
-624.569413162655
 30
0.0
 40
2.5
100
AcDbArc
 50
304.4359458858035
 51
12.63459609039849
  0
ARC
  5
7460
330
1A
100
AcDbEntity
  8
SEIHIN
100
AcDbCircle
 10
1606.178312986562
 20
-626.6755128079551
 30
0.0
 40
0.5000000000000209
100
AcDbArc
 50
214.4359850027
 51
304.4359458858035
  0
LINE
  5
7461
330
1A
100
AcDbEntity
  8
SEIHIN
100
AcDbLine
 10
1605.765933734463
 20
-626.9582553630551
 30
0.0
 11
1605.398369113963
 21
-626.4221633578552
 31
0.0
  0
ARC
  5
7462
330
1A
100
AcDbEntity
  8
SEIHIN
100
AcDbCircle
 10
1604.985989861862
 20
-626.7049059128552
 30
0.0
 40
0.5000000000000373
100
AcDbArc
 50
34.43598500270008
 51
124.4359447497918
  0
ARC
  5
7463
330
1A
100
AcDbEntity
  8
SEIHIN
100
AcDbCircle
 10
1604.031593728263
 20
-627.9655121916553
 30
0.0
 40
1.000000000000017
100
AcDbArc
 50
124.4359447497918
 51
214.4359918236962
  0
LINE
  5
7464
330
1A
100
AcDbEntity
  8
SEIHIN
100
AcDbLine
 10
1604.70324759656
 20
-626.2925264621552
 30
0.0
 11
1603.466109197563
 21
-627.1407532901552
 31
0.0
  0
LINE
  5
7465
330
1A
100
AcDbEntity
  8
SEIHIN
100
AcDbLine
 10
1607.126979650263
 20
-626.6313103883551
 30
0.0
 11
1606.461055260061
 21
-627.0878922531551
 31
0.0
  0
ARC
  5
7466
330
1A
100
AcDbEntity
  8
SEIHIN
100
AcDbCircle
 10
1605.006522289363
 20
-621.4165569495551
 30
0.0
 40
2.499999999999994
100
AcDbArc
 50
12.63459609039849
 51
124.4359731676958
  0
LINE
  5
7467
330
1A
100
AcDbEntity
  8
SEIHIN
100
AcDbLine
 10
1607.445984453762
 20
-620.8697257609552
 30
0.0
 11
1608.152730447063
 21
-624.0225819740552
 31
0.0
  0
LINE
  5
7468
330
1A
100
AcDbEntity
  8
SEIHIN
100
AcDbLine
 10
1643.040864487963
 20
-645.3867899283552
 30
0.0
 11
1643.169803293663
 21
-647.0803079213553
 31
0.0
  0
LINE
  5
7469
330
1A
100
AcDbEntity
  8
SEIHIN
100
AcDbLine
 10
1653.041064487962
 20
-645.3867899283552
 30
0.0
 11
1653.041064487962
 21
-647.0803079360551
 31
0.0
  0
ARC
  5
746A
330
1A
100
AcDbEntity
  8
SEIHIN
100
AcDbCircle
 10
1638.726787071262
 20
-655.2381818935551
 30
0.0
 40
5.000052610731291
100
AcDbArc
 50
3.991167063697204
 51
91.13363133850631
  0
LWPOLYLINE
  5
746D
330
1A
100
AcDbEntity
  8
SEIHIN
100
AcDbPolyline
 90
        9
 70
   128
 43
0.0
 10
1643.169803293663
 20
-647.0803079213553
 10
1643.17950301826
 20
-647.2193316807552
 10
1643.201367678361
 20
-647.5327072916552
 10
1643.234612168963
 20
-648.0091789057553
 10
1643.278041603263
 20
-648.6316323065554
 10
1643.330096947263
 20
-649.377710397355
 10
1643.388908105163
 20
-650.2206141380552
 10
1643.452362837461
 20
-651.1300687929549
 10
1643.518181266463
 20
-652.0734077570551
  0
LINE
  5
746E
330
1A
100
AcDbEntity
  8
SEIHIN
100
AcDbLine
 10
1653.041064487962
 20
-647.0803079360551
 30
0.0
 11
1653.041064487962
 21
-652.0734079360551
 31
0.0
  0
LINE
  5
746F
330
1A
100
AcDbEntity
  8
SEIHIN
100
AcDbLine
 10
1653.041064477662
 20
-644.3881604200553
 30
0.0
 11
1653.041064402163
 21
-636.0001109791552
 31
0.0
  0
LINE
  5
7470
330
1A
100
AcDbEntity
  8
SEIHIN
100
AcDbLine
 10
1653.041064487962
 20
-645.3867899283552
 30
0.0
 11
1643.040864487963
 21
-645.3867899283552
 31
0.0
  0
LINE
  5
7471
330
1A
100
AcDbEntity
  8
SEIHIN
100
AcDbLine
 10
1653.041064477662
 20
-644.3881604200553
 30
0.0
 11
1653.041064487962
 21
-645.3867899283552
 31
0.0
  0
LINE
  5
7472
330
1A
100
AcDbEntity
  8
SEIHIN
100
AcDbLine
 10
1653.041064487962
 20
-634.9324455736552
 30
0.0
 11
1653.041064487962
 21
-636.0001109791552
 31
0.0
  0
CIRCLE
  5
7473
330
1A
100
AcDbEntity
  8
SEIHIN
100
AcDbCircle
 10
1885.599405487367
 20
-660.239335152955
 30
0.0
 40
2.216294374646623
  0
CIRCLE
  5
7476
330
1A
100
AcDbEntity
  8
SEIHIN
100
AcDbCircle
 10
1885.599405487367
 20
-660.2327079360549
 30
0.0
 40
2.599999999999965
  0
LINE
  5
7477
330
1A
100
AcDbEntity
  8
SEIHIN
100
AcDbLine
 10
1893.599405487367
 20
-652.0734079360551
 30
0.0
 11
1893.599404593267
 21
-675.2325084311551
 31
0.0
  0
CIRCLE
  5
747A
330
1A
100
AcDbEntity
  8
SEIHIN
100
AcDbCircle
 10
1821.599305487366
 20
-660.239235152055
 30
0.0
 40
2.216294075620851
  0
LINE
  5
747B
330
1A
100
AcDbEntity
  8
SEIHIN
100
AcDbLine
 10
1813.599406381465
 20
-675.2325084311551
 30
0.0
 11
1813.599405487366
 21
-652.0734079360551
 31
0.0
  0
SPLINE
  5
747C
330
1A
100
AcDbEntity
  8
SEIHIN
100
AcDbSpline
210
0.0
220
0.0
230
1.0
 70
    11
 71
     3
 72
    39
 73
    35
 74
     0
 42
0.0000000001
 43
0.0000000001
 40
0.0
 40
0.0
 40
0.0
 40
0.0
 40
0.0312500000000002
 40
0.0625000000000001
 40
0.0937499999999999
 40
0.1250000000000001
 40
0.1562500000000001
 40
0.1874999999999999
 40
0.2187500000000001
 40
0.2500000000000001
 40
0.28125
 40
0.3125
 40
0.3437499999999998
 40
0.3749999999999999
 40
0.4062500000000002
 40
0.4375
 40
0.46875
 40
0.5
 40
0.5312500000000001
 40
0.5625
 40
0.59375
 40
0.625
 40
0.65625
 40
0.6875
 40
0.71875
 40
0.75
 40
0.78125
 40
0.8125
 40
0.8437499999999998
 40
0.8749999999999998
 40
0.90625
 40
0.9374999999999998
 40
0.9687499999999996
 40
1.0
 40
1.0
 40
1.0
 40
1.0
 10
1821.599305487385
 20
-662.8326079360456
 30
0.0
 10
1821.42913729695
 20
-662.8326079360456
 30
0.0
 10
1821.088800916081
 20
-662.79908772828
 30
0.0
 10
1820.597914749156
 20
-662.6501790375148
 30
0.0
 10
1820.145511466714
 20
-662.4083644451102
 30
0.0
 10
1819.748976673194
 20
-662.0829367502405
 30
0.0
 10
1819.423548978323
 20
-661.6864019567178
 30
0.0
 10
1819.181734385921
 20
-661.2339986742782
 30
0.0
 10
1819.032825695154
 20
-660.7431125073546
 30
0.0
 10
1818.982545383506
 20
-660.2326079360498
 30
0.0
 10
1819.032825695154
 20
-659.7221033647453
 30
0.0
 10
1819.181734385921
 20
-659.2312171978221
 30
0.0
 10
1819.423548978323
 20
-658.7788139153824
 30
0.0
 10
1819.748976673194
 20
-658.3822791218595
 30
0.0
 10
1820.145511466714
 20
-658.05685142699
 30
0.0
 10
1820.597914749156
 20
-657.8150368345851
 30
0.0
 10
1821.088800916081
 20
-657.6661281438203
 30
0.0
 10
1821.599305487385
 20
-657.6158478321723
 30
0.0
 10
1822.109810058685
 20
-657.6661281438203
 30
0.0
 10
1822.600696225613
 20
-657.8150368345851
 30
0.0
 10
1823.053099508052
 20
-658.05685142699
 30
0.0
 10
1823.449634301575
 20
-658.3822791218595
 30
0.0
 10
1823.775061996443
 20
-658.7788139153824
 30
0.0
 10
1824.01687658885
 20
-659.2312171978221
 30
0.0
 10
1824.165785279614
 20
-659.7221033647453
 30
0.0
 10
1824.216065591262
 20
-660.2326079360498
 30
0.0
 10
1824.165785279614
 20
-660.7431125073546
 30
0.0
 10
1824.01687658885
 20
-661.2339986742782
 30
0.0
 10
1823.775061996443
 20
-661.6864019567178
 30
0.0
 10
1823.449634301575
 20
-662.0829367502405
 30
0.0
 10
1823.053099508052
 20
-662.4083644451102
 30
0.0
 10
1822.600696225613
 20
-662.6501790375148
 30
0.0
 10
1822.109810058685
 20
-662.7990877282798
 30
0.0
 10
1821.76947367782
 20
-662.8326079360456
 30
0.0
 10
1821.599305487385
 20
-662.8326079360456
 30
0.0
  0
LINE
  5
747D
330
1A
100
AcDbEntity
  8
SEIHIN
100
AcDbLine
 10
1877.071105487367
 20
-701.7000079360551
 30
0.0
 11
1888.820096237466
 21
-673.7000299803549
 31
0.0
  0
LINE
  5
747E
330
1A
100
AcDbEntity
  8
SEIHIN
100
AcDbLine
 10
1893.599404593267
 20
-675.2325084311551
 30
0.0
 11
1875.136664708465
 21
-719.2324057472551
 31
0.0
  0
LINE
  5
747F
330
1A
100
AcDbEntity
  8
SEIHIN
100
AcDbLine
 10
1886.514805487366
 20
-670.2327079360551
 30
0.0
 11
1858.599305487365
 21
-670.2327079360551
 31
0.0
  0
LINE
  5
7480
330
1A
100
AcDbEntity
  8
SEIHIN
100
AcDbLine
 10
1818.382605487366
 20
-673.7061079360552
 30
0.0
 11
1830.220009523266
 21
-701.7061174821549
 31
0.0
  0
LINE
  5
7481
330
1A
100
AcDbEntity
  8
SEIHIN
100
AcDbLine
 10
1851.099405487367
 20
-700.7327079360549
 30
0.0
 11
1851.099405487367
 21
-672.7326079360552
 31
0.0
  0
LINE
  5
7482
330
1A
100
AcDbEntity
  8
SEIHIN
100
AcDbLine
 10
1856.099305487367
 20
-672.7327079360549
 30
0.0
 11
1856.099305487367
 21
-700.7327079360549
 31
0.0
  0
LINE
  5
7483
330
1A
100
AcDbEntity
  8
SEIHIN
100
AcDbLine
 10
1832.200963621366
 20
-719.2324057472551
 30
0.0
 11
1813.599406381465
 21
-675.2325084311551
 31
0.0
  0
LINE
  5
7484
330
1A
100
AcDbEntity
  8
SEIHIN
100
AcDbLine
 10
1832.522639867166
 20
-703.232607936255
 30
0.0
 11
1848.599389937065
 21
-703.2327079359549
 31
0.0
  0
LINE
  5
7485
330
1A
100
AcDbEntity
  8
SEIHIN
100
AcDbLine
 10
1872.366571264265
 20
-722.2324079360549
 30
0.0
 11
1835.768198300866
 21
-722.2324079360549
 31
0.0
  0
LINE
  5
7486
330
1A
100
AcDbEntity
  8
SEIHIN
100
AcDbLine
 10
1875.136664708465
 20
-719.2324057472551
 30
0.0
 11
1832.200963621366
 21
-719.2324057472551
 31
0.0
  0
LINE
  5
7487
330
1A
100
AcDbEntity
  8
SEIHIN
100
AcDbLine
 10
1832.200963621366
 20
-719.2324057472551
 30
0.0
 11
1832.226973598167
 21
-719.2939326418552
 31
0.0
  0
ARC
  5
7488
330
1A
100
AcDbEntity
  8
SEIHIN
100
AcDbCircle
 10
1836.832327803367
 20
-717.346957250355
 30
0.0
 40
5.0
100
AcDbArc
 50
257.7119911547847
 51
266.9997864296859
  0
ARC
  5
7489
330
1A
100
AcDbEntity
  8
SEIHIN
100
AcDbCircle
 10
1832.522655417366
 20
-700.732641035455
 30
0.0
 40
2.499966900931462
100
AcDbArc
 50
202.9169054411982
 51
269.9996436120088
  0
CIRCLE
  5
748A
330
1A
100
AcDbEntity
  8
SEIHIN
100
AcDbCircle
 10
1853.599405487367
 20
-715.232607936055
 30
0.0
 40
2.299999999981023
  0
CIRCLE
  5
748B
330
1A
100
AcDbEntity
  8
SEIHIN
100
AcDbCircle
 10
1853.599405487367
 20
-715.232607936055
 30
0.0
 40
2.60000000000008
  0
ARC
  5
748C
330
1A
100
AcDbEntity
  8
SEIHIN
100
AcDbCircle
 10
1870.381019983766
 20
-717.6435533826547
 30
0.0
 40
5.000000000000033
100
AcDbArc
 50
293.397650481892
 51
337.2366544619025
  0
LINE
  5
748D
330
1A
100
AcDbEntity
  8
SEIHIN
100
AcDbLine
 10
1874.991573964567
 20
-719.5781797421548
 30
0.0
 11
1875.136664708465
 21
-719.2324057472551
 31
0.0
  0
LINE
  5
748E
330
1A
100
AcDbEntity
  8
SEIHIN
100
AcDbLine
 10
1858.599305487365
 20
-703.2327079360548
 30
0.0
 11
1874.765817125767
 21
-703.2327079360548
 31
0.0
  0
ARC
  5
748F
330
1A
100
AcDbEntity
  8
SEIHIN
100
AcDbCircle
 10
1858.599305487365
 20
-700.7327079360549
 30
0.0
 40
2.499999999999984
100
AcDbArc
 50
180.0
 51
270.0
  0
ARC
  5
7490
330
1A
100
AcDbEntity
  8
SEIHIN
100
AcDbCircle
 10
1848.599405487367
 20
-700.7327079360549
 30
0.0
 40
2.500000000000568
100
AcDbArc
 50
269.9996436120088
 51
0.0
  0
ARC
  5
7491
330
1A
100
AcDbEntity
  8
SEIHIN
100
AcDbCircle
 10
1874.765817125767
 20
-700.7327001980546
 30
0.0
 40
2.500007738003029
100
AcDbArc
 50
270.0
 51
337.2368940503026
  0
LINE
  5
7493
330
1A
100
AcDbEntity
  8
SEIHIN
100
AcDbLine
 10
1848.577053984967
 20
-670.2327078559551
 30
0.0
 11
1820.685305487367
 21
-670.232607936055
 31
0.0
  0
ARC
  5
7497
330
1A
100
AcDbEntity
  8
SEIHIN
100
AcDbCircle
 10
1820.685296899865
 20
-672.7326208899551
 30
0.0
 40
2.500012953948068
100
AcDbArc
 50
89.99980318920277
 51
202.9167229696035
  0
ARC
  5
749C
330
1A
100
AcDbEntity
  8
SEIHIN
100
AcDbCircle
 10
1858.599305487365
 20
-672.7327079360549
 30
0.0
 40
2.499999999999984
100
AcDbArc
 50
90.0
 51
180.0
  0
ARC
  5
749D
330
1A
100
AcDbEntity
  8
SEIHIN
100
AcDbCircle
 10
1848.599405487367
 20
-672.7326079360552
 30
0.0
 40
2.500000000000509
100
AcDbArc
 50
0.0
 51
90.51226552660502
  0
LINE
  5
749E
330
1A
100
AcDbEntity
  8
SEIHIN
100
AcDbLine
 10
1853.599305527966
 20
-665.2152531100551
 30
0.0
 11
1853.599305487366
 21
-665.2327079577551
 31
0.0
  0
ARC
  5
74A3
330
1A
100
AcDbEntity
  8
SEIHIN
100
AcDbCircle
 10
1886.514810632067
 20
-672.7327156740551
 30
0.0
 40
2.500007737981726
100
AcDbArc
 50
337.236730798704
 51
90.00011790789145
  0
LINE
  5
74A4
330
1A
100
AcDbEntity
  8
SEIHIN
100
AcDbLine
 10
1888.861005487367
 20
-647.0803079360551
 30
0.0
 11
1856.547069026967
 21
-645.3867899283552
 31
0.0
  0
LINE
  5
74A5
330
1A
100
AcDbEntity
  8
SEIHIN
100
AcDbLine
 10
1851.599405392366
 20
-638.4664794681553
 30
0.0
 11
1851.599405487366
 21
-629.0964826082552
 31
0.0
  0
LINE
  5
74A6
330
1A
100
AcDbEntity
  8
SEIHIN
100
AcDbLine
 10
1855.599405487366
 20
-629.0964826082552
 30
0.0
 11
1855.599405582367
 21
-638.4664794681553
 31
0.0
  0
LINE
  5
74A7
330
1A
100
AcDbEntity
  8
SEIHIN
100
AcDbLine
 10
1851.599405392366
 20
-636.0001109791552
 30
0.0
 11
1851.599405487366
 21
-625.0952506998552
 31
0.0
  0
LINE
  5
74A8
330
1A
100
AcDbEntity
  8
SEIHIN
100
AcDbLine
 10
1855.599405487366
 20
-625.0952507000552
 30
0.0
 11
1855.599405582367
 21
-636.0001109791552
 31
0.0
  0
LINE
  5
74A9
330
1A
100
AcDbEntity
  8
SEIHIN
100
AcDbLine
 10
1838.599405487367
 20
-640.472252741655
 30
0.0
 11
1851.599405392366
 21
-640.4722525989552
 31
0.0
  0
LINE
  5
74AA
330
1A
100
AcDbEntity
  8
SEIHIN
100
AcDbLine
 10
1838.599405487367
 20
-637.7995799476551
 30
0.0
 11
1851.599405392366
 21
-637.7995798615552
 31
0.0
  0
LINE
  5
74AB
330
1A
100
AcDbEntity
  8
SEIHIN
100
AcDbLine
 10
1838.599405487367
 20
-633.4722527416552
 30
0.0
 11
1851.599405392366
 21
-633.4722528485551
 31
0.0
  0
LINE
  5
74AC
330
1A
100
AcDbEntity
  8
SEIHIN
100
AcDbLine
 10
1850.651741947767
 20
-645.3867899283552
 30
0.0
 11
1818.337805487365
 21
-647.0803079360551
 31
0.0
  0
LINE
  5
74B3
330
1A
100
AcDbEntity
  8
SEIHIN
100
AcDbLine
 10
1838.599405487367
 20
-640.472252741655
 30
0.0
 11
1838.599405487367
 21
-637.7995799476551
 31
0.0
  0
LINE
  5
74B4
330
1A
100
AcDbEntity
  8
SEIHIN
100
AcDbLine
 10
1838.599405487367
 20
-642.7439892157552
 30
0.0
 11
1838.599405487367
 21
-640.472252741655
 31
0.0
  0
LINE
  5
74B5
330
1A
100
AcDbEntity
  8
SEIHIN
100
AcDbLine
 10
1838.599405822666
 20
-646.0184321990551
 30
0.0
 11
1838.599405487367
 21
-642.7439892157552
 31
0.0
  0
LINE
  5
74B6
330
1A
100
AcDbEntity
  8
SEIHIN
100
AcDbLine
 10
1838.599405487367
 20
-634.1404209401551
 30
0.0
 11
1838.599405487367
 21
-633.4722527416552
 31
0.0
  0
LINE
  5
74B7
330
1A
100
AcDbEntity
  8
SEIHIN
100
AcDbLine
 10
1838.599405487367
 20
-637.7995799476551
 30
0.0
 11
1838.599405487367
 21
-634.1404209401551
 31
0.0
  0
LINE
  5
74BC
330
1A
100
AcDbEntity
  8
SEIHIN
100
AcDbLine
 10
1855.599405582367
 20
-640.4722525989552
 30
0.0
 11
1868.599405487366
 21
-640.472252741655
 31
0.0
  0
LINE
  5
74BD
330
1A
100
AcDbEntity
  8
SEIHIN
100
AcDbLine
 10
1855.599405582367
 20
-637.7995798615552
 30
0.0
 11
1868.599405487366
 21
-637.7995799476551
 31
0.0
  0
LINE
  5
74BE
330
1A
100
AcDbEntity
  8
SEIHIN
100
AcDbLine
 10
1855.599405582367
 20
-633.4722528485551
 30
0.0
 11
1868.599405487366
 21
-633.4722527416552
 31
0.0
  0
LINE
  5
74BF
330
1A
100
AcDbEntity
  8
SEIHIN
100
AcDbLine
 10
1851.599405487366
 20
-644.3881604200553
 30
0.0
 11
1851.599405392366
 21
-636.0001109791552
 31
0.0
  0
LINE
  5
74C0
330
1A
100
AcDbEntity
  8
SEIHIN
100
AcDbLine
 10
1855.599405487366
 20
-644.3881604200553
 30
0.0
 11
1855.599405582367
 21
-636.0001109791552
 31
0.0
  0
ARC
  5
74C1
330
1A
100
AcDbEntity
  8
SEIHIN
100
AcDbCircle
 10
1850.599405487367
 20
-644.3881604200553
 30
0.0
 40
1.000000000000019
100
AcDbArc
 50
273.0000289246994
 51
0.0000005919980169
  0
ARC
  5
74C2
330
1A
100
AcDbEntity
  8
SEIHIN
100
AcDbCircle
 10
1856.599405487367
 20
-644.3881604200553
 30
0.0
 40
1.000000000000021
100
AcDbArc
 50
179.9999994079954
 51
266.9999710753005
  0
LINE
  5
74C3
330
1A
100
AcDbEntity
  8
SEIHIN
100
AcDbLine
 10
1854.599405534866
 20
-634.932444642255
 30
0.0
 11
1852.599405439867
 21
-634.932444642255
 31
0.0
  0
ELLIPSE
  5
74C4
330
1A
100
AcDbEntity
  8
SEIHIN
100
AcDbEllipse
 10
1854.599405487367
 20
-636.0001106362552
 30
0.0
 11
0.0
 21
-1.067665497196486
 31
0.0
210
0.0
220
0.0
230
1.0
 40
0.9366229428999995
 41
1.570796356870546
 42
3.141592558130597
  0
ELLIPSE
  5
74C5
330
1A
100
AcDbEntity
  8
SEIHIN
100
AcDbEllipse
 10
1852.599405487366
 20
-636.0001106362552
 30
0.0
 11
0.0
 21
1.067665497196486
 31
0.0
210
0.0
220
0.0
230
1.0
 40
0.9366229428999995
 41
0.0000000954591965
 42
1.570796296719245
  0
LINE
  5
74C6
330
1A
100
AcDbEntity
  8
SEIHIN
100
AcDbLine
 10
1868.599405487366
 20
-637.7995799476551
 30
0.0
 11
1868.599405487366
 21
-640.472252741655
 31
0.0
  0
LINE
  5
74C7
330
1A
100
AcDbEntity
  8
SEIHIN
100
AcDbLine
 10
1868.599405487366
 20
-640.472252741655
 30
0.0
 11
1868.599405487366
 21
-642.7439892157552
 31
0.0
  0
LINE
  5
74C8
330
1A
100
AcDbEntity
  8
SEIHIN
100
AcDbLine
 10
1868.599405487366
 20
-642.7439892157552
 30
0.0
 11
1868.599405152067
 21
-646.0184321990551
 31
0.0
  0
LINE
  5
74C9
330
1A
100
AcDbEntity
  8
SEIHIN
100
AcDbLine
 10
1868.599405487366
 20
-633.4722527416552
 30
0.0
 11
1868.599405487366
 21
-634.1404209401551
 31
0.0
  0
LINE
  5
74CA
330
1A
100
AcDbEntity
  8
SEIHIN
100
AcDbLine
 10
1868.599405487366
 20
-634.1404209401551
 30
0.0
 11
1868.599405487366
 21
-637.7995799476551
 31
0.0
  0
ARC
  5
74CB
330
1A
100
AcDbEntity
  8
SEIHIN
100
AcDbCircle
 10
1852.599405487366
 20
-624.9684965803553
 30
0.0
 40
1.0
100
AcDbArc
 50
90.0
 51
180.0
  0
ARC
  5
74CC
330
1A
100
AcDbEntity
  8
SEIHIN
100
AcDbCircle
 10
1854.599405487367
 20
-624.9684965803553
 30
0.0
 40
1.0
100
AcDbArc
 50
0.0
 51
90.0
  0
LINE
  5
74CD
330
1A
100
AcDbEntity
  8
SEIHIN
100
AcDbLine
 10
1851.599405487366
 20
-624.2413144495551
 30
0.0
 11
1851.599405487366
 21
-621.0884582364553
 31
0.0
  0
LINE
  5
74CE
330
1A
100
AcDbEntity
  8
SEIHIN
100
AcDbLine
 10
1855.599405487366
 20
-621.0884582364553
 30
0.0
 11
1855.599405487366
 21
-624.2413144495551
 31
0.0
  0
LINE
  5
74CF
330
1A
100
AcDbEntity
  8
SEIHIN
100
AcDbLine
 10
1851.599405487366
 20
-626.3159943886553
 30
0.0
 11
1851.599405487366
 21
-625.4677675606552
 31
0.0
  0
LINE
  5
74D0
330
1A
100
AcDbEntity
  8
SEIHIN
100
AcDbLine
 10
1851.599405487366
 20
-625.4677675606552
 30
0.0
 11
1851.599405487366
 21
-625.2049059128552
 31
0.0
  0
LINE
  5
74D1
330
1A
100
AcDbEntity
  8
SEIHIN
100
AcDbLine
 10
1851.599405392366
 20
-625.9803913784551
 30
0.0
 11
1851.599405487366
 21
-625.806551498055
 31
0.0
  0
LINE
  5
74D2
330
1A
100
AcDbEntity
  8
SEIHIN
100
AcDbLine
 10
1851.599405487366
 20
-625.806551498055
 30
0.0
 11
1851.599405487366
 21
-624.2413144495551
 31
0.0
  0
LINE
  5
74D3
330
1A
100
AcDbEntity
  8
SEIHIN
100
AcDbLine
 10
1851.599405487366
 20
-625.0952506998552
 30
0.0
 11
1851.599405487366
 21
-624.9684965803553
 31
0.0
  0
LINE
  5
74D4
330
1A
100
AcDbEntity
  8
SEIHIN
100
AcDbLine
 10
1851.599405487366
 20
-629.0964826082552
 30
0.0
 11
1851.599405487366
 21
-626.3159943886553
 31
0.0
  0
LINE
  5
74D5
330
1A
100
AcDbEntity
  8
SEIHIN
100
AcDbLine
 10
1855.599405487366
 20
-625.4677675606552
 30
0.0
 11
1855.599405487366
 21
-626.3159943886553
 31
0.0
  0
LINE
  5
74D6
330
1A
100
AcDbEntity
  8
SEIHIN
100
AcDbLine
 10
1855.599405487366
 20
-625.2049059128552
 30
0.0
 11
1855.599405487366
 21
-625.4677675606552
 31
0.0
  0
LINE
  5
74D7
330
1A
100
AcDbEntity
  8
SEIHIN
100
AcDbLine
 10
1855.599405487366
 20
-625.806551498055
 30
0.0
 11
1855.599405582367
 21
-625.9803913784551
 31
0.0
  0
LINE
  5
74D8
330
1A
100
AcDbEntity
  8
SEIHIN
100
AcDbLine
 10
1855.599405487366
 20
-624.2413144495551
 30
0.0
 11
1855.599405487366
 21
-625.806551498055
 31
0.0
  0
LINE
  5
74D9
330
1A
100
AcDbEntity
  8
SEIHIN
100
AcDbLine
 10
1855.599405487366
 20
-624.9684965803553
 30
0.0
 11
1855.599405487366
 21
-625.0952507000552
 31
0.0
  0
LINE
  5
74DA
330
1A
100
AcDbEntity
  8
SEIHIN
100
AcDbLine
 10
1855.599405487366
 20
-626.3159943886553
 30
0.0
 11
1855.599405487366
 21
-629.0964826082552
 31
0.0
  0
ARC
  5
74DB
330
1A
100
AcDbEntity
  8
SEIHIN
100
AcDbCircle
 10
1852.361367228967
 20
-622.1767281381553
 30
0.0
 40
1.328502469295379
100
AcDbArc
 50
79.67812466471548
 51
124.9981111900869
  0
ARC
  5
74DC
330
1A
100
AcDbEntity
  8
SEIHIN
100
AcDbCircle
 10
1852.599405487366
 20
-619.916556949555
 30
0.0
 40
1.0
100
AcDbArc
 50
90.0
 51
180.0
  0
LINE
  5
74DD
330
1A
100
AcDbEntity
  8
SEIHIN
100
AcDbLine
 10
1851.599405487366
 20
-621.0884582364553
 30
0.0
 11
1851.599405487366
 21
-619.916556949555
 31
0.0
  0
LINE
  5
74DE
330
1A
100
AcDbEntity
  8
SEIHIN
100
AcDbLine
 10
1854.599405487367
 20
-620.8697257609552
 30
0.0
 11
1852.599405487366
 21
-620.8697257609552
 31
0.0
  0
LINE
  5
74DF
330
1A
100
AcDbEntity
  8
SEIHIN
100
AcDbLine
 10
1854.599405487367
 20
-618.916556949555
 30
0.0
 11
1852.599405487366
 21
-618.916556949555
 31
0.0
  0
LINE
  5
74E0
330
1A
100
AcDbEntity
  8
SEIHIN
100
AcDbLine
 10
1855.599405487366
 20
-619.916556949555
 30
0.0
 11
1855.599405487366
 21
-621.0884582364553
 31
0.0
  0
ARC
  5
74E1
330
1A
100
AcDbEntity
  8
SEIHIN
100
AcDbCircle
 10
1854.837443745866
 20
-622.1767281381553
 30
0.0
 40
1.328502469295343
100
AcDbArc
 50
55.00188880991305
 51
100.3218753352845
  0
ARC
  5
74E2
330
1A
100
AcDbEntity
  8
SEIHIN
100
AcDbCircle
 10
1854.599405487367
 20
-619.916556949555
 30
0.0
 40
1.0
100
AcDbArc
 50
0.0
 51
90.0
  0
LINE
  5
74E3
330
1A
100
AcDbEntity
  8
SEIHIN
100
AcDbLine
 10
1854.599405487367
 20
-623.9684965803551
 30
0.0
 11
1852.599405487366
 21
-623.9684965803551
 31
0.0
  0
ARC
  5
74E4
330
1A
100
AcDbEntity
  8
SEIHIN
100
AcDbCircle
 10
1888.599431379066
 20
-652.0734352197551
 30
0.0
 40
4.999974108438784
100
AcDbArc
 50
0.0003126493988497
 51
87.00119703990791
  0
LINE
  5
74E5
330
1A
100
AcDbEntity
  8
SEIHIN
100
AcDbLine
 10
1605.914164487962
 20
-467.4593580191492
 30
0.0
 11
1538.987164487959
 21
-467.4593580191492
 31
0.0
  0
LINE
  5
74E6
330
1A
100
AcDbEntity
  8
SEIHIN
100
AcDbLine
 10
1538.987164487959
 20
-437.4593580191493
 30
0.0
 11
1605.914164487962
 21
-437.4593580191493
 31
0.0
  0
DIMENSION
  5
74E7
330
1A
100
AcDbEntity
  8
SUNPOU
100
AcDbDimension
  2
*D20
 10
1479.022631354175
 20
-467.4593580191492
 30
0.0
 11
1474.022631354175
 21
-452.459358019149
 31
0.0
 70
    32
  3
STANDARD
100
AcDbAlignedDimension
 13
1506.131562032862
 23
-437.4593580191493
 33
0.0
 14
1506.131562032862
 24
-467.4593580191492
 34
0.0
 50
90.0
100
AcDbRotatedDimension
1001
ACAD
1000
DSTYLE
1002
{
1070
    41
1040
7.0
1070
    42
1040
6.0
1070
    43
1040
14.0
1070
    44
1040
3.0
1070
    73
1070
     0
1070
    74
1070
     0
1070
    77
1070
     3
1070
   140
1040
6.0
1070
   141
1040
150.0
1070
   147
1040
2.0
1070
   172
1070
     1
1070
   173
1070
     1
1070
   176
1070
   256
1070
   177
1070
   256
1070
   178
1070
   256
1070
   271
1070
     0
1070
   272
1070
     0
1070
   341
1005
6D
1070
     6
1000
OPEN
1070
     7
1000
OPEN
1070
   371
1070
    -1
1070
   372
1070
    -1
1002
}
  0
LINE
  5
74E8
330
1A
100
AcDbEntity
  8
SEIHIN
100
AcDbLine
 10
1525.760007613863
 20
-465.3000767666667
 30
0.0
 11
1525.760007613863
 21
-455.4593580191493
 31
0.0
  0
LWPOLYLINE
  5
74EB
330
1A
100
AcDbEntity
  8
SEIHIN
100
AcDbPolyline
 90
        8
 70
   128
 43
0.0
 10
1501.358389603162
 20
-466.3879297351493
 10
1500.259116040763
 20
-464.0515934353491
 10
1499.384268867063
 20
-461.6897994330493
 10
1498.965844260763
 20
-460.2784499203493
 10
1498.652368532763
 20
-459.0077361701491
 10
1498.578771697563
 20
-458.6695557137493
 10
1498.542085038763
 20
-458.4935594959492
 10
1498.544767247763
 20
-458.5065412012491
  0
LINE
  5
74EC
330
1A
100
AcDbEntity
  8
SEIHIN
100
AcDbLine
 10
1506.679074309163
 20
-467.4593580191492
 30
0.0
 11
1506.679074309163
 21
-437.4593580191493
 31
0.0
  0
DIMENSION
  5
74ED
330
1A
100
AcDbEntity
  8
SUNPOU
100
AcDbDimension
  2
*D21
 10
1554.675571759737
 20
-454.4593580191493
 30
0.0
 11
1548.750070640002
 21
-458.7900956475066
 31
0.0
 70
   160
  3
STANDARD
100
AcDbAlignedDimension
 13
1521.044561024362
 23
-450.4593580191493
 33
0.0
 14
1521.044561024362
 24
-454.4593580191493
 34
0.0
 50
90.0
100
AcDbRotatedDimension
1001
ACAD
1000
DSTYLE
1002
{
1070
   287
1070
     5
1070
    41
1040
7.0
1070
    42
1040
6.0
1070
    43
1040
14.0
1070
    44
1040
3.0
1070
    73
1070
     0
1070
    74
1070
     0
1070
    77
1070
     3
1070
   140
1040
6.0
1070
   141
1040
150.0
1070
   147
1040
2.0
1070
   172
1070
     1
1070
   173
1070
     1
1070
   176
1070
   256
1070
   177
1070
   256
1070
   178
1070
   256
1070
   271
1070
     0
1070
   272
1070
     0
1070
   279
1070
     2
1070
   341
1005
6D
1070
     6
1000
OPEN
1070
     7
1000
OPEN
1070
   371
1070
    -1
1070
   372
1070
    -1
1002
}
  0
LINE
  5
74EE
330
1A
100
AcDbEntity
  8
SEIHIN
100
AcDbLine
 10
1538.987164487959
 20
-467.4593580191492
 30
0.0
 11
1525.760007613863
 21
-467.4593580191492
 31
0.0
  0
LINE
  5
74EF
330
1A
100
AcDbEntity
  8
SEIHIN
100
AcDbLine
 10
1521.569950557863
 20
-467.4593580191492
 30
0.0
 11
1506.679074309163
 21
-467.4593580191492
 31
0.0
  0
LINE
  5
74F0
330
1A
100
AcDbEntity
  8
SEIHIN
100
AcDbLine
 10
1505.631562032863
 20
-467.4593580191492
 30
0.0
 11
1503.169744144463
 21
-467.4593580191492
 31
0.0
  0
LWPOLYLINE
  5
74F1
330
1A
100
AcDbEntity
  8
SEIHIN
100
AcDbPolyline
 90
        3
 70
   128
 43
0.0
 10
1502.276554452463
 20
-467.2682353904492
 10
1502.747341739263
 20
-467.4224558895494
 10
1503.129765140163
 20
-467.4593576839491
  0
LINE
  5
74F2
330
1A
100
AcDbEntity
  8
SEIHIN
100
AcDbLine
 10
1503.169744144463
 20
-467.4593580191492
 30
0.0
 11
1503.129763906563
 21
-467.4593580191492
 31
0.0
  0
LWPOLYLINE
  5
74F3
330
1A
100
AcDbEntity
  8
SEIHIN
100
AcDbPolyline
 90
        3
 70
   128
 43
0.0
 10
1501.358389603162
 20
-466.3879297351493
 10
1501.790493475463
 20
-466.9447386315493
 10
1502.276554452463
 20
-467.2682353904492
  0
LINE
  5
74F4
330
1A
100
AcDbEntity
  8
SEIHIN
100
AcDbLine
 10
1506.679074309163
 20
-467.4593580191492
 30
0.0
 11
1506.131562032862
 21
-467.4593580191492
 31
0.0
  0
LINE
  5
74F5
330
1A
100
AcDbEntity
  8
SEIHIN
100
AcDbLine
 10
1506.131562032862
 20
-467.4593580191492
 30
0.0
 11
1505.631562032863
 21
-467.4593580191492
 31
0.0
  0
LINE
  5
74F6
330
1A
100
AcDbEntity
  8
SEIHIN
100
AcDbLine
 10
1525.760007613863
 20
-467.4593580191492
 30
0.0
 11
1521.569950557863
 21
-467.4593580191492
 31
0.0
  0
LINE
  5
74F7
330
1A
100
AcDbEntity
  8
SEIHIN
100
AcDbLine
 10
1525.760007613863
 20
-437.4593580191493
 30
0.0
 11
1538.987164487959
 21
-437.4593580191493
 31
0.0
  0
LINE
  5
74F9
330
1A
100
AcDbEntity
  8
SEIHIN
100
AcDbLine
 10
1498.541071759763
 20
-446.4121748371492
 30
0.0
 11
1498.541071759763
 21
-458.5065412012491
 31
0.0
  0
LINE
  5
74FA
330
1A
100
AcDbEntity
  8
SEIHIN
100
AcDbLine
 10
1523.478530617863
 20
-454.4593580191493
 30
0.0
 11
1521.044561024362
 21
-454.4593580191493
 31
0.0
  0
LINE
  5
74FB
330
1A
100
AcDbEntity
  8
SEIHIN
100
AcDbLine
 10
1521.044561024362
 20
-450.4593580191493
 30
0.0
 11
1523.478530617863
 21
-450.4593580191493
 31
0.0
  0
LINE
  5
74FC
330
1A
100
AcDbEntity
  8
SEIHIN
100
AcDbLine
 10
1521.044561024362
 20
-454.4593580191493
 30
0.0
 11
1519.805072358863
 21
-454.4593580191493
 31
0.0
  0
LINE
  5
74FD
330
1A
100
AcDbEntity
  8
SEIHIN
100
AcDbLine
 10
1519.805072358863
 20
-450.4593580191493
 30
0.0
 11
1521.044561024362
 21
-450.4593580191493
 31
0.0
  0
LINE
  5
74FE
330
1A
100
AcDbEntity
  8
SEIHIN
100
AcDbLine
 10
1518.690313829763
 20
-451.4593580191492
 30
0.0
 11
1518.690313829763
 21
-453.4593580191492
 31
0.0
  0
ARC
  5
74FF
330
1A
100
AcDbEntity
  8
SEIHIN
100
AcDbCircle
 10
1519.690313829763
 20
-453.4593580191492
 30
0.0
 40
1.0
100
AcDbArc
 50
180.0
 51
270.0
  0
ARC
  5
7500
330
1A
100
AcDbEntity
  8
SEIHIN
100
AcDbCircle
 10
1519.690313829763
 20
-451.4593580191492
 30
0.0
 40
1.0
100
AcDbArc
 50
90.0
 51
180.0
  0
LINE
  5
7501
330
1A
100
AcDbEntity
  8
SEIHIN
100
AcDbLine
 10
1519.805072358863
 20
-454.4593580191493
 30
0.0
 11
1519.690313829763
 21
-454.4593580191493
 31
0.0
  0
LINE
  5
7502
330
1A
100
AcDbEntity
  8
SEIHIN
100
AcDbLine
 10
1519.690313829763
 20
-450.4593580191493
 30
0.0
 11
1519.805072358863
 21
-450.4593580191493
 31
0.0
  0
ARC
  5
7503
330
1A
100
AcDbEntity
  8
SEIHIN
100
AcDbCircle
 10
1528.456161390663
 20
-453.4593580191492
 30
0.0
 40
1.0
100
AcDbArc
 50
270.0
 51
0.0
  0
ARC
  5
7504
330
1A
100
AcDbEntity
  8
SEIHIN
100
AcDbCircle
 10
1527.67167658166
 20
-453.5871533594493
 30
0.0
 40
0.8911539446611701
100
AcDbArc
 50
281.8366597221886
 51
8.244885673997577
  0
LINE
  5
7505
330
1A
100
AcDbEntity
  8
SEIHIN
100
AcDbLine
 10
1528.456161390663
 20
-454.4593580191493
 30
0.0
 11
1527.854465554263
 21
-454.4593580191493
 31
0.0
  0
ARC
  5
7506
330
1A
100
AcDbEntity
  8
SEIHIN
100
AcDbCircle
 10
1528.456161390663
 20
-451.4593580191492
 30
0.0
 40
1.0
100
AcDbArc
 50
0.0
 51
90.0
  0
LINE
  5
7507
330
1A
100
AcDbEntity
  8
SEIHIN
100
AcDbLine
 10
1527.854465554263
 20
-450.4593580191493
 30
0.0
 11
1528.456161390663
 21
-450.4593580191493
 31
0.0
  0
LINE
  5
7508
330
1A
100
AcDbEntity
  8
SEIHIN
100
AcDbLine
 10
1528.553617635963
 20
-453.4593580191492
 30
0.0
 11
1528.553617635963
 21
-451.4593580191492
 31
0.0
  0
ARC
  5
7509
330
1A
100
AcDbEntity
  8
SEIHIN
100
AcDbCircle
 10
1527.67167658166
 20
-451.3315626789492
 30
0.0
 40
0.8911539446612357
100
AcDbArc
 50
351.7551143260023
 51
78.16334027778586
  0
LINE
  5
750A
330
1A
100
AcDbEntity
  8
SEIHIN
100
AcDbLine
 10
1529.456161390662
 20
-451.4593580191492
 30
0.0
 11
1529.456161390662
 21
-453.4593580191492
 31
0.0
  0
ARC
  5
750B
330
1A
100
AcDbEntity
  8
SEIHIN
100
AcDbCircle
 10
1524.666804659063
 20
-453.3642450061493
 30
0.0
 40
1.100674957559738
100
AcDbArc
 50
264.2376351376872
 51
355.0426944414034
  0
LINE
  5
750C
330
1A
100
AcDbEntity
  8
SEIHIN
100
AcDbLine
 10
1524.475152017363
 20
-454.4593580191493
 30
0.0
 11
1524.023880140063
 21
-454.4593580191493
 31
0.0
  0
ARC
  5
750D
330
1A
100
AcDbEntity
  8
SEIHIN
100
AcDbCircle
 10
1524.653567093563
 20
-451.5704496806493
 30
0.0
 40
1.115341642131917
100
AcDbArc
 50
5.7163272344978
 51
95.00334318629652
  0
LINE
  5
750E
330
1A
100
AcDbEntity
  8
SEIHIN
100
AcDbLine
 10
1524.023880140063
 20
-450.4593580191493
 30
0.0
 11
1524.475152017363
 21
-450.4593580191493
 31
0.0
  0
LINE
  5
750F
330
1A
100
AcDbEntity
  8
SEIHIN
100
AcDbLine
 10
1525.763356009363
 20
-453.4593580191492
 30
0.0
 11
1525.763355992363
 21
-451.4593580191492
 31
0.0
  0
LINE
  5
7510
330
1A
100
AcDbEntity
  8
SEIHIN
100
AcDbLine
 10
1524.556293832363
 20
-454.4593581141493
 30
0.0
 11
1523.478530617863
 21
-454.4593580191493
 31
0.0
  0
LINE
  5
7511
330
1A
100
AcDbEntity
  8
SEIHIN
100
AcDbLine
 10
1523.478530617863
 20
-450.4593580191493
 30
0.0
 11
1524.556293832363
 21
-450.4593579241492
 31
0.0
  0
LINE
  5
7512
330
1A
100
AcDbEntity
  8
SEIHIN
100
AcDbLine
 10
1527.854465554263
 20
-454.4593580191493
 30
0.0
 11
1524.475152017363
 21
-454.4593580191493
 31
0.0
  0
LINE
  5
7513
330
1A
100
AcDbEntity
  8
SEIHIN
100
AcDbLine
 10
1524.475152017363
 20
-450.4593580191493
 30
0.0
 11
1527.854465554263
 21
-450.4593580191493
 31
0.0
  0
LINE
  5
7514
330
1A
100
AcDbEntity
  8
SEIHIN
100
AcDbLine
 10
1506.679074309163
 20
-437.4593580191493
 30
0.0
 11
1521.569950557863
 21
-437.4593580191493
 31
0.0
  0
ARC
  5
7515
330
1A
100
AcDbEntity
  8
SEIHIN
100
AcDbCircle
 10
1527.902920064263
 20
-452.4499912554492
 30
0.0
 40
29.97259354639959
100
AcDbArc
 50
152.3287476868915
 51
168.3785533361994
  0
LINE
  5
7516
330
1A
100
AcDbEntity
  8
SEIHIN
100
AcDbLine
 10
1503.169744144463
 20
-437.4593580191493
 30
0.0
 11
1505.631562032863
 21
-437.4593580191493
 31
0.0
  0
LINE
  5
7517
330
1A
100
AcDbEntity
  8
SEIHIN
100
AcDbLine
 10
1503.129763906563
 20
-437.4593580191493
 30
0.0
 11
1503.169744144463
 21
-437.4593580191493
 31
0.0
  0
LWPOLYLINE
  5
7518
330
1A
100
AcDbEntity
  8
SEIHIN
100
AcDbPolyline
 90
        3
 70
   128
 43
0.0
 10
1503.129765140163
 20
-437.4593583544493
 10
1502.619191752962
 20
-437.5256284749491
 10
1502.276554452463
 20
-437.6504806479492
  0
LWPOLYLINE
  5
7519
330
1A
100
AcDbEntity
  8
SEIHIN
100
AcDbPolyline
 90
        3
 70
   128
 43
0.0
 10
1502.276554452463
 20
-437.6504806479492
 10
1501.686721788962
 20
-438.0745723521492
 10
1501.358389603162
 20
-438.5307863032492
  0
LINE
  5
751A
330
1A
100
AcDbEntity
  8
SEIHIN
100
AcDbLine
 10
1506.131562032862
 20
-437.4593580191493
 30
0.0
 11
1506.679074309163
 21
-437.4593580191493
 31
0.0
  0
LINE
  5
751B
330
1A
100
AcDbEntity
  8
SEIHIN
100
AcDbLine
 10
1505.631562032863
 20
-437.4593580191493
 30
0.0
 11
1506.131562032862
 21
-437.4593580191493
 31
0.0
  0
LINE
  5
751C
330
1A
100
AcDbEntity
  8
SEIHIN
100
AcDbLine
 10
1525.760007613863
 20
-449.4593580191494
 30
0.0
 11
1525.760007613863
 21
-439.5921560334008
 31
0.0
  0
LINE
  5
751D
330
1A
100
AcDbEntity
  8
SEIHIN
100
AcDbLine
 10
1521.569950557863
 20
-437.4593580191493
 30
0.0
 11
1525.760007613863
 21
-437.4593580191493
 31
0.0
  0
LINE
  5
751E
330
1A
100
AcDbEntity
  8
SEIHIN
100
AcDbLine
 10
1643.169803293662
 20
-417.1977568095494
 30
0.0
 11
1643.095713788861
 21
-437.4593583544493
 31
0.0
  0
LINE
  5
751F
330
1A
100
AcDbEntity
  8
SEIHIN
100
AcDbLine
 10
1653.041064487962
 20
-417.1977580191492
 30
0.0
 11
1653.041064487962
 21
-449.5116944795492
 31
0.0
  0
LINE
  5
7520
330
1A
100
AcDbEntity
  8
SEIHIN
100
AcDbLine
 10
1627.141443788663
 20
-437.4593580191493
 30
0.0
 11
1643.095713788863
 21
-437.4593583544493
 31
0.0
  0
LINE
  5
7521
330
1A
100
AcDbEntity
  8
SEIHIN
100
AcDbLine
 10
1627.141443788663
 20
-437.4593580191493
 30
0.0
 11
1643.095713788861
 21
-437.4593583544493
 31
0.0
  0
LINE
  5
7522
330
1A
100
AcDbEntity
  8
SEIHIN
100
AcDbLine
 10
1653.041064477662
 20
-454.4593580191493
 30
0.0
 11
1623.887187783963
 21
-454.4593580191493
 31
0.0
  0
LINE
  5
7523
330
1A
100
AcDbEntity
  8
SEIHIN
100
AcDbLine
 10
1623.887187784563
 20
-450.4593580191493
 30
0.0
 11
1653.041064477662
 21
-450.4593580191493
 31
0.0
  0
LINE
  5
7524
330
1A
100
AcDbEntity
  8
SEIHIN
100
AcDbLine
 10
1643.095713788863
 20
-467.4593576839491
 30
0.0
 11
1631.429489039962
 21
-467.4593580191492
 31
0.0
  0
LINE
  5
7525
330
1A
100
AcDbEntity
  8
SEIHIN
100
AcDbLine
 10
1623.887187784562
 20
-450.4593580191492
 30
0.0
 11
1653.041064477662
 21
-450.4593580191492
 31
0.0
  0
LINE
  5
7526
330
1A
100
AcDbEntity
  8
SEIHIN
100
AcDbLine
 10
1653.041064477662
 20
-454.4593580191492
 30
0.0
 11
1623.887187783962
 21
-454.4593580191492
 31
0.0
  0
LINE
  5
7527
330
1A
100
AcDbEntity
  8
SEIHIN
100
AcDbLine
 10
1605.914164487962
 20
-464.4215484811057
 30
0.0
 11
1605.914164083263
 21
-454.4593581141493
 31
0.0
  0
LINE
  5
7528
330
1A
100
AcDbEntity
  8
SEIHIN
100
AcDbLine
 10
1631.429489039962
 20
-467.4593580191492
 30
0.0
 11
1605.914164487962
 21
-467.4593580191492
 31
0.0
  0
LINE
  5
7539
330
1A
100
AcDbEntity
  8
SEIHIN
100
AcDbLine
 10
1605.914164083263
 20
-450.4593579241492
 30
0.0
 11
1605.914164487962
 21
-440.5285754018104
 31
0.0
  0
ARC
  5
753A
330
1A
100
AcDbEntity
  8
SEIHIN
100
AcDbCircle
 10
1621.186509524163
 20
-453.4593580191492
 30
0.0
 40
1.0
100
AcDbArc
 50
180.0
 51
270.0
  0
ARC
  5
753B
330
1A
100
AcDbEntity
  8
SEIHIN
100
AcDbCircle
 10
1621.186509524163
 20
-451.4593580191492
 30
0.0
 40
1.0
100
AcDbArc
 50
90.0
 51
180.0
  0
ARC
  5
753C
330
1A
100
AcDbEntity
  8
SEIHIN
100
AcDbCircle
 10
1621.186509524162
 20
-451.4593580191492
 30
0.0
 40
1.0
100
AcDbArc
 50
90.0
 51
180.0
  0
ARC
  5
753D
330
1A
100
AcDbEntity
  8
SEIHIN
100
AcDbCircle
 10
1621.186509524162
 20
-453.4593580191492
 30
0.0
 40
1.0
100
AcDbArc
 50
180.0
 51
270.0
  0
LINE
  5
753E
330
1A
100
AcDbEntity
  8
SEIHIN
100
AcDbLine
 10
1621.186509524163
 20
-454.4593580191493
 30
0.0
 11
1607.176944362219
 21
-454.4593581141528
 31
0.0
  0
LINE
  5
753F
330
1A
100
AcDbEntity
  8
SEIHIN
100
AcDbLine
 10
1607.176944362219
 20
-450.4593579242457
 30
0.0
 11
1621.186509524163
 21
-450.4593580191493
 31
0.0
  0
LINE
  5
7540
330
1A
100
AcDbEntity
  8
SEIHIN
100
AcDbLine
 10
1606.470199587963
 20
-454.4593580191493
 30
0.0
 11
1604.158294879862
 21
-454.4593580191493
 31
0.0
  0
LINE
  5
7541
330
1A
100
AcDbEntity
  8
SEIHIN
100
AcDbLine
 10
1604.158294879862
 20
-450.4593580191493
 30
0.0
 11
1606.470199587963
 21
-450.4593580191493
 31
0.0
  0
LINE
  5
7542
330
1A
100
AcDbEntity
  8
SEIHIN
100
AcDbLine
 10
1603.592809940062
 20
-453.4593580191492
 30
0.0
 11
1603.592809940062
 21
-451.4593580191492
 31
0.0
  0
LWPOLYLINE
  5
7543
330
1A
100
AcDbEntity
  8
SEIHIN
100
AcDbPolyline
 90
        9
 70
   128
 43
0.0
 10
1603.592809038463
 20
-453.4593580666494
 10
1603.603675710263
 20
-453.6544483764491
 10
1603.635854767863
 20
-453.8420414229492
 10
1603.688113140163
 20
-454.0149283040491
 10
1603.758435445163
 20
-454.1664648478492
 10
1603.844128297863
 20
-454.2908276108492
 10
1603.941894816462
 20
-454.3832375112491
 10
1604.047972457663
 20
-454.4401432996492
 10
1604.158293204563
 20
-454.4593581141493
  0
LWPOLYLINE
  5
7546
330
1A
100
AcDbEntity
  8
SEIHIN
100
AcDbPolyline
 90
        9
 70
   128
 43
0.0
 10
1604.158293204563
 20
-450.4593579241492
 10
1604.047972457663
 20
-450.4785727387493
 10
1603.941894816462
 20
-450.5354785270492
 10
1603.844128297863
 20
-450.6278884274492
 10
1603.758435445163
 20
-450.7522511905492
 10
1603.688113140163
 20
-450.9037877343493
 10
1603.635854767863
 20
-451.0766746154493
 10
1603.603675710263
 20
-451.2642676619493
 10
1603.592809038463
 20
-451.4593579716493
  0
LWPOLYLINE
  5
7547
330
1A
100
AcDbEntity
  8
SEIHIN
100
AcDbPolyline
 90
        7
 70
   128
 43
0.0
 10
1609.115548180663
 20
-453.4593580666494
 10
1609.103940176063
 20
-453.7287205368492
 10
1609.072424220162
 20
-453.9654707679492
 10
1609.008494513363
 20
-454.2128794038492
 10
1608.904678123262
 20
-454.4063010163492
 10
1608.807913707763
 20
-454.4593471711492
 10
1608.806498097462
 20
-454.4593581141493
  0
LINE
  5
7548
330
1A
100
AcDbEntity
  8
SEIHIN
100
AcDbLine
 10
1609.115546427863
 20
-451.4593580191492
 30
0.0
 11
1609.115546427863
 21
-453.4593580191492
 31
0.0
  0
LWPOLYLINE
  5
7549
330
1A
100
AcDbEntity
  8
SEIHIN
100
AcDbPolyline
 90
        7
 70
   128
 43
0.0
 10
1608.806498097462
 20
-450.4593579241492
 10
1608.807913707763
 20
-450.4593688672493
 10
1608.904678123262
 20
-450.512415022049
 10
1609.008494513363
 20
-450.705836634549
 10
1609.072424220162
 20
-450.953245270449
 10
1609.103940176063
 20
-451.1899955015492
 10
1609.115548180663
 20
-451.4593579716493
  0
LINE
  5
754A
330
1A
100
AcDbEntity
  8
SEIHIN
100
AcDbLine
 10
1608.152730447063
 20
-453.4593580191492
 30
0.0
 11
1608.152730447063
 21
-451.4593580191492
 31
0.0
  0
ARC
  5
754B
330
1A
100
AcDbEntity
  8
SEIHIN
100
AcDbCircle
 10
1606.457940616263
 20
-453.4713175893492
 30
0.0
 40
0.9881165890893923
100
AcDbArc
 50
270.7109295648953
 51
0.693487905404557
  0
LINE
  5
754C
330
1A
100
AcDbEntity
  8
SEIHIN
100
AcDbLine
 10
1607.213268282763
 20
-454.4593580191493
 30
0.0
 11
1607.176945581362
 21
-454.4593580191493
 31
0.0
  0
LINE
  5
754D
330
1A
100
AcDbEntity
  8
SEIHIN
100
AcDbLine
 10
1607.176945581362
 20
-454.4593580191493
 30
0.0
 11
1606.470199587963
 21
-454.4593580191493
 31
0.0
  0
LINE
  5
754E
330
1A
100
AcDbEntity
  8
SEIHIN
100
AcDbLine
 10
1607.176945581362
 20
-450.4593580191493
 30
0.0
 11
1607.213268282763
 21
-450.4593580191493
 31
0.0
  0
LINE
  5
754F
330
1A
100
AcDbEntity
  8
SEIHIN
100
AcDbLine
 10
1606.470199587963
 20
-450.4593580191493
 30
0.0
 11
1607.176945581362
 21
-450.4593580191493
 31
0.0
  0
LINE
  5
7550
330
1A
100
AcDbEntity
  8
SEIHIN
100
AcDbLine
 10
1607.445984453762
 20
-451.4593580191492
 30
0.0
 11
1607.445984453762
 21
-453.4593580191492
 31
0.0
  0
ARC
  5
7551
330
1A
100
AcDbEntity
  8
SEIHIN
100
AcDbCircle
 10
1606.457940616263
 20
-451.4473984490491
 30
0.0
 40
0.9881165890893932
100
AcDbArc
 50
359.3065120945954
 51
89.28907043510468
  0
ARC
  5
7552
330
1A
100
AcDbEntity
  8
SEIHIN
100
AcDbCircle
 10
1607.164687868763
 20
-453.4713176199493
 30
0.0
 40
0.9881165112565023
100
AcDbArc
 50
270.7107090585111
 51
0.6934897374014497
  0
ARC
  5
7553
330
1A
100
AcDbEntity
  8
SEIHIN
100
AcDbCircle
 10
1607.164687868763
 20
-451.4473984184491
 30
0.0
 40
0.9881165112565023
100
AcDbArc
 50
359.3065102627027
 51
89.28929094148889
  0
LINE
  5
7554
330
1A
100
AcDbEntity
  8
SEIHIN
100
AcDbLine
 10
1620.186509524162
 20
-451.4593580191492
 30
0.0
 11
1620.186509524162
 21
-453.4593580191492
 31
0.0
  0
LINE
  5
7555
330
1A
100
AcDbEntity
  8
SEIHIN
100
AcDbLine
 10
1620.186509524162
 20
-451.4593580191492
 30
0.0
 11
1620.186509524162
 21
-453.4593580191492
 31
0.0
  0
LINE
  5
7559
330
1A
100
AcDbEntity
  8
SEIHIN
100
AcDbLine
 10
1623.887187783963
 20
-454.4593580191493
 30
0.0
 11
1621.186509524163
 21
-454.4593580191493
 31
0.0
  0
LINE
  5
755A
330
1A
100
AcDbEntity
  8
SEIHIN
100
AcDbLine
 10
1621.186509524163
 20
-450.4593580191493
 30
0.0
 11
1623.887187784563
 21
-450.4593580191493
 31
0.0
  0
LINE
  5
755E
330
1A
100
AcDbEntity
  8
SEIHIN
100
AcDbLine
 10
1623.887187783962
 20
-454.4593580191492
 30
0.0
 11
1621.186509524162
 21
-454.4593580191492
 31
0.0
  0
LINE
  5
755F
330
1A
100
AcDbEntity
  8
SEIHIN
100
AcDbLine
 10
1621.186509524162
 20
-450.4593580191492
 30
0.0
 11
1623.887187784562
 21
-450.4593580191492
 31
0.0
  0
LINE
  5
7560
330
1A
100
AcDbEntity
  8
SEIHIN
100
AcDbLine
 10
1605.914164487962
 20
-437.4593580191493
 30
0.0
 11
1627.141443788663
 21
-437.4593580191493
 31
0.0
  0
LINE
  5
7561
330
1A
100
AcDbEntity
  8
SEIHIN
100
AcDbLine
 10
1653.041064487962
 20
-455.4070215588492
 30
0.0
 11
1653.041064487962
 21
-487.7209580191492
 31
0.0
  0
LINE
  5
7562
330
1A
100
AcDbEntity
  8
SEIHIN
100
AcDbLine
 10
1643.095713788863
 20
-467.4593576839491
 30
0.0
 11
1643.169803293663
 21
-487.7209592288493
 31
0.0
  0
LINE
  5
7564
330
1A
100
AcDbEntity
  8
SEIHIN
100
AcDbLine
 10
1643.518181266463
 20
-492.4593571251493
 30
0.0
 11
1653.041064487962
 21
-492.459358019149
 31
0.0
  0
ELLIPSE
  5
7565
330
1A
100
AcDbEntity
  8
SEIHIN
100
AcDbEllipse
 10
1643.518182909162
 20
-487.4593839108491
 30
0.0
 11
0.0
 21
4.999974108438806
 31
0.0
210
0.0
220
0.0
230
1.0
 40
0.069771896
 41
1.623135312067383
 42
3.141587196827885
  0
LINE
  5
7566
330
1A
100
AcDbEntity
  8
SEIHIN
100
AcDbLine
 10
1653.041064487962
 20
-487.7209580191492
 30
0.0
 11
1653.041064487962
 21
-492.459358019149
 31
0.0
  0
LINE
  5
7567
330
1A
100
AcDbEntity
  8
SEIHIN
100
AcDbLine
 10
1643.095713788863
 20
-437.4593583544493
 30
0.0
 11
1643.051642673263
 21
-449.5116943636494
 31
0.0
  0
LINE
  5
7568
330
1A
100
AcDbEntity
  8
SEIHIN
100
AcDbLine
 10
1643.095713788861
 20
-437.4593583544493
 30
0.0
 11
1643.051642673262
 21
-449.5116943636491
 31
0.0
  0
LINE
  5
7569
330
1A
100
AcDbEntity
  8
SEIHIN
100
AcDbLine
 10
1643.051642989463
 20
-449.5116944795491
 30
0.0
 11
1643.051642641363
 21
-449.5118213647491
 31
0.0
  0
ARC
  5
756A
330
1A
100
AcDbEntity
  8
SEIHIN
100
AcDbCircle
 10
1632.761342130463
 20
-449.5462833267493
 30
0.0
 40
10.289357541314
100
AcDbArc
 50
357.4946432263998
 51
358.5315248158045
  0
ARC
  5
756B
330
1A
100
AcDbEntity
  8
SEIHIN
100
AcDbCircle
 10
1632.761342130461
 20
-449.5462833267493
 30
0.0
 40
10.289357541314
100
AcDbArc
 50
357.4946432263998
 51
358.5315248158045
  0
LINE
  5
756C
330
1A
100
AcDbEntity
  8
SEIHIN
100
AcDbLine
 10
1643.051642989463
 20
-449.5116944795492
 30
0.0
 11
1643.051642641363
 21
-449.5118213647494
 31
0.0
  0
ELLIPSE
  5
756D
330
1A
100
AcDbEntity
  8
SEIHIN
100
AcDbEllipse
 10
1643.016847032463
 20
-449.4593580191494
 30
0.0
 11
0.0
 21
1.0
 31
0.0
210
0.0
220
0.0
230
1.0
 40
0.0348435938
 41
3.141592653603248
 42
4.65990136342241
  0
ELLIPSE
  5
756E
330
1A
100
AcDbEntity
  8
SEIHIN
100
AcDbEllipse
 10
1643.016847032462
 20
-449.4593580191492
 30
0.0
 11
0.0
 21
1.0
 31
0.0
210
0.0
220
0.0
230
1.0
 40
0.0348435938
 41
3.141592653603248
 42
4.65990136342241
  0
LINE
  5
756F
330
1A
100
AcDbEntity
  8
SEIHIN
100
AcDbLine
 10
1653.041064487962
 20
-453.4593580666494
 30
0.0
 11
1653.041064477662
 21
-454.4593580191493
 31
0.0
  0
LINE
  5
7570
330
1A
100
AcDbEntity
  8
SEIHIN
100
AcDbLine
 10
1653.041064392563
 20
-451.4593579716493
 30
0.0
 11
1653.041064392563
 21
-453.4593580666494
 31
0.0
  0
LINE
  5
7571
330
1A
100
AcDbEntity
  8
SEIHIN
100
AcDbLine
 10
1653.041064477662
 20
-450.4593580191493
 30
0.0
 11
1653.041064487962
 21
-451.4593579716493
 31
0.0
  0
LWPOLYLINE
  5
7572
330
1A
100
AcDbEntity
  8
SEIHIN
100
AcDbPolyline
 90
        9
 70
   128
 43
0.0
 10
1653.041064487962
 20
-449.5116943636494
 10
1653.041064487962
 20
-449.6991628458492
 10
1653.041064487962
 20
-449.8780179912492
 10
1653.041064487962
 20
-450.0418360022492
 10
1653.041064487962
 20
-450.1847325501493
 10
1653.041064487962
 20
-450.3015753490493
 10
1653.041064487962
 20
-450.3881676265494
 10
1653.041064487962
 20
-450.4413992309492
 10
1653.041064477662
 20
-450.4593579241492
  0
LINE
  5
7573
330
1A
100
AcDbEntity
  8
SEIHIN
100
AcDbLine
 10
1653.041064477662
 20
-454.4593580191493
 30
0.0
 11
1653.041064487962
 21
-455.4070215588492
 31
0.0
  0
LINE
  5
7574
330
1A
100
AcDbEntity
  8
SEIHIN
100
AcDbLine
 10
1653.041064477662
 20
-450.4593580191492
 30
0.0
 11
1653.041064487962
 21
-451.4593579716493
 31
0.0
  0
LINE
  5
7575
330
1A
100
AcDbEntity
  8
SEIHIN
100
AcDbLine
 10
1653.041064477662
 20
-454.4593580191492
 30
0.0
 11
1653.041064487962
 21
-455.4070215588492
 31
0.0
  0
LINE
  5
7576
330
1A
100
AcDbEntity
  8
SEIHIN
100
AcDbLine
 10
1653.041064392563
 20
-451.4593579716493
 30
0.0
 11
1653.041064392563
 21
-453.4593580666494
 31
0.0
  0
LINE
  5
7577
330
1A
100
AcDbEntity
  8
SEIHIN
100
AcDbLine
 10
1653.041064487962
 20
-453.4593580666494
 30
0.0
 11
1653.041064477662
 21
-454.4593580191492
 31
0.0
  0
LWPOLYLINE
  5
7578
330
1A
100
AcDbEntity
  8
SEIHIN
100
AcDbPolyline
 90
        9
 70
   128
 43
0.0
 10
1653.041064487962
 20
-449.5116943636491
 10
1653.041064487962
 20
-449.6991628458492
 10
1653.041064487962
 20
-449.8780179912492
 10
1653.041064487962
 20
-450.0418360022492
 10
1653.041064487962
 20
-450.1847325501493
 10
1653.041064487962
 20
-450.3015753490492
 10
1653.041064487962
 20
-450.3881676265494
 10
1653.041064487962
 20
-450.4413992309493
 10
1653.041064477662
 20
-450.4593579241493
  0
LINE
  5
757A
330
1A
100
AcDbEntity
  8
SEIHIN
100
AcDbLine
 10
1643.518181266463
 20
-412.4593589132492
 30
0.0
 11
1653.041064487962
 21
-412.4593580191492
 31
0.0
  0
ELLIPSE
  5
757B
330
1A
100
AcDbEntity
  8
SEIHIN
100
AcDbEllipse
 10
1643.518182909162
 20
-417.4593321275493
 30
0.0
 11
0.0
 21
4.999974108438719
 31
0.0
210
0.0
220
0.0
230
1.0
 40
0.069771896
 41
0.0000054567618223
 42
1.518457341522428
  0
LINE
  5
757C
330
1A
100
AcDbEntity
  8
SEIHIN
100
AcDbLine
 10
1653.041064487962
 20
-412.4593580191492
 30
0.0
 11
1653.041064487962
 21
-417.1977580191492
 31
0.0
  0
LINE
  5
77EB
330
1A
100
AcDbEntity
  8
SEIHIN
100
AcDbLine
 10
1643.095713788861
 20
-467.4593576838494
 30
0.0
 11
1643.051642673262
 21
-455.4070216746494
 31
0.0
  0
LINE
  5
77EC
330
1A
100
AcDbEntity
  8
SEIHIN
100
AcDbLine
 10
1643.095713788863
 20
-467.4593576838494
 30
0.0
 11
1643.051642673263
 21
-455.4070216746493
 31
0.0
  0
ELLIPSE
  5
77ED
330
1A
100
AcDbEntity
  8
SEIHIN
100
AcDbEllipse
 10
1643.016847032462
 20
-455.4593580191494
 30
0.0
 11
0.0
 21
-1.0
 31
0.0
210
0.0
220
0.0
230
-1.0
 40
0.0348435938
 41
3.141592653603248
 42
4.65990136342241
  0
ELLIPSE
  5
77EE
330
1A
100
AcDbEntity
  8
SEIHIN
100
AcDbEllipse
 10
1643.016847032463
 20
-455.4593580191493
 30
0.0
 11
0.0
 21
-1.0
 31
0.0
210
0.0
220
0.0
230
-1.0
 40
0.0348435938
 41
3.141592653603248
 42
4.65990136342241
  0
LINE
  5
77EF
330
1A
100
AcDbEntity
  8
SEIHIN
100
AcDbLine
 10
1643.051642989463
 20
-455.4070215587493
 30
0.0
 11
1643.051642641363
 21
-455.4068946735493
 31
0.0
  0
ARC
  5
77F0
330
1A
100
AcDbEntity
  8
SEIHIN
100
AcDbCircle
 10
1632.761342130461
 20
-455.3724327115494
 30
0.0
 40
10.289357541314
100
AcDbArc
 50
1.468475184195411
 51
2.505356773600126
  0
ARC
  5
77F1
330
1A
100
AcDbEntity
  8
SEIHIN
100
AcDbCircle
 10
1632.761342130463
 20
-455.3724327115494
 30
0.0
 40
10.289357541314
100
AcDbArc
 50
1.468475184195411
 51
2.505356773600126
  0
LINE
  5
77F2
330
1A
100
AcDbEntity
  8
SEIHIN
100
AcDbLine
 10
1643.051642989463
 20
-455.4070215587495
 30
0.0
 11
1643.051642641363
 21
-455.4068946735496
 31
0.0
  0
LINE
  5
77F3
330
1A
100
AcDbEntity
  8
CENTER_L
  6
CENTER
 62
     1
 48
5.0
100
AcDbLine
 10
1487.945258617961
 20
-452.4593580191992
 30
0.0
 11
1666.121153537427
 21
-452.4593580191992
 31
0.0
  0
LINE
  5
77F4
330
1A
100
AcDbEntity
  8
CENTER_L
  6
CENTER
 62
     1
 48
5.0
100
AcDbLine
 10
1665.117465385507
 20
-420.4593580191992
 30
0.0
 11
1635.211516390794
 21
-420.4593580191992
 31
0.0
  0
LINE
  5
77F5
330
1A
100
AcDbEntity
  8
CENTER_L
  6
CENTER
 62
     1
 48
5.0
100
AcDbLine
 10
1665.117465385507
 20
-484.4593580191991
 30
0.0
 11
1635.211516390794
 21
-484.4593580191991
 31
0.0
  0
DIMENSION
  5
77F6
330
1A
100
AcDbEntity
  8
SUNPOU
100
AcDbDimension
  2
*D22
 10
1692.54509303026
 20
-492.4593580191491
 30
0.0
 11
1687.54509303026
 21
-452.4593580191488
 31
0.0
 70
    32
  3
STANDARD
100
AcDbAlignedDimension
 13
1653.041064487962
 23
-412.4593580191492
 33
0.0
 14
1653.041064487962
 24
-492.459358019149
 34
0.0
 50
90.0
100
AcDbRotatedDimension
1001
ACAD
1000
DSTYLE
1002
{
1070
   287
1070
     5
1070
    41
1040
7.0
1070
    42
1040
6.0
1070
    43
1040
14.0
1070
    44
1040
3.0
1070
    73
1070
     0
1070
    74
1070
     0
1070
    77
1070
     3
1070
   140
1040
6.0
1070
   141
1040
150.0
1070
   147
1040
2.0
1070
   172
1070
     1
1070
   173
1070
     1
1070
   176
1070
   256
1070
   177
1070
   256
1070
   178
1070
   256
1070
   271
1070
     0
1070
   272
1070
     0
1070
   279
1070
     2
1070
   341
1005
6D
1070
     6
1000
OPEN
1070
     7
1000
OPEN
1070
   371
1070
    -1
1070
   372
1070
    -1
1002
}
  0
LINE
  5
7803
330
1A
100
AcDbEntity
  8
CENTER_L
  6
CENTER
 62
     1
 48
5.0
100
AcDbLine
 10
1853.599405487367
 20
-612.643708509531
 30
0.0
 11
1853.599405487367
 21
-729.911315410028
 31
0.0
  0
LINE
  5
7804
330
1A
100
AcDbEntity
  8
CENTER_L
  6
CENTER
 62
     1
 48
5.0
100
AcDbLine
 10
1825.331223538641
 20
-660.2327080828924
 30
0.0
 11
1817.4327449083
 21
-660.2327080828924
 31
0.0
  0
LINE
  5
7805
330
1A
100
AcDbEntity
  8
CENTER_L
  6
CENTER
 62
     1
 48
5.0
100
AcDbLine
 10
1821.599405487367
 20
-663.9645256646661
 30
0.0
 11
1821.599405487367
 21
-656.635470780232
 31
0.0
  0
LINE
  5
7806
330
1A
100
AcDbEntity
  8
CENTER_L
  6
CENTER
 62
     1
 48
5.0
100
AcDbLine
 10
1889.331223538641
 20
-660.2327080828924
 30
0.0
 11
1881.4327449083
 21
-660.2327080828924
 31
0.0
  0
LINE
  5
7807
330
1A
100
AcDbEntity
  8
CENTER_L
  6
CENTER
 62
     1
 48
5.0
100
AcDbLine
 10
1885.599405487367
 20
-663.9645256646661
 30
0.0
 11
1885.599405487367
 21
-656.635470780232
 31
0.0
  0
LINE
  5
7808
330
1A
100
AcDbEntity
  8
CENTER_L
  6
CENTER
 62
     1
 48
5.0
100
AcDbLine
 10
1853.599405487367
 20
-718.9644256646661
 30
0.0
 11
1853.599405487367
 21
-711.635370780232
 31
0.0
  0
LINE
  5
7809
330
1A
100
AcDbEntity
  8
CENTER_L
  6
CENTER
 62
     1
 48
5.0
100
AcDbLine
 10
1857.331223538641
 20
-715.2326080828925
 30
0.0
 11
1849.4327449083
 21
-715.2326080828925
 31
0.0
  0
LINE
  5
780A
330
1A
100
AcDbEntity
  8
CENTER_L
  6
CENTER
 62
     1
 48
5.0
100
AcDbLine
 10
1665.117465385507
 20
-660.2327080828927
 30
0.0
 11
1635.211516390794
 21
-660.2327080828923
 31
0.0
  0
LINE
  5
780B
330
1A
100
AcDbEntity
  8
CENTER_L
  6
CENTER
 62
     1
 48
5.0
100
AcDbLine
 10
1665.117465385507
 20
-715.2326080828926
 30
0.0
 11
1635.211516390794
 21
-715.2326080828926
 31
0.0
  0
DIMENSION
  5
7A02
330
1A
100
AcDbEntity
  8
SUNPOU
100
AcDbDimension
  2
*D23
 10
1770.602167916887
 20
-646.2324064029545
 30
0.0
 11
1765.602167916887
 21
-684.7324064029542
 31
0.0
 70
    32
  3
STANDARD
100
AcDbAlignedDimension
 13
1853.595589532266
 23
-723.2324064029547
 33
0.0
 14
1853.595589532266
 24
-646.2324064029546
 34
0.0
 50
90.0
100
AcDbRotatedDimension
1001
ACAD
1000
DSTYLE
1002
{
1070
   287
1070
     5
1070
    41
1040
7.0
1070
    42
1040
6.0
1070
    43
1040
14.0
1070
    44
1040
3.0
1070
    73
1070
     0
1070
    74
1070
     0
1070
    77
1070
     3
1070
   140
1040
6.0
1070
   141
1040
150.0
1070
   147
1040
2.0
1070
   172
1070
     1
1070
   173
1070
     1
1070
   176
1070
   256
1070
   177
1070
   256
1070
   178
1070
   256
1070
   271
1070
     0
1070
   272
1070
     0
1070
   279
1070
     2
1070
   341
1005
6D
1070
     6
1000
OPEN
1070
     7
1000
OPEN
1070
   371
1070
    -1
1070
   372
1070
    -1
1002
}
  0
LEADER
  5
7A1C
330
1A
100
AcDbEntity
  8
SUNPOU
100
AcDbLeader
  3
STANDARD
 40
6.0
 41
31.19999999999999
 76
     3
 10
1854.779961494892
 20
-715.9184411059142
 30
0.0
 10
1880.911405892424
 20
-760.9706469169633
 30
0.0
 10
1916.657809291038
 20
-760.9706469169633
 30
0.0
211
-1.0
221
0.0000000000000001
231
0.0
213
-0.0000000000000004
223
-3.0
233
0.0
1001
ACAD
1000
DSTYLE
1002
{
1070
     6
1000
OPEN
1070
    41
1040
7.0
1070
    42
1040
6.0
1070
    43
1040
14.0
1070
    44
1040
3.0
1070
    73
1070
     0
1070
    74
1070
     0
1070
    77
1070
     0
1070
   140
1040
6.0
1070
   141
1040
150.0
1070
   147
1040
2.0
1070
   172
1070
     1
1070
   173
1070
     1
1070
   176
1070
   256
1070
   177
1070
   256
1070
   178
1070
   256
1070
   271
1070
     0
1070
   272
1070
     0
1070
   341
1005
6D
1070
   343
1005
6D
1070
   344
1005
6D
1070
   371
1070
    -1
1070
   372
1070
    -1
1002
}
  0
TEXT
  5
7A1D
330
1A
100
AcDbEntity
  8
SUNPOU
100
AcDbText
 10
1883.047766319414
 20
-758.1622476259139
 30
0.0
 40
6.0
  1
3-φ4.2
100
AcDbText
  0
ARC
  5
7D37
330
1A
100
AcDbEntity
  8
SEIHIN
100
AcDbCircle
 10
1513.534635403281
 20
-639.7675271467716
 30
0.0
 40
12.79720843342605
100
AcDbArc
 50
151.6097425968944
 51
207.7608964836645
  0
DIMENSION
  5
7D41
330
1A
100
AcDbEntity
  8
SUNPOU
100
AcDbDimension
  2
*D25
 10
1788.846904442075
 20
-646.2324064029545
 30
0.0
 11
1783.846904442075
 21
-653.2358207775045
 31
0.0
 70
    32
  3
STANDARD
100
AcDbAlignedDimension
 13
1821.599305487366
 23
-660.239235152055
 33
0.0
 14
1807.598878724577
 24
-646.2324064029546
 34
0.0
 50
90.0
100
AcDbRotatedDimension
1001
ACAD
1000
DSTYLE
1002
{
1070
   287
1070
     5
1070
    41
1040
7.0
1070
    42
1040
6.0
1070
    43
1040
14.0
1070
    44
1040
3.0
1070
    73
1070
     0
1070
    74
1070
     0
1070
    77
1070
     3
1070
   140
1040
6.0
1070
   141
1040
150.0
1070
   147
1040
2.0
1070
   172
1070
     1
1070
   173
1070
     1
1070
   176
1070
   256
1070
   177
1070
   256
1070
   178
1070
   256
1070
   271
1070
     0
1070
   272
1070
     0
1070
   279
1070
     2
1070
   341
1005
6D
1070
     6
1000
OPEN
1070
     7
1000
OPEN
1070
   371
1070
    -1
1070
   372
1070
    -1
1002
}
  0
VIEWPORT
  5
22
330
17
100
AcDbEntity
 67
     1
  8
0
100
AcDbViewport
 10
313.6808219178082
 20
148.5
 30
0.0
 40
627.3616438356165
 41
297.0
 68
     2
 69
     1
1001
ACAD
1000
MVIEW
1002
{
1070
    16
1010
0.0
1020
0.0
1030
0.0
1010
0.0
1020
0.0
1030
1.0
1040
0.0
1040
297.0
1040
313.6808219178082
1040
148.5
1040
50.0
1040
0.0
1040
0.0
1070
     0
1070
   100
1070
     1
1070
     0
1070
     0
1070
     0
1070
     0
1070
     0
1040
0.0
1040
0.0
1040
0.0
1040
1.0
1040
1.0
1040
10.0
1040
10.0
1070
     0
1002
{
1002
}
1002
}
  0
VIEWPORT
  5
64
330
17
100
AcDbEntity
 67
     1
  8
VIEWPORT
100
AcDbViewport
 10
210.0
 20
148.5
 30
0.0
 40
420.0
 41
297.0
 68
     1
 69
     2
1001
ACAD
1000
MVIEW
1002
{
1070
    16
1010
0.0
1020
0.0
1030
0.0
1010
0.0
1020
0.0
1030
1.0
1040
0.0
1040
605.8799999999997
1040
420.0
1040
297.0
1040
50.0
1040
0.0
1040
0.0
1070
     0
1070
   100
1070
     1
1070
     0
1070
     0
1070
     0
1070
     0
1070
     0
1040
0.0
1040
0.0
1040
0.0
1040
10.0
1040
10.0
1040
0.0
1040
0.0
1070
     0
1002
{
1002
}
1002
}
  0
ENDSEC
  0
SECTION
  2
OBJECTS
  0
DICTIONARY
  5
C
330
0
100
AcDbDictionary
  3
ACAD_GROUP
350
D
  3
ACAD_LAYOUT
350
85F
  3
ACAD_MLINESTYLE
350
E
  3
ACAD_PLOTSETTINGS
350
860
  3
ACAD_PLOTSTYLENAME
350
85D
  3
ACDBHEADERROUNDTRIPXREC
350
7D52
  0
DICTIONARY
  5
4C3C
330
2
100
AcDbDictionary
280
     1
  3
ACAD_LAYERFILTERS
360
4C3D
  0
DICTIONARY
  5
88E
330
1A
100
AcDbDictionary
280
     1
  3
ACAD_LAYOUTSELFREF
360
7D74
  0
DICTIONARY
  5
88C
330
17
100
AcDbDictionary
280
     1
  3
ACAD_LAYOUTSELFREF
360
7D73
  0
DICTIONARY
  5
D
102
{ACAD_REACTORS
330
C
102
}
330
C
100
AcDbDictionary
  3
*A1
350
2006
  3
*A2
350
356D
  3
*A3
350
35A3
  3
*A4
350
4E20
  3
*A5
350
5721
  3
*A6
350
5C7B
  3
*A7
350
6282
  0
DICTIONARY
  5
85F
102
{ACAD_REACTORS
330
C
102
}
330
C
100
AcDbDictionary
  0
DICTIONARY
  5
E
102
{ACAD_REACTORS
330
C
102
}
330
C
100
AcDbDictionary
  3
STANDARD
350
13
  0
DICTIONARY
  5
860
102
{ACAD_REACTORS
330
C
102
}
330
C
100
AcDbDictionary
  0
ACDBDICTIONARYWDFLT
  5
85D
102
{ACAD_REACTORS
330
C
102
}
330
C
100
AcDbDictionary
281
     1
  3
Normal
350
85E
100
AcDbDictionaryWithDefault
340
85E
1001
ACAD
1000
TREAT_AS_HARD
1070
     0
1000
TREAT_AS_HARD
1070
     0
1000
TREAT_AS_HARD
1070
     0
1000
TREAT_AS_HARD
1070
     0
1000
TREAT_AS_HARD
1070
     0
1000
TREAT_AS_HARD
1070
     0
1000
TREAT_AS_HARD
1070
     0
1000
TREAT_AS_HARD
1070
     0
1000
TREAT_AS_HARD
1070
     0
  0
DICTIONARY
  5
7D52
102
{ACAD_REACTORS
330
C
102
}
330
C
100
AcDbDictionary
  3
TSTACKALIGN
350
7D53
  3
TSTACKSIZE
350
7D54
  3
HYPERLINKBASE
350
7D55
  3
STYLESHEET
350
7D56
  3
LAYOUTDICT
350
7D57
  3
PLOTSETDICT
350
7D58
  3
PLOTSTYLNAMDICT
350
7D59
  3
LWETCUNION
350
7D5A
  3
INSUNITS
350
7D5B
  3
CEPSNTYPE
350
7D5C
  3
FINGERPRINTGUID
350
7D5D
  3
VERSIONGUID
350
7D5E
  3
PSVPSCALE
350
7D5F
  3
DIMSTYLEDATA
350
7D60
  3
PUCSORTHOREF
350
7D61
  3
PUCSORTHOVIEW
350
7D62
  3
PUCSBASE
350
7D63
  3
PUCSORGTOP
350
7D64
  3
PUCSORGBOTTOM
350
7D65
  3
PUCSORGLEFT
350
7D66
  3
PUCSORGRIGHT
350
7D67
  3
PUCSORGFRONT
350
7D68
  3
PUCSORGBACK
350
7D69
  3
UCSORTHOREF
350
7D6A
  3
UCSORTHOVIEW
350
7D6B
  3
UCSBASE
350
7D6C
  3
UCSORGTOP
350
7D6D
  3
UCSORGBOTTOM
350
7D6E
  3
UCSORGLEFT
350
7D6F
  3
UCSORGRIGHT
350
7D70
  3
UCSORGFRONT
350
7D71
  3
UCSORGBACK
350
7D72
  0
DICTIONARY
  5
4C3D
102
{ACAD_REACTORS
330
4C3C
102
}
330
4C3C
100
AcDbDictionary
280
     1
  3
50
360
4C3E
  0
XRECORD
  5
7D74
102
{ACAD_REACTORS
330
88E
102
}
330
88E
100
AcDbXrecord
340
1A
  0
XRECORD
  5
7D73
102
{ACAD_REACTORS
330
88C
102
}
330
88C
100
AcDbXrecord
340
17
  0
GROUP
  5
2006
102
{ACAD_REACTORS
330
D
102
}
330
D
100
AcDbGroup
300

 70
     1
 71
     1
  0
GROUP
  5
356D
102
{ACAD_REACTORS
330
D
102
}
330
D
100
AcDbGroup
300

 70
     1
 71
     1
  0
GROUP
  5
35A3
102
{ACAD_REACTORS
330
D
102
}
330
D
100
AcDbGroup
300

 70
     1
 71
     1
  0
GROUP
  5
4E20
102
{ACAD_REACTORS
330
D
102
}
330
D
100
AcDbGroup
300

 70
     1
 71
     1
  0
GROUP
  5
5721
102
{ACAD_REACTORS
330
D
102
}
330
D
100
AcDbGroup
300

 70
     1
 71
     1
  0
GROUP
  5
5C7B
102
{ACAD_REACTORS
330
D
102
}
330
D
100
AcDbGroup
300

 70
     1
 71
     1
  0
GROUP
  5
6282
102
{ACAD_REACTORS
330
D
102
}
330
D
100
AcDbGroup
300

 70
     1
 71
     1
340
6280
340
6281
340
627F
  0
MLINESTYLE
  5
13
102
{ACAD_REACTORS
330
E
102
}
330
E
100
AcDbMlineStyle
  2
STANDARD
 70
     0
  3

 62
     0
 51
90.0
 52
90.0
 71
     2
 49
0.5
 62
   256
  6
BYLAYER
 49
-0.5
 62
   256
  6
BYLAYER
  0
ACDBPLACEHOLDER
  5
85E
102
{ACAD_REACTORS
330
85D
102
}
330
85D
100
AcDbPlaceHolder
280
     0
  0
XRECORD
  5
7D53
102
{ACAD_REACTORS
330
7D52
102
}
330
7D52
100
AcDbXrecord
 90
        1
  0
XRECORD
  5
7D54
102
{ACAD_REACTORS
330
7D52
102
}
330
7D52
100
AcDbXrecord
 90
       70
  0
XRECORD
  5
7D55
102
{ACAD_REACTORS
330
7D52
102
}
330
7D52
100
AcDbXrecord
  1

  0
XRECORD
  5
7D56
102
{ACAD_REACTORS
330
7D52
102
}
330
7D52
100
AcDbXrecord
  1
systemprinter.ctb
  0
XRECORD
  5
7D57
102
{ACAD_REACTORS
330
7D52
102
}
330
7D52
100
AcDbXrecord
340
85F
  0
XRECORD
  5
7D58
102
{ACAD_REACTORS
330
7D52
102
}
330
7D52
100
AcDbXrecord
340
860
  0
XRECORD
  5
7D59
102
{ACAD_REACTORS
330
7D52
102
}
330
7D52
100
AcDbXrecord
340
85D
  0
XRECORD
  5
7D5A
102
{ACAD_REACTORS
330
7D52
102
}
330
7D52
100
AcDbXrecord
 90
    10781
  0
XRECORD
  5
7D5B
102
{ACAD_REACTORS
330
7D52
102
}
330
7D52
100
AcDbXrecord
 90
        0
  0
XRECORD
  5
7D5C
102
{ACAD_REACTORS
330
7D52
102
}
330
7D52
100
AcDbXrecord
 90
        0
  0
XRECORD
  5
7D5D
102
{ACAD_REACTORS
330
7D52
102
}
330
7D52
100
AcDbXrecord
  1
{FF3C30AF-89FB-45B1-9067-596B98B489D4}
  0
XRECORD
  5
7D5E
102
{ACAD_REACTORS
330
7D52
102
}
330
7D52
100
AcDbXrecord
  1
{20DD9625-2CDF-455B-AA60-DAAF9A21C482}
  0
XRECORD
  5
7D5F
102
{ACAD_REACTORS
330
7D52
102
}
330
7D52
100
AcDbXrecord
 40
0.0
  0
XRECORD
  5
7D60
102
{ACAD_REACTORS
330
7D52
102
}
330
7D52
100
AcDbXrecord
1000
DSTYLE
1002
{
1070
   279
 70
     2
1070
   341
340
6D
1070
   343
340
6D
1070
   344
340
6D
1070
   371
 70
    -1
1070
   372
 70
    -1
1002
}
  0
XRECORD
  5
7D61
102
{ACAD_REACTORS
330
7D52
102
}
330
7D52
100
AcDbXrecord
340
0
  0
XRECORD
  5
7D62
102
{ACAD_REACTORS
330
7D52
102
}
330
7D52
100
AcDbXrecord
 70
     0
  0
XRECORD
  5
7D63
102
{ACAD_REACTORS
330
7D52
102
}
330
7D52
100
AcDbXrecord
340
0
  0
XRECORD
  5
7D64
102
{ACAD_REACTORS
330
7D52
102
}
330
7D52
100
AcDbXrecord
 10
0.0
 20
0.0
 30
0.0
  0
XRECORD
  5
7D65
102
{ACAD_REACTORS
330
7D52
102
}
330
7D52
100
AcDbXrecord
 10
0.0
 20
0.0
 30
0.0
  0
XRECORD
  5
7D66
102
{ACAD_REACTORS
330
7D52
102
}
330
7D52
100
AcDbXrecord
 10
0.0
 20
0.0
 30
0.0
  0
XRECORD
  5
7D67
102
{ACAD_REACTORS
330
7D52
102
}
330
7D52
100
AcDbXrecord
 10
0.0
 20
0.0
 30
0.0
  0
XRECORD
  5
7D68
102
{ACAD_REACTORS
330
7D52
102
}
330
7D52
100
AcDbXrecord
 10
0.0
 20
0.0
 30
0.0
  0
XRECORD
  5
7D69
102
{ACAD_REACTORS
330
7D52
102
}
330
7D52
100
AcDbXrecord
 10
0.0
 20
0.0
 30
0.0
  0
XRECORD
  5
7D6A
102
{ACAD_REACTORS
330
7D52
102
}
330
7D52
100
AcDbXrecord
340
0
  0
XRECORD
  5
7D6B
102
{ACAD_REACTORS
330
7D52
102
}
330
7D52
100
AcDbXrecord
 70
     0
  0
XRECORD
  5
7D6C
102
{ACAD_REACTORS
330
7D52
102
}
330
7D52
100
AcDbXrecord
340
0
  0
XRECORD
  5
7D6D
102
{ACAD_REACTORS
330
7D52
102
}
330
7D52
100
AcDbXrecord
 10
0.0
 20
0.0
 30
0.0
  0
XRECORD
  5
7D6E
102
{ACAD_REACTORS
330
7D52
102
}
330
7D52
100
AcDbXrecord
 10
0.0
 20
0.0
 30
0.0
  0
XRECORD
  5
7D6F
102
{ACAD_REACTORS
330
7D52
102
}
330
7D52
100
AcDbXrecord
 10
0.0
 20
0.0
 30
0.0
  0
XRECORD
  5
7D70
102
{ACAD_REACTORS
330
7D52
102
}
330
7D52
100
AcDbXrecord
 10
0.0
 20
0.0
 30
0.0
  0
XRECORD
  5
7D71
102
{ACAD_REACTORS
330
7D52
102
}
330
7D52
100
AcDbXrecord
 10
0.0
 20
0.0
 30
0.0
  0
XRECORD
  5
7D72
102
{ACAD_REACTORS
330
7D52
102
}
330
7D52
100
AcDbXrecord
 10
0.0
 20
0.0
 30
0.0
  0
XRECORD
  5
4C3E
102
{ACAD_REACTORS
330
4C3D
102
}
330
4C3D
100
AcDbXrecord
  1
50
  1
*-50
  1
*
  1
*
 70
     0
  1
*
  1
*
  0
ENDSEC
  0
EOF
