  0
SECTION
  2
HEADER
  9
$ACADVER
  1
AC1014
  9
$ACADMAINTVER
 70
     9
  9
$DWGCODEPAGE
  3
ANSI_932
  9
$INSBASE
 10
0.0
 20
0.0
 30
0.0
  9
$EXTMIN
 10
-0.0384431676250188
 20
-0.0271848000274986
 30
-0.0000000100016779
  9
$EXTMAX
 10
797.6635408573192
 20
551.6445885803111
 30
0.0000000100016785
  9
$LIMMIN
 10
0.0
 20
0.0
  9
$LIMMAX
 10
840.0
 20
594.0
  9
$ORTHOMODE
 70
     0
  9
$REGENMODE
 70
     1
  9
$FILLMODE
 70
     1
  9
$QTEXTMODE
 70
     0
  9
$MIRRTEXT
 70
     1
  9
$DRAGMODE
 70
     2
  9
$LTSCALE
 40
2.0
  9
$OSMODE
 70
    35
  9
$ATTMODE
 70
     1
  9
$TEXTSIZE
 40
5.0
  9
$TRACEWID
 40
1.0
  9
$TEXTSTYLE
  7
STANDARD
  9
$CLAYER
  8
0
  9
$CELTYPE
  6
BYLAYER
  9
$CECOLOR
 62
   256
  9
$CELTSCALE
 40
1.0
  9
$DELOBJ
 70
     1
  9
$DISPSILH
 70
     0
  9
$DIMSCALE
 40
1.0
  9
$DIMASZ
 40
7.0
  9
$DIMEXO
 40
6.0
  9
$DIMDLI
 40
14.0
  9
$DIMRND
 40
0.0
  9
$DIMDLE
 40
0.0
  9
$DIMEXE
 40
3.0
  9
$DIMTP
 40
0.0
  9
$DIMTM
 40
0.0
  9
$DIMTXT
 40
6.0
  9
$DIMCEN
 40
150.0
  9
$DIMTSZ
 40
0.0
  9
$DIMTOL
 70
     0
  9
$DIMLIM
 70
     0
  9
$DIMTIH
 70
     0
  9
$DIMTOH
 70
     0
  9
$DIMSE1
 70
     0
  9
$DIMSE2
 70
     0
  9
$DIMTAD
 70
     3
  9
$DIMZIN
 70
     0
  9
$DIMBLK
  1

  9
$DIMASO
 70
     1
  9
$DIMSHO
 70
     1
  9
$DIMPOST
  1

  9
$DIMAPOST
  1

  9
$DIMALT
 70
     0
  9
$DIMALTD
 70
     2
  9
$DIMALTF
 40
25.4
  9
$DIMLFAC
 40
1.0
  9
$DIMTOFL
 70
     1
  9
$DIMTVP
 40
0.0
  9
$DIMTIX
 70
     0
  9
$DIMSOXD
 70
     0
  9
$DIMSAH
 70
     1
  9
$DIMBLK1
  1
OPEN
  9
$DIMBLK2
  1
OPEN
  9
$DIMSTYLE
  2
STANDARD
  9
$DIMCLRD
 70
   256
  9
$DIMCLRE
 70
   256
  9
$DIMCLRT
 70
   256
  9
$DIMTFAC
 40
1.0
  9
$DIMGAP
 40
2.0
  9
$DIMJUST
 70
     0
  9
$DIMSD1
 70
     0
  9
$DIMSD2
 70
     0
  9
$DIMTOLJ
 70
     1
  9
$DIMTZIN
 70
     0
  9
$DIMALTZ
 70
     0
  9
$DIMALTTZ
 70
     0
  9
$DIMFIT
 70
     5
  9
$DIMUPT
 70
     0
  9
$DIMUNIT
 70
     2
  9
$DIMDEC
 70
     0
  9
$DIMTDEC
 70
     0
  9
$DIMALTU
 70
     2
  9
$DIMALTTD
 70
     2
  9
$DIMTXSTY
  7
STANDARD
  9
$DIMAUNIT
 70
     0
  9
$LUNITS
 70
     2
  9
$LUPREC
 70
     4
  9
$SKETCHINC
 40
1.0
  9
$FILLETRAD
 40
20.0
  9
$AUNITS
 70
     0
  9
$AUPREC
 70
     0
  9
$MENU
  1
.
  9
$ELEVATION
 40
0.0
  9
$PELEVATION
 40
0.0
  9
$THICKNESS
 40
0.0
  9
$LIMCHECK
 70
     0
  9
$BLIPMODE
 70
     0
  9
$CHAMFERA
 40
0.0
  9
$CHAMFERB
 40
0.0
  9
$CHAMFERC
 40
40.0
  9
$CHAMFERD
 40
0.0
  9
$SKPOLY
 70
     0
  9
$TDCREATE
 40
2451030.159468171
  9
$TDUPDATE
 40
2455350.734491123
  9
$TDINDWG
 40
0.1357354167
  9
$TDUSRTIMER
 40
0.1357354167
  9
$USRTIMER
 70
     1
  9
$ANGBASE
 50
0.0
  9
$ANGDIR
 70
     0
  9
$PDMODE
 70
     0
  9
$PDSIZE
 40
0.0
  9
$PLINEWID
 40
0.0
  9
$COORDS
 70
     0
  9
$SPLFRAME
 70
     0
  9
$SPLINETYPE
 70
     6
  9
$SPLINESEGS
 70
     8
  9
$ATTDIA
 70
     0
  9
$ATTREQ
 70
     1
  9
$HANDLING
 70
 10241
  9
$HANDSEED
  5
2756
  9
$SURFTAB1
 70
     6
  9
$SURFTAB2
 70
     6
  9
$SURFTYPE
 70
     6
  9
$SURFU
 70
     6
  9
$SURFV
 70
     6
  9
$UCSNAME
  2

  9
$UCSORG
 10
0.0
 20
0.0
 30
0.0
  9
$UCSXDIR
 10
1.0
 20
0.0
 30
0.0
  9
$UCSYDIR
 10
0.0
 20
1.0
 30
0.0
  9
$PUCSNAME
  2

  9
$PUCSORG
 10
0.0
 20
0.0
 30
0.0
  9
$PUCSXDIR
 10
1.0
 20
0.0
 30
0.0
  9
$PUCSYDIR
 10
0.0
 20
1.0
 30
0.0
  9
$USERI1
 70
     0
  9
$USERI2
 70
     0
  9
$USERI3
 70
     0
  9
$USERI4
 70
     0
  9
$USERI5
 70
     0
  9
$USERR1
 40
0.0
  9
$USERR2
 40
0.0
  9
$USERR3
 40
0.0
  9
$USERR4
 40
0.0
  9
$USERR5
 40
0.0
  9
$WORLDVIEW
 70
     1
  9
$SHADEDGE
 70
     3
  9
$SHADEDIF
 70
    70
  9
$TILEMODE
 70
     1
  9
$MAXACTVP
 70
    16
  9
$PINSBASE
 10
0.0
 20
0.0
 30
0.0
  9
$PLIMCHECK
 70
     0
  9
$PEXTMIN
 10
0.0
 20
0.0
 30
0.0
  9
$PEXTMAX
 10
420.0
 20
297.0
 30
0.0
  9
$PLIMMIN
 10
0.0
 20
0.0
  9
$PLIMMAX
 10
420.0
 20
297.0
  9
$UNITMODE
 70
     0
  9
$VISRETAIN
 70
     0
  9
$PLINEGEN
 70
     0
  9
$PSLTSCALE
 70
     1
  9
$TREEDEPTH
 70
  3020
  9
$PICKSTYLE
 70
     1
  9
$CMLSTYLE
  2
STANDARD
  9
$CMLJUST
 70
     0
  9
$CMLSCALE
 40
1.0
  9
$PROXYGRAPHICS
 70
     1
  9
$MEASUREMENT
 70
     1
  0
ENDSEC
  0
SECTION
  2
CLASSES
  0
CLASS
  1
ACDBDICTIONARYWDFLT
  2
AcDbDictionaryWithDefault
  3
AutoCAD 2000
 90
        0
280
     0
281
     0
  0
CLASS
  1
ACDBPLACEHOLDER
  2
AcDbPlaceHolder
  3
AutoCAD 2000
 90
        0
280
     0
281
     0
  0
CLASS
  1
LAYOUT
  2
AcDbLayout
  3
AutoCAD 2000
 90
        0
280
     0
281
     0
  0
CLASS
  1
LONG_TRANSACTION
  2
AcDbLongTransaction
  3
AutoCAD 2000
 90
        0
280
     0
281
     0
  0
CLASS
  1
LWPOLYLINE
  2
AcDbPolyline
  3
AutoCAD 2000
 90
        0
280
     0
281
     1
  0
CLASS
  1
HATCH
  2
AcDbHatch
  3
AutoCAD 2000
 90
        0
280
     0
281
     1
  0
CLASS
  1
XRECORD
  2
AcDbXrecord
  3
AutoCAD 2000
 90
        0
280
     0
281
     0
  0
CLASS
  1
LONG_TRANSACTION
  2
AcDbLongTransaction
  3
AutoCAD 2000
 90
        0
280
     0
281
     0
  0
CLASS
  1
LWPOLYLINE
  2
AcDbPolyline
  3
AutoCAD 2000
 90
        0
280
     0
281
     1
  0
CLASS
  1
HATCH
  2
AcDbHatch
  3
AutoCAD 2000
 90
        0
280
     0
281
     1
  0
CLASS
  1
XRECORD
  2
AcDbXrecord
  3
AutoCAD 2000
 90
        0
280
     0
281
     0
  0
CLASS
  1
LONG_TRANSACTION
  2
AcDbLongTransaction
  3
AutoCAD 2000
 90
        0
280
     0
281
     0
  0
CLASS
  1
LWPOLYLINE
  2
AcDbPolyline
  3
AutoCAD 2000
 90
        0
280
     0
281
     1
  0
CLASS
  1
HATCH
  2
AcDbHatch
  3
AutoCAD 2000
 90
        0
280
     0
281
     1
  0
CLASS
  1
XRECORD
  2
AcDbXrecord
  3
AutoCAD 2000
 90
        0
280
     0
281
     0
  0
CLASS
  1
LONG_TRANSACTION
  2
AcDbLongTransaction
  3
AutoCAD 2000
 90
        0
280
     0
281
     0
  0
CLASS
  1
LWPOLYLINE
  2
AcDbPolyline
  3
AutoCAD 2000
 90
        0
280
     0
281
     1
  0
CLASS
  1
HATCH
  2
AcDbHatch
  3
AutoCAD 2000
 90
        0
280
     0
281
     1
  0
CLASS
  1
XRECORD
  2
AcDbXrecord
  3
AutoCAD 2000
 90
        0
280
     0
281
     0
  0
CLASS
  1
LONG_TRANSACTION
  2
AcDbLongTransaction
  3
AutoCAD 2000
 90
        0
280
     0
281
     0
  0
CLASS
  1
LWPOLYLINE
  2
AcDbPolyline
  3
AutoCAD 2000
 90
        0
280
     0
281
     1
  0
CLASS
  1
HATCH
  2
AcDbHatch
  3
AutoCAD 2000
 90
        0
280
     0
281
     1
  0
CLASS
  1
XRECORD
  2
AcDbXrecord
  3
AutoCAD 2000
 90
        0
280
     0
281
     0
  0
ENDSEC
  0
SECTION
  2
TABLES
  0
TABLE
  2
VPORT
  5
8
330
0
100
AcDbSymbolTable
 70
     2
  0
VPORT
  5
2698
330
8
100
AcDbSymbolTableRecord
100
AcDbViewportTableRecord
  2
*ACTIVE
 70
     0
 10
0.0
 20
0.0
 11
1.0
 21
1.0
 12
421.1689680319201
 22
281.0271715187005
 13
0.0
 23
0.0
 14
5.0
 24
5.0
 15
0.0
 25
0.0
 16
0.0
 26
0.0
 36
1.0
 17
0.0
 27
0.0
 37
0.0
 40
658.0987990483706
 41
1.570153061224489
 42
50.0
 43
0.0
 44
0.0
 50
0.0
 51
0.0
 71
     0
 72
   100
 73
     1
 74
     0
 75
     0
 76
     0
 77
     0
 78
     0
  0
ENDTAB
  0
TABLE
  2
LTYPE
  5
5
330
0
100
AcDbSymbolTable
 70
     3
  0
LTYPE
  5
14
330
5
100
AcDbSymbolTableRecord
100
AcDbLinetypeTableRecord
  2
BYBLOCK
 70
     0
  3

 72
    65
 73
     0
 40
0.0
  0
LTYPE
  5
15
330
5
100
AcDbSymbolTableRecord
100
AcDbLinetypeTableRecord
  2
BYLAYER
 70
     0
  3

 72
    65
 73
     0
 40
0.0
  0
LTYPE
  5
16
330
5
100
AcDbSymbolTableRecord
100
AcDbLinetypeTableRecord
  2
CONTINUOUS
 70
     0
  3
Solid line
 72
    65
 73
     0
 40
0.0
  0
LTYPE
  5
135
330
5
100
AcDbSymbolTableRecord
100
AcDbLinetypeTableRecord
  2
CENTER
 70
     0
  3
____ _ ____ _ ____ _ ____ _ ____ _ ____ _ ____ 
 72
    65
 73
     4
 40
2.0
 49
1.25
 74
     0
 49
-0.25
 74
     0
 49
0.25
 74
     0
 49
-0.25
 74
     0
  0
LTYPE
  5
2436
330
5
100
AcDbSymbolTableRecord
100
AcDbLinetypeTableRecord
  2
DASHED2
 70
     0
  3
Dashed (.5x) _ _ _ _ _ _ _ _ _ _ _ _ _ _ _ _ _
 72
    65
 73
     2
 40
9.524999999999998
 49
6.349999999999999
 74
     0
 49
-3.174999999999999
 74
     0
  0
ENDTAB
  0
TABLE
  2
LAYER
  5
2
102
{ACAD_XDICTIONARY
360
EDF
102
}
330
0
100
AcDbSymbolTable
 70
     8
  0
LAYER
  5
F
330
2
100
AcDbSymbolTableRecord
100
AcDbLayerTableRecord
  2
0
 70
     0
 62
     7
  6
CONTINUOUS
  0
LAYER
  5
62
330
2
100
AcDbSymbolTableRecord
100
AcDbLayerTableRecord
  2
VIEWPORT
 70
     0
 62
     7
  6
CONTINUOUS
  0
LAYER
  5
65
330
2
100
AcDbSymbolTableRecord
100
AcDbLayerTableRecord
  2
ZUWAKU
 70
     0
 62
     7
  6
CONTINUOUS
  0
LAYER
  5
144
330
2
100
AcDbSymbolTableRecord
100
AcDbLayerTableRecord
  2
SEIHIN
 70
     0
 62
     3
  6
CONTINUOUS
  0
LAYER
  5
145
330
2
100
AcDbSymbolTableRecord
100
AcDbLayerTableRecord
  2
SUNPOU
 70
     0
 62
     4
  6
CONTINUOUS
  0
LAYER
  5
146
330
2
100
AcDbSymbolTableRecord
100
AcDbLayerTableRecord
  2
CENTER_L
 70
     0
 62
     1
  6
CENTER
  0
LAYER
  5
41E
330
2
100
AcDbSymbolTableRecord
100
AcDbLayerTableRecord
  2
DEFPOINTS
 70
     0
 62
     7
  6
CONTINUOUS
  0
LAYER
  5
9F1
330
2
100
AcDbSymbolTableRecord
100
AcDbLayerTableRecord
  2
MOJI
 70
     0
 62
     2
  6
CONTINUOUS
  0
ENDTAB
  0
TABLE
  2
STYLE
  5
3
330
0
100
AcDbSymbolTable
 70
     2
  0
STYLE
  5
10
330
3
100
AcDbSymbolTableRecord
100
AcDbTextStyleTableRecord
  2
STANDARD
 70
     0
 40
0.0
 41
1.0
 50
0.0
 71
     0
 42
5.0
  3
TXT
  4
bigfont.shx
  0
STYLE
  5
9F2
330
3
100
AcDbSymbolTableRecord
100
AcDbTextStyleTableRecord
  2
ｽﾀｲﾙ1
 70
     0
 40
0.0
 41
1.0
 50
0.0
 71
     0
 42
2.5
  3
MS PGothic.ttf
  4

1001
ACAD
1000
MS PGothic
1071
    32818
  0
ENDTAB
  0
TABLE
  2
VIEW
  5
6
330
0
100
AcDbSymbolTable
 70
     0
  0
ENDTAB
  0
TABLE
  2
UCS
  5
7
330
0
100
AcDbSymbolTable
 70
     0
  0
ENDTAB
  0
TABLE
  2
APPID
  5
9
330
0
100
AcDbSymbolTable
 70
     1
  0
APPID
  5
11
330
9
100
AcDbSymbolTableRecord
100
AcDbRegAppTableRecord
  2
ACAD
 70
     0
  0
ENDTAB
  0
TABLE
  2
DIMSTYLE
  5
A
330
0
100
AcDbSymbolTable
 70
     1
  0
DIMSTYLE
105
1D
102
{ACAD_REACTORS
330
1EFF
330
1F15
330
1F2B
330
209A
330
208D
330
2080
330
20E1
330
212F
330
2149
330
2246
330
22A4
330
2297
330
2288
330
225C
330
2513
330
2504
102
}
330
A
100
AcDbSymbolTableRecord
100
AcDbDimStyleTableRecord
  2
STANDARD
 70
     0
  3

  4

  5

  6

  7

 40
1.0
 41
0.18
 42
0.0625
 43
0.38
 44
0.18
 45
0.0
 46
0.0
 47
0.0
 48
0.0
140
0.18
141
0.09
142
0.0
143
25.4
144
1.0
145
0.0
146
1.0
147
0.09
 71
     0
 72
     0
 73
     1
 74
     1
 75
     0
 76
     0
 77
     0
 78
     0
170
     0
171
     2
172
     0
173
     0
174
     0
175
     0
176
     0
177
     0
178
     0
270
     2
271
     4
272
     4
273
     2
274
     2
340
10
275
     0
280
     0
281
     0
282
     0
283
     1
284
     0
285
     0
286
     0
287
     3
288
     0
  0
ENDTAB
  0
TABLE
  2
BLOCK_RECORD
  5
1
330
0
100
AcDbSymbolTable
 70
    18
  0
BLOCK_RECORD
  5
1A
102
{ACAD_XDICTIONARY
360
9D6
102
}
330
1
100
AcDbSymbolTableRecord
100
AcDbBlockTableRecord
  2
*MODEL_SPACE
  0
BLOCK_RECORD
  5
17
102
{ACAD_XDICTIONARY
360
9D4
102
}
330
1
100
AcDbSymbolTableRecord
100
AcDbBlockTableRecord
  2
*PAPER_SPACE
  0
BLOCK_RECORD
  5
6D
330
1
100
AcDbSymbolTableRecord
100
AcDbBlockTableRecord
  2
_OPEN
  0
BLOCK_RECORD
  5
CE3
330
1
100
AcDbSymbolTableRecord
100
AcDbBlockTableRecord
  2
*X1
  0
BLOCK_RECORD
  5
1F00
330
1
100
AcDbSymbolTableRecord
100
AcDbBlockTableRecord
  2
*D2
  0
BLOCK_RECORD
  5
1F16
330
1
100
AcDbSymbolTableRecord
100
AcDbBlockTableRecord
  2
*D3
  0
BLOCK_RECORD
  5
1F2C
330
1
100
AcDbSymbolTableRecord
100
AcDbBlockTableRecord
  2
*D4
  0
BLOCK_RECORD
  5
2081
330
1
100
AcDbSymbolTableRecord
100
AcDbBlockTableRecord
  2
*D5
  0
BLOCK_RECORD
  5
208E
330
1
100
AcDbSymbolTableRecord
100
AcDbBlockTableRecord
  2
*D6
  0
BLOCK_RECORD
  5
209B
330
1
100
AcDbSymbolTableRecord
100
AcDbBlockTableRecord
  2
*D7
  0
BLOCK_RECORD
  5
20E2
330
1
100
AcDbSymbolTableRecord
100
AcDbBlockTableRecord
  2
*D8
  0
BLOCK_RECORD
  5
2130
330
1
100
AcDbSymbolTableRecord
100
AcDbBlockTableRecord
  2
*D9
  0
BLOCK_RECORD
  5
214A
330
1
100
AcDbSymbolTableRecord
100
AcDbBlockTableRecord
  2
*D10
  0
BLOCK_RECORD
  5
2247
330
1
100
AcDbSymbolTableRecord
100
AcDbBlockTableRecord
  2
*D11
  0
BLOCK_RECORD
  5
225D
330
1
100
AcDbSymbolTableRecord
100
AcDbBlockTableRecord
  2
*D12
  0
BLOCK_RECORD
  5
2289
330
1
100
AcDbSymbolTableRecord
100
AcDbBlockTableRecord
  2
*D13
  0
BLOCK_RECORD
  5
2298
330
1
100
AcDbSymbolTableRecord
100
AcDbBlockTableRecord
  2
*D14
  0
BLOCK_RECORD
  5
22A5
330
1
100
AcDbSymbolTableRecord
100
AcDbBlockTableRecord
  2
*D15
  0
BLOCK_RECORD
  5
2505
330
1
100
AcDbSymbolTableRecord
100
AcDbBlockTableRecord
  2
*D16
  0
BLOCK_RECORD
  5
2514
330
1
100
AcDbSymbolTableRecord
100
AcDbBlockTableRecord
  2
*D17
  0
ENDTAB
  0
ENDSEC
  0
SECTION
  2
BLOCKS
  0
BLOCK
  5
1B
330
1A
100
AcDbEntity
  8
0
100
AcDbBlockBegin
  2
*MODEL_SPACE
 70
     0
 10
0.0
 20
0.0
 30
0.0
  3
*MODEL_SPACE
  1

  0
ENDBLK
  5
1C
330
1A
100
AcDbEntity
  8
0
100
AcDbBlockEnd
  0
BLOCK
  5
18
330
17
100
AcDbEntity
 67
     1
  8
0
100
AcDbBlockBegin
  2
*PAPER_SPACE
 70
     0
 10
0.0
 20
0.0
 30
0.0
  3
*PAPER_SPACE
  1

  0
ENDBLK
  5
19
330
17
100
AcDbEntity
 67
     1
  8
0
100
AcDbBlockEnd
  0
BLOCK
  5
6E
330
6D
100
AcDbEntity
  8
0
100
AcDbBlockBegin
  2
_OPEN
 70
     0
 10
0.0
 20
0.0
 30
0.0
  3
_OPEN
  1

  0
LINE
  5
6F
330
6D
100
AcDbEntity
  8
0
  6
BYBLOCK
 62
     0
100
AcDbLine
 10
-1.0
 20
0.1666666666666666
 30
0.0
 11
0.0
 21
0.0
 31
0.0
  0
LINE
  5
70
330
6D
100
AcDbEntity
  8
0
  6
BYBLOCK
 62
     0
100
AcDbLine
 10
0.0
 20
0.0
 30
0.0
 11
-1.0
 21
-0.1666666666666666
 31
0.0
  0
LINE
  5
71
330
6D
100
AcDbEntity
  8
0
  6
BYBLOCK
 62
     0
100
AcDbLine
 10
0.0
 20
0.0
 30
0.0
 11
-1.0
 21
0.0
 31
0.0
  0
ENDBLK
  5
72
330
6D
100
AcDbEntity
  8
0
100
AcDbBlockEnd
  0
BLOCK
  5
E77
330
CE3
100
AcDbEntity
  8
0
100
AcDbBlockBegin
  2
*X1
 70
     1
 10
0.0
 20
0.0
 30
0.0
  3
*X1
  1

  0
LINE
  5
CE4
330
CE3
100
AcDbEntity
  8
0
 62
     0
100
AcDbLine
 10
69.04221213871108
 20
22.60416951097994
 30
0.0
 11
68.39638120899616
 21
23.25000044069491
 31
0.0
  0
LINE
  5
CE5
330
CE3
100
AcDbEntity
  8
0
 62
     0
100
AcDbLine
 10
69.04221213871108
 20
21.70614389887305
 30
0.0
 11
67.49835559688921
 21
23.25000044069491
 31
0.0
  0
LINE
  5
CE6
330
CE3
100
AcDbEntity
  8
0
 62
     0
100
AcDbLine
 10
69.04221213871102
 20
20.8081182867661
 30
0.0
 11
66.62107819269607
 21
23.22925223278105
 31
0.0
  0
LINE
  5
CE7
330
CE3
100
AcDbEntity
  8
0
 62
     0
100
AcDbLine
 10
69.04221213871108
 20
19.91009267465926
 30
0.0
 11
66.24221213871101
 21
22.71009267465927
 31
0.0
  0
LINE
  5
CE8
330
CE3
100
AcDbEntity
  8
0
 62
     0
100
AcDbLine
 10
69.04221213871108
 20
19.01206706255232
 30
0.0
 11
66.24221213871101
 21
21.81206706255238
 31
0.0
  0
LINE
  5
CE9
330
CE3
100
AcDbEntity
  8
0
 62
     0
100
AcDbLine
 10
69.04221213871102
 20
18.11404145044537
 30
0.0
 11
66.24221213871095
 21
20.91404145044543
 31
0.0
  0
LINE
  5
CEA
330
CE3
100
AcDbEntity
  8
0
 62
     0
100
AcDbLine
 10
64.14221213871099
 20
22.11601583833857
 30
0.0
 11
63.00822753635469
 21
23.25000044069491
 31
0.0
  0
LINE
  5
CEB
330
CE3
100
AcDbEntity
  8
0
 62
     0
100
AcDbLine
 10
69.04221213871108
 20
17.21601583833853
 30
0.0
 11
66.24221213871101
 21
20.0160158383386
 31
0.0
  0
LINE
  5
CEC
330
CE3
100
AcDbEntity
  8
0
 62
     0
100
AcDbLine
 10
64.14221213871099
 20
21.21799022623167
 30
0.0
 11
62.11020192424775
 21
23.25000044069486
 31
0.0
  0
LINE
  5
CED
330
CE3
100
AcDbEntity
  8
0
 62
     0
100
AcDbLine
 10
69.04221213871102
 20
16.31799022623158
 30
0.0
 11
66.24221213871101
 21
19.11799022623165
 31
0.0
  0
LINE
  5
CEE
330
CE3
100
AcDbEntity
  8
0
 62
     0
100
AcDbLine
 10
64.14221213871099
 20
20.31996461412473
 30
0.0
 11
61.43670117357391
 21
23.0254755792618
 31
0.0
  0
LINE
  5
CEF
330
CE3
100
AcDbEntity
  8
0
 62
     0
100
AcDbLine
 10
69.04221213871102
 20
15.41996461412469
 30
0.0
 11
66.24221213871095
 21
18.2199646141247
 31
0.0
  0
LINE
  5
CF0
330
CE3
100
AcDbEntity
  8
0
 62
     0
100
AcDbLine
 10
64.1422121387111
 20
19.42193900201772
 30
0.0
 11
61.34221213871092
 21
22.22193900201784
 31
0.0
  0
LINE
  5
CF1
330
CE3
100
AcDbEntity
  8
0
 62
     0
100
AcDbLine
 10
69.04221213871108
 20
14.52193900201774
 30
0.0
 11
66.24221213871101
 21
17.32193900201781
 31
0.0
  0
LINE
  5
CF2
330
CE3
100
AcDbEntity
  8
0
 62
     0
100
AcDbLine
 10
64.14221213871105
 20
18.52391338991083
 30
0.0
 11
61.34221213871092
 21
21.32391338991101
 31
0.0
  0
LINE
  5
CF3
330
CE3
100
AcDbEntity
  8
0
 62
     0
100
AcDbLine
 10
69.04221213871102
 20
13.62391338991085
 30
0.0
 11
66.24221213871095
 21
16.42391338991092
 31
0.0
  0
LINE
  5
CF4
330
CE3
100
AcDbEntity
  8
0
 62
     0
100
AcDbLine
 10
64.14221213871105
 20
17.62588777780393
 30
0.0
 11
61.34221213871092
 21
20.42588777780406
 31
0.0
  0
LINE
  5
CF5
330
CE3
100
AcDbEntity
  8
0
 62
     0
100
AcDbLine
 10
69.04221213871102
 20
12.72588777780396
 30
0.0
 11
66.24221213871095
 21
15.52588777780403
 31
0.0
  0
LINE
  5
CF6
330
CE3
100
AcDbEntity
  8
0
 62
     0
100
AcDbLine
 10
64.14221213871099
 20
16.72786216569699
 30
0.0
 11
61.34221213871086
 21
19.52786216569711
 31
0.0
  0
LINE
  5
CF7
330
CE3
100
AcDbEntity
  8
0
 62
     0
100
AcDbLine
 10
69.04221213871096
 20
11.82786216569701
 30
0.0
 11
66.24221213871095
 21
14.62786216569708
 31
0.0
  0
LINE
  5
CF8
330
CE3
100
AcDbEntity
  8
0
 62
     0
100
AcDbLine
 10
64.14221213871105
 20
15.82983655359015
 30
0.0
 11
61.34221213871092
 21
18.62983655359028
 31
0.0
  0
LINE
  5
CF9
330
CE3
100
AcDbEntity
  8
0
 62
     0
100
AcDbLine
 10
57.84221213871098
 20
22.12983655359022
 30
0.0
 11
56.72204825160633
 21
23.25000044069486
 31
0.0
  0
LINE
  5
CFA
330
CE3
100
AcDbEntity
  8
0
 62
     0
100
AcDbLine
 10
69.04221213871102
 20
10.92983655359017
 30
0.0
 11
66.24221213871095
 21
13.72983655359019
 31
0.0
  0
LINE
  5
CFB
330
CE3
100
AcDbEntity
  8
0
 62
     0
100
AcDbLine
 10
64.14221213871105
 20
14.9318109414832
 30
0.0
 11
61.34221213871086
 21
17.73181094148333
 31
0.0
  0
LINE
  5
CFC
330
CE3
100
AcDbEntity
  8
0
 62
     0
100
AcDbLine
 10
57.84221213871092
 20
21.23181094148327
 30
0.0
 11
55.82402263949939
 21
23.25000044069486
 31
0.0
  0
LINE
  5
CFD
330
CE3
100
AcDbEntity
  8
0
 62
     0
100
AcDbLine
 10
69.04221213871102
 20
10.03181094148323
 30
0.0
 11
66.24221213871095
 21
12.83181094148329
 31
0.0
  0
LINE
  5
CFE
330
CE3
100
AcDbEntity
  8
0
 62
     0
100
AcDbLine
 10
64.14221213871099
 20
14.03378532937631
 30
0.0
 11
61.34221213871092
 21
16.83378532937632
 31
0.0
  0
LINE
  5
CFF
330
CE3
100
AcDbEntity
  8
0
 62
     0
100
AcDbLine
 10
57.84221213871092
 20
20.33378532937638
 30
0.0
 11
55.14244941538692
 21
23.03354805270038
 31
0.0
  0
LINE
  5
D00
330
CE3
100
AcDbEntity
  8
0
 62
     0
100
AcDbLine
 10
69.04221213871096
 20
9.133785329376337
 30
0.0
 11
66.2422121387109
 21
11.93378532937634
 31
0.0
  0
LINE
  5
D01
330
CE3
100
AcDbEntity
  8
0
 62
     0
100
AcDbLine
 10
64.14221213871105
 20
13.13575971726936
 30
0.0
 11
61.34221213871097
 21
15.93575971726943
 31
0.0
  0
LINE
  5
D02
330
CE3
100
AcDbEntity
  8
0
 62
     0
100
AcDbLine
 10
57.84221213871098
 20
19.43575971726943
 30
0.0
 11
55.04221213871097
 21
22.23575971726944
 31
0.0
  0
LINE
  5
D03
330
CE3
100
AcDbEntity
  8
0
 62
     0
100
AcDbLine
 10
69.04221213871102
 20
8.235759717269388
 30
0.0
 11
66.24221213871095
 21
11.03575971726945
 31
0.0
  0
LINE
  5
D04
330
CE3
100
AcDbEntity
  8
0
 62
     0
100
AcDbLine
 10
64.14221213871099
 20
12.23773410516247
 30
0.0
 11
61.34221213871097
 21
15.03773410516254
 31
0.0
  0
LINE
  5
D05
330
CE3
100
AcDbEntity
  8
0
 62
     0
100
AcDbLine
 10
57.84221213871103
 20
18.53773410516248
 30
0.0
 11
55.04221213871097
 21
21.33773410516255
 31
0.0
  0
LINE
  5
D06
330
CE3
100
AcDbEntity
  8
0
 62
     0
100
AcDbLine
 10
68.97024678382121
 20
7.409699460052308
 30
0.0
 11
66.24221213871095
 21
10.13773410516256
 31
0.0
  0
LINE
  5
D07
330
CE3
100
AcDbEntity
  8
0
 62
     0
100
AcDbLine
 10
64.14221213871105
 20
11.33970849305546
 30
0.0
 11
61.34221213871092
 21
14.13970849305559
 31
0.0
  0
LINE
  5
D08
330
CE3
100
AcDbEntity
  8
0
 62
     0
100
AcDbLine
 10
57.84221213871098
 20
17.63970849305559
 30
0.0
 11
55.0422121387109
 21
20.4397084930556
 31
0.0
  0
LINE
  5
D09
330
CE3
100
AcDbEntity
  8
0
 62
     0
100
AcDbLine
 10
68.33192019107173
 20
7.150000440694839
 30
0.0
 11
66.2422121387109
 21
9.239708493055672
 31
0.0
  0
LINE
  5
D0A
330
CE3
100
AcDbEntity
  8
0
 62
     0
100
AcDbLine
 10
57.84221213871098
 20
16.74168288094864
 30
0.0
 11
55.0422121387109
 21
19.54168288094871
 31
0.0
  0
LINE
  5
D0B
330
CE3
100
AcDbEntity
  8
0
 62
     0
100
AcDbLine
 10
64.14221213871105
 20
10.44168288094857
 30
0.0
 11
61.34221213871092
 21
13.2416828809487
 31
0.0
  0
LINE
  5
D0C
330
CE3
100
AcDbEntity
  8
0
 62
     0
100
AcDbLine
 10
52.41721213871096
 20
22.16668288094865
 30
0.0
 11
51.33389457896481
 21
23.25000044069474
 31
0.0
  0
LINE
  5
D0D
330
CE3
100
AcDbEntity
  8
0
 62
     0
100
AcDbLine
 10
67.43389457896483
 20
7.150000440694725
 30
0.0
 11
66.2422121387109
 21
8.341682880948724
 31
0.0
  0
LINE
  5
D0E
330
CE3
100
AcDbEntity
  8
0
 62
     0
100
AcDbLine
 10
57.84221213871098
 20
15.84365726884175
 30
0.0
 11
55.04221213871102
 21
18.64365726884176
 31
0.0
  0
LINE
  5
D0F
330
CE3
100
AcDbEntity
  8
0
 62
     0
100
AcDbLine
 10
52.41721213871096
 20
21.26865726884176
 30
0.0
 11
50.43586896685798
 21
23.2500004406948
 31
0.0
  0
LINE
  5
D10
330
CE3
100
AcDbEntity
  8
0
 62
     0
100
AcDbLine
 10
64.11625383806546
 20
9.569615569487325
 30
0.0
 11
61.34221213871092
 21
12.34365726884181
 31
0.0
  0
LINE
  5
D11
330
CE3
100
AcDbEntity
  8
0
 62
     0
100
AcDbLine
 10
57.84221213871098
 20
14.94563165673486
 30
0.0
 11
55.04221213871102
 21
17.74563165673481
 31
0.0
  0
LINE
  5
D12
330
CE3
100
AcDbEntity
  8
0
 62
     0
100
AcDbLine
 10
52.22163159259713
 20
20.5662122028487
 30
0.0
 11
49.53784335475098
 21
23.25000044069486
 31
0.0
  0
LINE
  5
D13
330
CE3
100
AcDbEntity
  8
0
 62
     0
100
AcDbLine
 10
63.92326854280821
 20
8.864575252637564
 30
0.0
 11
61.34221213871092
 21
11.44563165673491
 31
0.0
  0
LINE
  5
D14
330
CE3
100
AcDbEntity
  8
0
 62
     0
100
AcDbLine
 10
57.84221213871098
 20
14.04760604462791
 30
0.0
 11
55.04221213871097
 21
16.84760604462792
 31
0.0
  0
LINE
  5
D15
330
CE3
100
AcDbEntity
  8
0
 62
     0
100
AcDbLine
 10
51.43981774264398
 20
20.45000044069485
 30
0.0
 11
48.63981774264408
 21
23.25000044069474
 31
0.0
  0
LINE
  5
D16
330
CE3
100
AcDbEntity
  8
0
 62
     0
100
AcDbLine
 10
63.59823666688464
 20
8.291581516454186
 30
0.0
 11
61.27069639955141
 21
10.61912178378747
 31
0.0
  0
LINE
  5
D17
330
CE3
100
AcDbEntity
  8
0
 62
     0
100
AcDbLine
 10
57.84221213871098
 20
13.14958043252107
 30
0.0
 11
55.04221213871102
 21
15.94958043252103
 31
0.0
  0
LINE
  5
D18
330
CE3
100
AcDbEntity
  8
0
 62
     0
100
AcDbLine
 10
50.54179213053714
 20
20.4500004406949
 30
0.0
 11
47.80422540135975
 21
23.18756716987229
 31
0.0
  0
LINE
  5
D19
330
CE3
100
AcDbEntity
  8
0
 62
     0
100
AcDbLine
 10
63.16619486955961
 20
7.825597701672393
 30
0.0
 11
60.8691107610839
 21
10.12268181014809
 31
0.0
  0
LINE
  5
D1A
330
CE3
100
AcDbEntity
  8
0
 62
     0
100
AcDbLine
 10
57.84221213871098
 20
12.25155482041413
 30
0.0
 11
55.04221213871097
 21
15.05155482041408
 31
0.0
  0
LINE
  5
D1B
330
CE3
100
AcDbEntity
  8
0
 62
     0
100
AcDbLine
 10
49.6437665184302
 20
20.4500004406949
 30
0.0
 11
47.13958497682637
 21
22.95418198229867
 31
0.0
  0
LINE
  5
D1C
330
CE3
100
AcDbEntity
  8
0
 62
     0
100
AcDbLine
 10
62.63003252463358
 20
7.463734434491527
 30
0.0
 11
60.14376651843019
 21
9.95000044069485
 31
0.0
  0
LINE
  5
D1D
330
CE3
100
AcDbEntity
  8
0
 62
     0
100
AcDbLine
 10
57.84221213871092
 20
11.35352920830718
 30
0.0
 11
55.04221213871097
 21
14.15352920830719
 31
0.0
  0
LINE
  5
D1E
330
CE3
100
AcDbEntity
  8
0
 62
     0
100
AcDbLine
 10
48.76753073434139
 20
20.4282106126767
 30
0.0
 11
46.59698403961619
 21
22.59875730740191
 31
0.0
  0
LINE
  5
D1F
330
CE3
100
AcDbEntity
  8
0
 62
     0
100
AcDbLine
 10
61.97361996472228
 20
7.222121382295881
 30
0.0
 11
59.2457409063233
 21
9.95000044069485
 31
0.0
  0
LINE
  5
D20
330
CE3
100
AcDbEntity
  8
0
 62
     0
100
AcDbLine
 10
48.39221213871105
 20
19.9055035962001
 30
0.0
 11
46.15887198057163
 21
22.13884375433952
 31
0.0
  0
LINE
  5
D21
330
CE3
100
AcDbEntity
  8
0
 62
     0
100
AcDbLine
 10
61.14771529421642
 20
7.150000440694782
 30
0.0
 11
55.04221213871097
 21
13.25550359620024
 31
0.0
  0
LINE
  5
D22
330
CE3
100
AcDbEntity
  8
0
 62
     0
100
AcDbLine
 10
48.3922121387111
 20
19.00747798409327
 30
0.0
 11
45.82710106821861
 21
21.57258905458576
 31
0.0
  0
LINE
  5
D23
330
CE3
100
AcDbEntity
  8
0
 62
     0
100
AcDbLine
 10
60.24968968210953
 20
7.150000440694782
 30
0.0
 11
55.04221213871097
 21
12.3574779840934
 31
0.0
  0
LINE
  5
D24
330
CE3
100
AcDbEntity
  8
0
 62
     0
100
AcDbLine
 10
48.59875641981483
 20
17.90290809088259
 30
0.0
 11
45.6249225488545
 21
20.87674196184286
 31
0.0
  0
LINE
  5
D25
330
CE3
100
AcDbEntity
  8
0
 62
     0
100
AcDbLine
 10
59.35166407000264
 20
7.150000440694782
 30
0.0
 11
55.04221213871097
 21
11.45945237198645
 31
0.0
  0
LINE
  5
D26
330
CE3
100
AcDbEntity
  8
0
 62
     0
100
AcDbLine
 10
52.81581584140235
 20
12.78782305718812
 30
0.0
 11
45.59221213871097
 21
20.01142675987944
 31
0.0
  0
LINE
  5
D27
330
CE3
100
AcDbEntity
  8
0
 62
     0
100
AcDbLine
 10
43.49221213871089
 20
22.11142675987951
 30
0.0
 11
42.35363845789561
 21
23.25000044069486
 31
0.0
  0
LINE
  5
D28
330
CE3
100
AcDbEntity
  8
0
 62
     0
100
AcDbLine
 10
58.45363845789569
 20
7.150000440694782
 30
0.0
 11
55.0422121387109
 21
10.56142675987951
 31
0.0
  0
LINE
  5
D29
330
CE3
100
AcDbEntity
  8
0
 62
     0
100
AcDbLine
 10
52.94221213871106
 20
11.76340114777258
 30
0.0
 11
45.59221213871103
 21
19.1134011477726
 31
0.0
  0
LINE
  5
D2A
330
CE3
100
AcDbEntity
  8
0
 62
     0
100
AcDbLine
 10
43.49221213871101
 20
21.21340114777257
 30
0.0
 11
41.45561284578866
 21
23.25000044069497
 31
0.0
  0
LINE
  5
D2B
330
CE3
100
AcDbEntity
  8
0
 62
     0
100
AcDbLine
 10
57.53916496704391
 20
7.166448319439723
 30
0.0
 11
55.05866001745591
 21
9.646953269027733
 31
0.0
  0
LINE
  5
D2C
330
CE3
100
AcDbEntity
  8
0
 62
     0
100
AcDbLine
 10
43.49221213871101
 20
20.31537553566568
 30
0.0
 11
40.78482225093568
 21
23.02276542344094
 31
0.0
  0
LINE
  5
D2D
330
CE3
100
AcDbEntity
  8
0
 62
     0
100
AcDbLine
 10
52.942212138711
 20
10.86537553566563
 30
0.0
 11
45.61562280659336
 21
18.19196486778332
 31
0.0
  0
LINE
  5
D2E
330
CE3
100
AcDbEntity
  8
0
 62
     0
100
AcDbLine
 10
43.49221213871101
 20
19.41734992355873
 30
0.0
 11
40.692212138711
 21
22.21734992355868
 31
0.0
  0
LINE
  5
D2F
330
CE3
100
AcDbEntity
  8
0
 62
     0
100
AcDbLine
 10
52.94221213871089
 20
9.967349923558799
 30
0.0
 11
45.93374222443339
 21
16.97581983783635
 31
0.0
  0
LINE
  5
D30
330
CE3
100
AcDbEntity
  8
0
 62
     0
100
AcDbLine
 10
43.49221213871101
 20
18.51932431145184
 30
0.0
 11
40.69221213871105
 21
21.31932431145179
 31
0.0
  0
LINE
  5
D31
330
CE3
100
AcDbEntity
  8
0
 62
     0
100
AcDbLine
 10
52.83365032112192
 20
9.177886129040928
 30
0.0
 11
50.13801553208361
 21
11.87352091807923
 31
0.0
  0
LINE
  5
D32
330
CE3
100
AcDbEntity
  8
0
 62
     0
100
AcDbLine
 10
43.49221213871101
 20
17.62129869934494
 30
0.0
 11
40.692212138711
 21
20.4212986993449
 31
0.0
  0
LINE
  5
D33
330
CE3
100
AcDbEntity
  8
0
 62
     0
100
AcDbLine
 10
38.40072523813399
 20
22.71278559992191
 30
0.0
 11
37.86351039736109
 21
23.25000044069486
 31
0.0
  0
LINE
  5
D34
330
CE3
100
AcDbEntity
  8
0
 62
     0
100
AcDbLine
 10
52.56577461336036
 20
8.547736224695597
 30
0.0
 11
50.14221213871104
 21
10.97129869934491
 31
0.0
  0
LINE
  5
D35
330
CE3
100
AcDbEntity
  8
0
 62
     0
100
AcDbLine
 10
43.49221213871095
 20
16.72327308723799
 30
0.0
 11
40.692212138711
 21
19.52327308723801
 31
0.0
  0
LINE
  5
D36
330
CE3
100
AcDbEntity
  8
0
 62
     0
100
AcDbLine
 10
38.20179757388137
 20
22.01368765206757
 30
0.0
 11
36.96548478525414
 21
23.25000044069486
 31
0.0
  0
LINE
  5
D37
330
CE3
100
AcDbEntity
  8
0
 62
     0
100
AcDbLine
 10
52.18278781518506
 20
8.032697410763944
 30
0.0
 11
50.04492695582456
 21
10.17055827012444
 31
0.0
  0
LINE
  5
D38
330
CE3
100
AcDbEntity
  8
0
 62
     0
100
AcDbLine
 10
43.49221213871095
 20
15.8252474751311
 30
0.0
 11
40.692212138711
 21
18.62524747513106
 31
0.0
  0
LINE
  5
D39
330
CE3
100
AcDbEntity
  8
0
 62
     0
100
AcDbLine
 10
37.98627142697569
 20
21.33118818686631
 30
0.0
 11
36.0770558635051
 21
23.24040375033695
 31
0.0
  0
LINE
  5
D3A
330
CE3
100
AcDbEntity
  8
0
 62
     0
100
AcDbLine
 10
51.69646885006944
 20
7.620990763772567
 30
0.0
 11
49.36745917314721
 21
9.95000044069485
 31
0.0
  0
LINE
  5
D3B
330
CE3
100
AcDbEntity
  8
0
 62
     0
100
AcDbLine
 10
43.49221213871101
 20
14.92722186302421
 30
0.0
 11
40.692212138711
 21
17.72722186302416
 31
0.0
  0
LINE
  5
D3C
330
CE3
100
AcDbEntity
  8
0
 62
     0
100
AcDbLine
 10
37.77074528007017
 20
20.64868872166505
 30
0.0
 11
35.64274528007013
 21
22.77668872166509
 31
0.0
  0
LINE
  5
D3D
330
CE3
100
AcDbEntity
  8
0
 62
     0
100
AcDbLine
 10
51.10038490160906
 20
7.319049100126107
 30
0.0
 11
48.46943356104032
 21
9.950000440694907
 31
0.0
  0
LINE
  5
D3E
330
CE3
100
AcDbEntity
  8
0
 62
     0
100
AcDbLine
 10
43.49221213871095
 20
14.02919625091732
 30
0.0
 11
40.692212138711
 21
16.82919625091727
 31
0.0
  0
LINE
  5
D3F
330
CE3
100
AcDbEntity
  8
0
 62
     0
100
AcDbLine
 10
37.55521913316431
 20
19.96618925646396
 30
0.0
 11
35.42721913316432
 21
22.09418925646394
 31
0.0
  0
LINE
  5
D40
330
CE3
100
AcDbEntity
  8
0
 62
     0
100
AcDbLine
 10
50.36271224996159
 20
7.158696139666687
 30
0.0
 11
47.57140794893342
 21
9.95000044069485
 31
0.0
  0
LINE
  5
D41
330
CE3
100
AcDbEntity
  8
0
 62
     0
100
AcDbLine
 10
43.49221213871095
 20
13.13117063881037
 30
0.0
 11
40.69221213871094
 21
15.93117063881033
 31
0.0
  0
LINE
  5
D42
330
CE3
100
AcDbEntity
  8
0
 62
     0
100
AcDbLine
 10
37.33969298625874
 20
19.28368979126259
 30
0.0
 11
35.21169298625864
 21
21.41168979126263
 31
0.0
  0
LINE
  5
D43
330
CE3
100
AcDbEntity
  8
0
 62
     0
100
AcDbLine
 10
49.47338233682654
 20
7.150000440694782
 30
0.0
 11
46.67338233682648
 21
9.95000044069485
 31
0.0
  0
LINE
  5
D44
330
CE3
100
AcDbEntity
  8
0
 62
     0
100
AcDbLine
 10
43.49221213871095
 20
12.23314502670348
 30
0.0
 11
40.692212138711
 21
15.03314502670349
 31
0.0
  0
LINE
  5
D45
330
CE3
100
AcDbEntity
  8
0
 62
     0
100
AcDbLine
 10
37.12416683935311
 20
18.60119032606138
 30
0.0
 11
34.996166839353
 21
20.72919032606142
 31
0.0
  0
LINE
  5
D46
330
CE3
100
AcDbEntity
  8
0
 62
     0
100
AcDbLine
 10
48.57535672471965
 20
7.150000440694839
 30
0.0
 11
46.14174502742327
 21
9.583612137991224
 31
0.0
  0
LINE
  5
D47
330
CE3
100
AcDbEntity
  8
0
 62
     0
100
AcDbLine
 10
36.90864069244748
 20
17.91869086086001
 30
0.0
 11
34.78064069244737
 21
20.04669086086016
 31
0.0
  0
LINE
  5
D48
330
CE3
100
AcDbEntity
  8
0
 62
     0
100
AcDbLine
 10
43.49221213871095
 20
11.33511941459659
 30
0.0
 11
40.692212138711
 21
14.13511941459654
 31
0.0
  0
LINE
  5
D49
330
CE3
100
AcDbEntity
  8
0
 62
     0
100
AcDbLine
 10
32.64221213871099
 20
22.18511941459655
 30
0.0
 11
31.57733111261268
 21
23.2500004406948
 31
0.0
  0
LINE
  5
D4A
330
CE3
100
AcDbEntity
  8
0
 62
     0
100
AcDbLine
 10
47.67733111261276
 20
7.150000440694782
 30
0.0
 11
46.11721213871101
 21
8.710119414596533
 31
0.0
  0
LINE
  5
D4B
330
CE3
100
AcDbEntity
  8
0
 62
     0
100
AcDbLine
 10
36.69311454554167
 20
17.23619139565892
 30
0.0
 11
34.56511454554174
 21
19.36419139565884
 31
0.0
  0
LINE
  5
D4C
330
CE3
100
AcDbEntity
  8
0
 62
     0
100
AcDbLine
 10
43.49221213871095
 20
10.43709380248964
 30
0.0
 11
40.69221213871094
 21
13.23709380248965
 31
0.0
  0
LINE
  5
D4D
330
CE3
100
AcDbEntity
  8
0
 62
     0
100
AcDbLine
 10
32.64221213871099
 20
21.2870938024896
 30
0.0
 11
30.67930550050579
 21
23.2500004406948
 31
0.0
  0
LINE
  5
D4E
330
CE3
100
AcDbEntity
  8
0
 62
     0
100
AcDbLine
 10
46.77930550050575
 20
7.150000440694839
 30
0.0
 11
46.11721213871095
 21
7.812093802489584
 31
0.0
  0
LINE
  5
D4F
330
CE3
100
AcDbEntity
  8
0
 62
     0
100
AcDbLine
 10
36.47758839863604
 20
16.5536919304576
 30
0.0
 11
34.349588398636
 21
18.68169193045764
 31
0.0
  0
LINE
  5
D50
330
CE3
100
AcDbEntity
  8
0
 62
     0
100
AcDbLine
 10
32.64221213871093
 20
20.38906819038265
 30
0.0
 11
29.96676720981332
 21
23.06451311928032
 31
0.0
  0
LINE
  5
D51
330
CE3
100
AcDbEntity
  8
0
 62
     0
100
AcDbLine
 10
43.49221213871089
 20
9.539068190382749
 30
0.0
 11
40.69221213871094
 21
12.3390681903827
 31
0.0
  0
LINE
  5
D52
330
CE3
100
AcDbEntity
  8
0
 62
     0
100
AcDbLine
 10
36.26206225173041
 20
15.8711924652564
 30
0.0
 11
34.13406225173043
 21
17.99919246525638
 31
0.0
  0
LINE
  5
D53
330
CE3
100
AcDbEntity
  8
0
 62
     0
100
AcDbLine
 10
32.64221213871099
 20
19.49104257827582
 30
0.0
 11
29.84221213871092
 21
22.29104257827583
 31
0.0
  0
LINE
  5
D54
330
CE3
100
AcDbEntity
  8
0
 62
     0
100
AcDbLine
 10
43.49221213871095
 20
8.641042578275857
 30
0.0
 11
40.69221213871094
 21
11.44104257827581
 31
0.0
  0
LINE
  5
D55
330
CE3
100
AcDbEntity
  8
0
 62
     0
100
AcDbLine
 10
36.05697374233836
 20
15.1782553625415
 30
0.0
 11
33.91853610482468
 21
17.31669300005518
 31
0.0
  0
LINE
  5
D56
330
CE3
100
AcDbEntity
  8
0
 62
     0
100
AcDbLine
 10
32.64221213871099
 20
18.59301696616887
 30
0.0
 11
29.84221213871092
 21
21.39301696616894
 31
0.0
  0
LINE
  5
D57
330
CE3
100
AcDbEntity
  8
0
 62
     0
100
AcDbLine
 10
43.49221213871089
 20
7.743016966168909
 30
0.0
 11
40.69221213871094
 21
10.54301696616892
 31
0.0
  0
LINE
  5
D58
330
CE3
100
AcDbEntity
  8
0
 62
     0
100
AcDbLine
 10
36.47144710177235
 20
13.86575639100056
 30
0.0
 11
33.62798860914006
 21
16.70921488363285
 31
0.0
  0
LINE
  5
D59
330
CE3
100
AcDbEntity
  8
0
 62
     0
100
AcDbLine
 10
32.64221213871104
 20
17.69499135406187
 30
0.0
 11
29.84221213871086
 21
20.49499135406199
 31
0.0
  0
LINE
  5
D5A
330
CE3
100
AcDbEntity
  8
0
 62
     0
100
AcDbLine
 10
43.15316714137856
 20
7.184036351394297
 30
0.0
 11
40.692212138711
 21
9.644991354061914
 31
0.0
  0
LINE
  5
D5B
330
CE3
100
AcDbEntity
  8
0
 62
     0
100
AcDbLine
 10
36.88592046120635
 20
12.55325741945972
 30
0.0
 11
29.84221213871092
 21
19.59696574195516
 31
0.0
  0
LINE
  5
D5C
330
CE3
100
AcDbEntity
  8
0
 62
     0
100
AcDbLine
 10
27.39221213871104
 20
22.04696574195503
 30
0.0
 11
26.18917743997127
 21
23.2500004406948
 31
0.0
  0
LINE
  5
D5D
330
CE3
100
AcDbEntity
  8
0
 62
     0
100
AcDbLine
 10
42.28917743997129
 20
7.150000440694782
 30
0.0
 11
40.69221213871105
 21
8.746965741955023
 31
0.0
  0
LINE
  5
D5E
330
CE3
100
AcDbEntity
  8
0
 62
     0
100
AcDbLine
 10
37.3003938206404
 20
11.24075844791872
 30
0.0
 11
29.84221213871092
 21
18.69894012984821
 31
0.0
  0
LINE
  5
D5F
330
CE3
100
AcDbEntity
  8
0
 62
     0
100
AcDbLine
 10
27.39221213871104
 20
21.14894012984808
 30
0.0
 11
25.29115182786426
 21
23.25000044069486
 31
0.0
  0
LINE
  5
D60
330
CE3
100
AcDbEntity
  8
0
 62
     0
100
AcDbLine
 10
41.39115182786435
 20
7.150000440694725
 30
0.0
 11
40.692212138711
 21
7.848940129848131
 31
0.0
  0
LINE
  5
D61
330
CE3
100
AcDbEntity
  8
0
 62
     0
100
AcDbLine
 10
27.12530544332094
 20
20.51782121313124
 30
0.0
 11
24.42508372510951
 21
23.21804293134261
 31
0.0
  0
LINE
  5
D62
330
CE3
100
AcDbEntity
  8
0
 62
     0
100
AcDbLine
 10
37.71486718007435
 20
9.928259476377832
 30
0.0
 11
29.84221213871098
 21
17.8009145177412
 31
0.0
  0
LINE
  5
D63
330
CE3
100
AcDbEntity
  8
0
 62
     0
100
AcDbLine
 10
32.9797210610526
 20
13.76537998329268
 30
0.0
 11
29.84221213871098
 21
16.90288890563431
 31
0.0
  0
LINE
  5
D64
330
CE3
100
AcDbEntity
  8
0
 62
     0
100
AcDbLine
 10
26.29510060365049
 20
20.45000044069473
 30
0.0
 11
23.68704065552225
 21
23.05806038882303
 31
0.0
  0
LINE
  5
D65
330
CE3
100
AcDbEntity
  8
0
 62
     0
100
AcDbLine
 10
38.1293405395084
 20
8.615760504836885
 30
0.0
 11
34.03703284720052
 21
12.70806819714471
 31
0.0
  0
LINE
  5
D66
330
CE3
100
AcDbEntity
  8
0
 62
     0
100
AcDbLine
 10
32.64221213871104
 20
13.20486329352735
 30
0.0
 11
29.84221213871098
 21
16.00486329352742
 31
0.0
  0
LINE
  5
D67
330
CE3
100
AcDbEntity
  8
0
 62
     0
100
AcDbLine
 10
25.39707499154349
 20
20.45000044069485
 30
0.0
 11
23.04831923969152
 21
22.79875619254681
 31
0.0
  0
LINE
  5
D68
330
CE3
100
AcDbEntity
  8
0
 62
     0
100
AcDbLine
 10
38.36437939721901
 20
7.48269603501933
 30
0.0
 11
34.45150620663446
 21
11.39556922560393
 31
0.0
  0
LINE
  5
D69
330
CE3
100
AcDbEntity
  8
0
 62
     0
100
AcDbLine
 10
32.64221213871099
 20
12.30683768142046
 30
0.0
 11
29.84221213871092
 21
15.10683768142047
 31
0.0
  0
LINE
  5
D6A
330
CE3
100
AcDbEntity
  8
0
 62
     0
100
AcDbLine
 10
24.55396148899996
 20
20.39508833113149
 30
0.0
 11
22.48957026435698
 21
22.45947955577446
 31
0.0
  0
LINE
  5
D6B
330
CE3
100
AcDbEntity
  8
0
 62
     0
100
AcDbLine
 10
37.79904937943666
 20
7.150000440694782
 30
0.0
 11
34.8659795660684
 21
10.08307025406304
 31
0.0
  0
LINE
  5
D6C
330
CE3
100
AcDbEntity
  8
0
 62
     0
100
AcDbLine
 10
32.64221213871099
 20
11.40881206931351
 30
0.0
 11
29.84221213871092
 21
14.20881206931358
 31
0.0
  0
LINE
  5
D6D
330
CE3
100
AcDbEntity
  8
0
 62
     0
100
AcDbLine
 10
23.98210529616096
 20
20.06891891186353
 30
0.0
 11
22.0019150557452
 21
22.0491091522793
 31
0.0
  0
LINE
  5
D6E
330
CE3
100
AcDbEntity
  8
0
 62
     0
100
AcDbLine
 10
36.90102376732971
 20
7.150000440694782
 30
0.0
 11
35.28045292550245
 21
8.770571282522041
 31
0.0
  0
LINE
  5
D6F
330
CE3
100
AcDbEntity
  8
0
 62
     0
100
AcDbLine
 10
27.72764127150873
 20
15.42535732440893
 30
0.0
 11
26.21756902242498
 21
16.93542957349268
 31
0.0
  0
LINE
  5
D70
330
CE3
100
AcDbEntity
  8
0
 62
     0
100
AcDbLine
 10
32.6422121387111
 20
10.51078645720656
 30
0.0
 11
29.84221213871098
 21
13.31078645720668
 31
0.0
  0
LINE
  5
D71
330
CE3
100
AcDbEntity
  8
0
 62
     0
100
AcDbLine
 10
23.62598372603201
 20
19.52701486988564
 30
0.0
 11
21.58254902973396
 21
21.57044956618369
 31
0.0
  0
LINE
  5
D72
330
CE3
100
AcDbEntity
  8
0
 62
     0
100
AcDbLine
 10
35.95266515101821
 20
7.200333444899456
 30
0.0
 11
35.7023109794269
 21
7.450687616490768
 31
0.0
  0
LINE
  5
D73
330
CE3
100
AcDbEntity
  8
0
 62
     0
100
AcDbLine
 10
27.64112761136681
 20
14.6138453724439
 30
0.0
 11
25.40605707045995
 21
16.84891591335076
 31
0.0
  0
LINE
  5
D74
330
CE3
100
AcDbEntity
  8
0
 62
     0
100
AcDbLine
 10
23.54221213871107
 20
18.71276084509963
 30
0.0
 11
21.2336100087723
 21
21.02136297503841
 31
0.0
  0
LINE
  5
D75
330
CE3
100
AcDbEntity
  8
0
 62
     0
100
AcDbLine
 10
32.64221213871104
 20
9.612760845099614
 30
0.0
 11
29.84221213871092
 21
12.41276084509979
 31
0.0
  0
LINE
  5
D76
330
CE3
100
AcDbEntity
  8
0
 62
     0
100
AcDbLine
 10
27.30927205206876
 20
14.04767531963494
 30
0.0
 11
24.83988701765099
 21
16.51706035405271
 31
0.0
  0
LINE
  5
D77
330
CE3
100
AcDbEntity
  8
0
 62
     0
100
AcDbLine
 10
23.54221213871107
 20
17.81473523299268
 30
0.0
 11
20.96303030156212
 21
20.39391707014164
 31
0.0
  0
LINE
  5
D78
330
CE3
100
AcDbEntity
  8
0
 62
     0
100
AcDbLine
 10
32.64221213871104
 20
8.714735232992723
 30
0.0
 11
29.84221213871098
 21
11.51473523299279
 31
0.0
  0
LINE
  5
D79
330
CE3
100
AcDbEntity
  8
0
 62
     0
100
AcDbLine
 10
23.54221213871107
 20
16.91670962088579
 30
0.0
 11
20.78831642863627
 21
19.67060533096065
 31
0.0
  0
LINE
  5
D7A
330
CE3
100
AcDbEntity
  8
0
 62
     0
100
AcDbLine
 10
26.80743860993231
 20
13.65148314966461
 30
0.0
 11
24.44369484768066
 21
16.01522691191627
 31
0.0
  0
LINE
  5
D7B
330
CE3
100
AcDbEntity
  8
0
 62
     0
100
AcDbLine
 10
18.11721213871101
 20
22.34170962088592
 30
0.0
 11
17.20892131890201
 21
23.25000044069491
 31
0.0
  0
LINE
  5
D7C
330
CE3
100
AcDbEntity
  8
0
 62
     0
100
AcDbLine
 10
32.6422121387111
 20
7.816709620885831
 30
0.0
 11
29.84221213871103
 21
10.6167096208859
 31
0.0
  0
LINE
  5
D7D
330
CE3
100
AcDbEntity
  8
0
 62
     0
100
AcDbLine
 10
23.54221213871107
 20
16.0186840087789
 30
0.0
 11
20.74221213871101
 21
18.81868400877897
 31
0.0
  0
LINE
  5
D7E
330
CE3
100
AcDbEntity
  8
0
 62
     0
100
AcDbLine
 10
26.10711916750489
 20
13.45377697998509
 30
0.0
 11
24.24598867800114
 21
15.31490746948884
 31
0.0
  0
LINE
  5
D7F
330
CE3
100
AcDbEntity
  8
0
 62
     0
100
AcDbLine
 10
18.11721213871095
 20
21.44368400877897
 30
0.0
 11
16.31089570679506
 21
23.25000044069486
 31
0.0
  0
LINE
  5
D80
330
CE3
100
AcDbEntity
  8
0
 62
     0
100
AcDbLine
 10
32.35430833744038
 20
7.206587810049597
 30
0.0
 11
29.84221213871098
 21
9.71868400877895
 31
0.0
  0
LINE
  5
D81
330
CE3
100
AcDbEntity
  8
0
 62
     0
100
AcDbLine
 10
23.54221213871107
 20
15.12065839667195
 30
0.0
 11
20.74221213871101
 21
17.92065839667202
 31
0.0
  0
LINE
  5
D82
330
CE3
100
AcDbEntity
  8
0
 62
     0
100
AcDbLine
 10
18.00817816844062
 20
20.65469236694241
 30
0.0
 11
15.41287009468805
 21
23.25000044069491
 31
0.0
  0
LINE
  5
D83
330
CE3
100
AcDbEntity
  8
0
 62
     0
100
AcDbLine
 10
31.51287009468819
 20
7.150000440694839
 30
0.0
 11
29.84221213871098
 21
8.820658396672058
 31
0.0
  0
LINE
  5
D84
330
CE3
100
AcDbEntity
  8
0
 62
     0
100
AcDbLine
 10
23.54221213871102
 20
14.22263278456506
 30
0.0
 11
20.74221213871095
 21
17.02263278456507
 31
0.0
  0
LINE
  5
D85
330
CE3
100
AcDbEntity
  8
0
 62
     0
100
AcDbLine
 10
17.31484448258129
 20
20.45000044069479
 30
0.0
 11
14.51484448258116
 21
23.25000044069491
 31
0.0
  0
LINE
  5
D86
330
CE3
100
AcDbEntity
  8
0
 62
     0
100
AcDbLine
 10
30.61484448258124
 20
7.150000440694782
 30
0.0
 11
29.84221213871098
 21
7.922632784565109
 31
0.0
  0
LINE
  5
D87
330
CE3
100
AcDbEntity
  8
0
 62
     0
100
AcDbLine
 10
23.54221213871107
 20
13.32460717245817
 30
0.0
 11
20.74221213871101
 21
16.12460717245824
 31
0.0
  0
LINE
  5
D88
330
CE3
100
AcDbEntity
  8
0
 62
     0
100
AcDbLine
 10
16.4168188704744
 20
20.45000044069479
 30
0.0
 11
13.6516895983695
 21
23.21512971279975
 31
0.0
  0
LINE
  5
D89
330
CE3
100
AcDbEntity
  8
0
 62
     0
100
AcDbLine
 10
27.38960968987408
 20
9.477209621295116
 30
0.0
 11
26.91942131931137
 21
9.947397991857883
 31
0.0
  0
LINE
  5
D8A
330
CE3
100
AcDbEntity
  8
0
 62
     0
100
AcDbLine
 10
23.54221213871102
 20
12.42658156035122
 30
0.0
 11
20.74221213871101
 21
15.22658156035129
 31
0.0
  0
LINE
  5
D8B
330
CE3
100
AcDbEntity
  8
0
 62
     0
100
AcDbLine
 10
15.5187932583675
 20
20.45000044069479
 30
0.0
 11
12.95855478989102
 21
23.01023890917127
 31
0.0
  0
LINE
  5
D8C
330
CE3
100
AcDbEntity
  8
0
 62
     0
100
AcDbLine
 10
27.3922121387111
 20
8.576581560351201
 30
0.0
 11
26.01879325836745
 21
9.95000044069485
 31
0.0
  0
LINE
  5
D8D
330
CE3
100
AcDbEntity
  8
0
 62
     0
100
AcDbLine
 10
23.54221213871102
 20
11.52855594824433
 30
0.0
 11
20.74221213871106
 21
14.32855594824428
 31
0.0
  0
LINE
  5
D8E
330
CE3
100
AcDbEntity
  8
0
 62
     0
100
AcDbLine
 10
14.62076764626056
 20
20.45000044069473
 30
0.0
 11
12.39430813004378
 21
22.67645995691151
 31
0.0
  0
LINE
  5
D8F
330
CE3
100
AcDbEntity
  8
0
 62
     0
100
AcDbLine
 10
27.39221213871104
 20
7.678555948244252
 30
0.0
 11
25.12076764626056
 21
9.950000440694736
 31
0.0
  0
LINE
  5
D90
330
CE3
100
AcDbEntity
  8
0
 62
     0
100
AcDbLine
 10
14.11047481864597
 20
20.06226765620255
 30
0.0
 11
11.93621531780303
 21
22.23652715704548
 31
0.0
  0
LINE
  5
D91
330
CE3
100
AcDbEntity
  8
0
 62
     0
100
AcDbLine
 10
27.00447935421868
 20
7.168263120629831
 30
0.0
 11
20.74221213871106
 21
13.43053033613745
 31
0.0
  0
LINE
  5
D92
330
CE3
100
AcDbEntity
  8
0
 62
     0
100
AcDbLine
 10
14.09221213871103
 20
19.18250472403053
 30
0.0
 11
11.58273411533395
 21
21.69198274740762
 31
0.0
  0
LINE
  5
D93
330
CE3
100
AcDbEntity
  8
0
 62
     0
100
AcDbLine
 10
26.12471642204678
 20
7.150000440694782
 30
0.0
 11
20.74221213871106
 21
12.5325047240305
 31
0.0
  0
LINE
  5
D94
330
CE3
100
AcDbEntity
  8
0
 62
     0
100
AcDbLine
 10
14.15434784684646
 20
18.2223434037881
 30
0.0
 11
11.35185401304022
 21
21.02483723759439
 31
0.0
  0
LINE
  5
D95
330
CE3
100
AcDbEntity
  8
0
 62
     0
100
AcDbLine
 10
25.22669080993978
 20
7.150000440694839
 30
0.0
 11
20.74221213871101
 21
11.63447911192355
 31
0.0
  0
LINE
  5
D96
330
CE3
100
AcDbEntity
  8
0
 62
     0
100
AcDbLine
 10
18.44658822993369
 20
13.03207740859403
 30
0.0
 11
11.29221213871107
 21
20.18645349981665
 31
0.0
  0
LINE
  5
D97
330
CE3
100
AcDbEntity
  8
0
 62
     0
100
AcDbLine
 10
24.27539311077623
 20
7.203272527751494
 30
0.0
 11
20.79548422576766
 21
10.68318141276006
 31
0.0
  0
LINE
  5
D98
330
CE3
100
AcDbEntity
  8
0
 62
     0
100
AcDbLine
 10
18.63848274401891
 20
11.94215728240192
 30
0.0
 11
11.29221213871096
 21
19.28842788770987
 31
0.0
  0
LINE
  5
D99
330
CE3
100
AcDbEntity
  8
0
 62
     0
100
AcDbLine
 10
22.90158519817464
 20
7.679054828246137
 30
0.0
 11
21.27126652626225
 21
9.309373500158585
 31
0.0
  0
LINE
  5
D9A
330
CE3
100
AcDbEntity
  8
0
 62
     0
100
AcDbLine
 10
18.64221213871104
 20
11.04040227560284
 30
0.0
 11
11.29977658613336
 21
18.38283782818047
 31
0.0
  0
LINE
  5
D9B
330
CE3
100
AcDbEntity
  8
0
 62
     0
100
AcDbLine
 10
18.64221213871099
 20
10.14237666349595
 30
0.0
 11
11.52306734445721
 21
17.26152145774966
 31
0.0
  0
LINE
  5
D9C
330
CE3
100
AcDbEntity
  8
0
 62
     0
100
AcDbLine
 10
18.56969214257907
 20
9.316871047521033
 30
0.0
 11
15.80630049896001
 21
12.08026269114009
 31
0.0
  0
LINE
  5
D9D
330
CE3
100
AcDbEntity
  8
0
 62
     0
100
AcDbLine
 10
18.32775420355022
 20
8.660783374442928
 30
0.0
 11
15.84221213871097
 21
11.14632543928218
 31
0.0
  0
LINE
  5
D9E
330
CE3
100
AcDbEntity
  8
0
 62
     0
100
AcDbLine
 10
17.96563495616845
 20
8.124877009717749
 30
0.0
 11
15.8063131064103
 21
10.2841988594759
 31
0.0
  0
LINE
  5
D9F
330
CE3
100
AcDbEntity
  8
0
 62
     0
100
AcDbLine
 10
17.49940858390158
 20
7.693077769877731
 30
0.0
 11
15.24248591308446
 21
9.950000440694907
 31
0.0
  0
LINE
  5
DA0
330
CE3
100
AcDbEntity
  8
0
 62
     0
100
AcDbLine
 10
16.92614413616877
 20
7.36831660550365
 30
0.0
 11
14.34446030097751
 21
9.95000044069485
 31
0.0
  0
LINE
  5
DA1
330
CE3
100
AcDbEntity
  8
0
 62
     0
100
AcDbLine
 10
16.22073154708283
 20
7.17570358248264
 30
0.0
 11
13.44643468887062
 21
9.95000044069485
 31
0.0
  0
LINE
  5
DA2
330
CE3
100
AcDbEntity
  8
0
 62
     0
100
AcDbLine
 10
15.34840907676368
 20
7.150000440694839
 30
0.0
 11
12.54840907676367
 21
9.95000044069485
 31
0.0
  0
LINE
  5
DA3
330
CE3
100
AcDbEntity
  8
0
 62
     0
100
AcDbLine
 10
14.45038346465685
 20
7.150000440694782
 30
0.0
 11
11.89705956983897
 21
9.703324335512718
 31
0.0
  0
LINE
  5
DA4
330
CE3
100
AcDbEntity
  8
0
 62
     0
100
AcDbLine
 10
13.55235785254984
 20
7.150000440694839
 30
0.0
 11
11.81721213871105
 21
8.885146154533629
 31
0.0
  0
LINE
  5
DA5
330
CE3
100
AcDbEntity
  8
0
 62
     0
100
AcDbLine
 10
12.65433224044301
 20
7.150000440694782
 30
0.0
 11
11.81721213871105
 21
7.987120542426737
 31
0.0
  0
LINE
  5
DA6
330
CE3
100
AcDbEntity
  8
0
 62
     0
100
AcDbLine
 10
68.63389942337795
 20
7.163132217812346
 30
0.0
 11
69.02908036159374
 21
7.558313156028134
 31
0.0
  0
LINE
  5
DA7
330
CE3
100
AcDbEntity
  8
0
 62
     0
100
AcDbLine
 10
67.72274203415361
 20
7.150000440694782
 30
0.0
 11
69.04221213871119
 21
8.46947054525242
 31
0.0
  0
LINE
  5
DA8
330
CE3
100
AcDbEntity
  8
0
 62
     0
100
AcDbLine
 10
66.82471642204666
 20
7.150000440694839
 30
0.0
 11
69.04221213871119
 21
9.367496157359312
 31
0.0
  0
LINE
  5
DA9
330
CE3
100
AcDbEntity
  8
0
 62
     0
100
AcDbLine
 10
66.27340970196286
 20
7.49671933271793
 30
0.0
 11
69.04221213871114
 21
10.26552176946626
 31
0.0
  0
LINE
  5
DAA
330
CE3
100
AcDbEntity
  8
0
 62
     0
100
AcDbLine
 10
66.24221213871106
 20
8.363547381573084
 30
0.0
 11
69.04221213871114
 21
11.16354738157309
 31
0.0
  0
LINE
  5
DAB
330
CE3
100
AcDbEntity
  8
0
 62
     0
100
AcDbLine
 10
66.24221213871113
 20
9.261572993679976
 30
0.0
 11
69.04221213871114
 21
12.06157299368004
 31
0.0
  0
LINE
  5
DAC
330
CE3
100
AcDbEntity
  8
0
 62
     0
100
AcDbLine
 10
66.24221213871106
 20
10.15959860578692
 30
0.0
 11
69.04221213871114
 21
12.95959860578699
 31
0.0
  0
LINE
  5
DAD
330
CE3
100
AcDbEntity
  8
0
 62
     0
100
AcDbLine
 10
66.24221213871106
 20
11.05762421789381
 30
0.0
 11
69.04221213871114
 21
13.85762421789388
 31
0.0
  0
LINE
  5
DAE
330
CE3
100
AcDbEntity
  8
0
 62
     0
100
AcDbLine
 10
62.66877700077635
 20
7.484189079959094
 30
0.0
 11
63.80802349944691
 21
8.62343557862971
 31
0.0
  0
LINE
  5
DAF
330
CE3
100
AcDbEntity
  8
0
 62
     0
100
AcDbLine
 10
66.24221213871106
 20
11.9556498300007
 30
0.0
 11
69.04221213871114
 21
14.75564983000077
 31
0.0
  0
LINE
  5
DB0
330
CE3
100
AcDbEntity
  8
0
 62
     0
100
AcDbLine
 10
61.43820883425354
 20
7.151646525543185
 30
0.0
 11
64.14056605386287
 21
9.854003745152454
 31
0.0
  0
LINE
  5
DB1
330
CE3
100
AcDbEntity
  8
0
 62
     0
100
AcDbLine
 10
66.24221213871106
 20
12.85367544210765
 30
0.0
 11
69.04221213871114
 21
15.65367544210767
 31
0.0
  0
LINE
  5
DB2
330
CE3
100
AcDbEntity
  8
0
 62
     0
100
AcDbLine
 10
60.5385371372983
 20
7.150000440694896
 30
0.0
 11
64.14221213871115
 21
10.75367544210769
 31
0.0
  0
LINE
  5
DB3
330
CE3
100
AcDbEntity
  8
0
 62
     0
100
AcDbLine
 10
66.24221213871106
 20
13.75170105421455
 30
0.0
 11
69.04221213871108
 21
16.55170105421461
 31
0.0
  0
LINE
  5
DB4
330
CE3
100
AcDbEntity
  8
0
 62
     0
100
AcDbLine
 10
59.64051152519136
 20
7.150000440694896
 30
0.0
 11
64.1422121387111
 21
11.65170105421464
 31
0.0
  0
LINE
  5
DB5
330
CE3
100
AcDbEntity
  8
0
 62
     0
100
AcDbLine
 10
66.24221213871106
 20
14.64972666632144
 30
0.0
 11
69.04221213871114
 21
17.44972666632151
 31
0.0
  0
LINE
  5
DB6
330
CE3
100
AcDbEntity
  8
0
 62
     0
100
AcDbLine
 10
58.74248591308441
 20
7.150000440694782
 30
0.0
 11
64.14221213871115
 21
12.54972666632153
 31
0.0
  0
LINE
  5
DB7
330
CE3
100
AcDbEntity
  8
0
 62
     0
100
AcDbLine
 10
61.23762093663003
 20
10.54316107634736
 30
0.0
 11
64.14221213871115
 21
13.44775227842842
 31
0.0
  0
LINE
  5
DB8
330
CE3
100
AcDbEntity
  8
0
 62
     0
100
AcDbLine
 10
66.24221213871106
 20
15.54775227842833
 30
0.0
 11
69.04221213871114
 21
18.3477522784284
 31
0.0
  0
LINE
  5
DB9
330
CE3
100
AcDbEntity
  8
0
 62
     0
100
AcDbLine
 10
57.84446030097758
 20
7.150000440694896
 30
0.0
 11
60.74905150305852
 21
10.05459164277578
 31
0.0
  0
LINE
  5
DBA
330
CE3
100
AcDbEntity
  8
0
 62
     0
100
AcDbLine
 10
61.34221213871097
 20
11.54577789053524
 30
0.0
 11
64.1422121387111
 21
14.34577789053537
 31
0.0
  0
LINE
  5
DBB
330
CE3
100
AcDbEntity
  8
0
 62
     0
100
AcDbLine
 10
66.24221213871101
 20
16.44577789053528
 30
0.0
 11
69.04221213871108
 21
19.24577789053535
 31
0.0
  0
LINE
  5
DBC
330
CE3
100
AcDbEntity
  8
0
 62
     0
100
AcDbLine
 10
57.05838444024772
 20
7.261950192071935
 30
0.0
 11
59.74643468887063
 21
9.950000440694907
 31
0.0
  0
LINE
  5
DBD
330
CE3
100
AcDbEntity
  8
0
 62
     0
100
AcDbLine
 10
61.34221213871097
 20
12.44380350264214
 30
0.0
 11
64.1422121387111
 21
15.24380350264226
 31
0.0
  0
LINE
  5
DBE
330
CE3
100
AcDbEntity
  8
0
 62
     0
100
AcDbLine
 10
66.24221213871101
 20
17.34380350264223
 30
0.0
 11
69.04221213871108
 21
20.14380350264224
 31
0.0
  0
LINE
  5
DBF
330
CE3
100
AcDbEntity
  8
0
 62
     0
100
AcDbLine
 10
56.43039757303757
 20
7.531988936968787
 30
0.0
 11
58.84928686240801
 21
9.950878226339227
 31
0.0
  0
LINE
  5
DC0
330
CE3
100
AcDbEntity
  8
0
 62
     0
100
AcDbLine
 10
61.34221213871109
 20
13.34182911474909
 30
0.0
 11
64.1422121387111
 21
16.14182911474915
 31
0.0
  0
LINE
  5
DC1
330
CE3
100
AcDbEntity
  8
0
 62
     0
100
AcDbLine
 10
66.24221213871106
 20
18.24182911474906
 30
0.0
 11
69.04221213871108
 21
21.04182911474913
 31
0.0
  0
LINE
  5
DC2
330
CE3
100
AcDbEntity
  8
0
 62
     0
100
AcDbLine
 10
55.91713769167251
 20
7.916754667710506
 30
0.0
 11
58.20580827369531
 21
10.20542524973336
 31
0.0
  0
LINE
  5
DC3
330
CE3
100
AcDbEntity
  8
0
 62
     0
100
AcDbLine
 10
61.34221213871104
 20
14.23985472685603
 30
0.0
 11
64.1422121387111
 21
17.0398547268561
 31
0.0
  0
LINE
  5
DC4
330
CE3
100
AcDbEntity
  8
0
 62
     0
100
AcDbLine
 10
66.24221213871101
 20
19.13985472685601
 30
0.0
 11
69.04221213871108
 21
21.93985472685608
 31
0.0
  0
LINE
  5
DC5
330
CE3
100
AcDbEntity
  8
0
 62
     0
100
AcDbLine
 10
55.50717351644738
 20
8.404816104592327
 30
0.0
 11
57.86856999528589
 21
10.7662125834309
 31
0.0
  0
LINE
  5
DC6
330
CE3
100
AcDbEntity
  8
0
 62
     0
100
AcDbLine
 10
61.34221213871104
 20
15.13788033896292
 30
0.0
 11
64.14221213871115
 21
17.93788033896311
 31
0.0
  0
LINE
  5
DC7
330
CE3
100
AcDbEntity
  8
0
 62
     0
100
AcDbLine
 10
66.24221213871101
 20
20.0378803389629
 30
0.0
 11
69.03206298516062
 21
22.82773118541257
 31
0.0
  0
LINE
  5
DC8
330
CE3
100
AcDbEntity
  8
0
 62
     0
100
AcDbLine
 10
55.20724863801337
 20
9.002916838265321
 30
0.0
 11
57.84221213871098
 21
11.63788033896292
 31
0.0
  0
LINE
  5
DC9
330
CE3
100
AcDbEntity
  8
0
 62
     0
100
AcDbLine
 10
61.34221213871104
 20
16.03590595106982
 30
0.0
 11
64.14221213871122
 21
18.83590595106994
 31
0.0
  0
LINE
  5
DCA
330
CE3
100
AcDbEntity
  8
0
 62
     0
100
AcDbLine
 10
66.24221213871101
 20
20.93590595106979
 30
0.0
 11
68.55494864008114
 21
23.24864245243992
 31
0.0
  0
LINE
  5
DCB
330
CE3
100
AcDbEntity
  8
0
 62
     0
100
AcDbLine
 10
55.04983510305692
 20
9.743528915415708
 30
0.0
 11
57.84221213871103
 21
12.53590595106982
 31
0.0
  0
LINE
  5
DCC
330
CE3
100
AcDbEntity
  8
0
 62
     0
100
AcDbLine
 10
61.34221213871104
 20
16.93393156317677
 30
0.0
 11
64.14221213871115
 21
19.73393156317689
 31
0.0
  0
LINE
  5
DCD
330
CE3
100
AcDbEntity
  8
0
 62
     0
100
AcDbLine
 10
66.24221213871106
 20
21.8339315631768
 30
0.0
 11
67.65828101622907
 21
23.2500004406948
 31
0.0
  0
LINE
  5
DCE
330
CE3
100
AcDbEntity
  8
0
 62
     0
100
AcDbLine
 10
55.04221213871113
 20
10.63393156317681
 30
0.0
 11
57.84221213871109
 21
13.43393156317682
 31
0.0
  0
LINE
  5
DCF
330
CE3
100
AcDbEntity
  8
0
 62
     0
100
AcDbLine
 10
61.34221213871104
 20
17.83195717528366
 30
0.0
 11
64.14221213871115
 21
20.63195717528378
 31
0.0
  0
LINE
  5
DD0
330
CE3
100
AcDbEntity
  8
0
 62
     0
100
AcDbLine
 10
55.04221213871108
 20
11.53195717528376
 30
0.0
 11
57.84221213871103
 21
14.33195717528372
 31
0.0
  0
LINE
  5
DD1
330
CE3
100
AcDbEntity
  8
0
 62
     0
100
AcDbLine
 10
66.2422588534585
 20
22.73200389003119
 30
0.0
 11
66.76020868937479
 21
23.24995372594742
 31
0.0
  0
LINE
  5
DD2
330
CE3
100
AcDbEntity
  8
0
 62
     0
100
AcDbLine
 10
50.72065650799908
 20
7.210401544571709
 30
0.0
 11
52.88181103483424
 21
9.371556071406928
 31
0.0
  0
LINE
  5
DD3
330
CE3
100
AcDbEntity
  8
0
 62
     0
100
AcDbLine
 10
55.04221213871108
 20
12.42998278739065
 30
0.0
 11
57.84221213871103
 21
15.22998278739066
 31
0.0
  0
LINE
  5
DD4
330
CE3
100
AcDbEntity
  8
0
 62
     0
100
AcDbLine
 10
61.34221213871109
 20
18.72998278739066
 30
0.0
 11
64.1422121387111
 21
21.52998278739073
 31
0.0
  0
LINE
  5
DD5
330
CE3
100
AcDbEntity
  8
0
 62
     0
100
AcDbLine
 10
49.76222979201526
 20
7.150000440694896
 30
0.0
 11
52.942212138711
 21
10.32998278739057
 31
0.0
  0
LINE
  5
DD6
330
CE3
100
AcDbEntity
  8
0
 62
     0
100
AcDbLine
 10
55.04221213871108
 20
13.32800839949754
 30
0.0
 11
57.84221213871109
 21
16.1280083994975
 31
0.0
  0
LINE
  5
DD7
330
CE3
100
AcDbEntity
  8
0
 62
     0
100
AcDbLine
 10
61.34221213871109
 20
19.62800839949755
 30
0.0
 11
64.14221213871115
 21
22.42800839949762
 31
0.0
  0
LINE
  5
DD8
330
CE3
100
AcDbEntity
  8
0
 62
     0
100
AcDbLine
 10
48.86420417990831
 20
7.150000440694782
 30
0.0
 11
52.94221213871111
 21
11.22800839949752
 31
0.0
  0
LINE
  5
DD9
330
CE3
100
AcDbEntity
  8
0
 62
     0
100
AcDbLine
 10
55.04221213871108
 20
14.22603401160449
 30
0.0
 11
57.84221213871103
 21
17.02603401160445
 31
0.0
  0
LINE
  5
DDA
330
CE3
100
AcDbEntity
  8
0
 62
     0
100
AcDbLine
 10
61.34221213871109
 20
20.52603401160445
 30
0.0
 11
63.94847468387701
 21
23.13229655677042
 31
0.0
  0
LINE
  5
DDB
330
CE3
100
AcDbEntity
  8
0
 62
     0
100
AcDbLine
 10
47.96617856780142
 20
7.150000440694839
 30
0.0
 11
52.92789353829812
 21
12.11171541119154
 31
0.0
  0
LINE
  5
DDC
330
CE3
100
AcDbEntity
  8
0
 62
     0
100
AcDbLine
 10
55.04221213871108
 20
15.12405962371139
 30
0.0
 11
57.84221213871103
 21
17.9240596237114
 31
0.0
  0
LINE
  5
DDD
330
CE3
100
AcDbEntity
  8
0
 62
     0
100
AcDbLine
 10
61.34221213871104
 20
21.4240596237114
 30
0.0
 11
63.16815295569449
 21
23.25000044069486
 31
0.0
  0
LINE
  5
DDE
330
CE3
100
AcDbEntity
  8
0
 62
     0
100
AcDbLine
 10
47.06815295569447
 20
7.150000440694839
 30
0.0
 11
52.79298116766938
 21
12.87482865266969
 31
0.0
  0
LINE
  5
DDF
330
CE3
100
AcDbEntity
  8
0
 62
     0
100
AcDbLine
 10
55.04221213871108
 20
16.02208523581828
 30
0.0
 11
57.84221213871103
 21
18.82208523581823
 31
0.0
  0
LINE
  5
DE0
330
CE3
100
AcDbEntity
  8
0
 62
     0
100
AcDbLine
 10
50.1422121387111
 20
11.1220852358183
 30
0.0
 11
52.55239371075083
 21
13.53226680785797
 31
0.0
  0
LINE
  5
DE1
330
CE3
100
AcDbEntity
  8
0
 62
     0
100
AcDbLine
 10
61.34221213871109
 20
22.32208523581829
 30
0.0
 11
62.27012734358772
 21
23.25000044069491
 31
0.0
  0
LINE
  5
DE2
330
CE3
100
AcDbEntity
  8
0
 62
     0
100
AcDbLine
 10
46.2983826967187
 20
7.278255793825906
 30
0.0
 11
48.97012734358759
 21
9.950000440694793
 31
0.0
  0
LINE
  5
DE3
330
CE3
100
AcDbEntity
  8
0
 62
     0
100
AcDbLine
 10
50.1223415635838
 20
12.00024027279789
 30
0.0
 11
52.22889440589028
 21
14.10679311510438
 31
0.0
  0
LINE
  5
DE4
330
CE3
100
AcDbEntity
  8
0
 62
     0
100
AcDbLine
 10
55.04221213871108
 20
16.92011084792517
 30
0.0
 11
57.84221213871109
 21
19.72011084792524
 31
0.0
  0
LINE
  5
DE5
330
CE3
100
AcDbEntity
  8
0
 62
     0
100
AcDbLine
 10
46.11721213871101
 20
7.995110847925161
 30
0.0
 11
48.07210173148064
 21
9.950000440694793
 31
0.0
  0
LINE
  5
DE6
330
CE3
100
AcDbEntity
  8
0
 62
     0
100
AcDbLine
 10
49.84795672644492
 20
12.62388104776602
 30
0.0
 11
51.83302328796248
 21
14.60894760928357
 31
0.0
  0
LINE
  5
DE7
330
CE3
100
AcDbEntity
  8
0
 62
     0
100
AcDbLine
 10
55.04221213871102
 20
17.81813646003212
 30
0.0
 11
57.84221213871109
 21
20.61813646003219
 31
0.0
  0
LINE
  5
DE8
330
CE3
100
AcDbEntity
  8
0
 62
     0
100
AcDbLine
 10
46.11721213871101
 20
8.893136460032053
 30
0.0
 11
47.17407611937375
 21
9.95000044069485
 31
0.0
  0
LINE
  5
DE9
330
CE3
100
AcDbEntity
  8
0
 62
     0
100
AcDbLine
 10
55.04221213871108
 20
18.71616207213901
 30
0.0
 11
57.84221213871115
 21
21.51616207213902
 31
0.0
  0
LINE
  5
DEA
330
CE3
100
AcDbEntity
  8
0
 62
     0
100
AcDbLine
 10
49.40668182932785
 20
13.08063176275573
 30
0.0
 11
51.38658081665022
 21
15.06053075007815
 31
0.0
  0
LINE
  5
DEB
330
CE3
100
AcDbEntity
  8
0
 62
     0
100
AcDbLine
 10
48.95766902327437
 20
13.5296445688092
 30
0.0
 11
50.93756801059669
 21
15.50954355613152
 31
0.0
  0
LINE
  5
DEC
330
CE3
100
AcDbEntity
  8
0
 62
     0
100
AcDbLine
 10
55.04221213871102
 20
19.6141876842459
 30
0.0
 11
57.84221213871109
 21
22.41418768424597
 31
0.0
  0
LINE
  5
DED
330
CE3
100
AcDbEntity
  8
0
 62
     0
100
AcDbLine
 10
42.57802489515995
 20
7.150000440694839
 30
0.0
 11
43.49221213871106
 21
8.064187684245894
 31
0.0
  0
LINE
  5
DEE
330
CE3
100
AcDbEntity
  8
0
 62
     0
100
AcDbLine
 10
48.50865621722096
 20
13.97865737486279
 30
0.0
 11
50.48855520454321
 21
15.95855636218499
 31
0.0
  0
LINE
  5
DEF
330
CE3
100
AcDbEntity
  8
0
 62
     0
100
AcDbLine
 10
55.04221213871102
 20
20.51221329635285
 30
0.0
 11
57.65603123061243
 21
23.1260323882542
 31
0.0
  0
LINE
  5
DF0
330
CE3
100
AcDbEntity
  8
0
 62
     0
100
AcDbLine
 10
41.67999928305294
 20
7.150000440694782
 30
0.0
 11
43.49221213871112
 21
8.962213296352899
 31
0.0
  0
LINE
  5
DF1
330
CE3
100
AcDbEntity
  8
0
 62
     0
100
AcDbLine
 10
48.05964341116743
 20
14.42767018091615
 30
0.0
 11
50.03954239848974
 21
16.40756916823846
 31
0.0
  0
LINE
  5
DF2
330
CE3
100
AcDbEntity
  8
0
 62
     0
100
AcDbLine
 10
55.04221213871102
 20
21.41023890845974
 30
0.0
 11
56.88197367094613
 21
23.25000044069491
 31
0.0
  0
LINE
  5
DF3
330
CE3
100
AcDbEntity
  8
0
 62
     0
100
AcDbLine
 10
40.89358480880804
 20
7.261611578556767
 30
0.0
 11
43.49221213871106
 21
9.860238908459848
 31
0.0
  0
LINE
  5
DF4
330
CE3
100
AcDbEntity
  8
0
 62
     0
100
AcDbLine
 10
47.61063060511401
 20
14.87668298696957
 30
0.0
 11
49.59052959243632
 21
16.85658197429188
 31
0.0
  0
LINE
  5
DF5
330
CE3
100
AcDbEntity
  8
0
 62
     0
100
AcDbLine
 10
55.04221213871102
 20
22.30826452056664
 30
0.0
 11
55.98394805883931
 21
23.25000044069486
 31
0.0
  0
LINE
  5
DF6
330
CE3
100
AcDbEntity
  8
0
 62
     0
100
AcDbLine
 10
40.69221213871111
 20
7.958264520566729
 30
0.0
 11
43.49221213871112
 21
10.75826452056668
 31
0.0
  0
LINE
  5
DF7
330
CE3
100
AcDbEntity
  8
0
 62
     0
100
AcDbLine
 10
47.16161779906054
 20
15.32569579302304
 30
0.0
 11
49.14151678638285
 21
17.30559478034535
 31
0.0
  0
LINE
  5
DF8
330
CE3
100
AcDbEntity
  8
0
 62
     0
100
AcDbLine
 10
40.69221213871111
 20
8.856290132673677
 30
0.0
 11
43.49221213871106
 21
11.65629013267363
 31
0.0
  0
LINE
  5
DF9
330
CE3
100
AcDbEntity
  8
0
 62
     0
100
AcDbLine
 10
46.7146338980192
 20
15.77673750408871
 30
0.0
 11
48.69860743140122
 21
17.76071103747068
 31
0.0
  0
LINE
  5
DFA
330
CE3
100
AcDbEntity
  8
0
 62
     0
100
AcDbLine
 10
40.69221213871111
 20
9.754315744780569
 30
0.0
 11
43.49221213871106
 21
12.55431574478058
 31
0.0
  0
LINE
  5
DFB
330
CE3
100
AcDbEntity
  8
0
 62
     0
100
AcDbLine
 10
51.38789683462539
 20
20.45000044069485
 30
0.0
 11
52.41721213871113
 21
21.47931574478059
 31
0.0
  0
LINE
  5
DFC
330
CE3
100
AcDbEntity
  8
0
 62
     0
100
AcDbLine
 10
38.19955591400088
 20
7.261659520070338
 30
0.0
 11
38.2892082754559
 21
7.351311881525418
 31
0.0
  0
LINE
  5
DFD
330
CE3
100
AcDbEntity
  8
0
 62
     0
100
AcDbLine
 10
46.31663171919723
 20
16.27676093737358
 30
0.0
 11
48.41626599661584
 21
18.37639521479218
 31
0.0
  0
LINE
  5
DFE
330
CE3
100
AcDbEntity
  8
0
 62
     0
100
AcDbLine
 10
40.69221213871111
 20
10.65234135688746
 30
0.0
 11
43.49221213871112
 21
13.45234135688741
 31
0.0
  0
LINE
  5
DFF
330
CE3
100
AcDbEntity
  8
0
 62
     0
100
AcDbLine
 10
50.4898712225185
 20
20.45000044069485
 30
0.0
 11
52.41721213871113
 21
22.37734135688748
 31
0.0
  0
LINE
  5
E00
330
CE3
100
AcDbEntity
  8
0
 62
     0
100
AcDbLine
 10
37.18987122251843
 20
7.150000440694782
 30
0.0
 11
38.2556503188249
 21
8.215779537001196
 31
0.0
  0
LINE
  5
E01
330
CE3
100
AcDbEntity
  8
0
 62
     0
100
AcDbLine
 10
45.99079745480054
 20
16.84895228508383
 30
0.0
 11
48.39221213871116
 21
19.25036696899439
 31
0.0
  0
LINE
  5
E02
330
CE3
100
AcDbEntity
  8
0
 62
     0
100
AcDbLine
 10
40.69221213871111
 20
11.55036696899435
 30
0.0
 11
43.49221213871106
 21
14.35036696899436
 31
0.0
  0
LINE
  5
E03
330
CE3
100
AcDbEntity
  8
0
 62
     0
100
AcDbLine
 10
49.59184561041161
 20
20.45000044069485
 30
0.0
 11
52.25054320691322
 21
23.10869803719652
 31
0.0
  0
LINE
  5
E04
330
CE3
100
AcDbEntity
  8
0
 62
     0
100
AcDbLine
 10
36.29184561041154
 20
7.150000440694782
 30
0.0
 11
38.04012417191927
 21
8.898279002202571
 31
0.0
  0
LINE
  5
E05
330
CE3
100
AcDbEntity
  8
0
 62
     0
100
AcDbLine
 10
40.69221213871105
 20
12.4483925811013
 30
0.0
 11
43.49221213871106
 21
15.24839258110125
 31
0.0
  0
LINE
  5
E06
330
CE3
100
AcDbEntity
  8
0
 62
     0
100
AcDbLine
 10
45.74741539213045
 20
17.50359583452069
 30
0.0
 11
51.49381999830461
 21
23.25000044069486
 31
0.0
  0
LINE
  5
E07
330
CE3
100
AcDbEntity
  8
0
 62
     0
100
AcDbLine
 10
35.69983129975645
 20
7.456011742146699
 30
0.0
 11
37.82459802501358
 21
9.580778467403831
 31
0.0
  0
LINE
  5
E08
330
CE3
100
AcDbEntity
  8
0
 62
     0
100
AcDbLine
 10
40.69221213871105
 20
13.34641819320825
 30
0.0
 11
43.49221213871101
 21
16.1464181932082
 31
0.0
  0
LINE
  5
E09
330
CE3
100
AcDbEntity
  8
0
 62
     0
100
AcDbLine
 10
45.60870853304476
 20
18.26291458754195
 30
0.0
 11
50.59579438619772
 21
23.25000044069486
 31
0.0
  0
LINE
  5
E0A
330
CE3
100
AcDbEntity
  8
0
 62
     0
100
AcDbLine
 10
35.48107187810785
 20
8.135277932605049
 30
0.0
 11
37.60907187810784
 21
10.26327793260503
 31
0.0
  0
LINE
  5
E0B
330
CE3
100
AcDbEntity
  8
0
 62
     0
100
AcDbLine
 10
40.69221213871111
 20
14.24444380531508
 30
0.0
 11
43.49221213871106
 21
17.04444380531509
 31
0.0
  0
LINE
  5
E0C
330
CE3
100
AcDbEntity
  8
0
 62
     0
100
AcDbLine
 10
45.59221213871109
 20
19.14444380531506
 30
0.0
 11
49.69776877409083
 21
23.25000044069486
 31
0.0
  0
LINE
  5
E0D
330
CE3
100
AcDbEntity
  8
0
 62
     0
100
AcDbLine
 10
35.26554573120222
 20
8.817777397806253
 30
0.0
 11
37.39354573120232
 21
10.94577739780629
 31
0.0
  0
LINE
  5
E0E
330
CE3
100
AcDbEntity
  8
0
 62
     0
100
AcDbLine
 10
40.69221213871105
 20
15.14246941742203
 30
0.0
 11
43.49221213871106
 21
17.94246941742199
 31
0.0
  0
LINE
  5
E0F
330
CE3
100
AcDbEntity
  8
0
 62
     0
100
AcDbLine
 10
45.59221213871114
 20
20.04246941742207
 30
0.0
 11
48.79974316198394
 21
23.25000044069486
 31
0.0
  0
LINE
  5
E10
330
CE3
100
AcDbEntity
  8
0
 62
     0
100
AcDbLine
 10
35.05001958429648
 20
9.500276863007456
 30
0.0
 11
37.17801958429663
 21
11.62827686300755
 31
0.0
  0
LINE
  5
E11
330
CE3
100
AcDbEntity
  8
0
 62
     0
100
AcDbLine
 10
40.69221213871105
 20
16.04049502952892
 30
0.0
 11
43.49221213871112
 21
18.84049502952899
 31
0.0
  0
LINE
  5
E12
330
CE3
100
AcDbEntity
  8
0
 62
     0
100
AcDbLine
 10
34.83449343739084
 20
10.18277632820877
 30
0.0
 11
36.96249343739094
 21
12.31077632820881
 31
0.0
  0
LINE
  5
E13
330
CE3
100
AcDbEntity
  8
0
 62
     0
100
AcDbLine
 10
45.64552880883229
 20
20.99381169965022
 30
0.0
 11
47.84840087975561
 21
23.19668377057354
 31
0.0
  0
LINE
  5
E14
330
CE3
100
AcDbEntity
  8
0
 62
     0
100
AcDbLine
 10
31.80171754987696
 20
7.150000440694839
 30
0.0
 11
32.64221213871104
 21
7.990495029528972
 31
0.0
  0
LINE
  5
E15
330
CE3
100
AcDbEntity
  8
0
 62
     0
100
AcDbLine
 10
34.61896729048527
 20
10.86527579340997
 30
0.0
 11
36.7469672904852
 21
12.99327579340996
 31
0.0
  0
LINE
  5
E16
330
CE3
100
AcDbEntity
  8
0
 62
     0
100
AcDbLine
 10
40.69221213871105
 20
16.93852064163581
 30
0.0
 11
43.49221213871112
 21
19.73852064163588
 31
0.0
  0
LINE
  5
E17
330
CE3
100
AcDbEntity
  8
0
 62
     0
100
AcDbLine
 10
30.90369193777007
 20
7.150000440694839
 30
0.0
 11
32.6422121387111
 21
8.888520641635864
 31
0.0
  0
LINE
  5
E18
330
CE3
100
AcDbEntity
  8
0
 62
     0
100
AcDbLine
 10
34.40344114357958
 20
11.54777525861123
 30
0.0
 11
36.53144114357962
 21
13.67577525861134
 31
0.0
  0
LINE
  5
E19
330
CE3
100
AcDbEntity
  8
0
 62
     0
100
AcDbLine
 10
40.69221213871105
 20
17.83654625374276
 30
0.0
 11
43.49221213871112
 21
20.63654625374277
 31
0.0
  0
LINE
  5
E1A
330
CE3
100
AcDbEntity
  8
0
 62
     0
100
AcDbLine
 10
30.08681607331436
 20
7.231150188346077
 30
0.0
 11
32.6422121387111
 21
9.786546253742756
 31
0.0
  0
LINE
  5
E1B
330
CE3
100
AcDbEntity
  8
0
 62
     0
100
AcDbLine
 10
34.18791499667389
 20
12.23027472381249
 30
0.0
 11
36.31591499667393
 21
14.3582747238126
 31
0.0
  0
LINE
  5
E1C
330
CE3
100
AcDbEntity
  8
0
 62
     0
100
AcDbLine
 10
40.69221213871105
 20
18.73457186584966
 30
0.0
 11
43.49221213871106
 21
21.53457186584972
 31
0.0
  0
LINE
  5
E1D
330
CE3
100
AcDbEntity
  8
0
 62
     0
100
AcDbLine
 10
29.84221213871109
 20
7.884571865849693
 30
0.0
 11
32.64221213871104
 21
10.6845718658497
 31
0.0
  0
LINE
  5
E1E
330
CE3
100
AcDbEntity
  8
0
 62
     0
100
AcDbLine
 10
33.97238884976826
 20
12.9127741890137
 30
0.0
 11
36.1003888497683
 21
15.0407741890138
 31
0.0
  0
LINE
  5
E1F
330
CE3
100
AcDbEntity
  8
0
 62
     0
100
AcDbLine
 10
40.69221213871105
 20
19.63259747795655
 30
0.0
 11
43.49221213871112
 21
22.43259747795661
 31
0.0
  0
LINE
  5
E20
330
CE3
100
AcDbEntity
  8
0
 62
     0
100
AcDbLine
 10
29.84221213871109
 20
8.782597477956585
 30
0.0
 11
32.6422121387111
 21
11.58259747795653
 31
0.0
  0
LINE
  5
E21
330
CE3
100
AcDbEntity
  8
0
 62
     0
100
AcDbLine
 10
33.73759006279652
 20
13.57600101414897
 30
0.0
 11
36.36788413072741
 21
16.20629508207986
 31
0.0
  0
LINE
  5
E22
330
CE3
100
AcDbEntity
  8
0
 62
     0
100
AcDbLine
 10
40.69221213871111
 20
20.53062309006355
 30
0.0
 11
43.29593671621267
 21
23.13434766756506
 31
0.0
  0
LINE
  5
E23
330
CE3
100
AcDbEntity
  8
0
 62
     0
100
AcDbLine
 10
29.84221213871109
 20
9.680623090063534
 30
0.0
 11
32.64221213871104
 21
12.48062309006348
 31
0.0
  0
LINE
  5
E24
330
CE3
100
AcDbEntity
  8
0
 62
     0
100
AcDbLine
 10
33.05040469292913
 20
13.78684125638852
 30
0.0
 11
36.78235749016136
 21
17.51879405362075
 31
0.0
  0
LINE
  5
E25
330
CE3
100
AcDbEntity
  8
0
 62
     0
100
AcDbLine
 10
29.84221213871109
 20
10.57864870217042
 30
0.0
 11
32.65537132301739
 21
13.39180788647672
 31
0.0
  0
LINE
  5
E26
330
CE3
100
AcDbEntity
  8
0
 62
     0
100
AcDbLine
 10
40.69221213871111
 20
21.42864870217044
 30
0.0
 11
42.51356387723546
 21
23.25000044069486
 31
0.0
  0
LINE
  5
E27
330
CE3
100
AcDbEntity
  8
0
 62
     0
100
AcDbLine
 10
26.41356387723544
 20
7.150000440694782
 30
0.0
 11
27.3922121387111
 21
8.128648702170494
 31
0.0
  0
LINE
  5
E28
330
CE3
100
AcDbEntity
  8
0
 62
     0
100
AcDbLine
 10
29.84221213871103
 20
11.47667431427737
 30
0.0
 11
37.1968308495953
 21
18.83129302516158
 31
0.0
  0
LINE
  5
E29
330
CE3
100
AcDbEntity
  8
0
 62
     0
100
AcDbLine
 10
40.69221213871105
 20
22.32667431427739
 30
0.0
 11
41.61553826512852
 21
23.25000044069486
 31
0.0
  0
LINE
  5
E2A
330
CE3
100
AcDbEntity
  8
0
 62
     0
100
AcDbLine
 10
25.51553826512849
 20
7.150000440694839
 30
0.0
 11
27.3922121387111
 21
9.026674314277443
 31
0.0
  0
LINE
  5
E2B
330
CE3
100
AcDbEntity
  8
0
 62
     0
100
AcDbLine
 10
29.84221213871109
 20
12.37469992638421
 30
0.0
 11
37.61130420902935
 21
20.14379199670247
 31
0.0
  0
LINE
  5
E2C
330
CE3
100
AcDbEntity
  8
0
 62
     0
100
AcDbLine
 10
24.62919327737171
 20
7.161681065044888
 30
0.0
 11
27.25087785510493
 21
9.783365642778051
 31
0.0
  0
LINE
  5
E2D
330
CE3
100
AcDbEntity
  8
0
 62
     0
100
AcDbLine
 10
29.84221213871103
 20
13.27272553849115
 30
0.0
 11
33.1694870409147
 21
16.60000044069482
 31
0.0
  0
LINE
  5
E2E
330
CE3
100
AcDbEntity
  8
0
 62
     0
100
AcDbLine
 10
33.93346987615541
 20
17.36398327593553
 30
0.0
 11
38.02577756846335
 21
21.45629096824342
 31
0.0
  0
LINE
  5
E2F
330
CE3
100
AcDbEntity
  8
0
 62
     0
100
AcDbLine
 10
23.86103275992474
 20
7.291546159704807
 30
0.0
 11
26.51948704091478
 21
9.95000044069485
 31
0.0
  0
LINE
  5
E30
330
CE3
100
AcDbEntity
  8
0
 62
     0
100
AcDbLine
 10
29.84221213871103
 20
14.1707511505981
 30
0.0
 11
32.66020270941936
 21
16.98874172130638
 31
0.0
  0
LINE
  5
E31
330
CE3
100
AcDbEntity
  8
0
 62
     0
100
AcDbLine
 10
34.34794323558935
 20
18.67648224747637
 30
0.0
 11
38.40084902026473
 21
22.7293880321518
 31
0.0
  0
LINE
  5
E32
330
CE3
100
AcDbEntity
  8
0
 62
     0
100
AcDbLine
 10
23.19989850309832
 20
7.528437514985398
 30
0.0
 11
25.62146142880783
 21
9.950000440694907
 31
0.0
  0
LINE
  5
E33
330
CE3
100
AcDbEntity
  8
0
 62
     0
100
AcDbLine
 10
29.84221213871109
 20
15.06877676270494
 30
0.0
 11
32.6422121387111
 21
17.86877676270501
 31
0.0
  0
LINE
  5
E34
330
CE3
100
AcDbEntity
  8
0
 62
     0
100
AcDbLine
 10
34.76241659502346
 20
19.98898121901737
 30
0.0
 11
38.00683714769553
 21
23.23340177168944
 31
0.0
  0
LINE
  5
E35
330
CE3
100
AcDbEntity
  8
0
 62
     0
100
AcDbLine
 10
22.62229521893402
 20
7.848859842927879
 30
0.0
 11
24.73835707742688
 21
9.964921701420792
 31
0.0
  0
LINE
  5
E36
330
CE3
100
AcDbEntity
  8
0
 62
     0
100
AcDbLine
 10
29.84221213871103
 20
15.96680237481189
 30
0.0
 11
32.6422121387111
 21
18.76680237481195
 31
0.0
  0
LINE
  5
E37
330
CE3
100
AcDbEntity
  8
0
 62
     0
100
AcDbLine
 10
35.17688995445741
 20
21.30148019055821
 30
0.0
 11
37.125410204594
 21
23.25000044069486
 31
0.0
  0
LINE
  5
E38
330
CE3
100
AcDbEntity
  8
0
 62
     0
100
AcDbLine
 10
22.11734025255196
 20
8.241930488652769
 30
0.0
 11
24.10404093640858
 21
10.22863117250938
 31
0.0
  0
LINE
  5
E39
330
CE3
100
AcDbEntity
  8
0
 62
     0
100
AcDbLine
 10
29.84221213871103
 20
16.86482798691878
 30
0.0
 11
32.6422121387111
 21
19.66482798691885
 31
0.0
  0
LINE
  5
E3A
330
CE3
100
AcDbEntity
  8
0
 62
     0
100
AcDbLine
 10
26.50384627048754
 20
13.52646211869535
 30
0.0
 11
27.66575046071062
 21
14.68836630891843
 31
0.0
  0
LINE
  5
E3B
330
CE3
100
AcDbEntity
  8
0
 62
     0
100
AcDbLine
 10
35.59136331389129
 20
22.61397916209909
 30
0.0
 11
36.22738459248711
 21
23.25000044069491
 31
0.0
  0
LINE
  5
E3C
330
CE3
100
AcDbEntity
  8
0
 62
     0
100
AcDbLine
 10
21.68090317922212
 20
8.703519027429933
 30
0.0
 11
23.69378998513639
 21
10.71640583334419
 31
0.0
  0
LINE
  5
E3D
330
CE3
100
AcDbEntity
  8
0
 62
     0
100
AcDbLine
 10
25.57887342885772
 20
13.49951488917247
 30
0.0
 11
27.6926976902335
 21
15.61333915054819
 31
0.0
  0
LINE
  5
E3E
330
CE3
100
AcDbEntity
  8
0
 62
     0
100
AcDbLine
 10
29.84221213871098
 20
17.76285359902573
 30
0.0
 11
32.64221213871104
 21
20.5628535990258
 31
0.0
  0
LINE
  5
E3F
330
CE3
100
AcDbEntity
  8
0
 62
     0
100
AcDbLine
 10
21.31388395427916
 20
9.234525414593861
 30
0.0
 11
23.54221213871107
 21
11.46285359902583
 31
0.0
  0
LINE
  5
E40
330
CE3
100
AcDbEntity
  8
0
 62
     0
100
AcDbLine
 10
24.96472685943752
 20
13.78339393185905
 30
0.0
 11
27.40881864754686
 21
16.22748571996845
 31
0.0
  0
LINE
  5
E41
330
CE3
100
AcDbEntity
  8
0
 62
     0
100
AcDbLine
 10
29.84221213871103
 20
18.66087921113262
 30
0.0
 11
32.6422121387111
 21
21.46087921113263
 31
0.0
  0
LINE
  5
E42
330
CE3
100
AcDbEntity
  8
0
 62
     0
100
AcDbLine
 10
21.02256644435442
 20
9.841233516776014
 30
0.0
 11
23.54221213871107
 21
12.36087921113266
 31
0.0
  0
LINE
  5
E43
330
CE3
100
AcDbEntity
  8
0
 62
     0
100
AcDbLine
 10
24.5267669324478
 20
14.24345961697633
 30
0.0
 11
26.94875296242964
 21
16.66544564695811
 31
0.0
  0
LINE
  5
E44
330
CE3
100
AcDbEntity
  8
0
 62
     0
100
AcDbLine
 10
29.84221213871103
 20
19.55890482323951
 30
0.0
 11
32.64221213871104
 21
22.35890482323958
 31
0.0
  0
LINE
  5
E45
330
CE3
100
AcDbEntity
  8
0
 62
     0
100
AcDbLine
 10
20.82142908017976
 20
10.5381217647083
 30
0.0
 11
23.54221213871107
 21
13.25890482323961
 31
0.0
  0
LINE
  5
E46
330
CE3
100
AcDbEntity
  8
0
 62
     0
100
AcDbLine
 10
24.27071620003943
 20
14.88543449667486
 30
0.0
 11
26.30677808273105
 21
16.92149637936654
 31
0.0
  0
LINE
  5
E47
330
CE3
100
AcDbEntity
  8
0
 62
     0
100
AcDbLine
 10
20.74221213871101
 20
11.35693043534649
 30
0.0
 11
23.54221213871107
 21
14.15693043534651
 31
0.0
  0
LINE
  5
E48
330
CE3
100
AcDbEntity
  8
0
 62
     0
100
AcDbLine
 10
29.84221213871098
 20
20.45693043534646
 30
0.0
 11
32.48496203035597
 21
23.09968032699146
 31
0.0
  0
LINE
  5
E49
330
CE3
100
AcDbEntity
  8
0
 62
     0
100
AcDbLine
 10
16.65621538083541
 20
7.270933677470907
 30
0.0
 11
18.52127890193514
 21
9.135997198570635
 31
0.0
  0
LINE
  5
E4A
330
CE3
100
AcDbEntity
  8
0
 62
     0
100
AcDbLine
 10
24.38912928352022
 20
15.90187319226254
 30
0.0
 11
25.29033938714343
 21
16.80308329588575
 31
0.0
  0
LINE
  5
E4B
330
CE3
100
AcDbEntity
  8
0
 62
     0
100
AcDbLine
 10
20.74221213871101
 20
12.25495604745333
 30
0.0
 11
23.54221213871107
 21
15.0549560474534
 31
0.0
  0
LINE
  5
E4C
330
CE3
100
AcDbEntity
  8
0
 62
     0
100
AcDbLine
 10
29.84221213871103
 20
21.35495604745329
 30
0.0
 11
31.73725653195259
 21
23.25000044069491
 31
0.0
  0
LINE
  5
E4D
330
CE3
100
AcDbEntity
  8
0
 62
     0
100
AcDbLine
 10
15.63725653195246
 20
7.150000440694782
 30
0.0
 11
18.6422121387111
 21
10.15495604745342
 31
0.0
  0
LINE
  5
E4E
330
CE3
100
AcDbEntity
  8
0
 62
     0
100
AcDbLine
 10
20.74221213871101
 20
13.15298165956028
 30
0.0
 11
23.54221213871107
 21
15.95298165956035
 31
0.0
  0
LINE
  5
E4F
330
CE3
100
AcDbEntity
  8
0
 62
     0
100
AcDbLine
 10
29.84221213871098
 20
22.25298165956024
 30
0.0
 11
30.83923091984559
 21
23.25000044069486
 31
0.0
  0
LINE
  5
E50
330
CE3
100
AcDbEntity
  8
0
 62
     0
100
AcDbLine
 10
14.73923091984556
 20
7.150000440694782
 30
0.0
 11
18.6422121387111
 21
11.05298165956037
 31
0.0
  0
LINE
  5
E51
330
CE3
100
AcDbEntity
  8
0
 62
     0
100
AcDbLine
 10
20.74221213871101
 20
14.05100727166717
 30
0.0
 11
23.54221213871102
 21
16.85100727166724
 31
0.0
  0
LINE
  5
E52
330
CE3
100
AcDbEntity
  8
0
 62
     0
100
AcDbLine
 10
13.84120530773861
 20
7.150000440694839
 30
0.0
 11
18.63827278614991
 21
11.94706791910613
 31
0.0
  0
LINE
  5
E53
330
CE3
100
AcDbEntity
  8
0
 62
     0
100
AcDbLine
 10
20.74221213871101
 20
14.94903288377412
 30
0.0
 11
23.54221213871107
 21
17.74903288377419
 31
0.0
  0
LINE
  5
E54
330
CE3
100
AcDbEntity
  8
0
 62
     0
100
AcDbLine
 10
26.24317969563179
 20
20.4500004406949
 30
0.0
 11
27.39221213871116
 21
21.59903288377421
 31
0.0
  0
LINE
  5
E55
330
CE3
100
AcDbEntity
  8
0
 62
     0
100
AcDbLine
 10
12.94317969563172
 20
7.150000440694839
 30
0.0
 11
18.52861094982858
 21
12.7354316948917
 31
0.0
  0
LINE
  5
E56
330
CE3
100
AcDbEntity
  8
0
 62
     0
100
AcDbLine
 10
20.74221213871101
 20
15.84705849588101
 30
0.0
 11
23.54221213871107
 21
18.64705849588102
 31
0.0
  0
LINE
  5
E57
330
CE3
100
AcDbEntity
  8
0
 62
     0
100
AcDbLine
 10
15.84221213871109
 20
10.94705849588109
 30
0.0
 11
18.30627220578446
 21
13.41111856295447
 31
0.0
  0
LINE
  5
E58
330
CE3
100
AcDbEntity
  8
0
 62
     0
100
AcDbLine
 10
25.34515408352479
 20
20.45000044069479
 30
0.0
 11
27.3922121387111
 21
22.4970584958811
 31
0.0
  0
LINE
  5
E59
330
CE3
100
AcDbEntity
  8
0
 62
     0
100
AcDbLine
 10
12.10287995878474
 20
7.207726315954744
 30
0.0
 11
14.84515408352478
 21
9.950000440694793
 31
0.0
  0
LINE
  5
E5A
330
CE3
100
AcDbEntity
  8
0
 62
     0
100
AcDbLine
 10
20.74221213871095
 20
16.7450841079879
 30
0.0
 11
23.70802684449074
 21
19.71089881376769
 31
0.0
  0
LINE
  5
E5B
330
CE3
100
AcDbEntity
  8
0
 62
     0
100
AcDbLine
 10
15.84005304710183
 20
11.84292501637872
 30
0.0
 11
17.99784067111244
 21
14.00071264038939
 31
0.0
  0
LINE
  5
E5C
330
CE3
100
AcDbEntity
  8
0
 62
     0
100
AcDbLine
 10
24.28131376563829
 20
20.28418573491524
 30
0.0
 11
27.1587447237913
 21
23.16161669306819
 31
0.0
  0
LINE
  5
E5D
330
CE3
100
AcDbEntity
  8
0
 62
     0
100
AcDbLine
 10
11.81721213871099
 20
7.820084107987952
 30
0.0
 11
13.94712847141795
 21
9.950000440694907
 31
0.0
  0
LINE
  5
E5E
330
CE3
100
AcDbEntity
  8
0
 62
     0
100
AcDbLine
 10
15.62045002760112
 20
12.52134760898502
 30
0.0
 11
17.61559870627354
 21
14.51649628765744
 31
0.0
  0
LINE
  5
E5F
330
CE3
100
AcDbEntity
  8
0
 62
     0
100
AcDbLine
 10
20.74221213871095
 20
17.64310972009485
 30
0.0
 11
26.34910285931101
 21
23.25000044069491
 31
0.0
  0
LINE
  5
E60
330
CE3
100
AcDbEntity
  8
0
 62
     0
100
AcDbLine
 10
11.81721213871099
 20
8.718109720094901
 30
0.0
 11
13.04910285931095
 21
9.95000044069485
 31
0.0
  0
LINE
  5
E61
330
CE3
100
AcDbEntity
  8
0
 62
     0
100
AcDbLine
 10
15.19419519929641
 20
12.99311839278715
 30
0.0
 11
17.17409418661878
 21
14.97301738010952
 31
0.0
  0
LINE
  5
E62
330
CE3
100
AcDbEntity
  8
0
 62
     0
100
AcDbLine
 10
20.74221213871101
 20
18.54113533220169
 30
0.0
 11
25.45107724720395
 21
23.25000044069469
 31
0.0
  0
LINE
  5
E63
330
CE3
100
AcDbEntity
  8
0
 62
     0
100
AcDbLine
 10
11.88616406073083
 20
9.685087254221571
 30
0.0
 11
12.08212532518444
 21
9.881048518675186
 31
0.0
  0
LINE
  5
E64
330
CE3
100
AcDbEntity
  8
0
 62
     0
100
AcDbLine
 10
20.76218725286758
 20
19.45913605846522
 30
0.0
 11
24.53307652094059
 21
23.23002532653828
 31
0.0
  0
LINE
  5
E65
330
CE3
100
AcDbEntity
  8
0
 62
     0
100
AcDbLine
 10
14.74518239324282
 20
13.44213119884051
 30
0.0
 11
16.72508138056531
 21
15.422030186163
 31
0.0
  0
LINE
  5
E66
330
CE3
100
AcDbEntity
  8
0
 62
     0
100
AcDbLine
 10
21.06165068513337
 20
20.656625102838
 30
0.0
 11
23.33558747656786
 21
22.9305618942725
 31
0.0
  0
LINE
  5
E67
330
CE3
100
AcDbEntity
  8
0
 62
     0
100
AcDbLine
 10
14.29616958718935
 20
13.89114400489398
 30
0.0
 11
16.27606857451183
 21
15.87104299221647
 31
0.0
  0
LINE
  5
E68
330
CE3
100
AcDbEntity
  8
0
 62
     0
100
AcDbLine
 10
13.8471567811361
 20
14.34015681094757
 30
0.0
 11
15.82705576845836
 21
16.32005579826977
 31
0.0
  0
LINE
  5
E69
330
CE3
100
AcDbEntity
  8
0
 62
     0
100
AcDbLine
 10
13.39814397508263
 20
14.78916961700105
 30
0.0
 11
15.37804296240489
 21
16.76906860432325
 31
0.0
  0
LINE
  5
E6A
330
CE3
100
AcDbEntity
  8
0
 62
     0
100
AcDbLine
 10
12.94913116902898
 20
15.23818242305435
 30
0.0
 11
14.92903015635141
 21
17.21808141037672
 31
0.0
  0
LINE
  5
E6B
330
CE3
100
AcDbEntity
  8
0
 62
     0
100
AcDbLine
 10
17.26292357456259
 20
20.4500004406949
 30
0.0
 11
18.11721213871095
 21
21.30428900484326
 31
0.0
  0
LINE
  5
E6C
330
CE3
100
AcDbEntity
  8
0
 62
     0
100
AcDbLine
 10
12.50020167700375
 20
15.68727854313607
 30
0.0
 11
14.48026732043621
 21
17.66734418656852
 31
0.0
  0
LINE
  5
E6D
330
CE3
100
AcDbEntity
  8
0
 62
     0
100
AcDbLine
 10
16.36489796245564
 20
20.45000044069479
 30
0.0
 11
18.11721213871106
 21
22.20231461695021
 31
0.0
  0
LINE
  5
E6E
330
CE3
100
AcDbEntity
  8
0
 62
     0
100
AcDbLine
 10
12.08873375245218
 20
16.17383623069128
 30
0.0
 11
14.15037043914827
 21
18.23547291738742
 31
0.0
  0
LINE
  5
E6F
330
CE3
100
AcDbEntity
  8
0
 62
     0
100
AcDbLine
 10
15.46687235034869
 20
20.45000044069479
 30
0.0
 11
18.03065323894992
 21
23.01378132929602
 31
0.0
  0
LINE
  5
E70
330
CE3
100
AcDbEntity
  8
0
 62
     0
100
AcDbLine
 10
11.74827314618971
 20
16.73140123653576
 30
0.0
 11
14.09221213871103
 21
19.07534022905713
 31
0.0
  0
LINE
  5
E71
330
CE3
100
AcDbEntity
  8
0
 62
     0
100
AcDbLine
 10
14.56638008907168
 20
20.44753379152467
 30
0.0
 11
17.36884673824187
 21
23.25000044069486
 31
0.0
  0
LINE
  5
E72
330
CE3
100
AcDbEntity
  8
0
 62
     0
100
AcDbLine
 10
11.48757985045762
 20
17.36873355291061
 30
0.0
 11
14.0946787878812
 21
19.97583249033425
 31
0.0
  0
LINE
  5
E73
330
CE3
100
AcDbEntity
  8
0
 62
     0
100
AcDbLine
 10
11.32576788820955
 20
18.10494720276943
 30
0.0
 11
16.47082112613498
 21
23.25000044069486
 31
0.0
  0
LINE
  5
E74
330
CE3
100
AcDbEntity
  8
0
 62
     0
100
AcDbLine
 10
11.29221213871107
 20
18.96941706537785
 30
0.0
 11
15.57279551402803
 21
23.25000044069486
 31
0.0
  0
LINE
  5
E75
330
CE3
100
AcDbEntity
  8
0
 62
     0
100
AcDbLine
 10
11.29221213871102
 20
19.8674426774848
 30
0.0
 11
14.67476990192113
 21
23.25000044069486
 31
0.0
  0
LINE
  5
E76
330
CE3
100
AcDbEntity
  8
0
 62
     0
100
AcDbLine
 10
11.31240414914935
 20
20.78566030003003
 30
0.0
 11
13.75655227937596
 21
23.22980843025664
 31
0.0
  0
ENDBLK
  5
E78
330
CE3
100
AcDbEntity
  8
0
100
AcDbBlockEnd
  0
BLOCK
  5
1F0A
330
1F00
100
AcDbEntity
  8
0
100
AcDbBlockBegin
  2
*D2
 70
     1
 10
0.0
 20
0.0
 30
0.0
  3
*D2
  1

  0
LINE
  5
26BC
330
1F00
100
AcDbEntity
  8
SUNPOU
 62
     4
100
AcDbLine
 10
533.1196126268123
 20
234.2026496837709
 30
0.0
 11
533.1196126268123
 21
296.8248329372604
 31
0.0
  0
LINE
  5
26BD
330
1F00
100
AcDbEntity
  8
SUNPOU
 62
     4
100
AcDbLine
 10
591.1196126268123
 20
234.2026496837709
 30
0.0
 11
591.1196126268123
 21
296.8248329372604
 31
0.0
  0
LINE
  5
26BE
330
1F00
100
AcDbEntity
  8
SUNPOU
 62
     4
100
AcDbLine
 10
540.1196126268123
 20
293.8248329372604
 30
0.0
 11
584.1196126268123
 21
293.8248329372604
 31
0.0
  0
INSERT
  5
26BF
330
1F00
100
AcDbEntity
  8
SUNPOU
 62
     4
100
AcDbBlockReference
  2
_OPEN
 10
533.1196126268123
 20
293.8248329372604
 30
0.0
 41
7.0
 42
7.0
 43
7.0
 50
180.0
  0
INSERT
  5
26C0
330
1F00
100
AcDbEntity
  8
SUNPOU
 62
     4
100
AcDbBlockReference
  2
_OPEN
 10
591.1196126268123
 20
293.8248329372604
 30
0.0
 41
7.0
 42
7.0
 43
7.0
  0
MTEXT
  5
26C1
330
1F00
100
AcDbEntity
  8
SUNPOU
 62
     4
100
AcDbMText
 10
562.1196126268123
 20
298.8248329372604
 30
0.0
 40
6.0
 41
0.0
 71
     5
 72
     1
  1
\A1;58
  0
POINT
  5
26C2
330
1F00
100
AcDbEntity
  8
DEFPOINTS
 62
     0
100
AcDbPoint
 10
533.1196126268123
 20
228.2026496837709
 30
0.0
  0
POINT
  5
26C3
330
1F00
100
AcDbEntity
  8
DEFPOINTS
 62
     0
100
AcDbPoint
 10
591.1196126268123
 20
228.2026496837709
 30
0.0
  0
POINT
  5
26C4
330
1F00
100
AcDbEntity
  8
DEFPOINTS
 62
     0
100
AcDbPoint
 10
591.1196126268123
 20
293.8248329372604
 30
0.0
  0
ENDBLK
  5
1F0B
330
1F00
100
AcDbEntity
  8
0
100
AcDbBlockEnd
  0
BLOCK
  5
1F20
330
1F16
100
AcDbEntity
  8
0
100
AcDbBlockBegin
  2
*D3
 70
     1
 10
0.0
 20
0.0
 30
0.0
  3
*D3
  1

  0
LINE
  5
26C5
330
1F16
100
AcDbEntity
  8
SUNPOU
 62
     4
100
AcDbLine
 10
379.0804403208389
 20
436.5752656644822
 30
0.0
 11
421.1030517495183
 21
436.5752656644822
 31
0.0
  0
LINE
  5
26C6
330
1F16
100
AcDbEntity
  8
SUNPOU
 62
     4
100
AcDbLine
 10
379.0804403208389
 20
362.5752656644822
 30
0.0
 11
421.1030517495182
 21
362.5752656644821
 31
0.0
  0
LINE
  5
26C7
330
1F16
100
AcDbEntity
  8
SUNPOU
 62
     4
100
AcDbLine
 10
418.1030517495183
 20
429.5752656644822
 30
0.0
 11
418.1030517495182
 21
369.5752656644821
 31
0.0
  0
INSERT
  5
26C8
330
1F16
100
AcDbEntity
  8
SUNPOU
 62
     4
100
AcDbBlockReference
  2
_OPEN
 10
418.1030517495183
 20
436.5752656644822
 30
0.0
 41
7.0
 42
7.0
 43
7.0
 50
90.0
  0
INSERT
  5
26C9
330
1F16
100
AcDbEntity
  8
SUNPOU
 62
     4
100
AcDbBlockReference
  2
_OPEN
 10
418.1030517495182
 20
362.5752656644821
 30
0.0
 41
7.0
 42
7.0
 43
7.0
 50
270.0
  0
MTEXT
  5
26CA
330
1F16
100
AcDbEntity
  8
SUNPOU
 62
     4
100
AcDbMText
 10
413.1030517495181
 20
399.5752656644823
 30
0.0
 40
6.0
 41
0.0
 71
     5
 72
     1
  1
\A1;74
 11
0.0000000000000001
 21
1.0
 31
0.0
  0
POINT
  5
26CB
330
1F16
100
AcDbEntity
  8
DEFPOINTS
 62
     0
100
AcDbPoint
 10
373.0804403208389
 20
436.5752656644822
 30
0.0
  0
POINT
  5
26CC
330
1F16
100
AcDbEntity
  8
DEFPOINTS
 62
     0
100
AcDbPoint
 10
373.0804403208389
 20
362.5752656644822
 30
0.0
  0
POINT
  5
26CD
330
1F16
100
AcDbEntity
  8
DEFPOINTS
 62
     0
100
AcDbPoint
 10
418.1030517495182
 20
362.5752656644821
 30
0.0
  0
ENDBLK
  5
1F21
330
1F16
100
AcDbEntity
  8
0
100
AcDbBlockEnd
  0
BLOCK
  5
1F36
330
1F2C
100
AcDbEntity
  8
0
100
AcDbBlockBegin
  2
*D4
 70
     1
 10
0.0
 20
0.0
 30
0.0
  3
*D4
  1

  0
LINE
  5
26CE
330
1F2C
100
AcDbEntity
  8
SUNPOU
 62
     4
100
AcDbLine
 10
214.9765833116518
 20
413.5646592113327
 30
0.0
 11
169.2468711136071
 21
413.5646592113327
 31
0.0
  0
LINE
  5
26CF
330
1F2C
100
AcDbEntity
  8
SUNPOU
 62
     4
100
AcDbLine
 10
215.1822853189888
 20
385.5752656645004
 30
0.0
 11
169.2468711136071
 21
385.5752656645004
 31
0.0
  0
LINE
  5
26D0
330
1F2C
100
AcDbEntity
  8
SUNPOU
 62
     4
100
AcDbLine
 10
172.2468711136071
 20
406.5646592113327
 30
0.0
 11
172.2468711136071
 21
392.5752656645004
 31
0.0
  0
INSERT
  5
26D1
330
1F2C
100
AcDbEntity
  8
SUNPOU
 62
     4
100
AcDbBlockReference
  2
_OPEN
 10
172.2468711136071
 20
413.5646592113327
 30
0.0
 41
7.0
 42
7.0
 43
7.0
 50
90.0
  0
INSERT
  5
26D2
330
1F2C
100
AcDbEntity
  8
SUNPOU
 62
     4
100
AcDbBlockReference
  2
_OPEN
 10
172.2468711136071
 20
385.5752656645004
 30
0.0
 41
7.0
 42
7.0
 43
7.0
 50
270.0
  0
MTEXT
  5
26D3
330
1F2C
100
AcDbEntity
  8
SUNPOU
 62
     4
100
AcDbMText
 10
167.2468711136071
 20
399.5699624379166
 30
0.0
 40
6.0
 41
0.0
 71
     5
 72
     1
  1
\A1;28
 11
0.0000000000000001
 21
1.0
 31
0.0
  0
POINT
  5
26D4
330
1F2C
100
AcDbEntity
  8
DEFPOINTS
 62
     0
100
AcDbPoint
 10
220.9765833116518
 20
413.5646592113327
 30
0.0
  0
POINT
  5
26D5
330
1F2C
100
AcDbEntity
  8
DEFPOINTS
 62
     0
100
AcDbPoint
 10
221.1822853189888
 20
385.5752656645004
 30
0.0
  0
POINT
  5
26D6
330
1F2C
100
AcDbEntity
  8
DEFPOINTS
 62
     0
100
AcDbPoint
 10
172.2468711136071
 20
385.5752656645004
 30
0.0
  0
ENDBLK
  5
1F37
330
1F2C
100
AcDbEntity
  8
0
100
AcDbBlockEnd
  0
BLOCK
  5
208B
330
2081
100
AcDbEntity
  8
0
100
AcDbBlockBegin
  2
*D5
 70
     1
 10
0.0
 20
0.0
 30
0.0
  3
*D5
  1

  0
LINE
  5
26D7
330
2081
100
AcDbEntity
  8
SUNPOU
 62
     4
100
AcDbLine
 10
349.580439799439
 20
209.2886310673931
 30
0.0
 11
349.580439799439
 21
281.7260979661866
 31
0.0
  0
LINE
  5
26D8
330
2081
100
AcDbEntity
  8
SUNPOU
 62
     4
100
AcDbLine
 10
373.0804403208389
 20
238.6845193259931
 30
0.0
 11
373.0804403208389
 21
281.7260979661866
 31
0.0
  0
LINE
  5
26D9
330
2081
100
AcDbEntity
  8
SUNPOU
 62
     4
100
AcDbLine
 10
356.5804397994391
 20
278.7260979661866
 30
0.0
 11
366.0804403208389
 21
278.7260979661866
 31
0.0
  0
INSERT
  5
26DA
330
2081
100
AcDbEntity
  8
SUNPOU
 62
     4
100
AcDbBlockReference
  2
_OPEN
 10
349.580439799439
 20
278.7260979661866
 30
0.0
 41
7.0
 42
7.0
 43
7.0
 50
180.0
  0
INSERT
  5
26DB
330
2081
100
AcDbEntity
  8
SUNPOU
 62
     4
100
AcDbBlockReference
  2
_OPEN
 10
373.0804403208389
 20
278.7260979661866
 30
0.0
 41
7.0
 42
7.0
 43
7.0
  0
MTEXT
  5
26DC
330
2081
100
AcDbEntity
  8
SUNPOU
 62
     4
100
AcDbMText
 10
361.330440060139
 20
283.7260979661866
 30
0.0
 40
6.0
 41
0.0
 71
     5
 72
     1
  1
\A1;24
  0
POINT
  5
26DD
330
2081
100
AcDbEntity
  8
DEFPOINTS
 62
     0
100
AcDbPoint
 10
349.580439799439
 20
203.2886310673931
 30
0.0
  0
POINT
  5
26DE
330
2081
100
AcDbEntity
  8
DEFPOINTS
 62
     0
100
AcDbPoint
 10
373.0804403208389
 20
232.6845193259931
 30
0.0
  0
POINT
  5
26DF
330
2081
100
AcDbEntity
  8
DEFPOINTS
 62
     0
100
AcDbPoint
 10
373.0804403208389
 20
278.7260979661866
 30
0.0
  0
ENDBLK
  5
208C
330
2081
100
AcDbEntity
  8
0
100
AcDbBlockEnd
  0
BLOCK
  5
2098
330
208E
100
AcDbEntity
  8
0
100
AcDbBlockBegin
  2
*D6
 70
     1
 10
0.0
 20
0.0
 30
0.0
  3
*D6
  1

  0
LINE
  5
26E0
330
208E
100
AcDbEntity
  8
SUNPOU
 62
     4
100
AcDbLine
 10
274.080440320839
 20
211.6845193259931
 30
0.0
 11
274.080440320839
 21
296.8248329372604
 31
0.0
  0
LINE
  5
26E1
330
208E
100
AcDbEntity
  8
SUNPOU
 62
     4
100
AcDbLine
 10
373.0804403208389
 20
244.6845193259931
 30
0.0
 11
373.0804403208389
 21
296.8248329372604
 31
0.0
  0
LINE
  5
26E2
330
208E
100
AcDbEntity
  8
SUNPOU
 62
     4
100
AcDbLine
 10
281.0804403208391
 20
293.8248329372604
 30
0.0
 11
366.0804403208389
 21
293.8248329372604
 31
0.0
  0
INSERT
  5
26E3
330
208E
100
AcDbEntity
  8
SUNPOU
 62
     4
100
AcDbBlockReference
  2
_OPEN
 10
274.080440320839
 20
293.8248329372604
 30
0.0
 41
7.0
 42
7.0
 43
7.0
 50
180.0
  0
INSERT
  5
26E4
330
208E
100
AcDbEntity
  8
SUNPOU
 62
     4
100
AcDbBlockReference
  2
_OPEN
 10
373.0804403208389
 20
293.8248329372604
 30
0.0
 41
7.0
 42
7.0
 43
7.0
  0
MTEXT
  5
26E5
330
208E
100
AcDbEntity
  8
SUNPOU
 62
     4
100
AcDbMText
 10
323.580440320839
 20
298.8248329372604
 30
0.0
 40
6.0
 41
0.0
 71
     5
 72
     1
  1
\A1;99
  0
POINT
  5
26E6
330
208E
100
AcDbEntity
  8
DEFPOINTS
 62
     0
100
AcDbPoint
 10
274.080440320839
 20
205.6845193259931
 30
0.0
  0
POINT
  5
26E7
330
208E
100
AcDbEntity
  8
DEFPOINTS
 62
     0
100
AcDbPoint
 10
373.0804403208389
 20
238.6845193259931
 30
0.0
  0
POINT
  5
26E8
330
208E
100
AcDbEntity
  8
DEFPOINTS
 62
     0
100
AcDbPoint
 10
373.0804403208389
 20
293.8248329372604
 30
0.0
  0
ENDBLK
  5
2099
330
208E
100
AcDbEntity
  8
0
100
AcDbBlockEnd
  0
BLOCK
  5
20A5
330
209B
100
AcDbEntity
  8
0
100
AcDbBlockBegin
  2
*D7
 70
     1
 10
0.0
 20
0.0
 30
0.0
  3
*D7
  1

  0
LINE
  5
26E9
330
209B
100
AcDbEntity
  8
SUNPOU
 62
     4
100
AcDbLine
 10
373.0804403208389
 20
250.6845193259931
 30
0.0
 11
373.0804403208389
 21
311.1288965983205
 31
0.0
  0
LINE
  5
26EA
330
209B
100
AcDbEntity
  8
SUNPOU
 62
     4
100
AcDbLine
 10
216.4805066003656
 20
235.6946507231931
 30
0.0
 11
216.4805066003656
 21
311.1288965983205
 31
0.0
  0
LINE
  5
26EB
330
209B
100
AcDbEntity
  8
SUNPOU
 62
     4
100
AcDbLine
 10
366.0804403208389
 20
308.1288965983205
 30
0.0
 11
223.4805066003656
 21
308.1288965983205
 31
0.0
  0
INSERT
  5
26EC
330
209B
100
AcDbEntity
  8
SUNPOU
 62
     4
100
AcDbBlockReference
  2
_OPEN
 10
373.0804403208389
 20
308.1288965983205
 30
0.0
 41
7.0
 42
7.0
 43
7.0
  0
INSERT
  5
26ED
330
209B
100
AcDbEntity
  8
SUNPOU
 62
     4
100
AcDbBlockReference
  2
_OPEN
 10
216.4805066003656
 20
308.1288965983205
 30
0.0
 41
7.0
 42
7.0
 43
7.0
 50
180.0
  0
MTEXT
  5
26EE
330
209B
100
AcDbEntity
  8
SUNPOU
 62
     4
100
AcDbMText
 10
294.7804734606023
 20
313.1288965983205
 30
0.0
 40
6.0
 41
0.0
 71
     5
 72
     1
  1
\A1;157
  0
POINT
  5
26EF
330
209B
100
AcDbEntity
  8
DEFPOINTS
 62
     0
100
AcDbPoint
 10
373.0804403208389
 20
244.6845193259931
 30
0.0
  0
POINT
  5
26F0
330
209B
100
AcDbEntity
  8
DEFPOINTS
 62
     0
100
AcDbPoint
 10
216.4805066003656
 20
229.6946507231931
 30
0.0
  0
POINT
  5
26F1
330
209B
100
AcDbEntity
  8
DEFPOINTS
 62
     0
100
AcDbPoint
 10
216.4805066003656
 20
308.1288965983205
 30
0.0
  0
ENDBLK
  5
20A6
330
209B
100
AcDbEntity
  8
0
100
AcDbBlockEnd
  0
BLOCK
  5
20EC
330
20E2
100
AcDbEntity
  8
0
100
AcDbBlockBegin
  2
*D8
 70
     1
 10
0.0
 20
0.0
 30
0.0
  3
*D8
  1

  0
LINE
  5
26F2
330
20E2
100
AcDbEntity
  8
SUNPOU
 62
     4
100
AcDbLine
 10
379.0804403208389
 20
232.6845193259931
 30
0.0
 11
421.1030517495182
 21
232.6845193259931
 31
0.0
  0
LINE
  5
26F3
330
20E2
100
AcDbEntity
  8
SUNPOU
 62
     4
100
AcDbLine
 10
379.0804403208389
 20
158.6845193259931
 30
0.0
 11
421.1030517495182
 21
158.6845193259931
 31
0.0
  0
LINE
  5
26F4
330
20E2
100
AcDbEntity
  8
SUNPOU
 62
     4
100
AcDbLine
 10
418.1030517495182
 20
225.6845193259931
 30
0.0
 11
418.1030517495182
 21
165.6845193259931
 31
0.0
  0
INSERT
  5
26F5
330
20E2
100
AcDbEntity
  8
SUNPOU
 62
     4
100
AcDbBlockReference
  2
_OPEN
 10
418.1030517495182
 20
232.6845193259931
 30
0.0
 41
7.0
 42
7.0
 43
7.0
 50
90.0
  0
INSERT
  5
26F6
330
20E2
100
AcDbEntity
  8
SUNPOU
 62
     4
100
AcDbBlockReference
  2
_OPEN
 10
418.1030517495182
 20
158.6845193259931
 30
0.0
 41
7.0
 42
7.0
 43
7.0
 50
270.0
  0
MTEXT
  5
26F7
330
20E2
100
AcDbEntity
  8
SUNPOU
 62
     4
100
AcDbMText
 10
413.1030517495181
 20
195.6845193259932
 30
0.0
 40
6.0
 41
0.0
 71
     5
 72
     1
  1
\A1;74
 11
0.0000000000000001
 21
1.0
 31
0.0
  0
POINT
  5
26F8
330
20E2
100
AcDbEntity
  8
DEFPOINTS
 62
     0
100
AcDbPoint
 10
373.0804403208389
 20
232.6845193259931
 30
0.0
  0
POINT
  5
26F9
330
20E2
100
AcDbEntity
  8
DEFPOINTS
 62
     0
100
AcDbPoint
 10
373.0804403208389
 20
158.6845193259931
 30
0.0
  0
POINT
  5
26FA
330
20E2
100
AcDbEntity
  8
DEFPOINTS
 62
     0
100
AcDbPoint
 10
418.1030517495182
 20
158.6845193259931
 30
0.0
  0
ENDBLK
  5
20ED
330
20E2
100
AcDbEntity
  8
0
100
AcDbBlockEnd
  0
BLOCK
  5
213C
330
2130
100
AcDbEntity
  8
0
100
AcDbBlockBegin
  2
*D9
 70
     1
 10
0.0
 20
0.0
 30
0.0
  3
*D9
  1

  0
LINE
  5
26FB
330
2130
100
AcDbEntity
  8
SUNPOU
 62
     4
100
AcDbLine
 10
364.5804403208391
 20
154.6863484698932
 30
0.0
 11
364.5804403208391
 21
123.4097365783149
 31
0.0
  0
LINE
  5
26FC
330
2130
100
AcDbEntity
  8
SUNPOU
 62
     4
100
AcDbLine
 10
373.0804403208389
 20
152.9630518855931
 30
0.0
 11
373.0804403208389
 21
123.4097365783149
 31
0.0
  0
LINE
  5
26FD
330
2130
100
AcDbEntity
  8
SUNPOU
 62
     4
100
AcDbLine
 10
357.580440320839
 20
126.409736578315
 30
0.0
 11
350.5804403208391
 21
126.409736578315
 31
0.0
  0
LINE
  5
26FE
330
2130
100
AcDbEntity
  8
SUNPOU
 62
     4
100
AcDbLine
 10
380.080440320839
 20
126.409736578315
 30
0.0
 11
387.0804403208389
 21
126.409736578315
 31
0.0
  0
LINE
  5
26FF
330
2130
100
AcDbEntity
  8
SUNPOU
 62
     4
100
AcDbLine
 10
364.5804403208391
 20
126.409736578315
 30
0.0
 11
373.0804403208389
 21
126.409736578315
 31
0.0
  0
INSERT
  5
2700
330
2130
100
AcDbEntity
  8
SUNPOU
 62
     4
100
AcDbBlockReference
  2
_OPEN
 10
364.5804403208391
 20
126.409736578315
 30
0.0
 41
7.0
 42
7.0
 43
7.0
  0
INSERT
  5
2701
330
2130
100
AcDbEntity
  8
SUNPOU
 62
     4
100
AcDbBlockReference
  2
_OPEN
 10
373.0804403208389
 20
126.409736578315
 30
0.0
 41
7.0
 42
7.0
 43
7.0
 50
180.0
  0
MTEXT
  5
2702
330
2130
100
AcDbEntity
  8
SUNPOU
 62
     4
100
AcDbMText
 10
368.830440320839
 20
131.409736578315
 30
0.0
 40
6.0
 41
0.0
 71
     5
 72
     1
  1
\A1;9
  0
POINT
  5
2703
330
2130
100
AcDbEntity
  8
DEFPOINTS
 62
     0
100
AcDbPoint
 10
364.5804403208391
 20
160.6863484698932
 30
0.0
  0
POINT
  5
2704
330
2130
100
AcDbEntity
  8
DEFPOINTS
 62
     0
100
AcDbPoint
 10
373.0804403208389
 20
158.9630518855931
 30
0.0
  0
POINT
  5
2705
330
2130
100
AcDbEntity
  8
DEFPOINTS
 62
     0
100
AcDbPoint
 10
373.0804403208389
 20
126.409736578315
 30
0.0
  0
ENDBLK
  5
213D
330
2130
100
AcDbEntity
  8
0
100
AcDbBlockEnd
  0
BLOCK
  5
2154
330
214A
100
AcDbEntity
  8
0
100
AcDbBlockBegin
  2
*D10
 70
     1
 10
0.0
 20
0.0
 30
0.0
  3
*D10
  1

  0
LINE
  5
2706
330
214A
100
AcDbEntity
  8
SUNPOU
 62
     4
100
AcDbLine
 10
217.7366656406391
 20
236.1845193259931
 30
0.0
 11
169.2468711136071
 21
236.1845193259931
 31
0.0
  0
LINE
  5
2707
330
214A
100
AcDbEntity
  8
SUNPOU
 62
     4
100
AcDbLine
 10
363.8304403208389
 20
158.6845193259931
 30
0.0
 11
169.246871113607
 21
158.6845193259932
 31
0.0
  0
LINE
  5
2708
330
214A
100
AcDbEntity
  8
SUNPOU
 62
     4
100
AcDbLine
 10
172.2468711136071
 20
229.1845193259931
 30
0.0
 11
172.246871113607
 21
165.6845193259932
 31
0.0
  0
INSERT
  5
2709
330
214A
100
AcDbEntity
  8
SUNPOU
 62
     4
100
AcDbBlockReference
  2
_OPEN
 10
172.2468711136071
 20
236.1845193259931
 30
0.0
 41
7.0
 42
7.0
 43
7.0
 50
90.0
  0
INSERT
  5
270A
330
214A
100
AcDbEntity
  8
SUNPOU
 62
     4
100
AcDbBlockReference
  2
_OPEN
 10
172.246871113607
 20
158.6845193259932
 30
0.0
 41
7.0
 42
7.0
 43
7.0
 50
270.0
  0
MTEXT
  5
270B
330
214A
100
AcDbEntity
  8
SUNPOU
 62
     4
100
AcDbMText
 10
167.246871113607
 20
197.4345193259932
 30
0.0
 40
6.0
 41
0.0
 71
     5
 72
     1
  1
\A1;78
 11
0.0000000000000001
 21
1.0
 31
0.0
  0
POINT
  5
270C
330
214A
100
AcDbEntity
  8
DEFPOINTS
 62
     0
100
AcDbPoint
 10
223.7366656406391
 20
236.1845193259931
 30
0.0
  0
POINT
  5
270D
330
214A
100
AcDbEntity
  8
DEFPOINTS
 62
     0
100
AcDbPoint
 10
369.830440320839
 20
158.6845193259931
 30
0.0
  0
POINT
  5
270E
330
214A
100
AcDbEntity
  8
DEFPOINTS
 62
     0
100
AcDbPoint
 10
172.246871113607
 20
158.6845193259932
 30
0.0
  0
ENDBLK
  5
2155
330
214A
100
AcDbEntity
  8
0
100
AcDbBlockEnd
  0
BLOCK
  5
2251
330
2247
100
AcDbEntity
  8
0
100
AcDbBlockBegin
  2
*D11
 70
     1
 10
0.0
 20
0.0
 30
0.0
  3
*D11
  1

  0
LINE
  5
270F
330
2247
100
AcDbEntity
  8
SUNPOU
 62
     4
100
AcDbLine
 10
525.1196126268123
 20
228.6845193259931
 30
0.0
 11
525.1196126268123
 21
311.1288965983205
 31
0.0
  0
LINE
  5
2710
330
2247
100
AcDbEntity
  8
SUNPOU
 62
     4
100
AcDbLine
 10
599.1196126268123
 20
228.6845193259931
 30
0.0
 11
599.1196126268123
 21
311.1288965983205
 31
0.0
  0
LINE
  5
2711
330
2247
100
AcDbEntity
  8
SUNPOU
 62
     4
100
AcDbLine
 10
532.1196126268123
 20
308.1288965983205
 30
0.0
 11
592.1196126268123
 21
308.1288965983205
 31
0.0
  0
INSERT
  5
2712
330
2247
100
AcDbEntity
  8
SUNPOU
 62
     4
100
AcDbBlockReference
  2
_OPEN
 10
525.1196126268123
 20
308.1288965983205
 30
0.0
 41
7.0
 42
7.0
 43
7.0
 50
180.0
  0
INSERT
  5
2713
330
2247
100
AcDbEntity
  8
SUNPOU
 62
     4
100
AcDbBlockReference
  2
_OPEN
 10
599.1196126268123
 20
308.1288965983205
 30
0.0
 41
7.0
 42
7.0
 43
7.0
  0
MTEXT
  5
2714
330
2247
100
AcDbEntity
  8
SUNPOU
 62
     4
100
AcDbMText
 10
562.1196126268123
 20
313.1288965983205
 30
0.0
 40
6.0
 41
0.0
 71
     5
 72
     1
  1
\A1;74
  0
POINT
  5
2715
330
2247
100
AcDbEntity
  8
DEFPOINTS
 62
     0
100
AcDbPoint
 10
525.1196126268123
 20
222.6845193259931
 30
0.0
  0
POINT
  5
2716
330
2247
100
AcDbEntity
  8
DEFPOINTS
 62
     0
100
AcDbPoint
 10
599.1196126268123
 20
222.6845193259931
 30
0.0
  0
POINT
  5
2717
330
2247
100
AcDbEntity
  8
DEFPOINTS
 62
     0
100
AcDbPoint
 10
599.1196126268123
 20
308.1288965983205
 30
0.0
  0
ENDBLK
  5
2252
330
2247
100
AcDbEntity
  8
0
100
AcDbBlockEnd
  0
BLOCK
  5
2269
330
225D
100
AcDbEntity
  8
0
100
AcDbBlockBegin
  2
*D12
 70
     1
 10
0.0
 20
0.0
 30
0.0
  3
*D12
  1

  0
LINE
  5
2718
330
225D
100
AcDbEntity
  8
SUNPOU
 62
     4
100
AcDbLine
 10
595.1196126268123
 20
232.6845193259931
 30
0.0
 11
638.8948722337249
 21
232.6845193259931
 31
0.0
  0
LINE
  5
2719
330
225D
100
AcDbEntity
  8
SUNPOU
 62
     4
100
AcDbLine
 10
602.093490693409
 20
219.2049996608931
 30
0.0
 11
638.8948722337249
 21
219.2049996608931
 31
0.0
  0
LINE
  5
271A
330
225D
100
AcDbEntity
  8
SUNPOU
 62
     4
100
AcDbLine
 10
635.894872233725
 20
239.6845193259931
 30
0.0
 11
635.894872233725
 21
246.6845193259931
 31
0.0
  0
LINE
  5
271B
330
225D
100
AcDbEntity
  8
SUNPOU
 62
     4
100
AcDbLine
 10
635.894872233725
 20
212.2049996608931
 30
0.0
 11
635.894872233725
 21
205.2049996608931
 31
0.0
  0
LINE
  5
271C
330
225D
100
AcDbEntity
  8
SUNPOU
 62
     4
100
AcDbLine
 10
635.894872233725
 20
232.6845193259931
 30
0.0
 11
635.894872233725
 21
219.2049996608931
 31
0.0
  0
INSERT
  5
271D
330
225D
100
AcDbEntity
  8
SUNPOU
 62
     4
100
AcDbBlockReference
  2
_OPEN
 10
635.894872233725
 20
232.6845193259931
 30
0.0
 41
7.0
 42
7.0
 43
7.0
 50
270.0
  0
INSERT
  5
271E
330
225D
100
AcDbEntity
  8
SUNPOU
 62
     4
100
AcDbBlockReference
  2
_OPEN
 10
635.894872233725
 20
219.2049996608931
 30
0.0
 41
7.0
 42
7.0
 43
7.0
 50
90.0
  0
MTEXT
  5
271F
330
225D
100
AcDbEntity
  8
SUNPOU
 62
     4
100
AcDbMText
 10
630.8948722337249
 20
225.9447594934433
 30
0.0
 40
6.0
 41
0.0
 71
     5
 72
     1
  1
\A1;13
 11
0.0000000000000001
 21
1.0
 31
0.0
  0
POINT
  5
2720
330
225D
100
AcDbEntity
  8
DEFPOINTS
 62
     0
100
AcDbPoint
 10
589.1196126268123
 20
232.6845193259931
 30
0.0
  0
POINT
  5
2721
330
225D
100
AcDbEntity
  8
DEFPOINTS
 62
     0
100
AcDbPoint
 10
596.0934906934089
 20
219.2049996608931
 30
0.0
  0
POINT
  5
2722
330
225D
100
AcDbEntity
  8
DEFPOINTS
 62
     0
100
AcDbPoint
 10
635.894872233725
 20
219.2049996608931
 30
0.0
  0
ENDBLK
  5
226A
330
225D
100
AcDbEntity
  8
0
100
AcDbBlockEnd
  0
BLOCK
  5
2295
330
2289
100
AcDbEntity
  8
0
100
AcDbBlockBegin
  2
*D13
 70
     1
 10
0.0
 20
0.0
 30
0.0
  3
*D13
  1

  0
LINE
  5
2723
330
2289
100
AcDbEntity
  8
SUNPOU
100
AcDbLine
 10
529.1196126268123
 20
232.6845193259931
 30
0.0
 11
488.67157051926
 21
232.6845193259931
 31
0.0
  0
LINE
  5
2724
330
2289
100
AcDbEntity
  8
SUNPOU
100
AcDbLine
 10
523.2351516589501
 20
223.6845193259931
 30
0.0
 11
488.67157051926
 21
223.6845193259931
 31
0.0
  0
LINE
  5
2725
330
2289
100
AcDbEntity
  8
SUNPOU
100
AcDbLine
 10
491.67157051926
 20
239.6845193259931
 30
0.0
 11
491.67157051926
 21
246.6845193259931
 31
0.0
  0
LINE
  5
2726
330
2289
100
AcDbEntity
  8
SUNPOU
100
AcDbLine
 10
491.67157051926
 20
216.6845193259931
 30
0.0
 11
491.67157051926
 21
209.6845193259931
 31
0.0
  0
LINE
  5
2727
330
2289
100
AcDbEntity
  8
SUNPOU
100
AcDbLine
 10
491.67157051926
 20
232.6845193259931
 30
0.0
 11
491.67157051926
 21
223.6845193259931
 31
0.0
  0
INSERT
  5
2728
330
2289
100
AcDbEntity
  8
SUNPOU
100
AcDbBlockReference
  2
_OPEN
 10
491.67157051926
 20
232.6845193259931
 30
0.0
 41
7.0
 42
7.0
 43
7.0
 50
270.0
  0
INSERT
  5
2729
330
2289
100
AcDbEntity
  8
SUNPOU
100
AcDbBlockReference
  2
_OPEN
 10
491.67157051926
 20
223.6845193259931
 30
0.0
 41
7.0
 42
7.0
 43
7.0
 50
90.0
  0
MTEXT
  5
272A
330
2289
100
AcDbEntity
  8
SUNPOU
100
AcDbMText
 10
486.67157051926
 20
228.1845193259932
 30
0.0
 40
6.0
 41
0.0
 71
     5
 72
     1
  1
\A1;9
 11
0.0000000000000001
 21
1.0
 31
0.0
  0
POINT
  5
272B
330
2289
100
AcDbEntity
  8
DEFPOINTS
 62
     0
100
AcDbPoint
 10
535.1196126268123
 20
232.6845193259931
 30
0.0
  0
POINT
  5
272C
330
2289
100
AcDbEntity
  8
DEFPOINTS
 62
     0
100
AcDbPoint
 10
529.2351516589501
 20
223.6845193259931
 30
0.0
  0
POINT
  5
272D
330
2289
100
AcDbEntity
  8
DEFPOINTS
 62
     0
100
AcDbPoint
 10
491.67157051926
 20
223.6845193259931
 30
0.0
  0
ENDBLK
  5
2296
330
2289
100
AcDbEntity
  8
0
100
AcDbBlockEnd
  0
BLOCK
  5
22A2
330
2298
100
AcDbEntity
  8
0
100
AcDbBlockBegin
  2
*D14
 70
     1
 10
0.0
 20
0.0
 30
0.0
  3
*D14
  1

  0
LINE
  5
272E
330
2298
100
AcDbEntity
  8
SUNPOU
100
AcDbLine
 10
523.2351516589501
 20
223.6845193259931
 30
0.0
 11
488.67157051926
 21
223.6845193259931
 31
0.0
  0
LINE
  5
272F
330
2298
100
AcDbEntity
  8
SUNPOU
100
AcDbLine
 10
551.8505521712564
 20
165.9345193259931
 30
0.0
 11
488.67157051926
 21
165.9345193259931
 31
0.0
  0
LINE
  5
2730
330
2298
100
AcDbEntity
  8
SUNPOU
100
AcDbLine
 10
491.67157051926
 20
216.6845193259931
 30
0.0
 11
491.67157051926
 21
172.9345193259931
 31
0.0
  0
INSERT
  5
2731
330
2298
100
AcDbEntity
  8
SUNPOU
100
AcDbBlockReference
  2
_OPEN
 10
491.67157051926
 20
223.6845193259931
 30
0.0
 41
7.0
 42
7.0
 43
7.0
 50
90.0
  0
INSERT
  5
2732
330
2298
100
AcDbEntity
  8
SUNPOU
100
AcDbBlockReference
  2
_OPEN
 10
491.67157051926
 20
165.9345193259931
 30
0.0
 41
7.0
 42
7.0
 43
7.0
 50
270.0
  0
MTEXT
  5
2733
330
2298
100
AcDbEntity
  8
SUNPOU
100
AcDbMText
 10
486.67157051926
 20
194.8095193259932
 30
0.0
 40
6.0
 41
0.0
 71
     5
 72
     1
  1
\A1;58
 11
0.0000000000000001
 21
1.0
 31
0.0
  0
POINT
  5
2734
330
2298
100
AcDbEntity
  8
DEFPOINTS
 62
     0
100
AcDbPoint
 10
529.2351516589501
 20
223.6845193259931
 30
0.0
  0
POINT
  5
2735
330
2298
100
AcDbEntity
  8
DEFPOINTS
 62
     0
100
AcDbPoint
 10
557.8505521712563
 20
165.9345193259931
 30
0.0
  0
POINT
  5
2736
330
2298
100
AcDbEntity
  8
DEFPOINTS
 62
     0
100
AcDbPoint
 10
491.67157051926
 20
165.9345193259931
 30
0.0
  0
ENDBLK
  5
22A3
330
2298
100
AcDbEntity
  8
0
100
AcDbBlockEnd
  0
BLOCK
  5
22B4
330
22A5
100
AcDbEntity
  8
0
100
AcDbBlockBegin
  2
*D15
 70
     1
 10
0.0
 20
0.0
 30
0.0
  3
*D15
  1

  0
LINE
  5
2737
330
22A5
100
AcDbEntity
  8
SUNPOU
100
AcDbLine
 10
551.8505521712564
 20
165.9345193259931
 30
0.0
 11
488.67157051926
 21
165.9345193259931
 31
0.0
  0
LINE
  5
2738
330
22A5
100
AcDbEntity
  8
SUNPOU
100
AcDbLine
 10
556.1196126268123
 20
158.6845193259931
 30
0.0
 11
488.67157051926
 21
158.6845193259931
 31
0.0
  0
LINE
  5
2739
330
22A5
100
AcDbEntity
  8
SUNPOU
100
AcDbLine
 10
491.67157051926
 20
172.9345193259931
 30
0.0
 11
491.67157051926
 21
179.9345193259931
 31
0.0
  0
LINE
  5
273A
330
22A5
100
AcDbEntity
  8
SUNPOU
100
AcDbLine
 10
491.67157051926
 20
151.6845193259931
 30
0.0
 11
491.67157051926
 21
144.6845193259931
 31
0.0
  0
MTEXT
  5
273B
330
22A5
100
AcDbEntity
  8
SUNPOU
100
AcDbMText
 10
486.7625855351134
 20
162.1040737953003
 30
0.0
 40
6.0
 41
0.0
 71
     5
 72
     1
  1
\A1;7
 11
0.0000000000000001
 21
1.0
 31
0.0
  0
LINE
  5
273C
330
22A5
100
AcDbEntity
  8
SUNPOU
100
AcDbLine
 10
491.67157051926
 20
165.9345193259931
 30
0.0
 11
491.67157051926
 21
158.6845193259931
 31
0.0
  0
INSERT
  5
273D
330
22A5
100
AcDbEntity
  8
SUNPOU
100
AcDbBlockReference
  2
_OPEN
 10
491.67157051926
 20
165.9345193259931
 30
0.0
 41
7.0
 42
7.0
 43
7.0
 50
270.0
  0
INSERT
  5
273E
330
22A5
100
AcDbEntity
  8
SUNPOU
100
AcDbBlockReference
  2
_OPEN
 10
491.67157051926
 20
158.6845193259931
 30
0.0
 41
7.0
 42
7.0
 43
7.0
 50
90.0
  0
POINT
  5
273F
330
22A5
100
AcDbEntity
  8
DEFPOINTS
 62
     0
100
AcDbPoint
 10
557.8505521712563
 20
165.9345193259931
 30
0.0
  0
POINT
  5
2740
330
22A5
100
AcDbEntity
  8
DEFPOINTS
 62
     0
100
AcDbPoint
 10
562.1196126268123
 20
158.6845193259931
 30
0.0
  0
POINT
  5
2741
330
22A5
100
AcDbEntity
  8
DEFPOINTS
 62
     0
100
AcDbPoint
 10
491.67157051926
 20
158.6845193259931
 30
0.0
  0
ENDBLK
  5
22B5
330
22A5
100
AcDbEntity
  8
0
100
AcDbBlockEnd
  0
BLOCK
  5
2511
330
2505
100
AcDbEntity
  8
0
100
AcDbBlockBegin
  2
*D16
 70
     1
 10
0.0
 20
0.0
 30
0.0
  3
*D16
  1

  0
LINE
  5
2742
330
2505
100
AcDbEntity
  8
SUNPOU
100
AcDbLine
 10
363.080440320839
 20
238.6845193259931
 30
0.0
 11
363.080440320839
 21
264.6897947058821
 31
0.0
  0
LINE
  5
2743
330
2505
100
AcDbEntity
  8
SUNPOU
100
AcDbLine
 10
373.0804403208389
 20
238.6845193259931
 30
0.0
 11
373.0804403208389
 21
264.6897947058821
 31
0.0
  0
LINE
  5
2744
330
2505
100
AcDbEntity
  8
SUNPOU
100
AcDbLine
 10
356.0804403208389
 20
261.6897947058821
 30
0.0
 11
349.080440320839
 21
261.6897947058821
 31
0.0
  0
LINE
  5
2745
330
2505
100
AcDbEntity
  8
SUNPOU
100
AcDbLine
 10
380.080440320839
 20
261.6897947058821
 30
0.0
 11
387.0804403208389
 21
261.6897947058821
 31
0.0
  0
MTEXT
  5
2746
330
2505
100
AcDbEntity
  8
SUNPOU
100
AcDbMText
 10
368.0804403208389
 20
266.7343560219521
 30
0.0
 40
6.0
 41
0.0
 71
     5
 72
     1
  1
\A1;10
  0
LINE
  5
2747
330
2505
100
AcDbEntity
  8
SUNPOU
100
AcDbLine
 10
363.080440320839
 20
261.6897947058821
 30
0.0
 11
373.0804403208389
 21
261.6897947058821
 31
0.0
  0
INSERT
  5
2748
330
2505
100
AcDbEntity
  8
SUNPOU
100
AcDbBlockReference
  2
_OPEN
 10
363.080440320839
 20
261.6897947058821
 30
0.0
 41
7.0
 42
7.0
 43
7.0
  0
INSERT
  5
2749
330
2505
100
AcDbEntity
  8
SUNPOU
100
AcDbBlockReference
  2
_OPEN
 10
373.0804403208389
 20
261.6897947058821
 30
0.0
 41
7.0
 42
7.0
 43
7.0
 50
180.0
  0
POINT
  5
274A
330
2505
100
AcDbEntity
  8
DEFPOINTS
 62
     0
100
AcDbPoint
 10
363.080440320839
 20
232.6845193259931
 30
0.0
  0
POINT
  5
274B
330
2505
100
AcDbEntity
  8
DEFPOINTS
 62
     0
100
AcDbPoint
 10
373.0804403208389
 20
232.6845193259931
 30
0.0
  0
POINT
  5
274C
330
2505
100
AcDbEntity
  8
DEFPOINTS
 62
     0
100
AcDbPoint
 10
373.0804403208389
 20
261.6897947058821
 30
0.0
  0
ENDBLK
  5
2512
330
2505
100
AcDbEntity
  8
0
100
AcDbBlockEnd
  0
BLOCK
  5
251E
330
2514
100
AcDbEntity
  8
0
100
AcDbBlockBegin
  2
*D17
 70
     1
 10
0.0
 20
0.0
 30
0.0
  3
*D17
  1

  0
LINE
  5
274D
330
2514
100
AcDbEntity
  8
SUNPOU
100
AcDbLine
 10
373.0804403208389
 20
238.6845193259931
 30
0.0
 11
373.0804403208389
 21
264.6897947058821
 31
0.0
  0
LINE
  5
274E
330
2514
100
AcDbEntity
  8
SUNPOU
100
AcDbLine
 10
398.0804403208389
 20
238.6845193259931
 30
0.0
 11
398.0804403208389
 21
264.6897947058821
 31
0.0
  0
LINE
  5
274F
330
2514
100
AcDbEntity
  8
SUNPOU
100
AcDbLine
 10
380.080440320839
 20
261.6897947058821
 30
0.0
 11
391.0804403208389
 21
261.6897947058821
 31
0.0
  0
INSERT
  5
2750
330
2514
100
AcDbEntity
  8
SUNPOU
100
AcDbBlockReference
  2
_OPEN
 10
373.0804403208389
 20
261.6897947058821
 30
0.0
 41
7.0
 42
7.0
 43
7.0
 50
180.0
  0
INSERT
  5
2751
330
2514
100
AcDbEntity
  8
SUNPOU
100
AcDbBlockReference
  2
_OPEN
 10
398.0804403208389
 20
261.6897947058821
 30
0.0
 41
7.0
 42
7.0
 43
7.0
  0
MTEXT
  5
2752
330
2514
100
AcDbEntity
  8
SUNPOU
100
AcDbMText
 10
385.5804403208389
 20
266.6897947058821
 30
0.0
 40
6.0
 41
0.0
 71
     5
 72
     1
  1
\A1;25
  0
POINT
  5
2753
330
2514
100
AcDbEntity
  8
DEFPOINTS
 62
     0
100
AcDbPoint
 10
373.0804403208389
 20
232.6845193259931
 30
0.0
  0
POINT
  5
2754
330
2514
100
AcDbEntity
  8
DEFPOINTS
 62
     0
100
AcDbPoint
 10
398.0804403208389
 20
232.6845193259931
 30
0.0
  0
POINT
  5
2755
330
2514
100
AcDbEntity
  8
DEFPOINTS
 62
     0
100
AcDbPoint
 10
398.0804403208389
 20
261.6897947058821
 30
0.0
  0
ENDBLK
  5
251F
330
2514
100
AcDbEntity
  8
0
100
AcDbBlockEnd
  0
ENDSEC
  0
SECTION
  2
ENTITIES
  0
LWPOLYLINE
  5
AAD
330
1A
100
AcDbEntity
  8
ZUWAKU
100
AcDbPolyline
 90
        4
 70
     1
 43
0.0
 10
0.7999999839298653
 20
550.8000004406949
 10
0.7999999839298653
 20
0.8000004406949301
 10
796.7999999839299
 20
0.8000004406949301
 10
796.7999999839299
 20
550.8000004406949
  0
LWPOLYLINE
  5
AAE
330
1A
100
AcDbEntity
  8
ZUWAKU
100
AcDbPolyline
 90
        4
 70
     1
 43
0.0
 10
0.399999983929888
 20
551.2000004406949
 10
0.399999983929888
 20
0.4000004406949529
 10
797.1999999839299
 20
0.4000004406949298
 10
797.1999999839299
 20
551.2000004406949
  0
LWPOLYLINE
  5
AAF
330
1A
100
AcDbEntity
  8
ZUWAKU
100
AcDbPolyline
 90
        4
 70
     1
 43
0.0
 10
-0.0000000160700893
 20
551.6000004406948
 10
-0.0000000160700893
 20
0.0000004406948619
 10
797.59999998393
 20
0.0000004406949294
 10
797.59999998393
 20
551.600000440695
  0
LWPOLYLINE
  5
AB0
330
1A
100
AcDbEntity
  8
ZUWAKU
100
AcDbPolyline
 90
        4
 70
     1
 43
0.0
 10
0.5999999839298198
 20
551.000000440695
 10
0.5999999839298198
 20
0.6000004406948847
 10
796.9999999839301
 20
0.6000004406949309
 10
796.9999999839298
 20
551.000000440695
  0
LWPOLYLINE
  5
AB1
330
1A
100
AcDbEntity
  8
ZUWAKU
100
AcDbPolyline
 90
        4
 70
     1
 43
0.0
 10
0.1999999839298425
 20
551.4000004406949
 10
0.1999999839298425
 20
0.2000004406949074
 10
797.3999999839297
 20
0.2000004406949305
 10
797.39999998393
 20
551.4000004406949
  0
LINE
  5
AB2
330
1A
100
AcDbEntity
  8
ZUWAKU
100
AcDbLine
 10
-0.0000000160700893
 20
30.00000044069486
 30
0.0
 11
797.3999999839297
 21
30.00000044069486
 31
0.0
  0
LINE
  5
AB3
330
1A
100
AcDbEntity
  8
ZUWAKU
100
AcDbLine
 10
-0.0000000160700893
 20
30.20000044069486
 30
0.0
 11
797.3999999839297
 21
30.20000044069486
 31
0.0
  0
LINE
  5
AB4
330
1A
100
AcDbEntity
  8
ZUWAKU
100
AcDbLine
 10
-0.0000000160700893
 20
30.40000044069486
 30
0.0
 11
797.3999999839297
 21
30.40000044069486
 31
0.0
  0
LINE
  5
AB5
330
1A
100
AcDbEntity
  8
ZUWAKU
100
AcDbLine
 10
-0.0000000160700893
 20
30.60000044069487
 30
0.0
 11
797.3999999839297
 21
30.60000044069487
 31
0.0
  0
LINE
  5
AB6
330
1A
100
AcDbEntity
  8
ZUWAKU
100
AcDbLine
 10
-0.0000000160700893
 20
30.80000044069487
 30
0.0
 11
797.3999999839297
 21
30.80000044069487
 31
0.0
  0
LINE
  5
AB7
330
1A
100
AcDbEntity
  8
ZUWAKU
100
AcDbLine
 10
208.6466012739979
 20
15.40000044069489
 30
0.0
 11
447.4243639549213
 21
15.40000044069489
 31
0.0
  0
LINE
  5
AB8
330
1A
100
AcDbEntity
  8
ZUWAKU
100
AcDbLine
 10
208.6466012739979
 20
15.60000044069489
 30
0.0
 11
447.4243639549213
 21
15.6000004406949
 31
0.0
  0
LINE
  5
AB9
330
1A
100
AcDbEntity
  8
ZUWAKU
100
AcDbLine
 10
208.6466012739979
 20
15.2000004406949
 30
0.0
 11
447.4243639549213
 21
15.20000044069489
 31
0.0
  0
CIRCLE
  5
ABB
330
1A
100
AcDbEntity
  8
ZUWAKU
100
AcDbCircle
 10
25.99221213871101
 20
15.20000044069486
 30
0.0
 40
1.75
  0
LINE
  5
ABC
330
1A
100
AcDbEntity
  8
ZUWAKU
100
AcDbLine
 10
26.86721213871101
 20
7.150000440694867
 30
0.0
 11
24.94221213871105
 21
7.150000440694867
 31
0.0
  0
LINE
  5
ABD
330
1A
100
AcDbEntity
  8
ZUWAKU
100
AcDbLine
 10
24.94221213871105
 20
9.950000440694864
 30
0.0
 11
26.86721213871101
 21
9.950000440694864
 31
0.0
  0
LINE
  5
ABE
330
1A
100
AcDbEntity
  8
ZUWAKU
100
AcDbLine
 10
26.86721213871101
 20
20.45000044069486
 30
0.0
 11
24.94221213871105
 21
20.45000044069486
 31
0.0
  0
LINE
  5
ABF
330
1A
100
AcDbEntity
  8
ZUWAKU
100
AcDbLine
 10
24.94221213871105
 20
23.25000044069482
 30
0.0
 11
26.86721213871101
 21
23.25000044069486
 31
0.0
  0
INSERT
  5
AC0
330
1A
100
AcDbEntity
  8
ZUWAKU
  6
CONTINUOUS
100
AcDbBlockReference
  2
*X1
 10
0.0
 20
0.0
 30
0.0
1001
ACAD
1000
HATCH
1002
{
1070
    19
1000
ANSI37
1040
0.2
1040
0.0
1000
R14_HATCH_DATA
1000
AC0
1011
1.0
1021
0.0
1031
0.0
1011
0.0
1021
1.0
1031
0.0
1011
0.0
1021
0.0
1031
1.0
1040
0.0
1010
0.0
1020
0.0
1030
1.0
1000
ANSI37
1070
     0
1070
     0
1071
        8
1071
        7
1070
     1
1070
     1
1071
       24
1040
14.50226264504976
1040
17.64484892167844
1040
-0.1989123673796348
1040
14.09221213871103
1040
18.63479841533949
1040
0.0
1040
14.09221213871103
1040
19.92500044069487
1040
-0.4142135623730912
1040
14.61721213871101
1040
20.45000044069486
1040
0.0
1040
17.59221213871092
1040
20.45000044069486
1040
0.4142135623731546
1040
18.11721213871101
1040
20.97500044069485
1040
0.0
1040
18.11721213871101
1040
22.72500044069487
1040
0.4142135623731586
1040
17.59221213871092
1040
23.25000044069486
1040
0.0
1040
14.09221213871103
1040
23.25000044069486
1040
0.4142135623730928
1040
11.29221213871107
1040
20.45000044069489
1040
0.0
1040
11.29221213871107
1040
18.63479841533962
1040
0.1989123673796619
1040
12.52236365772751
1040
15.66494993435601
1040
0.0
1040
15.43216163237218
1040
12.75515195971135
1040
-0.1989123673796613
1040
15.84221213871103
1040
11.76520246605017
1040
0.0
1040
15.84221213871103
1040
10.47500044069485
1040
-0.4142135623730911
1040
15.31721213871105
1040
9.950000440694864
1040
0.0
1040
12.34221213871114
1040
9.950000440694864
1040
0.4142135623731526
1040
11.81721213871105
1040
9.425000440694876
1040
0.0
1040
11.81721213871105
1040
7.675000440694855
1040
0.4142135623731526
1040
12.34221213871114
1040
7.150000440694867
1040
0.0
1040
15.84221213871103
1040
7.150000440694867
1040
0.4142135623731044
1040
18.6422121387111
1040
9.950000440694843
1040
0.0
1040
18.6422121387111
1040
11.76520246605011
1040
0.1989123673796604
1040
17.41206061969455
1040
14.73505094703365
1040
0.0
1071
        0
1071
        7
1070
     1
1070
     1
1071
       16
1040
23.54221213871107
1040
19.05000044069487
1040
-0.4142135623730935
1040
24.94221213871105
1040
20.45000044069486
1040
0.0
1040
26.86721213871101
1040
20.45000044069486
1040
0.4142135623731546
1040
27.3922121387111
1040
20.97500044069485
1040
0.0
1040
27.3922121387111
1040
22.72500044069487
1040
0.4142135623730951
1040
26.86721213871112
1040
23.25000044069486
1040
0.0
1040
24.94221213871094
1040
23.25000044069482
1040
0.4142135623730892
1040
20.74221213871101
1040
19.0500004406948
1040
0.0
1040
20.74221213871101
1040
11.35000044069489
1040
0.4142135623730969
1040
24.94221213871105
1040
7.150000440694867
1040
0.0
1040
26.86721213871101
1040
7.150000440694867
1040
0.4142135623731526
1040
27.3922121387111
1040
7.675000440694855
1040
0.0
1040
27.3922121387111
1040
9.425000440694876
1040
0.4142135623730891
1040
26.86721213871112
1040
9.950000440694864
1040
0.0
1040
24.94221213871105
1040
9.950000440694864
1040
-0.4142135623730928
1040
23.54221213871107
1040
11.35000044069485
1040
0.0
1071
        0
1071
        7
1070
     1
1070
     1
1071
        2
1040
24.24221213871101
1040
15.20000044069486
1040
1.0
1040
27.74221213871101
1040
15.20000044069486
1040
1.0
1071
        0
1071
        7
1070
     1
1070
     1
1071
       26
1040
37.31485862088902
1040
19.20504763425829
1040
0.0
1040
38.37649825402684
1040
22.56690647252788
1040
0.5069206636600134
1040
37.87586735483148
1040
23.25000044069486
1040
0.0
1040
36.17697797522225
1040
23.25000044069486
1040
0.3272098845218764
1040
35.6763470760269
1040
22.88309440886183
1040
0.0
1040
33.80807720139512
1040
16.96690647252794
1040
-0.3272098845219541
1040
33.30744630219965
1040
16.60000044069486
1040
0.0
1040
33.16721213871119
1040
16.60000044069486
1040
-0.4142135623731526
1040
32.6422121387111
1040
17.12500044069485
1040
0.0
1040
32.6422121387111
1040
22.72500044069487
1040
0.4142135623730951
1040
32.11721213871112
1040
23.25000044069486
1040
0.0
1040
30.36721213871101
1040
23.25000044069486
1040
0.4142135623730871
1040
29.84221213871103
1040
22.72500044069488
1040
0.0
1040
29.84221213871103
1040
7.675000440694855
1040
0.4142135623730891
1040
30.36721213871101
1040
7.150000440694867
1040
0.0
1040
32.11721213871101
1040
7.150000440694867
1040
0.4142135623731526
1040
32.6422121387111
1040
7.675000440694855
1040
0.0
1040
32.6422121387111
1040
13.27500044069487
1040
-0.4142135623731526
1040
33.16721213871119
1040
13.80000044069486
1040
0.0
1040
33.30744630219976
1040
13.80000044069486
1040
-0.3272098845218915
1040
33.80807720139512
1040
13.43309440886179
1040
0.0
1040
35.6763470760269
1040
7.516906472527939
1040
0.3272098845218902
1040
36.17697797522225
1040
7.150000440694867
1040
0.0
1040
37.87586735483148
1040
7.150000440694867
1040
0.5069206636600335
1040
38.37649825402684
1040
7.833094408861875
1040
0.0
1040
36.05010687555318
1040
15.200000440695
1040
0.0
1071
        0
1071
        7
1070
     1
1070
     1
1071
        8
1040
43.49221213871101
1040
22.72500044069488
1040
0.4142135623731546
1040
42.96721213871092
1040
23.25000044069486
1040
0.0
1040
41.21721213871114
1040
23.25000044069486
1040
0.4142135623731507
1040
40.69221213871105
1040
22.72500044069488
1040
0.0
1040
40.69221213871105
1040
7.675000440694855
1040
0.4142135623731526
1040
41.21721213871114
1040
7.150000440694867
1040
0.0
1040
42.96721213871092
1040
7.150000440694867
1040
0.4142135623731526
1040
43.49221213871101
1040
7.675000440694855
1040
0.0
1071
        0
1071
        7
1070
     1
1070
     1
1071
       24
1040
48.3922121387111
1040
19.92500044069487
1040
-0.4142135623731546
1040
48.91721213871119
1040
20.45000044069486
1040
0.0
1040
51.8922121387111
1040
20.45000044069486
1040
0.4142135623730911
1040
52.41721213871108
1040
20.97500044069485
1040
0.0
1040
52.41721213871108
1040
22.72500044069487
1040
0.4142135623730952
1040
51.8922121387111
1040
23.25000044069486
1040
0.0
1040
48.3922121387111
1040
23.25000044069486
1040
0.4142135623731048
1040
45.59221213871103
1040
20.45000044069489
1040
0.0
1040
45.59221213871103
1040
18.63479841533962
1040
0.1989123673796613
1040
46.82236365772758
1040
15.66494993435607
1040
0.0
1040
49.73216163237225
1040
12.7551519597114
1040
-0.1989123673796402
1040
50.1422121387111
1040
11.76520246605033
1040
0.0
1040
50.1422121387111
1040
10.47500044069485
1040
-0.4142135623730911
1040
49.61721213871112
1040
9.950000440694864
1040
0.0
1040
46.6422121387111
1040
9.950000440694864
1040
0.4142135623731526
1040
46.11721213871101
1040
9.425000440694876
1040
0.0
1040
46.11721213871101
1040
7.675000440694855
1040
0.4142135623730891
1040
46.64221213871099
1040
7.150000440694867
1040
0.0
1040
50.1422121387111
1040
7.150000440694867
1040
0.4142135623730925
1040
52.94221213871106
1040
9.950000440694843
1040
0.0
1040
52.94221213871106
1040
11.76520246605011
1040
0.1989123673796675
1040
51.71206061969451
1040
14.73505094703376
1040
0.0
1040
48.80226264504995
1040
17.64484892167828
1040
-0.1989123673796652
1040
48.3922121387111
1040
18.63479841533945
1040
0.0
1071
        0
1071
        7
1070
     1
1070
     1
1071
       16
1040
57.84221213871103
1040
22.72500044069485
1040
0.414213562373103
1040
57.31721213871106
1040
23.25000044069486
1040
0.0
1040
55.56721213871106
1040
23.25000044069486
1040
0.4142135623730871
1040
55.04221213871108
1040
22.72500044069488
1040
0.0
1040
55.04221213871108
1040
9.950000440694843
1040
0.4142135623730926
1040
57.84221213871103
1040
7.150000440694867
1040
0.0
1040
61.34221213871104
1040
7.150000440694867
1040
0.4142135623731044
1040
64.1422121387111
1040
9.950000440694843
1040
0.0
1040
64.1422121387111
1040
22.72500044069487
1040
0.4142135623730951
1040
63.61721213871113
1040
23.25000044069486
1040
0.0
1040
61.86721213871101
1040
23.25000044069486
1040
0.4142135623730871
1040
61.34221213871104
1040
22.72500044069488
1040
0.0
1040
61.34221213871104
1040
11.00000044069484
1040
-0.414213562373088
1040
60.29221213871108
1040
9.950000440694864
1040
0.0
1040
58.8922121387111
1040
9.950000440694864
1040
-0.4142135623731197
1040
57.84221213871103
1040
11.00000044069484
1040
0.0
1071
        0
1071
        7
1070
     1
1070
     1
1071
        8
1040
69.04221213871108
1040
22.72500044069488
1040
0.4142135623730871
1040
68.5172121387111
1040
23.25000044069486
1040
0.0
1040
66.7672121387111
1040
23.25000044069486
1040
0.4142135623731507
1040
66.24221213871101
1040
22.72500044069488
1040
0.0
1040
66.24221213871101
1040
7.675000440694855
1040
0.4142135623730891
1040
66.76721213871099
1040
7.150000440694867
1040
0.0
1040
68.5172121387111
1040
7.150000440694867
1040
0.4142135623730891
1040
69.04221213871108
1040
7.675000440694855
1040
0.0
1071
        0
1070
     0
1070
     1
1040
0.0
1040
0.2
1070
     0
1070
     2
1040
0.7853981633974483
1040
-900.942304350749
1040
-13.19999955930507
1040
-0.4490128060534576
1040
0.4490128060534577
1070
     0
1040
2.356194490192344
1040
-900.942304350749
1040
-13.19999955930507
1040
-0.4490128060534577
1040
-0.4490128060534576
1070
     0
1040
0.057451373970553
1071
        8
1040
16.07985494695322
1040
15.16717408658041
1040
0.0
1040
22.40451499036907
1040
18.84406262314587
1040
0.0
1040
25.16436786958957
1040
15.51188208676558
1040
0.0
1040
30.91405996556705
1040
16.20129808713636
1040
0.0
1040
41.83847200288664
1040
16.66091035467798
1040
0.0
1040
46.89820087905945
1040
19.41857675710207
1040
0.0
1040
56.55768595633026
1040
18.72915835578987
1040
0.0
1040
67.82707960355264
1040
19.18877062333149
1040
0.0
1002
}
  0
ARC
  5
AC1
330
1A
100
AcDbEntity
  8
ZUWAKU
100
AcDbCircle
 10
15.49221213871101
 20
18.63479841533956
 30
0.0
 40
4.199999999999999
100
AcDbArc
 50
180.0
 51
225.0
  0
LINE
  5
AC2
330
1A
100
AcDbEntity
  8
ZUWAKU
100
AcDbLine
 10
20.74221213871101
 20
11.35000044069487
 30
0.0
 11
20.74221213871101
 21
19.05000044069482
 31
0.0
  0
LINE
  5
AC3
330
1A
100
AcDbEntity
  8
ZUWAKU
100
AcDbLine
 10
23.54221213871107
 20
19.05000044069486
 30
0.0
 11
23.54221213871107
 21
11.35000044069487
 31
0.0
  0
ARC
  5
AC4
330
1A
100
AcDbEntity
  8
ZUWAKU
100
AcDbCircle
 10
15.49221213871101
 20
18.63479841533956
 30
0.0
 40
1.399999999999999
100
AcDbArc
 50
180.0000000000016
 51
224.9999999999988
  0
ARC
  5
AC5
330
1A
100
AcDbEntity
  8
ZUWAKU
100
AcDbCircle
 10
24.94221213871105
 20
11.35000044069487
 30
0.0
 40
4.199999999999999
100
AcDbArc
 50
180.0
 51
270.0
  0
ARC
  5
AC6
330
1A
100
AcDbEntity
  8
ZUWAKU
100
AcDbCircle
 10
15.84221213871103
 20
9.950000440694864
 30
0.0
 40
2.799999999999999
100
AcDbArc
 50
270.0
 51
0.0
  0
ARC
  5
AC7
330
1A
100
AcDbEntity
  8
ZUWAKU
100
AcDbCircle
 10
14.44221213871105
 20
11.76520246605017
 30
0.0
 40
4.199999999999999
100
AcDbArc
 50
0.0
 51
45.0
  0
LINE
  5
AC8
330
1A
100
AcDbEntity
  8
ZUWAKU
100
AcDbLine
 10
12.52236365772751
 20
15.66494993435604
 30
0.0
 11
15.43216163237218
 21
12.75515195971138
 31
0.0
  0
LINE
  5
AC9
330
1A
100
AcDbEntity
  8
ZUWAKU
100
AcDbLine
 10
12.34221213871103
 20
9.950000440694864
 30
0.0
 11
15.31721213871105
 21
9.950000440694864
 31
0.0
  0
LINE
  5
ACA
330
1A
100
AcDbEntity
  8
ZUWAKU
100
AcDbLine
 10
12.34221213871103
 20
7.150000440694867
 30
0.0
 11
15.84221213871103
 21
7.150000440694867
 31
0.0
  0
ARC
  5
ACB
330
1A
100
AcDbEntity
  8
ZUWAKU
100
AcDbCircle
 10
12.34221213871103
 20
9.425000440694866
 30
0.0
 40
0.525
100
AcDbArc
 50
90.0
 51
180.0
  0
ARC
  5
ACC
330
1A
100
AcDbEntity
  8
ZUWAKU
100
AcDbCircle
 10
12.34221213871103
 20
7.675000440694866
 30
0.0
 40
0.525
100
AcDbArc
 50
180.0
 51
270.0
  0
LINE
  5
ACD
330
1A
100
AcDbEntity
  8
ZUWAKU
100
AcDbLine
 10
11.81721213871105
 20
7.675000440694866
 30
0.0
 11
11.81721213871105
 21
9.425000440694866
 31
0.0
  0
ARC
  5
ACE
330
1A
100
AcDbEntity
  8
ZUWAKU
100
AcDbCircle
 10
14.44221213871105
 20
11.76520246605021
 30
0.0
 40
1.399999999999999
100
AcDbArc
 50
0.0
 51
45.0
  0
ARC
  5
ACF
330
1A
100
AcDbEntity
  8
ZUWAKU
100
AcDbCircle
 10
15.31721213871105
 20
10.47500044069487
 30
0.0
 40
0.525
100
AcDbArc
 50
270.0
 51
0.0
  0
LINE
  5
AD0
330
1A
100
AcDbEntity
  8
ZUWAKU
100
AcDbLine
 10
15.84221213871103
 20
10.47500044069487
 30
0.0
 11
15.84221213871103
 21
11.76520246605021
 31
0.0
  0
LINE
  5
AD1
330
1A
100
AcDbEntity
  8
ZUWAKU
100
AcDbLine
 10
17.41206061969455
 20
14.73505094703369
 30
0.0
 11
14.50226264504988
 21
17.64484892167836
 31
0.0
  0
ARC
  5
AD2
330
1A
100
AcDbEntity
  8
ZUWAKU
100
AcDbCircle
 10
24.94221213871105
 20
11.35000044069487
 30
0.0
 40
1.399999999999999
100
AcDbArc
 50
180.0
 51
270.0
  0
LINE
  5
AD3
330
1A
100
AcDbEntity
  8
ZUWAKU
100
AcDbLine
 10
18.6422121387111
 20
9.950000440694864
 30
0.0
 11
18.6422121387111
 21
11.76520246605021
 31
0.0
  0
ARC
  5
AD4
330
1A
100
AcDbEntity
  8
ZUWAKU
100
AcDbCircle
 10
17.59221213871103
 20
20.97500044069486
 30
0.0
 40
0.525
100
AcDbArc
 50
270.0
 51
0.0
  0
ARC
  5
AD5
330
1A
100
AcDbEntity
  8
ZUWAKU
100
AcDbCircle
 10
17.59221213871103
 20
22.72500044069486
 30
0.0
 40
0.525
100
AcDbArc
 50
0.0
 51
90.0
  0
ARC
  5
AD6
330
1A
100
AcDbEntity
  8
ZUWAKU
100
AcDbCircle
 10
14.09221213871103
 20
20.45000044069486
 30
0.0
 40
2.799999999999999
100
AcDbArc
 50
90.0
 51
180.0
  0
LINE
  5
AD7
330
1A
100
AcDbEntity
  8
ZUWAKU
100
AcDbLine
 10
11.29221213871107
 20
20.45000044069486
 30
0.0
 11
11.29221213871107
 21
18.63479841533952
 31
0.0
  0
LINE
  5
AD8
330
1A
100
AcDbEntity
  8
ZUWAKU
100
AcDbLine
 10
17.59221213871103
 20
20.45000044069486
 30
0.0
 11
14.61721213871101
 21
20.45000044069486
 31
0.0
  0
LINE
  5
AD9
330
1A
100
AcDbEntity
  8
ZUWAKU
100
AcDbLine
 10
14.09221213871103
 20
19.92500044069486
 30
0.0
 11
14.09221213871103
 21
18.63479841533952
 31
0.0
  0
ARC
  5
ADA
330
1A
100
AcDbEntity
  8
ZUWAKU
100
AcDbCircle
 10
14.61721213871101
 20
19.92500044069486
 30
0.0
 40
0.525
100
AcDbArc
 50
90.0
 51
180.0
  0
LINE
  5
ADB
330
1A
100
AcDbEntity
  8
ZUWAKU
100
AcDbLine
 10
14.09221213871103
 20
23.25000044069486
 30
0.0
 11
17.59221213871103
 21
23.25000044069486
 31
0.0
  0
ARC
  5
ADC
330
1A
100
AcDbEntity
  8
ZUWAKU
100
AcDbCircle
 10
24.94221213871105
 20
19.05000044069482
 30
0.0
 40
4.199999999999999
100
AcDbArc
 50
90.0
 51
180.0
  0
ARC
  5
ADD
330
1A
100
AcDbEntity
  8
ZUWAKU
100
AcDbCircle
 10
24.94221213871105
 20
19.05000044069486
 30
0.0
 40
1.399999999999999
100
AcDbArc
 50
90.0
 51
180.0
  0
LINE
  5
ADE
330
1A
100
AcDbEntity
  8
ZUWAKU
100
AcDbLine
 10
18.11721213871101
 20
22.72500044069486
 30
0.0
 11
18.11721213871101
 21
20.97500044069486
 31
0.0
  0
LINE
  5
ADF
330
1A
100
AcDbEntity
  8
ZUWAKU
100
AcDbLine
 10
35.6763470760269
 20
22.88309440886183
 30
0.0
 11
33.80807720139512
 21
16.96690647252789
 31
0.0
  0
LINE
  5
AE0
330
1A
100
AcDbEntity
  8
ZUWAKU
100
AcDbLine
 10
29.84221213871103
 20
22.72500044069486
 30
0.0
 11
29.84221213871103
 21
7.675000440694866
 31
0.0
  0
LINE
  5
AE1
330
1A
100
AcDbEntity
  8
ZUWAKU
100
AcDbLine
 10
32.6422121387111
 20
17.12500044069487
 30
0.0
 11
32.6422121387111
 21
22.72500044069486
 31
0.0
  0
LINE
  5
AE2
330
1A
100
AcDbEntity
  8
ZUWAKU
100
AcDbLine
 10
57.84221213871103
 20
11.00000044069486
 30
0.0
 11
57.84221213871103
 21
22.72500044069486
 31
0.0
  0
LINE
  5
AE3
330
1A
100
AcDbEntity
  8
ZUWAKU
100
AcDbLine
 10
55.04221213871108
 20
22.72500044069486
 30
0.0
 11
55.04221213871108
 21
9.950000440694864
 31
0.0
  0
LINE
  5
AE4
330
1A
100
AcDbEntity
  8
ZUWAKU
100
AcDbLine
 10
43.49221213871101
 20
7.675000440694866
 30
0.0
 11
43.49221213871101
 21
22.72500044069486
 31
0.0
  0
LINE
  5
AE5
330
1A
100
AcDbEntity
  8
ZUWAKU
100
AcDbLine
 10
40.69221213871105
 20
22.72500044069486
 30
0.0
 11
40.69221213871105
 21
7.675000440694866
 31
0.0
  0
LINE
  5
AE6
330
1A
100
AcDbEntity
  8
ZUWAKU
100
AcDbLine
 10
37.31485862088902
 20
19.20504763425829
 30
0.0
 11
36.05010687555318
 21
15.20000044069488
 31
0.0
  0
ARC
  5
AE7
330
1A
100
AcDbEntity
  8
ZUWAKU
100
AcDbCircle
 10
49.79221213871108
 20
18.63479841533956
 30
0.0
 40
4.199999999999999
100
AcDbArc
 50
180.0
 51
225.0
  0
ARC
  5
AE8
330
1A
100
AcDbEntity
  8
ZUWAKU
100
AcDbCircle
 10
49.79221213871108
 20
18.63479841533956
 30
0.0
 40
1.399999999999999
100
AcDbArc
 50
180.0000000000016
 51
224.9999999999988
  0
LINE
  5
AE9
330
1A
100
AcDbEntity
  8
ZUWAKU
100
AcDbLine
 10
66.24221213871101
 20
22.72500044069486
 30
0.0
 11
66.24221213871101
 21
7.675000440694866
 31
0.0
  0
LINE
  5
AEA
330
1A
100
AcDbEntity
  8
ZUWAKU
100
AcDbLine
 10
69.04221213871108
 20
7.675000440694866
 30
0.0
 11
69.04221213871108
 21
22.72500044069486
 31
0.0
  0
LINE
  5
AEB
330
1A
100
AcDbEntity
  8
ZUWAKU
100
AcDbLine
 10
61.34221213871104
 20
22.72500044069486
 30
0.0
 11
61.34221213871104
 21
11.00000044069486
 31
0.0
  0
LINE
  5
AEC
330
1A
100
AcDbEntity
  8
ZUWAKU
100
AcDbLine
 10
64.1422121387111
 20
9.950000440694864
 30
0.0
 11
64.1422121387111
 21
22.72500044069486
 31
0.0
  0
LINE
  5
AED
330
1A
100
AcDbEntity
  8
ZUWAKU
100
AcDbLine
 10
79.1266295319183
 20
30.00000044069486
 30
0.0
 11
79.1266295319183
 21
0.8000004406949301
 31
0.0
  0
LINE
  5
AEE
330
1A
100
AcDbEntity
  8
ZUWAKU
100
AcDbLine
 10
79.52662953191816
 20
30.00000044069486
 30
0.0
 11
79.52662953191839
 21
0.8000004406949301
 31
0.0
  0
LINE
  5
AEF
330
1A
100
AcDbEntity
  8
ZUWAKU
100
AcDbLine
 10
79.32662953191812
 20
30.00000044069486
 30
0.0
 11
79.32662953191834
 21
0.8000004406949301
 31
0.0
  0
LINE
  5
AF0
330
1A
100
AcDbEntity
  8
ZUWAKU
100
AcDbLine
 10
57.84221213871103
 20
7.150000440694867
 30
0.0
 11
61.34221213871104
 21
7.150000440694867
 31
0.0
  0
LINE
  5
AF1
330
1A
100
AcDbEntity
  8
ZUWAKU
100
AcDbLine
 10
60.29221213871108
 20
9.950000440694864
 30
0.0
 11
58.8922121387111
 21
9.950000440694864
 31
0.0
  0
LINE
  5
AF2
330
1A
100
AcDbEntity
  8
ZUWAKU
100
AcDbLine
 10
41.21721213871103
 20
7.150000440694867
 30
0.0
 11
42.96721213871103
 21
7.150000440694867
 31
0.0
  0
LINE
  5
AF3
330
1A
100
AcDbEntity
  8
ZUWAKU
100
AcDbLine
 10
35.6763470760269
 20
7.516906472527892
 30
0.0
 11
33.80807720139512
 21
13.43309440886183
 31
0.0
  0
ARC
  5
AF4
330
1A
100
AcDbEntity
  8
ZUWAKU
100
AcDbCircle
 10
33.16721213871108
 20
13.27500044069486
 30
0.0
 40
0.525
100
AcDbArc
 50
90.0
 51
180.0
  0
ARC
  5
AF5
330
1A
100
AcDbEntity
  8
ZUWAKU
100
AcDbCircle
 10
33.30744630219976
 20
13.27500044069486
 30
0.0
 40
0.525
100
AcDbArc
 50
17.52556837372303
 51
90.0
  0
ARC
  5
AF6
330
1A
100
AcDbEntity
  8
ZUWAKU
100
AcDbCircle
 10
30.36721213871101
 20
7.675000440694866
 30
0.0
 40
0.525
100
AcDbArc
 50
180.0
 51
270.0
  0
ARC
  5
AF7
330
1A
100
AcDbEntity
  8
ZUWAKU
100
AcDbCircle
 10
26.86721213871101
 20
9.425000440694866
 30
0.0
 40
0.525
100
AcDbArc
 50
0.0
 51
90.0
  0
ARC
  5
AF8
330
1A
100
AcDbEntity
  8
ZUWAKU
100
AcDbCircle
 10
26.86721213871101
 20
7.675000440694866
 30
0.0
 40
0.525
100
AcDbArc
 50
270.0
 51
0.0
  0
LINE
  5
AF9
330
1A
100
AcDbEntity
  8
ZUWAKU
100
AcDbLine
 10
27.3922121387111
 20
9.425000440694866
 30
0.0
 11
27.3922121387111
 21
7.675000440694866
 31
0.0
  0
LINE
  5
AFA
330
1A
100
AcDbEntity
  8
ZUWAKU
100
AcDbLine
 10
32.6422121387111
 20
7.675000440694866
 30
0.0
 11
32.6422121387111
 21
13.27500044069486
 31
0.0
  0
ARC
  5
AFB
330
1A
100
AcDbEntity
  8
ZUWAKU
100
AcDbCircle
 10
32.11721213871101
 20
7.675000440694866
 30
0.0
 40
0.525
100
AcDbArc
 50
270.0
 51
0.0
  0
LINE
  5
AFC
330
1A
100
AcDbEntity
  8
ZUWAKU
100
AcDbLine
 10
30.36721213871101
 20
7.150000440694867
 30
0.0
 11
32.11721213871101
 21
7.150000440694867
 31
0.0
  0
ARC
  5
AFD
330
1A
100
AcDbEntity
  8
ZUWAKU
100
AcDbCircle
 10
33.16721213871108
 20
17.12500044069487
 30
0.0
 40
0.525
100
AcDbArc
 50
180.0
 51
270.0
  0
LINE
  5
AFE
330
1A
100
AcDbEntity
  8
ZUWAKU
100
AcDbLine
 10
33.16721213871108
 20
13.80000044069486
 30
0.0
 11
33.30744630219976
 21
13.80000044069486
 31
0.0
  0
LINE
  5
AFF
330
1A
100
AcDbEntity
  8
ZUWAKU
100
AcDbLine
 10
33.30744630219976
 20
16.60000044069486
 30
0.0
 11
33.16721213871108
 21
16.60000044069486
 31
0.0
  0
ARC
  5
B00
330
1A
100
AcDbEntity
  8
ZUWAKU
100
AcDbCircle
 10
33.30744630219976
 20
17.12500044069487
 30
0.0
 40
0.525
100
AcDbArc
 50
270.0
 51
342.4744316262769
  0
ARC
  5
B01
330
1A
100
AcDbEntity
  8
ZUWAKU
100
AcDbCircle
 10
36.17697797522237
 20
7.675000440694866
 30
0.0
 40
0.525
100
AcDbArc
 50
197.525568373723
 51
270.0
  0
LINE
  5
B02
330
1A
100
AcDbEntity
  8
ZUWAKU
100
AcDbLine
 10
38.37649825402684
 20
7.833094408861839
 30
0.0
 11
36.05010687555318
 21
15.20000044069488
 31
0.0
  0
ARC
  5
B03
330
1A
100
AcDbEntity
  8
ZUWAKU
100
AcDbCircle
 10
37.87586735483137
 20
7.675000440694866
 30
0.0
 40
0.525
100
AcDbArc
 50
270.0
 51
17.52556837372303
  0
LINE
  5
B04
330
1A
100
AcDbEntity
  8
ZUWAKU
100
AcDbLine
 10
36.17697797522237
 20
7.150000440694867
 30
0.0
 11
37.87586735483137
 21
7.150000440694867
 31
0.0
  0
ARC
  5
B05
330
1A
100
AcDbEntity
  8
ZUWAKU
100
AcDbCircle
 10
41.21721213871103
 20
7.675000440694866
 30
0.0
 40
0.525
100
AcDbArc
 50
180.0
 51
270.0
  0
ARC
  5
B06
330
1A
100
AcDbEntity
  8
ZUWAKU
100
AcDbCircle
 10
50.1422121387111
 20
9.950000440694864
 30
0.0
 40
2.799999999999999
100
AcDbArc
 50
270.0
 51
0.0
  0
ARC
  5
B07
330
1A
100
AcDbEntity
  8
ZUWAKU
100
AcDbCircle
 10
57.84221213871103
 20
9.950000440694864
 30
0.0
 40
2.799999999999999
100
AcDbArc
 50
180.0
 51
270.0
  0
LINE
  5
B08
330
1A
100
AcDbEntity
  8
ZUWAKU
100
AcDbLine
 10
51.71206061969463
 20
14.73505094703369
 30
0.0
 11
48.80226264504983
 21
17.64484892167836
 31
0.0
  0
LINE
  5
B09
330
1A
100
AcDbEntity
  8
ZUWAKU
100
AcDbLine
 10
46.82236365772758
 20
15.66494993435604
 30
0.0
 11
49.73216163237225
 21
12.75515195971138
 31
0.0
  0
LINE
  5
B0A
330
1A
100
AcDbEntity
  8
ZUWAKU
100
AcDbLine
 10
46.6422121387111
 20
7.150000440694867
 30
0.0
 11
50.1422121387111
 21
7.150000440694867
 31
0.0
  0
LINE
  5
B0B
330
1A
100
AcDbEntity
  8
ZUWAKU
100
AcDbLine
 10
46.6422121387111
 20
9.950000440694864
 30
0.0
 11
49.61721213871101
 21
9.950000440694864
 31
0.0
  0
ARC
  5
B0C
330
1A
100
AcDbEntity
  8
ZUWAKU
100
AcDbCircle
 10
46.6422121387111
 20
9.425000440694866
 30
0.0
 40
0.525
100
AcDbArc
 50
90.0
 51
180.0
  0
ARC
  5
B0D
330
1A
100
AcDbEntity
  8
ZUWAKU
100
AcDbCircle
 10
42.96721213871103
 20
7.675000440694866
 30
0.0
 40
0.525
100
AcDbArc
 50
270.0
 51
0.0
  0
ARC
  5
B0E
330
1A
100
AcDbEntity
  8
ZUWAKU
100
AcDbCircle
 10
46.6422121387111
 20
7.675000440694866
 30
0.0
 40
0.525
100
AcDbArc
 50
180.0
 51
270.0
  0
LINE
  5
B0F
330
1A
100
AcDbEntity
  8
ZUWAKU
100
AcDbLine
 10
46.11721213871101
 20
7.675000440694866
 30
0.0
 11
46.11721213871101
 21
9.425000440694866
 31
0.0
  0
ARC
  5
B10
330
1A
100
AcDbEntity
  8
ZUWAKU
100
AcDbCircle
 10
49.61721213871101
 20
10.47500044069487
 30
0.0
 40
0.525
100
AcDbArc
 50
270.0
 51
0.0
  0
ARC
  5
B11
330
1A
100
AcDbEntity
  8
ZUWAKU
100
AcDbCircle
 10
48.74221213871101
 20
11.76520246605021
 30
0.0
 40
1.399999999999999
100
AcDbArc
 50
0.0
 51
45.0
  0
LINE
  5
B12
330
1A
100
AcDbEntity
  8
ZUWAKU
100
AcDbLine
 10
50.1422121387111
 20
10.47500044069487
 30
0.0
 11
50.1422121387111
 21
11.76520246605021
 31
0.0
  0
ARC
  5
B13
330
1A
100
AcDbEntity
  8
ZUWAKU
100
AcDbCircle
 10
58.8922121387111
 20
11.00000044069486
 30
0.0
 40
1.049999999999999
100
AcDbArc
 50
180.0
 51
270.0
  0
ARC
  5
B14
330
1A
100
AcDbEntity
  8
ZUWAKU
100
AcDbCircle
 10
48.74221213871101
 20
11.76520246605017
 30
0.0
 40
4.199999999999999
100
AcDbArc
 50
0.0
 51
45.0
  0
LINE
  5
B15
330
1A
100
AcDbEntity
  8
ZUWAKU
100
AcDbLine
 10
52.94221213871106
 20
9.950000440694864
 30
0.0
 11
52.94221213871106
 21
11.76520246605021
 31
0.0
  0
ARC
  5
B16
330
1A
100
AcDbEntity
  8
ZUWAKU
100
AcDbCircle
 10
61.34221213871104
 20
9.950000440694864
 30
0.0
 40
2.799999999999999
100
AcDbArc
 50
270.0
 51
0.0
  0
LINE
  5
B17
330
1A
100
AcDbEntity
  8
ZUWAKU
100
AcDbLine
 10
66.7672121387111
 20
7.150000440694867
 30
0.0
 11
68.5172121387111
 21
7.150000440694867
 31
0.0
  0
ARC
  5
B18
330
1A
100
AcDbEntity
  8
ZUWAKU
100
AcDbCircle
 10
60.29221213871108
 20
11.00000044069486
 30
0.0
 40
1.049999999999999
100
AcDbArc
 50
270.0
 51
0.0
  0
ARC
  5
B19
330
1A
100
AcDbEntity
  8
ZUWAKU
100
AcDbCircle
 10
66.7672121387111
 20
7.675000440694866
 30
0.0
 40
0.525
100
AcDbArc
 50
180.0
 51
270.0
  0
ARC
  5
B1A
330
1A
100
AcDbEntity
  8
ZUWAKU
100
AcDbCircle
 10
68.5172121387111
 20
7.675000440694866
 30
0.0
 40
0.525
100
AcDbArc
 50
270.0
 51
0.0
  0
LINE
  5
B1B
330
1A
100
AcDbEntity
  8
ZUWAKU
100
AcDbLine
 10
42.96721213871103
 20
23.25000044069486
 30
0.0
 11
41.21721213871103
 21
23.25000044069486
 31
0.0
  0
LINE
  5
B1C
330
1A
100
AcDbEntity
  8
ZUWAKU
100
AcDbLine
 10
27.3922121387111
 20
22.72500044069486
 30
0.0
 11
27.3922121387111
 21
20.97500044069486
 31
0.0
  0
ARC
  5
B1D
330
1A
100
AcDbEntity
  8
ZUWAKU
100
AcDbCircle
 10
26.86721213871101
 20
20.97500044069486
 30
0.0
 40
0.525
100
AcDbArc
 50
270.0
 51
0.0
  0
ARC
  5
B1E
330
1A
100
AcDbEntity
  8
ZUWAKU
100
AcDbCircle
 10
30.36721213871101
 20
22.72500044069486
 30
0.0
 40
0.525
100
AcDbArc
 50
90.0
 51
180.0
  0
ARC
  5
B1F
330
1A
100
AcDbEntity
  8
ZUWAKU
100
AcDbCircle
 10
26.86721213871101
 20
22.72500044069486
 30
0.0
 40
0.525
100
AcDbArc
 50
0.0
 51
90.0
  0
LINE
  5
B20
330
1A
100
AcDbEntity
  8
ZUWAKU
100
AcDbLine
 10
32.11721213871101
 20
23.25000044069486
 30
0.0
 11
30.36721213871101
 21
23.25000044069486
 31
0.0
  0
ARC
  5
B21
330
1A
100
AcDbEntity
  8
ZUWAKU
100
AcDbCircle
 10
32.11721213871101
 20
22.72500044069486
 30
0.0
 40
0.525
100
AcDbArc
 50
0.0
 51
90.0
  0
ARC
  5
B22
330
1A
100
AcDbEntity
  8
ZUWAKU
100
AcDbCircle
 10
36.17697797522237
 20
22.72500044069486
 30
0.0
 40
0.525
100
AcDbArc
 50
90.0
 51
162.4744316262769
  0
LINE
  5
B23
330
1A
100
AcDbEntity
  8
ZUWAKU
100
AcDbLine
 10
38.37649825402684
 20
22.56690647252789
 30
0.0
 11
37.31485862088902
 21
19.20504763425829
 31
0.0
  0
ARC
  5
B24
330
1A
100
AcDbEntity
  8
ZUWAKU
100
AcDbCircle
 10
37.87586735483137
 20
22.72500044069486
 30
0.0
 40
0.525
100
AcDbArc
 50
342.4744316262769
 51
90.0
  0
LINE
  5
B25
330
1A
100
AcDbEntity
  8
ZUWAKU
100
AcDbLine
 10
36.17697797522237
 20
23.25000044069486
 30
0.0
 11
37.87586735483137
 21
23.25000044069486
 31
0.0
  0
ARC
  5
B26
330
1A
100
AcDbEntity
  8
ZUWAKU
100
AcDbCircle
 10
41.21721213871103
 20
22.72500044069486
 30
0.0
 40
0.525
100
AcDbArc
 50
90.0
 51
180.0
  0
LINE
  5
B27
330
1A
100
AcDbEntity
  8
ZUWAKU
100
AcDbLine
 10
51.8922121387111
 20
20.45000044069486
 30
0.0
 11
48.91721213871107
 21
20.45000044069486
 31
0.0
  0
LINE
  5
B28
330
1A
100
AcDbEntity
  8
ZUWAKU
100
AcDbLine
 10
48.3922121387111
 20
23.25000044069486
 30
0.0
 11
51.8922121387111
 21
23.25000044069486
 31
0.0
  0
ARC
  5
B29
330
1A
100
AcDbEntity
  8
ZUWAKU
100
AcDbCircle
 10
48.3922121387111
 20
20.45000044069486
 30
0.0
 40
2.799999999999999
100
AcDbArc
 50
90.0
 51
180.0
  0
LINE
  5
B2A
330
1A
100
AcDbEntity
  8
ZUWAKU
100
AcDbLine
 10
45.59221213871103
 20
20.45000044069486
 30
0.0
 11
45.59221213871103
 21
18.63479841533952
 31
0.0
  0
ARC
  5
B2B
330
1A
100
AcDbEntity
  8
ZUWAKU
100
AcDbCircle
 10
42.96721213871103
 20
22.72500044069486
 30
0.0
 40
0.525
100
AcDbArc
 50
0.0
 51
90.0
  0
LINE
  5
B2C
330
1A
100
AcDbEntity
  8
ZUWAKU
100
AcDbLine
 10
48.3922121387111
 20
19.92500044069486
 30
0.0
 11
48.3922121387111
 21
18.63479841533952
 31
0.0
  0
ARC
  5
B2D
330
1A
100
AcDbEntity
  8
ZUWAKU
100
AcDbCircle
 10
48.91721213871107
 20
19.92500044069486
 30
0.0
 40
0.525
100
AcDbArc
 50
90.0
 51
180.0
  0
LINE
  5
B2E
330
1A
100
AcDbEntity
  8
ZUWAKU
100
AcDbLine
 10
52.41721213871108
 20
22.72500044069486
 30
0.0
 11
52.41721213871108
 21
20.97500044069486
 31
0.0
  0
ARC
  5
B2F
330
1A
100
AcDbEntity
  8
ZUWAKU
100
AcDbCircle
 10
51.8922121387111
 20
20.97500044069486
 30
0.0
 40
0.525
100
AcDbArc
 50
270.0
 51
0.0
  0
ARC
  5
B30
330
1A
100
AcDbEntity
  8
ZUWAKU
100
AcDbCircle
 10
51.8922121387111
 20
22.72500044069486
 30
0.0
 40
0.525
100
AcDbArc
 50
0.0
 51
90.0
  0
LINE
  5
B31
330
1A
100
AcDbEntity
  8
ZUWAKU
100
AcDbLine
 10
57.31721213871106
 20
23.25000044069486
 30
0.0
 11
55.56721213871106
 21
23.25000044069486
 31
0.0
  0
ARC
  5
B32
330
1A
100
AcDbEntity
  8
ZUWAKU
100
AcDbCircle
 10
55.56721213871106
 20
22.72500044069486
 30
0.0
 40
0.525
100
AcDbArc
 50
90.0
 51
180.0
  0
ARC
  5
B33
330
1A
100
AcDbEntity
  8
ZUWAKU
100
AcDbCircle
 10
57.31721213871106
 20
22.72500044069486
 30
0.0
 40
0.525
100
AcDbArc
 50
0.0
 51
90.0
  0
LINE
  5
B34
330
1A
100
AcDbEntity
  8
ZUWAKU
100
AcDbLine
 10
68.5172121387111
 20
23.25000044069486
 30
0.0
 11
66.7672121387111
 21
23.25000044069486
 31
0.0
  0
ARC
  5
B35
330
1A
100
AcDbEntity
  8
ZUWAKU
100
AcDbCircle
 10
61.86721213871101
 20
22.72500044069486
 30
0.0
 40
0.525
100
AcDbArc
 50
90.0
 51
180.0
  0
LINE
  5
B36
330
1A
100
AcDbEntity
  8
ZUWAKU
100
AcDbLine
 10
63.61721213871101
 20
23.25000044069486
 30
0.0
 11
61.86721213871101
 21
23.25000044069486
 31
0.0
  0
ARC
  5
B37
330
1A
100
AcDbEntity
  8
ZUWAKU
100
AcDbCircle
 10
63.61721213871101
 20
22.72500044069486
 30
0.0
 40
0.525
100
AcDbArc
 50
0.0
 51
90.0
  0
ARC
  5
B38
330
1A
100
AcDbEntity
  8
ZUWAKU
100
AcDbCircle
 10
66.7672121387111
 20
22.72500044069486
 30
0.0
 40
0.525
100
AcDbArc
 50
90.0
 51
180.0
  0
ARC
  5
B39
330
1A
100
AcDbEntity
  8
ZUWAKU
100
AcDbCircle
 10
68.5172121387111
 20
22.72500044069486
 30
0.0
 40
0.525
100
AcDbArc
 50
0.0
 51
90.0
  0
LINE
  5
B3A
330
1A
100
AcDbEntity
  8
ZUWAKU
100
AcDbLine
 10
208.4466012739976
 20
30.00000044069486
 30
0.0
 11
208.4466012739978
 21
0.8000004406949301
 31
0.0
  0
LINE
  5
B3B
330
1A
100
AcDbEntity
  8
ZUWAKU
100
AcDbLine
 10
208.6466012739977
 20
30.00000044069486
 30
0.0
 11
208.6466012739979
 21
0.8000004406949301
 31
0.0
  0
LINE
  5
B3C
330
1A
100
AcDbEntity
  8
ZUWAKU
100
AcDbLine
 10
208.2466012739978
 20
30.00000044069486
 30
0.0
 11
208.2466012739978
 21
0.8000004406949301
 31
0.0
  0
TEXT
  5
B3D
330
1A
100
AcDbEntity
  8
MOJI
100
AcDbText
 10
239.827202664781
 20
18.00492149810224
 30
0.0
 40
5.599999999999999
  1
ブラケット正面打（吊） 自在式
 41
0.9
  7
ｽﾀｲﾙ1
100
AcDbText
  0
TEXT
  5
B3E
330
1A
100
AcDbEntity
  8
ZUWAKU
100
AcDbText
 10
209.7240462962074
 20
9.65535697908048
 30
0.0
 40
4.0
  1
サイズ
 41
0.9
  7
ｽﾀｲﾙ1
100
AcDbText
  0
TEXT
  5
B3F
330
1A
100
AcDbEntity
  8
MOJI
100
AcDbText
 10
239.827202664781
 20
3.204921498102283
 30
0.0
 40
5.599999999999999
  1
１２０－０－１０～４５
 41
0.9
  7
ｽﾀｲﾙ1
100
AcDbText
  0
TEXT
  5
B40
330
1A
100
AcDbEntity
  8
ZUWAKU
100
AcDbText
 10
209.7240462962072
 20
24.05535697908044
 30
0.0
 40
4.0
  1
品名
 41
0.9
  7
ｽﾀｲﾙ1
100
AcDbText
  0
TEXT
  5
B41
330
1A
100
AcDbEntity
  8
ZUWAKU
100
AcDbText
 10
658.2039376712323
 20
18.00492149810224
 30
0.0
 40
5.599999999999999
  1
　　．　　．　　
 41
0.9
  7
ｽﾀｲﾙ1
100
AcDbText
  0
LINE
  5
B42
330
1A
100
AcDbEntity
  8
ZUWAKU
100
AcDbLine
 10
648.8172024941341
 20
15.60000044069489
 30
0.0
 11
697.2490105324712
 21
15.60000044069489
 31
0.0
  0
LINE
  5
B43
330
1A
100
AcDbEntity
  8
ZUWAKU
100
AcDbLine
 10
648.8172024941343
 20
15.4000004406949
 30
0.0
 11
697.2490105324712
 21
15.40000044069489
 31
0.0
  0
LINE
  5
B44
330
1A
100
AcDbEntity
  8
ZUWAKU
100
AcDbLine
 10
648.8172024941341
 20
15.20000044069489
 30
0.0
 11
697.2490105324712
 21
15.20000044069489
 31
0.0
  0
LINE
  5
B45
330
1A
100
AcDbEntity
  8
ZUWAKU
100
AcDbLine
 10
505.1991794820708
 20
15.60000044069489
 30
0.0
 11
552.5269557500423
 21
15.60000044069489
 31
0.0
  0
LINE
  5
B46
330
1A
100
AcDbEntity
  8
ZUWAKU
100
AcDbLine
 10
505.1991794820708
 20
15.40000044069489
 30
0.0
 11
552.5269557500423
 21
15.40000044069489
 31
0.0
  0
LINE
  5
B47
330
1A
100
AcDbEntity
  8
ZUWAKU
100
AcDbLine
 10
505.1991794820708
 20
15.2000004406949
 30
0.0
 11
552.5269557500423
 21
15.2000004406949
 31
0.0
  0
LINE
  5
B48
330
1A
100
AcDbEntity
  8
ZUWAKU
100
AcDbLine
 10
504.7991794820709
 20
30.00000044069486
 30
0.0
 11
504.7991794820709
 21
0.8000004406949301
 31
0.0
  0
LINE
  5
B49
330
1A
100
AcDbEntity
  8
ZUWAKU
100
AcDbLine
 10
505.1991794820708
 20
30.00000044069486
 30
0.0
 11
505.199179482071
 21
0.8000004406949301
 31
0.0
  0
LINE
  5
B4A
330
1A
100
AcDbEntity
  8
ZUWAKU
100
AcDbLine
 10
504.9991794820707
 20
30.00000044069486
 30
0.0
 11
504.999179482071
 21
0.8000004406949301
 31
0.0
  0
TEXT
  5
B4B
330
1A
100
AcDbEntity
  8
MOJI
100
AcDbText
 10
528.0409079562428
 20
18.00492149810224
 30
0.0
 40
5.599999999999999
  1
Ａ３
 41
0.9
  7
ｽﾀｲﾙ1
100
AcDbText
  0
LINE
  5
B4C
330
1A
100
AcDbEntity
  8
ZUWAKU
100
AcDbLine
 10
447.4243639549213
 20
30.00000044069486
 30
0.0
 11
447.4243639549213
 21
0.8000004406949301
 31
0.0
  0
LINE
  5
B4D
330
1A
100
AcDbEntity
  8
ZUWAKU
100
AcDbLine
 10
447.8243639549211
 20
30.00000044069486
 30
0.0
 11
447.8243639549214
 21
0.8000004406949301
 31
0.0
  0
LINE
  5
B4E
330
1A
100
AcDbEntity
  8
ZUWAKU
100
AcDbLine
 10
447.6243639549211
 20
30.00000044069486
 30
0.0
 11
447.6243639549213
 21
0.8000004406949301
 31
0.0
  0
TEXT
  5
B50
330
1A
100
AcDbEntity
  8
MOJI
100
AcDbText
 10
463.9084316122075
 20
11.23256355247576
 30
0.0
 40
5.599999999999999
  1
ＬＮ２０Ｔ
 41
0.9
  7
ｽﾀｲﾙ1
100
AcDbText
  0
TEXT
  5
B51
330
1A
100
AcDbEntity
  8
ZUWAKU
100
AcDbText
 10
506.6766245042806
 20
9.65535697908048
 30
0.0
 40
4.0
  1
縮尺
 41
0.9
  7
ｽﾀｲﾙ1
100
AcDbText
  0
TEXT
  5
B52
330
1A
100
AcDbEntity
  8
MOJI
100
AcDbText
 10
528.0409079562428
 20
3.204921498102283
 30
0.0
 40
5.599999999999999
  1
１/２
 41
0.9
  7
ｽﾀｲﾙ1
100
AcDbText
  0
TEXT
  5
B53
330
1A
100
AcDbEntity
  8
ZUWAKU
100
AcDbText
 10
449.3018089771307
 20
24.05535697908044
 30
0.0
 40
4.0
  1
品番
 41
0.9
  7
ｽﾀｲﾙ1
100
AcDbText
  0
TEXT
  5
B54
330
1A
100
AcDbEntity
  8
ZUWAKU
100
AcDbText
 10
506.6766245042804
 20
24.05535697908044
 30
0.0
 40
4.0
  1
用紙
 41
0.9
  7
ｽﾀｲﾙ1
100
AcDbText
  0
LINE
  5
B55
330
1A
100
AcDbEntity
  8
ZUWAKU
100
AcDbLine
 10
552.5269557500423
 20
30.00000044069486
 30
0.0
 11
552.5269557500423
 21
0.8000004406949301
 31
0.0
  0
LINE
  5
B56
330
1A
100
AcDbEntity
  8
ZUWAKU
100
AcDbLine
 10
552.9269557500422
 20
30.00000044069486
 30
0.0
 11
552.9269557500424
 21
0.8000004406949301
 31
0.0
  0
LINE
  5
B57
330
1A
100
AcDbEntity
  8
ZUWAKU
100
AcDbLine
 10
552.7269557500422
 20
30.00000044069486
 30
0.0
 11
552.7269557500424
 21
0.8000004406949301
 31
0.0
  0
LINE
  5
B58
330
1A
100
AcDbEntity
  8
ZUWAKU
100
AcDbLine
 10
648.4172024941345
 20
30.00000044069486
 30
0.0
 11
648.4172024941345
 21
0.8000004406949301
 31
0.0
  0
LINE
  5
B59
330
1A
100
AcDbEntity
  8
ZUWAKU
100
AcDbLine
 10
648.8172024941343
 20
30.00000044069486
 30
0.0
 11
648.8172024941345
 21
0.8000004406949301
 31
0.0
  0
LINE
  5
B5A
330
1A
100
AcDbEntity
  8
ZUWAKU
100
AcDbLine
 10
648.6172024941343
 20
30.00000044069486
 30
0.0
 11
648.6172024941345
 21
0.8000004406949301
 31
0.0
  0
TEXT
  5
B5B
330
1A
100
AcDbEntity
  8
ZUWAKU
100
AcDbText
 10
650.2946475163439
 20
24.05535697908044
 30
0.0
 40
4.0
  1
DATE
 41
0.9
  7
ｽﾀｲﾙ1
100
AcDbText
  0
TEXT
  5
B5C
330
1A
100
AcDbEntity
  8
ZUWAKU
100
AcDbText
 10
708.5280841761736
 20
17.55383977638166
 30
0.0
 40
6.0
  1
積水化学工業株式会社
 41
0.9
  7
ｽﾀｲﾙ1
100
AcDbText
  0
LINE
  5
B5D
330
1A
100
AcDbEntity
  8
ZUWAKU
100
AcDbLine
 10
697.849010532471
 20
30.00000044069486
 30
0.0
 11
697.8490105324713
 21
0.8000004406949301
 31
0.0
  0
LINE
  5
B5E
330
1A
100
AcDbEntity
  8
ZUWAKU
100
AcDbLine
 10
697.649010532471
 20
30.00000044069486
 30
0.0
 11
697.6490105324712
 21
0.8000004406949301
 31
0.0
  0
LINE
  5
B5F
330
1A
100
AcDbEntity
  8
ZUWAKU
100
AcDbLine
 10
697.4490105324711
 20
30.00000044069486
 30
0.0
 11
697.4490105324711
 21
0.8000004406949301
 31
0.0
  0
LINE
  5
B60
330
1A
100
AcDbEntity
  8
ZUWAKU
100
AcDbLine
 10
697.2490105324712
 20
30.00000044069486
 30
0.0
 11
697.2490105324712
 21
0.8000004406949301
 31
0.0
  0
TEXT
  5
B61
330
1A
100
AcDbEntity
  8
ZUWAKU
100
AcDbText
 10
708.5280841761736
 20
6.648840754548928
 30
0.0
 40
6.0
  1
建材事業部
 41
0.9
  7
ｽﾀｲﾙ1
100
AcDbText
  0
TEXT
  5
B69
330
1A
100
AcDbEntity
  8
MOJI
100
AcDbText
 10
92.33403077709931
 20
12.62510876664009
 30
0.0
 40
5.799999999999999
  1
アートフェイス１２０
 41
0.9
  7
ｽﾀｲﾙ1
100
AcDbText
  0
SPLINE
  5
1802
330
1A
100
AcDbEntity
  8
SEIHIN
  6
CONTINUOUS
 62
     3
 48
5.0
100
AcDbSpline
210
0.0
220
0.0
230
1.0
 70
    24
 71
     3
 72
     9
 73
     5
 74
     0
 42
0.0000000001
 43
0.0000000001
 40
0.0
 40
0.0
 40
0.0
 40
0.0
 40
0.5038625610351521
 40
1.0
 40
1.0
 40
1.0
 40
1.0
 10
365.0489655110258
 20
232.6818974683188
 30
0.0
 10
365.0586778208585
 20
232.682706505574
 30
0.0
 10
365.0779535332924
 20
232.6843121760839
 30
0.0
 10
365.0796156717287
 20
232.6844506325316
 30
0.0
 10
365.0804403208358
 20
232.6845193259589
 30
0.0
  0
SPLINE
  5
1803
330
1A
100
AcDbEntity
  8
SEIHIN
  6
CONTINUOUS
 62
     3
 48
5.0
100
AcDbSpline
210
0.0
220
0.0
230
1.0
 70
    24
 71
     1
 72
     4
 73
     2
 74
     0
 42
0.0000000001
 43
0.0000000001
 40
0.0
 40
0.0
 40
1.0
 40
1.0
 10
358.0800581190853
 20
231.0181178052502
 30
0.0
 10
358.0804403208357
 20
231.1228130777003
 30
0.0
  0
SPLINE
  5
1804
330
1A
100
AcDbEntity
  8
SEIHIN
  6
CONTINUOUS
 62
     3
 48
5.0
100
AcDbSpline
210
0.0
220
0.0
230
1.0
 70
     8
 71
     3
 72
     9
 73
     5
 74
     0
 42
0.0000000001
 43
0.0000000001
 40
0.0
 40
0.0
 40
0.0
 40
0.0
 40
0.6774352619249452
 40
1.0
 40
1.0
 40
1.0
 40
1.0
 10
358.0709140718012
 20
230.1340250620096
 30
0.0
 10
358.0726248473943
 20
230.33440462996
 30
0.0
 10
358.0751502187311
 20
230.6301960940493
 30
0.0
 10
358.0788611148505
 20
230.9235062814701
 30
0.0
 10
358.0800581190853
 20
231.0181178052502
 30
0.0
  0
SPLINE
  5
1805
330
1A
100
AcDbEntity
  8
SEIHIN
  6
CONTINUOUS
 62
     3
 48
5.0
100
AcDbSpline
210
0.0
220
0.0
230
1.0
 70
    24
 71
     1
 72
     4
 73
     2
 74
     0
 42
0.0000000001
 43
0.0000000001
 40
0.0
 40
0.0
 40
1.0
 40
1.0
 10
358.0803487338057
 20
232.1024865228314
 30
0.0
 10
358.0804403208357
 20
232.1014179953389
 30
0.0
  0
ELLIPSE
  5
181B
330
1A
100
AcDbEntity
  8
SEIHIN
  6
CONTINUOUS
 62
     3
 48
5.0
100
AcDbEllipse
 10
565.4638362204122
 20
226.5287429195931
 30
0.0
 11
0.7916666666666287
 21
0.791666666666714
 31
0.0
210
0.0
220
0.0
230
1.0
 40
0.8931875130999998
 41
5.52721589675569
 42
7.039154717603455
  0
ELLIPSE
  5
181E
330
1A
100
AcDbEntity
  8
SEIHIN
  6
CONTINUOUS
 62
     3
 48
5.0
100
AcDbEllipse
 10
558.7753890332123
 20
226.5287429195931
 30
0.0
 11
0.7916666666666856
 21
-0.7916666666666572
 31
0.0
210
0.0
220
0.0
230
1.0
 40
0.8931875130999998
 41
2.38562324316592
 42
3.897562064013644
  0
ELLIPSE
  5
183E
330
1A
100
AcDbEntity
  8
SEIHIN
  6
CONTINUOUS
 62
     3
 48
5.0
100
AcDbEllipse
 10
550.2515786380122
 20
226.3164853371931
 30
0.0
 11
1.010362971081804
 21
1.01036297108186
 31
0.0
210
0.0
220
0.0
230
0.9999999999999998
 40
0.6998542122
 41
5.598466104177319
 42
6.967904510181852
  0
ELLIPSE
  5
1845
330
1A
100
AcDbEntity
  8
SEIHIN
  6
CONTINUOUS
 62
     3
 48
5.0
100
AcDbEllipse
 10
542.1271892997122
 20
226.3164853371931
 30
0.0
 11
1.01036297108186
 21
-1.010362971081832
 31
0.0
210
0.0
220
0.0
230
1.0
 40
0.6998542121999999
 41
2.4568734505875
 42
3.826311856592068
  0
ELLIPSE
  5
1856
330
1A
100
AcDbEntity
  8
SEIHIN
  6
CONTINUOUS
 62
     3
 48
5.0
100
AcDbEllipse
 10
549.9659403684122
 20
199.3164853371931
 30
0.0
 11
1.01036297108186
 21
1.01036297108186
 31
0.0
210
0.0
220
0.0
230
1.0
 40
0.6998542122
 41
5.598466104177317
 42
6.967904510181917
  0
ELLIPSE
  5
1859
330
1A
100
AcDbEntity
  8
SEIHIN
  6
CONTINUOUS
 62
     3
 48
5.0
100
AcDbEllipse
 10
541.4939351020122
 20
199.3164853371931
 30
0.0
 11
1.01036297108186
 21
-1.01036297108186
 31
0.0
210
0.0
220
0.0
230
1.0
 40
0.6998542122
 41
2.456873450587516
 42
3.826311856592102
  0
SPLINE
  5
185F
330
1A
100
AcDbEntity
  8
SEIHIN
  6
CONTINUOUS
 62
     3
 48
5.0
100
AcDbSpline
210
0.0
220
0.0
230
1.0
 70
     8
 71
     3
 72
    10
 73
     6
 74
     0
 42
0.0000000001
 43
0.0000000001
 40
0.0
 40
0.0
 40
0.0
 40
0.0
 40
0.3471274010665737
 40
0.689563746072185
 40
1.0
 40
1.0
 40
1.0
 40
1.0
 10
540.2640977143467
 20
199.0633517621744
 30
0.0
 10
540.2692251716502
 20
198.9611263650509
 30
0.0
 10
540.2794107941493
 20
198.7580570378599
 30
0.0
 10
540.4295060147096
 20
198.4901156983328
 30
0.0
 10
540.5841024264568
 20
198.3764130608008
 30
0.0
 10
540.6576119151564
 20
198.3223482694237
 30
0.0
  0
ELLIPSE
  5
1865
330
1A
100
AcDbEntity
  8
SEIHIN
  6
CONTINUOUS
 62
     3
 48
5.0
100
AcDbEllipse
 10
550.2515786380122
 20
206.5525533146931
 30
0.0
 11
1.010362971081804
 21
-1.010362971081831
 31
0.0
210
0.0
220
0.0
230
1.0
 40
0.6998542121999999
 41
5.598466104177303
 42
6.967904510181901
  0
ELLIPSE
  5
1867
330
1A
100
AcDbEntity
  8
SEIHIN
  6
CONTINUOUS
 62
     3
 48
5.0
100
AcDbEllipse
 10
533.4876466155123
 20
206.5525533146931
 30
0.0
 11
1.01036297108186
 21
1.01036297108186
 31
0.0
210
0.0
220
0.0
230
1.0
 40
0.6998542122
 41
2.456873450587499
 42
3.826311856592182
  0
SPLINE
  5
186A
330
1A
100
AcDbEntity
  8
SEIHIN
  6
CONTINUOUS
 62
     3
 48
5.0
100
AcDbSpline
210
0.0
220
0.0
230
1.0
 70
     8
 71
     3
 72
    14
 73
    10
 74
     0
 42
0.0000000001
 43
0.0000000001
 40
0.0
 40
0.0
 40
0.0
 40
0.0
 40
0.2255107083803645
 40
0.3963062534411245
 40
0.4405785779879766
 40
0.6191724007374449
 40
0.6304223660199437
 40
0.8171379694788775
 40
1.0
 40
1.0
 40
1.0
 40
1.0
 10
533.1892540213096
 20
212.2762560058726
 30
0.0
 10
533.0758175100568
 20
212.2814806256637
 30
0.0
 10
532.8764673368396
 20
212.2906622273265
 30
0.0
 10
532.6637873134538
 20
212.2083111260722
 30
0.0
 10
532.4985833751486
 20
212.0987713422706
 30
0.0
 10
532.4163432855898
 20
212.0081070001718
 30
0.0
 10
532.3198992964648
 20
211.8450345339613
 30
0.0
 10
532.2535451838632
 20
211.6593853585231
 30
0.0
 10
532.2563977945999
 20
211.4742149750117
 30
0.0
 10
532.2578092279325
 20
211.3825951657807
 30
0.0
  0
SPLINE
  5
186B
330
1A
100
AcDbEntity
  8
SEIHIN
  6
CONTINUOUS
 62
     3
 48
5.0
100
AcDbSpline
210
0.0
220
0.0
230
1.0
 70
     8
 71
     3
 72
    13
 73
     9
 74
     0
 42
0.0000000001
 43
0.0000000001
 40
0.0
 40
0.0
 40
0.0
 40
0.0
 40
0.1853054207097844
 40
0.36517852152137
 40
0.5302701516764927
 40
0.6878236889830629
 40
0.8506852025218607
 40
1.0
 40
1.0
 40
1.0
 40
1.0
 10
565.1871437861245
 20
173.4254169923461
 30
0.0
 10
565.3014390907544
 20
173.3849537406531
 30
0.0
 10
565.5266790767282
 20
173.3052134374685
 30
0.0
 10
565.8828337953457
 20
173.3365307314638
 30
0.0
 10
566.1841365189941
 20
173.4874741202487
 30
0.0
 10
566.3972185596292
 20
173.7319366753932
 30
0.0
 10
566.514890791007
 20
174.0224773841149
 30
0.0
 10
566.5216815439328
 20
174.2259018289774
 30
0.0
 10
566.5249295799369
 20
174.3232003065201
 30
0.0
  0
SPLINE
  5
186E
330
1A
100
AcDbEntity
  8
SEIHIN
  6
CONTINUOUS
 62
     3
 48
5.0
100
AcDbSpline
210
0.0
220
0.0
230
1.0
 70
     8
 71
     3
 72
    13
 73
     9
 74
     0
 42
0.0000000001
 43
0.0000000001
 40
0.0
 40
0.0
 40
0.0
 40
0.0
 40
0.1851330428579794
 40
0.3650267311097466
 40
0.5303652848785339
 40
0.6879496806583965
 40
0.8506174307284018
 40
1.0
 40
1.0
 40
1.0
 40
1.0
 10
557.7142956736784
 20
174.3232003065217
 30
0.0
 10
557.7202876414812
 20
174.2021823033121
 30
0.0
 10
557.7321020015014
 20
173.9635711648842
 30
0.0
 10
557.8960879955125
 20
173.645930526689
 30
0.0
 10
558.1497301197471
 20
173.4237973581481
 30
0.0
 10
558.4567860757365
 20
173.3189823416047
 30
0.0
 10
558.7702138866095
 20
173.3205105366399
 30
0.0
 10
558.9608307039088
 20
173.3914549660672
 30
0.0
 10
559.0520814674865
 20
173.4254169923382
 30
0.0
  0
ELLIPSE
  5
1879
330
1A
100
AcDbEntity
  8
SEIHIN
  6
CONTINUOUS
 62
     3
 48
5.0
100
AcDbEllipse
 10
350.232875419339
 20
208.3304352766931
 30
0.0
 11
5.663748356793491
 21
5.663748356793546
 31
0.0
210
0.0
220
0.0
230
1.0
 40
0.998782766
 41
5.498396131367763
 42
5.699310359417885
  0
SPLINE
  5
187B
330
1A
100
AcDbEntity
  8
SEIHIN
  6
CONTINUOUS
 62
     3
 48
5.0
100
AcDbSpline
210
0.0
220
0.0
230
1.0
 70
     8
 71
     3
 72
    15
 73
    11
 74
     0
 42
0.0000000001
 43
0.0000000001
 40
0.0
 40
0.0
 40
0.0
 40
0.0
 40
0.0021335379684039
 40
0.1499329941309968
 40
0.3001170082500851
 40
0.4518188291921791
 40
0.6073322286562324
 40
0.71554715133876
 40
0.8265004634859115
 40
1.0
 40
1.0
 40
1.0
 40
1.0
 10
365.0804403208358
 20
205.1845193259589
 30
0.0
 10
365.0804375528234
 20
205.1882460892365
 30
0.0
 10
365.0802430325549
 20
205.4501419565227
 30
0.0
 10
365.0383753866282
 20
205.9748842287334
 30
0.0
 10
364.8515147781882
 20
206.7522914880808
 30
0.0
 10
364.5271460268344
 20
207.5234996029886
 30
0.0
 10
364.099579322488
 20
208.1938725347482
 30
0.0
 10
363.6010663876196
 20
208.7538401625304
 30
0.0
 10
362.9838927925175
 20
209.2987721880131
 30
0.0
 10
362.4227217242601
 20
209.5896665434624
 30
0.0
 10
362.0804403208357
 20
209.7670950209148
 30
0.0
  0
SPLINE
  5
1883
330
1A
100
AcDbEntity
  8
SEIHIN
  6
CONTINUOUS
 62
     3
 48
5.0
100
AcDbSpline
210
0.0
220
0.0
230
1.0
 70
     8
 71
     3
 72
    16
 73
    12
 74
     0
 42
0.0000000001
 43
0.0000000001
 40
0.0
 40
0.0
 40
0.0
 40
0.0
 40
0.2171386642748686
 40
0.3334999788850273
 40
0.4097902014477654
 40
0.5030480635734489
 40
0.5599680007876811
 40
0.6707390720097967
 40
0.6997056276565266
 40
0.8636298164810032
 40
1.0
 40
1.0
 40
1.0
 40
1.0
 10
550.6117553654801
 20
162.5669682147202
 30
0.0
 10
550.6753859413579
 20
162.5402915111729
 30
0.0
 10
550.7731151771099
 20
162.4993191670743
 30
0.0
 10
550.9062707928396
 20
162.4934470859549
 30
0.0
 10
550.9977725557511
 20
162.5112505376092
 30
0.0
 10
551.0653841210321
 20
162.5451403437067
 30
0.0
 10
551.1291276113008
 20
162.6027935585433
 30
0.0
 10
551.1630845913844
 20
162.6589288823269
 30
0.0
 10
551.1971146413734
 20
162.7505391803236
 30
0.0
 10
551.2116263839898
 20
162.8567009078918
 30
0.0
 10
551.2007272768278
 20
162.9502564461144
 30
0.0
 10
551.1957777560216
 20
162.9927420438865
 30
0.0
  0
ELLIPSE
  5
1886
330
1A
100
AcDbEntity
  8
SEIHIN
  6
CONTINUOUS
 62
     3
 48
5.0
100
AcDbEllipse
 10
366.5804403208389
 20
160.9573197632931
 30
0.0
 11
1.413349728277353
 21
1.446946299985
 31
0.0
210
0.0
220
0.0
230
1.0
 40
0.9779746969000001
 41
2.355583853645951
 42
2.398304268370652
  0
ELLIPSE
  5
188D
330
1A
100
AcDbEntity
  8
SEIHIN
  6
CONTINUOUS
 62
     3
 48
5.0
100
AcDbEllipse
 10
366.5804403208389
 20
160.6863484698932
 30
0.0
 11
0.0
 21
2.001829143904814
 31
0.0
210
0.0
220
0.0
230
1.0
 40
0.9990862636999999
 41
1.570796326794897
 42
3.141592653589793
  0
SPLINE
  5
1892
330
1A
100
AcDbEntity
  8
SEIHIN
  6
CONTINUOUS
 62
     3
 48
5.0
100
AcDbSpline
210
0.0
220
0.0
230
1.0
 70
    24
 71
     1
 72
     4
 73
     2
 74
     0
 42
0.0000000001
 43
0.0000000001
 40
0.0
 40
0.0
 40
1.0
 40
1.0
 10
353.0803487338057
 20
231.6859855723885
 30
0.0
 10
353.0804403208358
 20
231.684917044896
 30
0.0
  0
SPLINE
  5
1893
330
1A
100
AcDbEntity
  8
SEIHIN
  6
CONTINUOUS
 62
     3
 48
5.0
100
AcDbSpline
210
0.0
220
0.0
230
1.0
 70
    24
 71
     1
 72
     4
 73
     2
 74
     0
 42
0.0000000001
 43
0.0000000001
 40
0.0
 40
0.0
 40
1.0
 40
1.0
 10
353.0800581190853
 20
230.6016168548074
 30
0.0
 10
353.0804403208358
 20
230.7063121273702
 30
0.0
  0
SPLINE
  5
1894
330
1A
100
AcDbEntity
  8
SEIHIN
  6
CONTINUOUS
 62
     3
 48
5.0
100
AcDbSpline
210
0.0
220
0.0
230
1.0
 70
     8
 71
     3
 72
     9
 73
     5
 74
     0
 42
0.0000000001
 43
0.0000000001
 40
0.0
 40
0.0
 40
0.0
 40
0.0
 40
0.6774352619248934
 40
1.0
 40
1.0
 40
1.0
 40
1.0
 10
353.0709140718013
 20
229.7175241115667
 30
0.0
 10
353.0726248473943
 20
229.9179036795171
 30
0.0
 10
353.075150218731
 20
230.2136951436064
 30
0.0
 10
353.0788611148504
 20
230.5070053310272
 30
0.0
 10
353.0800581190853
 20
230.6016168548074
 30
0.0
  0
SPLINE
  5
1897
330
1A
100
AcDbEntity
  8
SEIHIN
  6
CONTINUOUS
 62
     3
 48
5.0
100
AcDbSpline
210
0.0
220
0.0
230
1.0
 70
    24
 71
     1
 72
     4
 73
     2
 74
     0
 42
0.0000000001
 43
0.0000000001
 40
0.0
 40
0.0
 40
1.0
 40
1.0
 10
356.0804403208358
 20
231.9348176151617
 30
0.0
 10
356.080498883649
 20
231.9355398820951
 30
0.0
  0
SPLINE
  5
1899
330
1A
100
AcDbEntity
  8
SEIHIN
  6
CONTINUOUS
 62
     3
 48
5.0
100
AcDbSpline
210
0.0
220
0.0
230
1.0
 70
     8
 71
     3
 72
    10
 73
     6
 74
     0
 42
0.0000000001
 43
0.0000000001
 40
0.0
 40
0.0
 40
0.0
 40
0.0
 40
0.6101420343041689
 40
0.8032750932679906
 40
1.0
 40
1.0
 40
1.0
 40
1.0
 10
356.0804403208358
 20
230.8694299780207
 30
0.0
 10
356.0827181794323
 20
230.6706593880627
 30
0.0
 10
356.0857170665335
 20
230.4089703792576
 30
0.0
 10
356.0895766927883
 20
230.0808938637428
 30
0.0
 10
356.0898358150593
 20
229.9529287424513
 30
0.0
 10
356.0899665698702
 20
229.888356696306
 30
0.0
  0
SPLINE
  5
189F
330
1A
100
AcDbEntity
  8
SEIHIN
  6
CONTINUOUS
 62
     3
 48
5.0
100
AcDbSpline
210
0.0
220
0.0
230
1.0
 70
     8
 71
     3
 72
    10
 73
     6
 74
     0
 42
0.0000000001
 43
0.0000000001
 40
0.0
 40
0.0
 40
0.0
 40
0.0
 40
0.6101420343041689
 40
0.8032750932679872
 40
1.0
 40
1.0
 40
1.0
 40
1.0
 10
351.0804403208358
 20
230.4529290275778
 30
0.0
 10
351.0827181794323
 20
230.2541584376199
 30
0.0
 10
351.0857170665335
 20
229.9924694288147
 30
0.0
 10
351.0895766927883
 20
229.6643929132999
 30
0.0
 10
351.0898358150593
 20
229.5364277920084
 30
0.0
 10
351.0899665698703
 20
229.4718557458631
 30
0.0
  0
SPLINE
  5
18A0
330
1A
100
AcDbEntity
  8
SEIHIN
  6
CONTINUOUS
 62
     3
 48
5.0
100
AcDbSpline
210
0.0
220
0.0
230
1.0
 70
    24
 71
     1
 72
     4
 73
     2
 74
     0
 42
0.0000000001
 43
0.0000000001
 40
0.0
 40
0.0
 40
1.0
 40
1.0
 10
351.0804403208358
 20
231.5183166647188
 30
0.0
 10
351.080498883649
 20
231.5190389316522
 30
0.0
  0
SPLINE
  5
18A2
330
1A
100
AcDbEntity
  8
SEIHIN
  6
CONTINUOUS
 62
     3
 48
5.0
100
AcDbSpline
210
0.0
220
0.0
230
1.0
 70
    24
 71
     1
 72
     4
 73
     2
 74
     0
 42
0.0000000001
 43
0.0000000001
 40
0.0
 40
0.0
 40
1.0
 40
1.0
 10
348.0800581190854
 20
230.1851159043645
 30
0.0
 10
348.0804403208358
 20
230.2898111768137
 30
0.0
  0
SPLINE
  5
18A5
330
1A
100
AcDbEntity
  8
SEIHIN
  6
CONTINUOUS
 62
     3
 48
5.0
100
AcDbSpline
210
0.0
220
0.0
230
1.0
 70
     8
 71
     3
 72
     9
 73
     5
 74
     0
 42
0.0000000001
 43
0.0000000001
 40
0.0
 40
0.0
 40
0.0
 40
0.0
 40
0.6774352619248855
 40
1.0
 40
1.0
 40
1.0
 40
1.0
 10
348.0709140718013
 20
229.3010231611237
 30
0.0
 10
348.0726248473942
 20
229.5014027290742
 30
0.0
 10
348.075150218731
 20
229.7971941931635
 30
0.0
 10
348.0788611148505
 20
230.0905043805844
 30
0.0
 10
348.0800581190854
 20
230.1851159043645
 30
0.0
  0
SPLINE
  5
18A7
330
1A
100
AcDbEntity
  8
SEIHIN
  6
CONTINUOUS
 62
     3
 48
5.0
100
AcDbSpline
210
0.0
220
0.0
230
1.0
 70
    24
 71
     1
 72
     4
 73
     2
 74
     0
 42
0.0000000001
 43
0.0000000001
 40
0.0
 40
0.0
 40
1.0
 40
1.0
 10
348.0803487338057
 20
231.2694846219456
 30
0.0
 10
348.0804403208358
 20
231.2684160944531
 30
0.0
  0
SPLINE
  5
18A8
330
1A
100
AcDbEntity
  8
SEIHIN
  6
CONTINUOUS
 62
     3
 48
5.0
100
AcDbSpline
210
0.0
220
0.0
230
1.0
 70
     8
 71
     3
 72
    10
 73
     6
 74
     0
 42
0.0000000001
 43
0.0000000001
 40
0.0
 40
0.0
 40
0.0
 40
0.0
 40
0.6101420343041689
 40
0.8032750932679908
 40
1.0
 40
1.0
 40
1.0
 40
1.0
 10
346.0804403208358
 20
230.0364280771349
 30
0.0
 10
346.0827181794322
 20
229.8376574871769
 30
0.0
 10
346.0857170665335
 20
229.5759684783718
 30
0.0
 10
346.0895766927883
 20
229.247891962857
 30
0.0
 10
346.0898358150592
 20
229.1199268415656
 30
0.0
 10
346.0899665698701
 20
229.0553547954201
 30
0.0
  0
SPLINE
  5
18A9
330
1A
100
AcDbEntity
  8
SEIHIN
  6
CONTINUOUS
 62
     3
 48
5.0
100
AcDbSpline
210
0.0
220
0.0
230
1.0
 70
    24
 71
     1
 72
     4
 73
     2
 74
     0
 42
0.0000000001
 43
0.0000000001
 40
0.0
 40
0.0
 40
1.0
 40
1.0
 10
346.0804403208358
 20
231.1018157142759
 30
0.0
 10
346.080498883649
 20
231.1025379812093
 30
0.0
  0
SPLINE
  5
18AD
330
1A
100
AcDbEntity
  8
SEIHIN
  6
CONTINUOUS
 62
     3
 48
5.0
100
AcDbSpline
210
0.0
220
0.0
230
1.0
 70
     8
 71
     3
 72
     9
 73
     5
 74
     0
 42
0.0000000001
 43
0.0000000001
 40
0.0
 40
0.0
 40
0.0
 40
0.0
 40
0.2664983863624489
 40
1.0
 40
1.0
 40
1.0
 40
1.0
 10
220.3807985548393
 20
235.9772330325828
 30
0.0
 10
220.4549891863414
 20
236.0111439512083
 30
0.0
 10
220.7333797331463
 20
236.138390194941
 30
0.0
 10
221.0411061860485
 20
236.1650005606919
 30
0.0
 10
221.2668240358112
 20
236.1845193069098
 30
0.0
  0
ELLIPSE
  5
18B3
330
1A
100
AcDbEntity
  8
SEIHIN
  6
CONTINUOUS
 62
     3
 48
5.0
100
AcDbEllipse
 10
224.8119804744391
 20
231.1863484698931
 30
0.0
 11
1.635616300518108
 21
1.160438696730409
 31
0.0
210
0.0
220
0.0
230
1.0
 40
0.9972788162999998
 41
2.189786103999621
 42
4.093399203179989
  0
ELLIPSE
  5
18B4
330
1A
100
AcDbEntity
  8
SEIHIN
  6
CONTINUOUS
 62
     3
 48
5.0
100
AcDbEllipse
 10
223.735055282339
 20
235.6840620399931
 30
0.0
 11
0.4089040751295274
 21
0.2901096741826167
 31
0.0
210
0.0
220
0.0
230
1.0
 40
0.9972788163
 41
5.331379240950759
 42
7.234991373408367
  0
ELLIPSE
  5
18BC
330
1A
100
AcDbEntity
  8
SEIHIN
  6
CONTINUOUS
 62
     3
 48
5.0
100
AcDbEllipse
 10
352.583184036739
 20
201.1837724484931
 30
0.0
 11
2.687104983084366
 21
1.341656470728934
 31
0.0
210
0.0
220
0.0
230
1.0
 40
0.9988588852999999
 41
2.6791938325318
 42
3.603991474647881
  0
ELLIPSE
  5
18BF
330
1A
100
AcDbEntity
  8
SEIHIN
  6
CONTINUOUS
 62
     3
 48
5.0
100
AcDbEllipse
 10
341.9757204108391
 20
201.2799464661931
 30
0.0
 11
-3.048228602858074
 21
3.972528857489322
 31
0.0
210
0.0
220
0.0
230
0.9999999999999998
 40
0.9985494992999999
 41
5.629738087218525
 42
6.936632527140671
  0
ELLIPSE
  5
18C0
330
1A
100
AcDbEntity
  8
SEIHIN
  6
CONTINUOUS
 62
     3
 48
5.0
100
AcDbEllipse
 10
346.5776966049391
 20
203.2817756100931
 30
0.0
 11
2.125198478113361
 21
2.125198478113333
 31
0.0
210
0.0
220
0.0
230
1.0
 40
0.9981751659
 41
5.499156844765548
 42
7.067213769593666
  0
ELLIPSE
  5
18C2
330
1A
100
AcDbEntity
  8
SEIHIN
  6
CONTINUOUS
 62
     3
 48
5.0
100
AcDbEllipse
 10
348.680553407539
 20
202.3781132647931
 30
0.0
 11
2.830151700539346
 21
2.83015170053909
 31
0.0
210
0.0
220
0.0
230
1.0
 40
0.9993906418999999
 41
5.498396131367812
 42
6.85014868513652
  0
ELLIPSE
  5
18C6
330
1A
100
AcDbEntity
  8
SEIHIN
  6
CONTINUOUS
 62
     3
 48
5.0
100
AcDbEllipse
 10
340.5667969993391
 20
201.7994274875931
 30
0.0
 11
-6.967579197197806
 21
9.78127972059266
 31
0.0
210
0.0
220
0.0
230
1.0
 40
0.9992349315000002
 41
0.1790357108921273
 42
0.6185248578282249
  0
ELLIPSE
  5
18C8
330
1A
100
AcDbEntity
  8
SEIHIN
  6
CONTINUOUS
 62
     3
 48
5.0
100
AcDbEllipse
 10
340.903917478839
 20
201.3261684665931
 30
0.0
 11
-8.710805931443559
 21
12.22846945773028
 31
0.0
210
0.0
220
0.0
230
1.0
 40
0.9990821425
 41
0.3209686480913486
 42
0.6185248578282386
  0
ELLIPSE
  5
18CE
330
1A
100
AcDbEntity
  8
SEIHIN
  6
CONTINUOUS
 62
     3
 48
5.0
100
AcDbEllipse
 10
321.116554536439
 20
205.3383593524931
 30
0.0
 11
2.903601977147845
 21
-4.076156485910075
 31
0.0
210
0.0
220
0.0
230
0.9999999999999998
 40
0.9990821425
 41
5.664660449351363
 42
6.901710165007837
  0
ELLIPSE
  5
18D1
330
1A
100
AcDbEntity
  8
SEIHIN
  6
CONTINUOUS
 62
     3
 48
5.0
100
AcDbEllipse
 10
342.069738061539
 20
201.1574202782931
 30
0.0
 11
-4.875985283902849
 21
6.354507739621624
 31
0.0
210
0.0
220
0.0
230
1.0
 40
0.9987912490000001
 41
5.629154188771662
 42
6.937216425587557
  0
SPLINE
  5
18D5
330
1A
100
AcDbEntity
  8
SEIHIN
  6
CONTINUOUS
 62
     3
 48
5.0
100
AcDbSpline
210
0.0
220
0.0
230
1.0
 70
    24
 71
     1
 72
     4
 73
     2
 74
     0
 42
0.0000000001
 43
0.0000000001
 40
0.0
 40
0.0
 40
1.0
 40
1.0
 10
267.0869594686669
 20
200.684361976366
 30
0.0
 10
267.1378213709413
 20
200.6687306348327
 30
0.0
  0
SPLINE
  5
18D6
330
1A
100
AcDbEntity
  8
SEIHIN
  6
CONTINUOUS
 62
     3
 48
5.0
100
AcDbSpline
210
0.0
220
0.0
230
1.0
 70
     8
 71
     3
 72
    12
 73
     8
 74
     0
 42
0.0000000001
 43
0.0000000001
 40
0.0
 40
0.0
 40
0.0
 40
0.0
 40
0.2146732305294812
 40
0.4293462161815027
 40
0.6440273404553389
 40
0.8587233648593183
 40
1.0
 40
1.0
 40
1.0
 40
1.0
 10
270.286959468667
 20
200.5727728635855
 30
0.0
 10
269.9272241856504
 20
200.5740073632863
 30
0.0
 10
269.2077540299665
 20
200.5764763612796
 30
0.0
 10
268.2488427875909
 20
200.5957298856495
 30
0.0
 10
267.5251478795976
 20
200.6240670672635
 30
0.0
 10
267.1416125585309
 20
200.6554707766821
 30
0.0
 10
267.1024873029315
 20
200.6762232642876
 30
0.0
 10
267.0869594686669
 20
200.684459406983
 30
0.0
  0
SPLINE
  5
18D8
330
1A
100
AcDbEntity
  8
SEIHIN
  6
CONTINUOUS
 62
     3
 48
5.0
100
AcDbSpline
210
0.0
220
0.0
230
1.0
 70
    24
 71
     1
 72
     4
 73
     2
 74
     0
 42
0.0000000001
 43
0.0000000001
 40
0.0
 40
0.0
 40
1.0
 40
1.0
 10
352.083583509297
 20
186.1625225638429
 30
0.0
 10
352.0837774643265
 20
186.1628135041424
 30
0.0
  0
SPLINE
  5
18DA
330
1A
100
AcDbEntity
  8
SEIHIN
  6
CONTINUOUS
 62
     3
 48
5.0
100
AcDbSpline
210
0.0
220
0.0
230
1.0
 70
     8
 71
     3
 72
     9
 73
     5
 74
     0
 42
0.0000000001
 43
0.0000000001
 40
0.0
 40
0.0
 40
0.0
 40
0.0
 40
0.4266615478495286
 40
1.0
 40
1.0
 40
1.0
 40
1.0
 10
351.5804403239202
 20
184.500284902116
 30
0.0
 10
351.5965998102622
 20
184.7521535532118
 30
0.0
 10
351.6344740607623
 20
185.3424777864722
 30
0.0
 10
351.9199240664918
 20
185.863690984174
 30
0.0
 10
352.0835835309432
 20
186.1625225521848
 30
0.0
  0
SPLINE
  5
18DC
330
1A
100
AcDbEntity
  8
SEIHIN
  6
CONTINUOUS
 62
     3
 48
5.0
100
AcDbSpline
210
0.0
220
0.0
230
1.0
 70
     8
 71
     3
 72
     9
 73
     5
 74
     0
 42
0.0000000001
 43
0.0000000001
 40
0.0
 40
0.0
 40
0.0
 40
0.0
 40
0.4265044359662327
 40
1.0
 40
1.0
 40
1.0
 40
1.0
 10
352.0837774643265
 20
186.1628135041424
 30
0.0
 10
352.2099484312903
 20
186.3812211324392
 30
0.0
 10
352.5057741163805
 20
186.8933087214041
 30
0.0
 10
352.5573695935515
 20
187.4851836797065
 30
0.0
 10
352.5869593708332
 20
187.8246213427554
 30
0.0
  0
ELLIPSE
  5
18DE
330
1A
100
AcDbEntity
  8
SEIHIN
  6
CONTINUOUS
 62
     3
 48
5.0
100
AcDbEllipse
 10
340.713480776939
 20
188.7840620399931
 30
0.0
 11
0.4354403251024052
 21
0.2494843725117733
 31
0.0
210
0.0
220
0.0
230
1.0
 40
0.9963189675000002
 41
5.235067159159208
 42
7.331303455200035
  0
ELLIPSE
  5
18E8
330
1A
100
AcDbEntity
  8
SEIHIN
  6
CONTINUOUS
 62
     3
 48
5.0
100
AcDbEllipse
 10
327.1443816234391
 20
187.9818741688931
 30
0.0
 11
-1.976375322170469
 21
2.258150228741612
 31
0.0
210
0.0
220
0.0
230
1.0
 40
0.9997055818000001
 41
2.551957427474313
 42
3.731227879705048
  0
ELLIPSE
  5
18EC
330
1A
100
AcDbEntity
  8
SEIHIN
  6
CONTINUOUS
 62
     3
 48
5.0
100
AcDbEllipse
 10
309.292432886339
 20
182.7652622142931
 30
0.0
 11
8.749911620247985
 21
1.135632633415071
 31
0.0
210
0.0
220
0.0
230
0.9999999999999998
 40
0.0346303159
 41
5.657024125898033
 42
5.867173895483959
  0
SPLINE
  5
18F1
330
1A
100
AcDbEntity
  8
SEIHIN
  6
CONTINUOUS
 62
     3
 48
5.0
100
AcDbSpline
210
0.0
220
0.0
230
1.0
 70
     8
 71
     3
 72
    11
 73
     7
 74
     0
 42
0.0000000001
 43
0.0000000001
 40
0.0
 40
0.0
 40
0.0
 40
0.0
 40
0.3666635920237136
 40
0.7366735227054734
 40
0.9405996257732212
 40
1.0
 40
1.0
 40
1.0
 40
1.0
 10
316.4053863257636
 20
183.5078693898359
 30
0.0
 10
316.4047715233702
 20
183.5085409236184
 30
0.0
 10
316.4035363076178
 20
183.5098901199061
 30
0.0
 10
316.3893978500423
 20
183.5117975132066
 30
0.0
 10
316.3692455842983
 20
183.5130714346758
 30
0.0
 10
316.3585147900919
 20
183.5135423231625
 30
0.0
 10
316.3560941706458
 20
183.5136485447343
 30
0.0
  0
ELLIPSE
  5
18F7
330
1A
100
AcDbEntity
  8
SEIHIN
  6
CONTINUOUS
 62
     3
 48
5.0
100
AcDbEllipse
 10
334.884857587039
 20
190.2854338978931
 30
0.0
 11
0.7953094705196975
 21
0.610262420521309
 31
0.0
210
0.0
220
0.0
230
1.0
 40
0.9975404163
 41
2.227079130965092
 42
4.056106176214446
  0
ELLIPSE
  5
18FA
330
1A
100
AcDbEntity
  8
SEIHIN
  6
CONTINUOUS
 62
     3
 48
5.0
100
AcDbEllipse
 10
349.584215752839
 20
179.2895531808931
 30
0.0
 11
2.823732532806986
 21
1.02233218053371
 31
0.0
210
0.0
220
0.0
230
1.0
 40
0.9989666868999998
 41
5.936312309613001
 42
6.523500598937116
  0
SPLINE
  5
18FE
330
1A
100
AcDbEntity
  8
SEIHIN
  6
CONTINUOUS
 62
     3
 48
5.0
100
AcDbSpline
210
0.0
220
0.0
230
1.0
 70
     8
 71
     3
 72
     9
 73
     5
 74
     0
 42
0.0000000001
 43
0.0000000001
 40
0.0
 40
0.0
 40
0.0
 40
0.0
 40
0.4265985307311279
 40
1.0
 40
1.0
 40
1.0
 40
1.0
 10
351.5804403507913
 20
182.6159939229766
 30
0.0
 10
351.5966185739674
 20
182.3641965216721
 30
0.0
 10
351.6345423407191
 20
181.7739521041094
 30
0.0
 10
351.9199828345869
 20
181.2528175165255
 30
0.0
 10
352.0836548331595
 20
180.953998178318
 30
0.0
  0
ELLIPSE
  5
1902
330
1A
100
AcDbEntity
  8
SEIHIN
  6
CONTINUOUS
 62
     3
 48
5.0
100
AcDbEllipse
 10
335.110358732139
 20
188.1321464213931
 30
0.0
 11
-2.763067085961779
 21
4.173991542888784
 31
0.0
210
0.0
220
0.0
230
0.9999999999999998
 40
0.9988670258999999
 41
2.686429572896438
 42
3.596755734283139
  0
ELLIPSE
  5
1905
330
1A
100
AcDbEntity
  8
SEIHIN
  6
CONTINUOUS
 62
     3
 48
5.0
100
AcDbEllipse
 10
267.775384320139
 20
197.9190158027931
 30
0.0
 11
1.999999999999971
 21
0.0
 31
0.0
210
0.0
220
0.0
230
1.0
 40
0.0349207695
 41
1.570796326794897
 42
2.362290228365663
  0
SPLINE
  5
1908
330
1A
100
AcDbEntity
  8
SEIHIN
  6
CONTINUOUS
 62
     3
 48
5.0
100
AcDbSpline
210
0.0
220
0.0
230
1.0
 70
     8
 71
     3
 72
    10
 73
     6
 74
     0
 42
0.0000000001
 43
0.0000000001
 40
0.0
 40
0.0
 40
0.0
 40
0.0
 40
0.4259027723782158
 40
0.8517935947455297
 40
1.0
 40
1.0
 40
1.0
 40
1.0
 10
267.7578365016711
 20
184.2323395544468
 30
0.0
 10
267.5333146676995
 20
184.23706119006
 30
0.0
 10
267.0842772994063
 20
184.2465043288063
 30
0.0
 10
266.6114263172347
 20
184.2641810425568
 30
0.0
 10
266.3917468080482
 20
184.2752527201285
 30
0.0
 10
266.3350353159905
 20
184.2781109355214
 30
0.0
  0
SPLINE
  5
190C
330
1A
100
AcDbEntity
  8
SEIHIN
  6
CONTINUOUS
 62
     3
 48
5.0
100
AcDbSpline
210
0.0
220
0.0
230
1.0
 70
     8
 71
     3
 72
    11
 73
     7
 74
     0
 42
0.0000000001
 43
0.0000000001
 40
0.0
 40
0.0
 40
0.0
 40
0.0
 40
0.048315067073231
 40
0.2415753353661542
 40
0.620787667683077
 40
1.0
 40
1.0
 40
1.0
 40
1.0
 10
309.1464096460541
 20
183.5055208059737
 30
0.0
 10
308.4798457501484
 20
183.517226234735
 30
0.0
 10
305.14702627062
 20
183.5757533785416
 30
0.0
 10
296.5825210063893
 20
183.7261533855945
 30
0.0
 10
283.4528938538772
 20
183.9567208564691
 30
0.0
 10
272.9895222857399
 20
184.1404666551209
 30
0.0
 10
267.7578365016711
 20
184.2323395544468
 30
0.0
  0
SPLINE
  5
190D
330
1A
100
AcDbEntity
  8
SEIHIN
  6
CONTINUOUS
 62
     3
 48
5.0
100
AcDbSpline
210
0.0
220
0.0
230
1.0
 70
     8
 71
     3
 72
    12
 73
     8
 74
     0
 42
0.0000000001
 43
0.0000000001
 40
0.0
 40
0.0
 40
0.0
 40
0.0
 40
0.2150159439862009
 40
0.4300423538877192
 40
0.6448014531063478
 40
0.8592006771705122
 40
1.0
 40
1.0
 40
1.0
 40
1.0
 10
267.0869594686669
 20
181.5490700884332
 30
0.0
 10
267.1173807510722
 20
181.5593536212018
 30
0.0
 10
267.1782247966405
 20
181.5799211872906
 30
0.0
 10
267.6530171624697
 20
181.6004609525195
 30
0.0
 10
268.351576137153
 20
181.6099967602045
 30
0.0
 10
269.1246071902128
 20
181.6079886704616
 30
0.0
 10
269.634743442057
 20
181.6002473918032
 30
0.0
 10
269.836959468667
 20
181.5971787790444
 30
0.0
  0
ELLIPSE
  5
1910
330
1A
100
AcDbEntity
  8
SEIHIN
  6
CONTINUOUS
 62
     3
 48
5.0
100
AcDbEllipse
 10
309.163957169339
 20
197.6833006086931
 30
0.0
 11
8.75
 21
0.0
 31
0.0
210
0.0
220
0.0
230
1.0
 40
0.0349207695
 41
0.4115168460674714
 42
1.570796326794897
  0
SPLINE
  5
1914
330
1A
100
AcDbEntity
  8
SEIHIN
  6
CONTINUOUS
 62
     3
 48
5.0
100
AcDbSpline
210
0.0
220
0.0
230
1.0
 70
     8
 71
     3
 72
    13
 73
     9
 74
     0
 42
0.0000000001
 43
0.0000000001
 40
0.0
 40
0.0
 40
0.0
 40
0.0
 40
0.1507224892035814
 40
0.3047771069875196
 40
0.4763832138358436
 40
0.6529690770005875
 40
0.8240202430900847
 40
1.0
 40
1.0
 40
1.0
 40
1.0
 10
316.3560941706457
 20
183.5136485447344
 30
0.0
 10
316.1001163741385
 20
183.506036975126
 30
0.0
 10
315.5825016990841
 20
183.490645561561
 30
0.0
 10
314.5844156926959
 20
183.4757934872312
 30
0.0
 10
313.4043715833509
 20
183.4682603803116
 30
0.0
 10
312.0602477769016
 20
183.4706256954462
 30
0.0
 10
310.6237453587485
 20
183.4821548709938
 30
0.0
 10
309.6434954410123
 20
183.4976587646891
 30
0.0
 10
309.1464096460541
 20
183.5055208059737
 30
0.0
  0
SPLINE
  5
1915
330
1A
100
AcDbEntity
  8
SEIHIN
  6
CONTINUOUS
 62
     3
 48
5.0
100
AcDbSpline
210
0.0
220
0.0
230
1.0
 70
     8
 71
     3
 72
    12
 73
     8
 74
     0
 42
0.0000000001
 43
0.0000000001
 40
0.0
 40
0.0
 40
0.0
 40
0.0
 40
0.2145182153602818
 40
0.4290261145768837
 40
0.6437978561158518
 40
0.8589301252939046
 40
1.0
 40
1.0
 40
1.0
 40
1.0
 10
309.3369514648568
 20
180.9071537307291
 30
0.0
 10
309.6459612007489
 20
180.9006935166773
 30
0.0
 10
310.2639658123087
 20
180.8877733992444
 30
0.0
 10
311.0874815415869
 20
180.8568335915251
 30
0.0
 10
311.7095673111717
 20
180.821595145901
 30
0.0
 10
312.0393968812808
 20
180.7888243304224
 30
0.0
 10
312.0734654539493
 20
180.7703741375021
 30
0.0
 10
312.0869579310729
 20
180.7630671449748
 30
0.0
  0
ELLIPSE
  5
1916
330
1A
100
AcDbEntity
  8
SEIHIN
  6
CONTINUOUS
 62
     3
 48
5.0
100
AcDbEllipse
 10
349.584215752839
 20
195.9250673482931
 30
0.0
 11
2.687104983084396
 21
1.341656470728936
 31
0.0
210
0.0
220
0.0
230
1.0
 40
0.9988588852999999
 41
5.820786507765432
 42
6.745584106593853
  0
ELLIPSE
  5
191D
330
1A
100
AcDbEntity
  8
SEIHIN
  6
CONTINUOUS
 62
     3
 48
5.0
100
AcDbEllipse
 10
227.6876531322391
 20
221.8061324748931
 30
0.0
 11
0.0
 21
1.0
 31
0.0
210
0.0
220
0.0
230
1.0
 40
0.0349207695
 41
0.0349065850403306
 42
0.0935188406053599
  0
SPLINE
  5
191F
330
1A
100
AcDbEntity
  8
SEIHIN
  6
CONTINUOUS
 62
     3
 48
5.0
100
AcDbSpline
210
0.0
220
0.0
230
1.0
 70
     8
 71
     3
 72
     9
 73
     5
 74
     0
 42
0.0000000001
 43
0.0000000001
 40
0.0
 40
0.0
 40
0.0
 40
0.0
 40
0.2661309046092239
 40
1.0
 40
1.0
 40
1.0
 40
1.0
 10
227.6843921405022
 20
222.8017627742051
 30
0.0
 10
227.6738388575145
 20
222.7914912774717
 30
0.0
 10
227.6341843761862
 20
222.7528956218923
 30
0.0
 10
227.5945308998182
 20
222.7134599481641
 30
0.0
 10
227.5654304389868
 20
222.6845193259591
 30
0.0
  0
ELLIPSE
  5
1924
330
1A
100
AcDbEntity
  8
SEIHIN
  6
CONTINUOUS
 62
     3
 48
5.0
100
AcDbEllipse
 10
230.733951095539
 20
218.8043038419931
 30
0.0
 11
2.19956771015724
 21
3.34303513330542
 31
0.0
210
0.0
220
0.0
230
1.0
 40
0.9995633482
 41
5.70163867219285
 42
6.864731942166131
  0
ELLIPSE
  5
1931
330
1A
100
AcDbEntity
  8
SEIHIN
  6
CONTINUOUS
 62
     3
 48
5.0
100
AcDbEllipse
 10
238.409874104639
 20
200.6808610381931
 30
0.0
 11
2.201487864148575
 21
3.345953498683655
 31
0.0
210
0.0
220
0.0
230
1.0
 40
0.9986915216999999
 41
5.702139403491179
 42
6.864231210868061
  0
ELLIPSE
  5
1936
330
1A
100
AcDbEntity
  8
SEIHIN
  6
CONTINUOUS
 62
     3
 48
5.0
100
AcDbEllipse
 10
254.790237841339
 20
187.6436866828931
 30
0.0
 11
1.671244221437661
 21
2.492414201944654
 31
0.0
210
0.0
220
0.0
230
1.0
 40
0.9997120243000001
 41
2.568765093720108
 42
3.714420213459526
  0
ELLIPSE
  5
193C
330
1A
100
AcDbEntity
  8
SEIHIN
  6
CONTINUOUS
 62
     3
 48
5.0
100
AcDbEllipse
 10
254.873681663239
 20
187.7681308328931
 30
0.0
 11
3.345854450576494
 21
4.989848307796519
 31
0.0
210
0.0
220
0.0
230
1.0
 40
0.9987062907
 41
2.569256368754838
 42
3.71392893842494
  0
ELLIPSE
  5
1941
330
1A
100
AcDbEntity
  8
SEIHIN
  6
CONTINUOUS
 62
     3
 48
5.0
100
AcDbEllipse
 10
263.594534123839
 20
205.8116183735931
 30
0.0
 11
3.846192934061979
 21
7.023789053274358
 31
0.0
210
0.0
220
0.0
230
1.0
 40
0.9990107453
 41
2.640931188611281
 42
3.436937507774734
  0
ELLIPSE
  5
1943
330
1A
100
AcDbEntity
  8
SEIHIN
  6
CONTINUOUS
 62
     3
 48
5.0
100
AcDbEllipse
 10
263.630875961639
 20
205.8779846236931
 30
0.0
 11
7.041059903323201
 21
4.359463255304405
 31
0.0
210
0.0
220
0.0
230
1.0
 40
0.9548605538
 41
3.972399269672811
 42
4.177715880466362
  0
ELLIPSE
  5
1946
330
1A
100
AcDbEntity
  8
SEIHIN
  6
CONTINUOUS
 62
     3
 48
5.0
100
AcDbEllipse
 10
263.527439375639
 20
205.6890921856931
 30
0.0
 11
2.404347019879451
 21
4.390738209969526
 31
0.0
210
0.0
220
0.0
230
1.0
 40
0.9988127852000001
 41
2.641347973447313
 42
3.641837333732317
  0
SPLINE
  5
194B
330
1A
100
AcDbEntity
  8
SEIHIN
  6
CONTINUOUS
 62
     3
 48
5.0
100
AcDbSpline
210
0.0
220
0.0
230
1.0
 70
     8
 71
     3
 72
     9
 73
     5
 74
     0
 42
0.0000000001
 43
0.0000000001
 40
0.0
 40
0.0
 40
0.0
 40
0.0
 40
0.3417694647463113
 40
1.0
 40
1.0
 40
1.0
 40
1.0
 10
266.3350353159905
 20
184.2781109355214
 30
0.0
 10
265.8668372992138
 20
184.3028988261642
 30
0.0
 10
264.4969138125612
 20
184.3754269282907
 30
0.0
 10
263.1269879461049
 20
184.4478618816399
 30
0.0
 10
262.2252609097695
 20
184.4955407797541
 30
0.0
  0
ELLIPSE
  5
194D
330
1A
100
AcDbEntity
  8
SEIHIN
  6
CONTINUOUS
 62
     3
 48
5.0
100
AcDbEllipse
 10
239.8268367045391
 20
224.1799464661931
 30
0.0
 11
2.404347019879423
 21
4.390738209969526
 31
0.0
210
0.0
220
0.0
230
1.0
 40
0.9988127852000001
 41
5.782940598488883
 42
6.783430015870338
  0
LINE
  5
1953
330
1A
100
AcDbEntity
  8
SEIHIN
  6
CONTINUOUS
 62
     3
 48
5.0
100
AcDbLine
 10
243.817831693139
 20
221.8833387843931
 30
0.0
 11
256.852277610539
 21
201.4942613716931
 31
0.0
  0
LINE
  5
1954
330
1A
100
AcDbEntity
  8
SEIHIN
  6
CONTINUOUS
 62
     3
 48
5.0
100
AcDbLine
 10
259.313110998839
 20
202.9899806195931
 30
0.0
 11
244.041165081439
 21
226.8790580322932
 31
0.0
  0
LINE
  5
1958
330
1A
100
AcDbEntity
  8
SEIHIN
  6
CONTINUOUS
 62
     3
 48
5.0
100
AcDbLine
 10
261.735983008039
 20
184.5213812573931
 30
0.0
 11
254.736296799739
 21
184.6435612345931
 31
0.0
  0
LINE
  5
195B
330
1A
100
AcDbEntity
  8
SEIHIN
  6
CONTINUOUS
 62
     3
 48
5.0
100
AcDbLine
 10
267.086959468639
 20
181.5485450398931
 30
0.0
 11
254.762970689939
 21
181.7636610641931
 31
0.0
  0
LINE
  5
195C
330
1A
100
AcDbEntity
  8
SEIHIN
  6
CONTINUOUS
 62
     3
 48
5.0
100
AcDbLine
 10
252.035245954939
 20
186.4547030634931
 30
0.0
 11
237.572057734639
 21
220.0156923038931
 31
0.0
  0
LINE
  5
195E
330
1A
100
AcDbEntity
  8
SEIHIN
  6
CONTINUOUS
 62
     3
 48
5.0
100
AcDbLine
 10
249.360869000339
 20
185.3859447220931
 30
0.0
 11
242.0850525549389
 21
202.2690547057931
 31
0.0
  0
LINE
  5
1963
330
1A
100
AcDbEntity
  8
SEIHIN
  6
CONTINUOUS
 62
     3
 48
5.0
100
AcDbLine
 10
249.3620359493391
 20
185.3832368845931
 30
0.0
 11
249.360869000339
 21
185.3859447220931
 31
0.0
  0
LINE
  5
1967
330
1A
100
AcDbEntity
  8
SEIHIN
  6
CONTINUOUS
 62
     3
 48
5.0
100
AcDbLine
 10
254.762970689939
 20
181.7636610641931
 30
0.0
 11
254.760022553939
 21
181.7637125240931
 31
0.0
  0
ARC
  5
196A
330
1A
100
AcDbEntity
  8
SEIHIN
  6
CONTINUOUS
 62
     3
 48
5.0
100
AcDbCircle
 10
223.490637997639
 20
229.6946507231931
 30
0.0
 40
7.010131397273454
100
AcDbArc
 50
180.0
 51
270.0
  0
LINE
  5
196C
330
1A
100
AcDbEntity
  8
SEIHIN
  6
CONTINUOUS
 62
     3
 48
5.0
100
AcDbLine
 10
223.490637997639
 20
222.6845193259931
 30
0.0
 11
227.565430438939
 21
222.6845193259931
 31
0.0
  0
ARC
  5
196F
330
1A
100
AcDbEntity
  8
SEIHIN
  6
CONTINUOUS
 62
     3
 48
5.0
100
AcDbCircle
 10
229.480506600339
 20
208.5845973109931
 30
0.0
 40
4.000000000000013
100
AcDbArc
 50
139.6387505757015
 51
257.166459957799
  0
LINE
  5
1972
330
1A
100
AcDbEntity
  8
SEIHIN
  6
CONTINUOUS
 62
     3
 48
5.0
100
AcDbLine
 10
230.6133363314391
 20
216.0941005044931
 30
0.0
 11
226.432600707839
 21
211.1750161324931
 31
0.0
  0
LINE
  5
1975
330
1A
100
AcDbEntity
  8
SEIHIN
  6
CONTINUOUS
 62
     3
 48
5.0
100
AcDbLine
 10
234.407524906039
 20
220.3900586816931
 30
0.0
 11
242.1646677632391
 21
202.3900586816931
 31
0.0
  0
LINE
  5
197A
330
1A
100
AcDbEntity
  8
SEIHIN
  6
CONTINUOUS
 62
     3
 48
5.0
100
AcDbLine
 10
238.415888045439
 20
204.6845190247931
 30
0.0
 11
238.413884328939
 21
204.6845193259931
 31
0.0
  0
LINE
  5
197C
330
1A
100
AcDbEntity
  8
SEIHIN
  6
CONTINUOUS
 62
     3
 48
5.0
100
AcDbLine
 10
228.592029413839
 20
204.6845193259931
 30
0.0
 11
238.413884328939
 21
204.6845193259931
 31
0.0
  0
LINE
  5
197E
330
1A
100
AcDbEntity
  8
SEIHIN
  6
CONTINUOUS
 62
     3
 48
5.0
100
AcDbLine
 10
242.1646677632391
 20
202.3900586816931
 30
0.0
 11
242.0850525549389
 21
202.2690547057931
 31
0.0
  0
LINE
  5
197F
330
1A
100
AcDbEntity
  8
SEIHIN
  6
CONTINUOUS
 62
     3
 48
5.0
100
AcDbLine
 10
242.0850525549389
 20
202.2690547057931
 30
0.0
 11
242.0842592760391
 21
202.2708947025932
 31
0.0
  0
LINE
  5
1981
330
1A
100
AcDbEntity
  8
SEIHIN
  6
CONTINUOUS
 62
     3
 48
5.0
100
AcDbLine
 10
239.4076418477391
 20
222.8055233018931
 30
0.0
 11
242.133769133139
 21
222.8055233018931
 31
0.0
  0
LINE
  5
1988
330
1A
100
AcDbEntity
  8
SEIHIN
  6
CONTINUOUS
 62
     3
 48
5.0
100
AcDbLine
 10
227.686434414939
 20
222.8055233018931
 30
0.0
 11
230.736356680039
 21
222.8055233018931
 31
0.0
  0
LINE
  5
1989
330
1A
100
AcDbEntity
  8
SEIHIN
  6
CONTINUOUS
 62
     3
 48
5.0
100
AcDbLine
 10
227.565430438939
 20
222.6845193259931
 30
0.0
 11
227.686434414939
 21
222.8055233018931
 31
0.0
  0
ARC
  5
1990
330
1A
100
AcDbEntity
  8
SEIHIN
  6
CONTINUOUS
 62
     3
 48
5.0
100
AcDbCircle
 10
227.565430438939
 20
218.6845193259931
 30
0.0
 40
4.000000000000056
100
AcDbArc
 50
319.6387505757015
 51
90.0
  0
ARC
  5
1992
330
1A
100
AcDbEntity
  8
SEIHIN
  6
CONTINUOUS
 62
     3
 48
5.0
100
AcDbCircle
 10
239.409494127439
 20
220.8055229305931
 30
0.0
 40
2.00000122905263
100
AcDbArc
 50
90.05306388049993
 51
203.2606773414006
  0
ARC
  5
1997
330
1A
100
AcDbEntity
  8
SEIHIN
  6
CONTINUOUS
 62
     3
 48
5.0
100
AcDbCircle
 10
242.133101769439
 20
220.8055229305931
 30
0.0
 40
2.000000482661476
100
AcDbArc
 50
32.6093187580984
 51
89.98088144280213
  0
LINE
  5
1999
330
1A
100
AcDbEntity
  8
SEIHIN
  6
CONTINUOUS
 62
     3
 48
5.0
100
AcDbLine
 10
239.8310086813391
 20
229.1845193259931
 30
0.0
 11
224.807685095339
 21
229.1845193259931
 31
0.0
  0
LINE
  5
199A
330
1A
100
AcDbEntity
  8
SEIHIN
  6
CONTINUOUS
 62
     3
 48
5.0
100
AcDbLine
 10
223.7366656406391
 20
236.1845193259931
 30
0.0
 11
223.736129127139
 21
236.1845193259931
 31
0.0
  0
LINE
  5
199B
330
1A
100
AcDbEntity
  8
SEIHIN
  6
CONTINUOUS
 62
     3
 48
5.0
100
AcDbLine
 10
221.267180269539
 20
236.1845193259931
 30
0.0
 11
221.266824035839
 21
236.1845193259931
 31
0.0
  0
LINE
  5
199C
330
1A
100
AcDbEntity
  8
SEIHIN
  6
CONTINUOUS
 62
     3
 48
5.0
100
AcDbLine
 10
223.736129127139
 20
236.1845193259931
 30
0.0
 11
221.267180269539
 21
236.1845193259931
 31
0.0
  0
LINE
  5
199D
330
1A
100
AcDbEntity
  8
SEIHIN
  6
CONTINUOUS
 62
     3
 48
5.0
100
AcDbLine
 10
220.380798543039
 20
235.9772330564931
 30
0.0
 11
220.380352021139
 21
235.9770120110931
 31
0.0
  0
LINE
  5
199E
330
1A
100
AcDbEntity
  8
SEIHIN
  6
CONTINUOUS
 62
     3
 48
5.0
100
AcDbLine
 10
224.2077708188391
 20
235.5197493203931
 30
0.0
 11
224.207948056239
 21
235.5202557130931
 31
0.0
  0
LINE
  5
19A2
330
1A
100
AcDbEntity
  8
SEIHIN
  6
CONTINUOUS
 62
     3
 48
5.0
100
AcDbLine
 10
222.921118328639
 20
231.8435993482931
 30
0.0
 11
222.920410349439
 21
231.8415744660931
 31
0.0
  0
LINE
  5
19A3
330
1A
100
AcDbEntity
  8
SEIHIN
  6
CONTINUOUS
 62
     3
 48
5.0
100
AcDbLine
 10
224.805540012039
 20
229.1845200146931
 30
0.0
 11
224.807685095339
 21
229.1845193259931
 31
0.0
  0
LINE
  5
19A5
330
1A
100
AcDbEntity
  8
SEIHIN
  6
CONTINUOUS
 62
     3
 48
5.0
100
AcDbLine
 10
222.921118328639
 20
231.8435993482931
 30
0.0
 11
224.2077708188391
 21
235.5197493203931
 31
0.0
  0
ARC
  5
19A7
330
1A
100
AcDbEntity
  8
SEIHIN
  6
CONTINUOUS
 62
     3
 48
5.0
100
AcDbCircle
 10
223.490637997639
 20
229.6946507231931
 30
0.0
 40
7.010131397273468
100
AcDbArc
 50
116.3391980454971
 51
180.0
  0
LINE
  5
19AB
330
1A
100
AcDbEntity
  8
SEIHIN
  6
CONTINUOUS
 62
     3
 48
5.0
100
AcDbLine
 10
239.8330929384391
 20
229.1845193259931
 30
0.0
 11
239.8310086813391
 21
229.1845193259931
 31
0.0
  0
LINE
  5
19AC
330
1A
100
AcDbEntity
  8
SEIHIN
  6
CONTINUOUS
 62
     3
 48
5.0
100
AcDbLine
 10
244.041165081439
 20
226.8790580322932
 30
0.0
 11
244.0400424449391
 21
226.8808141116931
 31
0.0
  0
ARC
  5
19AE
330
1A
100
AcDbEntity
  8
SEIHIN
  6
CONTINUOUS
 62
     3
 48
5.0
100
AcDbCircle
 10
549.2696126268121
 20
231.0181178052931
 30
0.0
 40
4.0
100
AcDbArc
 50
90.0
 51
155.3798594528
  0
LINE
  5
19B0
330
1A
100
AcDbEntity
  8
SEIHIN
  6
CONTINUOUS
 62
     3
 48
5.0
100
AcDbLine
 10
589.1196126268123
 20
232.6845193259931
 30
0.0
 11
535.1196126268123
 21
232.6845193259931
 31
0.0
  0
LINE
  5
19B6
330
1A
100
AcDbEntity
  8
SEIHIN
  6
CONTINUOUS
 62
     3
 48
5.0
100
AcDbLine
 10
550.5869888347121
 20
227.5463227247931
 30
0.0
 11
541.7917791031122
 21
227.5463227247931
 31
0.0
  0
LINE
  5
19BB
330
1A
100
AcDbEntity
  8
SEIHIN
  6
CONTINUOUS
 62
     3
 48
5.0
100
AcDbLine
 10
533.1522364189122
 20
205.3227159270931
 30
0.0
 11
550.5869888347121
 21
205.3227159270931
 31
0.0
  0
LINE
  5
19BC
330
1A
100
AcDbEntity
  8
SEIHIN
  6
CONTINUOUS
 62
     3
 48
5.0
100
AcDbLine
 10
550.3013505650123
 20
200.5463227247931
 30
0.0
 11
541.1585249053123
 21
200.5463227247931
 31
0.0
  0
ARC
  5
19C2
330
1A
100
AcDbEntity
  8
SEIHIN
  6
CONTINUOUS
 62
     3
 48
5.0
100
AcDbCircle
 10
531.6196126268123
 20
184.9523834825931
 30
0.0
 40
16.13819660112506
100
AcDbArc
 50
0.0
 51
55.94159166140311
  0
ARC
  5
19C6
330
1A
100
AcDbEntity
  8
SEIHIN
  6
CONTINUOUS
 62
     3
 48
5.0
100
AcDbCircle
 10
551.8696126268123
 20
166.4816485721932
 30
0.0
 40
4.111803398880624
100
AcDbArc
 50
180.0
 51
252.1868533247025
  0
ARC
  5
19C8
330
1A
100
AcDbEntity
  8
SEIHIN
  6
CONTINUOUS
 62
     3
 48
5.0
100
AcDbCircle
 10
551.8696126268123
 20
166.4816485721932
 30
0.0
 40
7.25
100
AcDbArc
 50
180.0
 51
266.9999999994987
  0
LINE
  5
19CB
330
1A
100
AcDbEntity
  8
SEIHIN
  6
CONTINUOUS
 62
     3
 48
5.0
100
AcDbLine
 10
540.2640977143123
 20
199.6518955337931
 30
0.0
 11
540.2640977143123
 21
199.0633517621931
 31
0.0
  0
ARC
  5
19CD
330
1A
100
AcDbEntity
  8
SEIHIN
  6
CONTINUOUS
 62
     3
 48
5.0
100
AcDbCircle
 10
535.1196126268123
 20
207.6845193259931
 30
0.0
 40
10.0
100
AcDbArc
 50
180.0
 51
261.2470709231029
  0
ARC
  5
19CE
330
1A
100
AcDbEntity
  8
SEIHIN
  6
CONTINUOUS
 62
     3
 48
5.0
100
AcDbCircle
 10
531.6196126268123
 20
184.9523834825931
 30
0.0
 40
13.0
100
AcDbArc
 50
0.0
 51
81.24707092309652
  0
LINE
  5
19D0
330
1A
100
AcDbEntity
  8
SEIHIN
  6
CONTINUOUS
 62
     3
 48
5.0
100
AcDbLine
 10
373.0804403208389
 20
197.8009820027931
 30
0.0
 11
373.0804403208389
 21
207.6845193259931
 31
0.0
  0
LINE
  5
19D1
330
1A
100
AcDbEntity
  8
SEIHIN
  6
CONTINUOUS
 62
     3
 48
5.0
100
AcDbLine
 10
365.0804403208391
 20
184.9523834825931
 30
0.0
 11
365.0804403208391
 21
199.7776894673931
 31
0.0
  0
LINE
  5
19D3
330
1A
100
AcDbEntity
  8
SEIHIN
  6
CONTINUOUS
 62
     3
 48
5.0
100
AcDbLine
 10
358.237751773739
 20
179.0337270208931
 30
0.0
 11
358.237751773739
 21
208.3401850148931
 31
0.0
  0
LINE
  5
19D4
330
1A
100
AcDbEntity
  8
SEIHIN
  6
CONTINUOUS
 62
     3
 48
5.0
100
AcDbLine
 10
367.0804403208389
 20
207.6845193259931
 30
0.0
 11
367.0804403208389
 21
197.8009820027931
 31
0.0
  0
LINE
  5
19D5
330
1A
100
AcDbEntity
  8
SEIHIN
  6
CONTINUOUS
 62
     3
 48
5.0
100
AcDbLine
 10
364.5804403208391
 20
160.9127731508931
 30
0.0
 11
364.5804403208391
 21
207.3357317062932
 31
0.0
  0
LINE
  5
19D8
330
1A
100
AcDbEntity
  8
SEIHIN
  6
CONTINUOUS
 62
     3
 48
5.0
100
AcDbLine
 10
352.681772867539
 20
202.3817694166931
 30
0.0
 11
352.681772867539
 21
195.9746895392931
 31
0.0
  0
LINE
  5
19DB
330
1A
100
AcDbEntity
  8
SEIHIN
  6
CONTINUOUS
 62
     3
 48
5.0
100
AcDbLine
 10
333.917534393639
 20
190.5425715324931
 30
0.0
 11
337.143187305939
 21
202.5808720884931
 31
0.0
  0
LINE
  5
19DC
330
1A
100
AcDbEntity
  8
SEIHIN
  6
CONTINUOUS
 62
     3
 48
5.0
100
AcDbLine
 10
274.080440320839
 20
199.6845193259931
 30
0.0
 11
278.080440320839
 21
195.6845193259931
 31
0.0
  0
LINE
  5
19DD
330
1A
100
AcDbEntity
  8
SEIHIN
  6
CONTINUOUS
 62
     3
 48
5.0
100
AcDbLine
 10
303.872171318939
 20
197.0521772411931
 30
0.0
 11
313.417503563139
 21
206.0815455802931
 31
0.0
  0
LINE
  5
19DE
330
1A
100
AcDbEntity
  8
CENTER_L
  6
CENTER
 62
     1
 48
5.0
100
AcDbLine
 10
284.0805253208666
 20
166.6471715099356
 30
0.0
 11
284.0805253208666
 21
215.299199096652
 31
0.0
  0
LINE
  5
19DF
330
1A
100
AcDbEntity
  8
SEIHIN
  6
CONTINUOUS
 62
     3
 48
5.0
100
AcDbLine
 10
316.586959468639
 20
180.6845193259931
 30
0.0
 11
312.086957931039
 21
180.7630671449931
 31
0.0
  0
LINE
  5
19E1
330
1A
100
AcDbEntity
  8
SEIHIN
  6
CONTINUOUS
 62
     3
 48
5.0
100
AcDbLine
 10
288.7011403208391
 20
175.3743110758186
 30
0.0
 11
289.4947403208389
 21
172.1999110758186
 31
0.0
  0
LINE
  5
19E2
330
1A
100
AcDbEntity
  8
SEIHIN
  6
CONTINUOUS
 62
     3
 48
5.0
100
AcDbLine
 10
286.480440320839
 20
175.7345110758187
 30
0.0
 11
286.480440320839
 21
173.7349110758186
 31
0.0
  0
LINE
  5
19E3
330
1A
100
AcDbEntity
  8
SEIHIN
  6
CONTINUOUS
 62
     3
 48
5.0
100
AcDbLine
 10
289.961540320839
 20
178.3246110758186
 30
0.0
 11
292.8124403208391
 21
173.7631110758185
 31
0.0
  0
LINE
  5
19E4
330
1A
100
AcDbEntity
  8
SEIHIN
  6
CONTINUOUS
 62
     3
 48
5.0
100
AcDbLine
 10
291.9645403208392
 20
173.2331110758186
 30
0.0
 11
289.989640320839
 21
176.3929110758187
 31
0.0
  0
LINE
  5
19E5
330
1A
100
AcDbEntity
  8
SEIHIN
  6
CONTINUOUS
 62
     3
 48
5.0
100
AcDbLine
 10
287.0804403208392
 20
173.7349110758186
 30
0.0
 11
287.0804403208392
 21
175.7345110758187
 31
0.0
  0
LINE
  5
19E6
330
1A
100
AcDbEntity
  8
SEIHIN
  6
CONTINUOUS
 62
     3
 48
5.0
100
AcDbLine
 10
287.580340320839
 20
175.7345110758187
 30
0.0
 11
288.5246403208391
 21
171.9573110758183
 31
0.0
  0
LINE
  5
19E7
330
1A
100
AcDbEntity
  8
SEIHIN
  6
CONTINUOUS
 62
     3
 48
5.0
100
AcDbLine
 10
279.4594403208391
 20
175.3743110758186
 30
0.0
 11
278.6658403208391
 21
172.1999110758186
 31
0.0
  0
LINE
  5
19E8
330
1A
100
AcDbEntity
  8
SEIHIN
  6
CONTINUOUS
 62
     3
 48
5.0
100
AcDbLine
 10
281.080140320839
 20
173.7349110758186
 30
0.0
 11
281.080140320839
 21
175.7345110758187
 31
0.0
  0
LINE
  5
19E9
330
1A
100
AcDbEntity
  8
SEIHIN
  6
CONTINUOUS
 62
     3
 48
5.0
100
AcDbLine
 10
280.580240320839
 20
175.7345110758187
 30
0.0
 11
279.6359403208391
 21
171.9573110758183
 31
0.0
  0
LINE
  5
19EA
330
1A
100
AcDbEntity
  8
SEIHIN
  6
CONTINUOUS
 62
     3
 48
5.0
100
AcDbLine
 10
281.6801403208389
 20
175.7345110758187
 30
0.0
 11
281.6801403208389
 21
173.7349110758186
 31
0.0
  0
LINE
  5
19EB
330
1A
100
AcDbEntity
  8
SEIHIN
  6
CONTINUOUS
 62
     3
 48
5.0
100
AcDbLine
 10
276.196140320839
 20
173.2331110758186
 30
0.0
 11
278.1709403208389
 21
176.3929110758187
 31
0.0
  0
LINE
  5
19EC
330
1A
100
AcDbEntity
  8
SEIHIN
  6
CONTINUOUS
 62
     3
 48
5.0
100
AcDbLine
 10
278.199040320839
 20
178.3246110758186
 30
0.0
 11
275.348140320839
 21
173.7631110758185
 31
0.0
  0
LINE
  5
19ED
330
1A
100
AcDbEntity
  8
SEIHIN
  6
CONTINUOUS
 62
     3
 48
5.0
100
AcDbLine
 10
284.080240320839
 20
173.7348110758186
 30
0.0
 11
287.0804403208392
 21
173.7348110758186
 31
0.0
  0
LINE
  5
19EE
330
1A
100
AcDbEntity
  8
SEIHIN
  6
CONTINUOUS
 62
     3
 48
5.0
100
AcDbLine
 10
284.080240320839
 20
173.7348110758186
 30
0.0
 11
281.080140320839
 21
173.7348110758186
 31
0.0
  0
LINE
  5
19EF
330
1A
100
AcDbEntity
  8
SEIHIN
  6
CONTINUOUS
 62
     3
 48
5.0
100
AcDbLine
 10
276.9530403208391
 20
170.5855110758184
 30
0.0
 11
276.301340320839
 21
170.8461110758185
 31
0.0
  0
ARC
  5
19F0
330
1A
100
AcDbEntity
  8
SEIHIN
  6
CONTINUOUS
 62
     3
 48
5.0
100
AcDbCircle
 10
277.6957209081242
 20
172.4424011504025
 30
0.0
 40
1.999940936611961
100
AcDbArc
 50
248.197937293213
 51
345.962777611009
  0
ARC
  5
19F1
330
1A
100
AcDbEntity
  8
SEIHIN
  6
CONTINUOUS
 62
     3
 48
5.0
100
AcDbCircle
 10
277.6956533439149
 20
172.4424177350627
 30
0.0
 40
1.000036124333159
100
AcDbArc
 50
248.1980394374691
 51
345.9659845784254
  0
ARC
  5
19F2
330
1A
100
AcDbEntity
  8
SEIHIN
  6
CONTINUOUS
 62
     3
 48
5.0
100
AcDbCircle
 10
277.0440621625778
 20
172.7030442315186
 30
0.0
 40
0.9999711541457587
100
AcDbArc
 50
147.988995475546
 51
248.1960061189787
  0
LINE
  5
19F3
330
1A
100
AcDbEntity
  8
SEIHIN
  6
CONTINUOUS
 62
     3
 48
5.0
100
AcDbLine
 10
276.672640320839
 20
171.7746110758185
 30
0.0
 11
277.3243403208391
 21
171.5139110758185
 31
0.0
  0
ARC
  5
19F4
330
1A
100
AcDbEntity
  8
SEIHIN
  6
CONTINUOUS
 62
     3
 48
5.0
100
AcDbCircle
 10
277.0441496755024
 20
172.7030824494439
 30
0.0
 40
2.000027104776099
100
AcDbArc
 50
147.9940634036736
 51
248.1980371254076
  0
LINE
  5
19F5
330
1A
100
AcDbEntity
  8
SEIHIN
  6
CONTINUOUS
 62
     3
 48
5.0
100
AcDbLine
 10
291.2076403208391
 20
170.5855110758184
 30
0.0
 11
291.859240320839
 21
170.8461110758185
 31
0.0
  0
ARC
  5
19F6
330
1A
100
AcDbEntity
  8
SEIHIN
  6
CONTINUOUS
 62
     3
 48
5.0
100
AcDbCircle
 10
291.1165356435073
 20
172.7030967626311
 30
0.0
 40
1.000013552387965
100
AcDbArc
 50
291.8019628745923
 51
32.00593659633529
  0
ARC
  5
19F7
330
1A
100
AcDbEntity
  8
SEIHIN
  6
CONTINUOUS
 62
     3
 48
5.0
100
AcDbCircle
 10
290.4649272977633
 20
172.4424177350627
 30
0.0
 40
1.000036124333149
100
AcDbArc
 50
194.0340154215745
 51
291.8019605625309
  0
LINE
  5
19F8
330
1A
100
AcDbEntity
  8
SEIHIN
  6
CONTINUOUS
 62
     3
 48
5.0
100
AcDbLine
 10
291.487940320839
 20
171.7746110758185
 30
0.0
 11
290.8363403208391
 21
171.5139110758185
 31
0.0
  0
ARC
  5
19F9
330
1A
100
AcDbEntity
  8
SEIHIN
  6
CONTINUOUS
 62
     3
 48
5.0
100
AcDbCircle
 10
291.1164309661758
 20
172.7030824494439
 30
0.0
 40
2.000027104776141
100
AcDbArc
 50
291.8019628745923
 51
32.00593659632632
  0
ARC
  5
19FA
330
1A
100
AcDbEntity
  8
SEIHIN
  6
CONTINUOUS
 62
     3
 48
5.0
100
AcDbCircle
 10
290.4648804584772
 20
172.4424416847142
 30
0.0
 40
1.99997087463527
100
AcDbArc
 50
194.0382049403999
 51
291.8010801553797
  0
LINE
  5
19FB
330
1A
100
AcDbEntity
  8
SEIHIN
  6
CONTINUOUS
 62
     3
 48
5.0
100
AcDbLine
 10
278.080440320839
 20
195.6845193259931
 30
0.0
 11
300.4361720495391
 21
195.6845193258931
 31
0.0
  0
LINE
  5
19FC
330
1A
100
AcDbEntity
  8
SEIHIN
  6
CONTINUOUS
 62
     3
 48
5.0
100
AcDbLine
 10
287.580340320839
 20
175.7345110758187
 30
0.0
 11
284.080240320839
 21
175.7345110758187
 31
0.0
  0
LINE
  5
19FD
330
1A
100
AcDbEntity
  8
SEIHIN
  6
CONTINUOUS
 62
     3
 48
5.0
100
AcDbLine
 10
290.5804403208392
 20
179.7345110758187
 30
0.0
 11
277.5804403208392
 21
179.7346110758186
 31
0.0
  0
LINE
  5
19FE
330
1A
100
AcDbEntity
  8
SEIHIN
  6
CONTINUOUS
 62
     3
 48
5.0
100
AcDbLine
 10
289.080340320839
 20
178.2345110758187
 30
0.0
 11
284.080240320839
 21
178.2345110758187
 31
0.0
  0
LINE
  5
19FF
330
1A
100
AcDbEntity
  8
SEIHIN
  6
CONTINUOUS
 62
     3
 48
5.0
100
AcDbLine
 10
269.836959468639
 20
181.5971787790931
 30
0.0
 11
309.3369514648391
 21
180.9071537306931
 31
0.0
  0
LINE
  5
1A00
330
1A
100
AcDbEntity
  8
SEIHIN
  6
CONTINUOUS
 62
     3
 48
5.0
100
AcDbLine
 10
267.063980365139
 20
185.2773463682932
 30
0.0
 11
267.063980365139
 21
196.9687084452931
 31
0.0
  0
LINE
  5
1A03
330
1A
100
AcDbEntity
  8
SEIHIN
  6
CONTINUOUS
 62
     3
 48
5.0
100
AcDbLine
 10
262.4648287379391
 20
196.9952793430931
 30
0.0
 11
262.4648287379391
 21
185.5206198722931
 31
0.0
  0
ARC
  5
1A05
330
1A
100
AcDbEntity
  8
SEIHIN
  6
CONTINUOUS
 62
     3
 48
5.0
100
AcDbCircle
 10
266.143606028939
 20
185.1832605817931
 30
0.0
 40
0.9251708242238919
100
AcDbArc
 50
281.9414702724012
 51
5.83681806980054
  0
LINE
  5
1A06
330
1A
100
AcDbEntity
  8
SEIHIN
  6
CONTINUOUS
 62
     3
 48
5.0
100
AcDbLine
 10
267.086959468639
 20
181.5490700883932
 30
0.0
 11
267.086959468639
 21
181.5485450398931
 31
0.0
  0
LINE
  5
1A09
330
1A
100
AcDbEntity
  8
SEIHIN
  6
CONTINUOUS
 62
     3
 48
5.0
100
AcDbLine
 10
262.2252736721391
 20
184.4955420271931
 30
0.0
 11
261.735983008039
 21
184.5213812573931
 31
0.0
  0
ARC
  5
1A0B
330
1A
100
AcDbEntity
  8
SEIHIN
  6
CONTINUOUS
 62
     3
 48
5.0
100
AcDbCircle
 10
261.5445175748391
 20
185.4264660926931
 30
0.0
 40
0.9251148962388823
100
AcDbArc
 50
281.9444910373003
 51
5.841405191801856
  0
LINE
  5
1A0C
330
1A
100
AcDbEntity
  8
SEIHIN
  6
CONTINUOUS
 62
     3
 48
5.0
100
AcDbLine
 10
277.5804403208392
 20
179.7345110758187
 30
0.0
 11
277.5804403208392
 21
181.2348110758186
 31
0.0
  0
LINE
  5
1A0D
330
1A
100
AcDbEntity
  8
SEIHIN
  6
CONTINUOUS
 62
     3
 48
5.0
100
AcDbLine
 10
280.580240320839
 20
175.7345110758187
 30
0.0
 11
284.080240320839
 21
175.7345110758187
 31
0.0
  0
LINE
  5
1A0E
330
1A
100
AcDbEntity
  8
SEIHIN
  6
CONTINUOUS
 62
     3
 48
5.0
100
AcDbLine
 10
279.0237403208391
 20
176.3851110758186
 30
0.0
 11
279.4031403208391
 21
175.7528110758186
 31
0.0
  0
ARC
  5
1A0F
330
1A
100
AcDbEntity
  8
SEIHIN
  6
CONTINUOUS
 62
     3
 48
5.0
100
AcDbCircle
 10
278.594952210087
 20
176.1279109669278
 30
0.0
 40
0.5000111398116991
100
AcDbArc
 50
30.95660742786394
 51
147.9953282692656
  0
LINE
  5
1A10
330
1A
100
AcDbEntity
  8
SEIHIN
  6
CONTINUOUS
 62
     3
 48
5.0
100
AcDbLine
 10
279.080240320839
 20
178.2345110758187
 30
0.0
 11
280.580240320839
 21
175.7345110758187
 31
0.0
  0
LINE
  5
1A11
330
1A
100
AcDbEntity
  8
SEIHIN
  6
CONTINUOUS
 62
     3
 48
5.0
100
AcDbLine
 10
279.080240320839
 20
178.2345110758187
 30
0.0
 11
284.080240320839
 21
178.2345110758187
 31
0.0
  0
LINE
  5
1A12
330
1A
100
AcDbEntity
  8
SEIHIN
  6
CONTINUOUS
 62
     3
 48
5.0
100
AcDbLine
 10
279.580240320839
 20
179.7345110758187
 30
0.0
 11
279.080240320839
 21
178.2345110758187
 31
0.0
  0
ARC
  5
1A13
330
1A
100
AcDbEntity
  8
SEIHIN
  6
CONTINUOUS
 62
     3
 48
5.0
100
AcDbCircle
 10
280.7430141906522
 20
176.7344880756326
 30
0.0
 40
3.000049033934637
100
AcDbArc
 50
114.7158125720405
 51
147.9923602742388
  0
ARC
  5
1A14
330
1A
100
AcDbEntity
  8
SEIHIN
  6
CONTINUOUS
 62
     3
 48
5.0
100
AcDbCircle
 10
278.9743430922835
 20
175.4955924391801
 30
0.0
 40
0.5000284894393518
100
AcDbArc
 50
345.9629721354965
 51
30.95789060904388
  0
LINE
  5
1A15
330
1A
100
AcDbEntity
  8
SEIHIN
  6
CONTINUOUS
 62
     3
 48
5.0
100
AcDbLine
 10
267.775384320139
 20
197.9888573416931
 30
0.0
 11
275.7761023050391
 21
197.9888573416931
 31
0.0
  0
LINE
  5
1A18
330
1A
100
AcDbEntity
  8
SEIHIN
  6
CONTINUOUS
 62
     3
 48
5.0
100
AcDbLine
 10
263.6247511299391
 20
197.8716730445931
 30
0.0
 11
266.352576410139
 21
197.9680992722931
 31
0.0
  0
ARC
  5
1A1B
330
1A
100
AcDbEntity
  8
SEIHIN
  6
CONTINUOUS
 62
     3
 48
5.0
100
AcDbCircle
 10
266.1484764836391
 20
197.0699158220931
 30
0.0
 40
0.9210810443336935
100
AcDbArc
 50
353.6916649614001
 51
77.19771598369928
  0
ARC
  5
1A20
330
1A
100
AcDbEntity
  8
SEIHIN
  6
CONTINUOUS
 62
     3
 48
5.0
100
AcDbCircle
 10
261.610572330539
 20
197.1728603866931
 30
0.0
 40
0.8725187887240764
100
AcDbArc
 50
348.2567212855991
 51
66.58759468840282
  0
LINE
  5
1A22
330
1A
100
AcDbEntity
  8
SEIHIN
  6
CONTINUOUS
 62
     3
 48
5.0
100
AcDbLine
 10
290.5804403208392
 20
179.7345110758187
 30
0.0
 11
290.5804403208392
 21
181.2348110758186
 31
0.0
  0
LINE
  5
1A23
330
1A
100
AcDbEntity
  8
SEIHIN
  6
CONTINUOUS
 62
     3
 48
5.0
100
AcDbLine
 10
289.1368403208391
 20
176.3851110758186
 30
0.0
 11
288.7575403208391
 21
175.7528110758186
 31
0.0
  0
LINE
  5
1A24
330
1A
100
AcDbEntity
  8
SEIHIN
  6
CONTINUOUS
 62
     3
 48
5.0
100
AcDbLine
 10
289.080340320839
 20
178.2345110758187
 30
0.0
 11
287.580340320839
 21
175.7345110758187
 31
0.0
  0
ARC
  5
1A25
330
1A
100
AcDbEntity
  8
SEIHIN
  6
CONTINUOUS
 62
     3
 48
5.0
100
AcDbCircle
 10
289.5656284315912
 20
176.1279109669278
 30
0.0
 40
0.5000111398118175
100
AcDbArc
 50
32.0046717307288
 51
149.043392572127
  0
LINE
  5
1A26
330
1A
100
AcDbEntity
  8
SEIHIN
  6
CONTINUOUS
 62
     3
 48
5.0
100
AcDbLine
 10
288.580340320839
 20
179.7345110758187
 30
0.0
 11
289.080340320839
 21
178.2345110758187
 31
0.0
  0
ARC
  5
1A27
330
1A
100
AcDbEntity
  8
SEIHIN
  6
CONTINUOUS
 62
     3
 48
5.0
100
AcDbCircle
 10
287.417566451026
 20
176.7344880756326
 30
0.0
 40
3.00004903393469
100
AcDbArc
 50
32.00763972576118
 51
65.28418742795939
  0
ARC
  5
1A28
330
1A
100
AcDbEntity
  8
SEIHIN
  6
CONTINUOUS
 62
     3
 48
5.0
100
AcDbCircle
 10
289.1862210627978
 20
175.495481620478
 30
0.0
 40
0.4999856269055761
100
AcDbArc
 50
149.0243524915595
 51
194.025166064221
  0
LINE
  5
1A2A
330
1A
100
AcDbEntity
  8
SEIHIN
  6
CONTINUOUS
 62
     3
 48
5.0
100
AcDbLine
 10
304.8623759966389
 20
197.9888573416931
 30
0.0
 11
309.163957169339
 21
197.9888573416931
 31
0.0
  0
ARC
  5
1A2C
330
1A
100
AcDbEntity
  8
SEIHIN
  6
CONTINUOUS
 62
     3
 48
5.0
100
AcDbCircle
 10
300.4361720495391
 20
200.6845193259931
 30
0.0
 40
5.0000000000162
100
AcDbArc
 50
270.0
 51
313.4088597287989
  0
LINE
  5
1A2E
330
1A
100
AcDbEntity
  8
SEIHIN
  6
CONTINUOUS
 62
     3
 48
5.0
100
AcDbLine
 10
367.0804403208389
 20
184.9523834825931
 30
0.0
 11
367.0804403208389
 21
166.4816485721932
 31
0.0
  0
LINE
  5
1A2F
330
1A
100
AcDbEntity
  8
SEIHIN
  6
CONTINUOUS
 62
     3
 48
5.0
100
AcDbLine
 10
365.0804403208391
 20
166.4816485721932
 30
0.0
 11
365.0804403208391
 21
184.9523834825931
 31
0.0
  0
LINE
  5
1A30
330
1A
100
AcDbEntity
  8
SEIHIN
  6
CONTINUOUS
 62
     3
 48
5.0
100
AcDbLine
 10
373.0804403208389
 20
184.9523834825931
 30
0.0
 11
373.0804403208389
 21
166.4816485721932
 31
0.0
  0
LINE
  5
1A31
330
1A
100
AcDbEntity
  8
SEIHIN
  6
CONTINUOUS
 62
     3
 48
5.0
100
AcDbLine
 10
365.0804403208391
 20
161.2388435146931
 30
0.0
 11
365.0804403208391
 21
166.4816485721932
 31
0.0
  0
LINE
  5
1A32
330
1A
100
AcDbEntity
  8
SEIHIN
  6
CONTINUOUS
 62
     3
 48
5.0
100
AcDbLine
 10
367.0804403208389
 20
166.4816485721932
 30
0.0
 11
367.0804403208389
 21
159.241584445193
 31
0.0
  0
LINE
  5
1A33
330
1A
100
AcDbEntity
  8
SEIHIN
  6
CONTINUOUS
 62
     3
 48
5.0
100
AcDbLine
 10
373.0804403208389
 20
166.4816485721932
 30
0.0
 11
373.0804403208389
 21
159.241584445193
 31
0.0
  0
LINE
  5
1A36
330
1A
100
AcDbEntity
  8
SEIHIN
  6
CONTINUOUS
 62
     3
 48
5.0
100
AcDbLine
 10
364.5804403208391
 20
160.6863484698932
 30
0.0
 11
364.5804403208391
 21
160.9127731508931
 31
0.0
  0
LINE
  5
1A38
330
1A
100
AcDbEntity
  8
SEIHIN
  6
CONTINUOUS
 62
     3
 48
5.0
100
AcDbLine
 10
365.0804403208391
 20
161.2244437556931
 30
0.0
 11
365.0804403208391
 21
161.2388435146931
 31
0.0
  0
LINE
  5
1A39
330
1A
100
AcDbEntity
  8
SEIHIN
  6
CONTINUOUS
 62
     3
 48
5.0
100
AcDbLine
 10
373.0804403208389
 20
159.241584445193
 30
0.0
 11
373.0804403208389
 21
158.6845193259931
 31
0.0
  0
LINE
  5
1A3A
330
1A
100
AcDbEntity
  8
SEIHIN
  6
CONTINUOUS
 62
     3
 48
5.0
100
AcDbLine
 10
367.0804403208389
 20
159.241584445193
 30
0.0
 11
367.0804403208389
 21
159.2216990636931
 31
0.0
  0
LINE
  5
1A3F
330
1A
100
AcDbEntity
  8
SEIHIN
  6
CONTINUOUS
 62
     3
 48
5.0
100
AcDbLine
 10
366.5804403208389
 20
158.6845193259931
 30
0.0
 11
373.0804403208389
 21
158.6845193259931
 31
0.0
  0
LINE
  5
1A40
330
1A
100
AcDbEntity
  8
SEIHIN
  6
CONTINUOUS
 62
     3
 48
5.0
100
AcDbLine
 10
367.0804403208389
 20
159.241584445193
 30
0.0
 11
373.0804403208389
 21
159.241584445193
 31
0.0
  0
ARC
  5
1A41
330
1A
100
AcDbEntity
  8
SEIHIN
  6
CONTINUOUS
 62
     3
 48
5.0
100
AcDbCircle
 10
367.0790707946391
 20
161.2402149203932
 30
0.0
 40
1.998630944352149
100
AcDbArc
 50
180.0393147922012
 51
270.039260912699
  0
LINE
  5
1A44
330
1A
100
AcDbEntity
  8
SEIHIN
  6
CONTINUOUS
 62
     3
 48
5.0
100
AcDbLine
 10
339.425904592339
 20
185.5980139487931
 30
0.0
 11
341.145896738439
 21
188.5321181978931
 31
0.0
  0
LINE
  5
1A46
330
1A
100
AcDbEntity
  8
SEIHIN
  6
CONTINUOUS
 62
     3
 48
5.0
100
AcDbLine
 10
316.266949496539
 20
184.6726810647931
 30
0.0
 11
316.266949496539
 21
196.8061324748931
 31
0.0
  0
LINE
  5
1A48
330
1A
100
AcDbEntity
  8
SEIHIN
  6
CONTINUOUS
 62
     3
 48
5.0
100
AcDbLine
 10
316.586959468639
 20
180.6845193259931
 30
0.0
 11
335.757420988339
 21
183.1695791525931
 31
0.0
  0
LINE
  5
1A50
330
1A
100
AcDbEntity
  8
SEIHIN
  6
CONTINUOUS
 62
     3
 48
5.0
100
AcDbLine
 10
321.548836496539
 20
184.2308099543931
 30
0.0
 11
317.311940352539
 21
183.6815826764931
 31
0.0
  0
ARC
  5
1A51
330
1A
100
AcDbEntity
  8
SEIHIN
  6
CONTINUOUS
 62
     3
 48
5.0
100
AcDbCircle
 10
317.253345629439
 20
184.6662578750931
 30
0.0
 40
0.9864170458612351
100
AcDbArc
 50
179.6269080495997
 51
273.4054640964966
  0
LINE
  5
1A54
330
1A
100
AcDbEntity
  8
SEIHIN
  6
CONTINUOUS
 62
     3
 48
5.0
100
AcDbLine
 10
327.5317407238389
 20
185.0063716134931
 30
0.0
 11
321.548836496539
 21
184.2308099543931
 31
0.0
  0
LINE
  5
1A56
330
1A
100
AcDbEntity
  8
SEIHIN
  6
CONTINUOUS
 62
     3
 48
5.0
100
AcDbLine
 10
335.757420988339
 20
183.1695791525931
 30
0.0
 11
335.7592717046391
 21
183.1698190602931
 31
0.0
  0
LINE
  5
1A59
330
1A
100
AcDbEntity
  8
SEIHIN
  6
CONTINUOUS
 62
     3
 48
5.0
100
AcDbLine
 10
339.424960818139
 20
185.5964039808931
 30
0.0
 11
339.425904592339
 21
185.5980139487931
 31
0.0
  0
LINE
  5
1A5B
330
1A
100
AcDbEntity
  8
SEIHIN
  6
CONTINUOUS
 62
     3
 48
5.0
100
AcDbLine
 10
321.548836496539
 20
197.8055233018931
 30
0.0
 11
330.278217481439
 21
197.8055233018931
 31
0.0
  0
LINE
  5
1A61
330
1A
100
AcDbEntity
  8
SEIHIN
  6
CONTINUOUS
 62
     3
 48
5.0
100
AcDbLine
 10
317.183464635539
 20
197.8055233018931
 30
0.0
 11
321.548836496539
 21
197.8055233018931
 31
0.0
  0
ARC
  5
1A62
330
1A
100
AcDbEntity
  8
SEIHIN
  6
CONTINUOUS
 62
     3
 48
5.0
100
AcDbCircle
 10
317.243352523439
 20
196.8306502671931
 30
0.0
 40
0.9767108031479466
100
AcDbArc
 50
93.51534655080055
 51
181.4384130784991
  0
LINE
  5
1A66
330
1A
100
AcDbEntity
  8
SEIHIN
  6
CONTINUOUS
 62
     3
 48
5.0
100
AcDbLine
 10
340.715474884539
 20
189.2845193259931
 30
0.0
 11
340.714810519539
 21
189.2845193259931
 31
0.0
  0
LINE
  5
1A67
330
1A
100
AcDbEntity
  8
SEIHIN
  6
CONTINUOUS
 62
     3
 48
5.0
100
AcDbLine
 10
341.145896738439
 20
188.5321181978931
 30
0.0
 11
341.146232720739
 21
188.5326913441931
 31
0.0
  0
LINE
  5
1A68
330
1A
100
AcDbEntity
  8
SEIHIN
  6
CONTINUOUS
 62
     3
 48
5.0
100
AcDbLine
 10
334.881879413739
 20
189.2845196208931
 30
0.0
 11
334.882871804039
 21
189.2845193259931
 31
0.0
  0
LINE
  5
1A6A
330
1A
100
AcDbEntity
  8
SEIHIN
  6
CONTINUOUS
 62
     3
 48
5.0
100
AcDbLine
 10
340.714810519539
 20
189.2845193259931
 30
0.0
 11
334.882871804039
 21
189.2845193259931
 31
0.0
  0
LINE
  5
1A70
330
1A
100
AcDbEntity
  8
SEIHIN
  6
CONTINUOUS
 62
     3
 48
5.0
100
AcDbLine
 10
333.917534393639
 20
190.5425715324931
 30
0.0
 11
333.9172778290389
 21
190.5416128807931
 31
0.0
  0
LINE
  5
1A73
330
1A
100
AcDbEntity
  8
SEIHIN
  6
CONTINUOUS
 62
     3
 48
5.0
100
AcDbLine
 10
332.208892302139
 20
195.2894188887931
 30
0.0
 11
330.042325804039
 21
187.2036826397931
 31
0.0
  0
ARC
  5
1A74
330
1A
100
AcDbEntity
  8
SEIHIN
  6
CONTINUOUS
 62
     3
 48
5.0
100
AcDbCircle
 10
330.276629218139
 20
195.8055229305931
 30
0.0
 40
2.000001001962767
100
AcDbArc
 50
345.045500373
 51
89.95449962660293
  0
LINE
  5
1A75
330
1A
100
AcDbEntity
  8
SEIHIN
  6
CONTINUOUS
 62
     3
 48
5.0
100
AcDbLine
 10
367.0804403208389
 20
197.8009820027931
 30
0.0
 11
367.0804403208389
 21
184.9523834825931
 31
0.0
  0
LINE
  5
1A76
330
1A
100
AcDbEntity
  8
SEIHIN
  6
CONTINUOUS
 62
     3
 48
5.0
100
AcDbLine
 10
373.0804403208389
 20
184.9523834825931
 30
0.0
 11
373.0804403208389
 21
197.8009820027931
 31
0.0
  0
LINE
  5
1A77
330
1A
100
AcDbEntity
  8
SEIHIN
  6
CONTINUOUS
 62
     3
 48
5.0
100
AcDbLine
 10
352.681772867539
 20
187.7690158027931
 30
0.0
 11
352.6817728675391
 21
179.0337270208932
 31
0.0
  0
LINE
  5
1A7B
330
1A
100
AcDbEntity
  8
SEIHIN
  6
CONTINUOUS
 62
     3
 48
5.0
100
AcDbLine
 10
351.5804403208391
 20
184.5002849020931
 30
0.0
 11
351.5804403208391
 21
184.5001093077931
 31
0.0
  0
LINE
  5
1A7C
330
1A
100
AcDbEntity
  8
SEIHIN
  6
CONTINUOUS
 62
     3
 48
5.0
100
AcDbLine
 10
352.681772867539
 20
179.3255353810931
 30
0.0
 11
352.586959468639
 21
179.2912081961931
 31
0.0
  0
LINE
  5
1A7D
330
1A
100
AcDbEntity
  8
SEIHIN
  6
CONTINUOUS
 62
     3
 48
5.0
100
AcDbLine
 10
352.586959468639
 20
179.2912081961931
 30
0.0
 11
352.586959400239
 21
179.2920350899931
 31
0.0
  0
LINE
  5
1A7F
330
1A
100
AcDbEntity
  8
SEIHIN
  6
CONTINUOUS
 62
     3
 48
5.0
100
AcDbLine
 10
352.0837299333391
 20
180.9538855075931
 30
0.0
 11
352.083654829639
 21
180.9539981769931
 31
0.0
  0
LINE
  5
1A80
330
1A
100
AcDbEntity
  8
SEIHIN
  6
CONTINUOUS
 62
     3
 48
5.0
100
AcDbLine
 10
351.5804403208391
 20
182.6165410680931
 30
0.0
 11
351.5804403208391
 21
182.6159939120931
 31
0.0
  0
LINE
  5
1A86
330
1A
100
AcDbEntity
  8
SEIHIN
  6
CONTINUOUS
 62
     3
 48
5.0
100
AcDbLine
 10
351.5804403208391
 20
184.5001093077931
 30
0.0
 11
351.5804403208391
 21
182.6165410680931
 31
0.0
  0
LINE
  5
1A89
330
1A
100
AcDbEntity
  8
SEIHIN
  6
CONTINUOUS
 62
     3
 48
5.0
100
AcDbLine
 10
352.6817728675391
 20
179.0337270208932
 30
0.0
 11
358.237751773739
 21
179.0337270208931
 31
0.0
  0
LINE
  5
1A8E
330
1A
100
AcDbEntity
  8
SEIHIN
  6
CONTINUOUS
 62
     3
 48
5.0
100
AcDbLine
 10
350.777001843939
 20
198.7849850633931
 30
0.0
 11
351.390397945639
 21
198.3238547333931
 31
0.0
  0
LINE
  5
1A8F
330
1A
100
AcDbEntity
  8
SEIHIN
  6
CONTINUOUS
 62
     3
 48
5.0
100
AcDbLine
 10
350.776090407539
 20
198.7856702502931
 30
0.0
 11
350.777001843939
 21
198.7849850633931
 31
0.0
  0
LINE
  5
1A90
330
1A
100
AcDbEntity
  8
SEIHIN
  6
CONTINUOUS
 62
     3
 48
5.0
100
AcDbLine
 10
351.3913093901391
 20
198.3231693775931
 30
0.0
 11
351.390397945639
 21
198.3238547333931
 31
0.0
  0
LINE
  5
1A93
330
1A
100
AcDbEntity
  8
SEIHIN
  6
CONTINUOUS
 62
     3
 48
5.0
100
AcDbLine
 10
352.586959468639
 20
195.9273497402931
 30
0.0
 11
352.586959338539
 21
195.9284901101931
 31
0.0
  0
LINE
  5
1A94
330
1A
100
AcDbEntity
  8
SEIHIN
  6
CONTINUOUS
 62
     3
 48
5.0
100
AcDbLine
 10
352.681772867539
 20
195.9746895392931
 30
0.0
 11
352.586959468639
 21
195.9273497402931
 31
0.0
  0
LINE
  5
1A95
330
1A
100
AcDbEntity
  8
SEIHIN
  6
CONTINUOUS
 62
     3
 48
5.0
100
AcDbLine
 10
352.586959370839
 20
187.8246212455931
 30
0.0
 11
352.586959468639
 21
187.8256103035931
 31
0.0
  0
LINE
  5
1A96
330
1A
100
AcDbEntity
  8
SEIHIN
  6
CONTINUOUS
 62
     3
 48
5.0
100
AcDbLine
 10
352.586959468639
 20
187.8256103035931
 30
0.0
 11
352.681772867539
 21
187.7690158027931
 31
0.0
  0
LINE
  5
1A97
330
1A
100
AcDbEntity
  8
SEIHIN
  6
CONTINUOUS
 62
     3
 48
5.0
100
AcDbLine
 10
352.586959468639
 20
195.9273497402931
 30
0.0
 11
352.586959468639
 21
187.8256103035931
 31
0.0
  0
LINE
  5
1A99
330
1A
100
AcDbEntity
  8
SEIHIN
  6
CONTINUOUS
 62
     3
 48
5.0
100
AcDbLine
 10
547.7578092279123
 20
184.9523834825931
 30
0.0
 11
547.7578092279123
 21
166.4816485721932
 31
0.0
  0
LINE
  5
1A9B
330
1A
100
AcDbEntity
  8
SEIHIN
  6
CONTINUOUS
 62
     3
 48
5.0
100
AcDbLine
 10
544.6196126268123
 20
184.9523834825931
 30
0.0
 11
544.6196126268123
 21
166.4816485721932
 31
0.0
  0
ARC
  5
1AA1
330
1A
100
AcDbEntity
  8
SEIHIN
  6
CONTINUOUS
 62
     3
 48
5.0
100
AcDbCircle
 10
323.725501371239
 20
195.1845193259931
 30
0.0
 40
14.99999999999988
100
AcDbArc
 50
90.0
 51
133.4088597287989
  0
LINE
  5
1AA3
330
1A
100
AcDbEntity
  8
SEIHIN
  6
CONTINUOUS
 62
     3
 48
5.0
100
AcDbLine
 10
321.120895230839
 20
200.3353116309931
 30
0.0
 11
307.342913388239
 21
200.3353116309931
 31
0.0
  0
LINE
  5
1AA4
330
1A
100
AcDbEntity
  8
SEIHIN
  6
CONTINUOUS
 62
     3
 48
5.0
100
AcDbLine
 10
309.149064452439
 20
228.0254250841931
 30
0.0
 11
345.657852613339
 21
231.0666140778931
 31
0.0
  0
ARC
  5
1AA7
330
1A
100
AcDbEntity
  8
SEIHIN
  6
CONTINUOUS
 62
     3
 48
5.0
100
AcDbCircle
 10
310.515299430639
 20
218.1191946212931
 30
0.0
 40
9.999999999999937
100
AcDbArc
 50
97.85250939119855
 51
156.138685006602
  0
ARC
  5
1AA8
330
1A
100
AcDbEntity
  8
SEIHIN
  6
CONTINUOUS
 62
     3
 48
5.0
100
AcDbCircle
 10
284.0806161543389
 20
199.1011193256977
 30
0.0
 40
9.083347248411852
100
AcDbArc
 50
56.60214236039834
 51
123.3990035551927
  0
LINE
  5
1AA9
330
1A
100
AcDbEntity
  8
SEIHIN
  6
CONTINUOUS
 62
     3
 48
5.0
100
AcDbLine
 10
289.0805403208389
 20
206.684519325993
 30
0.0
 11
279.0805403208389
 21
206.684519325993
 31
0.0
  0
LINE
  5
1AAB
330
1A
100
AcDbEntity
  8
SEIHIN
  6
CONTINUOUS
 62
     3
 48
5.0
100
AcDbLine
 10
274.080440320839
 20
205.6845193259931
 30
0.0
 11
290.824792303139
 21
205.6845193259931
 31
0.0
  0
LINE
  5
1AAC
330
1A
100
AcDbEntity
  8
SEIHIN
  6
CONTINUOUS
 62
     3
 48
5.0
100
AcDbLine
 10
270.286959468639
 20
200.5727728635931
 30
0.0
 11
274.080440320839
 21
200.5727728635931
 31
0.0
  0
LINE
  5
1AAE
330
1A
100
AcDbEntity
  8
SEIHIN
  6
CONTINUOUS
 62
     3
 48
5.0
100
AcDbLine
 10
267.086959468639
 20
200.6845193259931
 30
0.0
 11
263.523267398839
 21
200.6845193259931
 31
0.0
  0
LINE
  5
1AAF
330
1A
100
AcDbEntity
  8
SEIHIN
  6
CONTINUOUS
 62
     3
 48
5.0
100
AcDbLine
 10
267.086959468639
 20
200.6844594069931
 30
0.0
 11
267.086959468639
 21
200.6845193259931
 31
0.0
  0
LINE
  5
1AB0
330
1A
100
AcDbEntity
  8
SEIHIN
  6
CONTINUOUS
 62
     3
 48
5.0
100
AcDbLine
 10
263.521182904339
 20
200.6845195867931
 30
0.0
 11
263.523267398839
 21
200.6845193259931
 31
0.0
  0
LINE
  5
1AB3
330
1A
100
AcDbEntity
  8
SEIHIN
  6
CONTINUOUS
 62
     3
 48
5.0
100
AcDbLine
 10
259.313110998839
 20
202.9899806195931
 30
0.0
 11
259.314233982939
 21
202.9882244805931
 31
0.0
  0
LINE
  5
1AB6
330
1A
100
AcDbEntity
  8
SEIHIN
  6
CONTINUOUS
 62
     3
 48
5.0
100
AcDbLine
 10
279.0805403208389
 20
205.6845193259931
 30
0.0
 11
279.0805403208389
 21
206.684419325993
 31
0.0
  0
LINE
  5
1AB7
330
1A
100
AcDbEntity
  8
SEIHIN
  6
CONTINUOUS
 62
     3
 48
5.0
100
AcDbLine
 10
274.080440320839
 20
203.6845193259931
 30
0.0
 11
274.080440320839
 21
199.6845193259931
 31
0.0
  0
LINE
  5
1AB8
330
1A
100
AcDbEntity
  8
SEIHIN
  6
CONTINUOUS
 62
     3
 48
5.0
100
AcDbLine
 10
274.080440320839
 20
203.6845193259931
 30
0.0
 11
274.080440320839
 21
205.6845193259931
 31
0.0
  0
LINE
  5
1ABA
330
1A
100
AcDbEntity
  8
SEIHIN
  6
CONTINUOUS
 62
     3
 48
5.0
100
AcDbLine
 10
295.397428756239
 20
208.6618982868931
 30
0.0
 11
301.370026524539
 21
222.1644366994931
 31
0.0
  0
LINE
  5
1ABC
330
1A
100
AcDbEntity
  8
SEIHIN
  6
CONTINUOUS
 62
     3
 48
5.0
100
AcDbLine
 10
289.0805403208389
 20
205.6845193259931
 30
0.0
 11
289.0805403208389
 21
206.684519325993
 31
0.0
  0
ARC
  5
1ABD
330
1A
100
AcDbEntity
  8
SEIHIN
  6
CONTINUOUS
 62
     3
 48
5.0
100
AcDbCircle
 10
290.824792303139
 20
210.6845193259931
 30
0.0
 40
5.000000000000056
100
AcDbArc
 50
270.0
 51
336.1386850065991
  0
LINE
  5
1AC3
330
1A
100
AcDbEntity
  8
SEIHIN
  6
CONTINUOUS
 62
     3
 48
5.0
100
AcDbLine
 10
358.070914071839
 20
210.1845193259931
 30
0.0
 11
358.070914071839
 21
230.1340250619931
 31
0.0
  0
LINE
  5
1AC6
330
1A
100
AcDbEntity
  8
SEIHIN
  6
CONTINUOUS
 62
     3
 48
5.0
100
AcDbLine
 10
373.0804403208389
 20
232.6845193259931
 30
0.0
 11
373.0804403208389
 21
222.6845193259931
 31
0.0
  0
LINE
  5
1AC7
330
1A
100
AcDbEntity
  8
SEIHIN
  6
CONTINUOUS
 62
     3
 48
5.0
100
AcDbLine
 10
367.0804403208389
 20
232.6845193259931
 30
0.0
 11
367.0804403208389
 21
222.6845193259931
 31
0.0
  0
LINE
  5
1AC8
330
1A
100
AcDbEntity
  8
SEIHIN
  6
CONTINUOUS
 62
     3
 48
5.0
100
AcDbLine
 10
365.0804403208391
 20
222.6845193259931
 30
0.0
 11
365.0804403208391
 21
230.6845193259931
 31
0.0
  0
LINE
  5
1ACA
330
1A
100
AcDbEntity
  8
SEIHIN
  6
CONTINUOUS
 62
     3
 48
5.0
100
AcDbLine
 10
353.070914071839
 20
210.1845193259931
 30
0.0
 11
353.070914071839
 21
229.7175241115931
 31
0.0
  0
LINE
  5
1ACF
330
1A
100
AcDbEntity
  8
SEIHIN
  6
CONTINUOUS
 62
     3
 48
5.0
100
AcDbLine
 10
348.070914071839
 20
210.1845193259931
 30
0.0
 11
348.070914071839
 21
229.3010231610931
 31
0.0
  0
LINE
  5
1AD1
330
1A
100
AcDbEntity
  8
SEIHIN
  6
CONTINUOUS
 62
     3
 48
5.0
100
AcDbLine
 10
351.089966569839
 20
229.4718557458931
 30
0.0
 11
351.089966569839
 21
210.1845193259931
 31
0.0
  0
LINE
  5
1AD3
330
1A
100
AcDbEntity
  8
SEIHIN
  6
CONTINUOUS
 62
     3
 48
5.0
100
AcDbLine
 10
346.0899665698391
 20
229.0553547953931
 30
0.0
 11
346.0899665698391
 21
210.1845193259931
 31
0.0
  0
LINE
  5
1AD8
330
1A
100
AcDbEntity
  8
SEIHIN
  6
CONTINUOUS
 62
     3
 48
5.0
100
AcDbLine
 10
356.089966569839
 20
229.8883566962931
 30
0.0
 11
356.089966569839
 21
210.1845193259931
 31
0.0
  0
LINE
  5
1AD9
330
1A
100
AcDbEntity
  8
SEIHIN
  6
CONTINUOUS
 62
     3
 48
5.0
100
AcDbLine
 10
350.6091817905391
 20
209.1635153499931
 30
0.0
 11
342.061321669639
 21
209.1635153499931
 31
0.0
  0
LINE
  5
1ADC
330
1A
100
AcDbEntity
  8
SEIHIN
  6
CONTINUOUS
 62
     3
 48
5.0
100
AcDbLine
 10
342.061321669639
 20
210.1629061769931
 30
0.0
 11
346.0804403208391
 21
210.1629061769931
 31
0.0
  0
LINE
  5
1ADD
330
1A
100
AcDbEntity
  8
SEIHIN
  6
CONTINUOUS
 62
     3
 48
5.0
100
AcDbLine
 10
341.9698743578391
 20
206.2845193258931
 30
0.0
 11
349.5488156188645
 21
206.2845193258931
 31
0.0
  0
LINE
  5
1ADE
330
1A
100
AcDbEntity
  8
SEIHIN
  6
CONTINUOUS
 62
     3
 48
5.0
100
AcDbLine
 10
323.725501371239
 20
210.1845193259931
 30
0.0
 11
345.6058436516391
 21
210.1845193259931
 31
0.0
  0
ARC
  5
1AE2
330
1A
100
AcDbEntity
  8
SEIHIN
  6
CONTINUOUS
 62
     3
 48
5.0
100
AcDbCircle
 10
330.243698141939
 20
202.5635157212931
 30
0.0
 40
2.000001103085749
100
AcDbArc
 50
160.9764583750014
 51
269.9509872372018
  0
LINE
  5
1AED
330
1A
100
AcDbEntity
  8
SEIHIN
  6
CONTINUOUS
 62
     3
 48
5.0
100
AcDbLine
 10
328.352927645639
 20
203.2154293219931
 30
0.0
 11
329.222889707539
 21
205.7316272854931
 31
0.0
  0
LINE
  5
1AEF
330
1A
100
AcDbEntity
  8
SEIHIN
  6
CONTINUOUS
 62
     3
 48
5.0
100
AcDbLine
 10
326.722948190439
 20
206.2429416105931
 30
0.0
 11
325.843544299239
 21
203.6994349711931
 31
0.0
  0
LINE
  5
1AF3
330
1A
100
AcDbEntity
  8
SEIHIN
  6
CONTINUOUS
 62
     3
 48
5.0
100
AcDbLine
 10
341.9698743578391
 20
206.2845193258931
 30
0.0
 11
341.966953296839
 21
206.2845188139931
 31
0.0
  0
LINE
  5
1AF5
330
1A
100
AcDbEntity
  8
SEIHIN
  6
CONTINUOUS
 62
     3
 48
5.0
100
AcDbLine
 10
334.338622386639
 20
203.2376797701931
 30
0.0
 11
334.019037904339
 21
202.0449742449931
 31
0.0
  0
LINE
  5
1AF8
330
1A
100
AcDbEntity
  8
SEIHIN
  6
CONTINUOUS
 62
     3
 48
5.0
100
AcDbLine
 10
337.143943826639
 20
202.5836934841931
 30
0.0
 11
337.143187305939
 21
202.5808720884931
 31
0.0
  0
LINE
  5
1B01
330
1A
100
AcDbEntity
  8
SEIHIN
  6
CONTINUOUS
 62
     3
 48
5.0
100
AcDbLine
 10
330.379625978839
 20
200.5635153499931
 30
0.0
 11
330.241987273039
 21
200.5635153499931
 31
0.0
  0
LINE
  5
1B02
330
1A
100
AcDbEntity
  8
SEIHIN
  6
CONTINUOUS
 62
     3
 48
5.0
100
AcDbLine
 10
332.088363083639
 20
200.5635153499931
 30
0.0
 11
330.379625978839
 21
200.5635153499931
 31
0.0
  0
ARC
  5
1B03
330
1A
100
AcDbEntity
  8
SEIHIN
  6
CONTINUOUS
 62
     3
 48
5.0
100
AcDbCircle
 10
332.087427928939
 20
202.5635157212931
 30
0.0
 40
2.000000589946431
100
AcDbArc
 50
270.026790200701
 51
344.9732097989997
  0
LINE
  5
1B06
330
1A
100
AcDbEntity
  8
SEIHIN
  6
CONTINUOUS
 62
     3
 48
5.0
100
AcDbLine
 10
373.0804403208389
 20
207.6845193259931
 30
0.0
 11
373.0804403208389
 21
222.6845193259931
 31
0.0
  0
LINE
  5
1B07
330
1A
100
AcDbEntity
  8
SEIHIN
  6
CONTINUOUS
 62
     3
 48
5.0
100
AcDbLine
 10
367.0804403208389
 20
222.6845193259931
 30
0.0
 11
367.0804403208389
 21
207.6845193259931
 31
0.0
  0
LINE
  5
1B08
330
1A
100
AcDbEntity
  8
SEIHIN
  6
CONTINUOUS
 62
     3
 48
5.0
100
AcDbLine
 10
365.0804403208391
 20
207.6845193259931
 30
0.0
 11
365.0804403208391
 21
222.6845193259931
 31
0.0
  0
LINE
  5
1B09
330
1A
100
AcDbEntity
  8
SEIHIN
  6
CONTINUOUS
 62
     3
 48
5.0
100
AcDbLine
 10
358.555036990039
 20
210.1845193259931
 30
0.0
 11
360.0804403208391
 21
210.1845193259931
 31
0.0
  0
LINE
  5
1B0A
330
1A
100
AcDbEntity
  8
SEIHIN
  6
CONTINUOUS
 62
     3
 48
5.0
100
AcDbLine
 10
358.0804403208391
 20
210.1845193259931
 30
0.0
 11
358.0804403208391
 21
209.9845193259931
 31
0.0
  0
LINE
  5
1B0B
330
1A
100
AcDbEntity
  8
SEIHIN
  6
CONTINUOUS
 62
     3
 48
5.0
100
AcDbLine
 10
358.555036990039
 20
210.1845193259931
 30
0.0
 11
358.070914071839
 21
210.1845193259931
 31
0.0
  0
LINE
  5
1B0D
330
1A
100
AcDbEntity
  8
SEIHIN
  6
CONTINUOUS
 62
     3
 48
5.0
100
AcDbLine
 10
353.555036990039
 20
210.1845193259931
 30
0.0
 11
355.605843651639
 21
210.1845193259931
 31
0.0
  0
LINE
  5
1B0E
330
1A
100
AcDbEntity
  8
SEIHIN
  6
CONTINUOUS
 62
     3
 48
5.0
100
AcDbLine
 10
353.080440320839
 20
210.1845193259931
 30
0.0
 11
353.080440320839
 21
209.9845193259931
 31
0.0
  0
ARC
  5
1B11
330
1A
100
AcDbEntity
  8
SEIHIN
  6
CONTINUOUS
 62
     3
 48
5.0
100
AcDbCircle
 10
352.780440320839
 20
209.9845193259931
 30
0.0
 40
0.3000000000000114
100
AcDbArc
 50
270.0
 51
0.0
  0
LINE
  5
1B12
330
1A
100
AcDbEntity
  8
SEIHIN
  6
CONTINUOUS
 62
     3
 48
5.0
100
AcDbLine
 10
353.555036990039
 20
210.1845193259931
 30
0.0
 11
353.070914071839
 21
210.1845193259931
 31
0.0
  0
LINE
  5
1B15
330
1A
100
AcDbEntity
  8
SEIHIN
  6
CONTINUOUS
 62
     3
 48
5.0
100
AcDbLine
 10
357.780440320839
 20
209.6845193259931
 30
0.0
 11
356.380440320839
 21
209.6845193259931
 31
0.0
  0
LINE
  5
1B16
330
1A
100
AcDbEntity
  8
SEIHIN
  6
CONTINUOUS
 62
     3
 48
5.0
100
AcDbLine
 10
356.089966569839
 20
210.1845193259931
 30
0.0
 11
355.605843651639
 21
210.1845193259931
 31
0.0
  0
LINE
  5
1B18
330
1A
100
AcDbEntity
  8
SEIHIN
  6
CONTINUOUS
 62
     3
 48
5.0
100
AcDbLine
 10
356.0804403208391
 20
209.9845193259931
 30
0.0
 11
356.0804403208391
 21
210.1845193259931
 31
0.0
  0
ARC
  5
1B19
330
1A
100
AcDbEntity
  8
SEIHIN
  6
CONTINUOUS
 62
     3
 48
5.0
100
AcDbCircle
 10
356.380440320839
 20
209.9845193259931
 30
0.0
 40
0.3000000000000114
100
AcDbArc
 50
180.0
 51
270.0
  0
ARC
  5
1B1B
330
1A
100
AcDbEntity
  8
SEIHIN
  6
CONTINUOUS
 62
     3
 48
5.0
100
AcDbCircle
 10
351.380440320839
 20
209.9845193259931
 30
0.0
 40
0.3000000000000114
100
AcDbArc
 50
180.0
 51
270.0
  0
LINE
  5
1B1E
330
1A
100
AcDbEntity
  8
SEIHIN
  6
CONTINUOUS
 62
     3
 48
5.0
100
AcDbLine
 10
348.555036990039
 20
210.1845193259931
 30
0.0
 11
350.605843651639
 21
210.1845193259931
 31
0.0
  0
LINE
  5
1B1F
330
1A
100
AcDbEntity
  8
SEIHIN
  6
CONTINUOUS
 62
     3
 48
5.0
100
AcDbLine
 10
348.555036990039
 20
210.1845193259931
 30
0.0
 11
348.070914071839
 21
210.1845193259931
 31
0.0
  0
LINE
  5
1B20
330
1A
100
AcDbEntity
  8
SEIHIN
  6
CONTINUOUS
 62
     3
 48
5.0
100
AcDbLine
 10
351.089966569839
 20
210.1845193259931
 30
0.0
 11
350.605843651639
 21
210.1845193259931
 31
0.0
  0
LINE
  5
1B22
330
1A
100
AcDbEntity
  8
SEIHIN
  6
CONTINUOUS
 62
     3
 48
5.0
100
AcDbLine
 10
348.0804403208391
 20
210.1845193259931
 30
0.0
 11
348.0804403208391
 21
209.9845193259931
 31
0.0
  0
ARC
  5
1B23
330
1A
100
AcDbEntity
  8
SEIHIN
  6
CONTINUOUS
 62
     3
 48
5.0
100
AcDbCircle
 10
347.780440320839
 20
209.9845193259931
 30
0.0
 40
0.3000000000000114
100
AcDbArc
 50
270.0
 51
0.0
  0
LINE
  5
1B26
330
1A
100
AcDbEntity
  8
SEIHIN
  6
CONTINUOUS
 62
     3
 48
5.0
100
AcDbLine
 10
347.780440320839
 20
209.6845193259931
 30
0.0
 11
346.380440320839
 21
209.6845193259931
 31
0.0
  0
LINE
  5
1B28
330
1A
100
AcDbEntity
  8
SEIHIN
  6
CONTINUOUS
 62
     3
 48
5.0
100
AcDbLine
 10
351.080440320839
 20
209.9845193259931
 30
0.0
 11
351.080440320839
 21
210.1845193259931
 31
0.0
  0
LINE
  5
1B2A
330
1A
100
AcDbEntity
  8
SEIHIN
  6
CONTINUOUS
 62
     3
 48
5.0
100
AcDbLine
 10
346.0804403208391
 20
209.9845193259931
 30
0.0
 11
346.0804403208391
 21
210.1845193259931
 31
0.0
  0
ARC
  5
1B2C
330
1A
100
AcDbEntity
  8
SEIHIN
  6
CONTINUOUS
 62
     3
 48
5.0
100
AcDbCircle
 10
346.380440320839
 20
209.9845193259931
 30
0.0
 40
0.2999999999999829
100
AcDbArc
 50
180.0
 51
270.0
  0
LINE
  5
1B2E
330
1A
100
AcDbEntity
  8
SEIHIN
  6
CONTINUOUS
 62
     3
 48
5.0
100
AcDbLine
 10
352.780440320839
 20
209.6845193259931
 30
0.0
 11
351.380440320839
 21
209.6845193259931
 31
0.0
  0
LINE
  5
1B33
330
1A
100
AcDbEntity
  8
SEIHIN
  6
CONTINUOUS
 62
     3
 48
5.0
100
AcDbLine
 10
346.584552062239
 20
206.2845188044931
 30
0.0
 11
346.582267839739
 21
206.2845193258931
 31
0.0
  0
ARC
  5
1B34
330
1A
100
AcDbEntity
  8
SEIHIN
  6
CONTINUOUS
 62
     3
 48
5.0
100
AcDbCircle
 10
350.6079630733391
 20
211.1635157212931
 30
0.0
 40
2.000001480200188
100
AcDbArc
 50
270.0349136674975
 51
312.3113593429991
  0
LINE
  5
1B36
330
1A
100
AcDbEntity
  8
SEIHIN
  6
CONTINUOUS
 62
     3
 48
5.0
100
AcDbLine
 10
346.0899665698391
 20
210.1845193259931
 30
0.0
 11
345.6058436516391
 21
210.1845193259931
 31
0.0
  0
LINE
  5
1B38
330
1A
100
AcDbEntity
  8
SEIHIN
  6
CONTINUOUS
 62
     3
 48
5.0
100
AcDbLine
 10
349.5804403208391
 20
203.2863468448931
 30
0.0
 11
349.580439799439
 21
203.2886310673931
 31
0.0
  0
LINE
  5
1B3B
330
1A
100
AcDbEntity
  8
SEIHIN
  6
CONTINUOUS
 62
     3
 48
5.0
100
AcDbLine
 10
349.5804403208391
 20
201.1814900565931
 30
0.0
 11
349.5804403208391
 21
201.1803497945931
 31
0.0
  0
LINE
  5
1B3E
330
1A
100
AcDbEntity
  8
SEIHIN
  6
CONTINUOUS
 62
     3
 48
5.0
100
AcDbLine
 10
349.5804403208391
 20
203.2863468448931
 30
0.0
 11
349.5804403208391
 21
201.1814900565931
 31
0.0
  0
ARC
  5
1B41
330
1A
100
AcDbEntity
  8
SEIHIN
  6
CONTINUOUS
 62
     3
 48
5.0
100
AcDbCircle
 10
357.780440320839
 20
209.9845193259931
 30
0.0
 40
0.3000000000000114
100
AcDbArc
 50
270.0
 51
0.0
  0
ARC
  5
1B42
330
1A
100
AcDbEntity
  8
SEIHIN
  6
CONTINUOUS
 62
     3
 48
5.0
100
AcDbCircle
 10
360.0804403208391
 20
205.1845193259931
 30
0.0
 40
4.999999999999979
100
AcDbArc
 50
66.42182152179947
 51
90.0
  0
LINE
  5
1B45
330
1A
100
AcDbEntity
  8
SEIHIN
  6
CONTINUOUS
 62
     3
 48
5.0
100
AcDbLine
 10
365.0804403208391
 20
199.7776894673931
 30
0.0
 11
365.0804403208391
 21
207.6845193259931
 31
0.0
  0
LINE
  5
1B48
330
1A
100
AcDbEntity
  8
SEIHIN
  6
CONTINUOUS
 62
     3
 48
5.0
100
AcDbLine
 10
358.577522124439
 20
232.1428250040931
 30
0.0
 11
361.914414963339
 21
232.4207888118931
 31
0.0
  0
LINE
  5
1B4E
330
1A
100
AcDbEntity
  8
SEIHIN
  6
CONTINUOUS
 62
     3
 48
5.0
100
AcDbLine
 10
358.0804403208391
 20
232.1014179952931
 30
0.0
 11
358.0804403208391
 21
231.1228130776931
 31
0.0
  0
ARC
  5
1B50
330
1A
100
AcDbEntity
  8
SEIHIN
  6
CONTINUOUS
 62
     3
 48
5.0
100
AcDbCircle
 10
358.536015785139
 20
232.6410992495931
 30
0.0
 40
0.5000000000000212
100
AcDbArc
 50
184.8990370549963
 51
274.761755813793
  0
LINE
  5
1B51
330
1A
100
AcDbEntity
  8
SEIHIN
  6
CONTINUOUS
 62
     3
 48
5.0
100
AcDbLine
 10
357.853958334739
 20
234.7437378586931
 30
0.0
 11
358.080348733839
 21
232.1024865227931
 31
0.0
  0
ARC
  5
1B52
330
1A
100
AcDbEntity
  8
SEIHIN
  6
CONTINUOUS
 62
     3
 48
5.0
100
AcDbCircle
 10
352.5550543152391
 20
234.3016168547931
 30
0.0
 40
0.300000000000026
100
AcDbArc
 50
4.899037054999578
 51
90.0
  0
LINE
  5
1B53
330
1A
100
AcDbEntity
  8
SEIHIN
  6
CONTINUOUS
 62
     3
 48
5.0
100
AcDbLine
 10
356.607100262039
 20
235.0181178052931
 30
0.0
 11
357.555054315239
 21
235.0181178052931
 31
0.0
  0
ARC
  5
1B55
330
1A
100
AcDbEntity
  8
SEIHIN
  6
CONTINUOUS
 62
     3
 48
5.0
100
AcDbCircle
 10
356.607100262039
 20
234.7181178052931
 30
0.0
 40
0.3000000000000114
100
AcDbArc
 50
90.0
 51
175.3644869623914
  0
ARC
  5
1B56
330
1A
100
AcDbEntity
  8
SEIHIN
  6
CONTINUOUS
 62
     3
 48
5.0
100
AcDbCircle
 10
351.607100262039
 20
234.3016168547931
 30
0.0
 40
0.3000000000000114
100
AcDbArc
 50
90.0
 51
175.3644869624017
  0
ARC
  5
1B57
330
1A
100
AcDbEntity
  8
SEIHIN
  6
CONTINUOUS
 62
     3
 48
5.0
100
AcDbCircle
 10
347.555054315239
 20
233.8851159043931
 30
0.0
 40
0.2999999999999694
100
AcDbArc
 50
4.899037054999578
 51
90.0
  0
LINE
  5
1B58
330
1A
100
AcDbEntity
  8
SEIHIN
  6
CONTINUOUS
 62
     3
 48
5.0
100
AcDbLine
 10
346.607100262039
 20
234.1851159043931
 30
0.0
 11
347.555054315239
 21
234.1851159043931
 31
0.0
  0
ARC
  5
1B59
330
1A
100
AcDbEntity
  8
SEIHIN
  6
CONTINUOUS
 62
     3
 48
5.0
100
AcDbCircle
 10
346.607100262039
 20
233.8851159043931
 30
0.0
 40
0.3000000000000114
100
AcDbArc
 50
90.0
 51
175.3644869623914
  0
LINE
  5
1B5A
330
1A
100
AcDbEntity
  8
SEIHIN
  6
CONTINUOUS
 62
     3
 48
5.0
100
AcDbLine
 10
351.607100262039
 20
234.6016168547931
 30
0.0
 11
352.5550543152391
 21
234.6016168547931
 31
0.0
  0
LINE
  5
1B5F
330
1A
100
AcDbEntity
  8
SEIHIN
  6
CONTINUOUS
 62
     3
 48
5.0
100
AcDbLine
 10
353.577522124439
 20
231.7263240535931
 30
0.0
 11
355.657852613339
 21
231.8996159787932
 31
0.0
  0
LINE
  5
1B62
330
1A
100
AcDbEntity
  8
SEIHIN
  6
CONTINUOUS
 62
     3
 48
5.0
100
AcDbLine
 10
353.080440320839
 20
231.6849170448931
 30
0.0
 11
353.080440320839
 21
230.7063121273931
 31
0.0
  0
LINE
  5
1B65
330
1A
100
AcDbEntity
  8
SEIHIN
  6
CONTINUOUS
 62
     3
 48
5.0
100
AcDbLine
 10
356.0804403208391
 20
230.8694299779931
 30
0.0
 11
356.0804403208391
 21
231.0181178052931
 31
0.0
  0
LINE
  5
1B6B
330
1A
100
AcDbEntity
  8
SEIHIN
  6
CONTINUOUS
 62
     3
 48
5.0
100
AcDbLine
 10
356.0804403208391
 20
231.0181178052931
 30
0.0
 11
356.0804403208391
 21
231.9348176151931
 31
0.0
  0
ARC
  5
1B6E
330
1A
100
AcDbEntity
  8
SEIHIN
  6
CONTINUOUS
 62
     3
 48
5.0
100
AcDbCircle
 10
348.536015785139
 20
231.8080973487931
 30
0.0
 40
0.500000000000026
100
AcDbArc
 50
184.8990370550028
 51
274.7617558137995
  0
ARC
  5
1B6F
330
1A
100
AcDbEntity
  8
SEIHIN
  6
CONTINUOUS
 62
     3
 48
5.0
100
AcDbCircle
 10
350.616346273939
 20
231.9813892738931
 30
0.0
 40
0.500000000000046
100
AcDbArc
 50
274.7617558137995
 51
355.3644869624017
  0
LINE
  5
1B71
330
1A
100
AcDbEntity
  8
SEIHIN
  6
CONTINUOUS
 62
     3
 48
5.0
100
AcDbLine
 10
348.0804403208391
 20
231.2684160944931
 30
0.0
 11
348.0804403208391
 21
230.2898111767931
 31
0.0
  0
LINE
  5
1B74
330
1A
100
AcDbEntity
  8
SEIHIN
  6
CONTINUOUS
 62
     3
 48
5.0
100
AcDbLine
 10
348.577522124439
 20
231.3098231031931
 30
0.0
 11
350.657852613339
 21
231.4831150283931
 31
0.0
  0
LINE
  5
1B7B
330
1A
100
AcDbEntity
  8
SEIHIN
  6
CONTINUOUS
 62
     3
 48
5.0
100
AcDbLine
 10
351.080440320839
 20
230.6016168547931
 30
0.0
 11
351.080440320839
 21
231.5183166646931
 31
0.0
  0
LINE
  5
1B7F
330
1A
100
AcDbEntity
  8
SEIHIN
  6
CONTINUOUS
 62
     3
 48
5.0
100
AcDbLine
 10
351.080440320839
 20
230.4529290275931
 30
0.0
 11
351.080440320839
 21
230.6016168547931
 31
0.0
  0
LINE
  5
1B84
330
1A
100
AcDbEntity
  8
SEIHIN
  6
CONTINUOUS
 62
     3
 48
5.0
100
AcDbLine
 10
346.0804403208391
 20
230.0364280770931
 30
0.0
 11
346.0804403208391
 21
230.1851159043931
 31
0.0
  0
LINE
  5
1B86
330
1A
100
AcDbEntity
  8
SEIHIN
  6
CONTINUOUS
 62
     3
 48
5.0
100
AcDbLine
 10
346.0804403208391
 20
230.1851159043931
 30
0.0
 11
346.0804403208391
 21
231.1018157142931
 31
0.0
  0
ARC
  5
1B88
330
1A
100
AcDbEntity
  8
SEIHIN
  6
CONTINUOUS
 62
     3
 48
5.0
100
AcDbCircle
 10
353.536015785139
 20
232.2245982991931
 30
0.0
 40
0.500000000000026
100
AcDbArc
 50
184.8990370550028
 51
274.761755813793
  0
LINE
  5
1B8A
330
1A
100
AcDbEntity
  8
SEIHIN
  6
CONTINUOUS
 62
     3
 48
5.0
100
AcDbLine
 10
351.080498883639
 20
231.5190389316931
 30
0.0
 11
351.308081568539
 21
234.3258618743931
 31
0.0
  0
LINE
  5
1B8B
330
1A
100
AcDbEntity
  8
SEIHIN
  6
CONTINUOUS
 62
     3
 48
5.0
100
AcDbLine
 10
352.8539583347391
 20
234.3272369081931
 30
0.0
 11
353.080348733839
 21
231.6859855723931
 31
0.0
  0
LINE
  5
1B8C
330
1A
100
AcDbEntity
  8
SEIHIN
  6
CONTINUOUS
 62
     3
 48
5.0
100
AcDbLine
 10
347.8539583347391
 20
233.9107359577931
 30
0.0
 11
348.080348733839
 21
231.2694846219931
 31
0.0
  0
LINE
  5
1B90
330
1A
100
AcDbEntity
  8
SEIHIN
  6
CONTINUOUS
 62
     3
 48
5.0
100
AcDbLine
 10
346.080498883639
 20
231.1025379811931
 30
0.0
 11
346.308081568539
 21
233.9093609238931
 31
0.0
  0
ARC
  5
1B91
330
1A
100
AcDbEntity
  8
SEIHIN
  6
CONTINUOUS
 62
     3
 48
5.0
100
AcDbCircle
 10
355.616346273939
 20
232.3978902243931
 30
0.0
 40
0.500000000000046
100
AcDbArc
 50
274.7617558137995
 51
355.3644869623946
  0
LINE
  5
1B94
330
1A
100
AcDbEntity
  8
SEIHIN
  6
CONTINUOUS
 62
     3
 48
5.0
100
AcDbLine
 10
356.080498883639
 20
231.9355398820931
 30
0.0
 11
356.308081568539
 21
234.7423628247931
 31
0.0
  0
ARC
  5
1B99
330
1A
100
AcDbEntity
  8
SEIHIN
  6
CONTINUOUS
 62
     3
 48
5.0
100
AcDbCircle
 10
345.616346273939
 20
231.5648883234931
 30
0.0
 40
0.500000000000046
100
AcDbArc
 50
274.7617558137995
 51
355.3644869623946
  0
ARC
  5
1B9B
330
1A
100
AcDbEntity
  8
SEIHIN
  6
CONTINUOUS
 62
     3
 48
5.0
100
AcDbCircle
 10
357.555054315239
 20
234.7181178052931
 30
0.0
 40
0.300000000000026
100
AcDbArc
 50
4.899037054999578
 51
90.0
  0
LINE
  5
1B9C
330
1A
100
AcDbEntity
  8
SEIHIN
  6
CONTINUOUS
 62
     3
 48
5.0
100
AcDbLine
 10
365.0804403208391
 20
232.6845193259931
 30
0.0
 11
367.0804403208389
 21
232.6845193259931
 31
0.0
  0
LINE
  5
1B9D
330
1A
100
AcDbEntity
  8
SEIHIN
  6
CONTINUOUS
 62
     3
 48
5.0
100
AcDbLine
 10
361.914414963339
 20
232.4207888118931
 30
0.0
 11
365.048965511039
 21
232.6818974682931
 31
0.0
  0
ARC
  5
1BA1
330
1A
100
AcDbEntity
  8
SEIHIN
  6
CONTINUOUS
 62
     3
 48
5.0
100
AcDbCircle
 10
367.0804403208389
 20
230.6845193259931
 30
0.0
 40
2.0
100
AcDbArc
 50
90.0
 51
180.0
  0
LINE
  5
1BA2
330
1A
100
AcDbEntity
  8
SEIHIN
  6
CONTINUOUS
 62
     3
 48
5.0
100
AcDbLine
 10
367.0804403208389
 20
232.6845193259931
 30
0.0
 11
373.0804403208389
 21
232.6845193259931
 31
0.0
  0
LINE
  5
1BA5
330
1A
100
AcDbEntity
  8
SEIHIN
  6
CONTINUOUS
 62
     3
 48
5.0
100
AcDbLine
 10
540.8973519121123
 20
226.6518955337931
 30
0.0
 11
540.8973519121123
 21
218.3769047720931
 31
0.0
  0
ARC
  5
1BA8
330
1A
100
AcDbEntity
  8
SEIHIN
  6
CONTINUOUS
 62
     3
 48
5.0
100
AcDbCircle
 10
533.1196126268123
 20
223.6845193259931
 30
0.0
 40
2.362515129828078
100
AcDbArc
 50
321.0358662985997
 51
218.9641337014002
  0
ARC
  5
1BAA
330
1A
100
AcDbEntity
  8
SEIHIN
  6
CONTINUOUS
 62
     3
 48
5.0
100
AcDbCircle
 10
535.1196126268123
 20
222.6845193259931
 30
0.0
 40
10.0
100
AcDbArc
 50
90.0
 51
180.0
  0
LINE
  5
1BAC
330
1A
100
AcDbEntity
  8
SEIHIN
  6
CONTINUOUS
 62
     3
 48
5.0
100
AcDbLine
 10
525.1196126268123
 20
207.6845193259931
 30
0.0
 11
525.1196126268123
 21
222.6845193259931
 31
0.0
  0
ARC
  5
1BAE
330
1A
100
AcDbEntity
  8
SEIHIN
  6
CONTINUOUS
 62
     3
 48
5.0
100
AcDbCircle
 10
533.5009985683123
 20
219.8022402913931
 30
0.0
 40
7.532438126415082
100
AcDbArc
 50
267.6280256666974
 51
349.0923636470997
  0
LINE
  5
1BB8
330
1A
100
AcDbEntity
  8
SEIHIN
  6
CONTINUOUS
 62
     3
 48
5.0
100
AcDbLine
 10
532.2578092279123
 20
211.3825951657931
 30
0.0
 11
532.2578092279123
 21
206.2171431180931
 31
0.0
  0
ARC
  5
1BC1
330
1A
100
AcDbEntity
  8
SEIHIN
  6
CONTINUOUS
 62
     3
 48
5.0
100
AcDbCircle
 10
533.1196126268123
 20
219.2049996608931
 30
0.0
 40
3.512515129827961
100
AcDbArc
 50
121.5318647334023
 51
58.46813526659681
  0
ARC
  5
1BD1
330
1A
100
AcDbEntity
  8
SEIHIN
  6
CONTINUOUS
 62
     3
 48
5.0
100
AcDbCircle
 10
589.1196126268123
 20
207.6845193259931
 30
0.0
 40
10.0
100
AcDbArc
 50
278.7529290769035
 51
0.0
  0
LINE
  5
1BDA
330
1A
100
AcDbEntity
  8
SEIHIN
  6
CONTINUOUS
 62
     3
 48
5.0
100
AcDbLine
 10
566.5249295799124
 20
174.3232003064931
 30
0.0
 11
566.5249295799124
 21
226.6196937789931
 31
0.0
  0
LINE
  5
1BDB
330
1A
100
AcDbEntity
  8
SEIHIN
  6
CONTINUOUS
 62
     3
 48
5.0
100
AcDbLine
 10
557.7142956737122
 20
226.6196937789931
 30
0.0
 11
557.7142956737122
 21
174.3232003064931
 31
0.0
  0
ARC
  5
1BDC
330
1A
100
AcDbEntity
  8
SEIHIN
  6
CONTINUOUS
 62
     3
 48
5.0
100
AcDbCircle
 10
592.6196126268123
 20
184.9523834825931
 30
0.0
 40
12.99999999999991
100
AcDbArc
 50
98.75292907690349
 51
180.0
  0
LINE
  5
1BDD
330
1A
100
AcDbEntity
  8
SEIHIN
  6
CONTINUOUS
 62
     3
 48
5.0
100
AcDbLine
 10
551.1957777560123
 20
162.9927420438931
 30
0.0
 11
551.1957777560123
 21
199.6518955337931
 31
0.0
  0
ARC
  5
1BE1
330
1A
100
AcDbEntity
  8
SEIHIN
  6
CONTINUOUS
 62
     3
 48
5.0
100
AcDbCircle
 10
562.1196126268123
 20
165.9345193259931
 30
0.0
 40
8.094646086244985
100
AcDbArc
 50
67.73084424400227
 51
112.2691557561023
  0
LINE
  5
1BE5
330
1A
100
AcDbEntity
  8
SEIHIN
  6
CONTINUOUS
 62
     3
 48
5.0
100
AcDbLine
 10
579.6196126268123
 20
166.2968764094931
 30
0.0
 11
579.6196126268123
 21
184.9523834825931
 31
0.0
  0
ARC
  5
1BED
330
1A
100
AcDbEntity
  8
SEIHIN
  6
CONTINUOUS
 62
     3
 48
5.0
100
AcDbCircle
 10
572.3696126268123
 20
166.2968764094931
 30
0.0
 40
7.25
100
AcDbArc
 50
272.0000000001991
 51
0.0
  0
LINE
  5
1BEE
330
1A
100
AcDbEntity
  8
SEIHIN
  6
CONTINUOUS
 62
     3
 48
5.0
100
AcDbLine
 10
562.1196126268123
 20
158.6845193259931
 30
0.0
 11
572.6226339779123
 21
159.0512929135931
 31
0.0
  0
LINE
  5
1BEF
330
1A
100
AcDbEntity
  8
SEIHIN
  6
CONTINUOUS
 62
     3
 48
5.0
100
AcDbLine
 10
551.4901769440123
 20
159.241584445193
 30
0.0
 11
562.1196126268123
 21
158.6845193259931
 31
0.0
  0
CIRCLE
  5
1BF2
330
1A
100
AcDbEntity
  8
SEIHIN
  6
CONTINUOUS
 62
     3
 48
5.0
100
AcDbCircle
 10
562.1196126268123
 20
165.9345193259931
 30
0.0
 40
2.379975514573857
  0
ARC
  5
1C1D
330
1A
100
AcDbEntity
  8
SEIHIN
  6
CONTINUOUS
 62
     3
 48
5.0
100
AcDbCircle
 10
591.1196126268123
 20
223.6845193259931
 30
0.0
 40
2.362515129828078
100
AcDbArc
 50
321.0358662985997
 51
218.9641337014002
  0
LINE
  5
1C2A
330
1A
100
AcDbEntity
  8
SEIHIN
  6
CONTINUOUS
 62
     3
 48
5.0
100
AcDbLine
 10
551.4814160257124
 20
206.2171431180931
 30
0.0
 11
551.4814160257124
 21
226.6518955337931
 31
0.0
  0
ARC
  5
1C2B
330
1A
100
AcDbEntity
  8
SEIHIN
  6
CONTINUOUS
 62
     3
 48
5.0
100
AcDbCircle
 10
589.1196126268123
 20
222.6845193259931
 30
0.0
 40
10.0
100
AcDbArc
 50
0.0
 51
90.0
  0
LINE
  5
1C45
330
1A
100
AcDbEntity
  8
SEIHIN
  6
CONTINUOUS
 62
     3
 48
5.0
100
AcDbLine
 10
599.1196126268123
 20
207.6845193259931
 30
0.0
 11
599.1196126268123
 21
222.6845193259931
 31
0.0
  0
ARC
  5
1C59
330
1A
100
AcDbEntity
  8
SEIHIN
  6
CONTINUOUS
 62
     3
 48
5.0
100
AcDbCircle
 10
591.1196126268123
 20
219.2049996608931
 30
0.0
 40
3.512515129827961
100
AcDbArc
 50
121.5318647334023
 51
58.46813526659681
  0
ARC
  5
1C5D
330
1A
100
AcDbEntity
  8
SEIHIN
  6
CONTINUOUS
 62
     3
 48
5.0
100
AcDbCircle
 10
574.9696126268122
 20
231.0181178052931
 30
0.0
 40
4.000000000000023
100
AcDbArc
 50
24.62014054719998
 51
90.0
  0
LINE
  5
1C66
330
1A
100
AcDbEntity
  8
SEIHIN
  6
CONTINUOUS
 62
     3
 48
5.0
100
AcDbLine
 10
549.2696126268121
 20
235.0181178052931
 30
0.0
 11
574.9696126268122
 21
235.0181178052931
 31
0.0
  0
LINE
  5
1C6A
330
1A
100
AcDbEntity
  8
SEIHIN
  6
CONTINUOUS
 62
     3
 48
5.0
100
AcDbLine
 10
565.5547870798122
 20
227.5898362790931
 30
0.0
 11
558.6844381738123
 21
227.5898362790931
 31
0.0
  0
SPLINE
  5
1CD2
330
1A
100
AcDbEntity
  8
SEIHIN
  6
CONTINUOUS
 62
     3
 48
5.0
100
AcDbSpline
210
0.0
220
0.0
230
1.0
 70
    24
 71
     1
 72
     4
 73
     2
 74
     0
 42
0.0000000001
 43
0.0000000001
 40
0.0
 40
0.0
 40
1.0
 40
1.0
 10
265.4714425522804
 20
413.4326141612229
 30
0.0
 10
262.8200074932992
 20
413.5626552211787
 30
0.0
  0
SPLINE
  5
1CD3
330
1A
100
AcDbEntity
  8
SEIHIN
  6
CONTINUOUS
 62
     3
 48
5.0
100
AcDbSpline
210
0.0
220
0.0
230
1.0
 70
    24
 71
     1
 72
     4
 73
     2
 74
     0
 42
0.0000000001
 43
0.0000000001
 40
0.0
 40
0.0
 40
1.0
 40
1.0
 10
265.4679585275161
 20
413.4331431029269
 30
0.0
 10
274.0804403208358
 20
412.7824923275037
 30
0.0
  0
SPLINE
  5
1CD4
330
1A
100
AcDbEntity
  8
SEIHIN
  6
CONTINUOUS
 62
     3
 48
5.0
100
AcDbSpline
210
0.0
220
0.0
230
1.0
 70
    24
 71
     1
 72
     4
 73
     2
 74
     0
 42
0.0000000001
 43
0.0000000001
 40
0.0
 40
0.0
 40
1.0
 40
1.0
 10
274.0804403208358
 20
412.7809278189667
 30
0.0
 10
265.4714425522804
 20
413.4326141612229
 30
0.0
  0
SPLINE
  5
1CD7
330
1A
100
AcDbEntity
  8
SEIHIN
  6
CONTINUOUS
 62
     3
 48
5.0
100
AcDbSpline
210
0.0
220
0.0
230
1.0
 70
    24
 71
     3
 72
     9
 73
     5
 74
     0
 42
0.0000000001
 43
0.0000000001
 40
0.0
 40
0.0
 40
0.0
 40
0.0
 40
0.5600000000039036
 40
1.0
 40
1.0
 40
1.0
 40
1.0
 10
267.0869594686669
 20
399.5758960557616
 30
0.0
 10
267.0869594686669
 20
399.5763387542967
 30
0.0
 10
267.0869594686669
 20
399.5771292873949
 30
0.0
 10
267.0869594686669
 20
399.577920111144
 30
0.0
 10
267.0869594686669
 20
399.5782680735935
 30
0.0
  0
SPLINE
  5
1CD8
330
1A
100
AcDbEntity
  8
SEIHIN
  6
CONTINUOUS
 62
     3
 48
5.0
100
AcDbSpline
210
0.0
220
0.0
230
1.0
 70
     8
 71
     3
 72
    12
 73
     8
 74
     0
 42
0.0000000001
 43
0.0000000001
 40
0.0
 40
0.0
 40
0.0
 40
0.0
 40
0.2150159439862009
 40
0.4300423538877192
 40
0.6448014531063478
 40
0.8592006771705122
 40
1.0
 40
1.0
 40
1.0
 40
1.0
 10
267.0869594686669
 20
399.5602325318538
 30
0.0
 10
267.1173807510722
 20
399.2505918429742
 30
0.0
 10
267.1782247966405
 20
398.6312953934342
 30
0.0
 10
267.6530171624697
 20
397.8059153492821
 30
0.0
 10
268.351576137153
 20
397.1837672466446
 30
0.0
 10
269.1246071902128
 20
396.8549237419734
 30
0.0
 10
269.634743442057
 20
396.8216196195737
 30
0.0
 10
269.836959468667
 20
396.8084179949547
 30
0.0
  0
SPLINE
  5
1CDB
330
1A
100
AcDbEntity
  8
SEIHIN
  6
CONTINUOUS
 62
     3
 48
5.0
100
AcDbSpline
210
0.0
220
0.0
230
1.0
 70
    24
 71
     1
 72
     4
 73
     2
 74
     0
 42
0.0000000001
 43
0.0000000001
 40
0.0
 40
0.0
 40
1.0
 40
1.0
 10
262.5755800265899
 20
385.5830036085817
 30
0.0
 10
265.4725292816963
 20
385.7180790378741
 30
0.0
  0
SPLINE
  5
1CDC
330
1A
100
AcDbEntity
  8
SEIHIN
  6
CONTINUOUS
 62
     3
 48
5.0
100
AcDbSpline
210
0.0
220
0.0
230
1.0
 70
    24
 71
     1
 72
     4
 73
     2
 74
     0
 42
0.0000000001
 43
0.0000000001
 40
0.0
 40
0.0
 40
1.0
 40
1.0
 10
265.4650381878184
 20
385.7169105671652
 30
0.0
 10
274.0804403208358
 20
386.3669844604953
 30
0.0
  0
SPLINE
  5
1CDD
330
1A
100
AcDbEntity
  8
SEIHIN
  6
CONTINUOUS
 62
     3
 48
5.0
100
AcDbSpline
210
0.0
220
0.0
230
1.0
 70
    24
 71
     1
 72
     4
 73
     2
 74
     0
 42
0.0000000001
 43
0.0000000001
 40
0.0
 40
0.0
 40
1.0
 40
1.0
 10
265.4725292816963
 20
385.7180790378741
 30
0.0
 10
274.0804403208358
 20
386.3699178063436
 30
0.0
  0
SPLINE
  5
1CDE
330
1A
100
AcDbEntity
  8
SEIHIN
  6
CONTINUOUS
 62
     3
 48
5.0
100
AcDbSpline
210
0.0
220
0.0
230
1.0
 70
     8
 71
     3
 72
    12
 73
     8
 74
     0
 42
0.0000000001
 43
0.0000000001
 40
0.0
 40
0.0
 40
0.0
 40
0.0
 40
0.2138644856513
 40
0.4277269932275069
 40
0.6416929154573658
 40
0.8561378905248552
 40
1.0
 40
1.0
 40
1.0
 40
1.0
 10
269.8369594686669
 20
402.3422096109946
 30
0.0
 10
269.528657707141
 20
402.3120609942174
 30
0.0
 10
268.9120570356334
 20
402.2517640395135
 30
0.0
 10
268.0896551475679
 20
401.779804475924
 30
0.0
 10
267.4678443225889
 20
401.0846479800888
 30
0.0
 10
267.1350464342119
 20
400.3100260053602
 30
0.0
 10
267.1007354875546
 20
399.7957573163681
 30
0.0
 10
267.0869594686669
 20
399.5892758326712
 30
0.0
  0
SPLINE
  5
1CF1
330
1A
100
AcDbEntity
  8
SEIHIN
  6
CONTINUOUS
 62
     3
 48
5.0
100
AcDbSpline
210
0.0
220
0.0
230
1.0
 70
    24
 71
     1
 72
     4
 73
     2
 74
     0
 42
0.0000000001
 43
0.0000000001
 40
0.0
 40
0.0
 40
1.0
 40
1.0
 10
251.9866771648281
 20
413.5752656645007
 30
0.0
 10
251.630342158147
 20
413.5562634635488
 30
0.0
  0
SPLINE
  5
1CF2
330
1A
100
AcDbEntity
  8
SEIHIN
  6
CONTINUOUS
 62
     3
 48
5.0
100
AcDbSpline
210
0.0
220
0.0
230
1.0
 70
     8
 71
     3
 72
     9
 73
     5
 74
     0
 42
0.0000000001
 43
0.0000000001
 40
0.0
 40
0.0
 40
0.0
 40
0.0
 40
0.4934039403756636
 40
1.0
 40
1.0
 40
1.0
 40
1.0
 10
259.0159824652814
 20
409.9679301002129
 30
0.0
 10
259.1706049538814
 20
409.9286034876082
 30
0.0
 10
259.4839840656947
 20
409.8488987885039
 30
0.0
 10
259.8940021236486
 20
409.7607011847271
 30
0.0
 10
260.1017156561829
 20
409.7160206261856
 30
0.0
  0
SPLINE
  5
1CF3
330
1A
100
AcDbEntity
  8
SEIHIN
  6
CONTINUOUS
 62
     3
 48
5.0
100
AcDbSpline
210
0.0
220
0.0
230
1.0
 70
     8
 71
     3
 72
     9
 73
     5
 74
     0
 42
0.0000000001
 43
0.0000000001
 40
0.0
 40
0.0
 40
0.0
 40
0.0
 40
0.4916757638745569
 40
1.0
 40
1.0
 40
1.0
 40
1.0
 10
260.1017156561829
 20
409.7160206261856
 30
0.0
 10
260.3243452708511
 20
409.6757403177985
 30
0.0
 10
260.7771428887647
 20
409.5938157826748
 30
0.0
 10
261.3014854734531
 20
409.58151728761
 30
0.0
 10
261.5680215172829
 20
409.5752656645007
 30
0.0
  0
ELLIPSE
  5
1CF4
330
1A
100
AcDbEntity
  8
SEIHIN
  6
CONTINUOUS
 62
     3
 48
5.0
100
AcDbEllipse
 10
249.655290934039
 20
403.5752656644821
 30
0.0
 11
0.6998789370904039
 21
9.995486550045484
 31
0.0
210
0.0
220
0.0
230
1.0
 40
0.4292372267
 41
0.1175720783081924
 42
0.4372227449854299
  0
SPLINE
  5
1CF5
330
1A
100
AcDbEntity
  8
SEIHIN
  6
CONTINUOUS
 62
     3
 48
5.0
100
AcDbSpline
210
0.0
220
0.0
230
1.0
 70
    24
 71
     1
 72
     4
 73
     2
 74
     0
 42
0.0000000001
 43
0.0000000001
 40
0.0
 40
0.0
 40
1.0
 40
1.0
 10
249.8470641569051
 20
413.5369859784195
 30
0.0
 10
250.3154581260789
 20
413.5752656645007
 30
0.0
  0
ELLIPSE
  5
1CF6
330
1A
100
AcDbEntity
  8
SEIHIN
  6
CONTINUOUS
 62
     3
 48
5.0
100
AcDbEllipse
 10
252.465476129839
 20
403.5752656644821
 30
0.0
 11
-0.6998789370903609
 21
9.995486550045484
 31
0.0
210
0.0
220
0.0
230
1.0
 40
0.4292372267
 41
0.0316115466422315
 42
0.4648146845401978
  0
SPLINE
  5
1CF7
330
1A
100
AcDbEntity
  8
SEIHIN
  6
CONTINUOUS
 62
     3
 48
5.0
100
AcDbSpline
210
0.0
220
0.0
230
1.0
 70
    24
 71
     1
 72
     4
 73
     2
 74
     0
 42
0.0000000001
 43
0.0000000001
 40
0.0
 40
0.0
 40
1.0
 40
1.0
 10
221.1822853189888
 20
413.5752656645005
 30
0.0
 10
221.4456671761189
 20
413.5752656645005
 30
0.0
  0
SPLINE
  5
1CF8
330
1A
100
AcDbEntity
  8
SEIHIN
  6
CONTINUOUS
 62
     3
 48
5.0
100
AcDbSpline
210
0.0
220
0.0
230
1.0
 70
    24
 71
     1
 72
     4
 73
     2
 74
     0
 42
0.0000000001
 43
0.0000000001
 40
0.0
 40
0.0
 40
1.0
 40
1.0
 10
220.9765833116517
 20
413.5646592113326
 30
0.0
 10
221.1822853189887
 20
413.5752656645005
 30
0.0
  0
SPLINE
  5
1CFA
330
1A
100
AcDbEntity
  8
SEIHIN
  6
CONTINUOUS
 62
     3
 48
5.0
100
AcDbSpline
210
0.0
220
0.0
230
1.0
 70
     8
 71
     3
 72
    12
 73
     8
 74
     0
 42
0.0000000001
 43
0.0000000001
 40
0.0
 40
0.0
 40
0.0
 40
0.0
 40
0.0032758184461281
 40
0.2899169500728351
 40
0.5871264174622711
 40
0.9422499123549904
 40
1.0
 40
1.0
 40
1.0
 40
1.0
 10
219.3752695131784
 20
412.4324085216434
 30
0.0
 10
219.3761340076596
 20
412.4342263139994
 30
0.0
 10
219.452643621208
 20
412.5951048316591
 30
0.0
 10
219.6527792371598
 20
412.9034474436074
 30
0.0
 10
220.1163622474075
 20
413.3096529745317
 30
0.0
 10
220.6005057859925
 20
413.5170747373142
 30
0.0
 10
220.9304349526887
 20
413.5588201349768
 30
0.0
 10
220.9765833116518
 20
413.5646592113326
 30
0.0
  0
SPLINE
  5
1CFC
330
1A
100
AcDbEntity
  8
SEIHIN
  6
CONTINUOUS
 62
     3
 48
5.0
100
AcDbSpline
210
0.0
220
0.0
230
1.0
 70
     8
 71
     3
 72
    16
 73
    12
 74
     0
 42
0.0000000001
 43
0.0000000001
 40
0.0
 40
0.0
 40
0.0
 40
0.0
 40
0.0099909965833387
 40
0.015643010159626
 40
0.0377887848042825
 40
0.0771836527637603
 40
0.1493129744157298
 40
0.3586195015890495
 40
0.5680366661022336
 40
0.7840567275931171
 40
1.0
 40
1.0
 40
1.0
 40
1.0
 10
216.6507671537839
 20
402.7669179874868
 30
0.0
 10
216.6515978084016
 20
402.7746854012997
 30
0.0
 10
216.6528983732167
 20
402.7868469241442
 30
0.0
 10
216.6608847099537
 20
402.8605436543839
 30
0.0
 10
216.680878756527
 20
403.0403134003996
 30
0.0
 10
216.7304001729211
 20
403.4519196594716
 30
0.0
 10
216.8743413876458
 20
404.4920714004341
 30
0.0
 10
217.1770017226149
 20
406.1184426070507
 30
0.0
 10
217.728816099758
 20
408.2268683366637
 30
0.0
 10
218.4386945572469
 20
410.3379285692564
 30
0.0
 10
219.0631148617668
 20
411.7343312825657
 30
0.0
 10
219.375269513178
 20
412.432408521643
 30
0.0
  0
SPLINE
  5
1CFE
330
1A
100
AcDbEntity
  8
SEIHIN
  6
CONTINUOUS
 62
     3
 48
5.0
100
AcDbSpline
210
0.0
220
0.0
230
1.0
 70
     8
 71
     3
 72
     9
 73
     5
 74
     0
 42
0.0000000001
 43
0.0000000001
 40
0.0
 40
0.0
 40
0.0
 40
0.0
 40
0.4911080352455355
 40
1.0
 40
1.0
 40
1.0
 40
1.0
 10
261.681521769644
 20
389.5752656645007
 30
0.0
 10
261.4186267563904
 20
389.5692127859752
 30
0.0
 10
260.8833168156313
 20
389.5568878430077
 30
0.0
 10
260.4227464461896
 20
389.472168279178
 30
0.0
 10
260.1883658859768
 20
389.4290551738874
 30
0.0
  0
SPLINE
  5
1CFF
330
1A
100
AcDbEntity
  8
SEIHIN
  6
CONTINUOUS
 62
     3
 48
5.0
100
AcDbSpline
210
0.0
220
0.0
230
1.0
 70
    24
 71
     1
 72
     4
 73
     2
 74
     0
 42
0.0000000001
 43
0.0000000001
 40
0.0
 40
0.0
 40
1.0
 40
1.0
 10
251.792239937984
 20
385.6123017716861
 30
0.0
 10
252.352345713497
 20
385.5752656645007
 30
0.0
  0
SPLINE
  5
1D00
330
1A
100
AcDbEntity
  8
SEIHIN
  6
CONTINUOUS
 62
     3
 48
5.0
100
AcDbSpline
210
0.0
220
0.0
230
1.0
 70
     8
 71
     3
 72
     9
 73
     5
 74
     0
 42
0.0000000001
 43
0.0000000001
 40
0.0
 40
0.0
 40
0.0
 40
0.0
 40
0.4935689599389895
 40
1.0
 40
1.0
 40
1.0
 40
1.0
 10
260.1883658859768
 20
389.4290551738874
 30
0.0
 10
259.9880460721177
 20
389.384971381831
 30
0.0
 10
259.5821862427561
 20
389.2956550033013
 30
0.0
 10
259.2715352861812
 20
389.2148502231918
 30
0.0
 10
259.1142119991469
 20
389.1739281743591
 30
0.0
  0
ELLIPSE
  5
1D01
330
1A
100
AcDbEntity
  8
SEIHIN
  6
CONTINUOUS
 62
     3
 48
5.0
100
AcDbEllipse
 10
249.579123976339
 20
395.5752656644822
 30
0.0
 11
-0.4667002759552901
 21
9.997984382718783
 31
0.0
210
0.0
220
0.0
230
1.0
 40
0.4301887921
 41
2.748821003798825
 42
3.057860049000541
  0
SPLINE
  5
1D02
330
1A
100
AcDbEntity
  8
SEIHIN
  6
CONTINUOUS
 62
     3
 48
5.0
100
AcDbSpline
210
0.0
220
0.0
230
1.0
 70
    24
 71
     1
 72
     4
 73
     2
 74
     0
 42
0.0000000001
 43
0.0000000001
 40
0.0
 40
0.0
 40
1.0
 40
1.0
 10
250.005511644306
 20
385.5752656645007
 30
0.0
 10
249.6844741592543
 20
385.5955181951234
 30
0.0
  0
ELLIPSE
  5
1D03
330
1A
100
AcDbEntity
  8
SEIHIN
  6
CONTINUOUS
 62
     3
 48
5.0
100
AcDbEllipse
 10
252.541643087439
 20
395.5752656644822
 30
0.0
 11
0.4667002759553328
 21
9.997984382718783
 31
0.0
210
0.0
220
0.0
230
1.0
 40
0.4301887921
 41
2.671459498521997
 42
3.075579124394923
  0
SPLINE
  5
1D06
330
1A
100
AcDbEntity
  8
SEIHIN
  6
CONTINUOUS
 62
     3
 48
5.0
100
AcDbSpline
210
0.0
220
0.0
230
1.0
 70
    24
 71
     1
 72
     4
 73
     2
 74
     0
 42
0.0000000001
 43
0.0000000001
 40
0.0
 40
0.0
 40
1.0
 40
1.0
 10
216.4805066003358
 20
399.5752656645005
 30
0.0
 10
216.5524240053272
 20
397.5158206397182
 30
0.0
  0
SPLINE
  5
1D08
330
1A
100
AcDbEntity
  8
SEIHIN
  6
CONTINUOUS
 62
     3
 48
5.0
100
AcDbSpline
210
0.0
220
0.0
230
1.0
 70
    24
 71
     1
 72
     4
 73
     2
 74
     0
 42
0.0000000001
 43
0.0000000001
 40
0.0
 40
0.0
 40
1.0
 40
1.0
 10
221.1822853189888
 20
385.5752656645004
 30
0.0
 10
220.9859956573188
 20
385.5849213805331
 30
0.0
  0
SPLINE
  5
1D09
330
1A
100
AcDbEntity
  8
SEIHIN
  6
CONTINUOUS
 62
     3
 48
5.0
100
AcDbSpline
210
0.0
220
0.0
230
1.0
 70
    24
 71
     1
 72
     4
 73
     2
 74
     0
 42
0.0000000001
 43
0.0000000001
 40
0.0
 40
0.0
 40
1.0
 40
1.0
 10
221.3846795676096
 20
385.5752656645004
 30
0.0
 10
221.1822853189888
 20
385.5752656645004
 30
0.0
  0
SPLINE
  5
1D0D
330
1A
100
AcDbEntity
  8
SEIHIN
  6
CONTINUOUS
 62
     3
 48
5.0
100
AcDbSpline
210
0.0
220
0.0
230
1.0
 70
     8
 71
     3
 72
    18
 73
    14
 74
     0
 42
0.0000000001
 43
0.0000000001
 40
0.0
 40
0.0
 40
0.0
 40
0.0
 40
0.1867638476405157
 40
0.3735863854532852
 40
0.5657326122840637
 40
0.7578912915758679
 40
0.9153394641140378
 40
0.9671767282753631
 40
0.9796492102832619
 40
0.9862832553776289
 40
0.9914841416044808
 40
0.9935985259195517
 40
1.0
 40
1.0
 40
1.0
 40
1.0
 10
219.3752695131783
 20
386.7181228073576
 30
0.0
 10
219.0751081971783
 20
387.3876325373962
 30
0.0
 10
218.4746912400744
 20
388.7268623895906
 30
0.0
 10
217.7688424677559
 20
390.7941189560071
 30
0.0
 10
217.2052714257466
 20
392.8986806393503
 30
0.0
 10
216.8244233061518
 20
394.9068326808238
 30
0.0
 10
216.6424251957114
 20
396.3849542758874
 30
0.0
 10
216.575059043991
 20
397.1881563257906
 30
0.0
 10
216.5596444809696
 20
397.3973165080589
 30
0.0
 10
216.5563745175521
 20
397.443032442512
 30
0.0
 10
216.5560377395134
 20
397.4477925822758
 30
0.0
 10
216.5567374544179
 20
397.4379426181063
 30
0.0
 10
216.5579611744318
 20
397.4209435057499
 30
0.0
 10
216.558881059614
 20
397.408165066738
 30
0.0
  0
SPLINE
  5
1D0F
330
1A
100
AcDbEntity
  8
SEIHIN
  6
CONTINUOUS
 62
     3
 48
5.0
100
AcDbSpline
210
0.0
220
0.0
230
1.0
 70
     8
 71
     3
 72
     9
 73
     5
 74
     0
 42
0.0000000001
 43
0.0000000001
 40
0.0
 40
0.0
 40
0.0
 40
0.0
 40
0.7158819291200472
 40
1.0
 40
1.0
 40
1.0
 40
1.0
 10
221.2671802695773
 20
399.5752656645004
 30
0.0
 10
221.2947245483836
 20
396.2344791608501
 30
0.0
 10
221.3332005563479
 20
391.5678066723338
 30
0.0
 10
221.3732895578416
 20
386.9011477850191
 30
0.0
 10
221.3846795676096
 20
385.5752656645004
 30
0.0
  0
SPLINE
  5
1D11
330
1A
100
AcDbEntity
  8
SEIHIN
  6
CONTINUOUS
 62
     3
 48
5.0
100
AcDbSpline
210
0.0
220
0.0
230
1.0
 70
     8
 71
     3
 72
     9
 73
     5
 74
     0
 42
0.0000000001
 43
0.0000000001
 40
0.0
 40
0.0
 40
0.0
 40
0.0
 40
0.5260465663826217
 40
1.0
 40
1.0
 40
1.0
 40
1.0
 10
221.4456671761189
 20
413.5752656645006
 30
0.0
 10
221.4133416498425
 20
411.1203939757565
 30
0.0
 10
221.3518917168094
 20
406.4537506676838
 30
0.0
 10
221.2941777595605
 20
401.787059816873
 30
0.0
 10
221.2668240313546
 20
399.5752656645004
 30
0.0
  0
SPLINE
  5
1D13
330
1A
100
AcDbEntity
  8
SEIHIN
  6
CONTINUOUS
 62
     3
 48
5.0
100
AcDbSpline
210
0.0
220
0.0
230
1.0
 70
    24
 71
     1
 72
     4
 73
     2
 74
     0
 42
0.0000000001
 43
0.0000000001
 40
0.0
 40
0.0
 40
1.0
 40
1.0
 10
216.6422473259877
 20
402.6614625586366
 30
0.0
 10
216.4805066003358
 20
399.5752656645005
 30
0.0
  0
SPLINE
  5
1D16
330
1A
100
AcDbEntity
  8
SEIHIN
  6
CONTINUOUS
 62
     3
 48
5.0
100
AcDbSpline
210
0.0
220
0.0
230
1.0
 70
    24
 71
     1
 72
     4
 73
     2
 74
     0
 42
0.0000000001
 43
0.0000000001
 40
0.0
 40
0.0
 40
1.0
 40
1.0
 10
262.8200074932992
 20
413.5626552211787
 30
0.0
 10
261.6970700415856
 20
413.5752656645007
 30
0.0
  0
SPLINE
  5
1D17
330
1A
100
AcDbEntity
  8
SEIHIN
  6
CONTINUOUS
 62
     3
 48
5.0
100
AcDbSpline
210
0.0
220
0.0
230
1.0
 70
    24
 71
     1
 72
     4
 73
     2
 74
     0
 42
0.0000000001
 43
0.0000000001
 40
0.0
 40
0.0
 40
1.0
 40
1.0
 10
261.6958919892782
 20
385.5752656645007
 30
0.0
 10
262.5755800265899
 20
385.5830036085817
 30
0.0
  0
SPLINE
  5
1D50
330
1A
100
AcDbEntity
  8
SEIHIN
  6
CONTINUOUS
 62
     3
 48
5.0
100
AcDbSpline
210
0.0
220
0.0
230
1.0
 70
     8
 71
     3
 72
    13
 73
     9
 74
     0
 42
0.0000000001
 43
0.0000000001
 40
0.0
 40
0.0
 40
0.0
 40
0.0
 40
0.0032579626972929
 40
0.2715279762175677
 40
0.5394361179783346
 40
0.6434430102876042
 40
0.9972103642253875
 40
1.0
 40
1.0
 40
1.0
 40
1.0
 10
219.3752695131783
 20
386.7181228073576
 30
0.0
 10
219.3761329422893
 20
386.7163072631769
 30
0.0
 10
219.4480936063355
 20
386.5649945923678
 30
0.0
 10
219.6298048195254
 20
386.2799500162222
 30
0.0
 10
219.9374681294333
 20
385.9937787460683
 30
0.0
 10
220.3592097990298
 20
385.7298858465706
 30
0.0
 10
220.6937264331902
 20
385.6140821345799
 30
0.0
 10
220.9837267485993
 20
385.5851477577349
 30
0.0
 10
220.9859956572951
 20
385.5849213805354
 30
0.0
  0
LINE
  5
1D5A
330
1A
100
AcDbEntity
  8
SEIHIN
  6
CONTINUOUS
 62
     3
 48
5.0
100
AcDbLine
 10
261.697070041539
 20
413.5752656644822
 30
0.0
 11
254.328675326639
 21
413.5752656644822
 31
0.0
  0
LINE
  5
1D5B
330
1A
100
AcDbEntity
  8
SEIHIN
  6
CONTINUOUS
 62
     3
 48
5.0
100
AcDbLine
 10
259.015982465239
 20
409.9679301001822
 30
0.0
 11
245.382799052739
 21
413.5752656644822
 31
0.0
  0
LINE
  5
1D5D
330
1A
100
AcDbEntity
  8
SEIHIN
  6
CONTINUOUS
 62
     3
 48
5.0
100
AcDbLine
 10
254.4924334658391
 20
385.5752656644821
 30
0.0
 11
261.695891989239
 21
385.5752656644821
 31
0.0
  0
LINE
  5
1D5E
330
1A
100
AcDbEntity
  8
SEIHIN
  6
CONTINUOUS
 62
     3
 48
5.0
100
AcDbLine
 10
245.829877756439
 20
385.5752656644821
 30
0.0
 11
259.1142119991391
 21
389.1739281743821
 31
0.0
  0
LINE
  5
1D60
330
1A
100
AcDbEntity
  8
SEIHIN
  6
CONTINUOUS
 62
     3
 48
5.0
100
AcDbLine
 10
244.041165081439
 20
399.5752656644821
 30
0.0
 11
243.773450857339
 21
385.5752656644821
 31
0.0
  0
LINE
  5
1D61
330
1A
100
AcDbEntity
  8
SEIHIN
  6
CONTINUOUS
 62
     3
 48
5.0
100
AcDbLine
 10
224.807685095339
 20
399.5752656644821
 30
0.0
 11
224.118602837439
 21
385.5752656644821
 31
0.0
  0
LINE
  5
1D63
330
1A
100
AcDbEntity
  8
SEIHIN
  6
CONTINUOUS
 62
     3
 48
5.0
100
AcDbLine
 10
239.5632944573391
 20
385.5752656644821
 30
0.0
 11
224.118602837439
 21
385.5752656644821
 31
0.0
  0
LINE
  5
1D64
330
1A
100
AcDbEntity
  8
SEIHIN
  6
CONTINUOUS
 62
     3
 48
5.0
100
AcDbLine
 10
224.118602837439
 20
385.5752656644821
 30
0.0
 11
222.119617196339
 21
385.5752656644821
 31
0.0
  0
LINE
  5
1D65
330
1A
100
AcDbEntity
  8
SEIHIN
  6
CONTINUOUS
 62
     3
 48
5.0
100
AcDbLine
 10
223.047046869239
 20
385.5752656644821
 30
0.0
 11
221.384679567639
 21
385.5752656644821
 31
0.0
  0
LINE
  5
1D66
330
1A
100
AcDbEntity
  8
SEIHIN
  6
CONTINUOUS
 62
     3
 48
5.0
100
AcDbLine
 10
223.546793279439
 20
385.5752656644821
 30
0.0
 11
223.047046869239
 21
385.5752656644821
 31
0.0
  0
LINE
  5
1D67
330
1A
100
AcDbEntity
  8
SEIHIN
  6
CONTINUOUS
 62
     3
 48
5.0
100
AcDbLine
 10
243.773450857339
 20
385.5752656644821
 30
0.0
 11
239.5632944573391
 21
385.5752656644821
 31
0.0
  0
LINE
  5
1D68
330
1A
100
AcDbEntity
  8
SEIHIN
  6
CONTINUOUS
 62
     3
 48
5.0
100
AcDbLine
 10
254.4924334658391
 20
385.5752656644821
 30
0.0
 11
252.352345713539
 21
385.5752656644821
 31
0.0
  0
LINE
  5
1D6A
330
1A
100
AcDbEntity
  8
SEIHIN
  6
CONTINUOUS
 62
     3
 48
5.0
100
AcDbLine
 10
251.792239937939
 20
385.6123017716822
 30
0.0
 11
251.829001448139
 21
387.2003995347822
 31
0.0
  0
LINE
  5
1D6B
330
1A
100
AcDbEntity
  8
SEIHIN
  6
CONTINUOUS
 62
     3
 48
5.0
100
AcDbLine
 10
245.829877756439
 20
385.5752656644821
 30
0.0
 11
243.773450857339
 21
385.5752656644821
 31
0.0
  0
LINE
  5
1D6C
330
1A
100
AcDbEntity
  8
SEIHIN
  6
CONTINUOUS
 62
     3
 48
5.0
100
AcDbLine
 10
252.352345713539
 20
385.5752656644821
 30
0.0
 11
250.0055116443391
 21
385.5752656644821
 31
0.0
  0
LINE
  5
1D6D
330
1A
100
AcDbEntity
  8
SEIHIN
  6
CONTINUOUS
 62
     3
 48
5.0
100
AcDbLine
 10
239.431317628639
 20
413.5752656644822
 30
0.0
 11
223.7713902695391
 21
413.5752656644822
 31
0.0
  0
LINE
  5
1D6F
330
1A
100
AcDbEntity
  8
SEIHIN
  6
CONTINUOUS
 62
     3
 48
5.0
100
AcDbLine
 10
223.7713902695391
 20
413.5752656644822
 30
0.0
 11
224.805540012039
 21
399.5752525235821
 31
0.0
  0
LINE
  5
1D77
330
1A
100
AcDbEntity
  8
SEIHIN
  6
CONTINUOUS
 62
     3
 48
5.0
100
AcDbLine
 10
223.201946154739
 20
413.5752656644822
 30
0.0
 11
223.7713902695391
 21
413.5752656644822
 31
0.0
  0
LINE
  5
1D78
330
1A
100
AcDbEntity
  8
SEIHIN
  6
CONTINUOUS
 62
     3
 48
5.0
100
AcDbLine
 10
222.7025168688391
 20
413.5752656644822
 30
0.0
 11
221.445667176139
 21
413.5752656644822
 31
0.0
  0
LINE
  5
1D79
330
1A
100
AcDbEntity
  8
SEIHIN
  6
CONTINUOUS
 62
     3
 48
5.0
100
AcDbLine
 10
222.7025168688391
 20
413.5752656644822
 30
0.0
 11
223.201946154739
 21
413.5752656644822
 31
0.0
  0
LINE
  5
1D7A
330
1A
100
AcDbEntity
  8
SEIHIN
  6
CONTINUOUS
 62
     3
 48
5.0
100
AcDbLine
 10
243.638266915539
 20
413.5752656644822
 30
0.0
 11
244.0400424449391
 21
399.5752656644821
 31
0.0
  0
LINE
  5
1D7E
330
1A
100
AcDbEntity
  8
SEIHIN
  6
CONTINUOUS
 62
     3
 48
5.0
100
AcDbLine
 10
239.431317628639
 20
413.5752656644822
 30
0.0
 11
243.638266915539
 21
413.5752656644822
 31
0.0
  0
LINE
  5
1D7F
330
1A
100
AcDbEntity
  8
SEIHIN
  6
CONTINUOUS
 62
     3
 48
5.0
100
AcDbLine
 10
251.986677164839
 20
413.5752656644822
 30
0.0
 11
254.328675326639
 21
413.5752656644822
 31
0.0
  0
LINE
  5
1D80
330
1A
100
AcDbEntity
  8
SEIHIN
  6
CONTINUOUS
 62
     3
 48
5.0
100
AcDbLine
 10
251.6876370712391
 20
411.9070077291821
 30
0.0
 11
251.6303421581389
 21
413.5562634635822
 31
0.0
  0
LINE
  5
1D82
330
1A
100
AcDbEntity
  8
SEIHIN
  6
CONTINUOUS
 62
     3
 48
5.0
100
AcDbLine
 10
245.382799052739
 20
413.5752656644822
 30
0.0
 11
243.638266915539
 21
413.5752656644822
 31
0.0
  0
LINE
  5
1D83
330
1A
100
AcDbEntity
  8
SEIHIN
  6
CONTINUOUS
 62
     3
 48
5.0
100
AcDbLine
 10
250.315458126039
 20
413.5752656644822
 30
0.0
 11
251.986677164839
 21
413.5752656644822
 31
0.0
  0
LINE
  5
1D85
330
1A
100
AcDbEntity
  8
SEIHIN
  6
CONTINUOUS
 62
     3
 48
5.0
100
AcDbLine
 10
373.0804403208389
 20
436.5752656644822
 30
0.0
 11
373.0804403208389
 21
362.5752656644822
 31
0.0
  0
LINE
  5
1D86
330
1A
100
AcDbEntity
  8
SEIHIN
  6
CONTINUOUS
 62
     3
 48
5.0
100
AcDbLine
 10
358.577522124439
 20
416.4252656644824
 30
0.0
 11
358.577522124439
 21
382.725265664482
 31
0.0
  0
LINE
  5
1D94
330
1A
100
AcDbEntity
  8
SEIHIN
  6
CONTINUOUS
 62
     3
 48
5.0
100
AcDbLine
 10
348.5775221244391
 20
416.4252656644824
 30
0.0
 11
348.577522124439
 21
382.7252656644821
 31
0.0
  0
LINE
  5
1D96
330
1A
100
AcDbEntity
  8
SEIHIN
  6
CONTINUOUS
 62
     3
 48
5.0
100
AcDbLine
 10
353.577522124439
 20
416.4252656644823
 30
0.0
 11
353.577522124439
 21
382.7252656644821
 31
0.0
  0
LINE
  5
1D97
330
1A
100
AcDbEntity
  8
SEIHIN
  6
CONTINUOUS
 62
     3
 48
5.0
100
AcDbLine
 10
350.657852613339
 20
382.7252656644822
 30
0.0
 11
350.657852613339
 21
416.4252656644823
 31
0.0
  0
LINE
  5
1D9A
330
1A
100
AcDbEntity
  8
SEIHIN
  6
CONTINUOUS
 62
     3
 48
5.0
100
AcDbLine
 10
301.370026524539
 20
413.8252656644822
 30
0.0
 11
301.370026524539
 21
385.3252656644821
 31
0.0
  0
LINE
  5
1D9B
330
1A
100
AcDbEntity
  8
SEIHIN
  6
CONTINUOUS
 62
     3
 48
5.0
100
AcDbLine
 10
274.080440320839
 20
415.8252656644822
 30
0.0
 11
274.080440320839
 21
383.3252656644821
 31
0.0
  0
LINE
  5
1D9C
330
1A
100
AcDbEntity
  8
SEIHIN
  6
CONTINUOUS
 62
     3
 48
5.0
100
AcDbLine
 10
290.824792303139
 20
413.8252656644822
 30
0.0
 11
290.824792303139
 21
385.3252656644821
 31
0.0
  0
LINE
  5
1DA0
330
1A
100
AcDbEntity
  8
SEIHIN
  6
CONTINUOUS
 62
     3
 48
5.0
100
AcDbLine
 10
345.6578526133391
 20
382.7252656644822
 30
0.0
 11
345.6578526133388
 21
416.4252656644823
 31
0.0
  0
LINE
  5
1DA2
330
1A
100
AcDbEntity
  8
SEIHIN
  6
CONTINUOUS
 62
     3
 48
5.0
100
AcDbLine
 10
355.6578526133391
 20
382.7252656644822
 30
0.0
 11
355.6578526133389
 21
416.4252656644823
 31
0.0
  0
LINE
  5
1DA3
330
1A
100
AcDbEntity
  8
SEIHIN
  6
CONTINUOUS
 62
     3
 48
5.0
100
AcDbLine
 10
345.6578526133391
 20
383.3252656644821
 30
0.0
 11
309.3718594641391
 21
383.3252656644821
 31
0.0
  0
LINE
  5
1DAB
330
1A
100
AcDbEntity
  8
SEIHIN
  6
CONTINUOUS
 62
     3
 48
5.0
100
AcDbLine
 10
290.824792303139
 20
385.3252656644821
 30
0.0
 11
290.824792303139
 21
383.3252656644821
 31
0.0
  0
ARC
  5
1DAE
330
1A
100
AcDbEntity
  8
SEIHIN
  6
CONTINUOUS
 62
     3
 48
5.0
100
AcDbCircle
 10
303.288548001039
 20
385.2434457471821
 30
0.0
 40
1.920265386555165
100
AcDbArc
 50
177.5579648382998
 51
267.329571268897
  0
LINE
  5
1DAF
330
1A
100
AcDbEntity
  8
SEIHIN
  6
CONTINUOUS
 62
     3
 48
5.0
100
AcDbLine
 10
309.3718594641391
 20
383.3252656644821
 30
0.0
 11
274.080440320839
 21
383.3252656644821
 31
0.0
  0
ARC
  5
1DB1
330
1A
100
AcDbEntity
  8
SEIHIN
  6
CONTINUOUS
 62
     3
 48
5.0
100
AcDbCircle
 10
367.0804403208389
 20
364.5752656644822
 30
0.0
 40
2.0
100
AcDbArc
 50
180.0
 51
270.0
  0
LINE
  5
1DB4
330
1A
100
AcDbEntity
  8
SEIHIN
  6
CONTINUOUS
 62
     3
 48
5.0
100
AcDbLine
 10
373.0804403208389
 20
362.5752656644822
 30
0.0
 11
367.0804403208389
 21
362.5752656644822
 31
0.0
  0
LINE
  5
1DB5
330
1A
100
AcDbEntity
  8
SEIHIN
  6
CONTINUOUS
 62
     3
 48
5.0
100
AcDbLine
 10
365.0804403208391
 20
372.5752656644822
 30
0.0
 11
365.0804403208391
 21
380.3252656644822
 31
0.0
  0
LINE
  5
1DB9
330
1A
100
AcDbEntity
  8
SEIHIN
  6
CONTINUOUS
 62
     3
 48
5.0
100
AcDbLine
 10
365.0804403208391
 20
364.5752656644822
 30
0.0
 11
365.0804403208391
 21
372.5752656644822
 31
0.0
  0
LINE
  5
1DBA
330
1A
100
AcDbEntity
  8
SEIHIN
  6
CONTINUOUS
 62
     3
 48
5.0
100
AcDbLine
 10
362.0804403208391
 20
383.3252656644821
 30
0.0
 11
358.555036990039
 21
383.3252656644821
 31
0.0
  0
LINE
  5
1DD1
330
1A
100
AcDbEntity
  8
SEIHIN
  6
CONTINUOUS
 62
     3
 48
5.0
100
AcDbLine
 10
355.605843651639
 20
383.3252656644821
 30
0.0
 11
353.5775221244391
 21
383.3252656644821
 31
0.0
  0
LINE
  5
1DDB
330
1A
100
AcDbEntity
  8
SEIHIN
  6
CONTINUOUS
 62
     3
 48
5.0
100
AcDbLine
 10
358.577522124439
 20
382.725265664482
 30
0.0
 11
355.6578526133391
 21
382.7252656644822
 31
0.0
  0
LINE
  5
1DE1
330
1A
100
AcDbEntity
  8
SEIHIN
  6
CONTINUOUS
 62
     3
 48
5.0
100
AcDbLine
 10
350.657852613339
 20
383.3252656644821
 30
0.0
 11
348.577522124439
 21
383.3252656644821
 31
0.0
  0
LINE
  5
1DEB
330
1A
100
AcDbEntity
  8
SEIHIN
  6
CONTINUOUS
 62
     3
 48
5.0
100
AcDbLine
 10
348.577522124439
 20
382.7252656644821
 30
0.0
 11
345.6578526133391
 21
382.7252656644822
 31
0.0
  0
LINE
  5
1DF3
330
1A
100
AcDbEntity
  8
SEIHIN
  6
CONTINUOUS
 62
     3
 48
5.0
100
AcDbLine
 10
353.577522124439
 20
382.7252656644821
 30
0.0
 11
350.657852613339
 21
382.7252656644822
 31
0.0
  0
ARC
  5
1DFA
330
1A
100
AcDbEntity
  8
SEIHIN
  6
CONTINUOUS
 62
     3
 48
5.0
100
AcDbCircle
 10
362.0804403208391
 20
380.3252656644822
 30
0.0
 40
2.999999999999968
100
AcDbArc
 50
51.9294552612002
 51
90.0
  0
ARC
  5
1DFD
330
1A
100
AcDbEntity
  8
SEIHIN
  6
CONTINUOUS
 62
     3
 48
5.0
100
AcDbCircle
 10
362.0804403208391
 20
380.3252656644822
 30
0.0
 40
3.0
100
AcDbArc
 50
0.0
 51
51.9294552612002
  0
LINE
  5
1DFF
330
1A
100
AcDbEntity
  8
SEIHIN
  6
CONTINUOUS
 62
     3
 48
5.0
100
AcDbLine
 10
274.080440320839
 20
415.8252656644822
 30
0.0
 11
345.6578526133387
 21
415.8252656644823
 31
0.0
  0
LINE
  5
1E02
330
1A
100
AcDbEntity
  8
SEIHIN
  6
CONTINUOUS
 62
     3
 48
5.0
100
AcDbLine
 10
290.824792303139
 20
415.8252656644823
 30
0.0
 11
290.824792303139
 21
413.8252656644822
 31
0.0
  0
ARC
  5
1E04
330
1A
100
AcDbEntity
  8
SEIHIN
  6
CONTINUOUS
 62
     3
 48
5.0
100
AcDbCircle
 10
303.288548001039
 20
413.9070855818822
 30
0.0
 40
1.920265386555102
100
AcDbArc
 50
92.67042873110302
 51
182.4420351617001
  0
ARC
  5
1E06
330
1A
100
AcDbEntity
  8
SEIHIN
  6
CONTINUOUS
 62
     3
 48
5.0
100
AcDbCircle
 10
284.080440320839
 20
399.5752656644822
 30
0.0
 40
5.0
100
AcDbArc
 50
180.0
 51
0.0
  0
ARC
  5
1E07
330
1A
100
AcDbEntity
  8
SEIHIN
  6
CONTINUOUS
 62
     3
 48
5.0
100
AcDbCircle
 10
284.080440320839
 20
399.5752656644822
 30
0.0
 40
5.0
100
AcDbArc
 50
0.0
 51
180.0
  0
LINE
  5
1E08
330
1A
100
AcDbEntity
  8
CENTER_L
  6
CENTER
 62
     1
 48
5.0
100
AcDbLine
 10
284.0805403208389
 20
392.0838656644822
 30
0.0
 11
284.0805403208389
 21
406.6958656644821
 31
0.0
  0
LINE
  5
1E0A
330
1A
100
AcDbEntity
  8
SEIHIN
  6
CONTINUOUS
 62
     3
 48
5.0
100
AcDbLine
 10
259.314233712139
 20
399.5752656644821
 30
0.0
 11
259.015982465239
 21
409.9679301001822
 31
0.0
  0
LINE
  5
1E0B
330
1A
100
AcDbEntity
  8
SEIHIN
  6
CONTINUOUS
 62
     3
 48
5.0
100
AcDbLine
 10
269.836959468639
 20
396.8084179949821
 30
0.0
 11
274.080440320839
 21
396.8101101313822
 31
0.0
  0
LINE
  5
1E0D
330
1A
100
AcDbEntity
  8
SEIHIN
  6
CONTINUOUS
 62
     3
 48
5.0
100
AcDbLine
 10
274.080440320839
 20
389.5752656644821
 30
0.0
 11
263.332042953039
 21
389.5752656644821
 31
0.0
  0
LINE
  5
1E0F
330
1A
100
AcDbEntity
  8
SEIHIN
  6
CONTINUOUS
 62
     3
 48
5.0
100
AcDbLine
 10
267.086959468639
 20
399.5735498094821
 30
0.0
 11
267.086959468639
 21
399.5752656644821
 31
0.0
  0
LINE
  5
1E10
330
1A
100
AcDbEntity
  8
SEIHIN
  6
CONTINUOUS
 62
     3
 48
5.0
100
AcDbLine
 10
267.086959468639
 20
399.5782680735821
 30
0.0
 11
267.086959468639
 21
399.5752656644821
 31
0.0
  0
LINE
  5
1E14
330
1A
100
AcDbEntity
  8
SEIHIN
  6
CONTINUOUS
 62
     3
 48
5.0
100
AcDbLine
 10
259.1142119991391
 20
389.1739281743821
 30
0.0
 11
259.313110998839
 21
399.5752656644821
 31
0.0
  0
LINE
  5
1E15
330
1A
100
AcDbEntity
  8
SEIHIN
  6
CONTINUOUS
 62
     3
 48
5.0
100
AcDbLine
 10
263.332042953039
 20
389.5752656644821
 30
0.0
 11
261.681521769639
 21
389.5752656644821
 31
0.0
  0
LINE
  5
1E16
330
1A
100
AcDbEntity
  8
SEIHIN
  6
CONTINUOUS
 62
     3
 48
5.0
100
AcDbLine
 10
274.080440320839
 20
409.5752656644822
 30
0.0
 11
263.2342005329391
 21
409.5752656644822
 31
0.0
  0
LINE
  5
1E17
330
1A
100
AcDbEntity
  8
SEIHIN
  6
CONTINUOUS
 62
     3
 48
5.0
100
AcDbLine
 10
269.836959468639
 20
402.3422096109821
 30
0.0
 11
274.080440320839
 21
402.340507804782
 31
0.0
  0
LINE
  5
1E19
330
1A
100
AcDbEntity
  8
SEIHIN
  6
CONTINUOUS
 62
     3
 48
5.0
100
AcDbLine
 10
261.5680215172389
 20
409.5752656644822
 30
0.0
 11
263.2342005329391
 21
409.5752656644822
 31
0.0
  0
LINE
  5
1E37
330
1A
100
AcDbEntity
  8
SEIHIN
  6
CONTINUOUS
 62
     3
 48
5.0
100
AcDbLine
 10
365.0804403208391
 20
426.5752656644823
 30
0.0
 11
365.0804403208391
 21
434.5752656644823
 31
0.0
  0
LINE
  5
1E38
330
1A
100
AcDbEntity
  8
SEIHIN
  6
CONTINUOUS
 62
     3
 48
5.0
100
AcDbLine
 10
358.5775221244391
 20
415.8252656644823
 30
0.0
 11
362.0804403208391
 21
415.8252656644823
 31
0.0
  0
LINE
  5
1E3F
330
1A
100
AcDbEntity
  8
SEIHIN
  6
CONTINUOUS
 62
     3
 48
5.0
100
AcDbLine
 10
353.5775221244391
 20
415.8252656644823
 30
0.0
 11
355.6578526133389
 21
415.8252656644823
 31
0.0
  0
LINE
  5
1E47
330
1A
100
AcDbEntity
  8
SEIHIN
  6
CONTINUOUS
 62
     3
 48
5.0
100
AcDbLine
 10
355.6578526133389
 20
416.4252656644823
 30
0.0
 11
358.577522124439
 21
416.4252656644824
 31
0.0
  0
LINE
  5
1E4D
330
1A
100
AcDbEntity
  8
SEIHIN
  6
CONTINUOUS
 62
     3
 48
5.0
100
AcDbLine
 10
348.577522124439
 20
415.8252656644823
 30
0.0
 11
350.6578526133389
 21
415.8252656644823
 31
0.0
  0
LINE
  5
1E51
330
1A
100
AcDbEntity
  8
SEIHIN
  6
CONTINUOUS
 62
     3
 48
5.0
100
AcDbLine
 10
345.6578526133388
 20
416.4252656644823
 30
0.0
 11
348.5775221244391
 21
416.4252656644824
 31
0.0
  0
LINE
  5
1E56
330
1A
100
AcDbEntity
  8
SEIHIN
  6
CONTINUOUS
 62
     3
 48
5.0
100
AcDbLine
 10
350.657852613339
 20
416.4252656644823
 30
0.0
 11
353.577522124439
 21
416.4252656644823
 31
0.0
  0
ARC
  5
1E68
330
1A
100
AcDbEntity
  8
SEIHIN
  6
CONTINUOUS
 62
     3
 48
5.0
100
AcDbCircle
 10
362.0804403208391
 20
418.8252656644822
 30
0.0
 40
2.999999999999968
100
AcDbArc
 50
308.0705447387998
 51
0.0
  0
ARC
  5
1E69
330
1A
100
AcDbEntity
  8
SEIHIN
  6
CONTINUOUS
 62
     3
 48
5.0
100
AcDbCircle
 10
362.0804403208391
 20
418.8252656644822
 30
0.0
 40
2.999999999999943
100
AcDbArc
 50
270.0
 51
308.0705447387998
  0
LINE
  5
1E6B
330
1A
100
AcDbEntity
  8
SEIHIN
  6
CONTINUOUS
 62
     3
 48
5.0
100
AcDbLine
 10
365.0804403208391
 20
418.8252656644822
 30
0.0
 11
365.0804403208391
 21
426.5752656644823
 31
0.0
  0
ARC
  5
1E6D
330
1A
100
AcDbEntity
  8
SEIHIN
  6
CONTINUOUS
 62
     3
 48
5.0
100
AcDbCircle
 10
367.0804403208389
 20
434.5752656644823
 30
0.0
 40
2.000000000000056
100
AcDbArc
 50
90.0
 51
180.0
  0
LINE
  5
1E6E
330
1A
100
AcDbEntity
  8
SEIHIN
  6
CONTINUOUS
 62
     3
 48
5.0
100
AcDbLine
 10
367.0804403208389
 20
436.5752656644822
 30
0.0
 11
373.0804403208389
 21
436.5752656644822
 31
0.0
  0
LINE
  5
1E9F
330
1A
100
AcDbEntity
  8
CENTER_L
  6
CENTER
 62
     1
 48
5.0
100
AcDbLine
 10
206.8644291119604
 20
399.5752656645005
 30
0.0
 11
386.7626291119604
 21
399.5752656645005
 31
0.0
  0
LINE
  5
1EF9
330
1A
100
AcDbEntity
  8
CENTER_L
  6
CONTINUOUS
 62
     1
 48
5.0
100
AcDbLine
 10
533.1196126268123
 20
214.0030890218219
 30
0.0
 11
533.1196126268123
 21
228.2026496837709
 31
0.0
  0
LINE
  5
1EFA
330
1A
100
AcDbEntity
  8
CENTER_L
  6
CENTER
 62
     1
 48
5.0
100
AcDbLine
 10
528.139271949793
 20
219.2049996608931
 30
0.0
 11
538.0934906934089
 21
219.2049996608931
 31
0.0
  0
LINE
  5
1EFB
330
1A
100
AcDbEntity
  8
CENTER_L
  6
CENTER
 62
     1
 48
5.0
100
AcDbLine
 10
529.2351516589501
 20
223.6845193259931
 30
0.0
 11
537.0584953695397
 21
223.6845193259931
 31
0.0
  0
LINE
  5
1EFC
330
1A
100
AcDbEntity
  8
CENTER_L
  6
CONTINUOUS
 62
     1
 48
5.0
100
AcDbLine
 10
591.1196126268123
 20
214.0030890218219
 30
0.0
 11
591.1196126268123
 21
228.2026496837709
 31
0.0
  0
LINE
  5
1EFD
330
1A
100
AcDbEntity
  8
CENTER_L
  6
CENTER
 62
     1
 48
5.0
100
AcDbLine
 10
587.2351516589501
 20
223.6845193259931
 30
0.0
 11
595.0584953695397
 21
223.6845193259931
 31
0.0
  0
LINE
  5
1EFE
330
1A
100
AcDbEntity
  8
CENTER_L
  6
CENTER
 62
     1
 48
5.0
100
AcDbLine
 10
586.139271949793
 20
219.2049996608931
 30
0.0
 11
596.0934906934089
 21
219.2049996608931
 31
0.0
  0
DIMENSION
  5
1EFF
330
1A
100
AcDbEntity
  8
SUNPOU
 48
5.0
100
AcDbDimension
  2
*D2
 10
591.1196126268123
 20
293.8248329372604
 30
0.0
 11
562.1196126268123
 21
298.8248329372604
 31
0.0
 70
    32
  3
STANDARD
100
AcDbAlignedDimension
 13
533.1196126268123
 23
228.2026496837709
 33
0.0
 14
591.1196126268123
 24
228.2026496837709
 34
0.0
100
AcDbRotatedDimension
1001
ACAD
1000
DSTYLE
1002
{
1070
    41
1040
7.0
1070
    42
1040
6.0
1070
    43
1040
14.0
1070
    44
1040
3.0
1070
    73
1070
     0
1070
    74
1070
     0
1070
    77
1070
     3
1070
   140
1040
6.0
1070
   141
1040
150.0
1070
   147
1040
2.0
1070
   172
1070
     1
1070
   173
1070
     1
1070
   176
1070
     4
1070
   177
1070
     4
1070
   178
1070
     4
1070
   271
1070
     0
1070
   272
1070
     2
1070
     6
1000
OPEN
1070
     7
1000
OPEN
1002
}
  0
DIMENSION
  5
1F15
330
1A
100
AcDbEntity
  8
SUNPOU
 48
5.0
100
AcDbDimension
  2
*D3
 10
418.1030517495182
 20
362.5752656644821
 30
0.0
 11
413.1030517495181
 21
399.5752656644823
 31
0.0
 70
    32
  3
STANDARD
100
AcDbAlignedDimension
 13
373.0804403208389
 23
436.5752656644822
 33
0.0
 14
373.0804403208389
 24
362.5752656644822
 34
0.0
 50
90.0
100
AcDbRotatedDimension
1001
ACAD
1000
DSTYLE
1002
{
1070
    41
1040
7.0
1070
    42
1040
6.0
1070
    43
1040
14.0
1070
    44
1040
3.0
1070
    73
1070
     0
1070
    74
1070
     0
1070
    77
1070
     3
1070
   140
1040
6.0
1070
   141
1040
150.0
1070
   147
1040
2.0
1070
   172
1070
     1
1070
   173
1070
     1
1070
   176
1070
     4
1070
   177
1070
     4
1070
   178
1070
     4
1070
   271
1070
     0
1070
   272
1070
     2
1070
     6
1000
OPEN
1070
     7
1000
OPEN
1002
}
  0
DIMENSION
  5
1F2B
330
1A
100
AcDbEntity
  8
SUNPOU
 48
5.0
100
AcDbDimension
  2
*D4
 10
172.2468711136071
 20
385.5752656645004
 30
0.0
 11
167.2468711136071
 21
399.5699624379166
 31
0.0
 70
    32
  3
STANDARD
100
AcDbAlignedDimension
 13
220.9765833116518
 23
413.5646592113327
 33
0.0
 14
221.1822853189888
 24
385.5752656645004
 34
0.0
 50
90.0
100
AcDbRotatedDimension
1001
ACAD
1000
DSTYLE
1002
{
1070
    41
1040
7.0
1070
    42
1040
6.0
1070
    43
1040
14.0
1070
    44
1040
3.0
1070
    73
1070
     0
1070
    74
1070
     0
1070
    77
1070
     3
1070
   140
1040
6.0
1070
   141
1040
150.0
1070
   147
1040
2.0
1070
   172
1070
     1
1070
   173
1070
     1
1070
   176
1070
     4
1070
   177
1070
     4
1070
   178
1070
     4
1070
   271
1070
     0
1070
   272
1070
     2
1070
     6
1000
OPEN
1070
     7
1000
OPEN
1002
}
  0
LINE
  5
1F4A
330
1A
100
AcDbEntity
  8
CENTER_L
  6
CENTER
 62
     1
 48
5.0
100
AcDbLine
 10
358.6098277282043
 20
428.5752656645005
 30
0.0
 11
380.7044741520542
 21
428.5752656645006
 31
0.0
  0
LINE
  5
1F4B
330
1A
100
AcDbEntity
  8
CENTER_L
  6
CENTER
 62
     1
 48
5.0
100
AcDbLine
 10
358.6098277282043
 20
370.5752656645005
 30
0.0
 11
380.7044741520542
 21
370.5752656645005
 31
0.0
  0
DIMENSION
  5
2080
330
1A
100
AcDbEntity
  8
SUNPOU
 48
5.0
100
AcDbDimension
  2
*D5
 10
373.0804403208389
 20
278.7260979661866
 30
0.0
 11
361.330440060139
 21
283.7260979661866
 31
0.0
 70
    32
  3
STANDARD
100
AcDbAlignedDimension
 13
349.580439799439
 23
203.2886310673931
 33
0.0
 14
373.0804403208389
 24
232.6845193259931
 34
0.0
100
AcDbRotatedDimension
1001
ACAD
1000
DSTYLE
1002
{
1070
    41
1040
7.0
1070
    42
1040
6.0
1070
    43
1040
14.0
1070
    44
1040
3.0
1070
    73
1070
     0
1070
    74
1070
     0
1070
    77
1070
     3
1070
   140
1040
6.0
1070
   141
1040
150.0
1070
   147
1040
2.0
1070
   172
1070
     1
1070
   173
1070
     1
1070
   176
1070
     4
1070
   177
1070
     4
1070
   178
1070
     4
1070
   271
1070
     0
1070
   272
1070
     2
1070
     6
1000
OPEN
1070
     7
1000
OPEN
1002
}
  0
DIMENSION
  5
208D
330
1A
100
AcDbEntity
  8
SUNPOU
 48
5.0
100
AcDbDimension
  2
*D6
 10
373.0804403208389
 20
293.8248329372604
 30
0.0
 11
323.580440320839
 21
298.8248329372604
 31
0.0
 70
    32
  3
STANDARD
100
AcDbAlignedDimension
 13
274.080440320839
 23
205.6845193259931
 33
0.0
 14
373.0804403208389
 24
238.6845193259931
 34
0.0
100
AcDbRotatedDimension
1001
ACAD
1000
DSTYLE
1002
{
1070
    41
1040
7.0
1070
    42
1040
6.0
1070
    43
1040
14.0
1070
    44
1040
3.0
1070
    73
1070
     0
1070
    74
1070
     0
1070
    77
1070
     3
1070
   140
1040
6.0
1070
   141
1040
150.0
1070
   147
1040
2.0
1070
   172
1070
     1
1070
   173
1070
     1
1070
   176
1070
     4
1070
   177
1070
     4
1070
   178
1070
     4
1070
   271
1070
     0
1070
   272
1070
     2
1070
     6
1000
OPEN
1070
     7
1000
OPEN
1002
}
  0
DIMENSION
  5
209A
330
1A
100
AcDbEntity
  8
SUNPOU
 48
5.0
100
AcDbDimension
  2
*D7
 10
216.4805066003656
 20
308.1288965983205
 30
0.0
 11
294.7804734606023
 21
313.1288965983205
 31
0.0
 70
    32
  3
STANDARD
100
AcDbAlignedDimension
 13
373.0804403208389
 23
244.6845193259931
 33
0.0
 14
216.4805066003656
 24
229.6946507231931
 34
0.0
100
AcDbRotatedDimension
1001
ACAD
1000
DSTYLE
1002
{
1070
    41
1040
7.0
1070
    42
1040
6.0
1070
    43
1040
14.0
1070
    44
1040
3.0
1070
    73
1070
     0
1070
    74
1070
     0
1070
    77
1070
     3
1070
   140
1040
6.0
1070
   141
1040
150.0
1070
   147
1040
2.0
1070
   172
1070
     1
1070
   173
1070
     1
1070
   176
1070
     4
1070
   177
1070
     4
1070
   178
1070
     4
1070
   271
1070
     0
1070
   272
1070
     2
1070
     6
1000
OPEN
1070
     7
1000
OPEN
1002
}
  0
DIMENSION
  5
20E1
330
1A
100
AcDbEntity
  8
SUNPOU
 48
5.0
100
AcDbDimension
  2
*D8
 10
418.1030517495182
 20
158.6845193259931
 30
0.0
 11
413.1030517495181
 21
195.6845193259932
 31
0.0
 70
    32
  3
STANDARD
100
AcDbAlignedDimension
 13
373.0804403208389
 23
232.6845193259931
 33
0.0
 14
373.0804403208389
 24
158.6845193259931
 34
0.0
 50
90.0
100
AcDbRotatedDimension
1001
ACAD
1000
DSTYLE
1002
{
1070
    41
1040
7.0
1070
    42
1040
6.0
1070
    43
1040
14.0
1070
    44
1040
3.0
1070
    73
1070
     0
1070
    74
1070
     0
1070
    77
1070
     3
1070
   140
1040
6.0
1070
   141
1040
150.0
1070
   147
1040
2.0
1070
   172
1070
     1
1070
   173
1070
     1
1070
   176
1070
     4
1070
   177
1070
     4
1070
   178
1070
     4
1070
   271
1070
     0
1070
   272
1070
     2
1070
     6
1000
OPEN
1070
     7
1000
OPEN
1002
}
  0
DIMENSION
  5
212F
330
1A
100
AcDbEntity
  8
SUNPOU
 48
5.0
100
AcDbDimension
  2
*D9
 10
373.0804403208389
 20
126.409736578315
 30
0.0
 11
368.830440320839
 21
131.409736578315
 31
0.0
 70
    32
  3
STANDARD
100
AcDbAlignedDimension
 13
364.5804403208391
 23
160.6863484698932
 33
0.0
 14
373.0804403208389
 24
158.9630518855931
 34
0.0
100
AcDbRotatedDimension
1001
ACAD
1000
DSTYLE
1002
{
1070
    41
1040
7.0
1070
    42
1040
6.0
1070
    43
1040
14.0
1070
    44
1040
3.0
1070
    73
1070
     0
1070
    74
1070
     0
1070
    77
1070
     3
1070
   140
1040
6.0
1070
   141
1040
150.0
1070
   147
1040
2.0
1070
   172
1070
     1
1070
   173
1070
     1
1070
   176
1070
     4
1070
   177
1070
     4
1070
   178
1070
     4
1070
   271
1070
     0
1070
   272
1070
     2
1070
     6
1000
OPEN
1070
     7
1000
OPEN
1002
}
  0
DIMENSION
  5
2149
330
1A
100
AcDbEntity
  8
SUNPOU
 48
5.0
100
AcDbDimension
  2
*D10
 10
172.246871113607
 20
158.6845193259932
 30
0.0
 11
167.246871113607
 21
197.4345193259932
 31
0.0
 70
    32
  3
STANDARD
100
AcDbAlignedDimension
 13
223.7366656406391
 23
236.1845193259931
 33
0.0
 14
369.830440320839
 24
158.6845193259931
 34
0.0
 50
90.0
100
AcDbRotatedDimension
1001
ACAD
1000
DSTYLE
1002
{
1070
    41
1040
7.0
1070
    42
1040
6.0
1070
    43
1040
14.0
1070
    44
1040
3.0
1070
    73
1070
     0
1070
    74
1070
     0
1070
    77
1070
     3
1070
   140
1040
6.0
1070
   141
1040
150.0
1070
   147
1040
2.0
1070
   172
1070
     1
1070
   173
1070
     1
1070
   176
1070
     4
1070
   177
1070
     4
1070
   178
1070
     4
1070
   271
1070
     0
1070
   272
1070
     2
1070
     6
1000
OPEN
1070
     7
1000
OPEN
1002
}
  0
LINE
  5
2168
330
1A
100
AcDbEntity
  8
CENTER_L
  6
CONTINUOUS
 62
     1
 48
5.0
100
AcDbLine
 10
562.1196126268123
 20
161.9230860268044
 30
0.0
 11
562.1196126268123
 21
170.1202054141408
 31
0.0
  0
LINE
  5
2169
330
1A
100
AcDbEntity
  8
CENTER_L
  6
CONTINUOUS
 62
     1
 48
5.0
100
AcDbLine
 10
557.8505521712563
 20
165.9345193259931
 30
0.0
 11
566.5883496491651
 21
165.9345193259931
 31
0.0
  0
LINE
  5
216D
330
1A
100
AcDbEntity
  8
CENTER_L
  6
CENTER
 62
     1
 48
5.0
100
AcDbLine
 10
362.5776572334912
 20
223.6845193259931
 30
0.0
 11
377.5594860465876
 21
223.6845193259931
 31
0.0
  0
LINE
  5
216E
330
1A
100
AcDbEntity
  8
CENTER_L
  6
CENTER
 62
     1
 48
5.0
100
AcDbLine
 10
362.5776572334912
 20
219.2049996608931
 30
0.0
 11
377.5594860465876
 21
219.2049996608931
 31
0.0
  0
LINE
  5
216F
330
1A
100
AcDbEntity
  8
CENTER_L
  6
CONTINUOUS
 62
     1
 48
5.0
100
AcDbLine
 10
362.5776572334912
 20
165.9345193259931
 30
0.0
 11
377.5594860465876
 21
165.9345193259931
 31
0.0
  0
ELLIPSE
  5
2172
330
1A
100
AcDbEntity
  8
SEIHIN
  6
CONTINUOUS
 62
     3
 48
5.0
100
AcDbEllipse
 10
573.9876466156125
 20
226.3164853371931
 30
0.0
 11
-1.010362971081804
 21
1.01036297108186
 31
0.0
210
0.0
220
0.0
230
-0.9999999999999998
 40
0.6998542122
 41
5.598466104177319
 42
6.967904510181852
  0
ELLIPSE
  5
2173
330
1A
100
AcDbEntity
  8
SEIHIN
  6
CONTINUOUS
 62
     3
 48
5.0
100
AcDbEllipse
 10
582.1120359539125
 20
226.3164853371931
 30
0.0
 11
-1.01036297108186
 21
-1.010362971081832
 31
0.0
210
0.0
220
0.0
230
-1.0
 40
0.6998542121999999
 41
2.4568734505875
 42
3.826311856592068
  0
LINE
  5
2174
330
1A
100
AcDbEntity
  8
SEIHIN
  6
CONTINUOUS
 62
     3
 48
5.0
100
AcDbLine
 10
583.3418733415124
 20
226.6518955337931
 30
0.0
 11
583.3418733415124
 21
218.3769047720931
 31
0.0
  0
LINE
  5
2175
330
1A
100
AcDbEntity
  8
SEIHIN
  6
CONTINUOUS
 62
     3
 48
5.0
100
AcDbLine
 10
572.7578092279123
 20
206.2171431180931
 30
0.0
 11
572.7578092279123
 21
226.6518955337931
 31
0.0
  0
LINE
  5
2176
330
1A
100
AcDbEntity
  8
SEIHIN
  6
CONTINUOUS
 62
     3
 48
5.0
100
AcDbLine
 10
573.6522364189124
 20
227.5463227247931
 30
0.0
 11
582.4474461505124
 21
227.5463227247931
 31
0.0
  0
ARC
  5
2177
330
1A
100
AcDbEntity
  8
SEIHIN
  6
CONTINUOUS
 62
     3
 48
5.0
100
AcDbCircle
 10
590.7382266853123
 20
219.8022402913931
 30
0.0
 40
7.532438126415082
100
AcDbArc
 50
190.9076363529002
 51
272.3719743333026
  0
ELLIPSE
  5
2178
330
1A
100
AcDbEntity
  8
SEIHIN
  6
CONTINUOUS
 62
     3
 48
5.0
100
AcDbEllipse
 10
573.9876466156125
 20
206.5525533146931
 30
0.0
 11
-1.010362971081804
 21
-1.010362971081831
 31
0.0
210
0.0
220
0.0
230
-1.0
 40
0.6998542121999999
 41
5.598466104177303
 42
6.967904510181901
  0
SPLINE
  5
2179
330
1A
100
AcDbEntity
  8
SEIHIN
  6
CONTINUOUS
 62
     3
 48
5.0
100
AcDbSpline
210
0.0
220
0.0
230
1.0
 70
     8
 71
     3
 72
    14
 73
    10
 74
     0
 42
0.0000000001
 43
0.0000000001
 40
0.0
 40
0.0
 40
0.0
 40
0.0
 40
0.2255107083803645
 40
0.3963062534411245
 40
0.4405785779879766
 40
0.6191724007374449
 40
0.6304223660199437
 40
0.8171379694788775
 40
1.0
 40
1.0
 40
1.0
 40
1.0
 10
591.0499712323151
 20
212.2762560058726
 30
0.0
 10
591.1634077435678
 20
212.2814806256637
 30
0.0
 10
591.362757916785
 20
212.2906622273265
 30
0.0
 10
591.5754379401708
 20
212.2083111260722
 30
0.0
 10
591.740641878476
 20
212.0987713422706
 30
0.0
 10
591.8228819680348
 20
212.0081070001718
 30
0.0
 10
591.9193259571597
 20
211.8450345339613
 30
0.0
 10
591.9856800697614
 20
211.6593853585231
 30
0.0
 10
591.9828274590247
 20
211.4742149750117
 30
0.0
 10
591.9814160256922
 20
211.3825951657807
 30
0.0
  0
ELLIPSE
  5
217A
330
1A
100
AcDbEntity
  8
SEIHIN
  6
CONTINUOUS
 62
     3
 48
5.0
100
AcDbEllipse
 10
590.7515786381122
 20
206.5525533146931
 30
0.0
 11
-1.01036297108186
 21
1.01036297108186
 31
0.0
210
0.0
220
0.0
230
-1.0
 40
0.6998542122
 41
2.456873450587499
 42
3.826311856592182
  0
LINE
  5
217B
330
1A
100
AcDbEntity
  8
SEIHIN
  6
CONTINUOUS
 62
     3
 48
5.0
100
AcDbLine
 10
591.0869888347124
 20
205.3227159270931
 30
0.0
 11
573.6522364189124
 21
205.3227159270931
 31
0.0
  0
LINE
  5
217C
330
1A
100
AcDbEntity
  8
SEIHIN
  6
CONTINUOUS
 62
     3
 48
5.0
100
AcDbLine
 10
591.9814160257124
 20
211.3825951657931
 30
0.0
 11
591.9814160257124
 21
206.2171431180931
 31
0.0
  0
ELLIPSE
  5
217D
330
1A
100
AcDbEntity
  8
SEIHIN
  6
CONTINUOUS
 62
     3
 48
5.0
100
AcDbEllipse
 10
558.7753890332123
 20
226.5287429195931
 30
0.0
 11
-0.7916666666666287
 21
0.791666666666714
 31
0.0
210
0.0
220
0.0
230
-1.0
 40
0.8931875130999998
 41
5.52721589675569
 42
7.039154717603455
  0
ELLIPSE
  5
217E
330
1A
100
AcDbEntity
  8
SEIHIN
  6
CONTINUOUS
 62
     3
 48
5.0
100
AcDbEllipse
 10
565.4638362204122
 20
226.5287429195931
 30
0.0
 11
-0.7916666666666856
 21
-0.7916666666666572
 31
0.0
210
0.0
220
0.0
230
-1.0
 40
0.8931875130999998
 41
2.38562324316592
 42
3.897562064013644
  0
SPLINE
  5
217F
330
1A
100
AcDbEntity
  8
SEIHIN
  6
CONTINUOUS
 62
     3
 48
5.0
100
AcDbSpline
210
0.0
220
0.0
230
1.0
 70
     8
 71
     3
 72
    13
 73
     9
 74
     0
 42
0.0000000001
 43
0.0000000001
 40
0.0
 40
0.0
 40
0.0
 40
0.0
 40
0.1853054207097844
 40
0.36517852152137
 40
0.5302701516764927
 40
0.6878236889830629
 40
0.8506852025218607
 40
1.0
 40
1.0
 40
1.0
 40
1.0
 10
559.0520814675
 20
173.4254169923461
 30
0.0
 10
558.9377861628702
 20
173.3849537406531
 30
0.0
 10
558.7125461768964
 20
173.3052134374685
 30
0.0
 10
558.3563914582789
 20
173.3365307314638
 30
0.0
 10
558.0550887346305
 20
173.4874741202487
 30
0.0
 10
557.8420066939954
 20
173.7319366753932
 30
0.0
 10
557.7243344626176
 20
174.0224773841149
 30
0.0
 10
557.7175437096919
 20
174.2259018289774
 30
0.0
 10
557.7142956736877
 20
174.3232003065201
 30
0.0
  0
SPLINE
  5
2180
330
1A
100
AcDbEntity
  8
SEIHIN
  6
CONTINUOUS
 62
     3
 48
5.0
100
AcDbSpline
210
0.0
220
0.0
230
1.0
 70
     8
 71
     3
 72
    13
 73
     9
 74
     0
 42
0.0000000001
 43
0.0000000001
 40
0.0
 40
0.0
 40
0.0
 40
0.0
 40
0.1851330428579794
 40
0.3650267311097466
 40
0.5303652848785339
 40
0.6879496806583965
 40
0.8506174307284018
 40
1.0
 40
1.0
 40
1.0
 40
1.0
 10
566.5249295799462
 20
174.3232003065217
 30
0.0
 10
566.5189376121434
 20
174.2021823033121
 30
0.0
 10
566.5071232521231
 20
173.9635711648842
 30
0.0
 10
566.3431372581121
 20
173.645930526689
 30
0.0
 10
566.0894951338775
 20
173.4237973581481
 30
0.0
 10
565.7824391778881
 20
173.3189823416047
 30
0.0
 10
565.4690113670151
 20
173.3205105366399
 30
0.0
 10
565.2783945497158
 20
173.3914549660672
 30
0.0
 10
565.1871437861382
 20
173.4254169923382
 30
0.0
  0
LINE
  5
2181
330
1A
100
AcDbEntity
  8
SEIHIN
  6
CONTINUOUS
 62
     3
 48
5.0
100
AcDbLine
 10
558.6844381738123
 20
227.5898362790931
 30
0.0
 11
565.5547870798122
 21
227.5898362790931
 31
0.0
  0
ARC
  5
2182
330
1A
100
AcDbEntity
  8
SEIHIN
  6
CONTINUOUS
 62
     3
 48
5.0
100
AcDbCircle
 10
562.1196126268123
 20
165.9345193259931
 30
0.0
 40
8.094646086244985
100
AcDbArc
 50
67.73084424389766
 51
112.2691557559977
  0
LINE
  5
2183
330
1A
100
AcDbEntity
  8
SEIHIN
  6
CONTINUOUS
 62
     3
 48
5.0
100
AcDbLine
 10
566.5249295799124
 20
226.6196937789931
 30
0.0
 11
566.5249295799124
 21
174.3232003064931
 31
0.0
  0
LINE
  5
2184
330
1A
100
AcDbEntity
  8
SEIHIN
  6
CONTINUOUS
 62
     3
 48
5.0
100
AcDbLine
 10
557.7142956737122
 20
174.3232003064931
 30
0.0
 11
557.7142956737122
 21
226.6196937789931
 31
0.0
  0
ELLIPSE
  5
2185
330
1A
100
AcDbEntity
  8
SEIHIN
  6
CONTINUOUS
 62
     3
 48
5.0
100
AcDbEllipse
 10
574.2732848852124
 20
199.3164853371931
 30
0.0
 11
-1.01036297108186
 21
1.01036297108186
 31
0.0
210
0.0
220
0.0
230
-1.0
 40
0.6998542122
 41
5.598466104177317
 42
6.967904510181917
  0
SPLINE
  5
2186
330
1A
100
AcDbEntity
  8
SEIHIN
  6
CONTINUOUS
 62
     3
 48
5.0
100
AcDbSpline
210
0.0
220
0.0
230
1.0
 70
     8
 71
     3
 72
    10
 73
     6
 74
     0
 42
0.0000000001
 43
0.0000000001
 40
0.0
 40
0.0
 40
0.0
 40
0.0
 40
0.3471274010665737
 40
0.689563746072185
 40
1.0
 40
1.0
 40
1.0
 40
1.0
 10
583.975127539278
 20
199.0633517621744
 30
0.0
 10
583.9700000819743
 20
198.9611263650509
 30
0.0
 10
583.9598144594754
 20
198.7580570378599
 30
0.0
 10
583.809719238915
 20
198.4901156983328
 30
0.0
 10
583.6551228271678
 20
198.3764130608008
 30
0.0
 10
583.5816133384683
 20
198.3223482694237
 30
0.0
  0
ELLIPSE
  5
2187
330
1A
100
AcDbEntity
  8
SEIHIN
  6
CONTINUOUS
 62
     3
 48
5.0
100
AcDbEllipse
 10
582.7452901516124
 20
199.3164853371931
 30
0.0
 11
-1.01036297108186
 21
-1.01036297108186
 31
0.0
210
0.0
220
0.0
230
-1.0
 40
0.6998542122
 41
2.456873450587516
 42
3.826311856592102
  0
LINE
  5
2188
330
1A
100
AcDbEntity
  8
SEIHIN
  6
CONTINUOUS
 62
     3
 48
5.0
100
AcDbLine
 10
583.9751275393123
 20
199.6518955337931
 30
0.0
 11
583.9751275393123
 21
199.0633517621931
 31
0.0
  0
LINE
  5
2189
330
1A
100
AcDbEntity
  8
SEIHIN
  6
CONTINUOUS
 62
     3
 48
5.0
100
AcDbLine
 10
573.9378746886123
 20
200.5463227247931
 30
0.0
 11
583.0807003483123
 21
200.5463227247931
 31
0.0
  0
LINE
  5
218A
330
1A
100
AcDbEntity
  8
SEIHIN
  6
CONTINUOUS
 62
     3
 48
5.0
100
AcDbLine
 10
573.0434474976123
 20
162.9927420438931
 30
0.0
 11
573.0434474976123
 21
199.6518955337931
 31
0.0
  0
ARC
  5
218B
330
1A
100
AcDbEntity
  8
SEIHIN
  6
CONTINUOUS
 62
     3
 48
5.0
100
AcDbCircle
 10
592.6196126268123
 20
184.9523834825931
 30
0.0
 40
16.13819660112506
100
AcDbArc
 50
124.0584083385968
 51
180.0
  0
SPLINE
  5
218C
330
1A
100
AcDbEntity
  8
SEIHIN
  6
CONTINUOUS
 62
     3
 48
5.0
100
AcDbSpline
210
0.0
220
0.0
230
1.0
 70
     8
 71
     3
 72
    16
 73
    12
 74
     0
 42
0.0000000001
 43
0.0000000001
 40
0.0
 40
0.0
 40
0.0
 40
0.0
 40
0.2171386642748686
 40
0.3334999788850273
 40
0.4097902014477654
 40
0.5030480635734489
 40
0.5599680007876811
 40
0.6707390720097967
 40
0.6997056276565266
 40
0.8636298164810032
 40
1.0
 40
1.0
 40
1.0
 40
1.0
 10
573.6274698881445
 20
162.5669682147202
 30
0.0
 10
573.5638393122667
 20
162.5402915111729
 30
0.0
 10
573.4661100765147
 20
162.4993191670743
 30
0.0
 10
573.3329544607849
 20
162.4934470859549
 30
0.0
 10
573.2414526978734
 20
162.5112505376092
 30
0.0
 10
573.1738411325925
 20
162.5451403437067
 30
0.0
 10
573.1100976423237
 20
162.6027935585433
 30
0.0
 10
573.0761406622402
 20
162.6589288823269
 30
0.0
 10
573.0421106122512
 20
162.7505391803236
 30
0.0
 10
573.0275988696348
 20
162.8567009078918
 30
0.0
 10
573.0384979767968
 20
162.9502564461144
 30
0.0
 10
573.0434474976029
 20
162.9927420438865
 30
0.0
  0
LINE
  5
218D
330
1A
100
AcDbEntity
  8
SEIHIN
  6
CONTINUOUS
 62
     3
 48
5.0
100
AcDbLine
 10
576.4814160257124
 20
184.9523834825931
 30
0.0
 11
576.4814160257124
 21
166.4816485721932
 31
0.0
  0
ARC
  5
218E
330
1A
100
AcDbEntity
  8
SEIHIN
  6
CONTINUOUS
 62
     3
 48
5.0
100
AcDbCircle
 10
572.3696126268123
 20
166.4816485721932
 30
0.0
 40
4.111803398880624
100
AcDbArc
 50
287.8131466752974
 51
0.000000000000007
  0
DIMENSION
  5
2246
330
1A
100
AcDbEntity
  8
SUNPOU
 48
5.0
100
AcDbDimension
  2
*D11
 10
599.1196126268123
 20
308.1288965983205
 30
0.0
 11
562.1196126268123
 21
313.1288965983205
 31
0.0
 70
    32
  3
STANDARD
100
AcDbAlignedDimension
 13
525.1196126268123
 23
222.6845193259931
 33
0.0
 14
599.1196126268123
 24
222.6845193259931
 34
0.0
100
AcDbRotatedDimension
1001
ACAD
1000
DSTYLE
1002
{
1070
    41
1040
7.0
1070
    42
1040
6.0
1070
    43
1040
14.0
1070
    44
1040
3.0
1070
    73
1070
     0
1070
    74
1070
     0
1070
    77
1070
     3
1070
   140
1040
6.0
1070
   141
1040
150.0
1070
   147
1040
2.0
1070
   172
1070
     1
1070
   173
1070
     1
1070
   176
1070
     4
1070
   177
1070
     4
1070
   178
1070
     4
1070
   271
1070
     0
1070
   272
1070
     2
1070
     6
1000
OPEN
1070
     7
1000
OPEN
1002
}
  0
DIMENSION
  5
225C
330
1A
100
AcDbEntity
  8
SUNPOU
 48
5.0
100
AcDbDimension
  2
*D12
 10
635.894872233725
 20
219.2049996608931
 30
0.0
 11
630.8948722337249
 21
225.9447594934433
 31
0.0
 70
    32
  3
STANDARD
100
AcDbAlignedDimension
 13
589.1196126268123
 23
232.6845193259931
 33
0.0
 14
596.0934906934089
 24
219.2049996608931
 34
0.0
 50
90.0
100
AcDbRotatedDimension
1001
ACAD
1000
DSTYLE
1002
{
1070
    41
1040
7.0
1070
    42
1040
6.0
1070
    43
1040
14.0
1070
    44
1040
3.0
1070
    73
1070
     0
1070
    74
1070
     0
1070
    77
1070
     3
1070
   140
1040
6.0
1070
   141
1040
150.0
1070
   147
1040
2.0
1070
   172
1070
     1
1070
   173
1070
     1
1070
   176
1070
     4
1070
   177
1070
     4
1070
   178
1070
     4
1070
   271
1070
     0
1070
   272
1070
     2
1070
     6
1000
OPEN
1070
     7
1000
OPEN
1002
}
  0
DIMENSION
  5
2288
330
1A
100
AcDbEntity
  8
SUNPOU
 48
5.0
100
AcDbDimension
  2
*D13
 10
491.67157051926
 20
223.6845193259931
 30
0.0
 11
486.67157051926
 21
228.1845193259932
 31
0.0
 70
    32
  3
STANDARD
100
AcDbAlignedDimension
 13
535.1196126268123
 23
232.6845193259931
 33
0.0
 14
529.2351516589501
 24
223.6845193259931
 34
0.0
 50
90.0
100
AcDbRotatedDimension
1001
ACAD
1000
DSTYLE
1002
{
1070
   287
1070
     5
1070
    41
1040
7.0
1070
    42
1040
6.0
1070
    43
1040
14.0
1070
    44
1040
3.0
1070
    73
1070
     0
1070
    74
1070
     0
1070
    77
1070
     3
1070
   140
1040
6.0
1070
   141
1040
150.0
1070
   147
1040
2.0
1070
   172
1070
     1
1070
   173
1070
     1
1070
   176
1070
   256
1070
   177
1070
   256
1070
   178
1070
   256
1070
   271
1070
     0
1070
   272
1070
     0
1070
   279
1070
     2
1070
   341
1005
6D
1070
     6
1000
OPEN
1070
     7
1000
OPEN
1070
   371
1070
    -1
1070
   372
1070
    -1
1002
}
  0
DIMENSION
  5
2297
330
1A
100
AcDbEntity
  8
SUNPOU
 48
5.0
100
AcDbDimension
  2
*D14
 10
491.67157051926
 20
165.9345193259931
 30
0.0
 11
486.67157051926
 21
194.8095193259932
 31
0.0
 70
    32
  3
STANDARD
100
AcDbAlignedDimension
 13
529.2351516589501
 23
223.6845193259931
 33
0.0
 14
557.8505521712563
 24
165.9345193259931
 34
0.0
 50
90.0
100
AcDbRotatedDimension
1001
ACAD
1000
DSTYLE
1002
{
1070
   287
1070
     5
1070
    41
1040
7.0
1070
    42
1040
6.0
1070
    43
1040
14.0
1070
    44
1040
3.0
1070
    73
1070
     0
1070
    74
1070
     0
1070
    77
1070
     3
1070
   140
1040
6.0
1070
   141
1040
150.0
1070
   147
1040
2.0
1070
   172
1070
     1
1070
   173
1070
     1
1070
   176
1070
   256
1070
   177
1070
   256
1070
   178
1070
   256
1070
   271
1070
     0
1070
   272
1070
     0
1070
   279
1070
     2
1070
   341
1005
6D
1070
     6
1000
OPEN
1070
     7
1000
OPEN
1070
   371
1070
    -1
1070
   372
1070
    -1
1002
}
  0
DIMENSION
  5
22A4
330
1A
100
AcDbEntity
  8
SUNPOU
 48
5.0
100
AcDbDimension
  2
*D15
 10
491.67157051926
 20
158.6845193259931
 30
0.0
 11
486.7625855351134
 21
162.1040737953003
 31
0.0
 70
   160
  3
STANDARD
100
AcDbAlignedDimension
 13
557.8505521712563
 23
165.9345193259931
 33
0.0
 14
562.1196126268123
 24
158.6845193259931
 34
0.0
 50
90.0
100
AcDbRotatedDimension
1001
ACAD
1000
DSTYLE
1002
{
1070
   287
1070
     5
1070
    41
1040
7.0
1070
    42
1040
6.0
1070
    43
1040
14.0
1070
    44
1040
3.0
1070
    73
1070
     0
1070
    74
1070
     0
1070
    77
1070
     3
1070
   140
1040
6.0
1070
   141
1040
150.0
1070
   147
1040
2.0
1070
   172
1070
     1
1070
   173
1070
     1
1070
   176
1070
   256
1070
   177
1070
   256
1070
   178
1070
   256
1070
   271
1070
     0
1070
   272
1070
     0
1070
   279
1070
     2
1070
   341
1005
6D
1070
     6
1000
OPEN
1070
     7
1000
OPEN
1070
   371
1070
    -1
1070
   372
1070
    -1
1002
}
  0
LEADER
  5
2318
330
1A
100
AcDbEntity
  8
SUNPOU
  6
CONTINUOUS
 62
     4
100
AcDbLeader
  3
STANDARD
 73
     0
 74
     0
 40
6.0
 41
31.19999999999999
 76
     3
 10
593.4350685339841
 20
216.565291988221
 30
0.0
 10
611.2900215096028
 20
186.7005303642724
 30
0.0
 10
613.175092526325
 20
186.7005303642724
 30
0.0
1001
ACAD
1000
DSTYLE
1002
{
1070
     6
1000
OPEN
1070
    41
1040
7.0
1070
    42
1040
6.0
1070
    43
1040
14.0
1070
    44
1040
3.0
1070
    73
1070
     0
1070
    74
1070
     0
1070
    77
1070
     3
1070
   140
1040
6.0
1070
   141
1040
150.0
1070
   147
1040
2.0
1070
   172
1070
     1
1070
   173
1070
     1
1070
   176
1070
     4
1070
   177
1070
     4
1070
   178
1070
     4
1070
   271
1070
     0
1070
   272
1070
     2
1070
   341
1005
6D
1070
   343
1005
6D
1070
   344
1005
6D
1002
}
  0
MTEXT
  5
2319
330
1A
100
AcDbEntity
  8
SUNPOU
  6
CONTINUOUS
 62
     4
100
AcDbMText
 10
615.1750925263249
 20
188.7005303642724
 30
0.0
 40
6.0
 41
0.0
 71
     7
 72
     5
  1
2-φ6.5
1001
ACAD
1000
MTEXTBEGIN
1070
    73
1070
     1
1070
    44
1040
1.0
1070
    74
1070
     0
1000
MTEXTEND
1000
MTEXTBEGIN
1070
    73
1070
     1
1070
    44
1040
1.0
1070
    74
1070
     0
1000
MTEXTEND
1000
MTEXTBEGIN
1070
    73
1070
     1
1070
    44
1040
1.0
1070
    74
1070
     0
1000
MTEXTEND
1000
MTEXTBEGIN
1070
    73
1070
     1
1070
    44
1040
1.0
1070
    74
1070
     0
1000
MTEXTEND
1000
MTEXTBEGIN
1070
    73
1070
     1
1070
    44
1040
1.0
1070
    74
1070
     0
1000
MTEXTEND
  0
LEADER
  5
231A
330
1A
100
AcDbEntity
  8
SUNPOU
  6
CONTINUOUS
 62
     4
100
AcDbLeader
  3
STANDARD
 73
     0
 40
6.0
 41
31.19999999999999
 76
     3
 10
531.3429273398473
 20
225.586839637672
 30
0.0
 10
512.9844425270808
 20
270.2741032604983
 30
0.0
 10
510.7908654055759
 20
270.2741032604983
 30
0.0
1001
ACAD
1000
DSTYLE
1002
{
1070
     6
1000
OPEN
1070
    41
1040
7.0
1070
    42
1040
6.0
1070
    43
1040
14.0
1070
    44
1040
3.0
1070
    73
1070
     0
1070
    74
1070
     0
1070
    77
1070
     3
1070
   140
1040
6.0
1070
   141
1040
150.0
1070
   147
1040
2.0
1070
   172
1070
     1
1070
   173
1070
     1
1070
   176
1070
     4
1070
   177
1070
     4
1070
   178
1070
     4
1070
   271
1070
     0
1070
   272
1070
     2
1070
   341
1005
6D
1070
   343
1005
6D
1070
   344
1005
6D
1002
}
  0
MTEXT
  5
231B
330
1A
100
AcDbEntity
  8
ZUWAKU
 62
     4
100
AcDbMText
 10
508.7908654055759
 20
272.2741032604983
 30
0.0
 40
6.0
 41
0.0
 71
     9
 72
     5
  1
3-φ4.2
1001
ACAD
1000
MTEXTBEGIN
1070
    73
1070
     1
1070
    44
1040
1.0
1070
    74
1070
     0
1000
MTEXTEND
1000
MTEXTBEGIN
1070
    73
1070
     1
1070
    44
1040
1.0
1070
    74
1070
     0
1000
MTEXTEND
1000
MTEXTBEGIN
1070
    73
1070
     1
1070
    44
1040
1.0
1070
    74
1070
     0
1000
MTEXTEND
1000
MTEXTBEGIN
1070
    73
1070
     1
1070
    44
1040
1.0
1070
    74
1070
     0
1000
MTEXTEND
1000
MTEXTBEGIN
1070
    73
1070
     1
1070
    44
1040
1.0
1070
    74
1070
     0
1000
MTEXTEND
  0
TEXT
  5
245D
330
1A
100
AcDbEntity
  8
MOJI
100
AcDbText
 10
691.5248378848807
 20
39.78490050459643
 30
0.0
 40
5.599999999999999
  1
※図面は20mm出です
 41
0.9
  7
ｽﾀｲﾙ1
100
AcDbText
  0
ELLIPSE
  5
2494
102
{ACAD_REACTORS
330
24C4
102
}
330
1A
100
AcDbEntity
  8
SEIHIN
  6
DASHED2
 62
     5
 48
0.3
100
AcDbEllipse
 10
391.5804403208389
 20
160.6863484698932
 30
0.0
 11
0.0
 21
2.001829143904814
 31
0.0
210
0.0
220
0.0
230
1.0
 40
0.9990862636999999
 41
1.570796326794897
 42
3.141592653589793
  0
ELLIPSE
  5
2495
102
{ACAD_REACTORS
330
24C4
102
}
330
1A
100
AcDbEntity
  8
SEIHIN
  6
DASHED2
 62
     5
 48
0.3
100
AcDbEllipse
 10
391.5804403208389
 20
160.9573197632931
 30
0.0
 11
1.413349728277353
 21
1.446946299985
 31
0.0
210
0.0
220
0.0
230
0.9999999999999998
 40
0.9779746969000001
 41
2.355583853645951
 42
2.398304268370652
  0
SPLINE
  5
2496
102
{ACAD_REACTORS
330
24C4
102
}
330
1A
100
AcDbEntity
  8
SEIHIN
  6
DASHED2
 62
     5
 48
0.3
100
AcDbSpline
210
0.0
220
0.0
230
1.0
 70
     8
 71
     3
 72
    15
 73
    11
 74
     0
 42
0.0000000001
 43
0.0000000001
 40
0.0
 40
0.0
 40
0.0
 40
0.0
 40
0.0021335379684039
 40
0.1499329941309968
 40
0.3001170082500851
 40
0.4518188291921791
 40
0.6073322286562324
 40
0.71554715133876
 40
0.8265004634859115
 40
1.0
 40
1.0
 40
1.0
 40
1.0
 10
390.0804403208358
 20
205.1845193259589
 30
0.0
 10
390.0804375528234
 20
205.1882460892365
 30
0.0
 10
390.0802430325549
 20
205.4501419565227
 30
0.0
 10
390.0383753866282
 20
205.9748842287334
 30
0.0
 10
389.8515147781882
 20
206.7522914880808
 30
0.0
 10
389.5271460268344
 20
207.5234996029886
 30
0.0
 10
389.099579322488
 20
208.1938725347482
 30
0.0
 10
388.6010663876196
 20
208.7538401625304
 30
0.0
 10
387.9838927925175
 20
209.2987721880131
 30
0.0
 10
387.4227217242601
 20
209.5896665434624
 30
0.0
 10
387.0804403208357
 20
209.7670950209148
 30
0.0
  0
SPLINE
  5
2497
102
{ACAD_REACTORS
330
24C4
102
}
330
1A
100
AcDbEntity
  8
SEIHIN
  6
DASHED2
 62
     5
 48
0.3
100
AcDbSpline
210
0.0
220
0.0
230
1.0
 70
    24
 71
     3
 72
     9
 73
     5
 74
     0
 42
0.0000000001
 43
0.0000000001
 40
0.0
 40
0.0
 40
0.0
 40
0.0
 40
0.5038625610351521
 40
1.0
 40
1.0
 40
1.0
 40
1.0
 10
390.0489655110258
 20
232.6818974683188
 30
0.0
 10
390.0586778208585
 20
232.682706505574
 30
0.0
 10
390.0779535332924
 20
232.6843121760839
 30
0.0
 10
390.0796156717288
 20
232.6844506325316
 30
0.0
 10
390.0804403208358
 20
232.6845193259589
 30
0.0
  0
LINE
  5
2498
102
{ACAD_REACTORS
330
24C4
102
}
330
1A
100
AcDbEntity
  8
SEIHIN
  6
DASHED2
 62
     5
 48
0.3
100
AcDbLine
 10
398.0804403208389
 20
184.9523834825931
 30
0.0
 11
398.0804403208389
 21
197.8009820027931
 31
0.0
  0
LINE
  5
2499
102
{ACAD_REACTORS
330
24C4
102
}
330
1A
100
AcDbEntity
  8
SEIHIN
  6
DASHED2
 62
     5
 48
0.3
100
AcDbLine
 10
392.080440320839
 20
197.8009820027931
 30
0.0
 11
392.080440320839
 21
184.9523834825931
 31
0.0
  0
LINE
  5
249A
102
{ACAD_REACTORS
330
24C4
102
}
330
1A
100
AcDbEntity
  8
SEIHIN
  6
DASHED2
 62
     5
 48
0.3
100
AcDbLine
 10
389.5804403208391
 20
160.9127731508931
 30
0.0
 11
389.5804403208391
 21
207.3357317062932
 31
0.0
  0
LINE
  5
249B
102
{ACAD_REACTORS
330
24C4
102
}
330
1A
100
AcDbEntity
  8
SEIHIN
  6
DASHED2
 62
     5
 48
0.3
100
AcDbLine
 10
390.0804403208391
 20
184.9523834825931
 30
0.0
 11
390.0804403208391
 21
199.7776894673931
 31
0.0
  0
LINE
  5
249F
102
{ACAD_REACTORS
330
24C4
102
}
330
1A
100
AcDbEntity
  8
SEIHIN
  6
DASHED2
 62
     5
 48
0.3
100
AcDbLine
 10
392.080440320839
 20
159.241584445193
 30
0.0
 11
398.0804403208389
 21
159.241584445193
 31
0.0
  0
LINE
  5
24A0
102
{ACAD_REACTORS
330
24C4
102
}
330
1A
100
AcDbEntity
  8
SEIHIN
  6
DASHED2
 62
     5
 48
0.3
100
AcDbLine
 10
391.5804403208389
 20
158.6845193259931
 30
0.0
 11
398.0804403208389
 21
158.6845193259931
 31
0.0
  0
LINE
  5
24A1
102
{ACAD_REACTORS
330
24C4
102
}
330
1A
100
AcDbEntity
  8
SEIHIN
  6
DASHED2
 62
     5
 48
0.3
100
AcDbLine
 10
390.0804403208391
 20
166.4816485721932
 30
0.0
 11
390.0804403208391
 21
184.9523834825931
 31
0.0
  0
LINE
  5
24A2
102
{ACAD_REACTORS
330
24C4
102
}
330
1A
100
AcDbEntity
  8
SEIHIN
  6
DASHED2
 62
     5
 48
0.3
100
AcDbLine
 10
392.080440320839
 20
184.9523834825931
 30
0.0
 11
392.080440320839
 21
166.4816485721932
 31
0.0
  0
ARC
  5
24A4
102
{ACAD_REACTORS
330
24C4
102
}
330
1A
100
AcDbEntity
  8
SEIHIN
  6
DASHED2
 62
     5
 48
0.3
100
AcDbCircle
 10
392.0790707946391
 20
161.2402149203932
 30
0.0
 40
1.998630944352149
100
AcDbArc
 50
180.0393147922012
 51
270.039260912699
  0
LINE
  5
24A5
102
{ACAD_REACTORS
330
24C4
102
}
330
1A
100
AcDbEntity
  8
SEIHIN
  6
DASHED2
 62
     5
 48
0.3
100
AcDbLine
 10
392.080440320839
 20
159.241584445193
 30
0.0
 11
392.080440320839
 21
159.2216990636931
 31
0.0
  0
LINE
  5
24A6
102
{ACAD_REACTORS
330
24C4
102
}
330
1A
100
AcDbEntity
  8
SEIHIN
  6
DASHED2
 62
     5
 48
0.3
100
AcDbLine
 10
390.0804403208391
 20
161.2244437556931
 30
0.0
 11
390.0804403208391
 21
161.2388435146931
 31
0.0
  0
LINE
  5
24A7
102
{ACAD_REACTORS
330
24C4
102
}
330
1A
100
AcDbEntity
  8
SEIHIN
  6
DASHED2
 62
     5
 48
0.3
100
AcDbLine
 10
389.5804403208391
 20
160.6863484698932
 30
0.0
 11
389.5804403208391
 21
160.9127731508931
 31
0.0
  0
LINE
  5
24A8
102
{ACAD_REACTORS
330
24C4
102
}
330
1A
100
AcDbEntity
  8
SEIHIN
  6
DASHED2
 62
     5
 48
0.3
100
AcDbLine
 10
392.080440320839
 20
166.4816485721932
 30
0.0
 11
392.080440320839
 21
159.241584445193
 31
0.0
  0
LINE
  5
24A9
102
{ACAD_REACTORS
330
24C4
102
}
330
1A
100
AcDbEntity
  8
SEIHIN
  6
DASHED2
 62
     5
 48
0.3
100
AcDbLine
 10
390.0804403208391
 20
161.2388435146931
 30
0.0
 11
390.0804403208391
 21
166.4816485721932
 31
0.0
  0
LINE
  5
24AB
102
{ACAD_REACTORS
330
24C4
102
}
330
1A
100
AcDbEntity
  8
SEIHIN
  6
DASHED2
 62
     5
 48
0.3
100
AcDbLine
 10
398.0804403208389
 20
184.9523834825931
 30
0.0
 11
398.0804403208389
 21
166.4816485721932
 31
0.0
  0
LINE
  5
24AC
102
{ACAD_REACTORS
330
24C4
102
}
330
1A
100
AcDbEntity
  8
SEIHIN
  6
DASHED2
 62
     5
 48
0.3
100
AcDbLine
 10
398.0804403208389
 20
159.241584445193
 30
0.0
 11
398.0804403208389
 21
158.6845193259931
 31
0.0
  0
LINE
  5
24AD
102
{ACAD_REACTORS
330
24C4
102
}
330
1A
100
AcDbEntity
  8
SEIHIN
  6
DASHED2
 62
     5
 48
0.3
100
AcDbLine
 10
398.0804403208389
 20
166.4816485721932
 30
0.0
 11
398.0804403208389
 21
159.241584445193
 31
0.0
  0
LINE
  5
24B0
102
{ACAD_REACTORS
330
24C4
102
}
330
1A
100
AcDbEntity
  8
SEIHIN
  6
DASHED2
 62
     5
 48
0.3
100
AcDbLine
 10
392.080440320839
 20
232.6845193259931
 30
0.0
 11
398.0804403208389
 21
232.6845193259931
 31
0.0
  0
LINE
  5
24B4
102
{ACAD_REACTORS
330
24C4
102
}
330
1A
100
AcDbEntity
  8
SEIHIN
  6
DASHED2
 62
     5
 48
0.3
100
AcDbLine
 10
390.0804403208391
 20
207.6845193259931
 30
0.0
 11
390.0804403208391
 21
222.6845193259931
 31
0.0
  0
LINE
  5
24B5
102
{ACAD_REACTORS
330
24C4
102
}
330
1A
100
AcDbEntity
  8
SEIHIN
  6
DASHED2
 62
     5
 48
0.3
100
AcDbLine
 10
392.080440320839
 20
222.6845193259931
 30
0.0
 11
392.080440320839
 21
207.6845193259931
 31
0.0
  0
LINE
  5
24B6
102
{ACAD_REACTORS
330
24C4
102
}
330
1A
100
AcDbEntity
  8
SEIHIN
  6
DASHED2
 62
     5
 48
0.3
100
AcDbLine
 10
390.0804403208391
 20
199.7776894673931
 30
0.0
 11
390.0804403208391
 21
207.6845193259931
 31
0.0
  0
LINE
  5
24B7
102
{ACAD_REACTORS
330
24C4
102
}
330
1A
100
AcDbEntity
  8
SEIHIN
  6
DASHED2
 62
     5
 48
0.3
100
AcDbLine
 10
392.080440320839
 20
207.6845193259931
 30
0.0
 11
392.080440320839
 21
197.8009820027931
 31
0.0
  0
ARC
  5
24BA
102
{ACAD_REACTORS
330
24C4
102
}
330
1A
100
AcDbEntity
  8
SEIHIN
  6
DASHED2
 62
     5
 48
0.3
100
AcDbCircle
 10
385.0804403208391
 20
205.1845193259931
 30
0.0
 40
4.999999999999979
100
AcDbArc
 50
66.42182152179947
 51
90.0
  0
LINE
  5
24BB
102
{ACAD_REACTORS
330
24C4
102
}
330
1A
100
AcDbEntity
  8
SEIHIN
  6
DASHED2
 62
     5
 48
0.3
100
AcDbLine
 10
390.0804403208391
 20
222.6845193259931
 30
0.0
 11
390.0804403208391
 21
230.6845193259931
 31
0.0
  0
LINE
  5
24BC
102
{ACAD_REACTORS
330
24C4
102
}
330
1A
100
AcDbEntity
  8
SEIHIN
  6
DASHED2
 62
     5
 48
0.3
100
AcDbLine
 10
392.080440320839
 20
232.6845193259931
 30
0.0
 11
392.080440320839
 21
222.6845193259931
 31
0.0
  0
ARC
  5
24BE
102
{ACAD_REACTORS
330
24C4
102
}
330
1A
100
AcDbEntity
  8
SEIHIN
  6
DASHED2
 62
     5
 48
0.3
100
AcDbCircle
 10
392.080440320839
 20
230.6845193259931
 30
0.0
 40
2.0
100
AcDbArc
 50
90.0
 51
180.0
  0
LINE
  5
24BF
102
{ACAD_REACTORS
330
24C4
102
}
330
1A
100
AcDbEntity
  8
SEIHIN
  6
DASHED2
 62
     5
 48
0.3
100
AcDbLine
 10
386.914414963339
 20
232.4207888118931
 30
0.0
 11
390.048965511039
 21
232.6818974682931
 31
0.0
  0
LINE
  5
24C0
102
{ACAD_REACTORS
330
24C4
102
}
330
1A
100
AcDbEntity
  8
SEIHIN
  6
DASHED2
 62
     5
 48
0.3
100
AcDbLine
 10
390.0804403208391
 20
232.6845193259931
 30
0.0
 11
392.080440320839
 21
232.6845193259931
 31
0.0
  0
LINE
  5
24C1
102
{ACAD_REACTORS
330
24C4
102
}
330
1A
100
AcDbEntity
  8
SEIHIN
  6
DASHED2
 62
     5
 48
0.3
100
AcDbLine
 10
398.0804403208389
 20
207.6845193259931
 30
0.0
 11
398.0804403208389
 21
222.6845193259931
 31
0.0
  0
LINE
  5
24C2
102
{ACAD_REACTORS
330
24C4
102
}
330
1A
100
AcDbEntity
  8
SEIHIN
  6
DASHED2
 62
     5
 48
0.3
100
AcDbLine
 10
398.0804403208389
 20
197.8009820027931
 30
0.0
 11
398.0804403208389
 21
207.6845193259931
 31
0.0
  0
LINE
  5
24C3
102
{ACAD_REACTORS
330
24C4
102
}
330
1A
100
AcDbEntity
  8
SEIHIN
  6
DASHED2
 62
     5
 48
0.3
100
AcDbLine
 10
398.0804403208389
 20
232.6845193259931
 30
0.0
 11
398.0804403208389
 21
222.6845193259931
 31
0.0
  0
LINE
  5
24CE
102
{ACAD_REACTORS
330
24F1
102
}
330
1A
100
AcDbEntity
  8
SEIHIN
  6
DASHED2
 62
     5
 48
0.3
100
AcDbLine
 10
363.080440320839
 20
207.6845193259931
 30
0.0
 11
363.080440320839
 21
222.6845193259931
 31
0.0
  0
SPLINE
  5
24CF
102
{ACAD_REACTORS
330
24F1
102
}
330
1A
100
AcDbEntity
  8
SEIHIN
  6
DASHED2
 62
     5
 48
0.3
100
AcDbSpline
210
0.0
220
0.0
230
1.0
 70
    24
 71
     3
 72
     9
 73
     5
 74
     0
 42
0.0000000001
 43
0.0000000001
 40
0.0
 40
0.0
 40
0.0
 40
0.0
 40
0.5038625610351521
 40
1.0
 40
1.0
 40
1.0
 40
1.0
 10
355.0489655110258
 20
232.6818974683188
 30
0.0
 10
355.0586778208585
 20
232.682706505574
 30
0.0
 10
355.0779535332924
 20
232.6843121760839
 30
0.0
 10
355.0796156717288
 20
232.6844506325316
 30
0.0
 10
355.0804403208358
 20
232.6845193259589
 30
0.0
  0
SPLINE
  5
24D0
102
{ACAD_REACTORS
330
24F1
102
}
330
1A
100
AcDbEntity
  8
SEIHIN
  6
DASHED2
 62
     5
 48
0.3
100
AcDbSpline
210
0.0
220
0.0
230
1.0
 70
     8
 71
     3
 72
    15
 73
    11
 74
     0
 42
0.0000000001
 43
0.0000000001
 40
0.0
 40
0.0
 40
0.0
 40
0.0
 40
0.0021335379684039
 40
0.1499329941309968
 40
0.3001170082500851
 40
0.4518188291921791
 40
0.6073322286562324
 40
0.71554715133876
 40
0.8265004634859115
 40
1.0
 40
1.0
 40
1.0
 40
1.0
 10
355.0804403208358
 20
205.1845193259589
 30
0.0
 10
355.0804375528234
 20
205.1882460892365
 30
0.0
 10
355.0802430325548
 20
205.4501419565227
 30
0.0
 10
355.0383753866282
 20
205.9748842287334
 30
0.0
 10
354.8515147781882
 20
206.7522914880808
 30
0.0
 10
354.5271460268344
 20
207.5234996029886
 30
0.0
 10
354.099579322488
 20
208.1938725347482
 30
0.0
 10
353.6010663876196
 20
208.7538401625304
 30
0.0
 10
352.9838927925175
 20
209.2987721880131
 30
0.0
 10
352.4227217242601
 20
209.5896665434624
 30
0.0
 10
352.0804403208358
 20
209.7670950209148
 30
0.0
  0
ELLIPSE
  5
24D1
102
{ACAD_REACTORS
330
24F1
102
}
330
1A
100
AcDbEntity
  8
SEIHIN
  6
DASHED2
 62
     5
 48
0.3
100
AcDbEllipse
 10
356.5804403208389
 20
160.9573197632931
 30
0.0
 11
1.413349728277353
 21
1.446946299985
 31
0.0
210
0.0
220
0.0
230
0.9999999999999998
 40
0.9779746969000001
 41
2.355583853645951
 42
2.398304268370652
  0
ELLIPSE
  5
24D2
102
{ACAD_REACTORS
330
24F1
102
}
330
1A
100
AcDbEntity
  8
SEIHIN
  6
DASHED2
 62
     5
 48
0.3
100
AcDbEllipse
 10
356.5804403208389
 20
160.6863484698932
 30
0.0
 11
0.0
 21
2.001829143904814
 31
0.0
210
0.0
220
0.0
230
1.0
 40
0.9990862636999999
 41
1.570796326794897
 42
3.141592653589793
  0
LINE
  5
24D3
102
{ACAD_REACTORS
330
24F1
102
}
330
1A
100
AcDbEntity
  8
SEIHIN
  6
DASHED2
 62
     5
 48
0.3
100
AcDbLine
 10
351.914414963339
 20
232.4207888118931
 30
0.0
 11
355.048965511039
 21
232.6818974682931
 31
0.0
  0
ARC
  5
24D4
102
{ACAD_REACTORS
330
24F1
102
}
330
1A
100
AcDbEntity
  8
SEIHIN
  6
DASHED2
 62
     5
 48
0.3
100
AcDbCircle
 10
350.0804403208391
 20
205.1845193259931
 30
0.0
 40
4.999999999999979
100
AcDbArc
 50
66.42182152179947
 51
90.0
  0
LINE
  5
24D5
102
{ACAD_REACTORS
330
24F1
102
}
330
1A
100
AcDbEntity
  8
SEIHIN
  6
DASHED2
 62
     5
 48
0.3
100
AcDbLine
 10
363.080440320839
 20
159.241584445193
 30
0.0
 11
363.080440320839
 21
158.6845193259931
 31
0.0
  0
ARC
  5
24D6
102
{ACAD_REACTORS
330
24F1
102
}
330
1A
100
AcDbEntity
  8
SEIHIN
  6
DASHED2
 62
     5
 48
0.3
100
AcDbCircle
 10
357.0790707946391
 20
161.2402149203932
 30
0.0
 40
1.998630944352149
100
AcDbArc
 50
180.0393147922012
 51
270.039260912699
  0
LINE
  5
24D7
102
{ACAD_REACTORS
330
24F1
102
}
330
1A
100
AcDbEntity
  8
SEIHIN
  6
DASHED2
 62
     5
 48
0.3
100
AcDbLine
 10
356.5804403208389
 20
158.6845193259931
 30
0.0
 11
363.080440320839
 21
158.6845193259931
 31
0.0
  0
LINE
  5
24D8
102
{ACAD_REACTORS
330
24F1
102
}
330
1A
100
AcDbEntity
  8
SEIHIN
  6
DASHED2
 62
     5
 48
0.3
100
AcDbLine
 10
363.080440320839
 20
197.8009820027931
 30
0.0
 11
363.080440320839
 21
207.6845193259931
 31
0.0
  0
LINE
  5
24D9
102
{ACAD_REACTORS
330
24F1
102
}
330
1A
100
AcDbEntity
  8
SEIHIN
  6
DASHED2
 62
     5
 48
0.3
100
AcDbLine
 10
357.080440320839
 20
207.6845193259931
 30
0.0
 11
357.080440320839
 21
197.8009820027931
 31
0.0
  0
LINE
  5
24DA
102
{ACAD_REACTORS
330
24F1
102
}
330
1A
100
AcDbEntity
  8
SEIHIN
  6
DASHED2
 62
     5
 48
0.3
100
AcDbLine
 10
355.080440320839
 20
199.7776894673931
 30
0.0
 11
355.080440320839
 21
207.6845193259931
 31
0.0
  0
LINE
  5
24DB
102
{ACAD_REACTORS
330
24F1
102
}
330
1A
100
AcDbEntity
  8
SEIHIN
  6
DASHED2
 62
     5
 48
0.3
100
AcDbLine
 10
354.5804403208391
 20
160.9127731508931
 30
0.0
 11
354.5804403208391
 21
207.3357317062932
 31
0.0
  0
LINE
  5
24DC
102
{ACAD_REACTORS
330
24F1
102
}
330
1A
100
AcDbEntity
  8
SEIHIN
  6
DASHED2
 62
     5
 48
0.3
100
AcDbLine
 10
363.080440320839
 20
184.9523834825931
 30
0.0
 11
363.080440320839
 21
166.4816485721932
 31
0.0
  0
LINE
  5
24DD
102
{ACAD_REACTORS
330
24F1
102
}
330
1A
100
AcDbEntity
  8
SEIHIN
  6
DASHED2
 62
     5
 48
0.3
100
AcDbLine
 10
357.080440320839
 20
184.9523834825931
 30
0.0
 11
357.080440320839
 21
166.4816485721932
 31
0.0
  0
LINE
  5
24DE
102
{ACAD_REACTORS
330
24F1
102
}
330
1A
100
AcDbEntity
  8
SEIHIN
  6
DASHED2
 62
     5
 48
0.3
100
AcDbLine
 10
355.080440320839
 20
166.4816485721932
 30
0.0
 11
355.080440320839
 21
184.9523834825931
 31
0.0
  0
LINE
  5
24DF
102
{ACAD_REACTORS
330
24F1
102
}
330
1A
100
AcDbEntity
  8
SEIHIN
  6
DASHED2
 62
     5
 48
0.3
100
AcDbLine
 10
357.080440320839
 20
159.241584445193
 30
0.0
 11
363.080440320839
 21
159.241584445193
 31
0.0
  0
LINE
  5
24E0
102
{ACAD_REACTORS
330
24F1
102
}
330
1A
100
AcDbEntity
  8
SEIHIN
  6
DASHED2
 62
     5
 48
0.3
100
AcDbLine
 10
355.080440320839
 20
161.2388435146931
 30
0.0
 11
355.080440320839
 21
166.4816485721932
 31
0.0
  0
LINE
  5
24E1
102
{ACAD_REACTORS
330
24F1
102
}
330
1A
100
AcDbEntity
  8
SEIHIN
  6
DASHED2
 62
     5
 48
0.3
100
AcDbLine
 10
357.080440320839
 20
166.4816485721932
 30
0.0
 11
357.080440320839
 21
159.241584445193
 31
0.0
  0
LINE
  5
24E2
102
{ACAD_REACTORS
330
24F1
102
}
330
1A
100
AcDbEntity
  8
SEIHIN
  6
DASHED2
 62
     5
 48
0.3
100
AcDbLine
 10
354.5804403208391
 20
160.6863484698932
 30
0.0
 11
354.5804403208391
 21
160.9127731508931
 31
0.0
  0
LINE
  5
24E3
102
{ACAD_REACTORS
330
24F1
102
}
330
1A
100
AcDbEntity
  8
SEIHIN
  6
DASHED2
 62
     5
 48
0.3
100
AcDbLine
 10
355.080440320839
 20
161.2244437556931
 30
0.0
 11
355.080440320839
 21
161.2388435146931
 31
0.0
  0
LINE
  5
24E4
102
{ACAD_REACTORS
330
24F1
102
}
330
1A
100
AcDbEntity
  8
SEIHIN
  6
DASHED2
 62
     5
 48
0.3
100
AcDbLine
 10
357.080440320839
 20
159.241584445193
 30
0.0
 11
357.080440320839
 21
159.2216990636931
 31
0.0
  0
LINE
  5
24E5
102
{ACAD_REACTORS
330
24F1
102
}
330
1A
100
AcDbEntity
  8
SEIHIN
  6
DASHED2
 62
     5
 48
0.3
100
AcDbLine
 10
363.080440320839
 20
166.4816485721932
 30
0.0
 11
363.080440320839
 21
159.241584445193
 31
0.0
  0
LINE
  5
24E6
102
{ACAD_REACTORS
330
24F1
102
}
330
1A
100
AcDbEntity
  8
SEIHIN
  6
DASHED2
 62
     5
 48
0.3
100
AcDbLine
 10
355.080440320839
 20
184.9523834825931
 30
0.0
 11
355.080440320839
 21
199.7776894673931
 31
0.0
  0
LINE
  5
24E7
102
{ACAD_REACTORS
330
24F1
102
}
330
1A
100
AcDbEntity
  8
SEIHIN
  6
DASHED2
 62
     5
 48
0.3
100
AcDbLine
 10
357.080440320839
 20
197.8009820027931
 30
0.0
 11
357.080440320839
 21
184.9523834825931
 31
0.0
  0
LINE
  5
24E8
102
{ACAD_REACTORS
330
24F1
102
}
330
1A
100
AcDbEntity
  8
SEIHIN
  6
DASHED2
 62
     5
 48
0.3
100
AcDbLine
 10
363.080440320839
 20
184.9523834825931
 30
0.0
 11
363.080440320839
 21
197.8009820027931
 31
0.0
  0
LINE
  5
24E9
102
{ACAD_REACTORS
330
24F1
102
}
330
1A
100
AcDbEntity
  8
SEIHIN
  6
DASHED2
 62
     5
 48
0.3
100
AcDbLine
 10
363.080440320839
 20
232.6845193259931
 30
0.0
 11
363.080440320839
 21
222.6845193259931
 31
0.0
  0
LINE
  5
24EA
102
{ACAD_REACTORS
330
24F1
102
}
330
1A
100
AcDbEntity
  8
SEIHIN
  6
DASHED2
 62
     5
 48
0.3
100
AcDbLine
 10
357.080440320839
 20
232.6845193259931
 30
0.0
 11
357.080440320839
 21
222.6845193259931
 31
0.0
  0
LINE
  5
24EB
102
{ACAD_REACTORS
330
24F1
102
}
330
1A
100
AcDbEntity
  8
SEIHIN
  6
DASHED2
 62
     5
 48
0.3
100
AcDbLine
 10
355.080440320839
 20
222.6845193259931
 30
0.0
 11
355.080440320839
 21
230.6845193259931
 31
0.0
  0
LINE
  5
24EC
102
{ACAD_REACTORS
330
24F1
102
}
330
1A
100
AcDbEntity
  8
SEIHIN
  6
DASHED2
 62
     5
 48
0.3
100
AcDbLine
 10
357.080440320839
 20
222.6845193259931
 30
0.0
 11
357.080440320839
 21
207.6845193259931
 31
0.0
  0
LINE
  5
24ED
102
{ACAD_REACTORS
330
24F1
102
}
330
1A
100
AcDbEntity
  8
SEIHIN
  6
DASHED2
 62
     5
 48
0.3
100
AcDbLine
 10
355.080440320839
 20
207.6845193259931
 30
0.0
 11
355.080440320839
 21
222.6845193259931
 31
0.0
  0
LINE
  5
24EE
102
{ACAD_REACTORS
330
24F1
102
}
330
1A
100
AcDbEntity
  8
SEIHIN
  6
DASHED2
 62
     5
 48
0.3
100
AcDbLine
 10
357.080440320839
 20
232.6845193259931
 30
0.0
 11
363.080440320839
 21
232.6845193259931
 31
0.0
  0
LINE
  5
24EF
102
{ACAD_REACTORS
330
24F1
102
}
330
1A
100
AcDbEntity
  8
SEIHIN
  6
DASHED2
 62
     5
 48
0.3
100
AcDbLine
 10
355.080440320839
 20
232.6845193259931
 30
0.0
 11
357.080440320839
 21
232.6845193259931
 31
0.0
  0
ARC
  5
24F0
102
{ACAD_REACTORS
330
24F1
102
}
330
1A
100
AcDbEntity
  8
SEIHIN
  6
DASHED2
 62
     5
 48
0.3
100
AcDbCircle
 10
357.080440320839
 20
230.6845193259931
 30
0.0
 40
2.0
100
AcDbArc
 50
90.0
 51
180.0
  0
DIMENSION
  5
2504
330
1A
100
AcDbEntity
  8
SUNPOU
 48
5.0
100
AcDbDimension
  2
*D16
 10
373.0804403208389
 20
261.6897947058821
 30
0.0
 11
368.0804403208389
 21
266.7343560219521
 31
0.0
 70
   160
  3
STANDARD
100
AcDbAlignedDimension
 13
363.080440320839
 23
232.6845193259931
 33
0.0
 14
373.0804403208389
 24
232.6845193259931
 34
0.0
100
AcDbRotatedDimension
1001
ACAD
1000
DSTYLE
1002
{
1070
   287
1070
     5
1070
    41
1040
7.0
1070
    42
1040
6.0
1070
    43
1040
14.0
1070
    44
1040
3.0
1070
    73
1070
     0
1070
    74
1070
     0
1070
    77
1070
     3
1070
   140
1040
6.0
1070
   141
1040
150.0
1070
   147
1040
2.0
1070
   172
1070
     1
1070
   173
1070
     1
1070
   176
1070
   256
1070
   177
1070
   256
1070
   178
1070
   256
1070
   271
1070
     0
1070
   272
1070
     0
1070
   279
1070
     2
1070
   341
1005
6D
1070
     6
1000
OPEN
1070
     7
1000
OPEN
1070
   371
1070
    -1
1070
   372
1070
    -1
1002
}
  0
DIMENSION
  5
2513
330
1A
100
AcDbEntity
  8
SUNPOU
 48
5.0
100
AcDbDimension
  2
*D17
 10
398.0804403208389
 20
261.6897947058821
 30
0.0
 11
385.5804403208389
 21
266.6897947058821
 31
0.0
 70
    32
  3
STANDARD
100
AcDbAlignedDimension
 13
373.0804403208389
 23
232.6845193259931
 33
0.0
 14
398.0804403208389
 24
232.6845193259931
 34
0.0
100
AcDbRotatedDimension
1001
ACAD
1000
DSTYLE
1002
{
1070
   287
1070
     5
1070
    41
1040
7.0
1070
    42
1040
6.0
1070
    43
1040
14.0
1070
    44
1040
3.0
1070
    73
1070
     0
1070
    74
1070
     0
1070
    77
1070
     3
1070
   140
1040
6.0
1070
   141
1040
150.0
1070
   147
1040
2.0
1070
   172
1070
     1
1070
   173
1070
     1
1070
   176
1070
   256
1070
   177
1070
   256
1070
   178
1070
   256
1070
   271
1070
     0
1070
   272
1070
     0
1070
   279
1070
     2
1070
   341
1005
6D
1070
     6
1000
OPEN
1070
     7
1000
OPEN
1070
   371
1070
    -1
1070
   372
1070
    -1
1002
}
  0
MTEXT
  5
2589
330
1A
100
AcDbEntity
  8
ZUWAKU
 62
     4
100
AcDbMText
 10
415.3639362038734
 20
272.2741032604983
 30
0.0
 40
6.0
 41
0.0
 71
     9
 72
     5
  1
スライド幅
1001
ACAD
1000
MTEXTBEGIN
1070
    73
1070
     1
1070
    44
1040
1.0
1070
    74
1070
     0
1000
MTEXTEND
1000
MTEXTBEGIN
1070
    73
1070
     1
1070
    44
1040
1.0
1070
    74
1070
     0
1000
MTEXTEND
1000
MTEXTBEGIN
1070
    73
1070
     1
1070
    44
1040
1.0
1070
    74
1070
     0
1000
MTEXTEND
1000
MTEXTBEGIN
1070
    73
1070
     1
1070
    44
1040
1.0
1070
    74
1070
     0
1000
MTEXTEND
1000
MTEXTBEGIN
1070
    73
1070
     1
1070
    44
1040
1.0
1070
    74
1070
     0
1000
MTEXTEND
  0
VIEWPORT
  5
22
330
17
100
AcDbEntity
 67
     1
  8
0
100
AcDbViewport
 10
313.6808219178082
 20
148.5
 30
0.0
 40
627.3616438356165
 41
297.0
 68
     2
 69
     1
1001
ACAD
1000
MVIEW
1002
{
1070
    16
1010
0.0
1020
0.0
1030
0.0
1010
0.0
1020
0.0
1030
1.0
1040
0.0
1040
297.0
1040
313.6808219178082
1040
148.5
1040
50.0
1040
0.0
1040
0.0
1070
     0
1070
   100
1070
     1
1070
     0
1070
     0
1070
     0
1070
     0
1070
     0
1040
0.0
1040
0.0
1040
0.0
1040
1.0
1040
1.0
1040
10.0
1040
10.0
1070
     0
1002
{
1002
}
1002
}
  0
VIEWPORT
  5
64
330
17
100
AcDbEntity
 67
     1
  8
VIEWPORT
100
AcDbViewport
 10
210.0
 20
148.5
 30
0.0
 40
420.0
 41
297.0
 68
     1
 69
     2
1001
ACAD
1000
MVIEW
1002
{
1070
    16
1010
0.0
1020
0.0
1030
0.0
1010
0.0
1020
0.0
1030
1.0
1040
0.0
1040
605.8799999999998
1040
420.0
1040
297.0
1040
50.0
1040
0.0
1040
0.0
1070
     0
1070
   100
1070
     1
1070
     0
1070
     0
1070
     0
1070
     0
1070
     0
1040
0.0
1040
0.0
1040
0.0
1040
10.0
1040
10.0
1040
0.0
1040
0.0
1070
     0
1002
{
1002
}
1002
}
  0
ENDSEC
  0
SECTION
  2
OBJECTS
  0
DICTIONARY
  5
C
330
0
100
AcDbDictionary
  3
ACAD_GROUP
350
D
  3
ACAD_LAYOUT
350
8E0
  3
ACAD_MLINESTYLE
350
E
  3
ACAD_PLOTSETTINGS
350
8E1
  3
ACAD_PLOTSTYLENAME
350
8DE
  3
ACDBHEADERROUNDTRIPXREC
350
2699
  0
DICTIONARY
  5
EDF
330
2
100
AcDbDictionary
280
     1
  3
ACAD_LAYERFILTERS
360
EE0
  0
DICTIONARY
  5
9D6
330
1A
100
AcDbDictionary
280
     1
  3
ACAD_LAYOUTSELFREF
360
26BB
  0
DICTIONARY
  5
9D4
330
17
100
AcDbDictionary
280
     1
  3
ACAD_LAYOUTSELFREF
360
26BA
  0
DICTIONARY
  5
D
102
{ACAD_REACTORS
330
C
102
}
330
C
100
AcDbDictionary
  3
*A1
350
24C4
  3
*A2
350
24F1
  0
DICTIONARY
  5
8E0
102
{ACAD_REACTORS
330
C
102
}
330
C
100
AcDbDictionary
  0
DICTIONARY
  5
E
102
{ACAD_REACTORS
330
C
102
}
330
C
100
AcDbDictionary
  3
STANDARD
350
13
  0
DICTIONARY
  5
8E1
102
{ACAD_REACTORS
330
C
102
}
330
C
100
AcDbDictionary
  0
ACDBDICTIONARYWDFLT
  5
8DE
102
{ACAD_REACTORS
330
C
102
}
330
C
100
AcDbDictionary
281
     1
  3
Normal
350
8DF
100
AcDbDictionaryWithDefault
340
8DF
1001
ACAD
1000
TREAT_AS_HARD
1070
     0
1000
TREAT_AS_HARD
1070
     0
1000
TREAT_AS_HARD
1070
     0
1000
TREAT_AS_HARD
1070
     0
  0
DICTIONARY
  5
2699
102
{ACAD_REACTORS
330
C
102
}
330
C
100
AcDbDictionary
  3
TSTACKALIGN
350
269A
  3
TSTACKSIZE
350
269B
  3
HYPERLINKBASE
350
269C
  3
STYLESHEET
350
269D
  3
LAYOUTDICT
350
269E
  3
PLOTSETDICT
350
269F
  3
PLOTSTYLNAMDICT
350
26A0
  3
LWETCUNION
350
26A1
  3
INSUNITS
350
26A2
  3
CEPSNTYPE
350
26A3
  3
FINGERPRINTGUID
350
26A4
  3
VERSIONGUID
350
26A5
  3
PSVPSCALE
350
26A6
  3
DIMSTYLEDATA
350
26A7
  3
PUCSORTHOREF
350
26A8
  3
PUCSORTHOVIEW
350
26A9
  3
PUCSBASE
350
26AA
  3
PUCSORGTOP
350
26AB
  3
PUCSORGBOTTOM
350
26AC
  3
PUCSORGLEFT
350
26AD
  3
PUCSORGRIGHT
350
26AE
  3
PUCSORGFRONT
350
26AF
  3
PUCSORGBACK
350
26B0
  3
UCSORTHOREF
350
26B1
  3
UCSORTHOVIEW
350
26B2
  3
UCSBASE
350
26B3
  3
UCSORGTOP
350
26B4
  3
UCSORGBOTTOM
350
26B5
  3
UCSORGLEFT
350
26B6
  3
UCSORGRIGHT
350
26B7
  3
UCSORGFRONT
350
26B8
  3
UCSORGBACK
350
26B9
  0
DICTIONARY
  5
EE0
102
{ACAD_REACTORS
330
EDF
102
}
330
EDF
100
AcDbDictionary
280
     1
  3
50
360
EE1
  0
XRECORD
  5
26BB
102
{ACAD_REACTORS
330
9D6
102
}
330
9D6
100
AcDbXrecord
340
1A
  0
XRECORD
  5
26BA
102
{ACAD_REACTORS
330
9D4
102
}
330
9D4
100
AcDbXrecord
340
17
  0
GROUP
  5
24C4
102
{ACAD_REACTORS
330
D
102
}
330
D
100
AcDbGroup
300

 70
     1
 71
     1
340
2497
340
2496
340
2495
340
2494
340
24BF
340
24BA
340
24AC
340
24A4
340
24A0
340
24C2
340
24B7
340
24B6
340
249A
340
24AB
340
24A2
340
24A1
340
249F
340
24A9
340
24A8
340
24A7
340
24A6
340
24A5
340
24AD
340
249B
340
2499
340
2498
340
24C3
340
24BC
340
24BB
340
24C1
340
24B5
340
24B4
340
24B0
340
24C0
340
24BE
  0
GROUP
  5
24F1
102
{ACAD_REACTORS
330
D
102
}
330
D
100
AcDbGroup
300

 70
     1
 71
     1
340
24CF
340
24D0
340
24D1
340
24D2
340
24D3
340
24D4
340
24D5
340
24D6
340
24D7
340
24D8
340
24D9
340
24DA
340
24DB
340
24DC
340
24DD
340
24DE
340
24DF
340
24E0
340
24E1
340
24E2
340
24E3
340
24E4
340
24E5
340
24E6
340
24E7
340
24E8
340
24E9
340
24EA
340
24EB
340
24CE
340
24EC
340
24ED
340
24EE
340
24EF
340
24F0
  0
MLINESTYLE
  5
13
102
{ACAD_REACTORS
330
E
102
}
330
E
100
AcDbMlineStyle
  2
STANDARD
 70
     0
  3

 62
     0
 51
90.0
 52
90.0
 71
     2
 49
0.5
 62
   256
  6
BYLAYER
 49
-0.5
 62
   256
  6
BYLAYER
  0
ACDBPLACEHOLDER
  5
8DF
102
{ACAD_REACTORS
330
8DE
102
}
330
8DE
100
AcDbPlaceHolder
280
     0
  0
XRECORD
  5
269A
102
{ACAD_REACTORS
330
2699
102
}
330
2699
100
AcDbXrecord
 90
        1
  0
XRECORD
  5
269B
102
{ACAD_REACTORS
330
2699
102
}
330
2699
100
AcDbXrecord
 90
       70
  0
XRECORD
  5
269C
102
{ACAD_REACTORS
330
2699
102
}
330
2699
100
AcDbXrecord
  1

  0
XRECORD
  5
269D
102
{ACAD_REACTORS
330
2699
102
}
330
2699
100
AcDbXrecord
  1
systemprinter.ctb
  0
XRECORD
  5
269E
102
{ACAD_REACTORS
330
2699
102
}
330
2699
100
AcDbXrecord
340
8E0
  0
XRECORD
  5
269F
102
{ACAD_REACTORS
330
2699
102
}
330
2699
100
AcDbXrecord
340
8E1
  0
XRECORD
  5
26A0
102
{ACAD_REACTORS
330
2699
102
}
330
2699
100
AcDbXrecord
340
8DE
  0
XRECORD
  5
26A1
102
{ACAD_REACTORS
330
2699
102
}
330
2699
100
AcDbXrecord
 90
    10781
  0
XRECORD
  5
26A2
102
{ACAD_REACTORS
330
2699
102
}
330
2699
100
AcDbXrecord
 90
        0
  0
XRECORD
  5
26A3
102
{ACAD_REACTORS
330
2699
102
}
330
2699
100
AcDbXrecord
 90
        0
  0
XRECORD
  5
26A4
102
{ACAD_REACTORS
330
2699
102
}
330
2699
100
AcDbXrecord
  1
{A1E2E459-A446-4C08-BFC7-7AA38AB8F682}
  0
XRECORD
  5
26A5
102
{ACAD_REACTORS
330
2699
102
}
330
2699
100
AcDbXrecord
  1
{7D309391-41A0-4827-A5B1-0D0A3A41E065}
  0
XRECORD
  5
26A6
102
{ACAD_REACTORS
330
2699
102
}
330
2699
100
AcDbXrecord
 40
0.0
  0
XRECORD
  5
26A7
102
{ACAD_REACTORS
330
2699
102
}
330
2699
100
AcDbXrecord
1000
DSTYLE
1002
{
1070
   279
 70
     2
1070
   341
340
6D
1070
   343
340
6D
1070
   344
340
6D
1070
   371
 70
    -1
1070
   372
 70
    -1
1002
}
  0
XRECORD
  5
26A8
102
{ACAD_REACTORS
330
2699
102
}
330
2699
100
AcDbXrecord
340
0
  0
XRECORD
  5
26A9
102
{ACAD_REACTORS
330
2699
102
}
330
2699
100
AcDbXrecord
 70
     0
  0
XRECORD
  5
26AA
102
{ACAD_REACTORS
330
2699
102
}
330
2699
100
AcDbXrecord
340
0
  0
XRECORD
  5
26AB
102
{ACAD_REACTORS
330
2699
102
}
330
2699
100
AcDbXrecord
 10
0.0
 20
0.0
 30
0.0
  0
XRECORD
  5
26AC
102
{ACAD_REACTORS
330
2699
102
}
330
2699
100
AcDbXrecord
 10
0.0
 20
0.0
 30
0.0
  0
XRECORD
  5
26AD
102
{ACAD_REACTORS
330
2699
102
}
330
2699
100
AcDbXrecord
 10
0.0
 20
0.0
 30
0.0
  0
XRECORD
  5
26AE
102
{ACAD_REACTORS
330
2699
102
}
330
2699
100
AcDbXrecord
 10
0.0
 20
0.0
 30
0.0
  0
XRECORD
  5
26AF
102
{ACAD_REACTORS
330
2699
102
}
330
2699
100
AcDbXrecord
 10
0.0
 20
0.0
 30
0.0
  0
XRECORD
  5
26B0
102
{ACAD_REACTORS
330
2699
102
}
330
2699
100
AcDbXrecord
 10
0.0
 20
0.0
 30
0.0
  0
XRECORD
  5
26B1
102
{ACAD_REACTORS
330
2699
102
}
330
2699
100
AcDbXrecord
340
0
  0
XRECORD
  5
26B2
102
{ACAD_REACTORS
330
2699
102
}
330
2699
100
AcDbXrecord
 70
     0
  0
XRECORD
  5
26B3
102
{ACAD_REACTORS
330
2699
102
}
330
2699
100
AcDbXrecord
340
0
  0
XRECORD
  5
26B4
102
{ACAD_REACTORS
330
2699
102
}
330
2699
100
AcDbXrecord
 10
0.0
 20
0.0
 30
0.0
  0
XRECORD
  5
26B5
102
{ACAD_REACTORS
330
2699
102
}
330
2699
100
AcDbXrecord
 10
0.0
 20
0.0
 30
0.0
  0
XRECORD
  5
26B6
102
{ACAD_REACTORS
330
2699
102
}
330
2699
100
AcDbXrecord
 10
0.0
 20
0.0
 30
0.0
  0
XRECORD
  5
26B7
102
{ACAD_REACTORS
330
2699
102
}
330
2699
100
AcDbXrecord
 10
0.0
 20
0.0
 30
0.0
  0
XRECORD
  5
26B8
102
{ACAD_REACTORS
330
2699
102
}
330
2699
100
AcDbXrecord
 10
0.0
 20
0.0
 30
0.0
  0
XRECORD
  5
26B9
102
{ACAD_REACTORS
330
2699
102
}
330
2699
100
AcDbXrecord
 10
0.0
 20
0.0
 30
0.0
  0
XRECORD
  5
EE1
102
{ACAD_REACTORS
330
EE0
102
}
330
EE0
100
AcDbXrecord
  1
50
  1
*-50
  1
*
  1
*
 70
     0
  1
*
  1
*
  0
ENDSEC
  0
EOF
