  0
SECTION
  2
HEADER
  9
$ACADVER
  1
AC1014
  9
$ACADMAINTVER
 70
     9
  9
$DWGCODEPAGE
  3
ANSI_932
  9
$INSBASE
 10
0.0
 20
0.0
 30
0.0
  9
$EXTMIN
 10
-0.0256328259481507
 20
-0.0181260584133725
 30
-0.0000000100021359
  9
$EXTMAX
 10
797.6000995618558
 20
551.6452344880035
 30
0.0000000100021377
  9
$LIMMIN
 10
0.0
 20
0.0
  9
$LIMMAX
 10
840.0
 20
594.0
  9
$ORTHOMODE
 70
     0
  9
$REGENMODE
 70
     1
  9
$FILLMODE
 70
     1
  9
$QTEXTMODE
 70
     0
  9
$MIRRTEXT
 70
     1
  9
$DRAGMODE
 70
     2
  9
$LTSCALE
 40
2.0
  9
$OSMODE
 70
    35
  9
$ATTMODE
 70
     1
  9
$TEXTSIZE
 40
5.0
  9
$TRACEWID
 40
1.0
  9
$TEXTSTYLE
  7
STANDARD
  9
$CLAYER
  8
SUNPOU
  9
$CELTYPE
  6
BYLAYER
  9
$CECOLOR
 62
   256
  9
$CELTSCALE
 40
1.0
  9
$DELOBJ
 70
     1
  9
$DISPSILH
 70
     0
  9
$DIMSCALE
 40
1.0
  9
$DIMASZ
 40
7.0
  9
$DIMEXO
 40
6.0
  9
$DIMDLI
 40
14.0
  9
$DIMRND
 40
0.0
  9
$DIMDLE
 40
0.0
  9
$DIMEXE
 40
3.0
  9
$DIMTP
 40
0.0
  9
$DIMTM
 40
0.0
  9
$DIMTXT
 40
6.0
  9
$DIMCEN
 40
150.0
  9
$DIMTSZ
 40
0.0
  9
$DIMTOL
 70
     0
  9
$DIMLIM
 70
     0
  9
$DIMTIH
 70
     0
  9
$DIMTOH
 70
     0
  9
$DIMSE1
 70
     0
  9
$DIMSE2
 70
     0
  9
$DIMTAD
 70
     3
  9
$DIMZIN
 70
     0
  9
$DIMBLK
  1

  9
$DIMASO
 70
     1
  9
$DIMSHO
 70
     1
  9
$DIMPOST
  1

  9
$DIMAPOST
  1

  9
$DIMALT
 70
     0
  9
$DIMALTD
 70
     2
  9
$DIMALTF
 40
25.4
  9
$DIMLFAC
 40
1.0
  9
$DIMTOFL
 70
     1
  9
$DIMTVP
 40
0.0
  9
$DIMTIX
 70
     0
  9
$DIMSOXD
 70
     0
  9
$DIMSAH
 70
     1
  9
$DIMBLK1
  1
OPEN
  9
$DIMBLK2
  1
OPEN
  9
$DIMSTYLE
  2
STANDARD
  9
$DIMCLRD
 70
   256
  9
$DIMCLRE
 70
   256
  9
$DIMCLRT
 70
   256
  9
$DIMTFAC
 40
1.0
  9
$DIMGAP
 40
2.0
  9
$DIMJUST
 70
     0
  9
$DIMSD1
 70
     0
  9
$DIMSD2
 70
     0
  9
$DIMTOLJ
 70
     1
  9
$DIMTZIN
 70
     0
  9
$DIMALTZ
 70
     0
  9
$DIMALTTZ
 70
     0
  9
$DIMFIT
 70
     5
  9
$DIMUPT
 70
     0
  9
$DIMUNIT
 70
     2
  9
$DIMDEC
 70
     0
  9
$DIMTDEC
 70
     0
  9
$DIMALTU
 70
     2
  9
$DIMALTTD
 70
     2
  9
$DIMTXSTY
  7
STANDARD
  9
$DIMAUNIT
 70
     0
  9
$LUNITS
 70
     2
  9
$LUPREC
 70
     4
  9
$SKETCHINC
 40
1.0
  9
$FILLETRAD
 40
20.0
  9
$AUNITS
 70
     0
  9
$AUPREC
 70
     0
  9
$MENU
  1
.
  9
$ELEVATION
 40
0.0
  9
$PELEVATION
 40
0.0
  9
$THICKNESS
 40
0.0
  9
$LIMCHECK
 70
     0
  9
$BLIPMODE
 70
     0
  9
$CHAMFERA
 40
0.0
  9
$CHAMFERB
 40
0.0
  9
$CHAMFERC
 40
40.0
  9
$CHAMFERD
 40
0.0
  9
$SKPOLY
 70
     0
  9
$TDCREATE
 40
2451030.159468171
  9
$TDUPDATE
 40
2455350.740588171
  9
$TDINDWG
 40
0.1785457639
  9
$TDUSRTIMER
 40
0.1785457639
  9
$USRTIMER
 70
     1
  9
$ANGBASE
 50
0.0
  9
$ANGDIR
 70
     0
  9
$PDMODE
 70
     0
  9
$PDSIZE
 40
0.0
  9
$PLINEWID
 40
0.0
  9
$COORDS
 70
     0
  9
$SPLFRAME
 70
     0
  9
$SPLINETYPE
 70
     6
  9
$SPLINESEGS
 70
     8
  9
$ATTDIA
 70
     0
  9
$ATTREQ
 70
     1
  9
$HANDLING
 70
 10241
  9
$HANDSEED
  5
3DCA
  9
$SURFTAB1
 70
     6
  9
$SURFTAB2
 70
     6
  9
$SURFTYPE
 70
     6
  9
$SURFU
 70
     6
  9
$SURFV
 70
     6
  9
$UCSNAME
  2

  9
$UCSORG
 10
0.0
 20
0.0
 30
0.0
  9
$UCSXDIR
 10
1.0
 20
0.0
 30
0.0
  9
$UCSYDIR
 10
0.0
 20
1.0
 30
0.0
  9
$PUCSNAME
  2

  9
$PUCSORG
 10
0.0
 20
0.0
 30
0.0
  9
$PUCSXDIR
 10
1.0
 20
0.0
 30
0.0
  9
$PUCSYDIR
 10
0.0
 20
1.0
 30
0.0
  9
$USERI1
 70
     0
  9
$USERI2
 70
     0
  9
$USERI3
 70
     0
  9
$USERI4
 70
     0
  9
$USERI5
 70
     0
  9
$USERR1
 40
0.0
  9
$USERR2
 40
0.0
  9
$USERR3
 40
0.0
  9
$USERR4
 40
0.0
  9
$USERR5
 40
0.0
  9
$WORLDVIEW
 70
     1
  9
$SHADEDGE
 70
     3
  9
$SHADEDIF
 70
    70
  9
$TILEMODE
 70
     1
  9
$MAXACTVP
 70
    16
  9
$PINSBASE
 10
0.0
 20
0.0
 30
0.0
  9
$PLIMCHECK
 70
     0
  9
$PEXTMIN
 10
0.0
 20
0.0
 30
0.0
  9
$PEXTMAX
 10
420.0
 20
297.0
 30
0.0
  9
$PLIMMIN
 10
0.0
 20
0.0
  9
$PLIMMAX
 10
420.0
 20
297.0
  9
$UNITMODE
 70
     0
  9
$VISRETAIN
 70
     0
  9
$PLINEGEN
 70
     0
  9
$PSLTSCALE
 70
     1
  9
$TREEDEPTH
 70
  3020
  9
$PICKSTYLE
 70
     1
  9
$CMLSTYLE
  2
STANDARD
  9
$CMLJUST
 70
     0
  9
$CMLSCALE
 40
1.0
  9
$PROXYGRAPHICS
 70
     1
  9
$MEASUREMENT
 70
     1
  0
ENDSEC
  0
SECTION
  2
CLASSES
  0
CLASS
  1
ACDBDICTIONARYWDFLT
  2
AcDbDictionaryWithDefault
  3
AutoCAD 2000
 90
        0
280
     0
281
     0
  0
CLASS
  1
ACDBPLACEHOLDER
  2
AcDbPlaceHolder
  3
AutoCAD 2000
 90
        0
280
     0
281
     0
  0
CLASS
  1
LAYOUT
  2
AcDbLayout
  3
AutoCAD 2000
 90
        0
280
     0
281
     0
  0
CLASS
  1
LONG_TRANSACTION
  2
AcDbLongTransaction
  3
AutoCAD 2000
 90
        0
280
     0
281
     0
  0
CLASS
  1
LWPOLYLINE
  2
AcDbPolyline
  3
AutoCAD 2000
 90
        0
280
     0
281
     1
  0
CLASS
  1
HATCH
  2
AcDbHatch
  3
AutoCAD 2000
 90
        0
280
     0
281
     1
  0
CLASS
  1
XRECORD
  2
AcDbXrecord
  3
AutoCAD 2000
 90
        0
280
     0
281
     0
  0
CLASS
  1
LONG_TRANSACTION
  2
AcDbLongTransaction
  3
AutoCAD 2000
 90
        0
280
     0
281
     0
  0
CLASS
  1
LWPOLYLINE
  2
AcDbPolyline
  3
AutoCAD 2000
 90
        0
280
     0
281
     1
  0
CLASS
  1
HATCH
  2
AcDbHatch
  3
AutoCAD 2000
 90
        0
280
     0
281
     1
  0
CLASS
  1
XRECORD
  2
AcDbXrecord
  3
AutoCAD 2000
 90
        0
280
     0
281
     0
  0
CLASS
  1
LONG_TRANSACTION
  2
AcDbLongTransaction
  3
AutoCAD 2000
 90
        0
280
     0
281
     0
  0
CLASS
  1
LWPOLYLINE
  2
AcDbPolyline
  3
AutoCAD 2000
 90
        0
280
     0
281
     1
  0
CLASS
  1
HATCH
  2
AcDbHatch
  3
AutoCAD 2000
 90
        0
280
     0
281
     1
  0
CLASS
  1
XRECORD
  2
AcDbXrecord
  3
AutoCAD 2000
 90
        0
280
     0
281
     0
  0
CLASS
  1
LONG_TRANSACTION
  2
AcDbLongTransaction
  3
AutoCAD 2000
 90
        0
280
     0
281
     0
  0
CLASS
  1
LWPOLYLINE
  2
AcDbPolyline
  3
AutoCAD 2000
 90
        0
280
     0
281
     1
  0
CLASS
  1
HATCH
  2
AcDbHatch
  3
AutoCAD 2000
 90
        0
280
     0
281
     1
  0
CLASS
  1
XRECORD
  2
AcDbXrecord
  3
AutoCAD 2000
 90
        0
280
     0
281
     0
  0
CLASS
  1
LONG_TRANSACTION
  2
AcDbLongTransaction
  3
AutoCAD 2000
 90
        0
280
     0
281
     0
  0
CLASS
  1
LWPOLYLINE
  2
AcDbPolyline
  3
AutoCAD 2000
 90
        0
280
     0
281
     1
  0
CLASS
  1
HATCH
  2
AcDbHatch
  3
AutoCAD 2000
 90
        0
280
     0
281
     1
  0
CLASS
  1
XRECORD
  2
AcDbXrecord
  3
AutoCAD 2000
 90
        0
280
     0
281
     0
  0
ENDSEC
  0
SECTION
  2
TABLES
  0
TABLE
  2
VPORT
  5
8
330
0
100
AcDbSymbolTable
 70
     2
  0
VPORT
  5
3D0C
330
8
100
AcDbSymbolTableRecord
100
AcDbViewportTableRecord
  2
*ACTIVE
 70
     0
 10
0.0
 20
0.0
 11
1.0
 21
1.0
 12
395.6977813679939
 22
268.0492905714095
 13
0.0
 23
0.0
 14
5.0
 24
5.0
 15
0.0
 25
0.0
 16
0.0
 26
0.0
 36
1.0
 17
0.0
 27
0.0
 37
0.0
 40
659.6022864690112
 41
1.570153061224489
 42
50.0
 43
0.0
 44
0.0
 50
0.0
 51
0.0
 71
     0
 72
   100
 73
     1
 74
     0
 75
     0
 76
     0
 77
     0
 78
     0
  0
ENDTAB
  0
TABLE
  2
LTYPE
  5
5
330
0
100
AcDbSymbolTable
 70
     3
  0
LTYPE
  5
14
330
5
100
AcDbSymbolTableRecord
100
AcDbLinetypeTableRecord
  2
BYBLOCK
 70
     0
  3

 72
    65
 73
     0
 40
0.0
  0
LTYPE
  5
15
330
5
100
AcDbSymbolTableRecord
100
AcDbLinetypeTableRecord
  2
BYLAYER
 70
     0
  3

 72
    65
 73
     0
 40
0.0
  0
LTYPE
  5
16
330
5
100
AcDbSymbolTableRecord
100
AcDbLinetypeTableRecord
  2
CONTINUOUS
 70
     0
  3
Solid line
 72
    65
 73
     0
 40
0.0
  0
LTYPE
  5
135
330
5
100
AcDbSymbolTableRecord
100
AcDbLinetypeTableRecord
  2
CENTER
 70
     0
  3
____ _ ____ _ ____ _ ____ _ ____ _ ____ _ ____ 
 72
    65
 73
     4
 40
2.0
 49
1.25
 74
     0
 49
-0.25
 74
     0
 49
0.25
 74
     0
 49
-0.25
 74
     0
  0
LTYPE
  5
2436
330
5
100
AcDbSymbolTableRecord
100
AcDbLinetypeTableRecord
  2
DASHED2
 70
     0
  3
Dashed (.5x) _ _ _ _ _ _ _ _ _ _ _ _ _ _ _ _ _
 72
    65
 73
     2
 40
9.524999999999998
 49
6.349999999999999
 74
     0
 49
-3.174999999999999
 74
     0
  0
ENDTAB
  0
TABLE
  2
LAYER
  5
2
102
{ACAD_XDICTIONARY
360
EDF
102
}
330
0
100
AcDbSymbolTable
 70
     8
  0
LAYER
  5
F
330
2
100
AcDbSymbolTableRecord
100
AcDbLayerTableRecord
  2
0
 70
     0
 62
     7
  6
CONTINUOUS
  0
LAYER
  5
62
330
2
100
AcDbSymbolTableRecord
100
AcDbLayerTableRecord
  2
VIEWPORT
 70
     0
 62
     7
  6
CONTINUOUS
  0
LAYER
  5
65
330
2
100
AcDbSymbolTableRecord
100
AcDbLayerTableRecord
  2
ZUWAKU
 70
     0
 62
     7
  6
CONTINUOUS
  0
LAYER
  5
144
330
2
100
AcDbSymbolTableRecord
100
AcDbLayerTableRecord
  2
SEIHIN
 70
     0
 62
     3
  6
CONTINUOUS
  0
LAYER
  5
145
330
2
100
AcDbSymbolTableRecord
100
AcDbLayerTableRecord
  2
SUNPOU
 70
     0
 62
     4
  6
CONTINUOUS
  0
LAYER
  5
146
330
2
100
AcDbSymbolTableRecord
100
AcDbLayerTableRecord
  2
CENTER_L
 70
     0
 62
     1
  6
CENTER
  0
LAYER
  5
41E
330
2
100
AcDbSymbolTableRecord
100
AcDbLayerTableRecord
  2
DEFPOINTS
 70
     0
 62
     7
  6
CONTINUOUS
  0
LAYER
  5
9F1
330
2
100
AcDbSymbolTableRecord
100
AcDbLayerTableRecord
  2
MOJI
 70
     0
 62
     2
  6
CONTINUOUS
  0
ENDTAB
  0
TABLE
  2
STYLE
  5
3
330
0
100
AcDbSymbolTable
 70
     2
  0
STYLE
  5
10
330
3
100
AcDbSymbolTableRecord
100
AcDbTextStyleTableRecord
  2
STANDARD
 70
     0
 40
0.0
 41
1.0
 50
0.0
 71
     0
 42
5.0
  3
TXT
  4
bigfont.shx
  0
STYLE
  5
9F2
330
3
100
AcDbSymbolTableRecord
100
AcDbTextStyleTableRecord
  2
ｽﾀｲﾙ1
 70
     0
 40
0.0
 41
1.0
 50
0.0
 71
     0
 42
2.5
  3
MS PGothic.ttf
  4

1001
ACAD
1000
MS PGothic
1071
    32818
  0
ENDTAB
  0
TABLE
  2
VIEW
  5
6
330
0
100
AcDbSymbolTable
 70
     0
  0
ENDTAB
  0
TABLE
  2
UCS
  5
7
330
0
100
AcDbSymbolTable
 70
     0
  0
ENDTAB
  0
TABLE
  2
APPID
  5
9
330
0
100
AcDbSymbolTable
 70
     1
  0
APPID
  5
11
330
9
100
AcDbSymbolTableRecord
100
AcDbRegAppTableRecord
  2
ACAD
 70
     0
  0
ENDTAB
  0
TABLE
  2
DIMSTYLE
  5
A
330
0
100
AcDbSymbolTable
 70
     1
  0
DIMSTYLE
105
1D
102
{ACAD_REACTORS
330
36C2
330
36CF
330
392A
330
3929
330
3983
330
396C
330
3946
330
394E
330
3A8E
330
3A9B
330
3AB5
330
3ACB
330
3AD8
330
3AE5
330
3B04
330
3B13
102
}
330
A
100
AcDbSymbolTableRecord
100
AcDbDimStyleTableRecord
  2
STANDARD
 70
     0
  3

  4

  5

  6

  7

 40
1.0
 41
0.18
 42
0.0625
 43
0.38
 44
0.18
 45
0.0
 46
0.0
 47
0.0
 48
0.0
140
0.18
141
0.09
142
0.0
143
25.4
144
1.0
145
0.0
146
1.0
147
0.09
 71
     0
 72
     0
 73
     1
 74
     1
 75
     0
 76
     0
 77
     0
 78
     0
170
     0
171
     2
172
     0
173
     0
174
     0
175
     0
176
     0
177
     0
178
     0
270
     2
271
     4
272
     4
273
     2
274
     2
340
10
275
     0
280
     0
281
     0
282
     0
283
     1
284
     0
285
     0
286
     0
287
     3
288
     0
  0
ENDTAB
  0
TABLE
  2
BLOCK_RECORD
  5
1
330
0
100
AcDbSymbolTable
 70
    18
  0
BLOCK_RECORD
  5
1A
102
{ACAD_XDICTIONARY
360
9D6
102
}
330
1
100
AcDbSymbolTableRecord
100
AcDbBlockTableRecord
  2
*MODEL_SPACE
  0
BLOCK_RECORD
  5
17
102
{ACAD_XDICTIONARY
360
9D4
102
}
330
1
100
AcDbSymbolTableRecord
100
AcDbBlockTableRecord
  2
*PAPER_SPACE
  0
BLOCK_RECORD
  5
6D
330
1
100
AcDbSymbolTableRecord
100
AcDbBlockTableRecord
  2
_OPEN
  0
BLOCK_RECORD
  5
CE3
330
1
100
AcDbSymbolTableRecord
100
AcDbBlockTableRecord
  2
*X1
  0
BLOCK_RECORD
  5
36C3
330
1
100
AcDbSymbolTableRecord
100
AcDbBlockTableRecord
  2
*D2
  0
BLOCK_RECORD
  5
36D0
330
1
100
AcDbSymbolTableRecord
100
AcDbBlockTableRecord
  2
*D3
  0
BLOCK_RECORD
  5
398C
330
1
100
AcDbSymbolTableRecord
100
AcDbBlockTableRecord
  2
*D4
  0
BLOCK_RECORD
  5
3998
330
1
100
AcDbSymbolTableRecord
100
AcDbBlockTableRecord
  2
*D5
  0
BLOCK_RECORD
  5
39A4
330
1
100
AcDbSymbolTableRecord
100
AcDbBlockTableRecord
  2
*D6
  0
BLOCK_RECORD
  5
39B2
330
1
100
AcDbSymbolTableRecord
100
AcDbBlockTableRecord
  2
*D7
  0
BLOCK_RECORD
  5
39C0
330
1
100
AcDbSymbolTableRecord
100
AcDbBlockTableRecord
  2
*D8
  0
BLOCK_RECORD
  5
39CC
330
1
100
AcDbSymbolTableRecord
100
AcDbBlockTableRecord
  2
*D9
  0
BLOCK_RECORD
  5
3A8F
330
1
100
AcDbSymbolTableRecord
100
AcDbBlockTableRecord
  2
*D10
  0
BLOCK_RECORD
  5
3A9C
330
1
100
AcDbSymbolTableRecord
100
AcDbBlockTableRecord
  2
*D11
  0
BLOCK_RECORD
  5
3AB6
330
1
100
AcDbSymbolTableRecord
100
AcDbBlockTableRecord
  2
*D12
  0
BLOCK_RECORD
  5
3ACC
330
1
100
AcDbSymbolTableRecord
100
AcDbBlockTableRecord
  2
*D13
  0
BLOCK_RECORD
  5
3AD9
330
1
100
AcDbSymbolTableRecord
100
AcDbBlockTableRecord
  2
*D14
  0
BLOCK_RECORD
  5
3AE6
330
1
100
AcDbSymbolTableRecord
100
AcDbBlockTableRecord
  2
*D15
  0
BLOCK_RECORD
  5
3B05
330
1
100
AcDbSymbolTableRecord
100
AcDbBlockTableRecord
  2
*D16
  0
BLOCK_RECORD
  5
3B14
330
1
100
AcDbSymbolTableRecord
100
AcDbBlockTableRecord
  2
*D17
  0
ENDTAB
  0
ENDSEC
  0
SECTION
  2
BLOCKS
  0
BLOCK
  5
1B
330
1A
100
AcDbEntity
  8
0
100
AcDbBlockBegin
  2
*MODEL_SPACE
 70
     0
 10
0.0
 20
0.0
 30
0.0
  3
*MODEL_SPACE
  1

  0
ENDBLK
  5
1C
330
1A
100
AcDbEntity
  8
0
100
AcDbBlockEnd
  0
BLOCK
  5
18
330
17
100
AcDbEntity
 67
     1
  8
0
100
AcDbBlockBegin
  2
*PAPER_SPACE
 70
     0
 10
0.0
 20
0.0
 30
0.0
  3
*PAPER_SPACE
  1

  0
ENDBLK
  5
19
330
17
100
AcDbEntity
 67
     1
  8
0
100
AcDbBlockEnd
  0
BLOCK
  5
6E
330
6D
100
AcDbEntity
  8
0
100
AcDbBlockBegin
  2
_OPEN
 70
     0
 10
0.0
 20
0.0
 30
0.0
  3
_OPEN
  1

  0
LINE
  5
6F
330
6D
100
AcDbEntity
  8
0
  6
BYBLOCK
 62
     0
100
AcDbLine
 10
-1.0
 20
0.1666666666666666
 30
0.0
 11
0.0
 21
0.0
 31
0.0
  0
LINE
  5
70
330
6D
100
AcDbEntity
  8
0
  6
BYBLOCK
 62
     0
100
AcDbLine
 10
0.0
 20
0.0
 30
0.0
 11
-1.0
 21
-0.1666666666666666
 31
0.0
  0
LINE
  5
71
330
6D
100
AcDbEntity
  8
0
  6
BYBLOCK
 62
     0
100
AcDbLine
 10
0.0
 20
0.0
 30
0.0
 11
-1.0
 21
0.0
 31
0.0
  0
ENDBLK
  5
72
330
6D
100
AcDbEntity
  8
0
100
AcDbBlockEnd
  0
BLOCK
  5
E77
330
CE3
100
AcDbEntity
  8
0
100
AcDbBlockBegin
  2
*X1
 70
     1
 10
0.0
 20
0.0
 30
0.0
  3
*X1
  1

  0
LINE
  5
CE4
330
CE3
100
AcDbEntity
  8
0
 62
     0
100
AcDbLine
 10
69.04221213871108
 20
22.60416951097994
 30
0.0
 11
68.39638120899616
 21
23.25000044069491
 31
0.0
  0
LINE
  5
CE5
330
CE3
100
AcDbEntity
  8
0
 62
     0
100
AcDbLine
 10
69.04221213871108
 20
21.70614389887305
 30
0.0
 11
67.49835559688921
 21
23.25000044069491
 31
0.0
  0
LINE
  5
CE6
330
CE3
100
AcDbEntity
  8
0
 62
     0
100
AcDbLine
 10
69.04221213871102
 20
20.8081182867661
 30
0.0
 11
66.62107819269607
 21
23.22925223278105
 31
0.0
  0
LINE
  5
CE7
330
CE3
100
AcDbEntity
  8
0
 62
     0
100
AcDbLine
 10
69.04221213871108
 20
19.91009267465926
 30
0.0
 11
66.24221213871101
 21
22.71009267465927
 31
0.0
  0
LINE
  5
CE8
330
CE3
100
AcDbEntity
  8
0
 62
     0
100
AcDbLine
 10
69.04221213871108
 20
19.01206706255232
 30
0.0
 11
66.24221213871101
 21
21.81206706255238
 31
0.0
  0
LINE
  5
CE9
330
CE3
100
AcDbEntity
  8
0
 62
     0
100
AcDbLine
 10
69.04221213871102
 20
18.11404145044537
 30
0.0
 11
66.24221213871095
 21
20.91404145044543
 31
0.0
  0
LINE
  5
CEA
330
CE3
100
AcDbEntity
  8
0
 62
     0
100
AcDbLine
 10
64.14221213871099
 20
22.11601583833857
 30
0.0
 11
63.00822753635469
 21
23.25000044069491
 31
0.0
  0
LINE
  5
CEB
330
CE3
100
AcDbEntity
  8
0
 62
     0
100
AcDbLine
 10
69.04221213871108
 20
17.21601583833853
 30
0.0
 11
66.24221213871101
 21
20.0160158383386
 31
0.0
  0
LINE
  5
CEC
330
CE3
100
AcDbEntity
  8
0
 62
     0
100
AcDbLine
 10
64.14221213871099
 20
21.21799022623167
 30
0.0
 11
62.11020192424775
 21
23.25000044069486
 31
0.0
  0
LINE
  5
CED
330
CE3
100
AcDbEntity
  8
0
 62
     0
100
AcDbLine
 10
69.04221213871102
 20
16.31799022623158
 30
0.0
 11
66.24221213871101
 21
19.11799022623165
 31
0.0
  0
LINE
  5
CEE
330
CE3
100
AcDbEntity
  8
0
 62
     0
100
AcDbLine
 10
64.14221213871099
 20
20.31996461412473
 30
0.0
 11
61.43670117357391
 21
23.0254755792618
 31
0.0
  0
LINE
  5
CEF
330
CE3
100
AcDbEntity
  8
0
 62
     0
100
AcDbLine
 10
69.04221213871102
 20
15.41996461412469
 30
0.0
 11
66.24221213871095
 21
18.2199646141247
 31
0.0
  0
LINE
  5
CF0
330
CE3
100
AcDbEntity
  8
0
 62
     0
100
AcDbLine
 10
64.1422121387111
 20
19.42193900201772
 30
0.0
 11
61.34221213871092
 21
22.22193900201784
 31
0.0
  0
LINE
  5
CF1
330
CE3
100
AcDbEntity
  8
0
 62
     0
100
AcDbLine
 10
69.04221213871108
 20
14.52193900201774
 30
0.0
 11
66.24221213871101
 21
17.32193900201781
 31
0.0
  0
LINE
  5
CF2
330
CE3
100
AcDbEntity
  8
0
 62
     0
100
AcDbLine
 10
64.14221213871105
 20
18.52391338991083
 30
0.0
 11
61.34221213871092
 21
21.32391338991101
 31
0.0
  0
LINE
  5
CF3
330
CE3
100
AcDbEntity
  8
0
 62
     0
100
AcDbLine
 10
69.04221213871102
 20
13.62391338991085
 30
0.0
 11
66.24221213871095
 21
16.42391338991092
 31
0.0
  0
LINE
  5
CF4
330
CE3
100
AcDbEntity
  8
0
 62
     0
100
AcDbLine
 10
64.14221213871105
 20
17.62588777780393
 30
0.0
 11
61.34221213871092
 21
20.42588777780406
 31
0.0
  0
LINE
  5
CF5
330
CE3
100
AcDbEntity
  8
0
 62
     0
100
AcDbLine
 10
69.04221213871102
 20
12.72588777780396
 30
0.0
 11
66.24221213871095
 21
15.52588777780403
 31
0.0
  0
LINE
  5
CF6
330
CE3
100
AcDbEntity
  8
0
 62
     0
100
AcDbLine
 10
64.14221213871099
 20
16.72786216569699
 30
0.0
 11
61.34221213871086
 21
19.52786216569711
 31
0.0
  0
LINE
  5
CF7
330
CE3
100
AcDbEntity
  8
0
 62
     0
100
AcDbLine
 10
69.04221213871096
 20
11.82786216569701
 30
0.0
 11
66.24221213871095
 21
14.62786216569708
 31
0.0
  0
LINE
  5
CF8
330
CE3
100
AcDbEntity
  8
0
 62
     0
100
AcDbLine
 10
64.14221213871105
 20
15.82983655359015
 30
0.0
 11
61.34221213871092
 21
18.62983655359028
 31
0.0
  0
LINE
  5
CF9
330
CE3
100
AcDbEntity
  8
0
 62
     0
100
AcDbLine
 10
57.84221213871098
 20
22.12983655359022
 30
0.0
 11
56.72204825160633
 21
23.25000044069486
 31
0.0
  0
LINE
  5
CFA
330
CE3
100
AcDbEntity
  8
0
 62
     0
100
AcDbLine
 10
69.04221213871102
 20
10.92983655359017
 30
0.0
 11
66.24221213871095
 21
13.72983655359019
 31
0.0
  0
LINE
  5
CFB
330
CE3
100
AcDbEntity
  8
0
 62
     0
100
AcDbLine
 10
64.14221213871105
 20
14.9318109414832
 30
0.0
 11
61.34221213871086
 21
17.73181094148333
 31
0.0
  0
LINE
  5
CFC
330
CE3
100
AcDbEntity
  8
0
 62
     0
100
AcDbLine
 10
57.84221213871092
 20
21.23181094148327
 30
0.0
 11
55.82402263949939
 21
23.25000044069486
 31
0.0
  0
LINE
  5
CFD
330
CE3
100
AcDbEntity
  8
0
 62
     0
100
AcDbLine
 10
69.04221213871102
 20
10.03181094148323
 30
0.0
 11
66.24221213871095
 21
12.83181094148329
 31
0.0
  0
LINE
  5
CFE
330
CE3
100
AcDbEntity
  8
0
 62
     0
100
AcDbLine
 10
64.14221213871099
 20
14.03378532937631
 30
0.0
 11
61.34221213871092
 21
16.83378532937632
 31
0.0
  0
LINE
  5
CFF
330
CE3
100
AcDbEntity
  8
0
 62
     0
100
AcDbLine
 10
57.84221213871092
 20
20.33378532937638
 30
0.0
 11
55.14244941538692
 21
23.03354805270038
 31
0.0
  0
LINE
  5
D00
330
CE3
100
AcDbEntity
  8
0
 62
     0
100
AcDbLine
 10
69.04221213871096
 20
9.133785329376337
 30
0.0
 11
66.2422121387109
 21
11.93378532937634
 31
0.0
  0
LINE
  5
D01
330
CE3
100
AcDbEntity
  8
0
 62
     0
100
AcDbLine
 10
64.14221213871105
 20
13.13575971726936
 30
0.0
 11
61.34221213871097
 21
15.93575971726943
 31
0.0
  0
LINE
  5
D02
330
CE3
100
AcDbEntity
  8
0
 62
     0
100
AcDbLine
 10
57.84221213871098
 20
19.43575971726943
 30
0.0
 11
55.04221213871097
 21
22.23575971726944
 31
0.0
  0
LINE
  5
D03
330
CE3
100
AcDbEntity
  8
0
 62
     0
100
AcDbLine
 10
69.04221213871102
 20
8.235759717269388
 30
0.0
 11
66.24221213871095
 21
11.03575971726945
 31
0.0
  0
LINE
  5
D04
330
CE3
100
AcDbEntity
  8
0
 62
     0
100
AcDbLine
 10
64.14221213871099
 20
12.23773410516247
 30
0.0
 11
61.34221213871097
 21
15.03773410516254
 31
0.0
  0
LINE
  5
D05
330
CE3
100
AcDbEntity
  8
0
 62
     0
100
AcDbLine
 10
57.84221213871103
 20
18.53773410516248
 30
0.0
 11
55.04221213871097
 21
21.33773410516255
 31
0.0
  0
LINE
  5
D06
330
CE3
100
AcDbEntity
  8
0
 62
     0
100
AcDbLine
 10
68.97024678382121
 20
7.409699460052308
 30
0.0
 11
66.24221213871095
 21
10.13773410516256
 31
0.0
  0
LINE
  5
D07
330
CE3
100
AcDbEntity
  8
0
 62
     0
100
AcDbLine
 10
64.14221213871105
 20
11.33970849305546
 30
0.0
 11
61.34221213871092
 21
14.13970849305559
 31
0.0
  0
LINE
  5
D08
330
CE3
100
AcDbEntity
  8
0
 62
     0
100
AcDbLine
 10
57.84221213871098
 20
17.63970849305559
 30
0.0
 11
55.0422121387109
 21
20.4397084930556
 31
0.0
  0
LINE
  5
D09
330
CE3
100
AcDbEntity
  8
0
 62
     0
100
AcDbLine
 10
68.33192019107173
 20
7.150000440694839
 30
0.0
 11
66.2422121387109
 21
9.239708493055672
 31
0.0
  0
LINE
  5
D0A
330
CE3
100
AcDbEntity
  8
0
 62
     0
100
AcDbLine
 10
57.84221213871098
 20
16.74168288094864
 30
0.0
 11
55.0422121387109
 21
19.54168288094871
 31
0.0
  0
LINE
  5
D0B
330
CE3
100
AcDbEntity
  8
0
 62
     0
100
AcDbLine
 10
64.14221213871105
 20
10.44168288094857
 30
0.0
 11
61.34221213871092
 21
13.2416828809487
 31
0.0
  0
LINE
  5
D0C
330
CE3
100
AcDbEntity
  8
0
 62
     0
100
AcDbLine
 10
52.41721213871096
 20
22.16668288094865
 30
0.0
 11
51.33389457896481
 21
23.25000044069474
 31
0.0
  0
LINE
  5
D0D
330
CE3
100
AcDbEntity
  8
0
 62
     0
100
AcDbLine
 10
67.43389457896483
 20
7.150000440694725
 30
0.0
 11
66.2422121387109
 21
8.341682880948724
 31
0.0
  0
LINE
  5
D0E
330
CE3
100
AcDbEntity
  8
0
 62
     0
100
AcDbLine
 10
57.84221213871098
 20
15.84365726884175
 30
0.0
 11
55.04221213871102
 21
18.64365726884176
 31
0.0
  0
LINE
  5
D0F
330
CE3
100
AcDbEntity
  8
0
 62
     0
100
AcDbLine
 10
52.41721213871096
 20
21.26865726884176
 30
0.0
 11
50.43586896685798
 21
23.2500004406948
 31
0.0
  0
LINE
  5
D10
330
CE3
100
AcDbEntity
  8
0
 62
     0
100
AcDbLine
 10
64.11625383806546
 20
9.569615569487325
 30
0.0
 11
61.34221213871092
 21
12.34365726884181
 31
0.0
  0
LINE
  5
D11
330
CE3
100
AcDbEntity
  8
0
 62
     0
100
AcDbLine
 10
57.84221213871098
 20
14.94563165673486
 30
0.0
 11
55.04221213871102
 21
17.74563165673481
 31
0.0
  0
LINE
  5
D12
330
CE3
100
AcDbEntity
  8
0
 62
     0
100
AcDbLine
 10
52.22163159259713
 20
20.5662122028487
 30
0.0
 11
49.53784335475098
 21
23.25000044069486
 31
0.0
  0
LINE
  5
D13
330
CE3
100
AcDbEntity
  8
0
 62
     0
100
AcDbLine
 10
63.92326854280821
 20
8.864575252637564
 30
0.0
 11
61.34221213871092
 21
11.44563165673491
 31
0.0
  0
LINE
  5
D14
330
CE3
100
AcDbEntity
  8
0
 62
     0
100
AcDbLine
 10
57.84221213871098
 20
14.04760604462791
 30
0.0
 11
55.04221213871097
 21
16.84760604462792
 31
0.0
  0
LINE
  5
D15
330
CE3
100
AcDbEntity
  8
0
 62
     0
100
AcDbLine
 10
51.43981774264398
 20
20.45000044069485
 30
0.0
 11
48.63981774264408
 21
23.25000044069474
 31
0.0
  0
LINE
  5
D16
330
CE3
100
AcDbEntity
  8
0
 62
     0
100
AcDbLine
 10
63.59823666688464
 20
8.291581516454186
 30
0.0
 11
61.27069639955141
 21
10.61912178378747
 31
0.0
  0
LINE
  5
D17
330
CE3
100
AcDbEntity
  8
0
 62
     0
100
AcDbLine
 10
57.84221213871098
 20
13.14958043252107
 30
0.0
 11
55.04221213871102
 21
15.94958043252103
 31
0.0
  0
LINE
  5
D18
330
CE3
100
AcDbEntity
  8
0
 62
     0
100
AcDbLine
 10
50.54179213053714
 20
20.4500004406949
 30
0.0
 11
47.80422540135975
 21
23.18756716987229
 31
0.0
  0
LINE
  5
D19
330
CE3
100
AcDbEntity
  8
0
 62
     0
100
AcDbLine
 10
63.16619486955961
 20
7.825597701672393
 30
0.0
 11
60.8691107610839
 21
10.12268181014809
 31
0.0
  0
LINE
  5
D1A
330
CE3
100
AcDbEntity
  8
0
 62
     0
100
AcDbLine
 10
57.84221213871098
 20
12.25155482041413
 30
0.0
 11
55.04221213871097
 21
15.05155482041408
 31
0.0
  0
LINE
  5
D1B
330
CE3
100
AcDbEntity
  8
0
 62
     0
100
AcDbLine
 10
49.6437665184302
 20
20.4500004406949
 30
0.0
 11
47.13958497682637
 21
22.95418198229867
 31
0.0
  0
LINE
  5
D1C
330
CE3
100
AcDbEntity
  8
0
 62
     0
100
AcDbLine
 10
62.63003252463358
 20
7.463734434491527
 30
0.0
 11
60.14376651843019
 21
9.95000044069485
 31
0.0
  0
LINE
  5
D1D
330
CE3
100
AcDbEntity
  8
0
 62
     0
100
AcDbLine
 10
57.84221213871092
 20
11.35352920830718
 30
0.0
 11
55.04221213871097
 21
14.15352920830719
 31
0.0
  0
LINE
  5
D1E
330
CE3
100
AcDbEntity
  8
0
 62
     0
100
AcDbLine
 10
48.76753073434139
 20
20.4282106126767
 30
0.0
 11
46.59698403961619
 21
22.59875730740191
 31
0.0
  0
LINE
  5
D1F
330
CE3
100
AcDbEntity
  8
0
 62
     0
100
AcDbLine
 10
61.97361996472228
 20
7.222121382295881
 30
0.0
 11
59.2457409063233
 21
9.95000044069485
 31
0.0
  0
LINE
  5
D20
330
CE3
100
AcDbEntity
  8
0
 62
     0
100
AcDbLine
 10
48.39221213871105
 20
19.9055035962001
 30
0.0
 11
46.15887198057163
 21
22.13884375433952
 31
0.0
  0
LINE
  5
D21
330
CE3
100
AcDbEntity
  8
0
 62
     0
100
AcDbLine
 10
61.14771529421642
 20
7.150000440694782
 30
0.0
 11
55.04221213871097
 21
13.25550359620024
 31
0.0
  0
LINE
  5
D22
330
CE3
100
AcDbEntity
  8
0
 62
     0
100
AcDbLine
 10
48.3922121387111
 20
19.00747798409327
 30
0.0
 11
45.82710106821861
 21
21.57258905458576
 31
0.0
  0
LINE
  5
D23
330
CE3
100
AcDbEntity
  8
0
 62
     0
100
AcDbLine
 10
60.24968968210953
 20
7.150000440694782
 30
0.0
 11
55.04221213871097
 21
12.3574779840934
 31
0.0
  0
LINE
  5
D24
330
CE3
100
AcDbEntity
  8
0
 62
     0
100
AcDbLine
 10
48.59875641981483
 20
17.90290809088259
 30
0.0
 11
45.6249225488545
 21
20.87674196184286
 31
0.0
  0
LINE
  5
D25
330
CE3
100
AcDbEntity
  8
0
 62
     0
100
AcDbLine
 10
59.35166407000264
 20
7.150000440694782
 30
0.0
 11
55.04221213871097
 21
11.45945237198645
 31
0.0
  0
LINE
  5
D26
330
CE3
100
AcDbEntity
  8
0
 62
     0
100
AcDbLine
 10
52.81581584140235
 20
12.78782305718812
 30
0.0
 11
45.59221213871097
 21
20.01142675987944
 31
0.0
  0
LINE
  5
D27
330
CE3
100
AcDbEntity
  8
0
 62
     0
100
AcDbLine
 10
43.49221213871089
 20
22.11142675987951
 30
0.0
 11
42.35363845789561
 21
23.25000044069486
 31
0.0
  0
LINE
  5
D28
330
CE3
100
AcDbEntity
  8
0
 62
     0
100
AcDbLine
 10
58.45363845789569
 20
7.150000440694782
 30
0.0
 11
55.0422121387109
 21
10.56142675987951
 31
0.0
  0
LINE
  5
D29
330
CE3
100
AcDbEntity
  8
0
 62
     0
100
AcDbLine
 10
52.94221213871106
 20
11.76340114777258
 30
0.0
 11
45.59221213871103
 21
19.1134011477726
 31
0.0
  0
LINE
  5
D2A
330
CE3
100
AcDbEntity
  8
0
 62
     0
100
AcDbLine
 10
43.49221213871101
 20
21.21340114777257
 30
0.0
 11
41.45561284578866
 21
23.25000044069497
 31
0.0
  0
LINE
  5
D2B
330
CE3
100
AcDbEntity
  8
0
 62
     0
100
AcDbLine
 10
57.53916496704391
 20
7.166448319439723
 30
0.0
 11
55.05866001745591
 21
9.646953269027733
 31
0.0
  0
LINE
  5
D2C
330
CE3
100
AcDbEntity
  8
0
 62
     0
100
AcDbLine
 10
43.49221213871101
 20
20.31537553566568
 30
0.0
 11
40.78482225093568
 21
23.02276542344094
 31
0.0
  0
LINE
  5
D2D
330
CE3
100
AcDbEntity
  8
0
 62
     0
100
AcDbLine
 10
52.942212138711
 20
10.86537553566563
 30
0.0
 11
45.61562280659336
 21
18.19196486778332
 31
0.0
  0
LINE
  5
D2E
330
CE3
100
AcDbEntity
  8
0
 62
     0
100
AcDbLine
 10
43.49221213871101
 20
19.41734992355873
 30
0.0
 11
40.692212138711
 21
22.21734992355868
 31
0.0
  0
LINE
  5
D2F
330
CE3
100
AcDbEntity
  8
0
 62
     0
100
AcDbLine
 10
52.94221213871089
 20
9.967349923558799
 30
0.0
 11
45.93374222443339
 21
16.97581983783635
 31
0.0
  0
LINE
  5
D30
330
CE3
100
AcDbEntity
  8
0
 62
     0
100
AcDbLine
 10
43.49221213871101
 20
18.51932431145184
 30
0.0
 11
40.69221213871105
 21
21.31932431145179
 31
0.0
  0
LINE
  5
D31
330
CE3
100
AcDbEntity
  8
0
 62
     0
100
AcDbLine
 10
52.83365032112192
 20
9.177886129040928
 30
0.0
 11
50.13801553208361
 21
11.87352091807923
 31
0.0
  0
LINE
  5
D32
330
CE3
100
AcDbEntity
  8
0
 62
     0
100
AcDbLine
 10
43.49221213871101
 20
17.62129869934494
 30
0.0
 11
40.692212138711
 21
20.4212986993449
 31
0.0
  0
LINE
  5
D33
330
CE3
100
AcDbEntity
  8
0
 62
     0
100
AcDbLine
 10
38.40072523813399
 20
22.71278559992191
 30
0.0
 11
37.86351039736109
 21
23.25000044069486
 31
0.0
  0
LINE
  5
D34
330
CE3
100
AcDbEntity
  8
0
 62
     0
100
AcDbLine
 10
52.56577461336036
 20
8.547736224695597
 30
0.0
 11
50.14221213871104
 21
10.97129869934491
 31
0.0
  0
LINE
  5
D35
330
CE3
100
AcDbEntity
  8
0
 62
     0
100
AcDbLine
 10
43.49221213871095
 20
16.72327308723799
 30
0.0
 11
40.692212138711
 21
19.52327308723801
 31
0.0
  0
LINE
  5
D36
330
CE3
100
AcDbEntity
  8
0
 62
     0
100
AcDbLine
 10
38.20179757388137
 20
22.01368765206757
 30
0.0
 11
36.96548478525414
 21
23.25000044069486
 31
0.0
  0
LINE
  5
D37
330
CE3
100
AcDbEntity
  8
0
 62
     0
100
AcDbLine
 10
52.18278781518506
 20
8.032697410763944
 30
0.0
 11
50.04492695582456
 21
10.17055827012444
 31
0.0
  0
LINE
  5
D38
330
CE3
100
AcDbEntity
  8
0
 62
     0
100
AcDbLine
 10
43.49221213871095
 20
15.8252474751311
 30
0.0
 11
40.692212138711
 21
18.62524747513106
 31
0.0
  0
LINE
  5
D39
330
CE3
100
AcDbEntity
  8
0
 62
     0
100
AcDbLine
 10
37.98627142697569
 20
21.33118818686631
 30
0.0
 11
36.0770558635051
 21
23.24040375033695
 31
0.0
  0
LINE
  5
D3A
330
CE3
100
AcDbEntity
  8
0
 62
     0
100
AcDbLine
 10
51.69646885006944
 20
7.620990763772567
 30
0.0
 11
49.36745917314721
 21
9.95000044069485
 31
0.0
  0
LINE
  5
D3B
330
CE3
100
AcDbEntity
  8
0
 62
     0
100
AcDbLine
 10
43.49221213871101
 20
14.92722186302421
 30
0.0
 11
40.692212138711
 21
17.72722186302416
 31
0.0
  0
LINE
  5
D3C
330
CE3
100
AcDbEntity
  8
0
 62
     0
100
AcDbLine
 10
37.77074528007017
 20
20.64868872166505
 30
0.0
 11
35.64274528007013
 21
22.77668872166509
 31
0.0
  0
LINE
  5
D3D
330
CE3
100
AcDbEntity
  8
0
 62
     0
100
AcDbLine
 10
51.10038490160906
 20
7.319049100126107
 30
0.0
 11
48.46943356104032
 21
9.950000440694907
 31
0.0
  0
LINE
  5
D3E
330
CE3
100
AcDbEntity
  8
0
 62
     0
100
AcDbLine
 10
43.49221213871095
 20
14.02919625091732
 30
0.0
 11
40.692212138711
 21
16.82919625091727
 31
0.0
  0
LINE
  5
D3F
330
CE3
100
AcDbEntity
  8
0
 62
     0
100
AcDbLine
 10
37.55521913316431
 20
19.96618925646396
 30
0.0
 11
35.42721913316432
 21
22.09418925646394
 31
0.0
  0
LINE
  5
D40
330
CE3
100
AcDbEntity
  8
0
 62
     0
100
AcDbLine
 10
50.36271224996159
 20
7.158696139666687
 30
0.0
 11
47.57140794893342
 21
9.95000044069485
 31
0.0
  0
LINE
  5
D41
330
CE3
100
AcDbEntity
  8
0
 62
     0
100
AcDbLine
 10
43.49221213871095
 20
13.13117063881037
 30
0.0
 11
40.69221213871094
 21
15.93117063881033
 31
0.0
  0
LINE
  5
D42
330
CE3
100
AcDbEntity
  8
0
 62
     0
100
AcDbLine
 10
37.33969298625874
 20
19.28368979126259
 30
0.0
 11
35.21169298625864
 21
21.41168979126263
 31
0.0
  0
LINE
  5
D43
330
CE3
100
AcDbEntity
  8
0
 62
     0
100
AcDbLine
 10
49.47338233682654
 20
7.150000440694782
 30
0.0
 11
46.67338233682648
 21
9.95000044069485
 31
0.0
  0
LINE
  5
D44
330
CE3
100
AcDbEntity
  8
0
 62
     0
100
AcDbLine
 10
43.49221213871095
 20
12.23314502670348
 30
0.0
 11
40.692212138711
 21
15.03314502670349
 31
0.0
  0
LINE
  5
D45
330
CE3
100
AcDbEntity
  8
0
 62
     0
100
AcDbLine
 10
37.12416683935311
 20
18.60119032606138
 30
0.0
 11
34.996166839353
 21
20.72919032606142
 31
0.0
  0
LINE
  5
D46
330
CE3
100
AcDbEntity
  8
0
 62
     0
100
AcDbLine
 10
48.57535672471965
 20
7.150000440694839
 30
0.0
 11
46.14174502742327
 21
9.583612137991224
 31
0.0
  0
LINE
  5
D47
330
CE3
100
AcDbEntity
  8
0
 62
     0
100
AcDbLine
 10
36.90864069244748
 20
17.91869086086001
 30
0.0
 11
34.78064069244737
 21
20.04669086086016
 31
0.0
  0
LINE
  5
D48
330
CE3
100
AcDbEntity
  8
0
 62
     0
100
AcDbLine
 10
43.49221213871095
 20
11.33511941459659
 30
0.0
 11
40.692212138711
 21
14.13511941459654
 31
0.0
  0
LINE
  5
D49
330
CE3
100
AcDbEntity
  8
0
 62
     0
100
AcDbLine
 10
32.64221213871099
 20
22.18511941459655
 30
0.0
 11
31.57733111261268
 21
23.2500004406948
 31
0.0
  0
LINE
  5
D4A
330
CE3
100
AcDbEntity
  8
0
 62
     0
100
AcDbLine
 10
47.67733111261276
 20
7.150000440694782
 30
0.0
 11
46.11721213871101
 21
8.710119414596533
 31
0.0
  0
LINE
  5
D4B
330
CE3
100
AcDbEntity
  8
0
 62
     0
100
AcDbLine
 10
36.69311454554167
 20
17.23619139565892
 30
0.0
 11
34.56511454554174
 21
19.36419139565884
 31
0.0
  0
LINE
  5
D4C
330
CE3
100
AcDbEntity
  8
0
 62
     0
100
AcDbLine
 10
43.49221213871095
 20
10.43709380248964
 30
0.0
 11
40.69221213871094
 21
13.23709380248965
 31
0.0
  0
LINE
  5
D4D
330
CE3
100
AcDbEntity
  8
0
 62
     0
100
AcDbLine
 10
32.64221213871099
 20
21.2870938024896
 30
0.0
 11
30.67930550050579
 21
23.2500004406948
 31
0.0
  0
LINE
  5
D4E
330
CE3
100
AcDbEntity
  8
0
 62
     0
100
AcDbLine
 10
46.77930550050575
 20
7.150000440694839
 30
0.0
 11
46.11721213871095
 21
7.812093802489584
 31
0.0
  0
LINE
  5
D4F
330
CE3
100
AcDbEntity
  8
0
 62
     0
100
AcDbLine
 10
36.47758839863604
 20
16.5536919304576
 30
0.0
 11
34.349588398636
 21
18.68169193045764
 31
0.0
  0
LINE
  5
D50
330
CE3
100
AcDbEntity
  8
0
 62
     0
100
AcDbLine
 10
32.64221213871093
 20
20.38906819038265
 30
0.0
 11
29.96676720981332
 21
23.06451311928032
 31
0.0
  0
LINE
  5
D51
330
CE3
100
AcDbEntity
  8
0
 62
     0
100
AcDbLine
 10
43.49221213871089
 20
9.539068190382749
 30
0.0
 11
40.69221213871094
 21
12.3390681903827
 31
0.0
  0
LINE
  5
D52
330
CE3
100
AcDbEntity
  8
0
 62
     0
100
AcDbLine
 10
36.26206225173041
 20
15.8711924652564
 30
0.0
 11
34.13406225173043
 21
17.99919246525638
 31
0.0
  0
LINE
  5
D53
330
CE3
100
AcDbEntity
  8
0
 62
     0
100
AcDbLine
 10
32.64221213871099
 20
19.49104257827582
 30
0.0
 11
29.84221213871092
 21
22.29104257827583
 31
0.0
  0
LINE
  5
D54
330
CE3
100
AcDbEntity
  8
0
 62
     0
100
AcDbLine
 10
43.49221213871095
 20
8.641042578275857
 30
0.0
 11
40.69221213871094
 21
11.44104257827581
 31
0.0
  0
LINE
  5
D55
330
CE3
100
AcDbEntity
  8
0
 62
     0
100
AcDbLine
 10
36.05697374233836
 20
15.1782553625415
 30
0.0
 11
33.91853610482468
 21
17.31669300005518
 31
0.0
  0
LINE
  5
D56
330
CE3
100
AcDbEntity
  8
0
 62
     0
100
AcDbLine
 10
32.64221213871099
 20
18.59301696616887
 30
0.0
 11
29.84221213871092
 21
21.39301696616894
 31
0.0
  0
LINE
  5
D57
330
CE3
100
AcDbEntity
  8
0
 62
     0
100
AcDbLine
 10
43.49221213871089
 20
7.743016966168909
 30
0.0
 11
40.69221213871094
 21
10.54301696616892
 31
0.0
  0
LINE
  5
D58
330
CE3
100
AcDbEntity
  8
0
 62
     0
100
AcDbLine
 10
36.47144710177235
 20
13.86575639100056
 30
0.0
 11
33.62798860914006
 21
16.70921488363285
 31
0.0
  0
LINE
  5
D59
330
CE3
100
AcDbEntity
  8
0
 62
     0
100
AcDbLine
 10
32.64221213871104
 20
17.69499135406187
 30
0.0
 11
29.84221213871086
 21
20.49499135406199
 31
0.0
  0
LINE
  5
D5A
330
CE3
100
AcDbEntity
  8
0
 62
     0
100
AcDbLine
 10
43.15316714137856
 20
7.184036351394297
 30
0.0
 11
40.692212138711
 21
9.644991354061914
 31
0.0
  0
LINE
  5
D5B
330
CE3
100
AcDbEntity
  8
0
 62
     0
100
AcDbLine
 10
36.88592046120635
 20
12.55325741945972
 30
0.0
 11
29.84221213871092
 21
19.59696574195516
 31
0.0
  0
LINE
  5
D5C
330
CE3
100
AcDbEntity
  8
0
 62
     0
100
AcDbLine
 10
27.39221213871104
 20
22.04696574195503
 30
0.0
 11
26.18917743997127
 21
23.2500004406948
 31
0.0
  0
LINE
  5
D5D
330
CE3
100
AcDbEntity
  8
0
 62
     0
100
AcDbLine
 10
42.28917743997129
 20
7.150000440694782
 30
0.0
 11
40.69221213871105
 21
8.746965741955023
 31
0.0
  0
LINE
  5
D5E
330
CE3
100
AcDbEntity
  8
0
 62
     0
100
AcDbLine
 10
37.3003938206404
 20
11.24075844791872
 30
0.0
 11
29.84221213871092
 21
18.69894012984821
 31
0.0
  0
LINE
  5
D5F
330
CE3
100
AcDbEntity
  8
0
 62
     0
100
AcDbLine
 10
27.39221213871104
 20
21.14894012984808
 30
0.0
 11
25.29115182786426
 21
23.25000044069486
 31
0.0
  0
LINE
  5
D60
330
CE3
100
AcDbEntity
  8
0
 62
     0
100
AcDbLine
 10
41.39115182786435
 20
7.150000440694725
 30
0.0
 11
40.692212138711
 21
7.848940129848131
 31
0.0
  0
LINE
  5
D61
330
CE3
100
AcDbEntity
  8
0
 62
     0
100
AcDbLine
 10
27.12530544332094
 20
20.51782121313124
 30
0.0
 11
24.42508372510951
 21
23.21804293134261
 31
0.0
  0
LINE
  5
D62
330
CE3
100
AcDbEntity
  8
0
 62
     0
100
AcDbLine
 10
37.71486718007435
 20
9.928259476377832
 30
0.0
 11
29.84221213871098
 21
17.8009145177412
 31
0.0
  0
LINE
  5
D63
330
CE3
100
AcDbEntity
  8
0
 62
     0
100
AcDbLine
 10
32.9797210610526
 20
13.76537998329268
 30
0.0
 11
29.84221213871098
 21
16.90288890563431
 31
0.0
  0
LINE
  5
D64
330
CE3
100
AcDbEntity
  8
0
 62
     0
100
AcDbLine
 10
26.29510060365049
 20
20.45000044069473
 30
0.0
 11
23.68704065552225
 21
23.05806038882303
 31
0.0
  0
LINE
  5
D65
330
CE3
100
AcDbEntity
  8
0
 62
     0
100
AcDbLine
 10
38.1293405395084
 20
8.615760504836885
 30
0.0
 11
34.03703284720052
 21
12.70806819714471
 31
0.0
  0
LINE
  5
D66
330
CE3
100
AcDbEntity
  8
0
 62
     0
100
AcDbLine
 10
32.64221213871104
 20
13.20486329352735
 30
0.0
 11
29.84221213871098
 21
16.00486329352742
 31
0.0
  0
LINE
  5
D67
330
CE3
100
AcDbEntity
  8
0
 62
     0
100
AcDbLine
 10
25.39707499154349
 20
20.45000044069485
 30
0.0
 11
23.04831923969152
 21
22.79875619254681
 31
0.0
  0
LINE
  5
D68
330
CE3
100
AcDbEntity
  8
0
 62
     0
100
AcDbLine
 10
38.36437939721901
 20
7.48269603501933
 30
0.0
 11
34.45150620663446
 21
11.39556922560393
 31
0.0
  0
LINE
  5
D69
330
CE3
100
AcDbEntity
  8
0
 62
     0
100
AcDbLine
 10
32.64221213871099
 20
12.30683768142046
 30
0.0
 11
29.84221213871092
 21
15.10683768142047
 31
0.0
  0
LINE
  5
D6A
330
CE3
100
AcDbEntity
  8
0
 62
     0
100
AcDbLine
 10
24.55396148899996
 20
20.39508833113149
 30
0.0
 11
22.48957026435698
 21
22.45947955577446
 31
0.0
  0
LINE
  5
D6B
330
CE3
100
AcDbEntity
  8
0
 62
     0
100
AcDbLine
 10
37.79904937943666
 20
7.150000440694782
 30
0.0
 11
34.8659795660684
 21
10.08307025406304
 31
0.0
  0
LINE
  5
D6C
330
CE3
100
AcDbEntity
  8
0
 62
     0
100
AcDbLine
 10
32.64221213871099
 20
11.40881206931351
 30
0.0
 11
29.84221213871092
 21
14.20881206931358
 31
0.0
  0
LINE
  5
D6D
330
CE3
100
AcDbEntity
  8
0
 62
     0
100
AcDbLine
 10
23.98210529616096
 20
20.06891891186353
 30
0.0
 11
22.0019150557452
 21
22.0491091522793
 31
0.0
  0
LINE
  5
D6E
330
CE3
100
AcDbEntity
  8
0
 62
     0
100
AcDbLine
 10
36.90102376732971
 20
7.150000440694782
 30
0.0
 11
35.28045292550245
 21
8.770571282522041
 31
0.0
  0
LINE
  5
D6F
330
CE3
100
AcDbEntity
  8
0
 62
     0
100
AcDbLine
 10
27.72764127150873
 20
15.42535732440893
 30
0.0
 11
26.21756902242498
 21
16.93542957349268
 31
0.0
  0
LINE
  5
D70
330
CE3
100
AcDbEntity
  8
0
 62
     0
100
AcDbLine
 10
32.6422121387111
 20
10.51078645720656
 30
0.0
 11
29.84221213871098
 21
13.31078645720668
 31
0.0
  0
LINE
  5
D71
330
CE3
100
AcDbEntity
  8
0
 62
     0
100
AcDbLine
 10
23.62598372603201
 20
19.52701486988564
 30
0.0
 11
21.58254902973396
 21
21.57044956618369
 31
0.0
  0
LINE
  5
D72
330
CE3
100
AcDbEntity
  8
0
 62
     0
100
AcDbLine
 10
35.95266515101821
 20
7.200333444899456
 30
0.0
 11
35.7023109794269
 21
7.450687616490768
 31
0.0
  0
LINE
  5
D73
330
CE3
100
AcDbEntity
  8
0
 62
     0
100
AcDbLine
 10
27.64112761136681
 20
14.6138453724439
 30
0.0
 11
25.40605707045995
 21
16.84891591335076
 31
0.0
  0
LINE
  5
D74
330
CE3
100
AcDbEntity
  8
0
 62
     0
100
AcDbLine
 10
23.54221213871107
 20
18.71276084509963
 30
0.0
 11
21.2336100087723
 21
21.02136297503841
 31
0.0
  0
LINE
  5
D75
330
CE3
100
AcDbEntity
  8
0
 62
     0
100
AcDbLine
 10
32.64221213871104
 20
9.612760845099614
 30
0.0
 11
29.84221213871092
 21
12.41276084509979
 31
0.0
  0
LINE
  5
D76
330
CE3
100
AcDbEntity
  8
0
 62
     0
100
AcDbLine
 10
27.30927205206876
 20
14.04767531963494
 30
0.0
 11
24.83988701765099
 21
16.51706035405271
 31
0.0
  0
LINE
  5
D77
330
CE3
100
AcDbEntity
  8
0
 62
     0
100
AcDbLine
 10
23.54221213871107
 20
17.81473523299268
 30
0.0
 11
20.96303030156212
 21
20.39391707014164
 31
0.0
  0
LINE
  5
D78
330
CE3
100
AcDbEntity
  8
0
 62
     0
100
AcDbLine
 10
32.64221213871104
 20
8.714735232992723
 30
0.0
 11
29.84221213871098
 21
11.51473523299279
 31
0.0
  0
LINE
  5
D79
330
CE3
100
AcDbEntity
  8
0
 62
     0
100
AcDbLine
 10
23.54221213871107
 20
16.91670962088579
 30
0.0
 11
20.78831642863627
 21
19.67060533096065
 31
0.0
  0
LINE
  5
D7A
330
CE3
100
AcDbEntity
  8
0
 62
     0
100
AcDbLine
 10
26.80743860993231
 20
13.65148314966461
 30
0.0
 11
24.44369484768066
 21
16.01522691191627
 31
0.0
  0
LINE
  5
D7B
330
CE3
100
AcDbEntity
  8
0
 62
     0
100
AcDbLine
 10
18.11721213871101
 20
22.34170962088592
 30
0.0
 11
17.20892131890201
 21
23.25000044069491
 31
0.0
  0
LINE
  5
D7C
330
CE3
100
AcDbEntity
  8
0
 62
     0
100
AcDbLine
 10
32.6422121387111
 20
7.816709620885831
 30
0.0
 11
29.84221213871103
 21
10.6167096208859
 31
0.0
  0
LINE
  5
D7D
330
CE3
100
AcDbEntity
  8
0
 62
     0
100
AcDbLine
 10
23.54221213871107
 20
16.0186840087789
 30
0.0
 11
20.74221213871101
 21
18.81868400877897
 31
0.0
  0
LINE
  5
D7E
330
CE3
100
AcDbEntity
  8
0
 62
     0
100
AcDbLine
 10
26.10711916750489
 20
13.45377697998509
 30
0.0
 11
24.24598867800114
 21
15.31490746948884
 31
0.0
  0
LINE
  5
D7F
330
CE3
100
AcDbEntity
  8
0
 62
     0
100
AcDbLine
 10
18.11721213871095
 20
21.44368400877897
 30
0.0
 11
16.31089570679506
 21
23.25000044069486
 31
0.0
  0
LINE
  5
D80
330
CE3
100
AcDbEntity
  8
0
 62
     0
100
AcDbLine
 10
32.35430833744038
 20
7.206587810049597
 30
0.0
 11
29.84221213871098
 21
9.71868400877895
 31
0.0
  0
LINE
  5
D81
330
CE3
100
AcDbEntity
  8
0
 62
     0
100
AcDbLine
 10
23.54221213871107
 20
15.12065839667195
 30
0.0
 11
20.74221213871101
 21
17.92065839667202
 31
0.0
  0
LINE
  5
D82
330
CE3
100
AcDbEntity
  8
0
 62
     0
100
AcDbLine
 10
18.00817816844062
 20
20.65469236694241
 30
0.0
 11
15.41287009468805
 21
23.25000044069491
 31
0.0
  0
LINE
  5
D83
330
CE3
100
AcDbEntity
  8
0
 62
     0
100
AcDbLine
 10
31.51287009468819
 20
7.150000440694839
 30
0.0
 11
29.84221213871098
 21
8.820658396672058
 31
0.0
  0
LINE
  5
D84
330
CE3
100
AcDbEntity
  8
0
 62
     0
100
AcDbLine
 10
23.54221213871102
 20
14.22263278456506
 30
0.0
 11
20.74221213871095
 21
17.02263278456507
 31
0.0
  0
LINE
  5
D85
330
CE3
100
AcDbEntity
  8
0
 62
     0
100
AcDbLine
 10
17.31484448258129
 20
20.45000044069479
 30
0.0
 11
14.51484448258116
 21
23.25000044069491
 31
0.0
  0
LINE
  5
D86
330
CE3
100
AcDbEntity
  8
0
 62
     0
100
AcDbLine
 10
30.61484448258124
 20
7.150000440694782
 30
0.0
 11
29.84221213871098
 21
7.922632784565109
 31
0.0
  0
LINE
  5
D87
330
CE3
100
AcDbEntity
  8
0
 62
     0
100
AcDbLine
 10
23.54221213871107
 20
13.32460717245817
 30
0.0
 11
20.74221213871101
 21
16.12460717245824
 31
0.0
  0
LINE
  5
D88
330
CE3
100
AcDbEntity
  8
0
 62
     0
100
AcDbLine
 10
16.4168188704744
 20
20.45000044069479
 30
0.0
 11
13.6516895983695
 21
23.21512971279975
 31
0.0
  0
LINE
  5
D89
330
CE3
100
AcDbEntity
  8
0
 62
     0
100
AcDbLine
 10
27.38960968987408
 20
9.477209621295116
 30
0.0
 11
26.91942131931137
 21
9.947397991857883
 31
0.0
  0
LINE
  5
D8A
330
CE3
100
AcDbEntity
  8
0
 62
     0
100
AcDbLine
 10
23.54221213871102
 20
12.42658156035122
 30
0.0
 11
20.74221213871101
 21
15.22658156035129
 31
0.0
  0
LINE
  5
D8B
330
CE3
100
AcDbEntity
  8
0
 62
     0
100
AcDbLine
 10
15.5187932583675
 20
20.45000044069479
 30
0.0
 11
12.95855478989102
 21
23.01023890917127
 31
0.0
  0
LINE
  5
D8C
330
CE3
100
AcDbEntity
  8
0
 62
     0
100
AcDbLine
 10
27.3922121387111
 20
8.576581560351201
 30
0.0
 11
26.01879325836745
 21
9.95000044069485
 31
0.0
  0
LINE
  5
D8D
330
CE3
100
AcDbEntity
  8
0
 62
     0
100
AcDbLine
 10
23.54221213871102
 20
11.52855594824433
 30
0.0
 11
20.74221213871106
 21
14.32855594824428
 31
0.0
  0
LINE
  5
D8E
330
CE3
100
AcDbEntity
  8
0
 62
     0
100
AcDbLine
 10
14.62076764626056
 20
20.45000044069473
 30
0.0
 11
12.39430813004378
 21
22.67645995691151
 31
0.0
  0
LINE
  5
D8F
330
CE3
100
AcDbEntity
  8
0
 62
     0
100
AcDbLine
 10
27.39221213871104
 20
7.678555948244252
 30
0.0
 11
25.12076764626056
 21
9.950000440694736
 31
0.0
  0
LINE
  5
D90
330
CE3
100
AcDbEntity
  8
0
 62
     0
100
AcDbLine
 10
14.11047481864597
 20
20.06226765620255
 30
0.0
 11
11.93621531780303
 21
22.23652715704548
 31
0.0
  0
LINE
  5
D91
330
CE3
100
AcDbEntity
  8
0
 62
     0
100
AcDbLine
 10
27.00447935421868
 20
7.168263120629831
 30
0.0
 11
20.74221213871106
 21
13.43053033613745
 31
0.0
  0
LINE
  5
D92
330
CE3
100
AcDbEntity
  8
0
 62
     0
100
AcDbLine
 10
14.09221213871103
 20
19.18250472403053
 30
0.0
 11
11.58273411533395
 21
21.69198274740762
 31
0.0
  0
LINE
  5
D93
330
CE3
100
AcDbEntity
  8
0
 62
     0
100
AcDbLine
 10
26.12471642204678
 20
7.150000440694782
 30
0.0
 11
20.74221213871106
 21
12.5325047240305
 31
0.0
  0
LINE
  5
D94
330
CE3
100
AcDbEntity
  8
0
 62
     0
100
AcDbLine
 10
14.15434784684646
 20
18.2223434037881
 30
0.0
 11
11.35185401304022
 21
21.02483723759439
 31
0.0
  0
LINE
  5
D95
330
CE3
100
AcDbEntity
  8
0
 62
     0
100
AcDbLine
 10
25.22669080993978
 20
7.150000440694839
 30
0.0
 11
20.74221213871101
 21
11.63447911192355
 31
0.0
  0
LINE
  5
D96
330
CE3
100
AcDbEntity
  8
0
 62
     0
100
AcDbLine
 10
18.44658822993369
 20
13.03207740859403
 30
0.0
 11
11.29221213871107
 21
20.18645349981665
 31
0.0
  0
LINE
  5
D97
330
CE3
100
AcDbEntity
  8
0
 62
     0
100
AcDbLine
 10
24.27539311077623
 20
7.203272527751494
 30
0.0
 11
20.79548422576766
 21
10.68318141276006
 31
0.0
  0
LINE
  5
D98
330
CE3
100
AcDbEntity
  8
0
 62
     0
100
AcDbLine
 10
18.63848274401891
 20
11.94215728240192
 30
0.0
 11
11.29221213871096
 21
19.28842788770987
 31
0.0
  0
LINE
  5
D99
330
CE3
100
AcDbEntity
  8
0
 62
     0
100
AcDbLine
 10
22.90158519817464
 20
7.679054828246137
 30
0.0
 11
21.27126652626225
 21
9.309373500158585
 31
0.0
  0
LINE
  5
D9A
330
CE3
100
AcDbEntity
  8
0
 62
     0
100
AcDbLine
 10
18.64221213871104
 20
11.04040227560284
 30
0.0
 11
11.29977658613336
 21
18.38283782818047
 31
0.0
  0
LINE
  5
D9B
330
CE3
100
AcDbEntity
  8
0
 62
     0
100
AcDbLine
 10
18.64221213871099
 20
10.14237666349595
 30
0.0
 11
11.52306734445721
 21
17.26152145774966
 31
0.0
  0
LINE
  5
D9C
330
CE3
100
AcDbEntity
  8
0
 62
     0
100
AcDbLine
 10
18.56969214257907
 20
9.316871047521033
 30
0.0
 11
15.80630049896001
 21
12.08026269114009
 31
0.0
  0
LINE
  5
D9D
330
CE3
100
AcDbEntity
  8
0
 62
     0
100
AcDbLine
 10
18.32775420355022
 20
8.660783374442928
 30
0.0
 11
15.84221213871097
 21
11.14632543928218
 31
0.0
  0
LINE
  5
D9E
330
CE3
100
AcDbEntity
  8
0
 62
     0
100
AcDbLine
 10
17.96563495616845
 20
8.124877009717749
 30
0.0
 11
15.8063131064103
 21
10.2841988594759
 31
0.0
  0
LINE
  5
D9F
330
CE3
100
AcDbEntity
  8
0
 62
     0
100
AcDbLine
 10
17.49940858390158
 20
7.693077769877731
 30
0.0
 11
15.24248591308446
 21
9.950000440694907
 31
0.0
  0
LINE
  5
DA0
330
CE3
100
AcDbEntity
  8
0
 62
     0
100
AcDbLine
 10
16.92614413616877
 20
7.36831660550365
 30
0.0
 11
14.34446030097751
 21
9.95000044069485
 31
0.0
  0
LINE
  5
DA1
330
CE3
100
AcDbEntity
  8
0
 62
     0
100
AcDbLine
 10
16.22073154708283
 20
7.17570358248264
 30
0.0
 11
13.44643468887062
 21
9.95000044069485
 31
0.0
  0
LINE
  5
DA2
330
CE3
100
AcDbEntity
  8
0
 62
     0
100
AcDbLine
 10
15.34840907676368
 20
7.150000440694839
 30
0.0
 11
12.54840907676367
 21
9.95000044069485
 31
0.0
  0
LINE
  5
DA3
330
CE3
100
AcDbEntity
  8
0
 62
     0
100
AcDbLine
 10
14.45038346465685
 20
7.150000440694782
 30
0.0
 11
11.89705956983897
 21
9.703324335512718
 31
0.0
  0
LINE
  5
DA4
330
CE3
100
AcDbEntity
  8
0
 62
     0
100
AcDbLine
 10
13.55235785254984
 20
7.150000440694839
 30
0.0
 11
11.81721213871105
 21
8.885146154533629
 31
0.0
  0
LINE
  5
DA5
330
CE3
100
AcDbEntity
  8
0
 62
     0
100
AcDbLine
 10
12.65433224044301
 20
7.150000440694782
 30
0.0
 11
11.81721213871105
 21
7.987120542426737
 31
0.0
  0
LINE
  5
DA6
330
CE3
100
AcDbEntity
  8
0
 62
     0
100
AcDbLine
 10
68.63389942337795
 20
7.163132217812346
 30
0.0
 11
69.02908036159374
 21
7.558313156028134
 31
0.0
  0
LINE
  5
DA7
330
CE3
100
AcDbEntity
  8
0
 62
     0
100
AcDbLine
 10
67.72274203415361
 20
7.150000440694782
 30
0.0
 11
69.04221213871119
 21
8.46947054525242
 31
0.0
  0
LINE
  5
DA8
330
CE3
100
AcDbEntity
  8
0
 62
     0
100
AcDbLine
 10
66.82471642204666
 20
7.150000440694839
 30
0.0
 11
69.04221213871119
 21
9.367496157359312
 31
0.0
  0
LINE
  5
DA9
330
CE3
100
AcDbEntity
  8
0
 62
     0
100
AcDbLine
 10
66.27340970196286
 20
7.49671933271793
 30
0.0
 11
69.04221213871114
 21
10.26552176946626
 31
0.0
  0
LINE
  5
DAA
330
CE3
100
AcDbEntity
  8
0
 62
     0
100
AcDbLine
 10
66.24221213871106
 20
8.363547381573084
 30
0.0
 11
69.04221213871114
 21
11.16354738157309
 31
0.0
  0
LINE
  5
DAB
330
CE3
100
AcDbEntity
  8
0
 62
     0
100
AcDbLine
 10
66.24221213871113
 20
9.261572993679976
 30
0.0
 11
69.04221213871114
 21
12.06157299368004
 31
0.0
  0
LINE
  5
DAC
330
CE3
100
AcDbEntity
  8
0
 62
     0
100
AcDbLine
 10
66.24221213871106
 20
10.15959860578692
 30
0.0
 11
69.04221213871114
 21
12.95959860578699
 31
0.0
  0
LINE
  5
DAD
330
CE3
100
AcDbEntity
  8
0
 62
     0
100
AcDbLine
 10
66.24221213871106
 20
11.05762421789381
 30
0.0
 11
69.04221213871114
 21
13.85762421789388
 31
0.0
  0
LINE
  5
DAE
330
CE3
100
AcDbEntity
  8
0
 62
     0
100
AcDbLine
 10
62.66877700077635
 20
7.484189079959094
 30
0.0
 11
63.80802349944691
 21
8.62343557862971
 31
0.0
  0
LINE
  5
DAF
330
CE3
100
AcDbEntity
  8
0
 62
     0
100
AcDbLine
 10
66.24221213871106
 20
11.9556498300007
 30
0.0
 11
69.04221213871114
 21
14.75564983000077
 31
0.0
  0
LINE
  5
DB0
330
CE3
100
AcDbEntity
  8
0
 62
     0
100
AcDbLine
 10
61.43820883425354
 20
7.151646525543185
 30
0.0
 11
64.14056605386287
 21
9.854003745152454
 31
0.0
  0
LINE
  5
DB1
330
CE3
100
AcDbEntity
  8
0
 62
     0
100
AcDbLine
 10
66.24221213871106
 20
12.85367544210765
 30
0.0
 11
69.04221213871114
 21
15.65367544210767
 31
0.0
  0
LINE
  5
DB2
330
CE3
100
AcDbEntity
  8
0
 62
     0
100
AcDbLine
 10
60.5385371372983
 20
7.150000440694896
 30
0.0
 11
64.14221213871115
 21
10.75367544210769
 31
0.0
  0
LINE
  5
DB3
330
CE3
100
AcDbEntity
  8
0
 62
     0
100
AcDbLine
 10
66.24221213871106
 20
13.75170105421455
 30
0.0
 11
69.04221213871108
 21
16.55170105421461
 31
0.0
  0
LINE
  5
DB4
330
CE3
100
AcDbEntity
  8
0
 62
     0
100
AcDbLine
 10
59.64051152519136
 20
7.150000440694896
 30
0.0
 11
64.1422121387111
 21
11.65170105421464
 31
0.0
  0
LINE
  5
DB5
330
CE3
100
AcDbEntity
  8
0
 62
     0
100
AcDbLine
 10
66.24221213871106
 20
14.64972666632144
 30
0.0
 11
69.04221213871114
 21
17.44972666632151
 31
0.0
  0
LINE
  5
DB6
330
CE3
100
AcDbEntity
  8
0
 62
     0
100
AcDbLine
 10
58.74248591308441
 20
7.150000440694782
 30
0.0
 11
64.14221213871115
 21
12.54972666632153
 31
0.0
  0
LINE
  5
DB7
330
CE3
100
AcDbEntity
  8
0
 62
     0
100
AcDbLine
 10
61.23762093663003
 20
10.54316107634736
 30
0.0
 11
64.14221213871115
 21
13.44775227842842
 31
0.0
  0
LINE
  5
DB8
330
CE3
100
AcDbEntity
  8
0
 62
     0
100
AcDbLine
 10
66.24221213871106
 20
15.54775227842833
 30
0.0
 11
69.04221213871114
 21
18.3477522784284
 31
0.0
  0
LINE
  5
DB9
330
CE3
100
AcDbEntity
  8
0
 62
     0
100
AcDbLine
 10
57.84446030097758
 20
7.150000440694896
 30
0.0
 11
60.74905150305852
 21
10.05459164277578
 31
0.0
  0
LINE
  5
DBA
330
CE3
100
AcDbEntity
  8
0
 62
     0
100
AcDbLine
 10
61.34221213871097
 20
11.54577789053524
 30
0.0
 11
64.1422121387111
 21
14.34577789053537
 31
0.0
  0
LINE
  5
DBB
330
CE3
100
AcDbEntity
  8
0
 62
     0
100
AcDbLine
 10
66.24221213871101
 20
16.44577789053528
 30
0.0
 11
69.04221213871108
 21
19.24577789053535
 31
0.0
  0
LINE
  5
DBC
330
CE3
100
AcDbEntity
  8
0
 62
     0
100
AcDbLine
 10
57.05838444024772
 20
7.261950192071935
 30
0.0
 11
59.74643468887063
 21
9.950000440694907
 31
0.0
  0
LINE
  5
DBD
330
CE3
100
AcDbEntity
  8
0
 62
     0
100
AcDbLine
 10
61.34221213871097
 20
12.44380350264214
 30
0.0
 11
64.1422121387111
 21
15.24380350264226
 31
0.0
  0
LINE
  5
DBE
330
CE3
100
AcDbEntity
  8
0
 62
     0
100
AcDbLine
 10
66.24221213871101
 20
17.34380350264223
 30
0.0
 11
69.04221213871108
 21
20.14380350264224
 31
0.0
  0
LINE
  5
DBF
330
CE3
100
AcDbEntity
  8
0
 62
     0
100
AcDbLine
 10
56.43039757303757
 20
7.531988936968787
 30
0.0
 11
58.84928686240801
 21
9.950878226339227
 31
0.0
  0
LINE
  5
DC0
330
CE3
100
AcDbEntity
  8
0
 62
     0
100
AcDbLine
 10
61.34221213871109
 20
13.34182911474909
 30
0.0
 11
64.1422121387111
 21
16.14182911474915
 31
0.0
  0
LINE
  5
DC1
330
CE3
100
AcDbEntity
  8
0
 62
     0
100
AcDbLine
 10
66.24221213871106
 20
18.24182911474906
 30
0.0
 11
69.04221213871108
 21
21.04182911474913
 31
0.0
  0
LINE
  5
DC2
330
CE3
100
AcDbEntity
  8
0
 62
     0
100
AcDbLine
 10
55.91713769167251
 20
7.916754667710506
 30
0.0
 11
58.20580827369531
 21
10.20542524973336
 31
0.0
  0
LINE
  5
DC3
330
CE3
100
AcDbEntity
  8
0
 62
     0
100
AcDbLine
 10
61.34221213871104
 20
14.23985472685603
 30
0.0
 11
64.1422121387111
 21
17.0398547268561
 31
0.0
  0
LINE
  5
DC4
330
CE3
100
AcDbEntity
  8
0
 62
     0
100
AcDbLine
 10
66.24221213871101
 20
19.13985472685601
 30
0.0
 11
69.04221213871108
 21
21.93985472685608
 31
0.0
  0
LINE
  5
DC5
330
CE3
100
AcDbEntity
  8
0
 62
     0
100
AcDbLine
 10
55.50717351644738
 20
8.404816104592327
 30
0.0
 11
57.86856999528589
 21
10.7662125834309
 31
0.0
  0
LINE
  5
DC6
330
CE3
100
AcDbEntity
  8
0
 62
     0
100
AcDbLine
 10
61.34221213871104
 20
15.13788033896292
 30
0.0
 11
64.14221213871115
 21
17.93788033896311
 31
0.0
  0
LINE
  5
DC7
330
CE3
100
AcDbEntity
  8
0
 62
     0
100
AcDbLine
 10
66.24221213871101
 20
20.0378803389629
 30
0.0
 11
69.03206298516062
 21
22.82773118541257
 31
0.0
  0
LINE
  5
DC8
330
CE3
100
AcDbEntity
  8
0
 62
     0
100
AcDbLine
 10
55.20724863801337
 20
9.002916838265321
 30
0.0
 11
57.84221213871098
 21
11.63788033896292
 31
0.0
  0
LINE
  5
DC9
330
CE3
100
AcDbEntity
  8
0
 62
     0
100
AcDbLine
 10
61.34221213871104
 20
16.03590595106982
 30
0.0
 11
64.14221213871122
 21
18.83590595106994
 31
0.0
  0
LINE
  5
DCA
330
CE3
100
AcDbEntity
  8
0
 62
     0
100
AcDbLine
 10
66.24221213871101
 20
20.93590595106979
 30
0.0
 11
68.55494864008114
 21
23.24864245243992
 31
0.0
  0
LINE
  5
DCB
330
CE3
100
AcDbEntity
  8
0
 62
     0
100
AcDbLine
 10
55.04983510305692
 20
9.743528915415708
 30
0.0
 11
57.84221213871103
 21
12.53590595106982
 31
0.0
  0
LINE
  5
DCC
330
CE3
100
AcDbEntity
  8
0
 62
     0
100
AcDbLine
 10
61.34221213871104
 20
16.93393156317677
 30
0.0
 11
64.14221213871115
 21
19.73393156317689
 31
0.0
  0
LINE
  5
DCD
330
CE3
100
AcDbEntity
  8
0
 62
     0
100
AcDbLine
 10
66.24221213871106
 20
21.8339315631768
 30
0.0
 11
67.65828101622907
 21
23.2500004406948
 31
0.0
  0
LINE
  5
DCE
330
CE3
100
AcDbEntity
  8
0
 62
     0
100
AcDbLine
 10
55.04221213871113
 20
10.63393156317681
 30
0.0
 11
57.84221213871109
 21
13.43393156317682
 31
0.0
  0
LINE
  5
DCF
330
CE3
100
AcDbEntity
  8
0
 62
     0
100
AcDbLine
 10
61.34221213871104
 20
17.83195717528366
 30
0.0
 11
64.14221213871115
 21
20.63195717528378
 31
0.0
  0
LINE
  5
DD0
330
CE3
100
AcDbEntity
  8
0
 62
     0
100
AcDbLine
 10
55.04221213871108
 20
11.53195717528376
 30
0.0
 11
57.84221213871103
 21
14.33195717528372
 31
0.0
  0
LINE
  5
DD1
330
CE3
100
AcDbEntity
  8
0
 62
     0
100
AcDbLine
 10
66.2422588534585
 20
22.73200389003119
 30
0.0
 11
66.76020868937479
 21
23.24995372594742
 31
0.0
  0
LINE
  5
DD2
330
CE3
100
AcDbEntity
  8
0
 62
     0
100
AcDbLine
 10
50.72065650799908
 20
7.210401544571709
 30
0.0
 11
52.88181103483424
 21
9.371556071406928
 31
0.0
  0
LINE
  5
DD3
330
CE3
100
AcDbEntity
  8
0
 62
     0
100
AcDbLine
 10
55.04221213871108
 20
12.42998278739065
 30
0.0
 11
57.84221213871103
 21
15.22998278739066
 31
0.0
  0
LINE
  5
DD4
330
CE3
100
AcDbEntity
  8
0
 62
     0
100
AcDbLine
 10
61.34221213871109
 20
18.72998278739066
 30
0.0
 11
64.1422121387111
 21
21.52998278739073
 31
0.0
  0
LINE
  5
DD5
330
CE3
100
AcDbEntity
  8
0
 62
     0
100
AcDbLine
 10
49.76222979201526
 20
7.150000440694896
 30
0.0
 11
52.942212138711
 21
10.32998278739057
 31
0.0
  0
LINE
  5
DD6
330
CE3
100
AcDbEntity
  8
0
 62
     0
100
AcDbLine
 10
55.04221213871108
 20
13.32800839949754
 30
0.0
 11
57.84221213871109
 21
16.1280083994975
 31
0.0
  0
LINE
  5
DD7
330
CE3
100
AcDbEntity
  8
0
 62
     0
100
AcDbLine
 10
61.34221213871109
 20
19.62800839949755
 30
0.0
 11
64.14221213871115
 21
22.42800839949762
 31
0.0
  0
LINE
  5
DD8
330
CE3
100
AcDbEntity
  8
0
 62
     0
100
AcDbLine
 10
48.86420417990831
 20
7.150000440694782
 30
0.0
 11
52.94221213871111
 21
11.22800839949752
 31
0.0
  0
LINE
  5
DD9
330
CE3
100
AcDbEntity
  8
0
 62
     0
100
AcDbLine
 10
55.04221213871108
 20
14.22603401160449
 30
0.0
 11
57.84221213871103
 21
17.02603401160445
 31
0.0
  0
LINE
  5
DDA
330
CE3
100
AcDbEntity
  8
0
 62
     0
100
AcDbLine
 10
61.34221213871109
 20
20.52603401160445
 30
0.0
 11
63.94847468387701
 21
23.13229655677042
 31
0.0
  0
LINE
  5
DDB
330
CE3
100
AcDbEntity
  8
0
 62
     0
100
AcDbLine
 10
47.96617856780142
 20
7.150000440694839
 30
0.0
 11
52.92789353829812
 21
12.11171541119154
 31
0.0
  0
LINE
  5
DDC
330
CE3
100
AcDbEntity
  8
0
 62
     0
100
AcDbLine
 10
55.04221213871108
 20
15.12405962371139
 30
0.0
 11
57.84221213871103
 21
17.9240596237114
 31
0.0
  0
LINE
  5
DDD
330
CE3
100
AcDbEntity
  8
0
 62
     0
100
AcDbLine
 10
61.34221213871104
 20
21.4240596237114
 30
0.0
 11
63.16815295569449
 21
23.25000044069486
 31
0.0
  0
LINE
  5
DDE
330
CE3
100
AcDbEntity
  8
0
 62
     0
100
AcDbLine
 10
47.06815295569447
 20
7.150000440694839
 30
0.0
 11
52.79298116766938
 21
12.87482865266969
 31
0.0
  0
LINE
  5
DDF
330
CE3
100
AcDbEntity
  8
0
 62
     0
100
AcDbLine
 10
55.04221213871108
 20
16.02208523581828
 30
0.0
 11
57.84221213871103
 21
18.82208523581823
 31
0.0
  0
LINE
  5
DE0
330
CE3
100
AcDbEntity
  8
0
 62
     0
100
AcDbLine
 10
50.1422121387111
 20
11.1220852358183
 30
0.0
 11
52.55239371075083
 21
13.53226680785797
 31
0.0
  0
LINE
  5
DE1
330
CE3
100
AcDbEntity
  8
0
 62
     0
100
AcDbLine
 10
61.34221213871109
 20
22.32208523581829
 30
0.0
 11
62.27012734358772
 21
23.25000044069491
 31
0.0
  0
LINE
  5
DE2
330
CE3
100
AcDbEntity
  8
0
 62
     0
100
AcDbLine
 10
46.2983826967187
 20
7.278255793825906
 30
0.0
 11
48.97012734358759
 21
9.950000440694793
 31
0.0
  0
LINE
  5
DE3
330
CE3
100
AcDbEntity
  8
0
 62
     0
100
AcDbLine
 10
50.1223415635838
 20
12.00024027279789
 30
0.0
 11
52.22889440589028
 21
14.10679311510438
 31
0.0
  0
LINE
  5
DE4
330
CE3
100
AcDbEntity
  8
0
 62
     0
100
AcDbLine
 10
55.04221213871108
 20
16.92011084792517
 30
0.0
 11
57.84221213871109
 21
19.72011084792524
 31
0.0
  0
LINE
  5
DE5
330
CE3
100
AcDbEntity
  8
0
 62
     0
100
AcDbLine
 10
46.11721213871101
 20
7.995110847925161
 30
0.0
 11
48.07210173148064
 21
9.950000440694793
 31
0.0
  0
LINE
  5
DE6
330
CE3
100
AcDbEntity
  8
0
 62
     0
100
AcDbLine
 10
49.84795672644492
 20
12.62388104776602
 30
0.0
 11
51.83302328796248
 21
14.60894760928357
 31
0.0
  0
LINE
  5
DE7
330
CE3
100
AcDbEntity
  8
0
 62
     0
100
AcDbLine
 10
55.04221213871102
 20
17.81813646003212
 30
0.0
 11
57.84221213871109
 21
20.61813646003219
 31
0.0
  0
LINE
  5
DE8
330
CE3
100
AcDbEntity
  8
0
 62
     0
100
AcDbLine
 10
46.11721213871101
 20
8.893136460032053
 30
0.0
 11
47.17407611937375
 21
9.95000044069485
 31
0.0
  0
LINE
  5
DE9
330
CE3
100
AcDbEntity
  8
0
 62
     0
100
AcDbLine
 10
55.04221213871108
 20
18.71616207213901
 30
0.0
 11
57.84221213871115
 21
21.51616207213902
 31
0.0
  0
LINE
  5
DEA
330
CE3
100
AcDbEntity
  8
0
 62
     0
100
AcDbLine
 10
49.40668182932785
 20
13.08063176275573
 30
0.0
 11
51.38658081665022
 21
15.06053075007815
 31
0.0
  0
LINE
  5
DEB
330
CE3
100
AcDbEntity
  8
0
 62
     0
100
AcDbLine
 10
48.95766902327437
 20
13.5296445688092
 30
0.0
 11
50.93756801059669
 21
15.50954355613152
 31
0.0
  0
LINE
  5
DEC
330
CE3
100
AcDbEntity
  8
0
 62
     0
100
AcDbLine
 10
55.04221213871102
 20
19.6141876842459
 30
0.0
 11
57.84221213871109
 21
22.41418768424597
 31
0.0
  0
LINE
  5
DED
330
CE3
100
AcDbEntity
  8
0
 62
     0
100
AcDbLine
 10
42.57802489515995
 20
7.150000440694839
 30
0.0
 11
43.49221213871106
 21
8.064187684245894
 31
0.0
  0
LINE
  5
DEE
330
CE3
100
AcDbEntity
  8
0
 62
     0
100
AcDbLine
 10
48.50865621722096
 20
13.97865737486279
 30
0.0
 11
50.48855520454321
 21
15.95855636218499
 31
0.0
  0
LINE
  5
DEF
330
CE3
100
AcDbEntity
  8
0
 62
     0
100
AcDbLine
 10
55.04221213871102
 20
20.51221329635285
 30
0.0
 11
57.65603123061243
 21
23.1260323882542
 31
0.0
  0
LINE
  5
DF0
330
CE3
100
AcDbEntity
  8
0
 62
     0
100
AcDbLine
 10
41.67999928305294
 20
7.150000440694782
 30
0.0
 11
43.49221213871112
 21
8.962213296352899
 31
0.0
  0
LINE
  5
DF1
330
CE3
100
AcDbEntity
  8
0
 62
     0
100
AcDbLine
 10
48.05964341116743
 20
14.42767018091615
 30
0.0
 11
50.03954239848974
 21
16.40756916823846
 31
0.0
  0
LINE
  5
DF2
330
CE3
100
AcDbEntity
  8
0
 62
     0
100
AcDbLine
 10
55.04221213871102
 20
21.41023890845974
 30
0.0
 11
56.88197367094613
 21
23.25000044069491
 31
0.0
  0
LINE
  5
DF3
330
CE3
100
AcDbEntity
  8
0
 62
     0
100
AcDbLine
 10
40.89358480880804
 20
7.261611578556767
 30
0.0
 11
43.49221213871106
 21
9.860238908459848
 31
0.0
  0
LINE
  5
DF4
330
CE3
100
AcDbEntity
  8
0
 62
     0
100
AcDbLine
 10
47.61063060511401
 20
14.87668298696957
 30
0.0
 11
49.59052959243632
 21
16.85658197429188
 31
0.0
  0
LINE
  5
DF5
330
CE3
100
AcDbEntity
  8
0
 62
     0
100
AcDbLine
 10
55.04221213871102
 20
22.30826452056664
 30
0.0
 11
55.98394805883931
 21
23.25000044069486
 31
0.0
  0
LINE
  5
DF6
330
CE3
100
AcDbEntity
  8
0
 62
     0
100
AcDbLine
 10
40.69221213871111
 20
7.958264520566729
 30
0.0
 11
43.49221213871112
 21
10.75826452056668
 31
0.0
  0
LINE
  5
DF7
330
CE3
100
AcDbEntity
  8
0
 62
     0
100
AcDbLine
 10
47.16161779906054
 20
15.32569579302304
 30
0.0
 11
49.14151678638285
 21
17.30559478034535
 31
0.0
  0
LINE
  5
DF8
330
CE3
100
AcDbEntity
  8
0
 62
     0
100
AcDbLine
 10
40.69221213871111
 20
8.856290132673677
 30
0.0
 11
43.49221213871106
 21
11.65629013267363
 31
0.0
  0
LINE
  5
DF9
330
CE3
100
AcDbEntity
  8
0
 62
     0
100
AcDbLine
 10
46.7146338980192
 20
15.77673750408871
 30
0.0
 11
48.69860743140122
 21
17.76071103747068
 31
0.0
  0
LINE
  5
DFA
330
CE3
100
AcDbEntity
  8
0
 62
     0
100
AcDbLine
 10
40.69221213871111
 20
9.754315744780569
 30
0.0
 11
43.49221213871106
 21
12.55431574478058
 31
0.0
  0
LINE
  5
DFB
330
CE3
100
AcDbEntity
  8
0
 62
     0
100
AcDbLine
 10
51.38789683462539
 20
20.45000044069485
 30
0.0
 11
52.41721213871113
 21
21.47931574478059
 31
0.0
  0
LINE
  5
DFC
330
CE3
100
AcDbEntity
  8
0
 62
     0
100
AcDbLine
 10
38.19955591400088
 20
7.261659520070338
 30
0.0
 11
38.2892082754559
 21
7.351311881525418
 31
0.0
  0
LINE
  5
DFD
330
CE3
100
AcDbEntity
  8
0
 62
     0
100
AcDbLine
 10
46.31663171919723
 20
16.27676093737358
 30
0.0
 11
48.41626599661584
 21
18.37639521479218
 31
0.0
  0
LINE
  5
DFE
330
CE3
100
AcDbEntity
  8
0
 62
     0
100
AcDbLine
 10
40.69221213871111
 20
10.65234135688746
 30
0.0
 11
43.49221213871112
 21
13.45234135688741
 31
0.0
  0
LINE
  5
DFF
330
CE3
100
AcDbEntity
  8
0
 62
     0
100
AcDbLine
 10
50.4898712225185
 20
20.45000044069485
 30
0.0
 11
52.41721213871113
 21
22.37734135688748
 31
0.0
  0
LINE
  5
E00
330
CE3
100
AcDbEntity
  8
0
 62
     0
100
AcDbLine
 10
37.18987122251843
 20
7.150000440694782
 30
0.0
 11
38.2556503188249
 21
8.215779537001196
 31
0.0
  0
LINE
  5
E01
330
CE3
100
AcDbEntity
  8
0
 62
     0
100
AcDbLine
 10
45.99079745480054
 20
16.84895228508383
 30
0.0
 11
48.39221213871116
 21
19.25036696899439
 31
0.0
  0
LINE
  5
E02
330
CE3
100
AcDbEntity
  8
0
 62
     0
100
AcDbLine
 10
40.69221213871111
 20
11.55036696899435
 30
0.0
 11
43.49221213871106
 21
14.35036696899436
 31
0.0
  0
LINE
  5
E03
330
CE3
100
AcDbEntity
  8
0
 62
     0
100
AcDbLine
 10
49.59184561041161
 20
20.45000044069485
 30
0.0
 11
52.25054320691322
 21
23.10869803719652
 31
0.0
  0
LINE
  5
E04
330
CE3
100
AcDbEntity
  8
0
 62
     0
100
AcDbLine
 10
36.29184561041154
 20
7.150000440694782
 30
0.0
 11
38.04012417191927
 21
8.898279002202571
 31
0.0
  0
LINE
  5
E05
330
CE3
100
AcDbEntity
  8
0
 62
     0
100
AcDbLine
 10
40.69221213871105
 20
12.4483925811013
 30
0.0
 11
43.49221213871106
 21
15.24839258110125
 31
0.0
  0
LINE
  5
E06
330
CE3
100
AcDbEntity
  8
0
 62
     0
100
AcDbLine
 10
45.74741539213045
 20
17.50359583452069
 30
0.0
 11
51.49381999830461
 21
23.25000044069486
 31
0.0
  0
LINE
  5
E07
330
CE3
100
AcDbEntity
  8
0
 62
     0
100
AcDbLine
 10
35.69983129975645
 20
7.456011742146699
 30
0.0
 11
37.82459802501358
 21
9.580778467403831
 31
0.0
  0
LINE
  5
E08
330
CE3
100
AcDbEntity
  8
0
 62
     0
100
AcDbLine
 10
40.69221213871105
 20
13.34641819320825
 30
0.0
 11
43.49221213871101
 21
16.1464181932082
 31
0.0
  0
LINE
  5
E09
330
CE3
100
AcDbEntity
  8
0
 62
     0
100
AcDbLine
 10
45.60870853304476
 20
18.26291458754195
 30
0.0
 11
50.59579438619772
 21
23.25000044069486
 31
0.0
  0
LINE
  5
E0A
330
CE3
100
AcDbEntity
  8
0
 62
     0
100
AcDbLine
 10
35.48107187810785
 20
8.135277932605049
 30
0.0
 11
37.60907187810784
 21
10.26327793260503
 31
0.0
  0
LINE
  5
E0B
330
CE3
100
AcDbEntity
  8
0
 62
     0
100
AcDbLine
 10
40.69221213871111
 20
14.24444380531508
 30
0.0
 11
43.49221213871106
 21
17.04444380531509
 31
0.0
  0
LINE
  5
E0C
330
CE3
100
AcDbEntity
  8
0
 62
     0
100
AcDbLine
 10
45.59221213871109
 20
19.14444380531506
 30
0.0
 11
49.69776877409083
 21
23.25000044069486
 31
0.0
  0
LINE
  5
E0D
330
CE3
100
AcDbEntity
  8
0
 62
     0
100
AcDbLine
 10
35.26554573120222
 20
8.817777397806253
 30
0.0
 11
37.39354573120232
 21
10.94577739780629
 31
0.0
  0
LINE
  5
E0E
330
CE3
100
AcDbEntity
  8
0
 62
     0
100
AcDbLine
 10
40.69221213871105
 20
15.14246941742203
 30
0.0
 11
43.49221213871106
 21
17.94246941742199
 31
0.0
  0
LINE
  5
E0F
330
CE3
100
AcDbEntity
  8
0
 62
     0
100
AcDbLine
 10
45.59221213871114
 20
20.04246941742207
 30
0.0
 11
48.79974316198394
 21
23.25000044069486
 31
0.0
  0
LINE
  5
E10
330
CE3
100
AcDbEntity
  8
0
 62
     0
100
AcDbLine
 10
35.05001958429648
 20
9.500276863007456
 30
0.0
 11
37.17801958429663
 21
11.62827686300755
 31
0.0
  0
LINE
  5
E11
330
CE3
100
AcDbEntity
  8
0
 62
     0
100
AcDbLine
 10
40.69221213871105
 20
16.04049502952892
 30
0.0
 11
43.49221213871112
 21
18.84049502952899
 31
0.0
  0
LINE
  5
E12
330
CE3
100
AcDbEntity
  8
0
 62
     0
100
AcDbLine
 10
34.83449343739084
 20
10.18277632820877
 30
0.0
 11
36.96249343739094
 21
12.31077632820881
 31
0.0
  0
LINE
  5
E13
330
CE3
100
AcDbEntity
  8
0
 62
     0
100
AcDbLine
 10
45.64552880883229
 20
20.99381169965022
 30
0.0
 11
47.84840087975561
 21
23.19668377057354
 31
0.0
  0
LINE
  5
E14
330
CE3
100
AcDbEntity
  8
0
 62
     0
100
AcDbLine
 10
31.80171754987696
 20
7.150000440694839
 30
0.0
 11
32.64221213871104
 21
7.990495029528972
 31
0.0
  0
LINE
  5
E15
330
CE3
100
AcDbEntity
  8
0
 62
     0
100
AcDbLine
 10
34.61896729048527
 20
10.86527579340997
 30
0.0
 11
36.7469672904852
 21
12.99327579340996
 31
0.0
  0
LINE
  5
E16
330
CE3
100
AcDbEntity
  8
0
 62
     0
100
AcDbLine
 10
40.69221213871105
 20
16.93852064163581
 30
0.0
 11
43.49221213871112
 21
19.73852064163588
 31
0.0
  0
LINE
  5
E17
330
CE3
100
AcDbEntity
  8
0
 62
     0
100
AcDbLine
 10
30.90369193777007
 20
7.150000440694839
 30
0.0
 11
32.6422121387111
 21
8.888520641635864
 31
0.0
  0
LINE
  5
E18
330
CE3
100
AcDbEntity
  8
0
 62
     0
100
AcDbLine
 10
34.40344114357958
 20
11.54777525861123
 30
0.0
 11
36.53144114357962
 21
13.67577525861134
 31
0.0
  0
LINE
  5
E19
330
CE3
100
AcDbEntity
  8
0
 62
     0
100
AcDbLine
 10
40.69221213871105
 20
17.83654625374276
 30
0.0
 11
43.49221213871112
 21
20.63654625374277
 31
0.0
  0
LINE
  5
E1A
330
CE3
100
AcDbEntity
  8
0
 62
     0
100
AcDbLine
 10
30.08681607331436
 20
7.231150188346077
 30
0.0
 11
32.6422121387111
 21
9.786546253742756
 31
0.0
  0
LINE
  5
E1B
330
CE3
100
AcDbEntity
  8
0
 62
     0
100
AcDbLine
 10
34.18791499667389
 20
12.23027472381249
 30
0.0
 11
36.31591499667393
 21
14.3582747238126
 31
0.0
  0
LINE
  5
E1C
330
CE3
100
AcDbEntity
  8
0
 62
     0
100
AcDbLine
 10
40.69221213871105
 20
18.73457186584966
 30
0.0
 11
43.49221213871106
 21
21.53457186584972
 31
0.0
  0
LINE
  5
E1D
330
CE3
100
AcDbEntity
  8
0
 62
     0
100
AcDbLine
 10
29.84221213871109
 20
7.884571865849693
 30
0.0
 11
32.64221213871104
 21
10.6845718658497
 31
0.0
  0
LINE
  5
E1E
330
CE3
100
AcDbEntity
  8
0
 62
     0
100
AcDbLine
 10
33.97238884976826
 20
12.9127741890137
 30
0.0
 11
36.1003888497683
 21
15.0407741890138
 31
0.0
  0
LINE
  5
E1F
330
CE3
100
AcDbEntity
  8
0
 62
     0
100
AcDbLine
 10
40.69221213871105
 20
19.63259747795655
 30
0.0
 11
43.49221213871112
 21
22.43259747795661
 31
0.0
  0
LINE
  5
E20
330
CE3
100
AcDbEntity
  8
0
 62
     0
100
AcDbLine
 10
29.84221213871109
 20
8.782597477956585
 30
0.0
 11
32.6422121387111
 21
11.58259747795653
 31
0.0
  0
LINE
  5
E21
330
CE3
100
AcDbEntity
  8
0
 62
     0
100
AcDbLine
 10
33.73759006279652
 20
13.57600101414897
 30
0.0
 11
36.36788413072741
 21
16.20629508207986
 31
0.0
  0
LINE
  5
E22
330
CE3
100
AcDbEntity
  8
0
 62
     0
100
AcDbLine
 10
40.69221213871111
 20
20.53062309006355
 30
0.0
 11
43.29593671621267
 21
23.13434766756506
 31
0.0
  0
LINE
  5
E23
330
CE3
100
AcDbEntity
  8
0
 62
     0
100
AcDbLine
 10
29.84221213871109
 20
9.680623090063534
 30
0.0
 11
32.64221213871104
 21
12.48062309006348
 31
0.0
  0
LINE
  5
E24
330
CE3
100
AcDbEntity
  8
0
 62
     0
100
AcDbLine
 10
33.05040469292913
 20
13.78684125638852
 30
0.0
 11
36.78235749016136
 21
17.51879405362075
 31
0.0
  0
LINE
  5
E25
330
CE3
100
AcDbEntity
  8
0
 62
     0
100
AcDbLine
 10
29.84221213871109
 20
10.57864870217042
 30
0.0
 11
32.65537132301739
 21
13.39180788647672
 31
0.0
  0
LINE
  5
E26
330
CE3
100
AcDbEntity
  8
0
 62
     0
100
AcDbLine
 10
40.69221213871111
 20
21.42864870217044
 30
0.0
 11
42.51356387723546
 21
23.25000044069486
 31
0.0
  0
LINE
  5
E27
330
CE3
100
AcDbEntity
  8
0
 62
     0
100
AcDbLine
 10
26.41356387723544
 20
7.150000440694782
 30
0.0
 11
27.3922121387111
 21
8.128648702170494
 31
0.0
  0
LINE
  5
E28
330
CE3
100
AcDbEntity
  8
0
 62
     0
100
AcDbLine
 10
29.84221213871103
 20
11.47667431427737
 30
0.0
 11
37.1968308495953
 21
18.83129302516158
 31
0.0
  0
LINE
  5
E29
330
CE3
100
AcDbEntity
  8
0
 62
     0
100
AcDbLine
 10
40.69221213871105
 20
22.32667431427739
 30
0.0
 11
41.61553826512852
 21
23.25000044069486
 31
0.0
  0
LINE
  5
E2A
330
CE3
100
AcDbEntity
  8
0
 62
     0
100
AcDbLine
 10
25.51553826512849
 20
7.150000440694839
 30
0.0
 11
27.3922121387111
 21
9.026674314277443
 31
0.0
  0
LINE
  5
E2B
330
CE3
100
AcDbEntity
  8
0
 62
     0
100
AcDbLine
 10
29.84221213871109
 20
12.37469992638421
 30
0.0
 11
37.61130420902935
 21
20.14379199670247
 31
0.0
  0
LINE
  5
E2C
330
CE3
100
AcDbEntity
  8
0
 62
     0
100
AcDbLine
 10
24.62919327737171
 20
7.161681065044888
 30
0.0
 11
27.25087785510493
 21
9.783365642778051
 31
0.0
  0
LINE
  5
E2D
330
CE3
100
AcDbEntity
  8
0
 62
     0
100
AcDbLine
 10
29.84221213871103
 20
13.27272553849115
 30
0.0
 11
33.1694870409147
 21
16.60000044069482
 31
0.0
  0
LINE
  5
E2E
330
CE3
100
AcDbEntity
  8
0
 62
     0
100
AcDbLine
 10
33.93346987615541
 20
17.36398327593553
 30
0.0
 11
38.02577756846335
 21
21.45629096824342
 31
0.0
  0
LINE
  5
E2F
330
CE3
100
AcDbEntity
  8
0
 62
     0
100
AcDbLine
 10
23.86103275992474
 20
7.291546159704807
 30
0.0
 11
26.51948704091478
 21
9.95000044069485
 31
0.0
  0
LINE
  5
E30
330
CE3
100
AcDbEntity
  8
0
 62
     0
100
AcDbLine
 10
29.84221213871103
 20
14.1707511505981
 30
0.0
 11
32.66020270941936
 21
16.98874172130638
 31
0.0
  0
LINE
  5
E31
330
CE3
100
AcDbEntity
  8
0
 62
     0
100
AcDbLine
 10
34.34794323558935
 20
18.67648224747637
 30
0.0
 11
38.40084902026473
 21
22.7293880321518
 31
0.0
  0
LINE
  5
E32
330
CE3
100
AcDbEntity
  8
0
 62
     0
100
AcDbLine
 10
23.19989850309832
 20
7.528437514985398
 30
0.0
 11
25.62146142880783
 21
9.950000440694907
 31
0.0
  0
LINE
  5
E33
330
CE3
100
AcDbEntity
  8
0
 62
     0
100
AcDbLine
 10
29.84221213871109
 20
15.06877676270494
 30
0.0
 11
32.6422121387111
 21
17.86877676270501
 31
0.0
  0
LINE
  5
E34
330
CE3
100
AcDbEntity
  8
0
 62
     0
100
AcDbLine
 10
34.76241659502346
 20
19.98898121901737
 30
0.0
 11
38.00683714769553
 21
23.23340177168944
 31
0.0
  0
LINE
  5
E35
330
CE3
100
AcDbEntity
  8
0
 62
     0
100
AcDbLine
 10
22.62229521893402
 20
7.848859842927879
 30
0.0
 11
24.73835707742688
 21
9.964921701420792
 31
0.0
  0
LINE
  5
E36
330
CE3
100
AcDbEntity
  8
0
 62
     0
100
AcDbLine
 10
29.84221213871103
 20
15.96680237481189
 30
0.0
 11
32.6422121387111
 21
18.76680237481195
 31
0.0
  0
LINE
  5
E37
330
CE3
100
AcDbEntity
  8
0
 62
     0
100
AcDbLine
 10
35.17688995445741
 20
21.30148019055821
 30
0.0
 11
37.125410204594
 21
23.25000044069486
 31
0.0
  0
LINE
  5
E38
330
CE3
100
AcDbEntity
  8
0
 62
     0
100
AcDbLine
 10
22.11734025255196
 20
8.241930488652769
 30
0.0
 11
24.10404093640858
 21
10.22863117250938
 31
0.0
  0
LINE
  5
E39
330
CE3
100
AcDbEntity
  8
0
 62
     0
100
AcDbLine
 10
29.84221213871103
 20
16.86482798691878
 30
0.0
 11
32.6422121387111
 21
19.66482798691885
 31
0.0
  0
LINE
  5
E3A
330
CE3
100
AcDbEntity
  8
0
 62
     0
100
AcDbLine
 10
26.50384627048754
 20
13.52646211869535
 30
0.0
 11
27.66575046071062
 21
14.68836630891843
 31
0.0
  0
LINE
  5
E3B
330
CE3
100
AcDbEntity
  8
0
 62
     0
100
AcDbLine
 10
35.59136331389129
 20
22.61397916209909
 30
0.0
 11
36.22738459248711
 21
23.25000044069491
 31
0.0
  0
LINE
  5
E3C
330
CE3
100
AcDbEntity
  8
0
 62
     0
100
AcDbLine
 10
21.68090317922212
 20
8.703519027429933
 30
0.0
 11
23.69378998513639
 21
10.71640583334419
 31
0.0
  0
LINE
  5
E3D
330
CE3
100
AcDbEntity
  8
0
 62
     0
100
AcDbLine
 10
25.57887342885772
 20
13.49951488917247
 30
0.0
 11
27.6926976902335
 21
15.61333915054819
 31
0.0
  0
LINE
  5
E3E
330
CE3
100
AcDbEntity
  8
0
 62
     0
100
AcDbLine
 10
29.84221213871098
 20
17.76285359902573
 30
0.0
 11
32.64221213871104
 21
20.5628535990258
 31
0.0
  0
LINE
  5
E3F
330
CE3
100
AcDbEntity
  8
0
 62
     0
100
AcDbLine
 10
21.31388395427916
 20
9.234525414593861
 30
0.0
 11
23.54221213871107
 21
11.46285359902583
 31
0.0
  0
LINE
  5
E40
330
CE3
100
AcDbEntity
  8
0
 62
     0
100
AcDbLine
 10
24.96472685943752
 20
13.78339393185905
 30
0.0
 11
27.40881864754686
 21
16.22748571996845
 31
0.0
  0
LINE
  5
E41
330
CE3
100
AcDbEntity
  8
0
 62
     0
100
AcDbLine
 10
29.84221213871103
 20
18.66087921113262
 30
0.0
 11
32.6422121387111
 21
21.46087921113263
 31
0.0
  0
LINE
  5
E42
330
CE3
100
AcDbEntity
  8
0
 62
     0
100
AcDbLine
 10
21.02256644435442
 20
9.841233516776014
 30
0.0
 11
23.54221213871107
 21
12.36087921113266
 31
0.0
  0
LINE
  5
E43
330
CE3
100
AcDbEntity
  8
0
 62
     0
100
AcDbLine
 10
24.5267669324478
 20
14.24345961697633
 30
0.0
 11
26.94875296242964
 21
16.66544564695811
 31
0.0
  0
LINE
  5
E44
330
CE3
100
AcDbEntity
  8
0
 62
     0
100
AcDbLine
 10
29.84221213871103
 20
19.55890482323951
 30
0.0
 11
32.64221213871104
 21
22.35890482323958
 31
0.0
  0
LINE
  5
E45
330
CE3
100
AcDbEntity
  8
0
 62
     0
100
AcDbLine
 10
20.82142908017976
 20
10.5381217647083
 30
0.0
 11
23.54221213871107
 21
13.25890482323961
 31
0.0
  0
LINE
  5
E46
330
CE3
100
AcDbEntity
  8
0
 62
     0
100
AcDbLine
 10
24.27071620003943
 20
14.88543449667486
 30
0.0
 11
26.30677808273105
 21
16.92149637936654
 31
0.0
  0
LINE
  5
E47
330
CE3
100
AcDbEntity
  8
0
 62
     0
100
AcDbLine
 10
20.74221213871101
 20
11.35693043534649
 30
0.0
 11
23.54221213871107
 21
14.15693043534651
 31
0.0
  0
LINE
  5
E48
330
CE3
100
AcDbEntity
  8
0
 62
     0
100
AcDbLine
 10
29.84221213871098
 20
20.45693043534646
 30
0.0
 11
32.48496203035597
 21
23.09968032699146
 31
0.0
  0
LINE
  5
E49
330
CE3
100
AcDbEntity
  8
0
 62
     0
100
AcDbLine
 10
16.65621538083541
 20
7.270933677470907
 30
0.0
 11
18.52127890193514
 21
9.135997198570635
 31
0.0
  0
LINE
  5
E4A
330
CE3
100
AcDbEntity
  8
0
 62
     0
100
AcDbLine
 10
24.38912928352022
 20
15.90187319226254
 30
0.0
 11
25.29033938714343
 21
16.80308329588575
 31
0.0
  0
LINE
  5
E4B
330
CE3
100
AcDbEntity
  8
0
 62
     0
100
AcDbLine
 10
20.74221213871101
 20
12.25495604745333
 30
0.0
 11
23.54221213871107
 21
15.0549560474534
 31
0.0
  0
LINE
  5
E4C
330
CE3
100
AcDbEntity
  8
0
 62
     0
100
AcDbLine
 10
29.84221213871103
 20
21.35495604745329
 30
0.0
 11
31.73725653195259
 21
23.25000044069491
 31
0.0
  0
LINE
  5
E4D
330
CE3
100
AcDbEntity
  8
0
 62
     0
100
AcDbLine
 10
15.63725653195246
 20
7.150000440694782
 30
0.0
 11
18.6422121387111
 21
10.15495604745342
 31
0.0
  0
LINE
  5
E4E
330
CE3
100
AcDbEntity
  8
0
 62
     0
100
AcDbLine
 10
20.74221213871101
 20
13.15298165956028
 30
0.0
 11
23.54221213871107
 21
15.95298165956035
 31
0.0
  0
LINE
  5
E4F
330
CE3
100
AcDbEntity
  8
0
 62
     0
100
AcDbLine
 10
29.84221213871098
 20
22.25298165956024
 30
0.0
 11
30.83923091984559
 21
23.25000044069486
 31
0.0
  0
LINE
  5
E50
330
CE3
100
AcDbEntity
  8
0
 62
     0
100
AcDbLine
 10
14.73923091984556
 20
7.150000440694782
 30
0.0
 11
18.6422121387111
 21
11.05298165956037
 31
0.0
  0
LINE
  5
E51
330
CE3
100
AcDbEntity
  8
0
 62
     0
100
AcDbLine
 10
20.74221213871101
 20
14.05100727166717
 30
0.0
 11
23.54221213871102
 21
16.85100727166724
 31
0.0
  0
LINE
  5
E52
330
CE3
100
AcDbEntity
  8
0
 62
     0
100
AcDbLine
 10
13.84120530773861
 20
7.150000440694839
 30
0.0
 11
18.63827278614991
 21
11.94706791910613
 31
0.0
  0
LINE
  5
E53
330
CE3
100
AcDbEntity
  8
0
 62
     0
100
AcDbLine
 10
20.74221213871101
 20
14.94903288377412
 30
0.0
 11
23.54221213871107
 21
17.74903288377419
 31
0.0
  0
LINE
  5
E54
330
CE3
100
AcDbEntity
  8
0
 62
     0
100
AcDbLine
 10
26.24317969563179
 20
20.4500004406949
 30
0.0
 11
27.39221213871116
 21
21.59903288377421
 31
0.0
  0
LINE
  5
E55
330
CE3
100
AcDbEntity
  8
0
 62
     0
100
AcDbLine
 10
12.94317969563172
 20
7.150000440694839
 30
0.0
 11
18.52861094982858
 21
12.7354316948917
 31
0.0
  0
LINE
  5
E56
330
CE3
100
AcDbEntity
  8
0
 62
     0
100
AcDbLine
 10
20.74221213871101
 20
15.84705849588101
 30
0.0
 11
23.54221213871107
 21
18.64705849588102
 31
0.0
  0
LINE
  5
E57
330
CE3
100
AcDbEntity
  8
0
 62
     0
100
AcDbLine
 10
15.84221213871109
 20
10.94705849588109
 30
0.0
 11
18.30627220578446
 21
13.41111856295447
 31
0.0
  0
LINE
  5
E58
330
CE3
100
AcDbEntity
  8
0
 62
     0
100
AcDbLine
 10
25.34515408352479
 20
20.45000044069479
 30
0.0
 11
27.3922121387111
 21
22.4970584958811
 31
0.0
  0
LINE
  5
E59
330
CE3
100
AcDbEntity
  8
0
 62
     0
100
AcDbLine
 10
12.10287995878474
 20
7.207726315954744
 30
0.0
 11
14.84515408352478
 21
9.950000440694793
 31
0.0
  0
LINE
  5
E5A
330
CE3
100
AcDbEntity
  8
0
 62
     0
100
AcDbLine
 10
20.74221213871095
 20
16.7450841079879
 30
0.0
 11
23.70802684449074
 21
19.71089881376769
 31
0.0
  0
LINE
  5
E5B
330
CE3
100
AcDbEntity
  8
0
 62
     0
100
AcDbLine
 10
15.84005304710183
 20
11.84292501637872
 30
0.0
 11
17.99784067111244
 21
14.00071264038939
 31
0.0
  0
LINE
  5
E5C
330
CE3
100
AcDbEntity
  8
0
 62
     0
100
AcDbLine
 10
24.28131376563829
 20
20.28418573491524
 30
0.0
 11
27.1587447237913
 21
23.16161669306819
 31
0.0
  0
LINE
  5
E5D
330
CE3
100
AcDbEntity
  8
0
 62
     0
100
AcDbLine
 10
11.81721213871099
 20
7.820084107987952
 30
0.0
 11
13.94712847141795
 21
9.950000440694907
 31
0.0
  0
LINE
  5
E5E
330
CE3
100
AcDbEntity
  8
0
 62
     0
100
AcDbLine
 10
15.62045002760112
 20
12.52134760898502
 30
0.0
 11
17.61559870627354
 21
14.51649628765744
 31
0.0
  0
LINE
  5
E5F
330
CE3
100
AcDbEntity
  8
0
 62
     0
100
AcDbLine
 10
20.74221213871095
 20
17.64310972009485
 30
0.0
 11
26.34910285931101
 21
23.25000044069491
 31
0.0
  0
LINE
  5
E60
330
CE3
100
AcDbEntity
  8
0
 62
     0
100
AcDbLine
 10
11.81721213871099
 20
8.718109720094901
 30
0.0
 11
13.04910285931095
 21
9.95000044069485
 31
0.0
  0
LINE
  5
E61
330
CE3
100
AcDbEntity
  8
0
 62
     0
100
AcDbLine
 10
15.19419519929641
 20
12.99311839278715
 30
0.0
 11
17.17409418661878
 21
14.97301738010952
 31
0.0
  0
LINE
  5
E62
330
CE3
100
AcDbEntity
  8
0
 62
     0
100
AcDbLine
 10
20.74221213871101
 20
18.54113533220169
 30
0.0
 11
25.45107724720395
 21
23.25000044069469
 31
0.0
  0
LINE
  5
E63
330
CE3
100
AcDbEntity
  8
0
 62
     0
100
AcDbLine
 10
11.88616406073083
 20
9.685087254221571
 30
0.0
 11
12.08212532518444
 21
9.881048518675186
 31
0.0
  0
LINE
  5
E64
330
CE3
100
AcDbEntity
  8
0
 62
     0
100
AcDbLine
 10
20.76218725286758
 20
19.45913605846522
 30
0.0
 11
24.53307652094059
 21
23.23002532653828
 31
0.0
  0
LINE
  5
E65
330
CE3
100
AcDbEntity
  8
0
 62
     0
100
AcDbLine
 10
14.74518239324282
 20
13.44213119884051
 30
0.0
 11
16.72508138056531
 21
15.422030186163
 31
0.0
  0
LINE
  5
E66
330
CE3
100
AcDbEntity
  8
0
 62
     0
100
AcDbLine
 10
21.06165068513337
 20
20.656625102838
 30
0.0
 11
23.33558747656786
 21
22.9305618942725
 31
0.0
  0
LINE
  5
E67
330
CE3
100
AcDbEntity
  8
0
 62
     0
100
AcDbLine
 10
14.29616958718935
 20
13.89114400489398
 30
0.0
 11
16.27606857451183
 21
15.87104299221647
 31
0.0
  0
LINE
  5
E68
330
CE3
100
AcDbEntity
  8
0
 62
     0
100
AcDbLine
 10
13.8471567811361
 20
14.34015681094757
 30
0.0
 11
15.82705576845836
 21
16.32005579826977
 31
0.0
  0
LINE
  5
E69
330
CE3
100
AcDbEntity
  8
0
 62
     0
100
AcDbLine
 10
13.39814397508263
 20
14.78916961700105
 30
0.0
 11
15.37804296240489
 21
16.76906860432325
 31
0.0
  0
LINE
  5
E6A
330
CE3
100
AcDbEntity
  8
0
 62
     0
100
AcDbLine
 10
12.94913116902898
 20
15.23818242305435
 30
0.0
 11
14.92903015635141
 21
17.21808141037672
 31
0.0
  0
LINE
  5
E6B
330
CE3
100
AcDbEntity
  8
0
 62
     0
100
AcDbLine
 10
17.26292357456259
 20
20.4500004406949
 30
0.0
 11
18.11721213871095
 21
21.30428900484326
 31
0.0
  0
LINE
  5
E6C
330
CE3
100
AcDbEntity
  8
0
 62
     0
100
AcDbLine
 10
12.50020167700375
 20
15.68727854313607
 30
0.0
 11
14.48026732043621
 21
17.66734418656852
 31
0.0
  0
LINE
  5
E6D
330
CE3
100
AcDbEntity
  8
0
 62
     0
100
AcDbLine
 10
16.36489796245564
 20
20.45000044069479
 30
0.0
 11
18.11721213871106
 21
22.20231461695021
 31
0.0
  0
LINE
  5
E6E
330
CE3
100
AcDbEntity
  8
0
 62
     0
100
AcDbLine
 10
12.08873375245218
 20
16.17383623069128
 30
0.0
 11
14.15037043914827
 21
18.23547291738742
 31
0.0
  0
LINE
  5
E6F
330
CE3
100
AcDbEntity
  8
0
 62
     0
100
AcDbLine
 10
15.46687235034869
 20
20.45000044069479
 30
0.0
 11
18.03065323894992
 21
23.01378132929602
 31
0.0
  0
LINE
  5
E70
330
CE3
100
AcDbEntity
  8
0
 62
     0
100
AcDbLine
 10
11.74827314618971
 20
16.73140123653576
 30
0.0
 11
14.09221213871103
 21
19.07534022905713
 31
0.0
  0
LINE
  5
E71
330
CE3
100
AcDbEntity
  8
0
 62
     0
100
AcDbLine
 10
14.56638008907168
 20
20.44753379152467
 30
0.0
 11
17.36884673824187
 21
23.25000044069486
 31
0.0
  0
LINE
  5
E72
330
CE3
100
AcDbEntity
  8
0
 62
     0
100
AcDbLine
 10
11.48757985045762
 20
17.36873355291061
 30
0.0
 11
14.0946787878812
 21
19.97583249033425
 31
0.0
  0
LINE
  5
E73
330
CE3
100
AcDbEntity
  8
0
 62
     0
100
AcDbLine
 10
11.32576788820955
 20
18.10494720276943
 30
0.0
 11
16.47082112613498
 21
23.25000044069486
 31
0.0
  0
LINE
  5
E74
330
CE3
100
AcDbEntity
  8
0
 62
     0
100
AcDbLine
 10
11.29221213871107
 20
18.96941706537785
 30
0.0
 11
15.57279551402803
 21
23.25000044069486
 31
0.0
  0
LINE
  5
E75
330
CE3
100
AcDbEntity
  8
0
 62
     0
100
AcDbLine
 10
11.29221213871102
 20
19.8674426774848
 30
0.0
 11
14.67476990192113
 21
23.25000044069486
 31
0.0
  0
LINE
  5
E76
330
CE3
100
AcDbEntity
  8
0
 62
     0
100
AcDbLine
 10
11.31240414914935
 20
20.78566030003003
 30
0.0
 11
13.75655227937596
 21
23.22980843025664
 31
0.0
  0
ENDBLK
  5
E78
330
CE3
100
AcDbEntity
  8
0
100
AcDbBlockEnd
  0
BLOCK
  5
36CD
330
36C3
100
AcDbEntity
  8
0
100
AcDbBlockBegin
  2
*D2
 70
     1
 10
0.0
 20
0.0
 30
0.0
  3
*D2
  1

  0
LINE
  5
3D30
330
36C3
100
AcDbEntity
  8
SUNPOU
100
AcDbLine
 10
391.3698425623056
 20
429.2014137218414
 30
0.0
 11
435.9649692408998
 21
429.2014137218414
 31
0.0
  0
LINE
  5
3D31
330
36C3
100
AcDbEntity
  8
SUNPOU
100
AcDbLine
 10
391.3698425623056
 20
355.2014137218414
 30
0.0
 11
435.9649692408997
 21
355.2014137218414
 31
0.0
  0
LINE
  5
3D32
330
36C3
100
AcDbEntity
  8
SUNPOU
100
AcDbLine
 10
432.9649692408998
 20
422.2014137218414
 30
0.0
 11
432.9649692408998
 21
362.2014137218414
 31
0.0
  0
INSERT
  5
3D33
330
36C3
100
AcDbEntity
  8
SUNPOU
100
AcDbBlockReference
  2
_OPEN
 10
432.9649692408998
 20
429.2014137218414
 30
0.0
 41
7.0
 42
7.0
 43
7.0
 50
90.0
  0
INSERT
  5
3D34
330
36C3
100
AcDbEntity
  8
SUNPOU
100
AcDbBlockReference
  2
_OPEN
 10
432.9649692408998
 20
355.2014137218414
 30
0.0
 41
7.0
 42
7.0
 43
7.0
 50
270.0
  0
MTEXT
  5
3D35
330
36C3
100
AcDbEntity
  8
SUNPOU
100
AcDbMText
 10
427.9649692408997
 20
392.2014137218415
 30
0.0
 40
6.0
 41
0.0
 71
     5
 72
     1
  1
\A1;74
 11
0.0000000000000001
 21
1.0
 31
0.0
  0
POINT
  5
3D36
330
36C3
100
AcDbEntity
  8
DEFPOINTS
 62
     0
100
AcDbPoint
 10
385.3698425623056
 20
429.2014137218414
 30
0.0
  0
POINT
  5
3D37
330
36C3
100
AcDbEntity
  8
DEFPOINTS
 62
     0
100
AcDbPoint
 10
385.3698425623056
 20
355.2014137218414
 30
0.0
  0
POINT
  5
3D38
330
36C3
100
AcDbEntity
  8
DEFPOINTS
 62
     0
100
AcDbPoint
 10
432.9649692408998
 20
355.2014137218414
 30
0.0
  0
ENDBLK
  5
36CE
330
36C3
100
AcDbEntity
  8
0
100
AcDbBlockEnd
  0
BLOCK
  5
36DA
330
36D0
100
AcDbEntity
  8
0
100
AcDbBlockBegin
  2
*D3
 70
     1
 10
0.0
 20
0.0
 30
0.0
  3
*D3
  1

  0
LINE
  5
3D39
330
36D0
100
AcDbEntity
  8
SUNPOU
100
AcDbLine
 10
218.4957169512056
 20
406.2014137218414
 30
0.0
 11
180.0399181989355
 21
406.2014137218414
 31
0.0
  0
LINE
  5
3D3A
330
36D0
100
AcDbEntity
  8
SUNPOU
100
AcDbLine
 10
217.7258942670057
 20
378.2014137218415
 30
0.0
 11
180.0399181989355
 21
378.2014137218415
 31
0.0
  0
LINE
  5
3D3B
330
36D0
100
AcDbEntity
  8
SUNPOU
100
AcDbLine
 10
183.0399181989355
 20
399.2014137218414
 30
0.0
 11
183.0399181989355
 21
385.2014137218415
 31
0.0
  0
INSERT
  5
3D3C
330
36D0
100
AcDbEntity
  8
SUNPOU
100
AcDbBlockReference
  2
_OPEN
 10
183.0399181989355
 20
406.2014137218414
 30
0.0
 41
7.0
 42
7.0
 43
7.0
 50
90.0
  0
INSERT
  5
3D3D
330
36D0
100
AcDbEntity
  8
SUNPOU
100
AcDbBlockReference
  2
_OPEN
 10
183.0399181989355
 20
378.2014137218415
 30
0.0
 41
7.0
 42
7.0
 43
7.0
 50
270.0
  0
MTEXT
  5
3D3E
330
36D0
100
AcDbEntity
  8
SUNPOU
100
AcDbMText
 10
178.0399181989354
 20
392.2014137218415
 30
0.0
 40
6.0
 41
0.0
 71
     5
 72
     1
  1
\A1;28
 11
0.0000000000000001
 21
1.0
 31
0.0
  0
POINT
  5
3D3F
330
36D0
100
AcDbEntity
  8
DEFPOINTS
 62
     0
100
AcDbPoint
 10
224.4957169512056
 20
406.2014137218414
 30
0.0
  0
POINT
  5
3D40
330
36D0
100
AcDbEntity
  8
DEFPOINTS
 62
     0
100
AcDbPoint
 10
223.7258942670057
 20
378.2014137218415
 30
0.0
  0
POINT
  5
3D41
330
36D0
100
AcDbEntity
  8
DEFPOINTS
 62
     0
100
AcDbPoint
 10
183.0399181989355
 20
378.2014137218415
 30
0.0
  0
ENDBLK
  5
36DB
330
36D0
100
AcDbEntity
  8
0
100
AcDbBlockEnd
  0
BLOCK
  5
3996
330
398C
100
AcDbEntity
  8
0
100
AcDbBlockBegin
  2
*D4
 70
     1
 10
0.0
 20
0.0
 30
0.0
  3
*D4
  1

  0
LINE
  5
3D4B
330
398C
100
AcDbEntity
  8
SUNPOU
 62
     4
100
AcDbLine
 10
539.0811874750038
 20
224.8020031828835
 30
0.0
 11
539.0811874750038
 21
287.4241864363731
 31
0.0
  0
LINE
  5
3D4C
330
398C
100
AcDbEntity
  8
SUNPOU
 62
     4
100
AcDbLine
 10
597.0811874750038
 20
224.8020031828835
 30
0.0
 11
597.0811874750038
 21
287.4241864363731
 31
0.0
  0
LINE
  5
3D4D
330
398C
100
AcDbEntity
  8
SUNPOU
 62
     4
100
AcDbLine
 10
546.0811874750038
 20
284.4241864363731
 30
0.0
 11
590.0811874750038
 21
284.4241864363731
 31
0.0
  0
INSERT
  5
3D4E
330
398C
100
AcDbEntity
  8
SUNPOU
 62
     4
100
AcDbBlockReference
  2
_OPEN
 10
539.0811874750038
 20
284.4241864363731
 30
0.0
 41
7.0
 42
7.0
 43
7.0
 50
180.0
  0
INSERT
  5
3D4F
330
398C
100
AcDbEntity
  8
SUNPOU
 62
     4
100
AcDbBlockReference
  2
_OPEN
 10
597.0811874750038
 20
284.4241864363731
 30
0.0
 41
7.0
 42
7.0
 43
7.0
  0
MTEXT
  5
3D50
330
398C
100
AcDbEntity
  8
SUNPOU
 62
     4
100
AcDbMText
 10
568.0811874750038
 20
289.4241864363731
 30
0.0
 40
6.0
 41
0.0
 71
     5
 72
     1
  1
\A1;58
  0
POINT
  5
3D51
330
398C
100
AcDbEntity
  8
DEFPOINTS
 62
     0
100
AcDbPoint
 10
539.0811874750038
 20
218.8020031828835
 30
0.0
  0
POINT
  5
3D52
330
398C
100
AcDbEntity
  8
DEFPOINTS
 62
     0
100
AcDbPoint
 10
597.0811874750038
 20
218.8020031828835
 30
0.0
  0
POINT
  5
3D53
330
398C
100
AcDbEntity
  8
DEFPOINTS
 62
     0
100
AcDbPoint
 10
597.0811874750038
 20
284.4241864363731
 30
0.0
  0
ENDBLK
  5
3997
330
398C
100
AcDbEntity
  8
0
100
AcDbBlockEnd
  0
BLOCK
  5
39A2
330
3998
100
AcDbEntity
  8
0
100
AcDbBlockBegin
  2
*D5
 70
     1
 10
0.0
 20
0.0
 30
0.0
  3
*D5
  1

  0
LINE
  5
3D42
330
3998
100
AcDbEntity
  8
SUNPOU
 62
     4
100
AcDbLine
 10
531.0811874750038
 20
219.2838728251058
 30
0.0
 11
531.0811874750038
 21
301.7282500974332
 31
0.0
  0
LINE
  5
3D43
330
3998
100
AcDbEntity
  8
SUNPOU
 62
     4
100
AcDbLine
 10
605.0811874750039
 20
219.2838728251058
 30
0.0
 11
605.0811874750039
 21
301.7282500974332
 31
0.0
  0
LINE
  5
3D44
330
3998
100
AcDbEntity
  8
SUNPOU
 62
     4
100
AcDbLine
 10
538.0811874750038
 20
298.7282500974332
 30
0.0
 11
598.0811874750038
 21
298.7282500974332
 31
0.0
  0
INSERT
  5
3D45
330
3998
100
AcDbEntity
  8
SUNPOU
 62
     4
100
AcDbBlockReference
  2
_OPEN
 10
531.0811874750038
 20
298.7282500974332
 30
0.0
 41
7.0
 42
7.0
 43
7.0
 50
180.0
  0
INSERT
  5
3D46
330
3998
100
AcDbEntity
  8
SUNPOU
 62
     4
100
AcDbBlockReference
  2
_OPEN
 10
605.0811874750039
 20
298.7282500974332
 30
0.0
 41
7.0
 42
7.0
 43
7.0
  0
MTEXT
  5
3D47
330
3998
100
AcDbEntity
  8
SUNPOU
 62
     4
100
AcDbMText
 10
568.0811874750038
 20
303.7282500974332
 30
0.0
 40
6.0
 41
0.0
 71
     5
 72
     1
  1
\A1;74
  0
POINT
  5
3D48
330
3998
100
AcDbEntity
  8
DEFPOINTS
 62
     0
100
AcDbPoint
 10
531.0811874750038
 20
213.2838728251058
 30
0.0
  0
POINT
  5
3D49
330
3998
100
AcDbEntity
  8
DEFPOINTS
 62
     0
100
AcDbPoint
 10
605.0811874750039
 20
213.2838728251058
 30
0.0
  0
POINT
  5
3D4A
330
3998
100
AcDbEntity
  8
DEFPOINTS
 62
     0
100
AcDbPoint
 10
605.0811874750039
 20
298.7282500974332
 30
0.0
  0
ENDBLK
  5
39A3
330
3998
100
AcDbEntity
  8
0
100
AcDbBlockEnd
  0
BLOCK
  5
39B0
330
39A4
100
AcDbEntity
  8
0
100
AcDbBlockBegin
  2
*D6
 70
     1
 10
0.0
 20
0.0
 30
0.0
  3
*D6
  1

  0
LINE
  5
3D73
330
39A4
100
AcDbEntity
  8
SUNPOU
 62
     4
100
AcDbLine
 10
601.0811874750038
 20
223.2838728251058
 30
0.0
 11
644.8564470819165
 21
223.2838728251058
 31
0.0
  0
LINE
  5
3D74
330
39A4
100
AcDbEntity
  8
SUNPOU
 62
     4
100
AcDbLine
 10
608.0550655416004
 20
209.8043531600058
 30
0.0
 11
644.8564470819165
 21
209.8043531600058
 31
0.0
  0
LINE
  5
3D75
330
39A4
100
AcDbEntity
  8
SUNPOU
 62
     4
100
AcDbLine
 10
641.8564470819164
 20
230.2838728251058
 30
0.0
 11
641.8564470819164
 21
237.2838728251058
 31
0.0
  0
LINE
  5
3D76
330
39A4
100
AcDbEntity
  8
SUNPOU
 62
     4
100
AcDbLine
 10
641.8564470819164
 20
202.8043531600058
 30
0.0
 11
641.8564470819164
 21
195.8043531600058
 31
0.0
  0
LINE
  5
3D77
330
39A4
100
AcDbEntity
  8
SUNPOU
 62
     4
100
AcDbLine
 10
641.8564470819164
 20
223.2838728251058
 30
0.0
 11
641.8564470819164
 21
209.8043531600058
 31
0.0
  0
INSERT
  5
3D78
330
39A4
100
AcDbEntity
  8
SUNPOU
 62
     4
100
AcDbBlockReference
  2
_OPEN
 10
641.8564470819164
 20
223.2838728251058
 30
0.0
 41
7.0
 42
7.0
 43
7.0
 50
270.0
  0
INSERT
  5
3D79
330
39A4
100
AcDbEntity
  8
SUNPOU
 62
     4
100
AcDbBlockReference
  2
_OPEN
 10
641.8564470819164
 20
209.8043531600058
 30
0.0
 41
7.0
 42
7.0
 43
7.0
 50
90.0
  0
MTEXT
  5
3D7A
330
39A4
100
AcDbEntity
  8
SUNPOU
 62
     4
100
AcDbMText
 10
636.8564470819165
 20
216.5441129925559
 30
0.0
 40
6.0
 41
0.0
 71
     5
 72
     1
  1
\A1;13
 11
0.0000000000000001
 21
1.0
 31
0.0
  0
POINT
  5
3D7B
330
39A4
100
AcDbEntity
  8
DEFPOINTS
 62
     0
100
AcDbPoint
 10
595.0811874750038
 20
223.2838728251058
 30
0.0
  0
POINT
  5
3D7C
330
39A4
100
AcDbEntity
  8
DEFPOINTS
 62
     0
100
AcDbPoint
 10
602.0550655416005
 20
209.8043531600058
 30
0.0
  0
POINT
  5
3D7D
330
39A4
100
AcDbEntity
  8
DEFPOINTS
 62
     0
100
AcDbPoint
 10
641.8564470819164
 20
209.8043531600058
 30
0.0
  0
ENDBLK
  5
39B1
330
39A4
100
AcDbEntity
  8
0
100
AcDbBlockEnd
  0
BLOCK
  5
39BE
330
39B2
100
AcDbEntity
  8
0
100
AcDbBlockBegin
  2
*D7
 70
     1
 10
0.0
 20
0.0
 30
0.0
  3
*D7
  1

  0
LINE
  5
3D68
330
39B2
100
AcDbEntity
  8
SUNPOU
100
AcDbLine
 10
535.0811874750038
 20
223.2838728251058
 30
0.0
 11
494.6331453674515
 21
223.2838728251058
 31
0.0
  0
LINE
  5
3D69
330
39B2
100
AcDbEntity
  8
SUNPOU
100
AcDbLine
 10
529.1967265071416
 20
214.2838728251058
 30
0.0
 11
494.6331453674515
 21
214.2838728251058
 31
0.0
  0
LINE
  5
3D6A
330
39B2
100
AcDbEntity
  8
SUNPOU
100
AcDbLine
 10
497.6331453674515
 20
230.2838728251058
 30
0.0
 11
497.6331453674515
 21
237.2838728251058
 31
0.0
  0
LINE
  5
3D6B
330
39B2
100
AcDbEntity
  8
SUNPOU
100
AcDbLine
 10
497.6331453674515
 20
207.2838728251058
 30
0.0
 11
497.6331453674515
 21
200.2838728251058
 31
0.0
  0
LINE
  5
3D6C
330
39B2
100
AcDbEntity
  8
SUNPOU
100
AcDbLine
 10
497.6331453674515
 20
223.2838728251058
 30
0.0
 11
497.6331453674515
 21
214.2838728251058
 31
0.0
  0
INSERT
  5
3D6D
330
39B2
100
AcDbEntity
  8
SUNPOU
100
AcDbBlockReference
  2
_OPEN
 10
497.6331453674515
 20
223.2838728251058
 30
0.0
 41
7.0
 42
7.0
 43
7.0
 50
270.0
  0
INSERT
  5
3D6E
330
39B2
100
AcDbEntity
  8
SUNPOU
100
AcDbBlockReference
  2
_OPEN
 10
497.6331453674515
 20
214.2838728251058
 30
0.0
 41
7.0
 42
7.0
 43
7.0
 50
90.0
  0
MTEXT
  5
3D6F
330
39B2
100
AcDbEntity
  8
SUNPOU
100
AcDbMText
 10
492.6331453674515
 20
218.7838728251059
 30
0.0
 40
6.0
 41
0.0
 71
     5
 72
     1
  1
\A1;9
 11
0.0000000000000001
 21
1.0
 31
0.0
  0
POINT
  5
3D70
330
39B2
100
AcDbEntity
  8
DEFPOINTS
 62
     0
100
AcDbPoint
 10
541.0811874750038
 20
223.2838728251058
 30
0.0
  0
POINT
  5
3D71
330
39B2
100
AcDbEntity
  8
DEFPOINTS
 62
     0
100
AcDbPoint
 10
535.1967265071416
 20
214.2838728251058
 30
0.0
  0
POINT
  5
3D72
330
39B2
100
AcDbEntity
  8
DEFPOINTS
 62
     0
100
AcDbPoint
 10
497.6331453674515
 20
214.2838728251058
 30
0.0
  0
ENDBLK
  5
39BF
330
39B2
100
AcDbEntity
  8
0
100
AcDbBlockEnd
  0
BLOCK
  5
39CA
330
39C0
100
AcDbEntity
  8
0
100
AcDbBlockBegin
  2
*D8
 70
     1
 10
0.0
 20
0.0
 30
0.0
  3
*D8
  1

  0
LINE
  5
3D54
330
39C0
100
AcDbEntity
  8
SUNPOU
100
AcDbLine
 10
529.1967265071416
 20
214.2838728251058
 30
0.0
 11
494.6331453674515
 21
214.2838728251058
 31
0.0
  0
LINE
  5
3D55
330
39C0
100
AcDbEntity
  8
SUNPOU
100
AcDbLine
 10
557.8121270194478
 20
156.5338728251058
 30
0.0
 11
494.6331453674515
 21
156.5338728251058
 31
0.0
  0
LINE
  5
3D56
330
39C0
100
AcDbEntity
  8
SUNPOU
100
AcDbLine
 10
497.6331453674515
 20
207.2838728251058
 30
0.0
 11
497.6331453674515
 21
163.5338728251058
 31
0.0
  0
INSERT
  5
3D57
330
39C0
100
AcDbEntity
  8
SUNPOU
100
AcDbBlockReference
  2
_OPEN
 10
497.6331453674515
 20
214.2838728251058
 30
0.0
 41
7.0
 42
7.0
 43
7.0
 50
90.0
  0
INSERT
  5
3D58
330
39C0
100
AcDbEntity
  8
SUNPOU
100
AcDbBlockReference
  2
_OPEN
 10
497.6331453674515
 20
156.5338728251058
 30
0.0
 41
7.0
 42
7.0
 43
7.0
 50
270.0
  0
MTEXT
  5
3D59
330
39C0
100
AcDbEntity
  8
SUNPOU
100
AcDbMText
 10
492.6331453674515
 20
185.4088728251059
 30
0.0
 40
6.0
 41
0.0
 71
     5
 72
     1
  1
\A1;58
 11
0.0000000000000001
 21
1.0
 31
0.0
  0
POINT
  5
3D5A
330
39C0
100
AcDbEntity
  8
DEFPOINTS
 62
     0
100
AcDbPoint
 10
535.1967265071416
 20
214.2838728251058
 30
0.0
  0
POINT
  5
3D5B
330
39C0
100
AcDbEntity
  8
DEFPOINTS
 62
     0
100
AcDbPoint
 10
563.8121270194479
 20
156.5338728251058
 30
0.0
  0
POINT
  5
3D5C
330
39C0
100
AcDbEntity
  8
DEFPOINTS
 62
     0
100
AcDbPoint
 10
497.6331453674515
 20
156.5338728251058
 30
0.0
  0
ENDBLK
  5
39CB
330
39C0
100
AcDbEntity
  8
0
100
AcDbBlockEnd
  0
BLOCK
  5
39D8
330
39CC
100
AcDbEntity
  8
0
100
AcDbBlockBegin
  2
*D9
 70
     1
 10
0.0
 20
0.0
 30
0.0
  3
*D9
  1

  0
LINE
  5
3D5D
330
39CC
100
AcDbEntity
  8
SUNPOU
100
AcDbLine
 10
557.8121270194478
 20
156.5338728251058
 30
0.0
 11
494.6331453674515
 21
156.5338728251058
 31
0.0
  0
LINE
  5
3D5E
330
39CC
100
AcDbEntity
  8
SUNPOU
100
AcDbLine
 10
562.0811874750038
 20
149.2838728251058
 30
0.0
 11
494.6331453674515
 21
149.2838728251058
 31
0.0
  0
LINE
  5
3D5F
330
39CC
100
AcDbEntity
  8
SUNPOU
100
AcDbLine
 10
497.6331453674515
 20
163.5338728251058
 30
0.0
 11
497.6331453674515
 21
170.5338728251058
 31
0.0
  0
LINE
  5
3D60
330
39CC
100
AcDbEntity
  8
SUNPOU
100
AcDbLine
 10
497.6331453674515
 20
142.2838728251058
 30
0.0
 11
497.6331453674515
 21
135.2838728251058
 31
0.0
  0
MTEXT
  5
3D61
330
39CC
100
AcDbEntity
  8
SUNPOU
100
AcDbMText
 10
492.7241603833049
 20
152.703427294413
 30
0.0
 40
6.0
 41
0.0
 71
     5
 72
     1
  1
\A1;7
 11
0.0000000000000001
 21
1.0
 31
0.0
  0
LINE
  5
3D62
330
39CC
100
AcDbEntity
  8
SUNPOU
100
AcDbLine
 10
497.6331453674515
 20
156.5338728251058
 30
0.0
 11
497.6331453674515
 21
149.2838728251058
 31
0.0
  0
INSERT
  5
3D63
330
39CC
100
AcDbEntity
  8
SUNPOU
100
AcDbBlockReference
  2
_OPEN
 10
497.6331453674515
 20
156.5338728251058
 30
0.0
 41
7.0
 42
7.0
 43
7.0
 50
270.0
  0
INSERT
  5
3D64
330
39CC
100
AcDbEntity
  8
SUNPOU
100
AcDbBlockReference
  2
_OPEN
 10
497.6331453674515
 20
149.2838728251058
 30
0.0
 41
7.0
 42
7.0
 43
7.0
 50
90.0
  0
POINT
  5
3D65
330
39CC
100
AcDbEntity
  8
DEFPOINTS
 62
     0
100
AcDbPoint
 10
563.8121270194479
 20
156.5338728251058
 30
0.0
  0
POINT
  5
3D66
330
39CC
100
AcDbEntity
  8
DEFPOINTS
 62
     0
100
AcDbPoint
 10
568.0811874750038
 20
149.2838728251058
 30
0.0
  0
POINT
  5
3D67
330
39CC
100
AcDbEntity
  8
DEFPOINTS
 62
     0
100
AcDbPoint
 10
497.6331453674515
 20
149.2838728251058
 30
0.0
  0
ENDBLK
  5
39D9
330
39CC
100
AcDbEntity
  8
0
100
AcDbBlockEnd
  0
BLOCK
  5
3A99
330
3A8F
100
AcDbEntity
  8
0
100
AcDbBlockBegin
  2
*D10
 70
     1
 10
0.0
 20
0.0
 30
0.0
  3
*D10
  1

  0
LINE
  5
3D7E
330
3A8F
100
AcDbEntity
  8
SUNPOU
100
AcDbLine
 10
410.3698425623056
 20
229.2838728251058
 30
0.0
 11
410.3698425623056
 21
261.964529597302
 31
0.0
  0
LINE
  5
3D7F
330
3A8F
100
AcDbEntity
  8
SUNPOU
100
AcDbLine
 10
385.3698425623056
 20
229.2838728251058
 30
0.0
 11
385.3698425623056
 21
261.964529597302
 31
0.0
  0
LINE
  5
3D80
330
3A8F
100
AcDbEntity
  8
SUNPOU
100
AcDbLine
 10
403.3698425623056
 20
258.964529597302
 30
0.0
 11
392.3698425623056
 21
258.964529597302
 31
0.0
  0
INSERT
  5
3D81
330
3A8F
100
AcDbEntity
  8
SUNPOU
100
AcDbBlockReference
  2
_OPEN
 10
410.3698425623056
 20
258.964529597302
 30
0.0
 41
7.0
 42
7.0
 43
7.0
  0
INSERT
  5
3D82
330
3A8F
100
AcDbEntity
  8
SUNPOU
100
AcDbBlockReference
  2
_OPEN
 10
385.3698425623056
 20
258.964529597302
 30
0.0
 41
7.0
 42
7.0
 43
7.0
 50
180.0
  0
MTEXT
  5
3D83
330
3A8F
100
AcDbEntity
  8
SUNPOU
100
AcDbMText
 10
397.8698425623056
 20
263.964529597302
 30
0.0
 40
6.0
 41
0.0
 71
     5
 72
     1
  1
\A1;25
  0
POINT
  5
3D84
330
3A8F
100
AcDbEntity
  8
DEFPOINTS
 62
     0
100
AcDbPoint
 10
410.3698425623056
 20
223.2838728251058
 30
0.0
  0
POINT
  5
3D85
330
3A8F
100
AcDbEntity
  8
DEFPOINTS
 62
     0
100
AcDbPoint
 10
385.3698425623056
 20
223.2838728251058
 30
0.0
  0
POINT
  5
3D86
330
3A8F
100
AcDbEntity
  8
DEFPOINTS
 62
     0
100
AcDbPoint
 10
385.3698425623056
 20
258.964529597302
 30
0.0
  0
ENDBLK
  5
3A9A
330
3A8F
100
AcDbEntity
  8
0
100
AcDbBlockEnd
  0
BLOCK
  5
3AA8
330
3A9C
100
AcDbEntity
  8
0
100
AcDbBlockBegin
  2
*D11
 70
     1
 10
0.0
 20
0.0
 30
0.0
  3
*D11
  1

  0
LINE
  5
3D87
330
3A9C
100
AcDbEntity
  8
SUNPOU
100
AcDbLine
 10
385.3698425623056
 20
229.2838728251058
 30
0.0
 11
385.3698425623056
 21
261.964529597302
 31
0.0
  0
LINE
  5
3D88
330
3A9C
100
AcDbEntity
  8
SUNPOU
100
AcDbLine
 10
375.3698425623056
 20
229.2838728251058
 30
0.0
 11
375.3698425623056
 21
261.964529597302
 31
0.0
  0
LINE
  5
3D89
330
3A9C
100
AcDbEntity
  8
SUNPOU
100
AcDbLine
 10
392.3698425623056
 20
258.964529597302
 30
0.0
 11
399.3698425623056
 21
258.964529597302
 31
0.0
  0
LINE
  5
3D8A
330
3A9C
100
AcDbEntity
  8
SUNPOU
100
AcDbLine
 10
368.3698425623056
 20
258.964529597302
 30
0.0
 11
361.3698425623056
 21
258.964529597302
 31
0.0
  0
MTEXT
  5
3D8B
330
3A9C
100
AcDbEntity
  8
SUNPOU
100
AcDbMText
 10
380.3698425623056
 20
264.3311354037102
 30
0.0
 40
6.0
 41
0.0
 71
     5
 72
     1
  1
\A1;10
  0
LINE
  5
3D8C
330
3A9C
100
AcDbEntity
  8
SUNPOU
100
AcDbLine
 10
385.3698425623056
 20
258.964529597302
 30
0.0
 11
375.3698425623056
 21
258.964529597302
 31
0.0
  0
INSERT
  5
3D8D
330
3A9C
100
AcDbEntity
  8
SUNPOU
100
AcDbBlockReference
  2
_OPEN
 10
385.3698425623056
 20
258.964529597302
 30
0.0
 41
7.0
 42
7.0
 43
7.0
 50
180.0
  0
INSERT
  5
3D8E
330
3A9C
100
AcDbEntity
  8
SUNPOU
100
AcDbBlockReference
  2
_OPEN
 10
375.3698425623056
 20
258.964529597302
 30
0.0
 41
7.0
 42
7.0
 43
7.0
  0
POINT
  5
3D8F
330
3A9C
100
AcDbEntity
  8
DEFPOINTS
 62
     0
100
AcDbPoint
 10
385.3698425623056
 20
223.2838728251058
 30
0.0
  0
POINT
  5
3D90
330
3A9C
100
AcDbEntity
  8
DEFPOINTS
 62
     0
100
AcDbPoint
 10
375.3698425623056
 20
223.2838728251058
 30
0.0
  0
POINT
  5
3D91
330
3A9C
100
AcDbEntity
  8
DEFPOINTS
 62
     0
100
AcDbPoint
 10
375.3698425623056
 20
258.964529597302
 30
0.0
  0
ENDBLK
  5
3AA9
330
3A9C
100
AcDbEntity
  8
0
100
AcDbBlockEnd
  0
BLOCK
  5
3AC0
330
3AB6
100
AcDbEntity
  8
0
100
AcDbBlockBegin
  2
*D12
 70
     1
 10
0.0
 20
0.0
 30
0.0
  3
*D12
  1

  0
LINE
  5
3D92
330
3AB6
100
AcDbEntity
  8
SUNPOU
100
AcDbLine
 10
385.3698425623056
 20
229.2838728251058
 30
0.0
 11
385.3698425623056
 21
276.3824259597329
 31
0.0
  0
LINE
  5
3D93
330
3AB6
100
AcDbEntity
  8
SUNPOU
100
AcDbLine
 10
361.8698425623056
 20
199.7857003448059
 30
0.0
 11
361.8698425623056
 21
276.3824259597329
 31
0.0
  0
LINE
  5
3D94
330
3AB6
100
AcDbEntity
  8
SUNPOU
100
AcDbLine
 10
378.3698425623056
 20
273.3824259597329
 30
0.0
 11
368.8698425623056
 21
273.3824259597329
 31
0.0
  0
INSERT
  5
3D95
330
3AB6
100
AcDbEntity
  8
SUNPOU
100
AcDbBlockReference
  2
_OPEN
 10
385.3698425623056
 20
273.3824259597329
 30
0.0
 41
7.0
 42
7.0
 43
7.0
  0
INSERT
  5
3D96
330
3AB6
100
AcDbEntity
  8
SUNPOU
100
AcDbBlockReference
  2
_OPEN
 10
361.8698425623056
 20
273.3824259597329
 30
0.0
 41
7.0
 42
7.0
 43
7.0
 50
180.0
  0
MTEXT
  5
3D97
330
3AB6
100
AcDbEntity
  8
SUNPOU
100
AcDbMText
 10
373.6198425623056
 20
278.3824259597329
 30
0.0
 40
6.0
 41
0.0
 71
     5
 72
     1
  1
\A1;24
  0
POINT
  5
3D98
330
3AB6
100
AcDbEntity
  8
DEFPOINTS
 62
     0
100
AcDbPoint
 10
385.3698425623056
 20
223.2838728251058
 30
0.0
  0
POINT
  5
3D99
330
3AB6
100
AcDbEntity
  8
DEFPOINTS
 62
     0
100
AcDbPoint
 10
361.8698425623056
 20
193.7857003448058
 30
0.0
  0
POINT
  5
3D9A
330
3AB6
100
AcDbEntity
  8
DEFPOINTS
 62
     0
100
AcDbPoint
 10
361.8698425623056
 20
273.3824259597329
 30
0.0
  0
ENDBLK
  5
3AC1
330
3AB6
100
AcDbEntity
  8
0
100
AcDbBlockEnd
  0
BLOCK
  5
3AD6
330
3ACC
100
AcDbEntity
  8
0
100
AcDbBlockBegin
  2
*D13
 70
     1
 10
0.0
 20
0.0
 30
0.0
  3
*D13
  1

  0
LINE
  5
3D9B
330
3ACC
100
AcDbEntity
  8
SUNPOU
100
AcDbLine
 10
385.3698425623056
 20
229.2838728251058
 30
0.0
 11
385.3698425623056
 21
291.412339590696
 31
0.0
  0
LINE
  5
3D9C
330
3ACC
100
AcDbEntity
  8
SUNPOU
100
AcDbLine
 10
286.3698425623056
 20
202.2838728251058
 30
0.0
 11
286.3698425623056
 21
291.412339590696
 31
0.0
  0
LINE
  5
3D9D
330
3ACC
100
AcDbEntity
  8
SUNPOU
100
AcDbLine
 10
378.3698425623056
 20
288.412339590696
 30
0.0
 11
293.3698425623056
 21
288.412339590696
 31
0.0
  0
INSERT
  5
3D9E
330
3ACC
100
AcDbEntity
  8
SUNPOU
100
AcDbBlockReference
  2
_OPEN
 10
385.3698425623056
 20
288.412339590696
 30
0.0
 41
7.0
 42
7.0
 43
7.0
  0
INSERT
  5
3D9F
330
3ACC
100
AcDbEntity
  8
SUNPOU
100
AcDbBlockReference
  2
_OPEN
 10
286.3698425623056
 20
288.412339590696
 30
0.0
 41
7.0
 42
7.0
 43
7.0
 50
180.0
  0
MTEXT
  5
3DA0
330
3ACC
100
AcDbEntity
  8
SUNPOU
100
AcDbMText
 10
335.8698425623056
 20
293.4123395906961
 30
0.0
 40
6.0
 41
0.0
 71
     5
 72
     1
  1
\A1;99
  0
POINT
  5
3DA1
330
3ACC
100
AcDbEntity
  8
DEFPOINTS
 62
     0
100
AcDbPoint
 10
385.3698425623056
 20
223.2838728251058
 30
0.0
  0
POINT
  5
3DA2
330
3ACC
100
AcDbEntity
  8
DEFPOINTS
 62
     0
100
AcDbPoint
 10
286.3698425623056
 20
196.2838728251058
 30
0.0
  0
POINT
  5
3DA3
330
3ACC
100
AcDbEntity
  8
DEFPOINTS
 62
     0
100
AcDbPoint
 10
286.3698425623056
 20
288.412339590696
 30
0.0
  0
ENDBLK
  5
3AD7
330
3ACC
100
AcDbEntity
  8
0
100
AcDbBlockEnd
  0
BLOCK
  5
3AE3
330
3AD9
100
AcDbEntity
  8
0
100
AcDbBlockBegin
  2
*D14
 70
     1
 10
0.0
 20
0.0
 30
0.0
  3
*D14
  1

  0
LINE
  5
3DA4
330
3AD9
100
AcDbEntity
  8
SUNPOU
100
AcDbLine
 10
385.3698425623056
 20
229.2838728251058
 30
0.0
 11
385.3698425623056
 21
305.9745834247708
 31
0.0
  0
LINE
  5
3DA5
330
3AD9
100
AcDbEntity
  8
SUNPOU
100
AcDbLine
 10
218.7408508304397
 20
234.2872788355058
 30
0.0
 11
218.7408508304397
 21
305.9745834247708
 31
0.0
  0
LINE
  5
3DA6
330
3AD9
100
AcDbEntity
  8
SUNPOU
100
AcDbLine
 10
378.3698425623056
 20
302.9745834247707
 30
0.0
 11
225.7408508304397
 21
302.9745834247707
 31
0.0
  0
INSERT
  5
3DA7
330
3AD9
100
AcDbEntity
  8
SUNPOU
100
AcDbBlockReference
  2
_OPEN
 10
385.3698425623056
 20
302.9745834247707
 30
0.0
 41
7.0
 42
7.0
 43
7.0
  0
INSERT
  5
3DA8
330
3AD9
100
AcDbEntity
  8
SUNPOU
100
AcDbBlockReference
  2
_OPEN
 10
218.7408508304397
 20
302.9745834247707
 30
0.0
 41
7.0
 42
7.0
 43
7.0
 50
180.0
  0
MTEXT
  5
3DA9
330
3AD9
100
AcDbEntity
  8
SUNPOU
100
AcDbMText
 10
302.0553466963726
 20
307.9745834247708
 30
0.0
 40
6.0
 41
0.0
 71
     5
 72
     1
  1
\A1;167
  0
POINT
  5
3DAA
330
3AD9
100
AcDbEntity
  8
DEFPOINTS
 62
     0
100
AcDbPoint
 10
385.3698425623056
 20
223.2838728251058
 30
0.0
  0
POINT
  5
3DAB
330
3AD9
100
AcDbEntity
  8
DEFPOINTS
 62
     0
100
AcDbPoint
 10
218.7408508304397
 20
228.2872788355058
 30
0.0
  0
POINT
  5
3DAC
330
3AD9
100
AcDbEntity
  8
DEFPOINTS
 62
     0
100
AcDbPoint
 10
218.7408508304397
 20
302.9745834247707
 30
0.0
  0
ENDBLK
  5
3AE4
330
3AD9
100
AcDbEntity
  8
0
100
AcDbBlockEnd
  0
BLOCK
  5
3AF0
330
3AE6
100
AcDbEntity
  8
0
100
AcDbBlockBegin
  2
*D15
 70
     1
 10
0.0
 20
0.0
 30
0.0
  3
*D15
  1

  0
LINE
  5
3DAD
330
3AE6
100
AcDbEntity
  8
SUNPOU
100
AcDbLine
 10
217.5493781494056
 20
234.7838728251058
 30
0.0
 11
180.0399181989355
 21
234.7838728251058
 31
0.0
  0
LINE
  5
3DAE
330
3AE6
100
AcDbEntity
  8
SUNPOU
100
AcDbLine
 10
376.1198425623056
 20
149.2838728251058
 30
0.0
 11
180.0399181989355
 21
149.2838728251059
 31
0.0
  0
LINE
  5
3DAF
330
3AE6
100
AcDbEntity
  8
SUNPOU
100
AcDbLine
 10
183.0399181989355
 20
227.7838728251058
 30
0.0
 11
183.0399181989355
 21
156.2838728251058
 31
0.0
  0
INSERT
  5
3DB0
330
3AE6
100
AcDbEntity
  8
SUNPOU
100
AcDbBlockReference
  2
_OPEN
 10
183.0399181989355
 20
234.7838728251058
 30
0.0
 41
7.0
 42
7.0
 43
7.0
 50
90.0
  0
INSERT
  5
3DB1
330
3AE6
100
AcDbEntity
  8
SUNPOU
100
AcDbBlockReference
  2
_OPEN
 10
183.0399181989355
 20
149.2838728251059
 30
0.0
 41
7.0
 42
7.0
 43
7.0
 50
270.0
  0
MTEXT
  5
3DB2
330
3AE6
100
AcDbEntity
  8
SUNPOU
100
AcDbMText
 10
178.0399181989355
 20
192.0338728251059
 30
0.0
 40
6.0
 41
0.0
 71
     5
 72
     1
  1
\A1;86
 11
0.0000000000000001
 21
1.0
 31
0.0
  0
POINT
  5
3DB3
330
3AE6
100
AcDbEntity
  8
DEFPOINTS
 62
     0
100
AcDbPoint
 10
223.5493781494056
 20
234.7838728251058
 30
0.0
  0
POINT
  5
3DB4
330
3AE6
100
AcDbEntity
  8
DEFPOINTS
 62
     0
100
AcDbPoint
 10
382.1198425623056
 20
149.2838728251058
 30
0.0
  0
POINT
  5
3DB5
330
3AE6
100
AcDbEntity
  8
DEFPOINTS
 62
     0
100
AcDbPoint
 10
183.0399181989355
 20
149.2838728251059
 30
0.0
  0
ENDBLK
  5
3AF1
330
3AE6
100
AcDbEntity
  8
0
100
AcDbBlockEnd
  0
BLOCK
  5
3B11
330
3B05
100
AcDbEntity
  8
0
100
AcDbBlockBegin
  2
*D16
 70
     1
 10
0.0
 20
0.0
 30
0.0
  3
*D16
  1

  0
LINE
  5
3DB6
330
3B05
100
AcDbEntity
  8
SUNPOU
100
AcDbLine
 10
376.8698425623056
 20
145.2857019690059
 30
0.0
 11
376.8698425623056
 21
120.2858400257705
 31
0.0
  0
LINE
  5
3DB7
330
3B05
100
AcDbEntity
  8
SUNPOU
100
AcDbLine
 10
385.3698425623056
 20
143.2838728251058
 30
0.0
 11
385.3698425623056
 21
120.2858400257705
 31
0.0
  0
LINE
  5
3DB8
330
3B05
100
AcDbEntity
  8
SUNPOU
100
AcDbLine
 10
369.8698425623056
 20
123.2858400257705
 30
0.0
 11
362.8698425623056
 21
123.2858400257705
 31
0.0
  0
LINE
  5
3DB9
330
3B05
100
AcDbEntity
  8
SUNPOU
100
AcDbLine
 10
392.3698425623056
 20
123.2858400257705
 30
0.0
 11
399.3698425623056
 21
123.2858400257705
 31
0.0
  0
LINE
  5
3DBA
330
3B05
100
AcDbEntity
  8
SUNPOU
100
AcDbLine
 10
376.8698425623056
 20
123.2858400257705
 30
0.0
 11
385.3698425623056
 21
123.2858400257705
 31
0.0
  0
INSERT
  5
3DBB
330
3B05
100
AcDbEntity
  8
SUNPOU
100
AcDbBlockReference
  2
_OPEN
 10
376.8698425623056
 20
123.2858400257705
 30
0.0
 41
7.0
 42
7.0
 43
7.0
  0
INSERT
  5
3DBC
330
3B05
100
AcDbEntity
  8
SUNPOU
100
AcDbBlockReference
  2
_OPEN
 10
385.3698425623056
 20
123.2858400257705
 30
0.0
 41
7.0
 42
7.0
 43
7.0
 50
180.0
  0
MTEXT
  5
3DBD
330
3B05
100
AcDbEntity
  8
SUNPOU
100
AcDbMText
 10
381.1198425623056
 20
128.2858400257705
 30
0.0
 40
6.0
 41
0.0
 71
     5
 72
     1
  1
\A1;9
  0
POINT
  5
3DBE
330
3B05
100
AcDbEntity
  8
DEFPOINTS
 62
     0
100
AcDbPoint
 10
376.8698425623056
 20
151.2857019690059
 30
0.0
  0
POINT
  5
3DBF
330
3B05
100
AcDbEntity
  8
DEFPOINTS
 62
     0
100
AcDbPoint
 10
385.3698425623056
 20
149.2838728251058
 30
0.0
  0
POINT
  5
3DC0
330
3B05
100
AcDbEntity
  8
DEFPOINTS
 62
     0
100
AcDbPoint
 10
385.3698425623056
 20
123.2858400257705
 30
0.0
  0
ENDBLK
  5
3B12
330
3B05
100
AcDbEntity
  8
0
100
AcDbBlockEnd
  0
BLOCK
  5
3B1E
330
3B14
100
AcDbEntity
  8
0
100
AcDbBlockBegin
  2
*D17
 70
     1
 10
0.0
 20
0.0
 30
0.0
  3
*D17
  1

  0
LINE
  5
3DC1
330
3B14
100
AcDbEntity
  8
SUNPOU
100
AcDbLine
 10
391.3698425623056
 20
223.2838728251058
 30
0.0
 11
435.9649692408997
 21
223.2838728251058
 31
0.0
  0
LINE
  5
3DC2
330
3B14
100
AcDbEntity
  8
SUNPOU
100
AcDbLine
 10
391.3698425623056
 20
149.5624053847558
 30
0.0
 11
435.9649692408997
 21
149.5624053847558
 31
0.0
  0
LINE
  5
3DC3
330
3B14
100
AcDbEntity
  8
SUNPOU
100
AcDbLine
 10
432.9649692408998
 20
216.2838728251058
 30
0.0
 11
432.9649692408998
 21
156.5624053847558
 31
0.0
  0
INSERT
  5
3DC4
330
3B14
100
AcDbEntity
  8
SUNPOU
100
AcDbBlockReference
  2
_OPEN
 10
432.9649692408998
 20
223.2838728251058
 30
0.0
 41
7.0
 42
7.0
 43
7.0
 50
90.0
  0
INSERT
  5
3DC5
330
3B14
100
AcDbEntity
  8
SUNPOU
100
AcDbBlockReference
  2
_OPEN
 10
432.9649692408998
 20
149.5624053847558
 30
0.0
 41
7.0
 42
7.0
 43
7.0
 50
270.0
  0
MTEXT
  5
3DC6
330
3B14
100
AcDbEntity
  8
SUNPOU
100
AcDbMText
 10
427.9649692408997
 20
186.4231391049309
 30
0.0
 40
6.0
 41
0.0
 71
     5
 72
     1
  1
\A1;74
 11
0.0000000000000001
 21
1.0
 31
0.0
  0
POINT
  5
3DC7
330
3B14
100
AcDbEntity
  8
DEFPOINTS
 62
     0
100
AcDbPoint
 10
385.3698425623056
 20
223.2838728251058
 30
0.0
  0
POINT
  5
3DC8
330
3B14
100
AcDbEntity
  8
DEFPOINTS
 62
     0
100
AcDbPoint
 10
385.3698425623056
 20
149.5624053847558
 30
0.0
  0
POINT
  5
3DC9
330
3B14
100
AcDbEntity
  8
DEFPOINTS
 62
     0
100
AcDbPoint
 10
432.9649692408998
 20
149.5624053847558
 30
0.0
  0
ENDBLK
  5
3B1F
330
3B14
100
AcDbEntity
  8
0
100
AcDbBlockEnd
  0
ENDSEC
  0
SECTION
  2
ENTITIES
  0
LWPOLYLINE
  5
AAD
330
1A
100
AcDbEntity
  8
ZUWAKU
100
AcDbPolyline
 90
        4
 70
     1
 43
0.0
 10
0.7999999839298653
 20
550.8000004406949
 10
0.7999999839298653
 20
0.8000004406949301
 10
796.7999999839299
 20
0.8000004406949301
 10
796.7999999839299
 20
550.8000004406949
  0
LWPOLYLINE
  5
AAE
330
1A
100
AcDbEntity
  8
ZUWAKU
100
AcDbPolyline
 90
        4
 70
     1
 43
0.0
 10
0.399999983929888
 20
551.2000004406949
 10
0.399999983929888
 20
0.4000004406949529
 10
797.1999999839299
 20
0.4000004406949298
 10
797.1999999839299
 20
551.2000004406949
  0
LWPOLYLINE
  5
AAF
330
1A
100
AcDbEntity
  8
ZUWAKU
100
AcDbPolyline
 90
        4
 70
     1
 43
0.0
 10
-0.0000000160700893
 20
551.6000004406948
 10
-0.0000000160700893
 20
0.0000004406948619
 10
797.59999998393
 20
0.0000004406949294
 10
797.59999998393
 20
551.600000440695
  0
LWPOLYLINE
  5
AB0
330
1A
100
AcDbEntity
  8
ZUWAKU
100
AcDbPolyline
 90
        4
 70
     1
 43
0.0
 10
0.5999999839298198
 20
551.000000440695
 10
0.5999999839298198
 20
0.6000004406948847
 10
796.9999999839301
 20
0.6000004406949309
 10
796.9999999839298
 20
551.000000440695
  0
LWPOLYLINE
  5
AB1
330
1A
100
AcDbEntity
  8
ZUWAKU
100
AcDbPolyline
 90
        4
 70
     1
 43
0.0
 10
0.1999999839298425
 20
551.4000004406949
 10
0.1999999839298425
 20
0.2000004406949074
 10
797.3999999839297
 20
0.2000004406949305
 10
797.39999998393
 20
551.4000004406949
  0
LINE
  5
AB2
330
1A
100
AcDbEntity
  8
ZUWAKU
100
AcDbLine
 10
-0.0000000160700893
 20
30.00000044069486
 30
0.0
 11
797.3999999839297
 21
30.00000044069486
 31
0.0
  0
LINE
  5
AB3
330
1A
100
AcDbEntity
  8
ZUWAKU
100
AcDbLine
 10
-0.0000000160700893
 20
30.20000044069486
 30
0.0
 11
797.3999999839297
 21
30.20000044069486
 31
0.0
  0
LINE
  5
AB4
330
1A
100
AcDbEntity
  8
ZUWAKU
100
AcDbLine
 10
-0.0000000160700893
 20
30.40000044069486
 30
0.0
 11
797.3999999839297
 21
30.40000044069486
 31
0.0
  0
LINE
  5
AB5
330
1A
100
AcDbEntity
  8
ZUWAKU
100
AcDbLine
 10
-0.0000000160700893
 20
30.60000044069487
 30
0.0
 11
797.3999999839297
 21
30.60000044069487
 31
0.0
  0
LINE
  5
AB6
330
1A
100
AcDbEntity
  8
ZUWAKU
100
AcDbLine
 10
-0.0000000160700893
 20
30.80000044069487
 30
0.0
 11
797.3999999839297
 21
30.80000044069487
 31
0.0
  0
LINE
  5
AB7
330
1A
100
AcDbEntity
  8
ZUWAKU
100
AcDbLine
 10
208.6466012739979
 20
15.40000044069489
 30
0.0
 11
447.4243639549213
 21
15.40000044069489
 31
0.0
  0
LINE
  5
AB8
330
1A
100
AcDbEntity
  8
ZUWAKU
100
AcDbLine
 10
208.6466012739979
 20
15.60000044069489
 30
0.0
 11
447.4243639549213
 21
15.6000004406949
 31
0.0
  0
LINE
  5
AB9
330
1A
100
AcDbEntity
  8
ZUWAKU
100
AcDbLine
 10
208.6466012739979
 20
15.2000004406949
 30
0.0
 11
447.4243639549213
 21
15.20000044069489
 31
0.0
  0
CIRCLE
  5
ABB
330
1A
100
AcDbEntity
  8
ZUWAKU
100
AcDbCircle
 10
25.99221213871101
 20
15.20000044069486
 30
0.0
 40
1.75
  0
LINE
  5
ABC
330
1A
100
AcDbEntity
  8
ZUWAKU
100
AcDbLine
 10
26.86721213871101
 20
7.150000440694867
 30
0.0
 11
24.94221213871105
 21
7.150000440694867
 31
0.0
  0
LINE
  5
ABD
330
1A
100
AcDbEntity
  8
ZUWAKU
100
AcDbLine
 10
24.94221213871105
 20
9.950000440694864
 30
0.0
 11
26.86721213871101
 21
9.950000440694864
 31
0.0
  0
LINE
  5
ABE
330
1A
100
AcDbEntity
  8
ZUWAKU
100
AcDbLine
 10
26.86721213871101
 20
20.45000044069486
 30
0.0
 11
24.94221213871105
 21
20.45000044069486
 31
0.0
  0
LINE
  5
ABF
330
1A
100
AcDbEntity
  8
ZUWAKU
100
AcDbLine
 10
24.94221213871105
 20
23.25000044069482
 30
0.0
 11
26.86721213871101
 21
23.25000044069486
 31
0.0
  0
INSERT
  5
AC0
330
1A
100
AcDbEntity
  8
ZUWAKU
  6
CONTINUOUS
100
AcDbBlockReference
  2
*X1
 10
0.0
 20
0.0
 30
0.0
1001
ACAD
1000
HATCH
1002
{
1070
    19
1000
ANSI37
1040
0.2
1040
0.0
1000
R14_HATCH_DATA
1000
AC0
1011
1.0
1021
0.0
1031
0.0
1011
0.0
1021
1.0
1031
0.0
1011
0.0
1021
0.0
1031
1.0
1040
0.0
1010
0.0
1020
0.0
1030
1.0
1000
ANSI37
1070
     0
1070
     0
1071
        8
1071
        7
1070
     1
1070
     1
1071
       24
1040
14.50226264504976
1040
17.64484892167844
1040
-0.1989123673796348
1040
14.09221213871103
1040
18.63479841533949
1040
0.0
1040
14.09221213871103
1040
19.92500044069487
1040
-0.4142135623730912
1040
14.61721213871101
1040
20.45000044069486
1040
0.0
1040
17.59221213871092
1040
20.45000044069486
1040
0.4142135623731546
1040
18.11721213871101
1040
20.97500044069485
1040
0.0
1040
18.11721213871101
1040
22.72500044069487
1040
0.4142135623731586
1040
17.59221213871092
1040
23.25000044069486
1040
0.0
1040
14.09221213871103
1040
23.25000044069486
1040
0.4142135623730928
1040
11.29221213871107
1040
20.45000044069489
1040
0.0
1040
11.29221213871107
1040
18.63479841533962
1040
0.1989123673796619
1040
12.52236365772751
1040
15.66494993435601
1040
0.0
1040
15.43216163237218
1040
12.75515195971135
1040
-0.1989123673796613
1040
15.84221213871103
1040
11.76520246605017
1040
0.0
1040
15.84221213871103
1040
10.47500044069485
1040
-0.4142135623730911
1040
15.31721213871105
1040
9.950000440694864
1040
0.0
1040
12.34221213871114
1040
9.950000440694864
1040
0.4142135623731526
1040
11.81721213871105
1040
9.425000440694876
1040
0.0
1040
11.81721213871105
1040
7.675000440694855
1040
0.4142135623731526
1040
12.34221213871114
1040
7.150000440694867
1040
0.0
1040
15.84221213871103
1040
7.150000440694867
1040
0.4142135623731044
1040
18.6422121387111
1040
9.950000440694843
1040
0.0
1040
18.6422121387111
1040
11.76520246605011
1040
0.1989123673796604
1040
17.41206061969455
1040
14.73505094703365
1040
0.0
1071
        0
1071
        7
1070
     1
1070
     1
1071
       16
1040
23.54221213871107
1040
19.05000044069487
1040
-0.4142135623730935
1040
24.94221213871105
1040
20.45000044069486
1040
0.0
1040
26.86721213871101
1040
20.45000044069486
1040
0.4142135623731546
1040
27.3922121387111
1040
20.97500044069485
1040
0.0
1040
27.3922121387111
1040
22.72500044069487
1040
0.4142135623730951
1040
26.86721213871112
1040
23.25000044069486
1040
0.0
1040
24.94221213871094
1040
23.25000044069482
1040
0.4142135623730892
1040
20.74221213871101
1040
19.0500004406948
1040
0.0
1040
20.74221213871101
1040
11.35000044069489
1040
0.4142135623730969
1040
24.94221213871105
1040
7.150000440694867
1040
0.0
1040
26.86721213871101
1040
7.150000440694867
1040
0.4142135623731526
1040
27.3922121387111
1040
7.675000440694855
1040
0.0
1040
27.3922121387111
1040
9.425000440694876
1040
0.4142135623730891
1040
26.86721213871112
1040
9.950000440694864
1040
0.0
1040
24.94221213871105
1040
9.950000440694864
1040
-0.4142135623730928
1040
23.54221213871107
1040
11.35000044069485
1040
0.0
1071
        0
1071
        7
1070
     1
1070
     1
1071
        2
1040
24.24221213871101
1040
15.20000044069486
1040
1.0
1040
27.74221213871101
1040
15.20000044069486
1040
1.0
1071
        0
1071
        7
1070
     1
1070
     1
1071
       26
1040
37.31485862088902
1040
19.20504763425829
1040
0.0
1040
38.37649825402684
1040
22.56690647252788
1040
0.5069206636600134
1040
37.87586735483148
1040
23.25000044069486
1040
0.0
1040
36.17697797522225
1040
23.25000044069486
1040
0.3272098845218764
1040
35.6763470760269
1040
22.88309440886183
1040
0.0
1040
33.80807720139512
1040
16.96690647252794
1040
-0.3272098845219541
1040
33.30744630219965
1040
16.60000044069486
1040
0.0
1040
33.16721213871119
1040
16.60000044069486
1040
-0.4142135623731526
1040
32.6422121387111
1040
17.12500044069485
1040
0.0
1040
32.6422121387111
1040
22.72500044069487
1040
0.4142135623730951
1040
32.11721213871112
1040
23.25000044069486
1040
0.0
1040
30.36721213871101
1040
23.25000044069486
1040
0.4142135623730871
1040
29.84221213871103
1040
22.72500044069488
1040
0.0
1040
29.84221213871103
1040
7.675000440694855
1040
0.4142135623730891
1040
30.36721213871101
1040
7.150000440694867
1040
0.0
1040
32.11721213871101
1040
7.150000440694867
1040
0.4142135623731526
1040
32.6422121387111
1040
7.675000440694855
1040
0.0
1040
32.6422121387111
1040
13.27500044069487
1040
-0.4142135623731526
1040
33.16721213871119
1040
13.80000044069486
1040
0.0
1040
33.30744630219976
1040
13.80000044069486
1040
-0.3272098845218915
1040
33.80807720139512
1040
13.43309440886179
1040
0.0
1040
35.6763470760269
1040
7.516906472527939
1040
0.3272098845218902
1040
36.17697797522225
1040
7.150000440694867
1040
0.0
1040
37.87586735483148
1040
7.150000440694867
1040
0.5069206636600335
1040
38.37649825402684
1040
7.833094408861875
1040
0.0
1040
36.05010687555318
1040
15.200000440695
1040
0.0
1071
        0
1071
        7
1070
     1
1070
     1
1071
        8
1040
43.49221213871101
1040
22.72500044069488
1040
0.4142135623731546
1040
42.96721213871092
1040
23.25000044069486
1040
0.0
1040
41.21721213871114
1040
23.25000044069486
1040
0.4142135623731507
1040
40.69221213871105
1040
22.72500044069488
1040
0.0
1040
40.69221213871105
1040
7.675000440694855
1040
0.4142135623731526
1040
41.21721213871114
1040
7.150000440694867
1040
0.0
1040
42.96721213871092
1040
7.150000440694867
1040
0.4142135623731526
1040
43.49221213871101
1040
7.675000440694855
1040
0.0
1071
        0
1071
        7
1070
     1
1070
     1
1071
       24
1040
48.3922121387111
1040
19.92500044069487
1040
-0.4142135623731546
1040
48.91721213871119
1040
20.45000044069486
1040
0.0
1040
51.8922121387111
1040
20.45000044069486
1040
0.4142135623730911
1040
52.41721213871108
1040
20.97500044069485
1040
0.0
1040
52.41721213871108
1040
22.72500044069487
1040
0.4142135623730952
1040
51.8922121387111
1040
23.25000044069486
1040
0.0
1040
48.3922121387111
1040
23.25000044069486
1040
0.4142135623731048
1040
45.59221213871103
1040
20.45000044069489
1040
0.0
1040
45.59221213871103
1040
18.63479841533962
1040
0.1989123673796613
1040
46.82236365772758
1040
15.66494993435607
1040
0.0
1040
49.73216163237225
1040
12.7551519597114
1040
-0.1989123673796402
1040
50.1422121387111
1040
11.76520246605033
1040
0.0
1040
50.1422121387111
1040
10.47500044069485
1040
-0.4142135623730911
1040
49.61721213871112
1040
9.950000440694864
1040
0.0
1040
46.6422121387111
1040
9.950000440694864
1040
0.4142135623731526
1040
46.11721213871101
1040
9.425000440694876
1040
0.0
1040
46.11721213871101
1040
7.675000440694855
1040
0.4142135623730891
1040
46.64221213871099
1040
7.150000440694867
1040
0.0
1040
50.1422121387111
1040
7.150000440694867
1040
0.4142135623730925
1040
52.94221213871106
1040
9.950000440694843
1040
0.0
1040
52.94221213871106
1040
11.76520246605011
1040
0.1989123673796675
1040
51.71206061969451
1040
14.73505094703376
1040
0.0
1040
48.80226264504995
1040
17.64484892167828
1040
-0.1989123673796652
1040
48.3922121387111
1040
18.63479841533945
1040
0.0
1071
        0
1071
        7
1070
     1
1070
     1
1071
       16
1040
57.84221213871103
1040
22.72500044069485
1040
0.414213562373103
1040
57.31721213871106
1040
23.25000044069486
1040
0.0
1040
55.56721213871106
1040
23.25000044069486
1040
0.4142135623730871
1040
55.04221213871108
1040
22.72500044069488
1040
0.0
1040
55.04221213871108
1040
9.950000440694843
1040
0.4142135623730926
1040
57.84221213871103
1040
7.150000440694867
1040
0.0
1040
61.34221213871104
1040
7.150000440694867
1040
0.4142135623731044
1040
64.1422121387111
1040
9.950000440694843
1040
0.0
1040
64.1422121387111
1040
22.72500044069487
1040
0.4142135623730951
1040
63.61721213871113
1040
23.25000044069486
1040
0.0
1040
61.86721213871101
1040
23.25000044069486
1040
0.4142135623730871
1040
61.34221213871104
1040
22.72500044069488
1040
0.0
1040
61.34221213871104
1040
11.00000044069484
1040
-0.414213562373088
1040
60.29221213871108
1040
9.950000440694864
1040
0.0
1040
58.8922121387111
1040
9.950000440694864
1040
-0.4142135623731197
1040
57.84221213871103
1040
11.00000044069484
1040
0.0
1071
        0
1071
        7
1070
     1
1070
     1
1071
        8
1040
69.04221213871108
1040
22.72500044069488
1040
0.4142135623730871
1040
68.5172121387111
1040
23.25000044069486
1040
0.0
1040
66.7672121387111
1040
23.25000044069486
1040
0.4142135623731507
1040
66.24221213871101
1040
22.72500044069488
1040
0.0
1040
66.24221213871101
1040
7.675000440694855
1040
0.4142135623730891
1040
66.76721213871099
1040
7.150000440694867
1040
0.0
1040
68.5172121387111
1040
7.150000440694867
1040
0.4142135623730891
1040
69.04221213871108
1040
7.675000440694855
1040
0.0
1071
        0
1070
     0
1070
     1
1040
0.0
1040
0.2
1070
     0
1070
     2
1040
0.7853981633974483
1040
-900.942304350749
1040
-13.19999955930507
1040
-0.4490128060534576
1040
0.4490128060534577
1070
     0
1040
2.356194490192344
1040
-900.942304350749
1040
-13.19999955930507
1040
-0.4490128060534577
1040
-0.4490128060534576
1070
     0
1040
0.057451373970553
1071
        8
1040
16.07985494695322
1040
15.16717408658041
1040
0.0
1040
22.40451499036907
1040
18.84406262314587
1040
0.0
1040
25.16436786958957
1040
15.51188208676558
1040
0.0
1040
30.91405996556705
1040
16.20129808713636
1040
0.0
1040
41.83847200288664
1040
16.66091035467798
1040
0.0
1040
46.89820087905945
1040
19.41857675710207
1040
0.0
1040
56.55768595633026
1040
18.72915835578987
1040
0.0
1040
67.82707960355264
1040
19.18877062333149
1040
0.0
1002
}
  0
ARC
  5
AC1
330
1A
100
AcDbEntity
  8
ZUWAKU
100
AcDbCircle
 10
15.49221213871101
 20
18.63479841533956
 30
0.0
 40
4.199999999999999
100
AcDbArc
 50
180.0
 51
225.0
  0
LINE
  5
AC2
330
1A
100
AcDbEntity
  8
ZUWAKU
100
AcDbLine
 10
20.74221213871101
 20
11.35000044069487
 30
0.0
 11
20.74221213871101
 21
19.05000044069482
 31
0.0
  0
LINE
  5
AC3
330
1A
100
AcDbEntity
  8
ZUWAKU
100
AcDbLine
 10
23.54221213871107
 20
19.05000044069486
 30
0.0
 11
23.54221213871107
 21
11.35000044069487
 31
0.0
  0
ARC
  5
AC4
330
1A
100
AcDbEntity
  8
ZUWAKU
100
AcDbCircle
 10
15.49221213871101
 20
18.63479841533956
 30
0.0
 40
1.399999999999999
100
AcDbArc
 50
180.0000000000016
 51
224.9999999999988
  0
ARC
  5
AC5
330
1A
100
AcDbEntity
  8
ZUWAKU
100
AcDbCircle
 10
24.94221213871105
 20
11.35000044069487
 30
0.0
 40
4.199999999999999
100
AcDbArc
 50
180.0
 51
270.0
  0
ARC
  5
AC6
330
1A
100
AcDbEntity
  8
ZUWAKU
100
AcDbCircle
 10
15.84221213871103
 20
9.950000440694864
 30
0.0
 40
2.799999999999999
100
AcDbArc
 50
270.0
 51
0.0
  0
ARC
  5
AC7
330
1A
100
AcDbEntity
  8
ZUWAKU
100
AcDbCircle
 10
14.44221213871105
 20
11.76520246605017
 30
0.0
 40
4.199999999999999
100
AcDbArc
 50
0.0
 51
45.0
  0
LINE
  5
AC8
330
1A
100
AcDbEntity
  8
ZUWAKU
100
AcDbLine
 10
12.52236365772751
 20
15.66494993435604
 30
0.0
 11
15.43216163237218
 21
12.75515195971138
 31
0.0
  0
LINE
  5
AC9
330
1A
100
AcDbEntity
  8
ZUWAKU
100
AcDbLine
 10
12.34221213871103
 20
9.950000440694864
 30
0.0
 11
15.31721213871105
 21
9.950000440694864
 31
0.0
  0
LINE
  5
ACA
330
1A
100
AcDbEntity
  8
ZUWAKU
100
AcDbLine
 10
12.34221213871103
 20
7.150000440694867
 30
0.0
 11
15.84221213871103
 21
7.150000440694867
 31
0.0
  0
ARC
  5
ACB
330
1A
100
AcDbEntity
  8
ZUWAKU
100
AcDbCircle
 10
12.34221213871103
 20
9.425000440694866
 30
0.0
 40
0.525
100
AcDbArc
 50
90.0
 51
180.0
  0
ARC
  5
ACC
330
1A
100
AcDbEntity
  8
ZUWAKU
100
AcDbCircle
 10
12.34221213871103
 20
7.675000440694866
 30
0.0
 40
0.525
100
AcDbArc
 50
180.0
 51
270.0
  0
LINE
  5
ACD
330
1A
100
AcDbEntity
  8
ZUWAKU
100
AcDbLine
 10
11.81721213871105
 20
7.675000440694866
 30
0.0
 11
11.81721213871105
 21
9.425000440694866
 31
0.0
  0
ARC
  5
ACE
330
1A
100
AcDbEntity
  8
ZUWAKU
100
AcDbCircle
 10
14.44221213871105
 20
11.76520246605021
 30
0.0
 40
1.399999999999999
100
AcDbArc
 50
0.0
 51
45.0
  0
ARC
  5
ACF
330
1A
100
AcDbEntity
  8
ZUWAKU
100
AcDbCircle
 10
15.31721213871105
 20
10.47500044069487
 30
0.0
 40
0.525
100
AcDbArc
 50
270.0
 51
0.0
  0
LINE
  5
AD0
330
1A
100
AcDbEntity
  8
ZUWAKU
100
AcDbLine
 10
15.84221213871103
 20
10.47500044069487
 30
0.0
 11
15.84221213871103
 21
11.76520246605021
 31
0.0
  0
LINE
  5
AD1
330
1A
100
AcDbEntity
  8
ZUWAKU
100
AcDbLine
 10
17.41206061969455
 20
14.73505094703369
 30
0.0
 11
14.50226264504988
 21
17.64484892167836
 31
0.0
  0
ARC
  5
AD2
330
1A
100
AcDbEntity
  8
ZUWAKU
100
AcDbCircle
 10
24.94221213871105
 20
11.35000044069487
 30
0.0
 40
1.399999999999999
100
AcDbArc
 50
180.0
 51
270.0
  0
LINE
  5
AD3
330
1A
100
AcDbEntity
  8
ZUWAKU
100
AcDbLine
 10
18.6422121387111
 20
9.950000440694864
 30
0.0
 11
18.6422121387111
 21
11.76520246605021
 31
0.0
  0
ARC
  5
AD4
330
1A
100
AcDbEntity
  8
ZUWAKU
100
AcDbCircle
 10
17.59221213871103
 20
20.97500044069486
 30
0.0
 40
0.525
100
AcDbArc
 50
270.0
 51
0.0
  0
ARC
  5
AD5
330
1A
100
AcDbEntity
  8
ZUWAKU
100
AcDbCircle
 10
17.59221213871103
 20
22.72500044069486
 30
0.0
 40
0.525
100
AcDbArc
 50
0.0
 51
90.0
  0
ARC
  5
AD6
330
1A
100
AcDbEntity
  8
ZUWAKU
100
AcDbCircle
 10
14.09221213871103
 20
20.45000044069486
 30
0.0
 40
2.799999999999999
100
AcDbArc
 50
90.0
 51
180.0
  0
LINE
  5
AD7
330
1A
100
AcDbEntity
  8
ZUWAKU
100
AcDbLine
 10
11.29221213871107
 20
20.45000044069486
 30
0.0
 11
11.29221213871107
 21
18.63479841533952
 31
0.0
  0
LINE
  5
AD8
330
1A
100
AcDbEntity
  8
ZUWAKU
100
AcDbLine
 10
17.59221213871103
 20
20.45000044069486
 30
0.0
 11
14.61721213871101
 21
20.45000044069486
 31
0.0
  0
LINE
  5
AD9
330
1A
100
AcDbEntity
  8
ZUWAKU
100
AcDbLine
 10
14.09221213871103
 20
19.92500044069486
 30
0.0
 11
14.09221213871103
 21
18.63479841533952
 31
0.0
  0
ARC
  5
ADA
330
1A
100
AcDbEntity
  8
ZUWAKU
100
AcDbCircle
 10
14.61721213871101
 20
19.92500044069486
 30
0.0
 40
0.525
100
AcDbArc
 50
90.0
 51
180.0
  0
LINE
  5
ADB
330
1A
100
AcDbEntity
  8
ZUWAKU
100
AcDbLine
 10
14.09221213871103
 20
23.25000044069486
 30
0.0
 11
17.59221213871103
 21
23.25000044069486
 31
0.0
  0
ARC
  5
ADC
330
1A
100
AcDbEntity
  8
ZUWAKU
100
AcDbCircle
 10
24.94221213871105
 20
19.05000044069482
 30
0.0
 40
4.199999999999999
100
AcDbArc
 50
90.0
 51
180.0
  0
ARC
  5
ADD
330
1A
100
AcDbEntity
  8
ZUWAKU
100
AcDbCircle
 10
24.94221213871105
 20
19.05000044069486
 30
0.0
 40
1.399999999999999
100
AcDbArc
 50
90.0
 51
180.0
  0
LINE
  5
ADE
330
1A
100
AcDbEntity
  8
ZUWAKU
100
AcDbLine
 10
18.11721213871101
 20
22.72500044069486
 30
0.0
 11
18.11721213871101
 21
20.97500044069486
 31
0.0
  0
LINE
  5
ADF
330
1A
100
AcDbEntity
  8
ZUWAKU
100
AcDbLine
 10
35.6763470760269
 20
22.88309440886183
 30
0.0
 11
33.80807720139512
 21
16.96690647252789
 31
0.0
  0
LINE
  5
AE0
330
1A
100
AcDbEntity
  8
ZUWAKU
100
AcDbLine
 10
29.84221213871103
 20
22.72500044069486
 30
0.0
 11
29.84221213871103
 21
7.675000440694866
 31
0.0
  0
LINE
  5
AE1
330
1A
100
AcDbEntity
  8
ZUWAKU
100
AcDbLine
 10
32.6422121387111
 20
17.12500044069487
 30
0.0
 11
32.6422121387111
 21
22.72500044069486
 31
0.0
  0
LINE
  5
AE2
330
1A
100
AcDbEntity
  8
ZUWAKU
100
AcDbLine
 10
57.84221213871103
 20
11.00000044069486
 30
0.0
 11
57.84221213871103
 21
22.72500044069486
 31
0.0
  0
LINE
  5
AE3
330
1A
100
AcDbEntity
  8
ZUWAKU
100
AcDbLine
 10
55.04221213871108
 20
22.72500044069486
 30
0.0
 11
55.04221213871108
 21
9.950000440694864
 31
0.0
  0
LINE
  5
AE4
330
1A
100
AcDbEntity
  8
ZUWAKU
100
AcDbLine
 10
43.49221213871101
 20
7.675000440694866
 30
0.0
 11
43.49221213871101
 21
22.72500044069486
 31
0.0
  0
LINE
  5
AE5
330
1A
100
AcDbEntity
  8
ZUWAKU
100
AcDbLine
 10
40.69221213871105
 20
22.72500044069486
 30
0.0
 11
40.69221213871105
 21
7.675000440694866
 31
0.0
  0
LINE
  5
AE6
330
1A
100
AcDbEntity
  8
ZUWAKU
100
AcDbLine
 10
37.31485862088902
 20
19.20504763425829
 30
0.0
 11
36.05010687555318
 21
15.20000044069488
 31
0.0
  0
ARC
  5
AE7
330
1A
100
AcDbEntity
  8
ZUWAKU
100
AcDbCircle
 10
49.79221213871108
 20
18.63479841533956
 30
0.0
 40
4.199999999999999
100
AcDbArc
 50
180.0
 51
225.0
  0
ARC
  5
AE8
330
1A
100
AcDbEntity
  8
ZUWAKU
100
AcDbCircle
 10
49.79221213871108
 20
18.63479841533956
 30
0.0
 40
1.399999999999999
100
AcDbArc
 50
180.0000000000016
 51
224.9999999999988
  0
LINE
  5
AE9
330
1A
100
AcDbEntity
  8
ZUWAKU
100
AcDbLine
 10
66.24221213871101
 20
22.72500044069486
 30
0.0
 11
66.24221213871101
 21
7.675000440694866
 31
0.0
  0
LINE
  5
AEA
330
1A
100
AcDbEntity
  8
ZUWAKU
100
AcDbLine
 10
69.04221213871108
 20
7.675000440694866
 30
0.0
 11
69.04221213871108
 21
22.72500044069486
 31
0.0
  0
LINE
  5
AEB
330
1A
100
AcDbEntity
  8
ZUWAKU
100
AcDbLine
 10
61.34221213871104
 20
22.72500044069486
 30
0.0
 11
61.34221213871104
 21
11.00000044069486
 31
0.0
  0
LINE
  5
AEC
330
1A
100
AcDbEntity
  8
ZUWAKU
100
AcDbLine
 10
64.1422121387111
 20
9.950000440694864
 30
0.0
 11
64.1422121387111
 21
22.72500044069486
 31
0.0
  0
LINE
  5
AED
330
1A
100
AcDbEntity
  8
ZUWAKU
100
AcDbLine
 10
79.1266295319183
 20
30.00000044069486
 30
0.0
 11
79.1266295319183
 21
0.8000004406949301
 31
0.0
  0
LINE
  5
AEE
330
1A
100
AcDbEntity
  8
ZUWAKU
100
AcDbLine
 10
79.52662953191816
 20
30.00000044069486
 30
0.0
 11
79.52662953191839
 21
0.8000004406949301
 31
0.0
  0
LINE
  5
AEF
330
1A
100
AcDbEntity
  8
ZUWAKU
100
AcDbLine
 10
79.32662953191812
 20
30.00000044069486
 30
0.0
 11
79.32662953191834
 21
0.8000004406949301
 31
0.0
  0
LINE
  5
AF0
330
1A
100
AcDbEntity
  8
ZUWAKU
100
AcDbLine
 10
57.84221213871103
 20
7.150000440694867
 30
0.0
 11
61.34221213871104
 21
7.150000440694867
 31
0.0
  0
LINE
  5
AF1
330
1A
100
AcDbEntity
  8
ZUWAKU
100
AcDbLine
 10
60.29221213871108
 20
9.950000440694864
 30
0.0
 11
58.8922121387111
 21
9.950000440694864
 31
0.0
  0
LINE
  5
AF2
330
1A
100
AcDbEntity
  8
ZUWAKU
100
AcDbLine
 10
41.21721213871103
 20
7.150000440694867
 30
0.0
 11
42.96721213871103
 21
7.150000440694867
 31
0.0
  0
LINE
  5
AF3
330
1A
100
AcDbEntity
  8
ZUWAKU
100
AcDbLine
 10
35.6763470760269
 20
7.516906472527892
 30
0.0
 11
33.80807720139512
 21
13.43309440886183
 31
0.0
  0
ARC
  5
AF4
330
1A
100
AcDbEntity
  8
ZUWAKU
100
AcDbCircle
 10
33.16721213871108
 20
13.27500044069486
 30
0.0
 40
0.525
100
AcDbArc
 50
90.0
 51
180.0
  0
ARC
  5
AF5
330
1A
100
AcDbEntity
  8
ZUWAKU
100
AcDbCircle
 10
33.30744630219976
 20
13.27500044069486
 30
0.0
 40
0.525
100
AcDbArc
 50
17.52556837372303
 51
90.0
  0
ARC
  5
AF6
330
1A
100
AcDbEntity
  8
ZUWAKU
100
AcDbCircle
 10
30.36721213871101
 20
7.675000440694866
 30
0.0
 40
0.525
100
AcDbArc
 50
180.0
 51
270.0
  0
ARC
  5
AF7
330
1A
100
AcDbEntity
  8
ZUWAKU
100
AcDbCircle
 10
26.86721213871101
 20
9.425000440694866
 30
0.0
 40
0.525
100
AcDbArc
 50
0.0
 51
90.0
  0
ARC
  5
AF8
330
1A
100
AcDbEntity
  8
ZUWAKU
100
AcDbCircle
 10
26.86721213871101
 20
7.675000440694866
 30
0.0
 40
0.525
100
AcDbArc
 50
270.0
 51
0.0
  0
LINE
  5
AF9
330
1A
100
AcDbEntity
  8
ZUWAKU
100
AcDbLine
 10
27.3922121387111
 20
9.425000440694866
 30
0.0
 11
27.3922121387111
 21
7.675000440694866
 31
0.0
  0
LINE
  5
AFA
330
1A
100
AcDbEntity
  8
ZUWAKU
100
AcDbLine
 10
32.6422121387111
 20
7.675000440694866
 30
0.0
 11
32.6422121387111
 21
13.27500044069486
 31
0.0
  0
ARC
  5
AFB
330
1A
100
AcDbEntity
  8
ZUWAKU
100
AcDbCircle
 10
32.11721213871101
 20
7.675000440694866
 30
0.0
 40
0.525
100
AcDbArc
 50
270.0
 51
0.0
  0
LINE
  5
AFC
330
1A
100
AcDbEntity
  8
ZUWAKU
100
AcDbLine
 10
30.36721213871101
 20
7.150000440694867
 30
0.0
 11
32.11721213871101
 21
7.150000440694867
 31
0.0
  0
ARC
  5
AFD
330
1A
100
AcDbEntity
  8
ZUWAKU
100
AcDbCircle
 10
33.16721213871108
 20
17.12500044069487
 30
0.0
 40
0.525
100
AcDbArc
 50
180.0
 51
270.0
  0
LINE
  5
AFE
330
1A
100
AcDbEntity
  8
ZUWAKU
100
AcDbLine
 10
33.16721213871108
 20
13.80000044069486
 30
0.0
 11
33.30744630219976
 21
13.80000044069486
 31
0.0
  0
LINE
  5
AFF
330
1A
100
AcDbEntity
  8
ZUWAKU
100
AcDbLine
 10
33.30744630219976
 20
16.60000044069486
 30
0.0
 11
33.16721213871108
 21
16.60000044069486
 31
0.0
  0
ARC
  5
B00
330
1A
100
AcDbEntity
  8
ZUWAKU
100
AcDbCircle
 10
33.30744630219976
 20
17.12500044069487
 30
0.0
 40
0.525
100
AcDbArc
 50
270.0
 51
342.4744316262769
  0
ARC
  5
B01
330
1A
100
AcDbEntity
  8
ZUWAKU
100
AcDbCircle
 10
36.17697797522237
 20
7.675000440694866
 30
0.0
 40
0.525
100
AcDbArc
 50
197.525568373723
 51
270.0
  0
LINE
  5
B02
330
1A
100
AcDbEntity
  8
ZUWAKU
100
AcDbLine
 10
38.37649825402684
 20
7.833094408861839
 30
0.0
 11
36.05010687555318
 21
15.20000044069488
 31
0.0
  0
ARC
  5
B03
330
1A
100
AcDbEntity
  8
ZUWAKU
100
AcDbCircle
 10
37.87586735483137
 20
7.675000440694866
 30
0.0
 40
0.525
100
AcDbArc
 50
270.0
 51
17.52556837372303
  0
LINE
  5
B04
330
1A
100
AcDbEntity
  8
ZUWAKU
100
AcDbLine
 10
36.17697797522237
 20
7.150000440694867
 30
0.0
 11
37.87586735483137
 21
7.150000440694867
 31
0.0
  0
ARC
  5
B05
330
1A
100
AcDbEntity
  8
ZUWAKU
100
AcDbCircle
 10
41.21721213871103
 20
7.675000440694866
 30
0.0
 40
0.525
100
AcDbArc
 50
180.0
 51
270.0
  0
ARC
  5
B06
330
1A
100
AcDbEntity
  8
ZUWAKU
100
AcDbCircle
 10
50.1422121387111
 20
9.950000440694864
 30
0.0
 40
2.799999999999999
100
AcDbArc
 50
270.0
 51
0.0
  0
ARC
  5
B07
330
1A
100
AcDbEntity
  8
ZUWAKU
100
AcDbCircle
 10
57.84221213871103
 20
9.950000440694864
 30
0.0
 40
2.799999999999999
100
AcDbArc
 50
180.0
 51
270.0
  0
LINE
  5
B08
330
1A
100
AcDbEntity
  8
ZUWAKU
100
AcDbLine
 10
51.71206061969463
 20
14.73505094703369
 30
0.0
 11
48.80226264504983
 21
17.64484892167836
 31
0.0
  0
LINE
  5
B09
330
1A
100
AcDbEntity
  8
ZUWAKU
100
AcDbLine
 10
46.82236365772758
 20
15.66494993435604
 30
0.0
 11
49.73216163237225
 21
12.75515195971138
 31
0.0
  0
LINE
  5
B0A
330
1A
100
AcDbEntity
  8
ZUWAKU
100
AcDbLine
 10
46.6422121387111
 20
7.150000440694867
 30
0.0
 11
50.1422121387111
 21
7.150000440694867
 31
0.0
  0
LINE
  5
B0B
330
1A
100
AcDbEntity
  8
ZUWAKU
100
AcDbLine
 10
46.6422121387111
 20
9.950000440694864
 30
0.0
 11
49.61721213871101
 21
9.950000440694864
 31
0.0
  0
ARC
  5
B0C
330
1A
100
AcDbEntity
  8
ZUWAKU
100
AcDbCircle
 10
46.6422121387111
 20
9.425000440694866
 30
0.0
 40
0.525
100
AcDbArc
 50
90.0
 51
180.0
  0
ARC
  5
B0D
330
1A
100
AcDbEntity
  8
ZUWAKU
100
AcDbCircle
 10
42.96721213871103
 20
7.675000440694866
 30
0.0
 40
0.525
100
AcDbArc
 50
270.0
 51
0.0
  0
ARC
  5
B0E
330
1A
100
AcDbEntity
  8
ZUWAKU
100
AcDbCircle
 10
46.6422121387111
 20
7.675000440694866
 30
0.0
 40
0.525
100
AcDbArc
 50
180.0
 51
270.0
  0
LINE
  5
B0F
330
1A
100
AcDbEntity
  8
ZUWAKU
100
AcDbLine
 10
46.11721213871101
 20
7.675000440694866
 30
0.0
 11
46.11721213871101
 21
9.425000440694866
 31
0.0
  0
ARC
  5
B10
330
1A
100
AcDbEntity
  8
ZUWAKU
100
AcDbCircle
 10
49.61721213871101
 20
10.47500044069487
 30
0.0
 40
0.525
100
AcDbArc
 50
270.0
 51
0.0
  0
ARC
  5
B11
330
1A
100
AcDbEntity
  8
ZUWAKU
100
AcDbCircle
 10
48.74221213871101
 20
11.76520246605021
 30
0.0
 40
1.399999999999999
100
AcDbArc
 50
0.0
 51
45.0
  0
LINE
  5
B12
330
1A
100
AcDbEntity
  8
ZUWAKU
100
AcDbLine
 10
50.1422121387111
 20
10.47500044069487
 30
0.0
 11
50.1422121387111
 21
11.76520246605021
 31
0.0
  0
ARC
  5
B13
330
1A
100
AcDbEntity
  8
ZUWAKU
100
AcDbCircle
 10
58.8922121387111
 20
11.00000044069486
 30
0.0
 40
1.049999999999999
100
AcDbArc
 50
180.0
 51
270.0
  0
ARC
  5
B14
330
1A
100
AcDbEntity
  8
ZUWAKU
100
AcDbCircle
 10
48.74221213871101
 20
11.76520246605017
 30
0.0
 40
4.199999999999999
100
AcDbArc
 50
0.0
 51
45.0
  0
LINE
  5
B15
330
1A
100
AcDbEntity
  8
ZUWAKU
100
AcDbLine
 10
52.94221213871106
 20
9.950000440694864
 30
0.0
 11
52.94221213871106
 21
11.76520246605021
 31
0.0
  0
ARC
  5
B16
330
1A
100
AcDbEntity
  8
ZUWAKU
100
AcDbCircle
 10
61.34221213871104
 20
9.950000440694864
 30
0.0
 40
2.799999999999999
100
AcDbArc
 50
270.0
 51
0.0
  0
LINE
  5
B17
330
1A
100
AcDbEntity
  8
ZUWAKU
100
AcDbLine
 10
66.7672121387111
 20
7.150000440694867
 30
0.0
 11
68.5172121387111
 21
7.150000440694867
 31
0.0
  0
ARC
  5
B18
330
1A
100
AcDbEntity
  8
ZUWAKU
100
AcDbCircle
 10
60.29221213871108
 20
11.00000044069486
 30
0.0
 40
1.049999999999999
100
AcDbArc
 50
270.0
 51
0.0
  0
ARC
  5
B19
330
1A
100
AcDbEntity
  8
ZUWAKU
100
AcDbCircle
 10
66.7672121387111
 20
7.675000440694866
 30
0.0
 40
0.525
100
AcDbArc
 50
180.0
 51
270.0
  0
ARC
  5
B1A
330
1A
100
AcDbEntity
  8
ZUWAKU
100
AcDbCircle
 10
68.5172121387111
 20
7.675000440694866
 30
0.0
 40
0.525
100
AcDbArc
 50
270.0
 51
0.0
  0
LINE
  5
B1B
330
1A
100
AcDbEntity
  8
ZUWAKU
100
AcDbLine
 10
42.96721213871103
 20
23.25000044069486
 30
0.0
 11
41.21721213871103
 21
23.25000044069486
 31
0.0
  0
LINE
  5
B1C
330
1A
100
AcDbEntity
  8
ZUWAKU
100
AcDbLine
 10
27.3922121387111
 20
22.72500044069486
 30
0.0
 11
27.3922121387111
 21
20.97500044069486
 31
0.0
  0
ARC
  5
B1D
330
1A
100
AcDbEntity
  8
ZUWAKU
100
AcDbCircle
 10
26.86721213871101
 20
20.97500044069486
 30
0.0
 40
0.525
100
AcDbArc
 50
270.0
 51
0.0
  0
ARC
  5
B1E
330
1A
100
AcDbEntity
  8
ZUWAKU
100
AcDbCircle
 10
30.36721213871101
 20
22.72500044069486
 30
0.0
 40
0.525
100
AcDbArc
 50
90.0
 51
180.0
  0
ARC
  5
B1F
330
1A
100
AcDbEntity
  8
ZUWAKU
100
AcDbCircle
 10
26.86721213871101
 20
22.72500044069486
 30
0.0
 40
0.525
100
AcDbArc
 50
0.0
 51
90.0
  0
LINE
  5
B20
330
1A
100
AcDbEntity
  8
ZUWAKU
100
AcDbLine
 10
32.11721213871101
 20
23.25000044069486
 30
0.0
 11
30.36721213871101
 21
23.25000044069486
 31
0.0
  0
ARC
  5
B21
330
1A
100
AcDbEntity
  8
ZUWAKU
100
AcDbCircle
 10
32.11721213871101
 20
22.72500044069486
 30
0.0
 40
0.525
100
AcDbArc
 50
0.0
 51
90.0
  0
ARC
  5
B22
330
1A
100
AcDbEntity
  8
ZUWAKU
100
AcDbCircle
 10
36.17697797522237
 20
22.72500044069486
 30
0.0
 40
0.525
100
AcDbArc
 50
90.0
 51
162.4744316262769
  0
LINE
  5
B23
330
1A
100
AcDbEntity
  8
ZUWAKU
100
AcDbLine
 10
38.37649825402684
 20
22.56690647252789
 30
0.0
 11
37.31485862088902
 21
19.20504763425829
 31
0.0
  0
ARC
  5
B24
330
1A
100
AcDbEntity
  8
ZUWAKU
100
AcDbCircle
 10
37.87586735483137
 20
22.72500044069486
 30
0.0
 40
0.525
100
AcDbArc
 50
342.4744316262769
 51
90.0
  0
LINE
  5
B25
330
1A
100
AcDbEntity
  8
ZUWAKU
100
AcDbLine
 10
36.17697797522237
 20
23.25000044069486
 30
0.0
 11
37.87586735483137
 21
23.25000044069486
 31
0.0
  0
ARC
  5
B26
330
1A
100
AcDbEntity
  8
ZUWAKU
100
AcDbCircle
 10
41.21721213871103
 20
22.72500044069486
 30
0.0
 40
0.525
100
AcDbArc
 50
90.0
 51
180.0
  0
LINE
  5
B27
330
1A
100
AcDbEntity
  8
ZUWAKU
100
AcDbLine
 10
51.8922121387111
 20
20.45000044069486
 30
0.0
 11
48.91721213871107
 21
20.45000044069486
 31
0.0
  0
LINE
  5
B28
330
1A
100
AcDbEntity
  8
ZUWAKU
100
AcDbLine
 10
48.3922121387111
 20
23.25000044069486
 30
0.0
 11
51.8922121387111
 21
23.25000044069486
 31
0.0
  0
ARC
  5
B29
330
1A
100
AcDbEntity
  8
ZUWAKU
100
AcDbCircle
 10
48.3922121387111
 20
20.45000044069486
 30
0.0
 40
2.799999999999999
100
AcDbArc
 50
90.0
 51
180.0
  0
LINE
  5
B2A
330
1A
100
AcDbEntity
  8
ZUWAKU
100
AcDbLine
 10
45.59221213871103
 20
20.45000044069486
 30
0.0
 11
45.59221213871103
 21
18.63479841533952
 31
0.0
  0
ARC
  5
B2B
330
1A
100
AcDbEntity
  8
ZUWAKU
100
AcDbCircle
 10
42.96721213871103
 20
22.72500044069486
 30
0.0
 40
0.525
100
AcDbArc
 50
0.0
 51
90.0
  0
LINE
  5
B2C
330
1A
100
AcDbEntity
  8
ZUWAKU
100
AcDbLine
 10
48.3922121387111
 20
19.92500044069486
 30
0.0
 11
48.3922121387111
 21
18.63479841533952
 31
0.0
  0
ARC
  5
B2D
330
1A
100
AcDbEntity
  8
ZUWAKU
100
AcDbCircle
 10
48.91721213871107
 20
19.92500044069486
 30
0.0
 40
0.525
100
AcDbArc
 50
90.0
 51
180.0
  0
LINE
  5
B2E
330
1A
100
AcDbEntity
  8
ZUWAKU
100
AcDbLine
 10
52.41721213871108
 20
22.72500044069486
 30
0.0
 11
52.41721213871108
 21
20.97500044069486
 31
0.0
  0
ARC
  5
B2F
330
1A
100
AcDbEntity
  8
ZUWAKU
100
AcDbCircle
 10
51.8922121387111
 20
20.97500044069486
 30
0.0
 40
0.525
100
AcDbArc
 50
270.0
 51
0.0
  0
ARC
  5
B30
330
1A
100
AcDbEntity
  8
ZUWAKU
100
AcDbCircle
 10
51.8922121387111
 20
22.72500044069486
 30
0.0
 40
0.525
100
AcDbArc
 50
0.0
 51
90.0
  0
LINE
  5
B31
330
1A
100
AcDbEntity
  8
ZUWAKU
100
AcDbLine
 10
57.31721213871106
 20
23.25000044069486
 30
0.0
 11
55.56721213871106
 21
23.25000044069486
 31
0.0
  0
ARC
  5
B32
330
1A
100
AcDbEntity
  8
ZUWAKU
100
AcDbCircle
 10
55.56721213871106
 20
22.72500044069486
 30
0.0
 40
0.525
100
AcDbArc
 50
90.0
 51
180.0
  0
ARC
  5
B33
330
1A
100
AcDbEntity
  8
ZUWAKU
100
AcDbCircle
 10
57.31721213871106
 20
22.72500044069486
 30
0.0
 40
0.525
100
AcDbArc
 50
0.0
 51
90.0
  0
LINE
  5
B34
330
1A
100
AcDbEntity
  8
ZUWAKU
100
AcDbLine
 10
68.5172121387111
 20
23.25000044069486
 30
0.0
 11
66.7672121387111
 21
23.25000044069486
 31
0.0
  0
ARC
  5
B35
330
1A
100
AcDbEntity
  8
ZUWAKU
100
AcDbCircle
 10
61.86721213871101
 20
22.72500044069486
 30
0.0
 40
0.525
100
AcDbArc
 50
90.0
 51
180.0
  0
LINE
  5
B36
330
1A
100
AcDbEntity
  8
ZUWAKU
100
AcDbLine
 10
63.61721213871101
 20
23.25000044069486
 30
0.0
 11
61.86721213871101
 21
23.25000044069486
 31
0.0
  0
ARC
  5
B37
330
1A
100
AcDbEntity
  8
ZUWAKU
100
AcDbCircle
 10
63.61721213871101
 20
22.72500044069486
 30
0.0
 40
0.525
100
AcDbArc
 50
0.0
 51
90.0
  0
ARC
  5
B38
330
1A
100
AcDbEntity
  8
ZUWAKU
100
AcDbCircle
 10
66.7672121387111
 20
22.72500044069486
 30
0.0
 40
0.525
100
AcDbArc
 50
90.0
 51
180.0
  0
ARC
  5
B39
330
1A
100
AcDbEntity
  8
ZUWAKU
100
AcDbCircle
 10
68.5172121387111
 20
22.72500044069486
 30
0.0
 40
0.525
100
AcDbArc
 50
0.0
 51
90.0
  0
LINE
  5
B3A
330
1A
100
AcDbEntity
  8
ZUWAKU
100
AcDbLine
 10
208.4466012739976
 20
30.00000044069486
 30
0.0
 11
208.4466012739978
 21
0.8000004406949301
 31
0.0
  0
LINE
  5
B3B
330
1A
100
AcDbEntity
  8
ZUWAKU
100
AcDbLine
 10
208.6466012739977
 20
30.00000044069486
 30
0.0
 11
208.6466012739979
 21
0.8000004406949301
 31
0.0
  0
LINE
  5
B3C
330
1A
100
AcDbEntity
  8
ZUWAKU
100
AcDbLine
 10
208.2466012739978
 20
30.00000044069486
 30
0.0
 11
208.2466012739978
 21
0.8000004406949301
 31
0.0
  0
TEXT
  5
B3D
330
1A
100
AcDbEntity
  8
MOJI
100
AcDbText
 10
239.827202664781
 20
18.00492149810224
 30
0.0
 40
5.599999999999999
  1
ブラケット正面打（吊） 自在式
 41
0.9
  7
ｽﾀｲﾙ1
100
AcDbText
  0
TEXT
  5
B3E
330
1A
100
AcDbEntity
  8
ZUWAKU
100
AcDbText
 10
209.7240462962074
 20
9.65535697908048
 30
0.0
 40
4.0
  1
サイズ
 41
0.9
  7
ｽﾀｲﾙ1
100
AcDbText
  0
TEXT
  5
B3F
330
1A
100
AcDbEntity
  8
MOJI
100
AcDbText
 10
239.827202664781
 20
3.204921498102283
 30
0.0
 40
5.599999999999999
  1
１６０－０－１０～４５
 41
0.9
  7
ｽﾀｲﾙ1
100
AcDbText
  0
TEXT
  5
B40
330
1A
100
AcDbEntity
  8
ZUWAKU
100
AcDbText
 10
209.7240462962072
 20
24.05535697908044
 30
0.0
 40
4.0
  1
品名
 41
0.9
  7
ｽﾀｲﾙ1
100
AcDbText
  0
TEXT
  5
B41
330
1A
100
AcDbEntity
  8
ZUWAKU
100
AcDbText
 10
658.2039376712323
 20
18.00492149810224
 30
0.0
 40
5.599999999999999
  1
　　．　　．　　
 41
0.9
  7
ｽﾀｲﾙ1
100
AcDbText
  0
LINE
  5
B42
330
1A
100
AcDbEntity
  8
ZUWAKU
100
AcDbLine
 10
648.8172024941341
 20
15.60000044069489
 30
0.0
 11
697.2490105324712
 21
15.60000044069489
 31
0.0
  0
LINE
  5
B43
330
1A
100
AcDbEntity
  8
ZUWAKU
100
AcDbLine
 10
648.8172024941343
 20
15.4000004406949
 30
0.0
 11
697.2490105324712
 21
15.40000044069489
 31
0.0
  0
LINE
  5
B44
330
1A
100
AcDbEntity
  8
ZUWAKU
100
AcDbLine
 10
648.8172024941341
 20
15.20000044069489
 30
0.0
 11
697.2490105324712
 21
15.20000044069489
 31
0.0
  0
LINE
  5
B45
330
1A
100
AcDbEntity
  8
ZUWAKU
100
AcDbLine
 10
505.1991794820708
 20
15.60000044069489
 30
0.0
 11
552.5269557500423
 21
15.60000044069489
 31
0.0
  0
LINE
  5
B46
330
1A
100
AcDbEntity
  8
ZUWAKU
100
AcDbLine
 10
505.1991794820708
 20
15.40000044069489
 30
0.0
 11
552.5269557500423
 21
15.40000044069489
 31
0.0
  0
LINE
  5
B47
330
1A
100
AcDbEntity
  8
ZUWAKU
100
AcDbLine
 10
505.1991794820708
 20
15.2000004406949
 30
0.0
 11
552.5269557500423
 21
15.2000004406949
 31
0.0
  0
LINE
  5
B48
330
1A
100
AcDbEntity
  8
ZUWAKU
100
AcDbLine
 10
504.7991794820709
 20
30.00000044069486
 30
0.0
 11
504.7991794820709
 21
0.8000004406949301
 31
0.0
  0
LINE
  5
B49
330
1A
100
AcDbEntity
  8
ZUWAKU
100
AcDbLine
 10
505.1991794820708
 20
30.00000044069486
 30
0.0
 11
505.199179482071
 21
0.8000004406949301
 31
0.0
  0
LINE
  5
B4A
330
1A
100
AcDbEntity
  8
ZUWAKU
100
AcDbLine
 10
504.9991794820707
 20
30.00000044069486
 30
0.0
 11
504.999179482071
 21
0.8000004406949301
 31
0.0
  0
TEXT
  5
B4B
330
1A
100
AcDbEntity
  8
MOJI
100
AcDbText
 10
528.0409079562428
 20
18.00492149810224
 30
0.0
 40
5.599999999999999
  1
Ａ３
 41
0.9
  7
ｽﾀｲﾙ1
100
AcDbText
  0
LINE
  5
B4C
330
1A
100
AcDbEntity
  8
ZUWAKU
100
AcDbLine
 10
447.4243639549213
 20
30.00000044069486
 30
0.0
 11
447.4243639549213
 21
0.8000004406949301
 31
0.0
  0
LINE
  5
B4D
330
1A
100
AcDbEntity
  8
ZUWAKU
100
AcDbLine
 10
447.8243639549211
 20
30.00000044069486
 30
0.0
 11
447.8243639549214
 21
0.8000004406949301
 31
0.0
  0
LINE
  5
B4E
330
1A
100
AcDbEntity
  8
ZUWAKU
100
AcDbLine
 10
447.6243639549211
 20
30.00000044069486
 30
0.0
 11
447.6243639549213
 21
0.8000004406949301
 31
0.0
  0
TEXT
  5
B50
330
1A
100
AcDbEntity
  8
MOJI
100
AcDbText
 10
463.9084316122075
 20
11.23256355247576
 30
0.0
 40
5.599999999999999
  1
ＬＮ３０Ｔ
 41
0.9
  7
ｽﾀｲﾙ1
100
AcDbText
  0
TEXT
  5
B51
330
1A
100
AcDbEntity
  8
ZUWAKU
100
AcDbText
 10
506.6766245042806
 20
9.65535697908048
 30
0.0
 40
4.0
  1
縮尺
 41
0.9
  7
ｽﾀｲﾙ1
100
AcDbText
  0
TEXT
  5
B52
330
1A
100
AcDbEntity
  8
MOJI
100
AcDbText
 10
528.0409079562428
 20
3.204921498102283
 30
0.0
 40
5.599999999999999
  1
１/２
 41
0.9
  7
ｽﾀｲﾙ1
100
AcDbText
  0
TEXT
  5
B53
330
1A
100
AcDbEntity
  8
ZUWAKU
100
AcDbText
 10
449.3018089771307
 20
24.05535697908044
 30
0.0
 40
4.0
  1
品番
 41
0.9
  7
ｽﾀｲﾙ1
100
AcDbText
  0
TEXT
  5
B54
330
1A
100
AcDbEntity
  8
ZUWAKU
100
AcDbText
 10
506.6766245042804
 20
24.05535697908044
 30
0.0
 40
4.0
  1
用紙
 41
0.9
  7
ｽﾀｲﾙ1
100
AcDbText
  0
LINE
  5
B55
330
1A
100
AcDbEntity
  8
ZUWAKU
100
AcDbLine
 10
552.5269557500423
 20
30.00000044069486
 30
0.0
 11
552.5269557500423
 21
0.8000004406949301
 31
0.0
  0
LINE
  5
B56
330
1A
100
AcDbEntity
  8
ZUWAKU
100
AcDbLine
 10
552.9269557500422
 20
30.00000044069486
 30
0.0
 11
552.9269557500424
 21
0.8000004406949301
 31
0.0
  0
LINE
  5
B57
330
1A
100
AcDbEntity
  8
ZUWAKU
100
AcDbLine
 10
552.7269557500422
 20
30.00000044069486
 30
0.0
 11
552.7269557500424
 21
0.8000004406949301
 31
0.0
  0
LINE
  5
B58
330
1A
100
AcDbEntity
  8
ZUWAKU
100
AcDbLine
 10
648.4172024941345
 20
30.00000044069486
 30
0.0
 11
648.4172024941345
 21
0.8000004406949301
 31
0.0
  0
LINE
  5
B59
330
1A
100
AcDbEntity
  8
ZUWAKU
100
AcDbLine
 10
648.8172024941343
 20
30.00000044069486
 30
0.0
 11
648.8172024941345
 21
0.8000004406949301
 31
0.0
  0
LINE
  5
B5A
330
1A
100
AcDbEntity
  8
ZUWAKU
100
AcDbLine
 10
648.6172024941343
 20
30.00000044069486
 30
0.0
 11
648.6172024941345
 21
0.8000004406949301
 31
0.0
  0
TEXT
  5
B5B
330
1A
100
AcDbEntity
  8
ZUWAKU
100
AcDbText
 10
650.2946475163439
 20
24.05535697908044
 30
0.0
 40
4.0
  1
DATE
 41
0.9
  7
ｽﾀｲﾙ1
100
AcDbText
  0
TEXT
  5
B5C
330
1A
100
AcDbEntity
  8
ZUWAKU
100
AcDbText
 10
708.5280841761736
 20
17.55383977638166
 30
0.0
 40
6.0
  1
積水化学工業株式会社
 41
0.9
  7
ｽﾀｲﾙ1
100
AcDbText
  0
LINE
  5
B5D
330
1A
100
AcDbEntity
  8
ZUWAKU
100
AcDbLine
 10
697.849010532471
 20
30.00000044069486
 30
0.0
 11
697.8490105324713
 21
0.8000004406949301
 31
0.0
  0
LINE
  5
B5E
330
1A
100
AcDbEntity
  8
ZUWAKU
100
AcDbLine
 10
697.649010532471
 20
30.00000044069486
 30
0.0
 11
697.6490105324712
 21
0.8000004406949301
 31
0.0
  0
LINE
  5
B5F
330
1A
100
AcDbEntity
  8
ZUWAKU
100
AcDbLine
 10
697.4490105324711
 20
30.00000044069486
 30
0.0
 11
697.4490105324711
 21
0.8000004406949301
 31
0.0
  0
LINE
  5
B60
330
1A
100
AcDbEntity
  8
ZUWAKU
100
AcDbLine
 10
697.2490105324712
 20
30.00000044069486
 30
0.0
 11
697.2490105324712
 21
0.8000004406949301
 31
0.0
  0
TEXT
  5
B61
330
1A
100
AcDbEntity
  8
ZUWAKU
100
AcDbText
 10
708.5280841761736
 20
6.648840754548928
 30
0.0
 40
6.0
  1
建材事業部
 41
0.9
  7
ｽﾀｲﾙ1
100
AcDbText
  0
TEXT
  5
B69
330
1A
100
AcDbEntity
  8
MOJI
100
AcDbText
 10
92.33403077709931
 20
12.62510876664009
 30
0.0
 40
5.799999999999999
  1
アートフェイス１６０
 41
0.9
  7
ｽﾀｲﾙ1
100
AcDbText
  0
TEXT
  5
245D
330
1A
100
AcDbEntity
  8
MOJI
100
AcDbText
 10
691.5248378848807
 20
39.78490050459643
 30
0.0
 40
5.599999999999999
  1
※図面は20mm出です
 41
0.9
  7
ｽﾀｲﾙ1
100
AcDbText
  0
LINE
  5
2E58
330
1A
100
AcDbEntity
  8
SEIHIN
  6
CONTINUOUS
 62
     3
 48
5.0
100
AcDbLine
 10
374.3698425623056
 20
375.9514137218415
 30
0.0
 11
370.3272446608059
 21
375.9514137218415
 31
0.0
  0
LINE
  5
2E59
330
1A
100
AcDbEntity
  8
SEIHIN
  6
CONTINUOUS
 62
     3
 48
5.0
100
AcDbLine
 10
370.3272446608055
 20
408.4514137218413
 30
0.0
 11
374.3698425623056
 21
408.4514137218414
 31
0.0
  0
ARC
  5
2E5C
330
1A
100
AcDbEntity
  8
SEIHIN
  6
CONTINUOUS
 62
     3
 48
5.0
100
AcDbCircle
 10
372.3698425623056
 20
195.7838728251058
 30
0.0
 40
5.000000000000042
100
AcDbArc
 50
66.42182152180544
 51
90.0
  0
LINE
  5
2E5D
330
1A
100
AcDbEntity
  8
SEIHIN
  6
CONTINUOUS
 62
     3
 48
5.0
100
AcDbLine
 10
370.8669243659055
 20
222.7421785032059
 30
0.0
 11
374.2038172048055
 21
223.0201423110059
 31
0.0
  0
SPLINE
  5
2E65
330
1A
100
AcDbEntity
  8
SEIHIN
  6
CONTINUOUS
 62
     3
 48
5.0
100
AcDbSpline
210
0.0
220
0.0
230
1.0
 70
     8
 71
     3
 72
     9
 73
     5
 74
     0
 42
0.0000000001
 43
0.0000000001
 40
0.0
 40
0.0
 40
0.0
 40
0.0
 40
0.6774352619249452
 40
1.0
 40
1.0
 40
1.0
 40
1.0
 10
370.3603163132761
 20
220.7333785611447
 30
0.0
 10
370.3620270888693
 20
220.9337581290951
 30
0.0
 10
370.3645524602061
 20
221.2295495931844
 30
0.0
 10
370.3682633563255
 20
221.5228597806051
 30
0.0
 10
370.3694603605604
 20
221.6174713043853
 30
0.0
  0
SPLINE
  5
2E67
330
1A
100
AcDbEntity
  8
SEIHIN
  6
CONTINUOUS
 62
     3
 48
5.0
100
AcDbSpline
210
0.0
220
0.0
230
1.0
 70
    24
 71
     1
 72
     4
 73
     2
 74
     0
 42
0.0000000001
 43
0.0000000001
 40
0.0
 40
0.0
 40
1.0
 40
1.0
 10
370.3697509752805
 20
222.7018400219665
 30
0.0
 10
370.3698425623106
 20
222.7007714944739
 30
0.0
  0
SPLINE
  5
2E68
330
1A
100
AcDbEntity
  8
SEIHIN
  6
CONTINUOUS
 62
     3
 48
5.0
100
AcDbSpline
210
0.0
220
0.0
230
1.0
 70
    24
 71
     1
 72
     4
 73
     2
 74
     0
 42
0.0000000001
 43
0.0000000001
 40
0.0
 40
0.0
 40
1.0
 40
1.0
 10
370.3694603605604
 20
221.6174713043853
 30
0.0
 10
370.3698425623106
 20
221.7221665768353
 30
0.0
  0
ELLIPSE
  5
2E6D
330
1A
100
AcDbEntity
  8
SEIHIN
  6
CONTINUOUS
 62
     3
 48
5.0
100
AcDbEllipse
 10
278.8136109292056
 20
175.3773407259058
 30
0.0
 11
8.755655631782898
 21
-0.1537931535937673
 31
0.0
210
0.0
220
0.0
230
1.0
 40
0.0523657344
 41
3.524238705216118
 42
4.714487840320995
  0
ELLIPSE
  5
2E70
330
1A
100
AcDbEntity
  8
SEIHIN
  6
CONTINUOUS
 62
     3
 48
5.0
100
AcDbEllipse
 10
278.5856390656056
 20
188.2811300138058
 30
0.0
 11
8.752220645152533
 21
-0.0005420829355955
 31
0.0
210
0.0
220
0.0
230
0.9999999999999996
 40
0.0523944456
 41
1.571978448051946
 42
2.682261765868541
  0
ELLIPSE
  5
2E75
330
1A
100
AcDbEntity
  8
SEIHIN
  6
CONTINUOUS
 62
     3
 48
5.0
100
AcDbEllipse
 10
270.6394590860056
 20
196.2884456848058
 30
0.0
 11
2.396316525717224
 21
4.395112643060201
 31
0.0
210
0.0
220
0.0
230
1.0
 40
0.9988151484000001
 41
2.643171482322991
 42
3.640013824856625
  0
ELLIPSE
  5
2E77
330
1A
100
AcDbEntity
  8
SEIHIN
  6
CONTINUOUS
 62
     3
 48
5.0
100
AcDbEllipse
 10
270.7358169971057
 20
196.4651768757058
 30
0.0
 11
3.838082563416377
 21
7.039472882044633
 31
0.0
210
0.0
220
0.0
230
1.0
 40
0.9977804100999998
 41
2.643171454208248
 42
3.61038371925319
  0
SPLINE
  5
2E81
330
1A
100
AcDbEntity
  8
SEIHIN
  6
CONTINUOUS
 62
     3
 48
5.0
100
AcDbSpline
210
0.0
220
0.0
230
1.0
 70
     8
 71
     3
 72
    12
 73
     8
 74
     0
 42
0.0000000001
 43
0.0000000001
 40
0.0
 40
0.0
 40
0.0
 40
0.0
 40
0.2143418125411348
 40
0.4286929637168954
 40
0.6428556381419203
 40
0.8570760097381413
 40
1.0
 40
1.0
 40
1.0
 40
1.0
 10
279.1335676923336
 20
172.465530981859
 30
0.0
 10
278.8248687978339
 20
172.4698654808831
 30
0.0
 10
278.2074575591668
 20
172.4785346677808
 30
0.0
 10
277.3843702613417
 20
172.4763932132245
 30
0.0
 10
276.7632038011299
 20
172.4629293628518
 30
0.0
 10
276.4324257091782
 20
172.441683537871
 30
0.0
 10
276.3988014740996
 20
172.4243698370454
 30
0.0
 10
276.3853455432206
 20
172.4174411452544
 30
0.0
  0
SPLINE
  5
2E82
330
1A
100
AcDbEntity
  8
SEIHIN
  6
CONTINUOUS
 62
     3
 48
5.0
100
AcDbSpline
210
0.0
220
0.0
230
1.0
 70
     8
 71
     3
 72
    12
 73
     8
 74
     0
 42
0.0000000001
 43
0.0000000001
 40
0.0
 40
0.0
 40
0.0
 40
0.0
 40
0.2147322453983269
 40
0.4294624161960739
 40
0.6442506256434046
 40
0.859089865409647
 40
1.0
 40
1.0
 40
1.0
 40
1.0
 10
275.9608514661142
 20
191.2838445722048
 30
0.0
 10
275.9965200473707
 20
191.2712888737185
 30
0.0
 10
276.0678568652776
 20
191.2461775980507
 30
0.0
 10
276.6204206183719
 20
191.2127195656917
 30
0.0
 10
277.4331834473562
 20
191.1874732927257
 30
0.0
 10
278.3329876832456
 20
191.1741136563378
 30
0.0
 10
278.9271782454131
 20
191.1727530304473
 30
0.0
 10
279.1625334649095
 20
191.1722140949181
 30
0.0
  0
ELLIPSE
  5
2E86
330
1A
100
AcDbEntity
  8
SEIHIN
  6
CONTINUOUS
 62
     3
 48
5.0
100
AcDbEllipse
 10
260.0454806206057
 20
178.7081416817059
 30
0.0
 11
3.34364816144989
 21
4.991321663652071
 31
0.0
210
0.0
220
0.0
230
1.0
 40
0.9987070262000001
 41
2.569697108919196
 42
3.713488198260313
  0
SPLINE
  5
2E8D
330
1A
100
AcDbEntity
  8
SEIHIN
  6
CONTINUOUS
 62
     3
 48
5.0
100
AcDbSpline
210
0.0
220
0.0
230
1.0
 70
    24
 71
     1
 72
     4
 73
     2
 74
     0
 42
0.0000000001
 43
0.0000000001
 40
0.0
 40
0.0
 40
1.0
 40
1.0
 10
270.4852369422417
 20
188.4549286168516
 30
0.0
 10
270.7406043884402
 20
188.4849212090133
 30
0.0
  0
ELLIPSE
  5
2E9C
330
1A
100
AcDbEntity
  8
SEIHIN
  6
CONTINUOUS
 62
     3
 48
5.0
100
AcDbEllipse
 10
240.2551555216057
 20
199.2802139161058
 30
0.0
 11
2.200008417289708
 21
3.346922801218938
 31
0.0
210
0.0
220
0.0
230
0.9999999999999998
 40
0.9986922798999998
 41
5.702580302982438
 42
6.863790480473809
  0
ELLIPSE
  5
2EA0
330
1A
100
AcDbEntity
  8
SEIHIN
  6
CONTINUOUS
 62
     3
 48
5.0
100
AcDbEllipse
 10
232.5985225172057
 20
217.4618106686058
 30
0.0
 11
2.199291910375951
 21
3.345832762971126
 31
0.0
210
0.0
220
0.0
230
1.0
 40
0.9990176437
 41
5.702580084638135
 42
6.863790529721047
  0
ELLIPSE
  5
2EA1
330
1A
100
AcDbEntity
  8
SEIHIN
  6
CONTINUOUS
 62
     3
 48
5.0
100
AcDbEllipse
 10
226.0183910070056
 20
234.2834155391058
 30
0.0
 11
0.40983302645013
 21
0.2888172009913035
 31
0.0
210
0.0
220
0.0
230
1.0
 40
0.9972543788999997
 41
5.328217689040767
 42
7.238152925318562
  0
ELLIPSE
  5
2EA2
330
1A
100
AcDbEntity
  8
SEIHIN
  6
CONTINUOUS
 62
     3
 48
5.0
100
AcDbEllipse
 10
227.0691477386055
 20
229.7857019690059
 30
0.0
 11
1.639332105800491
 21
1.15526880396527
 31
0.0
210
0.0
220
0.0
230
0.9999999999999998
 40
0.9972543788999999
 41
2.186624542263095
 42
4.096560764916507
  0
ELLIPSE
  5
2EA5
330
1A
100
AcDbEntity
  8
SEIHIN
  6
CONTINUOUS
 62
     3
 48
5.0
100
AcDbEllipse
 10
259.9317750423056
 20
178.5384045895058
 30
0.0
 11
1.670745680527914
 21
2.494051020623701
 31
0.0
210
0.0
220
0.0
230
1.0
 40
0.9993516521
 41
2.569697062410777
 42
3.713488244768893
  0
ELLIPSE
  5
2EAA
330
1A
100
AcDbEntity
  8
SEIHIN
  6
CONTINUOUS
 62
     3
 48
5.0
100
AcDbEllipse
 10
229.9332695260056
 20
220.4659277066058
 30
0.0
 11
0.0000000000000142
 21
1.000000000000027
 31
0.0
210
0.0
220
0.0
230
1.0
 40
0.0524077793
 41
0.0523598775601755
 42
0.1385661811842674
  0
ELLIPSE
  5
2EB2
330
1A
100
AcDbEntity
  8
SEIHIN
  6
CONTINUOUS
 62
     3
 48
5.0
100
AcDbEllipse
 10
241.1665202963056
 20
219.4514534158058
 30
0.0
 11
1.671290137565151
 21
-1.098576988097818
 31
0.0
210
0.0
220
0.0
230
1.0
 40
0.9999897347999999
 41
2.154383746208734
 42
4.128801560967304
  0
ELLIPSE
  5
2EB3
330
1A
100
AcDbEntity
  8
SEIHIN
  6
CONTINUOUS
 62
     3
 48
5.0
100
AcDbEllipse
 10
241.6600203500056
 20
222.7792999653058
 30
0.0
 11
2.396316525717224
 21
4.395112643060174
 31
0.0
210
0.0
220
0.0
230
1.0
 40
0.9988151483999999
 41
5.784764135912807
 42
6.781606478446422
  0
ELLIPSE
  5
2EB7
330
1A
100
AcDbEntity
  8
SEIHIN
  6
CONTINUOUS
 62
     3
 48
5.0
100
AcDbEllipse
 10
322.2360625952055
 20
188.2811300138058
 30
0.0
 11
8.752220645152561
 21
0.0005420829355813
 31
0.0
210
0.0
220
0.0
230
0.9999999999999996
 40
0.0523944456
 41
0.379365070432783
 42
1.569614205537845
  0
SPLINE
  5
2EBD
330
1A
100
AcDbEntity
  8
SEIHIN
  6
CONTINUOUS
 62
     3
 48
5.0
100
AcDbSpline
210
0.0
220
0.0
230
1.0
 70
     8
 71
     3
 72
     9
 73
     5
 74
     0
 42
0.0000000001
 43
0.0000000001
 40
0.0
 40
0.0
 40
0.0
 40
0.0
 40
0.2563573856149646
 40
1.0
 40
1.0
 40
1.0
 40
1.0
 10
229.9260307967722
 20
221.456342764423
 30
0.0
 10
229.9109743417582
 20
221.4418724436626
 30
0.0
 10
229.8522420568358
 20
221.3854265537743
 30
0.0
 10
229.7935145644548
 20
221.3271840914637
 30
0.0
 10
229.7498422984844
 20
221.2838725145228
 30
0.0
  0
SPLINE
  5
2EC1
330
1A
100
AcDbEntity
  8
SEIHIN
  6
CONTINUOUS
 62
     3
 48
5.0
100
AcDbSpline
210
0.0
220
0.0
230
1.0
 70
     8
 71
     3
 72
     9
 73
     5
 74
     0
 42
0.0000000001
 43
0.0000000001
 40
0.0
 40
0.0
 40
0.0
 40
0.0
 40
0.2571457637264248
 40
1.0
 40
1.0
 40
1.0
 40
1.0
 10
222.6737064191224
 20
234.5816743974339
 30
0.0
 10
222.7445128816643
 20
234.6136709256453
 30
0.0
 10
223.0198682346588
 20
234.7381004622152
 30
0.0
 10
223.3236859079836
 20
234.7643633265348
 30
0.0
 10
223.5493781536677
 20
234.7838728065513
 30
0.0
  0
ELLIPSE
  5
2ECE
330
1A
100
AcDbEntity
  8
SEIHIN
  6
CONTINUOUS
 62
     3
 48
5.0
100
AcDbEllipse
 10
321.9562899437055
 20
174.6242824625058
 30
0.0
 11
8.748781003777139
 21
-0.1525889947454999
 31
0.0
210
0.0
220
0.0
230
1.0
 40
0.0524071092
 41
4.712123965840861
 42
5.902373100946171
  0
ELLIPSE
  5
2ED1
330
1A
100
AcDbEntity
  8
SEIHIN
  6
CONTINUOUS
 62
     3
 48
5.0
100
AcDbEllipse
 10
350.1775109340055
 20
193.7419545343058
 30
0.0
 11
-7.644140819877747
 21
10.54869795575243
 31
0.0000000000000018
210
0.0000000000000001
220
-0.0000000000000001
230
1.0
 40
0.9979121267999998
 41
0.3731499761691719
 42
0.6260876544547936
  0
ELLIPSE
  5
2ED3
330
1A
100
AcDbEntity
  8
SEIHIN
  6
CONTINUOUS
 62
     3
 48
5.0
100
AcDbEllipse
 10
349.6713265560056
 20
194.4404746478058
 30
0.0
 11
-5.877655502118983
 21
8.110998219524363
 31
0.0
210
0.0
220
0.0
230
0.9999999999999996
 40
0.9983285683
 41
0.2582560451745627
 42
0.6260876544548144
  0
ELLIPSE
  5
2ED5
330
1A
100
AcDbEntity
  8
SEIHIN
  6
CONTINUOUS
 62
     3
 48
5.0
100
AcDbEllipse
 10
331.8733114004057
 20
195.7666567622059
 30
0.0
 11
2.940054161491445
 21
-4.057191521443243
 31
0.0
210
0.0
220
0.0
230
0.9999999999999998
 40
0.9979121268
 41
5.657097652724818
 42
6.909272961634393
  0
ELLIPSE
  5
2ED8
330
1A
100
AcDbEntity
  8
SEIHIN
  6
CONTINUOUS
 62
     3
 48
5.0
100
AcDbEllipse
 10
350.0484730054056
 20
174.2834155391058
 30
0.0
 11
0.434022492645596
 21
0.2518730333836317
 31
0.0
210
0.0
220
0.0
230
1.0
 40
0.9963885601999999
 41
5.240570859087564
 42
7.325799755271654
  0
ELLIPSE
  5
2EDA
330
1A
100
AcDbEntity
  8
SEIHIN
  6
CONTINUOUS
 62
     3
 48
5.0
100
AcDbEllipse
 10
358.8670988464057
 20
193.7811291100058
 30
0.0
 11
2.125198478113333
 21
2.125198478113333
 31
0.0
210
0.0
220
0.0
230
1.0
 40
0.9981751659
 41
5.499156844765545
 42
7.067213769593655
  0
ELLIPSE
  5
2EDB
330
1A
100
AcDbEntity
  8
SEIHIN
  6
CONTINUOUS
 62
     3
 48
5.0
100
AcDbEllipse
 10
361.9081071146056
 20
184.1056753395058
 30
0.0
 11
2.676109150959773
 21
1.3635193039741
 31
0.0
210
0.0
220
0.0
230
0.9999999999999998
 40
0.9988494841000001
 41
5.812652417375119
 42
6.753718196984197
  0
ELLIPSE
  5
2EDC
330
1A
100
AcDbEntity
  8
SEIHIN
  6
CONTINUOUS
 62
     3
 48
5.0
100
AcDbEllipse
 10
343.9792967141056
 20
175.7847873970058
 30
0.0
 11
0.8214267675792541
 21
0.5751692147449035
 31
0.0
210
0.0
220
0.0
230
1.0
 40
0.9972307655999996
 41
2.183616568375883
 42
4.099568738803688
  0
ELLIPSE
  5
2EE3
330
1A
100
AcDbEntity
  8
SEIHIN
  6
CONTINUOUS
 62
     3
 48
5.0
100
AcDbEllipse
 10
361.9081071146056
 20
170.1933145411059
 30
0.0
 11
2.823732532825857
 21
1.022332180481384
 31
0.0
210
0.0
220
0.0
230
1.0
 40
0.9989666869
 41
5.936312309631493
 42
6.568427807831847
  0
ELLIPSE
  5
2EE4
330
1A
100
AcDbEntity
  8
SEIHIN
  6
CONTINUOUS
 62
     3
 48
5.0
100
AcDbEllipse
 10
361.9081071146056
 20
179.1540207200058
 30
0.0
 11
2.823732532812954
 21
-1.022332180517111
 31
0.0
210
0.0
220
0.0
230
0.9999999999999998
 40
0.9989666869
 41
5.997942806539986
 42
6.630058304740324
  0
ELLIPSE
  5
2EE9
330
1A
100
AcDbEntity
  8
SEIHIN
  6
CONTINUOUS
 62
     3
 48
5.0
100
AcDbEllipse
 10
346.0089646110056
 20
176.2926110200059
 30
0.0
 11
-2.509600003792628
 21
4.331641023348325
 31
0.0
210
0.0
220
0.0
230
1.0
 40
0.9987781204999999
 41
2.615847214889555
 42
3.667338092290106
  0
ELLIPSE
  5
2EEB
330
1A
100
AcDbEntity
  8
SEIHIN
  6
CONTINUOUS
 62
     3
 48
5.0
100
AcDbEllipse
 10
340.2238333616055
 20
185.4500810698058
 30
0.0
 11
2.460882529933086
 21
1.723128498103634
 31
0.0
210
0.0
220
0.0
230
1.0
 40
0.9986076552000001
 41
5.325208719220819
 42
7.241161895138414
  0
ELLIPSE
  5
2EED
330
1A
100
AcDbEntity
  8
SEIHIN
  6
CONTINUOUS
 62
     3
 48
5.0
100
AcDbEllipse
 10
361.0494828395055
 20
192.9225048349059
 30
0.0
 11
2.832311354276412
 21
2.832311354276285
 31
0.0
210
0.0
220
0.0
230
1.0
 40
0.9986286008000002
 41
5.499156671652566
 42
7.067213942706674
  0
ELLIPSE
  5
2EF0
330
1A
100
AcDbEntity
  8
SEIHIN
  6
CONTINUOUS
 62
     3
 48
5.0
100
AcDbEllipse
 10
352.6597315026056
 20
193.7811291100058
 30
0.0
 11
-1.723074012694495
 21
2.460804716704615
 31
0.0
210
0.0
220
0.0
230
1.0
 40
0.9986392321999996
 41
5.673279416566436
 42
6.893091197792804
  0
ELLIPSE
  5
2EF1
330
1A
100
AcDbEntity
  8
SEIHIN
  6
CONTINUOUS
 62
     3
 48
5.0
100
AcDbEllipse
 10
352.7828389410056
 20
193.6053134672058
 30
0.0
 11
-3.450837676903119
 21
4.928306949871284
 31
0.0
210
0.0
220
0.0
230
1.0
 40
0.9972820922
 41
5.673279357048293
 42
6.893091257310905
  0
ELLIPSE
  5
2EFB
330
1A
100
AcDbEntity
  8
SEIHIN
  6
CONTINUOUS
 62
     3
 48
5.0
100
AcDbEllipse
 10
337.2171850552056
 20
177.1893827397058
 30
0.0
 11
-1.700393512004836
 21
2.474087912268799
 31
0.0
210
0.0
220
0.0
230
0.9999999999999998
 40
0.9993091004
 41
2.522977972076899
 42
3.760207335102665
  0
ELLIPSE
  5
2EFC
330
1A
100
AcDbEntity
  8
SEIHIN
  6
CONTINUOUS
 62
     3
 48
5.0
100
AcDbEllipse
 10
340.8073954637056
 20
193.1162922344058
 30
0.0
 11
1.619501027302134
 21
1.173575541050581
 31
0.0
210
0.0
220
0.0
230
1.0
 40
0.9999921091
 41
2.199765478388581
 42
4.08341982877818
  0
SPLINE
  5
2F13
330
1A
100
AcDbEntity
  8
SEIHIN
  6
CONTINUOUS
 62
     3
 48
5.0
100
AcDbSpline
210
0.0
220
0.0
230
1.0
 70
     8
 71
     3
 72
    12
 73
     8
 74
     0
 42
0.0000000001
 43
0.0000000001
 40
0.0
 40
0.0
 40
0.0
 40
0.0
 40
0.2151778356216028
 40
0.4303627212999654
 40
0.645353514103504
 40
0.8599953495347243
 40
1.0
 40
1.0
 40
1.0
 40
1.0
 10
324.4174771923969
 20
171.5783778016567
 30
0.0
 10
324.3872671051299
 20
171.5897254515664
 30
0.0
 10
324.3268459407965
 20
171.6124211231787
 30
0.0
 10
323.852365571955
 20
171.6495421667909
 30
0.0
 10
323.15379480107
 20
171.6834746203752
 30
0.0
 10
322.3815972989759
 20
171.7084191799225
 30
0.0
 10
321.8724226621361
 20
171.7184760029818
 30
0.0
 10
321.671414560008
 20
171.7224461593295
 30
0.0
  0
SPLINE
  5
2F7A
330
1A
100
AcDbEntity
  8
SEIHIN
  6
CONTINUOUS
 62
     3
 48
5.0
100
AcDbSpline
210
0.0
220
0.0
230
1.0
 70
     8
 71
     3
 72
     9
 73
     5
 74
     0
 42
0.0000000001
 43
0.0000000001
 40
0.0
 40
0.0
 40
0.0
 40
0.0
 40
0.4671272253602058
 40
1.0
 40
1.0
 40
1.0
 40
1.0
 10
364.3303186694124
 20
171.9681509892476
 30
0.0
 10
364.1726862241157
 20
172.2213176230722
 30
0.0
 10
363.8352354468138
 20
172.7632826811552
 30
0.0
 10
363.7795277314869
 20
173.4008066753502
 30
0.0
 10
363.7498426066517
 20
173.7405258550364
 30
0.0
  0
SPLINE
  5
2F7B
330
1A
100
AcDbEntity
  8
SEIHIN
  6
CONTINUOUS
 62
     3
 48
5.0
100
AcDbSpline
210
0.0
220
0.0
230
1.0
 70
     8
 71
     3
 72
     9
 73
     5
 74
     0
 42
0.0000000001
 43
0.0000000001
 40
0.0
 40
0.0
 40
0.0
 40
0.0
 40
0.4671272253602086
 40
1.0
 40
1.0
 40
1.0
 40
1.0
 10
364.3303186694124
 20
177.3791842718528
 30
0.0
 10
364.1726862241157
 20
177.1260176380283
 30
0.0
 10
363.8352354468138
 20
176.5840525799452
 30
0.0
 10
363.7795277314869
 20
175.9465285857502
 30
0.0
 10
363.7498426066517
 20
175.6068094060641
 30
0.0
  0
SPLINE
  5
2FAF
330
1A
100
AcDbEntity
  8
SEIHIN
  6
CONTINUOUS
 62
     3
 48
5.0
100
AcDbSpline
210
0.0
220
0.0
230
1.0
 70
     8
 71
     3
 72
     9
 73
     5
 74
     0
 42
0.0000000001
 43
0.0000000001
 40
0.0
 40
0.0
 40
0.0
 40
0.0
 40
0.6774352619248855
 40
1.0
 40
1.0
 40
1.0
 40
1.0
 10
360.3603163132761
 20
219.9003766602588
 30
0.0
 10
360.3620270888693
 20
220.1007562282093
 30
0.0
 10
360.3645524602061
 20
220.3965476922985
 30
0.0
 10
360.3682633563255
 20
220.6898578797193
 30
0.0
 10
360.3694603605604
 20
220.7844694034995
 30
0.0
  0
SPLINE
  5
2FB0
330
1A
100
AcDbEntity
  8
SEIHIN
  6
CONTINUOUS
 62
     3
 48
5.0
100
AcDbSpline
210
0.0
220
0.0
230
1.0
 70
    24
 71
     1
 72
     4
 73
     2
 74
     0
 42
0.0000000001
 43
0.0000000001
 40
0.0
 40
0.0
 40
1.0
 40
1.0
 10
363.3698425623108
 20
222.1176701638538
 30
0.0
 10
363.3699011251239
 20
222.1183924307872
 30
0.0
  0
SPLINE
  5
2FB1
330
1A
100
AcDbEntity
  8
SEIHIN
  6
CONTINUOUS
 62
     3
 48
5.0
100
AcDbSpline
210
0.0
220
0.0
230
1.0
 70
    24
 71
     1
 72
     4
 73
     2
 74
     0
 42
0.0000000001
 43
0.0000000001
 40
0.0
 40
0.0
 40
1.0
 40
1.0
 10
365.3694603605604
 20
221.2009703539424
 30
0.0
 10
365.3698425623108
 20
221.3056656265054
 30
0.0
  0
SPLINE
  5
2FB3
330
1A
100
AcDbEntity
  8
SEIHIN
  6
CONTINUOUS
 62
     3
 48
5.0
100
AcDbSpline
210
0.0
220
0.0
230
1.0
 70
    24
 71
     1
 72
     4
 73
     2
 74
     0
 42
0.0000000001
 43
0.0000000001
 40
0.0
 40
0.0
 40
1.0
 40
1.0
 10
360.3697509752805
 20
221.8688381210806
 30
0.0
 10
360.3698425623108
 20
221.8677695935881
 30
0.0
  0
SPLINE
  5
2FB4
330
1A
100
AcDbEntity
  8
SEIHIN
  6
CONTINUOUS
 62
     3
 48
5.0
100
AcDbSpline
210
0.0
220
0.0
230
1.0
 70
    24
 71
     1
 72
     4
 73
     2
 74
     0
 42
0.0000000001
 43
0.0000000001
 40
0.0
 40
0.0
 40
1.0
 40
1.0
 10
360.3694603605604
 20
220.7844694034995
 30
0.0
 10
360.3698425623108
 20
220.8891646759489
 30
0.0
  0
SPLINE
  5
2FB5
330
1A
100
AcDbEntity
  8
SEIHIN
  6
CONTINUOUS
 62
     3
 48
5.0
100
AcDbSpline
210
0.0
220
0.0
230
1.0
 70
    24
 71
     1
 72
     4
 73
     2
 74
     0
 42
0.0000000001
 43
0.0000000001
 40
0.0
 40
0.0
 40
1.0
 40
1.0
 10
358.3698425623108
 20
221.7011692134109
 30
0.0
 10
358.369901125124
 20
221.7018914803444
 30
0.0
  0
SPLINE
  5
2FB7
330
1A
100
AcDbEntity
  8
SEIHIN
  6
CONTINUOUS
 62
     3
 48
5.0
100
AcDbSpline
210
0.0
220
0.0
230
1.0
 70
    24
 71
     1
 72
     4
 73
     2
 74
     0
 42
0.0000000001
 43
0.0000000001
 40
0.0
 40
0.0
 40
1.0
 40
1.0
 10
368.3698425623106
 20
222.5341711142967
 30
0.0
 10
368.3699011251239
 20
222.5348933812302
 30
0.0
  0
SPLINE
  5
2FB8
330
1A
100
AcDbEntity
  8
SEIHIN
  6
CONTINUOUS
 62
     3
 48
5.0
100
AcDbSpline
210
0.0
220
0.0
230
1.0
 70
     8
 71
     3
 72
    10
 73
     6
 74
     0
 42
0.0000000001
 43
0.0000000001
 40
0.0
 40
0.0
 40
0.0
 40
0.0
 40
0.6101420343041689
 40
0.8032750932679906
 40
1.0
 40
1.0
 40
1.0
 40
1.0
 10
368.3698425623106
 20
221.4687834771557
 30
0.0
 10
368.3721204209073
 20
221.2700128871978
 30
0.0
 10
368.3751193080083
 20
221.0083238783926
 30
0.0
 10
368.3789789342633
 20
220.6802473628779
 30
0.0
 10
368.3792380565341
 20
220.5522822415863
 30
0.0
 10
368.3793688113451
 20
220.487710195441
 30
0.0
  0
SPLINE
  5
2FBD
330
1A
100
AcDbEntity
  8
SEIHIN
  6
CONTINUOUS
 62
     3
 48
5.0
100
AcDbSpline
210
0.0
220
0.0
230
1.0
 70
     8
 71
     3
 72
    10
 73
     6
 74
     0
 42
0.0000000001
 43
0.0000000001
 40
0.0
 40
0.0
 40
0.0
 40
0.0
 40
0.6101420343041689
 40
0.8032750932679872
 40
1.0
 40
1.0
 40
1.0
 40
1.0
 10
363.3698425623108
 20
221.0522825267128
 30
0.0
 10
363.3721204209073
 20
220.8535119367549
 30
0.0
 10
363.3751193080086
 20
220.5918229279498
 30
0.0
 10
363.3789789342634
 20
220.263746412435
 30
0.0
 10
363.3792380565342
 20
220.1357812911434
 30
0.0
 10
363.379368811345
 20
220.0712092449981
 30
0.0
  0
SPLINE
  5
2FBF
330
1A
100
AcDbEntity
  8
SEIHIN
  6
CONTINUOUS
 62
     3
 48
5.0
100
AcDbSpline
210
0.0
220
0.0
230
1.0
 70
    24
 71
     1
 72
     4
 73
     2
 74
     0
 42
0.0000000001
 43
0.0000000001
 40
0.0
 40
0.0
 40
1.0
 40
1.0
 10
365.3697509752805
 20
222.2853390715235
 30
0.0
 10
365.3698425623108
 20
222.284270544031
 30
0.0
  0
SPLINE
  5
2FC9
330
1A
100
AcDbEntity
  8
SEIHIN
  6
CONTINUOUS
 62
     3
 48
5.0
100
AcDbSpline
210
0.0
220
0.0
230
1.0
 70
     8
 71
     3
 72
    10
 73
     6
 74
     0
 42
0.0000000001
 43
0.0000000001
 40
0.0
 40
0.0
 40
0.0
 40
0.0
 40
0.6101420343041689
 40
0.8032750932679908
 40
1.0
 40
1.0
 40
1.0
 40
1.0
 10
358.3698425623108
 20
220.63578157627
 30
0.0
 10
358.3721204209073
 20
220.437010986312
 30
0.0
 10
358.3751193080083
 20
220.1753219775068
 30
0.0
 10
358.3789789342631
 20
219.8472454619921
 30
0.0
 10
358.3792380565341
 20
219.7192803407006
 30
0.0
 10
358.3793688113451
 20
219.6547082945552
 30
0.0
  0
SPLINE
  5
2FCA
330
1A
100
AcDbEntity
  8
SEIHIN
  6
CONTINUOUS
 62
     3
 48
5.0
100
AcDbSpline
210
0.0
220
0.0
230
1.0
 70
     8
 71
     3
 72
     9
 73
     5
 74
     0
 42
0.0000000001
 43
0.0000000001
 40
0.0
 40
0.0
 40
0.0
 40
0.0
 40
0.6774352619248934
 40
1.0
 40
1.0
 40
1.0
 40
1.0
 10
365.3603163132763
 20
220.3168776107018
 30
0.0
 10
365.3620270888693
 20
220.5172571786522
 30
0.0
 10
365.3645524602061
 20
220.8130486427414
 30
0.0
 10
365.3682633563255
 20
221.1063588301623
 30
0.0
 10
365.3694603605604
 20
221.2009703539424
 30
0.0
  0
LINE
  5
2FCC
330
1A
100
AcDbEntity
  8
SEIHIN
  6
CONTINUOUS
 62
     3
 48
5.0
100
AcDbLine
 10
257.1779116662055
 20
177.3448819590058
 30
0.0
 11
239.3288605827056
 21
218.6621298376059
 31
0.0
  0
LINE
  5
2FCD
330
1A
100
AcDbEntity
  8
SEIHIN
  6
CONTINUOUS
 62
     3
 48
5.0
100
AcDbLine
 10
245.6897714944056
 20
220.5361141288058
 30
0.0
 11
264.0070055094056
 21
192.1128199675058
 31
0.0
  0
LINE
  5
2FCE
330
1A
100
AcDbEntity
  8
SEIHIN
  6
CONTINUOUS
 62
     3
 48
5.0
100
AcDbLine
 10
245.8644691636056
 20
225.4937754095058
 30
0.0
 11
266.4350102724056
 21
193.5739702406058
 31
0.0
  0
LINE
  5
2FD0
330
1A
100
AcDbEntity
  8
SEIHIN
  6
CONTINUOUS
 62
     3
 48
5.0
100
AcDbLine
 10
254.5347717710055
 20
176.3210928701058
 30
0.0
 11
243.9289311172056
 21
200.8716499390059
 31
0.0
  0
LINE
  5
2FD4
330
1A
100
AcDbEntity
  8
SEIHIN
  6
CONTINUOUS
 62
     3
 48
5.0
100
AcDbLine
 10
236.2709052789057
 20
219.0541718812058
 30
0.0
 11
244.0469055473056
 21
201.0541712601058
 31
0.0
  0
LINE
  5
2FD6
330
1A
100
AcDbEntity
  8
SEIHIN
  6
CONTINUOUS
 62
     3
 48
5.0
100
AcDbLine
 10
232.7977481909056
 20
214.6934536930058
 30
0.0
 11
228.8497127618057
 21
210.0481660863058
 31
0.0
  0
LINE
  5
2FD7
330
1A
100
AcDbEntity
  8
SEIHIN
  6
CONTINUOUS
 62
     3
 48
5.0
100
AcDbLine
 10
231.7408508304056
 20
203.2838722039058
 30
0.0
 11
240.2591618903056
 21
203.2838722039058
 31
0.0
  0
ARC
  5
2FDA
330
1A
100
AcDbEntity
  8
SEIHIN
  6
CONTINUOUS
 62
     3
 48
5.0
100
AcDbCircle
 10
231.7408508304056
 20
207.2838722039058
 30
0.0
 40
4.00000000000003
100
AcDbArc
 50
136.2848564541006
 51
270.0
  0
LINE
  5
2FDE
330
1A
100
AcDbEntity
  8
SEIHIN
  6
CONTINUOUS
 62
     3
 48
5.0
100
AcDbLine
 10
243.9289311172056
 20
200.8716499390059
 30
0.0
 11
243.9281369779057
 21
200.8734874660059
 31
0.0
  0
LINE
  5
2FDF
330
1A
100
AcDbEntity
  8
SEIHIN
  6
CONTINUOUS
 62
     3
 48
5.0
100
AcDbLine
 10
244.0469055473056
 20
201.0541712601058
 30
0.0
 11
243.9281373060057
 21
200.8734874650059
 31
0.0
  0
LINE
  5
2FE0
330
1A
100
AcDbEntity
  8
SEIHIN
  6
CONTINUOUS
 62
     3
 48
5.0
100
AcDbLine
 10
240.2611636801057
 20
203.2838719033059
 30
0.0
 11
240.2591618903056
 21
203.2838722039058
 31
0.0
  0
LINE
  5
2FE1
330
1A
100
AcDbEntity
  8
SEIHIN
  6
CONTINUOUS
 62
     3
 48
5.0
100
AcDbLine
 10
241.6641742539056
 20
227.7838728251058
 30
0.0
 11
227.0648233355057
 21
227.7838728251058
 31
0.0
  0
ARC
  5
2FE6
330
1A
100
AcDbEntity
  8
SEIHIN
  6
CONTINUOUS
 62
     3
 48
5.0
100
AcDbCircle
 10
229.7498422985056
 20
217.2838725145059
 30
0.0
 40
4.000000310580733
100
AcDbArc
 50
319.6387505748993
 51
90.0
  0
LINE
  5
2FE7
330
1A
100
AcDbEntity
  8
SEIHIN
  6
CONTINUOUS
 62
     3
 48
5.0
100
AcDbLine
 10
229.9305267147055
 20
221.4645572413059
 30
0.0
 11
232.6039312537056
 21
221.4645572413059
 31
0.0
  0
ARC
  5
2FE8
330
1A
100
AcDbEntity
  8
SEIHIN
  6
CONTINUOUS
 62
     3
 48
5.0
100
AcDbCircle
 10
225.7442568408057
 20
228.2872788355058
 30
0.0
 40
7.003406010365921
100
AcDbArc
 50
180.0
 51
270.0
  0
LINE
  5
2FEC
330
1A
100
AcDbEntity
  8
SEIHIN
  6
CONTINUOUS
 62
     3
 48
5.0
100
AcDbLine
 10
229.7498422985056
 20
221.2838728251058
 30
0.0
 11
225.7442568408057
 21
221.2838728251058
 31
0.0
  0
LINE
  5
2FED
330
1A
100
AcDbEntity
  8
SEIHIN
  6
CONTINUOUS
 62
     3
 48
5.0
100
AcDbLine
 10
229.7498422985056
 20
221.2838728251058
 30
0.0
 11
229.9305267147055
 21
221.4645572413059
 31
0.0
  0
LINE
  5
2FEE
330
1A
100
AcDbEntity
  8
SEIHIN
  6
CONTINUOUS
 62
     3
 48
5.0
100
AcDbLine
 10
226.0194721078057
 20
234.7838728251058
 30
0.0
 11
223.5497297524057
 21
234.7838728251058
 31
0.0
  0
ARC
  5
2FF2
330
1A
100
AcDbEntity
  8
SEIHIN
  6
CONTINUOUS
 62
     3
 48
5.0
100
AcDbCircle
 10
225.7442568408057
 20
228.2872788355058
 30
0.0
 40
7.00340601036597
100
AcDbArc
 50
116.0082055305986
 51
180.0
  0
LINE
  5
2FF3
330
1A
100
AcDbEntity
  8
SEIHIN
  6
CONTINUOUS
 62
     3
 48
5.0
100
AcDbLine
 10
222.6737064153055
 20
234.5816744244058
 30
0.0
 11
222.6732642734057
 21
234.5814587183058
 31
0.0
  0
LINE
  5
2FF4
330
1A
100
AcDbEntity
  8
SEIHIN
  6
CONTINUOUS
 62
     3
 48
5.0
100
AcDbLine
 10
223.5497297524057
 20
234.7838728251058
 30
0.0
 11
223.5493781494056
 21
234.7838728251058
 31
0.0
  0
LINE
  5
2FF6
330
1A
100
AcDbEntity
  8
SEIHIN
  6
CONTINUOUS
 62
     3
 48
5.0
100
AcDbLine
 10
226.4900562217055
 20
234.1161116566059
 30
0.0
 11
226.4902378900055
 21
234.1166203279058
 31
0.0
  0
LINE
  5
2FF8
330
1A
100
AcDbEntity
  8
SEIHIN
  6
CONTINUOUS
 62
     3
 48
5.0
100
AcDbLine
 10
226.0200122465057
 20
234.7838728251058
 30
0.0
 11
226.0194721078057
 21
234.7838728251058
 31
0.0
  0
LINE
  5
2FFA
330
1A
100
AcDbEntity
  8
SEIHIN
  6
CONTINUOUS
 62
     3
 48
5.0
100
AcDbLine
 10
227.0626637710056
 20
227.7838735231058
 30
0.0
 11
227.0648233355057
 21
227.7838728251058
 31
0.0
  0
LINE
  5
2FFB
330
1A
100
AcDbEntity
  8
SEIHIN
  6
CONTINUOUS
 62
     3
 48
5.0
100
AcDbLine
 10
225.1824868797057
 20
230.4549174990059
 30
0.0
 11
226.4900562217055
 21
234.1161116566059
 31
0.0
  0
LINE
  5
2FFD
330
1A
100
AcDbEntity
  8
SEIHIN
  6
CONTINUOUS
 62
     3
 48
5.0
100
AcDbLine
 10
225.1824868797057
 20
230.4549174990059
 30
0.0
 11
225.1817611969056
 21
230.4528835119058
 31
0.0
  0
LINE
  5
300D
330
1A
100
AcDbEntity
  8
SEIHIN
  6
CONTINUOUS
 62
     3
 48
5.0
100
AcDbLine
 10
241.1623475953056
 20
221.4514552965058
 30
0.0
 11
244.0109333710056
 21
221.4514552965058
 31
0.0
  0
ARC
  5
3010
330
1A
100
AcDbEntity
  8
SEIHIN
  6
CONTINUOUS
 62
     3
 48
5.0
100
AcDbCircle
 10
244.0094379272057
 20
219.4514534158058
 30
0.0
 40
2.000002439839926
100
AcDbArc
 50
32.84237253319975
 51
89.95715873950119
  0
LINE
  5
3013
330
1A
100
AcDbEntity
  8
SEIHIN
  6
CONTINUOUS
 62
     3
 48
5.0
100
AcDbLine
 10
241.6662496242056
 20
227.7838728251058
 30
0.0
 11
241.6641742539056
 21
227.7838728251058
 31
0.0
  0
LINE
  5
3015
330
1A
100
AcDbEntity
  8
SEIHIN
  6
CONTINUOUS
 62
     3
 48
5.0
100
AcDbLine
 10
245.8633449327055
 20
225.4955199057059
 30
0.0
 11
245.8644691636056
 21
225.4937754095058
 31
0.0
  0
LINE
  5
3018
330
1A
100
AcDbEntity
  8
SEIHIN
  6
CONTINUOUS
 62
     3
 48
5.0
100
AcDbLine
 10
370.6296024020057
 20
200.7838728251058
 30
0.0
 11
370.6296024020057
 21
169.8079506179058
 31
0.0
  0
LINE
  5
301B
330
1A
100
AcDbEntity
  8
SEIHIN
  6
CONTINUOUS
 62
     3
 48
5.0
100
AcDbLine
 10
270.7055865968056
 20
176.3472972431059
 30
0.0
 11
270.4556231977055
 21
187.4567816458059
 31
0.0
  0
LINE
  5
301D
330
1A
100
AcDbEntity
  8
SEIHIN
  6
CONTINUOUS
 62
     3
 48
5.0
100
AcDbLine
 10
330.3659894557056
 20
188.4514552965058
 30
0.0
 11
330.3659894557056
 21
187.4528257618059
 31
0.0
  0
LINE
  5
3020
330
1A
100
AcDbEntity
  8
SEIHIN
  6
CONTINUOUS
 62
     3
 48
5.0
100
AcDbLine
 10
286.3698425623056
 20
190.2838728251058
 30
0.0
 11
290.3698425623056
 21
186.2838728251058
 31
0.0
  0
LINE
  5
3021
330
1A
100
AcDbEntity
  8
SEIHIN
  6
CONTINUOUS
 62
     3
 48
5.0
100
AcDbLine
 10
321.9634031302057
 20
175.1643020339058
 30
0.0
 11
322.2463803768057
 21
187.7410685478058
 31
0.0
  0
LINE
  5
3022
330
1A
100
AcDbEntity
  8
SEIHIN
  6
CONTINUOUS
 62
     3
 48
5.0
100
AcDbLine
 10
278.5753212841057
 20
187.7410685478058
 30
0.0
 11
278.8413628253056
 21
175.9170000473058
 31
0.0
  0
ARC
  5
3023
330
1A
100
AcDbEntity
  8
SEIHIN
  6
CONTINUOUS
 62
     3
 48
5.0
100
AcDbCircle
 10
312.7255742910056
 20
191.2838728251058
 30
0.0
 40
5.000000000016143
100
AcDbArc
 50
270.0
 51
313.4088597288037
  0
ARC
  5
3025
330
1A
100
AcDbEntity
  8
SEIHIN
  6
CONTINUOUS
 62
     3
 48
5.0
100
AcDbCircle
 10
364.7498425623057
 20
189.3125195627059
 30
0.0
 40
2.879999999999995
100
AcDbArc
 50
180.0
 51
233.9991020594956
  0
LINE
  5
3028
330
1A
100
AcDbEntity
  8
SEIHIN
  6
CONTINUOUS
 62
     3
 48
5.0
100
AcDbLine
 10
343.0380003954055
 20
176.1250754460059
 30
0.0
 11
349.8391701332057
 21
194.8111357265058
 31
0.0
  0
LINE
  5
3029
330
1A
100
AcDbEntity
  8
SEIHIN
  6
CONTINUOUS
 62
     3
 48
5.0
100
AcDbLine
 10
365.0522294122056
 20
192.9307332686058
 30
0.0
 11
365.0522294122056
 21
184.1812027156058
 31
0.0
  0
LINE
  5
302E
330
1A
100
AcDbEntity
  8
SEIHIN
  6
CONTINUOUS
 62
     3
 48
5.0
100
AcDbLine
 10
290.3698425623056
 20
186.2838728251058
 30
0.0
 11
312.7255742910056
 21
186.2838728251058
 31
0.0
  0
LINE
  5
3032
330
1A
100
AcDbEntity
  8
SEIHIN
  6
CONTINUOUS
 62
     3
 48
5.0
100
AcDbLine
 10
321.9459746417055
 20
174.1658245953058
 30
0.0
 11
278.8239343368057
 21
174.9185226087058
 31
0.0
  0
LINE
  5
3033
330
1A
100
AcDbEntity
  8
SEIHIN
  6
CONTINUOUS
 62
     3
 48
5.0
100
AcDbLine
 10
321.6714145600056
 20
171.7224461593058
 30
0.0
 11
279.1335676923056
 21
172.4655309819058
 31
0.0
  0
LINE
  5
3038
330
1A
100
AcDbEntity
  8
SEIHIN
  6
CONTINUOUS
 62
     3
 48
5.0
100
AcDbLine
 10
276.3853661411055
 20
172.4165256832058
 30
0.0
 11
259.9347753645056
 21
172.7036718133058
 31
0.0
  0
LINE
  5
303B
330
1A
100
AcDbEntity
  8
SEIHIN
  6
CONTINUOUS
 62
     3
 48
5.0
100
AcDbLine
 10
270.6881581083057
 20
175.3488198045058
 30
0.0
 11
259.8758567195056
 21
175.5375492273058
 31
0.0
  0
LINE
  5
303D
330
1A
100
AcDbEntity
  8
SEIHIN
  6
CONTINUOUS
 62
     3
 48
5.0
100
AcDbLine
 10
259.9347753645056
 20
172.7036718133058
 30
0.0
 11
259.9318300849056
 21
172.7037232233058
 31
0.0
  0
LINE
  5
3041
330
1A
100
AcDbEntity
  8
SEIHIN
  6
CONTINUOUS
 62
     3
 48
5.0
100
AcDbLine
 10
254.5359399782057
 20
176.3183886868058
 30
0.0
 11
254.5347717710055
 21
176.3210928701058
 31
0.0
  0
LINE
  5
3046
330
1A
100
AcDbEntity
  8
SEIHIN
  6
CONTINUOUS
 62
     3
 48
5.0
100
AcDbLine
 10
270.7055865968056
 20
176.3472972431059
 30
0.0
 11
270.6881581083057
 21
175.3488198045058
 31
0.0
  0
LINE
  5
3048
330
1A
100
AcDbEntity
  8
SEIHIN
  6
CONTINUOUS
 62
     3
 48
5.0
100
AcDbLine
 10
278.8413628253056
 20
175.9170000473058
 30
0.0
 11
278.8239343368057
 21
174.9185226087058
 31
0.0
  0
LINE
  5
304A
330
1A
100
AcDbEntity
  8
SEIHIN
  6
CONTINUOUS
 62
     3
 48
5.0
100
AcDbLine
 10
276.3853352164055
 20
172.4179001158058
 30
0.0
 11
276.3853661411055
 21
172.4165256832058
 31
0.0
  0
LINE
  5
3083
330
1A
100
AcDbEntity
  8
SEIHIN
  6
CONTINUOUS
 62
     3
 48
5.0
100
AcDbLine
 10
343.0468820565056
 20
184.4309124424058
 30
0.0
 11
340.0362159925057
 21
176.1591754142058
 31
0.0
  0
LINE
  5
3085
330
1A
100
AcDbEntity
  8
SEIHIN
  6
CONTINUOUS
 62
     3
 48
5.0
100
AcDbLine
 10
346.0062185960057
 20
171.2880369542058
 30
0.0
 11
340.5917411201057
 21
171.2957992391058
 31
0.0
  0
LINE
  5
3087
330
1A
100
AcDbEntity
  8
SEIHIN
  6
CONTINUOUS
 62
     3
 48
5.0
100
AcDbLine
 10
340.5917411201057
 20
171.2957992391058
 30
0.0
 11
324.4174714406056
 21
171.5781221665058
 31
0.0
  0
LINE
  5
3088
330
1A
100
AcDbEntity
  8
SEIHIN
  6
CONTINUOUS
 62
     3
 48
5.0
100
AcDbLine
 10
324.4174714406056
 20
171.5781221665058
 30
0.0
 11
324.4174800761056
 21
171.5785059652058
 31
0.0
  0
LINE
  5
3089
330
1A
100
AcDbEntity
  8
SEIHIN
  6
CONTINUOUS
 62
     3
 48
5.0
100
AcDbLine
 10
321.9634031302057
 20
175.1643020339058
 30
0.0
 11
321.9459746417055
 21
174.1658245953058
 31
0.0
  0
LINE
  5
309F
330
1A
100
AcDbEntity
  8
SEIHIN
  6
CONTINUOUS
 62
     3
 48
5.0
100
AcDbLine
 10
330.3659894557056
 20
187.4528257618059
 30
0.0
 11
330.0927913950056
 21
175.3106897275058
 31
0.0
  0
LINE
  5
30A2
330
1A
100
AcDbEntity
  8
SEIHIN
  6
CONTINUOUS
 62
     3
 48
5.0
100
AcDbLine
 10
334.0493711262056
 20
174.2428457173059
 30
0.0
 11
330.0753629064056
 21
174.3122122888058
 31
0.0
  0
LINE
  5
30A4
330
1A
100
AcDbEntity
  8
SEIHIN
  6
CONTINUOUS
 62
     3
 48
5.0
100
AcDbLine
 10
330.0927913950056
 20
175.3106897275058
 30
0.0
 11
330.0753629064056
 21
174.3122122888058
 31
0.0
  0
LINE
  5
30AC
330
1A
100
AcDbEntity
  8
SEIHIN
  6
CONTINUOUS
 62
     3
 48
5.0
100
AcDbLine
 10
337.1687161128056
 20
174.1883973481058
 30
0.0
 11
334.0493711262056
 21
174.2428457173059
 31
0.0
  0
LINE
  5
30D4
330
1A
100
AcDbEntity
  8
SEIHIN
  6
CONTINUOUS
 62
     3
 48
5.0
100
AcDbLine
 10
343.9771205808056
 20
174.7838728251058
 30
0.0
 11
350.0497858485057
 21
174.7838728251058
 31
0.0
  0
LINE
  5
30D6
330
1A
100
AcDbEntity
  8
SEIHIN
  6
CONTINUOUS
 62
     3
 48
5.0
100
AcDbLine
 10
343.9760330076055
 20
174.7838731791058
 30
0.0
 11
343.9771205808056
 21
174.7838728251058
 31
0.0
  0
LINE
  5
30D9
330
1A
100
AcDbEntity
  8
SEIHIN
  6
CONTINUOUS
 62
     3
 48
5.0
100
AcDbLine
 10
346.0084312179056
 20
171.2880337821059
 30
0.0
 11
346.0062185960057
 21
171.2880369542058
 31
0.0
  0
LINE
  5
30DB
330
1A
100
AcDbEntity
  8
SEIHIN
  6
CONTINUOUS
 62
     3
 48
5.0
100
AcDbLine
 10
350.4836429644055
 20
174.0362590596058
 30
0.0
 11
350.3519534645056
 21
173.8058024347058
 31
0.0
  0
LINE
  5
30DC
330
1A
100
AcDbEntity
  8
SEIHIN
  6
CONTINUOUS
 62
     3
 48
5.0
100
AcDbLine
 10
350.3519534645056
 20
173.8058024347058
 30
0.0
 11
350.3508556954057
 21
173.8038813389058
 31
0.0
  0
LINE
  5
30DD
330
1A
100
AcDbEntity
  8
SEIHIN
  6
CONTINUOUS
 62
     3
 48
5.0
100
AcDbLine
 10
350.4839681731057
 20
174.0368281748058
 30
0.0
 11
350.4836429644055
 21
174.0362590596058
 31
0.0
  0
LINE
  5
30E0
330
1A
100
AcDbEntity
  8
SEIHIN
  6
CONTINUOUS
 62
     3
 48
5.0
100
AcDbLine
 10
350.0497858485057
 20
174.7838728251058
 30
0.0
 11
350.0504413276057
 21
174.7838728251058
 31
0.0
  0
LINE
  5
30E3
330
1A
100
AcDbEntity
  8
SEIHIN
  6
CONTINUOUS
 62
     3
 48
5.0
100
AcDbLine
 10
343.0380003954055
 20
176.1250754460059
 30
0.0
 11
343.0376287561057
 21
176.1240533403058
 31
0.0
  0
LINE
  5
30E7
330
1A
100
AcDbEntity
  8
SEIHIN
  6
CONTINUOUS
 62
     3
 48
5.0
100
AcDbLine
 10
363.7498425623057
 20
175.6061437215058
 30
0.0
 11
363.7498425623057
 21
173.7411915396059
 31
0.0
  0
LINE
  5
30E9
330
1A
100
AcDbEntity
  8
SEIHIN
  6
CONTINUOUS
 62
     3
 48
5.0
100
AcDbLine
 10
365.0522294122056
 20
179.1003527209058
 30
0.0
 11
365.0522294122056
 21
170.2469825402058
 31
0.0
  0
LINE
  5
30EB
330
1A
100
AcDbEntity
  8
SEIHIN
  6
CONTINUOUS
 62
     3
 48
5.0
100
AcDbLine
 10
363.7498425623057
 20
173.7411915396059
 30
0.0
 11
363.7498425623057
 21
173.7405258390058
 31
0.0
  0
LINE
  5
30EC
330
1A
100
AcDbEntity
  8
SEIHIN
  6
CONTINUOUS
 62
     3
 48
5.0
100
AcDbLine
 10
364.3303653795055
 20
171.9680873122058
 30
0.0
 11
364.3303186682055
 21
171.9681509888058
 31
0.0
  0
LINE
  5
30EE
330
1A
100
AcDbEntity
  8
SEIHIN
  6
CONTINUOUS
 62
     3
 48
5.0
100
AcDbLine
 10
364.9108508304057
 20
169.8079506179058
 30
0.0
 11
370.6296024020057
 21
169.8079506179058
 31
0.0
  0
LINE
  5
30F5
330
1A
100
AcDbEntity
  8
SEIHIN
  6
CONTINUOUS
 62
     3
 48
5.0
100
AcDbLine
 10
364.9108508304057
 20
170.1949695564059
 30
0.0
 11
364.9108508304057
 21
169.8079506179058
 31
0.0
  0
LINE
  5
30F6
330
1A
100
AcDbEntity
  8
SEIHIN
  6
CONTINUOUS
 62
     3
 48
5.0
100
AcDbLine
 10
364.9108508304057
 20
170.1949695564059
 30
0.0
 11
364.9108507620055
 21
170.1957964502058
 31
0.0
  0
LINE
  5
30F7
330
1A
100
AcDbEntity
  8
SEIHIN
  6
CONTINUOUS
 62
     3
 48
5.0
100
AcDbLine
 10
365.0522294122056
 20
170.2469825402058
 30
0.0
 11
364.9108508304057
 21
170.1957964338058
 31
0.0
  0
LINE
  5
30FD
330
1A
100
AcDbEntity
  8
SEIHIN
  6
CONTINUOUS
 62
     3
 48
5.0
100
AcDbLine
 10
363.6759393071056
 20
186.5328651855058
 30
0.0
 11
363.6749979310057
 21
186.5335493253058
 31
0.0
  0
LINE
  5
30FE
330
1A
100
AcDbEntity
  8
SEIHIN
  6
CONTINUOUS
 62
     3
 48
5.0
100
AcDbLine
 10
363.0569845206057
 20
186.9825771491058
 30
0.0
 11
363.6749979310057
 21
186.5335493253058
 31
0.0
  0
LINE
  5
30FF
330
1A
100
AcDbEntity
  8
SEIHIN
  6
CONTINUOUS
 62
     3
 48
5.0
100
AcDbLine
 10
363.7498425623057
 20
175.6068094061058
 30
0.0
 11
363.7498425623057
 21
175.6061437215058
 31
0.0
  0
LINE
  5
3100
330
1A
100
AcDbEntity
  8
SEIHIN
  6
CONTINUOUS
 62
     3
 48
5.0
100
AcDbLine
 10
364.3303186684056
 20
177.3791842725058
 30
0.0
 11
364.3303653795055
 21
177.3792479488058
 31
0.0
  0
LINE
  5
3103
330
1A
100
AcDbEntity
  8
SEIHIN
  6
CONTINUOUS
 62
     3
 48
5.0
100
AcDbLine
 10
364.9108508304057
 20
184.1080044548059
 30
0.0
 11
364.9108506949055
 21
184.1091681714058
 31
0.0
  0
LINE
  5
3104
330
1A
100
AcDbEntity
  8
SEIHIN
  6
CONTINUOUS
 62
     3
 48
5.0
100
AcDbLine
 10
365.0522294122056
 20
184.1812027156058
 30
0.0
 11
364.9108508304057
 21
184.1091681256058
 31
0.0
  0
LINE
  5
3105
330
1A
100
AcDbEntity
  8
SEIHIN
  6
CONTINUOUS
 62
     3
 48
5.0
100
AcDbLine
 10
364.9108508304057
 20
179.1515388273059
 30
0.0
 11
365.0522294122056
 21
179.1003527209058
 31
0.0
  0
LINE
  5
3106
330
1A
100
AcDbEntity
  8
SEIHIN
  6
CONTINUOUS
 62
     3
 48
5.0
100
AcDbLine
 10
364.9108507620055
 20
179.1515388108058
 30
0.0
 11
364.9108508304057
 21
179.1523657047058
 31
0.0
  0
LINE
  5
3107
330
1A
100
AcDbEntity
  8
SEIHIN
  6
CONTINUOUS
 62
     3
 48
5.0
100
AcDbLine
 10
364.9108508304057
 20
184.1080044548059
 30
0.0
 11
364.9108508304057
 21
179.1523657047058
 31
0.0
  0
LINE
  5
3109
330
1A
100
AcDbEntity
  8
SEIHIN
  6
CONTINUOUS
 62
     3
 48
5.0
100
AcDbLine
 10
307.6868309977057
 20
199.2612517860059
 30
0.0
 11
313.6594287660057
 21
212.7637901987059
 31
0.0
  0
LINE
  5
310D
330
1A
100
AcDbEntity
  8
SEIHIN
  6
CONTINUOUS
 62
     3
 48
5.0
100
AcDbLine
 10
278.5753212841057
 20
188.7396980826058
 30
0.0
 11
287.9140173048056
 21
188.7396980826058
 31
0.0
  0
LINE
  5
310E
330
1A
100
AcDbEntity
  8
SEIHIN
  6
CONTINUOUS
 62
     3
 48
5.0
100
AcDbLine
 10
279.1625334649056
 20
191.1722140949058
 30
0.0
 11
286.3698425623056
 21
191.1722140949058
 31
0.0
  0
LINE
  5
3111
330
1A
100
AcDbEntity
  8
SEIHIN
  6
CONTINUOUS
 62
     3
 48
5.0
100
AcDbLine
 10
270.6353051821056
 20
191.2838728251058
 30
0.0
 11
275.9608508304056
 21
191.2838728251058
 31
0.0
  0
LINE
  5
3115
330
1A
100
AcDbEntity
  8
SEIHIN
  6
CONTINUOUS
 62
     3
 48
5.0
100
AcDbLine
 10
270.6332297183057
 20
191.2838730836059
 30
0.0
 11
270.6353051821056
 21
191.2838728251058
 31
0.0
  0
LINE
  5
3118
330
1A
100
AcDbEntity
  8
SEIHIN
  6
CONTINUOUS
 62
     3
 48
5.0
100
AcDbLine
 10
270.4852369422055
 20
188.4549286168058
 30
0.0
 11
270.4556231977055
 21
187.4567816458059
 31
0.0
  0
LINE
  5
311A
330
1A
100
AcDbEntity
  8
SEIHIN
  6
CONTINUOUS
 62
     3
 48
5.0
100
AcDbLine
 10
266.4350102724056
 20
193.5739702406058
 30
0.0
 11
266.4361347712056
 21
193.5722258060059
 31
0.0
  0
LINE
  5
311C
330
1A
100
AcDbEntity
  8
SEIHIN
  6
CONTINUOUS
 62
     3
 48
5.0
100
AcDbLine
 10
275.9608508304056
 20
191.2838728251058
 30
0.0
 11
275.9608517841056
 21
191.2838304409058
 31
0.0
  0
LINE
  5
311D
330
1A
100
AcDbEntity
  8
SEIHIN
  6
CONTINUOUS
 62
     3
 48
5.0
100
AcDbLine
 10
278.5753212841057
 20
188.7396980826058
 30
0.0
 11
278.5753212841057
 21
187.7410685478058
 31
0.0
  0
LINE
  5
311E
330
1A
100
AcDbEntity
  8
SEIHIN
  6
CONTINUOUS
 62
     3
 48
5.0
100
AcDbLine
 10
286.3698425623056
 20
196.2838728251058
 30
0.0
 11
303.1141945446056
 21
196.2838728251058
 31
0.0
  0
LINE
  5
3120
330
1A
100
AcDbEntity
  8
SEIHIN
  6
CONTINUOUS
 62
     3
 48
5.0
100
AcDbLine
 10
286.3698425623056
 20
194.2838728251058
 30
0.0
 11
286.3698425623056
 21
196.2838728251058
 31
0.0
  0
LINE
  5
3121
330
1A
100
AcDbEntity
  8
SEIHIN
  6
CONTINUOUS
 62
     3
 48
5.0
100
AcDbLine
 10
286.3698425623056
 20
194.2838728251058
 30
0.0
 11
286.3698425623056
 21
190.2838728251058
 31
0.0
  0
ARC
  5
3123
330
1A
100
AcDbEntity
  8
SEIHIN
  6
CONTINUOUS
 62
     3
 48
5.0
100
AcDbCircle
 10
303.1141945446056
 20
201.2838728251058
 30
0.0
 40
5.0
100
AcDbArc
 50
270.0
 51
336.1386850065994
  0
LINE
  5
3126
330
1A
100
AcDbEntity
  8
SEIHIN
  6
CONTINUOUS
 62
     3
 48
5.0
100
AcDbLine
 10
321.4384666939056
 20
218.6247785833058
 30
0.0
 11
357.9472548548055
 21
221.6659675770058
 31
0.0
  0
LINE
  5
3128
330
1A
100
AcDbEntity
  8
SEIHIN
  6
CONTINUOUS
 62
     3
 48
5.0
100
AcDbLine
 10
336.0149036127056
 20
200.7838728251058
 30
0.0
 11
357.8952458931057
 21
200.7838728251058
 31
0.0
  0
LINE
  5
312A
330
1A
100
AcDbEntity
  8
SEIHIN
  6
CONTINUOUS
 62
     3
 48
5.0
100
AcDbLine
 10
344.0816647648057
 20
191.1162903537059
 30
0.0
 11
340.9944947505057
 21
191.1162903537059
 31
0.0
  0
ARC
  5
312C
330
1A
100
AcDbEntity
  8
SEIHIN
  6
CONTINUOUS
 62
     3
 48
5.0
100
AcDbCircle
 10
336.0149036127056
 20
185.7838728251058
 30
0.0
 40
14.99999999999994
100
AcDbArc
 50
90.0
 51
133.4088597288036
  0
LINE
  5
312F
330
1A
100
AcDbEntity
  8
SEIHIN
  6
CONTINUOUS
 62
     3
 48
5.0
100
AcDbLine
 10
319.4474529547055
 20
190.7597950323058
 30
0.0
 11
331.8832493262057
 21
190.7597950323058
 31
0.0
  0
LINE
  5
3130
330
1A
100
AcDbEntity
  8
SEIHIN
  6
CONTINUOUS
 62
     3
 48
5.0
100
AcDbLine
 10
317.3119218936055
 20
188.7396980826058
 30
0.0
 11
322.2463803768057
 21
188.7396980826058
 31
0.0
  0
LINE
  5
3132
330
1A
100
AcDbEntity
  8
SEIHIN
  6
CONTINUOUS
 62
     3
 48
5.0
100
AcDbLine
 10
316.1615735604057
 20
187.6515307403058
 30
0.0
 11
325.7069058046056
 21
196.6808990794058
 31
0.0
  0
LINE
  5
3134
330
1A
100
AcDbEntity
  8
SEIHIN
  6
CONTINUOUS
 62
     3
 48
5.0
100
AcDbLine
 10
322.2463803768057
 20
188.7396980826058
 30
0.0
 11
322.2463803768057
 21
187.7410685478058
 31
0.0
  0
LINE
  5
3137
330
1A
100
AcDbEntity
  8
SEIHIN
  6
CONTINUOUS
 62
     3
 48
5.0
100
AcDbLine
 10
330.3659894557056
 20
188.4514552965058
 30
0.0
 11
334.0493711262056
 21
188.4514552965058
 31
0.0
  0
LINE
  5
3142
330
1A
100
AcDbEntity
  8
SEIHIN
  6
CONTINUOUS
 62
     3
 48
5.0
100
AcDbLine
 10
340.9944947505057
 20
191.1162903537059
 30
0.0
 11
340.8036104618056
 21
191.1162903537059
 31
0.0
  0
LINE
  5
3144
330
1A
100
AcDbEntity
  8
SEIHIN
  6
CONTINUOUS
 62
     3
 48
5.0
100
AcDbLine
 10
334.0493711262056
 20
188.4514552965058
 30
0.0
 11
340.2316676424057
 21
188.4514552965058
 31
0.0
  0
LINE
  5
3149
330
1A
100
AcDbEntity
  8
SEIHIN
  6
CONTINUOUS
 62
     3
 48
5.0
100
AcDbLine
 10
337.8148535146056
 20
197.8198878828059
 30
0.0
 11
336.6281796387056
 21
194.1982208590059
 31
0.0
  0
LINE
  5
314B
330
1A
100
AcDbEntity
  8
SEIHIN
  6
CONTINUOUS
 62
     3
 48
5.0
100
AcDbLine
 10
338.9056383368056
 20
193.7354381620058
 30
0.0
 11
340.1635776647056
 21
197.5746036431058
 31
0.0
  0
ARC
  5
314F
330
1A
100
AcDbEntity
  8
SEIHIN
  6
CONTINUOUS
 62
     3
 48
5.0
100
AcDbCircle
 10
322.8047016721057
 20
208.7185481204059
 30
0.0
 40
9.99999999999988
100
AcDbArc
 50
97.85250939119855
 51
156.1386850065994
  0
LINE
  5
3153
330
1A
100
AcDbEntity
  8
SEIHIN
  6
CONTINUOUS
 62
     3
 48
5.0
100
AcDbLine
 10
370.3603163133057
 20
200.7838728251058
 30
0.0
 11
370.3603163133057
 21
220.7333785611059
 31
0.0
  0
LINE
  5
3156
330
1A
100
AcDbEntity
  8
SEIHIN
  6
CONTINUOUS
 62
     3
 48
5.0
100
AcDbLine
 10
365.3603163133057
 20
200.7838728251058
 30
0.0
 11
365.3603163133057
 21
220.3168776107058
 31
0.0
  0
LINE
  5
3158
330
1A
100
AcDbEntity
  8
SEIHIN
  6
CONTINUOUS
 62
     3
 48
5.0
100
AcDbLine
 10
360.3603163133056
 20
200.7838728251058
 30
0.0
 11
360.3603163133056
 21
219.9003766603059
 31
0.0
  0
LINE
  5
315E
330
1A
100
AcDbEntity
  8
SEIHIN
  6
CONTINUOUS
 62
     3
 48
5.0
100
AcDbLine
 10
368.3793688113055
 20
220.4877101954058
 30
0.0
 11
368.3793688113055
 21
200.7838728251058
 31
0.0
  0
LINE
  5
3160
330
1A
100
AcDbEntity
  8
SEIHIN
  6
CONTINUOUS
 62
     3
 48
5.0
100
AcDbLine
 10
363.3793688113055
 20
220.0712092450058
 30
0.0
 11
363.3793688113055
 21
200.7838728251058
 31
0.0
  0
LINE
  5
3162
330
1A
100
AcDbEntity
  8
SEIHIN
  6
CONTINUOUS
 62
     3
 48
5.0
100
AcDbLine
 10
358.3793688113055
 20
219.6547082945059
 30
0.0
 11
358.3793688113055
 21
200.7838728251058
 31
0.0
  0
LINE
  5
3164
330
1A
100
AcDbEntity
  8
SEIHIN
  6
CONTINUOUS
 62
     3
 48
5.0
100
AcDbLine
 10
362.9811742323056
 20
199.6162903544059
 30
0.0
 11
352.7693951813057
 21
199.6162903544059
 31
0.0
  0
LINE
  5
3165
330
1A
100
AcDbEntity
  8
SEIHIN
  6
CONTINUOUS
 62
     3
 48
5.0
100
AcDbLine
 10
352.6565306895056
 20
196.7838728258058
 30
0.0
 11
358.8716700812056
 21
196.7838728258058
 31
0.0
  0
LINE
  5
316E
330
1A
100
AcDbEntity
  8
SEIHIN
  6
CONTINUOUS
 62
     3
 48
5.0
100
AcDbLine
 10
347.1389663530055
 20
195.6738216455058
 30
0.0
 11
345.9584743742057
 21
192.4304465900059
 31
0.0
  0
ARC
  5
3170
330
1A
100
AcDbEntity
  8
SEIHIN
  6
CONTINUOUS
 62
     3
 48
5.0
100
AcDbCircle
 10
344.0797442277057
 20
193.1162922344058
 30
0.0
 40
2.000002802867122
100
AcDbArc
 50
270.0550192667065
 51
339.9449807331995
  0
LINE
  5
3173
330
1A
100
AcDbEntity
  8
SEIHIN
  6
CONTINUOUS
 62
     3
 48
5.0
100
AcDbLine
 10
349.8397173687056
 20
194.8126384955059
 30
0.0
 11
349.8391701332057
 21
194.8111357265058
 31
0.0
  0
LINE
  5
3174
330
1A
100
AcDbEntity
  8
SEIHIN
  6
CONTINUOUS
 62
     3
 48
5.0
100
AcDbLine
 10
352.6565306895056
 20
196.7838728258058
 30
0.0
 11
352.6549313830057
 21
196.7838725700058
 31
0.0
  0
LINE
  5
317A
330
1A
100
AcDbEntity
  8
SEIHIN
  6
CONTINUOUS
 62
     3
 48
5.0
100
AcDbLine
 10
361.8698425623056
 20
193.7857003448058
 30
0.0
 11
361.8698420409057
 21
193.7879845673059
 31
0.0
  0
LINE
  5
317D
330
1A
100
AcDbEntity
  8
SEIHIN
  6
CONTINUOUS
 62
     3
 48
5.0
100
AcDbLine
 10
361.8698425623056
 20
193.7857003448058
 30
0.0
 11
361.8698425623056
 21
189.3125195627059
 31
0.0
  0
LINE
  5
3181
330
1A
100
AcDbEntity
  8
SEIHIN
  6
CONTINUOUS
 62
     3
 48
5.0
100
AcDbLine
 10
359.0153325398057
 20
196.9252514076058
 30
0.0
 11
361.0577112732057
 21
196.9252514076058
 31
0.0
  0
LINE
  5
3182
330
1A
100
AcDbEntity
  8
SEIHIN
  6
CONTINUOUS
 62
     3
 48
5.0
100
AcDbLine
 10
358.8739539580056
 20
196.7838728258058
 30
0.0
 11
359.0153325398057
 21
196.9252514076058
 31
0.0
  0
LINE
  5
3183
330
1A
100
AcDbEntity
  8
SEIHIN
  6
CONTINUOUS
 62
     3
 48
5.0
100
AcDbLine
 10
358.8739543037056
 20
196.7838723044059
 30
0.0
 11
358.8716700812056
 21
196.7838728258058
 31
0.0
  0
LINE
  5
3185
330
1A
100
AcDbEntity
  8
SEIHIN
  6
CONTINUOUS
 62
     3
 48
5.0
100
AcDbLine
 10
365.0698425623056
 20
200.2838728251058
 30
0.0
 11
363.6698425623055
 21
200.2838728251058
 31
0.0
  0
LINE
  5
3187
330
1A
100
AcDbEntity
  8
SEIHIN
  6
CONTINUOUS
 62
     3
 48
5.0
100
AcDbLine
 10
363.3793688113055
 20
200.7838728251058
 30
0.0
 11
362.8952458931057
 21
200.7838728251058
 31
0.0
  0
LINE
  5
3188
330
1A
100
AcDbEntity
  8
SEIHIN
  6
CONTINUOUS
 62
     3
 48
5.0
100
AcDbLine
 10
360.8444392315057
 20
200.7838728251058
 30
0.0
 11
360.3603163133056
 21
200.7838728251058
 31
0.0
  0
LINE
  5
3189
330
1A
100
AcDbEntity
  8
SEIHIN
  6
CONTINUOUS
 62
     3
 48
5.0
100
AcDbLine
 10
358.3793688113055
 20
200.7838728251058
 30
0.0
 11
357.8952458931057
 21
200.7838728251058
 31
0.0
  0
LINE
  5
318B
330
1A
100
AcDbEntity
  8
SEIHIN
  6
CONTINUOUS
 62
     3
 48
5.0
100
AcDbLine
 10
363.3698425623056
 20
200.5838728251059
 30
0.0
 11
363.3698425623056
 21
200.7838728251058
 31
0.0
  0
ARC
  5
318C
330
1A
100
AcDbEntity
  8
SEIHIN
  6
CONTINUOUS
 62
     3
 48
5.0
100
AcDbCircle
 10
360.0698425623056
 20
200.5838728251059
 30
0.0
 40
0.3000000000000114
100
AcDbArc
 50
270.0
 51
0.0
  0
ARC
  5
318D
330
1A
100
AcDbEntity
  8
SEIHIN
  6
CONTINUOUS
 62
     3
 48
5.0
100
AcDbCircle
 10
362.9784314211056
 20
201.6162922352058
 30
0.0
 40
2.000007478705481
100
AcDbArc
 50
270.0785756309978
 51
318.2249936764015
  0
ARC
  5
318F
330
1A
100
AcDbEntity
  8
SEIHIN
  6
CONTINUOUS
 62
     3
 48
5.0
100
AcDbCircle
 10
363.6698425623055
 20
200.5838728251059
 30
0.0
 40
0.3000000000000114
100
AcDbArc
 50
180.0
 51
270.0
  0
ARC
  5
3190
330
1A
100
AcDbEntity
  8
SEIHIN
  6
CONTINUOUS
 62
     3
 48
5.0
100
AcDbCircle
 10
358.6698425623055
 20
200.5838728251059
 30
0.0
 40
0.2999999999999829
100
AcDbArc
 50
180.0
 51
270.0
  0
LINE
  5
3194
330
1A
100
AcDbEntity
  8
SEIHIN
  6
CONTINUOUS
 62
     3
 48
5.0
100
AcDbLine
 10
360.0698425623056
 20
200.2838728251058
 30
0.0
 11
358.6698425623055
 21
200.2838728251058
 31
0.0
  0
LINE
  5
3196
330
1A
100
AcDbEntity
  8
SEIHIN
  6
CONTINUOUS
 62
     3
 48
5.0
100
AcDbLine
 10
358.3698425623056
 20
200.5838728251059
 30
0.0
 11
358.3698425623056
 21
200.7838728251058
 31
0.0
  0
LINE
  5
3199
330
1A
100
AcDbEntity
  8
SEIHIN
  6
CONTINUOUS
 62
     3
 48
5.0
100
AcDbLine
 10
360.8444392315057
 20
200.7838728251058
 30
0.0
 11
362.8952458931057
 21
200.7838728251058
 31
0.0
  0
LINE
  5
319A
330
1A
100
AcDbEntity
  8
SEIHIN
  6
CONTINUOUS
 62
     3
 48
5.0
100
AcDbLine
 10
360.3698425623056
 20
200.7838728251058
 30
0.0
 11
360.3698425623056
 21
200.5838728251059
 31
0.0
  0
LINE
  5
319D
330
1A
100
AcDbEntity
  8
SEIHIN
  6
CONTINUOUS
 62
     3
 48
5.0
100
AcDbLine
 10
370.3698425623056
 20
200.7838728251058
 30
0.0
 11
370.3698425623056
 21
200.5838728251059
 31
0.0
  0
LINE
  5
319E
330
1A
100
AcDbEntity
  8
SEIHIN
  6
CONTINUOUS
 62
     3
 48
5.0
100
AcDbLine
 10
370.8444392315056
 20
200.7838728251058
 30
0.0
 11
372.3698425623056
 21
200.7838728251058
 31
0.0
  0
LINE
  5
319F
330
1A
100
AcDbEntity
  8
SEIHIN
  6
CONTINUOUS
 62
     3
 48
5.0
100
AcDbLine
 10
370.8444392315056
 20
200.7838728251058
 30
0.0
 11
370.3603163133057
 21
200.7838728251058
 31
0.0
  0
ARC
  5
31A0
330
1A
100
AcDbEntity
  8
SEIHIN
  6
CONTINUOUS
 62
     3
 48
5.0
100
AcDbCircle
 10
368.6698425623055
 20
200.5838728251059
 30
0.0
 40
0.3000000000000114
100
AcDbArc
 50
180.0
 51
270.0
  0
LINE
  5
31A3
330
1A
100
AcDbEntity
  8
SEIHIN
  6
CONTINUOUS
 62
     3
 48
5.0
100
AcDbLine
 10
370.0698425623056
 20
200.2838728251058
 30
0.0
 11
368.6698425623055
 21
200.2838728251058
 31
0.0
  0
ARC
  5
31A4
330
1A
100
AcDbEntity
  8
SEIHIN
  6
CONTINUOUS
 62
     3
 48
5.0
100
AcDbCircle
 10
370.0698425623056
 20
200.5838728251059
 30
0.0
 40
0.3000000000000114
100
AcDbArc
 50
270.0
 51
0.0
  0
LINE
  5
31A7
330
1A
100
AcDbEntity
  8
SEIHIN
  6
CONTINUOUS
 62
     3
 48
5.0
100
AcDbLine
 10
365.8444392315057
 20
200.7838728251058
 30
0.0
 11
367.8952458931057
 21
200.7838728251058
 31
0.0
  0
LINE
  5
31A8
330
1A
100
AcDbEntity
  8
SEIHIN
  6
CONTINUOUS
 62
     3
 48
5.0
100
AcDbLine
 10
368.3793688113055
 20
200.7838728251058
 30
0.0
 11
367.8952458931057
 21
200.7838728251058
 31
0.0
  0
LINE
  5
31A9
330
1A
100
AcDbEntity
  8
SEIHIN
  6
CONTINUOUS
 62
     3
 48
5.0
100
AcDbLine
 10
365.8444392315057
 20
200.7838728251058
 30
0.0
 11
365.3603163133057
 21
200.7838728251058
 31
0.0
  0
ARC
  5
31AA
330
1A
100
AcDbEntity
  8
SEIHIN
  6
CONTINUOUS
 62
     3
 48
5.0
100
AcDbCircle
 10
365.0698425623056
 20
200.5838728251059
 30
0.0
 40
0.3000000000000114
100
AcDbArc
 50
270.0
 51
0.0
  0
LINE
  5
31AC
330
1A
100
AcDbEntity
  8
SEIHIN
  6
CONTINUOUS
 62
     3
 48
5.0
100
AcDbLine
 10
368.3698425623056
 20
200.5838728251059
 30
0.0
 11
368.3698425623056
 21
200.7838728251058
 31
0.0
  0
LINE
  5
31AE
330
1A
100
AcDbEntity
  8
SEIHIN
  6
CONTINUOUS
 62
     3
 48
5.0
100
AcDbLine
 10
365.3698425623056
 20
200.7838728251058
 30
0.0
 11
365.3698425623056
 21
200.5838728251059
 31
0.0
  0
LINE
  5
31B1
330
1A
100
AcDbEntity
  8
SEIHIN
  6
CONTINUOUS
 62
     3
 48
5.0
100
AcDbLine
 10
370.1433605762056
 20
225.3430913578058
 30
0.0
 11
370.3697509753055
 21
222.7018400220058
 31
0.0
  0
LINE
  5
31B2
330
1A
100
AcDbEntity
  8
SEIHIN
  6
CONTINUOUS
 62
     3
 48
5.0
100
AcDbLine
 10
368.3699011251055
 20
222.5348933812058
 30
0.0
 11
368.5974838100055
 21
225.3417163239058
 31
0.0
  0
LINE
  5
31B3
330
1A
100
AcDbEntity
  8
SEIHIN
  6
CONTINUOUS
 62
     3
 48
5.0
100
AcDbLine
 10
363.3699011251055
 20
222.1183924308058
 30
0.0
 11
363.5974838100055
 21
224.9252153735059
 31
0.0
  0
LINE
  5
31B4
330
1A
100
AcDbEntity
  8
SEIHIN
  6
CONTINUOUS
 62
     3
 48
5.0
100
AcDbLine
 10
365.1433605762056
 20
224.9265904073058
 30
0.0
 11
365.3697509753055
 21
222.2853390715058
 31
0.0
  0
LINE
  5
31B5
330
1A
100
AcDbEntity
  8
SEIHIN
  6
CONTINUOUS
 62
     3
 48
5.0
100
AcDbLine
 10
360.1433605762056
 20
224.5100894569059
 30
0.0
 11
360.3697509753055
 21
221.8688381211058
 31
0.0
  0
LINE
  5
31B6
330
1A
100
AcDbEntity
  8
SEIHIN
  6
CONTINUOUS
 62
     3
 48
5.0
100
AcDbLine
 10
358.3699011251055
 20
221.7018914803059
 30
0.0
 11
358.5974838100055
 21
224.5087144230058
 31
0.0
  0
ARC
  5
31BC
330
1A
100
AcDbEntity
  8
SEIHIN
  6
CONTINUOUS
 62
     3
 48
5.0
100
AcDbCircle
 10
360.8254180266055
 20
222.4074508479059
 30
0.0
 40
0.500000000000026
100
AcDbArc
 50
184.8990370550028
 51
274.761755813793
  0
ARC
  5
31BD
330
1A
100
AcDbEntity
  8
SEIHIN
  6
CONTINUOUS
 62
     3
 48
5.0
100
AcDbCircle
 10
357.9057485154057
 20
222.1642418226058
 30
0.0
 40
0.4999999999999894
100
AcDbArc
 50
274.761755813806
 51
355.3644869624076
  0
ARC
  5
31BE
330
1A
100
AcDbEntity
  8
SEIHIN
  6
CONTINUOUS
 62
     3
 48
5.0
100
AcDbCircle
 10
362.9057485154057
 20
222.5807427730059
 30
0.0
 40
0.4999999999999894
100
AcDbArc
 50
274.761755813806
 51
355.3644869623946
  0
LINE
  5
31C3
330
1A
100
AcDbEntity
  8
SEIHIN
  6
CONTINUOUS
 62
     3
 48
5.0
100
AcDbLine
 10
360.8669243659055
 20
221.9091766023058
 30
0.0
 11
362.9472548548055
 21
222.0824685275058
 31
0.0
  0
LINE
  5
31CA
330
1A
100
AcDbEntity
  8
SEIHIN
  6
CONTINUOUS
 62
     3
 48
5.0
100
AcDbLine
 10
363.3698425623056
 20
221.0522825267058
 30
0.0
 11
363.3698425623056
 21
221.2009703539058
 31
0.0
  0
LINE
  5
31D1
330
1A
100
AcDbEntity
  8
SEIHIN
  6
CONTINUOUS
 62
     3
 48
5.0
100
AcDbLine
 10
358.3698425623056
 20
220.6357815763059
 30
0.0
 11
358.3698425623056
 21
220.7844694035059
 31
0.0
  0
LINE
  5
31D4
330
1A
100
AcDbEntity
  8
SEIHIN
  6
CONTINUOUS
 62
     3
 48
5.0
100
AcDbLine
 10
363.3698425623056
 20
221.2009703539058
 30
0.0
 11
363.3698425623056
 21
222.1176701638059
 31
0.0
  0
LINE
  5
31D5
330
1A
100
AcDbEntity
  8
SEIHIN
  6
CONTINUOUS
 62
     3
 48
5.0
100
AcDbLine
 10
360.3698425623056
 20
221.8677695936059
 30
0.0
 11
360.3698425623056
 21
220.8891646759058
 31
0.0
  0
LINE
  5
31D6
330
1A
100
AcDbEntity
  8
SEIHIN
  6
CONTINUOUS
 62
     3
 48
5.0
100
AcDbLine
 10
358.3698425623056
 20
220.7844694035059
 30
0.0
 11
358.3698425623056
 21
221.7011692134058
 31
0.0
  0
LINE
  5
31DD
330
1A
100
AcDbEntity
  8
SEIHIN
  6
CONTINUOUS
 62
     3
 48
5.0
100
AcDbLine
 10
370.3698425623056
 20
222.7007714945059
 30
0.0
 11
370.3698425623056
 21
221.7221665768058
 31
0.0
  0
ARC
  5
31E4
330
1A
100
AcDbEntity
  8
SEIHIN
  6
CONTINUOUS
 62
     3
 48
5.0
100
AcDbCircle
 10
370.8254180266056
 20
223.2404527488058
 30
0.0
 40
0.5000000000000494
100
AcDbArc
 50
184.8990370549963
 51
274.761755813806
  0
ARC
  5
31E6
330
1A
100
AcDbEntity
  8
SEIHIN
  6
CONTINUOUS
 62
     3
 48
5.0
100
AcDbCircle
 10
367.9057485154057
 20
222.9972437235058
 30
0.0
 40
0.5000000000001026
100
AcDbArc
 50
274.761755813793
 51
355.3644869623946
  0
ARC
  5
31E7
330
1A
100
AcDbEntity
  8
SEIHIN
  6
CONTINUOUS
 62
     3
 48
5.0
100
AcDbCircle
 10
365.8254180266055
 20
222.8239517983058
 30
0.0
 40
0.500000000000026
100
AcDbArc
 50
184.8990370550028
 51
274.761755813806
  0
LINE
  5
31EE
330
1A
100
AcDbEntity
  8
SEIHIN
  6
CONTINUOUS
 62
     3
 48
5.0
100
AcDbLine
 10
365.3698425623056
 20
222.2842705440058
 30
0.0
 11
365.3698425623056
 21
221.3056656265058
 31
0.0
  0
LINE
  5
31F0
330
1A
100
AcDbEntity
  8
SEIHIN
  6
CONTINUOUS
 62
     3
 48
5.0
100
AcDbLine
 10
365.8669243659055
 20
222.3256775528058
 30
0.0
 11
367.9472548548055
 21
222.4989694779059
 31
0.0
  0
LINE
  5
31F6
330
1A
100
AcDbEntity
  8
SEIHIN
  6
CONTINUOUS
 62
     3
 48
5.0
100
AcDbLine
 10
368.3698425623056
 20
221.6174713044058
 30
0.0
 11
368.3698425623056
 21
222.5341711143058
 31
0.0
  0
LINE
  5
31F7
330
1A
100
AcDbEntity
  8
SEIHIN
  6
CONTINUOUS
 62
     3
 48
5.0
100
AcDbLine
 10
368.3698425623056
 20
221.4687834771059
 30
0.0
 11
368.3698425623056
 21
221.6174713044058
 31
0.0
  0
ARC
  5
31F8
330
1A
100
AcDbEntity
  8
SEIHIN
  6
CONTINUOUS
 62
     3
 48
5.0
100
AcDbCircle
 10
364.8444565567056
 20
224.9009703539059
 30
0.0
 40
0.2999999999999928
100
AcDbArc
 50
4.899037054989842
 51
90.0
  0
ARC
  5
31F9
330
1A
100
AcDbEntity
  8
SEIHIN
  6
CONTINUOUS
 62
     3
 48
5.0
100
AcDbCircle
 10
358.8965025035056
 20
224.4844694035058
 30
0.0
 40
0.3000000000000682
100
AcDbArc
 50
90.0
 51
175.3644869623914
  0
ARC
  5
31FA
330
1A
100
AcDbEntity
  8
SEIHIN
  6
CONTINUOUS
 62
     3
 48
5.0
100
AcDbCircle
 10
363.8965025035056
 20
224.9009703539059
 30
0.0
 40
0.3000000000000114
100
AcDbArc
 50
90.0
 51
175.3644869624044
  0
ARC
  5
31FB
330
1A
100
AcDbEntity
  8
SEIHIN
  6
CONTINUOUS
 62
     3
 48
5.0
100
AcDbCircle
 10
359.8444565567056
 20
224.4844694035058
 30
0.0
 40
0.3000000000000025
100
AcDbArc
 50
4.899037055012557
 51
90.0
  0
LINE
  5
31FC
330
1A
100
AcDbEntity
  8
SEIHIN
  6
CONTINUOUS
 62
     3
 48
5.0
100
AcDbLine
 10
363.8965025035056
 20
225.2009703539058
 30
0.0
 11
364.8444565567056
 21
225.2009703539058
 31
0.0
  0
LINE
  5
31FD
330
1A
100
AcDbEntity
  8
SEIHIN
  6
CONTINUOUS
 62
     3
 48
5.0
100
AcDbLine
 10
358.8965025035056
 20
224.7844694035058
 30
0.0
 11
359.8444565567056
 21
224.7844694035058
 31
0.0
  0
LINE
  5
31FE
330
1A
100
AcDbEntity
  8
SEIHIN
  6
CONTINUOUS
 62
     3
 48
5.0
100
AcDbLine
 10
368.8965025035056
 20
225.6174713044058
 30
0.0
 11
369.8444565567056
 21
225.6174713044058
 31
0.0
  0
ARC
  5
31FF
330
1A
100
AcDbEntity
  8
SEIHIN
  6
CONTINUOUS
 62
     3
 48
5.0
100
AcDbCircle
 10
369.8444565567056
 20
225.3174713044058
 30
0.0
 40
0.2999999999999928
100
AcDbArc
 50
4.899037054989842
 51
90.0
  0
ARC
  5
3200
330
1A
100
AcDbEntity
  8
SEIHIN
  6
CONTINUOUS
 62
     3
 48
5.0
100
AcDbCircle
 10
368.8965025035056
 20
225.3174713044058
 30
0.0
 40
0.2999999999999545
100
AcDbArc
 50
90.0
 51
175.3644869624044
  0
ELLIPSE
  5
3221
330
1A
100
AcDbEntity
  8
SEIHIN
  6
CONTINUOUS
 62
     3
 48
5.0
100
AcDbEllipse
 10
254.7885936406055
 20
388.2014137218414
 30
0.0
 11
-0.7009164146301145
 21
9.995451182822591
 31
0.0
210
0.0
220
0.0
230
0.9999999999999998
 40
0.4302774781
 41
2.620542158796589
 42
3.033349362661251
  0
ELLIPSE
  5
3222
330
1A
100
AcDbEntity
  8
SEIHIN
  6
CONTINUOUS
 62
     3
 48
5.0
100
AcDbEllipse
 10
254.7123976519055
 20
396.2014137218414
 30
0.0
 11
0.4673948559296263
 21
9.997968549695682
 31
0.0
210
0.0
220
0.0
230
1.0
 40
0.4312331249
 41
0.0743590925386578
 42
0.4867323486483957
  0
ELLIPSE
  5
3223
330
1A
100
AcDbEntity
  8
SEIHIN
  6
CONTINUOUS
 62
     3
 48
5.0
100
AcDbEllipse
 10
257.6760459256056
 20
396.2014137218414
 30
0.0
 11
-0.4673948559295697
 21
9.997968549695688
 31
0.0
210
0.0
220
0.0
230
0.9999999999999998
 40
0.4312331249
 41
0.0566650851522056
 42
0.5302011740154721
  0
ELLIPSE
  5
3224
330
1A
100
AcDbEntity
  8
SEIHIN
  6
CONTINUOUS
 62
     3
 48
5.0
100
AcDbEllipse
 10
257.5998499370057
 20
388.2014137218414
 30
0.0
 11
0.7009164146301715
 21
9.995451182822591
 31
0.0
210
0.0
220
0.0
230
1.0
 40
0.4302774781
 41
2.621397928655309
 42
3.119354031127396
  0
SPLINE
  5
322E
330
1A
100
AcDbEntity
  8
SEIHIN
  6
CONTINUOUS
 62
     3
 48
5.0
100
AcDbSpline
210
0.0
220
0.0
230
1.0
 70
     8
 71
     3
 72
    20
 73
    16
 74
     0
 42
0.0000000001
 43
0.0000000001
 40
0.0
 40
0.0
 40
0.0
 40
0.0
 40
0.0061264135808133
 40
0.0104761923858045
 40
0.0166892942905
 40
0.0242339639269126
 40
0.0421818368077672
 40
0.0608623376566506
 40
0.0887478772928198
 40
0.1307574530228162
 40
0.1942427358136611
 40
0.2899289432993543
 40
0.4327877802355573
 40
0.7142140500192922
 40
1.0
 40
1.0
 40
1.0
 40
1.0
 10
218.8181587066544
 20
394.3537371329465
 30
0.0
 10
218.8174780956751
 20
394.3442254618753
 30
0.0
 10
218.816314248105
 20
394.3279604652769
 30
0.0
 10
218.8166301138378
 20
394.3323808052547
 30
0.0
 10
218.81874703995
 20
394.3620502164862
 30
0.0
 10
218.824746852649
 20
394.4443624812571
 30
0.0
 10
218.835733701899
 20
394.5879827050139
 30
0.0
 10
218.854161099711
 20
394.8102535148054
 30
0.0
 10
218.8830072210817
 20
395.126811779832
 30
0.0
 10
218.9334196898716
 20
395.6119538692977
 30
0.0
 10
219.0248218003093
 20
396.3512863988515
 30
0.0
 10
219.19588756262
 20
397.4662033109914
 30
0.0
 10
219.5817511828763
 20
399.3852208564409
 30
0.0
 10
220.3041352178056
 20
401.9983017132341
 30
0.0
 10
221.1895191691267
 20
404.0332579616864
 30
0.0
 10
221.6356137432721
 20
405.0585565789742
 30
0.0
  0
SPLINE
  5
322F
330
1A
100
AcDbEntity
  8
SEIHIN
  6
CONTINUOUS
 62
     3
 48
5.0
100
AcDbSpline
210
0.0
220
0.0
230
1.0
 70
    24
 71
     1
 72
     4
 73
     2
 74
     0
 42
0.0000000001
 43
0.0000000001
 40
0.0
 40
0.0
 40
1.0
 40
1.0
 10
218.8127497053092
 20
394.2603281137839
 30
0.0
 10
218.7408508304242
 20
392.2014137218198
 30
0.0
  0
SPLINE
  5
3231
330
1A
100
AcDbEntity
  8
SEIHIN
  6
CONTINUOUS
 62
     3
 48
5.0
100
AcDbSpline
210
0.0
220
0.0
230
1.0
 70
     8
 71
     3
 72
     9
 73
     5
 74
     0
 42
0.0000000001
 43
0.0000000001
 40
0.0
 40
0.0
 40
0.0
 40
0.0
 40
0.6450826965667331
 40
1.0
 40
1.0
 40
1.0
 40
1.0
 10
223.6657002019985
 20
406.2014137218198
 30
0.0
 10
223.640308556884
 20
403.1910315526186
 30
0.0
 10
223.600946711884
 20
398.5243706962305
 30
0.0
 10
223.563145910786
 20
393.8576969749718
 30
0.0
 10
223.5497297523927
 20
392.2014137218197
 30
0.0
  0
SPLINE
  5
3232
330
1A
100
AcDbEntity
  8
SEIHIN
  6
CONTINUOUS
 62
     3
 48
5.0
100
AcDbSpline
210
0.0
220
0.0
230
1.0
 70
     8
 71
     3
 72
     9
 73
     5
 74
     0
 42
0.0000000001
 43
0.0000000001
 40
0.0
 40
0.0
 40
0.0
 40
0.0
 40
0.490809718200116
 40
1.0
 40
1.0
 40
1.0
 40
1.0
 10
266.2392115868308
 20
402.4851704501307
 30
0.0
 10
266.4229022196138
 20
402.4515900492404
 30
0.0
 10
266.7971626019407
 20
402.383171679259
 30
0.0
 10
267.30291057164
 20
402.3085859537938
 30
0.0
 10
267.5604325228507
 20
402.270607627226
 30
0.0
  0
SPLINE
  5
3233
330
1A
100
AcDbEntity
  8
SEIHIN
  6
CONTINUOUS
 62
     3
 48
5.0
100
AcDbSpline
210
0.0
220
0.0
230
1.0
 70
    24
 71
     1
 72
     4
 73
     2
 74
     0
 42
0.0000000001
 43
0.0000000001
 40
0.0
 40
0.0
 40
1.0
 40
1.0
 10
267.5604325228507
 20
402.270607627226
 30
0.0
 10
268.5943578049066
 20
402.2014137218199
 30
0.0
  0
SPLINE
  5
3234
330
1A
100
AcDbEntity
  8
SEIHIN
  6
CONTINUOUS
 62
     3
 48
5.0
100
AcDbSpline
210
0.0
220
0.0
230
1.0
 70
     8
 71
     3
 72
    10
 73
     6
 74
     0
 42
0.0000000001
 43
0.0000000001
 40
0.0
 40
0.0
 40
0.0
 40
0.0
 40
0.2699064271839011
 40
0.6747727824731761
 40
1.0
 40
1.0
 40
1.0
 40
1.0
 10
247.6801222788228
 20
406.2014137218196
 30
0.0
 10
249.3494694957541
 20
405.8542042661913
 30
0.0
 10
253.5228790667499
 20
404.986171989525
 30
0.0
 10
259.709356414404
 20
403.74960886593
 30
0.0
 10
264.2268503711559
 20
402.874843231591
 30
0.0
 10
266.2392115868308
 20
402.4851704501326
 30
0.0
  0
SPLINE
  5
3235
330
1A
100
AcDbEntity
  8
SEIHIN
  6
CONTINUOUS
 62
     3
 48
5.0
100
AcDbSpline
210
0.0
220
0.0
230
1.0
 70
     8
 71
     3
 72
    12
 73
     8
 74
     0
 42
0.0000000001
 43
0.0000000001
 40
0.0
 40
0.0
 40
0.0
 40
0.0
 40
0.2143418125411348
 40
0.4286929637168954
 40
0.6428556381419203
 40
0.8570760097381413
 40
1.0
 40
1.0
 40
1.0
 40
1.0
 10
279.1335676923336
 20
394.9780010303472
 30
0.0
 10
278.8248687978339
 20
394.947827018437
 30
0.0
 10
278.2074575591668
 20
394.8874776799685
 30
0.0
 10
277.3843702613417
 20
394.4148081856316
 30
0.0
 10
276.7632038011299
 20
393.7188713650623
 30
0.0
 10
276.4324257091782
 20
392.9452497286222
 30
0.0
 10
276.3988014740996
 20
392.4327212837362
 30
0.0
 10
276.3853455432206
 20
392.227614838587
 30
0.0
  0
SPLINE
  5
323F
330
1A
100
AcDbEntity
  8
SEIHIN
  6
CONTINUOUS
 62
     3
 48
5.0
100
AcDbSpline
210
0.0
220
0.0
230
1.0
 70
    24
 71
     1
 72
     4
 73
     2
 74
     0
 42
0.0000000001
 43
0.0000000001
 40
0.0
 40
0.0
 40
1.0
 40
1.0
 10
268.4921021834863
 20
382.20141372182
 30
0.0
 10
267.465941398535
 20
382.1333065564308
 30
0.0
  0
SPLINE
  5
3241
330
1A
100
AcDbEntity
  8
SEIHIN
  6
CONTINUOUS
 62
     3
 48
5.0
100
AcDbSpline
210
0.0
220
0.0
230
1.0
 70
     8
 71
     3
 72
    12
 73
     8
 74
     0
 42
0.0000000001
 43
0.0000000001
 40
0.0
 40
0.0
 40
0.0
 40
0.0
 40
0.2150515643609219
 40
0.4301258331589585
 40
0.6446492943693169
 40
0.8586132627576091
 40
1.0
 40
1.0
 40
1.0
 40
1.0
 10
276.3853352163837
 20
392.1752022782161
 30
0.0
 10
276.4153462693095
 20
391.8657192097997
 30
0.0
 10
276.4753715436293
 20
391.2467203987625
 30
0.0
 10
276.9489904782015
 20
390.4214247179045
 30
0.0
 10
277.6464027877807
 20
389.7996382399773
 30
0.0
 10
278.4190726759336
 20
389.4704429655607
 30
0.0
 10
278.9294175905554
 20
389.4370274164614
 30
0.0
 10
279.1324733357762
 20
389.4237320567353
 30
0.0
  0
SPLINE
  5
3244
330
1A
100
AcDbEntity
  8
SEIHIN
  6
CONTINUOUS
 62
     3
 48
5.0
100
AcDbSpline
210
0.0
220
0.0
230
1.0
 70
     8
 71
     3
 72
    10
 73
     6
 74
     0
 42
0.0000000001
 43
0.0000000001
 40
0.0
 40
0.0
 40
0.0
 40
0.0
 40
0.2695448102735472
 40
0.6738666609837825
 40
1.0
 40
1.0
 40
1.0
 40
1.0
 10
247.2342034432649
 20
378.20141372182
 30
0.0
 10
248.932910510596
 20
378.5462486023082
 30
0.0
 10
253.1797073911968
 20
379.4083417335746
 30
0.0
 10
259.4824930600811
 20
380.6458441497969
 30
0.0
 10
264.0866882307113
 20
381.5270326875156
 30
0.0
 10
266.1423674367722
 20
381.9204653910559
 30
0.0
  0
SPLINE
  5
3245
330
1A
100
AcDbEntity
  8
SEIHIN
  6
CONTINUOUS
 62
     3
 48
5.0
100
AcDbSpline
210
0.0
220
0.0
230
1.0
 70
    24
 71
     1
 72
     4
 73
     2
 74
     0
 42
0.0000000001
 43
0.0000000001
 40
0.0
 40
0.0
 40
1.0
 40
1.0
 10
255.4301013182059
 20
378.20141372182
 30
0.0
 10
255.0207817867871
 20
378.2318805633823
 30
0.0
  0
SPLINE
  5
3246
330
1A
100
AcDbEntity
  8
SEIHIN
  6
CONTINUOUS
 62
     3
 48
5.0
100
AcDbSpline
210
0.0
220
0.0
230
1.0
 70
    24
 71
     1
 72
     4
 73
     2
 74
     0
 42
0.0000000001
 43
0.0000000001
 40
0.0
 40
0.0
 40
1.0
 40
1.0
 10
256.8034704626664
 20
378.2151404549863
 30
0.0
 10
257.0940505997753
 20
378.20141372182
 30
0.0
  0
SPLINE
  5
3247
330
1A
100
AcDbEntity
  8
SEIHIN
  6
CONTINUOUS
 62
     3
 48
5.0
100
AcDbSpline
210
0.0
220
0.0
230
1.0
 70
     8
 71
     3
 72
     9
 73
     5
 74
     0
 42
0.0000000001
 43
0.0000000001
 40
0.0
 40
0.0
 40
0.0
 40
0.0
 40
0.4907936499238734
 40
1.0
 40
1.0
 40
1.0
 40
1.0
 10
267.465941398535
 20
382.1333065564308
 30
0.0
 10
267.2170717383455
 20
382.0969896346474
 30
0.0
 10
266.7099957803982
 20
382.0229933191103
 30
0.0
 10
266.3338852878885
 20
381.9550583226472
 30
0.0
 10
266.1423674367724
 20
381.9204653910559
 30
0.0
  0
SPLINE
  5
3249
330
1A
100
AcDbEntity
  8
SEIHIN
  6
CONTINUOUS
 62
     3
 48
5.0
100
AcDbSpline
210
0.0
220
0.0
230
1.0
 70
    24
 71
     1
 72
     4
 73
     2
 74
     0
 42
0.0000000001
 43
0.0000000001
 40
0.0
 40
0.0
 40
1.0
 40
1.0
 10
218.7408508304242
 20
392.2014137218198
 30
0.0
 10
218.9025947052637
 20
389.1151567376068
 30
0.0
  0
SPLINE
  5
324B
330
1A
100
AcDbEntity
  8
SEIHIN
  6
CONTINUOUS
 62
     3
 48
5.0
100
AcDbSpline
210
0.0
220
0.0
230
1.0
 70
    24
 71
     1
 72
     4
 73
     2
 74
     0
 42
0.0000000001
 43
0.0000000001
 40
0.0
 40
0.0
 40
1.0
 40
1.0
 10
223.7258942669646
 20
378.2014137218197
 30
0.0
 10
223.4426295490773
 20
378.2014137218197
 30
0.0
  0
SPLINE
  5
324C
330
1A
100
AcDbEntity
  8
SEIHIN
  6
CONTINUOUS
 62
     3
 48
5.0
100
AcDbSpline
210
0.0
220
0.0
230
1.0
 70
     8
 71
     3
 72
     9
 73
     5
 74
     0
 42
0.0000000001
 43
0.0000000001
 40
0.0
 40
0.0
 40
0.0
 40
0.0
 40
0.4750911396937627
 40
1.0
 40
1.0
 40
1.0
 40
1.0
 10
223.5493781493828
 20
392.2014137218197
 30
0.0
 10
223.5764413463464
 20
389.984310550666
 30
0.0
 10
223.6334055679503
 20
385.3176203392198
 30
0.0
 10
223.6940575199598
 20
380.6509764481411
 30
0.0
 10
223.7258942669643
 20
378.2014137218197
 30
0.0
  0
SPLINE
  5
324D
330
1A
100
AcDbEntity
  8
SEIHIN
  6
CONTINUOUS
 62
     3
 48
5.0
100
AcDbSpline
210
0.0
220
0.0
230
1.0
 70
    24
 71
     1
 72
     4
 73
     2
 74
     0
 42
0.0000000001
 43
0.0000000001
 40
0.0
 40
0.0
 40
1.0
 40
1.0
 10
223.4426295490773
 20
378.2014137218197
 30
0.0
 10
223.2548488191223
 20
378.2102486363843
 30
0.0
  0
SPLINE
  5
324F
330
1A
100
AcDbEntity
  8
SEIHIN
  6
CONTINUOUS
 62
     3
 48
5.0
100
AcDbSpline
210
0.0
220
0.0
230
1.0
 70
     8
 71
     3
 72
    11
 73
     7
 74
     0
 42
0.0000000001
 43
0.0000000001
 40
0.0
 40
0.0
 40
0.0
 40
0.0
 40
0.003254220597776
 40
0.3344107650526127
 40
0.7406309544759957
 40
1.0
 40
1.0
 40
1.0
 40
1.0
 10
221.6356137432667
 20
379.344270864677
 30
0.0
 10
221.6364784071315
 20
379.3424526032059
 30
0.0
 10
221.725333140798
 20
379.1556041117455
 30
0.0
 10
221.9902948541969
 20
378.7723619483601
 30
0.0
 10
222.5340858401332
 20
378.3506613188068
 30
0.0
 10
223.0527385079169
 20
378.2496219834737
 30
0.0
 10
223.2548488191095
 20
378.2102486363854
 30
0.0
  0
SPLINE
  5
3251
330
1A
100
AcDbEntity
  8
SEIHIN
  6
CONTINUOUS
 62
     3
 48
5.0
100
AcDbSpline
210
0.0
220
0.0
230
1.0
 70
    24
 71
     1
 72
     4
 73
     2
 74
     0
 42
0.0000000001
 43
0.0000000001
 40
0.0
 40
0.0
 40
1.0
 40
1.0
 10
218.9124970845444
 20
388.9968368682163
 30
0.0
 10
218.9168483564899
 20
388.9567217809749
 30
0.0
  0
SPLINE
  5
3252
330
1A
100
AcDbEntity
  8
SEIHIN
  6
CONTINUOUS
 62
     3
 48
5.0
100
AcDbSpline
210
0.0
220
0.0
230
1.0
 70
     8
 71
     3
 72
    14
 73
    10
 74
     0
 42
0.0000000001
 43
0.0000000001
 40
0.0
 40
0.0
 40
0.0
 40
0.0
 40
0.3102002623300484
 40
0.6259529314013492
 40
0.8680134566343046
 40
0.9232609160027825
 40
0.9794073646036215
 40
0.9910388876550584
 40
1.0
 40
1.0
 40
1.0
 40
1.0
 10
221.6356137432667
 20
379.344270864677
 30
0.0
 10
221.1988168725774
 20
380.3469441860651
 30
0.0
 10
220.3174047177938
 20
382.3702381060845
 30
0.0
 10
219.5174276015829
 20
385.2357623288929
 30
0.0
 10
219.1342073002022
 20
387.2777167419103
 30
0.0
 10
218.980088911413
 20
388.407331568748
 30
0.0
 10
218.9346820888051
 20
388.7930056215483
 30
0.0
 10
218.9151486904022
 20
388.9721172513235
 30
0.0
 10
218.9126631226169
 20
388.9952877602055
 30
0.0
 10
218.9115815003895
 20
389.0053706626213
 30
0.0
  0
SPLINE
  5
328F
330
1A
100
AcDbEntity
  8
SEIHIN
  6
CONTINUOUS
 62
     3
 48
5.0
100
AcDbSpline
210
0.0
220
0.0
230
1.0
 70
    24
 71
     1
 72
     4
 73
     2
 74
     0
 42
0.0000000001
 43
0.0000000001
 40
0.0
 40
0.0
 40
1.0
 40
1.0
 10
257.4440987917148
 20
406.2014137218199
 30
0.0
 10
256.9652230005517
 20
406.1719200831531
 30
0.0
  0
SPLINE
  5
3291
330
1A
100
AcDbEntity
  8
SEIHIN
  6
CONTINUOUS
 62
     3
 48
5.0
100
AcDbSpline
210
0.0
220
0.0
230
1.0
 70
     8
 71
     3
 72
    11
 73
     7
 74
     0
 42
0.0000000001
 43
0.0000000001
 40
0.0
 40
0.0
 40
0.0
 40
0.0
 40
0.3271782177193183
 40
0.7581816464628567
 40
0.9967620312012281
 40
1.0
 40
1.0
 40
1.0
 40
1.0
 10
223.264451497643
 20
406.1934610560935
 30
0.0
 10
223.0110929560405
 20
406.1387508015888
 30
0.0
 10
222.4239762538445
 20
406.0119687953542
 30
0.0
 10
221.9260505844931
 20
405.5517223076642
 30
0.0
 10
221.7009706187536
 20
405.1959969758615
 30
0.0
 10
221.636477314227
 20
405.0603726011432
 30
0.0
 10
221.6356137432667
 20
405.0585565789626
 30
0.0
  0
SPLINE
  5
3292
330
1A
100
AcDbEntity
  8
SEIHIN
  6
CONTINUOUS
 62
     3
 48
5.0
100
AcDbSpline
210
0.0
220
0.0
230
1.0
 70
    24
 71
     1
 72
     4
 73
     2
 74
     0
 42
0.0000000001
 43
0.0000000001
 40
0.0
 40
0.0
 40
1.0
 40
1.0
 10
223.4426295490773
 20
406.2014137218197
 30
0.0
 10
223.6657002019985
 20
406.2014137218197
 30
0.0
  0
SPLINE
  5
3293
330
1A
100
AcDbEntity
  8
SEIHIN
  6
CONTINUOUS
 62
     3
 48
5.0
100
AcDbSpline
210
0.0
220
0.0
230
1.0
 70
    24
 71
     1
 72
     4
 73
     2
 74
     0
 42
0.0000000001
 43
0.0000000001
 40
0.0
 40
0.0
 40
1.0
 40
1.0
 10
254.8582003902968
 20
406.1867279723926
 30
0.0
 10
255.1259895601893
 20
406.2014137218199
 30
0.0
  0
SPLINE
  5
3294
330
1A
100
AcDbEntity
  8
SEIHIN
  6
CONTINUOUS
 62
     3
 48
5.0
100
AcDbSpline
210
0.0
220
0.0
230
1.0
 70
    24
 71
     1
 72
     4
 73
     2
 74
     0
 42
0.0000000001
 43
0.0000000001
 40
0.0
 40
0.0
 40
1.0
 40
1.0
 10
223.2644514976704
 20
406.193461056096
 30
0.0
 10
223.4426295490773
 20
406.2014137218197
 30
0.0
  0
LINE
  5
32C7
330
1A
100
AcDbEntity
  8
SEIHIN
  6
CONTINUOUS
 62
     3
 48
5.0
100
AcDbLine
 10
245.8633449327055
 20
392.2014137218414
 30
0.0
 11
245.4633099555055
 21
378.2014137218415
 31
0.0
  0
LINE
  5
32C8
330
1A
100
AcDbEntity
  8
SEIHIN
  6
CONTINUOUS
 62
     3
 48
5.0
100
AcDbLine
 10
227.0626637710056
 20
392.2014270402414
 30
0.0
 11
226.0215262344056
 21
378.2014137218415
 31
0.0
  0
LINE
  5
32CB
330
1A
100
AcDbEntity
  8
SEIHIN
  6
CONTINUOUS
 62
     3
 48
5.0
100
AcDbLine
 10
241.2662146470056
 20
378.2014137218415
 30
0.0
 11
226.0215262344056
 21
378.2014137218415
 31
0.0
  0
LINE
  5
32CC
330
1A
100
AcDbEntity
  8
SEIHIN
  6
CONTINUOUS
 62
     3
 48
5.0
100
AcDbLine
 10
224.9788757004057
 20
378.2014137218415
 30
0.0
 11
223.7258942670057
 21
378.2014137218415
 31
0.0
  0
LINE
  5
32CD
330
1A
100
AcDbEntity
  8
SEIHIN
  6
CONTINUOUS
 62
     3
 48
5.0
100
AcDbLine
 10
226.0215262344056
 20
378.2014137218415
 30
0.0
 11
224.0237875498055
 21
378.2014137218415
 31
0.0
  0
LINE
  5
32CE
330
1A
100
AcDbEntity
  8
SEIHIN
  6
CONTINUOUS
 62
     3
 48
5.0
100
AcDbLine
 10
225.4783103716056
 20
378.2014137218415
 30
0.0
 11
224.9788757004057
 21
378.2014137218415
 31
0.0
  0
LINE
  5
32CF
330
1A
100
AcDbEntity
  8
SEIHIN
  6
CONTINUOUS
 62
     3
 48
5.0
100
AcDbLine
 10
245.4633099555055
 20
378.2014137218415
 30
0.0
 11
241.2662146470056
 21
378.2014137218415
 31
0.0
  0
LINE
  5
32D0
330
1A
100
AcDbEntity
  8
SEIHIN
  6
CONTINUOUS
 62
     3
 48
5.0
100
AcDbLine
 10
245.4633099555055
 20
378.2014137218415
 30
0.0
 11
247.2342034433056
 21
378.2014137218415
 31
0.0
  0
LINE
  5
32D1
330
1A
100
AcDbEntity
  8
SEIHIN
  6
CONTINUOUS
 62
     3
 48
5.0
100
AcDbLine
 10
245.5979146669055
 20
406.2014137218414
 30
0.0
 11
245.8644691636056
 21
392.2014137218414
 31
0.0
  0
LINE
  5
32D3
330
1A
100
AcDbEntity
  8
SEIHIN
  6
CONTINUOUS
 62
     3
 48
5.0
100
AcDbLine
 10
226.3710849280057
 20
406.2014137218414
 30
0.0
 11
227.0648233355057
 21
392.2014137218414
 31
0.0
  0
LINE
  5
32DA
330
1A
100
AcDbEntity
  8
SEIHIN
  6
CONTINUOUS
 62
     3
 48
5.0
100
AcDbLine
 10
227.0626637710056
 20
392.2014270402414
 30
0.0
 11
227.0648233355057
 21
392.2014137218414
 31
0.0
  0
LINE
  5
32DC
330
1A
100
AcDbEntity
  8
SEIHIN
  6
CONTINUOUS
 62
     3
 48
5.0
100
AcDbLine
 10
245.8633449327055
 20
392.2014137218414
 30
0.0
 11
245.8644691636056
 21
392.2014137218414
 31
0.0
  0
LINE
  5
32DE
330
1A
100
AcDbEntity
  8
SEIHIN
  6
CONTINUOUS
 62
     3
 48
5.0
100
AcDbLine
 10
241.3976197573056
 20
406.2014137218414
 30
0.0
 11
226.3710849280057
 21
406.2014137218414
 31
0.0
  0
LINE
  5
32DF
330
1A
100
AcDbEntity
  8
SEIHIN
  6
CONTINUOUS
 62
     3
 48
5.0
100
AcDbLine
 10
225.3257337004056
 20
406.2014137218414
 30
0.0
 11
223.6657002020056
 21
406.2014137218414
 31
0.0
  0
LINE
  5
32E0
330
1A
100
AcDbEntity
  8
SEIHIN
  6
CONTINUOUS
 62
     3
 48
5.0
100
AcDbLine
 10
225.8254825097055
 20
406.2014137218414
 30
0.0
 11
226.3710849280057
 21
406.2014137218414
 31
0.0
  0
LINE
  5
32E1
330
1A
100
AcDbEntity
  8
SEIHIN
  6
CONTINUOUS
 62
     3
 48
5.0
100
AcDbLine
 10
225.3257337004056
 20
406.2014137218414
 30
0.0
 11
225.8254825097055
 21
406.2014137218414
 31
0.0
  0
LINE
  5
32E2
330
1A
100
AcDbEntity
  8
SEIHIN
  6
CONTINUOUS
 62
     3
 48
5.0
100
AcDbLine
 10
247.6801222788056
 20
406.2014137218414
 30
0.0
 11
245.5979146669055
 21
406.2014137218414
 31
0.0
  0
LINE
  5
32E3
330
1A
100
AcDbEntity
  8
SEIHIN
  6
CONTINUOUS
 62
     3
 48
5.0
100
AcDbLine
 10
241.3976197573056
 20
406.2014137218414
 30
0.0
 11
245.5979146669055
 21
406.2014137218414
 31
0.0
  0
LINE
  5
32E5
330
1A
100
AcDbEntity
  8
SEIHIN
  6
CONTINUOUS
 62
     3
 48
5.0
100
AcDbLine
 10
370.3272446608059
 20
375.3514137218414
 30
0.0
 11
370.3272446608055
 21
409.0514137218415
 31
0.0
  0
LINE
  5
32E8
330
1A
100
AcDbEntity
  8
SEIHIN
  6
CONTINUOUS
 62
     3
 48
5.0
100
AcDbLine
 10
303.1141945446056
 20
406.4514137218414
 30
0.0
 11
303.1141945446056
 21
377.9514137218415
 31
0.0
  0
LINE
  5
32EA
330
1A
100
AcDbEntity
  8
SEIHIN
  6
CONTINUOUS
 62
     3
 48
5.0
100
AcDbLine
 10
313.6594287660057
 20
406.4514137218414
 30
0.0
 11
313.6594287660057
 21
377.9514137218415
 31
0.0
  0
LINE
  5
32EB
330
1A
100
AcDbEntity
  8
SEIHIN
  6
CONTINUOUS
 62
     3
 48
5.0
100
AcDbLine
 10
286.3698425623056
 20
406.4514137218414
 30
0.0
 11
286.3698425623056
 21
377.9514137218415
 31
0.0
  0
LINE
  5
32EC
330
1A
100
AcDbEntity
  8
SEIHIN
  6
CONTINUOUS
 62
     3
 48
5.0
100
AcDbLine
 10
360.3272446608057
 20
375.3514137218414
 30
0.0
 11
360.3272446608057
 21
409.0514137218414
 31
0.0
  0
LINE
  5
32ED
330
1A
100
AcDbEntity
  8
SEIHIN
  6
CONTINUOUS
 62
     3
 48
5.0
100
AcDbLine
 10
368.4041130045057
 20
409.0514137218414
 30
0.0
 11
368.4041130045057
 21
375.3514137218415
 31
0.0
  0
LINE
  5
32EE
330
1A
100
AcDbEntity
  8
SEIHIN
  6
CONTINUOUS
 62
     3
 48
5.0
100
AcDbLine
 10
363.4041130045056
 20
409.0514137218414
 30
0.0
 11
363.4041130045059
 21
375.3514137218415
 31
0.0
  0
LINE
  5
32EF
330
1A
100
AcDbEntity
  8
SEIHIN
  6
CONTINUOUS
 62
     3
 48
5.0
100
AcDbLine
 10
365.3272446608057
 20
375.3514137218415
 30
0.0
 11
365.3272446608057
 21
409.0514137218414
 31
0.0
  0
LINE
  5
32F0
330
1A
100
AcDbEntity
  8
SEIHIN
  6
CONTINUOUS
 62
     3
 48
5.0
100
AcDbLine
 10
358.4041130045056
 20
409.0514137218414
 30
0.0
 11
358.4041130045056
 21
375.3514137218415
 31
0.0
  0
LINE
  5
32F5
330
1A
100
AcDbEntity
  8
SEIHIN
  6
CONTINUOUS
 62
     3
 48
5.0
100
AcDbLine
 10
271.5719824380057
 20
378.3121558289415
 30
0.0
 11
286.3698425623056
 21
379.2986798372414
 31
0.0
  0
LINE
  5
32F7
330
1A
100
AcDbEntity
  8
SEIHIN
  6
CONTINUOUS
 62
     3
 48
5.0
100
AcDbLine
 10
256.8034704627057
 20
378.2151404549414
 30
0.0
 11
256.8697411090056
 21
380.1245673539415
 31
0.0
  0
LINE
  5
32F8
330
1A
100
AcDbEntity
  8
SEIHIN
  6
CONTINUOUS
 62
     3
 48
5.0
100
AcDbLine
 10
315.4884833472056
 20
375.9514137218415
 30
0.0
 11
309.5158855789057
 21
375.9514137218415
 31
0.0
  0
LINE
  5
32FA
330
1A
100
AcDbEntity
  8
SEIHIN
  6
CONTINUOUS
 62
     3
 48
5.0
100
AcDbLine
 10
259.5009391011056
 20
378.2014137218415
 30
0.0
 11
268.2460319118056
 21
378.2014137218415
 31
0.0
  0
LINE
  5
32FB
330
1A
100
AcDbEntity
  8
SEIHIN
  6
CONTINUOUS
 62
     3
 48
5.0
100
AcDbLine
 10
257.0940505998055
 20
378.2014137218415
 30
0.0
 11
255.4301013182057
 21
378.2014137218415
 31
0.0
  0
LINE
  5
32FC
330
1A
100
AcDbEntity
  8
SEIHIN
  6
CONTINUOUS
 62
     3
 48
5.0
100
AcDbLine
 10
259.5009391011056
 20
378.2014137218415
 30
0.0
 11
257.0940505998055
 21
378.2014137218415
 31
0.0
  0
ARC
  5
32FD
330
1A
100
AcDbEntity
  8
SEIHIN
  6
CONTINUOUS
 62
     3
 48
5.0
100
AcDbCircle
 10
268.2460319118056
 20
428.2014137218414
 30
0.0
 40
49.99999999999997
100
AcDbArc
 50
270.0
 51
273.8140748343011
  0
LINE
  5
32FE
330
1A
100
AcDbEntity
  8
SEIHIN
  6
CONTINUOUS
 62
     3
 48
5.0
100
AcDbLine
 10
303.1141945446056
 20
375.9514137218415
 30
0.0
 11
286.3698425623056
 21
375.9514137218415
 31
0.0
  0
LINE
  5
3300
330
1A
100
AcDbEntity
  8
SEIHIN
  6
CONTINUOUS
 62
     3
 48
5.0
100
AcDbLine
 10
286.3698425623056
 20
375.9514137218415
 30
0.0
 11
286.3698425623056
 21
377.9514137218415
 31
0.0
  0
LINE
  5
3302
330
1A
100
AcDbEntity
  8
SEIHIN
  6
CONTINUOUS
 62
     3
 48
5.0
100
AcDbLine
 10
309.5158855789057
 20
375.9514137218415
 30
0.0
 11
303.1141945446056
 21
375.9514137218415
 31
0.0
  0
LINE
  5
3303
330
1A
100
AcDbEntity
  8
SEIHIN
  6
CONTINUOUS
 62
     3
 48
5.0
100
AcDbLine
 10
303.1141945446056
 20
377.9514137218415
 30
0.0
 11
303.1141945446056
 21
375.9514137218415
 31
0.0
  0
LINE
  5
3305
330
1A
100
AcDbEntity
  8
SEIHIN
  6
CONTINUOUS
 62
     3
 48
5.0
100
AcDbLine
 10
358.4041130045056
 20
375.9514137218415
 30
0.0
 11
321.6612617056057
 21
375.9514137218415
 31
0.0
  0
LINE
  5
3307
330
1A
100
AcDbEntity
  8
SEIHIN
  6
CONTINUOUS
 62
     3
 48
5.0
100
AcDbLine
 10
321.6612617056057
 20
375.9514137218415
 30
0.0
 11
315.4884833472056
 21
375.9514137218415
 31
0.0
  0
ARC
  5
3309
330
1A
100
AcDbEntity
  8
SEIHIN
  6
CONTINUOUS
 62
     3
 48
5.0
100
AcDbCircle
 10
315.5779502425057
 20
377.8695938044414
 30
0.0
 40
1.920265386555137
100
AcDbArc
 50
177.5579648382995
 51
267.329571268897
  0
LINE
  5
330A
330
1A
100
AcDbEntity
  8
SEIHIN
  6
CONTINUOUS
 62
     3
 48
5.0
100
AcDbLine
 10
365.3272446608057
 20
375.3514137218415
 30
0.0
 11
363.4041130045059
 21
375.3514137218415
 31
0.0
  0
LINE
  5
3311
330
1A
100
AcDbEntity
  8
SEIHIN
  6
CONTINUOUS
 62
     3
 48
5.0
100
AcDbLine
 10
363.4041130045059
 20
375.9514137218415
 30
0.0
 11
360.3272446608057
 21
375.9514137218415
 31
0.0
  0
LINE
  5
3321
330
1A
100
AcDbEntity
  8
SEIHIN
  6
CONTINUOUS
 62
     3
 48
5.0
100
AcDbLine
 10
360.3272446608057
 20
375.3514137218414
 30
0.0
 11
358.4041130045056
 21
375.3514137218415
 31
0.0
  0
LINE
  5
3326
330
1A
100
AcDbEntity
  8
SEIHIN
  6
CONTINUOUS
 62
     3
 48
5.0
100
AcDbLine
 10
370.3272446608059
 20
375.3514137218414
 30
0.0
 11
368.4041130045057
 21
375.3514137218415
 31
0.0
  0
LINE
  5
3334
330
1A
100
AcDbEntity
  8
SEIHIN
  6
CONTINUOUS
 62
     3
 48
5.0
100
AcDbLine
 10
368.4041130045057
 20
375.9514137218415
 30
0.0
 11
365.3272446608054
 21
375.9514137218414
 31
0.0
  0
LINE
  5
333E
330
1A
100
AcDbEntity
  8
SEIHIN
  6
CONTINUOUS
 62
     3
 48
5.0
100
AcDbLine
 10
309.5158855789057
 20
408.4514137218414
 30
0.0
 11
315.4884833472056
 21
408.4514137218414
 31
0.0
  0
LINE
  5
3340
330
1A
100
AcDbEntity
  8
SEIHIN
  6
CONTINUOUS
 62
     3
 48
5.0
100
AcDbLine
 10
286.3698425623056
 20
394.9751568282414
 30
0.0
 11
279.1335676923056
 21
394.9780010303414
 31
0.0
  0
LINE
  5
3341
330
1A
100
AcDbEntity
  8
SEIHIN
  6
CONTINUOUS
 62
     3
 48
5.0
100
AcDbLine
 10
286.3698425623056
 20
402.2014137218414
 30
0.0
 11
270.4449091130056
 21
402.2014137218414
 31
0.0
  0
LINE
  5
3343
330
1A
100
AcDbEntity
  8
SEIHIN
  6
CONTINUOUS
 62
     3
 48
5.0
100
AcDbLine
 10
270.3474905424056
 20
382.2014137218415
 30
0.0
 11
286.3698425623056
 21
382.2014137218415
 31
0.0
  0
LINE
  5
3344
330
1A
100
AcDbEntity
  8
SEIHIN
  6
CONTINUOUS
 62
     3
 48
5.0
100
AcDbLine
 10
271.5719824380057
 20
406.0906716146414
 30
0.0
 11
286.3698425623056
 21
405.1041476063414
 31
0.0
  0
LINE
  5
3346
330
1A
100
AcDbEntity
  8
SEIHIN
  6
CONTINUOUS
 62
     3
 48
5.0
100
AcDbLine
 10
286.3698425623056
 20
389.4265778097414
 30
0.0
 11
279.1324733358055
 21
389.4237320567414
 31
0.0
  0
LINE
  5
3348
330
1A
100
AcDbEntity
  8
SEIHIN
  6
CONTINUOUS
 62
     3
 48
5.0
100
AcDbLine
 10
254.6003359429057
 20
379.6780410700414
 30
0.0
 11
254.8539315145055
 21
379.6780410700414
 31
0.0
  0
LINE
  5
3349
330
1A
100
AcDbEntity
  8
SEIHIN
  6
CONTINUOUS
 62
     3
 48
5.0
100
AcDbLine
 10
270.6332298118056
 20
392.2014137218414
 30
0.0
 11
270.3474905424056
 21
382.2014137218415
 31
0.0
  0
LINE
  5
334B
330
1A
100
AcDbEntity
  8
SEIHIN
  6
CONTINUOUS
 62
     3
 48
5.0
100
AcDbLine
 10
270.3474905424056
 20
382.2014137218415
 30
0.0
 11
268.4921021835057
 21
382.2014137218415
 31
0.0
  0
LINE
  5
334D
330
1A
100
AcDbEntity
  8
SEIHIN
  6
CONTINUOUS
 62
     3
 48
5.0
100
AcDbLine
 10
268.5943578049057
 20
402.2014137218414
 30
0.0
 11
270.4449091130056
 21
402.2014137218414
 31
0.0
  0
LINE
  5
334E
330
1A
100
AcDbEntity
  8
SEIHIN
  6
CONTINUOUS
 62
     3
 48
5.0
100
AcDbLine
 10
270.4449091130056
 20
402.2014137218414
 30
0.0
 11
270.6353051821056
 21
392.2014137218414
 31
0.0
  0
LINE
  5
334F
330
1A
100
AcDbEntity
  8
SEIHIN
  6
CONTINUOUS
 62
     3
 48
5.0
100
AcDbLine
 10
270.6332297183057
 20
392.2014186551415
 30
0.0
 11
270.6353051821056
 21
392.2014137218414
 31
0.0
  0
LINE
  5
3352
330
1A
100
AcDbEntity
  8
SEIHIN
  6
CONTINUOUS
 62
     3
 48
5.0
100
AcDbLine
 10
276.3853455432056
 20
392.2276148385414
 30
0.0
 11
276.3853661411055
 21
392.2014137218414
 31
0.0
  0
LINE
  5
3353
330
1A
100
AcDbEntity
  8
SEIHIN
  6
CONTINUOUS
 62
     3
 48
5.0
100
AcDbLine
 10
276.3853352164055
 20
392.1752022782414
 30
0.0
 11
276.3853661411055
 21
392.2014137218414
 31
0.0
  0
LINE
  5
3355
330
1A
100
AcDbEntity
  8
SEIHIN
  6
CONTINUOUS
 62
     3
 48
5.0
100
AcDbLine
 10
268.2460319118056
 20
406.2014137218414
 30
0.0
 11
259.6645427185055
 21
406.2014137218414
 31
0.0
  0
LINE
  5
3356
330
1A
100
AcDbEntity
  8
SEIHIN
  6
CONTINUOUS
 62
     3
 48
5.0
100
AcDbLine
 10
255.1259895602056
 20
406.2014137218414
 30
0.0
 11
257.4440987917057
 21
406.2014137218414
 31
0.0
  0
LINE
  5
3357
330
1A
100
AcDbEntity
  8
SEIHIN
  6
CONTINUOUS
 62
     3
 48
5.0
100
AcDbLine
 10
257.0085223699056
 20
404.2996204421414
 30
0.0
 11
256.9652230005055
 21
406.1719200831413
 31
0.0
  0
LINE
  5
3358
330
1A
100
AcDbEntity
  8
SEIHIN
  6
CONTINUOUS
 62
     3
 48
5.0
100
AcDbLine
 10
257.4440987917057
 20
406.2014137218414
 30
0.0
 11
259.6645427185055
 21
406.2014137218414
 31
0.0
  0
ARC
  5
335A
330
1A
100
AcDbEntity
  8
SEIHIN
  6
CONTINUOUS
 62
     3
 48
5.0
100
AcDbCircle
 10
268.2460319118056
 20
356.2014137218413
 30
0.0
 40
50.00000000000007
100
AcDbArc
 50
86.18592516569892
 51
90.0
  0
LINE
  5
335C
330
1A
100
AcDbEntity
  8
SEIHIN
  6
CONTINUOUS
 62
     3
 48
5.0
100
AcDbLine
 10
286.3698425623056
 20
408.4514137218414
 30
0.0
 11
303.1141945446056
 21
408.4514137218414
 31
0.0
  0
LINE
  5
335E
330
1A
100
AcDbEntity
  8
SEIHIN
  6
CONTINUOUS
 62
     3
 48
5.0
100
AcDbLine
 10
286.3698425623056
 20
406.4514137218414
 30
0.0
 11
286.3698425623056
 21
408.4514137218414
 31
0.0
  0
LINE
  5
335F
330
1A
100
AcDbEntity
  8
SEIHIN
  6
CONTINUOUS
 62
     3
 48
5.0
100
AcDbLine
 10
303.1141945446056
 20
408.4514137218414
 30
0.0
 11
309.5158855789057
 21
408.4514137218414
 31
0.0
  0
LINE
  5
3360
330
1A
100
AcDbEntity
  8
SEIHIN
  6
CONTINUOUS
 62
     3
 48
5.0
100
AcDbLine
 10
303.1141945446056
 20
408.4514137218414
 30
0.0
 11
303.1141945446056
 21
406.4514137218414
 31
0.0
  0
LINE
  5
3363
330
1A
100
AcDbEntity
  8
SEIHIN
  6
CONTINUOUS
 62
     3
 48
5.0
100
AcDbLine
 10
321.6612617056057
 20
408.4514137218414
 30
0.0
 11
358.4041130045056
 21
408.4514137218413
 31
0.0
  0
LINE
  5
3365
330
1A
100
AcDbEntity
  8
SEIHIN
  6
CONTINUOUS
 62
     3
 48
5.0
100
AcDbLine
 10
315.4884833472056
 20
408.4514137218414
 30
0.0
 11
321.6612617056057
 21
408.4514137218414
 31
0.0
  0
ARC
  5
3367
330
1A
100
AcDbEntity
  8
SEIHIN
  6
CONTINUOUS
 62
     3
 48
5.0
100
AcDbCircle
 10
315.5779502425057
 20
406.5332336391414
 30
0.0
 40
1.920265386555044
100
AcDbArc
 50
92.67042873110302
 51
182.4420351617004
  0
LINE
  5
337E
330
1A
100
AcDbEntity
  8
SEIHIN
  6
CONTINUOUS
 62
     3
 48
5.0
100
AcDbLine
 10
363.4041130045056
 20
409.0514137218414
 30
0.0
 11
365.3272446608057
 21
409.0514137218414
 31
0.0
  0
LINE
  5
338E
330
1A
100
AcDbEntity
  8
SEIHIN
  6
CONTINUOUS
 62
     3
 48
5.0
100
AcDbLine
 10
360.3272446608057
 20
408.4514137218413
 30
0.0
 11
363.4041130045056
 21
408.4514137218414
 31
0.0
  0
LINE
  5
338F
330
1A
100
AcDbEntity
  8
SEIHIN
  6
CONTINUOUS
 62
     3
 48
5.0
100
AcDbLine
 10
358.4041130045056
 20
409.0514137218414
 30
0.0
 11
360.3272446608057
 21
409.0514137218414
 31
0.0
  0
LINE
  5
33A9
330
1A
100
AcDbEntity
  8
SEIHIN
  6
CONTINUOUS
 62
     3
 48
5.0
100
AcDbLine
 10
368.4041130045057
 20
409.0514137218414
 30
0.0
 11
370.3272446608055
 21
409.0514137218415
 31
0.0
  0
LINE
  5
33B5
330
1A
100
AcDbEntity
  8
SEIHIN
  6
CONTINUOUS
 62
     3
 48
5.0
100
AcDbLine
 10
365.3272446608057
 20
408.4514137218413
 30
0.0
 11
368.4041130045057
 21
408.4514137218414
 31
0.0
  0
ELLIPSE
  5
33BE
330
1A
100
AcDbEntity
  8
SEIHIN
  6
CONTINUOUS
 62
     3
 48
5.0
100
AcDbEllipse
 10
378.8698425623056
 20
151.5566732624058
 30
0.0
 11
1.413349728277353
 21
1.446946299985
 31
0.0
210
0.0
220
0.0
230
0.9999999999999998
 40
0.9779746969000001
 41
2.355583853645951
 42
2.398304268370643
  0
ELLIPSE
  5
33BF
330
1A
100
AcDbEntity
  8
SEIHIN
  6
CONTINUOUS
 62
     3
 48
5.0
100
AcDbEllipse
 10
378.8698425623056
 20
151.2857019690059
 30
0.0
 11
0.0
 21
2.001829143904827
 31
0.0
210
0.0
220
0.0
230
1.0
 40
0.9990862636999999
 41
1.570796326794897
 42
3.141592653589793
  0
SPLINE
  5
33C0
330
1A
100
AcDbEntity
  8
SEIHIN
  6
CONTINUOUS
 62
     3
 48
5.0
100
AcDbSpline
210
0.0
220
0.0
230
1.0
 70
    24
 71
     3
 72
     9
 73
     5
 74
     0
 42
0.0000000001
 43
0.0000000001
 40
0.0
 40
0.0
 40
0.0
 40
0.0
 40
0.5038625610351521
 40
1.0
 40
1.0
 40
1.0
 40
1.0
 10
377.3383677525007
 20
223.2812509674538
 30
0.0
 10
377.3480800623335
 20
223.2820600047091
 30
0.0
 10
377.3673557747674
 20
223.2836656752189
 30
0.0
 10
377.3690179132038
 20
223.2838041316666
 30
0.0
 10
377.3698425623106
 20
223.283872825094
 30
0.0
  0
SPLINE
  5
33C2
330
1A
100
AcDbEntity
  8
SEIHIN
  6
CONTINUOUS
 62
     3
 48
5.0
100
AcDbSpline
210
0.0
220
0.0
230
1.0
 70
     8
 71
     3
 72
    15
 73
    11
 74
     0
 42
0.0000000001
 43
0.0000000001
 40
0.0
 40
0.0
 40
0.0
 40
0.0
 40
0.0021335379684039
 40
0.1499329941309968
 40
0.3001170082500851
 40
0.4518188291921791
 40
0.6073322286562324
 40
0.71554715133876
 40
0.8265004634859115
 40
1.0
 40
1.0
 40
1.0
 40
1.0
 10
377.3698425623106
 20
195.783872825094
 30
0.0
 10
377.3698397942983
 20
195.7875995883715
 30
0.0
 10
377.3696452740298
 20
196.0494954556578
 30
0.0
 10
377.3277776281031
 20
196.5742377278685
 30
0.0
 10
377.1409170196632
 20
197.351644987216
 30
0.0
 10
376.8165482683093
 20
198.1228531021237
 30
0.0
 10
376.3889815639631
 20
198.7932260338832
 30
0.0
 10
375.8904686290946
 20
199.3531936616655
 30
0.0
 10
375.2732950339925
 20
199.8981256871481
 30
0.0
 10
374.7121239657351
 20
200.1890200425973
 30
0.0
 10
374.3698425623108
 20
200.3664485200498
 30
0.0
  0
LINE
  5
3447
330
1A
100
AcDbEntity
  8
SEIHIN
  6
CONTINUOUS
 62
     3
 48
5.0
100
AcDbLine
 10
376.8698425623056
 20
151.5121266500058
 30
0.0
 11
376.8698425623056
 21
197.9350852054058
 31
0.0
  0
LINE
  5
3448
330
1A
100
AcDbEntity
  8
SEIHIN
  6
CONTINUOUS
 62
     3
 48
5.0
100
AcDbLine
 10
377.3698425623056
 20
175.5517369817058
 30
0.0
 11
377.3698425623056
 21
190.3770429665058
 31
0.0
  0
LINE
  5
3449
330
1A
100
AcDbEntity
  8
SEIHIN
  6
CONTINUOUS
 62
     3
 48
5.0
100
AcDbLine
 10
385.3698425623056
 20
175.5517369817058
 30
0.0
 11
385.3698425623056
 21
188.4003355019059
 31
0.0
  0
LINE
  5
344B
330
1A
100
AcDbEntity
  8
SEIHIN
  6
CONTINUOUS
 62
     3
 48
5.0
100
AcDbLine
 10
377.3698425623056
 20
157.0810020713058
 30
0.0
 11
377.3698425623056
 21
175.5517369817058
 31
0.0
  0
LINE
  5
344C
330
1A
100
AcDbEntity
  8
SEIHIN
  6
CONTINUOUS
 62
     3
 48
5.0
100
AcDbLine
 10
385.3698425623056
 20
175.5517369817058
 30
0.0
 11
385.3698425623056
 21
157.0810020713058
 31
0.0
  0
ARC
  5
344E
330
1A
100
AcDbEntity
  8
SEIHIN
  6
CONTINUOUS
 62
     3
 48
5.0
100
AcDbCircle
 10
379.3684730361055
 20
151.8395684195058
 30
0.0
 40
1.998630944352035
100
AcDbArc
 50
180.0393147922012
 51
270.039260912699
  0
LINE
  5
344F
330
1A
100
AcDbEntity
  8
SEIHIN
  6
CONTINUOUS
 62
     3
 48
5.0
100
AcDbLine
 10
385.3698425623056
 20
157.0810020713058
 30
0.0
 11
385.3698425623056
 21
149.8409379444058
 31
0.0
  0
LINE
  5
3451
330
1A
100
AcDbEntity
  8
SEIHIN
  6
CONTINUOUS
 62
     3
 48
5.0
100
AcDbLine
 10
378.8698425623056
 20
149.2838728251058
 30
0.0
 11
385.3698425623056
 21
149.2838728251058
 31
0.0
  0
LINE
  5
3453
330
1A
100
AcDbEntity
  8
SEIHIN
  6
CONTINUOUS
 62
     3
 48
5.0
100
AcDbLine
 10
379.3698425623056
 20
149.8409379444058
 30
0.0
 11
385.3698425623056
 21
149.8409379444058
 31
0.0
  0
LINE
  5
3456
330
1A
100
AcDbEntity
  8
SEIHIN
  6
CONTINUOUS
 62
     3
 48
5.0
100
AcDbLine
 10
376.8698425623056
 20
151.2857019690059
 30
0.0
 11
376.8698425623056
 21
151.5121266500058
 31
0.0
  0
LINE
  5
345C
330
1A
100
AcDbEntity
  8
SEIHIN
  6
CONTINUOUS
 62
     3
 48
5.0
100
AcDbLine
 10
385.3698425623056
 20
149.8409379444058
 30
0.0
 11
385.3698425623056
 21
149.2838728251058
 31
0.0
  0
LINE
  5
345E
330
1A
100
AcDbEntity
  8
SEIHIN
  6
CONTINUOUS
 62
     3
 48
5.0
100
AcDbLine
 10
377.3698425623056
 20
151.8381970139058
 30
0.0
 11
377.3698425623056
 21
157.0810020713058
 31
0.0
  0
LINE
  5
345F
330
1A
100
AcDbEntity
  8
SEIHIN
  6
CONTINUOUS
 62
     3
 48
5.0
100
AcDbLine
 10
377.3698425623056
 20
151.8237972548058
 30
0.0
 11
377.3698425623056
 21
151.8381970139058
 31
0.0
  0
LINE
  5
3463
330
1A
100
AcDbEntity
  8
SEIHIN
  6
CONTINUOUS
 62
     3
 48
5.0
100
AcDbLine
 10
377.3698425623056
 20
198.2838728251058
 30
0.0
 11
377.3698425623056
 21
213.2838728251058
 31
0.0
  0
LINE
  5
3465
330
1A
100
AcDbEntity
  8
SEIHIN
  6
CONTINUOUS
 62
     3
 48
5.0
100
AcDbLine
 10
385.3698425623056
 20
198.2838728251058
 30
0.0
 11
385.3698425623056
 21
213.2838728251058
 31
0.0
  0
LINE
  5
346A
330
1A
100
AcDbEntity
  8
SEIHIN
  6
CONTINUOUS
 62
     3
 48
5.0
100
AcDbLine
 10
377.3698425623056
 20
190.3770429665058
 30
0.0
 11
377.3698425623056
 21
198.2838728251058
 31
0.0
  0
LINE
  5
346D
330
1A
100
AcDbEntity
  8
SEIHIN
  6
CONTINUOUS
 62
     3
 48
5.0
100
AcDbLine
 10
385.3698425623056
 20
188.4003355019059
 30
0.0
 11
385.3698425623056
 21
198.2838728251058
 31
0.0
  0
ARC
  5
346E
330
1A
100
AcDbEntity
  8
SEIHIN
  6
CONTINUOUS
 62
     3
 48
5.0
100
AcDbCircle
 10
379.3698425623056
 20
221.2838728251058
 30
0.0
 40
2.0
100
AcDbArc
 50
90.0
 51
180.0
  0
LINE
  5
346F
330
1A
100
AcDbEntity
  8
SEIHIN
  6
CONTINUOUS
 62
     3
 48
5.0
100
AcDbLine
 10
374.2038172048055
 20
223.0201423110059
 30
0.0
 11
377.3383677525057
 21
223.2812509674058
 31
0.0
  0
LINE
  5
3471
330
1A
100
AcDbEntity
  8
SEIHIN
  6
CONTINUOUS
 62
     3
 48
5.0
100
AcDbLine
 10
385.3698425623056
 20
223.2838728251058
 30
0.0
 11
385.3698425623056
 21
213.2838728251058
 31
0.0
  0
LINE
  5
3473
330
1A
100
AcDbEntity
  8
SEIHIN
  6
CONTINUOUS
 62
     3
 48
5.0
100
AcDbLine
 10
377.3698425623056
 20
213.2838728251058
 30
0.0
 11
377.3698425623056
 21
221.2838728251058
 31
0.0
  0
LINE
  5
3478
330
1A
100
AcDbEntity
  8
SEIHIN
  6
CONTINUOUS
 62
     3
 48
5.0
100
AcDbLine
 10
379.3698425623056
 20
223.2838728251058
 30
0.0
 11
385.3698425623056
 21
223.2838728251058
 31
0.0
  0
LINE
  5
3479
330
1A
100
AcDbEntity
  8
SEIHIN
  6
CONTINUOUS
 62
     3
 48
5.0
100
AcDbLine
 10
377.3698425623056
 20
223.2838728251058
 30
0.0
 11
379.3698425623056
 21
223.2838728251058
 31
0.0
  0
LINE
  5
357C
330
1A
100
AcDbEntity
  8
SEIHIN
  6
CONTINUOUS
 62
     3
 48
5.0
100
AcDbLine
 10
385.3698425623056
 20
419.2014137218414
 30
0.0
 11
385.3698425623056
 21
365.2014137218413
 31
0.0
  0
LINE
  5
357D
330
1A
100
AcDbEntity
  8
SEIHIN
  6
CONTINUOUS
 62
     3
 48
5.0
100
AcDbLine
 10
377.3698425623056
 20
365.2014137218413
 30
0.0
 11
377.3698425623056
 21
372.9514137218414
 31
0.0
  0
LINE
  5
357F
330
1A
100
AcDbEntity
  8
SEIHIN
  6
CONTINUOUS
 62
     3
 48
5.0
100
AcDbLine
 10
385.3698425623056
 20
355.2014137218414
 30
0.0
 11
379.3698425623056
 21
355.2014137218414
 31
0.0
  0
LINE
  5
3581
330
1A
100
AcDbEntity
  8
SEIHIN
  6
CONTINUOUS
 62
     3
 48
5.0
100
AcDbLine
 10
377.3698425623056
 20
357.2014137218413
 30
0.0
 11
377.3698425623056
 21
365.2014137218413
 31
0.0
  0
ARC
  5
3582
330
1A
100
AcDbEntity
  8
SEIHIN
  6
CONTINUOUS
 62
     3
 48
5.0
100
AcDbCircle
 10
379.3698425623056
 20
357.2014137218413
 30
0.0
 40
2.0
100
AcDbArc
 50
180.0
 51
270.0
  0
LINE
  5
3585
330
1A
100
AcDbEntity
  8
SEIHIN
  6
CONTINUOUS
 62
     3
 48
5.0
100
AcDbLine
 10
385.3698425623056
 20
365.2014137218413
 30
0.0
 11
385.3698425623056
 21
355.2014137218414
 31
0.0
  0
ARC
  5
3586
330
1A
100
AcDbEntity
  8
SEIHIN
  6
CONTINUOUS
 62
     3
 48
5.0
100
AcDbCircle
 10
374.3698425623056
 20
372.9514137218414
 30
0.0
 40
3.000000000000028
100
AcDbArc
 50
0.0
 51
51.92945526120634
  0
ARC
  5
3589
330
1A
100
AcDbEntity
  8
SEIHIN
  6
CONTINUOUS
 62
     3
 48
5.0
100
AcDbCircle
 10
374.3698425623056
 20
372.9514137218414
 30
0.0
 40
3.000000000000018
100
AcDbArc
 50
51.92945526120634
 51
90.0
  0
LINE
  5
358C
330
1A
100
AcDbEntity
  8
SEIHIN
  6
CONTINUOUS
 62
     3
 48
5.0
100
AcDbLine
 10
377.3698425623056
 20
419.2014137218414
 30
0.0
 11
377.3698425623056
 21
427.2014137218414
 31
0.0
  0
LINE
  5
358D
330
1A
100
AcDbEntity
  8
SEIHIN
  6
CONTINUOUS
 62
     3
 48
5.0
100
AcDbLine
 10
385.3698425623056
 20
429.2014137218414
 30
0.0
 11
385.3698425623056
 21
419.2014137218414
 31
0.0
  0
LINE
  5
358F
330
1A
100
AcDbEntity
  8
SEIHIN
  6
CONTINUOUS
 62
     3
 48
5.0
100
AcDbLine
 10
377.3698425623056
 20
411.4514137218414
 30
0.0
 11
377.3698425623056
 21
419.2014137218414
 31
0.0
  0
ARC
  5
3592
330
1A
100
AcDbEntity
  8
SEIHIN
  6
CONTINUOUS
 62
     3
 48
5.0
100
AcDbCircle
 10
374.3698425623056
 20
411.4514137218414
 30
0.0
 40
3.0
100
AcDbArc
 50
270.0
 51
308.0705447388044
  0
ARC
  5
3596
330
1A
100
AcDbEntity
  8
SEIHIN
  6
CONTINUOUS
 62
     3
 48
5.0
100
AcDbCircle
 10
374.3698425623056
 20
411.4514137218414
 30
0.0
 40
2.999999999999996
100
AcDbArc
 50
308.0705447388044
 51
0.0
  0
LINE
  5
3599
330
1A
100
AcDbEntity
  8
SEIHIN
  6
CONTINUOUS
 62
     3
 48
5.0
100
AcDbLine
 10
379.3698425623056
 20
429.2014137218414
 30
0.0
 11
385.3698425623056
 21
429.2014137218414
 31
0.0
  0
ARC
  5
359A
330
1A
100
AcDbEntity
  8
SEIHIN
  6
CONTINUOUS
 62
     3
 48
5.0
100
AcDbCircle
 10
379.3698425623056
 20
427.2014137218414
 30
0.0
 40
2.0
100
AcDbArc
 50
90.0
 51
180.0
  0
LINE
  5
359B
330
1A
100
AcDbEntity
  8
SEIHIN
  6
CONTINUOUS
 62
     3
 48
5.0
100
AcDbLine
 10
289.2424575622781
 20
161.1848645749311
 30
0.0
 11
288.5907575622782
 21
161.4454645749311
 31
0.0
  0
LINE
  5
359C
330
1A
100
AcDbEntity
  8
SEIHIN
  6
CONTINUOUS
 62
     3
 48
5.0
100
AcDbLine
 10
291.7488575622781
 20
165.9736645749312
 30
0.0
 11
290.9552575622781
 21
162.7992645749312
 31
0.0
  0
ARC
  5
359D
330
1A
100
AcDbEntity
  8
SEIHIN
  6
CONTINUOUS
 62
     3
 48
5.0
100
AcDbCircle
 10
293.0324314320912
 20
167.3338415747452
 30
0.0
 40
3.000049033934637
100
AcDbArc
 50
114.7158125720392
 51
147.9923602742415
  0
ARC
  5
359E
330
1A
100
AcDbEntity
  8
SEIHIN
  6
CONTINUOUS
 62
     3
 48
5.0
100
AcDbCircle
 10
290.884369451526
 20
166.7272644660404
 30
0.0
 40
0.5000111398116991
100
AcDbArc
 50
30.9566074278673
 51
147.9953282692656
  0
LINE
  5
359F
330
1A
100
AcDbEntity
  8
SEIHIN
  6
CONTINUOUS
 62
     3
 48
5.0
100
AcDbLine
 10
289.8698575622781
 20
170.3338645749313
 30
0.0
 11
289.8698575622781
 21
172.2779809613742
 31
0.0
  0
LINE
  5
35A0
330
1A
100
AcDbEntity
  8
SEIHIN
  6
CONTINUOUS
 62
     3
 48
5.0
100
AcDbLine
 10
290.4884575622781
 20
168.9239645749312
 30
0.0
 11
287.6375575622783
 21
164.3624645749312
 31
0.0
  0
LINE
  5
35A1
330
1A
100
AcDbEntity
  8
SEIHIN
  6
CONTINUOUS
 62
     3
 48
5.0
100
AcDbLine
 10
288.9620575622782
 20
162.3739645749311
 30
0.0
 11
289.6137575622781
 21
162.1132645749311
 31
0.0
  0
LINE
  5
35A2
330
1A
100
AcDbEntity
  8
SEIHIN
  6
CONTINUOUS
 62
     3
 48
5.0
100
AcDbLine
 10
288.4855575622782
 20
163.8324645749312
 30
0.0
 11
290.4603575622782
 21
166.9922645749313
 31
0.0
  0
ARC
  5
35A3
330
1A
100
AcDbEntity
  8
SEIHIN
  6
CONTINUOUS
 62
     3
 48
5.0
100
AcDbCircle
 10
289.3334794040167
 20
163.3023977306312
 30
0.0
 40
0.9999711541457587
100
AcDbArc
 50
147.9889954755488
 51
248.1960061189781
  0
ARC
  5
35A4
330
1A
100
AcDbEntity
  8
SEIHIN
  6
CONTINUOUS
 62
     3
 48
5.0
100
AcDbCircle
 10
289.9850705853539
 20
163.0417712341753
 30
0.0
 40
1.000036124333159
100
AcDbArc
 50
248.1980394374691
 51
345.9659845784222
  0
LINE
  5
35A5
330
1A
100
AcDbEntity
  8
SEIHIN
  6
CONTINUOUS
 62
     3
 48
5.0
100
AcDbLine
 10
301.3699575622781
 20
197.2838728251057
 30
0.0
 11
291.3699575622781
 21
197.2838728251057
 31
0.0
  0
LINE
  5
35A6
330
1A
100
AcDbEntity
  8
CENTER_L
  6
CENTER
 62
     1
 48
5.0
100
AcDbLine
 10
296.3699425623055
 20
157.2465250090482
 30
0.0
 11
296.3699425623055
 21
205.8985525957646
 31
0.0
  0
LINE
  5
35A7
330
1A
100
AcDbEntity
  8
SEIHIN
  6
CONTINUOUS
 62
     3
 48
5.0
100
AcDbLine
 10
302.8698575622781
 20
170.3338645749313
 30
0.0
 11
289.8698575622781
 21
170.3339645749313
 31
0.0
  0
LINE
  5
35A8
330
1A
100
AcDbEntity
  8
SEIHIN
  6
CONTINUOUS
 62
     3
 48
5.0
100
AcDbLine
 10
299.8697575622779
 20
166.3338645749313
 30
0.0
 11
296.3696575622782
 21
166.3338645749313
 31
0.0
  0
ARC
  5
35A9
330
1A
100
AcDbEntity
  8
SEIHIN
  6
CONTINUOUS
 62
     3
 48
5.0
100
AcDbCircle
 10
289.9851381495632
 20
163.0417546495151
 30
0.0
 40
1.999940936611961
100
AcDbArc
 50
248.1979372932137
 51
345.9627776110105
  0
ARC
  5
35AA
330
1A
100
AcDbEntity
  8
SEIHIN
  6
CONTINUOUS
 62
     3
 48
5.0
100
AcDbCircle
 10
301.8550456730301
 20
166.7272644660404
 30
0.0
 40
0.5000111398118175
100
AcDbArc
 50
32.0046717307288
 51
149.043392572127
  0
ARC
  5
35AB
330
1A
100
AcDbEntity
  8
SEIHIN
  6
CONTINUOUS
 62
     3
 48
5.0
100
AcDbCircle
 10
299.7069836924649
 20
167.3338415747452
 30
0.0
 40
3.00004903393469
100
AcDbArc
 50
32.00763972576187
 51
65.28418742795803
  0
LINE
  5
35AC
330
1A
100
AcDbEntity
  8
SEIHIN
  6
CONTINUOUS
 62
     3
 48
5.0
100
AcDbLine
 10
291.3696575622782
 20
168.8338645749313
 30
0.0
 11
296.3696575622782
 21
168.8338645749313
 31
0.0
  0
LINE
  5
35AD
330
1A
100
AcDbEntity
  8
SEIHIN
  6
CONTINUOUS
 62
     3
 48
5.0
100
AcDbLine
 10
291.3696575622782
 20
168.8338645749313
 30
0.0
 11
292.8696575622782
 21
166.3338645749313
 31
0.0
  0
LINE
  5
35AE
330
1A
100
AcDbEntity
  8
SEIHIN
  6
CONTINUOUS
 62
     3
 48
5.0
100
AcDbLine
 10
293.9695575622781
 20
166.3338645749313
 30
0.0
 11
293.9695575622781
 21
164.3342645749312
 31
0.0
  0
LINE
  5
35AF
330
1A
100
AcDbEntity
  8
SEIHIN
  6
CONTINUOUS
 62
     3
 48
5.0
100
AcDbLine
 10
296.3696575622782
 20
164.3341645749312
 30
0.0
 11
293.369557562278
 21
164.3341645749312
 31
0.0
  0
ARC
  5
35B0
330
1A
100
AcDbEntity
  8
SEIHIN
  6
CONTINUOUS
 62
     3
 48
5.0
100
AcDbCircle
 10
303.405848207615
 20
163.3024359485565
 30
0.0
 40
2.000027104776151
100
AcDbArc
 50
291.8019628745917
 51
32.00593659633253
  0
LINE
  5
35B1
330
1A
100
AcDbEntity
  8
SEIHIN
  6
CONTINUOUS
 62
     3
 48
5.0
100
AcDbLine
 10
303.497057562278
 20
161.1848645749311
 30
0.0
 11
304.1486575622782
 21
161.4454645749311
 31
0.0
  0
LINE
  5
35B2
330
1A
100
AcDbEntity
  8
SEIHIN
  6
CONTINUOUS
 62
     3
 48
5.0
100
AcDbLine
 10
296.3696575622782
 20
164.3341645749312
 30
0.0
 11
299.3698575622781
 21
164.3341645749312
 31
0.0
  0
ARC
  5
35B3
330
1A
100
AcDbEntity
  8
SEIHIN
  6
CONTINUOUS
 62
     3
 48
5.0
100
AcDbCircle
 10
289.3335669169414
 20
163.3024359485565
 30
0.0
 40
2.000027104776099
100
AcDbArc
 50
147.9940634036709
 51
248.1980371254082
  0
LINE
  5
35B4
330
1A
100
AcDbEntity
  8
SEIHIN
  6
CONTINUOUS
 62
     3
 48
5.0
100
AcDbLine
 10
302.8698575622781
 20
170.3338645749313
 30
0.0
 11
302.8698575622781
 21
172.05088665818
 31
0.0
  0
LINE
  5
35B5
330
1A
100
AcDbEntity
  8
SEIHIN
  6
CONTINUOUS
 62
     3
 48
5.0
100
AcDbLine
 10
292.8696575622782
 20
166.3338645749313
 30
0.0
 11
291.9253575622781
 21
162.556664574931
 31
0.0
  0
LINE
  5
35B6
330
1A
100
AcDbEntity
  8
SEIHIN
  6
CONTINUOUS
 62
     3
 48
5.0
100
AcDbLine
 10
301.3697575622779
 20
168.8338645749313
 30
0.0
 11
299.8697575622779
 21
166.3338645749313
 31
0.0
  0
LINE
  5
35B7
330
1A
100
AcDbEntity
  8
SEIHIN
  6
CONTINUOUS
 62
     3
 48
5.0
100
AcDbLine
 10
300.8697575622782
 20
170.3338645749313
 30
0.0
 11
301.3697575622779
 21
168.8338645749313
 31
0.0
  0
LINE
  5
35B8
330
1A
100
AcDbEntity
  8
SEIHIN
  6
CONTINUOUS
 62
     3
 48
5.0
100
AcDbLine
 10
299.8697575622779
 20
166.3338645749313
 30
0.0
 11
300.8140575622781
 21
162.556664574931
 31
0.0
  0
LINE
  5
35B9
330
1A
100
AcDbEntity
  8
SEIHIN
  6
CONTINUOUS
 62
     3
 48
5.0
100
AcDbLine
 10
299.3698575622781
 20
164.3342645749312
 30
0.0
 11
299.3698575622781
 21
166.3338645749313
 31
0.0
  0
LINE
  5
35BA
330
1A
100
AcDbEntity
  8
SEIHIN
  6
CONTINUOUS
 62
     3
 48
5.0
100
AcDbLine
 10
301.4262575622781
 20
166.9844645749312
 30
0.0
 11
301.046957562278
 21
166.3521645749312
 31
0.0
  0
ARC
  5
35BB
330
1A
100
AcDbEntity
  8
SEIHIN
  6
CONTINUOUS
 62
     3
 48
5.0
100
AcDbCircle
 10
302.7543445392022
 20
163.0417712341753
 30
0.0
 40
1.000036124333121
100
AcDbArc
 50
194.0340154215714
 51
291.8019605625369
  0
ARC
  5
35BC
330
1A
100
AcDbEntity
  8
SEIHIN
  6
CONTINUOUS
 62
     3
 48
5.0
100
AcDbCircle
 10
301.4756383042367
 20
166.0948351195907
 30
0.0
 40
0.4999856269055761
100
AcDbArc
 50
149.0243524915595
 51
194.0251660642242
  0
LINE
  5
35BD
330
1A
100
AcDbEntity
  8
SEIHIN
  6
CONTINUOUS
 62
     3
 48
5.0
100
AcDbLine
 10
303.7773575622782
 20
162.3739645749311
 30
0.0
 11
303.1257575622782
 21
162.1132645749311
 31
0.0
  0
LINE
  5
35BE
330
1A
100
AcDbEntity
  8
SEIHIN
  6
CONTINUOUS
 62
     3
 48
5.0
100
AcDbLine
 10
304.2539575622781
 20
163.8324645749312
 30
0.0
 11
302.2790575622782
 21
166.9922645749313
 31
0.0
  0
LINE
  5
35BF
330
1A
100
AcDbEntity
  8
SEIHIN
  6
CONTINUOUS
 62
     3
 48
5.0
100
AcDbLine
 10
300.9905575622781
 20
165.9736645749312
 30
0.0
 11
301.7841575622781
 21
162.7992645749312
 31
0.0
  0
ARC
  5
35C0
330
1A
100
AcDbEntity
  8
SEIHIN
  6
CONTINUOUS
 62
     3
 48
5.0
100
AcDbCircle
 10
296.3700333957781
 20
189.7004728248105
 30
0.0
 40
9.08334724841171
100
AcDbArc
 50
56.60214236039834
 51
123.3990035551927
  0
LINE
  5
35C1
330
1A
100
AcDbEntity
  8
SEIHIN
  6
CONTINUOUS
 62
     3
 48
5.0
100
AcDbLine
 10
291.3699575622781
 20
196.2838728251058
 30
0.0
 11
291.3699575622781
 21
197.2837728251057
 31
0.0
  0
LINE
  5
35C2
330
1A
100
AcDbEntity
  8
SEIHIN
  6
CONTINUOUS
 62
     3
 48
5.0
100
AcDbLine
 10
301.3699575622781
 20
196.2838728251058
 30
0.0
 11
301.3699575622781
 21
197.2838728251057
 31
0.0
  0
LINE
  5
35C3
330
1A
100
AcDbEntity
  8
SEIHIN
  6
CONTINUOUS
 62
     3
 48
5.0
100
AcDbLine
 10
302.2509575622782
 20
168.9239645749312
 30
0.0
 11
305.1018575622781
 21
164.3624645749312
 31
0.0
  0
LINE
  5
35C4
330
1A
100
AcDbEntity
  8
SEIHIN
  6
CONTINUOUS
 62
     3
 48
5.0
100
AcDbLine
 10
291.8696575622782
 20
170.3338645749313
 30
0.0
 11
291.3696575622782
 21
168.8338645749313
 31
0.0
  0
LINE
  5
35C5
330
1A
100
AcDbEntity
  8
SEIHIN
  6
CONTINUOUS
 62
     3
 48
5.0
100
AcDbLine
 10
298.769857562278
 20
166.3338645749313
 30
0.0
 11
298.769857562278
 21
164.3342645749312
 31
0.0
  0
LINE
  5
35C6
330
1A
100
AcDbEntity
  8
SEIHIN
  6
CONTINUOUS
 62
     3
 48
5.0
100
AcDbLine
 10
292.8696575622782
 20
166.3338645749313
 30
0.0
 11
296.3696575622782
 21
166.3338645749313
 31
0.0
  0
LINE
  5
35C7
330
1A
100
AcDbEntity
  8
SEIHIN
  6
CONTINUOUS
 62
     3
 48
5.0
100
AcDbLine
 10
291.313157562278
 20
166.9844645749312
 30
0.0
 11
291.6925575622781
 21
166.3521645749312
 31
0.0
  0
LINE
  5
35C8
330
1A
100
AcDbEntity
  8
SEIHIN
  6
CONTINUOUS
 62
     3
 48
5.0
100
AcDbLine
 10
293.369557562278
 20
164.3342645749312
 30
0.0
 11
293.369557562278
 21
166.3338645749313
 31
0.0
  0
ARC
  5
35C9
330
1A
100
AcDbEntity
  8
SEIHIN
  6
CONTINUOUS
 62
     3
 48
5.0
100
AcDbCircle
 10
303.4059528849466
 20
163.3024502617437
 30
0.0
 40
1.000013552387965
100
AcDbArc
 50
291.8019628745917
 51
32.00593659633805
  0
LINE
  5
35CA
330
1A
100
AcDbEntity
  8
SEIHIN
  6
CONTINUOUS
 62
     3
 48
5.0
100
AcDbLine
 10
301.3697575622779
 20
168.8338645749313
 30
0.0
 11
296.3696575622782
 21
168.8338645749313
 31
0.0
  0
ARC
  5
35CB
330
1A
100
AcDbEntity
  8
SEIHIN
  6
CONTINUOUS
 62
     3
 48
5.0
100
AcDbCircle
 10
291.2637603337227
 20
166.0949459382927
 30
0.0
 40
0.5000284894393518
100
AcDbArc
 50
345.9629721354997
 51
30.95789060904053
  0
ARC
  5
35CC
330
1A
100
AcDbEntity
  8
SEIHIN
  6
CONTINUOUS
 62
     3
 48
5.0
100
AcDbCircle
 10
302.7542976999161
 20
163.0417951838268
 30
0.0
 40
1.999970874635243
100
AcDbArc
 50
194.0382049404031
 51
291.8010801553809
  0
ARC
  5
35FD
330
1A
100
AcDbEntity
  8
SEIHIN
  6
CONTINUOUS
 62
     3
 48
5.0
100
AcDbCircle
 10
296.3698425623056
 20
392.3868137218414
 30
0.0
 40
5.000000000000042
100
AcDbArc
 50
0.0
 51
180.0
  0
ARC
  5
35FE
330
1A
100
AcDbEntity
  8
SEIHIN
  6
CONTINUOUS
 62
     3
 48
5.0
100
AcDbCircle
 10
296.3698425623056
 20
392.3868137218414
 30
0.0
 40
5.0
100
AcDbArc
 50
180.0
 51
0.0
  0
LINE
  5
35FF
330
1A
100
AcDbEntity
  8
CENTER_L
  6
CENTER
 62
     1
 48
5.0
100
AcDbLine
 10
296.3699425623055
 20
384.8954137218415
 30
0.0
 11
296.3699425623055
 21
399.5074137218413
 31
0.0
  0
LINE
  5
36BF
330
1A
100
AcDbEntity
  8
CENTER_L
  6
CENTER
 62
     1
 48
5.0
100
AcDbLine
 10
208.4754381871489
 20
392.2014137218413
 30
0.0
 11
399.052031353427
 21
392.2014137218413
 31
0.0
  0
LINE
  5
36C0
330
1A
100
AcDbEntity
  8
CENTER_L
  6
CENTER
 62
     1
 48
5.0
100
AcDbLine
 10
370.899229969671
 20
363.2014137218413
 30
0.0
 11
392.9938763935208
 21
363.2014137218413
 31
0.0
  0
LINE
  5
36C1
330
1A
100
AcDbEntity
  8
CENTER_L
  6
CENTER
 62
     1
 48
5.0
100
AcDbLine
 10
370.899229969671
 20
421.2014137218413
 30
0.0
 11
392.9938763935208
 21
421.2014137218414
 31
0.0
  0
DIMENSION
  5
36C2
330
1A
100
AcDbEntity
  8
SUNPOU
100
AcDbDimension
  2
*D2
 10
432.9649692408998
 20
355.2014137218414
 30
0.0
 11
427.9649692408997
 21
392.2014137218415
 31
0.0
 70
    32
  3
STANDARD
100
AcDbAlignedDimension
 13
385.3698425623056
 23
429.2014137218414
 33
0.0
 14
385.3698425623056
 24
355.2014137218414
 34
0.0
 50
90.0
100
AcDbRotatedDimension
1001
ACAD
1000
DSTYLE
1002
{
1070
   287
1070
     5
1070
    41
1040
7.0
1070
    42
1040
6.0
1070
    43
1040
14.0
1070
    44
1040
3.0
1070
    73
1070
     0
1070
    74
1070
     0
1070
    77
1070
     3
1070
   140
1040
6.0
1070
   141
1040
150.0
1070
   147
1040
2.0
1070
   172
1070
     1
1070
   173
1070
     1
1070
   176
1070
   256
1070
   177
1070
   256
1070
   178
1070
   256
1070
   271
1070
     0
1070
   272
1070
     0
1070
   279
1070
     2
1070
   341
1005
6D
1070
     6
1000
OPEN
1070
     7
1000
OPEN
1070
   371
1070
    -1
1070
   372
1070
    -1
1002
}
  0
DIMENSION
  5
36CF
330
1A
100
AcDbEntity
  8
SUNPOU
100
AcDbDimension
  2
*D3
 10
183.0399181989355
 20
378.2014137218415
 30
0.0
 11
178.0399181989354
 21
392.2014137218415
 31
0.0
 70
    32
  3
STANDARD
100
AcDbAlignedDimension
 13
224.4957169512056
 23
406.2014137218414
 33
0.0
 14
223.7258942670057
 24
378.2014137218415
 34
0.0
 50
90.0
100
AcDbRotatedDimension
1001
ACAD
1000
DSTYLE
1002
{
1070
   287
1070
     5
1070
    41
1040
7.0
1070
    42
1040
6.0
1070
    43
1040
14.0
1070
    44
1040
3.0
1070
    73
1070
     0
1070
    74
1070
     0
1070
    77
1070
     3
1070
   140
1040
6.0
1070
   141
1040
150.0
1070
   147
1040
2.0
1070
   172
1070
     1
1070
   173
1070
     1
1070
   176
1070
   256
1070
   177
1070
   256
1070
   178
1070
   256
1070
   271
1070
     0
1070
   272
1070
     0
1070
   279
1070
     2
1070
   341
1005
6D
1070
     6
1000
OPEN
1070
     7
1000
OPEN
1070
   371
1070
    -1
1070
   372
1070
    -1
1002
}
  0
MTEXT
  5
3875
330
1A
100
AcDbEntity
  8
ZUWAKU
 62
     4
100
AcDbMText
 10
425.288998862615
 20
268.6829348999592
 30
0.0
 40
6.0
 41
0.0
 71
     9
 72
     5
  1
スライド幅
1001
ACAD
1000
MTEXTBEGIN
1070
    73
1070
     1
1070
    44
1040
1.0
1070
    74
1070
     0
1000
MTEXTEND
1000
MTEXTBEGIN
1070
    73
1070
     1
1070
    44
1040
1.0
1070
    74
1070
     0
1000
MTEXTEND
1000
MTEXTBEGIN
1070
    73
1070
     1
1070
    44
1040
1.0
1070
    74
1070
     0
1000
MTEXTEND
1000
MTEXTBEGIN
1070
    73
1070
     1
1070
    44
1040
1.0
1070
    74
1070
     0
1000
MTEXTEND
1000
MTEXTBEGIN
1070
    73
1070
     1
1070
    44
1040
1.0
1070
    74
1070
     0
1000
MTEXTEND
  0
DIMENSION
  5
3929
330
1A
100
AcDbEntity
  8
SUNPOU
 48
5.0
100
AcDbDimension
  2
*D5
 10
605.0811874750039
 20
298.7282500974332
 30
0.0
 11
568.0811874750038
 21
303.7282500974332
 31
0.0
 70
    32
  3
STANDARD
100
AcDbAlignedDimension
 13
531.0811874750038
 23
213.2838728251058
 33
0.0
 14
605.0811874750039
 24
213.2838728251058
 34
0.0
100
AcDbRotatedDimension
1001
ACAD
1000
DSTYLE
1002
{
1070
    41
1040
7.0
1070
    42
1040
6.0
1070
    43
1040
14.0
1070
    44
1040
3.0
1070
    73
1070
     0
1070
    74
1070
     0
1070
    77
1070
     3
1070
   140
1040
6.0
1070
   141
1040
150.0
1070
   147
1040
2.0
1070
   172
1070
     1
1070
   173
1070
     1
1070
   176
1070
     4
1070
   177
1070
     4
1070
   178
1070
     4
1070
   271
1070
     0
1070
   272
1070
     2
1070
     6
1000
OPEN
1070
     7
1000
OPEN
1002
}
  0
DIMENSION
  5
392A
330
1A
100
AcDbEntity
  8
SUNPOU
 48
5.0
100
AcDbDimension
  2
*D4
 10
597.0811874750038
 20
284.4241864363731
 30
0.0
 11
568.0811874750038
 21
289.4241864363731
 31
0.0
 70
    32
  3
STANDARD
100
AcDbAlignedDimension
 13
539.0811874750038
 23
218.8020031828835
 33
0.0
 14
597.0811874750038
 24
218.8020031828835
 34
0.0
100
AcDbRotatedDimension
1001
ACAD
1000
DSTYLE
1002
{
1070
    41
1040
7.0
1070
    42
1040
6.0
1070
    43
1040
14.0
1070
    44
1040
3.0
1070
    73
1070
     0
1070
    74
1070
     0
1070
    77
1070
     3
1070
   140
1040
6.0
1070
   141
1040
150.0
1070
   147
1040
2.0
1070
   172
1070
     1
1070
   173
1070
     1
1070
   176
1070
     4
1070
   177
1070
     4
1070
   178
1070
     4
1070
   271
1070
     0
1070
   272
1070
     2
1070
     6
1000
OPEN
1070
     7
1000
OPEN
1002
}
  0
SPLINE
  5
392B
330
1A
100
AcDbEntity
  8
SEIHIN
  6
CONTINUOUS
 62
     3
 48
5.0
100
AcDbSpline
210
0.0
220
0.0
230
1.0
 70
     8
 71
     3
 72
    16
 73
    12
 74
     0
 42
0.0000000001
 43
0.0000000001
 40
0.0
 40
0.0
 40
0.0
 40
0.0
 40
0.2171386642748686
 40
0.3334999788850273
 40
0.4097902014477654
 40
0.5030480635734489
 40
0.5599680007876811
 40
0.6707390720097967
 40
0.6997056276565266
 40
0.8636298164810032
 40
1.0
 40
1.0
 40
1.0
 40
1.0
 10
579.589044736336
 20
153.1663217138329
 30
0.0
 10
579.5254141604582
 20
153.1396450102856
 30
0.0
 10
579.4276849247061
 20
153.0986726661869
 30
0.0
 10
579.2945293089765
 20
153.0928005850675
 30
0.0
 10
579.2030275460649
 20
153.1106040367219
 30
0.0
 10
579.135415980784
 20
153.1444938428194
 30
0.0
 10
579.0716724905153
 20
153.202147057656
 30
0.0
 10
579.0377155104318
 20
153.2582823814395
 30
0.0
 10
579.0036854604427
 20
153.3498926794363
 30
0.0
 10
578.9891737178264
 20
153.4560544070045
 30
0.0
 10
579.0000728249883
 20
153.549609945227
 30
0.0
 10
579.0050223457945
 20
153.5920955429992
 30
0.0
  0
ELLIPSE
  5
392C
330
1A
100
AcDbEntity
  8
SEIHIN
  6
CONTINUOUS
 62
     3
 48
5.0
100
AcDbEllipse
 10
588.7068649998038
 20
189.9158388363058
 30
0.0
 11
-1.01036297108186
 21
-1.01036297108186
 31
0.0
210
0.0
220
0.0
230
-1.0
 40
0.6998542122
 41
2.456873450587516
 42
3.826311856592102
  0
SPLINE
  5
392D
330
1A
100
AcDbEntity
  8
SEIHIN
  6
CONTINUOUS
 62
     3
 48
5.0
100
AcDbSpline
210
0.0
220
0.0
230
1.0
 70
     8
 71
     3
 72
    10
 73
     6
 74
     0
 42
0.0000000001
 43
0.0000000001
 40
0.0
 40
0.0
 40
0.0
 40
0.0
 40
0.3471274010665737
 40
0.689563746072185
 40
1.0
 40
1.0
 40
1.0
 40
1.0
 10
589.9367023874694
 20
189.6627052612871
 30
0.0
 10
589.9315749301658
 20
189.5604798641636
 30
0.0
 10
589.9213893076669
 20
189.3574105369726
 30
0.0
 10
589.7712940871065
 20
189.0894691974455
 30
0.0
 10
589.6166976753593
 20
188.9757665599135
 30
0.0
 10
589.5431881866597
 20
188.9217017685363
 30
0.0
  0
ELLIPSE
  5
392E
330
1A
100
AcDbEntity
  8
SEIHIN
  6
CONTINUOUS
 62
     3
 48
5.0
100
AcDbEllipse
 10
580.2348597334039
 20
189.9158388363058
 30
0.0
 11
-1.01036297108186
 21
1.01036297108186
 31
0.0
210
0.0
220
0.0
230
-1.0
 40
0.6998542122
 41
5.598466104177317
 42
6.967904510181917
  0
SPLINE
  5
392F
330
1A
100
AcDbEntity
  8
SEIHIN
  6
CONTINUOUS
 62
     3
 48
5.0
100
AcDbSpline
210
0.0
220
0.0
230
1.0
 70
     8
 71
     3
 72
    13
 73
     9
 74
     0
 42
0.0000000001
 43
0.0000000001
 40
0.0
 40
0.0
 40
0.0
 40
0.0
 40
0.1851330428579794
 40
0.3650267311097466
 40
0.5303652848785339
 40
0.6879496806583965
 40
0.8506174307284018
 40
1.0
 40
1.0
 40
1.0
 40
1.0
 10
572.4865044281377
 20
164.9225538056343
 30
0.0
 10
572.4805124603348
 20
164.8015358024248
 30
0.0
 10
572.4686981003146
 20
164.5629246639969
 30
0.0
 10
572.3047121063037
 20
164.2452840258017
 30
0.0
 10
572.0510699820691
 20
164.0231508572608
 30
0.0
 10
571.7440140260796
 20
163.9183358407174
 30
0.0
 10
571.4305862152066
 20
163.9198640357526
 30
0.0
 10
571.2399693979072
 20
163.9908084651799
 30
0.0
 10
571.1487186343297
 20
164.0247704914509
 30
0.0
  0
SPLINE
  5
3930
330
1A
100
AcDbEntity
  8
SEIHIN
  6
CONTINUOUS
 62
     3
 48
5.0
100
AcDbSpline
210
0.0
220
0.0
230
1.0
 70
     8
 71
     3
 72
    13
 73
     9
 74
     0
 42
0.0000000001
 43
0.0000000001
 40
0.0
 40
0.0
 40
0.0
 40
0.0
 40
0.1853054207097844
 40
0.36517852152137
 40
0.5302701516764927
 40
0.6878236889830629
 40
0.8506852025218607
 40
1.0
 40
1.0
 40
1.0
 40
1.0
 10
565.0136563156916
 20
164.0247704914588
 30
0.0
 10
564.8993610110617
 20
163.9843072397658
 30
0.0
 10
564.6741210250879
 20
163.9045669365811
 30
0.0
 10
564.3179663064704
 20
163.9358842305765
 30
0.0
 10
564.016663582822
 20
164.0868276193614
 30
0.0
 10
563.8035815421869
 20
164.3312901745059
 30
0.0
 10
563.6859093108092
 20
164.6218308832276
 30
0.0
 10
563.6791185578833
 20
164.8252553280901
 30
0.0
 10
563.6758705218792
 20
164.9225538056327
 30
0.0
  0
ELLIPSE
  5
3931
330
1A
100
AcDbEntity
  8
SEIHIN
  6
CONTINUOUS
 62
     3
 48
5.0
100
AcDbEllipse
 10
571.4254110686038
 20
217.1280964187058
 30
0.0
 11
-0.7916666666666856
 21
-0.7916666666666572
 31
0.0
210
0.0
220
0.0
230
-1.0
 40
0.8931875130999998
 41
2.38562324316592
 42
3.897562064013644
  0
ELLIPSE
  5
3932
330
1A
100
AcDbEntity
  8
SEIHIN
  6
CONTINUOUS
 62
     3
 48
5.0
100
AcDbEllipse
 10
564.7369638814039
 20
217.1280964187058
 30
0.0
 11
-0.7916666666666287
 21
0.791666666666714
 31
0.0
210
0.0
220
0.0
230
-1.0
 40
0.8931875130999998
 41
5.52721589675569
 42
7.039154717603455
  0
ELLIPSE
  5
3933
330
1A
100
AcDbEntity
  8
SEIHIN
  6
CONTINUOUS
 62
     3
 48
5.0
100
AcDbEllipse
 10
596.7131534863037
 20
197.1519068138058
 30
0.0
 11
-1.01036297108186
 21
1.01036297108186
 31
0.0
210
0.0
220
0.0
230
-1.0
 40
0.6998542122
 41
2.456873450587499
 42
3.826311856592182
  0
SPLINE
  5
3934
330
1A
100
AcDbEntity
  8
SEIHIN
  6
CONTINUOUS
 62
     3
 48
5.0
100
AcDbSpline
210
0.0
220
0.0
230
1.0
 70
     8
 71
     3
 72
    14
 73
    10
 74
     0
 42
0.0000000001
 43
0.0000000001
 40
0.0
 40
0.0
 40
0.0
 40
0.0
 40
0.2255107083803645
 40
0.3963062534411245
 40
0.4405785779879766
 40
0.6191724007374449
 40
0.6304223660199437
 40
0.8171379694788775
 40
1.0
 40
1.0
 40
1.0
 40
1.0
 10
597.0115460805065
 20
202.8756095049853
 30
0.0
 10
597.1249825917594
 20
202.8808341247764
 30
0.0
 10
597.3243327649766
 20
202.8900157264392
 30
0.0
 10
597.5370127883622
 20
202.8076646251849
 30
0.0
 10
597.7022167266675
 20
202.6981248413833
 30
0.0
 10
597.7844568162263
 20
202.6074604992845
 30
0.0
 10
597.8809008053513
 20
202.444388033074
 30
0.0
 10
597.9472549179529
 20
202.2587388576358
 30
0.0
 10
597.9444023072162
 20
202.0735684741244
 30
0.0
 10
597.9429908738836
 20
201.9819486648934
 30
0.0
  0
ELLIPSE
  5
3935
330
1A
100
AcDbEntity
  8
SEIHIN
  6
CONTINUOUS
 62
     3
 48
5.0
100
AcDbEllipse
 10
579.9492214638039
 20
197.1519068138058
 30
0.0
 11
-1.010362971081804
 21
-1.010362971081831
 31
0.0
210
0.0
220
0.0
230
-1.0
 40
0.6998542121999999
 41
5.598466104177303
 42
6.967904510181901
  0
ELLIPSE
  5
3936
330
1A
100
AcDbEntity
  8
SEIHIN
  6
CONTINUOUS
 62
     3
 48
5.0
100
AcDbEllipse
 10
588.0736108021039
 20
216.9158388363058
 30
0.0
 11
-1.01036297108186
 21
-1.010362971081832
 31
0.0
210
0.0
220
0.0
230
-1.0
 40
0.6998542121999999
 41
2.4568734505875
 42
3.826311856592068
  0
ELLIPSE
  5
3937
330
1A
100
AcDbEntity
  8
SEIHIN
  6
CONTINUOUS
 62
     3
 48
5.0
100
AcDbEllipse
 10
579.9492214638039
 20
216.9158388363058
 30
0.0
 11
-1.010362971081804
 21
1.01036297108186
 31
0.0
210
0.0
220
0.0
230
-0.9999999999999998
 40
0.6998542122
 41
5.598466104177319
 42
6.967904510181852
  0
SPLINE
  5
3938
330
1A
100
AcDbEntity
  8
SEIHIN
  6
CONTINUOUS
 62
     3
 48
5.0
100
AcDbSpline
210
0.0
220
0.0
230
1.0
 70
     8
 71
     3
 72
    16
 73
    12
 74
     0
 42
0.0000000001
 43
0.0000000001
 40
0.0
 40
0.0
 40
0.0
 40
0.0
 40
0.2171386642748686
 40
0.3334999788850273
 40
0.4097902014477654
 40
0.5030480635734489
 40
0.5599680007876811
 40
0.6707390720097967
 40
0.6997056276565266
 40
0.8636298164810032
 40
1.0
 40
1.0
 40
1.0
 40
1.0
 10
556.5733302136716
 20
153.1663217138329
 30
0.0
 10
556.6369607895494
 20
153.1396450102856
 30
0.0
 10
556.7346900253014
 20
153.0986726661869
 30
0.0
 10
556.8678456410311
 20
153.0928005850675
 30
0.0
 10
556.9593474039427
 20
153.1106040367219
 30
0.0
 10
557.0269589692236
 20
153.1444938428194
 30
0.0
 10
557.0907024594923
 20
153.202147057656
 30
0.0
 10
557.1246594395758
 20
153.2582823814395
 30
0.0
 10
557.1586894895649
 20
153.3498926794363
 30
0.0
 10
557.1732012321813
 20
153.4560544070045
 30
0.0
 10
557.1623021250193
 20
153.549609945227
 30
0.0
 10
557.1573526042132
 20
153.5920955429992
 30
0.0
  0
SPLINE
  5
3939
330
1A
100
AcDbEntity
  8
SEIHIN
  6
CONTINUOUS
 62
     3
 48
5.0
100
AcDbSpline
210
0.0
220
0.0
230
1.0
 70
     8
 71
     3
 72
    13
 73
     9
 74
     0
 42
0.0000000001
 43
0.0000000001
 40
0.0
 40
0.0
 40
0.0
 40
0.0
 40
0.1851330428579794
 40
0.3650267311097466
 40
0.5303652848785339
 40
0.6879496806583965
 40
0.8506174307284018
 40
1.0
 40
1.0
 40
1.0
 40
1.0
 10
563.6758705218698
 20
164.9225538056343
 30
0.0
 10
563.6818624896728
 20
164.8015358024248
 30
0.0
 10
563.693676849693
 20
164.5629246639969
 30
0.0
 10
563.857662843704
 20
164.2452840258017
 30
0.0
 10
564.1113049679386
 20
164.0231508572608
 30
0.0
 10
564.418360923928
 20
163.9183358407174
 30
0.0
 10
564.731788734801
 20
163.9198640357526
 30
0.0
 10
564.9224055521004
 20
163.9908084651799
 30
0.0
 10
565.0136563156779
 20
164.0247704914509
 30
0.0
  0
SPLINE
  5
393A
330
1A
100
AcDbEntity
  8
SEIHIN
  6
CONTINUOUS
 62
     3
 48
5.0
100
AcDbSpline
210
0.0
220
0.0
230
1.0
 70
     8
 71
     3
 72
    13
 73
     9
 74
     0
 42
0.0000000001
 43
0.0000000001
 40
0.0
 40
0.0
 40
0.0
 40
0.0
 40
0.1853054207097844
 40
0.36517852152137
 40
0.5302701516764927
 40
0.6878236889830629
 40
0.8506852025218607
 40
1.0
 40
1.0
 40
1.0
 40
1.0
 10
571.1487186343161
 20
164.0247704914588
 30
0.0
 10
571.2630139389459
 20
163.9843072397658
 30
0.0
 10
571.4882539249197
 20
163.9045669365811
 30
0.0
 10
571.8444086435372
 20
163.9358842305765
 30
0.0
 10
572.1457113671856
 20
164.0868276193614
 30
0.0
 10
572.3587934078206
 20
164.3312901745059
 30
0.0
 10
572.4764656391985
 20
164.6218308832276
 30
0.0
 10
572.4832563921243
 20
164.8252553280901
 30
0.0
 10
572.4865044281284
 20
164.9225538056327
 30
0.0
  0
SPLINE
  5
393B
330
1A
100
AcDbEntity
  8
SEIHIN
  6
CONTINUOUS
 62
     3
 48
5.0
100
AcDbSpline
210
0.0
220
0.0
230
1.0
 70
     8
 71
     3
 72
    14
 73
    10
 74
     0
 42
0.0000000001
 43
0.0000000001
 40
0.0
 40
0.0
 40
0.0
 40
0.0
 40
0.2255107083803645
 40
0.3963062534411245
 40
0.4405785779879766
 40
0.6191724007374449
 40
0.6304223660199437
 40
0.8171379694788775
 40
1.0
 40
1.0
 40
1.0
 40
1.0
 10
539.150828869501
 20
202.8756095049853
 30
0.0
 10
539.0373923582483
 20
202.8808341247764
 30
0.0
 10
538.838042185031
 20
202.8900157264392
 30
0.0
 10
538.6253621616454
 20
202.8076646251849
 30
0.0
 10
538.4601582233401
 20
202.6981248413833
 30
0.0
 10
538.3779181337813
 20
202.6074604992845
 30
0.0
 10
538.2814741446564
 20
202.444388033074
 30
0.0
 10
538.2151200320548
 20
202.2587388576358
 30
0.0
 10
538.2179726427914
 20
202.0735684741244
 30
0.0
 10
538.219384076124
 20
201.9819486648934
 30
0.0
  0
ELLIPSE
  5
393C
330
1A
100
AcDbEntity
  8
SEIHIN
  6
CONTINUOUS
 62
     3
 48
5.0
100
AcDbEllipse
 10
539.4492214637039
 20
197.1519068138058
 30
0.0
 11
1.01036297108186
 21
1.01036297108186
 31
0.0
210
0.0
220
0.0
230
1.0
 40
0.6998542122
 41
2.456873450587499
 42
3.826311856592182
  0
ELLIPSE
  5
393D
330
1A
100
AcDbEntity
  8
SEIHIN
  6
CONTINUOUS
 62
     3
 48
5.0
100
AcDbEllipse
 10
556.2131534862037
 20
197.1519068138058
 30
0.0
 11
1.010362971081804
 21
-1.010362971081831
 31
0.0
210
0.0
220
0.0
230
1.0
 40
0.6998542121999999
 41
5.598466104177303
 42
6.967904510181901
  0
SPLINE
  5
393E
330
1A
100
AcDbEntity
  8
SEIHIN
  6
CONTINUOUS
 62
     3
 48
5.0
100
AcDbSpline
210
0.0
220
0.0
230
1.0
 70
     8
 71
     3
 72
    10
 73
     6
 74
     0
 42
0.0000000001
 43
0.0000000001
 40
0.0
 40
0.0
 40
0.0
 40
0.0
 40
0.3471274010665737
 40
0.689563746072185
 40
1.0
 40
1.0
 40
1.0
 40
1.0
 10
546.2256725625382
 20
189.6627052612871
 30
0.0
 10
546.2308000198418
 20
189.5604798641636
 30
0.0
 10
546.2409856423407
 20
189.3574105369726
 30
0.0
 10
546.3910808629012
 20
189.0894691974455
 30
0.0
 10
546.5456772746484
 20
188.9757665599135
 30
0.0
 10
546.6191867633479
 20
188.9217017685363
 30
0.0
  0
ELLIPSE
  5
393F
330
1A
100
AcDbEntity
  8
SEIHIN
  6
CONTINUOUS
 62
     3
 48
5.0
100
AcDbEllipse
 10
547.4555099502038
 20
189.9158388363058
 30
0.0
 11
1.01036297108186
 21
-1.01036297108186
 31
0.0
210
0.0
220
0.0
230
1.0
 40
0.6998542122
 41
2.456873450587516
 42
3.826311856592102
  0
ELLIPSE
  5
3940
330
1A
100
AcDbEntity
  8
SEIHIN
  6
CONTINUOUS
 62
     3
 48
5.0
100
AcDbEllipse
 10
555.9275152166037
 20
189.9158388363058
 30
0.0
 11
1.01036297108186
 21
1.01036297108186
 31
0.0
210
0.0
220
0.0
230
1.0
 40
0.6998542122
 41
5.598466104177317
 42
6.967904510181917
  0
ELLIPSE
  5
3941
330
1A
100
AcDbEntity
  8
SEIHIN
  6
CONTINUOUS
 62
     3
 48
5.0
100
AcDbEllipse
 10
548.0887641479037
 20
216.9158388363058
 30
0.0
 11
1.01036297108186
 21
-1.010362971081832
 31
0.0
210
0.0
220
0.0
230
1.0
 40
0.6998542121999999
 41
2.4568734505875
 42
3.826311856592068
  0
ELLIPSE
  5
3942
330
1A
100
AcDbEntity
  8
SEIHIN
  6
CONTINUOUS
 62
     3
 48
5.0
100
AcDbEllipse
 10
556.2131534862037
 20
216.9158388363058
 30
0.0
 11
1.010362971081804
 21
1.01036297108186
 31
0.0
210
0.0
220
0.0
230
0.9999999999999998
 40
0.6998542122
 41
5.598466104177319
 42
6.967904510181852
  0
ELLIPSE
  5
3943
330
1A
100
AcDbEntity
  8
SEIHIN
  6
CONTINUOUS
 62
     3
 48
5.0
100
AcDbEllipse
 10
564.7369638814039
 20
217.1280964187058
 30
0.0
 11
0.7916666666666856
 21
-0.7916666666666572
 31
0.0
210
0.0
220
0.0
230
1.0
 40
0.8931875130999998
 41
2.38562324316592
 42
3.897562064013644
  0
ELLIPSE
  5
3944
330
1A
100
AcDbEntity
  8
SEIHIN
  6
CONTINUOUS
 62
     3
 48
5.0
100
AcDbEllipse
 10
571.4254110686038
 20
217.1280964187058
 30
0.0
 11
0.7916666666666287
 21
0.791666666666714
 31
0.0
210
0.0
220
0.0
230
1.0
 40
0.8931875130999998
 41
5.52721589675569
 42
7.039154717603455
  0
LEADER
  5
3945
330
1A
100
AcDbEntity
  8
SUNPOU
  6
CONTINUOUS
 62
     4
100
AcDbLeader
  3
STANDARD
 73
     0
 74
     0
 40
6.0
 41
31.19999999999999
 76
     3
 10
599.3966433821756
 20
207.1646454873337
 30
0.0
 10
617.2515963577943
 20
177.2998838633851
 30
0.0
 10
619.1366673745164
 20
177.2998838633851
 30
0.0
1001
ACAD
1000
DSTYLE
1002
{
1070
     6
1000
OPEN
1070
    41
1040
7.0
1070
    42
1040
6.0
1070
    43
1040
14.0
1070
    44
1040
3.0
1070
    73
1070
     0
1070
    74
1070
     0
1070
    77
1070
     3
1070
   140
1040
6.0
1070
   141
1040
150.0
1070
   147
1040
2.0
1070
   172
1070
     1
1070
   173
1070
     1
1070
   176
1070
     4
1070
   177
1070
     4
1070
   178
1070
     4
1070
   271
1070
     0
1070
   272
1070
     2
1070
   341
1005
6D
1070
   343
1005
6D
1070
   344
1005
6D
1002
}
  0
DIMENSION
  5
3946
330
1A
100
AcDbEntity
  8
SUNPOU
 48
5.0
100
AcDbDimension
  2
*D8
 10
497.6331453674515
 20
156.5338728251058
 30
0.0
 11
492.6331453674515
 21
185.4088728251059
 31
0.0
 70
    32
  3
STANDARD
100
AcDbAlignedDimension
 13
535.1967265071416
 23
214.2838728251058
 33
0.0
 14
563.8121270194479
 24
156.5338728251058
 34
0.0
 50
90.0
100
AcDbRotatedDimension
1001
ACAD
1000
DSTYLE
1002
{
1070
   287
1070
     5
1070
    41
1040
7.0
1070
    42
1040
6.0
1070
    43
1040
14.0
1070
    44
1040
3.0
1070
    73
1070
     0
1070
    74
1070
     0
1070
    77
1070
     3
1070
   140
1040
6.0
1070
   141
1040
150.0
1070
   147
1040
2.0
1070
   172
1070
     1
1070
   173
1070
     1
1070
   176
1070
   256
1070
   177
1070
   256
1070
   178
1070
   256
1070
   271
1070
     0
1070
   272
1070
     0
1070
   279
1070
     2
1070
   341
1005
6D
1070
     6
1000
OPEN
1070
     7
1000
OPEN
1070
   371
1070
    -1
1070
   372
1070
    -1
1002
}
  0
LINE
  5
3947
330
1A
100
AcDbEntity
  8
SEIHIN
  6
CONTINUOUS
 62
     3
 48
5.0
100
AcDbLine
 10
563.6758705219038
 20
164.9225538056058
 30
0.0
 11
563.6758705219038
 21
217.2190472781058
 31
0.0
  0
LINE
  5
3948
330
1A
100
AcDbEntity
  8
SEIHIN
  6
CONTINUOUS
 62
     3
 48
5.0
100
AcDbLine
 10
572.4865044281038
 20
217.2190472781058
 30
0.0
 11
572.4865044281038
 21
164.9225538056058
 31
0.0
  0
LINE
  5
3949
330
1A
100
AcDbEntity
  8
SEIHIN
  6
CONTINUOUS
 62
     3
 48
5.0
100
AcDbLine
 10
563.6758705219038
 20
217.2190472781058
 30
0.0
 11
563.6758705219038
 21
164.9225538056058
 31
0.0
  0
LINE
  5
394A
330
1A
100
AcDbEntity
  8
SEIHIN
  6
CONTINUOUS
 62
     3
 48
5.0
100
AcDbLine
 10
572.4865044281038
 20
164.9225538056058
 30
0.0
 11
572.4865044281038
 21
217.2190472781058
 31
0.0
  0
ARC
  5
394B
330
1A
100
AcDbEntity
  8
SEIHIN
  6
CONTINUOUS
 62
     3
 48
5.0
100
AcDbCircle
 10
595.0811874750038
 20
198.2838728251058
 30
0.0
 40
10.0
100
AcDbArc
 50
278.7529290769035
 51
0.0
  0
ARC
  5
394C
330
1A
100
AcDbEntity
  8
SEIHIN
  6
CONTINUOUS
 62
     3
 48
5.0
100
AcDbCircle
 10
541.0811874750038
 20
198.2838728251058
 30
0.0
 40
10.0
100
AcDbArc
 50
180.0
 51
261.2470709231029
  0
ARC
  5
394D
330
1A
100
AcDbEntity
  8
SEIHIN
  6
CONTINUOUS
 62
     3
 48
5.0
100
AcDbCircle
 10
598.5811874750038
 20
175.5517369817058
 30
0.0
 40
12.99999999999991
100
AcDbArc
 50
98.75292907690349
 51
180.0
  0
DIMENSION
  5
394E
330
1A
100
AcDbEntity
  8
SUNPOU
 48
5.0
100
AcDbDimension
  2
*D9
 10
497.6331453674515
 20
149.2838728251058
 30
0.0
 11
492.7241603833049
 21
152.703427294413
 31
0.0
 70
   160
  3
STANDARD
100
AcDbAlignedDimension
 13
563.8121270194479
 23
156.5338728251058
 33
0.0
 14
568.0811874750038
 24
149.2838728251058
 34
0.0
 50
90.0
100
AcDbRotatedDimension
1001
ACAD
1000
DSTYLE
1002
{
1070
   287
1070
     5
1070
    41
1040
7.0
1070
    42
1040
6.0
1070
    43
1040
14.0
1070
    44
1040
3.0
1070
    73
1070
     0
1070
    74
1070
     0
1070
    77
1070
     3
1070
   140
1040
6.0
1070
   141
1040
150.0
1070
   147
1040
2.0
1070
   172
1070
     1
1070
   173
1070
     1
1070
   176
1070
   256
1070
   177
1070
   256
1070
   178
1070
   256
1070
   271
1070
     0
1070
   272
1070
     0
1070
   279
1070
     2
1070
   341
1005
6D
1070
     6
1000
OPEN
1070
     7
1000
OPEN
1070
   371
1070
    -1
1070
   372
1070
    -1
1002
}
  0
ARC
  5
394F
330
1A
100
AcDbEntity
  8
SEIHIN
  6
CONTINUOUS
 62
     3
 48
5.0
100
AcDbCircle
 10
578.3311874750038
 20
156.8962299086058
 30
0.0
 40
7.25
100
AcDbArc
 50
272.0000000001991
 51
0.0
  0
LINE
  5
3950
330
1A
100
AcDbEntity
  8
SEIHIN
  6
CONTINUOUS
 62
     3
 48
5.0
100
AcDbLine
 10
582.4429908739038
 20
175.5517369817058
 30
0.0
 11
582.4429908739038
 21
157.0810020713058
 31
0.0
  0
LINE
  5
3951
330
1A
100
AcDbEntity
  8
SEIHIN
  6
CONTINUOUS
 62
     3
 48
5.0
100
AcDbLine
 10
579.0050223458037
 20
153.5920955430058
 30
0.0
 11
579.0050223458037
 21
190.2512490329058
 31
0.0
  0
LINE
  5
3952
330
1A
100
AcDbEntity
  8
SEIHIN
  6
CONTINUOUS
 62
     3
 48
5.0
100
AcDbLine
 10
585.5811874750038
 20
156.8962299086058
 30
0.0
 11
585.5811874750038
 21
175.5517369817058
 31
0.0
  0
LINE
  5
3953
330
1A
100
AcDbEntity
  8
SEIHIN
  6
CONTINUOUS
 62
     3
 48
5.0
100
AcDbLine
 10
557.1573526042039
 20
153.5920955430058
 30
0.0
 11
557.1573526042039
 21
190.2512490329058
 31
0.0
  0
LINE
  5
3954
330
1A
100
AcDbEntity
  8
SEIHIN
  6
CONTINUOUS
 62
     3
 48
5.0
100
AcDbLine
 10
550.5811874750038
 20
175.5517369817058
 30
0.0
 11
550.5811874750038
 21
157.0810020713058
 31
0.0
  0
LINE
  5
3955
330
1A
100
AcDbEntity
  8
SEIHIN
  6
CONTINUOUS
 62
     3
 48
5.0
100
AcDbLine
 10
553.7193840761037
 20
175.5517369817058
 30
0.0
 11
553.7193840761037
 21
157.0810020713058
 31
0.0
  0
LINE
  5
3956
330
1A
100
AcDbEntity
  8
SEIHIN
  6
CONTINUOUS
 62
     3
 48
5.0
100
AcDbLine
 10
557.4517517922038
 20
149.8409379443057
 30
0.0
 11
568.0811874750038
 21
149.2838728251058
 31
0.0
  0
ARC
  5
3957
330
1A
100
AcDbEntity
  8
SEIHIN
  6
CONTINUOUS
 62
     3
 48
5.0
100
AcDbCircle
 10
557.8311874750038
 20
157.0810020713058
 30
0.0
 40
7.25
100
AcDbArc
 50
180.0
 51
266.9999999994987
  0
ARC
  5
3958
330
1A
100
AcDbEntity
  8
SEIHIN
  6
CONTINUOUS
 62
     3
 48
5.0
100
AcDbCircle
 10
557.8311874750038
 20
157.0810020713058
 30
0.0
 40
4.111803398880624
100
AcDbArc
 50
180.0
 51
252.1868533247025
  0
LINE
  5
3959
330
1A
100
AcDbEntity
  8
CENTER_L
  6
CONTINUOUS
 62
     1
 48
5.0
100
AcDbLine
 10
568.0811874750038
 20
152.522439525917
 30
0.0
 11
568.0811874750038
 21
160.7195589132535
 31
0.0
  0
LINE
  5
395A
330
1A
100
AcDbEntity
  8
SEIHIN
  6
CONTINUOUS
 62
     3
 48
5.0
100
AcDbLine
 10
568.0811874750038
 20
149.2838728251058
 30
0.0
 11
578.5842088261038
 21
149.6506464127057
 31
0.0
  0
LINE
  5
395B
330
1A
100
AcDbEntity
  8
CENTER_L
  6
CONTINUOUS
 62
     1
 48
5.0
100
AcDbLine
 10
563.8121270194479
 20
156.5338728251058
 30
0.0
 11
572.5499244973566
 21
156.5338728251058
 31
0.0
  0
CIRCLE
  5
395C
330
1A
100
AcDbEntity
  8
SEIHIN
  6
CONTINUOUS
 62
     3
 48
5.0
100
AcDbCircle
 10
568.0811874750038
 20
156.5338728251058
 30
0.0
 40
2.379975514573857
  0
ARC
  5
395D
330
1A
100
AcDbEntity
  8
SEIHIN
  6
CONTINUOUS
 62
     3
 48
5.0
100
AcDbCircle
 10
578.3311874750038
 20
157.0810020713058
 30
0.0
 40
4.111803398880624
100
AcDbArc
 50
287.8131466752974
 51
0.000000000000007
  0
ARC
  5
395E
330
1A
100
AcDbEntity
  8
SEIHIN
  6
CONTINUOUS
 62
     3
 48
5.0
100
AcDbCircle
 10
568.0811874750038
 20
156.5338728251058
 30
0.0
 40
8.094646086244985
100
AcDbArc
 50
67.73084424389766
 51
112.2691557559977
  0
ARC
  5
395F
330
1A
100
AcDbEntity
  8
SEIHIN
  6
CONTINUOUS
 62
     3
 48
5.0
100
AcDbCircle
 10
568.0811874750038
 20
156.5338728251058
 30
0.0
 40
8.094646086244985
100
AcDbArc
 50
67.73084424400227
 51
112.2691557561023
  0
ARC
  5
3960
330
1A
100
AcDbEntity
  8
SEIHIN
  6
CONTINUOUS
 62
     3
 48
5.0
100
AcDbCircle
 10
537.5811874750038
 20
175.5517369817058
 30
0.0
 40
13.0
100
AcDbArc
 50
0.0
 51
81.24707092309652
  0
ARC
  5
3961
330
1A
100
AcDbEntity
  8
SEIHIN
  6
CONTINUOUS
 62
     3
 48
5.0
100
AcDbCircle
 10
537.5811874750038
 20
175.5517369817058
 30
0.0
 40
16.13819660112506
100
AcDbArc
 50
0.0
 51
55.94159166140311
  0
LINE
  5
3962
330
1A
100
AcDbEntity
  8
SEIHIN
  6
CONTINUOUS
 62
     3
 48
5.0
100
AcDbLine
 10
556.2629254132039
 20
191.1456762239058
 30
0.0
 11
547.1200997535038
 21
191.1456762239058
 31
0.0
  0
LINE
  5
3963
330
1A
100
AcDbEntity
  8
SEIHIN
  6
CONTINUOUS
 62
     3
 48
5.0
100
AcDbLine
 10
546.2256725625038
 20
190.2512490329058
 30
0.0
 11
546.2256725625038
 21
189.6627052613058
 31
0.0
  0
ARC
  5
3964
330
1A
100
AcDbEntity
  8
SEIHIN
  6
CONTINUOUS
 62
     3
 48
5.0
100
AcDbCircle
 10
598.5811874750038
 20
175.5517369817058
 30
0.0
 40
16.13819660112506
100
AcDbArc
 50
124.0584083385968
 51
180.0
  0
LINE
  5
3965
330
1A
100
AcDbEntity
  8
SEIHIN
  6
CONTINUOUS
 62
     3
 48
5.0
100
AcDbLine
 10
579.8994495368037
 20
191.1456762239058
 30
0.0
 11
589.0422751965038
 21
191.1456762239058
 31
0.0
  0
LINE
  5
3966
330
1A
100
AcDbEntity
  8
SEIHIN
  6
CONTINUOUS
 62
     3
 48
5.0
100
AcDbLine
 10
589.9367023875038
 20
190.2512490329058
 30
0.0
 11
589.9367023875038
 21
189.6627052613058
 31
0.0
  0
MTEXT
  5
3967
330
1A
100
AcDbEntity
  8
SUNPOU
  6
CONTINUOUS
 62
     4
100
AcDbMText
 10
621.1366673745165
 20
179.2998838633851
 30
0.0
 40
6.0
 41
0.0
 71
     7
 72
     5
  1
2-φ6.5
1001
ACAD
1000
MTEXTBEGIN
1070
    73
1070
     1
1070
    44
1040
1.0
1070
    74
1070
     0
1000
MTEXTEND
1000
MTEXTBEGIN
1070
    73
1070
     1
1070
    44
1040
1.0
1070
    74
1070
     0
1000
MTEXTEND
1000
MTEXTBEGIN
1070
    73
1070
     1
1070
    44
1040
1.0
1070
    74
1070
     0
1000
MTEXTEND
1000
MTEXTBEGIN
1070
    73
1070
     1
1070
    44
1040
1.0
1070
    74
1070
     0
1000
MTEXTEND
1000
MTEXTBEGIN
1070
    73
1070
     1
1070
    44
1040
1.0
1070
    74
1070
     0
1000
MTEXTEND
  0
LINE
  5
3968
330
1A
100
AcDbEntity
  8
SEIHIN
  6
CONTINUOUS
 62
     3
 48
5.0
100
AcDbLine
 10
597.0485636829039
 20
195.9220694262058
 30
0.0
 11
579.6138112671039
 21
195.9220694262058
 31
0.0
  0
ARC
  5
3969
330
1A
100
AcDbEntity
  8
SEIHIN
  6
CONTINUOUS
 62
     3
 48
5.0
100
AcDbCircle
 10
596.6998015335039
 20
210.4015937905058
 30
0.0
 40
7.532438126415082
100
AcDbArc
 50
190.9076363529002
 51
272.3719743333026
  0
LINE
  5
396A
330
1A
100
AcDbEntity
  8
SEIHIN
  6
CONTINUOUS
 62
     3
 48
5.0
100
AcDbLine
 10
595.0811874750038
 20
223.2838728251058
 30
0.0
 11
541.0811874750038
 21
223.2838728251058
 31
0.0
  0
LEADER
  5
396B
330
1A
100
AcDbEntity
  8
SUNPOU
  6
CONTINUOUS
 62
     4
100
AcDbLeader
  3
STANDARD
 73
     0
 40
6.0
 41
31.19999999999999
 76
     3
 10
537.3045021880389
 20
216.1861931367847
 30
0.0
 10
518.9460173752722
 20
260.873456759611
 30
0.0
 10
516.7524402537674
 20
260.873456759611
 30
0.0
1001
ACAD
1000
DSTYLE
1002
{
1070
     6
1000
OPEN
1070
    41
1040
7.0
1070
    42
1040
6.0
1070
    43
1040
14.0
1070
    44
1040
3.0
1070
    73
1070
     0
1070
    74
1070
     0
1070
    77
1070
     3
1070
   140
1040
6.0
1070
   141
1040
150.0
1070
   147
1040
2.0
1070
   172
1070
     1
1070
   173
1070
     1
1070
   176
1070
     4
1070
   177
1070
     4
1070
   178
1070
     4
1070
   271
1070
     0
1070
   272
1070
     2
1070
   341
1005
6D
1070
   343
1005
6D
1070
   344
1005
6D
1002
}
  0
DIMENSION
  5
396C
330
1A
100
AcDbEntity
  8
SUNPOU
 48
5.0
100
AcDbDimension
  2
*D7
 10
497.6331453674515
 20
214.2838728251058
 30
0.0
 11
492.6331453674515
 21
218.7838728251059
 31
0.0
 70
    32
  3
STANDARD
100
AcDbAlignedDimension
 13
541.0811874750038
 23
223.2838728251058
 33
0.0
 14
535.1967265071416
 24
214.2838728251058
 34
0.0
 50
90.0
100
AcDbRotatedDimension
1001
ACAD
1000
DSTYLE
1002
{
1070
   287
1070
     5
1070
    41
1040
7.0
1070
    42
1040
6.0
1070
    43
1040
14.0
1070
    44
1040
3.0
1070
    73
1070
     0
1070
    74
1070
     0
1070
    77
1070
     3
1070
   140
1040
6.0
1070
   141
1040
150.0
1070
   147
1040
2.0
1070
   172
1070
     1
1070
   173
1070
     1
1070
   176
1070
   256
1070
   177
1070
   256
1070
   178
1070
   256
1070
   271
1070
     0
1070
   272
1070
     0
1070
   279
1070
     2
1070
   341
1005
6D
1070
     6
1000
OPEN
1070
     7
1000
OPEN
1070
   371
1070
    -1
1070
   372
1070
    -1
1002
}
  0
LINE
  5
396D
330
1A
100
AcDbEntity
  8
CENTER_L
  6
CENTER
 62
     1
 48
5.0
100
AcDbLine
 10
535.1967265071416
 20
214.2838728251058
 30
0.0
 11
543.0200702177312
 21
214.2838728251058
 31
0.0
  0
LINE
  5
396E
330
1A
100
AcDbEntity
  8
CENTER_L
  6
CENTER
 62
     1
 48
5.0
100
AcDbLine
 10
534.1008467979845
 20
209.8043531600058
 30
0.0
 11
544.0550655416005
 21
209.8043531600058
 31
0.0
  0
ARC
  5
396F
330
1A
100
AcDbEntity
  8
SEIHIN
  6
CONTINUOUS
 62
     3
 48
5.0
100
AcDbCircle
 10
539.0811874750038
 20
209.8043531600058
 30
0.0
 40
3.512515129827961
100
AcDbArc
 50
121.5318647334023
 51
58.46813526659681
  0
ARC
  5
3970
330
1A
100
AcDbEntity
  8
SEIHIN
  6
CONTINUOUS
 62
     3
 48
5.0
100
AcDbCircle
 10
541.0811874750038
 20
213.2838728251058
 30
0.0
 40
10.0
100
AcDbArc
 50
90.0
 51
180.0
  0
LINE
  5
3971
330
1A
100
AcDbEntity
  8
SEIHIN
  6
CONTINUOUS
 62
     3
 48
5.0
100
AcDbLine
 10
531.0811874750038
 20
198.2838728251058
 30
0.0
 11
531.0811874750038
 21
213.2838728251058
 31
0.0
  0
LINE
  5
3972
330
1A
100
AcDbEntity
  8
CENTER_L
  6
CONTINUOUS
 62
     1
 48
5.0
100
AcDbLine
 10
539.0811874750038
 20
204.6024425209346
 30
0.0
 11
539.0811874750038
 21
218.8020031828835
 31
0.0
  0
LINE
  5
3973
330
1A
100
AcDbEntity
  8
SEIHIN
  6
CONTINUOUS
 62
     3
 48
5.0
100
AcDbLine
 10
557.4429908739038
 20
196.8164966172058
 30
0.0
 11
557.4429908739038
 21
217.2512490329058
 31
0.0
  0
ARC
  5
3974
330
1A
100
AcDbEntity
  8
SEIHIN
  6
CONTINUOUS
 62
     3
 48
5.0
100
AcDbCircle
 10
539.4625734165038
 20
210.4015937905058
 30
0.0
 40
7.532438126415082
100
AcDbArc
 50
267.6280256666974
 51
349.0923636470997
  0
LINE
  5
3975
330
1A
100
AcDbEntity
  8
SEIHIN
  6
CONTINUOUS
 62
     3
 48
5.0
100
AcDbLine
 10
539.1138112671037
 20
195.9220694262058
 30
0.0
 11
556.5485636829037
 21
195.9220694262058
 31
0.0
  0
LINE
  5
3976
330
1A
100
AcDbEntity
  8
SEIHIN
  6
CONTINUOUS
 62
     3
 48
5.0
100
AcDbLine
 10
538.2193840761037
 20
201.9819486649057
 30
0.0
 11
538.2193840761037
 21
196.8164966172058
 31
0.0
  0
ARC
  5
3977
330
1A
100
AcDbEntity
  8
SEIHIN
  6
CONTINUOUS
 62
     3
 48
5.0
100
AcDbCircle
 10
539.0811874750038
 20
214.2838728251058
 30
0.0
 40
2.362515129828078
100
AcDbArc
 50
321.0358662985997
 51
218.9641337014002
  0
LINE
  5
3978
330
1A
100
AcDbEntity
  8
SEIHIN
  6
CONTINUOUS
 62
     3
 48
5.0
100
AcDbLine
 10
546.8589267603038
 20
217.2512490329058
 30
0.0
 11
546.8589267603038
 21
208.9762582712058
 31
0.0
  0
LINE
  5
3979
330
1A
100
AcDbEntity
  8
SEIHIN
  6
CONTINUOUS
 62
     3
 48
5.0
100
AcDbLine
 10
578.7193840761037
 20
196.8164966172058
 30
0.0
 11
578.7193840761037
 21
217.2512490329058
 31
0.0
  0
LINE
  5
397A
330
1A
100
AcDbEntity
  8
SEIHIN
  6
CONTINUOUS
 62
     3
 48
5.0
100
AcDbLine
 10
589.3034481897038
 20
217.2512490329058
 30
0.0
 11
589.3034481897038
 21
208.9762582712058
 31
0.0
  0
LINE
  5
397B
330
1A
100
AcDbEntity
  8
SEIHIN
  6
CONTINUOUS
 62
     3
 48
5.0
100
AcDbLine
 10
555.2311874750037
 20
225.6174713044058
 30
0.0
 11
580.9311874750037
 21
225.6174713044058
 31
0.0
  0
LINE
  5
397C
330
1A
100
AcDbEntity
  8
SEIHIN
  6
CONTINUOUS
 62
     3
 48
5.0
100
AcDbLine
 10
556.5485636829037
 20
218.1456762239058
 30
0.0
 11
547.7533539513038
 21
218.1456762239058
 31
0.0
  0
ARC
  5
397D
330
1A
100
AcDbEntity
  8
SEIHIN
  6
CONTINUOUS
 62
     3
 48
5.0
100
AcDbCircle
 10
555.2311874750037
 20
221.6174713044058
 30
0.0
 40
4.0
100
AcDbArc
 50
90.0
 51
155.3798594528
  0
LINE
  5
397E
330
1A
100
AcDbEntity
  8
SEIHIN
  6
CONTINUOUS
 62
     3
 48
5.0
100
AcDbLine
 10
564.6460130220039
 20
218.1891897782058
 30
0.0
 11
571.5163619280038
 21
218.1891897782058
 31
0.0
  0
LINE
  5
397F
330
1A
100
AcDbEntity
  8
SEIHIN
  6
CONTINUOUS
 62
     3
 48
5.0
100
AcDbLine
 10
571.5163619280038
 20
218.1891897782058
 30
0.0
 11
564.6460130220039
 21
218.1891897782058
 31
0.0
  0
LINE
  5
3980
330
1A
100
AcDbEntity
  8
SEIHIN
  6
CONTINUOUS
 62
     3
 48
5.0
100
AcDbLine
 10
579.6138112671039
 20
218.1456762239058
 30
0.0
 11
588.4090209987038
 21
218.1456762239058
 31
0.0
  0
ARC
  5
3981
330
1A
100
AcDbEntity
  8
SEIHIN
  6
CONTINUOUS
 62
     3
 48
5.0
100
AcDbCircle
 10
580.9311874750037
 20
221.6174713044058
 30
0.0
 40
4.000000000000023
100
AcDbArc
 50
24.62014054719998
 51
90.0
  0
MTEXT
  5
3982
330
1A
100
AcDbEntity
  8
ZUWAKU
 62
     4
100
AcDbMText
 10
514.7524402537674
 20
262.873456759611
 30
0.0
 40
6.0
 41
0.0
 71
     9
 72
     5
  1
3-φ4.2
1001
ACAD
1000
MTEXTBEGIN
1070
    73
1070
     1
1070
    44
1040
1.0
1070
    74
1070
     0
1000
MTEXTEND
1000
MTEXTBEGIN
1070
    73
1070
     1
1070
    44
1040
1.0
1070
    74
1070
     0
1000
MTEXTEND
1000
MTEXTBEGIN
1070
    73
1070
     1
1070
    44
1040
1.0
1070
    74
1070
     0
1000
MTEXTEND
1000
MTEXTBEGIN
1070
    73
1070
     1
1070
    44
1040
1.0
1070
    74
1070
     0
1000
MTEXTEND
1000
MTEXTBEGIN
1070
    73
1070
     1
1070
    44
1040
1.0
1070
    74
1070
     0
1000
MTEXTEND
  0
DIMENSION
  5
3983
330
1A
100
AcDbEntity
  8
SUNPOU
 48
5.0
100
AcDbDimension
  2
*D6
 10
641.8564470819164
 20
209.8043531600058
 30
0.0
 11
636.8564470819165
 21
216.5441129925559
 31
0.0
 70
    32
  3
STANDARD
100
AcDbAlignedDimension
 13
595.0811874750038
 23
223.2838728251058
 33
0.0
 14
602.0550655416005
 24
209.8043531600058
 34
0.0
 50
90.0
100
AcDbRotatedDimension
1001
ACAD
1000
DSTYLE
1002
{
1070
    41
1040
7.0
1070
    42
1040
6.0
1070
    43
1040
14.0
1070
    44
1040
3.0
1070
    73
1070
     0
1070
    74
1070
     0
1070
    77
1070
     3
1070
   140
1040
6.0
1070
   141
1040
150.0
1070
   147
1040
2.0
1070
   172
1070
     1
1070
   173
1070
     1
1070
   176
1070
     4
1070
   177
1070
     4
1070
   178
1070
     4
1070
   271
1070
     0
1070
   272
1070
     2
1070
     6
1000
OPEN
1070
     7
1000
OPEN
1002
}
  0
LINE
  5
3984
330
1A
100
AcDbEntity
  8
CENTER_L
  6
CONTINUOUS
 62
     1
 48
5.0
100
AcDbLine
 10
597.0811874750038
 20
204.6024425209346
 30
0.0
 11
597.0811874750038
 21
218.8020031828835
 31
0.0
  0
ARC
  5
3985
330
1A
100
AcDbEntity
  8
SEIHIN
  6
CONTINUOUS
 62
     3
 48
5.0
100
AcDbCircle
 10
595.0811874750038
 20
213.2838728251058
 30
0.0
 40
10.0
100
AcDbArc
 50
0.0
 51
90.0
  0
ARC
  5
3986
330
1A
100
AcDbEntity
  8
SEIHIN
  6
CONTINUOUS
 62
     3
 48
5.0
100
AcDbCircle
 10
597.0811874750038
 20
209.8043531600058
 30
0.0
 40
3.512515129827961
100
AcDbArc
 50
121.5318647334023
 51
58.46813526659681
  0
LINE
  5
3987
330
1A
100
AcDbEntity
  8
SEIHIN
  6
CONTINUOUS
 62
     3
 48
5.0
100
AcDbLine
 10
605.0811874750039
 20
198.2838728251058
 30
0.0
 11
605.0811874750039
 21
213.2838728251058
 31
0.0
  0
LINE
  5
3988
330
1A
100
AcDbEntity
  8
SEIHIN
  6
CONTINUOUS
 62
     3
 48
5.0
100
AcDbLine
 10
597.9429908739039
 20
201.9819486649057
 30
0.0
 11
597.9429908739039
 21
196.8164966172058
 31
0.0
  0
LINE
  5
3989
330
1A
100
AcDbEntity
  8
CENTER_L
  6
CENTER
 62
     1
 48
5.0
100
AcDbLine
 10
592.1008467979845
 20
209.8043531600058
 30
0.0
 11
602.0550655416005
 21
209.8043531600058
 31
0.0
  0
LINE
  5
398A
330
1A
100
AcDbEntity
  8
CENTER_L
  6
CENTER
 62
     1
 48
5.0
100
AcDbLine
 10
593.1967265071416
 20
214.2838728251058
 30
0.0
 11
601.0200702177312
 21
214.2838728251058
 31
0.0
  0
ARC
  5
398B
330
1A
100
AcDbEntity
  8
SEIHIN
  6
CONTINUOUS
 62
     3
 48
5.0
100
AcDbCircle
 10
597.0811874750038
 20
214.2838728251058
 30
0.0
 40
2.362515129828078
100
AcDbArc
 50
321.0358662985997
 51
218.9641337014002
  0
SPLINE
  5
3A16
102
{ACAD_REACTORS
330
3A33
102
}
330
1A
100
AcDbEntity
  8
SEIHIN
  6
DASHED2
 62
     5
 48
0.3
100
AcDbSpline
210
0.0
220
0.0
230
1.0
 70
     8
 71
     3
 72
    15
 73
    11
 74
     0
 42
0.0000000001
 43
0.0000000001
 40
0.0
 40
0.0
 40
0.0
 40
0.0
 40
0.0021335379684039
 40
0.1499329941309968
 40
0.3001170082500851
 40
0.4518188291921791
 40
0.6073322286562324
 40
0.71554715133876
 40
0.8265004634859115
 40
1.0
 40
1.0
 40
1.0
 40
1.0
 10
402.3698425623106
 20
195.783872825094
 30
0.0
 10
402.3698397942983
 20
195.7875995883715
 30
0.0
 10
402.3696452740298
 20
196.0494954556578
 30
0.0
 10
402.3277776281031
 20
196.5742377278685
 30
0.0
 10
402.1409170196632
 20
197.351644987216
 30
0.0
 10
401.8165482683093
 20
198.1228531021237
 30
0.0
 10
401.3889815639632
 20
198.7932260338832
 30
0.0
 10
400.8904686290946
 20
199.3531936616655
 30
0.0
 10
400.2732950339925
 20
199.8981256871481
 30
0.0
 10
399.7121239657351
 20
200.1890200425973
 30
0.0
 10
399.3698425623108
 20
200.3664485200498
 30
0.0
  0
SPLINE
  5
3A17
102
{ACAD_REACTORS
330
3A33
102
}
330
1A
100
AcDbEntity
  8
SEIHIN
  6
DASHED2
 62
     5
 48
0.3
100
AcDbSpline
210
0.0
220
0.0
230
1.0
 70
    24
 71
     3
 72
     9
 73
     5
 74
     0
 42
0.0000000001
 43
0.0000000001
 40
0.0
 40
0.0
 40
0.0
 40
0.0
 40
0.5038625610351521
 40
1.0
 40
1.0
 40
1.0
 40
1.0
 10
402.3383677525007
 20
223.2812509674538
 30
0.0
 10
402.3480800623335
 20
223.2820600047091
 30
0.0
 10
402.3673557747675
 20
223.2836656752189
 30
0.0
 10
402.3690179132038
 20
223.2838041316666
 30
0.0
 10
402.3698425623106
 20
223.283872825094
 30
0.0
  0
ELLIPSE
  5
3A18
102
{ACAD_REACTORS
330
3A33
102
}
330
1A
100
AcDbEntity
  8
SEIHIN
  6
DASHED2
 62
     5
 48
0.3
100
AcDbEllipse
 10
403.8698425623056
 20
151.2857019690059
 30
0.0
 11
0.0
 21
2.001829143904827
 31
0.0
210
0.0
220
0.0
230
1.0
 40
0.9990862636999999
 41
1.570796326794897
 42
3.141592653589793
  0
ELLIPSE
  5
3A19
102
{ACAD_REACTORS
330
3A33
102
}
330
1A
100
AcDbEntity
  8
SEIHIN
  6
DASHED2
 62
     5
 48
0.3
100
AcDbEllipse
 10
403.8698425623056
 20
151.5566732624058
 30
0.0
 11
1.413349728277353
 21
1.446946299985
 31
0.0
210
0.0
220
0.0
230
1.0
 40
0.9779746969000001
 41
2.355583853645951
 42
2.398304268370643
  0
LINE
  5
3A1A
102
{ACAD_REACTORS
330
3A33
102
}
330
1A
100
AcDbEntity
  8
SEIHIN
  6
DASHED2
 62
     5
 48
0.3
100
AcDbLine
 10
410.3698425623056
 20
175.5517369817058
 30
0.0
 11
410.3698425623056
 21
188.4003355019059
 31
0.0
  0
LINE
  5
3A1B
102
{ACAD_REACTORS
330
3A33
102
}
330
1A
100
AcDbEntity
  8
SEIHIN
  6
DASHED2
 62
     5
 48
0.3
100
AcDbLine
 10
402.3698425623056
 20
175.5517369817058
 30
0.0
 11
402.3698425623056
 21
190.3770429665058
 31
0.0
  0
LINE
  5
3A1C
102
{ACAD_REACTORS
330
3A33
102
}
330
1A
100
AcDbEntity
  8
SEIHIN
  6
DASHED2
 62
     5
 48
0.3
100
AcDbLine
 10
401.8698425623056
 20
151.5121266500058
 30
0.0
 11
401.8698425623056
 21
197.9350852054058
 31
0.0
  0
LINE
  5
3A1D
102
{ACAD_REACTORS
330
3A33
102
}
330
1A
100
AcDbEntity
  8
SEIHIN
  6
DASHED2
 62
     5
 48
0.3
100
AcDbLine
 10
402.3698425623056
 20
151.8381970139058
 30
0.0
 11
402.3698425623056
 21
157.0810020713058
 31
0.0
  0
LINE
  5
3A1E
102
{ACAD_REACTORS
330
3A33
102
}
330
1A
100
AcDbEntity
  8
SEIHIN
  6
DASHED2
 62
     5
 48
0.3
100
AcDbLine
 10
410.3698425623056
 20
157.0810020713058
 30
0.0
 11
410.3698425623056
 21
149.8409379444058
 31
0.0
  0
LINE
  5
3A1F
102
{ACAD_REACTORS
330
3A33
102
}
330
1A
100
AcDbEntity
  8
SEIHIN
  6
DASHED2
 62
     5
 48
0.3
100
AcDbLine
 10
402.3698425623056
 20
151.8237972548058
 30
0.0
 11
402.3698425623056
 21
151.8381970139058
 31
0.0
  0
LINE
  5
3A20
102
{ACAD_REACTORS
330
3A33
102
}
330
1A
100
AcDbEntity
  8
SEIHIN
  6
DASHED2
 62
     5
 48
0.3
100
AcDbLine
 10
410.3698425623056
 20
149.8409379444058
 30
0.0
 11
410.3698425623056
 21
149.2838728251058
 31
0.0
  0
LINE
  5
3A21
102
{ACAD_REACTORS
330
3A33
102
}
330
1A
100
AcDbEntity
  8
SEIHIN
  6
DASHED2
 62
     5
 48
0.3
100
AcDbLine
 10
401.8698425623056
 20
151.2857019690059
 30
0.0
 11
401.8698425623056
 21
151.5121266500058
 31
0.0
  0
LINE
  5
3A22
102
{ACAD_REACTORS
330
3A33
102
}
330
1A
100
AcDbEntity
  8
SEIHIN
  6
DASHED2
 62
     5
 48
0.3
100
AcDbLine
 10
404.3698425623055
 20
149.8409379444058
 30
0.0
 11
410.3698425623056
 21
149.8409379444058
 31
0.0
  0
LINE
  5
3A23
102
{ACAD_REACTORS
330
3A33
102
}
330
1A
100
AcDbEntity
  8
SEIHIN
  6
DASHED2
 62
     5
 48
0.3
100
AcDbLine
 10
403.8698425623056
 20
149.2838728251058
 30
0.0
 11
410.3698425623056
 21
149.2838728251058
 31
0.0
  0
ARC
  5
3A24
102
{ACAD_REACTORS
330
3A33
102
}
330
1A
100
AcDbEntity
  8
SEIHIN
  6
DASHED2
 62
     5
 48
0.3
100
AcDbCircle
 10
404.3684730361055
 20
151.8395684195058
 30
0.0
 40
1.998630944352035
100
AcDbArc
 50
180.0393147922012
 51
270.039260912699
  0
LINE
  5
3A25
102
{ACAD_REACTORS
330
3A33
102
}
330
1A
100
AcDbEntity
  8
SEIHIN
  6
DASHED2
 62
     5
 48
0.3
100
AcDbLine
 10
410.3698425623056
 20
175.5517369817058
 30
0.0
 11
410.3698425623056
 21
157.0810020713058
 31
0.0
  0
LINE
  5
3A26
102
{ACAD_REACTORS
330
3A33
102
}
330
1A
100
AcDbEntity
  8
SEIHIN
  6
DASHED2
 62
     5
 48
0.3
100
AcDbLine
 10
402.3698425623056
 20
157.0810020713058
 30
0.0
 11
402.3698425623056
 21
175.5517369817058
 31
0.0
  0
LINE
  5
3A27
102
{ACAD_REACTORS
330
3A33
102
}
330
1A
100
AcDbEntity
  8
SEIHIN
  6
DASHED2
 62
     5
 48
0.3
100
AcDbLine
 10
410.3698425623056
 20
198.2838728251058
 30
0.0
 11
410.3698425623056
 21
213.2838728251058
 31
0.0
  0
LINE
  5
3A28
102
{ACAD_REACTORS
330
3A33
102
}
330
1A
100
AcDbEntity
  8
SEIHIN
  6
DASHED2
 62
     5
 48
0.3
100
AcDbLine
 10
402.3698425623056
 20
198.2838728251058
 30
0.0
 11
402.3698425623056
 21
213.2838728251058
 31
0.0
  0
LINE
  5
3A29
102
{ACAD_REACTORS
330
3A33
102
}
330
1A
100
AcDbEntity
  8
SEIHIN
  6
DASHED2
 62
     5
 48
0.3
100
AcDbLine
 10
410.3698425623056
 20
188.4003355019059
 30
0.0
 11
410.3698425623056
 21
198.2838728251058
 31
0.0
  0
LINE
  5
3A2A
102
{ACAD_REACTORS
330
3A33
102
}
330
1A
100
AcDbEntity
  8
SEIHIN
  6
DASHED2
 62
     5
 48
0.3
100
AcDbLine
 10
402.3698425623056
 20
190.3770429665058
 30
0.0
 11
402.3698425623056
 21
198.2838728251058
 31
0.0
  0
ARC
  5
3A2B
102
{ACAD_REACTORS
330
3A33
102
}
330
1A
100
AcDbEntity
  8
SEIHIN
  6
DASHED2
 62
     5
 48
0.3
100
AcDbCircle
 10
397.3698425623055
 20
195.7838728251058
 30
0.0
 40
5.000000000000042
100
AcDbArc
 50
66.42182152180544
 51
90.0
  0
LINE
  5
3A2C
102
{ACAD_REACTORS
330
3A33
102
}
330
1A
100
AcDbEntity
  8
SEIHIN
  6
DASHED2
 62
     5
 48
0.3
100
AcDbLine
 10
402.3698425623056
 20
213.2838728251058
 30
0.0
 11
402.3698425623056
 21
221.2838728251058
 31
0.0
  0
LINE
  5
3A2D
102
{ACAD_REACTORS
330
3A33
102
}
330
1A
100
AcDbEntity
  8
SEIHIN
  6
DASHED2
 62
     5
 48
0.3
100
AcDbLine
 10
410.3698425623056
 20
223.2838728251058
 30
0.0
 11
410.3698425623056
 21
213.2838728251058
 31
0.0
  0
LINE
  5
3A2E
102
{ACAD_REACTORS
330
3A33
102
}
330
1A
100
AcDbEntity
  8
SEIHIN
  6
DASHED2
 62
     5
 48
0.3
100
AcDbLine
 10
399.2038172048055
 20
223.0201423110059
 30
0.0
 11
402.3383677525057
 21
223.2812509674058
 31
0.0
  0
LINE
  5
3A2F
102
{ACAD_REACTORS
330
3A33
102
}
330
1A
100
AcDbEntity
  8
SEIHIN
  6
DASHED2
 62
     5
 48
0.3
100
AcDbLine
 10
395.8669243659055
 20
222.7421785032059
 30
0.0
 11
399.2038172048055
 21
223.0201423110059
 31
0.0
  0
LINE
  5
3A30
102
{ACAD_REACTORS
330
3A33
102
}
330
1A
100
AcDbEntity
  8
SEIHIN
  6
DASHED2
 62
     5
 48
0.3
100
AcDbLine
 10
402.3698425623056
 20
223.2838728251058
 30
0.0
 11
404.3698425623055
 21
223.2838728251058
 31
0.0
  0
LINE
  5
3A31
102
{ACAD_REACTORS
330
3A33
102
}
330
1A
100
AcDbEntity
  8
SEIHIN
  6
DASHED2
 62
     5
 48
0.3
100
AcDbLine
 10
404.3698425623055
 20
223.2838728251058
 30
0.0
 11
410.3698425623056
 21
223.2838728251058
 31
0.0
  0
ARC
  5
3A32
102
{ACAD_REACTORS
330
3A33
102
}
330
1A
100
AcDbEntity
  8
SEIHIN
  6
DASHED2
 62
     5
 48
0.3
100
AcDbCircle
 10
404.3698425623055
 20
221.2838728251058
 30
0.0
 40
2.0
100
AcDbArc
 50
90.0
 51
180.0
  0
LINE
  5
3A34
102
{ACAD_REACTORS
330
3A51
102
}
330
1A
100
AcDbEntity
  8
SEIHIN
  6
DASHED2
 62
     5
 48
0.3
100
AcDbLine
 10
375.3698425623056
 20
175.5517369817058
 30
0.0
 11
375.3698425623056
 21
188.4003355019059
 31
0.0
  0
LINE
  5
3A35
102
{ACAD_REACTORS
330
3A51
102
}
330
1A
100
AcDbEntity
  8
SEIHIN
  6
DASHED2
 62
     5
 48
0.3
100
AcDbLine
 10
367.3698425623056
 20
175.5517369817058
 30
0.0
 11
367.3698425623056
 21
190.3770429665058
 31
0.0
  0
LINE
  5
3A36
102
{ACAD_REACTORS
330
3A51
102
}
330
1A
100
AcDbEntity
  8
SEIHIN
  6
DASHED2
 62
     5
 48
0.3
100
AcDbLine
 10
366.8698425623056
 20
151.5121266500058
 30
0.0
 11
366.8698425623056
 21
197.9350852054058
 31
0.0
  0
LINE
  5
3A37
102
{ACAD_REACTORS
330
3A51
102
}
330
1A
100
AcDbEntity
  8
SEIHIN
  6
DASHED2
 62
     5
 48
0.3
100
AcDbLine
 10
375.3698425623056
 20
188.4003355019059
 30
0.0
 11
375.3698425623056
 21
198.2838728251058
 31
0.0
  0
LINE
  5
3A38
102
{ACAD_REACTORS
330
3A51
102
}
330
1A
100
AcDbEntity
  8
SEIHIN
  6
DASHED2
 62
     5
 48
0.3
100
AcDbLine
 10
367.3698425623056
 20
190.3770429665058
 30
0.0
 11
367.3698425623056
 21
198.2838728251058
 31
0.0
  0
ELLIPSE
  5
3A39
102
{ACAD_REACTORS
330
3A51
102
}
330
1A
100
AcDbEntity
  8
SEIHIN
  6
DASHED2
 62
     5
 48
0.3
100
AcDbEllipse
 10
368.8698425623056
 20
151.5566732624058
 30
0.0
 11
1.413349728277353
 21
1.446946299985
 31
0.0
210
0.0
220
0.0
230
1.0
 40
0.9779746969000001
 41
2.355583853645951
 42
2.398304268370643
  0
ELLIPSE
  5
3A3A
102
{ACAD_REACTORS
330
3A51
102
}
330
1A
100
AcDbEntity
  8
SEIHIN
  6
DASHED2
 62
     5
 48
0.3
100
AcDbEllipse
 10
368.8698425623056
 20
151.2857019690059
 30
0.0
 11
0.0
 21
2.001829143904827
 31
0.0
210
0.0
220
0.0
230
1.0
 40
0.9990862636999999
 41
1.570796326794897
 42
3.141592653589793
  0
SPLINE
  5
3A3B
102
{ACAD_REACTORS
330
3A51
102
}
330
1A
100
AcDbEntity
  8
SEIHIN
  6
DASHED2
 62
     5
 48
0.3
100
AcDbSpline
210
0.0
220
0.0
230
1.0
 70
    24
 71
     3
 72
     9
 73
     5
 74
     0
 42
0.0000000001
 43
0.0000000001
 40
0.0
 40
0.0
 40
0.0
 40
0.0
 40
0.5038625610351521
 40
1.0
 40
1.0
 40
1.0
 40
1.0
 10
367.3383677525007
 20
223.2812509674538
 30
0.0
 10
367.3480800623335
 20
223.2820600047091
 30
0.0
 10
367.3673557747674
 20
223.2836656752189
 30
0.0
 10
367.3690179132038
 20
223.2838041316666
 30
0.0
 10
367.3698425623106
 20
223.283872825094
 30
0.0
  0
SPLINE
  5
3A3C
102
{ACAD_REACTORS
330
3A51
102
}
330
1A
100
AcDbEntity
  8
SEIHIN
  6
DASHED2
 62
     5
 48
0.3
100
AcDbSpline
210
0.0
220
0.0
230
1.0
 70
     8
 71
     3
 72
    15
 73
    11
 74
     0
 42
0.0000000001
 43
0.0000000001
 40
0.0
 40
0.0
 40
0.0
 40
0.0
 40
0.0021335379684039
 40
0.1499329941309968
 40
0.3001170082500851
 40
0.4518188291921791
 40
0.6073322286562324
 40
0.71554715133876
 40
0.8265004634859115
 40
1.0
 40
1.0
 40
1.0
 40
1.0
 10
367.3698425623106
 20
195.783872825094
 30
0.0
 10
367.3698397942982
 20
195.7875995883715
 30
0.0
 10
367.3696452740298
 20
196.0494954556578
 30
0.0
 10
367.3277776281031
 20
196.5742377278685
 30
0.0
 10
367.1409170196632
 20
197.351644987216
 30
0.0
 10
366.8165482683093
 20
198.1228531021237
 30
0.0
 10
366.3889815639631
 20
198.7932260338832
 30
0.0
 10
365.8904686290946
 20
199.3531936616655
 30
0.0
 10
365.2732950339925
 20
199.8981256871481
 30
0.0
 10
364.7121239657351
 20
200.1890200425973
 30
0.0
 10
364.3698425623108
 20
200.3664485200498
 30
0.0
  0
LINE
  5
3A3D
102
{ACAD_REACTORS
330
3A51
102
}
330
1A
100
AcDbEntity
  8
SEIHIN
  6
DASHED2
 62
     5
 48
0.3
100
AcDbLine
 10
367.3698425623056
 20
198.2838728251058
 30
0.0
 11
367.3698425623056
 21
213.2838728251058
 31
0.0
  0
LINE
  5
3A3E
102
{ACAD_REACTORS
330
3A51
102
}
330
1A
100
AcDbEntity
  8
SEIHIN
  6
DASHED2
 62
     5
 48
0.3
100
AcDbLine
 10
375.3698425623056
 20
198.2838728251058
 30
0.0
 11
375.3698425623056
 21
213.2838728251058
 31
0.0
  0
LINE
  5
3A3F
102
{ACAD_REACTORS
330
3A51
102
}
330
1A
100
AcDbEntity
  8
SEIHIN
  6
DASHED2
 62
     5
 48
0.3
100
AcDbLine
 10
367.3698425623056
 20
157.0810020713058
 30
0.0
 11
367.3698425623056
 21
175.5517369817058
 31
0.0
  0
LINE
  5
3A40
102
{ACAD_REACTORS
330
3A51
102
}
330
1A
100
AcDbEntity
  8
SEIHIN
  6
DASHED2
 62
     5
 48
0.3
100
AcDbLine
 10
375.3698425623056
 20
175.5517369817058
 30
0.0
 11
375.3698425623056
 21
157.0810020713058
 31
0.0
  0
LINE
  5
3A41
102
{ACAD_REACTORS
330
3A51
102
}
330
1A
100
AcDbEntity
  8
SEIHIN
  6
DASHED2
 62
     5
 48
0.3
100
AcDbLine
 10
368.8698425623056
 20
149.2838728251058
 30
0.0
 11
375.3698425623056
 21
149.2838728251058
 31
0.0
  0
LINE
  5
3A42
102
{ACAD_REACTORS
330
3A51
102
}
330
1A
100
AcDbEntity
  8
SEIHIN
  6
DASHED2
 62
     5
 48
0.3
100
AcDbLine
 10
369.3698425623056
 20
149.8409379444058
 30
0.0
 11
375.3698425623056
 21
149.8409379444058
 31
0.0
  0
ARC
  5
3A43
102
{ACAD_REACTORS
330
3A51
102
}
330
1A
100
AcDbEntity
  8
SEIHIN
  6
DASHED2
 62
     5
 48
0.3
100
AcDbCircle
 10
369.3684730361055
 20
151.8395684195058
 30
0.0
 40
1.998630944352035
100
AcDbArc
 50
180.0393147922012
 51
270.039260912699
  0
LINE
  5
3A44
102
{ACAD_REACTORS
330
3A51
102
}
330
1A
100
AcDbEntity
  8
SEIHIN
  6
DASHED2
 62
     5
 48
0.3
100
AcDbLine
 10
366.8698425623056
 20
151.2857019690059
 30
0.0
 11
366.8698425623056
 21
151.5121266500058
 31
0.0
  0
LINE
  5
3A45
102
{ACAD_REACTORS
330
3A51
102
}
330
1A
100
AcDbEntity
  8
SEIHIN
  6
DASHED2
 62
     5
 48
0.3
100
AcDbLine
 10
367.3698425623056
 20
151.8237972548058
 30
0.0
 11
367.3698425623056
 21
151.8381970139058
 31
0.0
  0
LINE
  5
3A46
102
{ACAD_REACTORS
330
3A51
102
}
330
1A
100
AcDbEntity
  8
SEIHIN
  6
DASHED2
 62
     5
 48
0.3
100
AcDbLine
 10
367.3698425623056
 20
151.8381970139058
 30
0.0
 11
367.3698425623056
 21
157.0810020713058
 31
0.0
  0
LINE
  5
3A47
102
{ACAD_REACTORS
330
3A51
102
}
330
1A
100
AcDbEntity
  8
SEIHIN
  6
DASHED2
 62
     5
 48
0.3
100
AcDbLine
 10
375.3698425623056
 20
149.8409379444058
 30
0.0
 11
375.3698425623056
 21
149.2838728251058
 31
0.0
  0
LINE
  5
3A48
102
{ACAD_REACTORS
330
3A51
102
}
330
1A
100
AcDbEntity
  8
SEIHIN
  6
DASHED2
 62
     5
 48
0.3
100
AcDbLine
 10
375.3698425623056
 20
157.0810020713058
 30
0.0
 11
375.3698425623056
 21
149.8409379444058
 31
0.0
  0
ARC
  5
3A49
102
{ACAD_REACTORS
330
3A51
102
}
330
1A
100
AcDbEntity
  8
SEIHIN
  6
DASHED2
 62
     5
 48
0.3
100
AcDbCircle
 10
362.3698425623056
 20
195.7838728251058
 30
0.0
 40
5.000000000000042
100
AcDbArc
 50
66.42182152180544
 51
90.0
  0
LINE
  5
3A4A
102
{ACAD_REACTORS
330
3A51
102
}
330
1A
100
AcDbEntity
  8
SEIHIN
  6
DASHED2
 62
     5
 48
0.3
100
AcDbLine
 10
375.3698425623056
 20
223.2838728251058
 30
0.0
 11
375.3698425623056
 21
213.2838728251058
 31
0.0
  0
LINE
  5
3A4B
102
{ACAD_REACTORS
330
3A51
102
}
330
1A
100
AcDbEntity
  8
SEIHIN
  6
DASHED2
 62
     5
 48
0.3
100
AcDbLine
 10
367.3698425623056
 20
213.2838728251058
 30
0.0
 11
367.3698425623056
 21
221.2838728251058
 31
0.0
  0
LINE
  5
3A4C
102
{ACAD_REACTORS
330
3A51
102
}
330
1A
100
AcDbEntity
  8
SEIHIN
  6
DASHED2
 62
     5
 48
0.3
100
AcDbLine
 10
369.3698425623056
 20
223.2838728251058
 30
0.0
 11
375.3698425623056
 21
223.2838728251058
 31
0.0
  0
ARC
  5
3A4D
102
{ACAD_REACTORS
330
3A51
102
}
330
1A
100
AcDbEntity
  8
SEIHIN
  6
DASHED2
 62
     5
 48
0.3
100
AcDbCircle
 10
369.3698425623056
 20
221.2838728251058
 30
0.0
 40
2.0
100
AcDbArc
 50
90.0
 51
180.0
  0
LINE
  5
3A4E
102
{ACAD_REACTORS
330
3A51
102
}
330
1A
100
AcDbEntity
  8
SEIHIN
  6
DASHED2
 62
     5
 48
0.3
100
AcDbLine
 10
367.3698425623056
 20
223.2838728251058
 30
0.0
 11
369.3698425623056
 21
223.2838728251058
 31
0.0
  0
LINE
  5
3A4F
102
{ACAD_REACTORS
330
3A51
102
}
330
1A
100
AcDbEntity
  8
SEIHIN
  6
DASHED2
 62
     5
 48
0.3
100
AcDbLine
 10
360.8669243659055
 20
222.7421785032059
 30
0.0
 11
364.2038172048055
 21
223.0201423110059
 31
0.0
  0
LINE
  5
3A50
102
{ACAD_REACTORS
330
3A51
102
}
330
1A
100
AcDbEntity
  8
SEIHIN
  6
DASHED2
 62
     5
 48
0.3
100
AcDbLine
 10
364.2038172048055
 20
223.0201423110059
 30
0.0
 11
367.3383677525057
 21
223.2812509674058
 31
0.0
  0
DIMENSION
  5
3A8E
330
1A
100
AcDbEntity
  8
SUNPOU
100
AcDbDimension
  2
*D10
 10
385.3698425623056
 20
258.964529597302
 30
0.0
 11
397.8698425623056
 21
263.964529597302
 31
0.0
 70
    32
  3
STANDARD
100
AcDbAlignedDimension
 13
410.3698425623056
 23
223.2838728251058
 33
0.0
 14
385.3698425623056
 24
223.2838728251058
 34
0.0
100
AcDbRotatedDimension
1001
ACAD
1000
DSTYLE
1002
{
1070
   287
1070
     5
1070
    41
1040
7.0
1070
    42
1040
6.0
1070
    43
1040
14.0
1070
    44
1040
3.0
1070
    73
1070
     0
1070
    74
1070
     0
1070
    77
1070
     3
1070
   140
1040
6.0
1070
   141
1040
150.0
1070
   147
1040
2.0
1070
   172
1070
     1
1070
   173
1070
     1
1070
   176
1070
   256
1070
   177
1070
   256
1070
   178
1070
   256
1070
   271
1070
     0
1070
   272
1070
     0
1070
   279
1070
     2
1070
   341
1005
6D
1070
     6
1000
OPEN
1070
     7
1000
OPEN
1070
   371
1070
    -1
1070
   372
1070
    -1
1002
}
  0
DIMENSION
  5
3A9B
330
1A
100
AcDbEntity
  8
SUNPOU
100
AcDbDimension
  2
*D11
 10
375.3698425623056
 20
258.964529597302
 30
0.0
 11
380.3698425623056
 21
264.3311354037102
 31
0.0
 70
   160
  3
STANDARD
100
AcDbAlignedDimension
 13
385.3698425623056
 23
223.2838728251058
 33
0.0
 14
375.3698425623056
 24
223.2838728251058
 34
0.0
100
AcDbRotatedDimension
1001
ACAD
1000
DSTYLE
1002
{
1070
   287
1070
     5
1070
    41
1040
7.0
1070
    42
1040
6.0
1070
    43
1040
14.0
1070
    44
1040
3.0
1070
    73
1070
     0
1070
    74
1070
     0
1070
    77
1070
     3
1070
   140
1040
6.0
1070
   141
1040
150.0
1070
   147
1040
2.0
1070
   172
1070
     1
1070
   173
1070
     1
1070
   176
1070
   256
1070
   177
1070
   256
1070
   178
1070
   256
1070
   271
1070
     0
1070
   272
1070
     0
1070
   279
1070
     2
1070
   341
1005
6D
1070
     6
1000
OPEN
1070
     7
1000
OPEN
1070
   371
1070
    -1
1070
   372
1070
    -1
1002
}
  0
DIMENSION
  5
3AB5
330
1A
100
AcDbEntity
  8
SUNPOU
100
AcDbDimension
  2
*D12
 10
361.8698425623056
 20
273.3824259597329
 30
0.0
 11
373.6198425623056
 21
278.3824259597329
 31
0.0
 70
    32
  3
STANDARD
100
AcDbAlignedDimension
 13
385.3698425623056
 23
223.2838728251058
 33
0.0
 14
361.8698425623056
 24
193.7857003448058
 34
0.0
100
AcDbRotatedDimension
1001
ACAD
1000
DSTYLE
1002
{
1070
   287
1070
     5
1070
    41
1040
7.0
1070
    42
1040
6.0
1070
    43
1040
14.0
1070
    44
1040
3.0
1070
    73
1070
     0
1070
    74
1070
     0
1070
    77
1070
     3
1070
   140
1040
6.0
1070
   141
1040
150.0
1070
   147
1040
2.0
1070
   172
1070
     1
1070
   173
1070
     1
1070
   176
1070
   256
1070
   177
1070
   256
1070
   178
1070
   256
1070
   271
1070
     0
1070
   272
1070
     0
1070
   279
1070
     2
1070
   341
1005
6D
1070
     6
1000
OPEN
1070
     7
1000
OPEN
1070
   371
1070
    -1
1070
   372
1070
    -1
1002
}
  0
DIMENSION
  5
3ACB
330
1A
100
AcDbEntity
  8
SUNPOU
100
AcDbDimension
  2
*D13
 10
286.3698425623056
 20
288.412339590696
 30
0.0
 11
335.8698425623056
 21
293.4123395906961
 31
0.0
 70
    32
  3
STANDARD
100
AcDbAlignedDimension
 13
385.3698425623056
 23
223.2838728251058
 33
0.0
 14
286.3698425623056
 24
196.2838728251058
 34
0.0
100
AcDbRotatedDimension
1001
ACAD
1000
DSTYLE
1002
{
1070
   287
1070
     5
1070
    41
1040
7.0
1070
    42
1040
6.0
1070
    43
1040
14.0
1070
    44
1040
3.0
1070
    73
1070
     0
1070
    74
1070
     0
1070
    77
1070
     3
1070
   140
1040
6.0
1070
   141
1040
150.0
1070
   147
1040
2.0
1070
   172
1070
     1
1070
   173
1070
     1
1070
   176
1070
   256
1070
   177
1070
   256
1070
   178
1070
   256
1070
   271
1070
     0
1070
   272
1070
     0
1070
   279
1070
     2
1070
   341
1005
6D
1070
     6
1000
OPEN
1070
     7
1000
OPEN
1070
   371
1070
    -1
1070
   372
1070
    -1
1002
}
  0
DIMENSION
  5
3AD8
330
1A
100
AcDbEntity
  8
SUNPOU
100
AcDbDimension
  2
*D14
 10
218.7408508304397
 20
302.9745834247707
 30
0.0
 11
302.0553466963726
 21
307.9745834247708
 31
0.0
 70
    32
  3
STANDARD
100
AcDbAlignedDimension
 13
385.3698425623056
 23
223.2838728251058
 33
0.0
 14
218.7408508304397
 24
228.2872788355058
 34
0.0
100
AcDbRotatedDimension
1001
ACAD
1000
DSTYLE
1002
{
1070
   287
1070
     5
1070
    41
1040
7.0
1070
    42
1040
6.0
1070
    43
1040
14.0
1070
    44
1040
3.0
1070
    73
1070
     0
1070
    74
1070
     0
1070
    77
1070
     3
1070
   140
1040
6.0
1070
   141
1040
150.0
1070
   147
1040
2.0
1070
   172
1070
     1
1070
   173
1070
     1
1070
   176
1070
   256
1070
   177
1070
   256
1070
   178
1070
   256
1070
   271
1070
     0
1070
   272
1070
     0
1070
   279
1070
     2
1070
   341
1005
6D
1070
     6
1000
OPEN
1070
     7
1000
OPEN
1070
   371
1070
    -1
1070
   372
1070
    -1
1002
}
  0
DIMENSION
  5
3AE5
330
1A
100
AcDbEntity
  8
SUNPOU
100
AcDbDimension
  2
*D15
 10
183.0399181989355
 20
149.2838728251059
 30
0.0
 11
178.0399181989355
 21
192.0338728251059
 31
0.0
 70
    32
  3
STANDARD
100
AcDbAlignedDimension
 13
223.5493781494056
 23
234.7838728251058
 33
0.0
 14
382.1198425623056
 24
149.2838728251058
 34
0.0
 50
90.0
100
AcDbRotatedDimension
1001
ACAD
1000
DSTYLE
1002
{
1070
   287
1070
     5
1070
    41
1040
7.0
1070
    42
1040
6.0
1070
    43
1040
14.0
1070
    44
1040
3.0
1070
    73
1070
     0
1070
    74
1070
     0
1070
    77
1070
     3
1070
   140
1040
6.0
1070
   141
1040
150.0
1070
   147
1040
2.0
1070
   172
1070
     1
1070
   173
1070
     1
1070
   176
1070
   256
1070
   177
1070
   256
1070
   178
1070
   256
1070
   271
1070
     0
1070
   272
1070
     0
1070
   279
1070
     2
1070
   341
1005
6D
1070
     6
1000
OPEN
1070
     7
1000
OPEN
1070
   371
1070
    -1
1070
   372
1070
    -1
1002
}
  0
DIMENSION
  5
3B04
330
1A
100
AcDbEntity
  8
SUNPOU
100
AcDbDimension
  2
*D16
 10
385.3698425623056
 20
123.2858400257705
 30
0.0
 11
381.1198425623056
 21
128.2858400257705
 31
0.0
 70
    32
  3
STANDARD
100
AcDbAlignedDimension
 13
376.8698425623056
 23
151.2857019690059
 33
0.0
 14
385.3698425623056
 24
149.2838728251058
 34
0.0
100
AcDbRotatedDimension
1001
ACAD
1000
DSTYLE
1002
{
1070
   287
1070
     5
1070
    41
1040
7.0
1070
    42
1040
6.0
1070
    43
1040
14.0
1070
    44
1040
3.0
1070
    73
1070
     0
1070
    74
1070
     0
1070
    77
1070
     3
1070
   140
1040
6.0
1070
   141
1040
150.0
1070
   147
1040
2.0
1070
   172
1070
     1
1070
   173
1070
     1
1070
   176
1070
   256
1070
   177
1070
   256
1070
   178
1070
   256
1070
   271
1070
     0
1070
   272
1070
     0
1070
   279
1070
     2
1070
   341
1005
6D
1070
     6
1000
OPEN
1070
     7
1000
OPEN
1070
   371
1070
    -1
1070
   372
1070
    -1
1002
}
  0
DIMENSION
  5
3B13
330
1A
100
AcDbEntity
  8
SUNPOU
100
AcDbDimension
  2
*D17
 10
432.9649692408998
 20
149.5624053847558
 30
0.0
 11
427.9649692408997
 21
186.4231391049309
 31
0.0
 70
    32
  3
STANDARD
100
AcDbAlignedDimension
 13
385.3698425623056
 23
223.2838728251058
 33
0.0
 14
385.3698425623056
 24
149.5624053847558
 34
0.0
 50
90.0
100
AcDbRotatedDimension
1001
ACAD
1000
DSTYLE
1002
{
1070
   287
1070
     5
1070
    41
1040
7.0
1070
    42
1040
6.0
1070
    43
1040
14.0
1070
    44
1040
3.0
1070
    73
1070
     0
1070
    74
1070
     0
1070
    77
1070
     3
1070
   140
1040
6.0
1070
   141
1040
150.0
1070
   147
1040
2.0
1070
   172
1070
     1
1070
   173
1070
     1
1070
   176
1070
   256
1070
   177
1070
   256
1070
   178
1070
   256
1070
   271
1070
     0
1070
   272
1070
     0
1070
   279
1070
     2
1070
   341
1005
6D
1070
     6
1000
OPEN
1070
     7
1000
OPEN
1070
   371
1070
    -1
1070
   372
1070
    -1
1002
}
  0
LINE
  5
3B20
330
1A
100
AcDbEntity
  8
CENTER_L
  6
CENTER
 62
     1
 48
5.0
100
AcDbLine
 10
374.8670594749578
 20
214.2838728251058
 30
0.0
 11
389.8488882880542
 21
214.2838728251058
 31
0.0
  0
LINE
  5
3B21
330
1A
100
AcDbEntity
  8
CENTER_L
  6
CENTER
 62
     1
 48
5.0
100
AcDbLine
 10
374.8670594749578
 20
209.8043531600058
 30
0.0
 11
389.8488882880542
 21
209.8043531600058
 31
0.0
  0
LINE
  5
3B22
330
1A
100
AcDbEntity
  8
CENTER_L
  6
CONTINUOUS
 62
     1
 48
5.0
100
AcDbLine
 10
374.8670594749578
 20
156.5338728251058
 30
0.0
 11
389.8488882880542
 21
156.5338728251058
 31
0.0
  0
VIEWPORT
  5
22
330
17
100
AcDbEntity
 67
     1
  8
0
100
AcDbViewport
 10
313.6808219178082
 20
148.5
 30
0.0
 40
627.3616438356165
 41
297.0
 68
     2
 69
     1
1001
ACAD
1000
MVIEW
1002
{
1070
    16
1010
0.0
1020
0.0
1030
0.0
1010
0.0
1020
0.0
1030
1.0
1040
0.0
1040
297.0
1040
313.6808219178082
1040
148.5
1040
50.0
1040
0.0
1040
0.0
1070
     0
1070
   100
1070
     1
1070
     0
1070
     0
1070
     0
1070
     0
1070
     0
1040
0.0
1040
0.0
1040
0.0
1040
1.0
1040
1.0
1040
10.0
1040
10.0
1070
     0
1002
{
1002
}
1002
}
  0
VIEWPORT
  5
64
330
17
100
AcDbEntity
 67
     1
  8
VIEWPORT
100
AcDbViewport
 10
210.0
 20
148.5
 30
0.0
 40
420.0
 41
297.0
 68
     1
 69
     2
1001
ACAD
1000
MVIEW
1002
{
1070
    16
1010
0.0
1020
0.0
1030
0.0
1010
0.0
1020
0.0
1030
1.0
1040
0.0
1040
605.8799999999998
1040
420.0
1040
297.0
1040
50.0
1040
0.0
1040
0.0
1070
     0
1070
   100
1070
     1
1070
     0
1070
     0
1070
     0
1070
     0
1070
     0
1040
0.0
1040
0.0
1040
0.0
1040
10.0
1040
10.0
1040
0.0
1040
0.0
1070
     0
1002
{
1002
}
1002
}
  0
ENDSEC
  0
SECTION
  2
OBJECTS
  0
DICTIONARY
  5
C
330
0
100
AcDbDictionary
  3
ACAD_GROUP
350
D
  3
ACAD_LAYOUT
350
8E0
  3
ACAD_MLINESTYLE
350
E
  3
ACAD_PLOTSETTINGS
350
8E1
  3
ACAD_PLOTSTYLENAME
350
8DE
  3
ACDBHEADERROUNDTRIPXREC
350
3D0D
  0
DICTIONARY
  5
EDF
330
2
100
AcDbDictionary
280
     1
  3
ACAD_LAYERFILTERS
360
EE0
  0
DICTIONARY
  5
9D6
330
1A
100
AcDbDictionary
280
     1
  3
ACAD_LAYOUTSELFREF
360
3D2F
  0
DICTIONARY
  5
9D4
330
17
100
AcDbDictionary
280
     1
  3
ACAD_LAYOUTSELFREF
360
3D2E
  0
DICTIONARY
  5
D
102
{ACAD_REACTORS
330
C
102
}
330
C
100
AcDbDictionary
  3
*A1
350
24C4
  3
*A2
350
24F1
  3
*A3
350
3926
  3
*A4
350
3927
  3
*A5
350
3A33
  3
*A6
350
3A51
  0
DICTIONARY
  5
8E0
102
{ACAD_REACTORS
330
C
102
}
330
C
100
AcDbDictionary
  0
DICTIONARY
  5
E
102
{ACAD_REACTORS
330
C
102
}
330
C
100
AcDbDictionary
  3
STANDARD
350
13
  0
DICTIONARY
  5
8E1
102
{ACAD_REACTORS
330
C
102
}
330
C
100
AcDbDictionary
  0
ACDBDICTIONARYWDFLT
  5
8DE
102
{ACAD_REACTORS
330
C
102
}
330
C
100
AcDbDictionary
281
     1
  3
Normal
350
8DF
100
AcDbDictionaryWithDefault
340
8DF
1001
ACAD
1000
TREAT_AS_HARD
1070
     0
1000
TREAT_AS_HARD
1070
     0
1000
TREAT_AS_HARD
1070
     0
1000
TREAT_AS_HARD
1070
     0
  0
DICTIONARY
  5
3D0D
102
{ACAD_REACTORS
330
C
102
}
330
C
100
AcDbDictionary
  3
TSTACKALIGN
350
3D0E
  3
TSTACKSIZE
350
3D0F
  3
HYPERLINKBASE
350
3D10
  3
STYLESHEET
350
3D11
  3
LAYOUTDICT
350
3D12
  3
PLOTSETDICT
350
3D13
  3
PLOTSTYLNAMDICT
350
3D14
  3
LWETCUNION
350
3D15
  3
INSUNITS
350
3D16
  3
CEPSNTYPE
350
3D17
  3
FINGERPRINTGUID
350
3D18
  3
VERSIONGUID
350
3D19
  3
PSVPSCALE
350
3D1A
  3
DIMSTYLEDATA
350
3D1B
  3
PUCSORTHOREF
350
3D1C
  3
PUCSORTHOVIEW
350
3D1D
  3
PUCSBASE
350
3D1E
  3
PUCSORGTOP
350
3D1F
  3
PUCSORGBOTTOM
350
3D20
  3
PUCSORGLEFT
350
3D21
  3
PUCSORGRIGHT
350
3D22
  3
PUCSORGFRONT
350
3D23
  3
PUCSORGBACK
350
3D24
  3
UCSORTHOREF
350
3D25
  3
UCSORTHOVIEW
350
3D26
  3
UCSBASE
350
3D27
  3
UCSORGTOP
350
3D28
  3
UCSORGBOTTOM
350
3D29
  3
UCSORGLEFT
350
3D2A
  3
UCSORGRIGHT
350
3D2B
  3
UCSORGFRONT
350
3D2C
  3
UCSORGBACK
350
3D2D
  0
DICTIONARY
  5
EE0
102
{ACAD_REACTORS
330
EDF
102
}
330
EDF
100
AcDbDictionary
280
     1
  3
50
360
EE1
  0
XRECORD
  5
3D2F
102
{ACAD_REACTORS
330
9D6
102
}
330
9D6
100
AcDbXrecord
340
1A
  0
XRECORD
  5
3D2E
102
{ACAD_REACTORS
330
9D4
102
}
330
9D4
100
AcDbXrecord
340
17
  0
GROUP
  5
24C4
102
{ACAD_REACTORS
330
D
102
}
330
D
100
AcDbGroup
300

 70
     1
 71
     1
  0
GROUP
  5
24F1
102
{ACAD_REACTORS
330
D
102
}
330
D
100
AcDbGroup
300

 70
     1
 71
     1
  0
GROUP
  5
3926
102
{ACAD_REACTORS
330
D
102
}
330
D
100
AcDbGroup
300

 70
     1
 71
     1
  0
GROUP
  5
3927
102
{ACAD_REACTORS
330
D
102
}
330
D
100
AcDbGroup
300

 70
     1
 71
     1
  0
GROUP
  5
3A33
102
{ACAD_REACTORS
330
D
102
}
330
D
100
AcDbGroup
300

 70
     1
 71
     1
340
3A19
340
3A18
340
3A17
340
3A16
340
3A28
340
3A27
340
3A26
340
3A25
340
3A1C
340
3A23
340
3A22
340
3A24
340
3A21
340
3A1F
340
3A1D
340
3A20
340
3A1E
340
3A1B
340
3A1A
340
3A2A
340
3A29
340
3A2B
340
3A2D
340
3A2C
340
3A31
340
3A32
340
3A30
340
3A2F
340
3A2E
  0
GROUP
  5
3A51
102
{ACAD_REACTORS
330
D
102
}
330
D
100
AcDbGroup
300

 70
     1
 71
     1
340
3A39
340
3A3A
340
3A3B
340
3A3C
340
3A3D
340
3A3E
340
3A3F
340
3A40
340
3A36
340
3A41
340
3A42
340
3A43
340
3A44
340
3A45
340
3A46
340
3A47
340
3A48
340
3A35
340
3A34
340
3A38
340
3A37
340
3A49
340
3A4A
340
3A4B
340
3A4C
340
3A4D
340
3A4E
340
3A4F
340
3A50
  0
MLINESTYLE
  5
13
102
{ACAD_REACTORS
330
E
102
}
330
E
100
AcDbMlineStyle
  2
STANDARD
 70
     0
  3

 62
     0
 51
90.0
 52
90.0
 71
     2
 49
0.5
 62
   256
  6
BYLAYER
 49
-0.5
 62
   256
  6
BYLAYER
  0
ACDBPLACEHOLDER
  5
8DF
102
{ACAD_REACTORS
330
8DE
102
}
330
8DE
100
AcDbPlaceHolder
280
     0
  0
XRECORD
  5
3D0E
102
{ACAD_REACTORS
330
3D0D
102
}
330
3D0D
100
AcDbXrecord
 90
        1
  0
XRECORD
  5
3D0F
102
{ACAD_REACTORS
330
3D0D
102
}
330
3D0D
100
AcDbXrecord
 90
       70
  0
XRECORD
  5
3D10
102
{ACAD_REACTORS
330
3D0D
102
}
330
3D0D
100
AcDbXrecord
  1

  0
XRECORD
  5
3D11
102
{ACAD_REACTORS
330
3D0D
102
}
330
3D0D
100
AcDbXrecord
  1
systemprinter.ctb
  0
XRECORD
  5
3D12
102
{ACAD_REACTORS
330
3D0D
102
}
330
3D0D
100
AcDbXrecord
340
8E0
  0
XRECORD
  5
3D13
102
{ACAD_REACTORS
330
3D0D
102
}
330
3D0D
100
AcDbXrecord
340
8E1
  0
XRECORD
  5
3D14
102
{ACAD_REACTORS
330
3D0D
102
}
330
3D0D
100
AcDbXrecord
340
8DE
  0
XRECORD
  5
3D15
102
{ACAD_REACTORS
330
3D0D
102
}
330
3D0D
100
AcDbXrecord
 90
    10781
  0
XRECORD
  5
3D16
102
{ACAD_REACTORS
330
3D0D
102
}
330
3D0D
100
AcDbXrecord
 90
        0
  0
XRECORD
  5
3D17
102
{ACAD_REACTORS
330
3D0D
102
}
330
3D0D
100
AcDbXrecord
 90
        0
  0
XRECORD
  5
3D18
102
{ACAD_REACTORS
330
3D0D
102
}
330
3D0D
100
AcDbXrecord
  1
{A1E2E459-A446-4C08-BFC7-7AA38AB8F682}
  0
XRECORD
  5
3D19
102
{ACAD_REACTORS
330
3D0D
102
}
330
3D0D
100
AcDbXrecord
  1
{E75DA6A6-7943-4EC9-B9BD-C2E44A16DC9E}
  0
XRECORD
  5
3D1A
102
{ACAD_REACTORS
330
3D0D
102
}
330
3D0D
100
AcDbXrecord
 40
0.0
  0
XRECORD
  5
3D1B
102
{ACAD_REACTORS
330
3D0D
102
}
330
3D0D
100
AcDbXrecord
1000
DSTYLE
1002
{
1070
   279
 70
     2
1070
   341
340
6D
1070
   343
340
6D
1070
   344
340
6D
1070
   371
 70
    -1
1070
   372
 70
    -1
1002
}
  0
XRECORD
  5
3D1C
102
{ACAD_REACTORS
330
3D0D
102
}
330
3D0D
100
AcDbXrecord
340
0
  0
XRECORD
  5
3D1D
102
{ACAD_REACTORS
330
3D0D
102
}
330
3D0D
100
AcDbXrecord
 70
     0
  0
XRECORD
  5
3D1E
102
{ACAD_REACTORS
330
3D0D
102
}
330
3D0D
100
AcDbXrecord
340
0
  0
XRECORD
  5
3D1F
102
{ACAD_REACTORS
330
3D0D
102
}
330
3D0D
100
AcDbXrecord
 10
0.0
 20
0.0
 30
0.0
  0
XRECORD
  5
3D20
102
{ACAD_REACTORS
330
3D0D
102
}
330
3D0D
100
AcDbXrecord
 10
0.0
 20
0.0
 30
0.0
  0
XRECORD
  5
3D21
102
{ACAD_REACTORS
330
3D0D
102
}
330
3D0D
100
AcDbXrecord
 10
0.0
 20
0.0
 30
0.0
  0
XRECORD
  5
3D22
102
{ACAD_REACTORS
330
3D0D
102
}
330
3D0D
100
AcDbXrecord
 10
0.0
 20
0.0
 30
0.0
  0
XRECORD
  5
3D23
102
{ACAD_REACTORS
330
3D0D
102
}
330
3D0D
100
AcDbXrecord
 10
0.0
 20
0.0
 30
0.0
  0
XRECORD
  5
3D24
102
{ACAD_REACTORS
330
3D0D
102
}
330
3D0D
100
AcDbXrecord
 10
0.0
 20
0.0
 30
0.0
  0
XRECORD
  5
3D25
102
{ACAD_REACTORS
330
3D0D
102
}
330
3D0D
100
AcDbXrecord
340
0
  0
XRECORD
  5
3D26
102
{ACAD_REACTORS
330
3D0D
102
}
330
3D0D
100
AcDbXrecord
 70
     0
  0
XRECORD
  5
3D27
102
{ACAD_REACTORS
330
3D0D
102
}
330
3D0D
100
AcDbXrecord
340
0
  0
XRECORD
  5
3D28
102
{ACAD_REACTORS
330
3D0D
102
}
330
3D0D
100
AcDbXrecord
 10
0.0
 20
0.0
 30
0.0
  0
XRECORD
  5
3D29
102
{ACAD_REACTORS
330
3D0D
102
}
330
3D0D
100
AcDbXrecord
 10
0.0
 20
0.0
 30
0.0
  0
XRECORD
  5
3D2A
102
{ACAD_REACTORS
330
3D0D
102
}
330
3D0D
100
AcDbXrecord
 10
0.0
 20
0.0
 30
0.0
  0
XRECORD
  5
3D2B
102
{ACAD_REACTORS
330
3D0D
102
}
330
3D0D
100
AcDbXrecord
 10
0.0
 20
0.0
 30
0.0
  0
XRECORD
  5
3D2C
102
{ACAD_REACTORS
330
3D0D
102
}
330
3D0D
100
AcDbXrecord
 10
0.0
 20
0.0
 30
0.0
  0
XRECORD
  5
3D2D
102
{ACAD_REACTORS
330
3D0D
102
}
330
3D0D
100
AcDbXrecord
 10
0.0
 20
0.0
 30
0.0
  0
XRECORD
  5
EE1
102
{ACAD_REACTORS
330
EE0
102
}
330
EE0
100
AcDbXrecord
  1
50
  1
*-50
  1
*
  1
*
 70
     0
  1
*
  1
*
  0
ENDSEC
  0
EOF
