  0
SECTION
  2
HEADER
  9
$ACADVER
  1
AC1015
  9
$ACADMAINTVER
 70
     6
  9
$DWGCODEPAGE
  3
ANSI_932
  9
$INSBASE
 10
0.0
 20
0.0
 30
0.0
  9
$EXTMIN
 10
-36.86001145873567
 20
4.740122493792512
 30
-0.00000001
  9
$EXTMAX
 10
401.1238672879028
 20
221.6249992083728
 30
0.00000001
  9
$LIMMIN
 10
0.0
 20
0.0
  9
$LIMMAX
 10
297.0
 20
210.0
  9
$ORTHOMODE
 70
     1
  9
$REGENMODE
 70
     1
  9
$FILLMODE
 70
     1
  9
$QTEXTMODE
 70
     0
  9
$MIRRTEXT
 70
     1
  9
$LTSCALE
 40
1.0
  9
$ATTMODE
 70
     1
  9
$TEXTSIZE
 40
1.767676767676767
  9
$TRACEWID
 40
1.0
  9
$TEXTSTYLE
  7
STANDARD
  9
$CLAYER
  8
0
  9
$CELTYPE
  6
BYLAYER
  9
$CECOLOR
 62
   256
  9
$CELTSCALE
 40
1.0
  9
$DISPSILH
 70
     0
  9
$DIMSCALE
 40
1.0
  9
$DIMASZ
 40
3.0
  9
$DIMEXO
 40
1.5
  9
$DIMDLI
 40
7.0
  9
$DIMRND
 40
0.0
  9
$DIMDLE
 40
0.0
  9
$DIMEXE
 40
1.5
  9
$DIMTP
 40
0.0
  9
$DIMTM
 40
0.0
  9
$DIMTXT
 40
3.0
  9
$DIMCEN
 40
0.0
  9
$DIMTSZ
 40
0.0
  9
$DIMTOL
 70
     0
  9
$DIMLIM
 70
     0
  9
$DIMTIH
 70
     0
  9
$DIMTOH
 70
     0
  9
$DIMSE1
 70
     0
  9
$DIMSE2
 70
     0
  9
$DIMTAD
 70
     3
  9
$DIMZIN
 70
     0
  9
$DIMBLK
  1
OPEN
  9
$DIMASO
 70
     1
  9
$DIMSHO
 70
     1
  9
$DIMPOST
  1

  9
$DIMAPOST
  1

  9
$DIMALT
 70
     0
  9
$DIMALTD
 70
     2
  9
$DIMALTF
 40
25.4
  9
$DIMLFAC
 40
1.0
  9
$DIMTOFL
 70
     0
  9
$DIMTVP
 40
0.0
  9
$DIMTIX
 70
     0
  9
$DIMSOXD
 70
     0
  9
$DIMSAH
 70
     0
  9
$DIMBLK1
  1

  9
$DIMBLK2
  1

  9
$DIMSTYLE
  2
STANDARD
  9
$DIMCLRD
 70
   256
  9
$DIMCLRE
 70
   256
  9
$DIMCLRT
 70
   256
  9
$DIMTFAC
 40
1.0
  9
$DIMGAP
 40
1.5
  9
$DIMJUST
 70
     0
  9
$DIMSD1
 70
     0
  9
$DIMSD2
 70
     0
  9
$DIMTOLJ
 70
     1
  9
$DIMTZIN
 70
     0
  9
$DIMALTZ
 70
     0
  9
$DIMALTTZ
 70
     0
  9
$DIMUPT
 70
     0
  9
$DIMDEC
 70
     0
  9
$DIMTDEC
 70
     0
  9
$DIMALTU
 70
     2
  9
$DIMALTTD
 70
     2
  9
$DIMTXSTY
  7
STANDARD
  9
$DIMAUNIT
 70
     0
  9
$DIMADEC
 70
     0
  9
$DIMALTRND
 40
0.0
  9
$DIMAZIN
 70
     0
  9
$DIMDSEP
 70
    46
  9
$DIMATFIT
 70
     3
  9
$DIMFRAC
 70
     0
  9
$DIMLDRBLK
  1
OPEN
  9
$DIMLUNIT
 70
     2
  9
$DIMLWD
 70
    -1
  9
$DIMLWE
 70
    -1
  9
$DIMTMOVE
 70
     0
  9
$LUNITS
 70
     2
  9
$LUPREC
 70
     4
  9
$SKETCHINC
 40
1.0
  9
$FILLETRAD
 40
7.07070707070707
  9
$AUNITS
 70
     0
  9
$AUPREC
 70
     0
  9
$MENU
  1
.
  9
$ELEVATION
 40
0.0
  9
$PELEVATION
 40
0.0
  9
$THICKNESS
 40
0.0
  9
$LIMCHECK
 70
     0
  9
$CHAMFERA
 40
7.07070707070707
  9
$CHAMFERB
 40
7.07070707070707
  9
$CHAMFERC
 40
14.14141414141414
  9
$CHAMFERD
 40
0.0
  9
$SKPOLY
 70
     0
  9
$TDCREATE
 40
2455741.593026794
  9
$TDUCREATE
 40
2455741.218026794
  9
$TDUPDATE
 40
2455838.615342372
  9
$TDUUPDATE
 40
2455838.240342372
  9
$TDINDWG
 40
0.1139411343
  9
$TDUSRTIMER
 40
0.1139409606
  9
$USRTIMER
 70
     1
  9
$ANGBASE
 50
0.0
  9
$ANGDIR
 70
     0
  9
$PDMODE
 70
     0
  9
$PDSIZE
 40
0.0
  9
$PLINEWID
 40
0.0
  9
$SPLFRAME
 70
     0
  9
$SPLINETYPE
 70
     6
  9
$SPLINESEGS
 70
     8
  9
$HANDSEED
  5
2DDA
  9
$SURFTAB1
 70
     6
  9
$SURFTAB2
 70
     6
  9
$SURFTYPE
 70
     6
  9
$SURFU
 70
     6
  9
$SURFV
 70
     6
  9
$UCSBASE
  2

  9
$UCSNAME
  2

  9
$UCSORG
 10
0.0
 20
0.0
 30
0.0
  9
$UCSXDIR
 10
1.0
 20
0.0
 30
0.0
  9
$UCSYDIR
 10
0.0
 20
1.0
 30
0.0
  9
$UCSORTHOREF
  2

  9
$UCSORTHOVIEW
 70
     0
  9
$UCSORGTOP
 10
0.0
 20
0.0
 30
0.0
  9
$UCSORGBOTTOM
 10
0.0
 20
0.0
 30
0.0
  9
$UCSORGLEFT
 10
0.0
 20
0.0
 30
0.0
  9
$UCSORGRIGHT
 10
0.0
 20
0.0
 30
0.0
  9
$UCSORGFRONT
 10
0.0
 20
0.0
 30
0.0
  9
$UCSORGBACK
 10
0.0
 20
0.0
 30
0.0
  9
$PUCSBASE
  2

  9
$PUCSNAME
  2

  9
$PUCSORG
 10
0.0
 20
0.0
 30
0.0
  9
$PUCSXDIR
 10
1.0
 20
0.0
 30
0.0
  9
$PUCSYDIR
 10
0.0
 20
1.0
 30
0.0
  9
$PUCSORTHOREF
  2

  9
$PUCSORTHOVIEW
 70
     0
  9
$PUCSORGTOP
 10
0.0
 20
0.0
 30
0.0
  9
$PUCSORGBOTTOM
 10
0.0
 20
0.0
 30
0.0
  9
$PUCSORGLEFT
 10
0.0
 20
0.0
 30
0.0
  9
$PUCSORGRIGHT
 10
0.0
 20
0.0
 30
0.0
  9
$PUCSORGFRONT
 10
0.0
 20
0.0
 30
0.0
  9
$PUCSORGBACK
 10
0.0
 20
0.0
 30
0.0
  9
$USERI1
 70
     0
  9
$USERI2
 70
     0
  9
$USERI3
 70
     0
  9
$USERI4
 70
     0
  9
$USERI5
 70
     0
  9
$USERR1
 40
0.0
  9
$USERR2
 40
0.0
  9
$USERR3
 40
0.0
  9
$USERR4
 40
0.0
  9
$USERR5
 40
0.0
  9
$WORLDVIEW
 70
     1
  9
$SHADEDGE
 70
     3
  9
$SHADEDIF
 70
    70
  9
$TILEMODE
 70
     1
  9
$MAXACTVP
 70
    16
  9
$PINSBASE
 10
0.0
 20
0.0
 30
0.0
  9
$PLIMCHECK
 70
     0
  9
$PEXTMIN
 10
0.0
 20
0.0
 30
0.0
  9
$PEXTMAX
 10
420.0
 20
297.0
 30
0.0
  9
$PLIMMIN
 10
0.0
 20
0.0
  9
$PLIMMAX
 10
420.0
 20
297.0
  9
$UNITMODE
 70
     0
  9
$VISRETAIN
 70
     0
  9
$PLINEGEN
 70
     0
  9
$PSLTSCALE
 70
     1
  9
$TREEDEPTH
 70
  3020
  9
$CMLSTYLE
  2
STANDARD
  9
$CMLJUST
 70
     0
  9
$CMLSCALE
 40
1.0
  9
$PROXYGRAPHICS
 70
     1
  9
$MEASUREMENT
 70
     1
  9
$CELWEIGHT
370
    -1
  9
$ENDCAPS
280
     0
  9
$JOINSTYLE
280
     0
  9
$LWDISPLAY
290
     0
  9
$INSUNITS
 70
     0
  9
$HYPERLINKBASE
  1

  9
$STYLESHEET
  1
print.ctb
  9
$XEDIT
290
     1
  9
$CEPSNTYPE
380
     0
  9
$PSTYLEMODE
290
     1
  9
$FINGERPRINTGUID
  2
{D63A45AA-1E13-4625-BD67-9A41EB90E577}
  9
$VERSIONGUID
  2
{77BE210C-623B-4527-8AE6-69E4C45AB23E}
  9
$EXTNAMES
290
     1
  9
$PSVPSCALE
 40
0.0
  9
$OLESTARTUP
290
     0
  0
ENDSEC
  0
SECTION
  2
CLASSES
  0
CLASS
  1
ACDBDICTIONARYWDFLT
  2
AcDbDictionaryWithDefault
  3
AutoCAD 2000
 90
        0
280
     0
281
     0
  0
CLASS
  1
ACDBPLACEHOLDER
  2
AcDbPlaceHolder
  3
AutoCAD 2000
 90
        0
280
     0
281
     0
  0
CLASS
  1
LAYOUT
  2
AcDbLayout
  3
AutoCAD 2000
 90
        0
280
     0
281
     0
  0
CLASS
  1
LONG_TRANSACTION
  2
AcDbLongTransaction
  3
AutoCAD 2000
 90
    32768
280
     0
281
     0
  0
CLASS
  1
LWPOLYLINE
  2
AcDbPolyline
  3
AutoCAD 2000
 90
    32768
280
     0
281
     1
  0
CLASS
  1
HATCH
  2
AcDbHatch
  3
AutoCAD 2000
 90
    32768
280
     0
281
     1
  0
CLASS
  1
XRECORD
  2
AcDbXrecord
  3
AutoCAD 2000
 90
    32768
280
     0
281
     0
  0
CLASS
  1
LONG_TRANSACTION
  2
AcDbLongTransaction
  3
AutoCAD 2000
 90
    32768
280
     0
281
     0
  0
CLASS
  1
LWPOLYLINE
  2
AcDbPolyline
  3
AutoCAD 2000
 90
    32768
280
     0
281
     1
  0
CLASS
  1
HATCH
  2
AcDbHatch
  3
AutoCAD 2000
 90
    32768
280
     0
281
     1
  0
CLASS
  1
XRECORD
  2
AcDbXrecord
  3
AutoCAD 2000
 90
    32768
280
     0
281
     0
  0
CLASS
  1
LONG_TRANSACTION
  2
AcDbLongTransaction
  3
AutoCAD 2000
 90
    32768
280
     0
281
     0
  0
CLASS
  1
LWPOLYLINE
  2
AcDbPolyline
  3
AutoCAD 2000
 90
    32768
280
     0
281
     1
  0
CLASS
  1
HATCH
  2
AcDbHatch
  3
AutoCAD 2000
 90
    32768
280
     0
281
     1
  0
CLASS
  1
XRECORD
  2
AcDbXrecord
  3
AutoCAD 2000
 90
    32768
280
     0
281
     0
  0
CLASS
  1
LONG_TRANSACTION
  2
AcDbLongTransaction
  3
AutoCAD 2000
 90
    32768
280
     0
281
     0
  0
CLASS
  1
LWPOLYLINE
  2
AcDbPolyline
  3
AutoCAD 2000
 90
    32768
280
     0
281
     1
  0
CLASS
  1
HATCH
  2
AcDbHatch
  3
AutoCAD 2000
 90
    32768
280
     0
281
     1
  0
CLASS
  1
XRECORD
  2
AcDbXrecord
  3
AutoCAD 2000
 90
    32768
280
     0
281
     0
  0
CLASS
  1
LONG_TRANSACTION
  2
AcDbLongTransaction
  3
AutoCAD 2000
 90
    32768
280
     0
281
     0
  0
CLASS
  1
LWPOLYLINE
  2
AcDbPolyline
  3
AutoCAD 2000
 90
    32768
280
     0
281
     1
  0
CLASS
  1
HATCH
  2
AcDbHatch
  3
AutoCAD 2000
 90
    32768
280
     0
281
     1
  0
CLASS
  1
XRECORD
  2
AcDbXrecord
  3
AutoCAD 2000
 90
    32768
280
     0
281
     0
  0
CLASS
  1
LONG_TRANSACTION
  2
AcDbLongTransaction
  3
AutoCAD 2000
 90
    32768
280
     0
281
     0
  0
CLASS
  1
LWPOLYLINE
  2
AcDbPolyline
  3
AutoCAD 2000
 90
    32768
280
     0
281
     1
  0
CLASS
  1
HATCH
  2
AcDbHatch
  3
AutoCAD 2000
 90
    32768
280
     0
281
     1
  0
CLASS
  1
XRECORD
  2
AcDbXrecord
  3
AutoCAD 2000
 90
    32768
280
     0
281
     0
  0
CLASS
  1
DICTIONARYVAR
  2
AcDbDictionaryVar
  3
AutoCAD 2000
 90
        0
280
     0
281
     0
  0
CLASS
  1
LONG_TRANSACTION
  2
AcDbLongTransaction
  3
AutoCAD 2000
 90
    32768
280
     0
281
     0
  0
CLASS
  1
LWPOLYLINE
  2
AcDbPolyline
  3
AutoCAD 2000
 90
    32768
280
     0
281
     1
  0
CLASS
  1
HATCH
  2
AcDbHatch
  3
AutoCAD 2000
 90
    32768
280
     0
281
     1
  0
CLASS
  1
XRECORD
  2
AcDbXrecord
  3
AutoCAD 2000
 90
    32768
280
     0
281
     0
  0
CLASS
  1
LONG_TRANSACTION
  2
AcDbLongTransaction
  3
AutoCAD 2000
 90
    32768
280
     0
281
     0
  0
CLASS
  1
LWPOLYLINE
  2
AcDbPolyline
  3
AutoCAD 2000
 90
    32768
280
     0
281
     1
  0
CLASS
  1
HATCH
  2
AcDbHatch
  3
AutoCAD 2000
 90
    32768
280
     0
281
     1
  0
CLASS
  1
XRECORD
  2
AcDbXrecord
  3
AutoCAD 2000
 90
    32768
280
     0
281
     0
  0
CLASS
  1
LONG_TRANSACTION
  2
AcDbLongTransaction
  3
AutoCAD 2000
 90
    32768
280
     0
281
     0
  0
CLASS
  1
LWPOLYLINE
  2
AcDbPolyline
  3
AutoCAD 2000
 90
    32768
280
     0
281
     1
  0
CLASS
  1
HATCH
  2
AcDbHatch
  3
AutoCAD 2000
 90
    32768
280
     0
281
     1
  0
CLASS
  1
XRECORD
  2
AcDbXrecord
  3
AutoCAD 2000
 90
    32768
280
     0
281
     0
  0
CLASS
  1
LONG_TRANSACTION
  2
AcDbLongTransaction
  3
AutoCAD 2000
 90
    32768
280
     0
281
     0
  0
CLASS
  1
LWPOLYLINE
  2
AcDbPolyline
  3
AutoCAD 2000
 90
    32768
280
     0
281
     1
  0
CLASS
  1
HATCH
  2
AcDbHatch
  3
AutoCAD 2000
 90
    32768
280
     0
281
     1
  0
CLASS
  1
XRECORD
  2
AcDbXrecord
  3
AutoCAD 2000
 90
    32768
280
     0
281
     0
  0
ENDSEC
  0
SECTION
  2
TABLES
  0
TABLE
  2
VPORT
  5
8
330
0
100
AcDbSymbolTable
 70
     3
  0
VPORT
  5
2DD9
330
8
100
AcDbSymbolTableRecord
100
AcDbViewportTableRecord
  2
*Active
 70
     0
 10
0.0
 20
0.0
 11
1.0
 21
1.0
 12
141.1714350277283
 22
101.4536097164971
 13
0.0
 23
0.0
 14
5.0
 24
5.0
 15
0.0
 25
0.0
 16
0.0
 26
0.0
 36
1.0
 17
0.0
 27
0.0
 37
0.0
 40
203.3936659661602
 41
1.527918781725888
 42
50.0
 43
0.0
 44
0.0
 50
0.0
 51
0.0
 71
     0
 72
   100
 73
     1
 74
     0
 75
     0
 76
     0
 77
     0
 78
     0
281
     0
 65
     1
110
0.0
120
0.0
130
0.0
111
1.0
121
0.0
131
0.0
112
0.0
122
1.0
132
0.0
 79
     0
146
0.0
  0
ENDTAB
  0
TABLE
  2
LTYPE
  5
5
330
0
100
AcDbSymbolTable
 70
     3
  0
LTYPE
  5
14
330
5
100
AcDbSymbolTableRecord
100
AcDbLinetypeTableRecord
  2
BYBLOCK
 70
     0
  3

 72
    65
 73
     0
 40
0.0
  0
LTYPE
  5
15
330
5
100
AcDbSymbolTableRecord
100
AcDbLinetypeTableRecord
  2
BYLAYER
 70
     0
  3

 72
    65
 73
     0
 40
0.0
  0
LTYPE
  5
16
330
5
100
AcDbSymbolTableRecord
100
AcDbLinetypeTableRecord
  2
CONTINUOUS
 70
     0
  3
Solid line
 72
    65
 73
     0
 40
0.0
  0
LTYPE
  5
FE
330
5
100
AcDbSymbolTableRecord
100
AcDbLinetypeTableRecord
  2
CENTER
 70
     0
  3
Center ____ _ ____ _ ____ _ ____ _ ____ _ ____
 72
    65
 73
     4
 40
50.8
 49
31.75
 74
     0
 49
-6.349999999999999
 74
     0
 49
6.349999999999999
 74
     0
 49
-6.349999999999999
 74
     0
  0
LTYPE
  5
2390
330
5
100
AcDbSymbolTableRecord
100
AcDbLinetypeTableRecord
  2
SLD-実線
 70
     0
  3
SolidWorks Line Style
 72
    65
 73
     0
 40
0.0
  0
ENDTAB
  0
TABLE
  2
LAYER
  5
2
102
{ACAD_XDICTIONARY
360
2326
102
}
330
0
100
AcDbSymbolTable
 70
    11
  0
LAYER
  5
F
330
2
100
AcDbSymbolTableRecord
100
AcDbLayerTableRecord
  2
0
 70
     0
 62
     7
  6
CONTINUOUS
370
    -3
390
115
  0
LAYER
  5
62
330
2
100
AcDbSymbolTableRecord
100
AcDbLayerTableRecord
  2
VIEWPORT
 70
     0
 62
     7
  6
CONTINUOUS
370
    -3
390
115
  0
LAYER
  5
324
330
2
100
AcDbSymbolTableRecord
100
AcDbLayerTableRecord
  2
Defpoints
 70
     0
 62
     7
  6
CONTINUOUS
290
     0
370
    -3
390
115
  0
LAYER
  5
325
330
2
100
AcDbSymbolTableRecord
100
AcDbLayerTableRecord
  2
ZUWAKU
 70
     0
 62
     7
  6
CONTINUOUS
370
    -3
390
115
  0
LAYER
  5
326
330
2
100
AcDbSymbolTableRecord
100
AcDbLayerTableRecord
  2
MOJI
 70
     0
 62
     2
  6
CONTINUOUS
370
    -3
390
115
  0
LAYER
  5
327
330
2
100
AcDbSymbolTableRecord
100
AcDbLayerTableRecord
  2
SEIHIN
 70
     0
 62
     3
  6
CONTINUOUS
370
    -3
390
115
  0
LAYER
  5
328
330
2
100
AcDbSymbolTableRecord
100
AcDbLayerTableRecord
  2
SUNPOU
 70
     0
 62
     4
  6
CONTINUOUS
370
    -3
390
115
  0
LAYER
  5
329
330
2
100
AcDbSymbolTableRecord
100
AcDbLayerTableRecord
  2
CENTER L
 70
     0
 62
     1
  6
CENTER
370
    -3
390
115
  0
LAYER
  5
2391
330
2
100
AcDbSymbolTableRecord
100
AcDbLayerTableRecord
  2
図枠
 70
     0
 62
     7
  6
CONTINUOUS
370
    -3
390
115
  0
LAYER
  5
2AEB
330
2
100
AcDbSymbolTableRecord
100
AcDbLayerTableRecord
  2
寸法
 70
     0
 62
     4
  6
CONTINUOUS
370
    -3
390
115
  0
LAYER
  5
2AEC
330
2
100
AcDbSymbolTableRecord
100
AcDbLayerTableRecord
  2
中心線
 70
     0
 62
     1
  6
CENTER
370
    -3
390
115
  0
ENDTAB
  0
TABLE
  2
STYLE
  5
3
330
0
100
AcDbSymbolTable
 70
     3
  0
STYLE
  5
10
330
3
100
AcDbSymbolTableRecord
100
AcDbTextStyleTableRecord
  2
STANDARD
 70
     0
 40
0.0
 41
1.0
 50
0.0
 71
     0
 42
1.767676767676767
  3
TXT
  4
a:\program files\autocad lt\ms\bigfont.shx
  0
STYLE
  5
32B
330
3
100
AcDbSymbolTableRecord
100
AcDbTextStyleTableRecord
  2
MSPｺﾞｼｯｸ
 70
     0
 40
0.0
 41
1.0
 50
0.0
 71
     0
 42
2.5
  3
MS PGothic.ttf
  4

1001
ACAD
1000
MS PGothic
1071
    32818
  0
STYLE
  5
2AED
330
3
100
AcDbSymbolTableRecord
100
AcDbTextStyleTableRecord
  2
kanji
 70
     0
 40
0.0
 41
1.0
 50
0.0
 71
     0
 42
2.5
  3
TXT.shx
  4
bigfont.shx
  0
ENDTAB
  0
TABLE
  2
VIEW
  5
6
330
0
100
AcDbSymbolTable
 70
     0
  0
ENDTAB
  0
TABLE
  2
UCS
  5
7
330
0
100
AcDbSymbolTable
 70
     0
  0
ENDTAB
  0
TABLE
  2
APPID
  5
9
330
0
100
AcDbSymbolTable
 70
     1
  0
APPID
  5
11
330
9
100
AcDbSymbolTableRecord
100
AcDbRegAppTableRecord
  2
ACAD
 70
     0
  0
ENDTAB
  0
TABLE
  2
DIMSTYLE
  5
A
330
0
100
AcDbSymbolTable
 70
     1
100
AcDbDimStyleTable
 71
     0
  0
DIMSTYLE
105
1D
102
{ACAD_REACTORS
330
2793
330
27A0
330
27C0
330
27CD
330
27DA
330
2817
330
2824
330
2831
330
2D04
330
283E
330
2B9E
330
2BD5
330
2BD4
330
2C2C
330
2BDC
330
2C16
330
2C37
330
2CD8
102
}
330
A
100
AcDbSymbolTableRecord
100
AcDbDimStyleTableRecord
  2
STANDARD
 70
     0
 41
3.0
 42
1.5
 43
7.0
 44
1.5
 73
     0
 74
     0
 77
     3
140
3.0
141
0.0
147
1.5
176
   256
177
   256
178
   256
271
     0
272
     0
340
10
341
66
342
66
371
    -1
372
    -1
  0
ENDTAB
  0
TABLE
  2
BLOCK_RECORD
  5
1
330
0
100
AcDbSymbolTable
 70
    31
  0
BLOCK_RECORD
  5
1A
102
{ACAD_XDICTIONARY
360
1325
102
}
330
1
100
AcDbSymbolTableRecord
100
AcDbBlockTableRecord
  2
*MODEL_SPACE
340
118
  0
BLOCK_RECORD
  5
17
102
{ACAD_XDICTIONARY
360
1323
102
}
330
1
100
AcDbSymbolTableRecord
100
AcDbBlockTableRecord
  2
*PAPER_SPACE
340
119
  0
BLOCK_RECORD
  5
66
330
1
100
AcDbSymbolTableRecord
100
AcDbBlockTableRecord
  2
_OPEN
340
0
102
{BLKREFS
331
290B
331
290C
331
2A64
331
2A65
331
292F
331
2930
331
2A6D
331
2A6E
331
2A76
331
2A77
331
2914
331
2915
331
291D
331
291E
331
2938
331
2939
331
2D76
331
2D77
331
2D94
331
2D95
331
2D9D
331
2D9E
331
2DA6
331
2DA7
331
2DC8
331
2DC9
331
2DD1
331
2DD2
102
}
  0
BLOCK_RECORD
  5
899
330
1
100
AcDbSymbolTableRecord
100
AcDbBlockTableRecord
  2
*X1
340
0
102
{BLKREFS
331
C99
102
}
  0
BLOCK_RECORD
  5
2329
330
1
100
AcDbSymbolTableRecord
100
AcDbBlockTableRecord
  2
_Open30
340
0
102
{BLKREFS
331
29EF
331
29F0
331
2AC9
331
2ACA
331
2AA5
331
2AA6
331
2A99
331
2A9A
331
2ABD
331
2ABE
331
2AD5
331
2AD6
331
2AB1
331
2AB2
331
2AE3
331
2AE4
331
2C41
331
2C42
331
2C4D
331
2C4E
331
2C59
331
2C5A
331
2C65
331
2C66
331
2C71
331
2C72
331
2C7D
331
2C7E
331
2C8B
331
2C8C
331
2C96
331
2C97
331
2C9F
331
2CA0
331
2CA8
331
2CA9
331
2CB1
331
2CB2
331
2CBA
331
2CBB
331
2CC3
331
2CC4
331
2CCE
331
2CCF
331
2D0E
331
2D0F
331
2D1C
331
2D1D
331
2D27
331
2D28
331
2D32
331
2D33
331
2D81
331
2D82
331
2D8A
331
2D8B
331
2DB1
331
2DB2
331
2DBD
331
2DBE
102
}
  0
BLOCK_RECORD
  5
2794
330
1
100
AcDbSymbolTableRecord
100
AcDbBlockTableRecord
  2
*D3
340
0
  0
BLOCK_RECORD
  5
27A1
330
1
100
AcDbSymbolTableRecord
100
AcDbBlockTableRecord
  2
*D4
340
0
  0
BLOCK_RECORD
  5
27C1
330
1
100
AcDbSymbolTableRecord
100
AcDbBlockTableRecord
  2
*D5
340
0
  0
BLOCK_RECORD
  5
27CE
330
1
100
AcDbSymbolTableRecord
100
AcDbBlockTableRecord
  2
*D6
340
0
  0
BLOCK_RECORD
  5
27DB
330
1
100
AcDbSymbolTableRecord
100
AcDbBlockTableRecord
  2
*D7
340
0
  0
BLOCK_RECORD
  5
2818
330
1
100
AcDbSymbolTableRecord
100
AcDbBlockTableRecord
  2
*D8
340
0
  0
BLOCK_RECORD
  5
2825
330
1
100
AcDbSymbolTableRecord
100
AcDbBlockTableRecord
  2
*D9
340
0
  0
BLOCK_RECORD
  5
2832
330
1
100
AcDbSymbolTableRecord
100
AcDbBlockTableRecord
  2
*D10
340
0
  0
BLOCK_RECORD
  5
283F
330
1
100
AcDbSymbolTableRecord
100
AcDbBlockTableRecord
  2
*D11
340
0
  0
BLOCK_RECORD
  5
2A8A
330
1
100
AcDbSymbolTableRecord
100
AcDbBlockTableRecord
  2
SW_CENTERMARKSYMBOL_0
340
0
102
{BLKREFS
331
2B54
331
2BFD
102
}
  0
BLOCK_RECORD
  5
2A95
330
1
100
AcDbSymbolTableRecord
100
AcDbBlockTableRecord
  2
*D14
340
0
  0
BLOCK_RECORD
  5
2AA1
330
1
100
AcDbSymbolTableRecord
100
AcDbBlockTableRecord
  2
*D15
340
0
  0
BLOCK_RECORD
  5
2AAD
330
1
100
AcDbSymbolTableRecord
100
AcDbBlockTableRecord
  2
*D16
340
0
  0
BLOCK_RECORD
  5
2AB9
330
1
100
AcDbSymbolTableRecord
100
AcDbBlockTableRecord
  2
*D17
340
0
  0
BLOCK_RECORD
  5
2AC5
330
1
100
AcDbSymbolTableRecord
100
AcDbBlockTableRecord
  2
*D18
340
0
  0
BLOCK_RECORD
  5
2AD1
330
1
100
AcDbSymbolTableRecord
100
AcDbBlockTableRecord
  2
*D19
340
0
  0
BLOCK_RECORD
  5
2ADD
330
1
100
AcDbSymbolTableRecord
100
AcDbBlockTableRecord
  2
*D20
340
0
  0
BLOCK_RECORD
  5
2C3D
330
1
100
AcDbSymbolTableRecord
100
AcDbBlockTableRecord
  2
*D22
340
0
  0
BLOCK_RECORD
  5
2C49
330
1
100
AcDbSymbolTableRecord
100
AcDbBlockTableRecord
  2
*D23
340
0
  0
BLOCK_RECORD
  5
2C55
330
1
100
AcDbSymbolTableRecord
100
AcDbBlockTableRecord
  2
*D24
340
0
  0
BLOCK_RECORD
  5
2C61
330
1
100
AcDbSymbolTableRecord
100
AcDbBlockTableRecord
  2
*D25
340
0
  0
BLOCK_RECORD
  5
2C6D
330
1
100
AcDbSymbolTableRecord
100
AcDbBlockTableRecord
  2
*D26
340
0
  0
BLOCK_RECORD
  5
2C79
330
1
100
AcDbSymbolTableRecord
100
AcDbBlockTableRecord
  2
*D27
340
0
  0
BLOCK_RECORD
  5
2C85
330
1
100
AcDbSymbolTableRecord
100
AcDbBlockTableRecord
  2
*D28
340
0
  0
BLOCK_RECORD
  5
2D0A
330
1
100
AcDbSymbolTableRecord
100
AcDbBlockTableRecord
  2
*D29
340
0
  0
BLOCK_RECORD
  5
2D16
330
1
100
AcDbSymbolTableRecord
100
AcDbBlockTableRecord
  2
*D30
340
0
  0
ENDTAB
  0
ENDSEC
  0
SECTION
  2
BLOCKS
  0
BLOCK
  5
1B
330
1A
100
AcDbEntity
  8
0
100
AcDbBlockBegin
  2
*MODEL_SPACE
 70
     0
 10
0.0
 20
0.0
 30
0.0
  3
*MODEL_SPACE
  1

  0
ENDBLK
  5
1C
330
1A
100
AcDbEntity
  8
0
100
AcDbBlockEnd
  0
BLOCK
  5
18
330
17
100
AcDbEntity
 67
     1
  8
0
100
AcDbBlockBegin
  2
*PAPER_SPACE
 70
     0
 10
0.0
 20
0.0
 30
0.0
  3
*PAPER_SPACE
  1

  0
ENDBLK
  5
19
330
17
100
AcDbEntity
 67
     1
  8
0
100
AcDbBlockEnd
  0
BLOCK
  5
67
330
66
100
AcDbEntity
  8
0
100
AcDbBlockBegin
  2
_OPEN
 70
     0
 10
0.0
 20
0.0
 30
0.0
  3
_OPEN
  1

  0
LINE
  5
68
330
66
100
AcDbEntity
  8
0
  6
ByBlock
 62
     0
100
AcDbLine
 10
-1.0
 20
0.1666666666666666
 30
0.0
 11
0.0
 21
0.0
 31
0.0
  0
LINE
  5
69
330
66
100
AcDbEntity
  8
0
  6
ByBlock
 62
     0
100
AcDbLine
 10
0.0
 20
0.0
 30
0.0
 11
-1.0
 21
-0.1666666666666666
 31
0.0
  0
LINE
  5
6A
330
66
100
AcDbEntity
  8
0
  6
ByBlock
 62
     0
100
AcDbLine
 10
0.0
 20
0.0
 30
0.0
 11
-1.0
 21
0.0
 31
0.0
  0
ENDBLK
  5
6B
330
66
100
AcDbEntity
  8
0
100
AcDbBlockEnd
  0
BLOCK
  5
A2D
330
899
100
AcDbEntity
  8
0
100
AcDbBlockBegin
  2
*X1
 70
     1
 10
0.0
 20
0.0
 30
0.0
  3
*X1
  1

  0
LINE
  5
89A
330
899
100
AcDbEntity
  8
0
 62
     0
100
AcDbLine
 10
79.04221142834842
 20
32.60416930422588
 30
0.0
 11
78.3963804986335
 21
33.25000023394085
 31
0.0
  0
LINE
  5
89B
330
899
100
AcDbEntity
  8
0
 62
     0
100
AcDbLine
 10
79.04221142834842
 20
31.70614369211898
 30
0.0
 11
77.49835488652656
 21
33.25000023394085
 31
0.0
  0
LINE
  5
89C
330
899
100
AcDbEntity
  8
0
 62
     0
100
AcDbLine
 10
79.04221142834837
 20
30.80811808001203
 30
0.0
 11
76.62107748233342
 21
33.22925202602698
 31
0.0
  0
LINE
  5
89D
330
899
100
AcDbEntity
  8
0
 62
     0
100
AcDbLine
 10
79.04221142834842
 20
29.9100924679052
 30
0.0
 11
76.24221142834835
 21
32.71009246790521
 31
0.0
  0
LINE
  5
89E
330
899
100
AcDbEntity
  8
0
 62
     0
100
AcDbLine
 10
79.04221142834842
 20
29.01206685579825
 30
0.0
 11
76.24221142834835
 21
31.81206685579832
 31
0.0
  0
LINE
  5
89F
330
899
100
AcDbEntity
  8
0
 62
     0
100
AcDbLine
 10
79.04221142834837
 20
28.1140412436913
 30
0.0
 11
76.2422114283483
 21
30.91404124369137
 31
0.0
  0
LINE
  5
8A0
330
899
100
AcDbEntity
  8
0
 62
     0
100
AcDbLine
 10
74.14221142834833
 20
32.1160156315845
 30
0.0
 11
73.00822682599203
 21
33.25000023394085
 31
0.0
  0
LINE
  5
8A1
330
899
100
AcDbEntity
  8
0
 62
     0
100
AcDbLine
 10
79.04221142834842
 20
27.21601563158447
 30
0.0
 11
76.24221142834835
 21
30.01601563158454
 31
0.0
  0
LINE
  5
8A2
330
899
100
AcDbEntity
  8
0
 62
     0
100
AcDbLine
 10
74.14221142834833
 20
31.21799001947761
 30
0.0
 11
72.11020121388509
 21
33.25000023394079
 31
0.0
  0
LINE
  5
8A3
330
899
100
AcDbEntity
  8
0
 62
     0
100
AcDbLine
 10
79.04221142834837
 20
26.31799001947752
 30
0.0
 11
76.24221142834835
 21
29.11799001947759
 31
0.0
  0
LINE
  5
8A4
330
899
100
AcDbEntity
  8
0
 62
     0
100
AcDbLine
 10
74.14221142834833
 20
30.31996440737066
 30
0.0
 11
71.43670046321125
 21
33.02547537250774
 31
0.0
  0
LINE
  5
8A5
330
899
100
AcDbEntity
  8
0
 62
     0
100
AcDbLine
 10
79.04221142834837
 20
25.41996440737062
 30
0.0
 11
76.2422114283483
 21
28.21996440737064
 31
0.0
  0
LINE
  5
8A6
330
899
100
AcDbEntity
  8
0
 62
     0
100
AcDbLine
 10
74.14221142834844
 20
29.42193879526366
 30
0.0
 11
71.34221142834826
 21
32.22193879526378
 31
0.0
  0
LINE
  5
8A7
330
899
100
AcDbEntity
  8
0
 62
     0
100
AcDbLine
 10
79.04221142834842
 20
24.52193879526368
 30
0.0
 11
76.24221142834835
 21
27.32193879526374
 31
0.0
  0
LINE
  5
8A8
330
899
100
AcDbEntity
  8
0
 62
     0
100
AcDbLine
 10
74.14221142834839
 20
28.52391318315676
 30
0.0
 11
71.34221142834826
 21
31.32391318315694
 31
0.0
  0
LINE
  5
8A9
330
899
100
AcDbEntity
  8
0
 62
     0
100
AcDbLine
 10
79.04221142834837
 20
23.62391318315678
 30
0.0
 11
76.2422114283483
 21
26.42391318315685
 31
0.0
  0
LINE
  5
8AA
330
899
100
AcDbEntity
  8
0
 62
     0
100
AcDbLine
 10
74.14221142834839
 20
27.62588757104987
 30
0.0
 11
71.34221142834826
 21
30.42588757104999
 31
0.0
  0
LINE
  5
8AB
330
899
100
AcDbEntity
  8
0
 62
     0
100
AcDbLine
 10
79.04221142834837
 20
22.72588757104989
 30
0.0
 11
76.2422114283483
 21
25.52588757104996
 31
0.0
  0
LINE
  5
8AC
330
899
100
AcDbEntity
  8
0
 62
     0
100
AcDbLine
 10
74.14221142834833
 20
26.72786195894292
 30
0.0
 11
71.34221142834821
 21
29.52786195894304
 31
0.0
  0
LINE
  5
8AD
330
899
100
AcDbEntity
  8
0
 62
     0
100
AcDbLine
 10
79.04221142834831
 20
21.82786195894294
 30
0.0
 11
76.2422114283483
 21
24.62786195894301
 31
0.0
  0
LINE
  5
8AE
330
899
100
AcDbEntity
  8
0
 62
     0
100
AcDbLine
 10
74.14221142834839
 20
25.82983634683609
 30
0.0
 11
71.34221142834826
 21
28.62983634683621
 31
0.0
  0
LINE
  5
8AF
330
899
100
AcDbEntity
  8
0
 62
     0
100
AcDbLine
 10
67.84221142834832
 20
32.12983634683615
 30
0.0
 11
66.72204754124368
 21
33.25000023394079
 31
0.0
  0
LINE
  5
8B0
330
899
100
AcDbEntity
  8
0
 62
     0
100
AcDbLine
 10
79.04221142834837
 20
20.92983634683611
 30
0.0
 11
76.2422114283483
 21
23.72983634683612
 31
0.0
  0
LINE
  5
8B1
330
899
100
AcDbEntity
  8
0
 62
     0
100
AcDbLine
 10
74.14221142834839
 20
24.93181073472914
 30
0.0
 11
71.34221142834821
 21
27.73181073472926
 31
0.0
  0
LINE
  5
8B2
330
899
100
AcDbEntity
  8
0
 62
     0
100
AcDbLine
 10
67.84221142834827
 20
31.2318107347292
 30
0.0
 11
65.82402192913673
 21
33.25000023394079
 31
0.0
  0
LINE
  5
8B3
330
899
100
AcDbEntity
  8
0
 62
     0
100
AcDbLine
 10
79.04221142834837
 20
20.03181073472916
 30
0.0
 11
76.2422114283483
 21
22.83181073472923
 31
0.0
  0
LINE
  5
8B4
330
899
100
AcDbEntity
  8
0
 62
     0
100
AcDbLine
 10
74.14221142834833
 20
24.03378512262225
 30
0.0
 11
71.34221142834826
 21
26.83378512262226
 31
0.0
  0
LINE
  5
8B5
330
899
100
AcDbEntity
  8
0
 62
     0
100
AcDbLine
 10
67.84221142834827
 20
30.33378512262231
 30
0.0
 11
65.14244870502427
 21
33.03354784594631
 31
0.0
  0
LINE
  5
8B6
330
899
100
AcDbEntity
  8
0
 62
     0
100
AcDbLine
 10
79.04221142834831
 20
19.13378512262227
 30
0.0
 11
76.24221142834824
 21
21.93378512262228
 31
0.0
  0
LINE
  5
8B7
330
899
100
AcDbEntity
  8
0
 62
     0
100
AcDbLine
 10
74.14221142834839
 20
23.1357595105153
 30
0.0
 11
71.34221142834832
 21
25.93575951051537
 31
0.0
  0
LINE
  5
8B8
330
899
100
AcDbEntity
  8
0
 62
     0
100
AcDbLine
 10
67.84221142834832
 20
29.43575951051537
 30
0.0
 11
65.04221142834831
 21
32.23575951051538
 31
0.0
  0
LINE
  5
8B9
330
899
100
AcDbEntity
  8
0
 62
     0
100
AcDbLine
 10
79.04221142834837
 20
18.23575951051532
 30
0.0
 11
76.2422114283483
 21
21.03575951051539
 31
0.0
  0
LINE
  5
8BA
330
899
100
AcDbEntity
  8
0
 62
     0
100
AcDbLine
 10
74.14221142834833
 20
22.2377338984084
 30
0.0
 11
71.34221142834832
 21
25.03773389840847
 31
0.0
  0
LINE
  5
8BB
330
899
100
AcDbEntity
  8
0
 62
     0
100
AcDbLine
 10
67.84221142834837
 20
28.53773389840842
 30
0.0
 11
65.04221142834831
 21
31.33773389840849
 31
0.0
  0
LINE
  5
8BC
330
899
100
AcDbEntity
  8
0
 62
     0
100
AcDbLine
 10
78.97024607345855
 20
17.40969925329824
 30
0.0
 11
76.2422114283483
 21
20.13773389840849
 31
0.0
  0
LINE
  5
8BD
330
899
100
AcDbEntity
  8
0
 62
     0
100
AcDbLine
 10
74.14221142834839
 20
21.3397082863014
 30
0.0
 11
71.34221142834826
 21
24.13970828630152
 31
0.0
  0
LINE
  5
8BE
330
899
100
AcDbEntity
  8
0
 62
     0
100
AcDbLine
 10
67.84221142834832
 20
27.63970828630152
 30
0.0
 11
65.04221142834825
 21
30.43970828630154
 31
0.0
  0
LINE
  5
8BF
330
899
100
AcDbEntity
  8
0
 62
     0
100
AcDbLine
 10
78.33191948070908
 20
17.15000023394077
 30
0.0
 11
76.24221142834824
 21
19.2397082863016
 31
0.0
  0
LINE
  5
8C0
330
899
100
AcDbEntity
  8
0
 62
     0
100
AcDbLine
 10
67.84221142834832
 20
26.74168267419458
 30
0.0
 11
65.04221142834825
 21
29.54168267419465
 31
0.0
  0
LINE
  5
8C1
330
899
100
AcDbEntity
  8
0
 62
     0
100
AcDbLine
 10
74.14221142834839
 20
20.44168267419451
 30
0.0
 11
71.34221142834826
 21
23.24168267419463
 31
0.0
  0
LINE
  5
8C2
330
899
100
AcDbEntity
  8
0
 62
     0
100
AcDbLine
 10
62.41721142834831
 20
32.16668267419459
 30
0.0
 11
61.33389386860216
 21
33.25000023394068
 31
0.0
  0
LINE
  5
8C3
330
899
100
AcDbEntity
  8
0
 62
     0
100
AcDbLine
 10
77.43389386860219
 20
17.15000023394066
 30
0.0
 11
76.24221142834824
 21
18.34168267419465
 31
0.0
  0
LINE
  5
8C4
330
899
100
AcDbEntity
  8
0
 62
     0
100
AcDbLine
 10
67.84221142834832
 20
25.84365706208768
 30
0.0
 11
65.04221142834836
 21
28.64365706208769
 31
0.0
  0
LINE
  5
8C5
330
899
100
AcDbEntity
  8
0
 62
     0
100
AcDbLine
 10
62.41721142834831
 20
31.2686570620877
 30
0.0
 11
60.43586825649533
 21
33.25000023394073
 31
0.0
  0
LINE
  5
8C6
330
899
100
AcDbEntity
  8
0
 62
     0
100
AcDbLine
 10
74.1162531277028
 20
19.56961536273325
 30
0.0
 11
71.34221142834826
 21
22.34365706208774
 31
0.0
  0
LINE
  5
8C7
330
899
100
AcDbEntity
  8
0
 62
     0
100
AcDbLine
 10
67.84221142834832
 20
24.94563144998079
 30
0.0
 11
65.04221142834836
 21
27.74563144998074
 31
0.0
  0
LINE
  5
8C8
330
899
100
AcDbEntity
  8
0
 62
     0
100
AcDbLine
 10
62.22163088223448
 20
30.56621199609463
 30
0.0
 11
59.53784264438832
 21
33.25000023394079
 31
0.0
  0
LINE
  5
8C9
330
899
100
AcDbEntity
  8
0
 62
     0
100
AcDbLine
 10
73.92326783244556
 20
18.86457504588349
 30
0.0
 11
71.34221142834826
 21
21.44563144998085
 31
0.0
  0
LINE
  5
8CA
330
899
100
AcDbEntity
  8
0
 62
     0
100
AcDbLine
 10
67.84221142834832
 20
24.04760583787384
 30
0.0
 11
65.04221142834831
 21
26.84760583787385
 31
0.0
  0
LINE
  5
8CB
330
899
100
AcDbEntity
  8
0
 62
     0
100
AcDbLine
 10
61.43981703228132
 20
30.45000023394078
 30
0.0
 11
58.63981703228143
 21
33.25000023394068
 31
0.0
  0
LINE
  5
8CC
330
899
100
AcDbEntity
  8
0
 62
     0
100
AcDbLine
 10
73.59823595652199
 20
18.29158130970012
 30
0.0
 11
71.27069568918876
 21
20.61912157703341
 31
0.0
  0
LINE
  5
8CD
330
899
100
AcDbEntity
  8
0
 62
     0
100
AcDbLine
 10
67.84221142834832
 20
23.14958022576701
 30
0.0
 11
65.04221142834836
 21
25.94958022576696
 31
0.0
  0
LINE
  5
8CE
330
899
100
AcDbEntity
  8
0
 62
     0
100
AcDbLine
 10
60.54179142017449
 20
30.45000023394084
 30
0.0
 11
57.8042246909971
 21
33.18756696311822
 31
0.0
  0
LINE
  5
8CF
330
899
100
AcDbEntity
  8
0
 62
     0
100
AcDbLine
 10
73.16619415919695
 20
17.82559749491832
 30
0.0
 11
70.86911005072124
 21
20.12268160339402
 31
0.0
  0
LINE
  5
8D0
330
899
100
AcDbEntity
  8
0
 62
     0
100
AcDbLine
 10
67.84221142834832
 20
22.25155461366006
 30
0.0
 11
65.04221142834831
 21
25.05155461366001
 31
0.0
  0
LINE
  5
8D1
330
899
100
AcDbEntity
  8
0
 62
     0
100
AcDbLine
 10
59.64376580806754
 20
30.45000023394084
 30
0.0
 11
57.13958426646371
 21
32.95418177554461
 31
0.0
  0
LINE
  5
8D2
330
899
100
AcDbEntity
  8
0
 62
     0
100
AcDbLine
 10
72.63003181427092
 20
17.46373422773746
 30
0.0
 11
70.14376580806754
 21
19.95000023394078
 31
0.0
  0
LINE
  5
8D3
330
899
100
AcDbEntity
  8
0
 62
     0
100
AcDbLine
 10
67.84221142834827
 20
21.35352900155311
 30
0.0
 11
65.04221142834831
 21
24.15352900155312
 31
0.0
  0
LINE
  5
8D4
330
899
100
AcDbEntity
  8
0
 62
     0
100
AcDbLine
 10
58.76753002397873
 20
30.42821040592264
 30
0.0
 11
56.59698332925353
 21
32.59875710064784
 31
0.0
  0
LINE
  5
8D5
330
899
100
AcDbEntity
  8
0
 62
     0
100
AcDbLine
 10
71.97361925435962
 20
17.22212117554181
 30
0.0
 11
69.24574019596064
 21
19.95000023394078
 31
0.0
  0
LINE
  5
8D6
330
899
100
AcDbEntity
  8
0
 62
     0
100
AcDbLine
 10
58.39221142834839
 20
29.90550338944604
 30
0.0
 11
56.15887127020897
 21
32.13884354758545
 31
0.0
  0
LINE
  5
8D7
330
899
100
AcDbEntity
  8
0
 62
     0
100
AcDbLine
 10
71.14771458385383
 20
17.1500002339406
 30
0.0
 11
65.04221142834831
 21
23.25550338944617
 31
0.0
  0
LINE
  5
8D8
330
899
100
AcDbEntity
  8
0
 62
     0
100
AcDbLine
 10
58.39221142834844
 20
29.0074777773392
 30
0.0
 11
55.82710035785595
 21
31.57258884783169
 31
0.0
  0
LINE
  5
8D9
330
899
100
AcDbEntity
  8
0
 62
     0
100
AcDbLine
 10
70.24968897174687
 20
17.15000023394071
 30
0.0
 11
65.04221142834831
 21
22.35747777733934
 31
0.0
  0
LINE
  5
8DA
330
899
100
AcDbEntity
  8
0
 62
     0
100
AcDbLine
 10
58.59875570945217
 20
27.90290788412852
 30
0.0
 11
55.62492183849184
 21
30.8767417550888
 31
0.0
  0
LINE
  5
8DB
330
899
100
AcDbEntity
  8
0
 62
     0
100
AcDbLine
 10
69.35166335963998
 20
17.15000023394071
 30
0.0
 11
65.04221142834831
 21
21.45945216523239
 31
0.0
  0
LINE
  5
8DC
330
899
100
AcDbEntity
  8
0
 62
     0
100
AcDbLine
 10
62.8158151310397
 20
22.78782285043405
 30
0.0
 11
55.59221142834832
 21
30.01142655312537
 31
0.0
  0
LINE
  5
8DD
330
899
100
AcDbEntity
  8
0
 62
     0
100
AcDbLine
 10
53.49221142834824
 20
32.11142655312545
 30
0.0
 11
52.35363774753295
 21
33.25000023394079
 31
0.0
  0
LINE
  5
8DE
330
899
100
AcDbEntity
  8
0
 62
     0
100
AcDbLine
 10
68.45363774753304
 20
17.15000023394071
 30
0.0
 11
65.04221142834825
 21
20.56142655312544
 31
0.0
  0
LINE
  5
8DF
330
899
100
AcDbEntity
  8
0
 62
     0
100
AcDbLine
 10
62.9422114283484
 20
21.76340094101851
 30
0.0
 11
55.59221142834838
 21
29.11340094101854
 31
0.0
  0
LINE
  5
8E0
330
899
100
AcDbEntity
  8
0
 62
     0
100
AcDbLine
 10
53.49221142834835
 20
31.2134009410185
 30
0.0
 11
51.45561213542601
 21
33.25000023394091
 31
0.0
  0
LINE
  5
8E1
330
899
100
AcDbEntity
  8
0
 62
     0
100
AcDbLine
 10
67.53916425668126
 20
17.16644811268565
 30
0.0
 11
65.05865930709325
 21
19.64695306227366
 31
0.0
  0
LINE
  5
8E2
330
899
100
AcDbEntity
  8
0
 62
     0
100
AcDbLine
 10
53.49221142834835
 20
30.31537532891161
 30
0.0
 11
50.78482154057303
 21
33.02276521668687
 31
0.0
  0
LINE
  5
8E3
330
899
100
AcDbEntity
  8
0
 62
     0
100
AcDbLine
 10
62.94221142834834
 20
20.86537532891156
 30
0.0
 11
55.61562209623071
 21
28.19196466102926
 31
0.0
  0
LINE
  5
8E4
330
899
100
AcDbEntity
  8
0
 62
     0
100
AcDbLine
 10
53.49221142834835
 20
29.41734971680466
 30
0.0
 11
50.69221142834834
 21
32.21734971680461
 31
0.0
  0
LINE
  5
8E5
330
899
100
AcDbEntity
  8
0
 62
     0
100
AcDbLine
 10
62.94221142834823
 20
19.96734971680473
 30
0.0
 11
55.93374151407073
 21
26.97581963108229
 31
0.0
  0
LINE
  5
8E6
330
899
100
AcDbEntity
  8
0
 62
     0
100
AcDbLine
 10
53.49221142834835
 20
28.51932410469777
 30
0.0
 11
50.6922114283484
 21
31.31932410469772
 31
0.0
  0
LINE
  5
8E7
330
899
100
AcDbEntity
  8
0
 62
     0
100
AcDbLine
 10
62.83364961075927
 20
19.17788592228686
 30
0.0
 11
60.13801482172095
 21
21.87352071132516
 31
0.0
  0
LINE
  5
8E8
330
899
100
AcDbEntity
  8
0
 62
     0
100
AcDbLine
 10
53.49221142834835
 20
27.62129849259088
 30
0.0
 11
50.69221142834834
 21
30.42129849259083
 31
0.0
  0
LINE
  5
8E9
330
899
100
AcDbEntity
  8
0
 62
     0
100
AcDbLine
 10
48.40072452777133
 20
32.71278539316785
 30
0.0
 11
47.86350968699832
 21
33.25000023394091
 31
0.0
  0
LINE
  5
8EA
330
899
100
AcDbEntity
  8
0
 62
     0
100
AcDbLine
 10
62.56577390299771
 20
18.54773601794153
 30
0.0
 11
60.14221142834839
 21
20.97129849259084
 31
0.0
  0
LINE
  5
8EB
330
899
100
AcDbEntity
  8
0
 62
     0
100
AcDbLine
 10
53.4922114283483
 20
26.72327288048393
 30
0.0
 11
50.69221142834834
 21
29.52327288048394
 31
0.0
  0
LINE
  5
8EC
330
899
100
AcDbEntity
  8
0
 62
     0
100
AcDbLine
 10
48.20179686351872
 20
32.0136874453135
 30
0.0
 11
46.96548407489143
 21
33.25000023394085
 31
0.0
  0
LINE
  5
8ED
330
899
100
AcDbEntity
  8
0
 62
     0
100
AcDbLine
 10
62.18278710482241
 20
18.03269720400987
 30
0.0
 11
60.04492624546191
 21
20.17055806337038
 31
0.0
  0
LINE
  5
8EE
330
899
100
AcDbEntity
  8
0
 62
     0
100
AcDbLine
 10
53.4922114283483
 20
25.82524726837704
 30
0.0
 11
50.69221142834834
 21
28.62524726837699
 31
0.0
  0
LINE
  5
8EF
330
899
100
AcDbEntity
  8
0
 62
     0
100
AcDbLine
 10
47.98627071661303
 20
31.33118798011224
 30
0.0
 11
46.07705515314245
 21
33.24040354358288
 31
0.0
  0
LINE
  5
8F0
330
899
100
AcDbEntity
  8
0
 62
     0
100
AcDbLine
 10
61.69646813970678
 20
17.6209905570185
 30
0.0
 11
59.36745846278455
 21
19.95000023394078
 31
0.0
  0
LINE
  5
8F1
330
899
100
AcDbEntity
  8
0
 62
     0
100
AcDbLine
 10
53.49221142834835
 20
24.92722165627014
 30
0.0
 11
50.69221142834834
 21
27.7272216562701
 31
0.0
  0
LINE
  5
8F2
330
899
100
AcDbEntity
  8
0
 62
     0
100
AcDbLine
 10
47.77074456970751
 20
30.64868851491098
 30
0.0
 11
45.64274456970747
 21
32.77668851491103
 31
0.0
  0
LINE
  5
8F3
330
899
100
AcDbEntity
  8
0
 62
     0
100
AcDbLine
 10
61.10038419124641
 20
17.31904889337204
 30
0.0
 11
58.46943285067766
 21
19.95000023394084
 31
0.0
  0
LINE
  5
8F4
330
899
100
AcDbEntity
  8
0
 62
     0
100
AcDbLine
 10
53.4922114283483
 20
24.02919604416325
 30
0.0
 11
50.69221142834834
 21
26.82919604416321
 31
0.0
  0
LINE
  5
8F5
330
899
100
AcDbEntity
  8
0
 62
     0
100
AcDbLine
 10
47.55521842280166
 20
29.9661890497099
 30
0.0
 11
45.42721842280167
 21
32.09418904970988
 31
0.0
  0
LINE
  5
8F6
330
899
100
AcDbEntity
  8
0
 62
     0
100
AcDbLine
 10
60.36271153959893
 20
17.15869593291262
 30
0.0
 11
57.57140723857077
 21
19.95000023394078
 31
0.0
  0
LINE
  5
8F7
330
899
100
AcDbEntity
  8
0
 62
     0
100
AcDbLine
 10
53.4922114283483
 20
23.1311704320563
 30
0.0
 11
50.69221142834829
 21
25.93117043205626
 31
0.0
  0
LINE
  5
8F8
330
899
100
AcDbEntity
  8
0
 62
     0
100
AcDbLine
 10
47.33969227589608
 20
29.28368958450852
 30
0.0
 11
45.21169227589598
 21
31.41168958450856
 31
0.0
  0
LINE
  5
8F9
330
899
100
AcDbEntity
  8
0
 62
     0
100
AcDbLine
 10
59.47338162646389
 20
17.15000023394071
 30
0.0
 11
56.67338162646382
 21
19.95000023394078
 31
0.0
  0
LINE
  5
8FA
330
899
100
AcDbEntity
  8
0
 62
     0
100
AcDbLine
 10
53.4922114283483
 20
22.23314481994941
 30
0.0
 11
50.69221142834834
 21
25.03314481994943
 31
0.0
  0
LINE
  5
8FB
330
899
100
AcDbEntity
  8
0
 62
     0
100
AcDbLine
 10
47.12416612899045
 20
28.60119011930732
 30
0.0
 11
44.99616612899035
 21
30.72919011930736
 31
0.0
  0
LINE
  5
8FC
330
899
100
AcDbEntity
  8
0
 62
     0
100
AcDbLine
 10
58.57535601435699
 20
17.15000023394077
 30
0.0
 11
56.14174431706061
 21
19.58361193123715
 31
0.0
  0
LINE
  5
8FD
330
899
100
AcDbEntity
  8
0
 62
     0
100
AcDbLine
 10
46.90863998208482
 20
27.91869065410594
 30
0.0
 11
44.78063998208472
 21
30.0466906541061
 31
0.0
  0
LINE
  5
8FE
330
899
100
AcDbEntity
  8
0
 62
     0
100
AcDbLine
 10
53.4922114283483
 20
21.33511920784252
 30
0.0
 11
50.69221142834834
 21
24.13511920784248
 31
0.0
  0
LINE
  5
8FF
330
899
100
AcDbEntity
  8
0
 62
     0
100
AcDbLine
 10
42.64221142834833
 20
32.18511920784249
 30
0.0
 11
41.57733040225003
 21
33.25000023394073
 31
0.0
  0
LINE
  5
900
330
899
100
AcDbEntity
  8
0
 62
     0
100
AcDbLine
 10
57.6773304022501
 20
17.15000023394071
 30
0.0
 11
56.11721142834835
 21
18.71011920784246
 31
0.0
  0
LINE
  5
901
330
899
100
AcDbEntity
  8
0
 62
     0
100
AcDbLine
 10
46.69311383517902
 20
27.23619118890485
 30
0.0
 11
44.56511383517908
 21
29.36419118890478
 31
0.0
  0
LINE
  5
902
330
899
100
AcDbEntity
  8
0
 62
     0
100
AcDbLine
 10
53.4922114283483
 20
20.43709359573557
 30
0.0
 11
50.69221142834829
 21
23.23709359573558
 31
0.0
  0
LINE
  5
903
330
899
100
AcDbEntity
  8
0
 62
     0
100
AcDbLine
 10
42.64221142834833
 20
31.28709359573554
 30
0.0
 11
40.67930479014302
 21
33.25000023394079
 31
0.0
  0
LINE
  5
904
330
899
100
AcDbEntity
  8
0
 62
     0
100
AcDbLine
 10
56.7793047901431
 20
17.15000023394077
 30
0.0
 11
56.1172114283483
 21
17.81209359573551
 31
0.0
  0
LINE
  5
905
330
899
100
AcDbEntity
  8
0
 62
     0
100
AcDbLine
 10
46.47758768827339
 20
26.55369172370353
 30
0.0
 11
44.34958768827335
 21
28.68169172370357
 31
0.0
  0
LINE
  5
906
330
899
100
AcDbEntity
  8
0
 62
     0
100
AcDbLine
 10
42.64221142834827
 20
30.38906798362859
 30
0.0
 11
39.96676649945067
 21
33.06451291252625
 31
0.0
  0
LINE
  5
907
330
899
100
AcDbEntity
  8
0
 62
     0
100
AcDbLine
 10
53.49221142834824
 20
19.53906798362868
 30
0.0
 11
50.69221142834829
 21
22.33906798362863
 31
0.0
  0
LINE
  5
908
330
899
100
AcDbEntity
  8
0
 62
     0
100
AcDbLine
 10
46.26206154136776
 20
25.87119225850233
 30
0.0
 11
44.13406154136777
 21
27.99919225850231
 31
0.0
  0
LINE
  5
909
330
899
100
AcDbEntity
  8
0
 62
     0
100
AcDbLine
 10
42.64221142834833
 20
29.49104237152175
 30
0.0
 11
39.84221142834826
 21
32.29104237152176
 31
0.0
  0
LINE
  5
90A
330
899
100
AcDbEntity
  8
0
 62
     0
100
AcDbLine
 10
53.4922114283483
 20
18.64104237152179
 30
0.0
 11
50.69221142834829
 21
21.44104237152174
 31
0.0
  0
LINE
  5
90B
330
899
100
AcDbEntity
  8
0
 62
     0
100
AcDbLine
 10
46.0569730319757
 20
25.17825515578744
 30
0.0
 11
43.91853539446202
 21
27.31669279330111
 31
0.0
  0
LINE
  5
90C
330
899
100
AcDbEntity
  8
0
 62
     0
100
AcDbLine
 10
42.64221142834833
 20
28.5930167594148
 30
0.0
 11
39.84221142834826
 21
31.39301675941487
 31
0.0
  0
LINE
  5
90D
330
899
100
AcDbEntity
  8
0
 62
     0
100
AcDbLine
 10
53.49221142834824
 20
17.74301675941484
 30
0.0
 11
50.69221142834829
 21
20.54301675941485
 31
0.0
  0
LINE
  5
90E
330
899
100
AcDbEntity
  8
0
 62
     0
100
AcDbLine
 10
46.4714463914097
 20
23.86575618424649
 30
0.0
 11
43.6279878987774
 21
26.70921467687878
 31
0.0
  0
LINE
  5
90F
330
899
100
AcDbEntity
  8
0
 62
     0
100
AcDbLine
 10
42.64221142834839
 20
27.6949911473078
 30
0.0
 11
39.84221142834821
 21
30.49499114730792
 31
0.0
  0
LINE
  5
910
330
899
100
AcDbEntity
  8
0
 62
     0
100
AcDbLine
 10
53.1531664310159
 20
17.18403614464023
 30
0.0
 11
50.69221142834834
 21
19.64499114730784
 31
0.0
  0
LINE
  5
911
330
899
100
AcDbEntity
  8
0
 62
     0
100
AcDbLine
 10
46.8859197508437
 20
22.55325721270565
 30
0.0
 11
39.84221142834826
 21
29.59696553520109
 31
0.0
  0
LINE
  5
912
330
899
100
AcDbEntity
  8
0
 62
     0
100
AcDbLine
 10
37.39221142834839
 20
32.04696553520097
 30
0.0
 11
36.18917672960861
 21
33.25000023394073
 31
0.0
  0
LINE
  5
913
330
899
100
AcDbEntity
  8
0
 62
     0
100
AcDbLine
 10
52.28917672960864
 20
17.15000023394071
 30
0.0
 11
50.6922114283484
 21
18.74696553520095
 31
0.0
  0
LINE
  5
914
330
899
100
AcDbEntity
  8
0
 62
     0
100
AcDbLine
 10
47.30039311027775
 20
21.24075824116465
 30
0.0
 11
39.84221142834826
 21
28.69893992309414
 31
0.0
  0
LINE
  5
915
330
899
100
AcDbEntity
  8
0
 62
     0
100
AcDbLine
 10
37.39221142834839
 20
31.14893992309402
 30
0.0
 11
35.29115111750161
 21
33.25000023394079
 31
0.0
  0
LINE
  5
916
330
899
100
AcDbEntity
  8
0
 62
     0
100
AcDbLine
 10
51.39115111750169
 20
17.15000023394066
 30
0.0
 11
50.69221142834834
 21
17.84893992309406
 31
0.0
  0
LINE
  5
917
330
899
100
AcDbEntity
  8
0
 62
     0
100
AcDbLine
 10
37.12530473295828
 20
30.51782100637717
 30
0.0
 11
34.42508301474686
 21
33.21804272458854
 31
0.0
  0
LINE
  5
918
330
899
100
AcDbEntity
  8
0
 62
     0
100
AcDbLine
 10
47.71486646971169
 20
19.92825926962376
 30
0.0
 11
39.84221142834832
 21
27.80091431098714
 31
0.0
  0
LINE
  5
919
330
899
100
AcDbEntity
  8
0
 62
     0
100
AcDbLine
 10
42.97972035068994
 20
23.76537977653862
 30
0.0
 11
39.84221142834832
 21
26.90288869888024
 31
0.0
  0
LINE
  5
91A
330
899
100
AcDbEntity
  8
0
 62
     0
100
AcDbLine
 10
36.29509989328784
 20
30.45000023394067
 30
0.0
 11
33.68703994515959
 21
33.05806018206897
 31
0.0
  0
LINE
  5
91B
330
899
100
AcDbEntity
  8
0
 62
     0
100
AcDbLine
 10
48.12933982914575
 20
18.61576029808281
 30
0.0
 11
44.03703213683786
 21
22.70806799039064
 31
0.0
  0
LINE
  5
91C
330
899
100
AcDbEntity
  8
0
 62
     0
100
AcDbLine
 10
42.64221142834839
 20
23.20486308677328
 30
0.0
 11
39.84221142834832
 21
26.00486308677335
 31
0.0
  0
LINE
  5
91D
330
899
100
AcDbEntity
  8
0
 62
     0
100
AcDbLine
 10
35.39707428118083
 20
30.45000023394078
 30
0.0
 11
33.04831852932887
 21
32.79875598579275
 31
0.0
  0
LINE
  5
91E
330
899
100
AcDbEntity
  8
0
 62
     0
100
AcDbLine
 10
48.36437868685635
 20
17.48269582826526
 30
0.0
 11
44.45150549627181
 21
21.39556901884986
 31
0.0
  0
LINE
  5
91F
330
899
100
AcDbEntity
  8
0
 62
     0
100
AcDbLine
 10
42.64221142834833
 20
22.30683747466639
 30
0.0
 11
39.84221142834826
 21
25.1068374746664
 31
0.0
  0
LINE
  5
920
330
899
100
AcDbEntity
  8
0
 62
     0
100
AcDbLine
 10
34.5539607786373
 20
30.39508812437742
 30
0.0
 11
32.48956955399433
 21
32.45947934902039
 31
0.0
  0
LINE
  5
921
330
899
100
AcDbEntity
  8
0
 62
     0
100
AcDbLine
 10
47.79904866907401
 20
17.15000023394071
 30
0.0
 11
44.86597885570563
 21
20.08307004730903
 31
0.0
  0
LINE
  5
922
330
899
100
AcDbEntity
  8
0
 62
     0
100
AcDbLine
 10
42.64221142834833
 20
21.40881186255944
 30
0.0
 11
39.84221142834826
 21
24.20881186255951
 31
0.0
  0
LINE
  5
923
330
899
100
AcDbEntity
  8
0
 62
     0
100
AcDbLine
 10
33.98210458579831
 20
30.06891870510946
 30
0.0
 11
32.00191434538254
 21
32.04910894552523
 31
0.0
  0
LINE
  5
924
330
899
100
AcDbEntity
  8
0
 62
     0
100
AcDbLine
 10
46.90102305696706
 20
17.15000023394071
 30
0.0
 11
45.28045221513957
 21
18.7705710757682
 31
0.0
  0
LINE
  5
925
330
899
100
AcDbEntity
  8
0
 62
     0
100
AcDbLine
 10
37.72764056114607
 20
25.42535711765486
 30
0.0
 11
36.21756831206232
 21
26.93542936673861
 31
0.0
  0
LINE
  5
926
330
899
100
AcDbEntity
  8
0
 62
     0
100
AcDbLine
 10
42.64221142834844
 20
20.51078625045249
 30
0.0
 11
39.84221142834832
 21
23.31078625045262
 31
0.0
  0
LINE
  5
927
330
899
100
AcDbEntity
  8
0
 62
     0
100
AcDbLine
 10
33.62598301566936
 20
29.52701466313158
 30
0.0
 11
31.58254831937131
 21
31.57044935942963
 31
0.0
  0
LINE
  5
928
330
899
100
AcDbEntity
  8
0
 62
     0
100
AcDbLine
 10
45.95266444065555
 20
17.20033323814539
 30
0.0
 11
45.70231026906424
 21
17.4506874097367
 31
0.0
  0
LINE
  5
929
330
899
100
AcDbEntity
  8
0
 62
     0
100
AcDbLine
 10
37.64112690100415
 20
24.61384516568983
 30
0.0
 11
35.40605636009729
 21
26.8489157065967
 31
0.0
  0
LINE
  5
92A
330
899
100
AcDbEntity
  8
0
 62
     0
100
AcDbLine
 10
33.54221142834842
 20
28.71276063834557
 30
0.0
 11
31.23360929840965
 21
31.02136276828435
 31
0.0
  0
LINE
  5
92B
330
899
100
AcDbEntity
  8
0
 62
     0
100
AcDbLine
 10
42.64221142834839
 20
19.61276063834555
 30
0.0
 11
39.84221142834826
 21
22.41276063834573
 31
0.0
  0
LINE
  5
92C
330
899
100
AcDbEntity
  8
0
 62
     0
100
AcDbLine
 10
37.3092713417061
 20
24.04767511288088
 30
0.0
 11
34.83988630728834
 21
26.51706014729865
 31
0.0
  0
LINE
  5
92D
330
899
100
AcDbEntity
  8
0
 62
     0
100
AcDbLine
 10
33.54221142834842
 20
27.81473502623862
 30
0.0
 11
30.96302959119947
 21
30.39391686338757
 31
0.0
  0
LINE
  5
92E
330
899
100
AcDbEntity
  8
0
 62
     0
100
AcDbLine
 10
42.64221142834839
 20
18.71473502623865
 30
0.0
 11
39.84221142834832
 21
21.51473502623872
 31
0.0
  0
LINE
  5
92F
330
899
100
AcDbEntity
  8
0
 62
     0
100
AcDbLine
 10
33.54221142834842
 20
26.91670941413173
 30
0.0
 11
30.78831571827362
 21
29.67060512420658
 31
0.0
  0
LINE
  5
930
330
899
100
AcDbEntity
  8
0
 62
     0
100
AcDbLine
 10
36.80743789956966
 20
23.65148294291054
 30
0.0
 11
34.443694137318
 21
26.0152267051622
 31
0.0
  0
LINE
  5
931
330
899
100
AcDbEntity
  8
0
 62
     0
100
AcDbLine
 10
28.11721142834824
 20
32.34170941413191
 30
0.0
 11
27.20892060853936
 21
33.25000023394085
 31
0.0
  0
LINE
  5
932
330
899
100
AcDbEntity
  8
0
 62
     0
100
AcDbLine
 10
42.64221142834844
 20
17.81670941413176
 30
0.0
 11
39.84221142834837
 21
20.61670941413183
 31
0.0
  0
LINE
  5
933
330
899
100
AcDbEntity
  8
0
 62
     0
100
AcDbLine
 10
33.54221142834842
 20
26.01868380202484
 30
0.0
 11
30.74221142834835
 21
28.8186838020249
 31
0.0
  0
LINE
  5
934
330
899
100
AcDbEntity
  8
0
 62
     0
100
AcDbLine
 10
36.10711845714223
 20
23.45377677323102
 30
0.0
 11
34.24598796763848
 21
25.31490726273478
 31
0.0
  0
LINE
  5
935
330
899
100
AcDbEntity
  8
0
 62
     0
100
AcDbLine
 10
28.1172114283483
 20
31.4436838020249
 30
0.0
 11
26.31089499643241
 21
33.25000023394079
 31
0.0
  0
LINE
  5
936
330
899
100
AcDbEntity
  8
0
 62
     0
100
AcDbLine
 10
42.35430762707773
 20
17.20658760329553
 30
0.0
 11
39.84221142834832
 21
19.71868380202488
 31
0.0
  0
LINE
  5
937
330
899
100
AcDbEntity
  8
0
 62
     0
100
AcDbLine
 10
33.54221142834842
 20
25.12065818991789
 30
0.0
 11
30.74221142834835
 21
27.92065818991796
 31
0.0
  0
LINE
  5
938
330
899
100
AcDbEntity
  8
0
 62
     0
100
AcDbLine
 10
28.00817745807796
 20
30.65469216018835
 30
0.0
 11
25.4128693843254
 21
33.25000023394085
 31
0.0
  0
LINE
  5
939
330
899
100
AcDbEntity
  8
0
 62
     0
100
AcDbLine
 10
41.51286938432554
 20
17.15000023394077
 30
0.0
 11
39.84221142834832
 21
18.82065818991799
 31
0.0
  0
LINE
  5
93A
330
899
100
AcDbEntity
  8
0
 62
     0
100
AcDbLine
 10
33.54221142834836
 20
24.222632577811
 30
0.0
 11
30.74221142834829
 21
27.02263257781101
 31
0.0
  0
LINE
  5
93B
330
899
100
AcDbEntity
  8
0
 62
     0
100
AcDbLine
 10
27.31484377221863
 20
30.45000023394072
 30
0.0
 11
24.51484377221857
 21
33.25000023394073
 31
0.0
  0
LINE
  5
93C
330
899
100
AcDbEntity
  8
0
 62
     0
100
AcDbLine
 10
40.61484377221859
 20
17.15000023394071
 30
0.0
 11
39.84221142834832
 21
17.92263257781104
 31
0.0
  0
LINE
  5
93D
330
899
100
AcDbEntity
  8
0
 62
     0
100
AcDbLine
 10
33.54221142834842
 20
23.3246069657041
 30
0.0
 11
30.74221142834835
 21
26.12460696570417
 31
0.0
  0
LINE
  5
93E
330
899
100
AcDbEntity
  8
0
 62
     0
100
AcDbLine
 10
26.41681816011174
 20
30.45000023394072
 30
0.0
 11
23.65168888800684
 21
33.21512950604568
 31
0.0
  0
LINE
  5
93F
330
899
100
AcDbEntity
  8
0
 62
     0
100
AcDbLine
 10
37.38960897951142
 20
19.47720941454105
 30
0.0
 11
36.91942060894871
 21
19.94739778510381
 31
0.0
  0
LINE
  5
940
330
899
100
AcDbEntity
  8
0
 62
     0
100
AcDbLine
 10
33.54221142834836
 20
22.42658135359715
 30
0.0
 11
30.74221142834835
 21
25.22658135359722
 31
0.0
  0
LINE
  5
941
330
899
100
AcDbEntity
  8
0
 62
     0
100
AcDbLine
 10
25.51879254800485
 20
30.45000023394072
 30
0.0
 11
22.95855407952836
 21
33.01023870241721
 31
0.0
  0
LINE
  5
942
330
899
100
AcDbEntity
  8
0
 62
     0
100
AcDbLine
 10
37.39221142834844
 20
18.57658135359713
 30
0.0
 11
36.01879254800479
 21
19.95000023394078
 31
0.0
  0
LINE
  5
943
330
899
100
AcDbEntity
  8
0
 62
     0
100
AcDbLine
 10
33.54221142834836
 20
21.52855574149026
 30
0.0
 11
30.74221142834841
 21
24.32855574149022
 31
0.0
  0
LINE
  5
944
330
899
100
AcDbEntity
  8
0
 62
     0
100
AcDbLine
 10
24.6207669358979
 20
30.45000023394067
 30
0.0
 11
22.39430741968112
 21
32.67645975015744
 31
0.0
  0
LINE
  5
945
330
899
100
AcDbEntity
  8
0
 62
     0
100
AcDbLine
 10
37.39221142834839
 20
17.67855574149018
 30
0.0
 11
35.1207669358979
 21
19.95000023394067
 31
0.0
  0
LINE
  5
946
330
899
100
AcDbEntity
  8
0
 62
     0
100
AcDbLine
 10
24.11047410828331
 20
30.06226744944848
 30
0.0
 11
21.93621460744037
 21
32.23652695029142
 31
0.0
  0
LINE
  5
947
330
899
100
AcDbEntity
  8
0
 62
     0
100
AcDbLine
 10
37.00447864385603
 20
17.16826291387576
 30
0.0
 11
30.74221142834841
 21
23.43053012938338
 31
0.0
  0
LINE
  5
948
330
899
100
AcDbEntity
  8
0
 62
     0
100
AcDbLine
 10
24.09221142834837
 20
29.18250451727647
 30
0.0
 11
21.58273340497129
 21
31.69198254065355
 31
0.0
  0
LINE
  5
949
330
899
100
AcDbEntity
  8
0
 62
     0
100
AcDbLine
 10
36.12471571168413
 20
17.15000023394071
 30
0.0
 11
30.74221142834841
 21
22.53250451727643
 31
0.0
  0
LINE
  5
94A
330
899
100
AcDbEntity
  8
0
 62
     0
100
AcDbLine
 10
24.1543471364838
 20
28.22234319703403
 30
0.0
 11
21.35185330267757
 21
31.02483703084033
 31
0.0
  0
LINE
  5
94B
330
899
100
AcDbEntity
  8
0
 62
     0
100
AcDbLine
 10
35.22669009957712
 20
17.15000023394077
 30
0.0
 11
30.74221142834835
 21
21.63447890516948
 31
0.0
  0
LINE
  5
94C
330
899
100
AcDbEntity
  8
0
 62
     0
100
AcDbLine
 10
28.44658751957103
 20
23.03207720183996
 30
0.0
 11
21.29221142834842
 21
30.18645329306258
 31
0.0
  0
LINE
  5
94D
330
899
100
AcDbEntity
  8
0
 62
     0
100
AcDbLine
 10
34.27539240041358
 20
17.20327232099742
 30
0.0
 11
30.79548351540501
 21
20.68318120600599
 31
0.0
  0
LINE
  5
94E
330
899
100
AcDbEntity
  8
0
 62
     0
100
AcDbLine
 10
28.63848203365625
 20
21.94215707564785
 30
0.0
 11
21.2922114283483
 21
29.2884276809558
 31
0.0
  0
LINE
  5
94F
330
899
100
AcDbEntity
  8
0
 62
     0
100
AcDbLine
 10
32.90158448781198
 20
17.67905462149207
 30
0.0
 11
31.27126581589959
 21
19.30937329340451
 31
0.0
  0
LINE
  5
950
330
899
100
AcDbEntity
  8
0
 62
     0
100
AcDbLine
 10
28.64221142834844
 20
21.04040206884872
 30
0.0
 11
21.2997758757707
 21
28.3828376214264
 31
0.0
  0
LINE
  5
951
330
899
100
AcDbEntity
  8
0
 62
     0
100
AcDbLine
 10
28.64221142834833
 20
20.14237645674188
 30
0.0
 11
21.52306663409456
 21
27.26152125099559
 31
0.0
  0
LINE
  5
952
330
899
100
AcDbEntity
  8
0
 62
     0
100
AcDbLine
 10
28.56969143221641
 20
19.31687084076696
 30
0.0
 11
25.80629978859735
 21
22.08026248438602
 31
0.0
  0
LINE
  5
953
330
899
100
AcDbEntity
  8
0
 62
     0
100
AcDbLine
 10
28.32775349318757
 20
18.66078316768886
 30
0.0
 11
25.84221142834832
 21
21.14632523252811
 31
0.0
  0
LINE
  5
954
330
899
100
AcDbEntity
  8
0
 62
     0
100
AcDbLine
 10
27.9656342458058
 20
18.12487680296368
 30
0.0
 11
25.80631239604764
 21
20.28419865272184
 31
0.0
  0
LINE
  5
955
330
899
100
AcDbEntity
  8
0
 62
     0
100
AcDbLine
 10
27.49940787353892
 20
17.69307756312366
 30
0.0
 11
25.2424852027218
 21
19.95000023394084
 31
0.0
  0
LINE
  5
956
330
899
100
AcDbEntity
  8
0
 62
     0
100
AcDbLine
 10
26.92614342580611
 20
17.36831639874958
 30
0.0
 11
24.34445959061486
 21
19.95000023394078
 31
0.0
  0
LINE
  5
957
330
899
100
AcDbEntity
  8
0
 62
     0
100
AcDbLine
 10
26.22073083672018
 20
17.17570337572857
 30
0.0
 11
23.44643397850796
 21
19.95000023394078
 31
0.0
  0
LINE
  5
958
330
899
100
AcDbEntity
  8
0
 62
     0
100
AcDbLine
 10
25.34840836640114
 20
17.1500002339406
 30
0.0
 11
22.54840836640102
 21
19.95000023394078
 31
0.0
  0
LINE
  5
959
330
899
100
AcDbEntity
  8
0
 62
     0
100
AcDbLine
 10
24.45038275429419
 20
17.15000023394071
 30
0.0
 11
21.89705885947631
 21
19.70332412875865
 31
0.0
  0
LINE
  5
95A
330
899
100
AcDbEntity
  8
0
 62
     0
100
AcDbLine
 10
23.5523571421873
 20
17.15000023394071
 30
0.0
 11
21.81721142834839
 21
18.88514594777956
 31
0.0
  0
LINE
  5
95B
330
899
100
AcDbEntity
  8
0
 62
     0
100
AcDbLine
 10
22.65433153008035
 20
17.15000023394071
 30
0.0
 11
21.81721142834839
 21
17.98712033567267
 31
0.0
  0
LINE
  5
95C
330
899
100
AcDbEntity
  8
0
 62
     0
100
AcDbLine
 10
78.6338987130153
 20
17.16313201105828
 30
0.0
 11
79.02907965123109
 21
17.55831294927406
 31
0.0
  0
LINE
  5
95D
330
899
100
AcDbEntity
  8
0
 62
     0
100
AcDbLine
 10
77.72274132379095
 20
17.15000023394071
 30
0.0
 11
79.04221142834853
 21
18.46947033849835
 31
0.0
  0
LINE
  5
95E
330
899
100
AcDbEntity
  8
0
 62
     0
100
AcDbLine
 10
76.82471571168401
 20
17.15000023394077
 30
0.0
 11
79.04221142834853
 21
19.36749595060524
 31
0.0
  0
LINE
  5
95F
330
899
100
AcDbEntity
  8
0
 62
     0
100
AcDbLine
 10
76.27340899160021
 20
17.49671912596386
 30
0.0
 11
79.04221142834848
 21
20.26552156271219
 31
0.0
  0
LINE
  5
960
330
899
100
AcDbEntity
  8
0
 62
     0
100
AcDbLine
 10
76.24221142834841
 20
18.36354717481901
 30
0.0
 11
79.04221142834848
 21
21.16354717481903
 31
0.0
  0
LINE
  5
961
330
899
100
AcDbEntity
  8
0
 62
     0
100
AcDbLine
 10
76.24221142834847
 20
19.26157278692591
 30
0.0
 11
79.04221142834848
 21
22.06157278692598
 31
0.0
  0
LINE
  5
962
330
899
100
AcDbEntity
  8
0
 62
     0
100
AcDbLine
 10
76.24221142834841
 20
20.15959839903286
 30
0.0
 11
79.04221142834848
 21
22.95959839903292
 31
0.0
  0
LINE
  5
963
330
899
100
AcDbEntity
  8
0
 62
     0
100
AcDbLine
 10
76.24221142834841
 20
21.05762401113975
 30
0.0
 11
79.04221142834848
 21
23.85762401113982
 31
0.0
  0
LINE
  5
964
330
899
100
AcDbEntity
  8
0
 62
     0
100
AcDbLine
 10
72.66877629041369
 20
17.48418887320502
 30
0.0
 11
73.80802278908425
 21
18.62343537187564
 31
0.0
  0
LINE
  5
965
330
899
100
AcDbEntity
  8
0
 62
     0
100
AcDbLine
 10
76.24221142834841
 20
21.95564962324664
 30
0.0
 11
79.04221142834848
 21
24.75564962324671
 31
0.0
  0
LINE
  5
966
330
899
100
AcDbEntity
  8
0
 62
     0
100
AcDbLine
 10
71.43820812389089
 20
17.15164631878911
 30
0.0
 11
74.14056534350021
 21
19.85400353839838
 31
0.0
  0
LINE
  5
967
330
899
100
AcDbEntity
  8
0
 62
     0
100
AcDbLine
 10
76.24221142834841
 20
22.85367523535359
 30
0.0
 11
79.04221142834848
 21
25.6536752353536
 31
0.0
  0
LINE
  5
968
330
899
100
AcDbEntity
  8
0
 62
     0
100
AcDbLine
 10
70.53853642693565
 20
17.15000023394082
 30
0.0
 11
74.14221142834851
 21
20.75367523535362
 31
0.0
  0
LINE
  5
969
330
899
100
AcDbEntity
  8
0
 62
     0
100
AcDbLine
 10
76.24221142834841
 20
23.75170084746048
 30
0.0
 11
79.04221142834842
 21
26.55170084746055
 31
0.0
  0
LINE
  5
96A
330
899
100
AcDbEntity
  8
0
 62
     0
100
AcDbLine
 10
69.6405108148287
 20
17.15000023394082
 30
0.0
 11
74.14221142834844
 21
21.65170084746057
 31
0.0
  0
LINE
  5
96B
330
899
100
AcDbEntity
  8
0
 62
     0
100
AcDbLine
 10
76.24221142834841
 20
24.64972645956737
 30
0.0
 11
79.04221142834848
 21
27.44972645956744
 31
0.0
  0
LINE
  5
96C
330
899
100
AcDbEntity
  8
0
 62
     0
100
AcDbLine
 10
68.74248520272175
 20
17.15000023394071
 30
0.0
 11
74.14221142834851
 21
22.54972645956746
 31
0.0
  0
LINE
  5
96D
330
899
100
AcDbEntity
  8
0
 62
     0
100
AcDbLine
 10
71.23762022626738
 20
20.54316086959329
 30
0.0
 11
74.14221142834851
 21
23.44775207167435
 31
0.0
  0
LINE
  5
96E
330
899
100
AcDbEntity
  8
0
 62
     0
100
AcDbLine
 10
76.24221142834841
 20
25.54775207167427
 30
0.0
 11
79.04221142834848
 21
28.34775207167433
 31
0.0
  0
LINE
  5
96F
330
899
100
AcDbEntity
  8
0
 62
     0
100
AcDbLine
 10
67.84445959061492
 20
17.15000023394082
 30
0.0
 11
70.74905079269587
 21
20.05459143602172
 31
0.0
  0
LINE
  5
970
330
899
100
AcDbEntity
  8
0
 62
     0
100
AcDbLine
 10
71.34221142834832
 20
21.54577768378118
 30
0.0
 11
74.14221142834844
 21
24.3457776837813
 31
0.0
  0
LINE
  5
971
330
899
100
AcDbEntity
  8
0
 62
     0
100
AcDbLine
 10
76.24221142834835
 20
26.44577768378121
 30
0.0
 11
79.04221142834842
 21
29.24577768378128
 31
0.0
  0
LINE
  5
972
330
899
100
AcDbEntity
  8
0
 62
     0
100
AcDbLine
 10
67.05838372988506
 20
17.26194998531787
 30
0.0
 11
69.74643397850798
 21
19.95000023394084
 31
0.0
  0
LINE
  5
973
330
899
100
AcDbEntity
  8
0
 62
     0
100
AcDbLine
 10
71.34221142834832
 20
22.44380329588807
 30
0.0
 11
74.14221142834844
 21
25.2438032958882
 31
0.0
  0
LINE
  5
974
330
899
100
AcDbEntity
  8
0
 62
     0
100
AcDbLine
 10
76.24221142834835
 20
27.34380329588816
 30
0.0
 11
79.04221142834842
 21
30.14380329588817
 31
0.0
  0
LINE
  5
975
330
899
100
AcDbEntity
  8
0
 62
     0
100
AcDbLine
 10
66.43039686267491
 20
17.53198873021472
 30
0.0
 11
68.84928615204535
 21
19.95087801958516
 31
0.0
  0
LINE
  5
976
330
899
100
AcDbEntity
  8
0
 62
     0
100
AcDbLine
 10
71.34221142834832
 20
23.34182890799496
 30
0.0
 11
74.14221142834844
 21
26.14182890799509
 31
0.0
  0
LINE
  5
977
330
899
100
AcDbEntity
  8
0
 62
     0
100
AcDbLine
 10
76.24221142834841
 20
28.241828907995
 30
0.0
 11
79.04221142834842
 21
31.04182890799506
 31
0.0
  0
LINE
  5
978
330
899
100
AcDbEntity
  8
0
 62
     0
100
AcDbLine
 10
65.91713698130973
 20
17.91675446095638
 30
0.0
 11
68.20580756333265
 21
20.20542504297929
 31
0.0
  0
LINE
  5
979
330
899
100
AcDbEntity
  8
0
 62
     0
100
AcDbLine
 10
71.34221142834832
 20
24.23985452010185
 30
0.0
 11
74.14221142834844
 21
27.03985452010204
 31
0.0
  0
LINE
  5
97A
330
899
100
AcDbEntity
  8
0
 62
     0
100
AcDbLine
 10
76.24221142834835
 20
29.13985452010194
 30
0.0
 11
79.04221142834842
 21
31.93985452010201
 31
0.0
  0
LINE
  5
97B
330
899
100
AcDbEntity
  8
0
 62
     0
100
AcDbLine
 10
65.50717280608473
 20
18.40481589783826
 30
0.0
 11
67.86856928492324
 21
20.76621237667683
 31
0.0
  0
LINE
  5
97C
330
899
100
AcDbEntity
  8
0
 62
     0
100
AcDbLine
 10
71.34221142834826
 20
25.1378801322088
 30
0.0
 11
74.14221142834851
 21
27.93788013220904
 31
0.0
  0
LINE
  5
97D
330
899
100
AcDbEntity
  8
0
 62
     0
100
AcDbLine
 10
76.24221142834835
 20
30.03788013220884
 30
0.0
 11
79.03206227479796
 21
32.82773097865851
 31
0.0
  0
LINE
  5
97E
330
899
100
AcDbEntity
  8
0
 62
     0
100
AcDbLine
 10
65.20724792765071
 20
19.00291663151125
 30
0.0
 11
67.84221142834832
 21
21.63788013220886
 31
0.0
  0
LINE
  5
97F
330
899
100
AcDbEntity
  8
0
 62
     0
100
AcDbLine
 10
71.34221142834838
 20
26.03590574431575
 30
0.0
 11
74.14221142834856
 21
28.83590574431588
 31
0.0
  0
LINE
  5
980
330
899
100
AcDbEntity
  8
0
 62
     0
100
AcDbLine
 10
76.24221142834835
 20
30.93590574431573
 30
0.0
 11
78.55494792971848
 21
33.24864224568585
 31
0.0
  0
LINE
  5
981
330
899
100
AcDbEntity
  8
0
 62
     0
100
AcDbLine
 10
65.04983439269427
 20
19.74352870866164
 30
0.0
 11
67.84221142834837
 21
22.53590574431575
 31
0.0
  0
LINE
  5
982
330
899
100
AcDbEntity
  8
0
 62
     0
100
AcDbLine
 10
71.34221142834838
 20
26.9339313564227
 30
0.0
 11
74.14221142834851
 21
29.73393135642282
 31
0.0
  0
LINE
  5
983
330
899
100
AcDbEntity
  8
0
 62
     0
100
AcDbLine
 10
76.24221142834841
 20
31.83393135642273
 30
0.0
 11
77.65828030586641
 21
33.25000023394073
 31
0.0
  0
LINE
  5
984
330
899
100
AcDbEntity
  8
0
 62
     0
100
AcDbLine
 10
65.04221142834848
 20
20.63393135642275
 30
0.0
 11
67.84221142834844
 21
23.43393135642276
 31
0.0
  0
LINE
  5
985
330
899
100
AcDbEntity
  8
0
 62
     0
100
AcDbLine
 10
71.34221142834838
 20
27.83195696852959
 30
0.0
 11
74.14221142834851
 21
30.63195696852972
 31
0.0
  0
LINE
  5
986
330
899
100
AcDbEntity
  8
0
 62
     0
100
AcDbLine
 10
65.04221142834842
 20
21.53195696852969
 30
0.0
 11
67.84221142834837
 21
24.33195696852965
 31
0.0
  0
LINE
  5
987
330
899
100
AcDbEntity
  8
0
 62
     0
100
AcDbLine
 10
76.24225814309586
 20
32.73200368327712
 30
0.0
 11
76.76020797901213
 21
33.24995351919335
 31
0.0
  0
LINE
  5
988
330
899
100
AcDbEntity
  8
0
 62
     0
100
AcDbLine
 10
60.72065579763642
 20
17.21040133781764
 30
0.0
 11
62.88181032447159
 21
19.37155586465286
 31
0.0
  0
LINE
  5
989
330
899
100
AcDbEntity
  8
0
 62
     0
100
AcDbLine
 10
65.04221142834842
 20
22.42998258063658
 30
0.0
 11
67.84221142834837
 21
25.2299825806366
 31
0.0
  0
LINE
  5
98A
330
899
100
AcDbEntity
  8
0
 62
     0
100
AcDbLine
 10
71.34221142834832
 20
28.72998258063654
 30
0.0
 11
74.14221142834844
 21
31.52998258063667
 31
0.0
  0
LINE
  5
98B
330
899
100
AcDbEntity
  8
0
 62
     0
100
AcDbLine
 10
59.76222908165261
 20
17.15000023394082
 30
0.0
 11
62.94221142834834
 21
20.3299825806365
 31
0.0
  0
LINE
  5
98C
330
899
100
AcDbEntity
  8
0
 62
     0
100
AcDbLine
 10
65.04221142834842
 20
23.32800819274348
 30
0.0
 11
67.84221142834844
 21
26.12800819274343
 31
0.0
  0
LINE
  5
98D
330
899
100
AcDbEntity
  8
0
 62
     0
100
AcDbLine
 10
71.34221142834838
 20
29.62800819274338
 30
0.0
 11
74.14221142834851
 21
32.42800819274356
 31
0.0
  0
LINE
  5
98E
330
899
100
AcDbEntity
  8
0
 62
     0
100
AcDbLine
 10
58.86420346954565
 20
17.15000023394071
 30
0.0
 11
62.94221142834846
 21
21.22800819274345
 31
0.0
  0
LINE
  5
98F
330
899
100
AcDbEntity
  8
0
 62
     0
100
AcDbLine
 10
65.04221142834842
 20
24.22603380485043
 30
0.0
 11
67.84221142834837
 21
27.02603380485038
 31
0.0
  0
LINE
  5
990
330
899
100
AcDbEntity
  8
0
 62
     0
100
AcDbLine
 10
71.34221142834832
 20
30.52603380485033
 30
0.0
 11
73.94847397351435
 21
33.13229635001636
 31
0.0
  0
LINE
  5
991
330
899
100
AcDbEntity
  8
0
 62
     0
100
AcDbLine
 10
57.96617785743876
 20
17.15000023394077
 30
0.0
 11
62.92789282793546
 21
22.11171520443747
 31
0.0
  0
LINE
  5
992
330
899
100
AcDbEntity
  8
0
 62
     0
100
AcDbLine
 10
65.04221142834842
 20
25.12405941695732
 30
0.0
 11
67.84221142834837
 21
27.92405941695733
 31
0.0
  0
LINE
  5
993
330
899
100
AcDbEntity
  8
0
 62
     0
100
AcDbLine
 10
71.34221142834832
 20
31.42405941695727
 30
0.0
 11
73.16815224533184
 21
33.25000023394079
 31
0.0
  0
LINE
  5
994
330
899
100
AcDbEntity
  8
0
 62
     0
100
AcDbLine
 10
57.06815224533182
 20
17.15000023394077
 30
0.0
 11
62.79298045730673
 21
22.87482844591562
 31
0.0
  0
LINE
  5
995
330
899
100
AcDbEntity
  8
0
 62
     0
100
AcDbLine
 10
65.04221142834842
 20
26.02208502906421
 30
0.0
 11
67.84221142834837
 21
28.82208502906417
 31
0.0
  0
LINE
  5
996
330
899
100
AcDbEntity
  8
0
 62
     0
100
AcDbLine
 10
60.14221142834845
 20
21.12208502906423
 30
0.0
 11
62.55239300038818
 21
23.53226660110391
 31
0.0
  0
LINE
  5
997
330
899
100
AcDbEntity
  8
0
 62
     0
100
AcDbLine
 10
71.34221142834838
 20
32.32208502906411
 30
0.0
 11
72.27012663322506
 21
33.25000023394085
 31
0.0
  0
LINE
  5
998
330
899
100
AcDbEntity
  8
0
 62
     0
100
AcDbLine
 10
56.29838198635605
 20
17.27825558707183
 30
0.0
 11
58.97012663322493
 21
19.95000023394072
 31
0.0
  0
LINE
  5
999
330
899
100
AcDbEntity
  8
0
 62
     0
100
AcDbLine
 10
60.12234085322115
 20
22.00024006604383
 30
0.0
 11
62.22889369552763
 21
24.10679290835031
 31
0.0
  0
LINE
  5
99A
330
899
100
AcDbEntity
  8
0
 62
     0
100
AcDbLine
 10
65.04221142834842
 20
26.9201106411711
 30
0.0
 11
67.84221142834844
 21
29.72011064117117
 31
0.0
  0
LINE
  5
99B
330
899
100
AcDbEntity
  8
0
 62
     0
100
AcDbLine
 10
56.11721142834835
 20
17.99511064117109
 30
0.0
 11
58.07210102111799
 21
19.95000023394072
 31
0.0
  0
LINE
  5
99C
330
899
100
AcDbEntity
  8
0
 62
     0
100
AcDbLine
 10
59.84795601608226
 20
22.62388084101195
 30
0.0
 11
61.83302257759982
 21
24.60894740252951
 31
0.0
  0
LINE
  5
99D
330
899
100
AcDbEntity
  8
0
 62
     0
100
AcDbLine
 10
65.04221142834836
 20
27.81813625327805
 30
0.0
 11
67.84221142834844
 21
30.61813625327812
 31
0.0
  0
LINE
  5
99E
330
899
100
AcDbEntity
  8
0
 62
     0
100
AcDbLine
 10
56.11721142834835
 20
18.89313625327798
 30
0.0
 11
57.1740754090111
 21
19.95000023394078
 31
0.0
  0
LINE
  5
99F
330
899
100
AcDbEntity
  8
0
 62
     0
100
AcDbLine
 10
65.04221142834842
 20
28.71616186538494
 30
0.0
 11
67.84221142834849
 21
31.51616186538495
 31
0.0
  0
LINE
  5
9A0
330
899
100
AcDbEntity
  8
0
 62
     0
100
AcDbLine
 10
59.4066811189652
 20
23.08063155600166
 30
0.0
 11
61.38658010628756
 21
25.06053054332409
 31
0.0
  0
LINE
  5
9A1
330
899
100
AcDbEntity
  8
0
 62
     0
100
AcDbLine
 10
58.95766831291172
 20
23.52964436205513
 30
0.0
 11
60.93756730023404
 21
25.50954334937745
 31
0.0
  0
LINE
  5
9A2
330
899
100
AcDbEntity
  8
0
 62
     0
100
AcDbLine
 10
65.04221142834836
 20
29.61418747749183
 30
0.0
 11
67.84221142834844
 21
32.4141874774919
 31
0.0
  0
LINE
  5
9A3
330
899
100
AcDbEntity
  8
0
 62
     0
100
AcDbLine
 10
52.5780241847973
 20
17.15000023394077
 30
0.0
 11
53.49221142834841
 21
18.06418747749182
 31
0.0
  0
LINE
  5
9A4
330
899
100
AcDbEntity
  8
0
 62
     0
100
AcDbLine
 10
58.5086555068583
 20
23.97865716810872
 30
0.0
 11
60.48855449418056
 21
25.95855615543092
 31
0.0
  0
LINE
  5
9A5
330
899
100
AcDbEntity
  8
0
 62
     0
100
AcDbLine
 10
65.04221142834836
 20
30.51221308959878
 30
0.0
 11
67.65603052024977
 21
33.12603218150013
 31
0.0
  0
LINE
  5
9A6
330
899
100
AcDbEntity
  8
0
 62
     0
100
AcDbLine
 10
51.67999857269029
 20
17.15000023394071
 30
0.0
 11
53.49221142834835
 21
18.96221308959877
 31
0.0
  0
LINE
  5
9A7
330
899
100
AcDbEntity
  8
0
 62
     0
100
AcDbLine
 10
58.05964270080477
 20
24.42766997416208
 30
0.0
 11
60.03954168812708
 21
26.4075689614844
 31
0.0
  0
LINE
  5
9A8
330
899
100
AcDbEntity
  8
0
 62
     0
100
AcDbLine
 10
65.04221142834836
 20
31.41023870170568
 30
0.0
 11
66.88197296058342
 21
33.25000023394079
 31
0.0
  0
LINE
  5
9A9
330
899
100
AcDbEntity
  8
0
 62
     0
100
AcDbLine
 10
50.89358409844539
 20
17.2616113718027
 30
0.0
 11
53.49221142834841
 21
19.86023870170578
 31
0.0
  0
LINE
  5
9AA
330
899
100
AcDbEntity
  8
0
 62
     0
100
AcDbLine
 10
57.61062989475135
 20
24.8766827802155
 30
0.0
 11
59.59052888207367
 21
26.85658176753781
 31
0.0
  0
LINE
  5
9AB
330
899
100
AcDbEntity
  8
0
 62
     0
100
AcDbLine
 10
65.04221142834836
 20
32.30826431381257
 30
0.0
 11
65.98394734847665
 21
33.25000023394079
 31
0.0
  0
LINE
  5
9AC
330
899
100
AcDbEntity
  8
0
 62
     0
100
AcDbLine
 10
50.69221142834845
 20
17.95826431381266
 30
0.0
 11
53.49221142834847
 21
20.75826431381261
 31
0.0
  0
LINE
  5
9AD
330
899
100
AcDbEntity
  8
0
 62
     0
100
AcDbLine
 10
57.16161708869788
 20
25.32569558626898
 30
0.0
 11
59.14151607602019
 21
27.30559457359129
 31
0.0
  0
LINE
  5
9AE
330
899
100
AcDbEntity
  8
0
 62
     0
100
AcDbLine
 10
50.69221142834845
 20
18.85628992591961
 30
0.0
 11
53.49221142834841
 21
21.65628992591956
 31
0.0
  0
LINE
  5
9AF
330
899
100
AcDbEntity
  8
0
 62
     0
100
AcDbLine
 10
56.71463318765654
 20
25.77673729733465
 30
0.0
 11
58.69860672103857
 21
27.76071083071661
 31
0.0
  0
LINE
  5
9B0
330
899
100
AcDbEntity
  8
0
 62
     0
100
AcDbLine
 10
50.69221142834845
 20
19.7543155380265
 30
0.0
 11
53.49221142834841
 21
22.55431553802651
 31
0.0
  0
LINE
  5
9B1
330
899
100
AcDbEntity
  8
0
 62
     0
100
AcDbLine
 10
61.38789612426274
 20
30.45000023394078
 30
0.0
 11
62.41721142834848
 21
31.47931553802652
 31
0.0
  0
LINE
  5
9B2
330
899
100
AcDbEntity
  8
0
 62
     0
100
AcDbLine
 10
48.19955520363823
 20
17.26165931331627
 30
0.0
 11
48.28920756509325
 21
17.35131167477135
 31
0.0
  0
LINE
  5
9B3
330
899
100
AcDbEntity
  8
0
 62
     0
100
AcDbLine
 10
56.31663100883457
 20
26.27676073061951
 30
0.0
 11
58.41626528625318
 21
28.37639500803811
 31
0.0
  0
LINE
  5
9B4
330
899
100
AcDbEntity
  8
0
 62
     0
100
AcDbLine
 10
50.69221142834845
 20
20.65234115013339
 30
0.0
 11
53.49221142834847
 21
23.45234115013334
 31
0.0
  0
LINE
  5
9B5
330
899
100
AcDbEntity
  8
0
 62
     0
100
AcDbLine
 10
60.48987051215584
 20
30.45000023394078
 30
0.0
 11
62.41721142834842
 21
32.3773411501333
 31
0.0
  0
LINE
  5
9B6
330
899
100
AcDbEntity
  8
0
 62
     0
100
AcDbLine
 10
47.18987051215577
 20
17.15000023394071
 30
0.0
 11
48.25564960846225
 21
18.21577933024713
 31
0.0
  0
LINE
  5
9B7
330
899
100
AcDbEntity
  8
0
 62
     0
100
AcDbLine
 10
55.99079674443789
 20
26.84895207832977
 30
0.0
 11
58.3922114283485
 21
29.25036676224033
 31
0.0
  0
LINE
  5
9B8
330
899
100
AcDbEntity
  8
0
 62
     0
100
AcDbLine
 10
50.69221142834845
 20
21.55036676224028
 30
0.0
 11
53.49221142834841
 21
24.35036676224029
 31
0.0
  0
LINE
  5
9B9
330
899
100
AcDbEntity
  8
0
 62
     0
100
AcDbLine
 10
59.59184490004895
 20
30.45000023394078
 30
0.0
 11
62.25054249655056
 21
33.10869783044245
 31
0.0
  0
LINE
  5
9BA
330
899
100
AcDbEntity
  8
0
 62
     0
100
AcDbLine
 10
46.29184490004888
 20
17.15000023394071
 30
0.0
 11
48.04012346155662
 21
18.8982787954485
 31
0.0
  0
LINE
  5
9BB
330
899
100
AcDbEntity
  8
0
 62
     0
100
AcDbLine
 10
50.6922114283484
 20
22.44839237434723
 30
0.0
 11
53.49221142834841
 21
25.24839237434719
 31
0.0
  0
LINE
  5
9BC
330
899
100
AcDbEntity
  8
0
 62
     0
100
AcDbLine
 10
55.74741468176779
 20
27.50359562776663
 30
0.0
 11
61.49381928794207
 21
33.25000023394085
 31
0.0
  0
LINE
  5
9BD
330
899
100
AcDbEntity
  8
0
 62
     0
100
AcDbLine
 10
45.6998305893938
 20
17.45601153539263
 30
0.0
 11
47.82459731465093
 21
19.58077826064976
 31
0.0
  0
LINE
  5
9BE
330
899
100
AcDbEntity
  8
0
 62
     0
100
AcDbLine
 10
50.6922114283484
 20
23.34641798645418
 30
0.0
 11
53.49221142834835
 21
26.14641798645414
 31
0.0
  0
LINE
  5
9BF
330
899
100
AcDbEntity
  8
0
 62
     0
100
AcDbLine
 10
55.6087078226821
 20
28.26291438078789
 30
0.0
 11
60.59579367583513
 21
33.25000023394091
 31
0.0
  0
LINE
  5
9C0
330
899
100
AcDbEntity
  8
0
 62
     0
100
AcDbLine
 10
45.48107116774519
 20
18.13527772585098
 30
0.0
 11
47.60907116774518
 21
20.26327772585096
 31
0.0
  0
LINE
  5
9C1
330
899
100
AcDbEntity
  8
0
 62
     0
100
AcDbLine
 10
50.69221142834845
 20
24.24444359856102
 30
0.0
 11
53.49221142834841
 21
27.04444359856103
 31
0.0
  0
LINE
  5
9C2
330
899
100
AcDbEntity
  8
0
 62
     0
100
AcDbLine
 10
55.59221142834843
 20
29.144443598561
 30
0.0
 11
59.69776806372817
 21
33.25000023394079
 31
0.0
  0
LINE
  5
9C3
330
899
100
AcDbEntity
  8
0
 62
     0
100
AcDbLine
 10
45.26554502083956
 20
18.81777719105218
 30
0.0
 11
47.39354502083966
 21
20.94577719105223
 31
0.0
  0
LINE
  5
9C4
330
899
100
AcDbEntity
  8
0
 62
     0
100
AcDbLine
 10
50.6922114283484
 20
25.14246921066797
 30
0.0
 11
53.49221142834841
 21
27.94246921066792
 31
0.0
  0
LINE
  5
9C5
330
899
100
AcDbEntity
  8
0
 62
     0
100
AcDbLine
 10
55.59221142834849
 20
30.042469210668
 30
0.0
 11
58.79974245162128
 21
33.25000023394079
 31
0.0
  0
LINE
  5
9C6
330
899
100
AcDbEntity
  8
0
 62
     0
100
AcDbLine
 10
45.05001887393382
 20
19.50027665625339
 30
0.0
 11
47.17801887393398
 21
21.62827665625349
 31
0.0
  0
LINE
  5
9C7
330
899
100
AcDbEntity
  8
0
 62
     0
100
AcDbLine
 10
50.6922114283484
 20
26.04049482277486
 30
0.0
 11
53.49221142834835
 21
28.84049482277487
 31
0.0
  0
LINE
  5
9C8
330
899
100
AcDbEntity
  8
0
 62
     0
100
AcDbLine
 10
44.83449272702819
 20
20.18277612145471
 30
0.0
 11
46.96249272702829
 21
22.31077612145475
 31
0.0
  0
LINE
  5
9C9
330
899
100
AcDbEntity
  8
0
 62
     0
100
AcDbLine
 10
55.64552809846964
 20
30.99381149289615
 30
0.0
 11
57.84840016939296
 21
33.19668356381948
 31
0.0
  0
LINE
  5
9CA
330
899
100
AcDbEntity
  8
0
 62
     0
100
AcDbLine
 10
41.80171683951431
 20
17.15000023394077
 30
0.0
 11
42.64221142834839
 21
17.9904948227749
 31
0.0
  0
LINE
  5
9CB
330
899
100
AcDbEntity
  8
0
 62
     0
100
AcDbLine
 10
44.61896658012261
 20
20.86527558665591
 30
0.0
 11
46.74696658012254
 21
22.99327558665589
 31
0.0
  0
LINE
  5
9CC
330
899
100
AcDbEntity
  8
0
 62
     0
100
AcDbLine
 10
50.6922114283484
 20
26.93852043488175
 30
0.0
 11
53.49221142834841
 21
29.7385204348817
 31
0.0
  0
LINE
  5
9CD
330
899
100
AcDbEntity
  8
0
 62
     0
100
AcDbLine
 10
40.90369122740741
 20
17.15000023394077
 30
0.0
 11
42.64221142834844
 21
18.88852043488179
 31
0.0
  0
LINE
  5
9CE
330
899
100
AcDbEntity
  8
0
 62
     0
100
AcDbLine
 10
44.40344043321693
 20
21.54777505185717
 30
0.0
 11
46.53144043321697
 21
23.67577505185727
 31
0.0
  0
LINE
  5
9CF
330
899
100
AcDbEntity
  8
0
 62
     0
100
AcDbLine
 10
50.6922114283484
 20
27.8365460469887
 30
0.0
 11
53.49221142834835
 21
30.63654604698865
 31
0.0
  0
LINE
  5
9D0
330
899
100
AcDbEntity
  8
0
 62
     0
100
AcDbLine
 10
40.08681536295171
 20
17.23114998159201
 30
0.0
 11
42.64221142834844
 21
19.78654604698869
 31
0.0
  0
LINE
  5
9D1
330
899
100
AcDbEntity
  8
0
 62
     0
100
AcDbLine
 10
44.18791428631124
 20
22.23027451705843
 30
0.0
 11
46.31591428631128
 21
24.35827451705853
 31
0.0
  0
LINE
  5
9D2
330
899
100
AcDbEntity
  8
0
 62
     0
100
AcDbLine
 10
50.6922114283484
 20
28.73457165909559
 30
0.0
 11
53.49221142834835
 21
31.5345716590956
 31
0.0
  0
LINE
  5
9D3
330
899
100
AcDbEntity
  8
0
 62
     0
100
AcDbLine
 10
39.84221142834843
 20
17.88457165909562
 30
0.0
 11
42.64221142834839
 21
20.68457165909563
 31
0.0
  0
LINE
  5
9D4
330
899
100
AcDbEntity
  8
0
 62
     0
100
AcDbLine
 10
43.9723881394056
 20
22.91277398225963
 30
0.0
 11
46.10038813940565
 21
25.04077398225973
 31
0.0
  0
LINE
  5
9D5
330
899
100
AcDbEntity
  8
0
 62
     0
100
AcDbLine
 10
50.6922114283484
 20
29.63259727120248
 30
0.0
 11
53.49221142834835
 21
32.43259727120244
 31
0.0
  0
LINE
  5
9D6
330
899
100
AcDbEntity
  8
0
 62
     0
100
AcDbLine
 10
39.84221142834843
 20
18.78259727120251
 30
0.0
 11
42.64221142834844
 21
21.58259727120247
 31
0.0
  0
LINE
  5
9D7
330
899
100
AcDbEntity
  8
0
 62
     0
100
AcDbLine
 10
43.73758935243387
 20
23.5760008073949
 30
0.0
 11
46.36788342036476
 21
26.20629487532579
 31
0.0
  0
LINE
  5
9D8
330
899
100
AcDbEntity
  8
0
 62
     0
100
AcDbLine
 10
50.69221142834845
 20
30.53062288330949
 30
0.0
 11
53.29593600585003
 21
33.134347460811
 31
0.0
  0
LINE
  5
9D9
330
899
100
AcDbEntity
  8
0
 62
     0
100
AcDbLine
 10
39.84221142834843
 20
19.68062288330946
 30
0.0
 11
42.64221142834839
 21
22.48062288330942
 31
0.0
  0
LINE
  5
9DA
330
899
100
AcDbEntity
  8
0
 62
     0
100
AcDbLine
 10
43.05040398256648
 20
23.78684104963446
 30
0.0
 11
46.7823567797987
 21
27.51879384686668
 31
0.0
  0
LINE
  5
9DB
330
899
100
AcDbEntity
  8
0
 62
     0
100
AcDbLine
 10
39.84221142834843
 20
20.57864849541636
 30
0.0
 11
42.65537061265473
 21
23.39180767972266
 31
0.0
  0
LINE
  5
9DC
330
899
100
AcDbEntity
  8
0
 62
     0
100
AcDbLine
 10
50.69221142834845
 20
31.42864849541638
 30
0.0
 11
52.51356316687282
 21
33.25000023394079
 31
0.0
  0
LINE
  5
9DD
330
899
100
AcDbEntity
  8
0
 62
     0
100
AcDbLine
 10
36.41356316687279
 20
17.15000023394071
 30
0.0
 11
37.39221142834844
 21
18.12864849541642
 31
0.0
  0
LINE
  5
9DE
330
899
100
AcDbEntity
  8
0
 62
     0
100
AcDbLine
 10
39.84221142834837
 20
21.47667410752331
 30
0.0
 11
47.19683013923265
 21
28.83129281840751
 31
0.0
  0
LINE
  5
9DF
330
899
100
AcDbEntity
  8
0
 62
     0
100
AcDbLine
 10
50.6922114283484
 20
32.32667410752333
 30
0.0
 11
51.61553755476586
 21
33.25000023394079
 31
0.0
  0
LINE
  5
9E0
330
899
100
AcDbEntity
  8
0
 62
     0
100
AcDbLine
 10
35.51553755476584
 20
17.15000023394077
 30
0.0
 11
37.39221142834844
 21
19.02667410752337
 31
0.0
  0
LINE
  5
9E1
330
899
100
AcDbEntity
  8
0
 62
     0
100
AcDbLine
 10
39.84221142834843
 20
22.37469971963014
 30
0.0
 11
47.6113034986667
 21
30.14379178994841
 31
0.0
  0
LINE
  5
9E2
330
899
100
AcDbEntity
  8
0
 62
     0
100
AcDbLine
 10
34.62919256700905
 20
17.16168085829082
 30
0.0
 11
37.25087714474227
 21
19.78336543602398
 31
0.0
  0
LINE
  5
9E3
330
899
100
AcDbEntity
  8
0
 62
     0
100
AcDbLine
 10
39.84221142834837
 20
23.27272533173709
 30
0.0
 11
43.16948633055204
 21
26.60000023394076
 31
0.0
  0
LINE
  5
9E4
330
899
100
AcDbEntity
  8
0
 62
     0
100
AcDbLine
 10
43.93346916579275
 20
27.36398306918147
 30
0.0
 11
48.0257768581007
 21
31.45629076148935
 31
0.0
  0
LINE
  5
9E5
330
899
100
AcDbEntity
  8
0
 62
     0
100
AcDbLine
 10
33.86103204956208
 20
17.29154595295074
 30
0.0
 11
36.51948633055212
 21
19.95000023394078
 31
0.0
  0
LINE
  5
9E6
330
899
100
AcDbEntity
  8
0
 62
     0
100
AcDbLine
 10
39.84221142834837
 20
24.17075094384404
 30
0.0
 11
42.6602019990567
 21
26.98874151455231
 31
0.0
  0
LINE
  5
9E7
330
899
100
AcDbEntity
  8
0
 62
     0
100
AcDbLine
 10
44.3479425252267
 20
28.6764820407223
 30
0.0
 11
48.40084830990207
 21
32.72938782539773
 31
0.0
  0
LINE
  5
9E8
330
899
100
AcDbEntity
  8
0
 62
     0
100
AcDbLine
 10
33.19989779273567
 20
17.52843730823133
 30
0.0
 11
35.62146071844518
 21
19.95000023394084
 31
0.0
  0
LINE
  5
9E9
330
899
100
AcDbEntity
  8
0
 62
     0
100
AcDbLine
 10
39.84221142834843
 20
25.06877655595087
 30
0.0
 11
42.64221142834844
 21
27.86877655595094
 31
0.0
  0
LINE
  5
9EA
330
899
100
AcDbEntity
  8
0
 62
     0
100
AcDbLine
 10
44.76241588466064
 20
29.98898101226314
 30
0.0
 11
48.00683643733288
 21
33.23340156493538
 31
0.0
  0
LINE
  5
9EB
330
899
100
AcDbEntity
  8
0
 62
     0
100
AcDbLine
 10
32.62229450857137
 20
17.84885963617381
 30
0.0
 11
34.73835636706422
 21
19.96492149466672
 31
0.0
  0
LINE
  5
9EC
330
899
100
AcDbEntity
  8
0
 62
     0
100
AcDbLine
 10
39.84221142834837
 20
25.96680216805782
 30
0.0
 11
42.64221142834844
 21
28.76680216805789
 31
0.0
  0
LINE
  5
9ED
330
899
100
AcDbEntity
  8
0
 62
     0
100
AcDbLine
 10
45.17688924409464
 20
31.30147998380408
 30
0.0
 11
47.12540949423135
 21
33.25000023394079
 31
0.0
  0
LINE
  5
9EE
330
899
100
AcDbEntity
  8
0
 62
     0
100
AcDbLine
 10
32.11733954218931
 20
18.2419302818987
 30
0.0
 11
34.10404022604592
 21
20.22863096575531
 31
0.0
  0
LINE
  5
9EF
330
899
100
AcDbEntity
  8
0
 62
     0
100
AcDbLine
 10
39.84221142834837
 20
26.86482778016471
 30
0.0
 11
42.64221142834844
 21
29.66482778016478
 31
0.0
  0
LINE
  5
9F0
330
899
100
AcDbEntity
  8
0
 62
     0
100
AcDbLine
 10
36.50384556012488
 20
23.52646191194128
 30
0.0
 11
37.66574975034797
 21
24.68836610216436
 31
0.0
  0
LINE
  5
9F1
330
899
100
AcDbEntity
  8
0
 62
     0
100
AcDbLine
 10
45.59136260352858
 20
32.61397895534497
 30
0.0
 11
46.22738388212446
 21
33.25000023394085
 31
0.0
  0
LINE
  5
9F2
330
899
100
AcDbEntity
  8
0
 62
     0
100
AcDbLine
 10
31.68090246885947
 20
18.70351882067586
 30
0.0
 11
33.69378927477373
 21
20.71640562659013
 31
0.0
  0
LINE
  5
9F3
330
899
100
AcDbEntity
  8
0
 62
     0
100
AcDbLine
 10
35.57887271849506
 20
23.4995146824184
 30
0.0
 11
37.69269697987084
 21
25.61333894379413
 31
0.0
  0
LINE
  5
9F4
330
899
100
AcDbEntity
  8
0
 62
     0
100
AcDbLine
 10
39.84221142834832
 20
27.76285339227166
 30
0.0
 11
42.64221142834839
 21
30.56285339227173
 31
0.0
  0
LINE
  5
9F5
330
899
100
AcDbEntity
  8
0
 62
     0
100
AcDbLine
 10
31.3138832439165
 20
19.23452520783979
 30
0.0
 11
33.54221142834842
 21
21.46285339227176
 31
0.0
  0
LINE
  5
9F6
330
899
100
AcDbEntity
  8
0
 62
     0
100
AcDbLine
 10
34.96472614907486
 20
23.78339372510498
 30
0.0
 11
37.40881793718421
 21
26.22748551321439
 31
0.0
  0
LINE
  5
9F7
330
899
100
AcDbEntity
  8
0
 62
     0
100
AcDbLine
 10
39.84221142834837
 20
28.66087900437856
 30
0.0
 11
42.64221142834844
 21
31.46087900437857
 31
0.0
  0
LINE
  5
9F8
330
899
100
AcDbEntity
  8
0
 62
     0
100
AcDbLine
 10
31.02256573399177
 20
19.84123331002194
 30
0.0
 11
33.54221142834842
 21
22.3608790043786
 31
0.0
  0
LINE
  5
9F9
330
899
100
AcDbEntity
  8
0
 62
     0
100
AcDbLine
 10
34.52676622208514
 20
24.24345941022227
 30
0.0
 11
36.94875225206698
 21
26.66544544020405
 31
0.0
  0
LINE
  5
9FA
330
899
100
AcDbEntity
  8
0
 62
     0
100
AcDbLine
 10
39.84221142834837
 20
29.55890461648545
 30
0.0
 11
42.64221142834839
 21
32.35890461648551
 31
0.0
  0
LINE
  5
9FB
330
899
100
AcDbEntity
  8
0
 62
     0
100
AcDbLine
 10
30.82142836981711
 20
20.53812155795424
 30
0.0
 11
33.54221142834842
 21
23.25890461648555
 31
0.0
  0
LINE
  5
9FC
330
899
100
AcDbEntity
  8
0
 62
     0
100
AcDbLine
 10
34.27071548967677
 20
24.88543428992079
 30
0.0
 11
36.3067773723684
 21
26.92149617261248
 31
0.0
  0
LINE
  5
9FD
330
899
100
AcDbEntity
  8
0
 62
     0
100
AcDbLine
 10
30.74221142834835
 20
21.35693022859243
 30
0.0
 11
33.54221142834842
 21
24.15693022859244
 31
0.0
  0
LINE
  5
9FE
330
899
100
AcDbEntity
  8
0
 62
     0
100
AcDbLine
 10
39.84221142834832
 20
30.45693022859239
 30
0.0
 11
42.48496131999331
 21
33.09968012023739
 31
0.0
  0
LINE
  5
9FF
330
899
100
AcDbEntity
  8
0
 62
     0
100
AcDbLine
 10
26.65621467047276
 20
17.27093347071684
 30
0.0
 11
28.52127819157249
 21
19.13599699181657
 31
0.0
  0
LINE
  5
A00
330
899
100
AcDbEntity
  8
0
 62
     0
100
AcDbLine
 10
34.38912857315756
 20
25.90187298550847
 30
0.0
 11
35.29033867678077
 21
26.80308308913168
 31
0.0
  0
LINE
  5
A01
330
899
100
AcDbEntity
  8
0
 62
     0
100
AcDbLine
 10
30.74221142834835
 20
22.25495584069926
 30
0.0
 11
33.54221142834842
 21
25.05495584069933
 31
0.0
  0
LINE
  5
A02
330
899
100
AcDbEntity
  8
0
 62
     0
100
AcDbLine
 10
39.84221142834837
 20
31.35495584069923
 30
0.0
 11
41.73725582158994
 21
33.25000023394085
 31
0.0
  0
LINE
  5
A03
330
899
100
AcDbEntity
  8
0
 62
     0
100
AcDbLine
 10
25.6372558215898
 20
17.15000023394071
 30
0.0
 11
28.64221142834844
 21
20.15495584069936
 31
0.0
  0
LINE
  5
A04
330
899
100
AcDbEntity
  8
0
 62
     0
100
AcDbLine
 10
30.74221142834835
 20
23.15298145280621
 30
0.0
 11
33.54221142834842
 21
25.95298145280628
 31
0.0
  0
LINE
  5
A05
330
899
100
AcDbEntity
  8
0
 62
     0
100
AcDbLine
 10
39.84221142834832
 20
32.25298145280618
 30
0.0
 11
40.83923020948293
 21
33.25000023394079
 31
0.0
  0
LINE
  5
A06
330
899
100
AcDbEntity
  8
0
 62
     0
100
AcDbLine
 10
24.73923020948291
 20
17.15000023394071
 30
0.0
 11
28.64221142834844
 21
21.0529814528063
 31
0.0
  0
LINE
  5
A07
330
899
100
AcDbEntity
  8
0
 62
     0
100
AcDbLine
 10
30.74221142834835
 20
24.0510070649131
 30
0.0
 11
33.54221142834836
 21
26.85100706491317
 31
0.0
  0
LINE
  5
A08
330
899
100
AcDbEntity
  8
0
 62
     0
100
AcDbLine
 10
23.84120459737596
 20
17.15000023394077
 30
0.0
 11
28.63827207578725
 21
21.94706771235206
 31
0.0
  0
LINE
  5
A09
330
899
100
AcDbEntity
  8
0
 62
     0
100
AcDbLine
 10
30.74221142834835
 20
24.94903267702005
 30
0.0
 11
33.54221142834842
 21
27.74903267702012
 31
0.0
  0
LINE
  5
A0A
330
899
100
AcDbEntity
  8
0
 62
     0
100
AcDbLine
 10
36.24317898526914
 20
30.45000023394084
 30
0.0
 11
37.3922114283485
 21
31.59903267702015
 31
0.0
  0
LINE
  5
A0B
330
899
100
AcDbEntity
  8
0
 62
     0
100
AcDbLine
 10
22.94317898526907
 20
17.15000023394077
 30
0.0
 11
28.52861023946593
 21
22.73543148813763
 31
0.0
  0
LINE
  5
A0C
330
899
100
AcDbEntity
  8
0
 62
     0
100
AcDbLine
 10
30.74221142834835
 20
25.84705828912694
 30
0.0
 11
33.54221142834842
 21
28.64705828912696
 31
0.0
  0
LINE
  5
A0D
330
899
100
AcDbEntity
  8
0
 62
     0
100
AcDbLine
 10
25.84221142834843
 20
20.94705828912702
 30
0.0
 11
28.30627149542181
 21
23.4111183562004
 31
0.0
  0
LINE
  5
A0E
330
899
100
AcDbEntity
  8
0
 62
     0
100
AcDbLine
 10
35.34515337316213
 20
30.45000023394072
 30
0.0
 11
37.39221142834844
 21
32.49705828912704
 31
0.0
  0
LINE
  5
A0F
330
899
100
AcDbEntity
  8
0
 62
     0
100
AcDbLine
 10
22.10287924842208
 20
17.20772610920067
 30
0.0
 11
24.84515337316213
 21
19.95000023394072
 31
0.0
  0
LINE
  5
A10
330
899
100
AcDbEntity
  8
0
 62
     0
100
AcDbLine
 10
30.74221142834829
 20
26.74508390123384
 30
0.0
 11
33.70802613412809
 21
29.71089860701363
 31
0.0
  0
LINE
  5
A11
330
899
100
AcDbEntity
  8
0
 62
     0
100
AcDbLine
 10
25.84005233673917
 20
21.84292480962466
 30
0.0
 11
27.99783996074978
 21
24.00071243363532
 31
0.0
  0
LINE
  5
A12
330
899
100
AcDbEntity
  8
0
 62
     0
100
AcDbLine
 10
34.28131305527563
 20
30.28418552816117
 30
0.0
 11
37.15874401342864
 21
33.16161648631413
 31
0.0
  0
LINE
  5
A13
330
899
100
AcDbEntity
  8
0
 62
     0
100
AcDbLine
 10
21.81721142834834
 20
17.82008390123388
 30
0.0
 11
23.94712776105529
 21
19.95000023394084
 31
0.0
  0
LINE
  5
A14
330
899
100
AcDbEntity
  8
0
 62
     0
100
AcDbLine
 10
25.62044931723846
 20
22.52134740223096
 30
0.0
 11
27.61559799591088
 21
24.51649608090338
 31
0.0
  0
LINE
  5
A15
330
899
100
AcDbEntity
  8
0
 62
     0
100
AcDbLine
 10
30.74221142834829
 20
27.64310951334079
 30
0.0
 11
36.34910214894836
 21
33.25000023394085
 31
0.0
  0
LINE
  5
A16
330
899
100
AcDbEntity
  8
0
 62
     0
100
AcDbLine
 10
21.81721142834834
 20
18.71810951334083
 30
0.0
 11
23.04910214894829
 21
19.95000023394078
 31
0.0
  0
LINE
  5
A17
330
899
100
AcDbEntity
  8
0
 62
     0
100
AcDbLine
 10
25.19419448893376
 20
22.99311818603308
 30
0.0
 11
27.17409347625613
 21
24.97301717335545
 31
0.0
  0
LINE
  5
A18
330
899
100
AcDbEntity
  8
0
 62
     0
100
AcDbLine
 10
30.74221142834835
 20
28.54113512544762
 30
0.0
 11
35.45107653684141
 21
33.25000023394073
 31
0.0
  0
LINE
  5
A19
330
899
100
AcDbEntity
  8
0
 62
     0
100
AcDbLine
 10
21.88616335036817
 20
19.6850870474675
 30
0.0
 11
22.08212461482179
 21
19.88104831192112
 31
0.0
  0
LINE
  5
A1A
330
899
100
AcDbEntity
  8
0
 62
     0
100
AcDbLine
 10
30.76218654250493
 20
29.45913585171115
 30
0.0
 11
34.53307581057794
 21
33.23002511978421
 31
0.0
  0
LINE
  5
A1B
330
899
100
AcDbEntity
  8
0
 62
     0
100
AcDbLine
 10
24.74518168288017
 20
23.44213099208644
 30
0.0
 11
26.72508067020265
 21
25.42202997940893
 31
0.0
  0
LINE
  5
A1C
330
899
100
AcDbEntity
  8
0
 62
     0
100
AcDbLine
 10
31.06164997477071
 20
30.65662489608394
 30
0.0
 11
33.33558676620521
 21
32.93056168751843
 31
0.0
  0
LINE
  5
A1D
330
899
100
AcDbEntity
  8
0
 62
     0
100
AcDbLine
 10
24.29616887682669
 20
23.89114379813992
 30
0.0
 11
26.27606786414918
 21
25.8710427854624
 31
0.0
  0
LINE
  5
A1E
330
899
100
AcDbEntity
  8
0
 62
     0
100
AcDbLine
 10
23.84715607077345
 20
24.34015660419351
 30
0.0
 11
25.8270550580957
 21
26.32005559151571
 31
0.0
  0
LINE
  5
A1F
330
899
100
AcDbEntity
  8
0
 62
     0
100
AcDbLine
 10
23.39814326471997
 20
24.78916941024698
 30
0.0
 11
25.37804225204223
 21
26.76906839756918
 31
0.0
  0
LINE
  5
A20
330
899
100
AcDbEntity
  8
0
 62
     0
100
AcDbLine
 10
22.94913045866633
 20
25.23818221630028
 30
0.0
 11
24.92902944598881
 21
27.21808120362277
 31
0.0
  0
LINE
  5
A21
330
899
100
AcDbEntity
  8
0
 62
     0
100
AcDbLine
 10
27.26292286419993
 20
30.45000023394084
 30
0.0
 11
28.1172114283483
 21
31.3042887980892
 31
0.0
  0
LINE
  5
A22
330
899
100
AcDbEntity
  8
0
 62
     0
100
AcDbLine
 10
22.5002009666411
 20
25.68727833638201
 30
0.0
 11
24.48026661007355
 21
27.66734397981446
 31
0.0
  0
LINE
  5
A23
330
899
100
AcDbEntity
  8
0
 62
     0
100
AcDbLine
 10
26.36489725209298
 20
30.45000023394072
 30
0.0
 11
28.11721142834841
 21
32.20231441019615
 31
0.0
  0
LINE
  5
A24
330
899
100
AcDbEntity
  8
0
 62
     0
100
AcDbLine
 10
22.08873304208953
 20
26.17383602393721
 30
0.0
 11
24.15036972878562
 21
28.23547271063336
 31
0.0
  0
LINE
  5
A25
330
899
100
AcDbEntity
  8
0
 62
     0
100
AcDbLine
 10
25.46687163998615
 20
30.45000023394078
 30
0.0
 11
28.03065252858726
 21
33.01378112254195
 31
0.0
  0
LINE
  5
A26
330
899
100
AcDbEntity
  8
0
 62
     0
100
AcDbLine
 10
21.74827243582706
 20
26.73140102978169
 30
0.0
 11
24.09221142834837
 21
29.07534002230306
 31
0.0
  0
LINE
  5
A27
330
899
100
AcDbEntity
  8
0
 62
     0
100
AcDbLine
 10
24.56637937870903
 20
30.44753358477061
 30
0.0
 11
27.36884602787921
 21
33.25000023394079
 31
0.0
  0
LINE
  5
A28
330
899
100
AcDbEntity
  8
0
 62
     0
100
AcDbLine
 10
21.48757914009496
 20
27.36873334615654
 30
0.0
 11
24.09467807751855
 21
29.97583228358019
 31
0.0
  0
LINE
  5
A29
330
899
100
AcDbEntity
  8
0
 62
     0
100
AcDbLine
 10
21.3257671778469
 20
28.10494699601537
 30
0.0
 11
26.47082041577232
 21
33.25000023394079
 31
0.0
  0
LINE
  5
A2A
330
899
100
AcDbEntity
  8
0
 62
     0
100
AcDbLine
 10
21.29221142834842
 20
28.96941685862378
 30
0.0
 11
25.57279480366537
 21
33.25000023394079
 31
0.0
  0
LINE
  5
A2B
330
899
100
AcDbEntity
  8
0
 62
     0
100
AcDbLine
 10
21.29221142834836
 20
29.86744247073073
 30
0.0
 11
24.67476919155848
 21
33.25000023394079
 31
0.0
  0
LINE
  5
A2C
330
899
100
AcDbEntity
  8
0
 62
     0
100
AcDbLine
 10
21.3124034387867
 20
30.78566009327596
 30
0.0
 11
23.75655156901331
 21
33.22980822350257
 31
0.0
  0
ENDBLK
  5
A2E
330
899
100
AcDbEntity
  8
0
100
AcDbBlockEnd
  0
BLOCK
  5
232D
330
2329
100
AcDbEntity
  8
0
100
AcDbBlockBegin
  2
_Open30
 70
     0
 10
0.0
 20
0.0
 30
0.0
  3
_Open30
  1

  0
LINE
  5
232A
330
2329
100
AcDbEntity
  8
図枠
 62
     0
370
    -2
100
AcDbLine
 10
-1.0
 20
0.26794919
 30
0.0
 11
0.0
 21
0.0
 31
0.0
  0
LINE
  5
232B
330
2329
100
AcDbEntity
  8
図枠
 62
     0
370
    -2
100
AcDbLine
 10
0.0
 20
0.0
 30
0.0
 11
-1.0
 21
-0.26794919
 31
0.0
  0
LINE
  5
232C
330
2329
100
AcDbEntity
  8
図枠
 62
     0
370
    -2
100
AcDbLine
 10
0.0
 20
0.0
 30
0.0
 11
-1.0
 21
0.0
 31
0.0
  0
ENDBLK
  5
232E
330
2329
100
AcDbEntity
  8
0
100
AcDbBlockEnd
  0
BLOCK
  5
279E
330
2794
100
AcDbEntity
  8
0
100
AcDbBlockBegin
  2
*D3
 70
     1
 10
0.0
 20
0.0
 30
0.0
  3
*D3
  1

  0
LINE
  5
2DC5
330
2794
100
AcDbEntity
  8
SUNPOU
100
AcDbLine
 10
213.9359450561166
 20
70.17322388170879
 30
0.0
 11
213.9359450561166
 21
107.1953761796714
 31
0.0
  0
LINE
  5
2DC6
330
2794
100
AcDbEntity
  8
SUNPOU
100
AcDbLine
 10
129.4365910561198
 20
81.65120776880531
 30
0.0
 11
129.4365910561198
 21
107.1953761796714
 31
0.0
  0
LINE
  5
2DC7
330
2794
100
AcDbEntity
  8
SUNPOU
100
AcDbLine
 10
210.9359450561167
 20
105.6953761796714
 30
0.0
 11
132.4365910561198
 21
105.6953761796714
 31
0.0
  0
INSERT
  5
2DC8
330
2794
100
AcDbEntity
  8
SUNPOU
100
AcDbBlockReference
  2
_OPEN
 10
213.9359450561166
 20
105.6953761796714
 30
0.0
 41
3.0
 42
3.0
 43
3.0
  0
INSERT
  5
2DC9
330
2794
100
AcDbEntity
  8
SUNPOU
100
AcDbBlockReference
  2
_OPEN
 10
129.4365910561198
 20
105.6953761796714
 30
0.0
 41
3.0
 42
3.0
 43
3.0
 50
180.0
  0
MTEXT
  5
2DCA
330
2794
100
AcDbEntity
  8
SUNPOU
100
AcDbMText
 10
171.6862680561182
 20
108.6953761796714
 30
0.0
 40
3.0
 41
0.0
 71
     5
 72
     1
  1
\A1;84
 73
     1
 44
1.0
  0
POINT
  5
2DCB
330
2794
100
AcDbEntity
  8
Defpoints
 62
     0
100
AcDbPoint
 10
213.9359450561166
 20
68.6732238817088
 30
0.0
  0
POINT
  5
2DCC
330
2794
100
AcDbEntity
  8
Defpoints
 62
     0
100
AcDbPoint
 10
129.4365910561198
 20
80.15120776880531
 30
0.0
  0
POINT
  5
2DCD
330
2794
100
AcDbEntity
  8
Defpoints
 62
     0
100
AcDbPoint
 10
129.4365910561198
 20
105.6953761796714
 30
0.0
  0
ENDBLK
  5
279F
330
2794
100
AcDbEntity
  8
0
100
AcDbBlockEnd
  0
BLOCK
  5
27AB
330
27A1
100
AcDbEntity
  8
0
100
AcDbBlockBegin
  2
*D4
 70
     1
 10
0.0
 20
0.0
 30
0.0
  3
*D4
  1

  0
LINE
  5
2D91
330
27A1
100
AcDbEntity
  8
SUNPOU
100
AcDbLine
 10
129.4365910561198
 20
81.65120776880531
 30
0.0
 11
129.4365910561198
 21
107.1953761796714
 31
0.0
  0
LINE
  5
2D92
330
27A1
100
AcDbEntity
  8
SUNPOU
100
AcDbLine
 10
112.4607785104123
 20
78.67322388170868
 30
0.0
 11
112.4607785104123
 21
107.1953761796714
 31
0.0
  0
LINE
  5
2D93
330
27A1
100
AcDbEntity
  8
SUNPOU
100
AcDbLine
 10
126.4365910561198
 20
105.6953761796714
 30
0.0
 11
115.4607785104123
 21
105.6953761796714
 31
0.0
  0
INSERT
  5
2D94
330
27A1
100
AcDbEntity
  8
SUNPOU
100
AcDbBlockReference
  2
_OPEN
 10
129.4365910561198
 20
105.6953761796714
 30
0.0
 41
3.0
 42
3.0
 43
3.0
  0
INSERT
  5
2D95
330
27A1
100
AcDbEntity
  8
SUNPOU
100
AcDbBlockReference
  2
_OPEN
 10
112.4607785104123
 20
105.6953761796714
 30
0.0
 41
3.0
 42
3.0
 43
3.0
 50
180.0
  0
MTEXT
  5
2D96
330
27A1
100
AcDbEntity
  8
SUNPOU
100
AcDbMText
 10
120.948684783266
 20
108.6953761796714
 30
0.0
 40
3.0
 41
0.0
 71
     5
 72
     1
  1
\A1;17
 73
     1
 44
1.0
  0
POINT
  5
2D97
330
27A1
100
AcDbEntity
  8
Defpoints
 62
     0
100
AcDbPoint
 10
129.4365910561198
 20
80.15120776880531
 30
0.0
  0
POINT
  5
2D98
330
27A1
100
AcDbEntity
  8
Defpoints
 62
     0
100
AcDbPoint
 10
112.4607785104123
 20
77.17322388170868
 30
0.0
  0
POINT
  5
2D99
330
27A1
100
AcDbEntity
  8
Defpoints
 62
     0
100
AcDbPoint
 10
112.4607785104123
 20
105.6953761796714
 30
0.0
  0
ENDBLK
  5
27AC
330
27A1
100
AcDbEntity
  8
0
100
AcDbBlockEnd
  0
BLOCK
  5
27CB
330
27C1
100
AcDbEntity
  8
0
100
AcDbBlockBegin
  2
*D5
 70
     1
 10
0.0
 20
0.0
 30
0.0
  3
*D5
  1

  0
LINE
  5
292C
330
27C1
100
AcDbEntity
  8
SUNPOU
100
AcDbLine
 10
129.4365910561198
 20
81.67322388170857
 30
0.0
 11
129.4365910561198
 21
97.21631526353689
 31
0.0
  0
LINE
  5
292D
330
27C1
100
AcDbEntity
  8
SUNPOU
100
AcDbLine
 10
143.9360437574153
 20
71.90114023608085
 30
0.0
 11
143.9360437574153
 21
97.21631526353689
 31
0.0
  0
LINE
  5
292E
330
27C1
100
AcDbEntity
  8
SUNPOU
100
AcDbLine
 10
132.4365910561198
 20
95.71631526353689
 30
0.0
 11
140.9360437574153
 21
95.71631526353689
 31
0.0
  0
INSERT
  5
292F
330
27C1
100
AcDbEntity
  8
SUNPOU
100
AcDbBlockReference
  2
_OPEN
 10
129.4365910561198
 20
95.71631526353689
 30
0.0
 41
3.0
 42
3.0
 43
3.0
 50
180.0
  0
INSERT
  5
2930
330
27C1
100
AcDbEntity
  8
SUNPOU
100
AcDbBlockReference
  2
_OPEN
 10
143.9360437574153
 20
95.71631526353689
 30
0.0
 41
3.0
 42
3.0
 43
3.0
  0
MTEXT
  5
2931
330
27C1
100
AcDbEntity
  8
SUNPOU
100
AcDbMText
 10
136.6863174067675
 20
98.7163152635369
 30
0.0
 40
3.0
 41
0.0
 71
     5
 72
     5
  1
\A1;14
 73
     1
 44
1.0
1001
ACAD
1000
MTEXTBEGIN
1070
    73
1070
     1
1070
    44
1040
1.0
1070
    74
1070
     0
1000
MTEXTEND
1000
MTEXTBEGIN
1070
    73
1070
     1
1070
    44
1040
1.0
1070
    74
1070
     0
1000
MTEXTEND
  0
POINT
  5
2932
330
27C1
100
AcDbEntity
  8
Defpoints
 62
     0
100
AcDbPoint
 10
129.4365910561198
 20
80.17322388170857
 30
0.0
  0
POINT
  5
2933
330
27C1
100
AcDbEntity
  8
Defpoints
 62
     0
100
AcDbPoint
 10
143.9360437574153
 20
70.40114023608085
 30
0.0
  0
POINT
  5
2934
330
27C1
100
AcDbEntity
  8
Defpoints
 62
     0
100
AcDbPoint
 10
143.9360437574153
 20
95.71631526353689
 30
0.0
  0
ENDBLK
  5
27CC
330
27C1
100
AcDbEntity
  8
0
100
AcDbBlockEnd
  0
BLOCK
  5
27D8
330
27CE
100
AcDbEntity
  8
0
100
AcDbBlockBegin
  2
*D6
 70
     1
 10
0.0
 20
0.0
 30
0.0
  3
*D6
  1

  0
LINE
  5
2A6A
330
27CE
100
AcDbEntity
  8
SUNPOU
100
AcDbLine
 10
143.9360437574153
 20
71.90114023608085
 30
0.0
 11
143.9360437574153
 21
97.21631526353689
 31
0.0
  0
LINE
  5
2A6B
330
27CE
100
AcDbEntity
  8
SUNPOU
100
AcDbLine
 10
153.9360437574112
 20
71.90113738663426
 30
0.0
 11
153.9360437574112
 21
97.21631526353689
 31
0.0
  0
LINE
  5
2A6C
330
27CE
100
AcDbEntity
  8
SUNPOU
100
AcDbLine
 10
146.9360437574153
 20
95.71631526353689
 30
0.0
 11
150.9360437574112
 21
95.71631526353689
 31
0.0
  0
INSERT
  5
2A6D
330
27CE
100
AcDbEntity
  8
SUNPOU
100
AcDbBlockReference
  2
_OPEN
 10
143.9360437574153
 20
95.71631526353689
 30
0.0
 41
3.0
 42
3.0
 43
3.0
 50
180.0
  0
INSERT
  5
2A6E
330
27CE
100
AcDbEntity
  8
SUNPOU
100
AcDbBlockReference
  2
_OPEN
 10
153.9360437574112
 20
95.71631526353689
 30
0.0
 41
3.0
 42
3.0
 43
3.0
  0
MTEXT
  5
2A6F
330
27CE
100
AcDbEntity
  8
SUNPOU
100
AcDbMText
 10
148.9360437574132
 20
98.7163152635369
 30
0.0
 40
3.0
 41
0.0
 71
     5
 72
     5
  1
\A1;10
 73
     1
 44
1.0
  0
POINT
  5
2A70
330
27CE
100
AcDbEntity
  8
Defpoints
 62
     0
100
AcDbPoint
 10
143.9360437574153
 20
70.40114023608085
 30
0.0
  0
POINT
  5
2A71
330
27CE
100
AcDbEntity
  8
Defpoints
 62
     0
100
AcDbPoint
 10
153.9360437574112
 20
70.40113738663426
 30
0.0
  0
POINT
  5
2A72
330
27CE
100
AcDbEntity
  8
Defpoints
 62
     0
100
AcDbPoint
 10
153.9360437574112
 20
95.71631526353689
 30
0.0
  0
ENDBLK
  5
27D9
330
27CE
100
AcDbEntity
  8
0
100
AcDbBlockEnd
  0
BLOCK
  5
27E5
330
27DB
100
AcDbEntity
  8
0
100
AcDbBlockBegin
  2
*D7
 70
     1
 10
0.0
 20
0.0
 30
0.0
  3
*D7
  1

  0
LINE
  5
2A73
330
27DB
100
AcDbEntity
  8
SUNPOU
100
AcDbLine
 10
153.9360437574112
 20
71.90113738663426
 30
0.0
 11
153.9360437574112
 21
97.21631526353689
 31
0.0
  0
LINE
  5
2A74
330
27DB
100
AcDbEntity
  8
SUNPOU
100
AcDbLine
 10
163.9360437574153
 20
71.90114023608085
 30
0.0
 11
163.9360437574153
 21
97.21631526353689
 31
0.0
  0
LINE
  5
2A75
330
27DB
100
AcDbEntity
  8
SUNPOU
100
AcDbLine
 10
156.9360437574112
 20
95.71631526353689
 30
0.0
 11
160.9360437574153
 21
95.71631526353689
 31
0.0
  0
INSERT
  5
2A76
330
27DB
100
AcDbEntity
  8
SUNPOU
100
AcDbBlockReference
  2
_OPEN
 10
153.9360437574112
 20
95.71631526353689
 30
0.0
 41
3.0
 42
3.0
 43
3.0
 50
180.0
  0
INSERT
  5
2A77
330
27DB
100
AcDbEntity
  8
SUNPOU
100
AcDbBlockReference
  2
_OPEN
 10
163.9360437574153
 20
95.71631526353689
 30
0.0
 41
3.0
 42
3.0
 43
3.0
  0
MTEXT
  5
2A78
330
27DB
100
AcDbEntity
  8
SUNPOU
100
AcDbMText
 10
158.9360437574132
 20
98.7163152635369
 30
0.0
 40
3.0
 41
0.0
 71
     5
 72
     5
  1
\A1;10
 73
     1
 44
1.0
  0
POINT
  5
2A79
330
27DB
100
AcDbEntity
  8
Defpoints
 62
     0
100
AcDbPoint
 10
153.9360437574112
 20
70.40113738663426
 30
0.0
  0
POINT
  5
2A7A
330
27DB
100
AcDbEntity
  8
Defpoints
 62
     0
100
AcDbPoint
 10
163.9360437574153
 20
70.40114023608085
 30
0.0
  0
POINT
  5
2A7B
330
27DB
100
AcDbEntity
  8
Defpoints
 62
     0
100
AcDbPoint
 10
163.9360437574153
 20
95.71631526353689
 30
0.0
  0
ENDBLK
  5
27E6
330
27DB
100
AcDbEntity
  8
0
100
AcDbBlockEnd
  0
BLOCK
  5
2822
330
2818
100
AcDbEntity
  8
0
100
AcDbBlockBegin
  2
*D8
 70
     1
 10
0.0
 20
0.0
 30
0.0
  3
*D8
  1

  0
LINE
  5
2DCE
330
2818
100
AcDbEntity
  8
SUNPOU
100
AcDbLine
 10
213.9359450561166
 20
70.17322388170879
 30
0.0
 11
213.9359450561166
 21
117.4848415007404
 31
0.0
  0
LINE
  5
2DCF
330
2818
100
AcDbEntity
  8
SUNPOU
100
AcDbLine
 10
112.4607785104122
 20
78.67322388170868
 30
0.0
 11
112.4607785104122
 21
117.4848415007404
 31
0.0
  0
LINE
  5
2DD0
330
2818
100
AcDbEntity
  8
SUNPOU
100
AcDbLine
 10
210.9359450561167
 20
115.9848415007404
 30
0.0
 11
115.4607785104122
 21
115.9848415007404
 31
0.0
  0
INSERT
  5
2DD1
330
2818
100
AcDbEntity
  8
SUNPOU
100
AcDbBlockReference
  2
_OPEN
 10
213.9359450561166
 20
115.9848415007404
 30
0.0
 41
3.0
 42
3.0
 43
3.0
  0
INSERT
  5
2DD2
330
2818
100
AcDbEntity
  8
SUNPOU
100
AcDbBlockReference
  2
_OPEN
 10
112.4607785104122
 20
115.9848415007404
 30
0.0
 41
3.0
 42
3.0
 43
3.0
 50
180.0
  0
MTEXT
  5
2DD3
330
2818
100
AcDbEntity
  8
SUNPOU
100
AcDbMText
 10
163.1983617832645
 20
118.9848415007404
 30
0.0
 40
3.0
 41
0.0
 71
     5
 72
     1
  1
\A1;101
 73
     1
 44
1.0
  0
POINT
  5
2DD4
330
2818
100
AcDbEntity
  8
Defpoints
 62
     0
100
AcDbPoint
 10
213.9359450561166
 20
68.6732238817088
 30
0.0
  0
POINT
  5
2DD5
330
2818
100
AcDbEntity
  8
Defpoints
 62
     0
100
AcDbPoint
 10
112.4607785104122
 20
77.17322388170868
 30
0.0
  0
POINT
  5
2DD6
330
2818
100
AcDbEntity
  8
Defpoints
 62
     0
100
AcDbPoint
 10
112.4607785104122
 20
115.9848415007404
 30
0.0
  0
ENDBLK
  5
2823
330
2818
100
AcDbEntity
  8
0
100
AcDbBlockEnd
  0
BLOCK
  5
282F
330
2825
100
AcDbEntity
  8
0
100
AcDbBlockBegin
  2
*D9
 70
     1
 10
0.0
 20
0.0
 30
0.0
  3
*D9
  1

  0
LINE
  5
2DA3
330
2825
100
AcDbEntity
  8
SUNPOU
100
AcDbLine
 10
113.9607785104196
 20
80.17322388171606
 30
0.0
 11
95.25116139312649
 21
80.17322388171608
 31
0.0
  0
LINE
  5
2DA4
330
2825
100
AcDbEntity
  8
SUNPOU
100
AcDbLine
 10
113.9607785104196
 20
57.17322388171607
 30
0.0
 11
95.25116139312649
 21
57.17322388171607
 31
0.0
  0
LINE
  5
2DA5
330
2825
100
AcDbEntity
  8
SUNPOU
100
AcDbLine
 10
96.75116139312649
 20
77.17322388171607
 30
0.0
 11
96.75116139312649
 21
60.17322388171607
 31
0.0
  0
INSERT
  5
2DA6
330
2825
100
AcDbEntity
  8
SUNPOU
100
AcDbBlockReference
  2
_OPEN
 10
96.75116139312649
 20
80.17322388171606
 30
0.0
 41
3.0
 42
3.0
 43
3.0
 50
90.0
  0
INSERT
  5
2DA7
330
2825
100
AcDbEntity
  8
SUNPOU
100
AcDbBlockReference
  2
_OPEN
 10
96.75116139312649
 20
57.17322388171607
 30
0.0
 41
3.0
 42
3.0
 43
3.0
 50
270.0
  0
MTEXT
  5
2DA8
330
2825
100
AcDbEntity
  8
SUNPOU
100
AcDbMText
 10
93.75116139312646
 20
68.6732238817161
 30
0.0
 40
3.0
 41
0.0
 71
     5
 72
     1
  1
\A1;23
 11
0.0000000000000001
 21
1.0
 31
0.0
 73
     1
 44
1.0
  0
POINT
  5
2DA9
330
2825
100
AcDbEntity
  8
Defpoints
 62
     0
100
AcDbPoint
 10
115.4607785104196
 20
80.17322388171606
 30
0.0
  0
POINT
  5
2DAA
330
2825
100
AcDbEntity
  8
Defpoints
 62
     0
100
AcDbPoint
 10
115.4607785104196
 20
57.17322388171607
 30
0.0
  0
POINT
  5
2DAB
330
2825
100
AcDbEntity
  8
Defpoints
 62
     0
100
AcDbPoint
 10
96.75116139312649
 20
57.17322388171607
 30
0.0
  0
ENDBLK
  5
2830
330
2825
100
AcDbEntity
  8
0
100
AcDbBlockEnd
  0
BLOCK
  5
283C
330
2832
100
AcDbEntity
  8
0
100
AcDbBlockBegin
  2
*D10
 70
     1
 10
0.0
 20
0.0
 30
0.0
  3
*D10
  1

  0
LINE
  5
2D73
330
2832
100
AcDbEntity
  8
SUNPOU
100
AcDbLine
 10
110.9849659647123
 20
169.0256810145904
 30
0.0
 11
95.25116139311924
 21
169.0256810145904
 31
0.0
  0
LINE
  5
2D74
330
2832
100
AcDbEntity
  8
SUNPOU
100
AcDbLine
 10
110.9849659647209
 20
139.0256810145906
 30
0.0
 11
95.25116139311922
 21
139.0256810145906
 31
0.0
  0
LINE
  5
2D75
330
2832
100
AcDbEntity
  8
SUNPOU
100
AcDbLine
 10
96.75116139311924
 20
166.0256810145904
 30
0.0
 11
96.75116139311922
 21
142.0256810145906
 31
0.0
  0
INSERT
  5
2D76
330
2832
100
AcDbEntity
  8
SUNPOU
100
AcDbBlockReference
  2
_OPEN
 10
96.75116139311924
 20
169.0256810145904
 30
0.0
 41
3.0
 42
3.0
 43
3.0
 50
90.0
  0
INSERT
  5
2D77
330
2832
100
AcDbEntity
  8
SUNPOU
100
AcDbBlockReference
  2
_OPEN
 10
96.75116139311922
 20
139.0256810145906
 30
0.0
 41
3.0
 42
3.0
 43
3.0
 50
270.0
  0
MTEXT
  5
2D78
330
2832
100
AcDbEntity
  8
SUNPOU
100
AcDbMText
 10
93.7511613931192
 20
154.0256810145906
 30
0.0
 40
3.0
 41
0.0
 71
     5
 72
     1
  1
\A1;30
 11
0.0000000000000001
 21
1.0
 31
0.0
 73
     1
 44
1.0
  0
POINT
  5
2D79
330
2832
100
AcDbEntity
  8
Defpoints
 62
     0
100
AcDbPoint
 10
112.4849659647123
 20
169.0256810145904
 30
0.0
  0
POINT
  5
2D7A
330
2832
100
AcDbEntity
  8
Defpoints
 62
     0
100
AcDbPoint
 10
112.4849659647209
 20
139.0256810145906
 30
0.0
  0
POINT
  5
2D7B
330
2832
100
AcDbEntity
  8
Defpoints
 62
     0
100
AcDbPoint
 10
96.75116139311922
 20
139.0256810145906
 30
0.0
  0
ENDBLK
  5
283D
330
2832
100
AcDbEntity
  8
0
100
AcDbBlockEnd
  0
BLOCK
  5
284B
330
283F
100
AcDbEntity
  8
0
100
AcDbBlockBegin
  2
*D11
 70
     1
 10
0.0
 20
0.0
 30
0.0
  3
*D11
  1

  0
LINE
  5
29EA
330
283F
100
AcDbEntity
  8
SUNPOU
 62
     4
100
AcDbLine
 10
221.9359450561162
 20
70.90120776880553
 30
0.0
 11
243.3685688013836
 21
70.90120776880552
 31
0.0
  0
LINE
  5
29EB
330
283F
100
AcDbEntity
  8
SUNPOU
 62
     4
100
AcDbLine
 10
221.9359450561162
 20
66.40120776880564
 30
0.0
 11
243.3685688013836
 21
66.40120776880563
 31
0.0
  0
LINE
  5
29EC
330
283F
100
AcDbEntity
  8
SUNPOU
 62
     4
100
AcDbLine
 10
241.8685688013836
 20
73.90120776880552
 30
0.0
 11
241.8685688013836
 21
76.90120776880552
 31
0.0
  0
LINE
  5
29ED
330
283F
100
AcDbEntity
  8
SUNPOU
 62
     4
100
AcDbLine
 10
241.8685688013836
 20
63.40120776880564
 30
0.0
 11
241.8685688013836
 21
49.40120776880563
 31
0.0
  0
LINE
  5
29EE
330
283F
100
AcDbEntity
  8
SUNPOU
 62
     4
100
AcDbLine
 10
241.8685688013836
 20
70.90120776880552
 30
0.0
 11
241.8685688013836
 21
66.40120776880563
 31
0.0
  0
INSERT
  5
29EF
330
283F
100
AcDbEntity
  8
SUNPOU
 62
     4
100
AcDbBlockReference
  2
_Open30
 10
241.8685688013836
 20
70.90120776880552
 30
0.0
 41
3.0
 42
3.0
 43
3.0
 50
270.0
  0
INSERT
  5
29F0
330
283F
100
AcDbEntity
  8
SUNPOU
 62
     4
100
AcDbBlockReference
  2
_Open30
 10
241.8685688013836
 20
66.40120776880563
 30
0.0
 41
3.0
 42
3.0
 43
3.0
 50
90.0
  0
MTEXT
  5
29F1
330
283F
100
AcDbEntity
  8
SUNPOU
 62
     4
100
AcDbMText
 10
239.3685688013835
 20
54.90120776880567
 30
0.0
 40
3.0
 41
0.0
 71
     5
 72
     5
  1
\A1;φ4.5
 11
0.0000000000000001
 21
1.0
 31
0.0
 73
     1
 44
1.0
1001
ACAD
1000
MTEXTBEGIN
1070
    73
1070
     1
1070
    44
1040
1.0
1070
    74
1070
     0
1000
MTEXTEND
  0
POINT
  5
29F2
330
283F
100
AcDbEntity
  8
Defpoints
 62
     0
100
AcDbPoint
 10
218.9359450561162
 20
70.90120776880553
 30
0.0
  0
POINT
  5
29F3
330
283F
100
AcDbEntity
  8
Defpoints
 62
     0
100
AcDbPoint
 10
218.9359450561162
 20
66.40120776880564
 30
0.0
  0
POINT
  5
29F4
330
283F
100
AcDbEntity
  8
Defpoints
 62
     0
100
AcDbPoint
 10
241.8685688013836
 20
66.40120776880563
 30
0.0
  0
ENDBLK
  5
284C
330
283F
100
AcDbEntity
  8
0
100
AcDbBlockEnd
  0
BLOCK
  5
2A93
330
2A8A
100
AcDbEntity
  8
0
100
AcDbBlockBegin
  2
SW_CENTERMARKSYMBOL_0
 70
     0
 10
0.0
 20
0.0
 30
0.0
  3
SW_CENTERMARKSYMBOL_0
  1

  0
LINE
  5
2A8B
330
2A8A
100
AcDbEntity
  8
0
  6
SLD-実線
 62
     0
100
AcDbLine
 10
0.0
 20
0.0
 30
0.0
 11
0.0
 21
2.500000000000002
 31
0.0
  0
LINE
  5
2A8C
330
2A8A
100
AcDbEntity
  8
0
  6
SLD-実線
 62
     0
100
AcDbLine
 10
0.0
 20
0.0
 30
0.0
 11
-2.500000000000002
 21
0.0
 31
0.0
  0
LINE
  5
2A8D
330
2A8A
100
AcDbEntity
  8
0
  6
SLD-実線
 62
     0
100
AcDbLine
 10
0.0
 20
0.0
 30
0.0
 11
0.0
 21
-2.500000000000002
 31
0.0
  0
LINE
  5
2A8E
330
2A8A
100
AcDbEntity
  8
0
  6
SLD-実線
 62
     0
100
AcDbLine
 10
0.0
 20
0.0
 30
0.0
 11
2.499999999999974
 21
0.0
 31
0.0
  0
LINE
  5
2A8F
330
2A8A
100
AcDbEntity
  8
0
  6
SLD-実線
 62
     0
100
AcDbLine
 10
0.0
 20
5.000000000000004
 30
0.0
 11
0.0
 21
7.500000000000007
 31
0.0
  0
LINE
  5
2A90
330
2A8A
100
AcDbEntity
  8
0
  6
SLD-実線
 62
     0
100
AcDbLine
 10
-5.000000000000004
 20
0.0
 30
0.0
 11
-7.500000000000007
 21
0.0
 31
0.0
  0
LINE
  5
2A91
330
2A8A
100
AcDbEntity
  8
0
  6
SLD-実線
 62
     0
100
AcDbLine
 10
0.0
 20
-5.000000000000004
 30
0.0
 11
0.0
 21
-7.500000000000007
 31
0.0
  0
LINE
  5
2A92
330
2A8A
100
AcDbEntity
  8
0
  6
SLD-実線
 62
     0
100
AcDbLine
 10
4.999999999999976
 20
0.0
 30
0.0
 11
7.499999999999978
 21
0.0
 31
0.0
  0
ENDBLK
  5
2A94
330
2A8A
100
AcDbEntity
  8
0
100
AcDbBlockEnd
  0
BLOCK
  5
2A9F
330
2A95
100
AcDbEntity
  8
0
100
AcDbBlockBegin
  2
*D14
 70
     1
 10
0.0
 20
0.0
 30
0.0
  3
*D14
  1

  0
LINE
  5
2A96
330
2A95
100
AcDbEntity
  8
SUNPOU
 62
     4
370
    -2
100
AcDbLine
 10
1171.386069437519
 20
319.1006047153009
 30
0.0
 11
1171.386069437519
 21
355.4053467356163
 31
0.0
  0
LINE
  5
2A97
330
2A95
100
AcDbEntity
  8
SUNPOU
 62
     4
370
    -2
100
AcDbLine
 10
1054.910910461174
 20
319.1005134113574
 30
0.0
 11
1054.910910461174
 21
355.4053467356163
 31
0.0
  0
LINE
  5
2A98
330
2A95
100
AcDbEntity
  8
SUNPOU
 62
     4
370
    -2
100
AcDbLine
 10
1168.386069437519
 20
353.9053467356163
 30
0.0
 11
1057.910910461173
 21
353.9053467356163
 31
0.0
  0
INSERT
  5
2A99
330
2A95
100
AcDbEntity
  8
SUNPOU
 62
     4
370
    -2
100
AcDbBlockReference
  2
_Open30
 10
1171.386069437519
 20
353.9053467356163
 30
0.0
 41
3.0
 42
3.0
 43
3.0
  0
INSERT
  5
2A9A
330
2A95
100
AcDbEntity
  8
SUNPOU
 62
     4
370
    -2
100
AcDbBlockReference
  2
_Open30
 10
1054.910910461174
 20
353.9053467356163
 30
0.0
 41
3.0
 42
3.0
 43
3.0
 50
180.0
  0
MTEXT
  5
2A9B
330
2A95
100
AcDbEntity
  8
SUNPOU
 62
     4
100
AcDbMText
 10
1113.148489949346
 20
356.4053467356163
 30
0.0
 40
3.0
 41
0.0
 71
     5
 72
     1
  1
\A1;116
 73
     1
 44
1.0
  0
POINT
  5
2A9C
330
2A95
100
AcDbEntity
  8
Defpoints
 62
     0
100
AcDbPoint
 10
1171.386069437519
 20
316.1006047153009
 30
0.0
  0
POINT
  5
2A9D
330
2A95
100
AcDbEntity
  8
Defpoints
 62
     0
100
AcDbPoint
 10
1054.910910461174
 20
316.1005134113574
 30
0.0
  0
POINT
  5
2A9E
330
2A95
100
AcDbEntity
  8
Defpoints
 62
     0
100
AcDbPoint
 10
1054.910910461174
 20
353.9053467356163
 30
0.0
  0
ENDBLK
  5
2AA0
330
2A95
100
AcDbEntity
  8
0
100
AcDbBlockEnd
  0
BLOCK
  5
2AAB
330
2AA1
100
AcDbEntity
  8
0
100
AcDbBlockBegin
  2
*D15
 70
     1
 10
0.0
 20
0.0
 30
0.0
  3
*D15
  1

  0
LINE
  5
2AA2
330
2AA1
100
AcDbEntity
  8
SUNPOU
 62
     4
370
    -2
100
AcDbLine
 10
1071.886723006881
 20
321.3505134113576
 30
0.0
 11
1071.886723006881
 21
337.6391187784888
 31
0.0
  0
LINE
  5
2AA3
330
2AA1
100
AcDbEntity
  8
SUNPOU
 62
     4
370
    -2
100
AcDbLine
 10
1171.386069437519
 20
319.1006047153009
 30
0.0
 11
1171.386069437519
 21
337.6391187784888
 31
0.0
  0
LINE
  5
2AA4
330
2AA1
100
AcDbEntity
  8
SUNPOU
 62
     4
370
    -2
100
AcDbLine
 10
1074.886723006881
 20
336.1391187784888
 30
0.0
 11
1168.386069437519
 21
336.1391187784888
 31
0.0
  0
INSERT
  5
2AA5
330
2AA1
100
AcDbEntity
  8
SUNPOU
 62
     4
370
    -2
100
AcDbBlockReference
  2
_Open30
 10
1071.886723006881
 20
336.1391187784888
 30
0.0
 41
3.0
 42
3.0
 43
3.0
 50
180.0
  0
INSERT
  5
2AA6
330
2AA1
100
AcDbEntity
  8
SUNPOU
 62
     4
370
    -2
100
AcDbBlockReference
  2
_Open30
 10
1171.386069437519
 20
336.1391187784888
 30
0.0
 41
3.0
 42
3.0
 43
3.0
  0
MTEXT
  5
2AA7
330
2AA1
100
AcDbEntity
  8
SUNPOU
 62
     4
100
AcDbMText
 10
1121.6363962222
 20
338.6391187784888
 30
0.0
 40
3.0
 41
0.0
 71
     5
 72
     1
  1
\A1;99
 73
     1
 44
1.0
  0
POINT
  5
2AA8
330
2AA1
100
AcDbEntity
  8
Defpoints
 62
     0
100
AcDbPoint
 10
1071.886723006881
 20
318.3505134113576
 30
0.0
  0
POINT
  5
2AA9
330
2AA1
100
AcDbEntity
  8
Defpoints
 62
     0
100
AcDbPoint
 10
1171.386069437519
 20
316.1006047153009
 30
0.0
  0
POINT
  5
2AAA
330
2AA1
100
AcDbEntity
  8
Defpoints
 62
     0
100
AcDbPoint
 10
1171.386069437519
 20
336.1391187784888
 30
0.0
  0
ENDBLK
  5
2AAC
330
2AA1
100
AcDbEntity
  8
0
100
AcDbBlockEnd
  0
BLOCK
  5
2AB7
330
2AAD
100
AcDbEntity
  8
0
100
AcDbBlockBegin
  2
*D16
 70
     1
 10
0.0
 20
0.0
 30
0.0
  3
*D16
  1

  0
LINE
  5
2AAE
330
2AAD
100
AcDbEntity
  8
SUNPOU
 62
     4
370
    -2
100
AcDbLine
 10
1096.386178954926
 20
311.3505837935329
 30
0.0
 11
1096.386178954926
 21
303.4849053699602
 31
0.0
  0
LINE
  5
2AAF
330
2AAD
100
AcDbEntity
  8
SUNPOU
 62
     4
370
    -2
100
AcDbLine
 10
1106.386175708176
 20
311.3505809440823
 30
0.0
 11
1106.386175708176
 21
303.4849053699602
 31
0.0
  0
LINE
  5
2AB0
330
2AAD
100
AcDbEntity
  8
SUNPOU
 62
     4
370
    -2
100
AcDbLine
 10
1099.386178954926
 20
304.9849053699602
 30
0.0
 11
1103.386175708176
 21
304.9849053699602
 31
0.0
  0
INSERT
  5
2AB1
330
2AAD
100
AcDbEntity
  8
SUNPOU
 62
     4
370
    -2
100
AcDbBlockReference
  2
_Open30
 10
1096.386178954926
 20
304.9849053699602
 30
0.0
 41
3.0
 42
3.0
 43
3.0
 50
180.0
  0
INSERT
  5
2AB2
330
2AAD
100
AcDbEntity
  8
SUNPOU
 62
     4
370
    -2
100
AcDbBlockReference
  2
_Open30
 10
1106.386175708176
 20
304.9849053699602
 30
0.0
 41
3.0
 42
3.0
 43
3.0
  0
MTEXT
  5
2AB3
330
2AAD
100
AcDbEntity
  8
SUNPOU
 62
     4
100
AcDbMText
 10
1101.386177331551
 20
307.4849053699602
 30
0.0
 40
3.0
 41
0.0
 71
     5
 72
     1
  1
\A1;10
 73
     1
 44
1.0
  0
POINT
  5
2AB4
330
2AAD
100
AcDbEntity
  8
Defpoints
 62
     0
100
AcDbPoint
 10
1096.386178954926
 20
314.3505837935329
 30
0.0
  0
POINT
  5
2AB5
330
2AAD
100
AcDbEntity
  8
Defpoints
 62
     0
100
AcDbPoint
 10
1106.386175708176
 20
314.3505809440823
 30
0.0
  0
POINT
  5
2AB6
330
2AAD
100
AcDbEntity
  8
Defpoints
 62
     0
100
AcDbPoint
 10
1106.386175708176
 20
304.9849053699602
 30
0.0
  0
ENDBLK
  5
2AB8
330
2AAD
100
AcDbEntity
  8
0
100
AcDbBlockEnd
  0
BLOCK
  5
2AC3
330
2AB9
100
AcDbEntity
  8
0
100
AcDbBlockBegin
  2
*D17
 70
     1
 10
0.0
 20
0.0
 30
0.0
  3
*D17
  1

  0
LINE
  5
2ABA
330
2AB9
100
AcDbEntity
  8
SUNPOU
 62
     4
370
    -2
100
AcDbLine
 10
1051.848410461173
 20
331.1005134113575
 30
0.0
 11
1043.834025615429
 21
331.1005134113575
 31
0.0
  0
LINE
  5
2ABB
330
2AB9
100
AcDbEntity
  8
SUNPOU
 62
     4
370
    -2
100
AcDbLine
 10
1051.910910461182
 20
301.1005134113576
 30
0.0
 11
1043.834025615429
 21
301.1005134113576
 31
0.0
  0
LINE
  5
2ABC
330
2AB9
100
AcDbEntity
  8
SUNPOU
 62
     4
370
    -2
100
AcDbLine
 10
1045.334025615429
 20
328.1005134113574
 30
0.0
 11
1045.334025615429
 21
304.1005134113575
 31
0.0
  0
INSERT
  5
2ABD
330
2AB9
100
AcDbEntity
  8
SUNPOU
 62
     4
370
    -2
100
AcDbBlockReference
  2
_Open30
 10
1045.334025615429
 20
331.1005134113575
 30
0.0
 41
3.0
 42
3.0
 43
3.0
 50
90.0
  0
INSERT
  5
2ABE
330
2AB9
100
AcDbEntity
  8
SUNPOU
 62
     4
370
    -2
100
AcDbBlockReference
  2
_Open30
 10
1045.334025615429
 20
301.1005134113576
 30
0.0
 41
3.0
 42
3.0
 43
3.0
 50
270.0
  0
MTEXT
  5
2ABF
330
2AB9
100
AcDbEntity
  8
SUNPOU
 62
     4
100
AcDbMText
 10
1042.834025615429
 20
316.1005134113577
 30
0.0
 40
3.0
 41
0.0
 71
     5
 72
     1
  1
\A1;30
 11
0.0000000000000001
 21
1.0
 31
0.0
 73
     1
 44
1.0
  0
POINT
  5
2AC0
330
2AB9
100
AcDbEntity
  8
Defpoints
 62
     0
100
AcDbPoint
 10
1054.848410461173
 20
331.1005134113575
 30
0.0
  0
POINT
  5
2AC1
330
2AB9
100
AcDbEntity
  8
Defpoints
 62
     0
100
AcDbPoint
 10
1054.910910461182
 20
301.1005134113576
 30
0.0
  0
POINT
  5
2AC2
330
2AB9
100
AcDbEntity
  8
Defpoints
 62
     0
100
AcDbPoint
 10
1045.334025615429
 20
301.1005134113576
 30
0.0
  0
ENDBLK
  5
2AC4
330
2AB9
100
AcDbEntity
  8
0
100
AcDbBlockEnd
  0
BLOCK
  5
2ACF
330
2AC5
100
AcDbEntity
  8
0
100
AcDbBlockBegin
  2
*D18
 70
     1
 10
0.0
 20
0.0
 30
0.0
  3
*D18
  1

  0
LINE
  5
2AC6
330
2AC5
100
AcDbEntity
  8
SUNPOU
 62
     4
370
    -2
100
AcDbLine
 10
1068.886723006881
 20
229.1452064632167
 30
0.0
 11
1043.73138398736
 21
229.1452064632167
 31
0.0
  0
LINE
  5
2AC7
330
2AC5
100
AcDbEntity
  8
SUNPOU
 62
     4
370
    -2
100
AcDbLine
 10
1068.886723006881
 20
206.1452064632177
 30
0.0
 11
1043.73138398736
 21
206.1452064632177
 31
0.0
  0
LINE
  5
2AC8
330
2AC5
100
AcDbEntity
  8
SUNPOU
 62
     4
370
    -2
100
AcDbLine
 10
1045.23138398736
 20
226.1452064632166
 30
0.0
 11
1045.23138398736
 21
209.1452064632177
 31
0.0
  0
INSERT
  5
2AC9
330
2AC5
100
AcDbEntity
  8
SUNPOU
 62
     4
370
    -2
100
AcDbBlockReference
  2
_Open30
 10
1045.23138398736
 20
229.1452064632167
 30
0.0
 41
3.0
 42
3.0
 43
3.0
 50
90.0
  0
INSERT
  5
2ACA
330
2AC5
100
AcDbEntity
  8
SUNPOU
 62
     4
370
    -2
100
AcDbBlockReference
  2
_Open30
 10
1045.23138398736
 20
206.1452064632177
 30
0.0
 41
3.0
 42
3.0
 43
3.0
 50
270.0
  0
MTEXT
  5
2ACB
330
2AC5
100
AcDbEntity
  8
SUNPOU
 62
     4
100
AcDbMText
 10
1042.73138398736
 20
217.6452064632174
 30
0.0
 40
3.0
 41
0.0
 71
     5
 72
     1
  1
\A1;23
 11
0.0000000000000001
 21
1.0
 31
0.0
 73
     1
 44
1.0
  0
POINT
  5
2ACC
330
2AC5
100
AcDbEntity
  8
Defpoints
 62
     0
100
AcDbPoint
 10
1071.886723006881
 20
229.1452064632167
 30
0.0
  0
POINT
  5
2ACD
330
2AC5
100
AcDbEntity
  8
Defpoints
 62
     0
100
AcDbPoint
 10
1071.886723006881
 20
206.1452064632177
 30
0.0
  0
POINT
  5
2ACE
330
2AC5
100
AcDbEntity
  8
Defpoints
 62
     0
100
AcDbPoint
 10
1045.23138398736
 20
206.1452064632177
 30
0.0
  0
ENDBLK
  5
2AD0
330
2AC5
100
AcDbEntity
  8
0
100
AcDbBlockEnd
  0
BLOCK
  5
2ADB
330
2AD1
100
AcDbEntity
  8
0
100
AcDbBlockBegin
  2
*D19
 70
     1
 10
0.0
 20
0.0
 30
0.0
  3
*D19
  1

  0
LINE
  5
2AD2
330
2AD1
100
AcDbEntity
  8
SUNPOU
 62
     4
370
    -2
100
AcDbLine
 10
1071.886723006881
 20
334.1005134113576
 30
0.0
 11
1071.886723006881
 21
337.6620913095162
 31
0.0
  0
LINE
  5
2AD3
330
2AD1
100
AcDbEntity
  8
SUNPOU
 62
     4
370
    -2
100
AcDbLine
 10
1054.848410461173
 20
334.1005134113574
 30
0.0
 11
1054.848410461173
 21
337.6620913095162
 31
0.0
  0
LINE
  5
2AD4
330
2AD1
100
AcDbEntity
  8
SUNPOU
 62
     4
370
    -2
100
AcDbLine
 10
1068.886723006881
 20
336.1620913095161
 30
0.0
 11
1057.848410461174
 21
336.1620913095161
 31
0.0
  0
INSERT
  5
2AD5
330
2AD1
100
AcDbEntity
  8
SUNPOU
 62
     4
370
    -2
100
AcDbBlockReference
  2
_Open30
 10
1071.886723006881
 20
336.1620913095161
 30
0.0
 41
3.0
 42
3.0
 43
3.0
  0
INSERT
  5
2AD6
330
2AD1
100
AcDbEntity
  8
SUNPOU
 62
     4
370
    -2
100
AcDbBlockReference
  2
_Open30
 10
1054.848410461173
 20
336.1620913095161
 30
0.0
 41
3.0
 42
3.0
 43
3.0
 50
180.0
  0
MTEXT
  5
2AD7
330
2AD1
100
AcDbEntity
  8
SUNPOU
 62
     4
100
AcDbMText
 10
1063.367566734027
 20
338.6620913095161
 30
0.0
 40
3.0
 41
0.0
 71
     5
 72
     1
  1
\A1;17
 73
     1
 44
1.0
  0
POINT
  5
2AD8
330
2AD1
100
AcDbEntity
  8
Defpoints
 62
     0
100
AcDbPoint
 10
1071.886723006881
 20
331.1005134113575
 30
0.0
  0
POINT
  5
2AD9
330
2AD1
100
AcDbEntity
  8
Defpoints
 62
     0
100
AcDbPoint
 10
1054.848410461173
 20
331.1005134113575
 30
0.0
  0
POINT
  5
2ADA
330
2AD1
100
AcDbEntity
  8
Defpoints
 62
     0
100
AcDbPoint
 10
1054.848410461173
 20
336.1620913095161
 30
0.0
  0
ENDBLK
  5
2ADC
330
2AD1
100
AcDbEntity
  8
0
100
AcDbBlockEnd
  0
BLOCK
  5
2AE9
330
2ADD
100
AcDbEntity
  8
0
100
AcDbBlockBegin
  2
*D20
 70
     1
 10
0.0
 20
0.0
 30
0.0
  3
*D20
  1

  0
LINE
  5
2ADE
330
2ADD
100
AcDbEntity
  8
SUNPOU
 62
     4
370
    -2
100
AcDbLine
 10
1164.386077006878
 20
318.3505134113578
 30
0.0
 11
1185.818700752145
 21
318.3505134113578
 31
0.0
  0
LINE
  5
2ADF
330
2ADD
100
AcDbEntity
  8
SUNPOU
 62
     4
370
    -2
100
AcDbLine
 10
1164.386077006878
 20
313.8505134113579
 30
0.0
 11
1185.818700752145
 21
313.8505134113579
 31
0.0
  0
LINE
  5
2AE0
330
2ADD
100
AcDbEntity
  8
SUNPOU
 62
     4
370
    -2
100
AcDbLine
 10
1184.318700752145
 20
321.3505134113578
 30
0.0
 11
1184.318700752145
 21
324.3505134113578
 31
0.0
  0
LINE
  5
2AE1
330
2ADD
100
AcDbEntity
  8
SUNPOU
 62
     4
370
    -2
100
AcDbLine
 10
1184.318700752145
 20
310.8505134113579
 30
0.0
 11
1184.318700752145
 21
296.8505134113579
 31
0.0
  0
LINE
  5
2AE2
330
2ADD
100
AcDbEntity
  8
SUNPOU
 62
     4
370
    -2
100
AcDbLine
 10
1184.318700752145
 20
318.3505134113578
 30
0.0
 11
1184.318700752145
 21
313.8505134113579
 31
0.0
  0
INSERT
  5
2AE3
330
2ADD
100
AcDbEntity
  8
SUNPOU
 62
     4
370
    -2
100
AcDbBlockReference
  2
_Open30
 10
1184.318700752145
 20
318.3505134113578
 30
0.0
 41
3.0
 42
3.0
 43
3.0
 50
270.0
  0
INSERT
  5
2AE4
330
2ADD
100
AcDbEntity
  8
SUNPOU
 62
     4
370
    -2
100
AcDbBlockReference
  2
_Open30
 10
1184.318700752145
 20
313.8505134113579
 30
0.0
 41
3.0
 42
3.0
 43
3.0
 50
90.0
  0
MTEXT
  5
2AE5
330
2ADD
100
AcDbEntity
  8
SUNPOU
 62
     4
100
AcDbMText
 10
1181.818700752145
 20
302.3505134113581
 30
0.0
 40
3.0
 41
0.0
 71
     5
 72
     1
  1
\A1;φ4.5
 11
0.0000000000000001
 21
1.0
 31
0.0
 73
     1
 44
1.0
  0
POINT
  5
2AE6
330
2ADD
100
AcDbEntity
  8
Defpoints
 62
     0
100
AcDbPoint
 10
1161.386077006878
 20
318.3505134113578
 30
0.0
  0
POINT
  5
2AE7
330
2ADD
100
AcDbEntity
  8
Defpoints
 62
     0
100
AcDbPoint
 10
1161.386077006878
 20
313.8505134113579
 30
0.0
  0
POINT
  5
2AE8
330
2ADD
100
AcDbEntity
  8
Defpoints
 62
     0
100
AcDbPoint
 10
1184.318700752145
 20
313.8505134113579
 30
0.0
  0
ENDBLK
  5
2AEA
330
2ADD
100
AcDbEntity
  8
0
100
AcDbBlockEnd
  0
BLOCK
  5
2C47
330
2C3D
100
AcDbEntity
  8
0
100
AcDbBlockBegin
  2
*D22
 70
     1
 10
0.0
 20
0.0
 30
0.0
  3
*D22
  1

  0
LINE
  5
2C93
330
2C3D
100
AcDbEntity
  8
SUNPOU
 62
     4
100
AcDbLine
 10
284.1918895426386
 20
92.86485893597319
 30
0.0
 11
259.0365505231177
 21
92.86485893597319
 31
0.0
  0
LINE
  5
2C94
330
2C3D
100
AcDbEntity
  8
SUNPOU
 62
     4
100
AcDbLine
 10
284.1918895426386
 20
69.86485893597421
 30
0.0
 11
259.0365505231177
 21
69.86485893597421
 31
0.0
  0
LINE
  5
2C95
330
2C3D
100
AcDbEntity
  8
SUNPOU
 62
     4
100
AcDbLine
 10
260.5365505231177
 20
89.86485893597318
 30
0.0
 11
260.5365505231177
 21
72.86485893597421
 31
0.0
  0
INSERT
  5
2C96
330
2C3D
100
AcDbEntity
  8
SUNPOU
 62
     4
100
AcDbBlockReference
  2
_Open30
 10
260.5365505231177
 20
92.86485893597319
 30
0.0
 41
3.0
 42
3.0
 43
3.0
 50
90.0
  0
INSERT
  5
2C97
330
2C3D
100
AcDbEntity
  8
SUNPOU
 62
     4
100
AcDbBlockReference
  2
_Open30
 10
260.5365505231177
 20
69.86485893597421
 30
0.0
 41
3.0
 42
3.0
 43
3.0
 50
270.0
  0
MTEXT
  5
2C98
330
2C3D
100
AcDbEntity
  8
SUNPOU
 62
     4
100
AcDbMText
 10
258.0365505231177
 20
81.36485893597374
 30
0.0
 40
3.0
 41
0.0
 71
     5
 72
     1
  1
\A1;23
 11
0.0000000000000001
 21
1.0
 31
0.0
 73
     1
 44
1.0
  0
POINT
  5
2C99
330
2C3D
100
AcDbEntity
  8
Defpoints
 62
     0
100
AcDbPoint
 10
287.1918895426385
 20
92.86485893597319
 30
0.0
  0
POINT
  5
2C9A
330
2C3D
100
AcDbEntity
  8
Defpoints
 62
     0
100
AcDbPoint
 10
287.1918895426385
 20
69.86485893597421
 30
0.0
  0
POINT
  5
2C9B
330
2C3D
100
AcDbEntity
  8
Defpoints
 62
     0
100
AcDbPoint
 10
260.5365505231177
 20
69.86485893597421
 30
0.0
  0
ENDBLK
  5
2C48
330
2C3D
100
AcDbEntity
  8
0
100
AcDbBlockEnd
  0
BLOCK
  5
2C53
330
2C49
100
AcDbEntity
  8
0
100
AcDbBlockBegin
  2
*D23
 70
     1
 10
0.0
 20
0.0
 30
0.0
  3
*D23
  1

  0
LINE
  5
2C9C
330
2C49
100
AcDbEntity
  8
SUNPOU
 62
     4
100
AcDbLine
 10
287.1918895426385
 20
185.070165884114
 30
0.0
 11
287.1918895426385
 21
201.3587712512453
 31
0.0
  0
LINE
  5
2C9D
330
2C49
100
AcDbEntity
  8
SUNPOU
 62
     4
100
AcDbLine
 10
386.6912359732769
 20
182.8202571880574
 30
0.0
 11
386.6912359732769
 21
201.3587712512453
 31
0.0
  0
LINE
  5
2C9E
330
2C49
100
AcDbEntity
  8
SUNPOU
 62
     4
100
AcDbLine
 10
290.1918895426386
 20
199.8587712512453
 30
0.0
 11
383.6912359732768
 21
199.8587712512453
 31
0.0
  0
INSERT
  5
2C9F
330
2C49
100
AcDbEntity
  8
SUNPOU
 62
     4
100
AcDbBlockReference
  2
_Open30
 10
287.1918895426385
 20
199.8587712512453
 30
0.0
 41
3.0
 42
3.0
 43
3.0
 50
180.0
  0
INSERT
  5
2CA0
330
2C49
100
AcDbEntity
  8
SUNPOU
 62
     4
100
AcDbBlockReference
  2
_Open30
 10
386.6912359732769
 20
199.8587712512453
 30
0.0
 41
3.0
 42
3.0
 43
3.0
  0
MTEXT
  5
2CA1
330
2C49
100
AcDbEntity
  8
SUNPOU
 62
     4
100
AcDbMText
 10
336.9415627579577
 20
202.3587712512453
 30
0.0
 40
3.0
 41
0.0
 71
     5
 72
     1
  1
\A1;99
 73
     1
 44
1.0
  0
POINT
  5
2CA2
330
2C49
100
AcDbEntity
  8
Defpoints
 62
     0
100
AcDbPoint
 10
287.1918895426385
 20
182.070165884114
 30
0.0
  0
POINT
  5
2CA3
330
2C49
100
AcDbEntity
  8
Defpoints
 62
     0
100
AcDbPoint
 10
386.6912359732769
 20
179.8202571880574
 30
0.0
  0
POINT
  5
2CA4
330
2C49
100
AcDbEntity
  8
Defpoints
 62
     0
100
AcDbPoint
 10
386.6912359732769
 20
199.8587712512453
 30
0.0
  0
ENDBLK
  5
2C54
330
2C49
100
AcDbEntity
  8
0
100
AcDbBlockEnd
  0
BLOCK
  5
2C5F
330
2C55
100
AcDbEntity
  8
0
100
AcDbBlockBegin
  2
*D24
 70
     1
 10
0.0
 20
0.0
 30
0.0
  3
*D24
  1

  0
LINE
  5
2CA5
330
2C55
100
AcDbEntity
  8
SUNPOU
 62
     4
100
AcDbLine
 10
386.6912359732769
 20
182.8202571880574
 30
0.0
 11
386.6912359732769
 21
219.1249992083728
 31
0.0
  0
LINE
  5
2CA6
330
2C55
100
AcDbEntity
  8
SUNPOU
 62
     4
100
AcDbLine
 10
270.2160769969311
 20
182.8201658841139
 30
0.0
 11
270.2160769969311
 21
219.1249992083728
 31
0.0
  0
LINE
  5
2CA7
330
2C55
100
AcDbEntity
  8
SUNPOU
 62
     4
100
AcDbLine
 10
383.6912359732768
 20
217.6249992083728
 30
0.0
 11
273.2160769969311
 21
217.6249992083728
 31
0.0
  0
INSERT
  5
2CA8
330
2C55
100
AcDbEntity
  8
SUNPOU
 62
     4
100
AcDbBlockReference
  2
_Open30
 10
386.6912359732769
 20
217.6249992083728
 30
0.0
 41
3.0
 42
3.0
 43
3.0
  0
INSERT
  5
2CA9
330
2C55
100
AcDbEntity
  8
SUNPOU
 62
     4
100
AcDbBlockReference
  2
_Open30
 10
270.2160769969311
 20
217.6249992083728
 30
0.0
 41
3.0
 42
3.0
 43
3.0
 50
180.0
  0
MTEXT
  5
2CAA
330
2C55
100
AcDbEntity
  8
SUNPOU
 62
     4
100
AcDbMText
 10
328.453656485104
 20
220.1249992083728
 30
0.0
 40
3.0
 41
0.0
 71
     5
 72
     1
  1
\A1;116
 73
     1
 44
1.0
  0
POINT
  5
2CAB
330
2C55
100
AcDbEntity
  8
Defpoints
 62
     0
100
AcDbPoint
 10
386.6912359732769
 20
179.8202571880574
 30
0.0
  0
POINT
  5
2CAC
330
2C55
100
AcDbEntity
  8
Defpoints
 62
     0
100
AcDbPoint
 10
270.2160769969311
 20
179.8201658841139
 30
0.0
  0
POINT
  5
2CAD
330
2C55
100
AcDbEntity
  8
Defpoints
 62
     0
100
AcDbPoint
 10
270.2160769969311
 20
217.6249992083728
 30
0.0
  0
ENDBLK
  5
2C60
330
2C55
100
AcDbEntity
  8
0
100
AcDbBlockEnd
  0
BLOCK
  5
2C6B
330
2C61
100
AcDbEntity
  8
0
100
AcDbBlockBegin
  2
*D25
 70
     1
 10
0.0
 20
0.0
 30
0.0
  3
*D25
  1

  0
LINE
  5
2CAE
330
2C61
100
AcDbEntity
  8
SUNPOU
 62
     4
100
AcDbLine
 10
267.1535769969311
 20
194.8201658841139
 30
0.0
 11
259.1391921511865
 21
194.8201658841139
 31
0.0
  0
LINE
  5
2CAF
330
2C61
100
AcDbEntity
  8
SUNPOU
 62
     4
100
AcDbLine
 10
267.2160769969398
 20
164.8201658841141
 30
0.0
 11
259.1391921511865
 21
164.8201658841141
 31
0.0
  0
LINE
  5
2CB0
330
2C61
100
AcDbEntity
  8
SUNPOU
 62
     4
100
AcDbLine
 10
260.6391921511865
 20
191.8201658841139
 30
0.0
 11
260.6391921511865
 21
167.8201658841141
 31
0.0
  0
INSERT
  5
2CB1
330
2C61
100
AcDbEntity
  8
SUNPOU
 62
     4
100
AcDbBlockReference
  2
_Open30
 10
260.6391921511865
 20
194.8201658841139
 30
0.0
 41
3.0
 42
3.0
 43
3.0
 50
90.0
  0
INSERT
  5
2CB2
330
2C61
100
AcDbEntity
  8
SUNPOU
 62
     4
100
AcDbBlockReference
  2
_Open30
 10
260.6391921511865
 20
164.8201658841141
 30
0.0
 41
3.0
 42
3.0
 43
3.0
 50
270.0
  0
MTEXT
  5
2CB3
330
2C61
100
AcDbEntity
  8
SUNPOU
 62
     4
100
AcDbMText
 10
258.1391921511865
 20
179.820165884114
 30
0.0
 40
3.0
 41
0.0
 71
     5
 72
     1
  1
\A1;30
 11
0.0000000000000001
 21
1.0
 31
0.0
 73
     1
 44
1.0
  0
POINT
  5
2CB4
330
2C61
100
AcDbEntity
  8
Defpoints
 62
     0
100
AcDbPoint
 10
270.1535769969311
 20
194.8201658841139
 30
0.0
  0
POINT
  5
2CB5
330
2C61
100
AcDbEntity
  8
Defpoints
 62
     0
100
AcDbPoint
 10
270.2160769969398
 20
164.8201658841141
 30
0.0
  0
POINT
  5
2CB6
330
2C61
100
AcDbEntity
  8
Defpoints
 62
     0
100
AcDbPoint
 10
260.6391921511865
 20
164.8201658841141
 30
0.0
  0
ENDBLK
  5
2C6C
330
2C61
100
AcDbEntity
  8
0
100
AcDbBlockEnd
  0
BLOCK
  5
2C77
330
2C6D
100
AcDbEntity
  8
0
100
AcDbBlockBegin
  2
*D26
 70
     1
 10
0.0
 20
0.0
 30
0.0
  3
*D26
  1

  0
LINE
  5
2CB7
330
2C6D
100
AcDbEntity
  8
SUNPOU
 62
     4
100
AcDbLine
 10
287.1918895426385
 20
197.820165884114
 30
0.0
 11
287.1918895426385
 21
201.3817437822726
 31
0.0
  0
LINE
  5
2CB8
330
2C6D
100
AcDbEntity
  8
SUNPOU
 62
     4
100
AcDbLine
 10
270.1535769969311
 20
197.8201658841139
 30
0.0
 11
270.1535769969311
 21
201.3817437822726
 31
0.0
  0
LINE
  5
2CB9
330
2C6D
100
AcDbEntity
  8
SUNPOU
 62
     4
100
AcDbLine
 10
284.1918895426386
 20
199.8817437822726
 30
0.0
 11
273.1535769969311
 21
199.8817437822726
 31
0.0
  0
INSERT
  5
2CBA
330
2C6D
100
AcDbEntity
  8
SUNPOU
 62
     4
100
AcDbBlockReference
  2
_Open30
 10
287.1918895426385
 20
199.8817437822726
 30
0.0
 41
3.0
 42
3.0
 43
3.0
  0
INSERT
  5
2CBB
330
2C6D
100
AcDbEntity
  8
SUNPOU
 62
     4
100
AcDbBlockReference
  2
_Open30
 10
270.1535769969311
 20
199.8817437822726
 30
0.0
 41
3.0
 42
3.0
 43
3.0
 50
180.0
  0
MTEXT
  5
2CBC
330
2C6D
100
AcDbEntity
  8
SUNPOU
 62
     4
100
AcDbMText
 10
278.6727332697848
 20
202.3817437822726
 30
0.0
 40
3.0
 41
0.0
 71
     5
 72
     1
  1
\A1;17
 73
     1
 44
1.0
  0
POINT
  5
2CBD
330
2C6D
100
AcDbEntity
  8
Defpoints
 62
     0
100
AcDbPoint
 10
287.1918895426385
 20
194.8201658841141
 30
0.0
  0
POINT
  5
2CBE
330
2C6D
100
AcDbEntity
  8
Defpoints
 62
     0
100
AcDbPoint
 10
270.1535769969311
 20
194.8201658841139
 30
0.0
  0
POINT
  5
2CBF
330
2C6D
100
AcDbEntity
  8
Defpoints
 62
     0
100
AcDbPoint
 10
270.1535769969311
 20
199.8817437822726
 30
0.0
  0
ENDBLK
  5
2C78
330
2C6D
100
AcDbEntity
  8
0
100
AcDbBlockEnd
  0
BLOCK
  5
2C83
330
2C79
100
AcDbEntity
  8
0
100
AcDbBlockBegin
  2
*D27
 70
     1
 10
0.0
 20
0.0
 30
0.0
  3
*D27
  1

  0
LINE
  5
2CC0
330
2C79
100
AcDbEntity
  8
SUNPOU
 62
     4
100
AcDbLine
 10
311.6913454906832
 20
175.0702362662894
 30
0.0
 11
311.6913454906832
 21
167.2045578427166
 31
0.0
  0
LINE
  5
2CC1
330
2C79
100
AcDbEntity
  8
SUNPOU
 62
     4
100
AcDbLine
 10
321.691342243934
 20
175.0702334168387
 30
0.0
 11
321.691342243934
 21
167.2045578427166
 31
0.0
  0
LINE
  5
2CC2
330
2C79
100
AcDbEntity
  8
SUNPOU
 62
     4
100
AcDbLine
 10
314.6913454906832
 20
168.7045578427166
 30
0.0
 11
318.691342243934
 21
168.7045578427166
 31
0.0
  0
INSERT
  5
2CC3
330
2C79
100
AcDbEntity
  8
SUNPOU
 62
     4
100
AcDbBlockReference
  2
_Open30
 10
311.6913454906832
 20
168.7045578427166
 30
0.0
 41
3.0
 42
3.0
 43
3.0
 50
180.0
  0
INSERT
  5
2CC4
330
2C79
100
AcDbEntity
  8
SUNPOU
 62
     4
100
AcDbBlockReference
  2
_Open30
 10
321.691342243934
 20
168.7045578427166
 30
0.0
 41
3.0
 42
3.0
 43
3.0
  0
MTEXT
  5
2CC5
330
2C79
100
AcDbEntity
  8
SUNPOU
 62
     4
100
AcDbMText
 10
316.6913438673086
 20
171.2045578427166
 30
0.0
 40
3.0
 41
0.0
 71
     5
 72
     1
  1
\A1;10
 73
     1
 44
1.0
  0
POINT
  5
2CC6
330
2C79
100
AcDbEntity
  8
Defpoints
 62
     0
100
AcDbPoint
 10
311.6913454906832
 20
178.0702362662894
 30
0.0
  0
POINT
  5
2CC7
330
2C79
100
AcDbEntity
  8
Defpoints
 62
     0
100
AcDbPoint
 10
321.691342243934
 20
178.0702334168387
 30
0.0
  0
POINT
  5
2CC8
330
2C79
100
AcDbEntity
  8
Defpoints
 62
     0
100
AcDbPoint
 10
321.691342243934
 20
168.7045578427166
 30
0.0
  0
ENDBLK
  5
2C84
330
2C79
100
AcDbEntity
  8
0
100
AcDbBlockEnd
  0
BLOCK
  5
2C91
330
2C85
100
AcDbEntity
  8
0
100
AcDbBlockBegin
  2
*D28
 70
     1
 10
0.0
 20
0.0
 30
0.0
  3
*D28
  1

  0
LINE
  5
2CC9
330
2C85
100
AcDbEntity
  8
SUNPOU
 62
     4
100
AcDbLine
 10
379.6912435426354
 20
182.0701658841143
 30
0.0
 11
401.1238672879028
 21
182.0701658841143
 31
0.0
  0
LINE
  5
2CCA
330
2C85
100
AcDbEntity
  8
SUNPOU
 62
     4
100
AcDbLine
 10
379.6912435426354
 20
177.5701658841144
 30
0.0
 11
401.1238672879028
 21
177.5701658841144
 31
0.0
  0
LINE
  5
2CCB
330
2C85
100
AcDbEntity
  8
SUNPOU
 62
     4
100
AcDbLine
 10
399.6238672879028
 20
185.0701658841143
 30
0.0
 11
399.6238672879028
 21
188.0701658841143
 31
0.0
  0
LINE
  5
2CCC
330
2C85
100
AcDbEntity
  8
SUNPOU
 62
     4
100
AcDbLine
 10
399.6238672879028
 20
174.5701658841144
 30
0.0
 11
399.6238672879028
 21
160.5701658841144
 31
0.0
  0
LINE
  5
2CCD
330
2C85
100
AcDbEntity
  8
SUNPOU
 62
     4
100
AcDbLine
 10
399.6238672879028
 20
182.0701658841143
 30
0.0
 11
399.6238672879028
 21
177.5701658841144
 31
0.0
  0
INSERT
  5
2CCE
330
2C85
100
AcDbEntity
  8
SUNPOU
 62
     4
100
AcDbBlockReference
  2
_Open30
 10
399.6238672879028
 20
182.0701658841143
 30
0.0
 41
3.0
 42
3.0
 43
3.0
 50
270.0
  0
INSERT
  5
2CCF
330
2C85
100
AcDbEntity
  8
SUNPOU
 62
     4
100
AcDbBlockReference
  2
_Open30
 10
399.6238672879028
 20
177.5701658841144
 30
0.0
 41
3.0
 42
3.0
 43
3.0
 50
90.0
  0
MTEXT
  5
2CD0
330
2C85
100
AcDbEntity
  8
SUNPOU
 62
     4
100
AcDbMText
 10
397.1238672879028
 20
166.0701658841144
 30
0.0
 40
3.0
 41
0.0
 71
     5
 72
     1
  1
\A1;φ4.5
 11
0.0000000000000001
 21
1.0
 31
0.0
 73
     1
 44
1.0
  0
POINT
  5
2CD1
330
2C85
100
AcDbEntity
  8
Defpoints
 62
     0
100
AcDbPoint
 10
376.6912435426354
 20
182.0701658841143
 30
0.0
  0
POINT
  5
2CD2
330
2C85
100
AcDbEntity
  8
Defpoints
 62
     0
100
AcDbPoint
 10
376.6912435426354
 20
177.5701658841144
 30
0.0
  0
POINT
  5
2CD3
330
2C85
100
AcDbEntity
  8
Defpoints
 62
     0
100
AcDbPoint
 10
399.6238672879028
 20
177.5701658841144
 30
0.0
  0
ENDBLK
  5
2C92
330
2C85
100
AcDbEntity
  8
0
100
AcDbBlockEnd
  0
BLOCK
  5
2D14
330
2D0A
100
AcDbEntity
  8
0
100
AcDbBlockBegin
  2
*D29
 70
     1
 10
0.0
 20
0.0
 30
0.0
  3
*D29
  1

  0
LINE
  5
2D87
330
2D0A
100
AcDbEntity
  8
SUNPOU
 62
     4
100
AcDbLine
 10
153.9360470041645
 20
149.2757470882166
 30
0.0
 11
153.9360470041645
 21
141.4100686646438
 31
0.0
  0
LINE
  5
2D88
330
2D0A
100
AcDbEntity
  8
SUNPOU
 62
     4
100
AcDbLine
 10
163.9360437574152
 20
149.2757442387659
 30
0.0
 11
163.9360437574152
 21
141.4100686646438
 31
0.0
  0
LINE
  5
2D89
330
2D0A
100
AcDbEntity
  8
SUNPOU
 62
     4
100
AcDbLine
 10
156.9360470041645
 20
142.9100686646438
 30
0.0
 11
160.9360437574153
 21
142.9100686646438
 31
0.0
  0
INSERT
  5
2D8A
330
2D0A
100
AcDbEntity
  8
SUNPOU
 62
     4
100
AcDbBlockReference
  2
_Open30
 10
153.9360470041645
 20
142.9100686646438
 30
0.0
 41
3.0
 42
3.0
 43
3.0
 50
180.0
  0
INSERT
  5
2D8B
330
2D0A
100
AcDbEntity
  8
SUNPOU
 62
     4
100
AcDbBlockReference
  2
_Open30
 10
163.9360437574152
 20
142.9100686646438
 30
0.0
 41
3.0
 42
3.0
 43
3.0
  0
MTEXT
  5
2D8C
330
2D0A
100
AcDbEntity
  8
SUNPOU
 62
     4
100
AcDbMText
 10
158.9360453807898
 20
145.4100686646438
 30
0.0
 40
3.0
 41
0.0
 71
     5
 72
     1
  1
\A1;10
 73
     1
 44
1.0
  0
POINT
  5
2D8D
330
2D0A
100
AcDbEntity
  8
Defpoints
 62
     0
100
AcDbPoint
 10
153.9360470041645
 20
152.2757470882166
 30
0.0
  0
POINT
  5
2D8E
330
2D0A
100
AcDbEntity
  8
Defpoints
 62
     0
100
AcDbPoint
 10
163.9360437574152
 20
152.2757442387659
 30
0.0
  0
POINT
  5
2D8F
330
2D0A
100
AcDbEntity
  8
Defpoints
 62
     0
100
AcDbPoint
 10
163.9360437574152
 20
142.9100686646438
 30
0.0
  0
ENDBLK
  5
2D15
330
2D0A
100
AcDbEntity
  8
0
100
AcDbBlockEnd
  0
BLOCK
  5
2D22
330
2D16
100
AcDbEntity
  8
0
100
AcDbBlockBegin
  2
*D30
 70
     1
 10
0.0
 20
0.0
 30
0.0
  3
*D30
  1

  0
LINE
  5
2DB8
330
2D16
100
AcDbEntity
  8
SUNPOU
 62
     4
100
AcDbLine
 10
206.9359450561166
 20
70.92322388170902
 30
0.0
 11
228.368568801384
 21
70.923223881709
 31
0.0
  0
LINE
  5
2DB9
330
2D16
100
AcDbEntity
  8
SUNPOU
 62
     4
100
AcDbLine
 10
206.9359450561166
 20
66.42322388170914
 30
0.0
 11
228.368568801384
 21
66.42322388170912
 31
0.0
  0
LINE
  5
2DBA
330
2D16
100
AcDbEntity
  8
SUNPOU
 62
     4
100
AcDbLine
 10
226.868568801384
 20
73.923223881709
 30
0.0
 11
226.868568801384
 21
76.923223881709
 31
0.0
  0
LINE
  5
2DBB
330
2D16
100
AcDbEntity
  8
SUNPOU
 62
     4
100
AcDbLine
 10
226.868568801384
 20
63.42322388170913
 30
0.0
 11
226.868568801384
 21
49.42322388170913
 31
0.0
  0
LINE
  5
2DBC
330
2D16
100
AcDbEntity
  8
SUNPOU
 62
     4
100
AcDbLine
 10
226.868568801384
 20
70.923223881709
 30
0.0
 11
226.868568801384
 21
66.42322388170912
 31
0.0
  0
INSERT
  5
2DBD
330
2D16
100
AcDbEntity
  8
SUNPOU
 62
     4
100
AcDbBlockReference
  2
_Open30
 10
226.868568801384
 20
70.923223881709
 30
0.0
 41
3.0
 42
3.0
 43
3.0
 50
270.0
  0
INSERT
  5
2DBE
330
2D16
100
AcDbEntity
  8
SUNPOU
 62
     4
100
AcDbBlockReference
  2
_Open30
 10
226.868568801384
 20
66.42322388170912
 30
0.0
 41
3.0
 42
3.0
 43
3.0
 50
90.0
  0
MTEXT
  5
2DBF
330
2D16
100
AcDbEntity
  8
SUNPOU
 62
     4
100
AcDbMText
 10
224.368568801384
 20
54.92322388170916
 30
0.0
 40
3.0
 41
0.0
 71
     5
 72
     1
  1
\A1;φ4.5
 11
0.0000000000000001
 21
1.0
 31
0.0
 73
     1
 44
1.0
  0
POINT
  5
2DC0
330
2D16
100
AcDbEntity
  8
Defpoints
 62
     0
100
AcDbPoint
 10
203.9359450561166
 20
70.92322388170902
 30
0.0
  0
POINT
  5
2DC1
330
2D16
100
AcDbEntity
  8
Defpoints
 62
     0
100
AcDbPoint
 10
203.9359450561166
 20
66.42322388170914
 30
0.0
  0
POINT
  5
2DC2
330
2D16
100
AcDbEntity
  8
Defpoints
 62
     0
100
AcDbPoint
 10
226.868568801384
 20
66.42322388170912
 30
0.0
  0
ENDBLK
  5
2D23
330
2D16
100
AcDbEntity
  8
0
100
AcDbBlockEnd
  0
ENDSEC
  0
SECTION
  2
ENTITIES
  0
LINE
  5
C76
330
1A
100
AcDbEntity
  8
ZUWAKU
100
AcDbLine
 10
76.31495336356454
 20
10.03428249379249
 30
0.0
 11
159.4812481053299
 21
10.03428249379249
 31
0.0
  0
LINE
  5
C77
330
1A
100
AcDbEntity
  8
ZUWAKU
100
AcDbLine
 10
76.31495336356454
 20
10.17360249379265
 30
0.0
 11
159.4812481053299
 21
10.17360249379265
 31
0.0
  0
LINE
  5
C78
330
1A
100
AcDbEntity
  8
ZUWAKU
100
AcDbLine
 10
76.31495336356454
 20
10.10394249379243
 30
0.0
 11
159.4812481053299
 21
10.10394249379243
 31
0.0
  0
LWPOLYLINE
  5
C79
330
1A
100
AcDbEntity
  8
ZUWAKU
100
AcDbPolyline
 90
        4
 70
     1
 43
0.0
 10
3.713002134233647
 20
196.7927424937924
 10
3.713002134233647
 20
4.809782493792454
 10
281.3777621342335
 20
4.809782493792454
 10
281.3777621342339
 20
196.7927424937924
  0
LWPOLYLINE
  5
C7A
330
1A
100
AcDbEntity
  8
ZUWAKU
100
AcDbPolyline
 90
        4
 70
     1
 43
0.0
 10
3.852322134233531
 20
196.6534224937925
 10
3.852322134233531
 20
4.949102493792679
 10
281.2384421342337
 20
4.949102493792679
 10
281.2384421342337
 20
196.6534224937925
  0
LWPOLYLINE
  5
C7B
330
1A
100
AcDbEntity
  8
ZUWAKU
100
AcDbPolyline
 90
        4
 70
     1
 43
0.0
 10
3.643342134233762
 20
196.8624024937926
 10
3.643342134233762
 20
4.740122493792512
 10
281.4474221342338
 20
4.740122493792512
 10
281.4474221342338
 20
196.8624024937926
  0
LWPOLYLINE
  5
C7C
330
1A
100
AcDbEntity
  8
ZUWAKU
100
AcDbPolyline
 90
        4
 70
     1
 43
0.0
 10
3.78266213423393
 20
196.7230824937924
 10
3.78266213423393
 20
4.879442493792396
 10
281.3081021342336
 20
4.879442493792396
 10
281.3081021342336
 20
196.7230824937924
  0
LWPOLYLINE
  5
C7D
330
1A
100
AcDbEntity
  8
ZUWAKU
100
AcDbPolyline
 90
        4
 70
     1
 43
0.0
 10
3.921982134233815
 20
196.5837624937925
 10
3.921982134233815
 20
5.018762493792621
 10
281.1687821342338
 20
5.018762493792621
 10
281.1687821342338
 20
196.5837624937925
  0
LINE
  5
C7E
330
1A
100
AcDbEntity
  8
ZUWAKU
100
AcDbLine
 10
3.643342134233762
 20
15.46776249379257
 30
0.0
 11
281.3777621342336
 21
15.46776249379257
 31
0.0
  0
LINE
  5
C7F
330
1A
100
AcDbEntity
  8
ZUWAKU
100
AcDbLine
 10
3.643342134233762
 20
15.39810249379235
 30
0.0
 11
281.3777621342336
 21
15.39810249379235
 31
0.0
  0
LINE
  5
C80
330
1A
100
AcDbEntity
  8
ZUWAKU
100
AcDbLine
 10
3.643342134233762
 20
15.3284424937924
 30
0.0
 11
281.3777621342336
 21
15.3284424937924
 31
0.0
  0
LINE
  5
C81
330
1A
100
AcDbEntity
  8
ZUWAKU
100
AcDbLine
 10
3.643342134233762
 20
15.25878249379246
 30
0.0
 11
281.3777621342336
 21
15.25878249379246
 31
0.0
  0
LINE
  5
C82
330
1A
100
AcDbEntity
  8
ZUWAKU
100
AcDbLine
 10
3.643342134233762
 20
15.18912249379258
 30
0.0
 11
281.3777621342336
 21
15.18912249379258
 31
0.0
  0
ARC
  5
C95
330
1A
100
AcDbEntity
  8
ZUWAKU
100
AcDbCircle
 10
9.770709627743997
 20
12.65523999379235
 30
0.0
 40
0.1828575
100
AcDbArc
 50
0.0
 51
90.0
  0
ARC
  5
C96
330
1A
100
AcDbEntity
  8
ZUWAKU
100
AcDbCircle
 10
9.770709627743997
 20
12.04571499379238
 30
0.0
 40
0.1828575
100
AcDbArc
 50
270.0
 51
0.0
  0
ARC
  5
C97
330
1A
100
AcDbEntity
  8
ZUWAKU
100
AcDbCircle
 10
8.673564627744099
 20
8.837942359223859
 30
0.0
 40
1.462859999999999
100
AcDbArc
 50
0.0
 51
44.99999999999971
  0
ARC
  5
C98
330
1A
100
AcDbEntity
  8
ZUWAKU
100
AcDbCircle
 10
9.161184627743978
 20
8.205707493792488
 30
0.0
 40
0.9752399999999997
100
AcDbArc
 50
270.0
 51
0.0
  0
INSERT
  5
C99
330
1A
100
AcDbEntity
  8
ZUWAKU
  6
Continuous
100
AcDbBlockReference
  2
*X1
 10
0.1603423872501821
 20
1.25712241231082
 30
0.0
 41
0.3483
 42
0.3483
 43
0.3483
1001
ACAD
1000
HATCH
1002
{
1070
    19
1000
ANSI37
1040
0.2
1040
0.0
1000
R14_HATCH_DATA
1000
B3A
1011
0.5086423872502337
1021
1.25712241231082
1031
0.0
1011
0.1603423872501821
1021
1.605422412310815
1031
0.0
1011
0.1603423872501821
1021
1.25712241231082
1031
0.3483
1040
0.0
1010
0.0
1020
0.0
1030
1.0
1000
ANSI37
1070
     0
1070
     0
1071
        8
1071
        7
1070
     1
1070
     1
1071
       24
1040
24.50226193468711
1040
27.64484871492438
1040
-0.1989123673796348
1040
24.09221142834837
1040
28.63479820858543
1040
0.0
1040
24.09221142834837
1040
29.92500023394081
1040
-0.4142135623730912
1040
24.61721142834835
1040
30.45000023394079
1040
0.0
1040
27.59221142834826
1040
30.45000023394079
1040
0.4142135623731546
1040
28.11721142834835
1040
30.97500023394079
1040
0.0
1040
28.11721142834835
1040
32.7250002339408
1040
0.4142135623731586
1040
27.59221142834826
1040
33.2500002339408
1040
0.0
1040
24.09221142834837
1040
33.2500002339408
1040
0.4142135623730928
1040
21.29221142834842
1040
30.45000023394083
1040
0.0
1040
21.29221142834842
1040
28.63479820858556
1040
0.1989123673796619
1040
22.52236294736485
1040
25.66494972760195
1040
0.0
1040
25.43216092200953
1040
22.75515175295729
1040
-0.1989123673796613
1040
25.84221142834838
1040
21.7652022592961
1040
0.0
1040
25.84221142834838
1040
20.47500023394078
1040
-0.4142135623730911
1040
25.3172114283484
1040
19.95000023394079
1040
0.0
1040
22.34221142834849
1040
19.95000023394079
1040
0.4142135623731526
1040
21.81721142834839
1040
19.42500023394081
1040
0.0
1040
21.81721142834839
1040
17.67500023394078
1040
0.4142135623731526
1040
22.34221142834849
1040
17.1500002339408
1040
0.0
1040
25.84221142834838
1040
17.1500002339408
1040
0.4142135623731044
1040
28.64221142834844
1040
19.95000023394077
1040
0.0
1040
28.64221142834844
1040
21.76520225929605
1040
0.1989123673796604
1040
27.4120599093319
1040
24.73505074027959
1040
0.0
1071
        0
1071
        7
1070
     1
1070
     1
1071
       16
1040
33.54221142834842
1040
29.0500002339408
1040
-0.4142135623730935
1040
34.9422114283484
1040
30.45000023394079
1040
0.0
1040
36.86721142834835
1040
30.45000023394079
1040
0.4142135623731546
1040
37.39221142834844
1040
30.97500023394079
1040
0.0
1040
37.39221142834844
1040
32.7250002339408
1040
0.4142135623730951
1040
36.86721142834846
1040
33.2500002339408
1040
0.0
1040
34.94221142834828
1040
33.25000023394076
1040
0.4142135623730892
1040
30.74221142834835
1040
29.05000023394073
1040
0.0
1040
30.74221142834835
1040
21.35000023394082
1040
0.4142135623730969
1040
34.9422114283484
1040
17.1500002339408
1040
0.0
1040
36.86721142834835
1040
17.1500002339408
1040
0.4142135623731526
1040
37.39221142834844
1040
17.67500023394078
1040
0.0
1040
37.39221142834844
1040
19.42500023394081
1040
0.4142135623730891
1040
36.86721142834846
1040
19.95000023394079
1040
0.0
1040
34.9422114283484
1040
19.95000023394079
1040
-0.4142135623730928
1040
33.54221142834842
1040
21.35000023394078
1040
0.0
1071
        0
1071
        7
1070
     1
1070
     1
1071
        2
1040
34.24221142834835
1040
25.2000002339408
1040
1.0
1040
37.74221142834835
1040
25.2000002339408
1040
1.0
1071
        0
1071
        7
1070
     1
1070
     1
1071
       26
1040
47.31485791052636
1040
29.20504742750422
1040
0.0
1040
48.37649754366418
1040
32.56690626577381
1040
0.5069206636600134
1040
47.87586664446883
1040
33.2500002339408
1040
0.0
1040
46.17697726485959
1040
33.2500002339408
1040
0.3272098845218764
1040
45.67634636566424
1040
32.88309420210777
1040
0.0
1040
43.80807649103246
1040
26.96690626577388
1040
-0.3272098845219541
1040
43.30744559183699
1040
26.60000023394079
1040
0.0
1040
43.16721142834853
1040
26.60000023394079
1040
-0.4142135623731526
1040
42.64221142834844
1040
27.12500023394078
1040
0.0
1040
42.64221142834844
1040
32.7250002339408
1040
0.4142135623730951
1040
42.11721142834846
1040
33.2500002339408
1040
0.0
1040
40.36721142834835
1040
33.2500002339408
1040
0.4142135623730871
1040
39.84221142834837
1040
32.72500023394082
1040
0.0
1040
39.84221142834837
1040
17.67500023394078
1040
0.4142135623730891
1040
40.36721142834835
1040
17.1500002339408
1040
0.0
1040
42.11721142834835
1040
17.1500002339408
1040
0.4142135623731526
1040
42.64221142834844
1040
17.67500023394078
1040
0.0
1040
42.64221142834844
1040
23.27500023394081
1040
-0.4142135623731526
1040
43.16721142834853
1040
23.80000023394079
1040
0.0
1040
43.30744559183711
1040
23.80000023394079
1040
-0.3272098845218915
1040
43.80807649103246
1040
23.43309420210772
1040
0.0
1040
45.67634636566424
1040
17.51690626577387
1040
0.3272098845218902
1040
46.17697726485959
1040
17.1500002339408
1040
0.0
1040
47.87586664446883
1040
17.1500002339408
1040
0.5069206636600335
1040
48.37649754366418
1040
17.8330942021078
1040
0.0
1040
46.05010616519052
1040
25.20000023394093
1040
0.0
1071
        0
1071
        7
1070
     1
1070
     1
1071
        8
1040
53.49221142834835
1040
32.72500023394081
1040
0.4142135623731546
1040
52.96721142834826
1040
33.2500002339408
1040
0.0
1040
51.21721142834849
1040
33.2500002339408
1040
0.4142135623731507
1040
50.6922114283484
1040
32.72500023394082
1040
0.0
1040
50.6922114283484
1040
17.67500023394078
1040
0.4142135623731526
1040
51.21721142834849
1040
17.1500002339408
1040
0.0
1040
52.96721142834826
1040
17.1500002339408
1040
0.4142135623731526
1040
53.49221142834835
1040
17.67500023394078
1040
0.0
1071
        0
1071
        7
1070
     1
1070
     1
1071
       24
1040
58.39221142834844
1040
29.92500023394081
1040
-0.4142135623731546
1040
58.91721142834853
1040
30.45000023394079
1040
0.0
1040
61.89221142834845
1040
30.45000023394079
1040
0.4142135623730911
1040
62.41721142834842
1040
30.97500023394079
1040
0.0
1040
62.41721142834842
1040
32.7250002339408
1040
0.4142135623730952
1040
61.89221142834845
1040
33.2500002339408
1040
0.0
1040
58.39221142834844
1040
33.2500002339408
1040
0.4142135623731048
1040
55.59221142834838
1040
30.45000023394083
1040
0.0
1040
55.59221142834838
1040
28.63479820858556
1040
0.1989123673796613
1040
56.82236294736492
1040
25.664949727602
1040
0.0
1040
59.7321609220096
1040
22.75515175295733
1040
-0.1989123673796402
1040
60.14221142834845
1040
21.76520225929626
1040
0.0
1040
60.14221142834845
1040
20.47500023394078
1040
-0.4142135623730911
1040
59.61721142834846
1040
19.95000023394079
1040
0.0
1040
56.64221142834844
1040
19.95000023394079
1040
0.4142135623731526
1040
56.11721142834835
1040
19.42500023394081
1040
0.0
1040
56.11721142834835
1040
17.67500023394078
1040
0.4142135623730891
1040
56.64221142834833
1040
17.1500002339408
1040
0.0
1040
60.14221142834845
1040
17.1500002339408
1040
0.4142135623730925
1040
62.9422114283484
1040
19.95000023394077
1040
0.0
1040
62.9422114283484
1040
21.76520225929605
1040
0.1989123673796675
1040
61.71205990933185
1040
24.7350507402797
1040
0.0
1040
58.80226193468729
1040
27.64484871492422
1040
-0.1989123673796652
1040
58.39221142834844
1040
28.63479820858538
1040
0.0
1071
        0
1071
        7
1070
     1
1070
     1
1071
       16
1040
67.84221142834837
1040
32.72500023394079
1040
0.414213562373103
1040
67.3172114283484
1040
33.2500002339408
1040
0.0
1040
65.5672114283484
1040
33.2500002339408
1040
0.4142135623730871
1040
65.04221142834842
1040
32.72500023394082
1040
0.0
1040
65.04221142834842
1040
19.95000023394077
1040
0.4142135623730926
1040
67.84221142834837
1040
17.1500002339408
1040
0.0
1040
71.34221142834838
1040
17.1500002339408
1040
0.4142135623731044
1040
74.14221142834844
1040
19.95000023394077
1040
0.0
1040
74.14221142834844
1040
32.7250002339408
1040
0.4142135623730951
1040
73.61721142834847
1040
33.2500002339408
1040
0.0
1040
71.86721142834835
1040
33.2500002339408
1040
0.4142135623730871
1040
71.34221142834838
1040
32.72500023394082
1040
0.0
1040
71.34221142834838
1040
21.00000023394077
1040
-0.414213562373088
1040
70.29221142834842
1040
19.95000023394079
1040
0.0
1040
68.89221142834845
1040
19.95000023394079
1040
-0.4142135623731197
1040
67.84221142834837
1040
21.00000023394077
1040
0.0
1071
        0
1071
        7
1070
     1
1070
     1
1071
        8
1040
79.04221142834842
1040
32.72500023394082
1040
0.4142135623730871
1040
78.51721142834844
1040
33.2500002339408
1040
0.0
1040
76.76721142834844
1040
33.2500002339408
1040
0.4142135623731507
1040
76.24221142834835
1040
32.72500023394082
1040
0.0
1040
76.24221142834835
1040
17.67500023394078
1040
0.4142135623730891
1040
76.76721142834833
1040
17.1500002339408
1040
0.0
1040
78.51721142834844
1040
17.1500002339408
1040
0.4142135623730891
1040
79.04221142834842
1040
17.67500023394078
1040
0.0
1071
        0
1070
     0
1070
     1
1040
0.0
1040
0.2
1070
     0
1070
     2
1040
0.7853981633974483
1040
-890.9423050611117
1040
-3.199999766059136
1040
-0.4490128060534576
1040
0.4490128060534577
1070
     0
1040
2.356194490192344
1040
-890.9423050611117
1040
-3.199999766059136
1040
-0.4490128060534577
1040
-0.4490128060534576
1070
     0
1040
0.057451373970553
1071
        8
1040
26.07985423659056
1040
25.16717387982635
1040
0.0
1040
32.40451428000642
1040
28.8440624163918
1040
0.0
1040
35.16436715922691
1040
25.51188188001151
1040
0.0
1040
40.91405925520439
1040
26.2012978803823
1040
0.0
1040
51.83847129252399
1040
26.66091014792391
1040
0.0
1040
56.8982001686968
1040
29.418576550348
1040
0.0
1040
66.5576852459676
1040
28.72915814903581
1040
0.0
1040
77.82707889318999
1040
29.18877041657742
1040
0.0
1002
}
  0
ARC
  5
C9A
330
1A
100
AcDbEntity
  8
ZUWAKU
100
AcDbCircle
 10
8.978327127744137
 20
8.388564993792385
 30
0.0
 40
0.1828575
100
AcDbArc
 50
270.0
 51
0.0
  0
LINE
  5
C9B
330
1A
100
AcDbEntity
  8
ZUWAKU
100
AcDbLine
 10
7.759277127744098
 20
7.413324993792627
 30
0.0
 11
7.759277127744098
 21
8.02284999379259
 31
0.0
  0
ARC
  5
C9C
330
1A
100
AcDbEntity
  8
ZUWAKU
100
AcDbCircle
 10
7.942134627743996
 20
7.413324993792627
 30
0.0
 40
0.1828575
100
AcDbArc
 50
180.0
 51
270.0
  0
ARC
  5
C9D
330
1A
100
AcDbEntity
  8
ZUWAKU
100
AcDbCircle
 10
7.942134627743996
 20
8.02284999379259
 30
0.0
 40
0.1828575
100
AcDbArc
 50
90.0
 51
180.0
  0
LINE
  5
C9E
330
1A
100
AcDbEntity
  8
ZUWAKU
100
AcDbLine
 10
7.942134627743996
 20
7.230467493792446
 30
0.0
 11
9.161184627743978
 21
7.230467493792446
 31
0.0
  0
LINE
  5
C9F
330
1A
100
AcDbEntity
  8
ZUWAKU
100
AcDbLine
 10
7.942134627743996
 20
8.205707493792488
 30
0.0
 11
8.978327127744137
 21
8.205707493792488
 31
0.0
  0
LINE
  5
CA0
330
1A
100
AcDbEntity
  8
ZUWAKU
100
AcDbLine
 10
9.953567127744179
 20
12.65523999379235
 30
0.0
 11
9.953567127744179
 21
12.04571499379238
 31
0.0
  0
ARC
  5
CA1
330
1A
100
AcDbEntity
  8
ZUWAKU
100
AcDbCircle
 10
8.551659627744015
 20
11.86285749379248
 30
0.0
 40
0.9752399999999997
100
AcDbArc
 50
90.0
 51
180.0
  0
ARC
  5
CA2
330
1A
100
AcDbEntity
  8
ZUWAKU
100
AcDbCircle
 10
8.734517127744197
 20
11.67999999379259
 30
0.0
 40
0.1828575
100
AcDbArc
 50
90.0
 51
180.0
  0
LINE
  5
CA3
330
1A
100
AcDbEntity
  8
ZUWAKU
100
AcDbLine
 10
8.551659627744015
 20
11.67999999379259
 30
0.0
 11
8.551659627744015
 21
11.23062262836111
 31
0.0
  0
LINE
  5
CA4
330
1A
100
AcDbEntity
  8
ZUWAKU
100
AcDbLine
 10
9.770709627743997
 20
11.86285749379248
 30
0.0
 11
8.734517127744197
 21
11.86285749379248
 31
0.0
  0
LINE
  5
CA5
330
1A
100
AcDbEntity
  8
ZUWAKU
100
AcDbLine
 10
7.576419627743916
 20
11.86285749379248
 30
0.0
 11
7.576419627743916
 21
11.23062262836111
 31
0.0
  0
LINE
  5
CA6
330
1A
100
AcDbEntity
  8
ZUWAKU
100
AcDbLine
 10
9.707962853670608
 20
9.872340585150311
 30
0.0
 11
8.694480219101819
 21
10.88582321971904
 31
0.0
  0
LINE
  5
CA7
330
1A
100
AcDbEntity
  8
ZUWAKU
100
AcDbLine
 10
9.161184627743978
 20
8.388564993792385
 30
0.0
 11
9.161184627743978
 21
8.837942359223859
 31
0.0
  0
ARC
  5
CA8
330
1A
100
AcDbEntity
  8
ZUWAKU
100
AcDbCircle
 10
8.673564627744099
 20
8.837942359223859
 30
0.0
 40
0.4876199999999999
100
AcDbArc
 50
0.0
 51
44.99999999999971
  0
LINE
  5
CA9
330
1A
100
AcDbEntity
  8
ZUWAKU
100
AcDbLine
 10
8.004881401817385
 20
10.19622440243466
 30
0.0
 11
9.018364036386174
 21
9.182741767865877
 31
0.0
  0
ARC
  5
CAA
330
1A
100
AcDbEntity
  8
ZUWAKU
100
AcDbCircle
 10
9.039279627744178
 20
11.23062262836111
 30
0.0
 40
0.4876199999999999
100
AcDbArc
 50
180.0
 51
224.9999999999997
  0
ARC
  5
CAB
330
1A
100
AcDbEntity
  8
ZUWAKU
100
AcDbCircle
 10
9.039279627744178
 20
11.23062262836111
 30
0.0
 40
1.462859999999999
100
AcDbArc
 50
180.0
 51
224.9999999999997
  0
LINE
  5
CAC
330
1A
100
AcDbEntity
  8
ZUWAKU
100
AcDbLine
 10
8.551659627744015
 20
12.83809749379253
 30
0.0
 11
9.770709627743997
 21
12.83809749379253
 31
0.0
  0
LINE
  5
CAD
330
1A
100
AcDbEntity
  8
ZUWAKU
100
AcDbLine
 10
14.03738462774396
 20
12.65523999379235
 30
0.0
 11
14.03738462774396
 21
7.413324993792627
 31
0.0
  0
ARC
  5
CAE
330
1A
100
AcDbEntity
  8
ZUWAKU
100
AcDbCircle
 10
12.3307146277441
 20
8.693327493792367
 30
0.0
 40
0.4876199999999999
100
AcDbArc
 50
180.0
 51
270.0
  0
ARC
  5
CAF
330
1A
100
AcDbEntity
  8
ZUWAKU
100
AcDbCircle
 10
24.64311962774394
 20
8.571422493792567
 30
0.0
 40
0.365715
100
AcDbArc
 50
270.0
 51
0.0
  0
LINE
  5
CB0
330
1A
100
AcDbEntity
  8
ZUWAKU
100
AcDbLine
 10
22.08311462774412
 20
8.205707493792488
 30
0.0
 11
22.08311462774412
 21
8.837942359223859
 31
0.0
  0
ARC
  5
CB1
330
1A
100
AcDbEntity
  8
ZUWAKU
100
AcDbCircle
 10
24.15549962774406
 20
8.571422493792567
 30
0.0
 40
0.365715
100
AcDbArc
 50
180.0
 51
270.0
  0
ARC
  5
CB2
330
1A
100
AcDbEntity
  8
ZUWAKU
100
AcDbCircle
 10
20.92501712774418
 20
8.388564993792385
 30
0.0
 40
0.1828575
100
AcDbArc
 50
270.0
 51
0.0
  0
LINE
  5
CB3
330
1A
100
AcDbEntity
  8
ZUWAKU
100
AcDbLine
 10
17.00987648170849
 20
7.468389122905193
 30
0.0
 11
16.199594364586
 21
10.03428249379249
 31
0.0
  0
LINE
  5
CB4
330
1A
100
AcDbEntity
  8
ZUWAKU
100
AcDbLine
 10
15.01262462774406
 20
7.413324993792627
 30
0.0
 11
15.01262462774406
 21
9.363804993792427
 31
0.0
  0
LINE
  5
CB5
330
1A
100
AcDbEntity
  8
ZUWAKU
100
AcDbLine
 10
16.0694138264111
 20
7.358260864680005
 30
0.0
 11
15.41869542907693
 21
9.41886912290505
 31
0.0
  0
LINE
  5
CB6
330
1A
100
AcDbEntity
  8
ZUWAKU
100
AcDbLine
 10
31.27280720579796
 20
15.18912249379258
 30
0.0
 11
31.2728072057983
 21
5.018762493792621
 31
0.0
  0
LINE
  5
CB7
330
1A
100
AcDbEntity
  8
ZUWAKU
100
AcDbLine
 10
31.3424672057979
 20
15.18912249379258
 30
0.0
 11
31.34246720579824
 21
5.018762493792621
 31
0.0
  0
LINE
  5
CB8
330
1A
100
AcDbEntity
  8
ZUWAKU
100
AcDbLine
 10
31.20314720579802
 20
15.18912249379258
 30
0.0
 11
31.20314720579802
 21
5.018762493792621
 31
0.0
  0
LINE
  5
CB9
330
1A
100
AcDbEntity
  8
ZUWAKU
100
AcDbLine
 10
25.98407462774406
 20
8.205707493792488
 30
0.0
 11
25.98407462774406
 21
12.65523999379235
 31
0.0
  0
LINE
  5
CBA
330
1A
100
AcDbEntity
  8
ZUWAKU
100
AcDbLine
 10
27.69074462774392
 20
7.413324993792627
 30
0.0
 11
27.69074462774392
 21
12.65523999379235
 31
0.0
  0
LINE
  5
CBB
330
1A
100
AcDbEntity
  8
ZUWAKU
100
AcDbLine
 10
26.71550462774416
 20
12.65523999379235
 30
0.0
 11
26.71550462774416
 21
7.413324993792627
 31
0.0
  0
LINE
  5
CBC
330
1A
100
AcDbEntity
  8
ZUWAKU
100
AcDbLine
 10
17.8164396277441
 20
12.65523999379235
 30
0.0
 11
17.8164396277441
 21
7.413324993792627
 31
0.0
  0
LINE
  5
CBD
330
1A
100
AcDbEntity
  8
ZUWAKU
100
AcDbLine
 10
18.7916796277442
 20
7.413324993792627
 30
0.0
 11
18.7916796277442
 21
12.65523999379235
 31
0.0
  0
LINE
  5
CBE
330
1A
100
AcDbEntity
  8
ZUWAKU
100
AcDbLine
 10
22.81454462774394
 20
12.65523999379235
 30
0.0
 11
22.81454462774394
 21
8.205707493792488
 31
0.0
  0
LINE
  5
CBF
330
1A
100
AcDbEntity
  8
ZUWAKU
100
AcDbLine
 10
10.13642462774407
 20
8.205707493792488
 30
0.0
 11
10.13642462774407
 21
8.837942359223859
 31
0.0
  0
ARC
  5
CC0
330
1A
100
AcDbEntity
  8
ZUWAKU
100
AcDbCircle
 10
12.3307146277441
 20
8.693327493792367
 30
0.0
 40
1.462859999999999
100
AcDbArc
 50
180.0
 51
270.0
  0
LINE
  5
CC1
330
1A
100
AcDbEntity
  8
ZUWAKU
100
AcDbLine
 10
19.88882462774404
 20
8.205707493792488
 30
0.0
 11
20.92501712774418
 21
8.205707493792488
 31
0.0
  0
LINE
  5
CC2
330
1A
100
AcDbEntity
  8
ZUWAKU
100
AcDbLine
 10
19.88882462774404
 20
7.230467493792446
 30
0.0
 11
21.10787462774408
 21
7.230467493792446
 31
0.0
  0
LINE
  5
CC3
330
1A
100
AcDbEntity
  8
ZUWAKU
100
AcDbLine
 10
12.3307146277441
 20
8.205707493792488
 30
0.0
 11
13.00119212774416
 21
8.205707493792488
 31
0.0
  0
LINE
  5
CC4
330
1A
100
AcDbEntity
  8
ZUWAKU
100
AcDbLine
 10
13.00119212774416
 20
7.230467493792446
 30
0.0
 11
12.3307146277441
 21
7.230467493792446
 31
0.0
  0
LINE
  5
CC5
330
1A
100
AcDbEntity
  8
ZUWAKU
100
AcDbLine
 10
14.22024212774419
 20
7.230467493792446
 30
0.0
 11
14.82976712774416
 21
7.230467493792446
 31
0.0
  0
LINE
  5
CC6
330
1A
100
AcDbEntity
  8
ZUWAKU
100
AcDbLine
 10
13.18404962774406
 20
8.02284999379259
 30
0.0
 11
13.18404962774406
 21
7.413324993792627
 31
0.0
  0
ARC
  5
CC7
330
1A
100
AcDbEntity
  8
ZUWAKU
100
AcDbCircle
 10
13.00119212774416
 20
7.413324993792627
 30
0.0
 40
0.1828575
100
AcDbArc
 50
270.0
 51
0.0
  0
ARC
  5
CC8
330
1A
100
AcDbEntity
  8
ZUWAKU
100
AcDbCircle
 10
13.00119212774416
 20
8.02284999379259
 30
0.0
 40
0.1828575
100
AcDbArc
 50
0.0
 51
90.0
  0
ARC
  5
CC9
330
1A
100
AcDbEntity
  8
ZUWAKU
100
AcDbCircle
 10
14.22024212774419
 20
7.413324993792627
 30
0.0
 40
0.1828575
100
AcDbArc
 50
180.0
 51
270.0
  0
ARC
  5
CCA
330
1A
100
AcDbEntity
  8
ZUWAKU
100
AcDbCircle
 10
14.82976712774416
 20
7.413324993792627
 30
0.0
 40
0.1828575
100
AcDbArc
 50
270.0
 51
0.0
  0
LINE
  5
CCB
330
1A
100
AcDbEntity
  8
ZUWAKU
100
AcDbLine
 10
17.999297127744
 20
7.230467493792446
 30
0.0
 11
18.60882212774396
 21
7.230467493792446
 31
0.0
  0
ARC
  5
CCC
330
1A
100
AcDbEntity
  8
ZUWAKU
100
AcDbCircle
 10
17.999297127744
 20
7.413324993792627
 30
0.0
 40
0.1828575
100
AcDbArc
 50
180.0
 51
270.0
  0
LINE
  5
CCD
330
1A
100
AcDbEntity
  8
ZUWAKU
100
AcDbLine
 10
16.24378356860108
 20
7.230467493792446
 30
0.0
 11
16.83550673951879
 21
7.230467493792446
 31
0.0
  0
ARC
  5
CCE
330
1A
100
AcDbEntity
  8
ZUWAKU
100
AcDbCircle
 10
16.83550673951879
 20
7.413324993792627
 30
0.0
 40
0.1828575
100
AcDbArc
 50
270.0
 51
17.52556837372012
  0
ARC
  5
CCF
330
1A
100
AcDbEntity
  8
ZUWAKU
100
AcDbCircle
 10
16.24378356860108
 20
7.413324993792627
 30
0.0
 40
0.1828575
100
AcDbArc
 50
197.5255683737199
 51
270.0
  0
LINE
  5
CD0
330
1A
100
AcDbEntity
  8
ZUWAKU
100
AcDbLine
 10
19.7059671277442
 20
7.413324993792627
 30
0.0
 11
19.7059671277442
 21
8.02284999379259
 31
0.0
  0
ARC
  5
CD1
330
1A
100
AcDbEntity
  8
ZUWAKU
100
AcDbCircle
 10
19.88882462774404
 20
7.413324993792627
 30
0.0
 40
0.1828575
100
AcDbArc
 50
180.0
 51
270.0
  0
ARC
  5
CD2
330
1A
100
AcDbEntity
  8
ZUWAKU
100
AcDbCircle
 10
18.60882212774396
 20
7.413324993792627
 30
0.0
 40
0.1828575
100
AcDbArc
 50
270.0
 51
0.0
  0
ARC
  5
CD3
330
1A
100
AcDbEntity
  8
ZUWAKU
100
AcDbCircle
 10
19.88882462774404
 20
8.02284999379259
 30
0.0
 40
0.1828575
100
AcDbArc
 50
90.0
 51
180.0
  0
ARC
  5
CD4
330
1A
100
AcDbEntity
  8
ZUWAKU
100
AcDbCircle
 10
23.78978462774398
 20
8.205707493792488
 30
0.0
 40
0.9752399999999997
100
AcDbArc
 50
180.0
 51
270.0
  0
ARC
  5
CD5
330
1A
100
AcDbEntity
  8
ZUWAKU
100
AcDbCircle
 10
21.10787462774408
 20
8.205707493792488
 30
0.0
 40
0.9752399999999997
100
AcDbArc
 50
270.0
 51
0.0
  0
ARC
  5
CD6
330
1A
100
AcDbEntity
  8
ZUWAKU
100
AcDbCircle
 10
25.00883462774396
 20
8.205707493792488
 30
0.0
 40
0.9752399999999997
100
AcDbArc
 50
270.0
 51
0.0
  0
LINE
  5
CD7
330
1A
100
AcDbEntity
  8
ZUWAKU
100
AcDbLine
 10
24.64311962774394
 20
8.205707493792488
 30
0.0
 11
24.15549962774406
 21
8.205707493792488
 31
0.0
  0
LINE
  5
CD8
330
1A
100
AcDbEntity
  8
ZUWAKU
100
AcDbLine
 10
23.78978462774398
 20
7.230467493792446
 30
0.0
 11
25.00883462774396
 21
7.230467493792446
 31
0.0
  0
ARC
  5
CD9
330
1A
100
AcDbEntity
  8
ZUWAKU
100
AcDbCircle
 10
27.50788712774403
 20
7.413324993792627
 30
0.0
 40
0.1828575
100
AcDbArc
 50
270.0
 51
0.0
  0
ARC
  5
CDA
330
1A
100
AcDbEntity
  8
ZUWAKU
100
AcDbCircle
 10
26.89836212774406
 20
7.413324993792627
 30
0.0
 40
0.1828575
100
AcDbArc
 50
180.0
 51
270.0
  0
LINE
  5
CDB
330
1A
100
AcDbEntity
  8
ZUWAKU
100
AcDbLine
 10
26.89836212774406
 20
7.230467493792446
 30
0.0
 11
27.50788712774403
 21
7.230467493792446
 31
0.0
  0
LINE
  5
CDC
330
1A
100
AcDbEntity
  8
ZUWAKU
100
AcDbLine
 10
20.49834962774406
 20
12.83809749379253
 30
0.0
 11
21.71739962774404
 21
12.83809749379253
 31
0.0
  0
LINE
  5
CDD
330
1A
100
AcDbEntity
  8
ZUWAKU
100
AcDbLine
 10
21.71739962774404
 20
11.86285749379248
 30
0.0
 11
20.6812071277439
 21
11.86285749379248
 31
0.0
  0
LINE
  5
CDE
330
1A
100
AcDbEntity
  8
ZUWAKU
100
AcDbLine
 10
19.95157140181743
 20
10.19622440243466
 30
0.0
 11
20.96505403638622
 21
9.182741767865877
 31
0.0
  0
LINE
  5
CDF
330
1A
100
AcDbEntity
  8
ZUWAKU
100
AcDbLine
 10
21.65465285367065
 20
9.872340585150311
 30
0.0
 11
20.64117021910186
 21
10.88582321971904
 31
0.0
  0
ARC
  5
CE0
330
1A
100
AcDbEntity
  8
ZUWAKU
100
AcDbCircle
 10
15.24432568688729
 20
10.70475999379254
 30
0.0
 40
0.1828575
100
AcDbArc
 50
270.0
 51
342.4744316262798
  0
ARC
  5
CE1
330
1A
100
AcDbEntity
  8
ZUWAKU
100
AcDbCircle
 10
15.24432568688729
 20
9.363804993792427
 30
0.0
 40
0.1828575
100
AcDbArc
 50
17.52556837372012
 51
90.0
  0
LINE
  5
CE2
330
1A
100
AcDbEntity
  8
ZUWAKU
100
AcDbLine
 10
16.0694138264111
 20
12.71030412290497
 30
0.0
 11
15.41869542907693
 21
10.64969586467992
 31
0.0
  0
LINE
  5
CE3
330
1A
100
AcDbEntity
  8
ZUWAKU
100
AcDbLine
 10
13.18404962774406
 20
12.65523999379235
 30
0.0
 11
13.18404962774406
 21
12.04571499379238
 31
0.0
  0
LINE
  5
CE4
330
1A
100
AcDbEntity
  8
ZUWAKU
100
AcDbLine
 10
15.01262462774406
 20
10.70475999379254
 30
0.0
 11
15.01262462774406
 21
12.65523999379235
 31
0.0
  0
ARC
  5
CE5
330
1A
100
AcDbEntity
  8
ZUWAKU
100
AcDbCircle
 10
12.3307146277441
 20
11.37523749379261
 30
0.0
 40
1.462859999999999
100
AcDbArc
 50
90.0
 51
180.0
  0
LINE
  5
CE6
330
1A
100
AcDbEntity
  8
ZUWAKU
100
AcDbLine
 10
13.00119212774416
 20
11.86285749379248
 30
0.0
 11
12.3307146277441
 21
11.86285749379248
 31
0.0
  0
CIRCLE
  5
CE7
330
1A
100
AcDbEntity
  8
ZUWAKU
100
AcDbCircle
 10
12.69642962774418
 20
10.03428249379249
 30
0.0
 40
0.609525
  0
ARC
  5
CE8
330
1A
100
AcDbEntity
  8
ZUWAKU
100
AcDbCircle
 10
12.3307146277441
 20
11.37523749379261
 30
0.0
 40
0.4876199999999999
100
AcDbArc
 50
90.0
 51
180.0
  0
LINE
  5
CE9
330
1A
100
AcDbEntity
  8
ZUWAKU
100
AcDbLine
 10
11.84309462774393
 20
11.37523749379261
 30
0.0
 11
11.84309462774393
 21
8.693327493792367
 31
0.0
  0
LINE
  5
CEA
330
1A
100
AcDbEntity
  8
ZUWAKU
100
AcDbLine
 10
10.86785462774418
 20
8.693327493792367
 30
0.0
 11
10.86785462774418
 21
11.37523749379261
 31
0.0
  0
ARC
  5
CEB
330
1A
100
AcDbEntity
  8
ZUWAKU
100
AcDbCircle
 10
13.00119212774416
 20
12.04571499379238
 30
0.0
 40
0.1828575
100
AcDbArc
 50
270.0
 51
0.0
  0
LINE
  5
CEC
330
1A
100
AcDbEntity
  8
ZUWAKU
100
AcDbLine
 10
15.24432568688729
 20
10.52190249379236
 30
0.0
 11
15.1954821277439
 21
10.52190249379236
 31
0.0
  0
LINE
  5
CED
330
1A
100
AcDbEntity
  8
ZUWAKU
100
AcDbLine
 10
15.1954821277439
 20
9.546662493792609
 30
0.0
 11
15.24432568688729
 21
9.546662493792609
 31
0.0
  0
ARC
  5
CEE
330
1A
100
AcDbEntity
  8
ZUWAKU
100
AcDbCircle
 10
15.1954821277439
 20
10.70475999379254
 30
0.0
 40
0.1828575
100
AcDbArc
 50
180.0
 51
270.0
  0
ARC
  5
CEF
330
1A
100
AcDbEntity
  8
ZUWAKU
100
AcDbCircle
 10
15.1954821277439
 20
9.363804993792427
 30
0.0
 40
0.1828575
100
AcDbArc
 50
90.0
 51
180.0
  0
LINE
  5
CF0
330
1A
100
AcDbEntity
  8
ZUWAKU
100
AcDbLine
 10
12.3307146277441
 20
12.83809749379253
 30
0.0
 11
13.00119212774416
 21
12.83809749379253
 31
0.0
  0
LINE
  5
CF1
330
1A
100
AcDbEntity
  8
ZUWAKU
100
AcDbLine
 10
14.82976712774416
 20
12.83809749379253
 30
0.0
 11
14.22024212774419
 21
12.83809749379253
 31
0.0
  0
ARC
  5
CF2
330
1A
100
AcDbEntity
  8
ZUWAKU
100
AcDbCircle
 10
13.00119212774416
 20
12.65523999379235
 30
0.0
 40
0.1828575
100
AcDbArc
 50
0.0
 51
90.0
  0
ARC
  5
CF3
330
1A
100
AcDbEntity
  8
ZUWAKU
100
AcDbCircle
 10
14.22024212774419
 20
12.65523999379235
 30
0.0
 40
0.1828575
100
AcDbArc
 50
90.0
 51
180.0
  0
ARC
  5
CF4
330
1A
100
AcDbEntity
  8
ZUWAKU
100
AcDbCircle
 10
14.82976712774416
 20
12.65523999379235
 30
0.0
 40
0.1828575
100
AcDbArc
 50
0.0
 51
90.0
  0
ARC
  5
CF5
330
1A
100
AcDbEntity
  8
ZUWAKU
100
AcDbCircle
 10
20.49834962774406
 20
11.86285749379248
 30
0.0
 40
0.9752399999999997
100
AcDbArc
 50
90.0
 51
180.0
  0
LINE
  5
CF6
330
1A
100
AcDbEntity
  8
ZUWAKU
100
AcDbLine
 10
17.00987648170849
 20
12.60017586468006
 30
0.0
 11
16.64010739748653
 21
11.42924043131074
 31
0.0
  0
LINE
  5
CF7
330
1A
100
AcDbEntity
  8
ZUWAKU
100
AcDbLine
 10
16.64010739748653
 20
11.42924043131074
 30
0.0
 11
16.199594364586
 21
10.03428249379249
 31
0.0
  0
ARC
  5
CF8
330
1A
100
AcDbEntity
  8
ZUWAKU
100
AcDbCircle
 10
20.6812071277439
 20
11.67999999379259
 30
0.0
 40
0.1828575
100
AcDbArc
 50
90.0
 51
180.0
  0
LINE
  5
CF9
330
1A
100
AcDbEntity
  8
ZUWAKU
100
AcDbLine
 10
20.49834962774406
 20
11.67999999379259
 30
0.0
 11
20.49834962774406
 21
11.23062262836111
 31
0.0
  0
LINE
  5
CFA
330
1A
100
AcDbEntity
  8
ZUWAKU
100
AcDbLine
 10
19.52310962774396
 20
11.86285749379248
 30
0.0
 11
19.52310962774396
 21
11.23062262836111
 31
0.0
  0
ARC
  5
CFB
330
1A
100
AcDbEntity
  8
ZUWAKU
100
AcDbCircle
 10
20.98596962774394
 20
11.23062262836111
 30
0.0
 40
0.4876199999999999
100
AcDbArc
 50
180.0
 51
224.9999999999997
  0
ARC
  5
CFC
330
1A
100
AcDbEntity
  8
ZUWAKU
100
AcDbCircle
 10
20.98596962774394
 20
11.23062262836111
 30
0.0
 40
1.462859999999999
100
AcDbArc
 50
180.0
 51
224.9999999999997
  0
LINE
  5
CFD
330
1A
100
AcDbEntity
  8
ZUWAKU
100
AcDbLine
 10
18.60882212774396
 20
12.83809749379253
 30
0.0
 11
17.999297127744
 21
12.83809749379253
 31
0.0
  0
ARC
  5
CFE
330
1A
100
AcDbEntity
  8
ZUWAKU
100
AcDbCircle
 10
17.999297127744
 20
12.65523999379235
 30
0.0
 40
0.1828575
100
AcDbArc
 50
90.0
 51
180.0
  0
LINE
  5
CFF
330
1A
100
AcDbEntity
  8
ZUWAKU
100
AcDbLine
 10
16.24378356860108
 20
12.83809749379253
 30
0.0
 11
16.83550673951879
 21
12.83809749379253
 31
0.0
  0
ARC
  5
D00
330
1A
100
AcDbEntity
  8
ZUWAKU
100
AcDbCircle
 10
16.83550673951879
 20
12.65523999379235
 30
0.0
 40
0.1828575
100
AcDbArc
 50
342.4744316262798
 51
90.0
  0
ARC
  5
D01
330
1A
100
AcDbEntity
  8
ZUWAKU
100
AcDbCircle
 10
16.24378356860108
 20
12.65523999379235
 30
0.0
 40
0.1828575
100
AcDbArc
 50
90.0
 51
162.4744316262798
  0
ARC
  5
D02
330
1A
100
AcDbEntity
  8
ZUWAKU
100
AcDbCircle
 10
18.60882212774396
 20
12.65523999379235
 30
0.0
 40
0.1828575
100
AcDbArc
 50
0.0
 51
90.0
  0
LINE
  5
D03
330
1A
100
AcDbEntity
  8
ZUWAKU
100
AcDbLine
 10
21.90025712774394
 20
12.65523999379235
 30
0.0
 11
21.90025712774394
 21
12.04571499379238
 31
0.0
  0
LINE
  5
D04
330
1A
100
AcDbEntity
  8
ZUWAKU
100
AcDbLine
 10
25.00883462774396
 20
12.65523999379235
 30
0.0
 11
25.00883462774396
 21
8.571422493792567
 31
0.0
  0
LINE
  5
D05
330
1A
100
AcDbEntity
  8
ZUWAKU
100
AcDbLine
 10
23.78978462774398
 20
8.571422493792567
 30
0.0
 11
23.78978462774398
 21
12.65523999379235
 31
0.0
  0
ARC
  5
D06
330
1A
100
AcDbEntity
  8
ZUWAKU
100
AcDbCircle
 10
21.71739962774404
 20
12.04571499379238
 30
0.0
 40
0.1828575
100
AcDbArc
 50
270.0
 51
0.0
  0
ARC
  5
D07
330
1A
100
AcDbEntity
  8
ZUWAKU
100
AcDbCircle
 10
20.6202546277442
 20
8.837942359223859
 30
0.0
 40
1.462859999999999
100
AcDbArc
 50
0.0
 51
44.99999999999971
  0
LINE
  5
D08
330
1A
100
AcDbEntity
  8
ZUWAKU
100
AcDbLine
 10
21.10787462774408
 20
8.388564993792385
 30
0.0
 11
21.10787462774408
 21
8.837942359223859
 31
0.0
  0
ARC
  5
D09
330
1A
100
AcDbEntity
  8
ZUWAKU
100
AcDbCircle
 10
20.6202546277442
 20
8.837942359223859
 30
0.0
 40
0.4876199999999999
100
AcDbArc
 50
0.0
 51
44.99999999999971
  0
ARC
  5
D0A
330
1A
100
AcDbEntity
  8
ZUWAKU
100
AcDbCircle
 10
23.60692712774414
 20
12.65523999379235
 30
0.0
 40
0.1828575
100
AcDbArc
 50
0.0
 51
90.0
  0
ARC
  5
D0B
330
1A
100
AcDbEntity
  8
ZUWAKU
100
AcDbCircle
 10
22.99740212774412
 20
12.65523999379235
 30
0.0
 40
0.1828575
100
AcDbArc
 50
90.0
 51
180.0
  0
LINE
  5
D0C
330
1A
100
AcDbEntity
  8
ZUWAKU
100
AcDbLine
 10
23.60692712774414
 20
12.83809749379253
 30
0.0
 11
22.99740212774412
 21
12.83809749379253
 31
0.0
  0
ARC
  5
D0D
330
1A
100
AcDbEntity
  8
ZUWAKU
100
AcDbCircle
 10
21.71739962774404
 20
12.65523999379235
 30
0.0
 40
0.1828575
100
AcDbArc
 50
0.0
 51
90.0
  0
ARC
  5
D0E
330
1A
100
AcDbEntity
  8
ZUWAKU
100
AcDbCircle
 10
25.80121712774416
 20
12.65523999379235
 30
0.0
 40
0.1828575
100
AcDbArc
 50
0.0
 51
90.0
  0
LINE
  5
D0F
330
1A
100
AcDbEntity
  8
ZUWAKU
100
AcDbLine
 10
25.80121712774416
 20
12.83809749379253
 30
0.0
 11
25.1916921277442
 21
12.83809749379253
 31
0.0
  0
ARC
  5
D10
330
1A
100
AcDbEntity
  8
ZUWAKU
100
AcDbCircle
 10
25.1916921277442
 20
12.65523999379235
 30
0.0
 40
0.1828575
100
AcDbArc
 50
90.0
 51
180.0
  0
ARC
  5
D11
330
1A
100
AcDbEntity
  8
ZUWAKU
100
AcDbCircle
 10
27.50788712774403
 20
12.65523999379235
 30
0.0
 40
0.1828575
100
AcDbArc
 50
0.0
 51
90.0
  0
ARC
  5
D12
330
1A
100
AcDbEntity
  8
ZUWAKU
100
AcDbCircle
 10
26.89836212774406
 20
12.65523999379235
 30
0.0
 40
0.1828575
100
AcDbArc
 50
90.0
 51
180.0
  0
LINE
  5
D13
330
1A
100
AcDbEntity
  8
ZUWAKU
100
AcDbLine
 10
27.50788712774403
 20
12.83809749379253
 30
0.0
 11
26.89836212774406
 21
12.83809749379253
 31
0.0
  0
LINE
  5
D14
330
1A
100
AcDbEntity
  8
ZUWAKU
100
AcDbLine
 10
76.17563336356432
 20
15.18912249379258
 30
0.0
 11
76.17563336356432
 21
5.018762493792621
 31
0.0
  0
LINE
  5
D15
330
1A
100
AcDbEntity
  8
ZUWAKU
100
AcDbLine
 10
76.31495336356454
 20
15.18912249379258
 30
0.0
 11
76.31495336356454
 21
5.018762493792621
 31
0.0
  0
LINE
  5
D16
330
1A
100
AcDbEntity
  8
ZUWAKU
100
AcDbLine
 10
76.24529336356426
 20
15.18912249379258
 30
0.0
 11
76.24529336356426
 21
5.018762493792621
 31
0.0
  0
TEXT
  5
D17
330
1A
100
AcDbEntity
  8
ZUWAKU
100
AcDbText
 10
76.69022746479988
 20
8.103083176112249
 30
0.0
 40
1.3932
  1
サイズ
 41
0.9
  7
MSPｺﾞｼｯｸ
100
AcDbText
  0
TEXT
  5
D18
330
1A
100
AcDbEntity
  8
ZUWAKU
100
AcDbText
 10
76.69022746479988
 20
13.11860317611211
 30
0.0
 40
1.3932
  1
品名
 41
0.9
  7
MSPｺﾞｼｯｸ
100
AcDbText
  0
LINE
  5
D71
330
1A
100
AcDbEntity
  8
ZUWAKU
100
AcDbLine
 10
179.6042163534364
 20
10.03428249379249
 30
0.0
 11
196.0884808275707
 21
10.03428249379249
 31
0.0
  0
LINE
  5
D72
330
1A
100
AcDbEntity
  8
ZUWAKU
100
AcDbLine
 10
179.6042163534364
 20
10.10394249379243
 30
0.0
 11
196.0884808275707
 21
10.10394249379243
 31
0.0
  0
LINE
  5
D73
330
1A
100
AcDbEntity
  8
ZUWAKU
100
AcDbLine
 10
179.6042163534364
 20
10.17360249379265
 30
0.0
 11
196.0884808275707
 21
10.17360249379265
 31
0.0
  0
LINE
  5
D74
330
1A
100
AcDbEntity
  8
ZUWAKU
100
AcDbLine
 10
159.5509081053298
 20
15.18912249379258
 30
0.0
 11
159.5509081053298
 21
5.018762493792621
 31
0.0
  0
LINE
  5
D75
330
1A
100
AcDbEntity
  8
ZUWAKU
100
AcDbLine
 10
159.6205681053302
 20
15.18912249379258
 30
0.0
 11
159.6205681053302
 21
5.018762493792621
 31
0.0
  0
LINE
  5
D76
330
1A
100
AcDbEntity
  8
ZUWAKU
100
AcDbLine
 10
159.4812481053299
 20
15.18912249379258
 30
0.0
 11
159.4812481053299
 21
5.018762493792621
 31
0.0
  0
LINE
  5
D77
330
1A
100
AcDbEntity
  8
ZUWAKU
100
AcDbLine
 10
179.534556353436
 20
15.18912249379258
 30
0.0
 11
179.534556353436
 21
5.018762493792621
 31
0.0
  0
LINE
  5
D78
330
1A
100
AcDbEntity
  8
ZUWAKU
100
AcDbLine
 10
179.6042163534364
 20
15.18912249379258
 30
0.0
 11
179.6042163534364
 21
5.018762493792621
 31
0.0
  0
LINE
  5
D79
330
1A
100
AcDbEntity
  8
ZUWAKU
100
AcDbLine
 10
179.4648963534361
 20
15.18912249379258
 30
0.0
 11
179.4648963534361
 21
5.018762493792621
 31
0.0
  0
TEXT
  5
D7A
330
1A
100
AcDbEntity
  8
ZUWAKU
100
AcDbText
 10
180.1188104546719
 20
8.103083176112249
 30
0.0
 40
1.3932
  1
縮尺
 41
0.9
  7
MSPｺﾞｼｯｸ
100
AcDbText
  0
TEXT
  5
D7B
330
1A
100
AcDbEntity
  8
ZUWAKU
100
AcDbText
 10
164.7995793188467
 20
5.6506033921425
 30
0.0
 40
1.044899999999999
  1
□には色品番が入ります
 41
0.9
  7
MSPｺﾞｼｯｸ
100
AcDbText
  0
TEXT
  5
D7C
330
1A
100
AcDbEntity
  8
ZUWAKU
100
AcDbText
 10
160.1351622065657
 20
13.11860317611211
 30
0.0
 40
1.3932
  1
品番
 41
0.9
  7
MSPｺﾞｼｯｸ
100
AcDbText
  0
TEXT
  5
D7D
330
1A
100
AcDbEntity
  8
ZUWAKU
100
AcDbText
 10
180.1188104546719
 20
13.11860317611211
 30
0.0
 40
1.3932
  1
用紙
 41
0.9
  7
MSPｺﾞｼｯｸ
100
AcDbText
  0
LINE
  5
D7E
330
1A
100
AcDbEntity
  8
ZUWAKU
100
AcDbLine
 10
196.1581408275706
 20
15.18912249379258
 30
0.0
 11
196.1581408275706
 21
5.018762493792621
 31
0.0
  0
LINE
  5
D7F
330
1A
100
AcDbEntity
  8
ZUWAKU
100
AcDbLine
 10
196.2278008275708
 20
15.18912249379258
 30
0.0
 11
196.2278008275708
 21
5.018762493792621
 31
0.0
  0
LINE
  5
D80
330
1A
100
AcDbEntity
  8
ZUWAKU
100
AcDbLine
 10
196.0884808275707
 20
15.18912249379258
 30
0.0
 11
196.0884808275707
 21
5.018762493792621
 31
0.0
  0
TEXT
  5
D81
330
1A
100
AcDbEntity
  8
MOJI
100
AcDbText
 10
187.5599903809904
 20
5.856396498087349
 30
0.0
 40
1.950479999999999
  1
１/１
 41
0.9
  7
MSPｺﾞｼｯｸ
100
AcDbText
  0
TEXT
  5
D82
330
1A
100
AcDbEntity
  8
MOJI
100
AcDbText
 10
187.5599903809904
 20
11.01123649808738
 30
0.0
 40
1.950479999999999
  1
Ａ４
 41
0.9
  7
MSPｺﾞｼｯｸ
100
AcDbText
  0
TEXT
  5
D8E
330
1A
100
AcDbEntity
  8
ZUWAKU
100
AcDbText
 10
250.4236738583923
 20
10.85412473441215
 30
0.0
 40
2.089799999999999
  1
積水化学工業株式会社
 41
0.9
  7
MSPｺﾞｼｯｸ
100
AcDbText
  0
TEXT
  5
D8F
330
1A
100
AcDbEntity
  8
ZUWAKU
100
AcDbText
 10
250.4236738583923
 20
7.055913575107808
 30
0.0
 40
2.089799999999999
  1
建材事業部
 41
0.9
  7
MSPｺﾞｼｯｸ
100
AcDbText
  0
LINE
  5
D90
330
1A
100
AcDbEntity
  8
ZUWAKU
100
AcDbLine
 10
229.5567137685378
 20
15.18912249379258
 30
0.0
 11
229.5567137685381
 21
5.018762493792621
 31
0.0
  0
LINE
  5
D91
330
1A
100
AcDbEntity
  8
ZUWAKU
100
AcDbLine
 10
229.6263737685378
 20
15.18912249379258
 30
0.0
 11
229.626373768538
 21
5.018762493792621
 31
0.0
  0
LINE
  5
D92
330
1A
100
AcDbEntity
  8
ZUWAKU
100
AcDbLine
 10
229.4870537685378
 20
15.18912249379258
 30
0.0
 11
229.4870537685378
 21
5.018762493792621
 31
0.0
  0
LINE
  5
D93
330
1A
100
AcDbEntity
  8
ZUWAKU
100
AcDbLine
 10
246.4951725082907
 20
15.18912249379258
 30
0.0
 11
246.4951725082907
 21
5.018762493792621
 31
0.0
  0
LINE
  5
D94
330
1A
100
AcDbEntity
  8
ZUWAKU
100
AcDbLine
 10
246.5648325082905
 20
15.18912249379258
 30
0.0
 11
246.5648325082905
 21
5.018762493792621
 31
0.0
  0
LINE
  5
D95
330
1A
100
AcDbEntity
  8
ZUWAKU
100
AcDbLine
 10
246.6344925082905
 20
15.18912249379258
 30
0.0
 11
246.6344925082907
 21
5.018762493792621
 31
0.0
  0
LINE
  5
D96
330
1A
100
AcDbEntity
  8
ZUWAKU
100
AcDbLine
 10
246.7041525082904
 20
15.18912249379258
 30
0.0
 11
246.7041525082908
 21
5.018762493792621
 31
0.0
  0
LINE
  5
D97
330
1A
100
AcDbEntity
  8
ZUWAKU
100
AcDbLine
 10
229.6263737685378
 20
10.03428249379249
 30
0.0
 11
246.4951725082907
 21
10.03428249379249
 31
0.0
  0
LINE
  5
D98
330
1A
100
AcDbEntity
  8
ZUWAKU
100
AcDbLine
 10
229.6263737685378
 20
10.10394249379243
 30
0.0
 11
246.4951725082907
 21
10.10394249379243
 31
0.0
  0
LINE
  5
D99
330
1A
100
AcDbEntity
  8
ZUWAKU
100
AcDbLine
 10
229.6263737685378
 20
10.17360249379265
 30
0.0
 11
246.4951725082907
 21
10.17360249379265
 31
0.0
  0
TEXT
  5
D9A
330
1A
100
AcDbEntity
  8
ZUWAKU
100
AcDbText
 10
232.8957736307212
 20
11.01123649808738
 30
0.0
 40
1.950479999999999
  1
　　．　　．　　
 41
0.9
  7
MSPｺﾞｼｯｸ
100
AcDbText
  0
TEXT
  5
D9B
330
1A
100
AcDbEntity
  8
ZUWAKU
100
AcDbText
 10
230.1409678697737
 20
13.11860317611211
 30
0.0
 40
1.3932
  1
DATE
 41
0.9
  7
MSPｺﾞｼｯｸ
100
AcDbText
  0
TEXT
  5
1A04
330
1A
100
AcDbEntity
  8
MOJI
100
AcDbText
 10
36.02054024779318
 20
9.177874836567127
 30
0.0
 40
2.089799999999999
  1
ユニシェイプＵＲＴ６０ＢＬ
 41
0.9
  7
MSPｺﾞｼｯｸ
100
AcDbText
  0
TEXT
  5
1A84
330
1A
100
AcDbEntity
  8
MOJI
100
AcDbText
 10
83.53064042530821
 20
11.55799111119898
 30
0.0
 40
2.089799999999999
  1
バンドレスクリップ
 41
0.9
  7
MSPｺﾞｼｯｸ
100
AcDbText
  0
TEXT
  5
1A85
330
1A
100
AcDbEntity
  8
MOJI
100
AcDbText
 10
83.53064042530821
 20
6.571080727650041
 30
0.0
 40
2.089799999999999
  1
ＵＲＴ６０(打込みＬ９０）
 41
0.9
  7
MSPｺﾞｼｯｸ
100
AcDbText
  0
SPLINE
  5
20F5
330
1A
100
AcDbEntity
  8
SEIHIN
  6
Continuous
100
AcDbSpline
210
0.0
220
0.0
230
1.0
 70
    24
 71
     3
 72
     8
 73
     4
 74
     0
 42
0.0000000001
 43
0.0000000001
 40
0.0124490864345778
 40
0.0124490864345778
 40
0.0124490864345778
 40
0.0124490864345778
 40
0.0134249955515492
 40
0.0134249955515492
 40
0.0134249955515492
 40
0.0134249955515492
 10
57.81608255245714
 20
75.11136040249623
 30
0.0
 10
57.81149380991859
 20
75.11136040249623
 30
0.0
 10
57.80691554726012
 20
75.11136040249623
 30
0.0
 10
57.80234760005236
 20
75.11136040249623
 30
0.0
  0
SPLINE
  5
20F6
330
1A
100
AcDbEntity
  8
SEIHIN
  6
Continuous
100
AcDbSpline
210
0.0
220
0.0
230
1.0
 70
    24
 71
     3
 72
     8
 73
     4
 74
     0
 42
0.0000000001
 43
0.0000000001
 40
0.0144602791187469
 40
0.0144602791187469
 40
0.0144602791187469
 40
0.0144602791187469
 40
0.0154361882655771
 40
0.0154361882655771
 40
0.0154361882655771
 40
0.0154361882655771
 10
63.02596992756821
 20
75.11136040249578
 30
0.0
 10
63.02140198036044
 20
75.11136040249578
 30
0.0
 10
63.01682371770198
 20
75.11136040249578
 30
0.0
 10
63.01223497516343
 20
75.11136040249578
 30
0.0
  0
LINE
  5
20F7
330
1A
100
AcDbEntity
  8
SEIHIN
  6
Continuous
100
AcDbLine
 10
60.41415876381063
 20
75.11136040249606
 30
0.0
 11
75.4141587638112
 21
75.11136040249441
 31
0.0
  0
LINE
  5
20F8
330
1A
100
AcDbEntity
  8
SEIHIN
  6
Continuous
100
AcDbLine
 10
60.41415876381063
 20
62.11136040249555
 30
0.0
 11
75.41415876381063
 21
62.11136040249555
 31
0.0
  0
LINE
  5
20F9
330
1A
100
AcDbEntity
  8
SEIHIN
  6
Continuous
100
AcDbLine
 10
75.41415876380995
 20
71.61136040249532
 30
0.0
 11
65.02393099245603
 21
71.61136040249623
 31
0.0
  0
LINE
  5
20FA
330
1A
100
AcDbEntity
  8
SEIHIN
  6
Continuous
100
AcDbLine
 10
75.41415876380972
 20
65.61136040249464
 30
0.0
 11
65.02393099245705
 21
65.61136040249464
 31
0.0
  0
LINE
  5
20FB
330
1A
100
AcDbEntity
  8
CENTER L
 48
0.2
100
AcDbLine
 10
41.18827962820751
 20
68.61136040249488
 30
0.0
 11
79.64003789941239
 21
68.61136040249464
 31
0.0
  0
LINE
  5
20FC
330
1A
100
AcDbEntity
  8
SEIHIN
  6
Continuous
100
AcDbLine
 10
75.41415876381177
 20
80.11136040249532
 30
0.0
 11
45.41415876381177
 21
80.11136040249828
 31
0.0
  0
LINE
  5
20FD
330
1A
100
AcDbEntity
  8
SEIHIN
  6
Continuous
100
AcDbLine
 10
75.41415876381063
 20
57.11136040249463
 30
0.0
 11
45.41415876381063
 21
57.11136040249464
 31
0.0
  0
LINE
  5
20FE
330
1A
100
AcDbEntity
  8
SEIHIN
  6
Continuous
100
AcDbLine
 10
75.41415876381063
 20
67.61136040249464
 30
0.0
 11
75.41415876380972
 21
65.61136040249464
 31
0.0
  0
LINE
  5
20FF
330
1A
100
AcDbEntity
  8
SEIHIN
  6
Continuous
100
AcDbLine
 10
75.41415876381063
 20
62.11136040249555
 30
0.0
 11
75.41415876381063
 21
60.11136040249464
 31
0.0
  0
LINE
  5
2100
330
1A
100
AcDbEntity
  8
SEIHIN
  6
Continuous
100
AcDbLine
 10
75.41415876381063
 20
60.11136040249464
 30
0.0
 11
75.41415876381063
 21
57.11136040249463
 31
0.0
  0
LINE
  5
2101
330
1A
100
AcDbEntity
  8
SEIHIN
  6
Continuous
100
AcDbLine
 10
75.41415876381063
 20
62.11136040249555
 30
0.0
 11
75.41415876380972
 21
64.61136040249555
 31
0.0
  0
LINE
  5
2102
330
1A
100
AcDbEntity
  8
SEIHIN
  6
Continuous
100
AcDbLine
 10
75.41415876380972
 20
65.61136040249464
 30
0.0
 11
75.41415876380972
 21
64.61136040249555
 31
0.0
  0
LINE
  5
2103
330
1A
100
AcDbEntity
  8
SEIHIN
  6
Continuous
100
AcDbLine
 10
75.41415876381063
 20
80.11136040249555
 30
0.0
 11
75.41415876381063
 21
77.11136040249555
 31
0.0
  0
LINE
  5
2104
330
1A
100
AcDbEntity
  8
SEIHIN
  6
Continuous
100
AcDbLine
 10
75.41415876381143
 20
77.11136040249532
 30
0.0
 11
75.41415876381177
 21
80.11136040249532
 31
0.0
  0
LINE
  5
2105
330
1A
100
AcDbEntity
  8
SEIHIN
  6
Continuous
100
AcDbLine
 10
75.41415876380972
 20
72.61136040249555
 30
0.0
 11
75.41415876381063
 21
75.11136040249555
 31
0.0
  0
LINE
  5
2106
330
1A
100
AcDbEntity
  8
SEIHIN
  6
Continuous
100
AcDbLine
 10
75.4141587638112
 20
75.11136040249441
 30
0.0
 11
75.41415876381006
 21
72.61136040249441
 31
0.0
  0
LINE
  5
2107
330
1A
100
AcDbEntity
  8
SEIHIN
  6
Continuous
100
AcDbLine
 10
75.41415876380972
 20
71.61136040249464
 30
0.0
 11
75.41415876381063
 21
69.61136040249463
 31
0.0
  0
LINE
  5
2108
330
1A
100
AcDbEntity
  8
SEIHIN
  6
Continuous
100
AcDbLine
 10
75.41415876381075
 20
69.61136040249532
 30
0.0
 11
75.41415876380995
 21
71.61136040249532
 31
0.0
  0
LINE
  5
2109
330
1A
100
AcDbEntity
  8
SEIHIN
  6
Continuous
100
AcDbLine
 10
75.41415876381063
 20
67.61136040249464
 30
0.0
 11
75.41415876381063
 21
69.61136040249463
 31
0.0
  0
LINE
  5
210A
330
1A
100
AcDbEntity
  8
SEIHIN
  6
Continuous
100
AcDbLine
 10
75.41415876380972
 20
72.61136040249555
 30
0.0
 11
75.41415876380972
 21
71.61136040249464
 31
0.0
  0
LINE
  5
210B
330
1A
100
AcDbEntity
  8
SEIHIN
  6
Continuous
100
AcDbLine
 10
75.41415876380995
 20
71.61136040249532
 30
0.0
 11
75.41415876381006
 21
72.61136040249441
 31
0.0
  0
LINE
  5
210C
330
1A
100
AcDbEntity
  8
SEIHIN
  6
Continuous
100
AcDbLine
 10
75.41415876381063
 20
77.11136040249555
 30
0.0
 11
75.41415876381063
 21
75.11136040249555
 31
0.0
  0
LINE
  5
210D
330
1A
100
AcDbEntity
  8
SEIHIN
  6
Continuous
100
AcDbLine
 10
75.4141587638112
 20
75.11136040249441
 30
0.0
 11
75.41415876381143
 21
77.11136040249532
 31
0.0
  0
CIRCLE
  5
210E
330
1A
100
AcDbEntity
  8
SEIHIN
  6
Continuous
100
AcDbCircle
 10
60.41415876381063
 20
68.61136040249464
 30
0.0
 40
5.5
  0
LINE
  5
210F
330
1A
100
AcDbEntity
  8
SEIHIN
  6
Continuous
100
AcDbLine
 10
45.41415876381063
 20
67.61136040249465
 30
0.0
 11
45.41415876380972
 21
65.61136040249465
 31
0.0
  0
LINE
  5
2110
330
1A
100
AcDbEntity
  8
CENTER L
 48
0.2
100
AcDbLine
 10
60.41415876381063
 20
85.22505394522992
 30
0.0
 11
60.41415876381063
 21
51.99766685975935
 31
0.0
  0
LINE
  5
2111
330
1A
100
AcDbEntity
  8
SEIHIN
  6
Continuous
100
AcDbLine
 10
45.41415876381063
 20
62.11136040249556
 30
0.0
 11
60.41415876381063
 21
62.11136040249555
 31
0.0
  0
LINE
  5
2112
330
1A
100
AcDbEntity
  8
SEIHIN
  6
Continuous
100
AcDbLine
 10
55.80438653516421
 20
65.61136040249465
 30
0.0
 11
45.41415876380972
 21
65.61136040249465
 31
0.0
  0
LINE
  5
2113
330
1A
100
AcDbEntity
  8
SEIHIN
  6
Continuous
100
AcDbLine
 10
45.41415876381063
 20
60.61136040249555
 30
0.0
 11
45.41415876380972
 21
64.61136040249556
 31
0.0
  0
LINE
  5
2114
330
1A
100
AcDbEntity
  8
SEIHIN
  6
Continuous
100
AcDbLine
 10
45.41415876381063
 20
60.11136040249464
 30
0.0
 11
45.41415876381063
 21
62.11136040249556
 31
0.0
  0
LINE
  5
2115
330
1A
100
AcDbEntity
  8
SEIHIN
  6
Continuous
100
AcDbLine
 10
45.41415876381063
 20
60.11136040249464
 30
0.0
 11
45.41415876381063
 21
57.11136040249464
 31
0.0
  0
LINE
  5
2116
330
1A
100
AcDbEntity
  8
SEIHIN
  6
Continuous
100
AcDbLine
 10
45.41415876380972
 20
65.61136040249465
 30
0.0
 11
45.41415876380972
 21
64.61136040249556
 31
0.0
  0
LINE
  5
2117
330
1A
100
AcDbEntity
  8
SEIHIN
  6
Continuous
100
AcDbLine
 10
45.4141587638112
 20
75.11136040249737
 30
0.0
 11
60.41415876381063
 21
75.111360402496
 31
0.0
  0
LINE
  5
2118
330
1A
100
AcDbEntity
  8
SEIHIN
  6
Continuous
100
AcDbLine
 10
45.41415876381063
 20
80.11136040249555
 30
0.0
 11
45.41415876381063
 21
77.11136040249555
 31
0.0
  0
LINE
  5
2119
330
1A
100
AcDbEntity
  8
SEIHIN
  6
Continuous
100
AcDbLine
 10
45.41415876381143
 20
77.11136040249828
 30
0.0
 11
45.41415876381177
 21
80.11136040249828
 31
0.0
  0
LINE
  5
211A
330
1A
100
AcDbEntity
  8
SEIHIN
  6
Continuous
100
AcDbLine
 10
55.80438653516591
 20
71.61136040249738
 30
0.0
 11
45.41415876380995
 21
71.61136040249829
 31
0.0
  0
LINE
  5
211B
330
1A
100
AcDbEntity
  8
SEIHIN
  6
Continuous
100
AcDbLine
 10
45.41415876380972
 20
72.61136040249555
 30
0.0
 11
45.41415876381063
 21
76.61136040249555
 31
0.0
  0
LINE
  5
211C
330
1A
100
AcDbEntity
  8
SEIHIN
  6
Continuous
100
AcDbLine
 10
45.41415876381143
 20
76.61136040249736
 30
0.0
 11
45.41415876381006
 21
72.61136040249737
 31
0.0
  0
LINE
  5
211D
330
1A
100
AcDbEntity
  8
SEIHIN
  6
Continuous
100
AcDbLine
 10
45.41415876380972
 20
71.61136040249465
 30
0.0
 11
45.41415876381063
 21
69.61136040249465
 31
0.0
  0
LINE
  5
211E
330
1A
100
AcDbEntity
  8
SEIHIN
  6
Continuous
100
AcDbLine
 10
45.41415876381075
 20
69.61136040249829
 30
0.0
 11
45.41415876380995
 21
71.61136040249829
 31
0.0
  0
LINE
  5
211F
330
1A
100
AcDbEntity
  8
SEIHIN
  6
Continuous
100
AcDbLine
 10
45.41415876381063
 20
67.61136040249465
 30
0.0
 11
45.41415876381063
 21
69.61136040249465
 31
0.0
  0
LINE
  5
2120
330
1A
100
AcDbEntity
  8
SEIHIN
  6
Continuous
100
AcDbLine
 10
45.41415876380972
 20
72.61136040249555
 30
0.0
 11
45.41415876380972
 21
71.61136040249465
 31
0.0
  0
LINE
  5
2121
330
1A
100
AcDbEntity
  8
SEIHIN
  6
Continuous
100
AcDbLine
 10
45.41415876380995
 20
71.61136040249829
 30
0.0
 11
45.41415876381006
 21
72.61136040249737
 31
0.0
  0
LINE
  5
2122
330
1A
100
AcDbEntity
  8
SEIHIN
  6
Continuous
100
AcDbLine
 10
45.41415876381063
 20
75.11136040249555
 30
0.0
 11
45.41415876381063
 21
77.11136040249555
 31
0.0
  0
LINE
  5
2123
330
1A
100
AcDbEntity
  8
SEIHIN
  6
Continuous
100
AcDbLine
 10
45.41415876381143
 20
77.11136040249828
 30
0.0
 11
45.4141587638112
 21
75.11136040249737
 31
0.0
  0
CIRCLE
  5
22C6
330
1A
100
AcDbEntity
  8
SEIHIN
  6
Continuous
100
AcDbCircle
 10
60.41415876381063
 20
68.61136040249464
 30
0.0
 40
5.0
  0
DIMENSION
  5
2793
330
1A
100
AcDbEntity
  8
SUNPOU
100
AcDbDimension
  2
*D3
 10
129.4365910561198
 20
105.6953761796714
 30
0.0
 11
171.6862680561182
 21
108.6953761796714
 31
0.0
 70
    32
 71
     5
 42
84.49935399999686
  3
STANDARD
100
AcDbAlignedDimension
 13
213.9359450561166
 23
68.6732238817088
 33
0.0
 14
129.4365910561198
 24
80.15120776880531
 34
0.0
100
AcDbRotatedDimension
  0
DIMENSION
  5
27A0
330
1A
100
AcDbEntity
  8
SUNPOU
100
AcDbDimension
  2
*D4
 10
112.4607785104123
 20
105.6953761796714
 30
0.0
 11
120.948684783266
 21
108.6953761796714
 31
0.0
 70
    32
 71
     5
 42
16.97581254570748
  3
STANDARD
100
AcDbAlignedDimension
 13
129.4365910561198
 23
80.15120776880531
 33
0.0
 14
112.4607785104123
 24
77.17322388170868
 34
0.0
100
AcDbRotatedDimension
1001
ACAD
1000
DSTYLE
1002
{
1070
   287
1070
     4
1070
   287
1070
     4
1070
   279
1070
     1
1002
}
  0
DIMENSION
  5
27C0
330
1A
100
AcDbEntity
  8
SUNPOU
100
AcDbDimension
  2
*D5
 10
143.9360437574153
 20
95.71631526353689
 30
0.0
 11
136.6863174067675
 21
98.7163152635369
 31
0.0
 70
    32
 71
     5
 42
-1.0
  3
STANDARD
100
AcDbAlignedDimension
 13
129.4365910561198
 23
80.17322388170857
 33
0.0
 14
143.9360437574153
 24
70.40114023608085
 34
0.0
100
AcDbRotatedDimension
  0
DIMENSION
  5
27CD
330
1A
100
AcDbEntity
  8
SUNPOU
100
AcDbDimension
  2
*D6
 10
153.9360437574112
 20
95.71631526353689
 30
0.0
 11
148.9360437574132
 21
98.7163152635369
 31
0.0
 70
    32
 71
     5
 42
-1.0
  3
STANDARD
100
AcDbAlignedDimension
 13
143.9360437574153
 23
70.40114023608085
 33
0.0
 14
153.9360437574112
 24
70.40113738663426
 34
0.0
100
AcDbRotatedDimension
1001
ACAD
1000
DSTYLE
1002
{
1070
   287
1070
     4
1070
   287
1070
     4
1070
   279
1070
     1
1002
}
  0
DIMENSION
  5
27DA
330
1A
100
AcDbEntity
  8
SUNPOU
100
AcDbDimension
  2
*D7
 10
163.9360437574153
 20
95.71631526353689
 30
0.0
 11
158.9360437574132
 21
98.7163152635369
 31
0.0
 70
    32
 71
     5
 42
-1.0
  3
STANDARD
100
AcDbAlignedDimension
 13
153.9360437574112
 23
70.40113738663426
 33
0.0
 14
163.9360437574153
 24
70.40114023608085
 34
0.0
100
AcDbRotatedDimension
1001
ACAD
1000
DSTYLE
1002
{
1070
   287
1070
     4
1070
   287
1070
     4
1070
   279
1070
     1
1002
}
  0
DIMENSION
  5
2817
330
1A
100
AcDbEntity
  8
SUNPOU
100
AcDbDimension
  2
*D8
 10
112.4607785104122
 20
115.9848415007404
 30
0.0
 11
163.1983617832645
 21
118.9848415007404
 31
0.0
 70
    32
 71
     5
 42
101.4751665457043
  3
STANDARD
100
AcDbAlignedDimension
 13
213.9359450561166
 23
68.6732238817088
 33
0.0
 14
112.4607785104122
 24
77.17322388170868
 34
0.0
100
AcDbRotatedDimension
  0
DIMENSION
  5
2824
330
1A
100
AcDbEntity
  8
SUNPOU
100
AcDbDimension
  2
*D9
 10
96.75116139312649
 20
57.17322388171607
 30
0.0
 11
93.75116139312646
 21
68.6732238817161
 31
0.0
 70
    32
 71
     5
 42
23.0
  3
STANDARD
100
AcDbAlignedDimension
 13
115.4607785104196
 23
80.17322388171606
 33
0.0
 14
115.4607785104196
 24
57.17322388171607
 34
0.0
 50
90.0
100
AcDbRotatedDimension
  0
DIMENSION
  5
2831
330
1A
100
AcDbEntity
  8
SUNPOU
100
AcDbDimension
  2
*D10
 10
96.75116139311922
 20
139.0256810145906
 30
0.0
 11
93.7511613931192
 21
154.0256810145906
 31
0.0
 70
    32
 71
     5
 42
29.99999999999988
  3
STANDARD
100
AcDbAlignedDimension
 13
112.4849659647123
 23
169.0256810145904
 33
0.0
 14
112.4849659647209
 24
139.0256810145906
 34
0.0
 50
90.0
100
AcDbRotatedDimension
  0
TEXT
  5
2A87
330
1A
100
AcDbEntity
  8
MOJI
100
AcDbText
 10
163.4155632245493
 20
9.420578154807913
 30
0.0
 40
1.950479999999999
  1
ＬＮ５５□
 41
0.9
  7
MSPｺﾞｼｯｸ
100
AcDbText
  0
MTEXT
  5
2A89
330
1A
100
AcDbEntity
  8
0
100
AcDbMText
 10
-37.21354681227103
 20
197.3088933836187
 30
0.0
 40
1.767676767676767
 41
1.237373737373737
 71
     1
 72
     1
  1
５
 73
     1
 44
1.0
  0
LINE
  5
2CD5
330
1A
100
AcDbEntity
  8
CENTER L
  6
CENTER
100
AcDbLine
 10
112.4607785104124
 20
154.025676706041
 30
0.0
 11
216.1086552667841
 21
154.0257579547808
 31
0.0
  0
LINE
  5
2CD6
330
1A
100
AcDbEntity
  8
0
  6
SLD-実線
 62
     3
100
AcDbLine
 10
203.9359450561164
 20
156.2756767060414
 30
0.0
 11
164.9360450561164
 21
156.2756767060413
 31
0.0
  0
LINE
  5
2CD7
330
1A
100
AcDbEntity
  8
0
  6
SLD-実線
 62
     3
100
AcDbLine
 10
164.9360450561164
 20
151.7756767060413
 30
0.0
 11
203.9359450561162
 21
151.7756767060415
 31
0.0
  0
LINE
  5
2CD9
330
1A
100
AcDbEntity
  8
0
  6
SLD-実線
 62
     3
100
AcDbLine
 10
112.4607785104124
 20
169.0256767060411
 30
0.0
 11
112.4607785104124
 21
139.025676706041
 31
0.0
  0
LINE
  5
2CDA
330
1A
100
AcDbEntity
  8
0
  6
SLD-実線
 62
     3
100
AcDbLine
 10
115.4607785104196
 20
169.0256767060411
 30
0.0
 11
115.4607785104196
 21
139.025676706041
 31
0.0
  0
LINE
  5
2CDB
330
1A
100
AcDbEntity
  8
0
  6
SLD-実線
 62
     3
100
AcDbLine
 10
129.4365910561198
 20
169.0256767060412
 30
0.0
 11
129.4365910561198
 21
139.0256767060411
 31
0.0
  0
LINE
  5
2CDC
330
1A
100
AcDbEntity
  8
CENTER L
  6
CENTER
100
AcDbLine
 10
120.9365910561196
 20
133.7457271797911
 30
0.0
 11
120.9365910561207
 21
172.0256767060411
 31
0.0
  0
LINE
  5
2CDD
330
1A
100
AcDbEntity
  8
0
  6
SLD-実線
 62
     3
100
AcDbLine
 10
118.4365910561198
 20
139.0256767060412
 30
0.0
 11
115.2607785104198
 21
139.0256767060412
 31
0.0
  0
LINE
  5
2CDE
330
1A
100
AcDbEntity
  8
0
  6
SLD-実線
 62
     3
100
AcDbLine
 10
115.4607785104196
 20
139.025676706041
 30
0.0
 11
129.4365910561198
 21
139.0256767060411
 31
0.0
  0
LINE
  5
2CDF
330
1A
100
AcDbEntity
  8
0
  6
SLD-実線
 62
     3
100
AcDbLine
 10
112.4607785104124
 20
139.025676706041
 30
0.0
 11
115.4607785104196
 21
139.025676706041
 31
0.0
  0
LINE
  5
2CE0
330
1A
100
AcDbEntity
  8
0
  6
SLD-実線
 62
     3
100
AcDbLine
 10
112.460778510421
 20
139.0256767060412
 30
0.0
 11
114.4607785103919
 21
139.0256767060412
 31
0.0
  0
LINE
  5
2CE1
330
1A
100
AcDbEntity
  8
0
  6
SLD-実線
 62
     3
100
AcDbLine
 10
115.4365910561011
 20
139.0256767060412
 30
0.0
 11
114.4607785103919
 21
139.0256767060412
 31
0.0
  0
LINE
  5
2CE2
330
1A
100
AcDbEntity
  8
0
  6
SLD-実線
 62
     3
100
AcDbLine
 10
115.4365910561198
 20
139.0256767060411
 30
0.0
 11
115.026517867587
 21
139.0256767060411
 31
0.0
  0
LINE
  5
2CE3
330
1A
100
AcDbEntity
  8
0
  6
SLD-実線
 62
     3
100
AcDbLine
 10
118.4365910561198
 20
139.0256767060412
 30
0.0
 11
122.4365910561198
 21
139.0256767060412
 31
0.0
  0
LINE
  5
2CE4
330
1A
100
AcDbEntity
  8
0
  6
SLD-実線
 62
     3
100
AcDbLine
 10
119.9365910561198
 20
139.0256767060411
 30
0.0
 11
121.9365910561198
 21
139.0256767060411
 31
0.0
  0
LINE
  5
2CE5
330
1A
100
AcDbEntity
  8
0
  6
SLD-実線
 62
     3
100
AcDbLine
 10
129.4365910561198
 20
151.7756767060412
 30
0.0
 11
142.9360450561164
 21
151.7756767060413
 31
0.0
  0
LINE
  5
2CE6
330
1A
100
AcDbEntity
  8
0
  6
SLD-実線
 62
     3
100
AcDbLine
 10
142.9360450561164
 20
156.2756767060412
 30
0.0
 11
129.4365910561198
 21
156.2756767060412
 31
0.0
  0
LINE
  5
2CE7
330
1A
100
AcDbEntity
  8
0
  6
SLD-実線
 62
     3
100
AcDbLine
 10
118.4365910561193
 20
169.0256767060413
 30
0.0
 11
115.2607785104194
 21
169.0256767060413
 31
0.0
  0
LINE
  5
2CE8
330
1A
100
AcDbEntity
  8
0
  6
SLD-実線
 62
     3
100
AcDbLine
 10
115.4607785104196
 20
169.0256767060411
 30
0.0
 11
129.4365910561198
 21
169.0256767060412
 31
0.0
  0
LINE
  5
2CE9
330
1A
100
AcDbEntity
  8
0
  6
SLD-実線
 62
     3
100
AcDbLine
 10
112.4607785104124
 20
169.0256767060411
 30
0.0
 11
115.4607785104196
 21
169.0256767060411
 31
0.0
  0
LINE
  5
2CEA
330
1A
100
AcDbEntity
  8
0
  6
SLD-実線
 62
     3
100
AcDbLine
 10
112.460778510421
 20
169.0256767060412
 30
0.0
 11
114.4607785103919
 21
169.0256767060412
 31
0.0
  0
LINE
  5
2CEB
330
1A
100
AcDbEntity
  8
0
  6
SLD-実線
 62
     3
100
AcDbLine
 10
115.4365910561011
 20
169.0256767060412
 30
0.0
 11
114.4607785103919
 21
169.0256767060412
 31
0.0
  0
LINE
  5
2CEC
330
1A
100
AcDbEntity
  8
0
  6
SLD-実線
 62
     3
100
AcDbLine
 10
115.4365910561193
 20
169.0256767060411
 30
0.0
 11
115.026517867587
 21
169.0256767060411
 31
0.0
  0
LINE
  5
2CED
330
1A
100
AcDbEntity
  8
0
  6
SLD-実線
 62
     3
100
AcDbLine
 10
118.4365910561193
 20
169.0256767060413
 30
0.0
 11
122.4365910561198
 21
169.0256767060412
 31
0.0
  0
LINE
  5
2CEE
330
1A
100
AcDbEntity
  8
0
  6
SLD-実線
 62
     3
100
AcDbLine
 10
119.9365910561198
 20
169.0256767060412
 30
0.0
 11
121.9365910561198
 21
169.0256767060412
 31
0.0
  0
ARC
  5
2CEF
330
1A
100
AcDbEntity
  8
0
  6
SLD-実線
 62
     3
100
AcDbCircle
 10
153.9360470041645
 20
151.0257470882083
 30
0.0
 40
1.25000000000824
100
AcDbArc
 50
36.87004646630809
 51
143.1302511741276
  0
ARC
  5
2CF0
330
1A
100
AcDbEntity
  8
0
  6
SLD-実線
 62
     3
100
AcDbCircle
 10
153.9360470041645
 20
157.0256063238743
 30
0.0
 40
1.250000000008286
100
AcDbArc
 50
216.8697488258932
 51
323.1299535336919
  0
LINE
  5
2CF1
330
1A
100
AcDbEntity
  8
0
  6
SLD-実線
 62
     3
100
AcDbLine
 10
142.9360450561164
 20
156.2756767060412
 30
0.0
 11
142.9360450561164
 21
151.7756767060413
 31
0.0
  0
LINE
  5
2CF2
330
1A
100
AcDbEntity
  8
0
  6
SLD-実線
 62
     3
100
AcDbLine
 10
144.9360450561164
 20
151.7757468361712
 30
0.0
 11
144.9360450561164
 21
154.0256767060412
 31
0.0
  0
LINE
  5
2CF3
330
1A
100
AcDbEntity
  8
0
  6
SLD-実線
 62
     3
100
AcDbLine
 10
152.9360450561123
 20
151.7757444908124
 30
0.0
 11
152.9360450561128
 21
154.0256767060412
 31
0.0
  0
LINE
  5
2CF4
330
1A
100
AcDbEntity
  8
0
  6
SLD-実線
 62
     3
100
AcDbLine
 10
144.9360450561164
 20
151.7757468361712
 30
0.0
 11
152.9360450561123
 21
151.7757444908124
 31
0.0
  0
ARC
  5
2CF5
330
1A
100
AcDbEntity
  8
0
  6
SLD-実線
 62
     3
100
AcDbCircle
 10
143.9360470041686
 20
151.0257442387618
 30
0.0
 40
1.250000000008332
100
AcDbArc
 50
36.87004646630809
 51
143.1302511741067
  0
LINE
  5
2CF6
330
1A
100
AcDbEntity
  8
0
  6
SLD-実線
 62
     3
100
AcDbLine
 10
152.9360450561123
 20
156.2756089212701
 30
0.0
 11
144.9360450561164
 21
156.2756065759113
 31
0.0
  0
ARC
  5
2CF7
330
1A
100
AcDbEntity
  8
0
  6
SLD-実線
 62
     3
100
AcDbCircle
 10
143.9360470041686
 20
157.0256091733208
 30
0.0
 40
1.250000000008332
100
AcDbArc
 50
216.8697488258932
 51
323.1299535336919
  0
LINE
  5
2CF8
330
1A
100
AcDbEntity
  8
0
  6
SLD-実線
 62
     3
100
AcDbLine
 10
144.9360450561164
 20
154.0256767060412
 30
0.0
 11
144.9360450561164
 21
156.2756065759115
 31
0.0
  0
LINE
  5
2CF9
330
1A
100
AcDbEntity
  8
0
  6
SLD-実線
 62
     3
100
AcDbLine
 10
152.9360450561128
 20
154.0256767060412
 30
0.0
 11
152.9360450561123
 21
156.2756089212701
 31
0.0
  0
ARC
  5
2CFA
330
1A
100
AcDbEntity
  8
0
  6
SLD-実線
 62
     3
100
AcDbCircle
 10
163.9360470041685
 20
151.0257442387619
 30
0.0
 40
1.250000000008263
100
AcDbArc
 50
36.87004646628724
 51
143.1302511741276
  0
ARC
  5
2CFB
330
1A
100
AcDbEntity
  8
0
  6
SLD-実線
 62
     3
100
AcDbCircle
 10
163.9360470041685
 20
157.0256091733209
 30
0.0
 40
1.250000000008332
100
AcDbArc
 50
216.8697488258932
 51
323.1299535336919
  0
LINE
  5
2CFC
330
1A
100
AcDbEntity
  8
0
  6
SLD-実線
 62
     3
100
AcDbLine
 10
154.9360450561123
 20
151.7757496856178
 30
0.0
 11
154.9360450561123
 21
154.0256767060412
 31
0.0
  0
LINE
  5
2CFD
330
1A
100
AcDbEntity
  8
0
  6
SLD-実線
 62
     3
100
AcDbLine
 10
162.9360450561164
 20
151.775741641366
 30
0.0
 11
162.9360450561164
 21
154.0256767060412
 31
0.0
  0
LINE
  5
2CFE
330
1A
100
AcDbEntity
  8
0
  6
SLD-実線
 62
     3
100
AcDbLine
 10
154.9360450561123
 20
151.7757496856178
 30
0.0
 11
162.9360450561164
 21
151.775741641366
 31
0.0
  0
LINE
  5
2CFF
330
1A
100
AcDbEntity
  8
0
  6
SLD-実線
 62
     3
100
AcDbLine
 10
162.9360450561164
 20
156.2756117707167
 30
0.0
 11
154.9360450561123
 21
156.2756037264649
 31
0.0
  0
LINE
  5
2D00
330
1A
100
AcDbEntity
  8
0
  6
SLD-実線
 62
     3
100
AcDbLine
 10
154.9360450561123
 20
154.0256767060412
 30
0.0
 11
154.9360450561123
 21
156.2756037264649
 31
0.0
  0
LINE
  5
2D01
330
1A
100
AcDbEntity
  8
0
  6
SLD-実線
 62
     3
100
AcDbLine
 10
162.9360450561164
 20
154.0256767060412
 30
0.0
 11
162.9360450561164
 21
156.2756117707167
 31
0.0
  0
LINE
  5
2D02
330
1A
100
AcDbEntity
  8
0
  6
SLD-実線
 62
     3
100
AcDbLine
 10
164.9360450561164
 20
151.7756767060413
 30
0.0
 11
164.9360450561164
 21
154.0256767060413
 31
0.0
  0
LINE
  5
2D03
330
1A
100
AcDbEntity
  8
0
  6
SLD-実線
 62
     3
100
AcDbLine
 10
164.9360450561164
 20
154.0256767060413
 30
0.0
 11
164.9360450561164
 21
156.2756767060413
 31
0.0
  0
DIMENSION
  5
2D04
330
1A
100
AcDbEntity
  8
SUNPOU
100
AcDbDimension
  2
*D30
 10
226.868568801384
 20
66.42322388170912
 30
0.0
 11
224.368568801384
 21
54.92322388170916
 31
0.0
 70
    32
  1
φ<>
 71
     5
 42
4.499999999999886
  3
STANDARD
100
AcDbAlignedDimension
 13
203.9359450561166
 23
70.92322388170902
 33
0.0
 14
203.9359450561166
 24
66.42322388170914
 34
0.0
 50
90.0
100
AcDbRotatedDimension
1001
ACAD
1000
DSTYLE
1002
{
1070
    41
1040
3.0
1070
    42
1040
3.0
1070
    43
1040
7.0
1070
    44
1040
1.5
1070
    73
1070
     0
1070
    74
1070
     0
1070
    77
1070
     3
1070
   140
1040
3.0
1070
   141
1040
15.0
1070
   147
1040
1.0
1070
   172
1070
     1
1070
   176
1070
     4
1070
   177
1070
     4
1070
   178
1070
     4
1070
   271
1070
     1
1070
   272
1070
     0
1070
   341
1005
2329
1070
   342
1005
2329
1002
}
  0
LINE
  5
2D05
330
1A
100
AcDbEntity
  8
0
  6
SLD-実線
 62
     3
100
AcDbLine
 10
213.9359450561166
 20
154.0257697131606
 30
0.0
 11
206.8648167098624
 21
152.4347000687257
 31
0.0
  0
LINE
  5
2D06
330
1A
100
AcDbEntity
  8
0
  6
SLD-実線
 62
     3
100
AcDbLine
 10
213.9359450561166
 20
154.0257697131606
 30
0.0
 11
206.8649377816602
 21
155.6166805845117
 31
0.0
  0
LWPOLYLINE
  5
2D07
330
1A
100
AcDbEntity
  8
0
  6
SLD-実線
 62
     3
100
AcDbPolyline
 90
       10
 70
     0
 43
0.0
 10
206.8649377816602
 20
155.6166805845117
 10
205.7444737185903
 20
155.3162394668762
 10
204.8729033671381
 20
154.9765852527914
 10
204.2767089514093
 20
154.6080381636835
 10
203.9740055370441
 20
154.2217963163663
 10
203.9739906141178
 20
153.8295954739281
 10
204.2766646360553
 20
153.4433524605084
 10
204.872831005857
 20
153.074803074627
 10
205.7443755100418
 20
152.7351455028837
 10
206.8648167098624
 20
152.4347000687257
  0
LINE
  5
2D08
330
1A
100
AcDbEntity
  8
0
  6
SLD-実線
 62
     3
100
AcDbLine
 10
206.8648167098624
 20
152.4347000687258
 30
0.0
 11
203.9359450561166
 21
151.7756767060415
 31
0.0
  0
LINE
  5
2D09
330
1A
100
AcDbEntity
  8
0
  6
SLD-実線
 62
     3
100
AcDbLine
 10
203.9359450561162
 20
156.2756767060414
 30
0.0
 11
206.8649377816602
 21
155.6166805845117
 31
0.0
  0
LINE
  5
2D39
330
1A
100
AcDbEntity
  8
中心線
  6
CENTER
100
AcDbLine
 10
119.9365910561198
 20
68.67322388170868
 30
0.0
 11
216.1086552667841
 21
68.67322388170878
 31
0.0
  0
LINE
  5
2D3C
330
1A
100
AcDbEntity
  8
0
  6
SLD-実線
 62
     3
100
AcDbLine
 10
142.9360450561164
 20
70.92322388170879
 30
0.0
 11
129.4365910561198
 21
70.92322388170879
 31
0.0
  0
LINE
  5
2D3D
330
1A
100
AcDbEntity
  8
0
  6
SLD-実線
 62
     3
100
AcDbLine
 10
129.4365910561198
 20
66.42322388170867
 30
0.0
 11
142.9360450561164
 21
66.42322388170867
 31
0.0
  0
LINE
  5
2D3E
330
1A
100
AcDbEntity
  8
0
  6
SLD-実線
 62
     3
100
AcDbLine
 10
129.4365910561198
 20
80.17322388170857
 30
0.0
 11
129.4365910561198
 21
57.17322388170959
 31
0.0
  0
ARC
  5
2D3F
330
1A
100
AcDbEntity
  8
0
  6
SLD-実線
 62
     3
100
AcDbCircle
 10
115.460778510421
 20
60.17322388170947
 30
0.0
 40
3.0
100
AcDbArc
 50
180.0
 51
270.0
  0
LINE
  5
2D40
330
1A
100
AcDbEntity
  8
0
  6
SLD-実線
 62
     3
100
AcDbLine
 10
129.4365910561198
 20
57.17322388170959
 30
0.0
 11
115.460778510421
 21
57.17322388170959
 31
0.0
  0
LINE
  5
2D41
330
1A
100
AcDbEntity
  8
0
  6
SLD-実線
 62
     3
100
AcDbLine
 10
115.4365910561198
 20
75.67322388170868
 30
0.0
 11
115.026517867587
 21
76.18581536744199
 31
0.0
  0
ARC
  5
2D42
330
1A
100
AcDbEntity
  8
0
  6
SLD-実線
 62
     3
100
AcDbCircle
 10
118.4365910561198
 20
72.67322388170879
 30
0.0
 40
4.0
100
AcDbArc
 50
0.0
 51
90.0
  0
ARC
  5
2D43
330
1A
100
AcDbEntity
  8
0
  6
SLD-実線
 62
     3
100
AcDbCircle
 10
114.4607785104055
 20
77.17322388170742
 30
0.0
 40
2.000000000000909
100
AcDbArc
 50
179.9999999999609
 51
270.0
  0
LINE
  5
2D44
330
1A
100
AcDbEntity
  8
0
  6
SLD-実線
 62
     3
100
AcDbLine
 10
118.4365910561198
 20
60.67322388170879
 30
0.0
 11
115.2607785104198
 21
60.67322388170879
 31
0.0
  0
ARC
  5
2D45
330
1A
100
AcDbEntity
  8
0
  6
SLD-実線
 62
     3
100
AcDbCircle
 10
114.4607785103919
 20
60.17322388171106
 30
0.0
 40
2.00000000000125
100
AcDbArc
 50
90.0
 51
180.0000000000455
  0
LINE
  5
2D46
330
1A
100
AcDbEntity
  8
0
  6
SLD-実線
 62
     3
100
AcDbLine
 10
115.0265178675706
 20
61.16063239595956
 30
0.0
 11
115.4365910561207
 21
61.67322388170948
 31
0.0
  0
LINE
  5
2D47
330
1A
100
AcDbEntity
  8
0
  6
SLD-実線
 62
     3
100
AcDbLine
 10
115.4365910561011
 20
62.17322388171232
 30
0.0
 11
114.4607785103919
 21
62.17322388171232
 31
0.0
  0
ARC
  5
2D48
330
1A
100
AcDbEntity
  8
0
  6
SLD-実線
 62
     3
100
AcDbCircle
 10
115.2607785104198
 20
60.97322388171045
 30
0.0
 40
0.3000000000017187
100
AcDbArc
 50
141.3401917503757
 51
270.0
  0
LINE
  5
2D49
330
1A
100
AcDbEntity
  8
0
  6
SLD-実線
 62
     3
100
AcDbLine
 10
115.4365910561207
 20
61.67322388170948
 30
0.0
 11
115.4365910561011
 21
62.17322388171232
 31
0.0
  0
LINE
  5
2D4A
330
1A
100
AcDbEntity
  8
0
  6
SLD-実線
 62
     3
100
AcDbLine
 10
114.460778510406
 20
75.17322388170652
 30
0.0
 11
115.4365910561075
 21
75.17322388170652
 31
0.0
  0
LINE
  5
2D4B
330
1A
100
AcDbEntity
  8
0
  6
SLD-実線
 62
     3
100
AcDbLine
 10
115.4365910561075
 20
75.17322388170652
 30
0.0
 11
115.4365910561198
 21
75.67322388170868
 31
0.0
  0
LINE
  5
2D4C
330
1A
100
AcDbEntity
  8
0
  6
SLD-実線
 62
     3
100
AcDbLine
 10
119.9365910561198
 20
67.67322388170867
 30
0.0
 11
119.9365910561198
 21
69.67322388170868
 31
0.0
  0
LINE
  5
2D4D
330
1A
100
AcDbEntity
  8
0
  6
SLD-実線
 62
     3
100
AcDbLine
 10
119.9365910561198
 20
63.17322388170868
 30
0.0
 11
119.9365910561198
 21
67.67322388170867
 31
0.0
  0
ARC
  5
2D4E
330
1A
100
AcDbEntity
  8
0
  6
SLD-実線
 62
     3
100
AcDbCircle
 10
118.4365910561198
 20
64.67322388170879
 30
0.0
 40
4.0
100
AcDbArc
 50
270.0
 51
0.0
  0
LINE
  5
2D4F
330
1A
100
AcDbEntity
  8
0
  6
SLD-実線
 62
     3
100
AcDbLine
 10
119.9365910561198
 20
63.17322388170868
 30
0.0
 11
122.1446902996674
 21
63.17322388170868
 31
0.0
  0
ARC
  5
2D50
330
1A
100
AcDbEntity
  8
0
  6
SLD-実線
 62
     3
100
AcDbCircle
 10
121.9365910561198
 20
67.67322388170867
 30
0.0
 40
2.0
100
AcDbArc
 50
180.0
 51
270.0
  0
LINE
  5
2D51
330
1A
100
AcDbEntity
  8
0
  6
SLD-実線
 62
     3
100
AcDbLine
 10
121.9365910561198
 20
65.67322388170868
 30
0.0
 11
122.4365910561198
 21
65.67322388170868
 31
0.0
  0
LINE
  5
2D52
330
1A
100
AcDbEntity
  8
0
  6
SLD-実線
 62
     3
100
AcDbLine
 10
122.4365910561198
 20
65.67322388170868
 30
0.0
 11
122.4365910561198
 21
64.67322388170879
 31
0.0
  0
ARC
  5
2D53
330
1A
100
AcDbEntity
  8
0
  6
SLD-実線
 62
     3
100
AcDbCircle
 10
121.9365910561198
 20
72.17322388170856
 30
0.0
 40
0.4999999999998864
100
AcDbArc
 50
270.0
 51
0.0
  0
LINE
  5
2D54
330
1A
100
AcDbEntity
  8
0
  6
SLD-実線
 62
     3
100
AcDbLine
 10
119.9365910561198
 20
69.67322388170868
 30
0.0
 11
119.9365910561198
 21
74.17322388170879
 31
0.0
  0
ARC
  5
2D55
330
1A
100
AcDbEntity
  8
0
  6
SLD-実線
 62
     3
100
AcDbCircle
 10
121.9365910561198
 20
69.67322388170868
 30
0.0
 40
2.0
100
AcDbArc
 50
90.0
 51
180.0
  0
LINE
  5
2D56
330
1A
100
AcDbEntity
  8
0
  6
SLD-実線
 62
     3
100
AcDbLine
 10
122.1446902996674
 20
74.17322388170879
 30
0.0
 11
119.9365910561198
 21
74.17322388170879
 31
0.0
  0
LINE
  5
2D57
330
1A
100
AcDbEntity
  8
0
  6
SLD-実線
 62
     3
100
AcDbLine
 10
122.4365910561198
 20
72.67322388170879
 30
0.0
 11
122.4365910561198
 21
72.17322388170856
 31
0.0
  0
LINE
  5
2D58
330
1A
100
AcDbEntity
  8
0
  6
SLD-実線
 62
     3
100
AcDbLine
 10
115.2607785104198
 20
76.67322388170868
 30
0.0
 11
118.4365910561193
 21
76.67322388170879
 31
0.0
  0
LINE
  5
2D59
330
1A
100
AcDbEntity
  8
0
  6
SLD-実線
 62
     3
100
AcDbLine
 10
115.4607785104196
 20
80.17322388170857
 30
0.0
 11
129.4365910561198
 21
80.17322388170857
 31
0.0
  0
ARC
  5
2D5A
330
1A
100
AcDbEntity
  8
0
  6
SLD-実線
 62
     3
100
AcDbCircle
 10
115.4607785104196
 20
77.17322388170868
 30
0.0
 40
3.000000000007389
100
AcDbArc
 50
90.0
 51
180.0
  0
ARC
  5
2D5B
330
1A
100
AcDbEntity
  8
0
  6
SLD-実線
 62
     3
100
AcDbCircle
 10
115.2607785104198
 20
76.37322388170861
 30
0.0
 40
0.3000000000000682
100
AcDbArc
 50
90.0
 51
218.6598082541704
  0
ARC
  5
2D5C
330
1A
100
AcDbEntity
  8
0
  6
SLD-実線
 62
     3
100
AcDbCircle
 10
153.9360470041645
 20
65.6732942638759
 30
0.0
 40
1.25000000000824
100
AcDbArc
 50
36.87004646630809
 51
143.1302511741276
  0
ARC
  5
2D5D
330
1A
100
AcDbEntity
  8
0
  6
SLD-実線
 62
     3
100
AcDbCircle
 10
153.9360470041645
 20
71.67315349954169
 30
0.0
 40
1.250000000008377
100
AcDbArc
 50
216.8697488258932
 51
323.1299535336919
  0
LINE
  5
2D5E
330
1A
100
AcDbEntity
  8
0
  6
SLD-実線
 62
     3
100
AcDbLine
 10
144.9360450561164
 20
66.42329401183855
 30
0.0
 11
144.9360450561164
 21
70.92315375157892
 31
0.0
  0
LINE
  5
2D5F
330
1A
100
AcDbEntity
  8
0
  6
SLD-実線
 62
     3
100
AcDbLine
 10
142.9360450561164
 20
70.92322388170879
 30
0.0
 11
142.9360450561164
 21
66.42322388170867
 31
0.0
  0
LINE
  5
2D60
330
1A
100
AcDbEntity
  8
0
  6
SLD-実線
 62
     3
100
AcDbLine
 10
152.9360450561123
 20
66.42329166647988
 30
0.0
 11
152.9360450561123
 21
70.92315609693748
 31
0.0
  0
LINE
  5
2D61
330
1A
100
AcDbEntity
  8
0
  6
SLD-実線
 62
     3
100
AcDbLine
 10
144.9360450561164
 20
66.42329401183855
 30
0.0
 11
152.9360450561123
 21
66.42329166647988
 31
0.0
  0
ARC
  5
2D62
330
1A
100
AcDbEntity
  8
0
  6
SLD-実線
 62
     3
100
AcDbCircle
 10
143.9360470041686
 20
65.67329141442923
 30
0.0
 40
1.250000000008309
100
AcDbArc
 50
36.87004646628724
 51
143.1302511741276
  0
LINE
  5
2D63
330
1A
100
AcDbEntity
  8
0
  6
SLD-実線
 62
     3
100
AcDbLine
 10
152.9360450561123
 20
70.92315609693748
 30
0.0
 11
144.9360450561164
 21
70.92315375157892
 31
0.0
  0
ARC
  5
2D64
330
1A
100
AcDbEntity
  8
0
  6
SLD-実線
 62
     3
100
AcDbCircle
 10
143.9360470041686
 20
71.67315634898812
 30
0.0
 40
1.25000000000824
100
AcDbArc
 50
216.8697488258723
 51
323.1299535337127
  0
ARC
  5
2D65
330
1A
100
AcDbEntity
  8
0
  6
SLD-実線
 62
     3
100
AcDbCircle
 10
163.9360470041685
 20
65.67329141442923
 30
0.0
 40
1.250000000008309
100
AcDbArc
 50
36.87004646628724
 51
143.1302511741276
  0
ARC
  5
2D66
330
1A
100
AcDbEntity
  8
0
  6
SLD-実線
 62
     3
100
AcDbCircle
 10
163.9360470041685
 20
71.67315634898812
 30
0.0
 40
1.25000000000824
100
AcDbArc
 50
216.8697488258723
 51
323.1299535337127
  0
LINE
  5
2D67
330
1A
100
AcDbEntity
  8
0
  6
SLD-実線
 62
     3
100
AcDbLine
 10
154.9360450561123
 20
66.42329686128533
 30
0.0
 11
154.9360450561123
 21
70.92315090213225
 31
0.0
  0
LINE
  5
2D68
330
1A
100
AcDbEntity
  8
0
  6
SLD-実線
 62
     3
100
AcDbLine
 10
162.9360450561164
 20
66.42328881703332
 30
0.0
 11
162.9360450561164
 21
70.92315894638415
 31
0.0
  0
LINE
  5
2D69
330
1A
100
AcDbEntity
  8
0
  6
SLD-実線
 62
     3
100
AcDbLine
 10
154.9360450561123
 20
66.42329686128533
 30
0.0
 11
162.9360450561164
 21
66.42328881703332
 31
0.0
  0
LINE
  5
2D6A
330
1A
100
AcDbEntity
  8
0
  6
SLD-実線
 62
     3
100
AcDbLine
 10
162.9360450561164
 20
70.92315894638415
 30
0.0
 11
154.9360450561123
 21
70.92315090213225
 31
0.0
  0
LINE
  5
2D6B
330
1A
100
AcDbEntity
  8
0
  6
SLD-実線
 62
     3
100
AcDbLine
 10
164.9360450561164
 20
66.42322388170867
 30
0.0
 11
164.9360450561164
 21
70.92322388170879
 31
0.0
  0
LINE
  5
2D6C
330
1A
100
AcDbEntity
  8
0
  6
SLD-実線
 62
     3
100
AcDbLine
 10
213.9359450561166
 20
68.6732238817088
 30
0.0
 11
206.8648167098624
 21
70.26422775961595
 31
0.0
  0
LINE
  5
2D6D
330
1A
100
AcDbEntity
  8
0
  6
SLD-実線
 62
     3
100
AcDbLine
 10
213.9359450561166
 20
68.6732238817088
 30
0.0
 11
206.8648167098624
 21
67.08222000380152
 31
0.0
  0
LWPOLYLINE
  5
2D6E
330
1A
100
AcDbEntity
  8
0
  6
SLD-実線
 62
     3
100
AcDbPolyline
 90
       10
 70
     0
 43
0.0
 10
206.8648167098624
 20
70.26422775961595
 10
205.744388050133
 20
69.96378313564623
 10
204.872848557484
 20
69.62412466911832
 10
204.2766800942115
 20
69.25557293507705
 10
203.97399733129
 20
68.86932643496965
 10
203.97399733129
 20
68.47712132844771
 10
204.2766800942115
 20
68.09087482834041
 10
204.8728485574836
 20
67.72232309429893
 10
205.7443880501325
 20
67.38266462777113
 10
206.8648167098619
 20
67.08222000380152
  0
LINE
  5
2D6F
330
1A
100
AcDbEntity
  8
0
  6
SLD-実線
 62
     3
100
AcDbLine
 10
206.8648167098624
 20
67.08222000380152
 30
0.0
 11
203.9359450561166
 21
66.42322388170867
 31
0.0
  0
LINE
  5
2D70
330
1A
100
AcDbEntity
  8
0
  6
SLD-実線
 62
     3
100
AcDbLine
 10
203.9359450561162
 20
70.92322388170879
 30
0.0
 11
206.8648167098624
 21
70.26422775961584
 31
0.0
  0
LINE
  5
2DC3
330
1A
100
AcDbEntity
  8
0
  6
SLD-実線
 62
     3
100
AcDbLine
 10
203.9359450561167
 20
70.92315375157906
 30
0.0
 11
164.9360450561167
 21
70.92315375157898
 31
0.0
  0
LINE
  5
2DC4
330
1A
100
AcDbEntity
  8
0
  6
SLD-実線
 62
     3
100
AcDbLine
 10
164.9360450561167
 20
66.42315375157898
 30
0.0
 11
203.9359450561165
 21
66.42315375157912
 31
0.0
  0
VIEWPORT
  5
22
330
17
100
AcDbEntity
 67
     1
  8
0
100
AcDbViewport
 10
313.6808219178082
 20
148.5
 30
0.0
 40
627.3616438356165
 41
297.0
 68
     2
 69
     1
 12
313.6808219178082
 22
148.5
 13
0.0
 23
0.0
 14
1.0
 24
1.0
 15
10.0
 25
10.0
 16
0.0
 26
0.0
 36
1.0
 17
0.0
 27
0.0
 37
0.0
 42
50.0
 43
0.0
 44
0.0
 45
297.0
 50
0.0
 51
0.0
 72
   100
 90
    32768
  1

281
     0
 71
     1
 74
     0
110
0.0
120
0.0
130
0.0
111
1.0
121
0.0
131
0.0
112
0.0
122
1.0
132
0.0
 79
     0
146
0.0
  0
VIEWPORT
  5
64
330
17
100
AcDbEntity
 67
     1
  8
VIEWPORT
100
AcDbViewport
 10
210.0
 20
148.5
 30
0.0
 40
420.0
 41
297.0
 68
     1
 69
     2
 12
148.5
 22
105.0
 13
0.0
 23
0.0
 14
4.0
 24
4.0
 15
0.0
 25
0.0
 16
0.0
 26
0.0
 36
1.0
 17
0.0
 27
0.0
 37
0.0
 42
50.0
 43
0.0
 44
0.0
 45
214.1999999999999
 50
0.0
 51
0.0
 72
   100
 90
    32768
  1

281
     0
 71
     1
 74
     0
110
0.0
120
0.0
130
0.0
111
1.0
121
0.0
131
0.0
112
0.0
122
1.0
132
0.0
 79
     0
146
0.0
  0
ENDSEC
  0
SECTION
  2
OBJECTS
  0
DICTIONARY
  5
C
330
0
100
AcDbDictionary
281
     1
  3
ACAD_GROUP
350
D
  3
ACAD_LAYOUT
350
116
  3
ACAD_MLINESTYLE
350
E
  3
ACAD_PLOTSETTINGS
350
117
  3
ACAD_PLOTSTYLENAME
350
114
  3
AcDbVariableDictionary
350
1B94
  0
DICTIONARY
  5
2326
330
2
100
AcDbDictionary
280
     1
281
     1
  3
ACAD_LAYERFILTERS
360
2327
  0
DICTIONARY
  5
1325
330
1A
100
AcDbDictionary
280
     1
281
     1
  3
ACAD_LAYOUTSELFREF
360
2A29
  0
DICTIONARY
  5
1323
330
17
100
AcDbDictionary
280
     1
281
     1
  3
ACAD_LAYOUTSELFREF
360
2A28
  0
DICTIONARY
  5
D
102
{ACAD_REACTORS
330
C
102
}
330
C
100
AcDbDictionary
281
     1
  0
DICTIONARY
  5
116
102
{ACAD_REACTORS
330
C
102
}
330
C
100
AcDbDictionary
281
     1
  3
Model
350
118
  3
ﾚｲｱｳﾄ1
350
119
  0
DICTIONARY
  5
E
102
{ACAD_REACTORS
330
C
102
}
330
C
100
AcDbDictionary
281
     1
  3
STANDARD
350
13
  0
DICTIONARY
  5
117
102
{ACAD_REACTORS
330
C
102
}
330
C
100
AcDbDictionary
281
     1
  0
ACDBDICTIONARYWDFLT
  5
114
102
{ACAD_REACTORS
330
C
102
}
330
C
100
AcDbDictionary
281
     1
  3
Normal
350
115
100
AcDbDictionaryWithDefault
340
115
1001
ACAD
1000
TREAT_AS_HARD
1070
     0
1000
TREAT_AS_HARD
1070
     0
1000
TREAT_AS_HARD
1070
     0
1000
TREAT_AS_HARD
1070
     0
1000
TREAT_AS_HARD
1070
     0
1000
TREAT_AS_HARD
1070
     0
1000
TREAT_AS_HARD
1070
     0
1000
TREAT_AS_HARD
1070
     0
1000
TREAT_AS_HARD
1070
     0
1000
TREAT_AS_HARD
1070
     0
  0
DICTIONARY
  5
1B94
102
{ACAD_REACTORS
330
C
102
}
330
C
100
AcDbDictionary
281
     1
  3
SORTENTS
350
1B95
  0
DICTIONARY
  5
2327
102
{ACAD_REACTORS
330
2326
102
}
330
2326
100
AcDbDictionary
280
     1
281
     1
  3
50
360
2328
  0
XRECORD
  5
2A29
102
{ACAD_REACTORS
330
1325
102
}
330
1325
100
AcDbXrecord
280
     1
340
1A
  0
XRECORD
  5
2A28
102
{ACAD_REACTORS
330
1323
102
}
330
1323
100
AcDbXrecord
280
     1
340
17
  0
LAYOUT
  5
118
102
{ACAD_REACTORS
330
116
102
}
330
116
100
AcDbPlotSettings
  1

  2
C:\PROGRAM FILES\ACAD LT 2000\plotters\DWF ePlot.pc3
  4
ANSI_A_(8.50_x_11.00_Inches)
  6

 40
5.793749809265136
 41
17.79375076293945
 42
5.793746948242187
 43
17.79376220703125
 44
215.8999938964843
 45
279.3999938964843
 46
0.0
 47
0.0
 48
0.0
 49
0.0
140
0.0
141
0.0
142
1.0
143
1.0
 70
 11952
 72
     1
 73
     1
 74
     0
  7
print.ctb
 75
     0
147
1.0
148
-42.69745222929936
149
0.8025477707006416
100
AcDbLayout
  1
Model
 70
     1
 71
     0
 10
0.0
 20
0.0
 11
12.0
 21
9.0
 12
0.0
 22
0.0
 32
0.0
 14
0.0
 24
0.0
 34
0.0
 15
0.0
 25
0.0
 35
0.0
146
0.0
 13
0.0
 23
0.0
 33
0.0
 16
1.0
 26
0.0
 36
0.0
 17
0.0
 27
1.0
 37
0.0
 76
     0
330
1A
  0
LAYOUT
  5
119
102
{ACAD_REACTORS
330
116
102
}
330
116
100
AcDbPlotSettings
  1

  2
C:\PROGRAM FILES\ACAD LT 2000\plotters\DWF ePlot.pc3
  4

  6

 40
0.0
 41
0.0
 42
0.0
 43
0.0
 44
0.0
 45
0.0
 46
0.0
 47
0.0
 48
0.0
 49
0.0
140
0.0
141
0.0
142
1.0
143
1.0
 70
   688
 72
     0
 73
     0
 74
     5
  7
print.ctb
 75
    16
147
1.0
148
0.0
149
0.0
100
AcDbLayout
  1
ﾚｲｱｳﾄ1
 70
     1
 71
     1
 10
0.0
 20
0.0
 11
420.0
 21
297.0
 12
0.0
 22
0.0
 32
0.0
 14
0.0
 24
0.0
 34
0.0
 15
420.0
 25
297.0
 35
0.0
146
0.0
 13
0.0
 23
0.0
 33
0.0
 16
1.0
 26
0.0
 36
0.0
 17
0.0
 27
1.0
 37
0.0
 76
     0
330
17
331
64
  0
MLINESTYLE
  5
13
102
{ACAD_REACTORS
330
E
102
}
330
E
100
AcDbMlineStyle
  2
STANDARD
 70
     0
  3

 62
     0
 51
90.0
 52
90.0
 71
     2
 49
0.5
 62
   256
  6
BYLAYER
 49
-0.5
 62
   256
  6
BYLAYER
  0
ACDBPLACEHOLDER
  5
115
102
{ACAD_REACTORS
330
114
102
}
330
114
  0
DICTIONARYVAR
  5
1B95
102
{ACAD_REACTORS
330
1B94
102
}
330
1B94
100
DictionaryVariables
280
     0
  1
96
  0
XRECORD
  5
2328
102
{ACAD_REACTORS
330
2327
102
}
330
2327
100
AcDbXrecord
280
     1
  1
50
  1
*-50
  1
*
  1
*
 70
     0
  1
*
  1
*
  0
ENDSEC
  0
EOF
