  0
SECTION
  2
HEADER
  9
$ACADVER
  1
AC1015
  9
$ACADMAINTVER
 70
    20
  9
$DWGCODEPAGE
  3
ANSI_932
  9
$INSBASE
 10
0.0
 20
0.0
 30
0.0
  9
$EXTMIN
 10
0.0000002112909669
 20
0.0000003333167342
 30
0.0
  9
$EXTMAX
 10
398.8000002112912
 20
275.8000003333168
 30
0.0
  9
$LIMMIN
 10
0.0
 20
0.0
  9
$LIMMAX
 10
420.0
 20
297.0
  9
$ORTHOMODE
 70
     1
  9
$REGENMODE
 70
     1
  9
$FILLMODE
 70
     1
  9
$QTEXTMODE
 70
     0
  9
$MIRRTEXT
 70
     1
  9
$LTSCALE
 40
1.0
  9
$ATTMODE
 70
     1
  9
$TEXTSIZE
 40
2.5
  9
$TRACEWID
 40
1.0
  9
$TEXTSTYLE
  7
STANDARD
  9
$CLAYER
  8
0
  9
$CELTYPE
  6
BYLAYER
  9
$CECOLOR
 62
   256
  9
$CELTSCALE
 40
1.0
  9
$DISPSILH
 70
     0
  9
$DIMSCALE
 40
1.0
  9
$DIMASZ
 40
3.0
  9
$DIMEXO
 40
1.5
  9
$DIMDLI
 40
9.0
  9
$DIMRND
 40
0.0
  9
$DIMDLE
 40
0.0
  9
$DIMEXE
 40
1.5
  9
$DIMTP
 40
0.0
  9
$DIMTM
 40
0.0
  9
$DIMTXT
 40
4.0
  9
$DIMCEN
 40
0.0
  9
$DIMTSZ
 40
0.0
  9
$DIMTOL
 70
     0
  9
$DIMLIM
 70
     0
  9
$DIMTIH
 70
     0
  9
$DIMTOH
 70
     0
  9
$DIMSE1
 70
     0
  9
$DIMSE2
 70
     0
  9
$DIMTAD
 70
     3
  9
$DIMZIN
 70
     0
  9
$DIMBLK
  1
OPEN
  9
$DIMASO
 70
     1
  9
$DIMSHO
 70
     1
  9
$DIMPOST
  1

  9
$DIMAPOST
  1

  9
$DIMALT
 70
     0
  9
$DIMALTD
 70
     2
  9
$DIMALTF
 40
25.4
  9
$DIMLFAC
 40
1.0
  9
$DIMTOFL
 70
     0
  9
$DIMTVP
 40
0.0
  9
$DIMTIX
 70
     0
  9
$DIMSOXD
 70
     0
  9
$DIMSAH
 70
     0
  9
$DIMBLK1
  1

  9
$DIMBLK2
  1

  9
$DIMSTYLE
  2
STANDARD
  9
$DIMCLRD
 70
   256
  9
$DIMCLRE
 70
   256
  9
$DIMCLRT
 70
   256
  9
$DIMTFAC
 40
1.0
  9
$DIMGAP
 40
2.0
  9
$DIMJUST
 70
     0
  9
$DIMSD1
 70
     0
  9
$DIMSD2
 70
     0
  9
$DIMTOLJ
 70
     1
  9
$DIMTZIN
 70
     0
  9
$DIMALTZ
 70
     0
  9
$DIMALTTZ
 70
     0
  9
$DIMUPT
 70
     0
  9
$DIMDEC
 70
     0
  9
$DIMTDEC
 70
     0
  9
$DIMALTU
 70
     2
  9
$DIMALTTD
 70
     2
  9
$DIMTXSTY
  7
STANDARD
  9
$DIMAUNIT
 70
     0
  9
$DIMADEC
 70
     0
  9
$DIMALTRND
 40
0.0
  9
$DIMAZIN
 70
     0
  9
$DIMDSEP
 70
    46
  9
$DIMATFIT
 70
     3
  9
$DIMFRAC
 70
     0
  9
$DIMLDRBLK
  1
OPEN
  9
$DIMLUNIT
 70
     2
  9
$DIMLWD
 70
    -1
  9
$DIMLWE
 70
    -1
  9
$DIMTMOVE
 70
     0
  9
$LUNITS
 70
     2
  9
$LUPREC
 70
     4
  9
$SKETCHINC
 40
1.0
  9
$FILLETRAD
 40
10.0
  9
$AUNITS
 70
     0
  9
$AUPREC
 70
     0
  9
$MENU
  1
.
  9
$ELEVATION
 40
0.0
  9
$PELEVATION
 40
0.0
  9
$THICKNESS
 40
0.0
  9
$LIMCHECK
 70
     0
  9
$CHAMFERA
 40
10.0
  9
$CHAMFERB
 40
10.0
  9
$CHAMFERC
 40
20.0
  9
$CHAMFERD
 40
0.0
  9
$SKPOLY
 70
     0
  9
$TDCREATE
 40
2451070.734084838
  9
$TDUCREATE
 40
2451070.359084838
  9
$TDUPDATE
 40
2456904.602316354
  9
$TDUUPDATE
 40
2456904.227316354
  9
$TDINDWG
 40
0.2420738426
  9
$TDUSRTIMER
 40
0.2420738426
  9
$USRTIMER
 70
     1
  9
$ANGBASE
 50
0.0
  9
$ANGDIR
 70
     0
  9
$PDMODE
 70
     0
  9
$PDSIZE
 40
0.0
  9
$PLINEWID
 40
0.0
  9
$SPLFRAME
 70
     0
  9
$SPLINETYPE
 70
     6
  9
$SPLINESEGS
 70
     8
  9
$HANDSEED
  5
794A
  9
$SURFTAB1
 70
     6
  9
$SURFTAB2
 70
     6
  9
$SURFTYPE
 70
     6
  9
$SURFU
 70
     6
  9
$SURFV
 70
     6
  9
$UCSBASE
  2

  9
$UCSNAME
  2

  9
$UCSORG
 10
0.0
 20
0.0
 30
0.0
  9
$UCSXDIR
 10
1.0
 20
0.0
 30
0.0
  9
$UCSYDIR
 10
0.0
 20
1.0
 30
0.0
  9
$UCSORTHOREF
  2

  9
$UCSORTHOVIEW
 70
     0
  9
$UCSORGTOP
 10
0.0
 20
0.0
 30
0.0
  9
$UCSORGBOTTOM
 10
0.0
 20
0.0
 30
0.0
  9
$UCSORGLEFT
 10
0.0
 20
0.0
 30
0.0
  9
$UCSORGRIGHT
 10
0.0
 20
0.0
 30
0.0
  9
$UCSORGFRONT
 10
0.0
 20
0.0
 30
0.0
  9
$UCSORGBACK
 10
0.0
 20
0.0
 30
0.0
  9
$PUCSBASE
  2

  9
$PUCSNAME
  2

  9
$PUCSORG
 10
0.0
 20
0.0
 30
0.0
  9
$PUCSXDIR
 10
1.0
 20
0.0
 30
0.0
  9
$PUCSYDIR
 10
0.0
 20
1.0
 30
0.0
  9
$PUCSORTHOREF
  2

  9
$PUCSORTHOVIEW
 70
     0
  9
$PUCSORGTOP
 10
0.0
 20
0.0
 30
0.0
  9
$PUCSORGBOTTOM
 10
0.0
 20
0.0
 30
0.0
  9
$PUCSORGLEFT
 10
0.0
 20
0.0
 30
0.0
  9
$PUCSORGRIGHT
 10
0.0
 20
0.0
 30
0.0
  9
$PUCSORGFRONT
 10
0.0
 20
0.0
 30
0.0
  9
$PUCSORGBACK
 10
0.0
 20
0.0
 30
0.0
  9
$USERI1
 70
     0
  9
$USERI2
 70
     0
  9
$USERI3
 70
     0
  9
$USERI4
 70
     0
  9
$USERI5
 70
     0
  9
$USERR1
 40
0.0
  9
$USERR2
 40
0.0
  9
$USERR3
 40
0.0
  9
$USERR4
 40
0.0
  9
$USERR5
 40
0.0
  9
$WORLDVIEW
 70
     1
  9
$SHADEDGE
 70
     3
  9
$SHADEDIF
 70
    70
  9
$TILEMODE
 70
     1
  9
$MAXACTVP
 70
    16
  9
$PINSBASE
 10
0.0
 20
0.0
 30
0.0
  9
$PLIMCHECK
 70
     0
  9
$PEXTMIN
 10
0.0
 20
0.0
 30
0.0
  9
$PEXTMAX
 10
420.0
 20
297.0
 30
0.0
  9
$PLIMMIN
 10
0.0
 20
0.0
  9
$PLIMMAX
 10
420.0
 20
297.0
  9
$UNITMODE
 70
     0
  9
$VISRETAIN
 70
     0
  9
$PLINEGEN
 70
     0
  9
$PSLTSCALE
 70
     1
  9
$TREEDEPTH
 70
  3020
  9
$CMLSTYLE
  2
STANDARD
  9
$CMLJUST
 70
     0
  9
$CMLSCALE
 40
1.0
  9
$PROXYGRAPHICS
 70
     1
  9
$MEASUREMENT
 70
     1
  9
$CELWEIGHT
370
    -1
  9
$ENDCAPS
280
     0
  9
$JOINSTYLE
280
     0
  9
$LWDISPLAY
290
     0
  9
$INSUNITS
 70
     0
  9
$HYPERLINKBASE
  1

  9
$STYLESHEET
  1
print.ctb
  9
$XEDIT
290
     1
  9
$CEPSNTYPE
380
     0
  9
$PSTYLEMODE
290
     1
  9
$FINGERPRINTGUID
  2
{4A04D815-524B-4F14-9288-52D70850DB50}
  9
$VERSIONGUID
  2
{F035DA4B-D126-46EC-9977-3AD8889A063F}
  9
$EXTNAMES
290
     1
  9
$PSVPSCALE
 40
0.0
  9
$OLESTARTUP
290
     0
  0
ENDSEC
  0
SECTION
  2
CLASSES
  0
CLASS
  1
ACDBDICTIONARYWDFLT
  2
AcDbDictionaryWithDefault
  3
ObjectDBX Classes
 90
        0
280
     0
281
     0
  0
CLASS
  1
ACDBPLACEHOLDER
  2
AcDbPlaceHolder
  3
ObjectDBX Classes
 90
        0
280
     0
281
     0
  0
CLASS
  1
LAYOUT
  2
AcDbLayout
  3
ObjectDBX Classes
 90
        0
280
     0
281
     0
  0
CLASS
  1
DICTIONARYVAR
  2
AcDbDictionaryVar
  3
ObjectDBX Classes
 90
        0
280
     0
281
     0
  0
ENDSEC
  0
SECTION
  2
TABLES
  0
TABLE
  2
VPORT
  5
8
330
0
100
AcDbSymbolTable
 70
     2
  0
VPORT
  5
793E
330
8
100
AcDbSymbolTableRecord
100
AcDbViewportTableRecord
  2
*Active
 70
     0
 10
0.0
 20
0.0
 11
1.0
 21
1.0
 12
249.2959114164249
 22
138.9706767237585
 13
0.0
 23
0.0
 14
5.0
 24
5.0
 15
0.0
 25
0.0
 16
0.0
 26
0.0
 36
1.0
 17
0.0
 27
0.0
 37
0.0
 40
327.2140031365826
 41
2.011264080100125
 42
50.0
 43
0.0
 44
0.0
 50
0.0
 51
0.0
 71
     0
 72
   100
 73
     1
 74
     0
 75
     0
 76
     0
 77
     0
 78
     0
281
     0
 65
     1
110
0.0
120
0.0
130
0.0
111
1.0
121
0.0
131
0.0
112
0.0
122
1.0
132
0.0
 79
     0
146
0.0
  0
ENDTAB
  0
TABLE
  2
LTYPE
  5
5
330
0
100
AcDbSymbolTable
 70
     2
  0
LTYPE
  5
14
330
5
100
AcDbSymbolTableRecord
100
AcDbLinetypeTableRecord
  2
BYBLOCK
 70
     0
  3

 72
    65
 73
     0
 40
0.0
  0
LTYPE
  5
15
330
5
100
AcDbSymbolTableRecord
100
AcDbLinetypeTableRecord
  2
BYLAYER
 70
     0
  3

 72
    65
 73
     0
 40
0.0
  0
LTYPE
  5
16
330
5
100
AcDbSymbolTableRecord
100
AcDbLinetypeTableRecord
  2
CONTINUOUS
 70
     0
  3
Solid line
 72
    65
 73
     0
 40
0.0
  0
LTYPE
  5
120
330
5
100
AcDbSymbolTableRecord
100
AcDbLinetypeTableRecord
  2
CENTER
 70
     0
  3
____ _ ____ _ ____ _ ____ _ ____ _ ____ _ ____ 
 72
    65
 73
     4
 40
2.0
 49
1.25
 74
     0
 49
-0.25
 74
     0
 49
0.25
 74
     0
 49
-0.25
 74
     0
  0
ENDTAB
  0
TABLE
  2
LAYER
  5
2
330
0
100
AcDbSymbolTable
 70
     9
  0
LAYER
  5
F
330
2
100
AcDbSymbolTableRecord
100
AcDbLayerTableRecord
  2
0
 70
     0
 62
     7
  6
CONTINUOUS
370
    -3
390
3BB
  0
LAYER
  5
62
330
2
100
AcDbSymbolTableRecord
100
AcDbLayerTableRecord
  2
VIEWPORT
 70
     0
 62
     7
  6
CONTINUOUS
370
    -3
390
3BB
  0
LAYER
  5
6B
330
2
100
AcDbSymbolTableRecord
100
AcDbLayerTableRecord
  2
ZUWAKU
 70
     0
 62
     7
  6
CONTINUOUS
370
    -3
390
3BB
  0
LAYER
  5
134
330
2
100
AcDbSymbolTableRecord
100
AcDbLayerTableRecord
  2
SUNPOU
 70
     0
 62
     4
  6
CONTINUOUS
370
    -3
390
3BB
  0
LAYER
  5
135
330
2
100
AcDbSymbolTableRecord
100
AcDbLayerTableRecord
  2
CENTER L
 70
     0
 62
     1
  6
CENTER
370
    -3
390
3BB
  0
LAYER
  5
2FF
330
2
100
AcDbSymbolTableRecord
100
AcDbLayerTableRecord
  2
DEFPOINTS
 70
     0
 62
     7
  6
CONTINUOUS
290
     0
370
    -3
390
3BB
  0
LAYER
  5
42D
330
2
100
AcDbSymbolTableRecord
100
AcDbLayerTableRecord
  2
moji
 70
     0
 62
     2
  6
CONTINUOUS
370
    -3
390
3BB
  0
LAYER
  5
4CBA
330
2
100
AcDbSymbolTableRecord
100
AcDbLayerTableRecord
  2
金具部
 70
     0
 62
     3
  6
CONTINUOUS
370
    -3
390
3BB
  0
LAYER
  5
4CBB
330
2
100
AcDbSymbolTableRecord
100
AcDbLayerTableRecord
  2
ﾃﾞﾝﾃﾞﾝ部
 70
     0
 62
     3
  6
CONTINUOUS
370
    -3
390
3BB
  0
ENDTAB
  0
TABLE
  2
STYLE
  5
3
330
0
100
AcDbSymbolTable
 70
     2
  0
STYLE
  5
10
330
3
100
AcDbSymbolTableRecord
100
AcDbTextStyleTableRecord
  2
STANDARD
 70
     0
 40
0.0
 41
1.0
 50
0.0
 71
     0
 42
2.5
  3
TXT
  4
bigfont.shx
  0
STYLE
  5
42E
330
3
100
AcDbSymbolTableRecord
100
AcDbTextStyleTableRecord
  2
ｽﾀｲﾙ1
 70
     0
 40
0.0
 41
1.0
 50
0.0
 71
     0
 42
2.5
  3

  4

1001
ACAD
1000
MS PGothic
1071
    32818
  0
ENDTAB
  0
TABLE
  2
VIEW
  5
6
330
0
100
AcDbSymbolTable
 70
     0
  0
ENDTAB
  0
TABLE
  2
UCS
  5
7
330
0
100
AcDbSymbolTable
 70
     0
  0
ENDTAB
  0
TABLE
  2
APPID
  5
9
330
0
100
AcDbSymbolTable
 70
     1
  0
APPID
  5
11
330
9
100
AcDbSymbolTableRecord
100
AcDbRegAppTableRecord
  2
ACAD
 70
     0
  0
ENDTAB
  0
TABLE
  2
DIMSTYLE
  5
A
330
0
100
AcDbSymbolTable
 70
     1
100
AcDbDimStyleTable
 71
     0
  0
DIMSTYLE
105
1D
102
{ACAD_REACTORS
330
60AD
330
5FFA
330
5FFB
330
5FFC
330
5FF9
330
6070
330
606F
330
6A46
330
6059
330
7642
330
7675
102
}
330
A
100
AcDbSymbolTableRecord
100
AcDbDimStyleTableRecord
  2
STANDARD
 70
     0
 41
3.0
 42
1.5
 43
9.0
 44
1.5
 73
     0
 74
     0
 77
     3
140
4.0
141
0.0
147
2.0
176
   256
177
   256
178
   256
271
     0
272
     0
340
10
341
B2
342
B2
371
    -1
372
    -1
  0
ENDTAB
  0
TABLE
  2
BLOCK_RECORD
  5
1
330
0
100
AcDbSymbolTable
 70
    13
  0
BLOCK_RECORD
  5
1A
102
{ACAD_XDICTIONARY
360
3EB
102
}
330
1
100
AcDbSymbolTableRecord
100
AcDbBlockTableRecord
  2
*MODEL_SPACE
340
3BE
  0
BLOCK_RECORD
  5
17
102
{ACAD_XDICTIONARY
360
3E9
102
}
330
1
100
AcDbSymbolTableRecord
100
AcDbBlockTableRecord
  2
*PAPER_SPACE
340
3BF
  0
BLOCK_RECORD
  5
B2
330
1
100
AcDbSymbolTableRecord
100
AcDbBlockTableRecord
  2
_OPEN
340
0
102
{BLKREFS
331
78A0
331
78A1
331
78B3
331
78B4
331
78AA
331
78AB
331
78BD
331
78BE
331
7875
331
7876
331
785E
331
785F
331
7855
331
7856
331
78C6
331
78C7
331
786C
331
786D
331
791D
331
791E
331
7925
331
7926
102
}
  0
BLOCK_RECORD
  5
37B6
330
1
100
AcDbSymbolTableRecord
100
AcDbBlockTableRecord
  2
*X1
340
0
102
{BLKREFS
331
3B34
102
}
  0
BLOCK_RECORD
  5
5FFD
330
1
100
AcDbSymbolTableRecord
100
AcDbBlockTableRecord
  2
*D2
340
0
  0
BLOCK_RECORD
  5
6009
330
1
100
AcDbSymbolTableRecord
100
AcDbBlockTableRecord
  2
*D3
340
0
  0
BLOCK_RECORD
  5
6015
330
1
100
AcDbSymbolTableRecord
100
AcDbBlockTableRecord
  2
*D4
340
0
  0
BLOCK_RECORD
  5
6023
330
1
100
AcDbSymbolTableRecord
100
AcDbBlockTableRecord
  2
*D5
340
0
  0
BLOCK_RECORD
  5
605A
330
1
100
AcDbSymbolTableRecord
100
AcDbBlockTableRecord
  2
*D6
340
0
  0
BLOCK_RECORD
  5
6071
330
1
100
AcDbSymbolTableRecord
100
AcDbBlockTableRecord
  2
*D7
340
0
  0
BLOCK_RECORD
  5
607D
330
1
100
AcDbSymbolTableRecord
100
AcDbBlockTableRecord
  2
*D8
340
0
  0
BLOCK_RECORD
  5
60AE
330
1
100
AcDbSymbolTableRecord
100
AcDbBlockTableRecord
  2
*D9
340
0
  0
BLOCK_RECORD
  5
6A47
330
1
100
AcDbSymbolTableRecord
100
AcDbBlockTableRecord
  2
*D10
340
0
  0
BLOCK_RECORD
  5
7643
330
1
100
AcDbSymbolTableRecord
100
AcDbBlockTableRecord
  2
*D11
340
0
  0
BLOCK_RECORD
  5
7676
330
1
100
AcDbSymbolTableRecord
100
AcDbBlockTableRecord
  2
*D12
340
0
  0
ENDTAB
  0
ENDSEC
  0
SECTION
  2
BLOCKS
  0
BLOCK
  5
1B
330
1A
100
AcDbEntity
  8
0
100
AcDbBlockBegin
  2
*MODEL_SPACE
 70
     0
 10
0.0
 20
0.0
 30
0.0
  3
*MODEL_SPACE
  1

  0
ENDBLK
  5
1C
330
1A
100
AcDbEntity
  8
0
100
AcDbBlockEnd
  0
BLOCK
  5
18
330
17
100
AcDbEntity
 67
     1
  8
0
100
AcDbBlockBegin
  2
*PAPER_SPACE
 70
     0
 10
0.0
 20
0.0
 30
0.0
  3
*PAPER_SPACE
  1

  0
ENDBLK
  5
19
330
17
100
AcDbEntity
 67
     1
  8
0
100
AcDbBlockEnd
  0
BLOCK
  5
B3
330
B2
100
AcDbEntity
  8
0
100
AcDbBlockBegin
  2
_OPEN
 70
     0
 10
0.0
 20
0.0
 30
0.0
  3
_OPEN
  1

  0
LINE
  5
B4
330
B2
100
AcDbEntity
  8
0
  6
ByBlock
 62
     0
100
AcDbLine
 10
-1.0
 20
0.1666666666666666
 30
0.0
 11
0.0
 21
0.0
 31
0.0
  0
LINE
  5
B5
330
B2
100
AcDbEntity
  8
0
  6
ByBlock
 62
     0
100
AcDbLine
 10
0.0
 20
0.0
 30
0.0
 11
-1.0
 21
-0.1666666666666666
 31
0.0
  0
LINE
  5
B6
330
B2
100
AcDbEntity
  8
0
  6
ByBlock
 62
     0
100
AcDbLine
 10
0.0
 20
0.0
 30
0.0
 11
-1.0
 21
0.0
 31
0.0
  0
ENDBLK
  5
B7
330
B2
100
AcDbEntity
  8
0
100
AcDbBlockEnd
  0
BLOCK
  5
394A
330
37B6
100
AcDbEntity
  8
0
100
AcDbBlockBegin
  2
*X1
 70
     1
 10
0.0
 20
0.0
 30
0.0
  3
*X1
  1

  0
LINE
  5
37B7
330
37B6
100
AcDbEntity
  8
0
 62
     0
100
AcDbLine
 10
34.52110582087761
 20
11.30208487459222
 30
0.0
 11
34.19819035602015
 21
11.62500033944971
 31
0.0
  0
LINE
  5
37B8
330
37B6
100
AcDbEntity
  8
0
 62
     0
100
AcDbLine
 10
34.52110582087761
 20
10.85307206853878
 30
0.0
 11
33.74917754996668
 21
11.62500033944971
 31
0.0
  0
LINE
  5
37B9
330
37B6
100
AcDbEntity
  8
0
 62
     0
100
AcDbLine
 10
34.52110582087758
 20
10.4040592624853
 30
0.0
 11
33.31053884787011
 21
11.61462623549278
 31
0.0
  0
LINE
  5
37BA
330
37B6
100
AcDbEntity
  8
0
 62
     0
100
AcDbLine
 10
34.52110582087761
 20
9.955046456431887
 30
0.0
 11
33.12110582087758
 21
11.35504645643189
 31
0.0
  0
LINE
  5
37BB
330
37B6
100
AcDbEntity
  8
0
 62
     0
100
AcDbLine
 10
34.52110582087761
 20
9.506033650378412
 30
0.0
 11
33.12110582087758
 21
10.90603365037845
 31
0.0
  0
LINE
  5
37BC
330
37B6
100
AcDbEntity
  8
0
 62
     0
100
AcDbLine
 10
34.52110582087758
 20
9.057020844324938
 30
0.0
 11
33.12110582087754
 21
10.45702084432497
 31
0.0
  0
LINE
  5
37BD
330
37B6
100
AcDbEntity
  8
0
 62
     0
100
AcDbLine
 10
32.07110582087756
 20
11.05800803827154
 30
0.0
 11
31.50411351969942
 21
11.62500033944971
 31
0.0
  0
LINE
  5
37BE
330
37B6
100
AcDbEntity
  8
0
 62
     0
100
AcDbLine
 10
34.52110582087761
 20
8.60800803827152
 30
0.0
 11
33.12110582087758
 21
10.00800803827155
 31
0.0
  0
LINE
  5
37BF
330
37B6
100
AcDbEntity
  8
0
 62
     0
100
AcDbLine
 10
32.07110582087756
 20
10.60899523221809
 30
0.0
 11
31.05510071364594
 21
11.62500033944968
 31
0.0
  0
LINE
  5
37C0
330
37B6
100
AcDbEntity
  8
0
 62
     0
100
AcDbLine
 10
34.52110582087758
 20
8.158995232218046
 30
0.0
 11
33.12110582087758
 21
9.55899523221808
 31
0.0
  0
LINE
  5
37C1
330
37B6
100
AcDbEntity
  8
0
 62
     0
100
AcDbLine
 10
32.07110582087756
 20
10.15998242616461
 30
0.0
 11
30.71835033830903
 21
11.51273790873315
 31
0.0
  0
LINE
  5
37C2
330
37B6
100
AcDbEntity
  8
0
 62
     0
100
AcDbLine
 10
34.52110582087758
 20
7.7099824261646
 30
0.0
 11
33.12110582087754
 21
9.109982426164606
 31
0.0
  0
LINE
  5
37C3
330
37B6
100
AcDbEntity
  8
0
 62
     0
100
AcDbLine
 10
32.07110582087762
 20
9.710969620111114
 30
0.0
 11
30.67110582087753
 21
11.11096962011117
 31
0.0
  0
LINE
  5
37C4
330
37B6
100
AcDbEntity
  8
0
 62
     0
100
AcDbLine
 10
34.52110582087761
 20
7.260969620111126
 30
0.0
 11
33.12110582087758
 21
8.66096962011116
 31
0.0
  0
LINE
  5
37C5
330
37B6
100
AcDbEntity
  8
0
 62
     0
100
AcDbLine
 10
32.07110582087759
 20
9.261956814057668
 30
0.0
 11
30.67110582087753
 21
10.66195681405776
 31
0.0
  0
LINE
  5
37C6
330
37B6
100
AcDbEntity
  8
0
 62
     0
100
AcDbLine
 10
34.52110582087758
 20
6.81195681405768
 30
0.0
 11
33.12110582087754
 21
8.211956814057714
 31
0.0
  0
LINE
  5
37C7
330
37B6
100
AcDbEntity
  8
0
 62
     0
100
AcDbLine
 10
32.07110582087759
 20
8.812944008004222
 30
0.0
 11
30.67110582087753
 21
10.21294400800428
 31
0.0
  0
LINE
  5
37C8
330
37B6
100
AcDbEntity
  8
0
 62
     0
100
AcDbLine
 10
34.52110582087758
 20
6.362944008004234
 30
0.0
 11
33.12110582087754
 21
7.762944008004268
 31
0.0
  0
LINE
  5
37C9
330
37B6
100
AcDbEntity
  8
0
 62
     0
100
AcDbLine
 10
32.07110582087756
 20
8.363931201950748
 30
0.0
 11
30.6711058208775
 21
9.763931201950811
 31
0.0
  0
LINE
  5
37CA
330
37B6
100
AcDbEntity
  8
0
 62
     0
100
AcDbLine
 10
34.52110582087755
 20
5.913931201950759
 30
0.0
 11
33.12110582087754
 21
7.313931201950794
 31
0.0
  0
LINE
  5
37CB
330
37B6
100
AcDbEntity
  8
0
 62
     0
100
AcDbLine
 10
32.07110582087759
 20
7.914918395897331
 30
0.0
 11
30.67110582087753
 21
9.314918395897393
 31
0.0
  0
LINE
  5
37CC
330
37B6
100
AcDbEntity
  8
0
 62
     0
100
AcDbLine
 10
28.92110582087756
 20
11.06491839589736
 30
0.0
 11
28.36102387732524
 21
11.62500033944968
 31
0.0
  0
LINE
  5
37CD
330
37B6
100
AcDbEntity
  8
0
 62
     0
100
AcDbLine
 10
34.52110582087758
 20
5.464918395897342
 30
0.0
 11
33.12110582087754
 21
6.864918395897348
 31
0.0
  0
LINE
  5
37CE
330
37B6
100
AcDbEntity
  8
0
 62
     0
100
AcDbLine
 10
32.07110582087759
 20
7.465905589843856
 30
0.0
 11
30.6711058208775
 21
8.865905589843919
 31
0.0
  0
LINE
  5
37CF
330
37B6
100
AcDbEntity
  8
0
 62
     0
100
AcDbLine
 10
28.92110582087753
 20
10.61590558984389
 30
0.0
 11
27.91201107127176
 21
11.62500033944968
 31
0.0
  0
LINE
  5
37D0
330
37B6
100
AcDbEntity
  8
0
 62
     0
100
AcDbLine
 10
34.52110582087758
 20
5.015905589843868
 30
0.0
 11
33.12110582087754
 21
6.415905589843902
 31
0.0
  0
LINE
  5
37D1
330
37B6
100
AcDbEntity
  8
0
 62
     0
100
AcDbLine
 10
32.07110582087756
 20
7.01689278379041
 30
0.0
 11
30.67110582087753
 21
8.416892783790416
 31
0.0
  0
LINE
  5
37D2
330
37B6
100
AcDbEntity
  8
0
 62
     0
100
AcDbLine
 10
28.92110582087753
 20
10.16689278379044
 30
0.0
 11
27.57122445921553
 21
11.51677414545244
 31
0.0
  0
LINE
  5
37D3
330
37B6
100
AcDbEntity
  8
0
 62
     0
100
AcDbLine
 10
34.52110582087755
 20
4.566892783790422
 30
0.0
 11
33.12110582087752
 21
5.966892783790427
 31
0.0
  0
LINE
  5
37D4
330
37B6
100
AcDbEntity
  8
0
 62
     0
100
AcDbLine
 10
32.07110582087759
 20
6.567879977736936
 30
0.0
 11
30.67110582087756
 21
7.96787997773697
 31
0.0
  0
LINE
  5
37D5
330
37B6
100
AcDbEntity
  8
0
 62
     0
100
AcDbLine
 10
28.92110582087756
 20
9.71787997773697
 30
0.0
 11
27.52110582087755
 21
11.11787997773697
 31
0.0
  0
LINE
  5
37D6
330
37B6
100
AcDbEntity
  8
0
 62
     0
100
AcDbLine
 10
34.52110582087758
 20
4.117879977736947
 30
0.0
 11
33.12110582087754
 21
5.517879977736981
 31
0.0
  0
LINE
  5
37D7
330
37B6
100
AcDbEntity
  8
0
 62
     0
100
AcDbLine
 10
32.07110582087756
 20
6.11886717168349
 30
0.0
 11
30.67110582087756
 21
7.518867171683524
 31
0.0
  0
LINE
  5
37D8
330
37B6
100
AcDbEntity
  8
0
 62
     0
100
AcDbLine
 10
28.92110582087759
 20
9.268867171683496
 30
0.0
 11
27.52110582087755
 21
10.66886717168353
 31
0.0
  0
LINE
  5
37D9
330
37B6
100
AcDbEntity
  8
0
 62
     0
100
AcDbLine
 10
34.48512314343267
 20
3.704849849128407
 30
0.0
 11
33.12110582087754
 21
5.068867171683535
 31
0.0
  0
LINE
  5
37DA
330
37B6
100
AcDbEntity
  8
0
 62
     0
100
AcDbLine
 10
32.07110582087759
 20
5.669854365629987
 30
0.0
 11
30.67110582087753
 21
7.06985436563005
 31
0.0
  0
LINE
  5
37DB
330
37B6
100
AcDbEntity
  8
0
 62
     0
100
AcDbLine
 10
28.92110582087756
 20
8.81985436563005
 30
0.0
 11
27.52110582087752
 21
10.21985436563005
 31
0.0
  0
LINE
  5
37DC
330
37B6
100
AcDbEntity
  8
0
 62
     0
100
AcDbLine
 10
34.16595984705793
 20
3.575000339449672
 30
0.0
 11
33.12110582087752
 21
4.619854365630089
 31
0.0
  0
LINE
  5
37DD
330
37B6
100
AcDbEntity
  8
0
 62
     0
100
AcDbLine
 10
28.92110582087756
 20
8.370841559576575
 30
0.0
 11
27.52110582087752
 21
9.770841559576609
 31
0.0
  0
LINE
  5
37DE
330
37B6
100
AcDbEntity
  8
0
 62
     0
100
AcDbLine
 10
32.07110582087759
 20
5.220841559576541
 30
0.0
 11
30.67110582087753
 21
6.620841559576604
 31
0.0
  0
LINE
  5
37DF
330
37B6
100
AcDbEntity
  8
0
 62
     0
100
AcDbLine
 10
26.20860582087755
 20
11.08334155957658
 30
0.0
 11
25.66694704100448
 21
11.62500033944962
 31
0.0
  0
LINE
  5
37E0
330
37B6
100
AcDbEntity
  8
0
 62
     0
100
AcDbLine
 10
33.71694704100449
 20
3.575000339449616
 30
0.0
 11
33.12110582087752
 21
4.170841559576615
 31
0.0
  0
LINE
  5
37E1
330
37B6
100
AcDbEntity
  8
0
 62
     0
100
AcDbLine
 10
28.92110582087756
 20
7.921828753523129
 30
0.0
 11
27.52110582087758
 21
9.321828753523135
 31
0.0
  0
LINE
  5
37E2
330
37B6
100
AcDbEntity
  8
0
 62
     0
100
AcDbLine
 10
26.20860582087755
 20
10.63432875352313
 30
0.0
 11
25.21793423495106
 21
11.62500033944965
 31
0.0
  0
LINE
  5
37E3
330
37B6
100
AcDbEntity
  8
0
 62
     0
100
AcDbLine
 10
32.0581266705548
 20
4.784807903845916
 30
0.0
 11
30.67110582087753
 21
6.171828753523158
 31
0.0
  0
LINE
  5
37E4
330
37B6
100
AcDbEntity
  8
0
 62
     0
100
AcDbLine
 10
28.92110582087756
 20
7.472815947469683
 30
0.0
 11
27.52110582087758
 21
8.872815947469661
 31
0.0
  0
LINE
  5
37E5
330
37B6
100
AcDbEntity
  8
0
 62
     0
100
AcDbLine
 10
26.11081554782064
 20
10.2831062205266
 30
0.0
 11
24.76892142889756
 21
11.62500033944968
 31
0.0
  0
LINE
  5
37E6
330
37B6
100
AcDbEntity
  8
0
 62
     0
100
AcDbLine
 10
31.96163402292618
 20
4.432287745421035
 30
0.0
 11
30.67110582087753
 21
5.722815947469712
 31
0.0
  0
LINE
  5
37E7
330
37B6
100
AcDbEntity
  8
0
 62
     0
100
AcDbLine
 10
28.92110582087756
 20
7.023803141416209
 30
0.0
 11
27.52110582087755
 21
8.423803141416215
 31
0.0
  0
LINE
  5
37E8
330
37B6
100
AcDbEntity
  8
0
 62
     0
100
AcDbLine
 10
25.71990862284406
 20
10.22500033944968
 30
0.0
 11
24.31990862284411
 21
11.62500033944962
 31
0.0
  0
LINE
  5
37E9
330
37B6
100
AcDbEntity
  8
0
 62
     0
100
AcDbLine
 10
31.79911808496439
 20
4.145790877329346
 30
0.0
 11
30.63534795129778
 21
5.309561010995992
 31
0.0
  0
LINE
  5
37EA
330
37B6
100
AcDbEntity
  8
0
 62
     0
100
AcDbLine
 10
28.92110582087756
 20
6.574790335362791
 30
0.0
 11
27.52110582087758
 21
7.974790335362769
 31
0.0
  0
LINE
  5
37EB
330
37B6
100
AcDbEntity
  8
0
 62
     0
100
AcDbLine
 10
25.27089581679064
 20
10.22500033944971
 30
0.0
 11
23.90211245220195
 21
11.5937837040384
 31
0.0
  0
LINE
  5
37EC
330
37B6
100
AcDbEntity
  8
0
 62
     0
100
AcDbLine
 10
31.58309718630187
 20
3.912798969938449
 30
0.0
 11
30.43455513206402
 21
5.0613410241763
 31
0.0
  0
LINE
  5
37ED
330
37B6
100
AcDbEntity
  8
0
 62
     0
100
AcDbLine
 10
28.92110582087756
 20
6.125777529309317
 30
0.0
 11
27.52110582087755
 21
7.525777529309294
 31
0.0
  0
LINE
  5
37EE
330
37B6
100
AcDbEntity
  8
0
 62
     0
100
AcDbLine
 10
24.82188301073717
 20
10.22500033944971
 30
0.0
 11
23.56979223993525
 21
11.47709111025159
 31
0.0
  0
LINE
  5
37EF
330
37B6
100
AcDbEntity
  8
0
 62
     0
100
AcDbLine
 10
31.31501601383886
 20
3.731867336348017
 30
0.0
 11
30.07188301073717
 21
4.975000339449678
 31
0.0
  0
LINE
  5
37F0
330
37B6
100
AcDbEntity
  8
0
 62
     0
100
AcDbLine
 10
28.92110582087753
 20
5.676764723255843
 30
0.0
 11
27.52110582087755
 21
7.076764723255848
 31
0.0
  0
LINE
  5
37F1
330
37B6
100
AcDbEntity
  8
0
 62
     0
100
AcDbLine
 10
24.38376511869277
 20
10.2141054254406
 30
0.0
 11
23.29849177133016
 21
11.29937877280321
 31
0.0
  0
LINE
  5
37F2
330
37B6
100
AcDbEntity
  8
0
 62
     0
100
AcDbLine
 10
30.98680973388321
 20
3.611060810250194
 30
0.0
 11
29.62287020468372
 21
4.975000339449678
 31
0.0
  0
LINE
  5
37F3
330
37B6
100
AcDbEntity
  8
0
 62
     0
100
AcDbLine
 10
24.19610582087759
 20
9.952751917202306
 30
0.0
 11
23.07943574180788
 21
11.06942199627201
 31
0.0
  0
LINE
  5
37F4
330
37B6
100
AcDbEntity
  8
0
 62
     0
100
AcDbLine
 10
30.57385739863028
 20
3.575000339449644
 30
0.0
 11
27.52110582087755
 21
6.627751917202374
 31
0.0
  0
LINE
  5
37F5
330
37B6
100
AcDbEntity
  8
0
 62
     0
100
AcDbLine
 10
24.19610582087762
 20
9.503739111148888
 30
0.0
 11
22.91355028563137
 21
10.78629464639513
 31
0.0
  0
LINE
  5
37F6
330
37B6
100
AcDbEntity
  8
0
 62
     0
100
AcDbLine
 10
30.12484459257684
 20
3.575000339449644
 30
0.0
 11
27.52110582087755
 21
6.178739111148956
 31
0.0
  0
LINE
  5
37F7
330
37B6
100
AcDbEntity
  8
0
 62
     0
100
AcDbLine
 10
24.29937796142949
 20
8.951454164543548
 30
0.0
 11
22.81246102594932
 21
10.43837110002368
 31
0.0
  0
LINE
  5
37F8
330
37B6
100
AcDbEntity
  8
0
 62
     0
100
AcDbLine
 10
29.67583178652339
 20
3.575000339449644
 30
0.0
 11
27.52110582087755
 21
5.729726305095482
 31
0.0
  0
LINE
  5
37F9
330
37B6
100
AcDbEntity
  8
0
 62
     0
100
AcDbLine
 10
26.40790767222325
 20
6.393911647696313
 30
0.0
 11
22.79610582087756
 21
10.00571349904197
 31
0.0
  0
LINE
  5
37FA
330
37B6
100
AcDbEntity
  8
0
 62
     0
100
AcDbLine
 10
21.74610582087752
 20
11.05571349904201
 30
0.0
 11
21.17681898046988
 21
11.62500033944968
 31
0.0
  0
LINE
  5
37FB
330
37B6
100
AcDbEntity
  8
0
 62
     0
100
AcDbLine
 10
29.22681898046992
 20
3.575000339449644
 30
0.0
 11
27.52110582087752
 21
5.280713499042008
 31
0.0
  0
LINE
  5
37FC
330
37B6
100
AcDbEntity
  8
0
 62
     0
100
AcDbLine
 10
26.4711058208776
 20
5.881700692988545
 30
0.0
 11
22.79610582087759
 21
9.556700692988556
 31
0.0
  0
LINE
  5
37FD
330
37B6
100
AcDbEntity
  8
0
 62
     0
100
AcDbLine
 10
21.74610582087757
 20
10.60670069298854
 30
0.0
 11
20.7278061744164
 21
11.62500033944974
 31
0.0
  0
LINE
  5
37FE
330
37B6
100
AcDbEntity
  8
0
 62
     0
100
AcDbLine
 10
28.76958223504403
 20
3.583224278822115
 30
0.0
 11
27.52932976025002
 21
4.82347675361612
 31
0.0
  0
LINE
  5
37FF
330
37B6
100
AcDbEntity
  8
0
 62
     0
100
AcDbLine
 10
21.74610582087757
 20
10.15768788693509
 30
0.0
 11
20.39241087698991
 21
11.51138283082272
 31
0.0
  0
LINE
  5
3800
330
37B6
100
AcDbEntity
  8
0
 62
     0
100
AcDbLine
 10
26.47110582087757
 20
5.43268788693507
 30
0.0
 11
22.80781115481875
 21
9.095982552993916
 31
0.0
  0
LINE
  5
3801
330
37B6
100
AcDbEntity
  8
0
 62
     0
100
AcDbLine
 10
21.74610582087757
 20
9.708675080881619
 30
0.0
 11
20.34610582087757
 21
11.10867508088159
 31
0.0
  0
LINE
  5
3802
330
37B6
100
AcDbEntity
  8
0
 62
     0
100
AcDbLine
 10
26.47110582087751
 20
4.983675080881653
 30
0.0
 11
22.96687086373876
 21
8.48791003802043
 31
0.0
  0
LINE
  5
3803
330
37B6
100
AcDbEntity
  8
0
 62
     0
100
AcDbLine
 10
21.74610582087757
 20
9.259662274828173
 30
0.0
 11
20.3461058208776
 21
10.65966227482815
 31
0.0
  0
LINE
  5
3804
330
37B6
100
AcDbEntity
  8
0
 62
     0
100
AcDbLine
 10
26.41682491208303
 20
4.588943183622717
 30
0.0
 11
25.06900751756388
 21
5.936760578141871
 31
0.0
  0
LINE
  5
3805
330
37B6
100
AcDbEntity
  8
0
 62
     0
100
AcDbLine
 10
21.74610582087757
 20
8.810649468774727
 30
0.0
 11
20.34610582087757
 21
10.2106494687747
 31
0.0
  0
LINE
  5
3806
330
37B6
100
AcDbEntity
  8
0
 62
     0
100
AcDbLine
 10
19.20036237058906
 20
11.35639291906321
 30
0.0
 11
18.93175495020262
 21
11.62500033944968
 31
0.0
  0
LINE
  5
3807
330
37B6
100
AcDbEntity
  8
0
 62
     0
100
AcDbLine
 10
26.28288705820225
 20
4.273868231450052
 30
0.0
 11
25.07110582087759
 21
5.48564946877471
 31
0.0
  0
LINE
  5
3808
330
37B6
100
AcDbEntity
  8
0
 62
     0
100
AcDbLine
 10
21.74610582087755
 20
8.361636662721252
 30
0.0
 11
20.34610582087757
 21
9.761636662721258
 31
0.0
  0
LINE
  5
3809
330
37B6
100
AcDbEntity
  8
0
 62
     0
100
AcDbLine
 10
19.10089853846276
 20
11.00684394513604
 30
0.0
 11
18.48274214414914
 21
11.62500033944968
 31
0.0
  0
LINE
  5
380A
330
37B6
100
AcDbEntity
  8
0
 62
     0
100
AcDbLine
 10
26.0913936591146
 20
4.016348824484225
 30
0.0
 11
25.02246322943435
 21
5.085279254164476
 31
0.0
  0
LINE
  5
380B
330
37B6
100
AcDbEntity
  8
0
 62
     0
100
AcDbLine
 10
21.74610582087755
 20
7.912623856667806
 30
0.0
 11
20.34610582087757
 21
9.312623856667784
 31
0.0
  0
LINE
  5
380C
330
37B6
100
AcDbEntity
  8
0
 62
     0
100
AcDbLine
 10
18.99313546500991
 20
10.66559421253541
 30
0.0
 11
18.03852768327462
 21
11.62020199427073
 31
0.0
  0
LINE
  5
380D
330
37B6
100
AcDbEntity
  8
0
 62
     0
100
AcDbLine
 10
25.84823417655679
 20
3.810495500988537
 30
0.0
 11
24.68372933809567
 21
4.975000339449678
 31
0.0
  0
LINE
  5
380E
330
37B6
100
AcDbEntity
  8
0
 62
     0
100
AcDbLine
 10
21.74610582087757
 20
7.46361105061436
 30
0.0
 11
20.34610582087757
 21
8.863611050614338
 31
0.0
  0
LINE
  5
380F
330
37B6
100
AcDbEntity
  8
0
 62
     0
100
AcDbLine
 10
18.88537239155715
 20
10.32434447993478
 30
0.0
 11
17.82137239155713
 21
11.3883444799348
 31
0.0
  0
LINE
  5
3810
330
37B6
100
AcDbEntity
  8
0
 62
     0
100
AcDbLine
 10
25.5501922023266
 20
3.659524669165307
 30
0.0
 11
24.23471653204223
 21
4.975000339449707
 31
0.0
  0
LINE
  5
3811
330
37B6
100
AcDbEntity
  8
0
 62
     0
100
AcDbLine
 10
21.74610582087755
 20
7.014598244560914
 30
0.0
 11
20.34610582087757
 21
8.414598244560892
 31
0.0
  0
LINE
  5
3812
330
37B6
100
AcDbEntity
  8
0
 62
     0
100
AcDbLine
 10
18.77760931810422
 20
9.983094747334234
 30
0.0
 11
17.71360931810423
 21
11.04709474733422
 31
0.0
  0
LINE
  5
3813
330
37B6
100
AcDbEntity
  8
0
 62
     0
100
AcDbLine
 10
25.18135587650287
 20
3.579348188935597
 30
0.0
 11
23.78570372598878
 21
4.975000339449678
 31
0.0
  0
LINE
  5
3814
330
37B6
100
AcDbEntity
  8
0
 62
     0
100
AcDbLine
 10
21.74610582087755
 20
6.56558543850744
 30
0.0
 11
20.34610582087754
 21
7.965585438507417
 31
0.0
  0
LINE
  5
3815
330
37B6
100
AcDbEntity
  8
0
 62
     0
100
AcDbLine
 10
18.66984624465144
 20
9.641845014733547
 30
0.0
 11
17.60584624465139
 21
10.70584501473357
 31
0.0
  0
LINE
  5
3816
330
37B6
100
AcDbEntity
  8
0
 62
     0
100
AcDbLine
 10
24.73669091993534
 20
3.575000339449644
 30
0.0
 11
23.33669091993531
 21
4.975000339449678
 31
0.0
  0
LINE
  5
3817
330
37B6
100
AcDbEntity
  8
0
 62
     0
100
AcDbLine
 10
21.74610582087755
 20
6.116572632453994
 30
0.0
 11
20.34610582087757
 21
7.516572632454
 31
0.0
  0
LINE
  5
3818
330
37B6
100
AcDbEntity
  8
0
 62
     0
100
AcDbLine
 10
18.56208317119862
 20
9.300595282132945
 30
0.0
 11
17.49808317119857
 21
10.36459528213296
 31
0.0
  0
LINE
  5
3819
330
37B6
100
AcDbEntity
  8
0
 62
     0
100
AcDbLine
 10
24.2876781138819
 20
3.575000339449672
 30
0.0
 11
23.0708722652337
 21
4.791806188097865
 31
0.0
  0
LINE
  5
381A
330
37B6
100
AcDbEntity
  8
0
 62
     0
100
AcDbLine
 10
18.45432009774581
 20
8.959345549532258
 30
0.0
 11
17.39032009774575
 21
10.02334554953233
 31
0.0
  0
LINE
  5
381B
330
37B6
100
AcDbEntity
  8
0
 62
     0
100
AcDbLine
 10
21.74610582087755
 20
5.667559826400548
 30
0.0
 11
20.34610582087757
 21
7.067559826400525
 31
0.0
  0
LINE
  5
381C
330
37B6
100
AcDbEntity
  8
0
 62
     0
100
AcDbLine
 10
16.32110582087756
 20
11.09255982640053
 30
0.0
 11
15.78866530782841
 21
11.62500033944965
 31
0.0
  0
LINE
  5
381D
330
37B6
100
AcDbEntity
  8
0
 62
     0
100
AcDbLine
 10
23.83866530782845
 20
3.575000339449644
 30
0.0
 11
23.05860582087758
 21
4.35505982640052
 31
0.0
  0
LINE
  5
381E
330
37B6
100
AcDbEntity
  8
0
 62
     0
100
AcDbLine
 10
18.3465570242929
 20
8.618095816931713
 30
0.0
 11
17.28255702429294
 21
9.682095816931678
 31
0.0
  0
LINE
  5
381F
330
37B6
100
AcDbEntity
  8
0
 62
     0
100
AcDbLine
 10
21.74610582087755
 20
5.218547020347074
 30
0.0
 11
20.34610582087754
 21
6.618547020347079
 31
0.0
  0
LINE
  5
3820
330
37B6
100
AcDbEntity
  8
0
 62
     0
100
AcDbLine
 10
16.32110582087756
 20
10.64354702034705
 30
0.0
 11
15.33965250177496
 21
11.62500033944965
 31
0.0
  0
LINE
  5
3821
330
37B6
100
AcDbEntity
  8
0
 62
     0
100
AcDbLine
 10
23.38965250177495
 20
3.575000339449672
 30
0.0
 11
23.05860582087754
 21
3.906047020347045
 31
0.0
  0
LINE
  5
3822
330
37B6
100
AcDbEntity
  8
0
 62
     0
100
AcDbLine
 10
18.23879395084009
 20
8.276846084331054
 30
0.0
 11
17.17479395084007
 21
9.340846084331076
 31
0.0
  0
LINE
  5
3823
330
37B6
100
AcDbEntity
  8
0
 62
     0
100
AcDbLine
 10
16.32110582087753
 20
10.19453421429358
 30
0.0
 11
14.98338335642873
 21
11.53225667874241
 31
0.0
  0
LINE
  5
3824
330
37B6
100
AcDbEntity
  8
0
 62
     0
100
AcDbLine
 10
21.74610582087752
 20
4.769534214293628
 30
0.0
 11
20.34610582087754
 21
6.169534214293605
 31
0.0
  0
LINE
  5
3825
330
37B6
100
AcDbEntity
  8
0
 62
     0
100
AcDbLine
 10
18.13103087738727
 20
7.935596351730453
 30
0.0
 11
17.06703087738728
 21
8.999596351730446
 31
0.0
  0
LINE
  5
3826
330
37B6
100
AcDbEntity
  8
0
 62
     0
100
AcDbLine
 10
16.32110582087756
 20
9.745521408240165
 30
0.0
 11
14.92110582087753
 21
11.14552140824017
 31
0.0
  0
LINE
  5
3827
330
37B6
100
AcDbEntity
  8
0
 62
     0
100
AcDbLine
 10
21.74610582087755
 20
4.320521408240182
 30
0.0
 11
20.34610582087754
 21
5.720521408240159
 31
0.0
  0
LINE
  5
3828
330
37B6
100
AcDbEntity
  8
0
 62
     0
100
AcDbLine
 10
18.02848662269125
 20
7.589127800373006
 30
0.0
 11
16.95926780393441
 21
8.658346619129844
 31
0.0
  0
LINE
  5
3829
330
37B6
100
AcDbEntity
  8
0
 62
     0
100
AcDbLine
 10
16.32110582087756
 20
9.29650860218669
 30
0.0
 11
14.92110582087753
 21
10.69650860218672
 31
0.0
  0
LINE
  5
382A
330
37B6
100
AcDbEntity
  8
0
 62
     0
100
AcDbLine
 10
21.74610582087752
 20
3.871508602186708
 30
0.0
 11
20.34610582087754
 21
5.271508602186713
 31
0.0
  0
LINE
  5
382B
330
37B6
100
AcDbEntity
  8
0
 62
     0
100
AcDbLine
 10
18.23572330240824
 20
6.932878314602533
 30
0.0
 11
16.8139940560921
 21
8.35460756091868
 31
0.0
  0
LINE
  5
382C
330
37B6
100
AcDbEntity
  8
0
 62
     0
100
AcDbLine
 10
16.32110582087759
 20
8.847495796133188
 30
0.0
 11
14.9211058208775
 21
10.24749579613325
 31
0.0
  0
LINE
  5
382D
330
37B6
100
AcDbEntity
  8
0
 62
     0
100
AcDbLine
 10
21.57658332221135
 20
3.592018294799402
 30
0.0
 11
20.34610582087757
 21
4.82249579613321
 31
0.0
  0
LINE
  5
382E
330
37B6
100
AcDbEntity
  8
0
 62
     0
100
AcDbLine
 10
18.44295998212524
 20
6.276628828832116
 30
0.0
 11
14.92110582087753
 21
9.798482990079833
 31
0.0
  0
LINE
  5
382F
330
37B6
100
AcDbEntity
  8
0
 62
     0
100
AcDbLine
 10
13.69610582087759
 20
11.02348299007977
 30
0.0
 11
13.0945884715077
 21
11.62500033944965
 31
0.0
  0
LINE
  5
3830
330
37B6
100
AcDbEntity
  8
0
 62
     0
100
AcDbLine
 10
21.14458847150772
 20
3.575000339449644
 30
0.0
 11
20.3461058208776
 21
4.373482990079764
 31
0.0
  0
LINE
  5
3831
330
37B6
100
AcDbEntity
  8
0
 62
     0
100
AcDbLine
 10
18.65019666184227
 20
5.620379343061614
 30
0.0
 11
14.92110582087753
 21
9.349470184026358
 31
0.0
  0
LINE
  5
3832
330
37B6
100
AcDbEntity
  8
0
 62
     0
100
AcDbLine
 10
13.69610582087759
 20
10.57447018402629
 30
0.0
 11
12.6455756654542
 21
11.62500033944968
 31
0.0
  0
LINE
  5
3833
330
37B6
100
AcDbEntity
  8
0
 62
     0
100
AcDbLine
 10
20.69557566545424
 20
3.575000339449616
 30
0.0
 11
20.34610582087757
 21
3.924470184026318
 31
0.0
  0
LINE
  5
3834
330
37B6
100
AcDbEntity
  8
0
 62
     0
100
AcDbLine
 10
13.56265247318254
 20
10.25891072566787
 30
0.0
 11
12.21254161407683
 21
11.60902158477356
 31
0.0
  0
LINE
  5
3835
330
37B6
100
AcDbEntity
  8
0
 62
     0
100
AcDbLine
 10
18.85743334155924
 20
4.964129857291169
 30
0.0
 11
14.92110582087756
 21
8.900457377972855
 31
0.0
  0
LINE
  5
3836
330
37B6
100
AcDbEntity
  8
0
 62
     0
100
AcDbLine
 10
16.48986028204837
 20
6.882690110748598
 30
0.0
 11
14.92110582087756
 21
8.45144457191941
 31
0.0
  0
LINE
  5
3837
330
37B6
100
AcDbEntity
  8
0
 62
     0
100
AcDbLine
 10
13.14755005334731
 20
10.22500033944962
 30
0.0
 11
11.84352007928319
 21
11.52903031351377
 31
0.0
  0
LINE
  5
3838
330
37B6
100
AcDbEntity
  8
0
 62
     0
100
AcDbLine
 10
19.06467002127627
 20
4.307880371520695
 30
0.0
 11
17.01851617512221
 21
6.354034217674751
 31
0.0
  0
LINE
  5
3839
330
37B6
100
AcDbEntity
  8
0
 62
     0
100
AcDbLine
 10
16.32110582087759
 20
6.602431765865929
 30
0.0
 11
14.92110582087756
 21
8.002431765865964
 31
0.0
  0
LINE
  5
383A
330
37B6
100
AcDbEntity
  8
0
 62
     0
100
AcDbLine
 10
12.69853724729381
 20
10.22500033944968
 30
0.0
 11
11.52415937136783
 21
11.39937821537566
 31
0.0
  0
LINE
  5
383B
330
37B6
100
AcDbEntity
  8
0
 62
     0
100
AcDbLine
 10
19.18218945013157
 20
3.741348136611918
 30
0.0
 11
17.22575285483927
 21
5.697784731904249
 31
0.0
  0
LINE
  5
383C
330
37B6
100
AcDbEntity
  8
0
 62
     0
100
AcDbLine
 10
16.32110582087756
 20
6.153418959812483
 30
0.0
 11
14.92110582087753
 21
7.553418959812489
 31
0.0
  0
LINE
  5
383D
330
37B6
100
AcDbEntity
  8
0
 62
     0
100
AcDbLine
 10
12.27698049602205
 20
10.197544284668
 30
0.0
 11
11.24478488370056
 21
11.22973989698948
 31
0.0
  0
LINE
  5
383E
330
37B6
100
AcDbEntity
  8
0
 62
     0
100
AcDbLine
 10
18.8995244412404
 20
3.575000339449644
 30
0.0
 11
17.43298953455627
 21
5.041535246133776
 31
0.0
  0
LINE
  5
383F
330
37B6
100
AcDbEntity
  8
0
 62
     0
100
AcDbLine
 10
16.32110582087756
 20
5.704406153759009
 30
0.0
 11
14.92110582087753
 21
7.104406153759043
 31
0.0
  0
LINE
  5
3840
330
37B6
100
AcDbEntity
  8
0
 62
     0
100
AcDbLine
 10
11.99105239960255
 20
10.03445957503402
 30
0.0
 11
11.00095727939467
 21
11.0245546952419
 31
0.0
  0
LINE
  5
3841
330
37B6
100
AcDbEntity
  8
0
 62
     0
100
AcDbLine
 10
18.45051163518693
 20
3.575000339449644
 30
0.0
 11
17.64022621427327
 21
4.385285760363302
 31
0.0
  0
LINE
  5
3842
330
37B6
100
AcDbEntity
  8
0
 62
     0
100
AcDbLine
 10
13.86382038727643
 20
7.712678781306721
 30
0.0
 11
13.10878426273456
 21
8.467714905848595
 31
0.0
  0
LINE
  5
3843
330
37B6
100
AcDbEntity
  8
0
 62
     0
100
AcDbLine
 10
16.32110582087762
 20
5.255393347705535
 30
0.0
 11
14.92110582087756
 21
6.655393347705597
 31
0.0
  0
LINE
  5
3844
330
37B6
100
AcDbEntity
  8
0
 62
     0
100
AcDbLine
 10
11.81299161453807
 20
9.763507554045077
 30
0.0
 11
10.79127426638905
 21
10.7852249021941
 31
0.0
  0
LINE
  5
3845
330
37B6
100
AcDbEntity
  8
0
 62
     0
100
AcDbLine
 10
17.97633232703117
 20
3.600166841551981
 30
0.0
 11
17.85115524123552
 21
3.725343927347637
 31
0.0
  0
LINE
  5
3846
330
37B6
100
AcDbEntity
  8
0
 62
     0
100
AcDbLine
 10
13.82056355720547
 20
7.306922805324205
 30
0.0
 11
12.70302828675204
 21
8.424458075777636
 31
0.0
  0
LINE
  5
3847
330
37B6
100
AcDbEntity
  8
0
 62
     0
100
AcDbLine
 10
11.7711058208776
 20
9.356380541652072
 30
0.0
 11
10.61680475590822
 21
10.51068160662146
 31
0.0
  0
LINE
  5
3848
330
37B6
100
AcDbEntity
  8
0
 62
     0
100
AcDbLine
 10
16.32110582087759
 20
4.80638054165206
 30
0.0
 11
14.92110582087753
 21
6.206380541652151
 31
0.0
  0
LINE
  5
3849
330
37B6
100
AcDbEntity
  8
0
 62
     0
100
AcDbLine
 10
13.65463577755645
 20
7.023837778919727
 30
0.0
 11
12.41994326034756
 21
8.258530296128611
 31
0.0
  0
LINE
  5
384A
330
37B6
100
AcDbEntity
  8
0
 62
     0
100
AcDbLine
 10
11.7711058208776
 20
8.907367735598597
 30
0.0
 11
10.48151490230313
 21
10.19695865417307
 31
0.0
  0
LINE
  5
384B
330
37B6
100
AcDbEntity
  8
0
 62
     0
100
AcDbLine
 10
16.32110582087759
 20
4.357367735598614
 30
0.0
 11
14.92110582087756
 21
5.757367735598649
 31
0.0
  0
LINE
  5
384C
330
37B6
100
AcDbEntity
  8
0
 62
     0
100
AcDbLine
 10
11.7711058208776
 20
8.458354929545151
 30
0.0
 11
10.3941579658402
 21
9.83530278458258
 31
0.0
  0
LINE
  5
384D
330
37B6
100
AcDbEntity
  8
0
 62
     0
100
AcDbLine
 10
13.40371905648823
 20
6.82574169393456
 30
0.0
 11
12.2218471753624
 21
8.007613575060389
 31
0.0
  0
LINE
  5
384E
330
37B6
100
AcDbEntity
  8
0
 62
     0
100
AcDbLine
 10
9.058605820877573
 20
11.17085492954521
 30
0.0
 11
8.604460410973075
 21
11.62500033944971
 31
0.0
  0
LINE
  5
384F
330
37B6
100
AcDbEntity
  8
0
 62
     0
100
AcDbLine
 10
16.32110582087762
 20
3.908354929545168
 30
0.0
 11
14.92110582087758
 21
5.308354929545203
 31
0.0
  0
LINE
  5
3850
330
37B6
100
AcDbEntity
  8
0
 62
     0
100
AcDbLine
 10
11.7711058208776
 20
8.009342123491705
 30
0.0
 11
10.37110582087757
 21
9.40934212349174
 31
0.0
  0
LINE
  5
3851
330
37B6
100
AcDbEntity
  8
0
 62
     0
100
AcDbLine
 10
13.05355933527451
 20
6.7268886090948
 30
0.0
 11
12.12299409052264
 21
7.657453853846675
 31
0.0
  0
LINE
  5
3852
330
37B6
100
AcDbEntity
  8
0
 62
     0
100
AcDbLine
 10
9.058605820877545
 20
10.72184212349174
 30
0.0
 11
8.155447604919601
 21
11.62500033944968
 31
0.0
  0
LINE
  5
3853
330
37B6
100
AcDbEntity
  8
0
 62
     0
100
AcDbLine
 10
16.17715392024226
 20
3.603294024127052
 30
0.0
 11
14.92110582087756
 21
4.859342123491728
 31
0.0
  0
LINE
  5
3854
330
37B6
100
AcDbEntity
  8
0
 62
     0
100
AcDbLine
 10
11.7711058208776
 20
7.560329317438231
 30
0.0
 11
10.37110582087757
 21
8.960329317438265
 31
0.0
  0
LINE
  5
3855
330
37B6
100
AcDbEntity
  8
0
 62
     0
100
AcDbLine
 10
9.004088835742379
 20
10.32734630257346
 30
0.0
 11
7.706434798866098
 21
11.62500033944971
 31
0.0
  0
LINE
  5
3856
330
37B6
100
AcDbEntity
  8
0
 62
     0
100
AcDbLine
 10
15.75643479886617
 20
3.575000339449672
 30
0.0
 11
14.92110582087756
 21
4.410329317438282
 31
0.0
  0
LINE
  5
3857
330
37B6
100
AcDbEntity
  8
0
 62
     0
100
AcDbLine
 10
11.77110582087758
 20
7.111316511384785
 30
0.0
 11
10.37110582087754
 21
8.511316511384791
 31
0.0
  0
LINE
  5
3858
330
37B6
100
AcDbEntity
  8
0
 62
     0
100
AcDbLine
 10
8.657421992812714
 20
10.22500033944965
 30
0.0
 11
7.257421992812652
 21
11.62500033944971
 31
0.0
  0
LINE
  5
3859
330
37B6
100
AcDbEntity
  8
0
 62
     0
100
AcDbLine
 10
15.30742199281269
 20
3.575000339449644
 30
0.0
 11
14.92110582087756
 21
3.961316511384808
 31
0.0
  0
LINE
  5
385A
330
37B6
100
AcDbEntity
  8
0
 62
     0
100
AcDbLine
 10
11.7711058208776
 20
6.662303705331339
 30
0.0
 11
10.37110582087757
 21
8.062303705331373
 31
0.0
  0
LINE
  5
385B
330
37B6
100
AcDbEntity
  8
0
 62
     0
100
AcDbLine
 10
8.208409186759269
 20
10.22500033944965
 30
0.0
 11
6.825844550706818
 21
11.60756497550213
 31
0.0
  0
LINE
  5
385C
330
37B6
100
AcDbEntity
  8
0
 62
     0
100
AcDbLine
 10
13.69480459645911
 20
4.738604929749811
 30
0.0
 11
13.45971041117775
 21
4.973699115031195
 31
0.0
  0
LINE
  5
385D
330
37B6
100
AcDbEntity
  8
0
 62
     0
100
AcDbLine
 10
11.77110582087758
 20
6.213290899277865
 30
0.0
 11
10.37110582087757
 21
7.613290899277899
 31
0.0
  0
LINE
  5
385E
330
37B6
100
AcDbEntity
  8
0
 62
     0
100
AcDbLine
 10
7.759396380705823
 20
10.22500033944965
 30
0.0
 11
6.47927714646758
 21
11.50511957368789
 31
0.0
  0
LINE
  5
385F
330
37B6
100
AcDbEntity
  8
0
 62
     0
100
AcDbLine
 10
13.69610582087762
 20
4.288290899277853
 30
0.0
 11
13.00939638070579
 21
4.975000339449678
 31
0.0
  0
LINE
  5
3860
330
37B6
100
AcDbEntity
  8
0
 62
     0
100
AcDbLine
 10
11.77110582087758
 20
5.764278093224419
 30
0.0
 11
10.3711058208776
 21
7.164278093224396
 31
0.0
  0
LINE
  5
3861
330
37B6
100
AcDbEntity
  8
0
 62
     0
100
AcDbLine
 10
7.310383574652348
 20
10.22500033944962
 30
0.0
 11
6.197153816543959
 21
11.33823009755801
 31
0.0
  0
LINE
  5
3862
330
37B6
100
AcDbEntity
  8
0
 62
     0
100
AcDbLine
 10
13.69610582087759
 20
3.839278093224379
 30
0.0
 11
12.56038357465235
 21
4.975000339449621
 31
0.0
  0
LINE
  5
3863
330
37B6
100
AcDbEntity
  8
0
 62
     0
100
AcDbLine
 10
7.055237160845052
 20
10.03113394720353
 30
0.0
 11
5.968107410423584
 21
11.11826369762499
 31
0.0
  0
LINE
  5
3864
330
37B6
100
AcDbEntity
  8
0
 62
     0
100
AcDbLine
 10
13.50223942863141
 20
3.584131679417168
 30
0.0
 11
10.3711058208776
 21
6.715265287170979
 31
0.0
  0
LINE
  5
3865
330
37B6
100
AcDbEntity
  8
0
 62
     0
100
AcDbLine
 10
7.046105820877585
 20
9.591252481117521
 30
0.0
 11
5.791366809189042
 21
10.84599149280606
 31
0.0
  0
LINE
  5
3866
330
37B6
100
AcDbEntity
  8
0
 62
     0
100
AcDbLine
 10
13.06235796254546
 20
3.575000339449644
 30
0.0
 11
10.3711058208776
 21
6.266252481117504
 31
0.0
  0
LINE
  5
3867
330
37B6
100
AcDbEntity
  8
0
 62
     0
100
AcDbLine
 10
7.077173674945299
 20
9.111171820996304
 30
0.0
 11
5.67592675804218
 21
10.51241873789945
 31
0.0
  0
LINE
  5
3868
330
37B6
100
AcDbEntity
  8
0
 62
     0
100
AcDbLine
 10
12.61334515649196
 20
3.575000339449672
 30
0.0
 11
10.37110582087757
 21
5.81723967506403
 31
0.0
  0
LINE
  5
3869
330
37B6
100
AcDbEntity
  8
0
 62
     0
100
AcDbLine
 10
9.223293866488916
 20
6.51603882339927
 30
0.0
 11
5.646105820877608
 21
10.09322686901058
 31
0.0
  0
LINE
  5
386A
330
37B6
100
AcDbEntity
  8
0
 62
     0
100
AcDbLine
 10
12.13769630691018
 20
3.601636382978
 30
0.0
 11
10.3977418644059
 21
5.341590825482285
 31
0.0
  0
LINE
  5
386B
330
37B6
100
AcDbEntity
  8
0
 62
     0
100
AcDbLine
 10
9.319241123531526
 20
5.971078760303214
 30
0.0
 11
5.646105820877551
 21
9.644214062957189
 31
0.0
  0
LINE
  5
386C
330
37B6
100
AcDbEntity
  8
0
 62
     0
100
AcDbLine
 10
11.45079235060939
 20
3.839527533225322
 30
0.0
 11
10.63563301465319
 21
4.654686869181546
 31
0.0
  0
LINE
  5
386D
330
37B6
100
AcDbEntity
  8
0
 62
     0
100
AcDbLine
 10
9.321105820877619
 20
5.520201256903646
 30
0.0
 11
5.649888044588749
 21
9.191419033192488
 31
0.0
  0
LINE
  5
386E
330
37B6
100
AcDbEntity
  8
0
 62
     0
100
AcDbLine
 10
9.321105820877562
 20
5.071188450850229
 30
0.0
 11
5.761533423750677
 21
8.630760847977086
 31
0.0
  0
LINE
  5
386F
330
37B6
100
AcDbEntity
  8
0
 62
     0
100
AcDbLine
 10
9.284845822811604
 20
4.65843564286277
 30
0.0
 11
7.903150001002074
 21
6.040131464672299
 31
0.0
  0
LINE
  5
3870
330
37B6
100
AcDbEntity
  8
0
 62
     0
100
AcDbLine
 10
9.163876853297182
 20
4.330391806323717
 30
0.0
 11
7.921105820877556
 21
5.573162838743343
 31
0.0
  0
LINE
  5
3871
330
37B6
100
AcDbEntity
  8
0
 62
     0
100
AcDbLine
 10
8.982817229606297
 20
4.062438623961128
 30
0.0
 11
7.903156304727218
 21
5.142099548840207
 31
0.0
  0
LINE
  5
3872
330
37B6
100
AcDbEntity
  8
0
 62
     0
100
AcDbLine
 10
8.74970404347286
 20
3.846539004041119
 30
0.0
 11
7.621242708064301
 21
4.975000339449707
 31
0.0
  0
LINE
  5
3873
330
37B6
100
AcDbEntity
  8
0
 62
     0
100
AcDbLine
 10
8.463071819606454
 20
3.684158421854078
 30
0.0
 11
7.172229902010826
 21
4.975000339449678
 31
0.0
  0
LINE
  5
3874
330
37B6
100
AcDbEntity
  8
0
 62
     0
100
AcDbLine
 10
8.110365525063485
 20
3.587851910343573
 30
0.0
 11
6.72321709595738
 21
4.975000339449678
 31
0.0
  0
LINE
  5
3875
330
37B6
100
AcDbEntity
  8
0
 62
     0
100
AcDbLine
 10
7.674204289903912
 20
3.575000339449672
 30
0.0
 11
6.274204289903906
 21
4.975000339449678
 31
0.0
  0
LINE
  5
3876
330
37B6
100
AcDbEntity
  8
0
 62
     0
100
AcDbLine
 10
7.225191483850494
 20
3.575000339449644
 30
0.0
 11
5.948529536441554
 21
4.851662286858612
 31
0.0
  0
LINE
  5
3877
330
37B6
100
AcDbEntity
  8
0
 62
     0
100
AcDbLine
 10
6.776178677796991
 20
3.575000339449672
 30
0.0
 11
5.908605820877596
 21
4.442573196369068
 31
0.0
  0
LINE
  5
3878
330
37B6
100
AcDbEntity
  8
0
 62
     0
100
AcDbLine
 10
6.327165871743574
 20
3.575000339449644
 30
0.0
 11
5.908605820877596
 21
3.993560390315622
 31
0.0
  0
LINE
  5
3879
330
37B6
100
AcDbEntity
  8
0
 62
     0
100
AcDbLine
 10
34.31694946321105
 20
3.581566228008426
 30
0.0
 11
34.51453993231894
 21
3.77915669711632
 31
0.0
  0
LINE
  5
387A
330
37B6
100
AcDbEntity
  8
0
 62
     0
100
AcDbLine
 10
33.86137076859887
 20
3.575000339449644
 30
0.0
 11
34.52110582087767
 21
4.234735391728463
 31
0.0
  0
LINE
  5
387B
330
37B6
100
AcDbEntity
  8
0
 62
     0
100
AcDbLine
 10
33.4123579625454
 20
3.575000339449672
 30
0.0
 11
34.52110582087767
 21
4.683748197781909
 31
0.0
  0
LINE
  5
387C
330
37B6
100
AcDbEntity
  8
0
 62
     0
100
AcDbLine
 10
33.1367046025035
 20
3.748359785461218
 30
0.0
 11
34.52110582087764
 21
5.132761003835383
 31
0.0
  0
LINE
  5
387D
330
37B6
100
AcDbEntity
  8
0
 62
     0
100
AcDbLine
 10
33.1211058208776
 20
4.181773809888795
 30
0.0
 11
34.52110582087764
 21
5.581773809888801
 31
0.0
  0
LINE
  5
387E
330
37B6
100
AcDbEntity
  8
0
 62
     0
100
AcDbLine
 10
33.12110582087763
 20
4.630786615942241
 30
0.0
 11
34.52110582087764
 21
6.030786615942275
 31
0.0
  0
LINE
  5
387F
330
37B6
100
AcDbEntity
  8
0
 62
     0
100
AcDbLine
 10
33.1211058208776
 20
5.079799421995716
 30
0.0
 11
34.52110582087764
 21
6.47979942199575
 31
0.0
  0
LINE
  5
3880
330
37B6
100
AcDbEntity
  8
0
 62
     0
100
AcDbLine
 10
33.1211058208776
 20
5.528812228049162
 30
0.0
 11
34.52110582087764
 21
6.928812228049196
 31
0.0
  0
LINE
  5
3881
330
37B6
100
AcDbEntity
  8
0
 62
     0
100
AcDbLine
 10
31.33438825191024
 20
3.7420946590818
 30
0.0
 11
31.90401150124552
 21
4.311717908417108
 31
0.0
  0
LINE
  5
3882
330
37B6
100
AcDbEntity
  8
0
 62
     0
100
AcDbLine
 10
33.1211058208776
 20
5.977825034102608
 30
0.0
 11
34.52110582087764
 21
7.377825034102642
 31
0.0
  0
LINE
  5
3883
330
37B6
100
AcDbEntity
  8
0
 62
     0
100
AcDbLine
 10
30.71910416864884
 20
3.575823381873846
 30
0.0
 11
32.0702827784535
 21
4.92700199167848
 31
0.0
  0
LINE
  5
3884
330
37B6
100
AcDbEntity
  8
0
 62
     0
100
AcDbLine
 10
33.1211058208776
 20
6.426837840156082
 30
0.0
 11
34.52110582087764
 21
7.826837840156088
 31
0.0
  0
LINE
  5
3885
330
37B6
100
AcDbEntity
  8
0
 62
     0
100
AcDbLine
 10
30.26926832017122
 20
3.575000339449701
 30
0.0
 11
32.07110582087765
 21
5.376837840156099
 31
0.0
  0
LINE
  5
3886
330
37B6
100
AcDbEntity
  8
0
 62
     0
100
AcDbLine
 10
33.1211058208776
 20
6.875850646209528
 30
0.0
 11
34.52110582087761
 21
8.275850646209562
 31
0.0
  0
LINE
  5
3887
330
37B6
100
AcDbEntity
  8
0
 62
     0
100
AcDbLine
 10
29.82025551411775
 20
3.575000339449701
 30
0.0
 11
32.07110582087762
 21
5.825850646209573
 31
0.0
  0
LINE
  5
3888
330
37B6
100
AcDbEntity
  8
0
 62
     0
100
AcDbLine
 10
33.1211058208776
 20
7.324863452262974
 30
0.0
 11
34.52110582087764
 21
8.724863452263008
 31
0.0
  0
LINE
  5
3889
330
37B6
100
AcDbEntity
  8
0
 62
     0
100
AcDbLine
 10
29.37124270806427
 20
3.575000339449644
 30
0.0
 11
32.07110582087765
 21
6.274863452263019
 31
0.0
  0
LINE
  5
388A
330
37B6
100
AcDbEntity
  8
0
 62
     0
100
AcDbLine
 10
30.61881021983709
 20
5.271580657275933
 30
0.0
 11
32.07110582087765
 21
6.723876258316465
 31
0.0
  0
LINE
  5
388B
330
37B6
100
AcDbEntity
  8
0
 62
     0
100
AcDbLine
 10
33.1211058208776
 20
7.77387625831642
 30
0.0
 11
34.52110582087764
 21
9.173876258316454
 31
0.0
  0
LINE
  5
388C
330
37B6
100
AcDbEntity
  8
0
 62
     0
100
AcDbLine
 10
28.92222990201086
 20
3.575000339449701
 30
0.0
 11
30.37452550305133
 21
5.027295940490148
 31
0.0
  0
LINE
  5
388D
330
37B6
100
AcDbEntity
  8
0
 62
     0
100
AcDbLine
 10
30.67110582087756
 20
5.772889064369877
 30
0.0
 11
32.07110582087762
 21
7.17288906436994
 31
0.0
  0
LINE
  5
388E
330
37B6
100
AcDbEntity
  8
0
 62
     0
100
AcDbLine
 10
33.12110582087758
 20
8.222889064369894
 30
0.0
 11
34.52110582087761
 21
9.622889064369928
 31
0.0
  0
LINE
  5
388F
330
37B6
100
AcDbEntity
  8
0
 62
     0
100
AcDbLine
 10
28.52919197164593
 20
3.630975215138221
 30
0.0
 11
29.87321709595739
 21
4.975000339449707
 31
0.0
  0
LINE
  5
3890
330
37B6
100
AcDbEntity
  8
0
 62
     0
100
AcDbLine
 10
30.67110582087756
 20
6.221901870423323
 30
0.0
 11
32.07110582087762
 21
7.621901870423386
 31
0.0
  0
LINE
  5
3891
330
37B6
100
AcDbEntity
  8
0
 62
     0
100
AcDbLine
 10
33.12110582087758
 20
8.671901870423369
 30
0.0
 11
34.52110582087761
 21
10.07190187042337
 31
0.0
  0
LINE
  5
3892
330
37B6
100
AcDbEntity
  8
0
 62
     0
100
AcDbLine
 10
28.21519853804085
 20
3.765994587586646
 30
0.0
 11
29.42464318272607
 21
4.975439232271867
 31
0.0
  0
LINE
  5
3893
330
37B6
100
AcDbEntity
  8
0
 62
     0
100
AcDbLine
 10
30.67110582087756
 20
6.670914676476769
 30
0.0
 11
32.07110582087762
 21
8.070914676476832
 31
0.0
  0
LINE
  5
3894
330
37B6
100
AcDbEntity
  8
0
 62
     0
100
AcDbLine
 10
33.1211058208776
 20
9.120914676476786
 30
0.0
 11
34.52110582087761
 21
10.52091467647682
 31
0.0
  0
LINE
  5
3895
330
37B6
100
AcDbEntity
  8
0
 62
     0
100
AcDbLine
 10
27.95856859735832
 20
3.958377452957506
 30
0.0
 11
29.10290388836973
 21
5.102712743968936
 31
0.0
  0
LINE
  5
3896
330
37B6
100
AcDbEntity
  8
0
 62
     0
100
AcDbLine
 10
30.67110582087756
 20
7.119927482530215
 30
0.0
 11
32.07110582087762
 21
8.519927482530306
 31
0.0
  0
LINE
  5
3897
330
37B6
100
AcDbEntity
  8
0
 62
     0
100
AcDbLine
 10
33.12110582087758
 20
9.56992748253026
 30
0.0
 11
34.52110582087761
 21
10.96992748253029
 31
0.0
  0
LINE
  5
3898
330
37B6
100
AcDbEntity
  8
0
 62
     0
100
AcDbLine
 10
27.75358650974576
 20
4.202408171398417
 30
0.0
 11
28.93428474916502
 21
5.383106410817703
 31
0.0
  0
LINE
  5
3899
330
37B6
100
AcDbEntity
  8
0
 62
     0
100
AcDbLine
 10
30.67110582087753
 20
7.568940288583689
 30
0.0
 11
32.07110582087762
 21
8.968940288583752
 31
0.0
  0
LINE
  5
389A
330
37B6
100
AcDbEntity
  8
0
 62
     0
100
AcDbLine
 10
33.12110582087758
 20
10.0189402885837
 30
0.0
 11
34.51603124410238
 21
11.41386571180854
 31
0.0
  0
LINE
  5
389B
330
37B6
100
AcDbEntity
  8
0
 62
     0
100
AcDbLine
 10
27.60362407052876
 20
4.501458538234913
 30
0.0
 11
28.92110582087756
 21
5.818940288583718
 31
0.0
  0
LINE
  5
389C
330
37B6
100
AcDbEntity
  8
0
 62
     0
100
AcDbLine
 10
30.67110582087759
 20
8.017953094637164
 30
0.0
 11
32.07110582087762
 21
9.417953094637198
 31
0.0
  0
LINE
  5
389D
330
37B6
100
AcDbEntity
  8
0
 62
     0
100
AcDbLine
 10
33.12110582087758
 20
10.46795309463715
 30
0.0
 11
34.27747407156264
 21
11.62432134532221
 31
0.0
  0
LINE
  5
389E
330
37B6
100
AcDbEntity
  8
0
 62
     0
100
AcDbLine
 10
27.52491730305053
 20
4.871764576810107
 30
0.0
 11
28.92110582087759
 21
6.267953094637164
 31
0.0
  0
LINE
  5
389F
330
37B6
100
AcDbEntity
  8
0
 62
     0
100
AcDbLine
 10
30.67110582087759
 20
8.466965900690638
 30
0.0
 11
32.07110582087762
 21
9.866965900690644
 31
0.0
  0
LINE
  5
38A0
330
37B6
100
AcDbEntity
  8
0
 62
     0
100
AcDbLine
 10
33.1211058208776
 20
10.91696590069065
 30
0.0
 11
33.8291402596366
 21
11.62500033944965
 31
0.0
  0
LINE
  5
38A1
330
37B6
100
AcDbEntity
  8
0
 62
     0
100
AcDbLine
 10
27.52110582087758
 20
5.316965900690632
 30
0.0
 11
28.92110582087762
 21
6.716965900690667
 31
0.0
  0
LINE
  5
38A2
330
37B6
100
AcDbEntity
  8
0
 62
     0
100
AcDbLine
 10
30.67110582087759
 20
8.915978706744084
 30
0.0
 11
32.07110582087759
 21
10.31597870674412
 31
0.0
  0
LINE
  5
38A3
330
37B6
100
AcDbEntity
  8
0
 62
     0
100
AcDbLine
 10
27.52110582087758
 20
5.765978706744078
 30
0.0
 11
28.92110582087759
 21
7.165978706744112
 31
0.0
  0
LINE
  5
38A4
330
37B6
100
AcDbEntity
  8
0
 62
     0
100
AcDbLine
 10
33.12112917825132
 20
11.36600206411785
 30
0.0
 11
33.38010409620947
 21
11.62497698207596
 31
0.0
  0
LINE
  5
38A5
330
37B6
100
AcDbEntity
  8
0
 62
     0
100
AcDbLine
 10
25.36032800552161
 20
3.605200891388108
 30
0.0
 11
26.44090526893919
 21
4.685778154805717
 31
0.0
  0
LINE
  5
38A6
330
37B6
100
AcDbEntity
  8
0
 62
     0
100
AcDbLine
 10
27.52110582087755
 20
6.214991512797553
 30
0.0
 11
28.92110582087759
 21
7.614991512797587
 31
0.0
  0
LINE
  5
38A7
330
37B6
100
AcDbEntity
  8
0
 62
     0
100
AcDbLine
 10
30.67110582087756
 20
9.364991512797558
 30
0.0
 11
32.07110582087759
 21
10.76499151279759
 31
0.0
  0
LINE
  5
38A8
330
37B6
100
AcDbEntity
  8
0
 62
     0
100
AcDbLine
 10
24.8811146475297
 20
3.575000339449701
 30
0.0
 11
26.47110582087757
 21
5.164991512797541
 31
0.0
  0
LINE
  5
38A9
330
37B6
100
AcDbEntity
  8
0
 62
     0
100
AcDbLine
 10
27.52110582087758
 20
6.664004318850999
 30
0.0
 11
28.92110582087762
 21
8.064004318851004
 31
0.0
  0
LINE
  5
38AA
330
37B6
100
AcDbEntity
  8
0
 62
     0
100
AcDbLine
 10
30.67110582087759
 20
9.814004318850976
 30
0.0
 11
32.07110582087762
 21
11.21400431885101
 31
0.0
  0
LINE
  5
38AB
330
37B6
100
AcDbEntity
  8
0
 62
     0
100
AcDbLine
 10
24.43210184147623
 20
3.575000339449644
 30
0.0
 11
26.47110582087762
 21
5.614004318851016
 31
0.0
  0
LINE
  5
38AC
330
37B6
100
AcDbEntity
  8
0
 62
     0
100
AcDbLine
 10
27.52110582087758
 20
7.113017124904445
 30
0.0
 11
28.92110582087759
 21
8.513017124904479
 31
0.0
  0
LINE
  5
38AD
330
37B6
100
AcDbEntity
  8
0
 62
     0
100
AcDbLine
 10
30.67110582087756
 20
10.26301712490445
 30
0.0
 11
31.97423709346058
 21
11.56614839748747
 31
0.0
  0
LINE
  5
38AE
330
37B6
100
AcDbEntity
  8
0
 62
     0
100
AcDbLine
 10
23.98308903542278
 20
3.575000339449672
 30
0.0
 11
26.46394652067113
 21
6.055857824698023
 31
0.0
  0
LINE
  5
38AF
330
37B6
100
AcDbEntity
  8
0
 62
     0
100
AcDbLine
 10
27.52110582087755
 20
7.562029930957919
 30
0.0
 11
28.92110582087759
 21
8.962029930957953
 31
0.0
  0
LINE
  5
38B0
330
37B6
100
AcDbEntity
  8
0
 62
     0
100
AcDbLine
 10
30.67110582087756
 20
10.71202993095792
 30
0.0
 11
31.58407622936932
 21
11.62500033944968
 31
0.0
  0
LINE
  5
38B1
330
37B6
100
AcDbEntity
  8
0
 62
     0
100
AcDbLine
 10
23.53407622936931
 20
3.575000339449672
 30
0.0
 11
26.39649033535676
 21
6.437414445437099
 31
0.0
  0
LINE
  5
38B2
330
37B6
100
AcDbEntity
  8
0
 62
     0
100
AcDbLine
 10
27.52110582087758
 20
8.011042737011337
 30
0.0
 11
28.92110582087759
 21
9.411042737011371
 31
0.0
  0
LINE
  5
38B3
330
37B6
100
AcDbEntity
  8
0
 62
     0
100
AcDbLine
 10
25.07110582087762
 20
5.561042737011405
 30
0.0
 11
26.27619660689749
 21
6.766133523031243
 31
0.0
  0
LINE
  5
38B4
330
37B6
100
AcDbEntity
  8
0
 62
     0
100
AcDbLine
 10
30.67110582087759
 20
11.16104273701134
 30
0.0
 11
31.13506342331593
 21
11.62500033944971
 31
0.0
  0
LINE
  5
38B5
330
37B6
100
AcDbEntity
  8
0
 62
     0
100
AcDbLine
 10
23.14919109988142
 20
3.639128016015206
 30
0.0
 11
24.48506342331587
 21
4.97500033944965
 31
0.0
  0
LINE
  5
38B6
330
37B6
100
AcDbEntity
  8
0
 62
     0
100
AcDbLine
 10
25.06117053331397
 20
6.000120255501201
 30
0.0
 11
26.11444695446721
 21
7.053396676654443
 31
0.0
  0
LINE
  5
38B7
330
37B6
100
AcDbEntity
  8
0
 62
     0
100
AcDbLine
 10
27.52110582087761
 20
8.460055543064839
 30
0.0
 11
28.92110582087762
 21
9.860055543064873
 31
0.0
  0
LINE
  5
38B8
330
37B6
100
AcDbEntity
  8
0
 62
     0
100
AcDbLine
 10
23.05860582087758
 20
3.997555543064834
 30
0.0
 11
24.03605061726239
 21
4.97500033944965
 31
0.0
  0
LINE
  5
38B9
330
37B6
100
AcDbEntity
  8
0
 62
     0
100
AcDbLine
 10
24.92397811474453
 20
6.311940642985263
 30
0.0
 11
25.91651139550331
 21
7.304473923744041
 31
0.0
  0
LINE
  5
38BA
330
37B6
100
AcDbEntity
  8
0
 62
     0
100
AcDbLine
 10
27.52110582087758
 20
8.909068349118314
 30
0.0
 11
28.92110582087762
 21
10.30906834911835
 31
0.0
  0
LINE
  5
38BB
330
37B6
100
AcDbEntity
  8
0
 62
     0
100
AcDbLine
 10
23.05860582087758
 20
4.44656834911828
 30
0.0
 11
23.58703781120894
 21
4.975000339449678
 31
0.0
  0
LINE
  5
38BC
330
37B6
100
AcDbEntity
  8
0
 62
     0
100
AcDbLine
 10
27.52110582087761
 20
9.35808115517176
 30
0.0
 11
28.92110582087764
 21
10.75808115517176
 31
0.0
  0
LINE
  5
38BD
330
37B6
100
AcDbEntity
  8
0
 62
     0
100
AcDbLine
 10
24.703340666186
 20
6.540316000480117
 30
0.0
 11
25.69329015984718
 21
7.530265494141332
 31
0.0
  0
LINE
  5
38BE
330
37B6
100
AcDbEntity
  8
0
 62
     0
100
AcDbLine
 10
24.47883426315926
 20
6.764822403506855
 30
0.0
 11
25.46878375682041
 21
7.754771897168012
 31
0.0
  0
LINE
  5
38BF
330
37B6
100
AcDbEntity
  8
0
 62
     0
100
AcDbLine
 10
27.52110582087758
 20
9.807093961225206
 30
0.0
 11
28.92110582087762
 21
11.20709396122524
 31
0.0
  0
LINE
  5
38C0
330
37B6
100
AcDbEntity
  8
0
 62
     0
100
AcDbLine
 10
21.28901219910205
 20
3.575000339449672
 30
0.0
 11
21.7461058208776
 21
4.0320939612252
 31
0.0
  0
LINE
  5
38C1
330
37B6
100
AcDbEntity
  8
0
 62
     0
100
AcDbLine
 10
24.25432786013255
 20
6.989328806533649
 30
0.0
 11
25.24427735379368
 21
7.979278300194749
 31
0.0
  0
LINE
  5
38C2
330
37B6
100
AcDbEntity
  8
0
 62
     0
100
AcDbLine
 10
27.52110582087758
 20
10.25610676727868
 30
0.0
 11
28.82801536682828
 21
11.56301631322935
 31
0.0
  0
LINE
  5
38C3
330
37B6
100
AcDbEntity
  8
0
 62
     0
100
AcDbLine
 10
20.8399993930486
 20
3.575000339449672
 30
0.0
 11
21.74610582087757
 21
4.481106767278674
 31
0.0
  0
LINE
  5
38C4
330
37B6
100
AcDbEntity
  8
0
 62
     0
100
AcDbLine
 10
24.02982145710578
 20
7.213835209560329
 30
0.0
 11
25.01977095076694
 21
8.203784703221487
 31
0.0
  0
LINE
  5
38C5
330
37B6
100
AcDbEntity
  8
0
 62
     0
100
AcDbLine
 10
27.52110582087758
 20
10.70511957333212
 30
0.0
 11
28.44098658699514
 21
11.62500033944971
 31
0.0
  0
LINE
  5
38C6
330
37B6
100
AcDbEntity
  8
0
 62
     0
100
AcDbLine
 10
20.44679215592609
 20
3.630805908380636
 30
0.0
 11
21.7461058208776
 21
4.930119573332177
 31
0.0
  0
LINE
  5
38C7
330
37B6
100
AcDbEntity
  8
0
 62
     0
100
AcDbLine
 10
23.80531505407907
 20
7.438341612587038
 30
0.0
 11
24.79526454774023
 21
8.428291106248195
 31
0.0
  0
LINE
  5
38C8
330
37B6
100
AcDbEntity
  8
0
 62
     0
100
AcDbLine
 10
27.52110582087758
 20
11.15413237938557
 30
0.0
 11
27.99197378094172
 21
11.62500033944968
 31
0.0
  0
LINE
  5
38C9
330
37B6
100
AcDbEntity
  8
0
 62
     0
100
AcDbLine
 10
20.34610582087757
 20
3.979132379385532
 30
0.0
 11
21.74610582087763
 21
5.379132379385595
 31
0.0
  0
LINE
  5
38CA
330
37B6
100
AcDbEntity
  8
0
 62
     0
100
AcDbLine
 10
23.58080865105234
 20
7.662848015613775
 30
0.0
 11
24.5707581447135
 21
8.652797509274932
 31
0.0
  0
LINE
  5
38CB
330
37B6
100
AcDbEntity
  8
0
 62
     0
100
AcDbLine
 10
20.3461058208776
 20
4.428145185439035
 30
0.0
 11
21.7461058208776
 21
5.828145185439069
 31
0.0
  0
LINE
  5
38CC
330
37B6
100
AcDbEntity
  8
0
 62
     0
100
AcDbLine
 10
23.35731670053167
 20
7.88836887114661
 30
0.0
 11
24.34930346722268
 21
8.880355637837595
 31
0.0
  0
LINE
  5
38CD
330
37B6
100
AcDbEntity
  8
0
 62
     0
100
AcDbLine
 10
20.34610582087757
 20
4.877157991492509
 30
0.0
 11
21.7461058208776
 21
6.277157991492543
 31
0.0
  0
LINE
  5
38CE
330
37B6
100
AcDbEntity
  8
0
 62
     0
100
AcDbLine
 10
25.69394816883477
 20
10.22500033944968
 30
0.0
 11
26.20860582087758
 21
10.73965799149252
 31
0.0
  0
LINE
  5
38CF
330
37B6
100
AcDbEntity
  8
0
 62
     0
100
AcDbLine
 10
19.09977770852251
 20
3.630829879137422
 30
0.0
 11
19.14460388925002
 21
3.675656059864962
 31
0.0
  0
LINE
  5
38D0
330
37B6
100
AcDbEntity
  8
0
 62
     0
100
AcDbLine
 10
23.15831561112069
 20
8.138380587789043
 30
0.0
 11
24.20813274982999
 21
9.188197726498344
 31
0.0
  0
LINE
  5
38D1
330
37B6
100
AcDbEntity
  8
0
 62
     0
100
AcDbLine
 10
20.3461058208776
 20
5.326170797545927
 30
0.0
 11
21.74610582087763
 21
6.726170797545961
 31
0.0
  0
LINE
  5
38D2
330
37B6
100
AcDbEntity
  8
0
 62
     0
100
AcDbLine
 10
25.24493536278132
 20
10.22500033944968
 30
0.0
 11
26.20860582087761
 21
11.18867079754594
 31
0.0
  0
LINE
  5
38D3
330
37B6
100
AcDbEntity
  8
0
 62
     0
100
AcDbLine
 10
18.59493536278128
 20
3.575000339449644
 30
0.0
 11
19.12782491093452
 21
4.107889887602851
 31
0.0
  0
LINE
  5
38D4
330
37B6
100
AcDbEntity
  8
0
 62
     0
100
AcDbLine
 10
22.99539847892234
 20
8.424476261644173
 30
0.0
 11
24.19610582087765
 21
9.625183603599452
 31
0.0
  0
LINE
  5
38D5
330
37B6
100
AcDbEntity
  8
0
 62
     0
100
AcDbLine
 10
20.34610582087757
 20
5.775183603599401
 30
0.0
 11
21.7461058208776
 21
7.175183603599435
 31
0.0
  0
LINE
  5
38D6
330
37B6
100
AcDbEntity
  8
0
 62
     0
100
AcDbLine
 10
24.79592255672788
 20
10.22500033944968
 30
0.0
 11
26.12527135497868
 21
11.55434913770051
 31
0.0
  0
LINE
  5
38D7
330
37B6
100
AcDbEntity
  8
0
 62
     0
100
AcDbLine
 10
18.14592255672784
 20
3.575000339449644
 30
0.0
 11
19.0200618374817
 21
4.449139620203538
 31
0.0
  0
LINE
  5
38D8
330
37B6
100
AcDbEntity
  8
0
 62
     0
100
AcDbLine
 10
20.34610582087757
 20
6.224196409652876
 30
0.0
 11
21.7461058208776
 21
7.624196409652881
 31
0.0
  0
LINE
  5
38D9
330
37B6
100
AcDbEntity
  8
0
 62
     0
100
AcDbLine
 10
22.87370744758729
 20
8.7517980363626
 30
0.0
 11
25.74690975067444
 21
11.62500033944971
 31
0.0
  0
LINE
  5
38DA
330
37B6
100
AcDbEntity
  8
0
 62
     0
100
AcDbLine
 10
17.84991540140029
 20
3.728005990175603
 30
0.0
 11
18.91229876402886
 21
4.790389352804169
 31
0.0
  0
LINE
  5
38DB
330
37B6
100
AcDbEntity
  8
0
 62
     0
100
AcDbLine
 10
20.34610582087757
 20
6.673209215706322
 30
0.0
 11
21.74610582087757
 21
8.073209215706356
 31
0.0
  0
LINE
  5
38DC
330
37B6
100
AcDbEntity
  8
0
 62
     0
100
AcDbLine
 10
22.80435401804445
 20
9.131457412873231
 30
0.0
 11
25.29789694462096
 21
11.62500033944974
 31
0.0
  0
LINE
  5
38DD
330
37B6
100
AcDbEntity
  8
0
 62
     0
100
AcDbLine
 10
17.74053569057599
 20
4.067639085404778
 30
0.0
 11
18.80453569057599
 21
5.131639085404771
 31
0.0
  0
LINE
  5
38DE
330
37B6
100
AcDbEntity
  8
0
 62
     0
100
AcDbLine
 10
20.34610582087757
 20
7.122222021759768
 30
0.0
 11
21.7461058208776
 21
8.522222021759802
 31
0.0
  0
LINE
  5
38DF
330
37B6
100
AcDbEntity
  8
0
 62
     0
100
AcDbLine
 10
22.79610582087761
 20
9.572222021759785
 30
0.0
 11
24.84888413856749
 21
11.62500033944968
 31
0.0
  0
LINE
  5
38E0
330
37B6
100
AcDbEntity
  8
0
 62
     0
100
AcDbLine
 10
17.63277261712318
 20
4.40888881800538
 30
0.0
 11
18.69677261712323
 21
5.472888818005401
 31
0.0
  0
LINE
  5
38E1
330
37B6
100
AcDbEntity
  8
0
 62
     0
100
AcDbLine
 10
20.3461058208776
 20
7.57123482781327
 30
0.0
 11
21.7461058208776
 21
8.971234827813248
 31
0.0
  0
LINE
  5
38E2
330
37B6
100
AcDbEntity
  8
0
 62
     0
100
AcDbLine
 10
22.79610582087759
 20
10.02123482781326
 30
0.0
 11
24.39987133251404
 21
11.62500033944968
 31
0.0
  0
LINE
  5
38E3
330
37B6
100
AcDbEntity
  8
0
 62
     0
100
AcDbLine
 10
17.52500954367031
 20
4.750138550605981
 30
0.0
 11
18.58900954367038
 21
5.814138550606031
 31
0.0
  0
LINE
  5
38E4
330
37B6
100
AcDbEntity
  8
0
 62
     0
100
AcDbLine
 10
20.3461058208776
 20
8.020247633866716
 30
0.0
 11
21.74610582087757
 21
9.420247633866722
 31
0.0
  0
LINE
  5
38E5
330
37B6
100
AcDbEntity
  8
0
 62
     0
100
AcDbLine
 10
17.41724647021749
 20
5.09138828320664
 30
0.0
 11
18.48124647021754
 21
6.155388283206661
 31
0.0
  0
LINE
  5
38E6
330
37B6
100
AcDbEntity
  8
0
 62
     0
100
AcDbLine
 10
22.82276415593821
 20
10.49690596892736
 30
0.0
 11
23.92420019139988
 21
11.59834200438902
 31
0.0
  0
LINE
  5
38E7
330
37B6
100
AcDbEntity
  8
0
 62
     0
100
AcDbLine
 10
15.90085852646055
 20
3.575000339449672
 30
0.0
 11
16.32110582087759
 21
3.995247633866739
 31
0.0
  0
LINE
  5
38E8
330
37B6
100
AcDbEntity
  8
0
 62
     0
100
AcDbLine
 10
17.3094833967647
 20
5.432638015807242
 30
0.0
 11
18.37348339676467
 21
6.496638015807235
 31
0.0
  0
LINE
  5
38E9
330
37B6
100
AcDbEntity
  8
0
 62
     0
100
AcDbLine
 10
20.3461058208776
 20
8.469260439920162
 30
0.0
 11
21.7461058208776
 21
9.86926043992014
 31
0.0
  0
LINE
  5
38EA
330
37B6
100
AcDbEntity
  8
0
 62
     0
100
AcDbLine
 10
15.4518457204071
 20
3.575000339449672
 30
0.0
 11
16.32110582087762
 21
4.444260439920185
 31
0.0
  0
LINE
  5
38EB
330
37B6
100
AcDbEntity
  8
0
 62
     0
100
AcDbLine
 10
17.20172032331186
 20
5.773887748407872
 30
0.0
 11
18.26572032331188
 21
6.837887748407922
 31
0.0
  0
LINE
  5
38EC
330
37B6
100
AcDbEntity
  8
0
 62
     0
100
AcDbLine
 10
20.3461058208776
 20
8.918273245973637
 30
0.0
 11
21.74610582087757
 21
10.31827324597361
 31
0.0
  0
LINE
  5
38ED
330
37B6
100
AcDbEntity
  8
0
 62
     0
100
AcDbLine
 10
15.04340778817925
 20
3.615575213275292
 30
0.0
 11
16.32110582087762
 21
4.893273245973631
 31
0.0
  0
LINE
  5
38EE
330
37B6
100
AcDbEntity
  8
0
 62
     0
100
AcDbLine
 10
17.09395724985896
 20
6.115137481008474
 30
0.0
 11
18.15795724985903
 21
7.179137481008552
 31
0.0
  0
LINE
  5
38EF
330
37B6
100
AcDbEntity
  8
0
 62
     0
100
AcDbLine
 10
20.3461058208776
 20
9.367286052027083
 30
0.0
 11
21.74610582087757
 21
10.76728605202709
 31
0.0
  0
LINE
  5
38F0
330
37B6
100
AcDbEntity
  8
0
 62
     0
100
AcDbLine
 10
14.92110582087756
 20
3.942286052027071
 30
0.0
 11
16.32110582087759
 21
5.342286052027105
 31
0.0
  0
LINE
  5
38F1
330
37B6
100
AcDbEntity
  8
0
 62
     0
100
AcDbLine
 10
16.9861941764062
 20
6.456387213609104
 30
0.0
 11
18.05019417640622
 21
7.520387213609154
 31
0.0
  0
LINE
  5
38F2
330
37B6
100
AcDbEntity
  8
0
 62
     0
100
AcDbLine
 10
20.3461058208776
 20
9.816298858080529
 30
0.0
 11
21.74610582087757
 21
11.2162988580805
 31
0.0
  0
LINE
  5
38F3
330
37B6
100
AcDbEntity
  8
0
 62
     0
100
AcDbLine
 10
14.92110582087758
 20
4.391298858080517
 30
0.0
 11
16.32110582087762
 21
5.791298858080523
 31
0.0
  0
LINE
  5
38F4
330
37B6
100
AcDbEntity
  8
0
 62
     0
100
AcDbLine
 10
16.86879478292033
 20
6.788000626176739
 30
0.0
 11
18.18394181688578
 21
8.103147660142184
 31
0.0
  0
LINE
  5
38F5
330
37B6
100
AcDbEntity
  8
0
 62
     0
100
AcDbLine
 10
20.3461058208776
 20
10.26531166413397
 30
0.0
 11
21.64796810962841
 21
11.56717395288478
 31
0.0
  0
LINE
  5
38F6
330
37B6
100
AcDbEntity
  8
0
 62
     0
100
AcDbLine
 10
14.92110582087758
 20
4.840311664133963
 30
0.0
 11
16.32110582087759
 21
6.240311664133997
 31
0.0
  0
LINE
  5
38F7
330
37B6
100
AcDbEntity
  8
0
 62
     0
100
AcDbLine
 10
16.52520209798663
 20
6.893420747296516
 30
0.0
 11
18.39117849660275
 21
8.759397145912629
 31
0.0
  0
LINE
  5
38F8
330
37B6
100
AcDbEntity
  8
0
 62
     0
100
AcDbLine
 10
14.92110582087756
 20
5.289324470187438
 30
0.0
 11
16.32768541303076
 21
6.695904062340616
 31
0.0
  0
LINE
  5
38F9
330
37B6
100
AcDbEntity
  8
0
 62
     0
100
AcDbLine
 10
20.34610582087757
 20
10.71432447018745
 30
0.0
 11
21.2567816901398
 21
11.62500033944968
 31
0.0
  0
LINE
  5
38FA
330
37B6
100
AcDbEntity
  8
0
 62
     0
100
AcDbLine
 10
13.20678169013979
 20
3.575000339449644
 30
0.0
 11
13.69610582087762
 21
4.0643244701875
 31
0.0
  0
LINE
  5
38FB
330
37B6
100
AcDbEntity
  8
0
 62
     0
100
AcDbLine
 10
14.92110582087756
 20
5.738337276240883
 30
0.0
 11
18.59841517631972
 21
9.415646631683046
 31
0.0
  0
LINE
  5
38FC
330
37B6
100
AcDbEntity
  8
0
 62
     0
100
AcDbLine
 10
20.3461058208776
 20
11.16333727624095
 30
0.0
 11
20.80776888408633
 21
11.62500033944968
 31
0.0
  0
LINE
  5
38FD
330
37B6
100
AcDbEntity
  8
0
 62
     0
100
AcDbLine
 10
12.75776888408632
 20
3.575000339449672
 30
0.0
 11
13.69610582087762
 21
4.513337276240974
 31
0.0
  0
LINE
  5
38FE
330
37B6
100
AcDbEntity
  8
0
 62
     0
100
AcDbLine
 10
14.92110582087756
 20
6.187350082294329
 30
0.0
 11
18.80565185603675
 21
10.07189611745349
 31
0.0
  0
LINE
  5
38FF
330
37B6
100
AcDbEntity
  8
0
 62
     0
100
AcDbLine
 10
12.31459639020792
 20
3.580840651624697
 30
0.0
 11
13.62543867907453
 21
4.891682940491278
 31
0.0
  0
LINE
  5
3900
330
37B6
100
AcDbEntity
  8
0
 62
     0
100
AcDbLine
 10
14.92110582087756
 20
6.636362888347804
 30
0.0
 11
16.58474327197942
 21
8.300000339449667
 31
0.0
  0
LINE
  5
3901
330
37B6
100
AcDbEntity
  8
0
 62
     0
100
AcDbLine
 10
16.96673468959977
 20
8.681991757070022
 30
0.0
 11
19.01288853575374
 21
10.72814560322396
 31
0.0
  0
LINE
  5
3902
330
37B6
100
AcDbEntity
  8
0
 62
     0
100
AcDbLine
 10
11.93051613148444
 20
3.645773198954657
 30
0.0
 11
13.25974327197946
 21
4.975000339449678
 31
0.0
  0
LINE
  5
3903
330
37B6
100
AcDbEntity
  8
0
 62
     0
100
AcDbLine
 10
14.92110582087758
 20
7.085375694401307
 30
0.0
 11
16.33010110623175
 21
8.494370979755444
 31
0.0
  0
LINE
  5
3904
330
37B6
100
AcDbEntity
  8
0
 62
     0
100
AcDbLine
 10
17.17397136931674
 20
9.338241242840439
 30
0.0
 11
19.20042426165443
 21
11.36469413517815
 31
0.0
  0
LINE
  5
3905
330
37B6
100
AcDbEntity
  8
0
 62
     0
100
AcDbLine
 10
11.59994900307123
 20
3.764218876594952
 30
0.0
 11
12.81073046592598
 21
4.975000339449707
 31
0.0
  0
LINE
  5
3906
330
37B6
100
AcDbEntity
  8
0
 62
     0
100
AcDbLine
 10
14.92110582087761
 20
7.534388500454724
 30
0.0
 11
16.32110582087762
 21
8.934388500454758
 31
0.0
  0
LINE
  5
3907
330
37B6
100
AcDbEntity
  8
0
 62
     0
100
AcDbLine
 10
17.38120804903372
 20
9.994490728610855
 30
0.0
 11
19.00341832536983
 21
11.61670100494697
 31
0.0
  0
LINE
  5
3908
330
37B6
100
AcDbEntity
  8
0
 62
     0
100
AcDbLine
 10
11.31114736098908
 20
3.924430040566193
 30
0.0
 11
12.36917829023551
 21
4.982460969812649
 31
0.0
  0
LINE
  5
3909
330
37B6
100
AcDbEntity
  8
0
 62
     0
100
AcDbLine
 10
14.92110582087758
 20
7.983401306508199
 30
0.0
 11
16.32110582087762
 21
9.383401306508233
 31
0.0
  0
LINE
  5
390A
330
37B6
100
AcDbEntity
  8
0
 62
     0
100
AcDbLine
 10
17.58844472875071
 20
10.65074021438133
 30
0.0
 11
18.56270485381907
 21
11.62500033944968
 31
0.0
  0
LINE
  5
390B
330
37B6
100
AcDbEntity
  8
0
 62
     0
100
AcDbLine
 10
11.05866987779805
 20
4.120965363428638
 30
0.0
 11
12.05202021972636
 21
5.114315705356943
 31
0.0
  0
LINE
  5
390C
330
37B6
100
AcDbEntity
  8
0
 62
     0
100
AcDbLine
 10
14.92110582087758
 20
8.432414112561644
 30
0.0
 11
16.32110582087762
 21
9.832414112561679
 31
0.0
  0
LINE
  5
390D
330
37B6
100
AcDbEntity
  8
0
 62
     0
100
AcDbLine
 10
13.25192288676584
 20
6.763231178449927
 30
0.0
 11
13.83287498187738
 21
7.344183273561469
 31
0.0
  0
LINE
  5
390E
330
37B6
100
AcDbEntity
  8
0
 62
     0
100
AcDbLine
 10
17.79568140846768
 20
11.30698970015177
 30
0.0
 11
18.11369204776562
 21
11.62500033944971
 31
0.0
  0
LINE
  5
390F
330
37B6
100
AcDbEntity
  8
0
 62
     0
100
AcDbLine
 10
10.84045134113313
 20
4.35175963281722
 30
0.0
 11
11.84689474409026
 21
5.358203035774351
 31
0.0
  0
LINE
  5
3910
330
37B6
100
AcDbEntity
  8
0
 62
     0
100
AcDbLine
 10
12.78943646595093
 20
6.74975756368849
 30
0.0
 11
13.84634859663882
 21
7.806669694376353
 31
0.0
  0
LINE
  5
3911
330
37B6
100
AcDbEntity
  8
0
 62
     0
100
AcDbLine
 10
14.92110582087756
 20
8.881426918615119
 30
0.0
 11
16.32110582087759
 21
10.28142691861515
 31
0.0
  0
LINE
  5
3912
330
37B6
100
AcDbEntity
  8
0
 62
     0
100
AcDbLine
 10
10.65694172866165
 20
4.617262826399183
 30
0.0
 11
11.7711058208776
 21
5.73142691861517
 31
0.0
  0
LINE
  5
3913
330
37B6
100
AcDbEntity
  8
0
 62
     0
100
AcDbLine
 10
12.48236318124083
 20
6.891697085031779
 30
0.0
 11
13.7044090752955
 21
8.113742979086481
 31
0.0
  0
LINE
  5
3914
330
37B6
100
AcDbEntity
  8
0
 62
     0
100
AcDbLine
 10
14.92110582087758
 20
9.330439724668565
 30
0.0
 11
16.32110582087762
 21
10.73043972466857
 31
0.0
  0
LINE
  5
3915
330
37B6
100
AcDbEntity
  8
0
 62
     0
100
AcDbLine
 10
10.51128297369928
 20
4.92061687749026
 30
0.0
 11
11.7711058208776
 21
6.180439724668588
 31
0.0
  0
LINE
  5
3916
330
37B6
100
AcDbEntity
  8
0
 62
     0
100
AcDbLine
 10
12.26338321774597
 20
7.121729927590422
 30
0.0
 11
13.47437623273689
 21
8.332722942581312
 31
0.0
  0
LINE
  5
3917
330
37B6
100
AcDbEntity
  8
0
 62
     0
100
AcDbLine
 10
14.92110582087758
 20
9.779452530722011
 30
0.0
 11
16.32110582087759
 21
11.17945253072204
 31
0.0
  0
LINE
  5
3918
330
37B6
100
AcDbEntity
  8
0
 62
     0
100
AcDbLine
 10
10.41071429161195
 20
5.269061001456407
 30
0.0
 11
11.7711058208776
 21
6.629452530722062
 31
0.0
  0
LINE
  5
3919
330
37B6
100
AcDbEntity
  8
0
 62
     0
100
AcDbLine
 10
12.13535785154178
 20
7.442717367439684
 30
0.0
 11
13.15338879288759
 21
8.460748308785525
 31
0.0
  0
LINE
  5
391A
330
37B6
100
AcDbEntity
  8
0
 62
     0
100
AcDbLine
 10
10.37110582087751
 20
5.678465336775445
 30
0.0
 11
11.7711058208776
 21
7.078465336775508
 31
0.0
  0
LINE
  5
391B
330
37B6
100
AcDbEntity
  8
0
 62
     0
100
AcDbLine
 10
14.92110582087756
 20
10.22846533677548
 30
0.0
 11
16.24248076670005
 21
11.54984028259798
 31
0.0
  0
LINE
  5
391C
330
37B6
100
AcDbEntity
  8
0
 62
     0
100
AcDbLine
 10
8.328107441939778
 20
3.635466957837707
 30
0.0
 11
9.260639202489642
 21
4.56799871838757
 31
0.0
  0
LINE
  5
391D
330
37B6
100
AcDbEntity
  8
0
 62
     0
100
AcDbLine
 10
12.19456439328218
 20
7.950936715233524
 30
0.0
 11
12.64516944509378
 21
8.401541767045131
 31
0.0
  0
LINE
  5
391E
330
37B6
100
AcDbEntity
  8
0
 62
     0
100
AcDbLine
 10
10.37110582087754
 20
6.127478142828891
 30
0.0
 11
11.7711058208776
 21
7.527478142828954
 31
0.0
  0
LINE
  5
391F
330
37B6
100
AcDbEntity
  8
0
 62
     0
100
AcDbLine
 10
14.92110582087758
 20
10.6774781428289
 30
0.0
 11
15.86862801749837
 21
11.62500033944971
 31
0.0
  0
LINE
  5
3920
330
37B6
100
AcDbEntity
  8
0
 62
     0
100
AcDbLine
 10
7.818628017498298
 20
3.575000339449644
 30
0.0
 11
9.321105820877619
 21
5.077478142828965
 31
0.0
  0
LINE
  5
3921
330
37B6
100
AcDbEntity
  8
0
 62
     0
100
AcDbLine
 10
10.37110582087754
 20
6.576490948882337
 30
0.0
 11
11.7711058208776
 21
7.976490948882428
 31
0.0
  0
LINE
  5
3922
330
37B6
100
AcDbEntity
  8
0
 62
     0
100
AcDbLine
 10
14.92110582087756
 20
11.12649094888237
 30
0.0
 11
15.41961521144486
 21
11.62500033944968
 31
0.0
  0
LINE
  5
3923
330
37B6
100
AcDbEntity
  8
0
 62
     0
100
AcDbLine
 10
7.369615211444852
 20
3.575000339449644
 30
0.0
 11
9.321105820877619
 21
5.52649094888244
 31
0.0
  0
LINE
  5
3924
330
37B6
100
AcDbEntity
  8
0
 62
     0
100
AcDbLine
 10
10.37110582087751
 20
7.025503754935812
 30
0.0
 11
11.77110582087758
 21
8.425503754935874
 31
0.0
  0
LINE
  5
3925
330
37B6
100
AcDbEntity
  8
0
 62
     0
100
AcDbLine
 10
6.920602405391377
 20
3.575000339449672
 30
0.0
 11
9.319136144597024
 21
5.973534078655319
 31
0.0
  0
LINE
  5
3926
330
37B6
100
AcDbEntity
  8
0
 62
     0
100
AcDbLine
 10
10.37110582087757
 20
7.474516560989314
 30
0.0
 11
11.7711058208776
 21
8.874516560989349
 31
0.0
  0
LINE
  5
3927
330
37B6
100
AcDbEntity
  8
0
 62
     0
100
AcDbLine
 10
13.12158959933796
 20
10.22500033944971
 30
0.0
 11
13.69610582087765
 21
10.79951656098936
 31
0.0
  0
LINE
  5
3928
330
37B6
100
AcDbEntity
  8
0
 62
     0
100
AcDbLine
 10
6.471589599337931
 20
3.575000339449672
 30
0.0
 11
9.264305226436363
 21
6.367715966548104
 31
0.0
  0
LINE
  5
3929
330
37B6
100
AcDbEntity
  8
0
 62
     0
100
AcDbLine
 10
10.37110582087757
 20
7.92352936704276
 30
0.0
 11
11.7711058208776
 21
9.323529367042766
 31
0.0
  0
LINE
  5
392A
330
37B6
100
AcDbEntity
  8
0
 62
     0
100
AcDbLine
 10
7.921105820877585
 20
5.473529367042772
 30
0.0
 11
9.153135854414301
 21
6.705559400579488
 31
0.0
  0
LINE
  5
392B
330
37B6
100
AcDbEntity
  8
0
 62
     0
100
AcDbLine
 10
12.67257679328452
 20
10.22500033944968
 30
0.0
 11
13.69610582087762
 21
11.2485293670428
 31
0.0
  0
LINE
  5
392C
330
37B6
100
AcDbEntity
  8
0
 62
     0
100
AcDbLine
 10
6.051439730914438
 20
3.603863277079625
 30
0.0
 11
7.42257679328452
 21
4.975000339449678
 31
0.0
  0
LINE
  5
392D
330
37B6
100
AcDbEntity
  8
0
 62
     0
100
AcDbLine
 10
10.37110582087754
 20
8.372542173096206
 30
0.0
 11
11.85401317376744
 21
9.855449525986102
 31
0.0
  0
LINE
  5
392E
330
37B6
100
AcDbEntity
  8
0
 62
     0
100
AcDbLine
 10
7.920026275072984
 20
5.921462627291617
 30
0.0
 11
8.998920087078289
 21
7.00035643929695
 31
0.0
  0
LINE
  5
392F
330
37B6
100
AcDbEntity
  8
0
 62
     0
100
AcDbLine
 10
12.14065663434121
 20
10.14209298655987
 30
0.0
 11
13.57937211341772
 21
11.58080846563635
 31
0.0
  0
LINE
  5
3930
330
37B6
100
AcDbEntity
  8
0
 62
     0
100
AcDbLine
 10
5.908605820877568
 20
3.910042173096229
 30
0.0
 11
6.973563987231045
 21
4.975000339449707
 31
0.0
  0
LINE
  5
3931
330
37B6
100
AcDbEntity
  8
0
 62
     0
100
AcDbLine
 10
7.810224765322629
 20
6.260673923594765
 30
0.0
 11
8.80779910465884
 21
7.258248262930976
 31
0.0
  0
LINE
  5
3932
330
37B6
100
AcDbEntity
  8
0
 62
     0
100
AcDbLine
 10
10.37110582087754
 20
8.821554979149681
 30
0.0
 11
13.17455118117758
 21
11.62500033944971
 31
0.0
  0
LINE
  5
3933
330
37B6
100
AcDbEntity
  8
0
 62
     0
100
AcDbLine
 10
5.908605820877568
 20
4.359054979149703
 30
0.0
 11
6.524551181177542
 21
4.975000339449678
 31
0.0
  0
LINE
  5
3934
330
37B6
100
AcDbEntity
  8
0
 62
     0
100
AcDbLine
 10
7.597097351170219
 20
6.496559315495773
 30
0.0
 11
8.587046844831462
 21
7.486508809157015
 31
0.0
  0
LINE
  5
3935
330
37B6
100
AcDbEntity
  8
0
 62
     0
100
AcDbLine
 10
10.37110582087757
 20
9.270567785203098
 30
0.0
 11
12.72553837512413
 21
11.62500033944968
 31
0.0
  0
LINE
  5
3936
330
37B6
100
AcDbEntity
  8
0
 62
     0
100
AcDbLine
 10
5.943081781887485
 20
4.842543746213038
 30
0.0
 11
6.041062414114293
 21
4.940524378439846
 31
0.0
  0
LINE
  5
3937
330
37B6
100
AcDbEntity
  8
0
 62
     0
100
AcDbLine
 10
10.38109337795586
 20
9.729568148334863
 30
0.0
 11
12.26653801199236
 21
11.61501278237139
 31
0.0
  0
LINE
  5
3938
330
37B6
100
AcDbEntity
  8
0
 62
     0
100
AcDbLine
 10
7.372590948143539
 20
6.721065718522567
 30
0.0
 11
8.362540441804725
 21
7.711015212183752
 31
0.0
  0
LINE
  5
3939
330
37B6
100
AcDbEntity
  8
0
 62
     0
100
AcDbLine
 10
10.53082509408875
 20
10.32831267052126
 30
0.0
 11
11.667793489806
 21
11.4652810662385
 31
0.0
  0
LINE
  5
393A
330
37B6
100
AcDbEntity
  8
0
 62
     0
100
AcDbLine
 10
7.148084545116802
 20
6.945572121549304
 30
0.0
 11
8.138034038777988
 21
7.93552161521049
 31
0.0
  0
LINE
  5
393B
330
37B6
100
AcDbEntity
  8
0
 62
     0
100
AcDbLine
 10
6.923578142090093
 20
7.170078524576013
 30
0.0
 11
7.913527635751279
 21
8.160028018237198
 31
0.0
  0
LINE
  5
393C
330
37B6
100
AcDbEntity
  8
0
 62
     0
100
AcDbLine
 10
6.699071739063356
 20
7.39458492760275
 30
0.0
 11
7.689021232724542
 21
8.384534421263936
 31
0.0
  0
LINE
  5
393D
330
37B6
100
AcDbEntity
  8
0
 62
     0
100
AcDbLine
 10
6.474565336036562
 20
7.61909133062943
 30
0.0
 11
7.464514829697804
 21
8.609040824290673
 31
0.0
  0
LINE
  5
393E
330
37B6
100
AcDbEntity
  8
0
 62
     0
100
AcDbLine
 10
8.631461538803364
 20
10.22500033944971
 30
0.0
 11
9.058605820877545
 21
10.65214462152389
 31
0.0
  0
LINE
  5
393F
330
37B6
100
AcDbEntity
  8
0
 62
     0
100
AcDbLine
 10
6.250100590023947
 20
7.84363939067029
 30
0.0
 11
7.240133411740174
 21
8.833672212386517
 31
0.0
  0
LINE
  5
3940
330
37B6
100
AcDbEntity
  8
0
 62
     0
100
AcDbLine
 10
8.18244873274989
 20
10.22500033944965
 30
0.0
 11
9.058605820877602
 21
11.10115742757736
 31
0.0
  0
LINE
  5
3941
330
37B6
100
AcDbEntity
  8
0
 62
     0
100
AcDbLine
 10
6.044366627748161
 20
8.086918234447892
 30
0.0
 11
7.075184971096206
 21
9.117736577795966
 31
0.0
  0
LINE
  5
3942
330
37B6
100
AcDbEntity
  8
0
 62
     0
100
AcDbLine
 10
7.733435926696472
 20
10.22500033944968
 30
0.0
 11
9.01532637099703
 21
11.50689078375026
 31
0.0
  0
LINE
  5
3943
330
37B6
100
AcDbEntity
  8
0
 62
     0
100
AcDbLine
 10
5.874136324616927
 20
8.365700737370133
 30
0.0
 11
7.046105820877585
 21
9.537670233630819
 31
0.0
  0
LINE
  5
3944
330
37B6
100
AcDbEntity
  8
0
 62
     0
100
AcDbLine
 10
7.283189796057911
 20
10.22376701486459
 30
0.0
 11
8.684423120643003
 21
11.62500033944968
 31
0.0
  0
LINE
  5
3945
330
37B6
100
AcDbEntity
  8
0
 62
     0
100
AcDbLine
 10
5.743789676750878
 20
8.684366895557559
 30
0.0
 11
7.047339145462672
 21
9.987916364269381
 31
0.0
  0
LINE
  5
3946
330
37B6
100
AcDbEntity
  8
0
 62
     0
100
AcDbLine
 10
5.662883695626845
 20
9.052473720486972
 30
0.0
 11
8.235410314589557
 21
11.62500033944968
 31
0.0
  0
LINE
  5
3947
330
37B6
100
AcDbEntity
  8
0
 62
     0
100
AcDbLine
 10
5.646105820877608
 20
9.48470865179118
 30
0.0
 11
7.786397508536083
 21
11.62500033944968
 31
0.0
  0
LINE
  5
3948
330
37B6
100
AcDbEntity
  8
0
 62
     0
100
AcDbLine
 10
5.646105820877579
 20
9.933721457844654
 30
0.0
 11
7.337384702482637
 21
11.62500033944968
 31
0.0
  0
LINE
  5
3949
330
37B6
100
AcDbEntity
  8
0
 62
     0
100
AcDbLine
 10
5.656201826096747
 20
10.39283026911727
 30
0.0
 11
6.878275891210051
 21
11.61490433423057
 31
0.0
  0
ENDBLK
  5
394B
330
37B6
100
AcDbEntity
  8
0
100
AcDbBlockEnd
  0
BLOCK
  5
6007
330
5FFD
100
AcDbEntity
  8
0
100
AcDbBlockBegin
  2
*D2
 70
     1
 10
0.0
 20
0.0
 30
0.0
  3
*D2
  1

  0
LINE
  5
789D
330
5FFD
100
AcDbEntity
  8
SUNPOU
100
AcDbLine
 10
158.4422079143569
 20
94.38500262217983
 30
0.0
 11
158.4422079143569
 21
69.65286378734177
 31
0.0
  0
LINE
  5
789E
330
5FFD
100
AcDbEntity
  8
SUNPOU
100
AcDbLine
 10
113.617983914357
 20
99.88500262238487
 30
0.0
 11
113.617983914357
 21
69.65286378734177
 31
0.0
  0
LINE
  5
789F
330
5FFD
100
AcDbEntity
  8
SUNPOU
100
AcDbLine
 10
155.4422079143569
 20
71.15286378734177
 30
0.0
 11
116.617983914357
 21
71.15286378734177
 31
0.0
  0
INSERT
  5
78A0
330
5FFD
100
AcDbEntity
  8
SUNPOU
100
AcDbBlockReference
  2
_OPEN
 10
158.4422079143569
 20
71.15286378734177
 30
0.0
 41
3.0
 42
3.0
 43
3.0
  0
INSERT
  5
78A1
330
5FFD
100
AcDbEntity
  8
SUNPOU
100
AcDbBlockReference
  2
_OPEN
 10
113.617983914357
 20
71.15286378734177
 30
0.0
 41
3.0
 42
3.0
 43
3.0
 50
180.0
  0
MTEXT
  5
78A2
330
5FFD
100
AcDbEntity
  8
SUNPOU
100
AcDbMText
 10
136.030095914357
 20
75.15286378734177
 30
0.0
 40
4.0
 41
0.0
 71
     5
 72
     5
  1
\A1;45
 73
     1
 44
1.0
1001
ACAD
1000
MTEXTBEGIN
1070
    73
1070
     1
1070
    44
1040
1.0
1070
    74
1070
     0
1000
MTEXTEND
  0
POINT
  5
78A3
330
5FFD
100
AcDbEntity
  8
DEFPOINTS
 62
     0
100
AcDbPoint
 10
158.4422079143569
 20
95.88500262217982
 30
0.0
  0
POINT
  5
78A4
330
5FFD
100
AcDbEntity
  8
DEFPOINTS
 62
     0
100
AcDbPoint
 10
113.617983914357
 20
101.3850026223848
 30
0.0
  0
POINT
  5
78A5
330
5FFD
100
AcDbEntity
  8
DEFPOINTS
 62
     0
100
AcDbPoint
 10
113.617983914357
 20
71.15286378734177
 30
0.0
  0
ENDBLK
  5
6008
330
5FFD
100
AcDbEntity
  8
0
100
AcDbBlockEnd
  0
BLOCK
  5
6013
330
6009
100
AcDbEntity
  8
0
100
AcDbBlockBegin
  2
*D3
 70
     1
 10
0.0
 20
0.0
 30
0.0
  3
*D3
  1

  0
LINE
  5
78B0
330
6009
100
AcDbEntity
  8
SUNPOU
100
AcDbLine
 10
159.942207914357
 20
106.88500069993
 30
0.0
 11
182.8097535926886
 21
106.88500069993
 31
0.0
  0
LINE
  5
78B1
330
6009
100
AcDbEntity
  8
SUNPOU
100
AcDbLine
 10
159.942207914357
 20
95.88500262217982
 30
0.0
 11
182.8097535926886
 21
95.88500262217982
 31
0.0
  0
LINE
  5
78B2
330
6009
100
AcDbEntity
  8
SUNPOU
100
AcDbLine
 10
181.3097535926886
 20
103.88500069993
 30
0.0
 11
181.3097535926886
 21
98.88500262217981
 31
0.0
  0
INSERT
  5
78B3
330
6009
100
AcDbEntity
  8
SUNPOU
100
AcDbBlockReference
  2
_OPEN
 10
181.3097535926886
 20
106.88500069993
 30
0.0
 41
3.0
 42
3.0
 43
3.0
 50
90.0
  0
INSERT
  5
78B4
330
6009
100
AcDbEntity
  8
SUNPOU
100
AcDbBlockReference
  2
_OPEN
 10
181.3097535926886
 20
95.88500262217982
 30
0.0
 41
3.0
 42
3.0
 43
3.0
 50
270.0
  0
MTEXT
  5
78B5
330
6009
100
AcDbEntity
  8
SUNPOU
100
AcDbMText
 10
177.3097535926886
 20
101.3850016610549
 30
0.0
 40
4.0
 41
0.0
 71
     5
 72
     5
  1
\A1;11
 11
0.0000000000000001
 21
1.0
 31
0.0
 73
     1
 44
1.0
1001
ACAD
1000
MTEXTBEGIN
1070
    73
1070
     1
1070
    44
1040
1.0
1070
    74
1070
     0
1000
MTEXTEND
  0
POINT
  5
78B6
330
6009
100
AcDbEntity
  8
DEFPOINTS
 62
     0
100
AcDbPoint
 10
158.4422079143569
 20
106.88500069993
 30
0.0
  0
POINT
  5
78B7
330
6009
100
AcDbEntity
  8
DEFPOINTS
 62
     0
100
AcDbPoint
 10
158.4422079143569
 20
95.88500262217982
 30
0.0
  0
POINT
  5
78B8
330
6009
100
AcDbEntity
  8
DEFPOINTS
 62
     0
100
AcDbPoint
 10
181.3097535926886
 20
95.88500262217982
 30
0.0
  0
ENDBLK
  5
6014
330
6009
100
AcDbEntity
  8
0
100
AcDbBlockEnd
  0
BLOCK
  5
6021
330
6015
100
AcDbEntity
  8
0
100
AcDbBlockBegin
  2
*D4
 70
     1
 10
0.0
 20
0.0
 30
0.0
  3
*D4
  1

  0
LINE
  5
78A6
330
6015
100
AcDbEntity
  8
SUNPOU
100
AcDbLine
 10
120.4034099946562
 20
96.92775591449819
 30
0.0
 11
123.1079246841719
 21
96.92775591449819
 31
0.0
  0
LINE
  5
78A7
330
6015
100
AcDbEntity
  8
SUNPOU
100
AcDbLine
 10
120.1634079143569
 20
95.88490262217979
 30
0.0
 11
123.1079246841719
 21
95.88490262217979
 31
0.0
  0
LINE
  5
78A8
330
6015
100
AcDbEntity
  8
SUNPOU
100
AcDbLine
 10
121.6079246841719
 20
99.9277559144982
 30
0.0
 11
121.6079246841719
 21
102.9277559144982
 31
0.0
  0
LINE
  5
78A9
330
6015
100
AcDbEntity
  8
SUNPOU
100
AcDbLine
 10
121.6079246841719
 20
92.8849026221798
 30
0.0
 11
121.6079246841719
 21
75.88490262217979
 31
0.0
  0
INSERT
  5
78AA
330
6015
100
AcDbEntity
  8
SUNPOU
100
AcDbBlockReference
  2
_OPEN
 10
121.6079246841719
 20
96.92775591449819
 30
0.0
 41
3.0
 42
3.0
 43
3.0
 50
270.0
  0
INSERT
  5
78AB
330
6015
100
AcDbEntity
  8
SUNPOU
100
AcDbBlockReference
  2
_OPEN
 10
121.6079246841719
 20
95.88490262217979
 30
0.0
 41
3.0
 42
3.0
 43
3.0
 50
90.0
  0
MTEXT
  5
78AC
330
6015
100
AcDbEntity
  8
SUNPOU
100
AcDbMText
 10
117.6079246841719
 20
82.88490262217981
 30
0.0
 40
4.0
 41
0.0
 71
     5
 72
     5
  1
\A1;t1.0
 11
0.0000000000000001
 21
1.0
 31
0.0
 73
     1
 44
1.0
1001
ACAD
1000
MTEXTBEGIN
1070
    73
1070
     1
1070
    44
1040
1.0
1070
    74
1070
     0
1000
MTEXTEND
  0
POINT
  5
78AD
330
6015
100
AcDbEntity
  8
DEFPOINTS
 62
     0
100
AcDbPoint
 10
118.9034099946562
 20
96.92775591449819
 30
0.0
  0
POINT
  5
78AE
330
6015
100
AcDbEntity
  8
DEFPOINTS
 62
     0
100
AcDbPoint
 10
118.6634079143569
 20
95.88490262217979
 30
0.0
  0
POINT
  5
78AF
330
6015
100
AcDbEntity
  8
DEFPOINTS
 62
     0
100
AcDbPoint
 10
121.6079246841719
 20
95.88490262217979
 30
0.0
  0
ENDBLK
  5
6022
330
6015
100
AcDbEntity
  8
0
100
AcDbBlockEnd
  0
BLOCK
  5
602F
330
6023
100
AcDbEntity
  8
0
100
AcDbBlockBegin
  2
*D5
 70
     1
 10
0.0
 20
0.0
 30
0.0
  3
*D5
  1

  0
LINE
  5
78B9
330
6023
100
AcDbEntity
  8
SUNPOU
100
AcDbLine
 10
149.9422079143569
 20
102.8850026221798
 30
0.0
 11
174.7824904893239
 21
102.8850026221798
 31
0.0
  0
LINE
  5
78BA
330
6023
100
AcDbEntity
  8
SUNPOU
100
AcDbLine
 10
151.9422079143569
 20
98.8851026221798
 30
0.0
 11
174.7824904893239
 21
98.88510262217979
 31
0.0
  0
LINE
  5
78BB
330
6023
100
AcDbEntity
  8
SUNPOU
100
AcDbLine
 10
173.2824904893239
 20
105.8850026221798
 30
0.0
 11
173.2824904893239
 21
108.8850026221798
 31
0.0
  0
LINE
  5
78BC
330
6023
100
AcDbEntity
  8
SUNPOU
100
AcDbLine
 10
173.2824904893239
 20
95.88510262217978
 30
0.0
 11
173.2824904893239
 21
86.21843595551311
 31
0.0
  0
INSERT
  5
78BD
330
6023
100
AcDbEntity
  8
SUNPOU
100
AcDbBlockReference
  2
_OPEN
 10
173.2824904893239
 20
102.8850026221798
 30
0.0
 41
3.0
 42
3.0
 43
3.0
 50
270.0
  0
INSERT
  5
78BE
330
6023
100
AcDbEntity
  8
SUNPOU
100
AcDbBlockReference
  2
_OPEN
 10
173.2824904893239
 20
98.88510262217979
 30
0.0
 41
3.0
 42
3.0
 43
3.0
 50
90.0
  0
MTEXT
  5
78BF
330
6023
100
AcDbEntity
  8
SUNPOU
100
AcDbMText
 10
169.2824904893239
 20
89.55176928884649
 30
0.0
 40
4.0
 41
0.0
 71
     5
 72
     5
  1
\A1;4
 11
0.0000000000000001
 21
1.0
 31
0.0
 73
     1
 44
1.0
1001
ACAD
1000
MTEXTBEGIN
1070
    73
1070
     1
1070
    44
1040
1.0
1070
    74
1070
     0
1000
MTEXTEND
  0
POINT
  5
78C0
330
6023
100
AcDbEntity
  8
DEFPOINTS
 62
     0
100
AcDbPoint
 10
148.442207914357
 20
102.8850026221798
 30
0.0
  0
POINT
  5
78C1
330
6023
100
AcDbEntity
  8
DEFPOINTS
 62
     0
100
AcDbPoint
 10
150.442207914357
 20
98.8851026221798
 30
0.0
  0
POINT
  5
78C2
330
6023
100
AcDbEntity
  8
DEFPOINTS
 62
     0
100
AcDbPoint
 10
173.2824904893239
 20
98.88510262217979
 30
0.0
  0
ENDBLK
  5
6030
330
6023
100
AcDbEntity
  8
0
100
AcDbBlockEnd
  0
BLOCK
  5
6064
330
605A
100
AcDbEntity
  8
0
100
AcDbBlockBegin
  2
*D6
 70
     1
 10
0.0
 20
0.0
 30
0.0
  3
*D6
  1

  0
LINE
  5
7872
330
605A
100
AcDbEntity
  8
SUNPOU
100
AcDbLine
 10
243.2639645818384
 20
94.38500262217994
 30
0.0
 11
243.2639645818384
 21
69.91336726282978
 31
0.0
  0
LINE
  5
7873
330
605A
100
AcDbEntity
  8
SUNPOU
100
AcDbLine
 10
283.2639645818384
 20
94.38500262217994
 30
0.0
 11
283.2639645818384
 21
69.91336726282978
 31
0.0
  0
LINE
  5
7874
330
605A
100
AcDbEntity
  8
SUNPOU
100
AcDbLine
 10
246.2639645818384
 20
71.41336726282978
 30
0.0
 11
280.2639645818384
 21
71.41336726282978
 31
0.0
  0
INSERT
  5
7875
330
605A
100
AcDbEntity
  8
SUNPOU
100
AcDbBlockReference
  2
_OPEN
 10
243.2639645818384
 20
71.41336726282978
 30
0.0
 41
3.0
 42
3.0
 43
3.0
 50
180.0
  0
INSERT
  5
7876
330
605A
100
AcDbEntity
  8
SUNPOU
100
AcDbBlockReference
  2
_OPEN
 10
283.2639645818384
 20
71.41336726282978
 30
0.0
 41
3.0
 42
3.0
 43
3.0
  0
MTEXT
  5
7877
330
605A
100
AcDbEntity
  8
SUNPOU
100
AcDbMText
 10
263.2639645818384
 20
75.41336726282978
 30
0.0
 40
4.0
 41
0.0
 71
     5
 72
     5
  1
\A1;40
 73
     1
 44
1.0
1001
ACAD
1000
MTEXTBEGIN
1070
    73
1070
     1
1070
    44
1040
1.0
1070
    74
1070
     0
1000
MTEXTEND
  0
POINT
  5
7878
330
605A
100
AcDbEntity
  8
DEFPOINTS
 62
     0
100
AcDbPoint
 10
243.2639645818384
 20
95.88500262217994
 30
0.0
  0
POINT
  5
7879
330
605A
100
AcDbEntity
  8
DEFPOINTS
 62
     0
100
AcDbPoint
 10
283.2639645818384
 20
95.88500262217994
 30
0.0
  0
POINT
  5
787A
330
605A
100
AcDbEntity
  8
DEFPOINTS
 62
     0
100
AcDbPoint
 10
283.2639645818384
 20
71.41336726282978
 30
0.0
  0
ENDBLK
  5
6065
330
605A
100
AcDbEntity
  8
0
100
AcDbBlockEnd
  0
BLOCK
  5
607B
330
6071
100
AcDbEntity
  8
0
100
AcDbBlockBegin
  2
*D7
 70
     1
 10
0.0
 20
0.0
 30
0.0
  3
*D7
  1

  0
LINE
  5
785B
330
6071
100
AcDbEntity
  8
SUNPOU
100
AcDbLine
 10
261.7639580253274
 20
181.8850345266486
 30
0.0
 11
194.5184116597955
 21
181.8850345266486
 31
0.0
  0
LINE
  5
785C
330
6071
100
AcDbEntity
  8
SUNPOU
100
AcDbLine
 10
241.7639580253275
 20
95.88500262217971
 30
0.0
 11
194.5184116597955
 21
95.88500262217973
 31
0.0
  0
LINE
  5
785D
330
6071
100
AcDbEntity
  8
SUNPOU
100
AcDbLine
 10
196.0184116597955
 20
178.8850345266487
 30
0.0
 11
196.0184116597955
 21
98.88500262217974
 31
0.0
  0
INSERT
  5
785E
330
6071
100
AcDbEntity
  8
SUNPOU
100
AcDbBlockReference
  2
_OPEN
 10
196.0184116597955
 20
181.8850345266486
 30
0.0
 41
3.0
 42
3.0
 43
3.0
 50
90.0
  0
INSERT
  5
785F
330
6071
100
AcDbEntity
  8
SUNPOU
100
AcDbBlockReference
  2
_OPEN
 10
196.0184116597955
 20
95.88500262217973
 30
0.0
 41
3.0
 42
3.0
 43
3.0
 50
270.0
  0
MTEXT
  5
7860
330
6071
100
AcDbEntity
  8
SUNPOU
100
AcDbMText
 10
192.0184116597955
 20
138.8850185744142
 30
0.0
 40
4.0
 41
0.0
 71
     5
 72
     5
  1
\A1;86
 11
0.0000000000000001
 21
1.0
 31
0.0
 73
     1
 44
1.0
1001
ACAD
1000
MTEXTBEGIN
1070
    73
1070
     1
1070
    44
1040
1.0
1070
    74
1070
     0
1000
MTEXTEND
  0
POINT
  5
7861
330
6071
100
AcDbEntity
  8
DEFPOINTS
 62
     0
100
AcDbPoint
 10
263.2639580253274
 20
181.8850345266486
 30
0.0
  0
POINT
  5
7862
330
6071
100
AcDbEntity
  8
DEFPOINTS
 62
     0
100
AcDbPoint
 10
243.2639580253274
 20
95.88500262217971
 30
0.0
  0
POINT
  5
7863
330
6071
100
AcDbEntity
  8
DEFPOINTS
 62
     0
100
AcDbPoint
 10
196.0184116597955
 20
95.88500262217973
 30
0.0
  0
ENDBLK
  5
607C
330
6071
100
AcDbEntity
  8
0
100
AcDbBlockEnd
  0
BLOCK
  5
6087
330
607D
100
AcDbEntity
  8
0
100
AcDbBlockBegin
  2
*D8
 70
     1
 10
0.0
 20
0.0
 30
0.0
  3
*D8
  1

  0
LINE
  5
7852
330
607D
100
AcDbEntity
  8
SUNPOU
100
AcDbLine
 10
261.7639580253274
 20
181.8850345266486
 30
0.0
 11
203.2760086055358
 21
181.8850345266486
 31
0.0
  0
LINE
  5
7853
330
607D
100
AcDbEntity
  8
SUNPOU
100
AcDbLine
 10
241.7639580253275
 20
106.8849026221797
 30
0.0
 11
203.2760086055358
 21
106.8849026221797
 31
0.0
  0
LINE
  5
7854
330
607D
100
AcDbEntity
  8
SUNPOU
100
AcDbLine
 10
204.7760086055358
 20
178.8850345266487
 30
0.0
 11
204.7760086055358
 21
109.8849026221797
 31
0.0
  0
INSERT
  5
7855
330
607D
100
AcDbEntity
  8
SUNPOU
100
AcDbBlockReference
  2
_OPEN
 10
204.7760086055358
 20
181.8850345266486
 30
0.0
 41
3.0
 42
3.0
 43
3.0
 50
90.0
  0
INSERT
  5
7856
330
607D
100
AcDbEntity
  8
SUNPOU
100
AcDbBlockReference
  2
_OPEN
 10
204.7760086055358
 20
106.8849026221797
 30
0.0
 41
3.0
 42
3.0
 43
3.0
 50
270.0
  0
MTEXT
  5
7857
330
607D
100
AcDbEntity
  8
SUNPOU
100
AcDbMText
 10
200.7760086055357
 20
144.3849685744142
 30
0.0
 40
4.0
 41
0.0
 71
     5
 72
     5
  1
\A1;75
 11
0.0000000000000001
 21
1.0
 31
0.0
 73
     1
 44
1.0
1001
ACAD
1000
MTEXTBEGIN
1070
    73
1070
     1
1070
    44
1040
1.0
1070
    74
1070
     0
1000
MTEXTEND
  0
POINT
  5
7858
330
607D
100
AcDbEntity
  8
DEFPOINTS
 62
     0
100
AcDbPoint
 10
263.2639580253274
 20
181.8850345266486
 30
0.0
  0
POINT
  5
7859
330
607D
100
AcDbEntity
  8
DEFPOINTS
 62
     0
100
AcDbPoint
 10
243.2639580253274
 20
106.8849026221797
 30
0.0
  0
POINT
  5
785A
330
607D
100
AcDbEntity
  8
DEFPOINTS
 62
     0
100
AcDbPoint
 10
204.7760086055358
 20
106.8849026221797
 30
0.0
  0
ENDBLK
  5
6088
330
607D
100
AcDbEntity
  8
0
100
AcDbBlockEnd
  0
BLOCK
  5
60B8
330
60AE
100
AcDbEntity
  8
0
100
AcDbBlockBegin
  2
*D9
 70
     1
 10
0.0
 20
0.0
 30
0.0
  3
*D9
  1

  0
LINE
  5
78C3
330
60AE
100
AcDbEntity
  8
SUNPOU
100
AcDbLine
 10
147.4422154245422
 20
183.3848360420988
 30
0.0
 11
147.4422154245422
 21
202.811037959608
 31
0.0
  0
LINE
  5
78C4
330
60AE
100
AcDbEntity
  8
SUNPOU
100
AcDbLine
 10
129.4422154245422
 20
183.3848360420988
 30
0.0
 11
129.4422154245422
 21
202.811037959608
 31
0.0
  0
LINE
  5
78C5
330
60AE
100
AcDbEntity
  8
SUNPOU
100
AcDbLine
 10
144.4422154245422
 20
201.311037959608
 30
0.0
 11
132.4422154245422
 21
201.311037959608
 31
0.0
  0
INSERT
  5
78C6
330
60AE
100
AcDbEntity
  8
SUNPOU
100
AcDbBlockReference
  2
_OPEN
 10
147.4422154245422
 20
201.311037959608
 30
0.0
 41
3.0
 42
3.0
 43
3.0
  0
INSERT
  5
78C7
330
60AE
100
AcDbEntity
  8
SUNPOU
100
AcDbBlockReference
  2
_OPEN
 10
129.4422154245422
 20
201.311037959608
 30
0.0
 41
3.0
 42
3.0
 43
3.0
 50
180.0
  0
MTEXT
  5
78C8
330
60AE
100
AcDbEntity
  8
SUNPOU
100
AcDbMText
 10
138.4422154245422
 20
205.311037959608
 30
0.0
 40
4.0
 41
0.0
 71
     5
 72
     5
  1
\A1;18
 73
     1
 44
1.0
1001
ACAD
1000
MTEXTBEGIN
1070
    73
1070
     1
1070
    44
1040
1.0
1070
    74
1070
     0
1000
MTEXTEND
  0
POINT
  5
78C9
330
60AE
100
AcDbEntity
  8
DEFPOINTS
 62
     0
100
AcDbPoint
 10
147.4422154245422
 20
181.8848360420988
 30
0.0
  0
POINT
  5
78CA
330
60AE
100
AcDbEntity
  8
DEFPOINTS
 62
     0
100
AcDbPoint
 10
129.4422154245422
 20
181.8848360420988
 30
0.0
  0
POINT
  5
78CB
330
60AE
100
AcDbEntity
  8
DEFPOINTS
 62
     0
100
AcDbPoint
 10
129.4422154245422
 20
201.311037959608
 30
0.0
  0
ENDBLK
  5
60B9
330
60AE
100
AcDbEntity
  8
0
100
AcDbBlockEnd
  0
BLOCK
  5
6A51
330
6A47
100
AcDbEntity
  8
0
100
AcDbBlockBegin
  2
*D10
 70
     1
 10
0.0
 20
0.0
 30
0.0
  3
*D10
  1

  0
LINE
  5
7869
330
6A47
100
AcDbEntity
  8
SUNPOU
100
AcDbLine
 10
230.2639486367453
 20
150.3850145263234
 30
0.0
 11
230.2639486367453
 21
198.7070182753503
 31
0.0
  0
LINE
  5
786A
330
6A47
100
AcDbEntity
  8
SUNPOU
100
AcDbLine
 10
296.2639886373991
 20
150.3850145263234
 30
0.0
 11
296.2639886373991
 21
198.7070182753503
 31
0.0
  0
LINE
  5
786B
330
6A47
100
AcDbEntity
  8
SUNPOU
100
AcDbLine
 10
233.2639486367453
 20
197.2070182753504
 30
0.0
 11
293.2639886373991
 21
197.2070182753504
 31
0.0
  0
INSERT
  5
786C
330
6A47
100
AcDbEntity
  8
SUNPOU
100
AcDbBlockReference
  2
_OPEN
 10
230.2639486367453
 20
197.2070182753504
 30
0.0
 41
3.0
 42
3.0
 43
3.0
 50
180.0
  0
INSERT
  5
786D
330
6A47
100
AcDbEntity
  8
SUNPOU
100
AcDbBlockReference
  2
_OPEN
 10
296.2639886373991
 20
197.2070182753504
 30
0.0
 41
3.0
 42
3.0
 43
3.0
  0
MTEXT
  5
786E
330
6A47
100
AcDbEntity
  8
SUNPOU
100
AcDbMText
 10
263.2639686370722
 20
201.2070182753504
 30
0.0
 40
4.0
 41
0.0
 71
     5
 72
     5
  1
\A1;66
 73
     1
 44
1.0
1001
ACAD
1000
MTEXTBEGIN
1070
    73
1070
     1
1070
    44
1040
1.0
1070
    74
1070
     0
1000
MTEXTEND
  0
POINT
  5
786F
330
6A47
100
AcDbEntity
  8
DEFPOINTS
 62
     0
100
AcDbPoint
 10
230.2639486367453
 20
148.8850145263234
 30
0.0
  0
POINT
  5
7870
330
6A47
100
AcDbEntity
  8
DEFPOINTS
 62
     0
100
AcDbPoint
 10
296.2639886373991
 20
148.8850145263234
 30
0.0
  0
POINT
  5
7871
330
6A47
100
AcDbEntity
  8
DEFPOINTS
 62
     0
100
AcDbPoint
 10
296.2639886373991
 20
197.2070182753504
 30
0.0
  0
ENDBLK
  5
6A52
330
6A47
100
AcDbEntity
  8
0
100
AcDbBlockEnd
  0
BLOCK
  5
7649
330
7643
100
AcDbEntity
  8
0
100
AcDbBlockBegin
  2
*D11
 70
     1
 10
0.0
 20
0.0
 30
0.0
  3
*D11
  1

  0
LINE
  5
791B
330
7643
100
AcDbEntity
  8
SUNPOU
100
AcDbLine
 10
241.5187162920659
 20
132.8804814037971
 30
0.0
 11
285.0092209820786
 21
164.8895476488497
 31
0.0
  0
MTEXT
  5
791C
330
7643
100
AcDbEntity
  8
SUNPOU
100
AcDbMText
 10
269.6883176859642
 20
159.9349829659762
 30
0.0
 40
4.0
 41
0.0
 71
     5
 72
     5
  1
\A1;\U+220560
 11
0.8053791198948429
 21
0.5927600469308035
 31
0.0
 73
     1
 44
1.0
1001
ACAD
1000
MTEXTBEGIN
1070
    73
1070
     1
1070
    44
1040
1.0
1070
    74
1070
     0
1000
MTEXTEND
  0
INSERT
  5
791D
330
7643
100
AcDbEntity
  8
SUNPOU
100
AcDbBlockReference
  2
_OPEN
 10
239.1025789323814
 20
131.1022012630047
 30
0.0
 41
3.0
 42
3.0
 43
3.0
 50
216.3531151146839
  0
INSERT
  5
791E
330
7643
100
AcDbEntity
  8
SUNPOU
100
AcDbBlockReference
  2
_OPEN
 10
287.4253583417631
 20
166.6678277896422
 30
0.0
 41
3.0
 42
3.0
 43
3.0
 50
36.35311511468394
  0
POINT
  5
791F
330
7643
100
AcDbEntity
  8
DEFPOINTS
 62
     0
100
AcDbPoint
 10
287.4253583417631
 20
166.6678277896422
 30
0.0
  0
POINT
  5
7920
330
7643
100
AcDbEntity
  8
DEFPOINTS
 62
     0
100
AcDbPoint
 10
239.1025789323814
 20
131.1022012630047
 30
0.0
  0
ENDBLK
  5
764A
330
7643
100
AcDbEntity
  8
0
100
AcDbBlockEnd
  0
BLOCK
  5
7680
330
7676
100
AcDbEntity
  8
0
100
AcDbBlockBegin
  2
*D12
 70
     1
 10
0.0
 20
0.0
 30
0.0
  3
*D12
  1

  0
LINE
  5
7921
330
7676
100
AcDbEntity
  8
SUNPOU
100
AcDbLine
 10
138.4422014767373
 20
190.0848041376281
 30
0.0
 11
138.4422014767373
 21
195.5006316327179
 31
0.0
  0
LINE
  5
7922
330
7676
100
AcDbEntity
  8
SUNPOU
100
AcDbLine
 10
113.617983914357
 20
102.8850026223848
 30
0.0
 11
113.617983914357
 21
195.5006316327179
 31
0.0
  0
LINE
  5
7923
330
7676
100
AcDbEntity
  8
SUNPOU
100
AcDbLine
 10
135.4422014767373
 20
194.0006316327179
 30
0.0
 11
116.617983914357
 21
194.0006316327179
 31
0.0
  0
MTEXT
  5
7924
330
7676
100
AcDbEntity
  8
SUNPOU
100
AcDbMText
 10
121.6991188571803
 20
198.4403804981693
 30
0.0
 40
4.0
 41
0.0
 71
     5
 72
     5
  1
\A1;25
 73
     1
 44
1.0
1001
ACAD
1000
MTEXTBEGIN
1070
    73
1070
     1
1070
    44
1040
1.0
1070
    74
1070
     0
1000
MTEXTEND
  0
INSERT
  5
7925
330
7676
100
AcDbEntity
  8
SUNPOU
100
AcDbBlockReference
  2
_OPEN
 10
138.4422014767373
 20
194.0006316327179
 30
0.0
 41
3.0
 42
3.0
 43
3.0
  0
INSERT
  5
7926
330
7676
100
AcDbEntity
  8
SUNPOU
100
AcDbBlockReference
  2
_OPEN
 10
113.617983914357
 20
194.0006316327179
 30
0.0
 41
3.0
 42
3.0
 43
3.0
 50
180.0
  0
POINT
  5
7927
330
7676
100
AcDbEntity
  8
DEFPOINTS
 62
     0
100
AcDbPoint
 10
138.4422014767373
 20
188.5848041376281
 30
0.0
  0
POINT
  5
7928
330
7676
100
AcDbEntity
  8
DEFPOINTS
 62
     0
100
AcDbPoint
 10
113.617983914357
 20
101.3850026223848
 30
0.0
  0
POINT
  5
7929
330
7676
100
AcDbEntity
  8
DEFPOINTS
 62
     0
100
AcDbPoint
 10
113.617983914357
 20
194.0006316327179
 30
0.0
  0
ENDBLK
  5
7681
330
7676
100
AcDbEntity
  8
0
100
AcDbBlockEnd
  0
ENDSEC
  0
SECTION
  2
ENTITIES
  0
LWPOLYLINE
  5
3B1A
330
1A
100
AcDbEntity
  8
ZUWAKU
100
AcDbPolyline
 90
        4
 70
     1
 43
0.0
 10
0.4000002112909442
 20
275.4000003333167
 10
0.4000002112909442
 20
0.4000003333167684
 10
398.4000002112911
 20
0.4000003333167684
 10
398.4000002112911
 20
275.4000003333167
  0
LWPOLYLINE
  5
3B1B
330
1A
100
AcDbEntity
  8
ZUWAKU
100
AcDbPolyline
 90
        4
 70
     1
 43
0.0
 10
0.2000002112910124
 20
275.6000003333168
 10
0.2000002112910124
 20
0.2000003333167797
 10
398.6000002112909
 20
0.2000003333167655
 10
398.6000002112909
 20
275.6000003333168
  0
LWPOLYLINE
  5
3B1C
330
1A
100
AcDbEntity
  8
ZUWAKU
100
AcDbPolyline
 90
        4
 70
     1
 43
0.0
 10
0.0000002112909669
 20
275.8000003333167
 10
0.0000002112909669
 20
0.0000003333167342
 10
398.8000002112912
 20
0.0000003333167697
 10
398.8000002112912
 20
275.8000003333168
  0
LWPOLYLINE
  5
3B1D
330
1A
100
AcDbEntity
  8
ZUWAKU
100
AcDbPolyline
 90
        4
 70
     1
 43
0.0
 10
0.3000002112909215
 20
275.5000003333168
 10
0.3000002112909215
 20
0.3000003333167456
 10
398.500000211291
 20
0.3000003333167669
 10
398.500000211291
 20
275.5000003333168
  0
LWPOLYLINE
  5
3B1E
330
1A
100
AcDbEntity
  8
ZUWAKU
100
AcDbPolyline
 90
        4
 70
     1
 43
0.0
 10
0.100000211290876
 20
275.7000003333168
 10
0.100000211290876
 20
0.1000003333167569
 10
398.7000002112908
 20
0.1000003333167712
 10
398.700000211291
 20
275.7000003333168
  0
LINE
  5
3B1F
330
1A
100
AcDbEntity
  8
ZUWAKU
100
AcDbLine
 10
0.0000002112909669
 20
15.00000033331673
 30
0.0
 11
398.7000002112908
 21
15.00000033331673
 31
0.0
  0
LINE
  5
3B20
330
1A
100
AcDbEntity
  8
ZUWAKU
100
AcDbLine
 10
0.0000002112909669
 20
15.10000033331676
 30
0.0
 11
398.7000002112908
 21
15.10000033331676
 31
0.0
  0
LINE
  5
3B21
330
1A
100
AcDbEntity
  8
ZUWAKU
100
AcDbLine
 10
0.0000002112909669
 20
15.20000033331672
 30
0.0
 11
398.7000002112908
 21
15.20000033331672
 31
0.0
  0
LINE
  5
3B22
330
1A
100
AcDbEntity
  8
ZUWAKU
100
AcDbLine
 10
0.0000002112909669
 20
15.30000033331674
 30
0.0
 11
398.7000002112908
 21
15.30000033331674
 31
0.0
  0
LINE
  5
3B23
330
1A
100
AcDbEntity
  8
ZUWAKU
100
AcDbLine
 10
0.0000002112909669
 20
15.40000033331671
 30
0.0
 11
398.7000002112908
 21
15.40000033331671
 31
0.0
  0
LINE
  5
3B24
330
1A
100
AcDbEntity
  8
ZUWAKU
100
AcDbLine
 10
104.3233008563249
 20
7.700000333316779
 30
0.0
 11
223.7121821967865
 21
7.700000333316779
 31
0.0
  0
LINE
  5
3B25
330
1A
100
AcDbEntity
  8
ZUWAKU
100
AcDbLine
 10
104.3233008563249
 20
7.800000333316745
 30
0.0
 11
223.7121821967865
 21
7.800000333316745
 31
0.0
  0
LINE
  5
3B26
330
1A
100
AcDbEntity
  8
ZUWAKU
100
AcDbLine
 10
104.3233008563249
 20
7.600000333316756
 30
0.0
 11
223.7121821967865
 21
7.600000333316756
 31
0.0
  0
ARC
  5
3B30
330
1A
100
AcDbEntity
  8
ZUWAKU
100
AcDbCircle
 10
7.046106288681471
 20
10.22500033331676
 30
0.0
 40
1.399999999999999
100
AcDbArc
 50
90.0
 51
180.0
  0
ARC
  5
3B31
330
1A
100
AcDbEntity
  8
ZUWAKU
100
AcDbCircle
 10
6.171106288681471
 20
4.712500333316711
 30
0.0
 40
0.2625
100
AcDbArc
 50
90.0
 51
180.0
  0
ARC
  5
3B32
330
1A
100
AcDbEntity
  8
ZUWAKU
100
AcDbCircle
 10
6.171106288681471
 20
3.837500333316711
 30
0.0
 40
0.2625
100
AcDbArc
 50
180.0
 51
270.0
  0
ARC
  5
3B33
330
1A
100
AcDbEntity
  8
ZUWAKU
100
AcDbCircle
 10
7.746106288681517
 20
9.317399320639083
 30
0.0
 40
2.099999999999999
100
AcDbArc
 50
180.0
 51
224.9999999999997
  0
INSERT
  5
3B34
330
1A
100
AcDbEntity
  8
ZUWAKU
  6
Continuous
100
AcDbBlockReference
  2
*X1
 10
0.0000004678039431
 20
-0.0000000061329501
 30
0.0
1001
ACAD
1000
HATCH
1002
{
1070
    19
1000
ANSI37
1040
0.1
1040
0.0
1000
R14_HATCH_DATA
1000
585
1011
1.000000467803943
1021
-0.0000000061329501
1031
0.0
1011
0.0000004678039431
1021
0.9999999938670498
1031
0.0
1011
0.0000004678039431
1021
-0.0000000061329501
1031
1.0
1040
0.0
1010
0.0
1020
0.0
1030
1.0
1000
ANSI37
1070
     0
1070
     0
1071
        8
1071
        7
1070
     1
1070
     1
1071
       24
1040
7.251131074046952
1040
8.822424579941475
1040
-0.1989123673796348
1040
7.046105820877585
1040
9.317399326772001
1040
0.0
1040
7.046105820877585
1040
9.96250033944969
1040
-0.4142135623730912
1040
7.308605820877573
1040
10.22500033944968
1040
0.0
1040
8.796105820877528
1040
10.22500033944968
1040
0.4142135623731546
1040
9.058605820877573
1040
10.48750033944968
1040
0.0
1040
9.058605820877573
1040
11.36250033944969
1040
0.4142135623731586
1040
8.796105820877528
1040
11.62500033944969
1040
0.0
1040
7.046105820877585
1040
11.62500033944969
1040
0.4142135623730928
1040
5.646105820877608
1040
10.2250003394497
1040
0.0
1040
5.646105820877608
1040
9.317399326772065
1040
0.1989123673796619
1040
6.261181580385823
1040
7.832475086280261
1040
0.0
1040
7.716080567708161
1040
6.377576098957932
1040
-0.1989123673796613
1040
7.921105820877585
1040
5.882601352127339
1040
0.0
1040
7.921105820877585
1040
5.237500339449681
1040
-0.4142135623730911
1040
7.658605820877596
1040
4.975000339449685
1040
0.0
1040
6.171105820877642
1040
4.975000339449685
1040
0.4142135623731526
1040
5.908605820877596
1040
4.712500339449691
1040
0.0
1040
5.908605820877596
1040
3.837500339449681
1040
0.4142135623731526
1040
6.171105820877642
1040
3.575000339449687
1040
0.0
1040
7.921105820877585
1040
3.575000339449687
1040
0.4142135623731044
1040
9.321105820877619
1040
4.975000339449675
1040
0.0
1040
9.321105820877619
1040
5.882601352127311
1040
0.1989123673796604
1040
8.706030061369347
1040
7.367525592619081
1040
0.0
1071
        0
1071
        7
1070
     1
1070
     1
1071
       16
1040
11.7711058208776
1040
9.52500033944969
1040
-0.4142135623730935
1040
12.47110582087759
1040
10.22500033944968
1040
0.0
1040
13.43360582087757
1040
10.22500033944968
1040
0.4142135623731546
1040
13.69610582087762
1040
10.48750033944968
1040
0.0
1040
13.69610582087762
1040
11.36250033944969
1040
0.4142135623730951
1040
13.43360582087763
1040
11.62500033944969
1040
0.0
1040
12.47110582087754
1040
11.62500033944966
1040
0.4142135623730892
1040
10.37110582087757
1040
9.525000339449654
1040
0.0
1040
10.37110582087757
1040
5.675000339449699
1040
0.4142135623730969
1040
12.47110582087759
1040
3.575000339449687
1040
0.0
1040
13.43360582087757
1040
3.575000339449687
1040
0.4142135623731526
1040
13.69610582087762
1040
3.837500339449681
1040
0.0
1040
13.69610582087762
1040
4.712500339449691
1040
0.4142135623730891
1040
13.43360582087763
1040
4.975000339449685
1040
0.0
1040
12.47110582087759
1040
4.975000339449685
1040
-0.4142135623730928
1040
11.7711058208776
1040
5.675000339449679
1040
0.0
1071
        0
1071
        7
1070
     1
1070
     1
1071
        2
1040
12.12110582087757
1040
7.600000339449685
1040
1.0
1040
13.87110582087757
1040
7.600000339449685
1040
1.0
1071
        0
1071
        7
1070
     1
1070
     1
1071
       26
1040
18.65742906196658
1040
9.602523936231399
1040
0.0
1040
19.18824887853549
1040
11.28345335536619
1040
0.5069206636600134
1040
18.93793342893781
1040
11.62500033944969
1040
0.0
1040
18.08848873913319
1040
11.62500033944969
1040
0.3272098845218764
1040
17.83817328953552
1040
11.44154732353317
1040
0.0
1040
16.90403835221963
1040
8.483453355366226
1040
-0.3272098845219541
1040
16.65372290262189
1040
8.300000339449685
1040
0.0
1040
16.58360582087766
1040
8.300000339449685
1040
-0.4142135623731526
1040
16.32110582087762
1040
8.562500339449679
1040
0.0
1040
16.32110582087762
1040
11.36250033944969
1040
0.4142135623730951
1040
16.05860582087763
1040
11.62500033944969
1040
0.0
1040
15.18360582087757
1040
11.62500033944969
1040
0.4142135623730871
1040
14.92110582087758
1040
11.36250033944969
1040
0.0
1040
14.92110582087758
1040
3.837500339449681
1040
0.4142135623730891
1040
15.18360582087757
1040
3.575000339449687
1040
0.0
1040
16.05860582087757
1040
3.575000339449687
1040
0.4142135623731526
1040
16.32110582087762
1040
3.837500339449681
1040
0.0
1040
16.32110582087762
1040
6.637500339449692
1040
-0.4142135623731526
1040
16.58360582087766
1040
6.900000339449686
1040
0.0
1040
16.65372290262195
1040
6.900000339449686
1040
-0.3272098845218915
1040
16.90403835221963
1040
6.716547323533148
1040
0.0
1040
17.83817328953552
1040
3.758453355366222
1040
0.3272098845218902
1040
18.08848873913319
1040
3.575000339449687
1040
0.0
1040
18.93793342893781
1040
3.575000339449687
1040
0.5069206636600335
1040
19.18824887853549
1040
3.91654732353319
1040
0.0
1040
18.02505318929866
1040
7.600000339449755
1040
0.0
1071
        0
1071
        7
1070
     1
1070
     1
1071
        8
1040
21.74610582087757
1040
11.36250033944969
1040
0.4142135623731546
1040
21.48360582087753
1040
11.62500033944969
1040
0.0
1040
20.60860582087764
1040
11.62500033944969
1040
0.4142135623731507
1040
20.3461058208776
1040
11.36250033944969
1040
0.0
1040
20.3461058208776
1040
3.837500339449681
1040
0.4142135623731526
1040
20.60860582087764
1040
3.575000339449687
1040
0.0
1040
21.48360582087753
1040
3.575000339449687
1040
0.4142135623731526
1040
21.74610582087757
1040
3.837500339449681
1040
0.0
1071
        0
1071
        7
1070
     1
1070
     1
1071
       24
1040
24.19610582087762
1040
9.96250033944969
1040
-0.4142135623731546
1040
24.45860582087767
1040
10.22500033944968
1040
0.0
1040
25.94610582087762
1040
10.22500033944968
1040
0.4142135623730911
1040
26.20860582087761
1040
10.48750033944968
1040
0.0
1040
26.20860582087761
1040
11.36250033944969
1040
0.4142135623730952
1040
25.94610582087762
1040
11.62500033944969
1040
0.0
1040
24.19610582087762
1040
11.62500033944969
1040
0.4142135623731048
1040
22.79610582087759
1040
10.2250003394497
1040
0.0
1040
22.79610582087759
1040
9.317399326772065
1040
0.1989123673796613
1040
23.41118158038586
1040
7.83247508628029
1040
0.0
1040
24.86608056770819
1040
6.377576098957955
1040
-0.1989123673796402
1040
25.07110582087762
1040
5.882601352127419
1040
0.0
1040
25.07110582087762
1040
5.237500339449681
1040
-0.4142135623730911
1040
24.80860582087763
1040
4.975000339449685
1040
0.0
1040
23.32110582087762
1040
4.975000339449685
1040
0.4142135623731526
1040
23.05860582087758
1040
4.712500339449691
1040
0.0
1040
23.05860582087758
1040
3.837500339449681
1040
0.4142135623730891
1040
23.32110582087756
1040
3.575000339449687
1040
0.0
1040
25.07110582087762
1040
3.575000339449687
1040
0.4142135623730925
1040
26.4711058208776
1040
4.975000339449675
1040
0.0
1040
26.4711058208776
1040
5.882601352127311
1040
0.1989123673796675
1040
25.85603006136933
1040
7.367525592619138
1040
0.0
1040
24.40113107404704
1040
8.822424579941396
1040
-0.1989123673796652
1040
24.19610582087762
1040
9.31739932677198
1040
0.0
1071
        0
1071
        7
1070
     1
1070
     1
1071
       16
1040
28.92110582087759
1040
11.36250033944968
1040
0.414213562373103
1040
28.6586058208776
1040
11.62500033944969
1040
0.0
1040
27.7836058208776
1040
11.62500033944969
1040
0.4142135623730871
1040
27.52110582087761
1040
11.36250033944969
1040
0.0
1040
27.52110582087761
1040
4.975000339449675
1040
0.4142135623730926
1040
28.92110582087759
1040
3.575000339449687
1040
0.0
1040
30.67110582087759
1040
3.575000339449687
1040
0.4142135623731044
1040
32.07110582087762
1040
4.975000339449675
1040
0.0
1040
32.07110582087762
1040
11.36250033944969
1040
0.4142135623730951
1040
31.80860582087763
1040
11.62500033944969
1040
0.0
1040
30.93360582087758
1040
11.62500033944969
1040
0.4142135623730871
1040
30.67110582087759
1040
11.36250033944969
1040
0.0
1040
30.67110582087759
1040
5.500000339449673
1040
-0.414213562373088
1040
30.14610582087761
1040
4.975000339449685
1040
0.0
1040
29.44610582087762
1040
4.975000339449685
1040
-0.4142135623731197
1040
28.92110582087759
1040
5.500000339449673
1040
0.0
1071
        0
1071
        7
1070
     1
1070
     1
1071
        8
1040
34.52110582087761
1040
11.36250033944969
1040
0.4142135623730871
1040
34.25860582087762
1040
11.62500033944969
1040
0.0
1040
33.38360582087762
1040
11.62500033944969
1040
0.4142135623731507
1040
33.12110582087758
1040
11.36250033944969
1040
0.0
1040
33.12110582087758
1040
3.837500339449681
1040
0.4142135623730891
1040
33.38360582087756
1040
3.575000339449687
1040
0.0
1040
34.25860582087762
1040
3.575000339449687
1040
0.4142135623730891
1040
34.52110582087761
1040
3.837500339449681
1040
0.0
1071
        0
1070
     0
1070
     1
1040
0.0
1040
0.1
1070
     0
1070
     2
1040
0.7853981633974483
1040
-450.4711524238524
1040
-6.599999660550281
1040
-0.2245064030267288
1040
0.2245064030267288
1070
     0
1040
2.356194490192344
1040
-450.4711524238524
1040
-6.599999660550281
1040
-0.2245064030267288
1040
-0.2245064030267288
1070
     0
1040
0.057451373970553
1071
        8
1040
8.039927224998677
1040
7.583587162392461
1040
0.0
1040
11.20225724670661
1040
9.42203143067519
1040
0.0
1040
12.58218368631685
1040
7.755941162485044
1040
0.0
1040
15.45702973430559
1040
8.100649162670435
1040
0.0
1040
20.91923575296539
1040
8.330455296441243
1040
0.0
1040
23.4491001910518
1040
9.70928849765329
1040
0.0
1040
28.2788427296872
1040
9.364579296997192
1040
0.0
1040
33.91353955329839
1040
9.594385430767999
1040
0.0
1002
}
  0
LINE
  5
3B35
330
1A
100
AcDbEntity
  8
ZUWAKU
100
AcDbLine
 10
5.908606288681539
 20
3.837500333316711
 30
0.0
 11
5.908606288681539
 21
4.712500333316711
 31
0.0
  0
LINE
  5
3B36
330
1A
100
AcDbEntity
  8
ZUWAKU
100
AcDbLine
 10
5.646106288681608
 20
10.22500033331676
 30
0.0
 11
5.646106288681608
 21
9.317399320639083
 31
0.0
  0
LINE
  5
3B37
330
1A
100
AcDbEntity
  8
ZUWAKU
100
AcDbLine
 10
39.56331498528516
 20
15.00000033331673
 30
0.0
 11
39.56331498528516
 21
0.4000003333167684
 31
0.0
  0
LINE
  5
3B38
330
1A
100
AcDbEntity
  8
ZUWAKU
100
AcDbLine
 10
39.76331498528509
 20
15.00000033331673
 30
0.0
 11
39.76331498528521
 21
0.4000003333167684
 31
0.0
  0
LINE
  5
3B39
330
1A
100
AcDbEntity
  8
ZUWAKU
100
AcDbLine
 10
39.66331498528507
 20
15.00000033331673
 30
0.0
 11
39.66331498528518
 21
0.4000003333167684
 31
0.0
  0
ARC
  5
3B3A
330
1A
100
AcDbEntity
  8
ZUWAKU
100
AcDbCircle
 10
24.19610628868156
 20
10.22500033331676
 30
0.0
 40
1.399999999999999
100
AcDbArc
 50
90.0
 51
180.0
  0
LINE
  5
3B3B
330
1A
100
AcDbEntity
  8
ZUWAKU
100
AcDbLine
 10
8.70603052917329
 20
7.367525586486124
 30
0.0
 11
7.251131541850895
 21
8.822424573808461
 31
0.0
  0
LINE
  5
3B3C
330
1A
100
AcDbEntity
  8
ZUWAKU
100
AcDbLine
 10
10.37110628868151
 20
5.675000333316745
 30
0.0
 11
10.37110628868151
 21
9.525000333316711
 31
0.0
  0
LINE
  5
3B3D
330
1A
100
AcDbEntity
  8
ZUWAKU
100
AcDbLine
 10
11.7711062886816
 20
9.525000333316711
 30
0.0
 11
11.7711062886816
 21
5.675000333316745
 31
0.0
  0
CIRCLE
  5
3B3E
330
1A
100
AcDbEntity
  8
ZUWAKU
100
AcDbCircle
 10
12.99610628868151
 20
7.600000333316756
 30
0.0
 40
0.875
  0
ARC
  5
3B3F
330
1A
100
AcDbEntity
  8
ZUWAKU
100
AcDbCircle
 10
12.47110628868154
 20
5.675000333316745
 30
0.0
 40
2.099999999999999
100
AcDbArc
 50
180.0
 51
270.0
  0
LINE
  5
3B40
330
1A
100
AcDbEntity
  8
ZUWAKU
100
AcDbLine
 10
9.321106288681562
 20
4.975000333316756
 30
0.0
 11
9.321106288681562
 21
5.88260134599443
 31
0.0
  0
LINE
  5
3B41
330
1A
100
AcDbEntity
  8
ZUWAKU
100
AcDbLine
 10
6.261182048189766
 20
7.832475080147332
 30
0.0
 11
7.716081035512047
 21
6.377576092824995
 31
0.0
  0
LINE
  5
3B42
330
1A
100
AcDbEntity
  8
ZUWAKU
100
AcDbLine
 10
6.171106288681471
 20
4.975000333316756
 30
0.0
 11
7.658606288681539
 21
4.975000333316756
 31
0.0
  0
LINE
  5
3B43
330
1A
100
AcDbEntity
  8
ZUWAKU
100
AcDbLine
 10
6.171106288681471
 20
3.575000333316722
 30
0.0
 11
7.921106288681471
 21
3.575000333316722
 31
0.0
  0
ARC
  5
3B44
330
1A
100
AcDbEntity
  8
ZUWAKU
100
AcDbCircle
 10
7.221106288681539
 20
5.88260134599443
 30
0.0
 40
0.7
100
AcDbArc
 50
0.0
 51
44.99999999999971
  0
ARC
  5
3B45
330
1A
100
AcDbEntity
  8
ZUWAKU
100
AcDbCircle
 10
7.658606288681539
 20
5.237500333316745
 30
0.0
 40
0.2625
100
AcDbArc
 50
270.0
 51
0.0
  0
LINE
  5
3B46
330
1A
100
AcDbEntity
  8
ZUWAKU
100
AcDbLine
 10
7.921106288681471
 20
5.237500333316745
 30
0.0
 11
7.921106288681471
 21
5.88260134599443
 31
0.0
  0
ARC
  5
3B47
330
1A
100
AcDbEntity
  8
ZUWAKU
100
AcDbCircle
 10
7.221106288681539
 20
5.882601345994373
 30
0.0
 40
2.099999999999999
100
AcDbArc
 50
0.0
 51
44.99999999999971
  0
ARC
  5
3B48
330
1A
100
AcDbEntity
  8
ZUWAKU
100
AcDbCircle
 10
7.921106288681471
 20
4.975000333316756
 30
0.0
 40
1.399999999999999
100
AcDbArc
 50
270.0
 51
0.0
  0
ARC
  5
3B49
330
1A
100
AcDbEntity
  8
ZUWAKU
100
AcDbCircle
 10
13.43360628868152
 20
4.712500333316711
 30
0.0
 40
0.2625
100
AcDbArc
 50
0.0
 51
90.0
  0
ARC
  5
3B4A
330
1A
100
AcDbEntity
  8
ZUWAKU
100
AcDbCircle
 10
13.43360628868152
 20
3.837500333316711
 30
0.0
 40
0.2625
100
AcDbArc
 50
270.0
 51
0.0
  0
LINE
  5
3B4B
330
1A
100
AcDbEntity
  8
ZUWAKU
100
AcDbLine
 10
13.69610628868156
 20
4.712500333316711
 30
0.0
 11
13.69610628868156
 21
3.837500333316711
 31
0.0
  0
ARC
  5
3B4C
330
1A
100
AcDbEntity
  8
ZUWAKU
100
AcDbCircle
 10
12.47110628868154
 20
5.675000333316745
 30
0.0
 40
0.7
100
AcDbArc
 50
180.0
 51
270.0
  0
LINE
  5
3B4D
330
1A
100
AcDbEntity
  8
ZUWAKU
100
AcDbLine
 10
13.43360628868152
 20
3.575000333316722
 30
0.0
 11
12.47110628868154
 21
3.575000333316722
 31
0.0
  0
LINE
  5
3B4E
330
1A
100
AcDbEntity
  8
ZUWAKU
100
AcDbLine
 10
12.47110628868154
 20
4.975000333316756
 30
0.0
 11
13.43360628868152
 21
4.975000333316756
 31
0.0
  0
ARC
  5
3B4F
330
1A
100
AcDbEntity
  8
ZUWAKU
100
AcDbCircle
 10
12.47110628868154
 20
9.525000333316711
 30
0.0
 40
2.099999999999999
100
AcDbArc
 50
90.0
 51
180.0
  0
LINE
  5
3B50
330
1A
100
AcDbEntity
  8
ZUWAKU
100
AcDbLine
 10
9.058606288681517
 20
11.36250033331674
 30
0.0
 11
9.058606288681517
 21
10.48750033331674
 31
0.0
  0
LINE
  5
3B51
330
1A
100
AcDbEntity
  8
ZUWAKU
100
AcDbLine
 10
8.796106288681471
 20
10.22500033331676
 30
0.0
 11
7.308606288681517
 21
10.22500033331676
 31
0.0
  0
LINE
  5
3B52
330
1A
100
AcDbEntity
  8
ZUWAKU
100
AcDbLine
 10
7.046106288681471
 20
9.962500333316711
 30
0.0
 11
7.046106288681471
 21
9.317399320639083
 31
0.0
  0
ARC
  5
3B53
330
1A
100
AcDbEntity
  8
ZUWAKU
100
AcDbCircle
 10
7.308606288681517
 20
9.962500333316711
 30
0.0
 40
0.2625
100
AcDbArc
 50
90.0
 51
180.0
  0
LINE
  5
3B54
330
1A
100
AcDbEntity
  8
ZUWAKU
100
AcDbLine
 10
7.046106288681471
 20
11.62500033331673
 30
0.0
 11
8.796106288681471
 21
11.62500033331673
 31
0.0
  0
ARC
  5
3B55
330
1A
100
AcDbEntity
  8
ZUWAKU
100
AcDbCircle
 10
8.796106288681471
 20
10.48750033331674
 30
0.0
 40
0.2625
100
AcDbArc
 50
270.0
 51
0.0
  0
ARC
  5
3B56
330
1A
100
AcDbEntity
  8
ZUWAKU
100
AcDbCircle
 10
8.796106288681471
 20
11.36250033331674
 30
0.0
 40
0.2625
100
AcDbArc
 50
0.0
 51
90.0
  0
ARC
  5
3B57
330
1A
100
AcDbEntity
  8
ZUWAKU
100
AcDbCircle
 10
7.746106288681517
 20
9.317399320639083
 30
0.0
 40
0.7
100
AcDbArc
 50
180.0000000000016
 51
224.9999999999991
  0
LINE
  5
3B58
330
1A
100
AcDbEntity
  8
ZUWAKU
100
AcDbLine
 10
13.69610628868156
 20
11.36250033331674
 30
0.0
 11
13.69610628868156
 21
10.48750033331674
 31
0.0
  0
ARC
  5
3B59
330
1A
100
AcDbEntity
  8
ZUWAKU
100
AcDbCircle
 10
13.43360628868152
 20
10.48750033331674
 30
0.0
 40
0.2625
100
AcDbArc
 50
270.0
 51
0.0
  0
ARC
  5
3B5A
330
1A
100
AcDbEntity
  8
ZUWAKU
100
AcDbCircle
 10
13.43360628868152
 20
11.36250033331674
 30
0.0
 40
0.2625
100
AcDbArc
 50
0.0
 51
90.0
  0
ARC
  5
3B5B
330
1A
100
AcDbEntity
  8
ZUWAKU
100
AcDbCircle
 10
12.47110628868154
 20
9.525000333316711
 30
0.0
 40
0.7
100
AcDbArc
 50
90.0
 51
180.0
  0
LINE
  5
3B5C
330
1A
100
AcDbEntity
  8
ZUWAKU
100
AcDbLine
 10
13.43360628868152
 20
10.22500033331676
 30
0.0
 11
12.47110628868154
 21
10.22500033331676
 31
0.0
  0
LINE
  5
3B5D
330
1A
100
AcDbEntity
  8
ZUWAKU
100
AcDbLine
 10
12.47110628868154
 20
11.62500033331673
 30
0.0
 11
13.43360628868152
 21
11.62500033331673
 31
0.0
  0
LINE
  5
3B5E
330
1A
100
AcDbEntity
  8
ZUWAKU
100
AcDbLine
 10
14.92110628868147
 20
11.36250033331674
 30
0.0
 11
14.92110628868147
 21
3.837500333316711
 31
0.0
  0
LINE
  5
3B5F
330
1A
100
AcDbEntity
  8
ZUWAKU
100
AcDbLine
 10
21.74610628868152
 20
3.837500333316711
 30
0.0
 11
21.74610628868152
 21
11.36250033331674
 31
0.0
  0
LINE
  5
3B60
330
1A
100
AcDbEntity
  8
ZUWAKU
100
AcDbLine
 10
20.34610628868154
 20
11.36250033331674
 30
0.0
 11
20.34610628868154
 21
3.837500333316711
 31
0.0
  0
LINE
  5
3B61
330
1A
100
AcDbEntity
  8
ZUWAKU
100
AcDbLine
 10
18.65742952977052
 20
9.60252393009847
 30
0.0
 11
18.0250536571026
 21
7.600000333316756
 31
0.0
  0
LINE
  5
3B62
330
1A
100
AcDbEntity
  8
ZUWAKU
100
AcDbLine
 10
19.18824934633937
 20
3.916547317400215
 30
0.0
 11
18.0250536571026
 21
7.600000333316756
 31
0.0
  0
LINE
  5
3B63
330
1A
100
AcDbEntity
  8
ZUWAKU
100
AcDbLine
 10
18.08848920693719
 20
3.575000333316722
 30
0.0
 11
18.9379338967417
 21
3.575000333316722
 31
0.0
  0
ARC
  5
3B64
330
1A
100
AcDbEntity
  8
ZUWAKU
100
AcDbCircle
 10
18.08848920693719
 20
3.837500333316711
 30
0.0
 40
0.2625
100
AcDbArc
 50
197.525568373723
 51
270.0
  0
ARC
  5
3B65
330
1A
100
AcDbEntity
  8
ZUWAKU
100
AcDbCircle
 10
16.58360628868161
 20
6.637500333316722
 30
0.0
 40
0.2625
100
AcDbArc
 50
90.0
 51
180.0
  0
ARC
  5
3B66
330
1A
100
AcDbEntity
  8
ZUWAKU
100
AcDbCircle
 10
16.65372337042583
 20
6.637500333316722
 30
0.0
 40
0.2625
100
AcDbArc
 50
17.52556837372303
 51
90.0
  0
ARC
  5
3B67
330
1A
100
AcDbEntity
  8
ZUWAKU
100
AcDbCircle
 10
15.18360628868151
 20
3.837500333316711
 30
0.0
 40
0.2625
100
AcDbArc
 50
180.0
 51
270.0
  0
LINE
  5
3B68
330
1A
100
AcDbEntity
  8
ZUWAKU
100
AcDbLine
 10
16.32110628868156
 20
3.837500333316711
 30
0.0
 11
16.32110628868156
 21
6.637500333316722
 31
0.0
  0
ARC
  5
3B69
330
1A
100
AcDbEntity
  8
ZUWAKU
100
AcDbCircle
 10
16.05860628868152
 20
3.837500333316711
 30
0.0
 40
0.2625
100
AcDbArc
 50
270.0
 51
0.0
  0
LINE
  5
3B6A
330
1A
100
AcDbEntity
  8
ZUWAKU
100
AcDbLine
 10
15.18360628868151
 20
3.575000333316722
 30
0.0
 11
16.05860628868152
 21
3.575000333316722
 31
0.0
  0
LINE
  5
3B6B
330
1A
100
AcDbEntity
  8
ZUWAKU
100
AcDbLine
 10
16.58360628868161
 20
6.900000333316711
 30
0.0
 11
16.65372337042583
 21
6.900000333316711
 31
0.0
  0
LINE
  5
3B6C
330
1A
100
AcDbEntity
  8
ZUWAKU
100
AcDbLine
 10
17.8381737573394
 20
3.758453349233263
 30
0.0
 11
16.90403882002363
 21
6.716547317400227
 31
0.0
  0
ARC
  5
3B6D
330
1A
100
AcDbEntity
  8
ZUWAKU
100
AcDbCircle
 10
21.48360628868147
 20
3.837500333316711
 30
0.0
 40
0.2625
100
AcDbArc
 50
270.0
 51
0.0
  0
ARC
  5
3B6E
330
1A
100
AcDbEntity
  8
ZUWAKU
100
AcDbCircle
 10
18.9379338967417
 20
3.837500333316711
 30
0.0
 40
0.2625
100
AcDbArc
 50
270.0
 51
17.52556837372303
  0
ARC
  5
3B6F
330
1A
100
AcDbEntity
  8
ZUWAKU
100
AcDbCircle
 10
20.60860628868147
 20
3.837500333316711
 30
0.0
 40
0.2625
100
AcDbArc
 50
180.0
 51
270.0
  0
LINE
  5
3B70
330
1A
100
AcDbEntity
  8
ZUWAKU
100
AcDbLine
 10
20.60860628868147
 20
3.575000333316722
 30
0.0
 11
21.48360628868147
 21
3.575000333316722
 31
0.0
  0
LINE
  5
3B71
330
1A
100
AcDbEntity
  8
ZUWAKU
100
AcDbLine
 10
18.08848920693719
 20
11.62500033331673
 30
0.0
 11
18.9379338967417
 21
11.62500033331673
 31
0.0
  0
ARC
  5
3B72
330
1A
100
AcDbEntity
  8
ZUWAKU
100
AcDbCircle
 10
18.08848920693719
 20
11.36250033331674
 30
0.0
 40
0.2625
100
AcDbArc
 50
90.0
 51
162.474431626277
  0
ARC
  5
3B73
330
1A
100
AcDbEntity
  8
ZUWAKU
100
AcDbCircle
 10
15.18360628868151
 20
11.36250033331674
 30
0.0
 40
0.2625
100
AcDbArc
 50
90.0
 51
180.0
  0
LINE
  5
3B74
330
1A
100
AcDbEntity
  8
ZUWAKU
100
AcDbLine
 10
16.05860628868152
 20
11.62500033331673
 30
0.0
 11
15.18360628868151
 21
11.62500033331673
 31
0.0
  0
ARC
  5
3B75
330
1A
100
AcDbEntity
  8
ZUWAKU
100
AcDbCircle
 10
16.05860628868152
 20
11.36250033331674
 30
0.0
 40
0.2625
100
AcDbArc
 50
0.0
 51
90.0
  0
ARC
  5
3B76
330
1A
100
AcDbEntity
  8
ZUWAKU
100
AcDbCircle
 10
16.58360628868161
 20
8.562500333316734
 30
0.0
 40
0.2625
100
AcDbArc
 50
180.0
 51
270.0
  0
LINE
  5
3B77
330
1A
100
AcDbEntity
  8
ZUWAKU
100
AcDbLine
 10
16.65372337042583
 20
8.300000333316745
 30
0.0
 11
16.58360628868161
 21
8.300000333316745
 31
0.0
  0
ARC
  5
3B78
330
1A
100
AcDbEntity
  8
ZUWAKU
100
AcDbCircle
 10
16.65372337042583
 20
8.562500333316734
 30
0.0
 40
0.2625
100
AcDbArc
 50
270.0
 51
342.474431626277
  0
LINE
  5
3B79
330
1A
100
AcDbEntity
  8
ZUWAKU
100
AcDbLine
 10
17.8381737573394
 20
11.44154731740025
 30
0.0
 11
16.90403882002363
 21
8.483453349233229
 31
0.0
  0
LINE
  5
3B7A
330
1A
100
AcDbEntity
  8
ZUWAKU
100
AcDbLine
 10
16.32110628868156
 20
8.562500333316734
 30
0.0
 11
16.32110628868156
 21
11.36250033331674
 31
0.0
  0
ARC
  5
3B7B
330
1A
100
AcDbEntity
  8
ZUWAKU
100
AcDbCircle
 10
21.48360628868147
 20
11.36250033331674
 30
0.0
 40
0.2625
100
AcDbArc
 50
0.0
 51
90.0
  0
LINE
  5
3B7C
330
1A
100
AcDbEntity
  8
ZUWAKU
100
AcDbLine
 10
19.18824934633937
 20
11.28345334923324
 30
0.0
 11
18.65742952977052
 21
9.60252393009847
 31
0.0
  0
ARC
  5
3B7D
330
1A
100
AcDbEntity
  8
ZUWAKU
100
AcDbCircle
 10
18.9379338967417
 20
11.36250033331674
 30
0.0
 40
0.2625
100
AcDbArc
 50
342.474431626277
 51
90.0
  0
ARC
  5
3B7E
330
1A
100
AcDbEntity
  8
ZUWAKU
100
AcDbCircle
 10
20.60860628868147
 20
11.36250033331674
 30
0.0
 40
0.2625
100
AcDbArc
 50
90.0
 51
180.0
  0
LINE
  5
3B7F
330
1A
100
AcDbEntity
  8
ZUWAKU
100
AcDbLine
 10
21.48360628868147
 20
11.62500033331673
 30
0.0
 11
20.60860628868147
 21
11.62500033331673
 31
0.0
  0
ARC
  5
3B80
330
1A
100
AcDbEntity
  8
ZUWAKU
100
AcDbCircle
 10
30.93360628868152
 20
11.36250033331674
 30
0.0
 40
0.2625
100
AcDbArc
 50
90.0
 51
180.0
  0
ARC
  5
3B81
330
1A
100
AcDbEntity
  8
ZUWAKU
100
AcDbCircle
 10
30.14610628868161
 20
5.500000333316734
 30
0.0
 40
0.525
100
AcDbArc
 50
270.0
 51
0.0
  0
ARC
  5
3B82
330
1A
100
AcDbEntity
  8
ZUWAKU
100
AcDbCircle
 10
30.67110628868147
 20
4.975000333316756
 30
0.0
 40
1.399999999999999
100
AcDbArc
 50
270.0
 51
0.0
  0
LINE
  5
3B83
330
1A
100
AcDbEntity
  8
ZUWAKU
100
AcDbLine
 10
25.85603052917338
 20
7.367525586486124
 30
0.0
 11
24.40113154185099
 21
8.822424573808461
 31
0.0
  0
LINE
  5
3B84
330
1A
100
AcDbEntity
  8
ZUWAKU
100
AcDbLine
 10
28.92110628868147
 20
5.500000333316734
 30
0.0
 11
28.92110628868147
 21
11.36250033331674
 31
0.0
  0
LINE
  5
3B85
330
1A
100
AcDbEntity
  8
ZUWAKU
100
AcDbLine
 10
27.52110628868161
 20
11.36250033331674
 30
0.0
 11
27.52110628868161
 21
4.975000333316756
 31
0.0
  0
ARC
  5
3B86
330
1A
100
AcDbEntity
  8
ZUWAKU
100
AcDbCircle
 10
24.89610628868161
 20
9.317399320639083
 30
0.0
 40
2.099999999999999
100
AcDbArc
 50
180.0
 51
224.9999999999997
  0
LINE
  5
3B87
330
1A
100
AcDbEntity
  8
ZUWAKU
100
AcDbLine
 10
30.67110628868147
 20
11.36250033331674
 30
0.0
 11
30.67110628868147
 21
5.500000333316734
 31
0.0
  0
ARC
  5
3B88
330
1A
100
AcDbEntity
  8
ZUWAKU
100
AcDbCircle
 10
25.07110628868157
 20
4.975000333316756
 30
0.0
 40
1.399999999999999
100
AcDbArc
 50
270.0
 51
0.0
  0
ARC
  5
3B89
330
1A
100
AcDbEntity
  8
ZUWAKU
100
AcDbCircle
 10
24.37110628868152
 20
5.882601345994373
 30
0.0
 40
2.099999999999999
100
AcDbArc
 50
0.0
 51
44.99999999999971
  0
LINE
  5
3B8A
330
1A
100
AcDbEntity
  8
ZUWAKU
100
AcDbLine
 10
26.47110628868154
 20
4.975000333316756
 30
0.0
 11
26.47110628868154
 21
5.88260134599443
 31
0.0
  0
LINE
  5
3B8B
330
1A
100
AcDbEntity
  8
ZUWAKU
100
AcDbLine
 10
23.41118204818974
 20
7.832475080147332
 30
0.0
 11
24.86608103551214
 21
6.377576092824995
 31
0.0
  0
LINE
  5
3B8C
330
1A
100
AcDbEntity
  8
ZUWAKU
100
AcDbLine
 10
23.32110628868156
 20
3.575000333316722
 30
0.0
 11
25.07110628868157
 21
3.575000333316722
 31
0.0
  0
LINE
  5
3B8D
330
1A
100
AcDbEntity
  8
ZUWAKU
100
AcDbLine
 10
23.32110628868156
 20
4.975000333316756
 30
0.0
 11
24.80860628868152
 21
4.975000333316756
 31
0.0
  0
ARC
  5
3B8E
330
1A
100
AcDbEntity
  8
ZUWAKU
100
AcDbCircle
 10
23.32110628868156
 20
4.712500333316711
 30
0.0
 40
0.2625
100
AcDbArc
 50
90.0
 51
180.0
  0
ARC
  5
3B8F
330
1A
100
AcDbEntity
  8
ZUWAKU
100
AcDbCircle
 10
23.32110628868156
 20
3.837500333316711
 30
0.0
 40
0.2625
100
AcDbArc
 50
180.0
 51
270.0
  0
LINE
  5
3B90
330
1A
100
AcDbEntity
  8
ZUWAKU
100
AcDbLine
 10
23.05860628868152
 20
3.837500333316711
 30
0.0
 11
23.05860628868152
 21
4.712500333316711
 31
0.0
  0
ARC
  5
3B91
330
1A
100
AcDbEntity
  8
ZUWAKU
100
AcDbCircle
 10
24.80860628868152
 20
5.237500333316745
 30
0.0
 40
0.2625
100
AcDbArc
 50
270.0
 51
0.0
  0
ARC
  5
3B92
330
1A
100
AcDbEntity
  8
ZUWAKU
100
AcDbCircle
 10
24.37110628868152
 20
5.88260134599443
 30
0.0
 40
0.7
100
AcDbArc
 50
0.0
 51
44.99999999999971
  0
LINE
  5
3B93
330
1A
100
AcDbEntity
  8
ZUWAKU
100
AcDbLine
 10
25.07110628868157
 20
5.237500333316745
 30
0.0
 11
25.07110628868157
 21
5.88260134599443
 31
0.0
  0
ARC
  5
3B94
330
1A
100
AcDbEntity
  8
ZUWAKU
100
AcDbCircle
 10
29.44610628868156
 20
5.500000333316734
 30
0.0
 40
0.525
100
AcDbArc
 50
180.0
 51
270.0
  0
ARC
  5
3B95
330
1A
100
AcDbEntity
  8
ZUWAKU
100
AcDbCircle
 10
28.92110628868147
 20
4.975000333316756
 30
0.0
 40
1.399999999999999
100
AcDbArc
 50
180.0
 51
270.0
  0
LINE
  5
3B96
330
1A
100
AcDbEntity
  8
ZUWAKU
100
AcDbLine
 10
28.92110628868147
 20
3.575000333316722
 30
0.0
 11
30.67110628868147
 21
3.575000333316722
 31
0.0
  0
LINE
  5
3B97
330
1A
100
AcDbEntity
  8
ZUWAKU
100
AcDbLine
 10
30.14610628868161
 20
4.975000333316756
 30
0.0
 11
29.44610628868156
 21
4.975000333316756
 31
0.0
  0
LINE
  5
3B98
330
1A
100
AcDbEntity
  8
ZUWAKU
100
AcDbLine
 10
26.20860628868161
 20
11.36250033331674
 30
0.0
 11
26.20860628868161
 21
10.48750033331674
 31
0.0
  0
ARC
  5
3B99
330
1A
100
AcDbEntity
  8
ZUWAKU
100
AcDbCircle
 10
25.94610628868156
 20
10.48750033331674
 30
0.0
 40
0.2625
100
AcDbArc
 50
270.0
 51
0.0
  0
ARC
  5
3B9A
330
1A
100
AcDbEntity
  8
ZUWAKU
100
AcDbCircle
 10
25.94610628868156
 20
11.36250033331674
 30
0.0
 40
0.2625
100
AcDbArc
 50
0.0
 51
90.0
  0
LINE
  5
3B9B
330
1A
100
AcDbEntity
  8
ZUWAKU
100
AcDbLine
 10
22.79610628868147
 20
10.22500033331676
 30
0.0
 11
22.79610628868147
 21
9.317399320639083
 31
0.0
  0
LINE
  5
3B9C
330
1A
100
AcDbEntity
  8
ZUWAKU
100
AcDbLine
 10
24.19610628868156
 20
9.962500333316711
 30
0.0
 11
24.19610628868156
 21
9.317399320639083
 31
0.0
  0
ARC
  5
3B9D
330
1A
100
AcDbEntity
  8
ZUWAKU
100
AcDbCircle
 10
24.45860628868161
 20
9.962500333316711
 30
0.0
 40
0.2625
100
AcDbArc
 50
90.0
 51
180.0
  0
LINE
  5
3B9E
330
1A
100
AcDbEntity
  8
ZUWAKU
100
AcDbLine
 10
25.94610628868156
 20
10.22500033331676
 30
0.0
 11
24.45860628868161
 21
10.22500033331676
 31
0.0
  0
LINE
  5
3B9F
330
1A
100
AcDbEntity
  8
ZUWAKU
100
AcDbLine
 10
24.19610628868156
 20
11.62500033331673
 30
0.0
 11
25.94610628868156
 21
11.62500033331673
 31
0.0
  0
ARC
  5
3BA0
330
1A
100
AcDbEntity
  8
ZUWAKU
100
AcDbCircle
 10
24.89610628868161
 20
9.317399320639083
 30
0.0
 40
0.7
100
AcDbArc
 50
180.0000000000016
 51
224.9999999999991
  0
LINE
  5
3BA1
330
1A
100
AcDbEntity
  8
ZUWAKU
100
AcDbLine
 10
28.65860628868154
 20
11.62500033331673
 30
0.0
 11
27.78360628868154
 21
11.62500033331673
 31
0.0
  0
ARC
  5
3BA2
330
1A
100
AcDbEntity
  8
ZUWAKU
100
AcDbCircle
 10
27.78360628868154
 20
11.36250033331674
 30
0.0
 40
0.2625
100
AcDbArc
 50
90.0
 51
180.0
  0
ARC
  5
3BA3
330
1A
100
AcDbEntity
  8
ZUWAKU
100
AcDbCircle
 10
28.65860628868154
 20
11.36250033331674
 30
0.0
 40
0.2625
100
AcDbArc
 50
0.0
 51
90.0
  0
LINE
  5
3BA4
330
1A
100
AcDbEntity
  8
ZUWAKU
100
AcDbLine
 10
33.12110628868152
 20
11.36250033331674
 30
0.0
 11
33.12110628868152
 21
3.837500333316711
 31
0.0
  0
LINE
  5
3BA5
330
1A
100
AcDbEntity
  8
ZUWAKU
100
AcDbLine
 10
34.52110628868161
 20
3.837500333316711
 30
0.0
 11
34.52110628868161
 21
11.36250033331674
 31
0.0
  0
LINE
  5
3BA6
330
1A
100
AcDbEntity
  8
ZUWAKU
100
AcDbLine
 10
32.07110628868156
 20
4.975000333316756
 30
0.0
 11
32.07110628868156
 21
11.36250033331674
 31
0.0
  0
ARC
  5
3BA7
330
1A
100
AcDbEntity
  8
ZUWAKU
100
AcDbCircle
 10
34.25860628868156
 20
3.837500333316711
 30
0.0
 40
0.2625
100
AcDbArc
 50
270.0
 51
0.0
  0
ARC
  5
3BA8
330
1A
100
AcDbEntity
  8
ZUWAKU
100
AcDbCircle
 10
33.38360628868156
 20
3.837500333316711
 30
0.0
 40
0.2625
100
AcDbArc
 50
180.0
 51
270.0
  0
LINE
  5
3BA9
330
1A
100
AcDbEntity
  8
ZUWAKU
100
AcDbLine
 10
33.38360628868156
 20
3.575000333316722
 30
0.0
 11
34.25860628868156
 21
3.575000333316722
 31
0.0
  0
ARC
  5
3BAA
330
1A
100
AcDbEntity
  8
ZUWAKU
100
AcDbCircle
 10
34.25860628868156
 20
11.36250033331674
 30
0.0
 40
0.2625
100
AcDbArc
 50
0.0
 51
90.0
  0
LINE
  5
3BAB
330
1A
100
AcDbEntity
  8
ZUWAKU
100
AcDbLine
 10
31.80860628868152
 20
11.62500033331673
 30
0.0
 11
30.93360628868152
 21
11.62500033331673
 31
0.0
  0
ARC
  5
3BAC
330
1A
100
AcDbEntity
  8
ZUWAKU
100
AcDbCircle
 10
31.80860628868152
 20
11.36250033331674
 30
0.0
 40
0.2625
100
AcDbArc
 50
0.0
 51
90.0
  0
ARC
  5
3BAD
330
1A
100
AcDbEntity
  8
ZUWAKU
100
AcDbCircle
 10
33.38360628868156
 20
11.36250033331674
 30
0.0
 40
0.2625
100
AcDbArc
 50
90.0
 51
180.0
  0
LINE
  5
3BAE
330
1A
100
AcDbEntity
  8
ZUWAKU
100
AcDbLine
 10
34.25860628868156
 20
11.62500033331673
 30
0.0
 11
33.38360628868156
 21
11.62500033331673
 31
0.0
  0
LINE
  5
3BB4
330
1A
100
AcDbEntity
  8
ZUWAKU
100
AcDbLine
 10
104.2233008563248
 20
15.00000033331673
 30
0.0
 11
104.2233008563249
 21
0.4000003333167684
 31
0.0
  0
LINE
  5
3BB5
330
1A
100
AcDbEntity
  8
ZUWAKU
100
AcDbLine
 10
104.3233008563248
 20
15.00000033331673
 30
0.0
 11
104.3233008563249
 21
0.4000003333167684
 31
0.0
  0
LINE
  5
3BB6
330
1A
100
AcDbEntity
  8
ZUWAKU
100
AcDbLine
 10
104.1233008563249
 20
15.00000033331673
 30
0.0
 11
104.1233008563249
 21
0.4000003333167684
 31
0.0
  0
TEXT
  5
3BB7
330
1A
100
AcDbEntity
  8
ZUWAKU
100
AcDbText
 10
104.8620233674296
 20
12.02767860250952
 30
0.0
 40
2.0
  1
品名
 41
0.9
  7
ｽﾀｲﾙ1
100
AcDbText
  0
TEXT
  5
3BB8
330
1A
100
AcDbEntity
  8
ZUWAKU
100
AcDbText
 10
104.8620233674297
 20
4.827678602509536
 30
0.0
 40
2.0
  1
サイズ
 41
0.9
  7
ｽﾀｲﾙ1
100
AcDbText
  0
LINE
  5
3C17
330
1A
100
AcDbEntity
  8
ZUWAKU
100
AcDbLine
 10
324.4086014663929
 20
7.800000333316745
 30
0.0
 11
348.6245054855616
 21
7.800000333316745
 31
0.0
  0
LINE
  5
3C18
330
1A
100
AcDbEntity
  8
ZUWAKU
100
AcDbLine
 10
324.4086014663932
 20
7.700000333316779
 30
0.0
 11
348.6245054855616
 21
7.700000333316779
 31
0.0
  0
LINE
  5
3C19
330
1A
100
AcDbEntity
  8
ZUWAKU
100
AcDbLine
 10
324.4086014663929
 20
7.600000333316756
 30
0.0
 11
348.6245054855616
 21
7.600000333316756
 31
0.0
  0
TEXT
  5
3C1B
330
1A
100
AcDbEntity
  8
moji
100
AcDbText
 10
264.0204541974475
 20
1.60246086202045
 30
0.0
 40
2.799999999999999
  1
１/１
 41
0.9
  7
ｽﾀｲﾙ1
100
AcDbText
  0
TEXT
  5
3C1C
330
1A
100
AcDbEntity
  8
moji
100
AcDbText
 10
264.0204541974475
 20
9.002460862020427
 30
0.0
 40
2.799999999999999
  1
Ａ３
 41
0.9
  7
ｽﾀｲﾙ1
100
AcDbText
  0
LINE
  5
3C1D
330
1A
100
AcDbEntity
  8
ZUWAKU
100
AcDbLine
 10
252.5995899603614
 20
7.800000333316745
 30
0.0
 11
276.2634780943471
 21
7.800000333316745
 31
0.0
  0
LINE
  5
3C1E
330
1A
100
AcDbEntity
  8
ZUWAKU
100
AcDbLine
 10
252.5995899603614
 20
7.700000333316779
 30
0.0
 11
276.2634780943471
 21
7.700000333316779
 31
0.0
  0
LINE
  5
3C1F
330
1A
100
AcDbEntity
  8
ZUWAKU
100
AcDbLine
 10
252.5995899603614
 20
7.600000333316756
 30
0.0
 11
276.2634780943471
 21
7.600000333316756
 31
0.0
  0
TEXT
  5
3C20
330
1A
100
AcDbEntity
  8
ZUWAKU
100
AcDbText
 10
231.3468810390444
 20
1.30703578888648
 30
0.0
 40
1.5
  1
□には色品番が入ります
 41
0.9
  7
ｽﾀｲﾙ1
100
AcDbText
  0
LINE
  5
3C21
330
1A
100
AcDbEntity
  8
ZUWAKU
100
AcDbLine
 10
252.3995899603614
 20
15.00000033331673
 30
0.0
 11
252.3995899603614
 21
0.4000003333167684
 31
0.0
  0
LINE
  5
3C22
330
1A
100
AcDbEntity
  8
ZUWAKU
100
AcDbLine
 10
252.5995899603614
 20
15.00000033331673
 30
0.0
 11
252.5995899603616
 21
0.4000003333167684
 31
0.0
  0
LINE
  5
3C23
330
1A
100
AcDbEntity
  8
ZUWAKU
100
AcDbLine
 10
252.4995899603613
 20
15.00000033331673
 30
0.0
 11
252.4995899603615
 21
0.4000003333167684
 31
0.0
  0
LINE
  5
3C24
330
1A
100
AcDbEntity
  8
ZUWAKU
100
AcDbLine
 10
223.7121821967865
 20
15.00000033331673
 30
0.0
 11
223.7121821967865
 21
0.4000003333167684
 31
0.0
  0
LINE
  5
3C25
330
1A
100
AcDbEntity
  8
ZUWAKU
100
AcDbLine
 10
223.9121821967866
 20
15.00000033331673
 30
0.0
 11
223.9121821967868
 21
0.4000003333167684
 31
0.0
  0
LINE
  5
3C26
330
1A
100
AcDbEntity
  8
ZUWAKU
100
AcDbLine
 10
223.8121821967865
 20
15.00000033331673
 30
0.0
 11
223.8121821967867
 21
0.4000003333167684
 31
0.0
  0
TEXT
  5
3C27
330
1A
100
AcDbEntity
  8
moji
100
AcDbText
 10
231.7841528925713
 20
5.971309194146726
 30
0.0
 40
2.799999999999999
  1
ＬＮ５９□
 41
0.9
  7
ｽﾀｲﾙ1
100
AcDbText
  0
TEXT
  5
3C28
330
1A
100
AcDbEntity
  8
ZUWAKU
100
AcDbText
 10
224.6509047078915
 20
12.02767860250952
 30
0.0
 40
2.0
  1
品番
 41
0.9
  7
ｽﾀｲﾙ1
100
AcDbText
  0
TEXT
  5
3C29
330
1A
100
AcDbEntity
  8
ZUWAKU
100
AcDbText
 10
253.3383124714664
 20
12.02767860250952
 30
0.0
 40
2.0
  1
用紙
 41
0.9
  7
ｽﾀｲﾙ1
100
AcDbText
  0
TEXT
  5
3C2A
330
1A
100
AcDbEntity
  8
ZUWAKU
100
AcDbText
 10
253.3383124714664
 20
4.827678602509536
 30
0.0
 40
2.0
  1
縮尺
 41
0.9
  7
ｽﾀｲﾙ1
100
AcDbText
  0
LINE
  5
3C2B
330
1A
100
AcDbEntity
  8
ZUWAKU
100
AcDbLine
 10
276.2634780943471
 20
15.00000033331673
 30
0.0
 11
276.2634780943471
 21
0.4000003333167684
 31
0.0
  0
LINE
  5
3C2C
330
1A
100
AcDbEntity
  8
ZUWAKU
100
AcDbLine
 10
276.4634780943471
 20
15.00000033331673
 30
0.0
 11
276.4634780943473
 21
0.4000003333167684
 31
0.0
  0
LINE
  5
3C2D
330
1A
100
AcDbEntity
  8
ZUWAKU
100
AcDbLine
 10
276.363478094347
 20
15.00000033331673
 30
0.0
 11
276.3634780943472
 21
0.4000003333167684
 31
0.0
  0
LINE
  5
3C2E
330
1A
100
AcDbEntity
  8
ZUWAKU
100
AcDbLine
 10
324.2086014663931
 20
15.00000033331673
 30
0.0
 11
324.2086014663931
 21
0.4000003333167684
 31
0.0
  0
LINE
  5
3C2F
330
1A
100
AcDbEntity
  8
ZUWAKU
100
AcDbLine
 10
324.4086014663932
 20
15.00000033331673
 30
0.0
 11
324.4086014663934
 21
0.4000003333167684
 31
0.0
  0
LINE
  5
3C30
330
1A
100
AcDbEntity
  8
ZUWAKU
100
AcDbLine
 10
324.308601466393
 20
15.00000033331673
 30
0.0
 11
324.3086014663933
 21
0.4000003333167684
 31
0.0
  0
TEXT
  5
3C31
330
1A
100
AcDbEntity
  8
ZUWAKU
100
AcDbText
 10
325.1473239774981
 20
12.02767860250952
 30
0.0
 40
2.0
  1
DATE
 41
0.9
  7
ｽﾀｲﾙ1
100
AcDbText
  0
LINE
  5
3C51
330
1A
100
AcDbEntity
  8
ZUWAKU
100
AcDbLine
 10
348.9245054855615
 20
15.00000033331673
 30
0.0
 11
348.9245054855618
 21
0.4000003333167684
 31
0.0
  0
LINE
  5
3C52
330
1A
100
AcDbEntity
  8
ZUWAKU
100
AcDbLine
 10
348.8245054855614
 20
15.00000033331673
 30
0.0
 11
348.8245054855616
 21
0.4000003333167684
 31
0.0
  0
LINE
  5
3C53
330
1A
100
AcDbEntity
  8
ZUWAKU
100
AcDbLine
 10
348.7245054855615
 20
15.00000033331673
 30
0.0
 11
348.7245054855615
 21
0.4000003333167684
 31
0.0
  0
LINE
  5
3C54
330
1A
100
AcDbEntity
  8
ZUWAKU
100
AcDbLine
 10
348.6245054855616
 20
15.00000033331673
 30
0.0
 11
348.6245054855616
 21
0.4000003333167684
 31
0.0
  0
TEXT
  5
3C56
330
1A
100
AcDbEntity
  8
ZUWAKU
100
AcDbText
 10
353.5548007224903
 20
6.169083929780583
 30
0.0
 40
3.0
  1
積水化学工業株式会社
 41
0.9
  7
ｽﾀｲﾙ1
100
AcDbText
  0
TEXT
  5
3DF5
330
1A
100
AcDbEntity
  8
moji
100
AcDbText
 10
46.67889500537569
 20
6.370589398454114
 30
0.0
 40
3.0
  1
ユニシェイプ　
 41
0.9
  7
ｽﾀｲﾙ1
100
AcDbText
  0
TEXT
  5
4084
330
1A
100
AcDbEntity
  8
moji
100
AcDbText
 10
119.448847116623
 20
9.765924585317975
 30
0.0
 40
2.799999999999999
  1
はいといデンデン
 41
0.9
  7
ｽﾀｲﾙ1
100
AcDbText
  0
TEXT
  5
478D
330
1A
100
AcDbEntity
  8
moji
100
AcDbText
 10
118.7344009387943
 20
1.841380236387806
 30
0.0
 40
2.799999999999999
  1
ＵＲＴ６０　薄瓦用
 41
0.9
  7
ｽﾀｲﾙ1
100
AcDbText
  0
LINE
  5
5D60
330
1A
100
AcDbEntity
  8
ﾃﾞﾝﾃﾞﾝ部
370
    15
100
AcDbLine
 10
147.4422154245422
 20
123.592193806343
 30
0.0
 11
147.4422154245422
 21
123.8694373609351
 31
0.0
  0
LINE
  5
5D61
330
1A
100
AcDbEntity
  8
ﾃﾞﾝﾃﾞﾝ部
370
    15
100
AcDbLine
 10
129.442208748822
 20
123.5921938063429
 30
0.0
 11
129.442208748822
 21
123.869437360935
 31
0.0
  0
LINE
  5
5D62
330
1A
100
AcDbEntity
  8
ﾃﾞﾝﾃﾞﾝ部
370
    15
100
AcDbLine
 10
129.442208748822
 20
122.3517913462446
 30
0.0
 11
129.442208748822
 21
121.847800547056
 31
0.0
  0
LINE
  5
5D63
330
1A
100
AcDbEntity
  8
ﾃﾞﾝﾃﾞﾝ部
370
    15
100
AcDbLine
 10
147.4422154245422
 20
122.3517913462446
 30
0.0
 11
147.4422154245422
 21
121.847800547056
 31
0.0
  0
LINE
  5
5D64
330
1A
100
AcDbEntity
  8
ﾃﾞﾝﾃﾞﾝ部
370
    15
100
AcDbLine
 10
129.442208748822
 20
122.3517913462446
 30
0.0
 11
129.442208748822
 21
123.869437360935
 31
0.0
  0
LINE
  5
5D65
330
1A
100
AcDbEntity
  8
ﾃﾞﾝﾃﾞﾝ部
370
    15
100
AcDbLine
 10
147.4422154245422
 20
122.3517913462446
 30
0.0
 11
147.4422154245422
 21
123.869437360935
 31
0.0
  0
LINE
  5
5D66
330
1A
100
AcDbEntity
  8
金具部
370
    15
100
AcDbLine
 10
141.9423160371826
 20
103.8849201144503
 30
0.0
 11
134.9421081361816
 21
103.8849201144503
 31
0.0
  0
LINE
  5
5D67
330
1A
100
AcDbEntity
  8
ﾃﾞﾝﾃﾞﾝ部
370
    15
100
AcDbLine
 10
129.442208748822
 20
106.8849038423821
 30
0.0
 11
129.442208748822
 21
113.2618036212251
 31
0.0
  0
LINE
  5
5D68
330
1A
100
AcDbEntity
  8
ﾃﾞﾝﾃﾞﾝ部
370
    15
100
AcDbLine
 10
147.4422154245422
 20
106.8849038423822
 30
0.0
 11
147.4422154245422
 21
113.2618036212252
 31
0.0
  0
LINE
  5
5D69
330
1A
100
AcDbEntity
  8
ﾃﾞﾝﾃﾞﾝ部
370
    15
100
AcDbLine
 10
129.442208748822
 20
106.8849038423821
 30
0.0
 11
133.4422168550537
 21
106.8849038423821
 31
0.0
  0
LINE
  5
5D6A
330
1A
100
AcDbEntity
  8
ﾃﾞﾝﾃﾞﾝ部
370
    15
100
AcDbLine
 10
143.4422073183105
 20
106.8849038423822
 30
0.0
 11
147.4422154245422
 21
106.8849038423822
 31
0.0
  0
LINE
  5
5D6B
330
1A
100
AcDbEntity
  8
ﾃﾞﾝﾃﾞﾝ部
370
    15
100
AcDbLine
 10
129.442208748822
 20
113.2618036212251
 30
0.0
 11
129.442208748822
 21
116.1501031460091
 31
0.0
  0
LINE
  5
5D6C
330
1A
100
AcDbEntity
  8
ﾃﾞﾝﾃﾞﾝ部
370
    15
100
AcDbLine
 10
147.4422154245422
 20
113.2618036212252
 30
0.0
 11
147.4422154245422
 21
116.1501031460093
 31
0.0
  0
LINE
  5
5D6D
330
1A
100
AcDbEntity
  8
ﾃﾞﾝﾃﾞﾝ部
370
    15
100
AcDbLine
 10
129.442208748822
 20
113.2618036212251
 30
0.0
 11
147.4422154245422
 21
113.2618036212252
 31
0.0
  0
LINE
  5
5D6E
330
1A
100
AcDbEntity
  8
金具部
370
    15
100
AcDbLine
 10
146.4422133979843
 20
98.88500311391815
 30
0.0
 11
144.4422093448684
 21
96.88500278609248
 31
0.0
  0
LINE
  5
5D6F
330
1A
100
AcDbEntity
  8
金具部
370
    15
100
AcDbLine
 10
152.4422106561706
 20
96.88500278609261
 30
0.0
 11
150.4422066030548
 21
98.88500311391815
 31
0.0
  0
LINE
  5
5D70
330
1A
100
AcDbEntity
  8
金具部
370
    15
100
AcDbLine
 10
150.4422066030548
 20
98.88500311391815
 30
0.0
 11
146.4422133979843
 21
98.88500311391815
 31
0.0
  0
LINE
  5
5D71
330
1A
100
AcDbEntity
  8
金具部
370
    15
100
AcDbLine
 10
126.4422175703094
 20
98.88490253107997
 30
0.0
 11
124.4423178253219
 21
96.88500278609238
 31
0.0
  0
LINE
  5
5D72
330
1A
100
AcDbEntity
  8
金具部
370
    15
100
AcDbLine
 10
132.4421105203674
 20
96.88500278609248
 30
0.0
 11
130.4422107753799
 21
98.88490253107997
 31
0.0
  0
LINE
  5
5D73
330
1A
100
AcDbEntity
  8
金具部
370
    15
100
AcDbLine
 10
130.4422107753799
 20
98.88490253107997
 30
0.0
 11
126.4422175703094
 21
98.88490253107997
 31
0.0
  0
LINE
  5
5D74
330
1A
100
AcDbEntity
  8
金具部
370
    15
100
AcDbLine
 10
142.4421158847854
 20
96.88500278609248
 30
0.0
 11
140.4422161397979
 21
98.88490253107997
 31
0.0
  0
LINE
  5
5D75
330
1A
100
AcDbEntity
  8
金具部
370
    15
100
AcDbLine
 10
140.4422161397979
 20
98.88490253107997
 30
0.0
 11
136.4422080335662
 21
98.88490253107997
 31
0.0
  0
LINE
  5
5D76
330
1A
100
AcDbEntity
  8
金具部
370
    15
100
AcDbLine
 10
136.4422080335662
 20
98.88490253107997
 30
0.0
 11
134.4423082885787
 21
96.88500278609248
 31
0.0
  0
LINE
  5
5D77
330
1A
100
AcDbEntity
  8
金具部
370
    15
100
AcDbLine
 10
158.4422079143569
 20
95.88500262217982
 30
0.0
 11
156.4422187624028
 21
95.88499144630892
 31
0.0
  0
LINE
  5
5D78
330
1A
100
AcDbEntity
  8
金具部
370
    15
100
AcDbLine
 10
156.4422187624028
 20
96.88500278609261
 30
0.0
 11
158.4422079143569
 21
96.88500278609261
 31
0.0
  0
LINE
  5
5D79
330
1A
100
AcDbEntity
  8
金具部
370
    15
100
AcDbLine
 10
158.4422079143569
 20
96.88500278609261
 30
0.0
 11
158.4422079143569
 21
95.88500262217982
 31
0.0
  0
LINE
  5
5D7A
330
1A
100
AcDbEntity
  8
金具部
370
    15
100
AcDbLine
 10
156.4422187624023
 20
106.884963447027
 30
0.0
 11
158.4422079143569
 21
106.88500069993
 31
0.0
  0
LINE
  5
5D7B
330
1A
100
AcDbEntity
  8
金具部
370
    15
100
AcDbLine
 10
158.4422079143569
 20
105.8850023986624
 30
0.0
 11
156.4422187624023
 21
105.8850023986624
 31
0.0
  0
LINE
  5
5D7C
330
1A
100
AcDbEntity
  8
金具部
370
    15
100
AcDbLine
 10
158.4422079143569
 20
106.88500069993
 30
0.0
 11
158.4422079143569
 21
105.8850023986624
 31
0.0
  0
ARC
  5
5D7D
330
1A
100
AcDbEntity
  8
金具部
370
    15
100
AcDbCircle
 10
114.1179558254294
 20
101.3849022319413
 30
0.0
 40
0.4999546513741048
100
AcDbArc
 50
137.7272235732544
 51
222.2727764267455
  0
LINE
  5
5D7E
330
1A
100
AcDbEntity
  8
金具部
370
    15
100
AcDbLine
 10
118.2934132633255
 20
106.7212034107967
 30
0.0
 11
113.7480077562378
 21
101.7212007285877
 31
0.0
  0
LINE
  5
5D7F
330
1A
100
AcDbEntity
  8
金具部
370
    15
100
AcDbLine
 10
118.6634090957692
 20
95.88480145650349
 30
0.0
 11
156.4422187624028
 21
95.88499144630892
 31
0.0
  0
LINE
  5
5D80
330
1A
100
AcDbEntity
  8
金具部
370
    15
100
AcDbLine
 10
156.4422187624028
 20
95.88499144630892
 30
0.0
 11
156.4422187624028
 21
96.88500278609261
 31
0.0
  0
LINE
  5
5D81
330
1A
100
AcDbEntity
  8
金具部
370
    15
100
AcDbLine
 10
156.4422187624028
 20
96.88500278609261
 30
0.0
 11
119.0955427703907
 21
96.88500278609238
 31
0.0
  0
ARC
  5
5D82
330
1A
100
AcDbEntity
  8
金具部
370
    15
100
AcDbCircle
 10
119.1056278643619
 20
97.38490039442886
 30
0.0
 40
0.5000000000000018
100
AcDbArc
 50
222.283255106372
 51
268.8435845344547
  0
LINE
  5
5D83
330
1A
100
AcDbEntity
  8
金具部
370
    15
100
AcDbLine
 10
118.7357095298817
 20
97.04850205200157
 30
0.0
 11
115.099408966069
 21
101.0485027076526
 31
0.0
  0
ARC
  5
5D84
330
1A
100
AcDbEntity
  8
金具部
370
    15
100
AcDbCircle
 10
115.4694063582033
 20
101.3848530463142
 30
0.0
 40
0.5000262240001933
100
AcDbArc
 50
137.7268926349641
 51
222.2731899325883
  0
LINE
  5
5D85
330
1A
100
AcDbEntity
  8
金具部
370
    15
100
AcDbLine
 10
115.099408966069
 20
101.721204453878
 30
0.0
 11
118.7358138380096
 21
105.7212051095291
 31
0.0
  0
ARC
  5
5D86
330
1A
100
AcDbEntity
  8
金具部
370
    15
100
AcDbCircle
 10
119.1058658355515
 20
105.3847887518138
 30
0.0
 40
0.5001134828151602
100
AcDbArc
 50
90.00593999776846
 51
137.7260258125567
  0
LINE
  5
5D87
330
1A
100
AcDbEntity
  8
金具部
370
    15
100
AcDbLine
 10
119.1058096704528
 20
105.8849018158241
 30
0.0
 11
123.1773135480926
 21
105.8849018158241
 31
0.0
  0
LINE
  5
5D88
330
1A
100
AcDbEntity
  8
金具部
370
    15
100
AcDbLine
 10
123.1773135480926
 20
105.8849018158241
 30
0.0
 11
128.442206722264
 21
102.8849031867309
 31
0.0
  0
LINE
  5
5D89
330
1A
100
AcDbEntity
  8
金具部
370
    15
100
AcDbLine
 10
128.442206722264
 20
102.8849031867309
 30
0.0
 11
133.7071147975967
 21
105.8849018158242
 31
0.0
  0
LINE
  5
5D8A
330
1A
100
AcDbEntity
  8
金具部
370
    15
100
AcDbLine
 10
133.7071147975967
 20
105.8849018158242
 30
0.0
 11
143.1773093757675
 21
105.8849018158242
 31
0.0
  0
LINE
  5
5D8B
330
1A
100
AcDbEntity
  8
金具部
370
    15
100
AcDbLine
 10
143.1773093757675
 20
105.8849018158242
 30
0.0
 11
148.4422174511001
 21
102.884903186731
 31
0.0
  0
LINE
  5
5D8C
330
1A
100
AcDbEntity
  8
金具部
370
    15
100
AcDbLine
 10
148.4422174511001
 20
102.884903186731
 30
0.0
 11
153.7071106252716
 21
105.8850023986624
 31
0.0
  0
LINE
  5
5D8D
330
1A
100
AcDbEntity
  8
金具部
370
    15
100
AcDbLine
 10
153.7071106252716
 20
105.8850023986624
 30
0.0
 11
156.4422187624023
 21
105.8850023986624
 31
0.0
  0
LINE
  5
5D8E
330
1A
100
AcDbEntity
  8
金具部
370
    15
100
AcDbLine
 10
156.4422187624023
 20
105.8850023986624
 30
0.0
 11
156.4422187624023
 21
106.884963447027
 31
0.0
  0
LINE
  5
5D8F
330
1A
100
AcDbEntity
  8
金具部
370
    15
100
AcDbLine
 10
156.4422187624023
 20
106.884963447027
 30
0.0
 11
153.4422126827285
 21
106.8849038423822
 31
0.0
  0
LINE
  5
5D90
330
1A
100
AcDbEntity
  8
金具部
370
    15
100
AcDbLine
 10
153.4422126827285
 20
106.8849038423822
 30
0.0
 11
148.4422174511001
 21
104.0359024049565
 31
0.0
  0
LINE
  5
5D91
330
1A
100
AcDbEntity
  8
金具部
370
    15
100
AcDbLine
 10
148.4422174511001
 20
104.0359024049565
 30
0.0
 11
143.4422073183105
 21
106.8849038423821
 31
0.0
  0
LINE
  5
5D92
330
1A
100
AcDbEntity
  8
金具部
370
    15
100
AcDbLine
 10
143.4422073183105
 20
106.8849038423821
 30
0.0
 11
133.4422168550537
 21
106.8849038423821
 31
0.0
  0
LINE
  5
5D93
330
1A
100
AcDbEntity
  8
金具部
370
    15
100
AcDbLine
 10
133.4422168550537
 20
106.8849038423821
 30
0.0
 11
128.442206722264
 21
104.0358018221184
 31
0.0
  0
LINE
  5
5D94
330
1A
100
AcDbEntity
  8
金具部
370
    15
100
AcDbLine
 10
128.442206722264
 20
104.0358018221184
 30
0.0
 11
123.4422114906356
 21
106.884903842382
 31
0.0
  0
LINE
  5
5D95
330
1A
100
AcDbEntity
  8
金具部
370
    15
100
AcDbLine
 10
123.4422114906356
 20
106.884903842382
 30
0.0
 11
118.664735299115
 21
106.885440284185
 31
0.0
  0
ARC
  5
5D96
330
1A
100
AcDbEntity
  8
金具部
370
    15
100
AcDbCircle
 10
118.6646769018349
 20
106.3836945418024
 30
0.0
 40
0.501744548992098
100
AcDbArc
 50
89.99356155116727
 51
137.7266532148689
  0
LINE
  5
5D97
330
1A
100
AcDbEntity
  8
金具部
370
    15
100
AcDbLine
 10
113.7480077562378
 20
101.0486032904907
 30
0.0
 11
118.2934132633259
 21
96.0485018880888
 31
0.0
  0
ARC
  5
5D98
330
1A
100
AcDbEntity
  8
金具部
370
    15
100
AcDbCircle
 10
118.6634114736894
 20
96.38478949449481
 30
0.0
 40
0.4999872625597519
100
AcDbArc
 50
222.2674068161989
 51
270.0002880718864
  0
LINE
  5
5D99
330
1A
100
AcDbEntity
  8
ﾃﾞﾝﾃﾞﾝ部
370
    15
100
AcDbLine
 10
129.442208748822
 20
116.1501031460091
 30
0.0
 11
129.442208748822
 21
121.3943023325726
 31
0.0
  0
LINE
  5
5D9A
330
1A
100
AcDbEntity
  8
ﾃﾞﾝﾃﾞﾝ部
370
    15
100
AcDbLine
 10
147.4422154245422
 20
116.1501031460093
 30
0.0
 11
147.4422154245422
 21
121.3943023325726
 31
0.0
  0
LINE
  5
5D9B
330
1A
100
AcDbEntity
  8
ﾃﾞﾝﾃﾞﾝ部
370
    15
100
AcDbLine
 10
129.442208748822
 20
116.1501031460091
 30
0.0
 11
147.4422154245422
 21
116.1501031460093
 31
0.0
  0
LINE
  5
5D9C
330
1A
100
AcDbEntity
  8
ﾃﾞﾝﾃﾞﾝ部
370
    15
100
AcDbLine
 10
129.442208748822
 20
121.3943023325726
 30
0.0
 11
129.442208748822
 21
121.5857859792039
 31
0.0
  0
LINE
  5
5D9D
330
1A
100
AcDbEntity
  8
ﾃﾞﾝﾃﾞﾝ部
370
    15
100
AcDbLine
 10
147.4422154245422
 20
121.3943023325726
 30
0.0
 11
147.4422154245422
 21
121.5857859792039
 31
0.0
  0
LINE
  5
5D9E
330
1A
100
AcDbEntity
  8
ﾃﾞﾝﾃﾞﾝ部
370
    15
100
AcDbLine
 10
129.442208748822
 20
123.5850375236793
 30
0.0
 11
129.442208748822
 21
123.8694373609348
 31
0.0
  0
LINE
  5
5D9F
330
1A
100
AcDbEntity
  8
ﾃﾞﾝﾃﾞﾝ部
370
    15
100
AcDbLine
 10
147.4422154245422
 20
123.5850375236794
 30
0.0
 11
147.4422154245422
 21
123.8694373609349
 31
0.0
  0
LINE
  5
5DA0
330
1A
100
AcDbEntity
  8
ﾃﾞﾝﾃﾞﾝ部
370
    15
100
AcDbLine
 10
129.442208748822
 20
126.8849033953472
 30
0.0
 11
129.442208748822
 21
127.3849006833358
 31
0.0
  0
LINE
  5
5DA1
330
1A
100
AcDbEntity
  8
ﾃﾞﾝﾃﾞﾝ部
370
    15
100
AcDbLine
 10
147.4422154245422
 20
126.8849033953473
 30
0.0
 11
147.4422154245422
 21
127.384900683336
 31
0.0
  0
LINE
  5
5DA2
330
1A
100
AcDbEntity
  8
ﾃﾞﾝﾃﾞﾝ部
370
    15
100
AcDbLine
 10
129.442208748822
 20
127.3849006833358
 30
0.0
 11
129.442208748822
 21
131.3848976136966
 31
0.0
  0
LINE
  5
5DA3
330
1A
100
AcDbEntity
  8
ﾃﾞﾝﾃﾞﾝ部
370
    15
100
AcDbLine
 10
147.4422154245422
 20
127.384900683336
 30
0.0
 11
147.4422154245422
 21
131.3848976136967
 31
0.0
  0
LINE
  5
5DA4
330
1A
100
AcDbEntity
  8
ﾃﾞﾝﾃﾞﾝ部
370
    15
100
AcDbLine
 10
129.442208748822
 20
127.3849006833358
 30
0.0
 11
147.4422154245422
 21
127.384900683336
 31
0.0
  0
LINE
  5
5DA5
330
1A
100
AcDbEntity
  8
ﾃﾞﾝﾃﾞﾝ部
370
    15
100
AcDbLine
 10
129.442208748822
 20
119.5849027575775
 30
0.0
 11
129.442208748822
 21
126.8849033953472
 31
0.0
  0
LINE
  5
5DA6
330
1A
100
AcDbEntity
  8
ﾃﾞﾝﾃﾞﾝ部
370
    15
100
AcDbLine
 10
147.4422154245422
 20
119.5849027575776
 30
0.0
 11
147.4422154245422
 21
126.8849033953473
 31
0.0
  0
LINE
  5
5DA7
330
1A
100
AcDbEntity
  8
ﾃﾞﾝﾃﾞﾝ部
370
    15
100
AcDbLine
 10
129.442208748822
 20
126.8849033953472
 30
0.0
 11
147.4422154245422
 21
126.8849033953473
 31
0.0
  0
LINE
  5
5DA8
330
1A
100
AcDbEntity
  8
ﾃﾞﾝﾃﾞﾝ部
370
    15
100
AcDbLine
 10
129.4422087488215
 20
152.8847996236608
 30
0.0
 11
129.4422087488215
 21
153.8848016502188
 31
0.0
  0
LINE
  5
5DA9
330
1A
100
AcDbEntity
  8
ﾃﾞﾝﾃﾞﾝ部
370
    15
100
AcDbLine
 10
147.4422154245417
 20
152.8847996236609
 30
0.0
 11
147.4422154245417
 21
153.8848016502189
 31
0.0
  0
LINE
  5
5DAA
330
1A
100
AcDbEntity
  8
ﾃﾞﾝﾃﾞﾝ部
370
    15
100
AcDbLine
 10
129.442208748822
 20
144.8847983123586
 30
0.0
 11
129.4422087488215
 21
152.8847996236608
 31
0.0
  0
LINE
  5
5DAB
330
1A
100
AcDbEntity
  8
ﾃﾞﾝﾃﾞﾝ部
370
    15
100
AcDbLine
 10
147.4422154245422
 20
144.8847983123588
 30
0.0
 11
147.4422154245417
 21
152.8847996236609
 31
0.0
  0
LINE
  5
5DAC
330
1A
100
AcDbEntity
  8
ﾃﾞﾝﾃﾞﾝ部
370
    15
100
AcDbLine
 10
129.442208748822
 20
143.8848037363813
 30
0.0
 11
129.442208748822
 21
144.8847983123586
 31
0.0
  0
LINE
  5
5DAD
330
1A
100
AcDbEntity
  8
ﾃﾞﾝﾃﾞﾝ部
370
    15
100
AcDbLine
 10
147.4422154245422
 20
143.8848037363814
 30
0.0
 11
147.4422154245422
 21
144.8847983123588
 31
0.0
  0
LINE
  5
5DAE
330
1A
100
AcDbEntity
  8
ﾃﾞﾝﾃﾞﾝ部
370
    15
100
AcDbLine
 10
129.442208748822
 20
131.3848976136968
 30
0.0
 11
129.442208748822
 21
143.8848037363813
 31
0.0
  0
LINE
  5
5DAF
330
1A
100
AcDbEntity
  8
ﾃﾞﾝﾃﾞﾝ部
370
    15
100
AcDbLine
 10
147.4422154245422
 20
131.384897613697
 30
0.0
 11
147.4422154245422
 21
143.8848037363814
 31
0.0
  0
LINE
  5
5DB0
330
1A
100
AcDbEntity
  8
ﾃﾞﾝﾃﾞﾝ部
370
    15
100
AcDbLine
 10
140.4422161397979
 20
132.0564631463811
 30
0.0
 11
140.4422161397979
 21
131.3848976136967
 31
0.0
  0
LINE
  5
5DB1
330
1A
100
AcDbEntity
  8
ﾃﾞﾝﾃﾞﾝ部
370
    15
100
AcDbLine
 10
136.4422080335662
 20
132.0564631463809
 30
0.0
 11
136.4422080335662
 21
131.3848976136966
 31
0.0
  0
LINE
  5
5DB2
330
1A
100
AcDbEntity
  8
ﾃﾞﾝﾃﾞﾝ部
370
    15
100
AcDbLine
 10
129.4422087488215
 20
153.8848016502188
 30
0.0
 11
129.442208748822
 21
178.8848299624249
 31
0.0
  0
LINE
  5
5DB3
330
1A
100
AcDbEntity
  8
ﾃﾞﾝﾃﾞﾝ部
370
    15
100
AcDbLine
 10
147.4422154245417
 20
153.8848016502189
 30
0.0
 11
147.4422154245422
 21
178.884829962425
 31
0.0
  0
LINE
  5
5DB4
330
1A
100
AcDbEntity
  8
ﾃﾞﾝﾃﾞﾝ部
370
    15
100
AcDbLine
 10
129.442208748822
 20
131.3848976136966
 30
0.0
 11
129.442208748822
 21
181.8848360420987
 31
0.0
  0
LINE
  5
5DB5
330
1A
100
AcDbEntity
  8
ﾃﾞﾝﾃﾞﾝ部
370
    15
100
AcDbLine
 10
147.4422154245422
 20
131.3848976136967
 30
0.0
 11
147.4422154245422
 21
181.8848360420988
 31
0.0
  0
LINE
  5
5DB6
330
1A
100
AcDbEntity
  8
ﾃﾞﾝﾃﾞﾝ部
370
    15
100
AcDbLine
 10
136.4422080335662
 20
132.0564631463809
 30
0.0
 11
140.4422161397979
 21
132.0564631463811
 31
0.0
  0
SPLINE
  5
5DB7
330
1A
100
AcDbEntity
  8
金具部
370
    15
100
AcDbSpline
210
0.0
220
0.0
230
1.0
 70
    24
 71
     1
 72
     4
 73
     2
 74
     0
 42
0.0000000001
 43
0.0000000001
 40
0.0
 40
0.0
 40
1.0
 40
1.0
 10
134.9421081361816
 20
105.8849018158243
 30
0.0
 10
134.9421081361816
 20
103.8849201144503
 30
0.0
  0
SPLINE
  5
5DB8
330
1A
100
AcDbEntity
  8
金具部
370
    15
100
AcDbSpline
210
0.0
220
0.0
230
1.0
 70
    24
 71
     1
 72
     4
 73
     2
 74
     0
 42
0.0000000001
 43
0.0000000001
 40
0.0
 40
0.0
 40
1.0
 40
1.0
 10
141.9423160371826
 20
103.8849201144503
 30
0.0
 10
141.9423160371826
 20
105.8849018158243
 30
0.0
  0
SPLINE
  5
5DB9
330
1A
100
AcDbEntity
  8
ﾃﾞﾝﾃﾞﾝ部
370
    15
100
AcDbSpline
210
0.0
220
0.0
230
1.0
 70
    24
 71
     1
 72
     4
 73
     2
 74
     0
 42
0.0000000001
 43
0.0000000001
 40
0.0
 40
0.0
 40
1.0
 40
1.0
 10
147.4422154245422
 20
131.3848976136967
 30
0.0
 10
129.442208748822
 20
131.3848976136966
 30
0.0
  0
SPLINE
  5
5DBA
330
1A
100
AcDbEntity
  8
ﾃﾞﾝﾃﾞﾝ部
370
    15
100
AcDbSpline
210
0.0
220
0.0
230
1.0
 70
    24
 71
     1
 72
     4
 73
     2
 74
     0
 42
0.0000000001
 43
0.0000000001
 40
0.0
 40
0.0
 40
1.0
 40
1.0
 10
129.442208748822
 20
119.5849027575775
 30
0.0
 10
147.4422154245422
 20
119.5849027575776
 30
0.0
  0
SPLINE
  5
5DBB
330
1A
100
AcDbEntity
  8
ﾃﾞﾝﾃﾞﾝ部
370
    15
100
AcDbSpline
210
0.0
220
0.0
230
1.0
 70
    24
 71
     1
 72
     4
 73
     2
 74
     0
 42
0.0000000001
 43
0.0000000001
 40
0.0
 40
0.0
 40
1.0
 40
1.0
 10
147.4422154245422
 20
181.8848360420988
 30
0.0
 10
129.442208748822
 20
181.8848360420987
 30
0.0
  0
SPLINE
  5
5DBC
330
1A
100
AcDbEntity
  8
ﾃﾞﾝﾃﾞﾝ部
370
    15
100
AcDbSpline
210
0.0
220
0.0
230
1.0
 70
    24
 71
     1
 72
     4
 73
     2
 74
     0
 42
0.0000000001
 43
0.0000000001
 40
0.0
 40
0.0
 40
1.0
 40
1.0
 10
276.6785007003457
 20
120.9376823248195
 30
0.0
 10
276.7153661731393
 20
120.9554035307693
 30
0.0
  0
ARC
  5
5DBD
330
1A
100
AcDbEntity
  8
ﾃﾞﾝﾃﾞﾝ部
370
    15
100
AcDbCircle
 10
263.2639686370722
 20
148.8850145263234
 30
0.0
 40
30.00002000032675
100
AcDbArc
 50
9.594038997836792
 51
170.405915457323
  0
ARC
  5
5DBE
330
1A
100
AcDbEntity
  8
ﾃﾞﾝﾃﾞﾝ部
370
    15
100
AcDbCircle
 10
263.2639686370722
 20
148.8850145263234
 30
0.0
 40
33.0000200003269
100
AcDbArc
 50
335.4799350084628
 51
215.1448254843292
  0
LINE
  5
5DBF
330
1A
100
AcDbEntity
  8
金具部
370
    15
100
AcDbLine
 10
243.2639580253274
 20
101.0487038733289
 30
0.0
 11
283.2639645818384
 21
101.0487038733291
 31
0.0
  0
LINE
  5
5DC0
330
1A
100
AcDbEntity
  8
金具部
370
    15
100
AcDbLine
 10
243.2639580253274
 20
101.7214056195542
 30
0.0
 11
283.2639645818384
 21
101.7214056195544
 31
0.0
  0
LINE
  5
5DC1
330
1A
100
AcDbEntity
  8
金具部
370
    15
100
AcDbLine
 10
270.2639531377466
 20
106.8856414498613
 30
0.0
 11
283.2639645818384
 21
106.8856414498615
 31
0.0
  0
ARC
  5
5DC2
330
1A
100
AcDbEntity
  8
ﾃﾞﾝﾃﾞﾝ部
370
    15
100
AcDbCircle
 10
263.2632333654858
 20
148.8865189012845
 30
0.0
 40
34.00158831367511
100
AcDbArc
 50
285.6808893182905
 51
312.1431074025764
  0
ARC
  5
5DC3
330
1A
100
AcDbEntity
  8
ﾃﾞﾝﾃﾞﾝ部
370
    15
100
AcDbCircle
 10
263.2639841175794
 20
148.8850023631132
 30
0.0
 40
30.00000000000011
100
AcDbArc
 50
297.8180869740039
 51
323.1303435558972
  0
LINE
  5
5DC4
330
1A
100
AcDbEntity
  8
金具部
370
    15
100
AcDbLine
 10
243.2639580253274
 20
102.8851043524073
 30
0.0
 11
283.2639645818384
 21
102.8851043524074
 31
0.0
  0
LINE
  5
5DC5
330
1A
100
AcDbEntity
  8
金具部
370
    15
100
AcDbLine
 10
283.2639645818384
 20
105.8852035643386
 30
0.0
 11
281.2639605287225
 21
105.8852035643386
 31
0.0
  0
LINE
  5
5DC6
330
1A
100
AcDbEntity
  8
金具部
370
    15
100
AcDbLine
 10
281.2639605287225
 20
106.8852018656062
 30
0.0
 11
283.2639645818384
 21
106.8851646127032
 31
0.0
  0
LINE
  5
5DC7
330
1A
100
AcDbEntity
  8
金具部
370
    15
100
AcDbLine
 10
281.2639605287225
 20
96.88520395176883
 30
0.0
 11
283.2639645818384
 21
96.88520395176883
 31
0.0
  0
LINE
  5
5DC8
330
1A
100
AcDbEntity
  8
金具部
370
    15
100
AcDbLine
 10
283.2639645818384
 20
95.88519261198527
 30
0.0
 11
281.2639605287225
 21
95.88520378785617
 31
0.0
  0
LINE
  5
5DC9
330
1A
100
AcDbEntity
  8
金具部
370
    15
100
AcDbLine
 10
243.2639580253274
 20
95.88500262217971
 30
0.0
 11
283.2639645818384
 21
95.88500262217994
 31
0.0
  0
LINE
  5
5DCA
330
1A
100
AcDbEntity
  8
金具部
370
    15
100
AcDbLine
 10
276.9371550563485
 20
97.04870321767803
 30
0.0
 11
283.2639645818384
 21
97.04870321767803
 31
0.0
  0
ARC
  5
5DCB
330
1A
100
AcDbEntity
  8
ﾃﾞﾝﾃﾞﾝ部
370
    15
100
AcDbCircle
 10
253.264031406985
 20
113.2620033976179
 30
0.0
 40
2.99992543623227
100
AcDbArc
 50
0.0
 51
74.3209436951492
  0
ARC
  5
5DCC
330
1A
100
AcDbEntity
  8
ﾃﾞﾝﾃﾞﾝ部
370
    15
100
AcDbCircle
 10
273.2640130861256
 20
113.262003397618
 30
0.0
 40
3.000056242908385
100
AcDbArc
 50
105.6808893182905
 51
180.0
  0
LINE
  5
5DCD
330
1A
100
AcDbEntity
  8
ﾃﾞﾝﾃﾞﾝ部
370
    15
100
AcDbLine
 10
243.2639580253274
 20
106.8856414498612
 30
0.0
 11
256.263954568258
 21
106.8856414498612
 31
0.0
  0
LINE
  5
5DCE
330
1A
100
AcDbEntity
  8
金具部
370
    15
100
AcDbLine
 10
249.2637615684182
 20
96.88520395176883
 30
0.0
 11
253.2637547734887
 21
98.88520427959438
 31
0.0
  0
LINE
  5
5DCF
330
1A
100
AcDbEntity
  8
金具部
370
    15
100
AcDbLine
 10
245.2639620784433
 20
105.8852035643386
 30
0.0
 11
281.2639605287225
 21
105.8852035643386
 31
0.0
  0
LINE
  5
5DD0
330
1A
100
AcDbEntity
  8
金具部
370
    15
100
AcDbLine
 10
245.2639620784433
 20
106.8852018656062
 30
0.0
 11
281.2639605287225
 21
106.8852018656062
 31
0.0
  0
LINE
  5
5DD1
330
1A
100
AcDbEntity
  8
金具部
370
    15
100
AcDbLine
 10
245.2639620784433
 20
96.88520395176883
 30
0.0
 11
281.2639605287225
 21
96.88520395176883
 31
0.0
  0
LINE
  5
5DD2
330
1A
100
AcDbEntity
  8
金具部
370
    15
100
AcDbLine
 10
245.2639620784433
 20
95.88520378785606
 30
0.0
 11
281.2639605287225
 21
95.88520378785617
 31
0.0
  0
LINE
  5
5DD3
330
1A
100
AcDbEntity
  8
金具部
370
    15
100
AcDbLine
 10
243.2639580253274
 20
97.0487032176778
 30
0.0
 11
249.590752649656
 21
97.0487032176778
 31
0.0
  0
LINE
  5
5DD4
330
1A
100
AcDbEntity
  8
金具部
370
    15
100
AcDbLine
 10
243.2639580253274
 20
101.7214056195542
 30
0.0
 11
243.2639580253274
 21
105.7214062752053
 31
0.0
  0
LINE
  5
5DD5
330
1A
100
AcDbEntity
  8
金具部
370
    15
100
AcDbLine
 10
243.2639580253274
 20
102.8851043524072
 30
0.0
 11
243.2639580253274
 21
105.8851029815004
 31
0.0
  0
LINE
  5
5DD6
330
1A
100
AcDbEntity
  8
金具部
370
    15
100
AcDbLine
 10
243.2639580253274
 20
102.8851043524073
 30
0.0
 11
243.2639580253274
 21
105.8852035643386
 31
0.0
  0
LINE
  5
5DD7
330
1A
100
AcDbEntity
  8
金具部
370
    15
100
AcDbLine
 10
243.2639580253274
 20
97.0487032176778
 30
0.0
 11
243.2639580253274
 21
101.0487038733289
 31
0.0
  0
LINE
  5
5DD8
330
1A
100
AcDbEntity
  8
金具部
370
    15
100
AcDbLine
 10
243.2639580253274
 20
96.88520395176883
 30
0.0
 11
245.2639620784433
 21
96.88520395176883
 31
0.0
  0
LINE
  5
5DD9
330
1A
100
AcDbEntity
  8
金具部
370
    15
100
AcDbLine
 10
245.2639620784433
 20
95.88520378785606
 30
0.0
 11
243.2639580253274
 21
95.88519261198516
 31
0.0
  0
LINE
  5
5DDA
330
1A
100
AcDbEntity
  8
金具部
370
    15
100
AcDbLine
 10
243.2639580253274
 20
96.8852039517686
 30
0.0
 11
243.2639580253274
 21
97.0487032176778
 31
0.0
  0
LINE
  5
5DDB
330
1A
100
AcDbEntity
  8
金具部
370
    15
100
AcDbLine
 10
243.2639580253274
 20
95.88500262217971
 30
0.0
 11
243.2639580253274
 21
95.88519261198516
 31
0.0
  0
LINE
  5
5DDC
330
1A
100
AcDbEntity
  8
金具部
370
    15
100
AcDbLine
 10
243.2639580253274
 20
95.88519261198516
 30
0.0
 11
243.2639580253274
 21
96.88520395176883
 31
0.0
  0
LINE
  5
5DDD
330
1A
100
AcDbEntity
  8
金具部
370
    15
100
AcDbLine
 10
245.2639620784433
 20
96.88520395176883
 30
0.0
 11
245.2639620784433
 21
95.88520378785606
 31
0.0
  0
LINE
  5
5DDE
330
1A
100
AcDbEntity
  8
金具部
370
    15
100
AcDbLine
 10
243.2639580253274
 20
101.0487038733289
 30
0.0
 11
243.2639580253274
 21
101.7214056195542
 31
0.0
  0
LINE
  5
5DDF
330
1A
100
AcDbEntity
  8
金具部
370
    15
100
AcDbLine
 10
245.2639620784433
 20
105.8852035643386
 30
0.0
 11
243.2639580253274
 21
105.8852035643386
 31
0.0
  0
LINE
  5
5DE0
330
1A
100
AcDbEntity
  8
金具部
370
    15
100
AcDbLine
 10
243.2639580253274
 20
106.8851646127032
 30
0.0
 11
245.2639620784433
 21
106.8852018656062
 31
0.0
  0
LINE
  5
5DE1
330
1A
100
AcDbEntity
  8
金具部
370
    15
100
AcDbLine
 10
243.2639580253274
 20
105.7214062752053
 30
0.0
 11
243.2639580253274
 21
105.8851029815003
 31
0.0
  0
LINE
  5
5DE2
330
1A
100
AcDbEntity
  8
金具部
370
    15
100
AcDbLine
 10
243.2639580253274
 20
106.8851050080583
 30
0.0
 11
243.2639580253274
 21
106.8856414498612
 31
0.0
  0
LINE
  5
5DE3
330
1A
100
AcDbEntity
  8
金具部
370
    15
100
AcDbLine
 10
243.2639580253274
 20
104.0360029877946
 30
0.0
 11
243.2639580253274
 21
106.8851050080583
 31
0.0
  0
LINE
  5
5DE4
330
1A
100
AcDbEntity
  8
金具部
370
    15
100
AcDbLine
 10
243.2639580253274
 20
104.0361035706327
 30
0.0
 11
243.2639580253274
 21
106.8851050080584
 31
0.0
  0
LINE
  5
5DE5
330
1A
100
AcDbEntity
  8
金具部
370
    15
100
AcDbLine
 10
243.2639580253274
 20
105.8852035643386
 30
0.0
 11
243.2639580253274
 21
106.8851646127032
 31
0.0
  0
LINE
  5
5DE6
330
1A
100
AcDbEntity
  8
金具部
370
    15
100
AcDbLine
 10
245.2639620784433
 20
106.8852018656062
 30
0.0
 11
245.2639620784433
 21
105.8852035643386
 31
0.0
  0
LINE
  5
5DE7
330
1A
100
AcDbEntity
  8
金具部
370
    15
100
AcDbLine
 10
251.8268208984048
 20
97.0487032176778
 30
0.0
 11
274.7010868075998
 21
97.04870321767792
 31
0.0
  0
LINE
  5
5DE8
330
1A
100
AcDbEntity
  8
金具部
370
    15
100
AcDbLine
 10
253.7111770394952
 20
97.99087756293292
 30
0.0
 11
251.499829817167
 21
96.88520395176883
 31
0.0
  0
LINE
  5
5DE9
330
1A
100
AcDbEntity
  8
金具部
370
    15
100
AcDbLine
 10
253.7111770394952
 20
95.88503801243765
 30
0.0
 11
251.499829817167
 21
95.8850361497925
 31
0.0
  0
LINE
  5
5DEA
330
1A
100
AcDbEntity
  8
金具部
370
    15
100
AcDbLine
 10
251.499829817167
 20
95.88506967740519
 30
0.0
 11
253.7111770394952
 21
95.88506781476004
 31
0.0
  0
LINE
  5
5DEB
330
1A
100
AcDbEntity
  8
金具部
370
    15
100
AcDbLine
 10
251.499829817167
 20
95.88512369411452
 30
0.0
 11
253.7111770394952
 21
95.88511996882434
 31
0.0
  0
LINE
  5
5DEC
330
1A
100
AcDbEntity
  8
金具部
370
    15
100
AcDbLine
 10
253.7111770394952
 20
95.88508644121153
 30
0.0
 11
251.499829817167
 21
95.88508271592123
 31
0.0
  0
LINE
  5
5DED
330
1A
100
AcDbEntity
  8
金具部
370
    15
100
AcDbLine
 10
251.499829817167
 20
95.88517398553367
 30
0.0
 11
253.7111770394952
 21
95.88517026024337
 31
0.0
  0
LINE
  5
5DEE
330
1A
100
AcDbEntity
  8
金具部
370
    15
100
AcDbLine
 10
253.7111770394952
 20
95.88513486998554
 30
0.0
 11
251.499829817167
 21
95.88513300734039
 31
0.0
  0
LINE
  5
5DEF
330
1A
100
AcDbEntity
  8
金具部
370
    15
100
AcDbLine
 10
251.499829817167
 20
95.8850361497925
 30
0.0
 11
251.499829817167
 21
95.88506967740519
 31
0.0
  0
LINE
  5
5DF0
330
1A
100
AcDbEntity
  8
金具部
370
    15
100
AcDbLine
 10
251.499829817167
 20
95.88508271592123
 30
0.0
 11
251.499829817167
 21
95.88512369411452
 31
0.0
  0
LINE
  5
5DF1
330
1A
100
AcDbEntity
  8
金具部
370
    15
100
AcDbLine
 10
251.499829817167
 20
95.88513300734039
 30
0.0
 11
251.499829817167
 21
95.88517398553367
 31
0.0
  0
LINE
  5
5DF2
330
1A
100
AcDbEntity
  8
金具部
370
    15
100
AcDbLine
 10
253.7111770394952
 20
95.88506781476004
 30
0.0
 11
253.7111770394952
 21
95.88503801243765
 31
0.0
  0
LINE
  5
5DF3
330
1A
100
AcDbEntity
  8
金具部
370
    15
100
AcDbLine
 10
253.7111770394952
 20
95.88511996882434
 30
0.0
 11
253.7111770394952
 21
95.88508644121153
 31
0.0
  0
LINE
  5
5DF4
330
1A
100
AcDbEntity
  8
金具部
370
    15
100
AcDbLine
 10
253.7111770394952
 20
95.88517026024337
 30
0.0
 11
253.7111770394952
 21
95.88513486998554
 31
0.0
  0
LINE
  5
5DF5
330
1A
100
AcDbEntity
  8
金具部
370
    15
100
AcDbLine
 10
253.264008093229
 20
98.88520427959438
 30
0.0
 11
253.7111770394952
 21
97.99087756293292
 31
0.0
  0
LINE
  5
5DF6
330
1A
100
AcDbEntity
  8
金具部
370
    15
100
AcDbLine
 10
253.264008093229
 20
98.88520427959438
 30
0.0
 11
253.2637547734887
 21
98.88520427959438
 31
0.0
  0
LINE
  5
5DF7
330
1A
100
AcDbEntity
  8
ﾃﾞﾝﾃﾞﾝ部
370
    15
100
AcDbLine
 10
256.263954568258
 20
106.8852018656062
 30
0.0
 11
256.263954568258
 21
113.2620047869014
 31
0.0
  0
LINE
  5
5DF8
330
1A
100
AcDbEntity
  8
金具部
370
    15
100
AcDbLine
 10
273.2641529325158
 20
98.88520427959438
 30
0.0
 11
277.2641610387475
 21
96.88520395176883
 31
0.0
  0
LINE
  5
5DF9
330
1A
100
AcDbEntity
  8
金具部
370
    15
100
AcDbLine
 10
275.0280927899988
 20
96.88520395176883
 30
0.0
 11
272.8167455676706
 21
97.99087756293292
 31
0.0
  0
LINE
  5
5DFA
330
1A
100
AcDbEntity
  8
金具部
370
    15
100
AcDbLine
 10
272.8167455676706
 20
95.88516839759822
 30
0.0
 11
275.0280927899988
 21
95.88517026024337
 31
0.0
  0
LINE
  5
5DFB
330
1A
100
AcDbEntity
  8
金具部
370
    15
100
AcDbLine
 10
275.0280927899988
 20
95.88513486998554
 30
0.0
 11
272.8167455676706
 21
95.88513859527584
 31
0.0
  0
LINE
  5
5DFC
330
1A
100
AcDbEntity
  8
金具部
370
    15
100
AcDbLine
 10
272.8167455676706
 20
95.88511810617919
 30
0.0
 11
275.0280927899988
 21
95.88511996882434
 31
0.0
  0
LINE
  5
5DFD
330
1A
100
AcDbEntity
  8
金具部
370
    15
100
AcDbLine
 10
275.0280927899988
 20
95.88508644121166
 30
0.0
 11
272.8167455676706
 21
95.88508830385681
 31
0.0
  0
LINE
  5
5DFE
330
1A
100
AcDbEntity
  8
金具部
370
    15
100
AcDbLine
 10
275.0280927899988
 20
95.88503242450233
 30
0.0
 11
272.8167455676706
 21
95.88503614979263
 31
0.0
  0
LINE
  5
5DFF
330
1A
100
AcDbEntity
  8
金具部
370
    15
100
AcDbLine
 10
272.8167455676706
 20
95.88506967740531
 30
0.0
 11
275.0280927899988
 21
95.88507340269561
 31
0.0
  0
LINE
  5
5E00
330
1A
100
AcDbEntity
  8
金具部
370
    15
100
AcDbLine
 10
272.8167455676706
 20
95.88513859527584
 30
0.0
 11
272.8167455676706
 21
95.88516839759822
 31
0.0
  0
LINE
  5
5E01
330
1A
100
AcDbEntity
  8
金具部
370
    15
100
AcDbLine
 10
272.8167455676706
 20
95.88508830385681
 30
0.0
 11
272.8167455676706
 21
95.88511810617919
 31
0.0
  0
LINE
  5
5E02
330
1A
100
AcDbEntity
  8
金具部
370
    15
100
AcDbLine
 10
272.8167455676706
 20
95.88503614979263
 30
0.0
 11
272.8167455676706
 21
95.88506967740531
 31
0.0
  0
LINE
  5
5E03
330
1A
100
AcDbEntity
  8
金具部
370
    15
100
AcDbLine
 10
273.2641529325158
 20
98.88520427959438
 30
0.0
 11
273.2639145139367
 21
98.88520427959438
 31
0.0
  0
LINE
  5
5E04
330
1A
100
AcDbEntity
  8
金具部
370
    15
100
AcDbLine
 10
272.8167455676706
 20
97.99087756293292
 30
0.0
 11
273.2639145139367
 21
98.88520427959438
 31
0.0
  0
LINE
  5
5E05
330
1A
100
AcDbEntity
  8
金具部
370
    15
100
AcDbLine
 10
275.0280927899988
 20
95.88517026024337
 30
0.0
 11
275.0280927899988
 21
95.88513486998554
 31
0.0
  0
LINE
  5
5E06
330
1A
100
AcDbEntity
  8
金具部
370
    15
100
AcDbLine
 10
275.0280927899988
 20
95.88511996882434
 30
0.0
 11
275.0280927899988
 21
95.88508644121166
 31
0.0
  0
LINE
  5
5E07
330
1A
100
AcDbEntity
  8
金具部
370
    15
100
AcDbLine
 10
275.0280927899988
 20
95.88507340269561
 30
0.0
 11
275.0280927899988
 21
95.88503242450233
 31
0.0
  0
LINE
  5
5E08
330
1A
100
AcDbEntity
  8
金具部
370
    15
100
AcDbLine
 10
281.2639605287225
 20
95.88520378785617
 30
0.0
 11
281.2639605287225
 21
96.88520395176883
 31
0.0
  0
LINE
  5
5E09
330
1A
100
AcDbEntity
  8
ﾃﾞﾝﾃﾞﾝ部
370
    15
100
AcDbLine
 10
270.2639531377466
 20
113.2620047869014
 30
0.0
 11
270.2639531377466
 21
106.8852018656062
 31
0.0
  0
LINE
  5
5E0A
330
1A
100
AcDbEntity
  8
金具部
370
    15
100
AcDbLine
 10
281.2639605287225
 20
105.8852035643386
 30
0.0
 11
281.2639605287225
 21
106.8852018656062
 31
0.0
  0
ARC
  5
5E0B
330
1A
100
AcDbEntity
  8
ﾃﾞﾝﾃﾞﾝ部
370
    15
100
AcDbCircle
 10
250.2641976529811
 20
121.8482507592332
 30
0.0
 40
1.000237790439639
100
AcDbArc
 50
180.0141694071852
 51
244.320623414314
  0
ARC
  5
5E0C
330
1A
100
AcDbEntity
  8
ﾃﾞﾝﾃﾞﾝ部
370
    15
100
AcDbCircle
 10
263.2619060906025
 20
148.8805496503374
 30
0.0
 40
33.99518688075414
100
AcDbArc
 50
233.9523206653852
 51
254.3209436951492
  0
ARC
  5
5E0D
330
1A
100
AcDbEntity
  8
ﾃﾞﾝﾃﾞﾝ部
370
    15
100
AcDbCircle
 10
263.2639686370722
 20
148.8850145263234
 30
0.0
 40
29.50000000000031
100
AcDbArc
 50
188.7803708443402
 51
211.5798807196484
  0
ARC
  5
5E0E
330
1A
100
AcDbEntity
  8
ﾃﾞﾝﾃﾞﾝ部
370
    15
100
AcDbCircle
 10
233.9639536131925
 20
127.3851033976178
 30
0.0
 40
3.999996769975268
100
AcDbArc
 50
43.89791126493378
 51
180.0
  0
ARC
  5
5E0F
330
1A
100
AcDbEntity
  8
ﾃﾞﾝﾃﾞﾝ部
370
    15
100
AcDbCircle
 10
237.2639241758432
 20
126.8850703841542
 30
0.0
 40
7.299967332700688
100
AcDbArc
 50
179.9997408848507
 51
310.6300068664896
  0
LINE
  5
5E10
330
1A
100
AcDbEntity
  8
ﾃﾞﾝﾃﾞﾝ部
370
    15
100
AcDbLine
 10
229.9639564040811
 20
126.8851045610235
 30
0.0
 11
229.9639564040811
 21
127.3851018490122
 31
0.0
  0
ARC
  5
5E11
330
1A
100
AcDbEntity
  8
ﾃﾞﾝﾃﾞﾝ部
370
    15
100
AcDbCircle
 10
237.264070905188
 20
126.8851991252851
 30
0.0
 40
3.299961230152019
100
AcDbArc
 50
97.27384527004991
 51
322.390349537579
  0
ARC
  5
5E12
330
1A
100
AcDbEntity
  8
ﾃﾞﾝﾃﾞﾝ部
370
    15
100
AcDbCircle
 10
236.9571098224192
 20
126.9172760315465
 30
0.0
 40
3.047637931335996
100
AcDbArc
 50
102.8394304765842
 51
275.7785690524154
  0
ARC
  5
5E13
330
1A
100
AcDbEntity
  8
ﾃﾞﾝﾃﾞﾝ部
370
    15
100
AcDbCircle
 10
236.0189393268932
 20
127.7208534632763
 30
0.0
 40
4.499448627684389
100
AcDbArc
 50
326.1370559871003
 51
37.84035230770822
  0
ARC
  5
5E14
330
1A
100
AcDbEntity
  8
ﾃﾞﾝﾃﾞﾝ部
370
    15
100
AcDbCircle
 10
242.4925035570087
 20
122.8573608500031
 30
0.0
 40
3.300037949124647
100
AcDbArc
 50
51.40821959494823
 51
142.3903495375806
  0
ARC
  5
5E15
330
1A
100
AcDbEntity
  8
ﾃﾞﾝﾃﾞﾝ部
370
    15
100
AcDbCircle
 10
237.2636214542741
 20
126.8856297672136
 30
0.0
 40
3.000504926044457
100
AcDbArc
 50
270.0064398497765
 51
326.1370559870986
  0
ARC
  5
5E16
330
1A
100
AcDbEntity
  8
ﾃﾞﾝﾃﾞﾝ部
370
    15
100
AcDbCircle
 10
263.2639841175794
 20
148.8850023631132
 30
0.0
 40
30.00000000000014
100
AcDbArc
 50
231.4082195949483
 51
242.181808404667
  0
ARC
  5
5E17
330
1A
100
AcDbEntity
  8
ﾃﾞﾝﾃﾞﾝ部
370
    15
100
AcDbCircle
 10
242.6686653580855
 20
120.5859301943437
 30
0.0
 40
1.000056424970962
100
AcDbArc
 50
53.95232066536981
 51
130.6300068664772
  0
LINE
  5
5E18
330
1A
100
AcDbEntity
  8
ﾃﾞﾝﾃﾞﾝ部
370
    15
100
AcDbLine
 10
249.2639552835138
 20
121.8480017127321
 30
0.0
 11
249.2639552835138
 21
122.3520185889528
 31
0.0
  0
ARC
  5
5E19
330
1A
100
AcDbEntity
  8
ﾃﾞﾝﾃﾞﾝ部
370
    15
100
AcDbCircle
 10
263.2639686370722
 20
148.8850145263234
 30
0.0
 40
30.00002000032672
100
AcDbArc
 50
212.5348211118851
 51
217.8403523077118
  0
LINE
  5
5E1A
330
1A
100
AcDbEntity
  8
ﾃﾞﾝﾃﾞﾝ部
370
    15
100
AcDbLine
 10
234.8772119764001
 20
129.1639391423986
 30
0.0
 11
234.8772119764001
 21
129.1448582054899
 31
0.0
  0
LINE
  5
5E1B
330
1A
100
AcDbEntity
  8
ﾃﾞﾝﾃﾞﾝ部
370
    15
100
AcDbLine
 10
234.8772119764001
 20
132.0566643120573
 30
0.0
 11
234.8772119764001
 21
131.2794495465086
 31
0.0
  0
ARC
  5
5E1C
330
1A
100
AcDbEntity
  8
ﾃﾞﾝﾃﾞﾝ部
370
    15
100
AcDbCircle
 10
237.706642295083
 20
133.1744107744273
 30
0.0
 40
0.5000000000002131
100
AcDbArc
 50
302.0550591267767
 51
31.57988071970021
  0
ARC
  5
5E1D
330
1A
100
AcDbEntity
  8
ﾃﾞﾝﾃﾞﾝ部
370
    15
100
AcDbCircle
 10
263.2639686370722
 20
148.8850145263234
 30
0.0
 40
28.99999999999998
100
AcDbArc
 50
172.0718354613782
 51
187.9281189937811
  0
LINE
  5
5E1E
330
1A
100
AcDbEntity
  8
ﾃﾞﾝﾃﾞﾝ部
370
    15
100
AcDbLine
 10
234.5411609891562
 20
144.8850292803571
 30
0.0
 11
234.1096829656272
 21
144.3819213749693
 31
0.0
  0
LINE
  5
5E1F
330
1A
100
AcDbEntity
  8
ﾃﾞﾝﾃﾞﾝ部
370
    15
100
AcDbLine
 10
233.6835544589667
 20
153.8850251676367
 30
0.0
 11
234.5411609891562
 21
152.8850231410787
 31
0.0
  0
ARC
  5
5E20
330
1A
100
AcDbEntity
  8
ﾃﾞﾝﾃﾞﾝ部
370
    15
100
AcDbCircle
 10
263.2639841175794
 20
148.8850023631132
 30
0.0
 40
30.00000000000003
100
AcDbArc
 50
246.2312759589682
 51
293.7676588098613
  0
ARC
  5
5E21
330
1A
100
AcDbEntity
  8
ﾃﾞﾝﾃﾞﾝ部
370
    15
100
AcDbCircle
 10
263.2641242370103
 20
148.8850034509848
 30
0.0
 40
30.99997257768562
100
AcDbArc
 50
244.3206234142998
 51
295.640439453165
  0
ARC
  5
5E22
330
1A
100
AcDbEntity
  8
ﾃﾞﾝﾃﾞﾝ部
370
    15
100
AcDbCircle
 10
250.2641976529811
 20
121.8482507592332
 30
0.0
 40
1.000237790439799
100
AcDbArc
 50
244.320623414314
 51
335.2573462304849
  0
LINE
  5
5E23
330
1A
100
AcDbEntity
  8
ﾃﾞﾝﾃﾞﾝ部
370
    15
100
AcDbLine
 10
262.2640561345727
 20
118.9016696156787
 30
0.0
 11
264.2639111760766
 21
118.9016696156787
 31
0.0
  0
ARC
  5
5E24
330
1A
100
AcDbEntity
  8
ﾃﾞﾝﾃﾞﾝ部
370
    15
100
AcDbCircle
 10
276.2635071771243
 20
121.8480033976211
 30
0.0
 40
1.000452716003889
100
AcDbArc
 50
204.7355584815655
 51
294.5069891646706
  0
ARC
  5
5E25
330
1A
100
AcDbEntity
  8
ﾃﾞﾝﾃﾞﾝ部
370
    15
100
AcDbCircle
 10
276.2635071771243
 20
121.8480033976211
 30
0.0
 40
1.000452716003923
100
AcDbArc
 50
296.8494830779405
 51
0.0
  0
LINE
  5
5E26
330
1A
100
AcDbEntity
  8
ﾃﾞﾝﾃﾞﾝ部
370
    15
100
AcDbLine
 10
277.263967323652
 20
122.3519925119209
 30
0.0
 11
277.263967323652
 21
121.8480017127322
 31
0.0
  0
LINE
  5
5E27
330
1A
100
AcDbEntity
  8
金具部
370
    15
100
AcDbLine
 10
283.2639645818384
 20
101.7214056195544
 30
0.0
 11
283.2639645818384
 21
105.7214062752055
 31
0.0
  0
LINE
  5
5E28
330
1A
100
AcDbEntity
  8
金具部
370
    15
100
AcDbLine
 10
283.2639645818384
 20
102.8851043524074
 30
0.0
 11
283.2639645818384
 21
105.8851029815006
 31
0.0
  0
LINE
  5
5E29
330
1A
100
AcDbEntity
  8
金具部
370
    15
100
AcDbLine
 10
283.2639645818384
 20
102.8851043524074
 30
0.0
 11
283.2639645818384
 21
105.8852035643386
 31
0.0
  0
LINE
  5
5E2A
330
1A
100
AcDbEntity
  8
金具部
370
    15
100
AcDbLine
 10
283.2639645818384
 20
97.04870321767803
 30
0.0
 11
283.2639645818384
 21
101.0487038733291
 31
0.0
  0
LINE
  5
5E2B
330
1A
100
AcDbEntity
  8
金具部
370
    15
100
AcDbLine
 10
283.2639645818384
 20
96.88520395176883
 30
0.0
 11
283.2639645818384
 21
97.04870321767803
 31
0.0
  0
LINE
  5
5E2C
330
1A
100
AcDbEntity
  8
金具部
370
    15
100
AcDbLine
 10
283.2639645818384
 20
96.88520395176883
 30
0.0
 11
283.2639645818384
 21
95.88519261198527
 31
0.0
  0
LINE
  5
5E2D
330
1A
100
AcDbEntity
  8
金具部
370
    15
100
AcDbLine
 10
283.2639645818384
 20
95.88500262217994
 30
0.0
 11
283.2639645818384
 21
95.88519261198527
 31
0.0
  0
LINE
  5
5E2E
330
1A
100
AcDbEntity
  8
金具部
370
    15
100
AcDbLine
 10
283.2639645818384
 20
101.0487038733291
 30
0.0
 11
283.2639645818384
 21
101.7214056195544
 31
0.0
  0
LINE
  5
5E2F
330
1A
100
AcDbEntity
  8
金具部
370
    15
100
AcDbLine
 10
283.2639645818384
 20
105.7214062752055
 30
0.0
 11
283.2639645818384
 21
105.8851029815006
 31
0.0
  0
LINE
  5
5E30
330
1A
100
AcDbEntity
  8
金具部
370
    15
100
AcDbLine
 10
283.2639645818384
 20
106.8851050080585
 30
0.0
 11
283.2639645818384
 21
106.8856414498615
 31
0.0
  0
LINE
  5
5E31
330
1A
100
AcDbEntity
  8
金具部
370
    15
100
AcDbLine
 10
283.2639645818384
 20
104.0360029877948
 30
0.0
 11
283.2639645818384
 21
106.8851050080585
 31
0.0
  0
LINE
  5
5E32
330
1A
100
AcDbEntity
  8
金具部
370
    15
100
AcDbLine
 10
283.2639645818384
 20
104.0361035706329
 30
0.0
 11
283.2639645818384
 21
106.8851050080585
 31
0.0
  0
LINE
  5
5E33
330
1A
100
AcDbEntity
  8
金具部
370
    15
100
AcDbLine
 10
283.2639645818384
 20
106.8851646127032
 30
0.0
 11
283.2639645818384
 21
105.8852035643386
 31
0.0
  0
ARC
  5
5E34
330
1A
100
AcDbEntity
  8
ﾃﾞﾝﾃﾞﾝ部
370
    15
100
AcDbCircle
 10
263.2639686370722
 20
148.8850145263234
 30
0.0
 40
30.00002000032677
100
AcDbArc
 50
323.1303469618618
 51
350.405915457323
  0
ARC
  5
5E35
330
1A
100
AcDbEntity
  8
ﾃﾞﾝﾃﾞﾝ部
370
    15
100
AcDbCircle
 10
291.263959893128
 20
126.8851033976212
 30
0.0
 40
4.999952049770143
100
AcDbArc
 50
221.1892114203831
 51
134.9999999999957
  0
CIRCLE
  5
5E36
330
1A
100
AcDbEntity
  8
ﾃﾞﾝﾃﾞﾝ部
370
    15
100
AcDbCircle
 10
291.263959893128
 20
126.8851033976212
 30
0.0
 40
2.400000000000005
  0
ARC
  5
5E37
330
1A
100
AcDbEntity
  8
ﾃﾞﾝﾃﾞﾝ部
370
    15
100
AcDbCircle
 10
291.263959893128
 20
126.8851033976211
 30
0.0
 40
5.000022844947888
100
AcDbArc
 50
221.0647392739067
 51
27.04419034496214
  0
CIRCLE
  5
5E38
330
1A
100
AcDbEntity
  8
ﾃﾞﾝﾃﾞﾝ部
370
    15
100
AcDbCircle
 10
291.263959893128
 20
126.8851033976212
 30
0.0
 40
2.249999999999992
  0
ARC
  5
5E39
330
1A
100
AcDbEntity
  8
ﾃﾞﾝﾃﾞﾝ部
370
    15
100
AcDbCircle
 10
286.7487624317283
 20
122.9338483458547
 30
0.0
 40
1.000000000000017
100
AcDbArc
 50
41.18921142038305
 51
132.1431074025766
  0
ARC
  5
5E3A
330
1A
100
AcDbEntity
  8
ﾃﾞﾝﾃﾞﾝ部
370
    15
100
AcDbCircle
 10
291.263959893128
 20
126.8851033976212
 30
0.0
 40
5.000022844947831
100
AcDbArc
 50
27.04419034496214
 51
134.9992610213837
  0
LINE
  5
5E3B
330
1A
100
AcDbEntity
  8
ﾃﾞﾝﾃﾞﾝ部
370
    15
100
AcDbLine
 10
287.2640620950372
 20
130.8851052166747
 30
0.0
 11
287.7284567836435
 21
130.4206062199402
 31
0.0
  0
LINE
  5
5E3C
330
1A
100
AcDbEntity
  8
ﾃﾞﾝﾃﾞﾝ部
370
    15
100
AcDbLine
 10
287.7284567836435
 20
130.4206956269074
 30
0.0
 11
287.2640620950372
 21
130.8851052166747
 31
0.0
  0
ARC
  5
5E3D
330
1A
100
AcDbEntity
  8
ﾃﾞﾝﾃﾞﾝ部
370
    15
100
AcDbCircle
 10
293.2639417073961
 20
130.8851241822432
 30
0.0
 40
3.000000000000024
100
AcDbArc
 50
324.8624828381449
 51
76.49989229073989
  0
ARC
  5
5E3E
330
1A
100
AcDbEntity
  8
ﾃﾞﾝﾃﾞﾝ部
370
    15
100
AcDbCircle
 10
294.1977304745781
 20
134.7746021084288
 30
0.0
 40
0.9999999999999785
100
AcDbArc
 50
155.4799350084566
 51
256.4998922907399
  0
ARC
  5
5E3F
330
1A
100
AcDbEntity
  8
ﾃﾞﾝﾃﾞﾝ部
370
    15
100
AcDbCircle
 10
263.2639686370722
 20
148.8850145263234
 30
0.0
 40
29.00000000000014
100
AcDbArc
 50
352.0718354613782
 51
7.928118993781147
  0
LINE
  5
5E40
330
1A
100
AcDbEntity
  8
ﾃﾞﾝﾃﾞﾝ部
370
    15
100
AcDbLine
 10
292.8443830493598
 20
143.8850049020577
 30
0.0
 11
291.9867765191703
 21
144.884999478035
 31
0.0
  0
LINE
  5
5E41
330
1A
100
AcDbEntity
  8
ﾃﾞﾝﾃﾞﾝ部
370
    15
100
AcDbLine
 10
291.9867765191703
 20
152.8850007893372
 30
0.0
 11
292.8443830493598
 21
153.8850028158951
 31
0.0
  0
LINE
  5
5FF4
330
1A
100
AcDbEntity
  8
CENTER L
 48
5.0
100
AcDbLine
 10
263.2639580253274
 20
188.5850026221797
 30
0.0
 11
263.2639580253274
 21
88.58743508483795
 31
0.0
  0
LINE
  5
5FF5
330
1A
100
AcDbEntity
  8
CENTER L
 48
5.0
100
AcDbLine
 10
303.8367772399987
 20
148.8850145263234
 30
0.0
 11
222.6911388106562
 21
148.8850145263234
 31
0.0
  0
LINE
  5
5FF7
330
1A
100
AcDbEntity
  8
CENTER L
 48
5.0
100
AcDbLine
 10
159.0084237046617
 20
148.8850145263234
 30
0.0
 11
120.7840424696429
 21
148.8850145263234
 31
0.0
  0
LINE
  5
5FF8
330
1A
100
AcDbEntity
  8
CENTER L
 48
5.0
100
AcDbLine
 10
138.4422014767373
 20
188.5848041376281
 30
0.0
 11
138.4422014767373
 21
102.5402912006618
 31
0.0
  0
DIMENSION
  5
5FF9
330
1A
100
AcDbEntity
  8
SUNPOU
100
AcDbDimension
  2
*D5
 10
173.2824904893239
 20
98.88510262217979
 30
0.0
 11
169.2824904893239
 21
89.55176928884649
 31
0.0
 70
    32
 71
     5
 42
-1.0
  3
STANDARD
100
AcDbAlignedDimension
 13
148.442207914357
 23
102.8850026221798
 33
0.0
 14
150.442207914357
 24
98.8851026221798
 34
0.0
 50
90.0
100
AcDbRotatedDimension
  0
DIMENSION
  5
5FFA
330
1A
100
AcDbEntity
  8
SUNPOU
100
AcDbDimension
  2
*D2
 10
113.617983914357
 20
71.15286378734177
 30
0.0
 11
136.030095914357
 21
75.15286378734177
 31
0.0
 70
    32
 71
     5
 42
-1.0
  3
STANDARD
100
AcDbAlignedDimension
 13
158.4422079143569
 23
95.88500262217982
 33
0.0
 14
113.617983914357
 24
101.3850026223848
 34
0.0
100
AcDbRotatedDimension
  0
DIMENSION
  5
5FFB
330
1A
100
AcDbEntity
  8
SUNPOU
100
AcDbDimension
  2
*D4
 10
121.6079246841719
 20
95.88490262217979
 30
0.0
 11
117.6079246841719
 21
82.88490262217981
 31
0.0
 70
    32
  1
t<>
 71
     5
 42
-1.0
  3
STANDARD
100
AcDbAlignedDimension
 13
118.9034099946562
 23
96.92775591449819
 33
0.0
 14
118.6634079143569
 24
95.88490262217979
 34
0.0
 50
90.0
100
AcDbRotatedDimension
1001
ACAD
1000
DSTYLE
1002
{
1070
   271
1070
     1
1002
}
  0
DIMENSION
  5
5FFC
330
1A
100
AcDbEntity
  8
SUNPOU
100
AcDbDimension
  2
*D3
 10
181.3097535926886
 20
95.88500262217982
 30
0.0
 11
177.3097535926886
 21
101.3850016610549
 31
0.0
 70
    32
 71
     5
 42
-1.0
  3
STANDARD
100
AcDbAlignedDimension
 13
158.4422079143569
 23
106.88500069993
 33
0.0
 14
158.4422079143569
 24
95.88500262217982
 34
0.0
 50
90.0
100
AcDbRotatedDimension
  0
DIMENSION
  5
6059
330
1A
100
AcDbEntity
  8
SUNPOU
100
AcDbDimension
  2
*D6
 10
283.2639645818384
 20
71.41336726282978
 30
0.0
 11
263.2639645818384
 21
75.41336726282978
 31
0.0
 70
    32
 71
     5
 42
-1.0
  3
STANDARD
100
AcDbAlignedDimension
 13
243.2639645818384
 23
95.88500262217994
 33
0.0
 14
283.2639645818384
 24
95.88500262217994
 34
0.0
100
AcDbRotatedDimension
  0
DIMENSION
  5
606F
330
1A
100
AcDbEntity
  8
SUNPOU
100
AcDbDimension
  2
*D7
 10
196.0184116597955
 20
95.88500262217973
 30
0.0
 11
192.0184116597955
 21
138.8850185744142
 31
0.0
 70
    32
 71
     5
 42
-1.0
  3
STANDARD
100
AcDbAlignedDimension
 13
263.2639580253274
 23
181.8850345266486
 33
0.0
 14
243.2639580253274
 24
95.88500262217971
 34
0.0
 50
90.0
100
AcDbRotatedDimension
  0
DIMENSION
  5
6070
330
1A
100
AcDbEntity
  8
SUNPOU
100
AcDbDimension
  2
*D8
 10
204.7760086055358
 20
106.8849026221797
 30
0.0
 11
200.7760086055357
 21
144.3849685744142
 31
0.0
 70
    32
 71
     5
 42
-1.0
  3
STANDARD
100
AcDbAlignedDimension
 13
263.2639580253274
 23
181.8850345266486
 33
0.0
 14
243.2639580253274
 24
106.8849026221797
 34
0.0
 50
90.0
100
AcDbRotatedDimension
  0
DIMENSION
  5
60AD
330
1A
100
AcDbEntity
  8
SUNPOU
100
AcDbDimension
  2
*D9
 10
129.4422154245422
 20
201.311037959608
 30
0.0
 11
138.4422154245422
 21
205.311037959608
 31
0.0
 70
    32
 71
     5
 42
-1.0
  3
STANDARD
100
AcDbAlignedDimension
 13
147.4422154245422
 23
181.8848360420988
 33
0.0
 14
129.4422154245422
 24
181.8848360420988
 34
0.0
100
AcDbRotatedDimension
  0
DIMENSION
  5
6A46
330
1A
100
AcDbEntity
  8
SUNPOU
100
AcDbDimension
  2
*D10
 10
296.2639886373991
 20
197.2070182753504
 30
0.0
 11
263.2639686370722
 21
201.2070182753504
 31
0.0
 70
    32
 71
     5
 42
-1.0
  3
STANDARD
100
AcDbAlignedDimension
 13
230.2639486367453
 23
148.8850145263234
 33
0.0
 14
296.2639886373991
 24
148.8850145263234
 34
0.0
100
AcDbRotatedDimension
  0
LINE
  5
6B0D
330
1A
100
AcDbEntity
  8
CENTER L
 48
5.0
100
AcDbLine
 10
291.263959893128
 20
138.0843744358406
 30
0.0
 11
291.263959893128
 21
115.6858323594016
 31
0.0
  0
LINE
  5
6B0E
330
1A
100
AcDbEntity
  8
CENTER L
 48
5.0
100
AcDbLine
 10
302.4632309313476
 20
126.8851033976212
 30
0.0
 11
280.0646888549085
 21
126.8851033976212
 31
0.0
  0
DIMENSION
  5
7642
330
1A
100
AcDbEntity
  8
SUNPOU
100
AcDbDimension
  2
*D11
 10
239.1025789323814
 20
131.1022012630047
 30
0.0
 11
269.6883176859642
 21
159.9349829659762
 31
0.0
 70
   163
 71
     5
 42
-1.0
  3
STANDARD
100
AcDbDiametricDimension
 15
287.4253583417631
 25
166.6678277896422
 35
0.0
 40
0.0
1001
ACAD
1000
DSTYLE
1002
{
1070
   287
1070
     5
1070
   279
1070
     2
1002
}
  0
DIMENSION
  5
7675
330
1A
100
AcDbEntity
  8
SUNPOU
100
AcDbDimension
  2
*D12
 10
113.617983914357
 20
194.0006316327179
 30
0.0
 11
121.6991188571803
 21
198.4403804981693
 31
0.0
 70
   160
 71
     5
 42
-1.0
  3
STANDARD
100
AcDbAlignedDimension
 13
138.4422014767373
 23
188.5848041376281
 33
0.0
 14
113.617983914357
 24
101.3850026223848
 34
0.0
100
AcDbRotatedDimension
1001
ACAD
1000
DSTYLE
1002
{
1070
   287
1070
     5
1070
   279
1070
     2
1002
}
  0
VIEWPORT
  5
22
102
{ACAD_XDICTIONARY
360
7942
102
}
330
17
100
AcDbEntity
 67
     1
  8
0
100
AcDbViewport
 10
313.6808219178083
 20
148.5
 30
0.0
 40
627.3616438356165
 41
297.0
 68
     2
 69
     1
 12
313.6808219178083
 22
148.5
 13
0.0
 23
0.0
 14
1.0
 24
1.0
 15
10.0
 25
10.0
 16
0.0
 26
0.0
 36
1.0
 17
0.0
 27
0.0
 37
0.0
 42
50.0
 43
0.0
 44
0.0
 45
297.0
 50
0.0
 51
0.0
 72
   100
 90
    32768
  1

281
     0
 71
     1
 74
     0
110
0.0
120
0.0
130
0.0
111
1.0
121
0.0
131
0.0
112
0.0
122
1.0
132
0.0
 79
     0
146
0.0
  0
VIEWPORT
  5
64
102
{ACAD_XDICTIONARY
360
7944
102
}
330
17
100
AcDbEntity
 67
     1
  8
VIEWPORT
100
AcDbViewport
 10
210.0
 20
148.5
 30
0.0
 40
420.0
 41
297.0
 68
     1
 69
     2
 12
210.0
 22
148.5
 13
0.0
 23
0.0
 14
5.0
 24
5.0
 15
0.0
 25
0.0
 16
0.0
 26
0.0
 36
1.0
 17
0.0
 27
0.0
 37
0.0
 42
50.0
 43
0.0
 44
0.0
 45
302.9399999999999
 50
0.0
 51
0.0
 72
   100
 90
    32768
  1

281
     0
 71
     1
 74
     0
110
0.0
120
0.0
130
0.0
111
1.0
121
0.0
131
0.0
112
0.0
122
1.0
132
0.0
 79
     0
146
0.0
  0
ENDSEC
  0
SECTION
  2
OBJECTS
  0
DICTIONARY
  5
C
330
0
100
AcDbDictionary
281
     1
  3
ACAD_COLOR
350
792C
  3
ACAD_GROUP
350
D
  3
ACAD_LAYOUT
350
3BC
  3
ACAD_MATERIAL
350
792B
  3
ACAD_MLINESTYLE
350
E
  3
ACAD_PLOTSETTINGS
350
3BD
  3
ACAD_PLOTSTYLENAME
350
3BA
  3
ACDBHEADERROUNDTRIPXREC
350
793F
  3
AcDbVariableDictionary
350
793B
  0
DICTIONARY
  5
3EB
330
1A
100
AcDbDictionary
280
     1
281
     1
  3
ACAD_LAYOUTSELFREF
360
78F7
  0
DICTIONARY
  5
3E9
330
17
100
AcDbDictionary
280
     1
281
     1
  3
ACAD_LAYOUTSELFREF
360
78F6
  0
DICTIONARY
  5
7942
330
22
100
AcDbDictionary
280
     1
281
     1
  3
ACAD_XREC_ROUNDTRIP
360
7943
  0
DICTIONARY
  5
7944
330
64
100
AcDbDictionary
280
     1
281
     1
  3
ACAD_XREC_ROUNDTRIP
360
7945
  0
DICTIONARY
  5
792C
102
{ACAD_REACTORS
330
C
102
}
330
C
100
AcDbDictionary
281
     1
  0
DICTIONARY
  5
D
102
{ACAD_REACTORS
330
C
102
}
330
C
100
AcDbDictionary
281
     1
  3
*A1
350
6ED4
  3
*A2
350
7242
  3
*A3
350
75AF
  3
*A4
350
75B0
  0
DICTIONARY
  5
3BC
102
{ACAD_REACTORS
330
C
102
}
330
C
100
AcDbDictionary
281
     1
  3
Model
350
3BE
  3
ﾚｲｱｳﾄ1
350
3BF
  0
DICTIONARY
  5
792B
102
{ACAD_REACTORS
330
C
102
}
330
C
100
AcDbDictionary
281
     1
  0
DICTIONARY
  5
E
102
{ACAD_REACTORS
330
C
102
}
330
C
100
AcDbDictionary
281
     1
  3
STANDARD
350
13
  0
DICTIONARY
  5
3BD
102
{ACAD_REACTORS
330
C
102
}
330
C
100
AcDbDictionary
281
     1
  0
ACDBDICTIONARYWDFLT
  5
3BA
102
{ACAD_REACTORS
330
C
102
}
330
C
100
AcDbDictionary
281
     1
  3
Normal
350
3BB
100
AcDbDictionaryWithDefault
340
3BB
1001
ACAD
1000
TREAT_AS_HARD
1070
     0
1000
TREAT_AS_HARD
1070
     0
1000
TREAT_AS_HARD
1070
     0
1000
TREAT_AS_HARD
1070
     0
1000
TREAT_AS_HARD
1070
     0
1000
TREAT_AS_HARD
1070
     0
1000
TREAT_AS_HARD
1070
     0
1000
TREAT_AS_HARD
1070
     0
1000
TREAT_AS_HARD
1070
     0
1000
TREAT_AS_HARD
1070
     0
1000
TREAT_AS_HARD
1070
     0
1000
TREAT_AS_HARD
1070
     0
1000
TREAT_AS_HARD
1070
     0
1000
TREAT_AS_HARD
1070
     0
1000
TREAT_AS_HARD
1070
     0
1000
TREAT_AS_HARD
1070
     0
1000
TREAT_AS_HARD
1070
     0
1000
TREAT_AS_HARD
1070
     0
1000
TREAT_AS_HARD
1070
     0
1000
TREAT_AS_HARD
1070
     0
  0
DICTIONARY
  5
793F
102
{ACAD_REACTORS
330
C
102
}
330
C
100
AcDbDictionary
281
     1
  3
COLORDICT
350
7941
  3
MATERIALDICT
350
7940
  0
DICTIONARY
  5
793B
102
{ACAD_REACTORS
330
C
102
}
330
C
100
AcDbDictionary
281
     1
  3
DIMASSOC
350
793C
  3
PROJECTNAME
350
793D
  0
XRECORD
  5
78F7
102
{ACAD_REACTORS
330
3EB
102
}
330
3EB
100
AcDbXrecord
280
     1
340
1A
  0
XRECORD
  5
78F6
102
{ACAD_REACTORS
330
3E9
102
}
330
3E9
100
AcDbXrecord
280
     1
340
17
  0
XRECORD
  5
7943
102
{ACAD_REACTORS
330
7942
102
}
330
7942
100
AcDbXrecord
280
     1
102
SHADEPLOT
 70
     0
  0
XRECORD
  5
7945
102
{ACAD_REACTORS
330
7944
102
}
330
7944
100
AcDbXrecord
280
     1
102
SHADEPLOT
 70
     0
  0
GROUP
  5
6ED4
102
{ACAD_REACTORS
330
D
102
}
330
D
100
AcDbGroup
300

 70
     1
 71
     1
  0
GROUP
  5
7242
102
{ACAD_REACTORS
330
D
102
}
330
D
100
AcDbGroup
300

 70
     1
 71
     1
  0
GROUP
  5
75AF
102
{ACAD_REACTORS
330
D
102
}
330
D
100
AcDbGroup
300

 70
     1
 71
     1
  0
GROUP
  5
75B0
102
{ACAD_REACTORS
330
D
102
}
330
D
100
AcDbGroup
300

 70
     1
 71
     1
  0
LAYOUT
  5
3BE
102
{ACAD_XDICTIONARY
360
7946
102
}
102
{ACAD_REACTORS
330
3BC
102
}
330
3BC
100
AcDbPlotSettings
  1

  2
Acrobat Distiller
  4
A3
  6

 40
3.174999952316284
 41
3.174999952316284
 42
3.17498779296875
 43
3.17498779296875
 44
297.0318298339844
 45
420.1583251953125
 46
7.0
 47
7.0
 48
0.0
 49
0.0
140
0.0
141
0.0
142
1.0
143
1.0
 70
 28336
 72
     1
 73
     1
 74
     2
  7
print.ctb
 75
    16
147
1.0
148
0.0
149
0.0
100
AcDbLayout
  1
Model
 70
     1
 71
     0
 10
0.0
 20
0.0
 11
12.0
 21
9.0
 12
0.0
 22
0.0
 32
0.0
 14
0.0
 24
0.0
 34
0.0
 15
0.0
 25
0.0
 35
0.0
146
0.0
 13
0.0
 23
0.0
 33
0.0
 16
1.0
 26
0.0
 36
0.0
 17
0.0
 27
1.0
 37
0.0
 76
     0
330
1A
  0
LAYOUT
  5
3BF
102
{ACAD_XDICTIONARY
360
7948
102
}
102
{ACAD_REACTORS
330
3BC
102
}
330
3BC
100
AcDbPlotSettings
  1

  2
C:\PROGRAM FILES\ACAD LT 2000\plotters\DWF ePlot.pc3
  4

  6

 40
0.0
 41
0.0
 42
0.0
 43
0.0
 44
0.0
 45
0.0
 46
0.0
 47
0.0
 48
0.0
 49
0.0
140
0.0
141
0.0
142
1.0
143
1.0
 70
   688
 72
     0
 73
     0
 74
     5
  7
print.ctb
 75
    16
147
1.0
148
0.0
149
0.0
100
AcDbLayout
  1
ﾚｲｱｳﾄ1
 70
     1
 71
     1
 10
0.0
 20
0.0
 11
420.0
 21
297.0
 12
0.0
 22
0.0
 32
0.0
 14
0.0
 24
0.0
 34
0.0
 15
420.0
 25
297.0
 35
0.0
146
0.0
 13
0.0
 23
0.0
 33
0.0
 16
1.0
 26
0.0
 36
0.0
 17
0.0
 27
1.0
 37
0.0
 76
     0
330
17
331
64
  0
MLINESTYLE
  5
13
102
{ACAD_REACTORS
330
E
102
}
330
E
100
AcDbMlineStyle
  2
STANDARD
 70
     0
  3

 62
     0
 51
90.0
 52
90.0
 71
     2
 49
0.5
 62
   256
  6
BYLAYER
 49
-0.5
 62
   256
  6
BYLAYER
  0
ACDBPLACEHOLDER
  5
3BB
102
{ACAD_REACTORS
330
3BA
102
}
330
3BA
  0
XRECORD
  5
7941
102
{ACAD_REACTORS
330
793F
102
}
330
793F
100
AcDbXrecord
280
     1
340
792C
  0
XRECORD
  5
7940
102
{ACAD_REACTORS
330
793F
102
}
330
793F
100
AcDbXrecord
280
     1
340
792B
  0
DICTIONARYVAR
  5
793C
102
{ACAD_REACTORS
330
793B
102
}
330
793B
100
DictionaryVariables
280
     0
  1
1
  0
DICTIONARYVAR
  5
793D
102
{ACAD_REACTORS
330
793B
102
}
330
793B
100
DictionaryVariables
280
     0
  1

  0
DICTIONARY
  5
7946
330
3BE
100
AcDbDictionary
280
     1
281
     1
  3
ACAD_XREC_ROUNDTRIP
360
7947
  0
DICTIONARY
  5
7948
330
3BF
100
AcDbDictionary
280
     1
281
     1
  3
ACAD_XREC_ROUNDTRIP
360
7949
  0
XRECORD
  5
7947
102
{ACAD_REACTORS
330
7946
102
}
330
7946
100
AcDbXrecord
280
     1
102
SHADEPLOT
 70
     0
102
SHADEPLOTRESLEVEL
 70
     2
102
SHADEPLOTCUSTOMDPI
 70
   300
  0
XRECORD
  5
7949
102
{ACAD_REACTORS
330
7948
102
}
330
7948
100
AcDbXrecord
280
     1
102
SHADEPLOT
 70
     0
102
SHADEPLOTRESLEVEL
 70
     2
102
SHADEPLOTCUSTOMDPI
 70
   300
  0
ENDSEC
  0
EOF
