  0
SECTION
  2
HEADER
  9
$ACADVER
  1
AC1015
  9
$ACADMAINTVER
 70
    20
  9
$DWGCODEPAGE
  3
ANSI_932
  9
$INSBASE
 10
0.0
 20
0.0
 30
0.0
  9
$EXTMIN
 10
0.0000002112909669
 20
0.0000003333167342
 30
0.0
  9
$EXTMAX
 10
398.8000002112912
 20
275.8000003333167
 30
0.0
  9
$LIMMIN
 10
0.0
 20
0.0
  9
$LIMMAX
 10
420.0
 20
297.0
  9
$ORTHOMODE
 70
     1
  9
$REGENMODE
 70
     1
  9
$FILLMODE
 70
     1
  9
$QTEXTMODE
 70
     0
  9
$MIRRTEXT
 70
     1
  9
$LTSCALE
 40
1.0
  9
$ATTMODE
 70
     1
  9
$TEXTSIZE
 40
2.5
  9
$TRACEWID
 40
1.0
  9
$TEXTSTYLE
  7
STANDARD
  9
$CLAYER
  8
0
  9
$CELTYPE
  6
BYLAYER
  9
$CECOLOR
 62
   256
  9
$CELTSCALE
 40
1.0
  9
$DISPSILH
 70
     0
  9
$DIMSCALE
 40
1.0
  9
$DIMASZ
 40
3.0
  9
$DIMEXO
 40
1.5
  9
$DIMDLI
 40
9.0
  9
$DIMRND
 40
0.0
  9
$DIMDLE
 40
0.0
  9
$DIMEXE
 40
1.5
  9
$DIMTP
 40
0.0
  9
$DIMTM
 40
0.0
  9
$DIMTXT
 40
4.0
  9
$DIMCEN
 40
0.0
  9
$DIMTSZ
 40
0.0
  9
$DIMTOL
 70
     0
  9
$DIMLIM
 70
     0
  9
$DIMTIH
 70
     0
  9
$DIMTOH
 70
     0
  9
$DIMSE1
 70
     0
  9
$DIMSE2
 70
     0
  9
$DIMTAD
 70
     3
  9
$DIMZIN
 70
     0
  9
$DIMBLK
  1
OPEN
  9
$DIMASO
 70
     1
  9
$DIMSHO
 70
     1
  9
$DIMPOST
  1

  9
$DIMAPOST
  1

  9
$DIMALT
 70
     0
  9
$DIMALTD
 70
     2
  9
$DIMALTF
 40
25.4
  9
$DIMLFAC
 40
1.0
  9
$DIMTOFL
 70
     0
  9
$DIMTVP
 40
0.0
  9
$DIMTIX
 70
     0
  9
$DIMSOXD
 70
     0
  9
$DIMSAH
 70
     0
  9
$DIMBLK1
  1

  9
$DIMBLK2
  1

  9
$DIMSTYLE
  2
STANDARD
  9
$DIMCLRD
 70
   256
  9
$DIMCLRE
 70
   256
  9
$DIMCLRT
 70
   256
  9
$DIMTFAC
 40
1.0
  9
$DIMGAP
 40
2.0
  9
$DIMJUST
 70
     0
  9
$DIMSD1
 70
     0
  9
$DIMSD2
 70
     0
  9
$DIMTOLJ
 70
     1
  9
$DIMTZIN
 70
     0
  9
$DIMALTZ
 70
     0
  9
$DIMALTTZ
 70
     0
  9
$DIMUPT
 70
     0
  9
$DIMDEC
 70
     0
  9
$DIMTDEC
 70
     0
  9
$DIMALTU
 70
     2
  9
$DIMALTTD
 70
     2
  9
$DIMTXSTY
  7
STANDARD
  9
$DIMAUNIT
 70
     0
  9
$DIMADEC
 70
     0
  9
$DIMALTRND
 40
0.0
  9
$DIMAZIN
 70
     0
  9
$DIMDSEP
 70
    46
  9
$DIMATFIT
 70
     3
  9
$DIMFRAC
 70
     0
  9
$DIMLDRBLK
  1
OPEN
  9
$DIMLUNIT
 70
     2
  9
$DIMLWD
 70
    -1
  9
$DIMLWE
 70
    -1
  9
$DIMTMOVE
 70
     0
  9
$LUNITS
 70
     2
  9
$LUPREC
 70
     4
  9
$SKETCHINC
 40
1.0
  9
$FILLETRAD
 40
10.0
  9
$AUNITS
 70
     0
  9
$AUPREC
 70
     0
  9
$MENU
  1
.
  9
$ELEVATION
 40
0.0
  9
$PELEVATION
 40
0.0
  9
$THICKNESS
 40
0.0
  9
$LIMCHECK
 70
     0
  9
$CHAMFERA
 40
10.0
  9
$CHAMFERB
 40
10.0
  9
$CHAMFERC
 40
20.0
  9
$CHAMFERD
 40
0.0
  9
$SKPOLY
 70
     0
  9
$TDCREATE
 40
2451070.734084838
  9
$TDUCREATE
 40
2451070.359084838
  9
$TDUPDATE
 40
2456904.600211933
  9
$TDUUPDATE
 40
2456904.225211933
  9
$TDINDWG
 40
0.2540044097
  9
$TDUSRTIMER
 40
0.2540042245
  9
$USRTIMER
 70
     1
  9
$ANGBASE
 50
0.0
  9
$ANGDIR
 70
     0
  9
$PDMODE
 70
     0
  9
$PDSIZE
 40
0.0
  9
$PLINEWID
 40
0.0
  9
$SPLFRAME
 70
     0
  9
$SPLINETYPE
 70
     6
  9
$SPLINESEGS
 70
     8
  9
$HANDSEED
  5
8E92
  9
$SURFTAB1
 70
     6
  9
$SURFTAB2
 70
     6
  9
$SURFTYPE
 70
     6
  9
$SURFU
 70
     6
  9
$SURFV
 70
     6
  9
$UCSBASE
  2

  9
$UCSNAME
  2

  9
$UCSORG
 10
0.0
 20
0.0
 30
0.0
  9
$UCSXDIR
 10
1.0
 20
0.0
 30
0.0
  9
$UCSYDIR
 10
0.0
 20
1.0
 30
0.0
  9
$UCSORTHOREF
  2

  9
$UCSORTHOVIEW
 70
     0
  9
$UCSORGTOP
 10
0.0
 20
0.0
 30
0.0
  9
$UCSORGBOTTOM
 10
0.0
 20
0.0
 30
0.0
  9
$UCSORGLEFT
 10
0.0
 20
0.0
 30
0.0
  9
$UCSORGRIGHT
 10
0.0
 20
0.0
 30
0.0
  9
$UCSORGFRONT
 10
0.0
 20
0.0
 30
0.0
  9
$UCSORGBACK
 10
0.0
 20
0.0
 30
0.0
  9
$PUCSBASE
  2

  9
$PUCSNAME
  2

  9
$PUCSORG
 10
0.0
 20
0.0
 30
0.0
  9
$PUCSXDIR
 10
1.0
 20
0.0
 30
0.0
  9
$PUCSYDIR
 10
0.0
 20
1.0
 30
0.0
  9
$PUCSORTHOREF
  2

  9
$PUCSORTHOVIEW
 70
     0
  9
$PUCSORGTOP
 10
0.0
 20
0.0
 30
0.0
  9
$PUCSORGBOTTOM
 10
0.0
 20
0.0
 30
0.0
  9
$PUCSORGLEFT
 10
0.0
 20
0.0
 30
0.0
  9
$PUCSORGRIGHT
 10
0.0
 20
0.0
 30
0.0
  9
$PUCSORGFRONT
 10
0.0
 20
0.0
 30
0.0
  9
$PUCSORGBACK
 10
0.0
 20
0.0
 30
0.0
  9
$USERI1
 70
     0
  9
$USERI2
 70
     0
  9
$USERI3
 70
     0
  9
$USERI4
 70
     0
  9
$USERI5
 70
     0
  9
$USERR1
 40
0.0
  9
$USERR2
 40
0.0
  9
$USERR3
 40
0.0
  9
$USERR4
 40
0.0
  9
$USERR5
 40
0.0
  9
$WORLDVIEW
 70
     1
  9
$SHADEDGE
 70
     3
  9
$SHADEDIF
 70
    70
  9
$TILEMODE
 70
     1
  9
$MAXACTVP
 70
    16
  9
$PINSBASE
 10
0.0
 20
0.0
 30
0.0
  9
$PLIMCHECK
 70
     0
  9
$PEXTMIN
 10
0.0
 20
0.0
 30
0.0
  9
$PEXTMAX
 10
420.0
 20
297.0
 30
0.0
  9
$PLIMMIN
 10
0.0
 20
0.0
  9
$PLIMMAX
 10
420.0
 20
297.0
  9
$UNITMODE
 70
     0
  9
$VISRETAIN
 70
     0
  9
$PLINEGEN
 70
     0
  9
$PSLTSCALE
 70
     1
  9
$TREEDEPTH
 70
  3020
  9
$CMLSTYLE
  2
STANDARD
  9
$CMLJUST
 70
     0
  9
$CMLSCALE
 40
1.0
  9
$PROXYGRAPHICS
 70
     1
  9
$MEASUREMENT
 70
     0
  9
$CELWEIGHT
370
    -1
  9
$ENDCAPS
280
     0
  9
$JOINSTYLE
280
     0
  9
$LWDISPLAY
290
     0
  9
$INSUNITS
 70
     0
  9
$HYPERLINKBASE
  1

  9
$STYLESHEET
  1
print.ctb
  9
$XEDIT
290
     1
  9
$CEPSNTYPE
380
     0
  9
$PSTYLEMODE
290
     1
  9
$FINGERPRINTGUID
  2
{68D4B1C2-DE04-482D-91CF-FDFDBD3E2358}
  9
$VERSIONGUID
  2
{B952A102-1CA4-4ECD-A3F0-2420CE63F861}
  9
$EXTNAMES
290
     1
  9
$PSVPSCALE
 40
0.0
  9
$OLESTARTUP
290
     0
  0
ENDSEC
  0
SECTION
  2
CLASSES
  0
CLASS
  1
ACDBDICTIONARYWDFLT
  2
AcDbDictionaryWithDefault
  3
ObjectDBX Classes
 90
        0
280
     0
281
     0
  0
CLASS
  1
ACDBPLACEHOLDER
  2
AcDbPlaceHolder
  3
ObjectDBX Classes
 90
        0
280
     0
281
     0
  0
CLASS
  1
LAYOUT
  2
AcDbLayout
  3
ObjectDBX Classes
 90
        0
280
     0
281
     0
  0
CLASS
  1
DICTIONARYVAR
  2
AcDbDictionaryVar
  3
ObjectDBX Classes
 90
        0
280
     0
281
     0
  0
ENDSEC
  0
SECTION
  2
TABLES
  0
TABLE
  2
VPORT
  5
8
330
0
100
AcDbSymbolTable
 70
     2
  0
VPORT
  5
8E86
330
8
100
AcDbSymbolTableRecord
100
AcDbViewportTableRecord
  2
*Active
 70
     0
 10
0.0
 20
0.0
 11
1.0
 21
1.0
 12
274.7998599782722
 22
157.2201921892985
 13
0.0
 23
0.0
 14
5.0
 24
5.0
 15
0.0
 25
0.0
 16
0.0
 26
0.0
 36
1.0
 17
0.0
 27
0.0
 37
0.0
 40
464.1485223109507
 41
2.011264080100125
 42
50.0
 43
0.0
 44
0.0
 50
0.0
 51
0.0
 71
     0
 72
   100
 73
     1
 74
     0
 75
     0
 76
     0
 77
     0
 78
     0
281
     0
 65
     1
110
0.0
120
0.0
130
0.0
111
1.0
121
0.0
131
0.0
112
0.0
122
1.0
132
0.0
 79
     0
146
0.0
  0
ENDTAB
  0
TABLE
  2
LTYPE
  5
5
330
0
100
AcDbSymbolTable
 70
     2
  0
LTYPE
  5
14
330
5
100
AcDbSymbolTableRecord
100
AcDbLinetypeTableRecord
  2
BYBLOCK
 70
     0
  3

 72
    65
 73
     0
 40
0.0
  0
LTYPE
  5
15
330
5
100
AcDbSymbolTableRecord
100
AcDbLinetypeTableRecord
  2
BYLAYER
 70
     0
  3

 72
    65
 73
     0
 40
0.0
  0
LTYPE
  5
16
330
5
100
AcDbSymbolTableRecord
100
AcDbLinetypeTableRecord
  2
CONTINUOUS
 70
     0
  3
Solid line
 72
    65
 73
     0
 40
0.0
  0
LTYPE
  5
120
330
5
100
AcDbSymbolTableRecord
100
AcDbLinetypeTableRecord
  2
CENTER
 70
     0
  3
____ _ ____ _ ____ _ ____ _ ____ _ ____ _ ____ 
 72
    65
 73
     4
 40
2.0
 49
1.25
 74
     0
 49
-0.25
 74
     0
 49
0.25
 74
     0
 49
-0.25
 74
     0
  0
ENDTAB
  0
TABLE
  2
LAYER
  5
2
330
0
100
AcDbSymbolTable
 70
     9
  0
LAYER
  5
F
330
2
100
AcDbSymbolTableRecord
100
AcDbLayerTableRecord
  2
0
 70
     0
 62
     7
  6
CONTINUOUS
370
    -3
390
8C13
  0
LAYER
  5
62
330
2
100
AcDbSymbolTableRecord
100
AcDbLayerTableRecord
  2
VIEWPORT
 70
     0
 62
     7
  6
CONTINUOUS
370
    -3
390
8C13
  0
LAYER
  5
6B
330
2
100
AcDbSymbolTableRecord
100
AcDbLayerTableRecord
  2
ZUWAKU
 70
     0
 62
     7
  6
CONTINUOUS
370
    -3
390
8C13
  0
LAYER
  5
134
330
2
100
AcDbSymbolTableRecord
100
AcDbLayerTableRecord
  2
SUNPOU
 70
     0
 62
     4
  6
CONTINUOUS
370
    -3
390
8C13
  0
LAYER
  5
135
330
2
100
AcDbSymbolTableRecord
100
AcDbLayerTableRecord
  2
CENTER_L
 70
     0
 62
     1
  6
CENTER
370
    -3
390
8C13
  0
LAYER
  5
2FF
330
2
100
AcDbSymbolTableRecord
100
AcDbLayerTableRecord
  2
DEFPOINTS
 70
     0
 62
     7
  6
CONTINUOUS
290
     0
370
    -3
390
8C13
  0
LAYER
  5
42D
330
2
100
AcDbSymbolTableRecord
100
AcDbLayerTableRecord
  2
MOJI
 70
     0
 62
     2
  6
CONTINUOUS
370
    -3
390
8C13
  0
LAYER
  5
4CBA
330
2
100
AcDbSymbolTableRecord
100
AcDbLayerTableRecord
  2
金具部
 70
     0
 62
     3
  6
CONTINUOUS
370
    -3
390
8C13
  0
LAYER
  5
4CBB
330
2
100
AcDbSymbolTableRecord
100
AcDbLayerTableRecord
  2
ﾃ_ﾝﾃ_ﾝ部
 70
     0
 62
     3
  6
CONTINUOUS
370
    -3
390
8C13
  0
ENDTAB
  0
TABLE
  2
STYLE
  5
3
330
0
100
AcDbSymbolTable
 70
     2
  0
STYLE
  5
10
330
3
100
AcDbSymbolTableRecord
100
AcDbTextStyleTableRecord
  2
STANDARD
 70
     0
 40
0.0
 41
1.0
 50
0.0
 71
     0
 42
2.5
  3
TXT
  4
bigfont.shx
  0
STYLE
  5
42E
330
3
100
AcDbSymbolTableRecord
100
AcDbTextStyleTableRecord
  2
ｽﾀｲﾙ1
 70
     0
 40
0.0
 41
1.0
 50
0.0
 71
     0
 42
2.5
  3

  4

1001
ACAD
1000
MS PGothic
1071
    32818
  0
ENDTAB
  0
TABLE
  2
VIEW
  5
6
330
0
100
AcDbSymbolTable
 70
     0
  0
ENDTAB
  0
TABLE
  2
UCS
  5
7
330
0
100
AcDbSymbolTable
 70
     0
  0
ENDTAB
  0
TABLE
  2
APPID
  5
9
330
0
100
AcDbSymbolTable
 70
     1
  0
APPID
  5
11
330
9
100
AcDbSymbolTableRecord
100
AcDbRegAppTableRecord
  2
ACAD
 70
     0
  0
ENDTAB
  0
TABLE
  2
DIMSTYLE
  5
A
330
0
100
AcDbSymbolTable
 70
     1
100
AcDbDimStyleTable
 71
     0
  0
DIMSTYLE
105
1D
102
{ACAD_REACTORS
330
86F5
330
86F4
330
86FA
330
8A4A
330
86FB
330
86FC
330
8780
330
8781
330
8782
330
8783
330
8A73
102
}
330
A
100
AcDbSymbolTableRecord
100
AcDbDimStyleTableRecord
  2
STANDARD
 70
     0
 41
3.0
 42
1.5
 43
9.0
 44
1.5
 73
     0
 74
     0
 77
     3
140
4.0
141
0.0
147
2.0
176
   256
177
   256
178
   256
271
     0
272
     0
340
10
341
B2
342
B2
371
    -1
372
    -1
  0
ENDTAB
  0
TABLE
  2
BLOCK_RECORD
  5
1
330
0
100
AcDbSymbolTable
 70
    13
  0
BLOCK_RECORD
  5
1A
102
{ACAD_XDICTIONARY
360
3EB
102
}
330
1
100
AcDbSymbolTableRecord
100
AcDbBlockTableRecord
  2
*MODEL_SPACE
340
8C14
  0
BLOCK_RECORD
  5
17
102
{ACAD_XDICTIONARY
360
3E9
102
}
330
1
100
AcDbSymbolTableRecord
100
AcDbBlockTableRecord
  2
*PAPER_SPACE
340
8C15
  0
BLOCK_RECORD
  5
B2
330
1
100
AcDbSymbolTableRecord
100
AcDbBlockTableRecord
  2
_OPEN
340
0
102
{BLKREFS
331
86F7
331
86F8
331
8D44
331
8D45
331
8D3B
331
8D3C
331
8D56
331
8D57
331
8D60
331
8D61
331
8D4D
331
8D4E
331
8D72
331
8D73
331
8D32
331
8D33
331
8D7B
331
8D7C
331
8D8A
331
8D8B
331
8D69
331
8D6A
331
8E6E
331
8E6F
102
}
  0
BLOCK_RECORD
  5
37B6
330
1
100
AcDbSymbolTableRecord
100
AcDbBlockTableRecord
  2
*X1
340
0
102
{BLKREFS
331
3B34
102
}
  0
BLOCK_RECORD
  5
86FE
330
1
100
AcDbSymbolTableRecord
100
AcDbBlockTableRecord
  2
*D2
340
0
  0
BLOCK_RECORD
  5
870A
330
1
100
AcDbSymbolTableRecord
100
AcDbBlockTableRecord
  2
*D3
340
0
  0
BLOCK_RECORD
  5
8716
330
1
100
AcDbSymbolTableRecord
100
AcDbBlockTableRecord
  2
*D4
340
0
  0
BLOCK_RECORD
  5
872E
330
1
100
AcDbSymbolTableRecord
100
AcDbBlockTableRecord
  2
*D5
340
0
  0
BLOCK_RECORD
  5
873C
330
1
100
AcDbSymbolTableRecord
100
AcDbBlockTableRecord
  2
*D6
340
0
  0
BLOCK_RECORD
  5
8785
330
1
100
AcDbSymbolTableRecord
100
AcDbBlockTableRecord
  2
*D7
340
0
  0
BLOCK_RECORD
  5
879D
330
1
100
AcDbSymbolTableRecord
100
AcDbBlockTableRecord
  2
*D8
340
0
  0
BLOCK_RECORD
  5
87A9
330
1
100
AcDbSymbolTableRecord
100
AcDbBlockTableRecord
  2
*D9
340
0
  0
BLOCK_RECORD
  5
87B5
330
1
100
AcDbSymbolTableRecord
100
AcDbBlockTableRecord
  2
*D10
340
0
  0
BLOCK_RECORD
  5
8A4B
330
1
100
AcDbSymbolTableRecord
100
AcDbBlockTableRecord
  2
*D11
340
0
  0
BLOCK_RECORD
  5
8A74
330
1
100
AcDbSymbolTableRecord
100
AcDbBlockTableRecord
  2
*D12
340
0
  0
ENDTAB
  0
ENDSEC
  0
SECTION
  2
BLOCKS
  0
BLOCK
  5
1B
330
1A
100
AcDbEntity
  8
0
100
AcDbBlockBegin
  2
*MODEL_SPACE
 70
     0
 10
0.0
 20
0.0
 30
0.0
  3
*MODEL_SPACE
  1

  0
ENDBLK
  5
1C
330
1A
100
AcDbEntity
  8
0
100
AcDbBlockEnd
  0
BLOCK
  5
18
330
17
100
AcDbEntity
 67
     1
  8
0
100
AcDbBlockBegin
  2
*PAPER_SPACE
 70
     0
 10
0.0
 20
0.0
 30
0.0
  3
*PAPER_SPACE
  1

  0
ENDBLK
  5
19
330
17
100
AcDbEntity
 67
     1
  8
0
100
AcDbBlockEnd
  0
BLOCK
  5
B3
330
B2
100
AcDbEntity
  8
0
100
AcDbBlockBegin
  2
_OPEN
 70
     0
 10
0.0
 20
0.0
 30
0.0
  3
_OPEN
  1

  0
LINE
  5
B4
330
B2
100
AcDbEntity
  8
0
  6
ByBlock
 62
     0
100
AcDbLine
 10
-1.0
 20
0.1666666666666666
 30
0.0
 11
0.0
 21
0.0
 31
0.0
  0
LINE
  5
B5
330
B2
100
AcDbEntity
  8
0
  6
ByBlock
 62
     0
100
AcDbLine
 10
0.0
 20
0.0
 30
0.0
 11
-1.0
 21
-0.1666666666666666
 31
0.0
  0
LINE
  5
B6
330
B2
100
AcDbEntity
  8
0
  6
ByBlock
 62
     0
100
AcDbLine
 10
0.0
 20
0.0
 30
0.0
 11
-1.0
 21
0.0
 31
0.0
  0
ENDBLK
  5
B7
330
B2
100
AcDbEntity
  8
0
100
AcDbBlockEnd
  0
BLOCK
  5
394A
330
37B6
100
AcDbEntity
  8
0
100
AcDbBlockBegin
  2
*X1
 70
     1
 10
0.0
 20
0.0
 30
0.0
  3
*X1
  1

  0
LINE
  5
37B7
330
37B6
100
AcDbEntity
  8
0
 62
     0
100
AcDbLine
 10
34.5211058208776
 20
11.30208487459222
 30
0.0
 11
34.19819035602015
 21
11.62500033944971
 31
0.0
  0
LINE
  5
37B8
330
37B6
100
AcDbEntity
  8
0
 62
     0
100
AcDbLine
 10
34.5211058208776
 20
10.85307206853878
 30
0.0
 11
33.74917754996668
 21
11.62500033944971
 31
0.0
  0
LINE
  5
37B9
330
37B6
100
AcDbEntity
  8
0
 62
     0
100
AcDbLine
 10
34.52110582087757
 20
10.4040592624853
 30
0.0
 11
33.3105388478701
 21
11.61462623549277
 31
0.0
  0
LINE
  5
37BA
330
37B6
100
AcDbEntity
  8
0
 62
     0
100
AcDbLine
 10
34.5211058208776
 20
9.955046456431887
 30
0.0
 11
33.12110582087758
 21
11.35504645643189
 31
0.0
  0
LINE
  5
37BB
330
37B6
100
AcDbEntity
  8
0
 62
     0
100
AcDbLine
 10
34.5211058208776
 20
9.506033650378412
 30
0.0
 11
33.12110582087758
 21
10.90603365037844
 31
0.0
  0
LINE
  5
37BC
330
37B6
100
AcDbEntity
  8
0
 62
     0
100
AcDbLine
 10
34.52110582087757
 20
9.057020844324938
 30
0.0
 11
33.12110582087754
 21
10.45702084432497
 31
0.0
  0
LINE
  5
37BD
330
37B6
100
AcDbEntity
  8
0
 62
     0
100
AcDbLine
 10
32.07110582087756
 20
11.05800803827153
 30
0.0
 11
31.50411351969941
 21
11.62500033944971
 31
0.0
  0
LINE
  5
37BE
330
37B6
100
AcDbEntity
  8
0
 62
     0
100
AcDbLine
 10
34.5211058208776
 20
8.608008038271519
 30
0.0
 11
33.12110582087758
 21
10.00800803827155
 31
0.0
  0
LINE
  5
37BF
330
37B6
100
AcDbEntity
  8
0
 62
     0
100
AcDbLine
 10
32.07110582087756
 20
10.60899523221809
 30
0.0
 11
31.05510071364594
 21
11.62500033944968
 31
0.0
  0
LINE
  5
37C0
330
37B6
100
AcDbEntity
  8
0
 62
     0
100
AcDbLine
 10
34.52110582087757
 20
8.158995232218046
 30
0.0
 11
33.12110582087758
 21
9.558995232218078
 31
0.0
  0
LINE
  5
37C1
330
37B6
100
AcDbEntity
  8
0
 62
     0
100
AcDbLine
 10
32.07110582087756
 20
10.15998242616461
 30
0.0
 11
30.71835033830903
 21
11.51273790873315
 31
0.0
  0
LINE
  5
37C2
330
37B6
100
AcDbEntity
  8
0
 62
     0
100
AcDbLine
 10
34.52110582087757
 20
7.709982426164599
 30
0.0
 11
33.12110582087754
 21
9.109982426164606
 31
0.0
  0
LINE
  5
37C3
330
37B6
100
AcDbEntity
  8
0
 62
     0
100
AcDbLine
 10
32.07110582087762
 20
9.710969620111113
 30
0.0
 11
30.67110582087754
 21
11.11096962011117
 31
0.0
  0
LINE
  5
37C4
330
37B6
100
AcDbEntity
  8
0
 62
     0
100
AcDbLine
 10
34.5211058208776
 20
7.260969620111125
 30
0.0
 11
33.12110582087758
 21
8.66096962011116
 31
0.0
  0
LINE
  5
37C5
330
37B6
100
AcDbEntity
  8
0
 62
     0
100
AcDbLine
 10
32.07110582087759
 20
9.261956814057668
 30
0.0
 11
30.67110582087754
 21
10.66195681405776
 31
0.0
  0
LINE
  5
37C6
330
37B6
100
AcDbEntity
  8
0
 62
     0
100
AcDbLine
 10
34.52110582087757
 20
6.811956814057679
 30
0.0
 11
33.12110582087754
 21
8.211956814057714
 31
0.0
  0
LINE
  5
37C7
330
37B6
100
AcDbEntity
  8
0
 62
     0
100
AcDbLine
 10
32.07110582087759
 20
8.812944008004222
 30
0.0
 11
30.67110582087754
 21
10.21294400800428
 31
0.0
  0
LINE
  5
37C8
330
37B6
100
AcDbEntity
  8
0
 62
     0
100
AcDbLine
 10
34.52110582087757
 20
6.362944008004233
 30
0.0
 11
33.12110582087754
 21
7.762944008004267
 31
0.0
  0
LINE
  5
37C9
330
37B6
100
AcDbEntity
  8
0
 62
     0
100
AcDbLine
 10
32.07110582087756
 20
8.363931201950746
 30
0.0
 11
30.6711058208775
 21
9.763931201950812
 31
0.0
  0
LINE
  5
37CA
330
37B6
100
AcDbEntity
  8
0
 62
     0
100
AcDbLine
 10
34.52110582087755
 20
5.913931201950759
 30
0.0
 11
33.12110582087754
 21
7.313931201950794
 31
0.0
  0
LINE
  5
37CB
330
37B6
100
AcDbEntity
  8
0
 62
     0
100
AcDbLine
 10
32.07110582087759
 20
7.914918395897331
 30
0.0
 11
30.67110582087754
 21
9.314918395897391
 31
0.0
  0
LINE
  5
37CC
330
37B6
100
AcDbEntity
  8
0
 62
     0
100
AcDbLine
 10
28.92110582087756
 20
11.06491839589736
 30
0.0
 11
28.36102387732523
 21
11.62500033944968
 31
0.0
  0
LINE
  5
37CD
330
37B6
100
AcDbEntity
  8
0
 62
     0
100
AcDbLine
 10
34.52110582087757
 20
5.464918395897342
 30
0.0
 11
33.12110582087754
 21
6.864918395897348
 31
0.0
  0
LINE
  5
37CE
330
37B6
100
AcDbEntity
  8
0
 62
     0
100
AcDbLine
 10
32.07110582087759
 20
7.465905589843855
 30
0.0
 11
30.6711058208775
 21
8.865905589843917
 31
0.0
  0
LINE
  5
37CF
330
37B6
100
AcDbEntity
  8
0
 62
     0
100
AcDbLine
 10
28.92110582087752
 20
10.61590558984389
 30
0.0
 11
27.91201107127176
 21
11.62500033944968
 31
0.0
  0
LINE
  5
37D0
330
37B6
100
AcDbEntity
  8
0
 62
     0
100
AcDbLine
 10
34.52110582087757
 20
5.015905589843868
 30
0.0
 11
33.12110582087754
 21
6.415905589843903
 31
0.0
  0
LINE
  5
37D1
330
37B6
100
AcDbEntity
  8
0
 62
     0
100
AcDbLine
 10
32.07110582087756
 20
7.016892783790409
 30
0.0
 11
30.67110582087754
 21
8.416892783790416
 31
0.0
  0
LINE
  5
37D2
330
37B6
100
AcDbEntity
  8
0
 62
     0
100
AcDbLine
 10
28.92110582087752
 20
10.16689278379044
 30
0.0
 11
27.57122445921552
 21
11.51677414545244
 31
0.0
  0
LINE
  5
37D3
330
37B6
100
AcDbEntity
  8
0
 62
     0
100
AcDbLine
 10
34.52110582087755
 20
4.566892783790422
 30
0.0
 11
33.12110582087752
 21
5.966892783790427
 31
0.0
  0
LINE
  5
37D4
330
37B6
100
AcDbEntity
  8
0
 62
     0
100
AcDbLine
 10
32.07110582087759
 20
6.567879977736937
 30
0.0
 11
30.67110582087755
 21
7.96787997773697
 31
0.0
  0
LINE
  5
37D5
330
37B6
100
AcDbEntity
  8
0
 62
     0
100
AcDbLine
 10
28.92110582087756
 20
9.71787997773697
 30
0.0
 11
27.52110582087755
 21
11.11787997773697
 31
0.0
  0
LINE
  5
37D6
330
37B6
100
AcDbEntity
  8
0
 62
     0
100
AcDbLine
 10
34.52110582087757
 20
4.117879977736946
 30
0.0
 11
33.12110582087754
 21
5.51787997773698
 31
0.0
  0
LINE
  5
37D7
330
37B6
100
AcDbEntity
  8
0
 62
     0
100
AcDbLine
 10
32.07110582087756
 20
6.11886717168349
 30
0.0
 11
30.67110582087755
 21
7.518867171683523
 31
0.0
  0
LINE
  5
37D8
330
37B6
100
AcDbEntity
  8
0
 62
     0
100
AcDbLine
 10
28.92110582087758
 20
9.268867171683496
 30
0.0
 11
27.52110582087755
 21
10.66886717168353
 31
0.0
  0
LINE
  5
37D9
330
37B6
100
AcDbEntity
  8
0
 62
     0
100
AcDbLine
 10
34.48512314343267
 20
3.704849849128406
 30
0.0
 11
33.12110582087754
 21
5.068867171683534
 31
0.0
  0
LINE
  5
37DA
330
37B6
100
AcDbEntity
  8
0
 62
     0
100
AcDbLine
 10
32.07110582087759
 20
5.669854365629987
 30
0.0
 11
30.67110582087754
 21
7.06985436563005
 31
0.0
  0
LINE
  5
37DB
330
37B6
100
AcDbEntity
  8
0
 62
     0
100
AcDbLine
 10
28.92110582087756
 20
8.81985436563005
 30
0.0
 11
27.52110582087752
 21
10.21985436563005
 31
0.0
  0
LINE
  5
37DC
330
37B6
100
AcDbEntity
  8
0
 62
     0
100
AcDbLine
 10
34.16595984705793
 20
3.575000339449672
 30
0.0
 11
33.12110582087752
 21
4.619854365630088
 31
0.0
  0
LINE
  5
37DD
330
37B6
100
AcDbEntity
  8
0
 62
     0
100
AcDbLine
 10
28.92110582087756
 20
8.370841559576575
 30
0.0
 11
27.52110582087752
 21
9.770841559576608
 31
0.0
  0
LINE
  5
37DE
330
37B6
100
AcDbEntity
  8
0
 62
     0
100
AcDbLine
 10
32.07110582087759
 20
5.220841559576541
 30
0.0
 11
30.67110582087754
 21
6.620841559576603
 31
0.0
  0
LINE
  5
37DF
330
37B6
100
AcDbEntity
  8
0
 62
     0
100
AcDbLine
 10
26.20860582087755
 20
11.08334155957658
 30
0.0
 11
25.66694704100447
 21
11.62500033944962
 31
0.0
  0
LINE
  5
37E0
330
37B6
100
AcDbEntity
  8
0
 62
     0
100
AcDbLine
 10
33.71694704100448
 20
3.575000339449616
 30
0.0
 11
33.12110582087752
 21
4.170841559576615
 31
0.0
  0
LINE
  5
37E1
330
37B6
100
AcDbEntity
  8
0
 62
     0
100
AcDbLine
 10
28.92110582087756
 20
7.921828753523128
 30
0.0
 11
27.52110582087758
 21
9.321828753523137
 31
0.0
  0
LINE
  5
37E2
330
37B6
100
AcDbEntity
  8
0
 62
     0
100
AcDbLine
 10
26.20860582087755
 20
10.63432875352313
 30
0.0
 11
25.21793423495106
 21
11.62500033944965
 31
0.0
  0
LINE
  5
37E3
330
37B6
100
AcDbEntity
  8
0
 62
     0
100
AcDbLine
 10
32.0581266705548
 20
4.784807903845916
 30
0.0
 11
30.67110582087754
 21
6.171828753523156
 31
0.0
  0
LINE
  5
37E4
330
37B6
100
AcDbEntity
  8
0
 62
     0
100
AcDbLine
 10
28.92110582087756
 20
7.472815947469682
 30
0.0
 11
27.52110582087758
 21
8.872815947469662
 31
0.0
  0
LINE
  5
37E5
330
37B6
100
AcDbEntity
  8
0
 62
     0
100
AcDbLine
 10
26.11081554782063
 20
10.2831062205266
 30
0.0
 11
24.76892142889755
 21
11.62500033944968
 31
0.0
  0
LINE
  5
37E6
330
37B6
100
AcDbEntity
  8
0
 62
     0
100
AcDbLine
 10
31.96163402292617
 20
4.432287745421035
 30
0.0
 11
30.67110582087754
 21
5.722815947469712
 31
0.0
  0
LINE
  5
37E7
330
37B6
100
AcDbEntity
  8
0
 62
     0
100
AcDbLine
 10
28.92110582087756
 20
7.023803141416208
 30
0.0
 11
27.52110582087755
 21
8.423803141416215
 31
0.0
  0
LINE
  5
37E8
330
37B6
100
AcDbEntity
  8
0
 62
     0
100
AcDbLine
 10
25.71990862284406
 20
10.22500033944967
 30
0.0
 11
24.31990862284411
 21
11.62500033944962
 31
0.0
  0
LINE
  5
37E9
330
37B6
100
AcDbEntity
  8
0
 62
     0
100
AcDbLine
 10
31.79911808496439
 20
4.145790877329345
 30
0.0
 11
30.63534795129777
 21
5.309561010995992
 31
0.0
  0
LINE
  5
37EA
330
37B6
100
AcDbEntity
  8
0
 62
     0
100
AcDbLine
 10
28.92110582087756
 20
6.574790335362791
 30
0.0
 11
27.52110582087758
 21
7.974790335362768
 31
0.0
  0
LINE
  5
37EB
330
37B6
100
AcDbEntity
  8
0
 62
     0
100
AcDbLine
 10
25.27089581679064
 20
10.2250003394497
 30
0.0
 11
23.90211245220195
 21
11.5937837040384
 31
0.0
  0
LINE
  5
37EC
330
37B6
100
AcDbEntity
  8
0
 62
     0
100
AcDbLine
 10
31.58309718630187
 20
3.912798969938448
 30
0.0
 11
30.43455513206402
 21
5.061341024176299
 31
0.0
  0
LINE
  5
37ED
330
37B6
100
AcDbEntity
  8
0
 62
     0
100
AcDbLine
 10
28.92110582087756
 20
6.125777529309316
 30
0.0
 11
27.52110582087755
 21
7.525777529309293
 31
0.0
  0
LINE
  5
37EE
330
37B6
100
AcDbEntity
  8
0
 62
     0
100
AcDbLine
 10
24.82188301073716
 20
10.2250003394497
 30
0.0
 11
23.56979223993525
 21
11.47709111025159
 31
0.0
  0
LINE
  5
37EF
330
37B6
100
AcDbEntity
  8
0
 62
     0
100
AcDbLine
 10
31.31501601383885
 20
3.731867336348016
 30
0.0
 11
30.07188301073716
 21
4.975000339449677
 31
0.0
  0
LINE
  5
37F0
330
37B6
100
AcDbEntity
  8
0
 62
     0
100
AcDbLine
 10
28.92110582087752
 20
5.676764723255843
 30
0.0
 11
27.52110582087755
 21
7.076764723255847
 31
0.0
  0
LINE
  5
37F1
330
37B6
100
AcDbEntity
  8
0
 62
     0
100
AcDbLine
 10
24.38376511869276
 20
10.2141054254406
 30
0.0
 11
23.29849177133016
 21
11.29937877280321
 31
0.0
  0
LINE
  5
37F2
330
37B6
100
AcDbEntity
  8
0
 62
     0
100
AcDbLine
 10
30.9868097338832
 20
3.611060810250194
 30
0.0
 11
29.62287020468372
 21
4.975000339449677
 31
0.0
  0
LINE
  5
37F3
330
37B6
100
AcDbEntity
  8
0
 62
     0
100
AcDbLine
 10
24.19610582087759
 20
9.952751917202306
 30
0.0
 11
23.07943574180788
 21
11.06942199627201
 31
0.0
  0
LINE
  5
37F4
330
37B6
100
AcDbEntity
  8
0
 62
     0
100
AcDbLine
 10
30.57385739863028
 20
3.575000339449643
 30
0.0
 11
27.52110582087755
 21
6.627751917202373
 31
0.0
  0
LINE
  5
37F5
330
37B6
100
AcDbEntity
  8
0
 62
     0
100
AcDbLine
 10
24.19610582087762
 20
9.503739111148886
 30
0.0
 11
22.91355028563137
 21
10.78629464639513
 31
0.0
  0
LINE
  5
37F6
330
37B6
100
AcDbEntity
  8
0
 62
     0
100
AcDbLine
 10
30.12484459257683
 20
3.575000339449643
 30
0.0
 11
27.52110582087755
 21
6.178739111148956
 31
0.0
  0
LINE
  5
37F7
330
37B6
100
AcDbEntity
  8
0
 62
     0
100
AcDbLine
 10
24.29937796142948
 20
8.951454164543546
 30
0.0
 11
22.81246102594931
 21
10.43837110002368
 31
0.0
  0
LINE
  5
37F8
330
37B6
100
AcDbEntity
  8
0
 62
     0
100
AcDbLine
 10
29.67583178652338
 20
3.575000339449643
 30
0.0
 11
27.52110582087755
 21
5.729726305095481
 31
0.0
  0
LINE
  5
37F9
330
37B6
100
AcDbEntity
  8
0
 62
     0
100
AcDbLine
 10
26.40790767222324
 20
6.393911647696312
 30
0.0
 11
22.79610582087755
 21
10.00571349904197
 31
0.0
  0
LINE
  5
37FA
330
37B6
100
AcDbEntity
  8
0
 62
     0
100
AcDbLine
 10
21.74610582087751
 20
11.05571349904201
 30
0.0
 11
21.17681898046987
 21
11.62500033944968
 31
0.0
  0
LINE
  5
37FB
330
37B6
100
AcDbEntity
  8
0
 62
     0
100
AcDbLine
 10
29.22681898046991
 20
3.575000339449643
 30
0.0
 11
27.52110582087752
 21
5.280713499042008
 31
0.0
  0
LINE
  5
37FC
330
37B6
100
AcDbEntity
  8
0
 62
     0
100
AcDbLine
 10
26.47110582087759
 20
5.881700692988545
 30
0.0
 11
22.79610582087757
 21
9.556700692988556
 31
0.0
  0
LINE
  5
37FD
330
37B6
100
AcDbEntity
  8
0
 62
     0
100
AcDbLine
 10
21.74610582087757
 20
10.60670069298853
 30
0.0
 11
20.7278061744164
 21
11.62500033944974
 31
0.0
  0
LINE
  5
37FE
330
37B6
100
AcDbEntity
  8
0
 62
     0
100
AcDbLine
 10
28.76958223504403
 20
3.583224278822115
 30
0.0
 11
27.52932976025002
 21
4.82347675361612
 31
0.0
  0
LINE
  5
37FF
330
37B6
100
AcDbEntity
  8
0
 62
     0
100
AcDbLine
 10
21.74610582087757
 20
10.15768788693509
 30
0.0
 11
20.39241087698991
 21
11.51138283082272
 31
0.0
  0
LINE
  5
3800
330
37B6
100
AcDbEntity
  8
0
 62
     0
100
AcDbLine
 10
26.47110582087757
 20
5.43268788693507
 30
0.0
 11
22.80781115481875
 21
9.095982552993916
 31
0.0
  0
LINE
  5
3801
330
37B6
100
AcDbEntity
  8
0
 62
     0
100
AcDbLine
 10
21.74610582087757
 20
9.708675080881619
 30
0.0
 11
20.34610582087756
 21
11.10867508088159
 31
0.0
  0
LINE
  5
3802
330
37B6
100
AcDbEntity
  8
0
 62
     0
100
AcDbLine
 10
26.47110582087752
 20
4.983675080881653
 30
0.0
 11
22.96687086373876
 21
8.487910038020428
 31
0.0
  0
LINE
  5
3803
330
37B6
100
AcDbEntity
  8
0
 62
     0
100
AcDbLine
 10
21.74610582087757
 20
9.259662274828171
 30
0.0
 11
20.34610582087759
 21
10.65966227482814
 31
0.0
  0
LINE
  5
3804
330
37B6
100
AcDbEntity
  8
0
 62
     0
100
AcDbLine
 10
26.41682491208303
 20
4.588943183622716
 30
0.0
 11
25.06900751756387
 21
5.93676057814187
 31
0.0
  0
LINE
  5
3805
330
37B6
100
AcDbEntity
  8
0
 62
     0
100
AcDbLine
 10
21.74610582087757
 20
8.810649468774727
 30
0.0
 11
20.34610582087756
 21
10.2106494687747
 31
0.0
  0
LINE
  5
3806
330
37B6
100
AcDbEntity
  8
0
 62
     0
100
AcDbLine
 10
19.20036237058906
 20
11.35639291906321
 30
0.0
 11
18.93175495020261
 21
11.62500033944968
 31
0.0
  0
LINE
  5
3807
330
37B6
100
AcDbEntity
  8
0
 62
     0
100
AcDbLine
 10
26.28288705820224
 20
4.273868231450051
 30
0.0
 11
25.07110582087759
 21
5.485649468774709
 31
0.0
  0
LINE
  5
3808
330
37B6
100
AcDbEntity
  8
0
 62
     0
100
AcDbLine
 10
21.74610582087754
 20
8.361636662721252
 30
0.0
 11
20.34610582087756
 21
9.761636662721258
 31
0.0
  0
LINE
  5
3809
330
37B6
100
AcDbEntity
  8
0
 62
     0
100
AcDbLine
 10
19.10089853846275
 20
11.00684394513604
 30
0.0
 11
18.48274214414914
 21
11.62500033944968
 31
0.0
  0
LINE
  5
380A
330
37B6
100
AcDbEntity
  8
0
 62
     0
100
AcDbLine
 10
26.0913936591146
 20
4.016348824484224
 30
0.0
 11
25.02246322943435
 21
5.085279254164476
 31
0.0
  0
LINE
  5
380B
330
37B6
100
AcDbEntity
  8
0
 62
     0
100
AcDbLine
 10
21.74610582087754
 20
7.912623856667806
 30
0.0
 11
20.34610582087756
 21
9.312623856667784
 31
0.0
  0
LINE
  5
380C
330
37B6
100
AcDbEntity
  8
0
 62
     0
100
AcDbLine
 10
18.99313546500991
 20
10.6655942125354
 30
0.0
 11
18.03852768327462
 21
11.62020199427072
 31
0.0
  0
LINE
  5
380D
330
37B6
100
AcDbEntity
  8
0
 62
     0
100
AcDbLine
 10
25.84823417655679
 20
3.810495500988537
 30
0.0
 11
24.68372933809567
 21
4.975000339449677
 31
0.0
  0
LINE
  5
380E
330
37B6
100
AcDbEntity
  8
0
 62
     0
100
AcDbLine
 10
21.74610582087757
 20
7.46361105061436
 30
0.0
 11
20.34610582087756
 21
8.863611050614338
 31
0.0
  0
LINE
  5
380F
330
37B6
100
AcDbEntity
  8
0
 62
     0
100
AcDbLine
 10
18.88537239155715
 20
10.32434447993477
 30
0.0
 11
17.82137239155713
 21
11.3883444799348
 31
0.0
  0
LINE
  5
3810
330
37B6
100
AcDbEntity
  8
0
 62
     0
100
AcDbLine
 10
25.5501922023266
 20
3.659524669165306
 30
0.0
 11
24.23471653204222
 21
4.975000339449707
 31
0.0
  0
LINE
  5
3811
330
37B6
100
AcDbEntity
  8
0
 62
     0
100
AcDbLine
 10
21.74610582087754
 20
7.014598244560914
 30
0.0
 11
20.34610582087756
 21
8.414598244560892
 31
0.0
  0
LINE
  5
3812
330
37B6
100
AcDbEntity
  8
0
 62
     0
100
AcDbLine
 10
18.77760931810422
 20
9.983094747334234
 30
0.0
 11
17.71360931810423
 21
11.04709474733422
 31
0.0
  0
LINE
  5
3813
330
37B6
100
AcDbEntity
  8
0
 62
     0
100
AcDbLine
 10
25.18135587650286
 20
3.579348188935596
 30
0.0
 11
23.78570372598878
 21
4.975000339449677
 31
0.0
  0
LINE
  5
3814
330
37B6
100
AcDbEntity
  8
0
 62
     0
100
AcDbLine
 10
21.74610582087754
 20
6.565585438507439
 30
0.0
 11
20.34610582087754
 21
7.965585438507417
 31
0.0
  0
LINE
  5
3815
330
37B6
100
AcDbEntity
  8
0
 62
     0
100
AcDbLine
 10
18.66984624465144
 20
9.641845014733547
 30
0.0
 11
17.60584624465138
 21
10.70584501473357
 31
0.0
  0
LINE
  5
3816
330
37B6
100
AcDbEntity
  8
0
 62
     0
100
AcDbLine
 10
24.73669091993534
 20
3.575000339449643
 30
0.0
 11
23.33669091993531
 21
4.975000339449677
 31
0.0
  0
LINE
  5
3817
330
37B6
100
AcDbEntity
  8
0
 62
     0
100
AcDbLine
 10
21.74610582087754
 20
6.116572632453993
 30
0.0
 11
20.34610582087756
 21
7.516572632453999
 31
0.0
  0
LINE
  5
3818
330
37B6
100
AcDbEntity
  8
0
 62
     0
100
AcDbLine
 10
18.56208317119862
 20
9.300595282132944
 30
0.0
 11
17.49808317119857
 21
10.36459528213296
 31
0.0
  0
LINE
  5
3819
330
37B6
100
AcDbEntity
  8
0
 62
     0
100
AcDbLine
 10
24.28767811388189
 20
3.575000339449672
 30
0.0
 11
23.0708722652337
 21
4.791806188097864
 31
0.0
  0
LINE
  5
381A
330
37B6
100
AcDbEntity
  8
0
 62
     0
100
AcDbLine
 10
18.4543200977458
 20
8.959345549532256
 30
0.0
 11
17.39032009774575
 21
10.02334554953233
 31
0.0
  0
LINE
  5
381B
330
37B6
100
AcDbEntity
  8
0
 62
     0
100
AcDbLine
 10
21.74610582087754
 20
5.667559826400547
 30
0.0
 11
20.34610582087756
 21
7.067559826400525
 31
0.0
  0
LINE
  5
381C
330
37B6
100
AcDbEntity
  8
0
 62
     0
100
AcDbLine
 10
16.32110582087756
 20
11.09255982640053
 30
0.0
 11
15.78866530782841
 21
11.62500033944965
 31
0.0
  0
LINE
  5
381D
330
37B6
100
AcDbEntity
  8
0
 62
     0
100
AcDbLine
 10
23.83866530782845
 20
3.575000339449643
 30
0.0
 11
23.05860582087757
 21
4.35505982640052
 31
0.0
  0
LINE
  5
381E
330
37B6
100
AcDbEntity
  8
0
 62
     0
100
AcDbLine
 10
18.3465570242929
 20
8.618095816931711
 30
0.0
 11
17.28255702429294
 21
9.682095816931678
 31
0.0
  0
LINE
  5
381F
330
37B6
100
AcDbEntity
  8
0
 62
     0
100
AcDbLine
 10
21.74610582087754
 20
5.218547020347074
 30
0.0
 11
20.34610582087754
 21
6.618547020347079
 31
0.0
  0
LINE
  5
3820
330
37B6
100
AcDbEntity
  8
0
 62
     0
100
AcDbLine
 10
16.32110582087756
 20
10.64354702034705
 30
0.0
 11
15.33965250177496
 21
11.62500033944965
 31
0.0
  0
LINE
  5
3821
330
37B6
100
AcDbEntity
  8
0
 62
     0
100
AcDbLine
 10
23.38965250177494
 20
3.575000339449672
 30
0.0
 11
23.05860582087754
 21
3.906047020347044
 31
0.0
  0
LINE
  5
3822
330
37B6
100
AcDbEntity
  8
0
 62
     0
100
AcDbLine
 10
18.23879395084009
 20
8.276846084331053
 30
0.0
 11
17.17479395084007
 21
9.340846084331076
 31
0.0
  0
LINE
  5
3823
330
37B6
100
AcDbEntity
  8
0
 62
     0
100
AcDbLine
 10
16.32110582087753
 20
10.19453421429358
 30
0.0
 11
14.98338335642873
 21
11.53225667874241
 31
0.0
  0
LINE
  5
3824
330
37B6
100
AcDbEntity
  8
0
 62
     0
100
AcDbLine
 10
21.74610582087751
 20
4.769534214293627
 30
0.0
 11
20.34610582087754
 21
6.169534214293604
 31
0.0
  0
LINE
  5
3825
330
37B6
100
AcDbEntity
  8
0
 62
     0
100
AcDbLine
 10
18.13103087738727
 20
7.935596351730451
 30
0.0
 11
17.06703087738728
 21
8.999596351730446
 31
0.0
  0
LINE
  5
3826
330
37B6
100
AcDbEntity
  8
0
 62
     0
100
AcDbLine
 10
16.32110582087756
 20
9.745521408240165
 30
0.0
 11
14.92110582087752
 21
11.14552140824017
 31
0.0
  0
LINE
  5
3827
330
37B6
100
AcDbEntity
  8
0
 62
     0
100
AcDbLine
 10
21.74610582087754
 20
4.320521408240181
 30
0.0
 11
20.34610582087754
 21
5.720521408240159
 31
0.0
  0
LINE
  5
3828
330
37B6
100
AcDbEntity
  8
0
 62
     0
100
AcDbLine
 10
18.02848662269123
 20
7.589127800373005
 30
0.0
 11
16.95926780393441
 21
8.658346619129844
 31
0.0
  0
LINE
  5
3829
330
37B6
100
AcDbEntity
  8
0
 62
     0
100
AcDbLine
 10
16.32110582087756
 20
9.296508602186689
 30
0.0
 11
14.92110582087752
 21
10.69650860218672
 31
0.0
  0
LINE
  5
382A
330
37B6
100
AcDbEntity
  8
0
 62
     0
100
AcDbLine
 10
21.74610582087751
 20
3.871508602186708
 30
0.0
 11
20.34610582087754
 21
5.271508602186712
 31
0.0
  0
LINE
  5
382B
330
37B6
100
AcDbEntity
  8
0
 62
     0
100
AcDbLine
 10
18.23572330240824
 20
6.932878314602532
 30
0.0
 11
16.8139940560921
 21
8.35460756091868
 31
0.0
  0
LINE
  5
382C
330
37B6
100
AcDbEntity
  8
0
 62
     0
100
AcDbLine
 10
16.32110582087759
 20
8.847495796133188
 30
0.0
 11
14.9211058208775
 21
10.24749579613325
 31
0.0
  0
LINE
  5
382D
330
37B6
100
AcDbEntity
  8
0
 62
     0
100
AcDbLine
 10
21.57658332221135
 20
3.592018294799401
 30
0.0
 11
20.34610582087756
 21
4.822495796133209
 31
0.0
  0
LINE
  5
382E
330
37B6
100
AcDbEntity
  8
0
 62
     0
100
AcDbLine
 10
18.44295998212524
 20
6.276628828832116
 30
0.0
 11
14.92110582087752
 21
9.798482990079831
 31
0.0
  0
LINE
  5
382F
330
37B6
100
AcDbEntity
  8
0
 62
     0
100
AcDbLine
 10
13.69610582087759
 20
11.02348299007977
 30
0.0
 11
13.0945884715077
 21
11.62500033944965
 31
0.0
  0
LINE
  5
3830
330
37B6
100
AcDbEntity
  8
0
 62
     0
100
AcDbLine
 10
21.14458847150771
 20
3.575000339449643
 30
0.0
 11
20.34610582087759
 21
4.373482990079763
 31
0.0
  0
LINE
  5
3831
330
37B6
100
AcDbEntity
  8
0
 62
     0
100
AcDbLine
 10
18.65019666184227
 20
5.620379343061612
 30
0.0
 11
14.92110582087752
 21
9.349470184026356
 31
0.0
  0
LINE
  5
3832
330
37B6
100
AcDbEntity
  8
0
 62
     0
100
AcDbLine
 10
13.69610582087759
 20
10.57447018402629
 30
0.0
 11
12.6455756654542
 21
11.62500033944968
 31
0.0
  0
LINE
  5
3833
330
37B6
100
AcDbEntity
  8
0
 62
     0
100
AcDbLine
 10
20.69557566545424
 20
3.575000339449616
 30
0.0
 11
20.34610582087756
 21
3.924470184026318
 31
0.0
  0
LINE
  5
3834
330
37B6
100
AcDbEntity
  8
0
 62
     0
100
AcDbLine
 10
13.56265247318253
 20
10.25891072566787
 30
0.0
 11
12.21254161407682
 21
11.60902158477355
 31
0.0
  0
LINE
  5
3835
330
37B6
100
AcDbEntity
  8
0
 62
     0
100
AcDbLine
 10
18.85743334155924
 20
4.964129857291169
 30
0.0
 11
14.92110582087755
 21
8.900457377972855
 31
0.0
  0
LINE
  5
3836
330
37B6
100
AcDbEntity
  8
0
 62
     0
100
AcDbLine
 10
16.48986028204836
 20
6.882690110748597
 30
0.0
 11
14.92110582087755
 21
8.45144457191941
 31
0.0
  0
LINE
  5
3837
330
37B6
100
AcDbEntity
  8
0
 62
     0
100
AcDbLine
 10
13.14755005334731
 20
10.22500033944962
 30
0.0
 11
11.84352007928319
 21
11.52903031351377
 31
0.0
  0
LINE
  5
3838
330
37B6
100
AcDbEntity
  8
0
 62
     0
100
AcDbLine
 10
19.06467002127627
 20
4.307880371520695
 30
0.0
 11
17.01851617512221
 21
6.354034217674751
 31
0.0
  0
LINE
  5
3839
330
37B6
100
AcDbEntity
  8
0
 62
     0
100
AcDbLine
 10
16.32110582087759
 20
6.602431765865929
 30
0.0
 11
14.92110582087755
 21
8.002431765865964
 31
0.0
  0
LINE
  5
383A
330
37B6
100
AcDbEntity
  8
0
 62
     0
100
AcDbLine
 10
12.69853724729381
 20
10.22500033944967
 30
0.0
 11
11.52415937136783
 21
11.39937821537566
 31
0.0
  0
LINE
  5
383B
330
37B6
100
AcDbEntity
  8
0
 62
     0
100
AcDbLine
 10
19.18218945013157
 20
3.741348136611918
 30
0.0
 11
17.22575285483927
 21
5.697784731904249
 31
0.0
  0
LINE
  5
383C
330
37B6
100
AcDbEntity
  8
0
 62
     0
100
AcDbLine
 10
16.32110582087756
 20
6.153418959812482
 30
0.0
 11
14.92110582087752
 21
7.553418959812488
 31
0.0
  0
LINE
  5
383D
330
37B6
100
AcDbEntity
  8
0
 62
     0
100
AcDbLine
 10
12.27698049602204
 20
10.19754428466799
 30
0.0
 11
11.24478488370056
 21
11.22973989698948
 31
0.0
  0
LINE
  5
383E
330
37B6
100
AcDbEntity
  8
0
 62
     0
100
AcDbLine
 10
18.8995244412404
 20
3.575000339449643
 30
0.0
 11
17.43298953455627
 21
5.041535246133776
 31
0.0
  0
LINE
  5
383F
330
37B6
100
AcDbEntity
  8
0
 62
     0
100
AcDbLine
 10
16.32110582087756
 20
5.704406153759008
 30
0.0
 11
14.92110582087752
 21
7.104406153759042
 31
0.0
  0
LINE
  5
3840
330
37B6
100
AcDbEntity
  8
0
 62
     0
100
AcDbLine
 10
11.99105239960255
 20
10.03445957503402
 30
0.0
 11
11.00095727939466
 21
11.0245546952419
 31
0.0
  0
LINE
  5
3841
330
37B6
100
AcDbEntity
  8
0
 62
     0
100
AcDbLine
 10
18.45051163518692
 20
3.575000339449643
 30
0.0
 11
17.64022621427327
 21
4.385285760363301
 31
0.0
  0
LINE
  5
3842
330
37B6
100
AcDbEntity
  8
0
 62
     0
100
AcDbLine
 10
13.86382038727643
 20
7.712678781306721
 30
0.0
 11
13.10878426273456
 21
8.467714905848595
 31
0.0
  0
LINE
  5
3843
330
37B6
100
AcDbEntity
  8
0
 62
     0
100
AcDbLine
 10
16.32110582087761
 20
5.255393347705535
 30
0.0
 11
14.92110582087755
 21
6.655393347705597
 31
0.0
  0
LINE
  5
3844
330
37B6
100
AcDbEntity
  8
0
 62
     0
100
AcDbLine
 10
11.81299161453807
 20
9.763507554045077
 30
0.0
 11
10.79127426638905
 21
10.7852249021941
 31
0.0
  0
LINE
  5
3845
330
37B6
100
AcDbEntity
  8
0
 62
     0
100
AcDbLine
 10
17.97633232703117
 20
3.600166841551981
 30
0.0
 11
17.85115524123551
 21
3.725343927347636
 31
0.0
  0
LINE
  5
3846
330
37B6
100
AcDbEntity
  8
0
 62
     0
100
AcDbLine
 10
13.82056355720547
 20
7.306922805324204
 30
0.0
 11
12.70302828675204
 21
8.424458075777636
 31
0.0
  0
LINE
  5
3847
330
37B6
100
AcDbEntity
  8
0
 62
     0
100
AcDbLine
 10
11.7711058208776
 20
9.356380541652072
 30
0.0
 11
10.61680475590822
 21
10.51068160662146
 31
0.0
  0
LINE
  5
3848
330
37B6
100
AcDbEntity
  8
0
 62
     0
100
AcDbLine
 10
16.32110582087759
 20
4.806380541652059
 30
0.0
 11
14.92110582087752
 21
6.20638054165215
 31
0.0
  0
LINE
  5
3849
330
37B6
100
AcDbEntity
  8
0
 62
     0
100
AcDbLine
 10
13.65463577755645
 20
7.023837778919728
 30
0.0
 11
12.41994326034756
 21
8.258530296128611
 31
0.0
  0
LINE
  5
384A
330
37B6
100
AcDbEntity
  8
0
 62
     0
100
AcDbLine
 10
11.7711058208776
 20
8.907367735598597
 30
0.0
 11
10.48151490230313
 21
10.19695865417307
 31
0.0
  0
LINE
  5
384B
330
37B6
100
AcDbEntity
  8
0
 62
     0
100
AcDbLine
 10
16.32110582087759
 20
4.357367735598614
 30
0.0
 11
14.92110582087755
 21
5.757367735598649
 31
0.0
  0
LINE
  5
384C
330
37B6
100
AcDbEntity
  8
0
 62
     0
100
AcDbLine
 10
11.7711058208776
 20
8.45835492954515
 30
0.0
 11
10.3941579658402
 21
9.83530278458258
 31
0.0
  0
LINE
  5
384D
330
37B6
100
AcDbEntity
  8
0
 62
     0
100
AcDbLine
 10
13.40371905648822
 20
6.825741693934559
 30
0.0
 11
12.22184717536239
 21
8.007613575060389
 31
0.0
  0
LINE
  5
384E
330
37B6
100
AcDbEntity
  8
0
 62
     0
100
AcDbLine
 10
9.058605820877572
 20
11.17085492954521
 30
0.0
 11
8.604460410973075
 21
11.62500033944971
 31
0.0
  0
LINE
  5
384F
330
37B6
100
AcDbEntity
  8
0
 62
     0
100
AcDbLine
 10
16.32110582087761
 20
3.908354929545167
 30
0.0
 11
14.92110582087758
 21
5.308354929545203
 31
0.0
  0
LINE
  5
3850
330
37B6
100
AcDbEntity
  8
0
 62
     0
100
AcDbLine
 10
11.7711058208776
 20
8.009342123491705
 30
0.0
 11
10.37110582087757
 21
9.40934212349174
 31
0.0
  0
LINE
  5
3851
330
37B6
100
AcDbEntity
  8
0
 62
     0
100
AcDbLine
 10
13.05355933527451
 20
6.7268886090948
 30
0.0
 11
12.12299409052263
 21
7.657453853846675
 31
0.0
  0
LINE
  5
3852
330
37B6
100
AcDbEntity
  8
0
 62
     0
100
AcDbLine
 10
9.058605820877541
 20
10.72184212349174
 30
0.0
 11
8.155447604919601
 21
11.62500033944968
 31
0.0
  0
LINE
  5
3853
330
37B6
100
AcDbEntity
  8
0
 62
     0
100
AcDbLine
 10
16.17715392024226
 20
3.603294024127051
 30
0.0
 11
14.92110582087755
 21
4.859342123491728
 31
0.0
  0
LINE
  5
3854
330
37B6
100
AcDbEntity
  8
0
 62
     0
100
AcDbLine
 10
11.7711058208776
 20
7.560329317438231
 30
0.0
 11
10.37110582087757
 21
8.960329317438265
 31
0.0
  0
LINE
  5
3855
330
37B6
100
AcDbEntity
  8
0
 62
     0
100
AcDbLine
 10
9.004088835742379
 20
10.32734630257346
 30
0.0
 11
7.706434798866097
 21
11.62500033944971
 31
0.0
  0
LINE
  5
3856
330
37B6
100
AcDbEntity
  8
0
 62
     0
100
AcDbLine
 10
15.75643479886616
 20
3.575000339449672
 30
0.0
 11
14.92110582087755
 21
4.410329317438282
 31
0.0
  0
LINE
  5
3857
330
37B6
100
AcDbEntity
  8
0
 62
     0
100
AcDbLine
 10
11.77110582087758
 20
7.111316511384785
 30
0.0
 11
10.37110582087754
 21
8.511316511384791
 31
0.0
  0
LINE
  5
3858
330
37B6
100
AcDbEntity
  8
0
 62
     0
100
AcDbLine
 10
8.657421992812713
 20
10.22500033944965
 30
0.0
 11
7.257421992812652
 21
11.62500033944971
 31
0.0
  0
LINE
  5
3859
330
37B6
100
AcDbEntity
  8
0
 62
     0
100
AcDbLine
 10
15.30742199281269
 20
3.575000339449643
 30
0.0
 11
14.92110582087755
 21
3.961316511384807
 31
0.0
  0
LINE
  5
385A
330
37B6
100
AcDbEntity
  8
0
 62
     0
100
AcDbLine
 10
11.7711058208776
 20
6.662303705331338
 30
0.0
 11
10.37110582087757
 21
8.062303705331371
 31
0.0
  0
LINE
  5
385B
330
37B6
100
AcDbEntity
  8
0
 62
     0
100
AcDbLine
 10
8.208409186759267
 20
10.22500033944965
 30
0.0
 11
6.825844550706817
 21
11.60756497550212
 31
0.0
  0
LINE
  5
385C
330
37B6
100
AcDbEntity
  8
0
 62
     0
100
AcDbLine
 10
13.6948045964591
 20
4.73860492974981
 30
0.0
 11
13.45971041117775
 21
4.973699115031195
 31
0.0
  0
LINE
  5
385D
330
37B6
100
AcDbEntity
  8
0
 62
     0
100
AcDbLine
 10
11.77110582087758
 20
6.213290899277864
 30
0.0
 11
10.37110582087757
 21
7.613290899277898
 31
0.0
  0
LINE
  5
385E
330
37B6
100
AcDbEntity
  8
0
 62
     0
100
AcDbLine
 10
7.759396380705823
 20
10.22500033944965
 30
0.0
 11
6.47927714646758
 21
11.50511957368789
 31
0.0
  0
LINE
  5
385F
330
37B6
100
AcDbEntity
  8
0
 62
     0
100
AcDbLine
 10
13.69610582087761
 20
4.288290899277853
 30
0.0
 11
13.00939638070579
 21
4.975000339449677
 31
0.0
  0
LINE
  5
3860
330
37B6
100
AcDbEntity
  8
0
 62
     0
100
AcDbLine
 10
11.77110582087758
 20
5.764278093224419
 30
0.0
 11
10.3711058208776
 21
7.164278093224396
 31
0.0
  0
LINE
  5
3861
330
37B6
100
AcDbEntity
  8
0
 62
     0
100
AcDbLine
 10
7.310383574652347
 20
10.22500033944962
 30
0.0
 11
6.197153816543959
 21
11.33823009755801
 31
0.0
  0
LINE
  5
3862
330
37B6
100
AcDbEntity
  8
0
 62
     0
100
AcDbLine
 10
13.69610582087759
 20
3.839278093224378
 30
0.0
 11
12.56038357465234
 21
4.97500033944962
 31
0.0
  0
LINE
  5
3863
330
37B6
100
AcDbEntity
  8
0
 62
     0
100
AcDbLine
 10
7.055237160845052
 20
10.03113394720352
 30
0.0
 11
5.968107410423583
 21
11.11826369762499
 31
0.0
  0
LINE
  5
3864
330
37B6
100
AcDbEntity
  8
0
 62
     0
100
AcDbLine
 10
13.50223942863141
 20
3.584131679417168
 30
0.0
 11
10.3711058208776
 21
6.715265287170979
 31
0.0
  0
LINE
  5
3865
330
37B6
100
AcDbEntity
  8
0
 62
     0
100
AcDbLine
 10
7.046105820877585
 20
9.591252481117519
 30
0.0
 11
5.791366809189042
 21
10.84599149280606
 31
0.0
  0
LINE
  5
3866
330
37B6
100
AcDbEntity
  8
0
 62
     0
100
AcDbLine
 10
13.06235796254546
 20
3.575000339449643
 30
0.0
 11
10.3711058208776
 21
6.266252481117503
 31
0.0
  0
LINE
  5
3867
330
37B6
100
AcDbEntity
  8
0
 62
     0
100
AcDbLine
 10
7.077173674945298
 20
9.111171820996304
 30
0.0
 11
5.675926758042179
 21
10.51241873789945
 31
0.0
  0
LINE
  5
3868
330
37B6
100
AcDbEntity
  8
0
 62
     0
100
AcDbLine
 10
12.61334515649195
 20
3.575000339449672
 30
0.0
 11
10.37110582087757
 21
5.817239675064029
 31
0.0
  0
LINE
  5
3869
330
37B6
100
AcDbEntity
  8
0
 62
     0
100
AcDbLine
 10
9.223293866488916
 20
6.516038823399269
 30
0.0
 11
5.646105820877607
 21
10.09322686901057
 31
0.0
  0
LINE
  5
386A
330
37B6
100
AcDbEntity
  8
0
 62
     0
100
AcDbLine
 10
12.13769630691018
 20
3.601636382978
 30
0.0
 11
10.3977418644059
 21
5.341590825482285
 31
0.0
  0
LINE
  5
386B
330
37B6
100
AcDbEntity
  8
0
 62
     0
100
AcDbLine
 10
9.319241123531524
 20
5.971078760303213
 30
0.0
 11
5.646105820877551
 21
9.644214062957187
 31
0.0
  0
LINE
  5
386C
330
37B6
100
AcDbEntity
  8
0
 62
     0
100
AcDbLine
 10
11.45079235060939
 20
3.839527533225321
 30
0.0
 11
10.63563301465319
 21
4.654686869181546
 31
0.0
  0
LINE
  5
386D
330
37B6
100
AcDbEntity
  8
0
 62
     0
100
AcDbLine
 10
9.321105820877619
 20
5.520201256903646
 30
0.0
 11
5.649888044588749
 21
9.191419033192488
 31
0.0
  0
LINE
  5
386E
330
37B6
100
AcDbEntity
  8
0
 62
     0
100
AcDbLine
 10
9.321105820877562
 20
5.071188450850228
 30
0.0
 11
5.761533423750678
 21
8.630760847977086
 31
0.0
  0
LINE
  5
386F
330
37B6
100
AcDbEntity
  8
0
 62
     0
100
AcDbLine
 10
9.284845822811604
 20
4.658435642862769
 30
0.0
 11
7.903150001002074
 21
6.040131464672298
 31
0.0
  0
LINE
  5
3870
330
37B6
100
AcDbEntity
  8
0
 62
     0
100
AcDbLine
 10
9.16387685329718
 20
4.330391806323716
 30
0.0
 11
7.921105820877556
 21
5.573162838743343
 31
0.0
  0
LINE
  5
3871
330
37B6
100
AcDbEntity
  8
0
 62
     0
100
AcDbLine
 10
8.982817229606297
 20
4.062438623961128
 30
0.0
 11
7.903156304727217
 21
5.142099548840207
 31
0.0
  0
LINE
  5
3872
330
37B6
100
AcDbEntity
  8
0
 62
     0
100
AcDbLine
 10
8.74970404347286
 20
3.846539004041118
 30
0.0
 11
7.621242708064301
 21
4.975000339449707
 31
0.0
  0
LINE
  5
3873
330
37B6
100
AcDbEntity
  8
0
 62
     0
100
AcDbLine
 10
8.463071819606454
 20
3.684158421854078
 30
0.0
 11
7.172229902010825
 21
4.975000339449677
 31
0.0
  0
LINE
  5
3874
330
37B6
100
AcDbEntity
  8
0
 62
     0
100
AcDbLine
 10
8.110365525063484
 20
3.587851910343573
 30
0.0
 11
6.723217095957378
 21
4.975000339449677
 31
0.0
  0
LINE
  5
3875
330
37B6
100
AcDbEntity
  8
0
 62
     0
100
AcDbLine
 10
7.674204289903912
 20
3.575000339449672
 30
0.0
 11
6.274204289903906
 21
4.975000339449677
 31
0.0
  0
LINE
  5
3876
330
37B6
100
AcDbEntity
  8
0
 62
     0
100
AcDbLine
 10
7.225191483850494
 20
3.575000339449643
 30
0.0
 11
5.948529536441554
 21
4.851662286858612
 31
0.0
  0
LINE
  5
3877
330
37B6
100
AcDbEntity
  8
0
 62
     0
100
AcDbLine
 10
6.77617867779699
 20
3.575000339449672
 30
0.0
 11
5.908605820877595
 21
4.442573196369068
 31
0.0
  0
LINE
  5
3878
330
37B6
100
AcDbEntity
  8
0
 62
     0
100
AcDbLine
 10
6.327165871743574
 20
3.575000339449643
 30
0.0
 11
5.908605820877595
 21
3.993560390315622
 31
0.0
  0
LINE
  5
3879
330
37B6
100
AcDbEntity
  8
0
 62
     0
100
AcDbLine
 10
34.31694946321104
 20
3.581566228008426
 30
0.0
 11
34.51453993231893
 21
3.779156697116319
 31
0.0
  0
LINE
  5
387A
330
37B6
100
AcDbEntity
  8
0
 62
     0
100
AcDbLine
 10
33.86137076859887
 20
3.575000339449643
 30
0.0
 11
34.52110582087767
 21
4.234735391728463
 31
0.0
  0
LINE
  5
387B
330
37B6
100
AcDbEntity
  8
0
 62
     0
100
AcDbLine
 10
33.4123579625454
 20
3.575000339449672
 30
0.0
 11
34.52110582087767
 21
4.683748197781909
 31
0.0
  0
LINE
  5
387C
330
37B6
100
AcDbEntity
  8
0
 62
     0
100
AcDbLine
 10
33.13670460250349
 20
3.748359785461218
 30
0.0
 11
34.52110582087764
 21
5.132761003835383
 31
0.0
  0
LINE
  5
387D
330
37B6
100
AcDbEntity
  8
0
 62
     0
100
AcDbLine
 10
33.1211058208776
 20
4.181773809888794
 30
0.0
 11
34.52110582087764
 21
5.5817738098888
 31
0.0
  0
LINE
  5
387E
330
37B6
100
AcDbEntity
  8
0
 62
     0
100
AcDbLine
 10
33.12110582087763
 20
4.63078661594224
 30
0.0
 11
34.52110582087764
 21
6.030786615942275
 31
0.0
  0
LINE
  5
387F
330
37B6
100
AcDbEntity
  8
0
 62
     0
100
AcDbLine
 10
33.1211058208776
 20
5.079799421995716
 30
0.0
 11
34.52110582087764
 21
6.479799421995749
 31
0.0
  0
LINE
  5
3880
330
37B6
100
AcDbEntity
  8
0
 62
     0
100
AcDbLine
 10
33.1211058208776
 20
5.528812228049162
 30
0.0
 11
34.52110582087764
 21
6.928812228049196
 31
0.0
  0
LINE
  5
3881
330
37B6
100
AcDbEntity
  8
0
 62
     0
100
AcDbLine
 10
31.33438825191024
 20
3.7420946590818
 30
0.0
 11
31.90401150124552
 21
4.311717908417108
 31
0.0
  0
LINE
  5
3882
330
37B6
100
AcDbEntity
  8
0
 62
     0
100
AcDbLine
 10
33.1211058208776
 20
5.977825034102608
 30
0.0
 11
34.52110582087764
 21
7.377825034102642
 31
0.0
  0
LINE
  5
3883
330
37B6
100
AcDbEntity
  8
0
 62
     0
100
AcDbLine
 10
30.71910416864884
 20
3.575823381873846
 30
0.0
 11
32.0702827784535
 21
4.92700199167848
 31
0.0
  0
LINE
  5
3884
330
37B6
100
AcDbEntity
  8
0
 62
     0
100
AcDbLine
 10
33.1211058208776
 20
6.426837840156081
 30
0.0
 11
34.52110582087764
 21
7.826837840156088
 31
0.0
  0
LINE
  5
3885
330
37B6
100
AcDbEntity
  8
0
 62
     0
100
AcDbLine
 10
30.26926832017122
 20
3.575000339449701
 30
0.0
 11
32.07110582087764
 21
5.376837840156098
 31
0.0
  0
LINE
  5
3886
330
37B6
100
AcDbEntity
  8
0
 62
     0
100
AcDbLine
 10
33.1211058208776
 20
6.875850646209527
 30
0.0
 11
34.5211058208776
 21
8.275850646209562
 31
0.0
  0
LINE
  5
3887
330
37B6
100
AcDbEntity
  8
0
 62
     0
100
AcDbLine
 10
29.82025551411775
 20
3.575000339449701
 30
0.0
 11
32.07110582087762
 21
5.825850646209572
 31
0.0
  0
LINE
  5
3888
330
37B6
100
AcDbEntity
  8
0
 62
     0
100
AcDbLine
 10
33.1211058208776
 20
7.324863452262973
 30
0.0
 11
34.52110582087764
 21
8.724863452263008
 31
0.0
  0
LINE
  5
3889
330
37B6
100
AcDbEntity
  8
0
 62
     0
100
AcDbLine
 10
29.37124270806427
 20
3.575000339449643
 30
0.0
 11
32.07110582087764
 21
6.274863452263018
 31
0.0
  0
LINE
  5
388A
330
37B6
100
AcDbEntity
  8
0
 62
     0
100
AcDbLine
 10
30.61881021983708
 20
5.271580657275933
 30
0.0
 11
32.07110582087764
 21
6.723876258316464
 31
0.0
  0
LINE
  5
388B
330
37B6
100
AcDbEntity
  8
0
 62
     0
100
AcDbLine
 10
33.1211058208776
 20
7.77387625831642
 30
0.0
 11
34.52110582087764
 21
9.173876258316454
 31
0.0
  0
LINE
  5
388C
330
37B6
100
AcDbEntity
  8
0
 62
     0
100
AcDbLine
 10
28.92222990201085
 20
3.575000339449701
 30
0.0
 11
30.37452550305133
 21
5.027295940490148
 31
0.0
  0
LINE
  5
388D
330
37B6
100
AcDbEntity
  8
0
 62
     0
100
AcDbLine
 10
30.67110582087755
 20
5.772889064369877
 30
0.0
 11
32.07110582087762
 21
7.172889064369941
 31
0.0
  0
LINE
  5
388E
330
37B6
100
AcDbEntity
  8
0
 62
     0
100
AcDbLine
 10
33.12110582087758
 20
8.222889064369892
 30
0.0
 11
34.5211058208776
 21
9.622889064369926
 31
0.0
  0
LINE
  5
388F
330
37B6
100
AcDbEntity
  8
0
 62
     0
100
AcDbLine
 10
28.52919197164593
 20
3.630975215138221
 30
0.0
 11
29.87321709595738
 21
4.975000339449707
 31
0.0
  0
LINE
  5
3890
330
37B6
100
AcDbEntity
  8
0
 62
     0
100
AcDbLine
 10
30.67110582087755
 20
6.221901870423321
 30
0.0
 11
32.07110582087762
 21
7.621901870423386
 31
0.0
  0
LINE
  5
3891
330
37B6
100
AcDbEntity
  8
0
 62
     0
100
AcDbLine
 10
33.12110582087758
 20
8.671901870423369
 30
0.0
 11
34.5211058208776
 21
10.07190187042337
 31
0.0
  0
LINE
  5
3892
330
37B6
100
AcDbEntity
  8
0
 62
     0
100
AcDbLine
 10
28.21519853804085
 20
3.765994587586646
 30
0.0
 11
29.42464318272607
 21
4.975439232271867
 31
0.0
  0
LINE
  5
3893
330
37B6
100
AcDbEntity
  8
0
 62
     0
100
AcDbLine
 10
30.67110582087755
 20
6.670914676476768
 30
0.0
 11
32.07110582087762
 21
8.070914676476832
 31
0.0
  0
LINE
  5
3894
330
37B6
100
AcDbEntity
  8
0
 62
     0
100
AcDbLine
 10
33.1211058208776
 20
9.120914676476786
 30
0.0
 11
34.5211058208776
 21
10.52091467647682
 31
0.0
  0
LINE
  5
3895
330
37B6
100
AcDbEntity
  8
0
 62
     0
100
AcDbLine
 10
27.95856859735832
 20
3.958377452957506
 30
0.0
 11
29.10290388836972
 21
5.102712743968936
 31
0.0
  0
LINE
  5
3896
330
37B6
100
AcDbEntity
  8
0
 62
     0
100
AcDbLine
 10
30.67110582087755
 20
7.119927482530214
 30
0.0
 11
32.07110582087762
 21
8.519927482530306
 31
0.0
  0
LINE
  5
3897
330
37B6
100
AcDbEntity
  8
0
 62
     0
100
AcDbLine
 10
33.12110582087758
 20
9.56992748253026
 30
0.0
 11
34.5211058208776
 21
10.96992748253029
 31
0.0
  0
LINE
  5
3898
330
37B6
100
AcDbEntity
  8
0
 62
     0
100
AcDbLine
 10
27.75358650974576
 20
4.202408171398416
 30
0.0
 11
28.93428474916501
 21
5.383106410817703
 31
0.0
  0
LINE
  5
3899
330
37B6
100
AcDbEntity
  8
0
 62
     0
100
AcDbLine
 10
30.67110582087754
 20
7.568940288583688
 30
0.0
 11
32.07110582087762
 21
8.968940288583752
 31
0.0
  0
LINE
  5
389A
330
37B6
100
AcDbEntity
  8
0
 62
     0
100
AcDbLine
 10
33.12110582087758
 20
10.0189402885837
 30
0.0
 11
34.51603124410238
 21
11.41386571180854
 31
0.0
  0
LINE
  5
389B
330
37B6
100
AcDbEntity
  8
0
 62
     0
100
AcDbLine
 10
27.60362407052875
 20
4.501458538234913
 30
0.0
 11
28.92110582087756
 21
5.818940288583717
 31
0.0
  0
LINE
  5
389C
330
37B6
100
AcDbEntity
  8
0
 62
     0
100
AcDbLine
 10
30.67110582087757
 20
8.017953094637164
 30
0.0
 11
32.07110582087762
 21
9.417953094637196
 31
0.0
  0
LINE
  5
389D
330
37B6
100
AcDbEntity
  8
0
 62
     0
100
AcDbLine
 10
33.12110582087758
 20
10.46795309463715
 30
0.0
 11
34.27747407156263
 21
11.62432134532221
 31
0.0
  0
LINE
  5
389E
330
37B6
100
AcDbEntity
  8
0
 62
     0
100
AcDbLine
 10
27.52491730305052
 20
4.871764576810106
 30
0.0
 11
28.92110582087758
 21
6.267953094637164
 31
0.0
  0
LINE
  5
389F
330
37B6
100
AcDbEntity
  8
0
 62
     0
100
AcDbLine
 10
30.67110582087757
 20
8.466965900690638
 30
0.0
 11
32.07110582087762
 21
9.866965900690644
 31
0.0
  0
LINE
  5
38A0
330
37B6
100
AcDbEntity
  8
0
 62
     0
100
AcDbLine
 10
33.1211058208776
 20
10.91696590069065
 30
0.0
 11
33.8291402596366
 21
11.62500033944965
 31
0.0
  0
LINE
  5
38A1
330
37B6
100
AcDbEntity
  8
0
 62
     0
100
AcDbLine
 10
27.52110582087758
 20
5.316965900690632
 30
0.0
 11
28.92110582087761
 21
6.716965900690667
 31
0.0
  0
LINE
  5
38A2
330
37B6
100
AcDbEntity
  8
0
 62
     0
100
AcDbLine
 10
30.67110582087757
 20
8.915978706744084
 30
0.0
 11
32.07110582087759
 21
10.31597870674411
 31
0.0
  0
LINE
  5
38A3
330
37B6
100
AcDbEntity
  8
0
 62
     0
100
AcDbLine
 10
27.52110582087758
 20
5.765978706744077
 30
0.0
 11
28.92110582087758
 21
7.165978706744112
 31
0.0
  0
LINE
  5
38A4
330
37B6
100
AcDbEntity
  8
0
 62
     0
100
AcDbLine
 10
33.12112917825132
 20
11.36600206411785
 30
0.0
 11
33.38010409620946
 21
11.62497698207596
 31
0.0
  0
LINE
  5
38A5
330
37B6
100
AcDbEntity
  8
0
 62
     0
100
AcDbLine
 10
25.36032800552161
 20
3.605200891388108
 30
0.0
 11
26.44090526893918
 21
4.685778154805716
 31
0.0
  0
LINE
  5
38A6
330
37B6
100
AcDbEntity
  8
0
 62
     0
100
AcDbLine
 10
27.52110582087755
 20
6.214991512797552
 30
0.0
 11
28.92110582087758
 21
7.614991512797588
 31
0.0
  0
LINE
  5
38A7
330
37B6
100
AcDbEntity
  8
0
 62
     0
100
AcDbLine
 10
30.67110582087755
 20
9.364991512797557
 30
0.0
 11
32.07110582087759
 21
10.76499151279759
 31
0.0
  0
LINE
  5
38A8
330
37B6
100
AcDbEntity
  8
0
 62
     0
100
AcDbLine
 10
24.8811146475297
 20
3.575000339449701
 30
0.0
 11
26.47110582087757
 21
5.16499151279754
 31
0.0
  0
LINE
  5
38A9
330
37B6
100
AcDbEntity
  8
0
 62
     0
100
AcDbLine
 10
27.52110582087758
 20
6.664004318850999
 30
0.0
 11
28.92110582087761
 21
8.064004318851003
 31
0.0
  0
LINE
  5
38AA
330
37B6
100
AcDbEntity
  8
0
 62
     0
100
AcDbLine
 10
30.67110582087757
 20
9.814004318850976
 30
0.0
 11
32.07110582087762
 21
11.21400431885101
 31
0.0
  0
LINE
  5
38AB
330
37B6
100
AcDbEntity
  8
0
 62
     0
100
AcDbLine
 10
24.43210184147622
 20
3.575000339449643
 30
0.0
 11
26.47110582087762
 21
5.614004318851017
 31
0.0
  0
LINE
  5
38AC
330
37B6
100
AcDbEntity
  8
0
 62
     0
100
AcDbLine
 10
27.52110582087758
 20
7.113017124904445
 30
0.0
 11
28.92110582087758
 21
8.513017124904479
 31
0.0
  0
LINE
  5
38AD
330
37B6
100
AcDbEntity
  8
0
 62
     0
100
AcDbLine
 10
30.67110582087755
 20
10.26301712490445
 30
0.0
 11
31.97423709346057
 21
11.56614839748746
 31
0.0
  0
LINE
  5
38AE
330
37B6
100
AcDbEntity
  8
0
 62
     0
100
AcDbLine
 10
23.98308903542277
 20
3.575000339449672
 30
0.0
 11
26.46394652067113
 21
6.055857824698022
 31
0.0
  0
LINE
  5
38AF
330
37B6
100
AcDbEntity
  8
0
 62
     0
100
AcDbLine
 10
27.52110582087755
 20
7.562029930957919
 30
0.0
 11
28.92110582087758
 21
8.962029930957951
 31
0.0
  0
LINE
  5
38B0
330
37B6
100
AcDbEntity
  8
0
 62
     0
100
AcDbLine
 10
30.67110582087755
 20
10.71202993095792
 30
0.0
 11
31.58407622936931
 21
11.62500033944968
 31
0.0
  0
LINE
  5
38B1
330
37B6
100
AcDbEntity
  8
0
 62
     0
100
AcDbLine
 10
23.5340762293693
 20
3.575000339449672
 30
0.0
 11
26.39649033535675
 21
6.437414445437099
 31
0.0
  0
LINE
  5
38B2
330
37B6
100
AcDbEntity
  8
0
 62
     0
100
AcDbLine
 10
27.52110582087758
 20
8.011042737011338
 30
0.0
 11
28.92110582087758
 21
9.411042737011372
 31
0.0
  0
LINE
  5
38B3
330
37B6
100
AcDbEntity
  8
0
 62
     0
100
AcDbLine
 10
25.07110582087761
 20
5.561042737011405
 30
0.0
 11
26.27619660689748
 21
6.766133523031242
 31
0.0
  0
LINE
  5
38B4
330
37B6
100
AcDbEntity
  8
0
 62
     0
100
AcDbLine
 10
30.67110582087757
 20
11.16104273701134
 30
0.0
 11
31.13506342331592
 21
11.62500033944971
 31
0.0
  0
LINE
  5
38B5
330
37B6
100
AcDbEntity
  8
0
 62
     0
100
AcDbLine
 10
23.14919109988142
 20
3.639128016015205
 30
0.0
 11
24.48506342331586
 21
4.97500033944965
 31
0.0
  0
LINE
  5
38B6
330
37B6
100
AcDbEntity
  8
0
 62
     0
100
AcDbLine
 10
25.06117053331397
 20
6.000120255501201
 30
0.0
 11
26.11444695446721
 21
7.053396676654442
 31
0.0
  0
LINE
  5
38B7
330
37B6
100
AcDbEntity
  8
0
 62
     0
100
AcDbLine
 10
27.52110582087761
 20
8.460055543064838
 30
0.0
 11
28.92110582087761
 21
9.860055543064873
 31
0.0
  0
LINE
  5
38B8
330
37B6
100
AcDbEntity
  8
0
 62
     0
100
AcDbLine
 10
23.05860582087757
 20
3.997555543064833
 30
0.0
 11
24.03605061726239
 21
4.97500033944965
 31
0.0
  0
LINE
  5
38B9
330
37B6
100
AcDbEntity
  8
0
 62
     0
100
AcDbLine
 10
24.92397811474452
 20
6.311940642985263
 30
0.0
 11
25.9165113955033
 21
7.304473923744041
 31
0.0
  0
LINE
  5
38BA
330
37B6
100
AcDbEntity
  8
0
 62
     0
100
AcDbLine
 10
27.52110582087758
 20
8.909068349118314
 30
0.0
 11
28.92110582087761
 21
10.30906834911834
 31
0.0
  0
LINE
  5
38BB
330
37B6
100
AcDbEntity
  8
0
 62
     0
100
AcDbLine
 10
23.05860582087757
 20
4.44656834911828
 30
0.0
 11
23.58703781120894
 21
4.975000339449677
 31
0.0
  0
LINE
  5
38BC
330
37B6
100
AcDbEntity
  8
0
 62
     0
100
AcDbLine
 10
27.52110582087761
 20
9.35808115517176
 30
0.0
 11
28.92110582087764
 21
10.75808115517176
 31
0.0
  0
LINE
  5
38BD
330
37B6
100
AcDbEntity
  8
0
 62
     0
100
AcDbLine
 10
24.70334066618599
 20
6.540316000480116
 30
0.0
 11
25.69329015984718
 21
7.530265494141332
 31
0.0
  0
LINE
  5
38BE
330
37B6
100
AcDbEntity
  8
0
 62
     0
100
AcDbLine
 10
24.47883426315925
 20
6.764822403506856
 30
0.0
 11
25.46878375682041
 21
7.754771897168012
 31
0.0
  0
LINE
  5
38BF
330
37B6
100
AcDbEntity
  8
0
 62
     0
100
AcDbLine
 10
27.52110582087758
 20
9.807093961225206
 30
0.0
 11
28.92110582087761
 21
11.20709396122524
 31
0.0
  0
LINE
  5
38C0
330
37B6
100
AcDbEntity
  8
0
 62
     0
100
AcDbLine
 10
21.28901219910204
 20
3.575000339449672
 30
0.0
 11
21.7461058208776
 21
4.0320939612252
 31
0.0
  0
LINE
  5
38C1
330
37B6
100
AcDbEntity
  8
0
 62
     0
100
AcDbLine
 10
24.25432786013255
 20
6.989328806533649
 30
0.0
 11
25.24427735379367
 21
7.979278300194748
 31
0.0
  0
LINE
  5
38C2
330
37B6
100
AcDbEntity
  8
0
 62
     0
100
AcDbLine
 10
27.52110582087758
 20
10.25610676727868
 30
0.0
 11
28.82801536682828
 21
11.56301631322935
 31
0.0
  0
LINE
  5
38C3
330
37B6
100
AcDbEntity
  8
0
 62
     0
100
AcDbLine
 10
20.8399993930486
 20
3.575000339449672
 30
0.0
 11
21.74610582087757
 21
4.481106767278673
 31
0.0
  0
LINE
  5
38C4
330
37B6
100
AcDbEntity
  8
0
 62
     0
100
AcDbLine
 10
24.02982145710578
 20
7.213835209560328
 30
0.0
 11
25.01977095076694
 21
8.203784703221487
 31
0.0
  0
LINE
  5
38C5
330
37B6
100
AcDbEntity
  8
0
 62
     0
100
AcDbLine
 10
27.52110582087758
 20
10.70511957333212
 30
0.0
 11
28.44098658699513
 21
11.62500033944971
 31
0.0
  0
LINE
  5
38C6
330
37B6
100
AcDbEntity
  8
0
 62
     0
100
AcDbLine
 10
20.44679215592609
 20
3.630805908380636
 30
0.0
 11
21.7461058208776
 21
4.930119573332176
 31
0.0
  0
LINE
  5
38C7
330
37B6
100
AcDbEntity
  8
0
 62
     0
100
AcDbLine
 10
23.80531505407907
 20
7.438341612587037
 30
0.0
 11
24.79526454774023
 21
8.428291106248195
 31
0.0
  0
LINE
  5
38C8
330
37B6
100
AcDbEntity
  8
0
 62
     0
100
AcDbLine
 10
27.52110582087758
 20
11.15413237938557
 30
0.0
 11
27.99197378094172
 21
11.62500033944968
 31
0.0
  0
LINE
  5
38C9
330
37B6
100
AcDbEntity
  8
0
 62
     0
100
AcDbLine
 10
20.34610582087756
 20
3.979132379385531
 30
0.0
 11
21.74610582087763
 21
5.379132379385595
 31
0.0
  0
LINE
  5
38CA
330
37B6
100
AcDbEntity
  8
0
 62
     0
100
AcDbLine
 10
23.58080865105232
 20
7.662848015613775
 30
0.0
 11
24.57075814471349
 21
8.652797509274932
 31
0.0
  0
LINE
  5
38CB
330
37B6
100
AcDbEntity
  8
0
 62
     0
100
AcDbLine
 10
20.34610582087759
 20
4.428145185439035
 30
0.0
 11
21.7461058208776
 21
5.828145185439067
 31
0.0
  0
LINE
  5
38CC
330
37B6
100
AcDbEntity
  8
0
 62
     0
100
AcDbLine
 10
23.35731670053167
 20
7.888368871146609
 30
0.0
 11
24.34930346722268
 21
8.880355637837595
 31
0.0
  0
LINE
  5
38CD
330
37B6
100
AcDbEntity
  8
0
 62
     0
100
AcDbLine
 10
20.34610582087756
 20
4.877157991492508
 30
0.0
 11
21.7461058208776
 21
6.277157991492543
 31
0.0
  0
LINE
  5
38CE
330
37B6
100
AcDbEntity
  8
0
 62
     0
100
AcDbLine
 10
25.69394816883476
 20
10.22500033944967
 30
0.0
 11
26.20860582087757
 21
10.73965799149252
 31
0.0
  0
LINE
  5
38CF
330
37B6
100
AcDbEntity
  8
0
 62
     0
100
AcDbLine
 10
19.0997777085225
 20
3.630829879137421
 30
0.0
 11
19.14460388925002
 21
3.675656059864961
 31
0.0
  0
LINE
  5
38D0
330
37B6
100
AcDbEntity
  8
0
 62
     0
100
AcDbLine
 10
23.15831561112068
 20
8.138380587789043
 30
0.0
 11
24.20813274982998
 21
9.188197726498344
 31
0.0
  0
LINE
  5
38D1
330
37B6
100
AcDbEntity
  8
0
 62
     0
100
AcDbLine
 10
20.34610582087759
 20
5.326170797545926
 30
0.0
 11
21.74610582087763
 21
6.726170797545961
 31
0.0
  0
LINE
  5
38D2
330
37B6
100
AcDbEntity
  8
0
 62
     0
100
AcDbLine
 10
25.24493536278132
 20
10.22500033944967
 30
0.0
 11
26.20860582087761
 21
11.18867079754592
 31
0.0
  0
LINE
  5
38D3
330
37B6
100
AcDbEntity
  8
0
 62
     0
100
AcDbLine
 10
18.59493536278128
 20
3.575000339449643
 30
0.0
 11
19.12782491093452
 21
4.10788988760285
 31
0.0
  0
LINE
  5
38D4
330
37B6
100
AcDbEntity
  8
0
 62
     0
100
AcDbLine
 10
22.99539847892233
 20
8.424476261644173
 30
0.0
 11
24.19610582087765
 21
9.625183603599452
 31
0.0
  0
LINE
  5
38D5
330
37B6
100
AcDbEntity
  8
0
 62
     0
100
AcDbLine
 10
20.34610582087756
 20
5.775183603599401
 30
0.0
 11
21.7461058208776
 21
7.175183603599434
 31
0.0
  0
LINE
  5
38D6
330
37B6
100
AcDbEntity
  8
0
 62
     0
100
AcDbLine
 10
24.79592255672788
 20
10.22500033944967
 30
0.0
 11
26.12527135497868
 21
11.55434913770051
 31
0.0
  0
LINE
  5
38D7
330
37B6
100
AcDbEntity
  8
0
 62
     0
100
AcDbLine
 10
18.14592255672783
 20
3.575000339449643
 30
0.0
 11
19.0200618374817
 21
4.449139620203538
 31
0.0
  0
LINE
  5
38D8
330
37B6
100
AcDbEntity
  8
0
 62
     0
100
AcDbLine
 10
20.34610582087756
 20
6.224196409652875
 30
0.0
 11
21.7461058208776
 21
7.62419640965288
 31
0.0
  0
LINE
  5
38D9
330
37B6
100
AcDbEntity
  8
0
 62
     0
100
AcDbLine
 10
22.87370744758729
 20
8.751798036362599
 30
0.0
 11
25.74690975067443
 21
11.62500033944971
 31
0.0
  0
LINE
  5
38DA
330
37B6
100
AcDbEntity
  8
0
 62
     0
100
AcDbLine
 10
17.84991540140029
 20
3.728005990175602
 30
0.0
 11
18.91229876402886
 21
4.790389352804169
 31
0.0
  0
LINE
  5
38DB
330
37B6
100
AcDbEntity
  8
0
 62
     0
100
AcDbLine
 10
20.34610582087756
 20
6.673209215706322
 30
0.0
 11
21.74610582087757
 21
8.073209215706356
 31
0.0
  0
LINE
  5
38DC
330
37B6
100
AcDbEntity
  8
0
 62
     0
100
AcDbLine
 10
22.80435401804445
 20
9.131457412873231
 30
0.0
 11
25.29789694462095
 21
11.62500033944974
 31
0.0
  0
LINE
  5
38DD
330
37B6
100
AcDbEntity
  8
0
 62
     0
100
AcDbLine
 10
17.74053569057599
 20
4.067639085404778
 30
0.0
 11
18.80453569057598
 21
5.131639085404771
 31
0.0
  0
LINE
  5
38DE
330
37B6
100
AcDbEntity
  8
0
 62
     0
100
AcDbLine
 10
20.34610582087756
 20
7.122222021759767
 30
0.0
 11
21.7461058208776
 21
8.522222021759803
 31
0.0
  0
LINE
  5
38DF
330
37B6
100
AcDbEntity
  8
0
 62
     0
100
AcDbLine
 10
22.79610582087761
 20
9.572222021759783
 30
0.0
 11
24.84888413856748
 21
11.62500033944968
 31
0.0
  0
LINE
  5
38E0
330
37B6
100
AcDbEntity
  8
0
 62
     0
100
AcDbLine
 10
17.63277261712318
 20
4.40888881800538
 30
0.0
 11
18.69677261712323
 21
5.4728888180054
 31
0.0
  0
LINE
  5
38E1
330
37B6
100
AcDbEntity
  8
0
 62
     0
100
AcDbLine
 10
20.34610582087759
 20
7.571234827813269
 30
0.0
 11
21.7461058208776
 21
8.971234827813248
 31
0.0
  0
LINE
  5
38E2
330
37B6
100
AcDbEntity
  8
0
 62
     0
100
AcDbLine
 10
22.79610582087757
 20
10.02123482781325
 30
0.0
 11
24.39987133251404
 21
11.62500033944968
 31
0.0
  0
LINE
  5
38E3
330
37B6
100
AcDbEntity
  8
0
 62
     0
100
AcDbLine
 10
17.5250095436703
 20
4.750138550605981
 30
0.0
 11
18.58900954367038
 21
5.814138550606031
 31
0.0
  0
LINE
  5
38E4
330
37B6
100
AcDbEntity
  8
0
 62
     0
100
AcDbLine
 10
20.34610582087759
 20
8.020247633866715
 30
0.0
 11
21.74610582087757
 21
9.420247633866722
 31
0.0
  0
LINE
  5
38E5
330
37B6
100
AcDbEntity
  8
0
 62
     0
100
AcDbLine
 10
17.41724647021749
 20
5.091388283206639
 30
0.0
 11
18.48124647021754
 21
6.155388283206661
 31
0.0
  0
LINE
  5
38E6
330
37B6
100
AcDbEntity
  8
0
 62
     0
100
AcDbLine
 10
22.82276415593821
 20
10.49690596892736
 30
0.0
 11
23.92420019139987
 21
11.59834200438902
 31
0.0
  0
LINE
  5
38E7
330
37B6
100
AcDbEntity
  8
0
 62
     0
100
AcDbLine
 10
15.90085852646055
 20
3.575000339449672
 30
0.0
 11
16.32110582087759
 21
3.995247633866738
 31
0.0
  0
LINE
  5
38E8
330
37B6
100
AcDbEntity
  8
0
 62
     0
100
AcDbLine
 10
17.30948339676469
 20
5.432638015807242
 30
0.0
 11
18.37348339676466
 21
6.496638015807235
 31
0.0
  0
LINE
  5
38E9
330
37B6
100
AcDbEntity
  8
0
 62
     0
100
AcDbLine
 10
20.34610582087759
 20
8.469260439920162
 30
0.0
 11
21.7461058208776
 21
9.86926043992014
 31
0.0
  0
LINE
  5
38EA
330
37B6
100
AcDbEntity
  8
0
 62
     0
100
AcDbLine
 10
15.4518457204071
 20
3.575000339449672
 30
0.0
 11
16.32110582087761
 21
4.444260439920184
 31
0.0
  0
LINE
  5
38EB
330
37B6
100
AcDbEntity
  8
0
 62
     0
100
AcDbLine
 10
17.20172032331186
 20
5.773887748407871
 30
0.0
 11
18.26572032331188
 21
6.837887748407922
 31
0.0
  0
LINE
  5
38EC
330
37B6
100
AcDbEntity
  8
0
 62
     0
100
AcDbLine
 10
20.34610582087759
 20
8.918273245973637
 30
0.0
 11
21.74610582087757
 21
10.31827324597361
 31
0.0
  0
LINE
  5
38ED
330
37B6
100
AcDbEntity
  8
0
 62
     0
100
AcDbLine
 10
15.04340778817925
 20
3.615575213275291
 30
0.0
 11
16.32110582087761
 21
4.893273245973631
 31
0.0
  0
LINE
  5
38EE
330
37B6
100
AcDbEntity
  8
0
 62
     0
100
AcDbLine
 10
17.09395724985895
 20
6.115137481008473
 30
0.0
 11
18.15795724985903
 21
7.179137481008551
 31
0.0
  0
LINE
  5
38EF
330
37B6
100
AcDbEntity
  8
0
 62
     0
100
AcDbLine
 10
20.34610582087759
 20
9.367286052027083
 30
0.0
 11
21.74610582087757
 21
10.76728605202708
 31
0.0
  0
LINE
  5
38F0
330
37B6
100
AcDbEntity
  8
0
 62
     0
100
AcDbLine
 10
14.92110582087755
 20
3.942286052027071
 30
0.0
 11
16.32110582087759
 21
5.342286052027105
 31
0.0
  0
LINE
  5
38F1
330
37B6
100
AcDbEntity
  8
0
 62
     0
100
AcDbLine
 10
16.9861941764062
 20
6.456387213609103
 30
0.0
 11
18.05019417640622
 21
7.520387213609152
 31
0.0
  0
LINE
  5
38F2
330
37B6
100
AcDbEntity
  8
0
 62
     0
100
AcDbLine
 10
20.34610582087759
 20
9.816298858080527
 30
0.0
 11
21.74610582087757
 21
11.2162988580805
 31
0.0
  0
LINE
  5
38F3
330
37B6
100
AcDbEntity
  8
0
 62
     0
100
AcDbLine
 10
14.92110582087758
 20
4.391298858080516
 30
0.0
 11
16.32110582087761
 21
5.791298858080523
 31
0.0
  0
LINE
  5
38F4
330
37B6
100
AcDbEntity
  8
0
 62
     0
100
AcDbLine
 10
16.86879478292033
 20
6.788000626176739
 30
0.0
 11
18.18394181688577
 21
8.103147660142182
 31
0.0
  0
LINE
  5
38F5
330
37B6
100
AcDbEntity
  8
0
 62
     0
100
AcDbLine
 10
20.34610582087759
 20
10.26531166413397
 30
0.0
 11
21.6479681096284
 21
11.56717395288478
 31
0.0
  0
LINE
  5
38F6
330
37B6
100
AcDbEntity
  8
0
 62
     0
100
AcDbLine
 10
14.92110582087758
 20
4.840311664133962
 30
0.0
 11
16.32110582087759
 21
6.240311664133996
 31
0.0
  0
LINE
  5
38F7
330
37B6
100
AcDbEntity
  8
0
 62
     0
100
AcDbLine
 10
16.52520209798663
 20
6.893420747296516
 30
0.0
 11
18.39117849660274
 21
8.759397145912629
 31
0.0
  0
LINE
  5
38F8
330
37B6
100
AcDbEntity
  8
0
 62
     0
100
AcDbLine
 10
14.92110582087755
 20
5.289324470187438
 30
0.0
 11
16.32768541303076
 21
6.695904062340615
 31
0.0
  0
LINE
  5
38F9
330
37B6
100
AcDbEntity
  8
0
 62
     0
100
AcDbLine
 10
20.34610582087756
 20
10.71432447018745
 30
0.0
 11
21.2567816901398
 21
11.62500033944968
 31
0.0
  0
LINE
  5
38FA
330
37B6
100
AcDbEntity
  8
0
 62
     0
100
AcDbLine
 10
13.20678169013979
 20
3.575000339449643
 30
0.0
 11
13.69610582087761
 21
4.0643244701875
 31
0.0
  0
LINE
  5
38FB
330
37B6
100
AcDbEntity
  8
0
 62
     0
100
AcDbLine
 10
14.92110582087755
 20
5.738337276240883
 30
0.0
 11
18.59841517631972
 21
9.415646631683046
 31
0.0
  0
LINE
  5
38FC
330
37B6
100
AcDbEntity
  8
0
 62
     0
100
AcDbLine
 10
20.34610582087759
 20
11.16333727624095
 30
0.0
 11
20.80776888408633
 21
11.62500033944968
 31
0.0
  0
LINE
  5
38FD
330
37B6
100
AcDbEntity
  8
0
 62
     0
100
AcDbLine
 10
12.75776888408631
 20
3.575000339449672
 30
0.0
 11
13.69610582087761
 21
4.513337276240973
 31
0.0
  0
LINE
  5
38FE
330
37B6
100
AcDbEntity
  8
0
 62
     0
100
AcDbLine
 10
14.92110582087755
 20
6.187350082294329
 30
0.0
 11
18.80565185603674
 21
10.07189611745349
 31
0.0
  0
LINE
  5
38FF
330
37B6
100
AcDbEntity
  8
0
 62
     0
100
AcDbLine
 10
12.31459639020792
 20
3.580840651624696
 30
0.0
 11
13.62543867907453
 21
4.891682940491278
 31
0.0
  0
LINE
  5
3900
330
37B6
100
AcDbEntity
  8
0
 62
     0
100
AcDbLine
 10
14.92110582087755
 20
6.636362888347803
 30
0.0
 11
16.58474327197942
 21
8.300000339449667
 31
0.0
  0
LINE
  5
3901
330
37B6
100
AcDbEntity
  8
0
 62
     0
100
AcDbLine
 10
16.96673468959977
 20
8.681991757070022
 30
0.0
 11
19.01288853575374
 21
10.72814560322396
 31
0.0
  0
LINE
  5
3902
330
37B6
100
AcDbEntity
  8
0
 62
     0
100
AcDbLine
 10
11.93051613148443
 20
3.645773198954656
 30
0.0
 11
13.25974327197946
 21
4.975000339449677
 31
0.0
  0
LINE
  5
3903
330
37B6
100
AcDbEntity
  8
0
 62
     0
100
AcDbLine
 10
14.92110582087758
 20
7.085375694401307
 30
0.0
 11
16.33010110623175
 21
8.494370979755442
 31
0.0
  0
LINE
  5
3904
330
37B6
100
AcDbEntity
  8
0
 62
     0
100
AcDbLine
 10
17.17397136931674
 20
9.338241242840439
 30
0.0
 11
19.20042426165443
 21
11.36469413517815
 31
0.0
  0
LINE
  5
3905
330
37B6
100
AcDbEntity
  8
0
 62
     0
100
AcDbLine
 10
11.59994900307123
 20
3.764218876594951
 30
0.0
 11
12.81073046592598
 21
4.975000339449707
 31
0.0
  0
LINE
  5
3906
330
37B6
100
AcDbEntity
  8
0
 62
     0
100
AcDbLine
 10
14.92110582087761
 20
7.534388500454723
 30
0.0
 11
16.32110582087761
 21
8.934388500454758
 31
0.0
  0
LINE
  5
3907
330
37B6
100
AcDbEntity
  8
0
 62
     0
100
AcDbLine
 10
17.38120804903371
 20
9.994490728610855
 30
0.0
 11
19.00341832536983
 21
11.61670100494697
 31
0.0
  0
LINE
  5
3908
330
37B6
100
AcDbEntity
  8
0
 62
     0
100
AcDbLine
 10
11.31114736098908
 20
3.924430040566193
 30
0.0
 11
12.36917829023551
 21
4.982460969812648
 31
0.0
  0
LINE
  5
3909
330
37B6
100
AcDbEntity
  8
0
 62
     0
100
AcDbLine
 10
14.92110582087758
 20
7.983401306508199
 30
0.0
 11
16.32110582087761
 21
9.383401306508233
 31
0.0
  0
LINE
  5
390A
330
37B6
100
AcDbEntity
  8
0
 62
     0
100
AcDbLine
 10
17.58844472875071
 20
10.65074021438132
 30
0.0
 11
18.56270485381907
 21
11.62500033944968
 31
0.0
  0
LINE
  5
390B
330
37B6
100
AcDbEntity
  8
0
 62
     0
100
AcDbLine
 10
11.05866987779805
 20
4.120965363428638
 30
0.0
 11
12.05202021972636
 21
5.114315705356943
 31
0.0
  0
LINE
  5
390C
330
37B6
100
AcDbEntity
  8
0
 62
     0
100
AcDbLine
 10
14.92110582087758
 20
8.432414112561643
 30
0.0
 11
16.32110582087761
 21
9.83241411256168
 31
0.0
  0
LINE
  5
390D
330
37B6
100
AcDbEntity
  8
0
 62
     0
100
AcDbLine
 10
13.25192288676584
 20
6.763231178449927
 30
0.0
 11
13.83287498187738
 21
7.344183273561469
 31
0.0
  0
LINE
  5
390E
330
37B6
100
AcDbEntity
  8
0
 62
     0
100
AcDbLine
 10
17.79568140846768
 20
11.30698970015177
 30
0.0
 11
18.11369204776562
 21
11.62500033944971
 31
0.0
  0
LINE
  5
390F
330
37B6
100
AcDbEntity
  8
0
 62
     0
100
AcDbLine
 10
10.84045134113313
 20
4.35175963281722
 30
0.0
 11
11.84689474409026
 21
5.358203035774351
 31
0.0
  0
LINE
  5
3910
330
37B6
100
AcDbEntity
  8
0
 62
     0
100
AcDbLine
 10
12.78943646595092
 20
6.74975756368849
 30
0.0
 11
13.84634859663882
 21
7.806669694376353
 31
0.0
  0
LINE
  5
3911
330
37B6
100
AcDbEntity
  8
0
 62
     0
100
AcDbLine
 10
14.92110582087755
 20
8.881426918615119
 30
0.0
 11
16.32110582087759
 21
10.28142691861515
 31
0.0
  0
LINE
  5
3912
330
37B6
100
AcDbEntity
  8
0
 62
     0
100
AcDbLine
 10
10.65694172866165
 20
4.617262826399183
 30
0.0
 11
11.7711058208776
 21
5.731426918615169
 31
0.0
  0
LINE
  5
3913
330
37B6
100
AcDbEntity
  8
0
 62
     0
100
AcDbLine
 10
12.48236318124082
 20
6.891697085031778
 30
0.0
 11
13.7044090752955
 21
8.113742979086481
 31
0.0
  0
LINE
  5
3914
330
37B6
100
AcDbEntity
  8
0
 62
     0
100
AcDbLine
 10
14.92110582087758
 20
9.330439724668565
 30
0.0
 11
16.32110582087761
 21
10.73043972466857
 31
0.0
  0
LINE
  5
3915
330
37B6
100
AcDbEntity
  8
0
 62
     0
100
AcDbLine
 10
10.51128297369928
 20
4.920616877490259
 30
0.0
 11
11.7711058208776
 21
6.180439724668587
 31
0.0
  0
LINE
  5
3916
330
37B6
100
AcDbEntity
  8
0
 62
     0
100
AcDbLine
 10
12.26338321774596
 20
7.121729927590422
 30
0.0
 11
13.47437623273688
 21
8.332722942581312
 31
0.0
  0
LINE
  5
3917
330
37B6
100
AcDbEntity
  8
0
 62
     0
100
AcDbLine
 10
14.92110582087758
 20
9.779452530722011
 30
0.0
 11
16.32110582087759
 21
11.17945253072204
 31
0.0
  0
LINE
  5
3918
330
37B6
100
AcDbEntity
  8
0
 62
     0
100
AcDbLine
 10
10.41071429161195
 20
5.269061001456407
 30
0.0
 11
11.7711058208776
 21
6.629452530722062
 31
0.0
  0
LINE
  5
3919
330
37B6
100
AcDbEntity
  8
0
 62
     0
100
AcDbLine
 10
12.13535785154178
 20
7.442717367439684
 30
0.0
 11
13.15338879288759
 21
8.460748308785525
 31
0.0
  0
LINE
  5
391A
330
37B6
100
AcDbEntity
  8
0
 62
     0
100
AcDbLine
 10
10.37110582087751
 20
5.678465336775444
 30
0.0
 11
11.7711058208776
 21
7.078465336775507
 31
0.0
  0
LINE
  5
391B
330
37B6
100
AcDbEntity
  8
0
 62
     0
100
AcDbLine
 10
14.92110582087755
 20
10.22846533677548
 30
0.0
 11
16.24248076670005
 21
11.54984028259798
 31
0.0
  0
LINE
  5
391C
330
37B6
100
AcDbEntity
  8
0
 62
     0
100
AcDbLine
 10
8.328107441939776
 20
3.635466957837707
 30
0.0
 11
9.260639202489642
 21
4.56799871838757
 31
0.0
  0
LINE
  5
391D
330
37B6
100
AcDbEntity
  8
0
 62
     0
100
AcDbLine
 10
12.19456439328217
 20
7.950936715233523
 30
0.0
 11
12.64516944509378
 21
8.401541767045131
 31
0.0
  0
LINE
  5
391E
330
37B6
100
AcDbEntity
  8
0
 62
     0
100
AcDbLine
 10
10.37110582087754
 20
6.12747814282889
 30
0.0
 11
11.7711058208776
 21
7.527478142828954
 31
0.0
  0
LINE
  5
391F
330
37B6
100
AcDbEntity
  8
0
 62
     0
100
AcDbLine
 10
14.92110582087758
 20
10.6774781428289
 30
0.0
 11
15.86862801749836
 21
11.62500033944971
 31
0.0
  0
LINE
  5
3920
330
37B6
100
AcDbEntity
  8
0
 62
     0
100
AcDbLine
 10
7.818628017498297
 20
3.575000339449643
 30
0.0
 11
9.321105820877619
 21
5.077478142828964
 31
0.0
  0
LINE
  5
3921
330
37B6
100
AcDbEntity
  8
0
 62
     0
100
AcDbLine
 10
10.37110582087754
 20
6.576490948882337
 30
0.0
 11
11.7711058208776
 21
7.976490948882426
 31
0.0
  0
LINE
  5
3922
330
37B6
100
AcDbEntity
  8
0
 62
     0
100
AcDbLine
 10
14.92110582087755
 20
11.12649094888237
 30
0.0
 11
15.41961521144486
 21
11.62500033944968
 31
0.0
  0
LINE
  5
3923
330
37B6
100
AcDbEntity
  8
0
 62
     0
100
AcDbLine
 10
7.369615211444852
 20
3.575000339449643
 30
0.0
 11
9.321105820877619
 21
5.52649094888244
 31
0.0
  0
LINE
  5
3924
330
37B6
100
AcDbEntity
  8
0
 62
     0
100
AcDbLine
 10
10.37110582087751
 20
7.025503754935813
 30
0.0
 11
11.77110582087758
 21
8.425503754935872
 31
0.0
  0
LINE
  5
3925
330
37B6
100
AcDbEntity
  8
0
 62
     0
100
AcDbLine
 10
6.920602405391378
 20
3.575000339449672
 30
0.0
 11
9.319136144597024
 21
5.973534078655317
 31
0.0
  0
LINE
  5
3926
330
37B6
100
AcDbEntity
  8
0
 62
     0
100
AcDbLine
 10
10.37110582087757
 20
7.474516560989313
 30
0.0
 11
11.7711058208776
 21
8.87451656098935
 31
0.0
  0
LINE
  5
3927
330
37B6
100
AcDbEntity
  8
0
 62
     0
100
AcDbLine
 10
13.12158959933796
 20
10.2250003394497
 30
0.0
 11
13.69610582087764
 21
10.79951656098936
 31
0.0
  0
LINE
  5
3928
330
37B6
100
AcDbEntity
  8
0
 62
     0
100
AcDbLine
 10
6.471589599337931
 20
3.575000339449672
 30
0.0
 11
9.264305226436363
 21
6.367715966548103
 31
0.0
  0
LINE
  5
3929
330
37B6
100
AcDbEntity
  8
0
 62
     0
100
AcDbLine
 10
10.37110582087757
 20
7.92352936704276
 30
0.0
 11
11.7711058208776
 21
9.323529367042764
 31
0.0
  0
LINE
  5
392A
330
37B6
100
AcDbEntity
  8
0
 62
     0
100
AcDbLine
 10
7.921105820877585
 20
5.473529367042771
 30
0.0
 11
9.153135854414301
 21
6.705559400579486
 31
0.0
  0
LINE
  5
392B
330
37B6
100
AcDbEntity
  8
0
 62
     0
100
AcDbLine
 10
12.67257679328452
 20
10.22500033944967
 30
0.0
 11
13.69610582087761
 21
11.2485293670428
 31
0.0
  0
LINE
  5
392C
330
37B6
100
AcDbEntity
  8
0
 62
     0
100
AcDbLine
 10
6.051439730914437
 20
3.603863277079625
 30
0.0
 11
7.42257679328452
 21
4.975000339449677
 31
0.0
  0
LINE
  5
392D
330
37B6
100
AcDbEntity
  8
0
 62
     0
100
AcDbLine
 10
10.37110582087754
 20
8.372542173096206
 30
0.0
 11
11.85401317376744
 21
9.855449525986101
 31
0.0
  0
LINE
  5
392E
330
37B6
100
AcDbEntity
  8
0
 62
     0
100
AcDbLine
 10
7.920026275072983
 20
5.921462627291617
 30
0.0
 11
8.998920087078289
 21
7.000356439296949
 31
0.0
  0
LINE
  5
392F
330
37B6
100
AcDbEntity
  8
0
 62
     0
100
AcDbLine
 10
12.14065663434121
 20
10.14209298655987
 30
0.0
 11
13.57937211341772
 21
11.58080846563635
 31
0.0
  0
LINE
  5
3930
330
37B6
100
AcDbEntity
  8
0
 62
     0
100
AcDbLine
 10
5.908605820877567
 20
3.910042173096228
 30
0.0
 11
6.973563987231044
 21
4.975000339449707
 31
0.0
  0
LINE
  5
3931
330
37B6
100
AcDbEntity
  8
0
 62
     0
100
AcDbLine
 10
7.810224765322629
 20
6.260673923594764
 30
0.0
 11
8.807799104658839
 21
7.258248262930976
 31
0.0
  0
LINE
  5
3932
330
37B6
100
AcDbEntity
  8
0
 62
     0
100
AcDbLine
 10
10.37110582087754
 20
8.821554979149681
 30
0.0
 11
13.17455118117757
 21
11.62500033944971
 31
0.0
  0
LINE
  5
3933
330
37B6
100
AcDbEntity
  8
0
 62
     0
100
AcDbLine
 10
5.908605820877567
 20
4.359054979149703
 30
0.0
 11
6.524551181177542
 21
4.975000339449677
 31
0.0
  0
LINE
  5
3934
330
37B6
100
AcDbEntity
  8
0
 62
     0
100
AcDbLine
 10
7.597097351170218
 20
6.496559315495772
 30
0.0
 11
8.587046844831462
 21
7.486508809157014
 31
0.0
  0
LINE
  5
3935
330
37B6
100
AcDbEntity
  8
0
 62
     0
100
AcDbLine
 10
10.37110582087757
 20
9.270567785203098
 30
0.0
 11
12.72553837512413
 21
11.62500033944968
 31
0.0
  0
LINE
  5
3936
330
37B6
100
AcDbEntity
  8
0
 62
     0
100
AcDbLine
 10
5.943081781887484
 20
4.842543746213038
 30
0.0
 11
6.041062414114293
 21
4.940524378439846
 31
0.0
  0
LINE
  5
3937
330
37B6
100
AcDbEntity
  8
0
 62
     0
100
AcDbLine
 10
10.38109337795586
 20
9.729568148334863
 30
0.0
 11
12.26653801199236
 21
11.61501278237139
 31
0.0
  0
LINE
  5
3938
330
37B6
100
AcDbEntity
  8
0
 62
     0
100
AcDbLine
 10
7.372590948143539
 20
6.721065718522567
 30
0.0
 11
8.362540441804725
 21
7.711015212183752
 31
0.0
  0
LINE
  5
3939
330
37B6
100
AcDbEntity
  8
0
 62
     0
100
AcDbLine
 10
10.53082509408875
 20
10.32831267052125
 30
0.0
 11
11.667793489806
 21
11.4652810662385
 31
0.0
  0
LINE
  5
393A
330
37B6
100
AcDbEntity
  8
0
 62
     0
100
AcDbLine
 10
7.148084545116802
 20
6.945572121549303
 30
0.0
 11
8.138034038777986
 21
7.93552161521049
 31
0.0
  0
LINE
  5
393B
330
37B6
100
AcDbEntity
  8
0
 62
     0
100
AcDbLine
 10
6.923578142090092
 20
7.170078524576013
 30
0.0
 11
7.913527635751278
 21
8.160028018237197
 31
0.0
  0
LINE
  5
393C
330
37B6
100
AcDbEntity
  8
0
 62
     0
100
AcDbLine
 10
6.699071739063356
 20
7.39458492760275
 30
0.0
 11
7.689021232724542
 21
8.384534421263936
 31
0.0
  0
LINE
  5
393D
330
37B6
100
AcDbEntity
  8
0
 62
     0
100
AcDbLine
 10
6.474565336036563
 20
7.619091330629429
 30
0.0
 11
7.464514829697803
 21
8.609040824290673
 31
0.0
  0
LINE
  5
393E
330
37B6
100
AcDbEntity
  8
0
 62
     0
100
AcDbLine
 10
8.631461538803362
 20
10.2250003394497
 30
0.0
 11
9.058605820877541
 21
10.65214462152388
 31
0.0
  0
LINE
  5
393F
330
37B6
100
AcDbEntity
  8
0
 62
     0
100
AcDbLine
 10
6.250100590023946
 20
7.84363939067029
 30
0.0
 11
7.240133411740174
 21
8.833672212386517
 31
0.0
  0
LINE
  5
3940
330
37B6
100
AcDbEntity
  8
0
 62
     0
100
AcDbLine
 10
8.18244873274989
 20
10.22500033944965
 30
0.0
 11
9.058605820877602
 21
11.10115742757736
 31
0.0
  0
LINE
  5
3941
330
37B6
100
AcDbEntity
  8
0
 62
     0
100
AcDbLine
 10
6.044366627748161
 20
8.086918234447892
 30
0.0
 11
7.075184971096205
 21
9.117736577795966
 31
0.0
  0
LINE
  5
3942
330
37B6
100
AcDbEntity
  8
0
 62
     0
100
AcDbLine
 10
7.733435926696472
 20
10.22500033944967
 30
0.0
 11
9.01532637099703
 21
11.50689078375026
 31
0.0
  0
LINE
  5
3943
330
37B6
100
AcDbEntity
  8
0
 62
     0
100
AcDbLine
 10
5.874136324616928
 20
8.365700737370133
 30
0.0
 11
7.046105820877585
 21
9.537670233630819
 31
0.0
  0
LINE
  5
3944
330
37B6
100
AcDbEntity
  8
0
 62
     0
100
AcDbLine
 10
7.283189796057911
 20
10.22376701486459
 30
0.0
 11
8.684423120643003
 21
11.62500033944968
 31
0.0
  0
LINE
  5
3945
330
37B6
100
AcDbEntity
  8
0
 62
     0
100
AcDbLine
 10
5.743789676750878
 20
8.684366895557557
 30
0.0
 11
7.047339145462673
 21
9.987916364269381
 31
0.0
  0
LINE
  5
3946
330
37B6
100
AcDbEntity
  8
0
 62
     0
100
AcDbLine
 10
5.662883695626844
 20
9.052473720486972
 30
0.0
 11
8.235410314589557
 21
11.62500033944968
 31
0.0
  0
LINE
  5
3947
330
37B6
100
AcDbEntity
  8
0
 62
     0
100
AcDbLine
 10
5.646105820877607
 20
9.484708651791178
 30
0.0
 11
7.786397508536082
 21
11.62500033944968
 31
0.0
  0
LINE
  5
3948
330
37B6
100
AcDbEntity
  8
0
 62
     0
100
AcDbLine
 10
5.646105820877579
 20
9.933721457844654
 30
0.0
 11
7.337384702482637
 21
11.62500033944968
 31
0.0
  0
LINE
  5
3949
330
37B6
100
AcDbEntity
  8
0
 62
     0
100
AcDbLine
 10
5.656201826096746
 20
10.39283026911727
 30
0.0
 11
6.878275891210051
 21
11.61490433423057
 31
0.0
  0
ENDBLK
  5
394B
330
37B6
100
AcDbEntity
  8
0
100
AcDbBlockEnd
  0
BLOCK
  5
8708
330
86FE
100
AcDbEntity
  8
0
100
AcDbBlockBegin
  2
*D2
 70
     1
 10
0.0
 20
0.0
 30
0.0
  3
*D2
  1

  0
LINE
  5
8D41
330
86FE
100
AcDbEntity
  8
SUNPOU
100
AcDbLine
 10
124.6613573193614
 20
203.1522684133416
 30
0.0
 11
124.6613573193614
 21
223.4186569804568
 31
0.0
  0
LINE
  5
8D42
330
86FE
100
AcDbEntity
  8
SUNPOU
100
AcDbLine
 10
104.6613573193614
 20
118.4521684133416
 30
0.0
 11
104.6613573193614
 21
223.4186569804568
 31
0.0
  0
LINE
  5
8D43
330
86FE
100
AcDbEntity
  8
SUNPOU
100
AcDbLine
 10
121.6613573193614
 20
221.9186569804568
 30
0.0
 11
107.6613573193614
 21
221.9186569804568
 31
0.0
  0
INSERT
  5
8D44
330
86FE
100
AcDbEntity
  8
SUNPOU
100
AcDbBlockReference
  2
_OPEN
 10
124.6613573193614
 20
221.9186569804568
 30
0.0
 41
3.0
 42
3.0
 43
3.0
  0
INSERT
  5
8D45
330
86FE
100
AcDbEntity
  8
SUNPOU
100
AcDbBlockReference
  2
_OPEN
 10
104.6613573193614
 20
221.9186569804568
 30
0.0
 41
3.0
 42
3.0
 43
3.0
 50
180.0
  0
MTEXT
  5
8D46
330
86FE
100
AcDbEntity
  8
SUNPOU
100
AcDbMText
 10
114.6613573193614
 20
225.9186569804569
 30
0.0
 40
4.0
 41
0.0
 71
     5
 72
     5
  1
\A1;20
 73
     1
 44
1.0
1001
ACAD
1000
MTEXTBEGIN
1070
    73
1070
     1
1070
    44
1040
1.0
1070
    74
1070
     0
1000
MTEXTEND
  0
POINT
  5
8D47
330
86FE
100
AcDbEntity
  8
DEFPOINTS
 62
     0
100
AcDbPoint
 10
124.6613573193614
 20
201.6522684133416
 30
0.0
  0
POINT
  5
8D48
330
86FE
100
AcDbEntity
  8
DEFPOINTS
 62
     0
100
AcDbPoint
 10
104.6613573193614
 20
116.9521684133416
 30
0.0
  0
POINT
  5
8D49
330
86FE
100
AcDbEntity
  8
DEFPOINTS
 62
     0
100
AcDbPoint
 10
104.6613573193614
 20
221.9186569804568
 30
0.0
  0
ENDBLK
  5
8709
330
86FE
100
AcDbEntity
  8
0
100
AcDbBlockEnd
  0
BLOCK
  5
8714
330
870A
100
AcDbEntity
  8
0
100
AcDbBlockBegin
  2
*D3
 70
     1
 10
0.0
 20
0.0
 30
0.0
  3
*D3
  1

  0
LINE
  5
8D38
330
870A
100
AcDbEntity
  8
SUNPOU
100
AcDbLine
 10
104.6613573193614
 20
118.4521684133416
 30
0.0
 11
104.6613573193614
 21
232.4209807925631
 31
0.0
  0
LINE
  5
8D39
330
870A
100
AcDbEntity
  8
SUNPOU
100
AcDbLine
 10
153.6613573193614
 20
120.4521684133417
 30
0.0
 11
153.6613573193614
 21
232.4209807925631
 31
0.0
  0
LINE
  5
8D3A
330
870A
100
AcDbEntity
  8
SUNPOU
100
AcDbLine
 10
107.6613573193614
 20
230.9209807925631
 30
0.0
 11
150.6613573193614
 21
230.9209807925631
 31
0.0
  0
INSERT
  5
8D3B
330
870A
100
AcDbEntity
  8
SUNPOU
100
AcDbBlockReference
  2
_OPEN
 10
104.6613573193614
 20
230.9209807925631
 30
0.0
 41
3.0
 42
3.0
 43
3.0
 50
180.0
  0
INSERT
  5
8D3C
330
870A
100
AcDbEntity
  8
SUNPOU
100
AcDbBlockReference
  2
_OPEN
 10
153.6613573193614
 20
230.9209807925631
 30
0.0
 41
3.0
 42
3.0
 43
3.0
  0
MTEXT
  5
8D3D
330
870A
100
AcDbEntity
  8
SUNPOU
100
AcDbMText
 10
129.1613573193614
 20
234.9209807925631
 30
0.0
 40
4.0
 41
0.0
 71
     5
 72
     5
  1
\A1;49
 73
     1
 44
1.0
1001
ACAD
1000
MTEXTBEGIN
1070
    73
1070
     1
1070
    44
1040
1.0
1070
    74
1070
     0
1000
MTEXTEND
  0
POINT
  5
8D3E
330
870A
100
AcDbEntity
  8
DEFPOINTS
 62
     0
100
AcDbPoint
 10
104.6613573193614
 20
116.9521684133416
 30
0.0
  0
POINT
  5
8D3F
330
870A
100
AcDbEntity
  8
DEFPOINTS
 62
     0
100
AcDbPoint
 10
153.6613573193614
 20
118.9521684133417
 30
0.0
  0
POINT
  5
8D40
330
870A
100
AcDbEntity
  8
DEFPOINTS
 62
     0
100
AcDbPoint
 10
153.6613573193614
 20
230.9209807925631
 30
0.0
  0
ENDBLK
  5
8715
330
870A
100
AcDbEntity
  8
0
100
AcDbBlockEnd
  0
BLOCK
  5
8720
330
8716
100
AcDbEntity
  8
0
100
AcDbBlockBegin
  2
*D4
 70
     1
 10
0.0
 20
0.0
 30
0.0
  3
*D4
  1

  0
LINE
  5
8D53
330
8716
100
AcDbEntity
  8
SUNPOU
100
AcDbLine
 10
146.6613573193614
 20
81.45216841334169
 30
0.0
 11
146.6613573193614
 21
56.80537605534119
 31
0.0
  0
LINE
  5
8D54
330
8716
100
AcDbEntity
  8
SUNPOU
100
AcDbLine
 10
104.6613573193614
 20
83.45216841334169
 30
0.0
 11
104.6613573193614
 21
56.80537605534119
 31
0.0
  0
LINE
  5
8D55
330
8716
100
AcDbEntity
  8
SUNPOU
100
AcDbLine
 10
143.6613573193614
 20
58.30537605534118
 30
0.0
 11
107.6613573193614
 21
58.30537605534118
 31
0.0
  0
INSERT
  5
8D56
330
8716
100
AcDbEntity
  8
SUNPOU
100
AcDbBlockReference
  2
_OPEN
 10
146.6613573193614
 20
58.30537605534118
 30
0.0
 41
3.0
 42
3.0
 43
3.0
  0
INSERT
  5
8D57
330
8716
100
AcDbEntity
  8
SUNPOU
100
AcDbBlockReference
  2
_OPEN
 10
104.6613573193614
 20
58.30537605534118
 30
0.0
 41
3.0
 42
3.0
 43
3.0
 50
180.0
  0
MTEXT
  5
8D58
330
8716
100
AcDbEntity
  8
SUNPOU
100
AcDbMText
 10
125.6613573193614
 20
62.30537605534118
 30
0.0
 40
4.0
 41
0.0
 71
     5
 72
     5
  1
\A1;42
 73
     1
 44
1.0
1001
ACAD
1000
MTEXTBEGIN
1070
    73
1070
     1
1070
    44
1040
1.0
1070
    74
1070
     0
1000
MTEXTEND
  0
POINT
  5
8D59
330
8716
100
AcDbEntity
  8
DEFPOINTS
 62
     0
100
AcDbPoint
 10
146.6613573193614
 20
82.9521684133417
 30
0.0
  0
POINT
  5
8D5A
330
8716
100
AcDbEntity
  8
DEFPOINTS
 62
     0
100
AcDbPoint
 10
104.6613573193614
 20
84.95216841334169
 30
0.0
  0
POINT
  5
8D5B
330
8716
100
AcDbEntity
  8
DEFPOINTS
 62
     0
100
AcDbPoint
 10
104.6613573193614
 20
58.30537605534118
 30
0.0
  0
ENDBLK
  5
8721
330
8716
100
AcDbEntity
  8
0
100
AcDbBlockEnd
  0
BLOCK
  5
873A
330
872E
100
AcDbEntity
  8
0
100
AcDbBlockBegin
  2
*D5
 70
     1
 10
0.0
 20
0.0
 30
0.0
  3
*D5
  1

  0
LINE
  5
8D5C
330
872E
100
AcDbEntity
  8
SUNPOU
100
AcDbLine
 10
108.1613573193614
 20
83.95216841334169
 30
0.0
 11
121.839912442168
 21
83.95216841334169
 31
0.0
  0
LINE
  5
8D5D
330
872E
100
AcDbEntity
  8
SUNPOU
100
AcDbLine
 10
108.1613573193614
 20
82.9521684133417
 30
0.0
 11
121.839912442168
 21
82.9521684133417
 31
0.0
  0
LINE
  5
8D5E
330
872E
100
AcDbEntity
  8
SUNPOU
100
AcDbLine
 10
120.339912442168
 20
86.9521684133417
 30
0.0
 11
120.339912442168
 21
89.95216841334169
 31
0.0
  0
LINE
  5
8D5F
330
872E
100
AcDbEntity
  8
SUNPOU
100
AcDbLine
 10
120.339912442168
 20
79.95216841334169
 30
0.0
 11
120.339912442168
 21
62.9521684133417
 31
0.0
  0
INSERT
  5
8D60
330
872E
100
AcDbEntity
  8
SUNPOU
100
AcDbBlockReference
  2
_OPEN
 10
120.339912442168
 20
83.95216841334169
 30
0.0
 41
3.0
 42
3.0
 43
3.0
 50
270.0
  0
INSERT
  5
8D61
330
872E
100
AcDbEntity
  8
SUNPOU
100
AcDbBlockReference
  2
_OPEN
 10
120.339912442168
 20
82.9521684133417
 30
0.0
 41
3.0
 42
3.0
 43
3.0
 50
90.0
  0
MTEXT
  5
8D62
330
872E
100
AcDbEntity
  8
SUNPOU
100
AcDbMText
 10
116.339912442168
 20
69.95216841334171
 30
0.0
 40
4.0
 41
0.0
 71
     5
 72
     5
  1
\A1;t1.0
 11
0.0000000000000001
 21
1.0
 31
0.0
 73
     1
 44
1.0
1001
ACAD
1000
MTEXTBEGIN
1070
    73
1070
     1
1070
    44
1040
1.0
1070
    74
1070
     0
1000
MTEXTEND
  0
POINT
  5
8D63
330
872E
100
AcDbEntity
  8
DEFPOINTS
 62
     0
100
AcDbPoint
 10
106.6613573193614
 20
83.95216841334169
 30
0.0
  0
POINT
  5
8D64
330
872E
100
AcDbEntity
  8
DEFPOINTS
 62
     0
100
AcDbPoint
 10
106.6613573193614
 20
82.9521684133417
 30
0.0
  0
POINT
  5
8D65
330
872E
100
AcDbEntity
  8
DEFPOINTS
 62
     0
100
AcDbPoint
 10
120.339912442168
 20
82.9521684133417
 30
0.0
  0
ENDBLK
  5
873B
330
872E
100
AcDbEntity
  8
0
100
AcDbBlockEnd
  0
BLOCK
  5
8746
330
873C
100
AcDbEntity
  8
0
100
AcDbBlockBegin
  2
*D6
 70
     1
 10
0.0
 20
0.0
 30
0.0
  3
*D6
  1

  0
LINE
  5
8D4A
330
873C
100
AcDbEntity
  8
SUNPOU
100
AcDbLine
 10
146.1613573193614
 20
115.9521684133416
 30
0.0
 11
178.8034896731482
 21
115.9521684133416
 31
0.0
  0
LINE
  5
8D4B
330
873C
100
AcDbEntity
  8
SUNPOU
100
AcDbLine
 10
137.1613573193614
 20
87.95172811344164
 30
0.0
 11
178.8034896731482
 21
87.95172811344164
 31
0.0
  0
LINE
  5
8D4C
330
873C
100
AcDbEntity
  8
SUNPOU
100
AcDbLine
 10
177.3034896731482
 20
112.9521684133416
 30
0.0
 11
177.3034896731482
 21
90.95172811344163
 31
0.0
  0
INSERT
  5
8D4D
330
873C
100
AcDbEntity
  8
SUNPOU
100
AcDbBlockReference
  2
_OPEN
 10
177.3034896731482
 20
115.9521684133416
 30
0.0
 41
3.0
 42
3.0
 43
3.0
 50
90.0
  0
INSERT
  5
8D4E
330
873C
100
AcDbEntity
  8
SUNPOU
100
AcDbBlockReference
  2
_OPEN
 10
177.3034896731482
 20
87.95172811344164
 30
0.0
 41
3.0
 42
3.0
 43
3.0
 50
270.0
  0
MTEXT
  5
8D4F
330
873C
100
AcDbEntity
  8
SUNPOU
100
AcDbMText
 10
173.3034896731482
 20
101.9519482633916
 30
0.0
 40
4.0
 41
0.0
 71
     5
 72
     5
  1
\A1;28
 11
0.0000000000000001
 21
1.0
 31
0.0
 73
     1
 44
1.0
1001
ACAD
1000
MTEXTBEGIN
1070
    73
1070
     1
1070
    44
1040
1.0
1070
    74
1070
     0
1000
MTEXTEND
  0
POINT
  5
8D50
330
873C
100
AcDbEntity
  8
DEFPOINTS
 62
     0
100
AcDbPoint
 10
144.6613573193614
 20
115.9521684133416
 30
0.0
  0
POINT
  5
8D51
330
873C
100
AcDbEntity
  8
DEFPOINTS
 62
     0
100
AcDbPoint
 10
135.6613573193614
 20
87.95172811344164
 30
0.0
  0
POINT
  5
8D52
330
873C
100
AcDbEntity
  8
DEFPOINTS
 62
     0
100
AcDbPoint
 10
177.3034896731482
 20
87.95172811344164
 30
0.0
  0
ENDBLK
  5
8747
330
873C
100
AcDbEntity
  8
0
100
AcDbBlockEnd
  0
BLOCK
  5
878F
330
8785
100
AcDbEntity
  8
0
100
AcDbBlockBegin
  2
*D7
 70
     1
 10
0.0
 20
0.0
 30
0.0
  3
*D7
  1

  0
LINE
  5
8D6F
330
8785
100
AcDbEntity
  8
SUNPOU
100
AcDbLine
 10
270.3383659287059
 20
193.9520997249515
 30
0.0
 11
216.6255779819958
 21
193.9520997249515
 31
0.0
  0
LINE
  5
8D70
330
8785
100
AcDbEntity
  8
SUNPOU
100
AcDbLine
 10
260.3107573936475
 20
118.9521684133417
 30
0.0
 11
216.6255779819958
 21
118.9521684133417
 31
0.0
  0
LINE
  5
8D71
330
8785
100
AcDbEntity
  8
SUNPOU
100
AcDbLine
 10
218.1255779819958
 20
190.9520997249515
 30
0.0
 11
218.1255779819958
 21
121.9521684133417
 31
0.0
  0
INSERT
  5
8D72
330
8785
100
AcDbEntity
  8
SUNPOU
100
AcDbBlockReference
  2
_OPEN
 10
218.1255779819958
 20
193.9520997249515
 30
0.0
 41
3.0
 42
3.0
 43
3.0
 50
90.0
  0
INSERT
  5
8D73
330
8785
100
AcDbEntity
  8
SUNPOU
100
AcDbBlockReference
  2
_OPEN
 10
218.1255779819958
 20
118.9521684133417
 30
0.0
 41
3.0
 42
3.0
 43
3.0
 50
270.0
  0
MTEXT
  5
8D74
330
8785
100
AcDbEntity
  8
SUNPOU
100
AcDbMText
 10
214.1255779819958
 20
156.4521340691466
 30
0.0
 40
4.0
 41
0.0
 71
     5
 72
     5
  1
\A1;75
 11
0.0000000000000001
 21
1.0
 31
0.0
 73
     1
 44
1.0
1001
ACAD
1000
MTEXTBEGIN
1070
    73
1070
     1
1070
    44
1040
1.0
1070
    74
1070
     0
1000
MTEXTEND
  0
POINT
  5
8D75
330
8785
100
AcDbEntity
  8
DEFPOINTS
 62
     0
100
AcDbPoint
 10
271.8383659287059
 20
193.9520997249515
 30
0.0
  0
POINT
  5
8D76
330
8785
100
AcDbEntity
  8
DEFPOINTS
 62
     0
100
AcDbPoint
 10
261.8107573936475
 20
118.9521684133417
 30
0.0
  0
POINT
  5
8D77
330
8785
100
AcDbEntity
  8
DEFPOINTS
 62
     0
100
AcDbPoint
 10
218.1255779819958
 20
118.9521684133417
 30
0.0
  0
ENDBLK
  5
8790
330
8785
100
AcDbEntity
  8
0
100
AcDbBlockEnd
  0
BLOCK
  5
87A7
330
879D
100
AcDbEntity
  8
0
100
AcDbBlockBegin
  2
*D8
 70
     1
 10
0.0
 20
0.0
 30
0.0
  3
*D8
  1

  0
LINE
  5
8D2F
330
879D
100
AcDbEntity
  8
SUNPOU
100
AcDbLine
 10
270.3383659287059
 20
193.9520997249515
 30
0.0
 11
205.9910960118503
 21
193.9520997249515
 31
0.0
  0
LINE
  5
8D30
330
879D
100
AcDbEntity
  8
SUNPOU
100
AcDbLine
 10
260.3383573937474
 20
82.9521684133417
 30
0.0
 11
205.9910960118503
 21
82.95216841334172
 31
0.0
  0
LINE
  5
8D31
330
879D
100
AcDbEntity
  8
SUNPOU
100
AcDbLine
 10
207.4910960118503
 20
190.9520997249515
 30
0.0
 11
207.4910960118503
 21
85.9521684133417
 31
0.0
  0
INSERT
  5
8D32
330
879D
100
AcDbEntity
  8
SUNPOU
100
AcDbBlockReference
  2
_OPEN
 10
207.4910960118503
 20
193.9520997249515
 30
0.0
 41
3.0
 42
3.0
 43
3.0
 50
90.0
  0
INSERT
  5
8D33
330
879D
100
AcDbEntity
  8
SUNPOU
100
AcDbBlockReference
  2
_OPEN
 10
207.4910960118503
 20
82.95216841334172
 30
0.0
 41
3.0
 42
3.0
 43
3.0
 50
270.0
  0
MTEXT
  5
8D34
330
879D
100
AcDbEntity
  8
SUNPOU
100
AcDbMText
 10
203.4910960118503
 20
138.4521340691466
 30
0.0
 40
4.0
 41
0.0
 71
     5
 72
     5
  1
\A1;111
 11
0.0000000000000001
 21
1.0
 31
0.0
 73
     1
 44
1.0
1001
ACAD
1000
MTEXTBEGIN
1070
    73
1070
     1
1070
    44
1040
1.0
1070
    74
1070
     0
1000
MTEXTEND
  0
POINT
  5
8D35
330
879D
100
AcDbEntity
  8
DEFPOINTS
 62
     0
100
AcDbPoint
 10
271.8383659287059
 20
193.9520997249515
 30
0.0
  0
POINT
  5
8D36
330
879D
100
AcDbEntity
  8
DEFPOINTS
 62
     0
100
AcDbPoint
 10
261.8383573937475
 20
82.9521684133417
 30
0.0
  0
POINT
  5
8D37
330
879D
100
AcDbEntity
  8
DEFPOINTS
 62
     0
100
AcDbPoint
 10
207.4910960118503
 20
82.95216841334172
 30
0.0
  0
ENDBLK
  5
87A8
330
879D
100
AcDbEntity
  8
0
100
AcDbBlockEnd
  0
BLOCK
  5
87B3
330
87A9
100
AcDbEntity
  8
0
100
AcDbBlockBegin
  2
*D9
 70
     1
 10
0.0
 20
0.0
 30
0.0
  3
*D9
  1

  0
LINE
  5
8D78
330
87A9
100
AcDbEntity
  8
SUNPOU
100
AcDbLine
 10
261.8383573937475
 20
81.45216841334169
 30
0.0
 11
261.8383573937475
 21
56.80537605534119
 31
0.0
  0
LINE
  5
8D79
330
87A9
100
AcDbEntity
  8
SUNPOU
100
AcDbLine
 10
281.8383573937475
 20
81.45216841334166
 30
0.0
 11
281.8383573937475
 21
56.80537605534119
 31
0.0
  0
LINE
  5
8D7A
330
87A9
100
AcDbEntity
  8
SUNPOU
100
AcDbLine
 10
264.8383573937475
 20
58.30537605534118
 30
0.0
 11
278.8383573937474
 21
58.30537605534118
 31
0.0
  0
INSERT
  5
8D7B
330
87A9
100
AcDbEntity
  8
SUNPOU
100
AcDbBlockReference
  2
_OPEN
 10
261.8383573937475
 20
58.30537605534118
 30
0.0
 41
3.0
 42
3.0
 43
3.0
 50
180.0
  0
INSERT
  5
8D7C
330
87A9
100
AcDbEntity
  8
SUNPOU
100
AcDbBlockReference
  2
_OPEN
 10
281.8383573937475
 20
58.30537605534118
 30
0.0
 41
3.0
 42
3.0
 43
3.0
  0
MTEXT
  5
8D7D
330
87A9
100
AcDbEntity
  8
SUNPOU
100
AcDbMText
 10
271.8383573937475
 20
62.30537605534118
 30
0.0
 40
4.0
 41
0.0
 71
     5
 72
     5
  1
\A1;20
 73
     1
 44
1.0
1001
ACAD
1000
MTEXTBEGIN
1070
    73
1070
     1
1070
    44
1040
1.0
1070
    74
1070
     0
1000
MTEXTEND
  0
POINT
  5
8D7E
330
87A9
100
AcDbEntity
  8
DEFPOINTS
 62
     0
100
AcDbPoint
 10
261.8383573937475
 20
82.9521684133417
 30
0.0
  0
POINT
  5
8D7F
330
87A9
100
AcDbEntity
  8
DEFPOINTS
 62
     0
100
AcDbPoint
 10
281.8383573937475
 20
82.95216841334166
 30
0.0
  0
POINT
  5
8D80
330
87A9
100
AcDbEntity
  8
DEFPOINTS
 62
     0
100
AcDbPoint
 10
281.8383573937475
 20
58.30537605534118
 30
0.0
  0
ENDBLK
  5
87B4
330
87A9
100
AcDbEntity
  8
0
100
AcDbBlockEnd
  0
BLOCK
  5
87BF
330
87B5
100
AcDbEntity
  8
0
100
AcDbBlockBegin
  2
*D10
 70
     1
 10
0.0
 20
0.0
 30
0.0
  3
*D10
  1

  0
LINE
  5
8D87
330
87B5
100
AcDbEntity
  8
SUNPOU
100
AcDbLine
 10
238.838345928379
 20
162.4520797246246
 30
0.0
 11
238.838345928379
 21
214.6571433602423
 31
0.0
  0
LINE
  5
8D88
330
87B5
100
AcDbEntity
  8
SUNPOU
100
AcDbLine
 10
304.8383859290328
 20
162.4520797246246
 30
0.0
 11
304.8383859290328
 21
214.6571433602423
 31
0.0
  0
LINE
  5
8D89
330
87B5
100
AcDbEntity
  8
SUNPOU
100
AcDbLine
 10
241.838345928379
 20
213.1571433602423
 30
0.0
 11
301.8383859290328
 21
213.1571433602423
 31
0.0
  0
INSERT
  5
8D8A
330
87B5
100
AcDbEntity
  8
SUNPOU
100
AcDbBlockReference
  2
_OPEN
 10
238.838345928379
 20
213.1571433602423
 30
0.0
 41
3.0
 42
3.0
 43
3.0
 50
180.0
  0
INSERT
  5
8D8B
330
87B5
100
AcDbEntity
  8
SUNPOU
100
AcDbBlockReference
  2
_OPEN
 10
304.8383859290328
 20
213.1571433602423
 30
0.0
 41
3.0
 42
3.0
 43
3.0
  0
MTEXT
  5
8D8C
330
87B5
100
AcDbEntity
  8
SUNPOU
100
AcDbMText
 10
271.8383659287059
 20
217.1571433602423
 30
0.0
 40
4.0
 41
0.0
 71
     5
 72
     5
  1
\A1;66
 73
     1
 44
1.0
1001
ACAD
1000
MTEXTBEGIN
1070
    73
1070
     1
1070
    44
1040
1.0
1070
    74
1070
     0
1000
MTEXTEND
  0
POINT
  5
8D8D
330
87B5
100
AcDbEntity
  8
DEFPOINTS
 62
     0
100
AcDbPoint
 10
238.838345928379
 20
160.9520797246246
 30
0.0
  0
POINT
  5
8D8E
330
87B5
100
AcDbEntity
  8
DEFPOINTS
 62
     0
100
AcDbPoint
 10
304.8383859290328
 20
160.9520797246246
 30
0.0
  0
POINT
  5
8D8F
330
87B5
100
AcDbEntity
  8
DEFPOINTS
 62
     0
100
AcDbPoint
 10
304.8383859290328
 20
213.1571433602423
 30
0.0
  0
ENDBLK
  5
87C0
330
87B5
100
AcDbEntity
  8
0
100
AcDbBlockEnd
  0
BLOCK
  5
8A55
330
8A4B
100
AcDbEntity
  8
0
100
AcDbBlockBegin
  2
*D11
 70
     1
 10
0.0
 20
0.0
 30
0.0
  3
*D11
  1

  0
LINE
  5
8D66
330
8A4B
100
AcDbEntity
  8
SUNPOU
100
AcDbLine
 10
155.1613566041057
 20
118.9521696575885
 30
0.0
 11
187.019999883238
 21
118.9521696575885
 31
0.0
  0
LINE
  5
8D67
330
8A4B
100
AcDbEntity
  8
SUNPOU
100
AcDbLine
 10
148.1613573193614
 20
82.9521684133417
 30
0.0
 11
187.019999883238
 21
82.95216841334168
 31
0.0
  0
LINE
  5
8D68
330
8A4B
100
AcDbEntity
  8
SUNPOU
100
AcDbLine
 10
185.519999883238
 20
115.9521696575885
 30
0.0
 11
185.519999883238
 21
85.95216841334169
 31
0.0
  0
INSERT
  5
8D69
330
8A4B
100
AcDbEntity
  8
SUNPOU
100
AcDbBlockReference
  2
_OPEN
 10
185.519999883238
 20
118.9521696575885
 30
0.0
 41
3.0
 42
3.0
 43
3.0
 50
90.0
  0
INSERT
  5
8D6A
330
8A4B
100
AcDbEntity
  8
SUNPOU
100
AcDbBlockReference
  2
_OPEN
 10
185.519999883238
 20
82.95216841334168
 30
0.0
 41
3.0
 42
3.0
 43
3.0
 50
270.0
  0
MTEXT
  5
8D6B
330
8A4B
100
AcDbEntity
  8
SUNPOU
100
AcDbMText
 10
181.519999883238
 20
100.9521690354651
 30
0.0
 40
4.0
 41
0.0
 71
     5
 72
     5
  1
\A1;36
 11
0.0000000000000001
 21
1.0
 31
0.0
 73
     1
 44
1.0
1001
ACAD
1000
MTEXTBEGIN
1070
    73
1070
     1
1070
    44
1040
1.0
1070
    74
1070
     0
1000
MTEXTEND
  0
POINT
  5
8D6C
330
8A4B
100
AcDbEntity
  8
DEFPOINTS
 62
     0
100
AcDbPoint
 10
153.6613566041057
 20
118.9521696575885
 30
0.0
  0
POINT
  5
8D6D
330
8A4B
100
AcDbEntity
  8
DEFPOINTS
 62
     0
100
AcDbPoint
 10
146.6613573193614
 20
82.9521684133417
 30
0.0
  0
POINT
  5
8D6E
330
8A4B
100
AcDbEntity
  8
DEFPOINTS
 62
     0
100
AcDbPoint
 10
185.519999883238
 20
82.95216841334168
 30
0.0
  0
ENDBLK
  5
8A56
330
8A4B
100
AcDbEntity
  8
0
100
AcDbBlockEnd
  0
BLOCK
  5
8A7A
330
8A74
100
AcDbEntity
  8
0
100
AcDbBlockBegin
  2
*D12
 70
     1
 10
0.0
 20
0.0
 30
0.0
  3
*D12
  1

  0
LINE
  5
8E6C
330
8A74
100
AcDbEntity
  8
SUNPOU
100
AcDbLine
 10
248.3999866164951
 20
147.5489660850639
 30
0.0
 11
295.2767452409168
 21
174.3551933641855
 31
0.0
  0
MTEXT
  5
8E6D
330
8A74
100
AcDbEntity
  8
SUNPOU
100
AcDbMText
 10
279.5986922871214
 20
170.2227006744591
 30
0.0
 40
4.0
 41
0.0
 71
     5
 72
     5
  1
\A1;\U+220560
 11
0.8680874796362022
 21
0.4964112485619827
 31
0.0
 73
     1
 44
1.0
1001
ACAD
1000
MTEXTBEGIN
1070
    73
1070
     1
1070
    44
1040
1.0
1070
    74
1070
     0
1000
MTEXTEND
  0
INSERT
  5
8E6E
330
8A74
100
AcDbEntity
  8
SUNPOU
100
AcDbBlockReference
  2
_OPEN
 10
245.7957241775865
 20
146.059732339378
 30
0.0
 41
3.0
 42
3.0
 43
3.0
 50
209.7628527882584
  0
INSERT
  5
8E6F
330
8A74
100
AcDbEntity
  8
SUNPOU
100
AcDbBlockReference
  2
_OPEN
 10
297.8810076798254
 20
175.8444271098714
 30
0.0
 41
3.0
 42
3.0
 43
3.0
 50
29.76285278825836
  0
POINT
  5
8E70
330
8A74
100
AcDbEntity
  8
DEFPOINTS
 62
     0
100
AcDbPoint
 10
297.8810076798254
 20
175.8444271098714
 30
0.0
  0
POINT
  5
8E71
330
8A74
100
AcDbEntity
  8
DEFPOINTS
 62
     0
100
AcDbPoint
 10
245.7957241775865
 20
146.059732339378
 30
0.0
  0
ENDBLK
  5
8A7B
330
8A74
100
AcDbEntity
  8
0
100
AcDbBlockEnd
  0
ENDSEC
  0
SECTION
  2
ENTITIES
  0
LWPOLYLINE
  5
3B1A
330
1A
100
AcDbEntity
  8
ZUWAKU
100
AcDbPolyline
 90
        4
 70
     1
 43
0.0
 10
0.4000002112909442
 20
275.4000003333167
 10
0.4000002112909442
 20
0.4000003333167684
 10
398.4000002112909
 20
0.4000003333167684
 10
398.4000002112909
 20
275.4000003333167
  0
LWPOLYLINE
  5
3B1B
330
1A
100
AcDbEntity
  8
ZUWAKU
100
AcDbPolyline
 90
        4
 70
     1
 43
0.0
 10
0.2000002112910124
 20
275.6000003333167
 10
0.2000002112910124
 20
0.2000003333167797
 10
398.6000002112908
 20
0.2000003333167655
 10
398.6000002112908
 20
275.6000003333167
  0
LWPOLYLINE
  5
3B1C
330
1A
100
AcDbEntity
  8
ZUWAKU
100
AcDbPolyline
 90
        4
 70
     1
 43
0.0
 10
0.0000002112909669
 20
275.8000003333167
 10
0.0000002112909669
 20
0.0000003333167342
 10
398.8000002112912
 20
0.0000003333167697
 10
398.8000002112912
 20
275.8000003333167
  0
LWPOLYLINE
  5
3B1D
330
1A
100
AcDbEntity
  8
ZUWAKU
100
AcDbPolyline
 90
        4
 70
     1
 43
0.0
 10
0.3000002112909215
 20
275.5000003333167
 10
0.3000002112909215
 20
0.3000003333167456
 10
398.5000002112909
 20
0.3000003333167669
 10
398.5000002112909
 20
275.5000003333167
  0
LWPOLYLINE
  5
3B1E
330
1A
100
AcDbEntity
  8
ZUWAKU
100
AcDbPolyline
 90
        4
 70
     1
 43
0.0
 10
0.100000211290876
 20
275.7000003333167
 10
0.100000211290876
 20
0.1000003333167569
 10
398.7000002112907
 20
0.1000003333167712
 10
398.7000002112909
 20
275.7000003333167
  0
LINE
  5
3B1F
330
1A
100
AcDbEntity
  8
ZUWAKU
100
AcDbLine
 10
0.0000002112909669
 20
15.00000033331673
 30
0.0
 11
398.7000002112907
 21
15.00000033331673
 31
0.0
  0
LINE
  5
3B20
330
1A
100
AcDbEntity
  8
ZUWAKU
100
AcDbLine
 10
0.0000002112909669
 20
15.10000033331675
 30
0.0
 11
398.7000002112907
 21
15.10000033331675
 31
0.0
  0
LINE
  5
3B21
330
1A
100
AcDbEntity
  8
ZUWAKU
100
AcDbLine
 10
0.0000002112909669
 20
15.20000033331672
 30
0.0
 11
398.7000002112907
 21
15.20000033331672
 31
0.0
  0
LINE
  5
3B22
330
1A
100
AcDbEntity
  8
ZUWAKU
100
AcDbLine
 10
0.0000002112909669
 20
15.30000033331674
 30
0.0
 11
398.7000002112907
 21
15.30000033331674
 31
0.0
  0
LINE
  5
3B23
330
1A
100
AcDbEntity
  8
ZUWAKU
100
AcDbLine
 10
0.0000002112909669
 20
15.40000033331671
 30
0.0
 11
398.7000002112907
 21
15.40000033331671
 31
0.0
  0
LINE
  5
3B24
330
1A
100
AcDbEntity
  8
ZUWAKU
100
AcDbLine
 10
104.3233008563249
 20
7.700000333316777
 30
0.0
 11
223.7121821967865
 21
7.700000333316777
 31
0.0
  0
LINE
  5
3B25
330
1A
100
AcDbEntity
  8
ZUWAKU
100
AcDbLine
 10
104.3233008563249
 20
7.800000333316744
 30
0.0
 11
223.7121821967865
 21
7.800000333316744
 31
0.0
  0
LINE
  5
3B26
330
1A
100
AcDbEntity
  8
ZUWAKU
100
AcDbLine
 10
104.3233008563249
 20
7.600000333316755
 30
0.0
 11
223.7121821967865
 21
7.600000333316755
 31
0.0
  0
ARC
  5
3B30
330
1A
100
AcDbEntity
  8
ZUWAKU
100
AcDbCircle
 10
7.046106288681471
 20
10.22500033331675
 30
0.0
 40
1.399999999999999
100
AcDbArc
 50
90.0
 51
180.0
  0
ARC
  5
3B31
330
1A
100
AcDbEntity
  8
ZUWAKU
100
AcDbCircle
 10
6.171106288681471
 20
4.712500333316711
 30
0.0
 40
0.2625
100
AcDbArc
 50
90.0
 51
180.0
  0
ARC
  5
3B32
330
1A
100
AcDbEntity
  8
ZUWAKU
100
AcDbCircle
 10
6.171106288681471
 20
3.837500333316711
 30
0.0
 40
0.2625
100
AcDbArc
 50
180.0
 51
270.0
  0
ARC
  5
3B33
330
1A
100
AcDbEntity
  8
ZUWAKU
100
AcDbCircle
 10
7.746106288681517
 20
9.317399320639085
 30
0.0
 40
2.099999999999999
100
AcDbArc
 50
180.0
 51
224.9999999999997
  0
INSERT
  5
3B34
330
1A
100
AcDbEntity
  8
ZUWAKU
  6
Continuous
100
AcDbBlockReference
  2
*X1
 10
0.0000004678039431
 20
-0.0000000061329501
 30
0.0
1001
ACAD
1000
HATCH
1002
{
1070
    19
1000
ANSI37
1040
0.1
1040
0.0
1000
R14_HATCH_DATA
1000
585
1011
1.000000467803942
1021
-0.0000000061329501
1031
0.0
1011
0.0000004678039431
1021
0.9999999938670498
1031
0.0
1011
0.0000004678039431
1021
-0.0000000061329501
1031
1.0
1040
0.0
1010
0.0
1020
0.0
1030
1.0
1000
ANSI37
1070
     0
1070
     0
1071
        8
1071
        7
1070
     1
1070
     1
1071
       24
1040
7.251131074046952
1040
8.822424579941474
1040
-0.1989123673796348
1040
7.046105820877585
1040
9.317399326771999
1040
0.0
1040
7.046105820877585
1040
9.96250033944969
1040
-0.4142135623730912
1040
7.308605820877572
1040
10.22500033944968
1040
0.0
1040
8.796105820877526
1040
10.22500033944968
1040
0.4142135623731546
1040
9.058605820877572
1040
10.48750033944968
1040
0.0
1040
9.058605820877572
1040
11.36250033944968
1040
0.4142135623731586
1040
8.796105820877526
1040
11.62500033944968
1040
0.0
1040
7.046105820877585
1040
11.62500033944968
1040
0.4142135623730928
1040
5.646105820877607
1040
10.2250003394497
1040
0.0
1040
5.646105820877607
1040
9.317399326772063
1040
0.1989123673796619
1040
6.261181580385821
1040
7.832475086280261
1040
0.0
1040
7.716080567708161
1040
6.377576098957932
1040
-0.1989123673796613
1040
7.921105820877585
1040
5.882601352127339
1040
0.0
1040
7.921105820877585
1040
5.237500339449681
1040
-0.4142135623730911
1040
7.658605820877595
1040
4.975000339449684
1040
0.0
1040
6.171105820877643
1040
4.975000339449684
1040
0.4142135623731526
1040
5.908605820877595
1040
4.71250033944969
1040
0.0
1040
5.908605820877595
1040
3.837500339449681
1040
0.4142135623731526
1040
6.171105820877643
1040
3.575000339449687
1040
0.0
1040
7.921105820877585
1040
3.575000339449687
1040
0.4142135623731045
1040
9.321105820877619
1040
4.975000339449675
1040
0.0
1040
9.321105820877619
1040
5.882601352127311
1040
0.1989123673796604
1040
8.706030061369347
1040
7.36752559261908
1040
0.0
1071
        0
1071
        7
1070
     1
1070
     1
1071
       16
1040
11.7711058208776
1040
9.52500033944969
1040
-0.4142135623730935
1040
12.47110582087759
1040
10.22500033944968
1040
0.0
1040
13.43360582087757
1040
10.22500033944968
1040
0.4142135623731546
1040
13.69610582087761
1040
10.48750033944968
1040
0.0
1040
13.69610582087761
1040
11.36250033944968
1040
0.4142135623730951
1040
13.43360582087763
1040
11.62500033944968
1040
0.0
1040
12.47110582087754
1040
11.62500033944966
1040
0.4142135623730893
1040
10.37110582087757
1040
9.525000339449654
1040
0.0
1040
10.37110582087757
1040
5.675000339449699
1040
0.4142135623730969
1040
12.47110582087759
1040
3.575000339449687
1040
0.0
1040
13.43360582087757
1040
3.575000339449687
1040
0.4142135623731526
1040
13.69610582087761
1040
3.837500339449681
1040
0.0
1040
13.69610582087761
1040
4.71250033944969
1040
0.4142135623730891
1040
13.43360582087763
1040
4.975000339449684
1040
0.0
1040
12.47110582087759
1040
4.975000339449684
1040
-0.4142135623730928
1040
11.7711058208776
1040
5.675000339449678
1040
0.0
1071
        0
1071
        7
1070
     1
1070
     1
1071
        2
1040
12.12110582087757
1040
7.600000339449684
1040
1.0
1040
13.87110582087757
1040
7.600000339449684
1040
1.0
1071
        0
1071
        7
1070
     1
1070
     1
1071
       26
1040
18.65742906196658
1040
9.602523936231401
1040
0.0
1040
19.18824887853548
1040
11.28345335536619
1040
0.5069206636600134
1040
18.93793342893781
1040
11.62500033944968
1040
0.0
1040
18.08848873913319
1040
11.62500033944968
1040
0.3272098845218764
1040
17.83817328953551
1040
11.44154732353317
1040
0.0
1040
16.90403835221963
1040
8.483453355366226
1040
-0.3272098845219541
1040
16.65372290262189
1040
8.300000339449685
1040
0.0
1040
16.58360582087766
1040
8.300000339449685
1040
-0.4142135623731526
1040
16.32110582087761
1040
8.562500339449679
1040
0.0
1040
16.32110582087761
1040
11.36250033944968
1040
0.4142135623730951
1040
16.05860582087763
1040
11.62500033944968
1040
0.0
1040
15.18360582087757
1040
11.62500033944968
1040
0.4142135623730871
1040
14.92110582087758
1040
11.36250033944969
1040
0.0
1040
14.92110582087758
1040
3.837500339449681
1040
0.4142135623730891
1040
15.18360582087757
1040
3.575000339449687
1040
0.0
1040
16.05860582087757
1040
3.575000339449687
1040
0.4142135623731526
1040
16.32110582087761
1040
3.837500339449681
1040
0.0
1040
16.32110582087761
1040
6.637500339449692
1040
-0.4142135623731526
1040
16.58360582087766
1040
6.900000339449687
1040
0.0
1040
16.65372290262195
1040
6.900000339449687
1040
-0.3272098845218915
1040
16.90403835221963
1040
6.716547323533147
1040
0.0
1040
17.83817328953551
1040
3.758453355366221
1040
0.3272098845218902
1040
18.08848873913319
1040
3.575000339449687
1040
0.0
1040
18.93793342893781
1040
3.575000339449687
1040
0.5069206636600336
1040
19.18824887853548
1040
3.91654732353319
1040
0.0
1040
18.02505318929866
1040
7.600000339449755
1040
0.0
1071
        0
1071
        7
1070
     1
1070
     1
1071
        8
1040
21.74610582087757
1040
11.36250033944969
1040
0.4142135623731546
1040
21.48360582087752
1040
11.62500033944968
1040
0.0
1040
20.60860582087764
1040
11.62500033944968
1040
0.4142135623731507
1040
20.34610582087759
1040
11.36250033944969
1040
0.0
1040
20.34610582087759
1040
3.837500339449681
1040
0.4142135623731526
1040
20.60860582087764
1040
3.575000339449687
1040
0.0
1040
21.48360582087752
1040
3.575000339449687
1040
0.4142135623731526
1040
21.74610582087757
1040
3.837500339449681
1040
0.0
1071
        0
1071
        7
1070
     1
1070
     1
1071
       24
1040
24.19610582087762
1040
9.96250033944969
1040
-0.4142135623731546
1040
24.45860582087766
1040
10.22500033944968
1040
0.0
1040
25.94610582087762
1040
10.22500033944968
1040
0.4142135623730911
1040
26.20860582087761
1040
10.48750033944968
1040
0.0
1040
26.20860582087761
1040
11.36250033944968
1040
0.4142135623730952
1040
25.94610582087762
1040
11.62500033944968
1040
0.0
1040
24.19610582087762
1040
11.62500033944968
1040
0.4142135623731048
1040
22.79610582087757
1040
10.2250003394497
1040
0.0
1040
22.79610582087757
1040
9.317399326772063
1040
0.1989123673796613
1040
23.41118158038586
1040
7.83247508628029
1040
0.0
1040
24.86608056770819
1040
6.377576098957955
1040
-0.1989123673796402
1040
25.07110582087761
1040
5.882601352127418
1040
0.0
1040
25.07110582087761
1040
5.237500339449681
1040
-0.4142135623730911
1040
24.80860582087763
1040
4.975000339449684
1040
0.0
1040
23.32110582087762
1040
4.975000339449684
1040
0.4142135623731526
1040
23.05860582087757
1040
4.71250033944969
1040
0.0
1040
23.05860582087757
1040
3.837500339449681
1040
0.4142135623730891
1040
23.32110582087755
1040
3.575000339449687
1040
0.0
1040
25.07110582087761
1040
3.575000339449687
1040
0.4142135623730925
1040
26.47110582087759
1040
4.975000339449675
1040
0.0
1040
26.47110582087759
1040
5.882601352127311
1040
0.1989123673796675
1040
25.85603006136932
1040
7.367525592619137
1040
0.0
1040
24.40113107404704
1040
8.822424579941396
1040
-0.1989123673796652
1040
24.19610582087762
1040
9.31739932677198
1040
0.0
1071
        0
1071
        7
1070
     1
1070
     1
1071
       16
1040
28.92110582087758
1040
11.36250033944968
1040
0.414213562373103
1040
28.65860582087759
1040
11.62500033944968
1040
0.0
1040
27.78360582087759
1040
11.62500033944968
1040
0.4142135623730871
1040
27.52110582087761
1040
11.36250033944969
1040
0.0
1040
27.52110582087761
1040
4.975000339449675
1040
0.4142135623730927
1040
28.92110582087758
1040
3.575000339449687
1040
0.0
1040
30.67110582087757
1040
3.575000339449687
1040
0.4142135623731045
1040
32.07110582087762
1040
4.975000339449675
1040
0.0
1040
32.07110582087762
1040
11.36250033944968
1040
0.4142135623730951
1040
31.80860582087763
1040
11.62500033944968
1040
0.0
1040
30.93360582087757
1040
11.62500033944968
1040
0.4142135623730871
1040
30.67110582087757
1040
11.36250033944969
1040
0.0
1040
30.67110582087757
1040
5.500000339449672
1040
-0.4142135623730879
1040
30.1461058208776
1040
4.975000339449684
1040
0.0
1040
29.44610582087761
1040
4.975000339449684
1040
-0.4142135623731197
1040
28.92110582087758
1040
5.500000339449672
1040
0.0
1071
        0
1071
        7
1070
     1
1070
     1
1071
        8
1040
34.5211058208776
1040
11.36250033944969
1040
0.4142135623730871
1040
34.25860582087762
1040
11.62500033944968
1040
0.0
1040
33.38360582087762
1040
11.62500033944968
1040
0.4142135623731507
1040
33.12110582087758
1040
11.36250033944969
1040
0.0
1040
33.12110582087758
1040
3.837500339449681
1040
0.4142135623730891
1040
33.38360582087755
1040
3.575000339449687
1040
0.0
1040
34.25860582087762
1040
3.575000339449687
1040
0.4142135623730891
1040
34.5211058208776
1040
3.837500339449681
1040
0.0
1071
        0
1070
     0
1070
     1
1040
0.0
1040
0.1
1070
     0
1070
     2
1040
0.7853981633974483
1040
-450.4711524238524
1040
-6.59999966055028
1040
-0.2245064030267288
1040
0.2245064030267288
1070
     0
1040
2.356194490192344
1040
-450.4711524238524
1040
-6.59999966055028
1040
-0.2245064030267288
1040
-0.2245064030267288
1070
     0
1040
0.057451373970553
1071
        8
1040
8.039927224998677
1040
7.58358716239246
1040
0.0
1040
11.2022572467066
1040
9.42203143067519
1040
0.0
1040
12.58218368631685
1040
7.755941162485044
1040
0.0
1040
15.45702973430559
1040
8.100649162670434
1040
0.0
1040
20.91923575296539
1040
8.330455296441241
1040
0.0
1040
23.44910019105179
1040
9.709288497653288
1040
0.0
1040
28.2788427296872
1040
9.364579296997193
1040
0.0
1040
33.91353955329839
1040
9.594385430767999
1040
0.0
1002
}
  0
LINE
  5
3B35
330
1A
100
AcDbEntity
  8
ZUWAKU
100
AcDbLine
 10
5.908606288681538
 20
3.837500333316711
 30
0.0
 11
5.908606288681538
 21
4.712500333316711
 31
0.0
  0
LINE
  5
3B36
330
1A
100
AcDbEntity
  8
ZUWAKU
100
AcDbLine
 10
5.646106288681607
 20
10.22500033331675
 30
0.0
 11
5.646106288681607
 21
9.317399320639085
 31
0.0
  0
LINE
  5
3B37
330
1A
100
AcDbEntity
  8
ZUWAKU
100
AcDbLine
 10
39.56331498528516
 20
15.00000033331673
 30
0.0
 11
39.56331498528516
 21
0.4000003333167684
 31
0.0
  0
LINE
  5
3B38
330
1A
100
AcDbEntity
  8
ZUWAKU
100
AcDbLine
 10
39.76331498528509
 20
15.00000033331673
 30
0.0
 11
39.7633149852852
 21
0.4000003333167684
 31
0.0
  0
LINE
  5
3B39
330
1A
100
AcDbEntity
  8
ZUWAKU
100
AcDbLine
 10
39.66331498528507
 20
15.00000033331673
 30
0.0
 11
39.66331498528518
 21
0.4000003333167684
 31
0.0
  0
ARC
  5
3B3A
330
1A
100
AcDbEntity
  8
ZUWAKU
100
AcDbCircle
 10
24.19610628868156
 20
10.22500033331675
 30
0.0
 40
1.399999999999999
100
AcDbArc
 50
90.0
 51
180.0
  0
LINE
  5
3B3B
330
1A
100
AcDbEntity
  8
ZUWAKU
100
AcDbLine
 10
8.70603052917329
 20
7.367525586486124
 30
0.0
 11
7.251131541850894
 21
8.822424573808461
 31
0.0
  0
LINE
  5
3B3C
330
1A
100
AcDbEntity
  8
ZUWAKU
100
AcDbLine
 10
10.37110628868151
 20
5.675000333316744
 30
0.0
 11
10.37110628868151
 21
9.525000333316713
 31
0.0
  0
LINE
  5
3B3D
330
1A
100
AcDbEntity
  8
ZUWAKU
100
AcDbLine
 10
11.7711062886816
 20
9.525000333316713
 30
0.0
 11
11.7711062886816
 21
5.675000333316744
 31
0.0
  0
CIRCLE
  5
3B3E
330
1A
100
AcDbEntity
  8
ZUWAKU
100
AcDbCircle
 10
12.99610628868151
 20
7.600000333316755
 30
0.0
 40
0.875
  0
ARC
  5
3B3F
330
1A
100
AcDbEntity
  8
ZUWAKU
100
AcDbCircle
 10
12.47110628868154
 20
5.675000333316744
 30
0.0
 40
2.099999999999999
100
AcDbArc
 50
180.0
 51
270.0
  0
LINE
  5
3B40
330
1A
100
AcDbEntity
  8
ZUWAKU
100
AcDbLine
 10
9.321106288681562
 20
4.975000333316756
 30
0.0
 11
9.321106288681562
 21
5.882601345994429
 31
0.0
  0
LINE
  5
3B41
330
1A
100
AcDbEntity
  8
ZUWAKU
100
AcDbLine
 10
6.261182048189766
 20
7.832475080147331
 30
0.0
 11
7.716081035512048
 21
6.377576092824995
 31
0.0
  0
LINE
  5
3B42
330
1A
100
AcDbEntity
  8
ZUWAKU
100
AcDbLine
 10
6.171106288681471
 20
4.975000333316756
 30
0.0
 11
7.658606288681538
 21
4.975000333316756
 31
0.0
  0
LINE
  5
3B43
330
1A
100
AcDbEntity
  8
ZUWAKU
100
AcDbLine
 10
6.171106288681471
 20
3.575000333316721
 30
0.0
 11
7.921106288681471
 21
3.575000333316721
 31
0.0
  0
ARC
  5
3B44
330
1A
100
AcDbEntity
  8
ZUWAKU
100
AcDbCircle
 10
7.221106288681538
 20
5.882601345994429
 30
0.0
 40
0.7
100
AcDbArc
 50
0.0
 51
44.99999999999971
  0
ARC
  5
3B45
330
1A
100
AcDbEntity
  8
ZUWAKU
100
AcDbCircle
 10
7.658606288681538
 20
5.237500333316745
 30
0.0
 40
0.2625
100
AcDbArc
 50
270.0
 51
0.0
  0
LINE
  5
3B46
330
1A
100
AcDbEntity
  8
ZUWAKU
100
AcDbLine
 10
7.921106288681471
 20
5.237500333316745
 30
0.0
 11
7.921106288681471
 21
5.882601345994429
 31
0.0
  0
ARC
  5
3B47
330
1A
100
AcDbEntity
  8
ZUWAKU
100
AcDbCircle
 10
7.221106288681538
 20
5.882601345994372
 30
0.0
 40
2.099999999999999
100
AcDbArc
 50
0.0
 51
44.99999999999971
  0
ARC
  5
3B48
330
1A
100
AcDbEntity
  8
ZUWAKU
100
AcDbCircle
 10
7.921106288681471
 20
4.975000333316756
 30
0.0
 40
1.399999999999999
100
AcDbArc
 50
270.0
 51
0.0
  0
ARC
  5
3B49
330
1A
100
AcDbEntity
  8
ZUWAKU
100
AcDbCircle
 10
13.43360628868151
 20
4.712500333316711
 30
0.0
 40
0.2625
100
AcDbArc
 50
0.0
 51
90.0
  0
ARC
  5
3B4A
330
1A
100
AcDbEntity
  8
ZUWAKU
100
AcDbCircle
 10
13.43360628868151
 20
3.837500333316711
 30
0.0
 40
0.2625
100
AcDbArc
 50
270.0
 51
0.0
  0
LINE
  5
3B4B
330
1A
100
AcDbEntity
  8
ZUWAKU
100
AcDbLine
 10
13.69610628868156
 20
4.712500333316711
 30
0.0
 11
13.69610628868156
 21
3.837500333316711
 31
0.0
  0
ARC
  5
3B4C
330
1A
100
AcDbEntity
  8
ZUWAKU
100
AcDbCircle
 10
12.47110628868154
 20
5.675000333316744
 30
0.0
 40
0.7
100
AcDbArc
 50
180.0
 51
270.0
  0
LINE
  5
3B4D
330
1A
100
AcDbEntity
  8
ZUWAKU
100
AcDbLine
 10
13.43360628868151
 20
3.575000333316721
 30
0.0
 11
12.47110628868154
 21
3.575000333316721
 31
0.0
  0
LINE
  5
3B4E
330
1A
100
AcDbEntity
  8
ZUWAKU
100
AcDbLine
 10
12.47110628868154
 20
4.975000333316756
 30
0.0
 11
13.43360628868151
 21
4.975000333316756
 31
0.0
  0
ARC
  5
3B4F
330
1A
100
AcDbEntity
  8
ZUWAKU
100
AcDbCircle
 10
12.47110628868154
 20
9.525000333316713
 30
0.0
 40
2.099999999999999
100
AcDbArc
 50
90.0
 51
180.0
  0
LINE
  5
3B50
330
1A
100
AcDbEntity
  8
ZUWAKU
100
AcDbLine
 10
9.058606288681515
 20
11.36250033331674
 30
0.0
 11
9.058606288681515
 21
10.48750033331674
 31
0.0
  0
LINE
  5
3B51
330
1A
100
AcDbEntity
  8
ZUWAKU
100
AcDbLine
 10
8.796106288681469
 20
10.22500033331675
 30
0.0
 11
7.308606288681517
 21
10.22500033331675
 31
0.0
  0
LINE
  5
3B52
330
1A
100
AcDbEntity
  8
ZUWAKU
100
AcDbLine
 10
7.046106288681471
 20
9.962500333316713
 30
0.0
 11
7.046106288681471
 21
9.317399320639085
 31
0.0
  0
ARC
  5
3B53
330
1A
100
AcDbEntity
  8
ZUWAKU
100
AcDbCircle
 10
7.308606288681517
 20
9.962500333316713
 30
0.0
 40
0.2625
100
AcDbArc
 50
90.0
 51
180.0
  0
LINE
  5
3B54
330
1A
100
AcDbEntity
  8
ZUWAKU
100
AcDbLine
 10
7.046106288681471
 20
11.62500033331673
 30
0.0
 11
8.796106288681469
 21
11.62500033331673
 31
0.0
  0
ARC
  5
3B55
330
1A
100
AcDbEntity
  8
ZUWAKU
100
AcDbCircle
 10
8.796106288681469
 20
10.48750033331674
 30
0.0
 40
0.2625
100
AcDbArc
 50
270.0
 51
0.0
  0
ARC
  5
3B56
330
1A
100
AcDbEntity
  8
ZUWAKU
100
AcDbCircle
 10
8.796106288681469
 20
11.36250033331674
 30
0.0
 40
0.2625
100
AcDbArc
 50
0.0
 51
90.0
  0
ARC
  5
3B57
330
1A
100
AcDbEntity
  8
ZUWAKU
100
AcDbCircle
 10
7.746106288681517
 20
9.317399320639085
 30
0.0
 40
0.7
100
AcDbArc
 50
180.0000000000016
 51
224.9999999999991
  0
LINE
  5
3B58
330
1A
100
AcDbEntity
  8
ZUWAKU
100
AcDbLine
 10
13.69610628868156
 20
11.36250033331674
 30
0.0
 11
13.69610628868156
 21
10.48750033331674
 31
0.0
  0
ARC
  5
3B59
330
1A
100
AcDbEntity
  8
ZUWAKU
100
AcDbCircle
 10
13.43360628868151
 20
10.48750033331674
 30
0.0
 40
0.2625
100
AcDbArc
 50
270.0
 51
0.0
  0
ARC
  5
3B5A
330
1A
100
AcDbEntity
  8
ZUWAKU
100
AcDbCircle
 10
13.43360628868151
 20
11.36250033331674
 30
0.0
 40
0.2625
100
AcDbArc
 50
0.0
 51
90.0
  0
ARC
  5
3B5B
330
1A
100
AcDbEntity
  8
ZUWAKU
100
AcDbCircle
 10
12.47110628868154
 20
9.525000333316713
 30
0.0
 40
0.7
100
AcDbArc
 50
90.0
 51
180.0
  0
LINE
  5
3B5C
330
1A
100
AcDbEntity
  8
ZUWAKU
100
AcDbLine
 10
13.43360628868151
 20
10.22500033331675
 30
0.0
 11
12.47110628868154
 21
10.22500033331675
 31
0.0
  0
LINE
  5
3B5D
330
1A
100
AcDbEntity
  8
ZUWAKU
100
AcDbLine
 10
12.47110628868154
 20
11.62500033331673
 30
0.0
 11
13.43360628868151
 21
11.62500033331673
 31
0.0
  0
LINE
  5
3B5E
330
1A
100
AcDbEntity
  8
ZUWAKU
100
AcDbLine
 10
14.92110628868147
 20
11.36250033331674
 30
0.0
 11
14.92110628868147
 21
3.837500333316711
 31
0.0
  0
LINE
  5
3B5F
330
1A
100
AcDbEntity
  8
ZUWAKU
100
AcDbLine
 10
21.74610628868151
 20
3.837500333316711
 30
0.0
 11
21.74610628868151
 21
11.36250033331674
 31
0.0
  0
LINE
  5
3B60
330
1A
100
AcDbEntity
  8
ZUWAKU
100
AcDbLine
 10
20.34610628868154
 20
11.36250033331674
 30
0.0
 11
20.34610628868154
 21
3.837500333316711
 31
0.0
  0
LINE
  5
3B61
330
1A
100
AcDbEntity
  8
ZUWAKU
100
AcDbLine
 10
18.65742952977052
 20
9.60252393009847
 30
0.0
 11
18.0250536571026
 21
7.600000333316755
 31
0.0
  0
LINE
  5
3B62
330
1A
100
AcDbEntity
  8
ZUWAKU
100
AcDbLine
 10
19.18824934633937
 20
3.916547317400214
 30
0.0
 11
18.0250536571026
 21
7.600000333316755
 31
0.0
  0
LINE
  5
3B63
330
1A
100
AcDbEntity
  8
ZUWAKU
100
AcDbLine
 10
18.08848920693719
 20
3.575000333316721
 30
0.0
 11
18.93793389674169
 21
3.575000333316721
 31
0.0
  0
ARC
  5
3B64
330
1A
100
AcDbEntity
  8
ZUWAKU
100
AcDbCircle
 10
18.08848920693719
 20
3.837500333316711
 30
0.0
 40
0.2625
100
AcDbArc
 50
197.525568373723
 51
270.0
  0
ARC
  5
3B65
330
1A
100
AcDbEntity
  8
ZUWAKU
100
AcDbCircle
 10
16.5836062886816
 20
6.637500333316722
 30
0.0
 40
0.2625
100
AcDbArc
 50
90.0
 51
180.0
  0
ARC
  5
3B66
330
1A
100
AcDbEntity
  8
ZUWAKU
100
AcDbCircle
 10
16.65372337042583
 20
6.637500333316722
 30
0.0
 40
0.2625
100
AcDbArc
 50
17.52556837372303
 51
90.0
  0
ARC
  5
3B67
330
1A
100
AcDbEntity
  8
ZUWAKU
100
AcDbCircle
 10
15.18360628868151
 20
3.837500333316711
 30
0.0
 40
0.2625
100
AcDbArc
 50
180.0
 51
270.0
  0
LINE
  5
3B68
330
1A
100
AcDbEntity
  8
ZUWAKU
100
AcDbLine
 10
16.32110628868156
 20
3.837500333316711
 30
0.0
 11
16.32110628868156
 21
6.637500333316722
 31
0.0
  0
ARC
  5
3B69
330
1A
100
AcDbEntity
  8
ZUWAKU
100
AcDbCircle
 10
16.05860628868151
 20
3.837500333316711
 30
0.0
 40
0.2625
100
AcDbArc
 50
270.0
 51
0.0
  0
LINE
  5
3B6A
330
1A
100
AcDbEntity
  8
ZUWAKU
100
AcDbLine
 10
15.18360628868151
 20
3.575000333316721
 30
0.0
 11
16.05860628868151
 21
3.575000333316721
 31
0.0
  0
LINE
  5
3B6B
330
1A
100
AcDbEntity
  8
ZUWAKU
100
AcDbLine
 10
16.5836062886816
 20
6.900000333316711
 30
0.0
 11
16.65372337042583
 21
6.900000333316711
 31
0.0
  0
LINE
  5
3B6C
330
1A
100
AcDbEntity
  8
ZUWAKU
100
AcDbLine
 10
17.8381737573394
 20
3.758453349233263
 30
0.0
 11
16.90403882002363
 21
6.716547317400228
 31
0.0
  0
ARC
  5
3B6D
330
1A
100
AcDbEntity
  8
ZUWAKU
100
AcDbCircle
 10
21.48360628868147
 20
3.837500333316711
 30
0.0
 40
0.2625
100
AcDbArc
 50
270.0
 51
0.0
  0
ARC
  5
3B6E
330
1A
100
AcDbEntity
  8
ZUWAKU
100
AcDbCircle
 10
18.93793389674169
 20
3.837500333316711
 30
0.0
 40
0.2625
100
AcDbArc
 50
270.0
 51
17.52556837372303
  0
ARC
  5
3B6F
330
1A
100
AcDbEntity
  8
ZUWAKU
100
AcDbCircle
 10
20.60860628868147
 20
3.837500333316711
 30
0.0
 40
0.2625
100
AcDbArc
 50
180.0
 51
270.0
  0
LINE
  5
3B70
330
1A
100
AcDbEntity
  8
ZUWAKU
100
AcDbLine
 10
20.60860628868147
 20
3.575000333316721
 30
0.0
 11
21.48360628868147
 21
3.575000333316721
 31
0.0
  0
LINE
  5
3B71
330
1A
100
AcDbEntity
  8
ZUWAKU
100
AcDbLine
 10
18.08848920693719
 20
11.62500033331673
 30
0.0
 11
18.93793389674169
 21
11.62500033331673
 31
0.0
  0
ARC
  5
3B72
330
1A
100
AcDbEntity
  8
ZUWAKU
100
AcDbCircle
 10
18.08848920693719
 20
11.36250033331674
 30
0.0
 40
0.2625
100
AcDbArc
 50
90.0
 51
162.4744316262769
  0
ARC
  5
3B73
330
1A
100
AcDbEntity
  8
ZUWAKU
100
AcDbCircle
 10
15.18360628868151
 20
11.36250033331674
 30
0.0
 40
0.2625
100
AcDbArc
 50
90.0
 51
180.0
  0
LINE
  5
3B74
330
1A
100
AcDbEntity
  8
ZUWAKU
100
AcDbLine
 10
16.05860628868151
 20
11.62500033331673
 30
0.0
 11
15.18360628868151
 21
11.62500033331673
 31
0.0
  0
ARC
  5
3B75
330
1A
100
AcDbEntity
  8
ZUWAKU
100
AcDbCircle
 10
16.05860628868151
 20
11.36250033331674
 30
0.0
 40
0.2625
100
AcDbArc
 50
0.0
 51
90.0
  0
ARC
  5
3B76
330
1A
100
AcDbEntity
  8
ZUWAKU
100
AcDbCircle
 10
16.5836062886816
 20
8.562500333316734
 30
0.0
 40
0.2625
100
AcDbArc
 50
180.0
 51
270.0
  0
LINE
  5
3B77
330
1A
100
AcDbEntity
  8
ZUWAKU
100
AcDbLine
 10
16.65372337042583
 20
8.300000333316743
 30
0.0
 11
16.5836062886816
 21
8.300000333316743
 31
0.0
  0
ARC
  5
3B78
330
1A
100
AcDbEntity
  8
ZUWAKU
100
AcDbCircle
 10
16.65372337042583
 20
8.562500333316734
 30
0.0
 40
0.2625
100
AcDbArc
 50
270.0
 51
342.474431626277
  0
LINE
  5
3B79
330
1A
100
AcDbEntity
  8
ZUWAKU
100
AcDbLine
 10
17.8381737573394
 20
11.44154731740025
 30
0.0
 11
16.90403882002363
 21
8.483453349233228
 31
0.0
  0
LINE
  5
3B7A
330
1A
100
AcDbEntity
  8
ZUWAKU
100
AcDbLine
 10
16.32110628868156
 20
8.562500333316734
 30
0.0
 11
16.32110628868156
 21
11.36250033331674
 31
0.0
  0
ARC
  5
3B7B
330
1A
100
AcDbEntity
  8
ZUWAKU
100
AcDbCircle
 10
21.48360628868147
 20
11.36250033331674
 30
0.0
 40
0.2625
100
AcDbArc
 50
0.0
 51
90.0
  0
LINE
  5
3B7C
330
1A
100
AcDbEntity
  8
ZUWAKU
100
AcDbLine
 10
19.18824934633937
 20
11.28345334923324
 30
0.0
 11
18.65742952977052
 21
9.60252393009847
 31
0.0
  0
ARC
  5
3B7D
330
1A
100
AcDbEntity
  8
ZUWAKU
100
AcDbCircle
 10
18.93793389674169
 20
11.36250033331674
 30
0.0
 40
0.2625
100
AcDbArc
 50
342.474431626277
 51
90.0
  0
ARC
  5
3B7E
330
1A
100
AcDbEntity
  8
ZUWAKU
100
AcDbCircle
 10
20.60860628868147
 20
11.36250033331674
 30
0.0
 40
0.2625
100
AcDbArc
 50
90.0
 51
180.0
  0
LINE
  5
3B7F
330
1A
100
AcDbEntity
  8
ZUWAKU
100
AcDbLine
 10
21.48360628868147
 20
11.62500033331673
 30
0.0
 11
20.60860628868147
 21
11.62500033331673
 31
0.0
  0
ARC
  5
3B80
330
1A
100
AcDbEntity
  8
ZUWAKU
100
AcDbCircle
 10
30.93360628868151
 20
11.36250033331674
 30
0.0
 40
0.2625
100
AcDbArc
 50
90.0
 51
180.0
  0
ARC
  5
3B81
330
1A
100
AcDbEntity
  8
ZUWAKU
100
AcDbCircle
 10
30.1461062886816
 20
5.500000333316734
 30
0.0
 40
0.525
100
AcDbArc
 50
270.0
 51
0.0
  0
ARC
  5
3B82
330
1A
100
AcDbEntity
  8
ZUWAKU
100
AcDbCircle
 10
30.67110628868147
 20
4.975000333316756
 30
0.0
 40
1.399999999999999
100
AcDbArc
 50
270.0
 51
0.0
  0
LINE
  5
3B83
330
1A
100
AcDbEntity
  8
ZUWAKU
100
AcDbLine
 10
25.85603052917338
 20
7.367525586486124
 30
0.0
 11
24.40113154185099
 21
8.822424573808461
 31
0.0
  0
LINE
  5
3B84
330
1A
100
AcDbEntity
  8
ZUWAKU
100
AcDbLine
 10
28.92110628868147
 20
5.500000333316734
 30
0.0
 11
28.92110628868147
 21
11.36250033331674
 31
0.0
  0
LINE
  5
3B85
330
1A
100
AcDbEntity
  8
ZUWAKU
100
AcDbLine
 10
27.52110628868161
 20
11.36250033331674
 30
0.0
 11
27.52110628868161
 21
4.975000333316756
 31
0.0
  0
ARC
  5
3B86
330
1A
100
AcDbEntity
  8
ZUWAKU
100
AcDbCircle
 10
24.8961062886816
 20
9.317399320639085
 30
0.0
 40
2.099999999999999
100
AcDbArc
 50
180.0
 51
224.9999999999997
  0
LINE
  5
3B87
330
1A
100
AcDbEntity
  8
ZUWAKU
100
AcDbLine
 10
30.67110628868147
 20
11.36250033331674
 30
0.0
 11
30.67110628868147
 21
5.500000333316734
 31
0.0
  0
ARC
  5
3B88
330
1A
100
AcDbEntity
  8
ZUWAKU
100
AcDbCircle
 10
25.07110628868156
 20
4.975000333316756
 30
0.0
 40
1.399999999999999
100
AcDbArc
 50
270.0
 51
0.0
  0
ARC
  5
3B89
330
1A
100
AcDbEntity
  8
ZUWAKU
100
AcDbCircle
 10
24.37110628868151
 20
5.882601345994372
 30
0.0
 40
2.099999999999999
100
AcDbArc
 50
0.0
 51
44.99999999999971
  0
LINE
  5
3B8A
330
1A
100
AcDbEntity
  8
ZUWAKU
100
AcDbLine
 10
26.47110628868154
 20
4.975000333316756
 30
0.0
 11
26.47110628868154
 21
5.882601345994429
 31
0.0
  0
LINE
  5
3B8B
330
1A
100
AcDbEntity
  8
ZUWAKU
100
AcDbLine
 10
23.41118204818974
 20
7.832475080147331
 30
0.0
 11
24.86608103551214
 21
6.377576092824995
 31
0.0
  0
LINE
  5
3B8C
330
1A
100
AcDbEntity
  8
ZUWAKU
100
AcDbLine
 10
23.32110628868156
 20
3.575000333316721
 30
0.0
 11
25.07110628868156
 21
3.575000333316721
 31
0.0
  0
LINE
  5
3B8D
330
1A
100
AcDbEntity
  8
ZUWAKU
100
AcDbLine
 10
23.32110628868156
 20
4.975000333316756
 30
0.0
 11
24.80860628868152
 21
4.975000333316756
 31
0.0
  0
ARC
  5
3B8E
330
1A
100
AcDbEntity
  8
ZUWAKU
100
AcDbCircle
 10
23.32110628868156
 20
4.712500333316711
 30
0.0
 40
0.2625
100
AcDbArc
 50
90.0
 51
180.0
  0
ARC
  5
3B8F
330
1A
100
AcDbEntity
  8
ZUWAKU
100
AcDbCircle
 10
23.32110628868156
 20
3.837500333316711
 30
0.0
 40
0.2625
100
AcDbArc
 50
180.0
 51
270.0
  0
LINE
  5
3B90
330
1A
100
AcDbEntity
  8
ZUWAKU
100
AcDbLine
 10
23.05860628868151
 20
3.837500333316711
 30
0.0
 11
23.05860628868151
 21
4.712500333316711
 31
0.0
  0
ARC
  5
3B91
330
1A
100
AcDbEntity
  8
ZUWAKU
100
AcDbCircle
 10
24.80860628868152
 20
5.237500333316745
 30
0.0
 40
0.2625
100
AcDbArc
 50
270.0
 51
0.0
  0
ARC
  5
3B92
330
1A
100
AcDbEntity
  8
ZUWAKU
100
AcDbCircle
 10
24.37110628868151
 20
5.882601345994429
 30
0.0
 40
0.7
100
AcDbArc
 50
0.0
 51
44.99999999999971
  0
LINE
  5
3B93
330
1A
100
AcDbEntity
  8
ZUWAKU
100
AcDbLine
 10
25.07110628868156
 20
5.237500333316745
 30
0.0
 11
25.07110628868156
 21
5.882601345994429
 31
0.0
  0
ARC
  5
3B94
330
1A
100
AcDbEntity
  8
ZUWAKU
100
AcDbCircle
 10
29.44610628868156
 20
5.500000333316734
 30
0.0
 40
0.525
100
AcDbArc
 50
180.0
 51
270.0
  0
ARC
  5
3B95
330
1A
100
AcDbEntity
  8
ZUWAKU
100
AcDbCircle
 10
28.92110628868147
 20
4.975000333316756
 30
0.0
 40
1.399999999999999
100
AcDbArc
 50
180.0
 51
270.0
  0
LINE
  5
3B96
330
1A
100
AcDbEntity
  8
ZUWAKU
100
AcDbLine
 10
28.92110628868147
 20
3.575000333316721
 30
0.0
 11
30.67110628868147
 21
3.575000333316721
 31
0.0
  0
LINE
  5
3B97
330
1A
100
AcDbEntity
  8
ZUWAKU
100
AcDbLine
 10
30.1461062886816
 20
4.975000333316756
 30
0.0
 11
29.44610628868156
 21
4.975000333316756
 31
0.0
  0
LINE
  5
3B98
330
1A
100
AcDbEntity
  8
ZUWAKU
100
AcDbLine
 10
26.20860628868161
 20
11.36250033331674
 30
0.0
 11
26.20860628868161
 21
10.48750033331674
 31
0.0
  0
ARC
  5
3B99
330
1A
100
AcDbEntity
  8
ZUWAKU
100
AcDbCircle
 10
25.94610628868156
 20
10.48750033331674
 30
0.0
 40
0.2625
100
AcDbArc
 50
270.0
 51
0.0
  0
ARC
  5
3B9A
330
1A
100
AcDbEntity
  8
ZUWAKU
100
AcDbCircle
 10
25.94610628868156
 20
11.36250033331674
 30
0.0
 40
0.2625
100
AcDbArc
 50
0.0
 51
90.0
  0
LINE
  5
3B9B
330
1A
100
AcDbEntity
  8
ZUWAKU
100
AcDbLine
 10
22.79610628868147
 20
10.22500033331675
 30
0.0
 11
22.79610628868147
 21
9.317399320639085
 31
0.0
  0
LINE
  5
3B9C
330
1A
100
AcDbEntity
  8
ZUWAKU
100
AcDbLine
 10
24.19610628868156
 20
9.962500333316713
 30
0.0
 11
24.19610628868156
 21
9.317399320639085
 31
0.0
  0
ARC
  5
3B9D
330
1A
100
AcDbEntity
  8
ZUWAKU
100
AcDbCircle
 10
24.4586062886816
 20
9.962500333316713
 30
0.0
 40
0.2625
100
AcDbArc
 50
90.0
 51
180.0
  0
LINE
  5
3B9E
330
1A
100
AcDbEntity
  8
ZUWAKU
100
AcDbLine
 10
25.94610628868156
 20
10.22500033331675
 30
0.0
 11
24.4586062886816
 21
10.22500033331675
 31
0.0
  0
LINE
  5
3B9F
330
1A
100
AcDbEntity
  8
ZUWAKU
100
AcDbLine
 10
24.19610628868156
 20
11.62500033331673
 30
0.0
 11
25.94610628868156
 21
11.62500033331673
 31
0.0
  0
ARC
  5
3BA0
330
1A
100
AcDbEntity
  8
ZUWAKU
100
AcDbCircle
 10
24.8961062886816
 20
9.317399320639085
 30
0.0
 40
0.7
100
AcDbArc
 50
180.0000000000016
 51
224.9999999999991
  0
LINE
  5
3BA1
330
1A
100
AcDbEntity
  8
ZUWAKU
100
AcDbLine
 10
28.65860628868153
 20
11.62500033331673
 30
0.0
 11
27.78360628868154
 21
11.62500033331673
 31
0.0
  0
ARC
  5
3BA2
330
1A
100
AcDbEntity
  8
ZUWAKU
100
AcDbCircle
 10
27.78360628868154
 20
11.36250033331674
 30
0.0
 40
0.2625
100
AcDbArc
 50
90.0
 51
180.0
  0
ARC
  5
3BA3
330
1A
100
AcDbEntity
  8
ZUWAKU
100
AcDbCircle
 10
28.65860628868153
 20
11.36250033331674
 30
0.0
 40
0.2625
100
AcDbArc
 50
0.0
 51
90.0
  0
LINE
  5
3BA4
330
1A
100
AcDbEntity
  8
ZUWAKU
100
AcDbLine
 10
33.12110628868151
 20
11.36250033331674
 30
0.0
 11
33.12110628868151
 21
3.837500333316711
 31
0.0
  0
LINE
  5
3BA5
330
1A
100
AcDbEntity
  8
ZUWAKU
100
AcDbLine
 10
34.5211062886816
 20
3.837500333316711
 30
0.0
 11
34.5211062886816
 21
11.36250033331674
 31
0.0
  0
LINE
  5
3BA6
330
1A
100
AcDbEntity
  8
ZUWAKU
100
AcDbLine
 10
32.07110628868156
 20
4.975000333316756
 30
0.0
 11
32.07110628868156
 21
11.36250033331674
 31
0.0
  0
ARC
  5
3BA7
330
1A
100
AcDbEntity
  8
ZUWAKU
100
AcDbCircle
 10
34.25860628868156
 20
3.837500333316711
 30
0.0
 40
0.2625
100
AcDbArc
 50
270.0
 51
0.0
  0
ARC
  5
3BA8
330
1A
100
AcDbEntity
  8
ZUWAKU
100
AcDbCircle
 10
33.38360628868156
 20
3.837500333316711
 30
0.0
 40
0.2625
100
AcDbArc
 50
180.0
 51
270.0
  0
LINE
  5
3BA9
330
1A
100
AcDbEntity
  8
ZUWAKU
100
AcDbLine
 10
33.38360628868156
 20
3.575000333316721
 30
0.0
 11
34.25860628868156
 21
3.575000333316721
 31
0.0
  0
ARC
  5
3BAA
330
1A
100
AcDbEntity
  8
ZUWAKU
100
AcDbCircle
 10
34.25860628868156
 20
11.36250033331674
 30
0.0
 40
0.2625
100
AcDbArc
 50
0.0
 51
90.0
  0
LINE
  5
3BAB
330
1A
100
AcDbEntity
  8
ZUWAKU
100
AcDbLine
 10
31.80860628868151
 20
11.62500033331673
 30
0.0
 11
30.93360628868151
 21
11.62500033331673
 31
0.0
  0
ARC
  5
3BAC
330
1A
100
AcDbEntity
  8
ZUWAKU
100
AcDbCircle
 10
31.80860628868151
 20
11.36250033331674
 30
0.0
 40
0.2625
100
AcDbArc
 50
0.0
 51
90.0
  0
ARC
  5
3BAD
330
1A
100
AcDbEntity
  8
ZUWAKU
100
AcDbCircle
 10
33.38360628868156
 20
11.36250033331674
 30
0.0
 40
0.2625
100
AcDbArc
 50
90.0
 51
180.0
  0
LINE
  5
3BAE
330
1A
100
AcDbEntity
  8
ZUWAKU
100
AcDbLine
 10
34.25860628868156
 20
11.62500033331673
 30
0.0
 11
33.38360628868156
 21
11.62500033331673
 31
0.0
  0
LINE
  5
3BB4
330
1A
100
AcDbEntity
  8
ZUWAKU
100
AcDbLine
 10
104.2233008563248
 20
15.00000033331673
 30
0.0
 11
104.2233008563249
 21
0.4000003333167684
 31
0.0
  0
LINE
  5
3BB5
330
1A
100
AcDbEntity
  8
ZUWAKU
100
AcDbLine
 10
104.3233008563248
 20
15.00000033331673
 30
0.0
 11
104.3233008563249
 21
0.4000003333167684
 31
0.0
  0
LINE
  5
3BB6
330
1A
100
AcDbEntity
  8
ZUWAKU
100
AcDbLine
 10
104.1233008563249
 20
15.00000033331673
 30
0.0
 11
104.1233008563249
 21
0.4000003333167684
 31
0.0
  0
TEXT
  5
3BB7
330
1A
100
AcDbEntity
  8
ZUWAKU
100
AcDbText
 10
104.8620233674296
 20
12.02767860250952
 30
0.0
 40
2.0
  1
品名
 41
0.9
  7
ｽﾀｲﾙ1
100
AcDbText
  0
TEXT
  5
3BB8
330
1A
100
AcDbEntity
  8
ZUWAKU
100
AcDbText
 10
104.8620233674297
 20
4.827678602509536
 30
0.0
 40
2.0
  1
サイズ
 41
0.9
  7
ｽﾀｲﾙ1
100
AcDbText
  0
LINE
  5
3C17
330
1A
100
AcDbEntity
  8
ZUWAKU
100
AcDbLine
 10
324.4086014663928
 20
7.800000333316744
 30
0.0
 11
348.6245054855615
 21
7.800000333316744
 31
0.0
  0
LINE
  5
3C18
330
1A
100
AcDbEntity
  8
ZUWAKU
100
AcDbLine
 10
324.4086014663931
 20
7.700000333316777
 30
0.0
 11
348.6245054855615
 21
7.700000333316777
 31
0.0
  0
LINE
  5
3C19
330
1A
100
AcDbEntity
  8
ZUWAKU
100
AcDbLine
 10
324.4086014663928
 20
7.600000333316755
 30
0.0
 11
348.6245054855615
 21
7.600000333316755
 31
0.0
  0
TEXT
  5
3C1B
330
1A
100
AcDbEntity
  8
MOJI
100
AcDbText
 10
264.0204541974475
 20
1.602460862020449
 30
0.0
 40
2.799999999999998
  1
１/１
 41
0.9
  7
ｽﾀｲﾙ1
100
AcDbText
  0
TEXT
  5
3C1C
330
1A
100
AcDbEntity
  8
MOJI
100
AcDbText
 10
264.0204541974475
 20
9.002460862020427
 30
0.0
 40
2.799999999999998
  1
Ａ３
 41
0.9
  7
ｽﾀｲﾙ1
100
AcDbText
  0
LINE
  5
3C1D
330
1A
100
AcDbEntity
  8
ZUWAKU
100
AcDbLine
 10
252.5995899603614
 20
7.800000333316744
 30
0.0
 11
276.2634780943471
 21
7.800000333316744
 31
0.0
  0
LINE
  5
3C1E
330
1A
100
AcDbEntity
  8
ZUWAKU
100
AcDbLine
 10
252.5995899603614
 20
7.700000333316777
 30
0.0
 11
276.2634780943471
 21
7.700000333316777
 31
0.0
  0
LINE
  5
3C1F
330
1A
100
AcDbEntity
  8
ZUWAKU
100
AcDbLine
 10
252.5995899603614
 20
7.600000333316755
 30
0.0
 11
276.2634780943471
 21
7.600000333316755
 31
0.0
  0
TEXT
  5
3C20
330
1A
100
AcDbEntity
  8
ZUWAKU
100
AcDbText
 10
231.3468810390444
 20
1.30703578888648
 30
0.0
 40
1.5
  1
□には色品番が入ります
 41
0.9
  7
ｽﾀｲﾙ1
100
AcDbText
  0
LINE
  5
3C21
330
1A
100
AcDbEntity
  8
ZUWAKU
100
AcDbLine
 10
252.3995899603614
 20
15.00000033331673
 30
0.0
 11
252.3995899603614
 21
0.4000003333167684
 31
0.0
  0
LINE
  5
3C22
330
1A
100
AcDbEntity
  8
ZUWAKU
100
AcDbLine
 10
252.5995899603614
 20
15.00000033331673
 30
0.0
 11
252.5995899603616
 21
0.4000003333167684
 31
0.0
  0
LINE
  5
3C23
330
1A
100
AcDbEntity
  8
ZUWAKU
100
AcDbLine
 10
252.4995899603613
 20
15.00000033331673
 30
0.0
 11
252.4995899603615
 21
0.4000003333167684
 31
0.0
  0
LINE
  5
3C24
330
1A
100
AcDbEntity
  8
ZUWAKU
100
AcDbLine
 10
223.7121821967865
 20
15.00000033331673
 30
0.0
 11
223.7121821967865
 21
0.4000003333167684
 31
0.0
  0
LINE
  5
3C25
330
1A
100
AcDbEntity
  8
ZUWAKU
100
AcDbLine
 10
223.9121821967866
 20
15.00000033331673
 30
0.0
 11
223.9121821967868
 21
0.4000003333167684
 31
0.0
  0
LINE
  5
3C26
330
1A
100
AcDbEntity
  8
ZUWAKU
100
AcDbLine
 10
223.8121821967864
 20
15.00000033331673
 30
0.0
 11
223.8121821967867
 21
0.4000003333167684
 31
0.0
  0
TEXT
  5
3C27
330
1A
100
AcDbEntity
  8
MOJI
100
AcDbText
 10
231.7841528925713
 20
5.971309194146726
 30
0.0
 40
2.799999999999998
  1
ＬＮ６１□
 41
0.9
  7
ｽﾀｲﾙ1
100
AcDbText
  0
TEXT
  5
3C28
330
1A
100
AcDbEntity
  8
ZUWAKU
100
AcDbText
 10
224.6509047078915
 20
12.02767860250952
 30
0.0
 40
2.0
  1
品番
 41
0.9
  7
ｽﾀｲﾙ1
100
AcDbText
  0
TEXT
  5
3C29
330
1A
100
AcDbEntity
  8
ZUWAKU
100
AcDbText
 10
253.3383124714664
 20
12.02767860250952
 30
0.0
 40
2.0
  1
用紙
 41
0.9
  7
ｽﾀｲﾙ1
100
AcDbText
  0
TEXT
  5
3C2A
330
1A
100
AcDbEntity
  8
ZUWAKU
100
AcDbText
 10
253.3383124714664
 20
4.827678602509536
 30
0.0
 40
2.0
  1
縮尺
 41
0.9
  7
ｽﾀｲﾙ1
100
AcDbText
  0
LINE
  5
3C2B
330
1A
100
AcDbEntity
  8
ZUWAKU
100
AcDbLine
 10
276.2634780943471
 20
15.00000033331673
 30
0.0
 11
276.2634780943471
 21
0.4000003333167684
 31
0.0
  0
LINE
  5
3C2C
330
1A
100
AcDbEntity
  8
ZUWAKU
100
AcDbLine
 10
276.4634780943471
 20
15.00000033331673
 30
0.0
 11
276.4634780943473
 21
0.4000003333167684
 31
0.0
  0
LINE
  5
3C2D
330
1A
100
AcDbEntity
  8
ZUWAKU
100
AcDbLine
 10
276.363478094347
 20
15.00000033331673
 30
0.0
 11
276.3634780943472
 21
0.4000003333167684
 31
0.0
  0
LINE
  5
3C2E
330
1A
100
AcDbEntity
  8
ZUWAKU
100
AcDbLine
 10
324.2086014663931
 20
15.00000033331673
 30
0.0
 11
324.2086014663931
 21
0.4000003333167684
 31
0.0
  0
LINE
  5
3C2F
330
1A
100
AcDbEntity
  8
ZUWAKU
100
AcDbLine
 10
324.4086014663931
 20
15.00000033331673
 30
0.0
 11
324.4086014663933
 21
0.4000003333167684
 31
0.0
  0
LINE
  5
3C30
330
1A
100
AcDbEntity
  8
ZUWAKU
100
AcDbLine
 10
324.308601466393
 20
15.00000033331673
 30
0.0
 11
324.3086014663932
 21
0.4000003333167684
 31
0.0
  0
TEXT
  5
3C31
330
1A
100
AcDbEntity
  8
ZUWAKU
100
AcDbText
 10
325.1473239774981
 20
12.02767860250952
 30
0.0
 40
2.0
  1
DATE
 41
0.9
  7
ｽﾀｲﾙ1
100
AcDbText
  0
LINE
  5
3C51
330
1A
100
AcDbEntity
  8
ZUWAKU
100
AcDbLine
 10
348.9245054855615
 20
15.00000033331673
 30
0.0
 11
348.9245054855617
 21
0.4000003333167684
 31
0.0
  0
LINE
  5
3C52
330
1A
100
AcDbEntity
  8
ZUWAKU
100
AcDbLine
 10
348.8245054855614
 20
15.00000033331673
 30
0.0
 11
348.8245054855616
 21
0.4000003333167684
 31
0.0
  0
LINE
  5
3C53
330
1A
100
AcDbEntity
  8
ZUWAKU
100
AcDbLine
 10
348.7245054855615
 20
15.00000033331673
 30
0.0
 11
348.7245054855615
 21
0.4000003333167684
 31
0.0
  0
LINE
  5
3C54
330
1A
100
AcDbEntity
  8
ZUWAKU
100
AcDbLine
 10
348.6245054855615
 20
15.00000033331673
 30
0.0
 11
348.6245054855615
 21
0.4000003333167684
 31
0.0
  0
TEXT
  5
3C56
330
1A
100
AcDbEntity
  8
ZUWAKU
100
AcDbText
 10
353.5548007224903
 20
6.169083929780581
 30
0.0
 40
3.0
  1
積水化学工業株式会社
 41
0.9
  7
ｽﾀｲﾙ1
100
AcDbText
  0
TEXT
  5
3DF5
330
1A
100
AcDbEntity
  8
MOJI
100
AcDbText
 10
46.67889500537569
 20
6.370589398454113
 30
0.0
 40
3.0
  1
ユニシェイプ
 41
0.9
  7
ｽﾀｲﾙ1
100
AcDbText
  0
TEXT
  5
4084
330
1A
100
AcDbEntity
  8
MOJI
100
AcDbText
 10
119.448847116623
 20
9.765924585317977
 30
0.0
 40
2.799999999999998
  1
はいといデンデン
 41
0.9
  7
ｽﾀｲﾙ1
100
AcDbText
  0
TEXT
  5
478D
330
1A
100
AcDbEntity
  8
MOJI
100
AcDbText
 10
118.7344009387943
 20
1.841380236387806
 30
0.0
 40
2.799999999999998
  1
ＵＲＴ６０ 厚瓦用
 41
0.9
  7
ｽﾀｲﾙ1
100
AcDbText
  0
SPLINE
  5
5506
330
1A
100
AcDbEntity
  8
金具部
100
AcDbSpline
210
0.0
220
0.0
230
1.0
 70
    24
 71
     1
 72
     4
 73
     2
 74
     0
 42
0.0000000001
 43
0.0000000001
 40
0.0
 40
0.0
 40
1.0
 40
1.0
 10
268.3383801031169
 20
115.9521673032049
 30
0.0
 10
268.3383801031169
 20
115.9521375008825
 30
0.0
  0
SPLINE
  5
5507
330
1A
100
AcDbEntity
  8
金具部
100
AcDbSpline
210
0.0
220
0.0
230
1.0
 70
    24
 71
     1
 72
     4
 73
     2
 74
     0
 42
0.0000000001
 43
0.0000000001
 40
0.0
 40
0.0
 40
1.0
 40
1.0
 10
275.3383346843776
 20
115.9521375008825
 30
0.0
 10
275.3383346843776
 20
115.9521673032049
 30
0.0
  0
ARC
  5
551F
330
1A
100
AcDbEntity
  8
ﾃ_ﾝﾃ_ﾝ部
100
AcDbCircle
 10
244.5933366185268
 20
139.7879186615774
 30
0.0
 40
4.499448627684389
100
AcDbArc
 50
326.1370559871003
 51
37.84035230770822
  0
ARC
  5
5520
330
1A
100
AcDbEntity
  8
ﾃ_ﾝﾃ_ﾝ部
100
AcDbCircle
 10
245.8380187459078
 20
138.9526949655147
 30
0.0
 40
3.000504926044456
100
AcDbArc
 50
270.0064398497765
 51
326.1370559870986
  0
ARC
  5
5521
330
1A
100
AcDbEntity
  8
ﾃ_ﾝﾃ_ﾝ部
100
AcDbCircle
 10
245.5315071140529
 20
138.9843412298476
 30
0.0
 40
3.047637931335996
100
AcDbArc
 50
102.8394304765842
 51
275.7785690524154
  0
ARC
  5
5522
330
1A
100
AcDbEntity
  8
ﾃ_ﾝﾃ_ﾝ部
100
AcDbCircle
 10
271.8383659287059
 20
160.9520797246246
 30
0.0
 40
33.00002000032689
100
AcDbArc
 50
335.4799350084628
 51
215.1448254843292
  0
ARC
  5
5523
330
1A
100
AcDbEntity
  8
ﾃ_ﾝﾃ_ﾝ部
100
AcDbCircle
 10
302.772127766212
 20
146.8416673067299
 30
0.0
 40
1.000000000000045
100
AcDbArc
 50
155.4799350084627
 51
256.4998922907264
  0
ARC
  5
5524
330
1A
100
AcDbEntity
  8
ﾃ_ﾝﾃ_ﾝ部
100
AcDbCircle
 10
301.8383389990298
 20
142.9521893805443
 30
0.0
 40
3.000000000000031
100
AcDbArc
 50
324.8624828381449
 51
76.49989229073989
  0
ARC
  5
5525
330
1A
100
AcDbEntity
  8
ﾃ_ﾝﾃ_ﾝ部
100
AcDbCircle
 10
299.838357184762
 20
138.9521685959222
 30
0.0
 40
5.000022844947981
100
AcDbArc
 50
27.04419034496214
 51
134.9992610213871
  0
LINE
  5
5526
330
1A
100
AcDbEntity
  8
ﾃ_ﾝﾃ_ﾝ部
100
AcDbLine
 10
296.3028528738078
 20
142.4877677270179
 30
0.0
 11
295.8384581852016
 21
142.9521698662048
 31
0.0
  0
ARC
  5
5527
330
1A
100
AcDbEntity
  8
ﾃ_ﾝﾃ_ﾝ部
100
AcDbCircle
 10
271.8383659287059
 20
160.9520797246246
 30
0.0
 40
30.000020000327
100
AcDbArc
 50
323.1303469618617
 51
350.405915457323
  0
LINE
  5
5528
330
1A
100
AcDbEntity
  8
ﾃ_ﾝﾃ_ﾝ部
100
AcDbLine
 10
301.418786590105
 20
155.9520695515877
 30
0.0
 11
300.5611800599155
 21
156.9520715781456
 31
0.0
  0
ARC
  5
5529
330
1A
100
AcDbEntity
  8
ﾃ_ﾝﾃ_ﾝ部
100
AcDbCircle
 10
271.8383659287059
 20
160.9520797246246
 30
0.0
 40
28.99999999999998
100
AcDbArc
 50
352.0718354613781
 51
7.928118993781147
  0
LINE
  5
552A
330
1A
100
AcDbEntity
  8
ﾃ_ﾝﾃ_ﾝ部
100
AcDbLine
 10
300.5611800599155
 20
164.9520654388672
 30
0.0
 11
301.418786590105
 21
165.9520674654251
 31
0.0
  0
ARC
  5
552B
330
1A
100
AcDbEntity
  8
ﾃ_ﾝﾃ_ﾝ部
100
AcDbCircle
 10
271.8383659287059
 20
160.9520797246246
 30
0.0
 40
30.00002000032695
100
AcDbArc
 50
9.594038997836792
 51
170.4059154573229
  0
LINE
  5
552C
330
1A
100
AcDbEntity
  8
ﾃ_ﾝﾃ_ﾝ部
100
AcDbLine
 10
242.2579505491313
 20
165.9520898171667
 30
0.0
 11
243.1155570793208
 21
164.9520877906088
 31
0.0
  0
ARC
  5
552D
330
1A
100
AcDbEntity
  8
ﾃ_ﾝﾃ_ﾝ部
100
AcDbCircle
 10
271.8383659287059
 20
160.9520797246246
 30
0.0
 40
28.99999999999993
100
AcDbArc
 50
172.0718354613782
 51
187.9281189937811
  0
LINE
  5
552E
330
1A
100
AcDbEntity
  8
ﾃ_ﾝﾃ_ﾝ部
100
AcDbLine
 10
243.1155496287402
 20
156.9520939298872
 30
0.0
 11
242.6840827810821
 21
156.4489860244993
 31
0.0
  0
ARC
  5
552F
330
1A
100
AcDbEntity
  8
ﾃ_ﾝﾃ_ﾝ部
100
AcDbCircle
 10
271.8383659287059
 20
160.9520797246246
 30
0.0
 40
29.50000000000033
100
AcDbArc
 50
188.7803708443402
 51
211.5798807196484
  0
ARC
  5
5530
330
1A
100
AcDbEntity
  8
ﾃ_ﾝﾃ_ﾝ部
100
AcDbCircle
 10
246.2810395867167
 20
145.2414759727284
 30
0.0
 40
0.5000000000003339
100
AcDbArc
 50
302.0550591267955
 51
31.5798807197002
  0
ARC
  5
5531
330
1A
100
AcDbEntity
  8
ﾃ_ﾝﾃ_ﾝ部
100
AcDbCircle
 10
271.8383659287059
 20
160.9520797246246
 30
0.0
 40
30.0000200003267
100
AcDbArc
 50
212.5348211118851
 51
217.8403523077118
  0
CIRCLE
  5
5532
330
1A
100
AcDbEntity
  8
ﾃ_ﾝﾃ_ﾝ部
100
AcDbCircle
 10
299.838357184762
 20
138.9521685959222
 30
0.0
 40
2.249999999999991
  0
ARC
  5
5533
330
1A
100
AcDbEntity
  8
ﾃ_ﾝﾃ_ﾝ部
100
AcDbCircle
 10
299.838357184762
 20
138.9521685959222
 30
0.0
 40
5.000022844947965
100
AcDbArc
 50
221.0647390464401
 51
27.04419034496214
  0
LINE
  5
5534
330
1A
100
AcDbEntity
  8
ﾃ_ﾝﾃ_ﾝ部
100
AcDbLine
 10
243.4516080665645
 20
144.1237289615873
 30
0.0
 11
243.4516080665645
 21
143.3465141960386
 31
0.0
  0
LINE
  5
5535
330
1A
100
AcDbEntity
  8
ﾃ_ﾝﾃ_ﾝ部
100
AcDbLine
 10
243.4516080665645
 20
141.2310037919287
 30
0.0
 11
243.4516080665645
 21
141.2119228550199
 31
0.0
  0
LINE
  5
55B9
330
1A
100
AcDbEntity
  8
金具部
100
AcDbLine
 10
261.8383594799098
 20
117.9521676310306
 30
0.0
 11
261.8383594799098
 21
118.9521696575885
 31
0.0
  0
LINE
  5
55BA
330
1A
100
AcDbEntity
  8
金具部
100
AcDbLine
 10
261.8383594799098
 20
118.9521696575885
 30
0.0
 11
264.838358109003
 21
118.9521696575885
 31
0.0
  0
LINE
  5
55BB
330
1A
100
AcDbEntity
  8
金具部
100
AcDbLine
 10
264.838358109003
 20
118.9521696575885
 30
0.0
 11
264.838358109003
 21
117.9521676310306
 31
0.0
  0
LINE
  5
55BC
330
1A
100
AcDbEntity
  8
金具部
100
AcDbLine
 10
264.838358109003
 20
117.9521676310306
 30
0.0
 11
261.8383594799098
 21
117.9521676310306
 31
0.0
  0
LINE
  5
55BD
330
1A
100
AcDbEntity
  8
金具部
100
AcDbLine
 10
278.8383566784915
 20
117.9521676310307
 30
0.0
 11
278.8383566784915
 21
118.9521696575886
 31
0.0
  0
LINE
  5
55BE
330
1A
100
AcDbEntity
  8
金具部
100
AcDbLine
 10
264.838358109003
 20
117.9521676310306
 30
0.0
 11
278.8383566784915
 21
117.9521676310307
 31
0.0
  0
LINE
  5
55BF
330
1A
100
AcDbEntity
  8
金具部
100
AcDbLine
 10
264.838358109003
 20
118.9521696575885
 30
0.0
 11
278.8383566784915
 21
118.9521696575886
 31
0.0
  0
LINE
  5
55C0
330
1A
100
AcDbEntity
  8
金具部
100
AcDbLine
 10
281.8383553075847
 20
118.9521696575886
 30
0.0
 11
281.8383553075847
 21
117.9521676310307
 31
0.0
  0
LINE
  5
55C1
330
1A
100
AcDbEntity
  8
金具部
100
AcDbLine
 10
281.8383553075847
 20
117.9521676310307
 30
0.0
 11
278.8383566784915
 21
117.9521676310307
 31
0.0
  0
LINE
  5
55C2
330
1A
100
AcDbEntity
  8
金具部
100
AcDbLine
 10
278.8383566784915
 20
118.9521696575886
 30
0.0
 11
281.8383553075847
 21
118.9521696575886
 31
0.0
  0
LINE
  5
55C3
330
1A
100
AcDbEntity
  8
金具部
100
AcDbLine
 10
261.8383594799098
 20
115.9521673032049
 30
0.0
 11
281.8383553075847
 21
115.9521673032052
 31
0.0
  0
LINE
  5
55C4
330
1A
100
AcDbEntity
  8
金具部
100
AcDbLine
 10
281.8383553075847
 20
115.9521673032052
 30
0.0
 11
281.8383553075847
 21
117.9521676310307
 31
0.0
  0
LINE
  5
55C5
330
1A
100
AcDbEntity
  8
金具部
100
AcDbLine
 10
261.8383594799098
 20
115.9521673032049
 30
0.0
 11
261.8383594799098
 21
117.9521676310306
 31
0.0
  0
LINE
  5
55C6
330
1A
100
AcDbEntity
  8
金具部
100
AcDbLine
 10
261.83835947991
 20
83.95216857725428
 30
0.0
 11
264.8383581090032
 21
83.95216857725438
 31
0.0
  0
LINE
  5
55C7
330
1A
100
AcDbEntity
  8
金具部
100
AcDbLine
 10
264.8383581090032
 20
83.95216857725438
 30
0.0
 11
264.8383581090032
 21
82.95216841334161
 31
0.0
  0
LINE
  5
55C8
330
1A
100
AcDbEntity
  8
金具部
100
AcDbLine
 10
264.8383581090032
 20
82.95216841334161
 30
0.0
 11
261.83835947991
 21
82.95216841334161
 31
0.0
  0
LINE
  5
55C9
330
1A
100
AcDbEntity
  8
金具部
100
AcDbLine
 10
261.83835947991
 20
82.95216841334161
 30
0.0
 11
261.83835947991
 21
83.95216857725428
 31
0.0
  0
LINE
  5
55CA
330
1A
100
AcDbEntity
  8
金具部
100
AcDbLine
 10
278.8383566784917
 20
82.95216841334172
 30
0.0
 11
278.8383566784917
 21
83.95216857725449
 31
0.0
  0
LINE
  5
55CB
330
1A
100
AcDbEntity
  8
金具部
100
AcDbLine
 10
264.8383581090032
 20
83.95216857725438
 30
0.0
 11
278.8383566784917
 21
83.95216857725449
 31
0.0
  0
LINE
  5
55CC
330
1A
100
AcDbEntity
  8
金具部
100
AcDbLine
 10
264.8383581090032
 20
82.95216841334161
 30
0.0
 11
278.8383566784917
 21
82.95216841334172
 31
0.0
  0
LINE
  5
55CD
330
1A
100
AcDbEntity
  8
金具部
100
AcDbLine
 10
278.8383566784917
 20
83.95216857725449
 30
0.0
 11
281.8383553075849
 21
83.95216857725449
 31
0.0
  0
LINE
  5
55CE
330
1A
100
AcDbEntity
  8
金具部
100
AcDbLine
 10
281.8383553075849
 20
82.95216841334172
 30
0.0
 11
278.8383566784917
 21
82.95216841334172
 31
0.0
  0
LINE
  5
55CF
330
1A
100
AcDbEntity
  8
金具部
100
AcDbLine
 10
281.8383553075849
 20
83.95216857725449
 30
0.0
 11
281.8383553075849
 21
82.95216841334172
 31
0.0
  0
LINE
  5
55D0
330
1A
100
AcDbEntity
  8
金具部
100
AcDbLine
 10
281.8383553075847
 20
117.0292008825547
 30
0.0
 11
281.8383553075847
 21
118.9521696575885
 31
0.0
  0
LINE
  5
55D1
330
1A
100
AcDbEntity
  8
金具部
100
AcDbLine
 10
261.8383594799098
 20
117.0292008825544
 30
0.0
 11
261.8383594799098
 21
118.9521696575884
 31
0.0
  0
LINE
  5
55D2
330
1A
100
AcDbEntity
  8
金具部
100
AcDbLine
 10
261.83835947991
 20
87.95172871732757
 30
0.0
 11
281.8383553075849
 21
87.95172871732772
 31
0.0
  0
LINE
  5
55D3
330
1A
100
AcDbEntity
  8
金具部
100
AcDbLine
 10
281.8383553075849
 20
83.95216857725449
 30
0.0
 11
281.8383553075849
 21
87.95172871732772
 31
0.0
  0
LINE
  5
55D4
330
1A
100
AcDbEntity
  8
金具部
100
AcDbLine
 10
261.83835947991
 20
83.95216857725428
 30
0.0
 11
261.83835947991
 21
87.95172871732757
 31
0.0
  0
LINE
  5
55D5
330
1A
100
AcDbEntity
  8
金具部
100
AcDbLine
 10
281.8383553075849
 20
82.95216841334161
 30
0.0
 11
281.8383553075849
 21
86.59500593030513
 31
0.0
  0
LINE
  5
55D6
330
1A
100
AcDbEntity
  8
金具部
100
AcDbLine
 10
261.83835947991
 20
82.9521684133415
 30
0.0
 11
261.83835947991
 21
86.59500593030498
 31
0.0
  0
CIRCLE
  5
55D7
330
1A
100
AcDbEntity
  8
ﾃ_ﾝﾃ_ﾝ部
100
AcDbCircle
 10
299.838357184762
 20
138.9521685959222
 30
0.0
 40
2.400000000000019
  0
ARC
  5
55D8
330
1A
100
AcDbEntity
  8
ﾃ_ﾝﾃ_ﾝ部
100
AcDbCircle
 10
271.8383814092131
 20
160.9520675614143
 30
0.0
 40
30.00000000000005
100
AcDbArc
 50
297.8180869740039
 51
323.1303435558972
  0
LINE
  5
55D9
330
1A
100
AcDbEntity
  8
ﾃ_ﾝﾃ_ﾝ部
100
AcDbLine
 10
295.8384581852016
 20
142.9521698662048
 30
0.0
 11
296.3028603243884
 21
142.4876708694701
 31
0.0
  0
ARC
  5
55DA
330
1A
100
AcDbEntity
  8
ﾃ_ﾝﾃ_ﾝ部
100
AcDbCircle
 10
299.838357184762
 20
138.9521685959222
 30
0.0
 40
4.999952049770207
100
AcDbArc
 50
221.189211420383
 51
135.0000000000048
  0
ARC
  5
55DB
330
1A
100
AcDbEntity
  8
ﾃ_ﾝﾃ_ﾝ部
100
AcDbCircle
 10
295.3231597233622
 20
135.0009135441558
 30
0.0
 40
1.000000000000117
100
AcDbArc
 50
41.18921142038304
 51
132.1431074025901
  0
ARC
  5
55DC
330
1A
100
AcDbEntity
  8
ﾃ_ﾝﾃ_ﾝ部
100
AcDbCircle
 10
271.8376306571193
 20
160.9535840995857
 30
0.0
 40
34.00158831367523
100
AcDbArc
 50
285.6808893182904
 51
312.1431074025798
  0
ARC
  5
55DD
330
1A
100
AcDbEntity
  8
ﾃ_ﾝﾃ_ﾝ部
100
AcDbCircle
 10
281.8384103777591
 20
125.3290685959191
 30
0.0
 40
3.000056242908369
100
AcDbArc
 50
105.6808893182904
 51
180.0
  0
LINE
  5
55DE
330
1A
100
AcDbEntity
  8
ﾃ_ﾝﾃ_ﾝ部
100
AcDbLine
 10
278.8383566784915
 20
125.3290694364314
 30
0.0
 11
278.8383566784915
 21
118.9521696575885
 31
0.0
  0
LINE
  5
55DF
330
1A
100
AcDbEntity
  8
ﾃ_ﾝﾃ_ﾝ部
100
AcDbLine
 10
264.8383506584224
 20
118.9521696575884
 30
0.0
 11
264.8383506584224
 21
125.3290694364313
 31
0.0
  0
ARC
  5
55E0
330
1A
100
AcDbEntity
  8
ﾃ_ﾝﾃ_ﾝ部
100
AcDbCircle
 10
261.8384286986187
 20
125.3290685959189
 30
0.0
 40
2.999925436232388
100
AcDbArc
 50
0.0
 51
74.3209436951492
  0
ARC
  5
55E1
330
1A
100
AcDbEntity
  8
ﾃ_ﾝﾃ_ﾝ部
100
AcDbCircle
 10
271.8363033822362
 20
160.9476148486384
 30
0.0
 40
33.9951868807541
100
AcDbArc
 50
233.9523206653851
 51
254.3209436951491
  0
ARC
  5
55E2
330
1A
100
AcDbEntity
  8
ﾃ_ﾝﾃ_ﾝ部
100
AcDbCircle
 10
251.2430626497192
 20
132.6529953926447
 30
0.0
 40
1.000056424970939
100
AcDbArc
 50
53.95232066536983
 51
130.6300068664772
  0
ARC
  5
55E3
330
1A
100
AcDbEntity
  8
ﾃ_ﾝﾃ_ﾝ部
100
AcDbCircle
 10
245.8383214674769
 20
138.9521355824552
 30
0.0
 40
7.299967332700678
100
AcDbArc
 50
179.9997408848507
 51
310.6300068664896
  0
LINE
  5
55E4
330
1A
100
AcDbEntity
  8
ﾃ_ﾝﾃ_ﾝ部
100
AcDbLine
 10
238.5383524942454
 20
138.9521692105535
 30
0.0
 11
238.5383524942454
 21
139.4521702238325
 31
0.0
  0
ARC
  5
55E5
330
1A
100
AcDbEntity
  8
ﾃ_ﾝﾃ_ﾝ部
100
AcDbCircle
 10
242.5383509048261
 20
139.4521685959188
 30
0.0
 40
3.999996769975268
100
AcDbArc
 50
43.89791126492339
 51
180.0
  0
ARC
  5
55E6
330
1A
100
AcDbEntity
  8
ﾃ_ﾝﾃ_ﾝ部
100
AcDbCircle
 10
245.8384681968217
 20
138.9522643235862
 30
0.0
 40
3.299961230152084
100
AcDbArc
 50
97.27384527004993
 51
322.3903495375897
  0
ARC
  5
55E7
330
1A
100
AcDbEntity
  8
ﾃ_ﾝﾃ_ﾝ部
100
AcDbCircle
 10
251.0669008486423
 20
134.9244260483041
 30
0.0
 40
3.300037949124714
100
AcDbArc
 50
51.40821959493933
 51
142.3903495375789
  0
ARC
  5
55E8
330
1A
100
AcDbEntity
  8
ﾃ_ﾝﾃ_ﾝ部
100
AcDbCircle
 10
271.8383814092131
 20
160.9520675614143
 30
0.0
 40
30.0
100
AcDbArc
 50
231.4082195949482
 51
242.181808404667
  0
LINE
  5
55E9
330
1A
100
AcDbEntity
  8
ﾃ_ﾝﾃ_ﾝ部
100
AcDbLine
 10
257.8383588242587
 20
133.9150700875525
 30
0.0
 11
257.8383588242587
 21
134.4190795131926
 31
0.0
  0
ARC
  5
55EA
330
1A
100
AcDbEntity
  8
ﾃ_ﾝﾃ_ﾝ部
100
AcDbCircle
 10
258.838594944615
 20
133.9153159575342
 30
0.0
 40
1.000237790439737
100
AcDbArc
 50
180.0141694071852
 51
244.3206234142994
  0
ARC
  5
55EB
330
1A
100
AcDbEntity
  8
ﾃ_ﾝﾃ_ﾝ部
100
AcDbCircle
 10
271.8385215286442
 20
160.952068649286
 30
0.0
 40
30.99997257768566
100
AcDbArc
 50
244.3206234142998
 51
295.7160327894033
  0
ARC
  5
55EC
330
1A
100
AcDbEntity
  8
ﾃ_ﾝﾃ_ﾝ部
100
AcDbCircle
 10
284.8379044687579
 20
133.9150685959221
 30
0.0
 40
1.000452716004019
100
AcDbArc
 50
296.8494830779405
 51
0.0
  0
LINE
  5
55ED
330
1A
100
AcDbEntity
  8
ﾃ_ﾝﾃ_ﾝ部
100
AcDbLine
 10
285.8383559632358
 20
134.4190571614509
 30
0.0
 11
285.8383559632358
 21
133.9150700875526
 31
0.0
  0
ARC
  5
55EE
330
1A
100
AcDbEntity
  8
ﾃ_ﾝﾃ_ﾝ部
100
AcDbCircle
 10
271.838357184762
 20
130.952134424153
 30
0.0
 40
1.00003835210249
100
AcDbArc
 50
179.0487724430841
 51
269.9996861256139
  0
ARC
  5
55EF
330
1A
100
AcDbEntity
  8
ﾃ_ﾝﾃ_ﾝ部
100
AcDbCircle
 10
271.8383814092131
 20
160.9520675614143
 30
0.0
 40
30.0
100
AcDbArc
 50
242.181808404667
 51
268.0899306053262
  0
ARC
  5
55F0
330
1A
100
AcDbEntity
  8
ﾃ_ﾝﾃ_ﾝ部
100
AcDbCircle
 10
271.838357184762
 20
130.952134424153
 30
0.0
 40
1.00003835210249
100
AcDbArc
 50
269.9996861256139
 51
0.9511350261225452
  0
ARC
  5
55F1
330
1A
100
AcDbEntity
  8
ﾃ_ﾝﾃ_ﾝ部
100
AcDbCircle
 10
271.8383814092131
 20
160.9520675614143
 30
0.0
 40
30.00000000000005
100
AcDbArc
 50
271.9099768638769
 51
297.8180869740039
  0
LINE
  5
55F2
330
1A
100
AcDbEntity
  8
ﾃ_ﾝﾃ_ﾝ部
100
AcDbLine
 10
270.8244153308925
 20
130.9687379904989
 30
0.0
 11
272.8602790284213
 21
130.968737990499
 31
0.0
  0
LINE
  5
55F3
330
1A
100
AcDbEntity
  8
金具部
100
AcDbLine
 10
271.8383573937472
 20
115.9521375008825
 30
0.0
 11
268.3383801031169
 21
115.9521375008825
 31
0.0
  0
LINE
  5
55F4
330
1A
100
AcDbEntity
  8
金具部
100
AcDbLine
 10
275.3383346843776
 20
115.9521375008825
 30
0.0
 11
271.8383573937472
 21
115.9521375008825
 31
0.0
  0
LINE
  5
55F5
330
1A
100
AcDbEntity
  8
ﾃ_ﾝﾃ_ﾝ部
100
AcDbLine
 10
296.0505687642154
 20
142.7400145837074
 30
0.0
 11
296.3028081703242
 21
142.4877155729537
 31
0.0
  0
LINE
  5
55F6
330
1A
100
AcDbEntity
  8
金具部
100
AcDbLine
 10
281.8383553075847
 20
115.9521673032049
 30
0.0
 11
281.8383553075847
 21
117.9521676310305
 31
0.0
  0
LINE
  5
55F7
330
1A
100
AcDbEntity
  8
金具部
100
AcDbLine
 10
261.8383594799098
 20
115.9521673032049
 30
0.0
 11
261.8383594799098
 21
117.9521676310305
 31
0.0
  0
LINE
  5
55F8
330
1A
100
AcDbEntity
  8
金具部
100
AcDbLine
 10
281.8383553075847
 20
117.0292008825544
 30
0.0
 11
281.8383553075847
 21
118.9521696575884
 31
0.0
  0
LINE
  5
55F9
330
1A
100
AcDbEntity
  8
金具部
100
AcDbLine
 10
261.8383594799098
 20
117.0292008825544
 30
0.0
 11
261.8383594799098
 21
118.9521696575884
 31
0.0
  0
LINE
  5
55FA
330
1A
100
AcDbEntity
  8
金具部
100
AcDbLine
 10
281.8383553075847
 20
83.95216857725428
 30
0.0
 11
281.8383553075847
 21
84.95216874116705
 31
0.0
  0
LINE
  5
55FB
330
1A
100
AcDbEntity
  8
金具部
100
AcDbLine
 10
261.8383594799098
 20
83.95216857725428
 30
0.0
 11
261.8383594799098
 21
84.95216874116705
 31
0.0
  0
LINE
  5
55FC
330
1A
100
AcDbEntity
  8
金具部
100
AcDbLine
 10
281.8383553075847
 20
116.9521693297628
 30
0.0
 11
281.8383553075847
 21
117.9521676310305
 31
0.0
  0
LINE
  5
55FD
330
1A
100
AcDbEntity
  8
金具部
100
AcDbLine
 10
261.8383594799098
 20
116.9521693297628
 30
0.0
 11
261.8383594799098
 21
117.9521676310305
 31
0.0
  0
LINE
  5
55FE
330
1A
100
AcDbEntity
  8
金具部
100
AcDbLine
 10
281.8383553075847
 20
84.95216874116705
 30
0.0
 11
281.8383553075847
 21
116.9521693297628
 31
0.0
  0
LINE
  5
55FF
330
1A
100
AcDbEntity
  8
金具部
100
AcDbLine
 10
261.8383594799098
 20
84.95216874116705
 30
0.0
 11
261.8383594799098
 21
116.9521693297628
 31
0.0
  0
SPLINE
  5
59F1
330
1A
100
AcDbEntity
  8
ﾃ_ﾝﾃ_ﾝ部
100
AcDbSpline
210
0.0
220
0.0
230
1.0
 70
    24
 71
     1
 72
     4
 73
     2
 74
     0
 42
0.0000000001
 43
0.0000000001
 40
0.0
 40
0.0
 40
1.0
 40
1.0
 10
133.6613570511401
 20
193.9521018573051
 30
0.0
 10
115.6613578260005
 20
193.952101857305
 30
0.0
  0
SPLINE
  5
59F7
330
1A
100
AcDbEntity
  8
ﾃ_ﾝﾃ_ﾝ部
100
AcDbSpline
210
0.0
220
0.0
230
1.0
 70
    24
 71
     1
 72
     4
 73
     2
 74
     0
 42
0.0000000001
 43
0.0000000001
 40
0.0
 40
0.0
 40
1.0
 40
1.0
 10
115.6613578260009
 20
131.6521685727839
 30
0.0
 10
133.6613570511405
 20
131.6521685727839
 30
0.0
  0
SPLINE
  5
59F8
330
1A
100
AcDbEntity
  8
ﾃ_ﾝﾃ_ﾝ部
100
AcDbSpline
210
0.0
220
0.0
230
1.0
 70
    24
 71
     1
 72
     4
 73
     2
 74
     0
 42
0.0000000001
 43
0.0000000001
 40
0.0
 40
0.0
 40
1.0
 40
1.0
 10
133.6613570511405
 20
143.452163428903
 30
0.0
 10
115.6613578260009
 20
143.4521634289029
 30
0.0
  0
SPLINE
  5
59F9
330
1A
100
AcDbEntity
  8
金具部
100
AcDbSpline
210
0.0
220
0.0
230
1.0
 70
    24
 71
     1
 72
     4
 73
     2
 74
     0
 42
0.0000000001
 43
0.0000000001
 40
0.0
 40
0.0
 40
1.0
 40
1.0
 10
121.1613838732307
 20
117.9521676310305
 30
0.0
 10
121.1613838732307
 20
115.9521375008826
 30
0.0
  0
SPLINE
  5
59FA
330
1A
100
AcDbEntity
  8
金具部
100
AcDbSpline
210
0.0
220
0.0
230
1.0
 70
    24
 71
     1
 72
     4
 73
     2
 74
     0
 42
0.0000000001
 43
0.0000000001
 40
0.0
 40
0.0
 40
1.0
 40
1.0
 10
128.1613310039107
 20
115.9521375008826
 30
0.0
 10
128.1613310039107
 20
117.9521676310305
 30
0.0
  0
LINE
  5
5A0E
330
1A
100
AcDbEntity
  8
ﾃ_ﾝﾃ_ﾝ部
100
AcDbLine
 10
122.6613571107452
 20
144.1237289615874
 30
0.0
 11
126.6613577663963
 21
144.1237289615874
 31
0.0
  0
LINE
  5
5A0F
330
1A
100
AcDbEntity
  8
ﾃ_ﾝﾃ_ﾝ部
100
AcDbLine
 10
133.6613570511405
 20
143.452163428903
 30
0.0
 11
133.6613570511401
 21
193.9521018573051
 31
0.0
  0
LINE
  5
5A10
330
1A
100
AcDbEntity
  8
ﾃ_ﾝﾃ_ﾝ部
100
AcDbLine
 10
115.6613578260009
 20
143.4521634289029
 30
0.0
 11
115.6613578260005
 21
193.952101857305
 31
0.0
  0
LINE
  5
5A11
330
1A
100
AcDbEntity
  8
ﾃ_ﾝﾃ_ﾝ部
100
AcDbLine
 10
133.6613570511401
 20
165.9520674654252
 30
0.0
 11
133.6613570511405
 21
190.952103228212
 31
0.0
  0
LINE
  5
5A12
330
1A
100
AcDbEntity
  8
ﾃ_ﾝﾃ_ﾝ部
100
AcDbLine
 10
115.6613578260005
 20
165.9520674654251
 30
0.0
 11
115.6613578260009
 21
190.9521032282118
 31
0.0
  0
LINE
  5
5A13
330
1A
100
AcDbEntity
  8
ﾃ_ﾝﾃ_ﾝ部
100
AcDbLine
 10
122.6613571107452
 20
144.1237289615874
 30
0.0
 11
122.6613571107452
 21
143.452163428903
 31
0.0
  0
LINE
  5
5A14
330
1A
100
AcDbEntity
  8
ﾃ_ﾝﾃ_ﾝ部
100
AcDbLine
 10
126.6613577663963
 20
144.1237289615874
 30
0.0
 11
126.6613577663963
 21
143.452163428903
 31
0.0
  0
LINE
  5
5A15
330
1A
100
AcDbEntity
  8
ﾃ_ﾝﾃ_ﾝ部
100
AcDbLine
 10
133.6613570511401
 20
143.4521634289032
 30
0.0
 11
133.6613570511401
 21
155.9520695515878
 31
0.0
  0
LINE
  5
5A16
330
1A
100
AcDbEntity
  8
ﾃ_ﾝﾃ_ﾝ部
100
AcDbLine
 10
115.6613578260005
 20
143.4521634289032
 30
0.0
 11
115.6613578260005
 21
155.9520695515876
 31
0.0
  0
LINE
  5
5A17
330
1A
100
AcDbEntity
  8
ﾃ_ﾝﾃ_ﾝ部
100
AcDbLine
 10
133.6613570511401
 20
155.9520695515878
 30
0.0
 11
133.6613570511401
 21
156.9520715781457
 31
0.0
  0
LINE
  5
5A18
330
1A
100
AcDbEntity
  8
ﾃ_ﾝﾃ_ﾝ部
100
AcDbLine
 10
115.6613578260005
 20
155.9520695515876
 30
0.0
 11
115.6613578260005
 21
156.9520715781456
 31
0.0
  0
LINE
  5
5A19
330
1A
100
AcDbEntity
  8
ﾃ_ﾝﾃ_ﾝ部
100
AcDbLine
 10
133.6613570511401
 20
156.9520715781457
 30
0.0
 11
133.6613570511401
 21
164.9520654388673
 31
0.0
  0
LINE
  5
5A1A
330
1A
100
AcDbEntity
  8
ﾃ_ﾝﾃ_ﾝ部
100
AcDbLine
 10
115.6613578260005
 20
156.9520715781456
 30
0.0
 11
115.6613578260005
 21
164.9520654388671
 31
0.0
  0
LINE
  5
5A1B
330
1A
100
AcDbEntity
  8
ﾃ_ﾝﾃ_ﾝ部
100
AcDbLine
 10
133.6613570511401
 20
164.9520654388673
 30
0.0
 11
133.6613570511401
 21
165.9520674654252
 31
0.0
  0
LINE
  5
5A1C
330
1A
100
AcDbEntity
  8
ﾃ_ﾝﾃ_ﾝ部
100
AcDbLine
 10
115.6613578260005
 20
164.9520654388671
 30
0.0
 11
115.6613578260005
 21
165.9520674654251
 31
0.0
  0
LINE
  5
5A74
330
1A
100
AcDbEntity
  8
ﾃ_ﾝﾃ_ﾝ部
100
AcDbLine
 10
115.6613578260009
 20
138.9521692105535
 30
0.0
 11
133.6613570511405
 21
138.9521692105536
 31
0.0
  0
LINE
  5
5A75
330
1A
100
AcDbEntity
  8
ﾃ_ﾝﾃ_ﾝ部
100
AcDbLine
 10
133.6613570511405
 20
131.6521685727839
 30
0.0
 11
133.6613570511405
 21
138.9521692105536
 31
0.0
  0
LINE
  5
5A76
330
1A
100
AcDbEntity
  8
ﾃ_ﾝﾃ_ﾝ部
100
AcDbLine
 10
115.6613578260009
 20
131.6521685727839
 30
0.0
 11
115.6613578260009
 21
138.9521692105535
 31
0.0
  0
LINE
  5
5A77
330
1A
100
AcDbEntity
  8
ﾃ_ﾝﾃ_ﾝ部
100
AcDbLine
 10
115.6613578260009
 20
139.4521702238324
 30
0.0
 11
133.6613570511405
 21
139.4521702238326
 31
0.0
  0
LINE
  5
5A78
330
1A
100
AcDbEntity
  8
ﾃ_ﾝﾃ_ﾝ部
100
AcDbLine
 10
133.6613570511405
 20
139.4521702238326
 30
0.0
 11
133.6613570511405
 21
143.452163428903
 31
0.0
  0
LINE
  5
5A79
330
1A
100
AcDbEntity
  8
ﾃ_ﾝﾃ_ﾝ部
100
AcDbLine
 10
115.6613578260009
 20
139.4521702238324
 30
0.0
 11
115.6613578260009
 21
143.4521634289029
 31
0.0
  0
LINE
  5
5A7A
330
1A
100
AcDbEntity
  8
ﾃ_ﾝﾃ_ﾝ部
100
AcDbLine
 10
133.6613570511405
 20
138.9521692105536
 30
0.0
 11
133.6613570511405
 21
139.4521702238326
 31
0.0
  0
LINE
  5
5A7B
330
1A
100
AcDbEntity
  8
ﾃ_ﾝﾃ_ﾝ部
100
AcDbLine
 10
115.6613578260009
 20
138.9521692105535
 30
0.0
 11
115.6613578260009
 21
139.4521702238324
 31
0.0
  0
LINE
  5
5A7C
330
1A
100
AcDbEntity
  8
ﾃ_ﾝﾃ_ﾝ部
100
AcDbLine
 10
133.6613570511405
 20
135.6522996135954
 30
0.0
 11
133.6613570511405
 21
135.9367031761412
 31
0.0
  0
LINE
  5
5A7D
330
1A
100
AcDbEntity
  8
ﾃ_ﾝﾃ_ﾝ部
100
AcDbLine
 10
115.6613578260009
 20
135.6522996135953
 30
0.0
 11
115.6613578260009
 21
135.9367031761412
 31
0.0
  0
LINE
  5
5A7E
330
1A
100
AcDbEntity
  8
ﾃ_ﾝﾃ_ﾝ部
100
AcDbLine
 10
133.6613570511405
 20
133.4615681477789
 30
0.0
 11
133.6613570511405
 21
133.6530555197005
 31
0.0
  0
LINE
  5
5A7F
330
1A
100
AcDbEntity
  8
ﾃ_ﾝﾃ_ﾝ部
100
AcDbLine
 10
115.6613578260009
 20
133.4615681477789
 30
0.0
 11
115.6613578260009
 21
133.6530555197005
 31
0.0
  0
LINE
  5
5A80
330
1A
100
AcDbEntity
  8
ﾃ_ﾝﾃ_ﾝ部
100
AcDbLine
 10
115.6613578260009
 20
128.2173689612154
 30
0.0
 11
133.6613570511405
 21
128.2173689612154
 31
0.0
  0
LINE
  5
5A81
330
1A
100
AcDbEntity
  8
ﾃ_ﾝﾃ_ﾝ部
100
AcDbLine
 10
133.6613570511405
 20
128.2173689612154
 30
0.0
 11
133.6613570511405
 21
133.4615681477789
 31
0.0
  0
LINE
  5
5A82
330
1A
100
AcDbEntity
  8
ﾃ_ﾝﾃ_ﾝ部
100
AcDbLine
 10
115.6613578260009
 20
128.2173689612154
 30
0.0
 11
115.6613578260009
 21
133.4615681477789
 31
0.0
  0
LINE
  5
5A83
330
1A
100
AcDbEntity
  8
金具部
100
AcDbLine
 10
135.893752163655
 20
86.59500593030506
 30
0.0
 11
141.358607745177
 21
82.95216841334157
 31
0.0
  0
LINE
  5
5A84
330
1A
100
AcDbEntity
  8
金具部
100
AcDbLine
 10
133.1613262355392
 20
82.95216841334157
 30
0.0
 11
135.893752163655
 21
86.59500593030506
 31
0.0
  0
LINE
  5
5A85
330
1A
100
AcDbEntity
  8
金具部
100
AcDbLine
 10
106.6613544881408
 20
82.95216841334157
 30
0.0
 11
133.1613262355392
 21
82.95216841334157
 31
0.0
  0
ARC
  5
5A86
330
1A
100
AcDbEntity
  8
金具部
100
AcDbCircle
 10
106.6613569944435
 20
84.95216859592206
 30
0.0
 40
2.00000000000002
100
AcDbArc
 50
180.0000000000032
 51
270.0
  0
LINE
  5
5A87
330
1A
100
AcDbEntity
  8
金具部
100
AcDbLine
 10
104.6613578856055
 20
116.9521693297629
 30
0.0
 11
104.6613578856055
 21
84.95216874116712
 31
0.0
  0
ARC
  5
5A88
330
1A
100
AcDbEntity
  8
金具部
100
AcDbCircle
 10
106.6613569944435
 20
116.952168595922
 30
0.0
 40
2.000000000000014
100
AcDbArc
 50
90.0
 51
180.0
  0
LINE
  5
5A89
330
1A
100
AcDbEntity
  8
金具部
100
AcDbLine
 10
109.8539357245032
 20
118.9521696575884
 30
0.0
 11
106.6613544881408
 21
118.9521696575884
 31
0.0
  0
LINE
  5
5A8A
330
1A
100
AcDbEntity
  8
金具部
100
AcDbLine
 10
114.661355799443
 20
117.0292008825545
 30
0.0
 11
109.8539357245032
 21
118.9521696575884
 31
0.0
  0
LINE
  5
5A8B
330
1A
100
AcDbEntity
  8
金具部
100
AcDbLine
 10
119.4687758743827
 20
118.9521696575884
 30
0.0
 11
114.661355799443
 21
117.0292008825545
 31
0.0
  0
LINE
  5
5A8C
330
1A
100
AcDbEntity
  8
金具部
100
AcDbLine
 10
139.8539406418864
 20
118.9521696575884
 30
0.0
 11
119.4687758743827
 21
118.9521696575884
 31
0.0
  0
LINE
  5
5A8D
330
1A
100
AcDbEntity
  8
金具部
100
AcDbLine
 10
144.6613569915359
 20
117.0292008825545
 30
0.0
 11
139.8539406418864
 21
118.9521696575884
 31
0.0
  0
LINE
  5
5A8E
330
1A
100
AcDbEntity
  8
金具部
100
AcDbLine
 10
149.4687733411853
 20
118.9521696575885
 30
0.0
 11
144.6613569915359
 21
117.0292008825545
 31
0.0
  0
LINE
  5
5A8F
330
1A
100
AcDbEntity
  8
金具部
100
AcDbLine
 10
150.6613579750125
 20
118.9521696575885
 30
0.0
 11
149.4687733411853
 21
118.9521696575885
 31
0.0
  0
LINE
  5
5A90
330
1A
100
AcDbEntity
  8
金具部
100
AcDbLine
 10
150.6613579750125
 20
117.9521676310306
 30
0.0
 11
150.6613579750125
 21
118.9521696575885
 31
0.0
  0
LINE
  5
5A91
330
1A
100
AcDbEntity
  8
金具部
100
AcDbLine
 10
149.6613559484546
 20
117.9521676310306
 30
0.0
 11
150.6613579750125
 21
117.9521676310306
 31
0.0
  0
LINE
  5
5A92
330
1A
100
AcDbEntity
  8
金具部
100
AcDbLine
 10
144.6613569915359
 20
115.952167303205
 30
0.0
 11
149.6613559484546
 21
117.9521676310306
 31
0.0
  0
LINE
  5
5A93
330
1A
100
AcDbEntity
  8
金具部
100
AcDbLine
 10
139.6613580346172
 20
117.9521676310305
 30
0.0
 11
144.6613569915359
 21
115.952167303205
 31
0.0
  0
LINE
  5
5A94
330
1A
100
AcDbEntity
  8
金具部
100
AcDbLine
 10
119.661358481652
 20
117.9521676310305
 30
0.0
 11
139.6613580346172
 21
117.9521676310305
 31
0.0
  0
LINE
  5
5A95
330
1A
100
AcDbEntity
  8
金具部
100
AcDbLine
 10
114.661355799443
 20
115.952167303205
 30
0.0
 11
119.661358481652
 21
117.9521676310305
 31
0.0
  0
LINE
  5
5A96
330
1A
100
AcDbEntity
  8
金具部
100
AcDbLine
 10
109.6613605678146
 20
117.9521676310305
 30
0.0
 11
114.661355799443
 21
115.952167303205
 31
0.0
  0
LINE
  5
5A97
330
1A
100
AcDbEntity
  8
金具部
100
AcDbLine
 10
106.6613544881408
 20
117.9521676310305
 30
0.0
 11
109.6613605678146
 21
117.9521676310305
 31
0.0
  0
ARC
  5
5A98
330
1A
100
AcDbEntity
  8
金具部
100
AcDbCircle
 10
106.6613569944435
 20
116.952168595922
 30
0.0
 40
1.0
100
AcDbArc
 50
90.0
 51
180.0
  0
LINE
  5
5A99
330
1A
100
AcDbEntity
  8
金具部
100
AcDbLine
 10
105.6613599121635
 20
84.95216874116712
 30
0.0
 11
105.6613599121635
 21
116.9521693297629
 31
0.0
  0
ARC
  5
5A9A
330
1A
100
AcDbEntity
  8
金具部
100
AcDbCircle
 10
106.6613569944435
 20
84.95216859592217
 30
0.0
 40
1.000000000000162
100
AcDbArc
 50
180.0000000000097
 51
270.0
  0
LINE
  5
5A9B
330
1A
100
AcDbEntity
  8
金具部
100
AcDbLine
 10
132.6613550245826
 20
83.95216857725433
 30
0.0
 11
106.6613544881408
 21
83.95216857725433
 31
0.0
  0
LINE
  5
5A9C
330
1A
100
AcDbEntity
  8
金具部
100
AcDbLine
 10
135.6613536536758
 20
87.95172871732763
 30
0.0
 11
132.6613550245826
 21
83.95216857725433
 31
0.0
  0
LINE
  5
5A9D
330
1A
100
AcDbEntity
  8
金具部
100
AcDbLine
 10
141.6613583624427
 20
83.95216857725433
 30
0.0
 11
135.6613536536758
 21
87.95172871732763
 31
0.0
  0
LINE
  5
5A9E
330
1A
100
AcDbEntity
  8
金具部
100
AcDbLine
 10
143.6613586902683
 20
83.95216857725433
 30
0.0
 11
141.6613583624427
 21
83.95216857725433
 31
0.0
  0
LINE
  5
5A9F
330
1A
100
AcDbEntity
  8
金具部
100
AcDbLine
 10
143.6613586902683
 20
82.9521684133417
 30
0.0
 11
143.6613586902683
 21
83.95216857725433
 31
0.0
  0
LINE
  5
5AA0
330
1A
100
AcDbEntity
  8
金具部
100
AcDbLine
 10
141.358607745177
 20
82.95216841334157
 30
0.0
 11
143.6613586902683
 21
82.9521684133417
 31
0.0
  0
LINE
  5
5AA1
330
1A
100
AcDbEntity
  8
金具部
100
AcDbLine
 10
150.6613579750125
 20
118.9521696575885
 30
0.0
 11
153.6613566041057
 21
118.9521696575885
 31
0.0
  0
LINE
  5
5AA2
330
1A
100
AcDbEntity
  8
金具部
100
AcDbLine
 10
153.6613566041057
 20
118.9521696575885
 30
0.0
 11
153.6613566041057
 21
117.9521676310306
 31
0.0
  0
LINE
  5
5AA3
330
1A
100
AcDbEntity
  8
金具部
100
AcDbLine
 10
153.6613566041057
 20
117.9521676310306
 30
0.0
 11
150.6613579750125
 21
117.9521676310306
 31
0.0
  0
LINE
  5
5AA4
330
1A
100
AcDbEntity
  8
金具部
100
AcDbLine
 10
146.6613573193614
 20
83.95216857725444
 30
0.0
 11
146.6613573193614
 21
82.9521684133417
 31
0.0
  0
LINE
  5
5AA5
330
1A
100
AcDbEntity
  8
金具部
100
AcDbLine
 10
143.6613586902683
 20
83.95216857725433
 30
0.0
 11
146.6613573193614
 21
83.95216857725444
 31
0.0
  0
LINE
  5
5AA6
330
1A
100
AcDbEntity
  8
金具部
100
AcDbLine
 10
146.6613573193614
 20
82.9521684133417
 30
0.0
 11
143.6613586902683
 21
82.9521684133417
 31
0.0
  0
LINE
  5
5AA7
330
1A
100
AcDbEntity
  8
ﾃ_ﾝﾃ_ﾝ部
100
AcDbLine
 10
115.6613578260009
 20
125.3290694364314
 30
0.0
 11
133.6613570511405
 21
125.3290694364314
 31
0.0
  0
LINE
  5
5AA8
330
1A
100
AcDbEntity
  8
ﾃ_ﾝﾃ_ﾝ部
100
AcDbLine
 10
133.6613570511405
 20
125.3290694364314
 30
0.0
 11
133.6613570511405
 21
128.2173689612154
 31
0.0
  0
LINE
  5
5AA9
330
1A
100
AcDbEntity
  8
ﾃ_ﾝﾃ_ﾝ部
100
AcDbLine
 10
115.6613578260009
 20
125.3290694364314
 30
0.0
 11
115.6613578260009
 21
128.2173689612154
 31
0.0
  0
LINE
  5
5AAA
330
1A
100
AcDbEntity
  8
ﾃ_ﾝﾃ_ﾝ部
100
AcDbLine
 10
115.6613578260009
 20
118.9521696575884
 30
0.0
 11
119.4687758743827
 21
118.9521696575884
 31
0.0
  0
LINE
  5
5AAB
330
1A
100
AcDbEntity
  8
ﾃ_ﾝﾃ_ﾝ部
100
AcDbLine
 10
133.6613570511405
 20
118.9521696575884
 30
0.0
 11
133.6613570511405
 21
125.3290694364314
 31
0.0
  0
LINE
  5
5AAC
330
1A
100
AcDbEntity
  8
ﾃ_ﾝﾃ_ﾝ部
100
AcDbLine
 10
115.6613578260009
 20
118.9521696575884
 30
0.0
 11
115.6613578260009
 21
125.3290694364314
 31
0.0
  0
LINE
  5
5AAD
330
1A
100
AcDbEntity
  8
金具部
100
AcDbLine
 10
128.1613310039107
 20
115.9521375008826
 30
0.0
 11
121.1613838732307
 21
115.9521375008826
 31
0.0
  0
LINE
  5
5AAE
330
1A
100
AcDbEntity
  8
ﾃ_ﾝﾃ_ﾝ部
100
AcDbLine
 10
133.6613570511405
 20
134.4190571614509
 30
0.0
 11
133.6613570511405
 21
135.9367031761413
 31
0.0
  0
LINE
  5
5AAF
330
1A
100
AcDbEntity
  8
ﾃ_ﾝﾃ_ﾝ部
100
AcDbLine
 10
115.6613578260009
 20
134.4190571614508
 30
0.0
 11
115.6613578260009
 21
135.9367031761413
 31
0.0
  0
LINE
  5
5AB0
330
1A
100
AcDbEntity
  8
ﾃ_ﾝﾃ_ﾝ部
100
AcDbLine
 10
115.6613578260009
 20
134.4190571614508
 30
0.0
 11
115.6613578260009
 21
133.9150700875525
 31
0.0
  0
LINE
  5
5AB1
330
1A
100
AcDbEntity
  8
ﾃ_ﾝﾃ_ﾝ部
100
AcDbLine
 10
133.6613570511405
 20
134.4190571614509
 30
0.0
 11
133.6613570511405
 21
133.9150700875526
 31
0.0
  0
LINE
  5
5AB2
330
1A
100
AcDbEntity
  8
ﾃ_ﾝﾃ_ﾝ部
100
AcDbLine
 10
115.6613578260009
 20
135.6594596215492
 30
0.0
 11
115.6613578260009
 21
135.9367031761413
 31
0.0
  0
LINE
  5
5AB3
330
1A
100
AcDbEntity
  8
ﾃ_ﾝﾃ_ﾝ部
100
AcDbLine
 10
133.6613570511405
 20
135.6594596215492
 30
0.0
 11
133.6613570511405
 21
135.9367031761413
 31
0.0
  0
LINE
  5
7B1D
330
1A
100
AcDbEntity
  8
CENTER_L
  6
CENTER
 48
5.0
100
AcDbLine
 10
271.8383573937475
 20
74.92200288137765
 30
0.0
 11
271.8383573937475
 21
201.9289307977611
 31
0.0
  0
LINE
  5
7B1E
330
1A
100
AcDbEntity
  8
CENTER_L
  6
CENTER
 48
5.0
100
AcDbLine
 10
312.8152084668839
 20
160.9520797246246
 30
0.0
 11
230.861506320611
 21
160.9520797246246
 31
0.0
  0
LINE
  5
7B20
330
1A
100
AcDbEntity
  8
CENTER_L
  6
CENTER
 48
5.0
100
AcDbLine
 10
124.6613489054119
 20
110.6423848073351
 30
0.0
 11
124.6613489054119
 21
201.9289329301146
 31
0.0
  0
LINE
  5
86F2
330
1A
100
AcDbEntity
  8
SUNPOU
100
AcDbLine
 10
115.6613135697814
 20
196.6522684133416
 30
0.0
 11
115.6613135697814
 21
214.6571433602421
 31
0.0
  0
LINE
  5
86F3
330
1A
100
AcDbEntity
  8
SUNPOU
100
AcDbLine
 10
133.6613135697814
 20
196.6522684133416
 30
0.0
 11
133.6613135697814
 21
214.6571433602421
 31
0.0
  0
DIMENSION
  5
86F4
330
1A
100
AcDbEntity
  8
SUNPOU
100
AcDbDimension
  2
*D3
 10
153.6613573193614
 20
230.9209807925631
 30
0.0
 11
129.1613573193614
 21
234.9209807925631
 31
0.0
 70
    32
 71
     5
 42
-1.0
  3
STANDARD
100
AcDbAlignedDimension
 13
104.6613573193614
 23
116.9521684133416
 33
0.0
 14
153.6613573193614
 24
118.9521684133417
 34
0.0
100
AcDbRotatedDimension
  0
DIMENSION
  5
86F5
330
1A
100
AcDbEntity
  8
SUNPOU
100
AcDbDimension
  2
*D2
 10
104.6613573193614
 20
221.9186569804568
 30
0.0
 11
114.6613573193614
 21
225.9186569804569
 31
0.0
 70
    32
 71
     5
 42
-1.0
  3
STANDARD
100
AcDbAlignedDimension
 13
124.6613573193614
 23
201.6522684133416
 33
0.0
 14
104.6613573193614
 24
116.9521684133416
 34
0.0
100
AcDbRotatedDimension
  0
LINE
  5
86F6
330
1A
100
AcDbEntity
  8
SUNPOU
100
AcDbLine
 10
118.6613135697813
 20
213.1571433602421
 30
0.0
 11
130.6613135697814
 21
213.1571433602421
 31
0.0
  0
INSERT
  5
86F7
330
1A
100
AcDbEntity
  8
SUNPOU
100
AcDbBlockReference
  2
_OPEN
 10
115.6613135697814
 20
213.1571433602421
 30
0.0
 41
3.0
 42
3.0
 43
3.0
 50
180.0
  0
INSERT
  5
86F8
330
1A
100
AcDbEntity
  8
SUNPOU
100
AcDbBlockReference
  2
_OPEN
 10
133.6613135697814
 20
213.1571433602421
 30
0.0
 41
3.0
 42
3.0
 43
3.0
  0
MTEXT
  5
86F9
330
1A
100
AcDbEntity
  8
SUNPOU
100
AcDbMText
 10
129.2608324114139
 20
216.5453559814794
 30
0.0
 40
4.0
 41
0.0
 71
     5
 72
     5
  1
18
 73
     1
 44
1.0
1001
ACAD
1000
MTEXTBEGIN
1070
    73
1070
     1
1070
    44
1040
1.0
1070
    74
1070
     0
1000
MTEXTEND
  0
DIMENSION
  5
86FA
330
1A
100
AcDbEntity
  8
SUNPOU
100
AcDbDimension
  2
*D6
 10
177.3034896731482
 20
87.95172811344164
 30
0.0
 11
173.3034896731482
 21
101.9519482633916
 31
0.0
 70
    32
 71
     5
 42
-1.0
  3
STANDARD
100
AcDbAlignedDimension
 13
144.6613573193614
 23
115.9521684133416
 33
0.0
 14
135.6613573193614
 24
87.95172811344164
 34
0.0
 50
90.0
100
AcDbRotatedDimension
  0
DIMENSION
  5
86FB
330
1A
100
AcDbEntity
  8
SUNPOU
100
AcDbDimension
  2
*D4
 10
104.6613573193614
 20
58.30537605534118
 30
0.0
 11
125.6613573193614
 21
62.30537605534118
 31
0.0
 70
    32
 71
     5
 42
-1.0
  3
STANDARD
100
AcDbAlignedDimension
 13
146.6613573193614
 23
82.9521684133417
 33
0.0
 14
104.6613573193614
 24
84.95216841334169
 34
0.0
100
AcDbRotatedDimension
  0
DIMENSION
  5
86FC
330
1A
100
AcDbEntity
  8
SUNPOU
100
AcDbDimension
  2
*D5
 10
120.339912442168
 20
82.9521684133417
 30
0.0
 11
116.339912442168
 21
69.95216841334171
 31
0.0
 70
    32
  1
t<>
 71
     5
 42
-1.0
  3
STANDARD
100
AcDbAlignedDimension
 13
106.6613573193614
 23
83.95216841334169
 33
0.0
 14
106.6613573193614
 24
82.9521684133417
 34
0.0
 50
90.0
100
AcDbRotatedDimension
1001
ACAD
1000
DSTYLE
1002
{
1070
   271
1070
     1
1002
}
  0
DIMENSION
  5
8780
330
1A
100
AcDbEntity
  8
SUNPOU
100
AcDbDimension
  2
*D9
 10
281.8383573937475
 20
58.30537605534118
 30
0.0
 11
271.8383573937475
 21
62.30537605534118
 31
0.0
 70
    32
 71
     5
 42
-1.0
  3
STANDARD
100
AcDbAlignedDimension
 13
261.8383573937475
 23
82.9521684133417
 33
0.0
 14
281.8383573937475
 24
82.95216841334166
 34
0.0
100
AcDbRotatedDimension
  0
DIMENSION
  5
8781
330
1A
100
AcDbEntity
  8
SUNPOU
100
AcDbDimension
  2
*D8
 10
207.4910960118503
 20
82.95216841334172
 30
0.0
 11
203.4910960118503
 21
138.4521340691466
 31
0.0
 70
    32
 71
     5
 42
-1.0
  3
STANDARD
100
AcDbAlignedDimension
 13
271.8383659287059
 23
193.9520997249515
 33
0.0
 14
261.8383573937475
 24
82.9521684133417
 34
0.0
 50
90.0
100
AcDbRotatedDimension
  0
DIMENSION
  5
8782
330
1A
100
AcDbEntity
  8
SUNPOU
100
AcDbDimension
  2
*D7
 10
218.1255779819958
 20
118.9521684133417
 30
0.0
 11
214.1255779819958
 21
156.4521340691466
 31
0.0
 70
    32
 71
     5
 42
-1.0
  3
STANDARD
100
AcDbAlignedDimension
 13
271.8383659287059
 23
193.9520997249515
 33
0.0
 14
261.8107573936475
 24
118.9521684133417
 34
0.0
 50
90.0
100
AcDbRotatedDimension
  0
DIMENSION
  5
8783
330
1A
100
AcDbEntity
  8
SUNPOU
100
AcDbDimension
  2
*D10
 10
304.8383859290328
 20
213.1571433602423
 30
0.0
 11
271.8383659287059
 21
217.1571433602423
 31
0.0
 70
    32
 71
     5
 42
-1.0
  3
STANDARD
100
AcDbAlignedDimension
 13
238.838345928379
 23
160.9520797246246
 33
0.0
 14
304.8383859290328
 24
160.9520797246246
 34
0.0
100
AcDbRotatedDimension
  0
LINE
  5
8812
330
1A
100
AcDbEntity
  8
CENTER_L
100
AcDbLine
 10
299.838357184762
 20
151.8449477893297
 30
0.0
 11
299.838357184762
 21
126.0593894025148
 31
0.0
  0
LINE
  5
8813
330
1A
100
AcDbEntity
  8
CENTER_L
100
AcDbLine
 10
312.7311363781694
 20
138.9521685959222
 30
0.0
 11
286.9455779913545
 21
138.9521685959222
 31
0.0
  0
DIMENSION
  5
8A4A
330
1A
100
AcDbEntity
  8
SUNPOU
100
AcDbDimension
  2
*D11
 10
185.519999883238
 20
82.95216841334168
 30
0.0
 11
181.519999883238
 21
100.9521690354651
 31
0.0
 70
    32
 71
     5
 42
-1.0
  3
STANDARD
100
AcDbAlignedDimension
 13
153.6613566041057
 23
118.9521696575885
 33
0.0
 14
146.6613573193614
 24
82.9521684133417
 34
0.0
 50
90.0
100
AcDbRotatedDimension
  0
DIMENSION
  5
8A73
330
1A
100
AcDbEntity
  8
SUNPOU
100
AcDbDimension
  2
*D12
 10
245.7957241775865
 20
146.059732339378
 30
0.0
 11
279.5986922871214
 21
170.2227006744591
 31
0.0
 70
   163
 71
     5
 42
-1.0
  3
STANDARD
100
AcDbDiametricDimension
 15
297.8810076798254
 25
175.8444271098714
 35
0.0
 40
0.0
1001
ACAD
1000
DSTYLE
1002
{
1070
   287
1070
     5
1070
   279
1070
     2
1002
}
  0
LINE
  5
8B27
330
1A
100
AcDbEntity
  8
CENTER_L
  6
CENTER
 48
5.0
100
AcDbLine
 10
141.0994120664842
 20
160.9520797246246
 30
0.0
 11
108.2232857443395
 21
160.9520797246246
 31
0.0
  0
VIEWPORT
  5
22
102
{ACAD_XDICTIONARY
360
8E8A
102
}
330
17
100
AcDbEntity
 67
     1
  8
0
100
AcDbViewport
 10
313.6808219178082
 20
148.5
 30
0.0
 40
627.3616438356165
 41
297.0
 68
     2
 69
     1
 12
313.6808219178082
 22
148.5
 13
0.0
 23
0.0
 14
1.0
 24
1.0
 15
10.0
 25
10.0
 16
0.0
 26
0.0
 36
1.0
 17
0.0
 27
0.0
 37
0.0
 42
50.0
 43
0.0
 44
0.0
 45
297.0
 50
0.0
 51
0.0
 72
   100
 90
    32768
  1

281
     0
 71
     1
 74
     0
110
0.0
120
0.0
130
0.0
111
1.0
121
0.0
131
0.0
112
0.0
122
1.0
132
0.0
 79
     0
146
0.0
  0
VIEWPORT
  5
64
102
{ACAD_XDICTIONARY
360
8E8C
102
}
330
17
100
AcDbEntity
 67
     1
  8
VIEWPORT
100
AcDbViewport
 10
210.0
 20
148.5
 30
0.0
 40
420.0
 41
297.0
 68
     1
 69
     2
 12
210.0
 22
148.5
 13
0.0
 23
0.0
 14
5.0
 24
5.0
 15
0.0
 25
0.0
 16
0.0
 26
0.0
 36
1.0
 17
0.0
 27
0.0
 37
0.0
 42
50.0
 43
0.0
 44
0.0
 45
302.9399999999998
 50
0.0
 51
0.0
 72
   100
 90
    32768
  1

281
     0
 71
     1
 74
     0
110
0.0
120
0.0
130
0.0
111
1.0
121
0.0
131
0.0
112
0.0
122
1.0
132
0.0
 79
     0
146
0.0
  0
ENDSEC
  0
SECTION
  2
OBJECTS
  0
DICTIONARY
  5
C
330
0
100
AcDbDictionary
281
     1
  3
ACAD_COLOR
350
8E74
  3
ACAD_GROUP
350
D
  3
ACAD_LAYOUT
350
3BC
  3
ACAD_MATERIAL
350
8E73
  3
ACAD_MLINESTYLE
350
E
  3
ACAD_PLOTSETTINGS
350
3BD
  3
ACAD_PLOTSTYLENAME
350
8C12
  3
ACDBHEADERROUNDTRIPXREC
350
8E87
  3
AcDbVariableDictionary
350
8E83
1001
ACAD
1000
TREAT_AS_HARD
1070
     0
  0
DICTIONARY
  5
3EB
330
1A
100
AcDbDictionary
280
     1
281
     1
  3
ACAD_LAYOUTSELFREF
360
8E48
1001
ACAD
1000
TREAT_AS_HARD
1070
     0
  0
DICTIONARY
  5
3E9
330
17
100
AcDbDictionary
280
     1
281
     1
  3
ACAD_LAYOUTSELFREF
360
8E47
1001
ACAD
1000
TREAT_AS_HARD
1070
     0
  0
DICTIONARY
  5
8E8A
330
22
100
AcDbDictionary
280
     1
281
     1
  3
ACAD_XREC_ROUNDTRIP
360
8E8B
  0
DICTIONARY
  5
8E8C
330
64
100
AcDbDictionary
280
     1
281
     1
  3
ACAD_XREC_ROUNDTRIP
360
8E8D
  0
DICTIONARY
  5
8E74
102
{ACAD_REACTORS
330
C
102
}
330
C
100
AcDbDictionary
281
     1
  0
DICTIONARY
  5
D
102
{ACAD_REACTORS
330
C
102
}
330
C
100
AcDbDictionary
281
     1
1001
ACAD
1000
TREAT_AS_HARD
1070
     0
  0
DICTIONARY
  5
3BC
102
{ACAD_REACTORS
330
C
102
}
330
C
100
AcDbDictionary
281
     1
  3
Model
350
8C14
  3
ﾚｲｱｳﾄ1
350
8C15
1001
ACAD
1000
TREAT_AS_HARD
1070
     0
  0
DICTIONARY
  5
8E73
102
{ACAD_REACTORS
330
C
102
}
330
C
100
AcDbDictionary
281
     1
  0
DICTIONARY
  5
E
102
{ACAD_REACTORS
330
C
102
}
330
C
100
AcDbDictionary
281
     1
  3
STANDARD
350
13
1001
ACAD
1000
TREAT_AS_HARD
1070
     0
  0
DICTIONARY
  5
3BD
102
{ACAD_REACTORS
330
C
102
}
330
C
100
AcDbDictionary
281
     1
1001
ACAD
1000
TREAT_AS_HARD
1070
     0
  0
ACDBDICTIONARYWDFLT
  5
8C12
102
{ACAD_REACTORS
330
C
102
}
330
C
100
AcDbDictionary
281
     1
  3
Normal
350
8C13
100
AcDbDictionaryWithDefault
340
8C13
1001
ACAD
1000
TREAT_AS_HARD
1070
     0
  0
DICTIONARY
  5
8E87
102
{ACAD_REACTORS
330
C
102
}
330
C
100
AcDbDictionary
281
     1
  3
COLORDICT
350
8E89
  3
MATERIALDICT
350
8E88
  0
DICTIONARY
  5
8E83
102
{ACAD_REACTORS
330
C
102
}
330
C
100
AcDbDictionary
281
     1
  3
DIMASSOC
350
8E84
  3
PROJECTNAME
350
8E85
  0
XRECORD
  5
8E48
102
{ACAD_REACTORS
330
3EB
102
}
330
3EB
100
AcDbXrecord
280
     1
340
1A
  0
XRECORD
  5
8E47
102
{ACAD_REACTORS
330
3E9
102
}
330
3E9
100
AcDbXrecord
280
     1
340
17
  0
XRECORD
  5
8E8B
102
{ACAD_REACTORS
330
8E8A
102
}
330
8E8A
100
AcDbXrecord
280
     1
102
SHADEPLOT
 70
     0
  0
XRECORD
  5
8E8D
102
{ACAD_REACTORS
330
8E8C
102
}
330
8E8C
100
AcDbXrecord
280
     1
102
SHADEPLOT
 70
     0
  0
LAYOUT
  5
8C14
102
{ACAD_XDICTIONARY
360
8E8E
102
}
102
{ACAD_REACTORS
330
3BC
102
}
330
3BC
100
AcDbPlotSettings
  1

  2
Acrobat Distiller
  4
A3
  6

 40
3.174999952316284
 41
3.174999952316284
 42
3.17498779296875
 43
3.17498779296875
 44
297.0318298339844
 45
420.1583251953125
 46
7.0
 47
7.0
 48
0.0
 49
0.0
140
0.0
141
0.0
142
1.0
143
1.0
 70
 11952
 72
     1
 73
     1
 74
     2
  7
print.ctb
 75
    16
147
1.0
148
0.0
149
0.0
100
AcDbLayout
  1
Model
 70
     1
 71
     0
 10
0.0
 20
0.0
 11
12.0
 21
9.0
 12
0.0
 22
0.0
 32
0.0
 14
0.0
 24
0.0
 34
0.0
 15
0.0
 25
0.0
 35
0.0
146
0.0
 13
0.0
 23
0.0
 33
0.0
 16
1.0
 26
0.0
 36
0.0
 17
0.0
 27
1.0
 37
0.0
 76
     0
330
1A
  0
LAYOUT
  5
8C15
102
{ACAD_XDICTIONARY
360
8E90
102
}
102
{ACAD_REACTORS
330
3BC
102
}
330
3BC
100
AcDbPlotSettings
  1

  2
LP-9200C(CC9E34)
  4

  6

 40
0.0
 41
0.0
 42
0.0
 43
0.0
 44
0.0
 45
0.0
 46
0.0
 47
0.0
 48
0.0
 49
0.0
140
0.0
141
0.0
142
1.0
143
1.0
 70
   688
 72
     0
 73
     0
 74
     5
  7
print.ctb
 75
    16
147
1.0
148
0.0
149
0.0
100
AcDbLayout
  1
ﾚｲｱｳﾄ1
 70
     1
 71
     1
 10
0.0
 20
0.0
 11
420.0
 21
297.0
 12
0.0
 22
0.0
 32
0.0
 14
0.0
 24
0.0
 34
0.0
 15
420.0
 25
297.0
 35
0.0
146
0.0
 13
0.0
 23
0.0
 33
0.0
 16
1.0
 26
0.0
 36
0.0
 17
0.0
 27
1.0
 37
0.0
 76
     0
330
17
331
64
  0
MLINESTYLE
  5
13
102
{ACAD_REACTORS
330
E
102
}
330
E
100
AcDbMlineStyle
  2
STANDARD
 70
     0
  3

 62
     0
 51
90.0
 52
90.0
 71
     2
 49
0.5
 62
   256
  6
BYLAYER
 49
-0.5
 62
   256
  6
BYLAYER
  0
ACDBPLACEHOLDER
  5
8C13
102
{ACAD_REACTORS
330
8C12
102
}
330
8C12
  0
XRECORD
  5
8E89
102
{ACAD_REACTORS
330
8E87
102
}
330
8E87
100
AcDbXrecord
280
     1
340
8E74
  0
XRECORD
  5
8E88
102
{ACAD_REACTORS
330
8E87
102
}
330
8E87
100
AcDbXrecord
280
     1
340
8E73
  0
DICTIONARYVAR
  5
8E84
102
{ACAD_REACTORS
330
8E83
102
}
330
8E83
100
DictionaryVariables
280
     0
  1
1
  0
DICTIONARYVAR
  5
8E85
102
{ACAD_REACTORS
330
8E83
102
}
330
8E83
100
DictionaryVariables
280
     0
  1

  0
DICTIONARY
  5
8E8E
330
8C14
100
AcDbDictionary
280
     1
281
     1
  3
ACAD_XREC_ROUNDTRIP
360
8E8F
  0
DICTIONARY
  5
8E90
330
8C15
100
AcDbDictionary
280
     1
281
     1
  3
ACAD_XREC_ROUNDTRIP
360
8E91
  0
XRECORD
  5
8E8F
102
{ACAD_REACTORS
330
8E8E
102
}
330
8E8E
100
AcDbXrecord
280
     1
102
SHADEPLOT
 70
     0
102
SHADEPLOTRESLEVEL
 70
     2
102
SHADEPLOTCUSTOMDPI
 70
   300
  0
XRECORD
  5
8E91
102
{ACAD_REACTORS
330
8E90
102
}
330
8E90
100
AcDbXrecord
280
     1
102
SHADEPLOT
 70
     0
102
SHADEPLOTRESLEVEL
 70
     2
102
SHADEPLOTCUSTOMDPI
 70
   300
  0
ENDSEC
  0
EOF
