  0
SECTION
  2
HEADER
  9
$ACADVER
  1
AC1012
  9
$DWGCODEPAGE
  3
dos932
  9
$INSBASE
 10
0.0
 20
0.0
 30
0.0
  9
$EXTMIN
 10
6.968126355866161
 20
6.960938891117621
 30
-0.0000000000112498
  9
$EXTMAX
 10
804.6451282585563
 20
558.6242994375343
 30
0.0000000000002956
  9
$LIMMIN
 10
0.0
 20
0.0
  9
$LIMMAX
 10
841.0
 20
594.0
  9
$ORTHOMODE
 70
     1
  9
$REGENMODE
 70
     1
  9
$FILLMODE
 70
     1
  9
$QTEXTMODE
 70
     0
  9
$MIRRTEXT
 70
     1
  9
$DRAGMODE
 70
     2
  9
$LTSCALE
 40
1.0
  9
$OSMODE
 70
    63
  9
$ATTMODE
 70
     1
  9
$TEXTSIZE
 40
2.5
  9
$TRACEWID
 40
1.0
  9
$TEXTSTYLE
  7
STANDARD
  9
$CLAYER
  8
0
  9
$CELTYPE
  6
BYLAYER
  9
$CECOLOR
 62
   256
  9
$CELTSCALE
 40
1.0
  9
$DELOBJ
 70
     1
  9
$DISPSILH
 70
     0
  9
$DIMSCALE
 40
1.0
  9
$DIMASZ
 40
5.0
  9
$DIMEXO
 40
1.5
  9
$DIMDLI
 40
7.0
  9
$DIMRND
 40
0.0
  9
$DIMDLE
 40
0.0
  9
$DIMEXE
 40
1.5
  9
$DIMTP
 40
0.0
  9
$DIMTM
 40
0.0
  9
$DIMTXT
 40
6.0
  9
$DIMCEN
 40
0.0
  9
$DIMTSZ
 40
0.0
  9
$DIMTOL
 70
     0
  9
$DIMLIM
 70
     0
  9
$DIMTIH
 70
     0
  9
$DIMTOH
 70
     0
  9
$DIMSE1
 70
     0
  9
$DIMSE2
 70
     0
  9
$DIMTAD
 70
     3
  9
$DIMZIN
 70
     0
  9
$DIMBLK
  1
OPEN
  9
$DIMASO
 70
     1
  9
$DIMSHO
 70
     1
  9
$DIMPOST
  1

  9
$DIMAPOST
  1

  9
$DIMALT
 70
     0
  9
$DIMALTD
 70
     2
  9
$DIMALTF
 40
25.4
  9
$DIMLFAC
 40
1.0
  9
$DIMTOFL
 70
     0
  9
$DIMTVP
 40
0.0
  9
$DIMTIX
 70
     0
  9
$DIMSOXD
 70
     0
  9
$DIMSAH
 70
     0
  9
$DIMBLK1
  1

  9
$DIMBLK2
  1

  9
$DIMSTYLE
  2
STANDARD
  9
$DIMCLRD
 70
   256
  9
$DIMCLRE
 70
   256
  9
$DIMCLRT
 70
   256
  9
$DIMTFAC
 40
1.0
  9
$DIMGAP
 40
1.5
  9
$DIMJUST
 70
     0
  9
$DIMSD1
 70
     0
  9
$DIMSD2
 70
     0
  9
$DIMTOLJ
 70
     1
  9
$DIMTZIN
 70
     0
  9
$DIMALTZ
 70
     0
  9
$DIMALTTZ
 70
     0
  9
$DIMFIT
 70
     3
  9
$DIMUPT
 70
     0
  9
$DIMUNIT
 70
     2
  9
$DIMDEC
 70
     0
  9
$DIMTDEC
 70
     0
  9
$DIMALTU
 70
     2
  9
$DIMALTTD
 70
     2
  9
$DIMTXSTY
  7
STANDARD
  9
$DIMAUNIT
 70
     0
  9
$LUNITS
 70
     2
  9
$LUPREC
 70
     4
  9
$SKETCHINC
 40
1.0
  9
$FILLETRAD
 40
1.0
  9
$AUNITS
 70
     0
  9
$AUPREC
 70
     0
  9
$MENU
  1
.
  9
$ELEVATION
 40
0.0
  9
$PELEVATION
 40
0.0
  9
$THICKNESS
 40
0.0
  9
$LIMCHECK
 70
     0
  9
$BLIPMODE
 70
     0
  9
$CHAMFERA
 40
0.0
  9
$CHAMFERB
 40
0.0
  9
$CHAMFERC
 40
20.0
  9
$CHAMFERD
 40
0.0
  9
$SKPOLY
 70
     0
  9
$TDCREATE
 40
2450994.350997107
  9
$TDUPDATE
 40
2455896.701581307
  9
$TDINDWG
 40
0.2258596759
  9
$TDUSRTIMER
 40
0.2258596759
  9
$USRTIMER
 70
     1
  9
$ANGBASE
 50
0.0
  9
$ANGDIR
 70
     0
  9
$PDMODE
 70
     1
  9
$PDSIZE
 40
0.0
  9
$PLINEWID
 40
0.0
  9
$COORDS
 70
     0
  9
$SPLFRAME
 70
     0
  9
$SPLINETYPE
 70
     6
  9
$SPLINESEGS
 70
     8
  9
$ATTDIA
 70
     0
  9
$ATTREQ
 70
     1
  9
$HANDLING
 70
 10241
  9
$HANDSEED
  5
B2FC
  9
$SURFTAB1
 70
     6
  9
$SURFTAB2
 70
     6
  9
$SURFTYPE
 70
     6
  9
$SURFU
 70
     6
  9
$SURFV
 70
     6
  9
$UCSNAME
  2

  9
$UCSORG
 10
0.0
 20
0.0
 30
0.0
  9
$UCSXDIR
 10
1.0
 20
0.0
 30
0.0
  9
$UCSYDIR
 10
0.0
 20
1.0
 30
0.0
  9
$PUCSNAME
  2

  9
$PUCSORG
 10
0.0
 20
0.0
 30
0.0
  9
$PUCSXDIR
 10
1.0
 20
0.0
 30
0.0
  9
$PUCSYDIR
 10
0.0
 20
1.0
 30
0.0
  9
$USERI1
 70
     0
  9
$USERI2
 70
     0
  9
$USERI3
 70
     0
  9
$USERI4
 70
     0
  9
$USERI5
 70
     0
  9
$USERR1
 40
0.0
  9
$USERR2
 40
0.0
  9
$USERR3
 40
0.0
  9
$USERR4
 40
0.0
  9
$USERR5
 40
0.0
  9
$WORLDVIEW
 70
     1
  9
$SHADEDGE
 70
     3
  9
$SHADEDIF
 70
    70
  9
$TILEMODE
 70
     1
  9
$MAXACTVP
 70
    16
  9
$PINSBASE
 10
0.0
 20
0.0
 30
0.0
  9
$PLIMCHECK
 70
     0
  9
$PEXTMIN
 10
0.0
 20
0.0
 30
0.0
  9
$PEXTMAX
 10
420.0
 20
297.0
 30
0.0
  9
$PLIMMIN
 10
0.0234348157644355
 20
-0.0028127621778777
  9
$PLIMMAX
 10
419.9700900892019
 20
297.0078378725877
  9
$UNITMODE
 70
     0
  9
$VISRETAIN
 70
     0
  9
$PLINEGEN
 70
     0
  9
$PSLTSCALE
 70
     1
  9
$TREEDEPTH
 70
  3020
  9
$PICKSTYLE
 70
     1
  9
$CMLSTYLE
  2
STANDARD
  9
$CMLJUST
 70
     0
  9
$CMLSCALE
 40
1.0
  9
$SAVEIMAGES
 70
     1
  0
ENDSEC
  0
SECTION
  2
CLASSES
  0
CLASS
  1
ACDBDICTIONARYWDFLT
  2
AcDbDictionaryWithDefault
  3
AutoCAD 2000
 90
    32768
280
     0
281
     0
  0
CLASS
  1
ACDBPLACEHOLDER
  2
AcDbPlaceHolder
  3
AutoCAD 2000
 90
    32768
280
     0
281
     0
  0
CLASS
  1
LAYOUT
  2
AcDbLayout
  3
AutoCAD 2000
 90
    32768
280
     0
281
     0
  0
CLASS
  1
LONG_TRANSACTION
  2
AcDbLongTransaction
  3
AutoCAD 2000
 90
    32768
280
     0
281
     0
  0
CLASS
  1
LWPOLYLINE
  2
AcDbPolyline
  3
AutoCAD 2000
 90
    32768
280
     0
281
     1
  0
CLASS
  1
HATCH
  2
AcDbHatch
  3
AutoCAD 2000
 90
    32768
280
     0
281
     1
  0
CLASS
  1
XRECORD
  2
AcDbXrecord
  3
AutoCAD 2000
 90
    32768
280
     0
281
     0
  0
CLASS
  1
LONG_TRANSACTION
  2
AcDbLongTransaction
  3
AutoCAD 2000
 90
    32768
280
     0
281
     0
  0
CLASS
  1
LWPOLYLINE
  2
AcDbPolyline
  3
AutoCAD 2000
 90
    32768
280
     0
281
     1
  0
CLASS
  1
HATCH
  2
AcDbHatch
  3
AutoCAD 2000
 90
    32768
280
     0
281
     1
  0
CLASS
  1
XRECORD
  2
AcDbXrecord
  3
AutoCAD 2000
 90
    32768
280
     0
281
     0
  0
CLASS
  1
LONG_TRANSACTION
  2
AcDbLongTransaction
  3
AutoCAD 2000
 90
    32768
280
     0
281
     0
  0
CLASS
  1
LWPOLYLINE
  2
AcDbPolyline
  3
AutoCAD 2000
 90
    32768
280
     0
281
     1
  0
CLASS
  1
HATCH
  2
AcDbHatch
  3
AutoCAD 2000
 90
    32768
280
     0
281
     1
  0
CLASS
  1
XRECORD
  2
AcDbXrecord
  3
AutoCAD 2000
 90
    32768
280
     0
281
     0
  0
CLASS
  1
LONG_TRANSACTION
  2
AcDbLongTransaction
  3
AutoCAD 2000
 90
    32768
280
     0
281
     0
  0
CLASS
  1
LWPOLYLINE
  2
AcDbPolyline
  3
AutoCAD 2000
 90
    32768
280
     0
281
     1
  0
CLASS
  1
HATCH
  2
AcDbHatch
  3
AutoCAD 2000
 90
    32768
280
     0
281
     1
  0
CLASS
  1
XRECORD
  2
AcDbXrecord
  3
AutoCAD 2000
 90
    32768
280
     0
281
     0
  0
CLASS
  1
DICTIONARYVAR
  2
AcDbDictionaryVar
  3
AutoCAD 2000
 90
    32768
280
     0
281
     0
  0
CLASS
  1
LONG_TRANSACTION
  2
AcDbLongTransaction
  3
AutoCAD 2000
 90
    32768
280
     0
281
     0
  0
CLASS
  1
LWPOLYLINE
  2
AcDbPolyline
  3
AutoCAD 2000
 90
    32768
280
     0
281
     1
  0
CLASS
  1
HATCH
  2
AcDbHatch
  3
AutoCAD 2000
 90
    32768
280
     0
281
     1
  0
CLASS
  1
XRECORD
  2
AcDbXrecord
  3
AutoCAD 2000
 90
    32768
280
     0
281
     0
  0
CLASS
  1
LONG_TRANSACTION
  2
AcDbLongTransaction
  3
AutoCAD 2000
 90
    32768
280
     0
281
     0
  0
CLASS
  1
LWPOLYLINE
  2
AcDbPolyline
  3
AutoCAD 2000
 90
    32768
280
     0
281
     1
  0
CLASS
  1
HATCH
  2
AcDbHatch
  3
AutoCAD 2000
 90
    32768
280
     0
281
     1
  0
CLASS
  1
XRECORD
  2
AcDbXrecord
  3
AutoCAD 2000
 90
    32768
280
     0
281
     0
  0
CLASS
  1
LONG_TRANSACTION
  2
AcDbLongTransaction
  3
AutoCAD 2000
 90
    32768
280
     0
281
     0
  0
CLASS
  1
LWPOLYLINE
  2
AcDbPolyline
  3
AutoCAD 2000
 90
    32768
280
     0
281
     1
  0
CLASS
  1
HATCH
  2
AcDbHatch
  3
AutoCAD 2000
 90
    32768
280
     0
281
     1
  0
CLASS
  1
XRECORD
  2
AcDbXrecord
  3
AutoCAD 2000
 90
    32768
280
     0
281
     0
  0
CLASS
  1
LONG_TRANSACTION
  2
AcDbLongTransaction
  3
AutoCAD 2000
 90
    32768
280
     0
281
     0
  0
CLASS
  1
LWPOLYLINE
  2
AcDbPolyline
  3
AutoCAD 2000
 90
    32768
280
     0
281
     1
  0
CLASS
  1
HATCH
  2
AcDbHatch
  3
AutoCAD 2000
 90
    32768
280
     0
281
     1
  0
CLASS
  1
XRECORD
  2
AcDbXrecord
  3
AutoCAD 2000
 90
    32768
280
     0
281
     0
  0
CLASS
  1
LONG_TRANSACTION
  2
AcDbLongTransaction
  3
AutoCAD 2000
 90
    32768
280
     0
281
     0
  0
CLASS
  1
LWPOLYLINE
  2
AcDbPolyline
  3
AutoCAD 2000
 90
    32768
280
     0
281
     1
  0
CLASS
  1
HATCH
  2
AcDbHatch
  3
AutoCAD 2000
 90
    32768
280
     0
281
     1
  0
CLASS
  1
XRECORD
  2
AcDbXrecord
  3
AutoCAD 2000
 90
    32768
280
     0
281
     0
  0
CLASS
  1
LONG_TRANSACTION
  2
AcDbLongTransaction
  3
AutoCAD 2000
 90
    32768
280
     0
281
     0
  0
CLASS
  1
LWPOLYLINE
  2
AcDbPolyline
  3
AutoCAD 2000
 90
    32768
280
     0
281
     1
  0
CLASS
  1
HATCH
  2
AcDbHatch
  3
AutoCAD 2000
 90
    32768
280
     0
281
     1
  0
CLASS
  1
XRECORD
  2
AcDbXrecord
  3
AutoCAD 2000
 90
    32768
280
     0
281
     0
  0
ENDSEC
  0
SECTION
  2
TABLES
  0
TABLE
  2
VPORT
  5
8
330
0
100
AcDbSymbolTable
 70
     2
  0
VPORT
  5
B1E5
330
8
100
AcDbSymbolTableRecord
100
AcDbViewportTableRecord
  2
*ACTIVE
 70
     0
 10
0.0
 20
0.0
 11
1.0
 21
1.0
 12
420.5
 22
297.0
 13
0.0
 23
0.0
 14
5.0
 24
5.0
 15
0.0
 25
0.0
 16
0.0
 26
0.0
 36
1.0
 17
0.0
 27
0.0
 37
0.0
 40
598.540127388535
 41
1.535714285714285
 42
50.0
 43
0.0
 44
0.0
 50
0.0
 51
0.0
 71
     0
 72
   100
 73
     1
 74
     0
 75
     0
 76
     0
 77
     0
 78
     0
  0
ENDTAB
  0
TABLE
  2
LTYPE
  5
5
330
0
100
AcDbSymbolTable
 70
     3
  0
LTYPE
  5
14
330
5
100
AcDbSymbolTableRecord
100
AcDbLinetypeTableRecord
  2
BYBLOCK
 70
     0
  3

 72
    65
 73
     0
 40
0.0
  0
LTYPE
  5
15
330
5
100
AcDbSymbolTableRecord
100
AcDbLinetypeTableRecord
  2
BYLAYER
 70
     0
  3

 72
    65
 73
     0
 40
0.0
  0
LTYPE
  5
16
330
5
100
AcDbSymbolTableRecord
100
AcDbLinetypeTableRecord
  2
CONTINUOUS
 70
     0
  3
Solid line
 72
    65
 73
     0
 40
0.0
  0
LTYPE
  5
120
330
5
100
AcDbSymbolTableRecord
100
AcDbLinetypeTableRecord
  2
CENTER
 70
     0
  3
____ _ ____ _ ____ _ ____ _ ____ _ ____ _ ____ 
 72
    65
 73
     4
 40
2.0
 49
1.25
 74
     0
 49
-0.25
 74
     0
 49
0.25
 74
     0
 49
-0.25
 74
     0
  0
LTYPE
  5
ACBE
330
5
100
AcDbSymbolTableRecord
100
AcDbLinetypeTableRecord
  2
PHANTOM
 70
     0
  3
Phantom ______  __  __  ______  __  __  ______
 72
    65
 73
     6
 40
63.5
 49
31.75
 74
     0
 49
-6.349999999999999
 74
     0
 49
6.349999999999999
 74
     0
 49
-6.349999999999999
 74
     0
 49
6.349999999999999
 74
     0
 49
-6.349999999999999
 74
     0
  0
ENDTAB
  0
TABLE
  2
LAYER
  5
2
330
0
100
AcDbSymbolTable
 70
     9
  0
LAYER
  5
F
330
2
100
AcDbSymbolTableRecord
100
AcDbLayerTableRecord
  2
0
 70
     0
 62
     7
  6
CONTINUOUS
  0
LAYER
  5
62
330
2
100
AcDbSymbolTableRecord
100
AcDbLayerTableRecord
  2
VIEWPORT
 70
     0
 62
     7
  6
CONTINUOUS
  0
LAYER
  5
16E
330
2
100
AcDbSymbolTableRecord
100
AcDbLayerTableRecord
  2
DEFPOINTS
 70
     0
 62
     7
  6
CONTINUOUS
  0
LAYER
  5
1B8
330
2
100
AcDbSymbolTableRecord
100
AcDbLayerTableRecord
  2
ZUWAKU
 70
     0
 62
     7
  6
CONTINUOUS
  0
LAYER
  5
1B9
330
2
100
AcDbSymbolTableRecord
100
AcDbLayerTableRecord
  2
MOJI
 70
     0
 62
     2
  6
CONTINUOUS
  0
LAYER
  5
49D
330
2
100
AcDbSymbolTableRecord
100
AcDbLayerTableRecord
  2
SEIHIN
 70
     0
 62
     3
  6
CONTINUOUS
  0
LAYER
  5
2262
330
2
100
AcDbSymbolTableRecord
100
AcDbLayerTableRecord
  2
SUNPOU
 70
     0
 62
     4
  6
CONTINUOUS
  0
LAYER
  5
2263
330
2
100
AcDbSymbolTableRecord
100
AcDbLayerTableRecord
  2
CENTER_L
 70
     0
 62
     1
  6
CENTER
  0
LAYER
  5
ABC9
330
2
100
AcDbSymbolTableRecord
100
AcDbLayerTableRecord
  2
NOKITOI
 70
     0
 62
     7
  6
PHANTOM
  0
ENDTAB
  0
TABLE
  2
STYLE
  5
3
330
0
100
AcDbSymbolTable
 70
     3
  0
STYLE
  5
10
330
3
100
AcDbSymbolTableRecord
100
AcDbTextStyleTableRecord
  2
STANDARD
 70
     0
 40
0.0
 41
1.0
 50
0.0
 71
     0
 42
2.5
  3
TXT
  4
bigfont.shx
  0
STYLE
  5
1BA
330
3
100
AcDbSymbolTableRecord
100
AcDbTextStyleTableRecord
  2
MSPｺ_ｼｯｸ
 70
     0
 40
0.0
 41
1.0
 50
0.0
 71
     0
 42
2.5
  3
MS PGothic.ttf
  4

1001
ACAD
1000
MS PGothic
1071
    32818
  0
STYLE
  5
ACBD
330
3
100
AcDbSymbolTableRecord
100
AcDbTextStyleTableRecord
  2

 70
     1
 40
0.0
 41
1.0
 50
0.0
 71
     0
 42
2.5
  3
ltypeshp.shx
  4

  0
ENDTAB
  0
TABLE
  2
VIEW
  5
6
330
0
100
AcDbSymbolTable
 70
     0
  0
ENDTAB
  0
TABLE
  2
UCS
  5
7
330
0
100
AcDbSymbolTable
 70
     0
  0
ENDTAB
  0
TABLE
  2
APPID
  5
9
330
0
100
AcDbSymbolTable
 70
     1
  0
APPID
  5
11
330
9
100
AcDbSymbolTableRecord
100
AcDbRegAppTableRecord
  2
ACAD
 70
     0
  0
ENDTAB
  0
TABLE
  2
DIMSTYLE
  5
A
330
0
100
AcDbSymbolTable
 70
     1
  0
DIMSTYLE
105
1D
102
{ACAD_REACTORS
330
8EC1
330
8ECE
330
99E2
330
99F9
330
9A06
330
9A13
330
9A20
330
9A2D
330
9A3A
330
9A47
330
9A5D
330
9A79
330
9A54
330
ACA7
102
}
330
A
100
AcDbSymbolTableRecord
100
AcDbDimStyleTableRecord
  2
STANDARD
 70
     0
  3

  4

  5
OPEN
  6

  7

 40
1.0
 41
5.0
 42
1.5
 43
7.0
 44
1.5
 45
0.0
 46
0.0
 47
0.0
 48
0.0
140
6.0
141
0.0
142
0.0
143
25.4
144
1.0
145
0.0
146
1.0
147
1.5
 71
     0
 72
     0
 73
     0
 74
     0
 75
     0
 76
     0
 77
     3
 78
     0
170
     0
171
     2
172
     0
173
     0
174
     0
175
     0
176
   256
177
   256
178
   256
270
     2
271
     0
272
     0
273
     2
274
     2
340
10
275
     0
280
     0
281
     0
282
     0
283
     1
284
     0
285
     0
286
     0
287
     3
288
     0
  0
ENDTAB
  0
TABLE
  2
BLOCK_RECORD
  5
1
330
0
100
AcDbSymbolTable
 70
    16
  0
BLOCK_RECORD
  5
1A
102
{ACAD_XDICTIONARY
360
806D
102
}
330
1
100
AcDbSymbolTableRecord
100
AcDbBlockTableRecord
  2
*MODEL_SPACE
  0
BLOCK_RECORD
  5
17
102
{ACAD_XDICTIONARY
360
806B
102
}
330
1
100
AcDbSymbolTableRecord
100
AcDbBlockTableRecord
  2
*PAPER_SPACE
  0
BLOCK_RECORD
  5
6A30
330
1
100
AcDbSymbolTableRecord
100
AcDbBlockTableRecord
  2
_OPEN
  0
BLOCK_RECORD
  5
6A36
330
1
100
AcDbSymbolTableRecord
100
AcDbBlockTableRecord
  2
_DOTSMALL
  0
BLOCK_RECORD
  5
8090
330
1
100
AcDbSymbolTableRecord
100
AcDbBlockTableRecord
  2
*X2
  0
BLOCK_RECORD
  5
8EC2
330
1
100
AcDbSymbolTableRecord
100
AcDbBlockTableRecord
  2
*D3
  0
BLOCK_RECORD
  5
8ECF
330
1
100
AcDbSymbolTableRecord
100
AcDbBlockTableRecord
  2
*D4
  0
BLOCK_RECORD
  5
99E3
330
1
100
AcDbSymbolTableRecord
100
AcDbBlockTableRecord
  2
*D5
  0
BLOCK_RECORD
  5
99FA
330
1
100
AcDbSymbolTableRecord
100
AcDbBlockTableRecord
  2
*D6
  0
BLOCK_RECORD
  5
9A07
330
1
100
AcDbSymbolTableRecord
100
AcDbBlockTableRecord
  2
*D7
  0
BLOCK_RECORD
  5
9A14
330
1
100
AcDbSymbolTableRecord
100
AcDbBlockTableRecord
  2
*D8
  0
BLOCK_RECORD
  5
9A21
330
1
100
AcDbSymbolTableRecord
100
AcDbBlockTableRecord
  2
*D9
  0
BLOCK_RECORD
  5
9A2E
330
1
100
AcDbSymbolTableRecord
100
AcDbBlockTableRecord
  2
*D10
  0
BLOCK_RECORD
  5
9A3B
330
1
100
AcDbSymbolTableRecord
100
AcDbBlockTableRecord
  2
*D11
  0
BLOCK_RECORD
  5
9A48
330
1
100
AcDbSymbolTableRecord
100
AcDbBlockTableRecord
  2
*D12
  0
BLOCK_RECORD
  5
9A5E
330
1
100
AcDbSymbolTableRecord
100
AcDbBlockTableRecord
  2
*D13
  0
BLOCK_RECORD
  5
9A7A
330
1
100
AcDbSymbolTableRecord
100
AcDbBlockTableRecord
  2
*D14
  0
BLOCK_RECORD
  5
ACA8
330
1
100
AcDbSymbolTableRecord
100
AcDbBlockTableRecord
  2
*D15
  0
ENDTAB
  0
ENDSEC
  0
SECTION
  2
BLOCKS
  0
BLOCK
  5
1B
330
1A
100
AcDbEntity
  8
0
100
AcDbBlockBegin
  2
*MODEL_SPACE
 70
     0
 10
0.0
 20
0.0
 30
0.0
  3
*MODEL_SPACE
  1

  0
ENDBLK
  5
1C
330
1A
100
AcDbEntity
  8
0
100
AcDbBlockEnd
  0
BLOCK
  5
18
330
17
100
AcDbEntity
 67
     1
  8
0
100
AcDbBlockBegin
  2
*PAPER_SPACE
 70
     0
 10
0.0
 20
0.0
 30
0.0
  3
*PAPER_SPACE
  1

  0
ENDBLK
  5
19
330
17
100
AcDbEntity
 67
     1
  8
0
100
AcDbBlockEnd
  0
BLOCK
  5
6A34
330
6A30
100
AcDbEntity
  8
0
100
AcDbBlockBegin
  2
_OPEN
 70
     0
 10
0.0
 20
0.0
 30
0.0
  3
_OPEN
  1

  0
LINE
  5
6A31
330
6A30
100
AcDbEntity
  8
0
 62
     0
100
AcDbLine
 10
-1.0
 20
0.1666666666666666
 30
0.0
 11
0.0
 21
0.0
 31
0.0
  0
LINE
  5
6A32
330
6A30
100
AcDbEntity
  8
0
 62
     0
100
AcDbLine
 10
-1.0
 20
-0.1666666666666666
 30
0.0
 11
0.0
 21
0.0
 31
0.0
  0
LINE
  5
6A33
330
6A30
100
AcDbEntity
  8
0
 62
     0
100
AcDbLine
 10
0.0
 20
0.0
 30
0.0
 11
-1.0
 21
0.0
 31
0.0
  0
ENDBLK
  5
6A35
330
6A30
100
AcDbEntity
  8
0
100
AcDbBlockEnd
  0
BLOCK
  5
6A38
330
6A36
100
AcDbEntity
  8
0
100
AcDbBlockBegin
  2
_DOTSMALL
 70
     0
 10
0.0
 20
0.0
 30
0.0
  3
_DOTSMALL
  1

  0
POLYLINE
  5
6A37
330
6A36
100
AcDbEntity
  8
0
 62
     0
100
AcDb2dPolyline
 66
     1
 10
0.0
 20
0.0
 30
0.0
 70
     1
 40
0.5
 41
0.5
  0
VERTEX
  5
B201
330
6A37
100
AcDbEntity
  8
0
 62
     0
100
AcDbVertex
100
AcDb2dVertex
 10
-0.0625
 20
0.0
 30
0.0
 42
1.0
  0
VERTEX
  5
B202
330
6A37
100
AcDbEntity
  8
0
 62
     0
100
AcDbVertex
100
AcDb2dVertex
 10
0.0625
 20
0.0
 30
0.0
 42
1.0
  0
SEQEND
  5
B203
330
6A37
100
AcDbEntity
  8
0
 62
     0
  0
ENDBLK
  5
6A39
330
6A36
100
AcDbEntity
  8
0
100
AcDbBlockEnd
  0
BLOCK
  5
8224
330
8090
100
AcDbEntity
  8
0
100
AcDbBlockBegin
  2
*X2
 70
     1
 10
0.0
 20
0.0
 30
0.0
  3
*X2
  1

  0
LINE
  5
8091
330
8090
100
AcDbEntity
  8
0
 62
     0
100
AcDbLine
 10
76.04221215478117
 20
29.60416907028502
 30
0.0
 11
75.39638122506613
 21
30.25000000000005
 31
0.0
  0
LINE
  5
8092
330
8090
100
AcDbEntity
  8
0
 62
     0
100
AcDbLine
 10
76.04221215478111
 20
28.70614345817807
 30
0.0
 11
74.49835561295924
 21
30.24999999999994
 31
0.0
  0
LINE
  5
8093
330
8090
100
AcDbEntity
  8
0
 62
     0
100
AcDbLine
 10
76.04221215478111
 20
27.80811784607118
 30
0.0
 11
73.62107820876622
 21
30.22925179208607
 31
0.0
  0
LINE
  5
8094
330
8090
100
AcDbEntity
  8
0
 62
     0
100
AcDbLine
 10
76.04221215478111
 20
26.91009223396429
 30
0.0
 11
73.2422121547811
 21
29.71009223396436
 31
0.0
  0
LINE
  5
8095
330
8090
100
AcDbEntity
  8
0
 62
     0
100
AcDbLine
 10
76.04221215478111
 20
26.0120666218574
 30
0.0
 11
73.24221215478104
 21
28.81206662185741
 31
0.0
  0
LINE
  5
8096
330
8090
100
AcDbEntity
  8
0
 62
     0
100
AcDbLine
 10
76.04221215478111
 20
25.11404100975045
 30
0.0
 11
73.24221215478104
 21
27.91404100975052
 31
0.0
  0
LINE
  5
8097
330
8090
100
AcDbEntity
  8
0
 62
     0
100
AcDbLine
 10
71.14221215478114
 20
29.11601539764353
 30
0.0
 11
70.00822755242467
 21
30.25000000000005
 31
0.0
  0
LINE
  5
8098
330
8090
100
AcDbEntity
  8
0
 62
     0
100
AcDbLine
 10
76.04221215478111
 20
24.21601539764356
 30
0.0
 11
73.24221215478104
 21
27.01601539764363
 31
0.0
  0
LINE
  5
8099
330
8090
100
AcDbEntity
  8
0
 62
     0
100
AcDbLine
 10
71.14221215478114
 20
28.21798978553664
 30
0.0
 11
69.11020194031784
 21
30.24999999999994
 31
0.0
  0
LINE
  5
809A
330
8090
100
AcDbEntity
  8
0
 62
     0
100
AcDbLine
 10
76.04221215478111
 20
23.31798978553667
 30
0.0
 11
73.24221215478104
 21
26.11798978553673
 31
0.0
  0
LINE
  5
809B
330
8090
100
AcDbEntity
  8
0
 62
     0
100
AcDbLine
 10
71.14221215478119
 20
27.31996417342964
 30
0.0
 11
68.436701189644
 21
30.02547513856677
 31
0.0
  0
LINE
  5
809C
330
8090
100
AcDbEntity
  8
0
 62
     0
100
AcDbLine
 10
76.04221215478105
 20
22.41996417342972
 30
0.0
 11
73.24221215478104
 21
25.21996417342978
 31
0.0
  0
LINE
  5
809D
330
8090
100
AcDbEntity
  8
0
 62
     0
100
AcDbLine
 10
71.14221215478119
 20
26.42193856132269
 30
0.0
 11
68.34221215478118
 21
29.22193856132276
 31
0.0
  0
LINE
  5
809E
330
8090
100
AcDbEntity
  8
0
 62
     0
100
AcDbLine
 10
76.04221215478111
 20
21.52193856132282
 30
0.0
 11
73.24221215478104
 21
24.32193856132284
 31
0.0
  0
LINE
  5
809F
330
8090
100
AcDbEntity
  8
0
 62
     0
100
AcDbLine
 10
71.14221215478119
 20
25.52391294921585
 30
0.0
 11
68.34221215478113
 21
28.32391294921587
 31
0.0
  0
LINE
  5
80A0
330
8090
100
AcDbEntity
  8
0
 62
     0
100
AcDbLine
 10
76.04221215478111
 20
20.62391294921593
 30
0.0
 11
73.24221215478104
 21
23.423912949216
 31
0.0
  0
LINE
  5
80A1
330
8090
100
AcDbEntity
  8
0
 62
     0
100
AcDbLine
 10
71.14221215478119
 20
24.6258873371089
 30
0.0
 11
68.34221215478113
 21
27.42588733710897
 31
0.0
  0
LINE
  5
80A2
330
8090
100
AcDbEntity
  8
0
 62
     0
100
AcDbLine
 10
76.04221215478105
 20
19.72588733710898
 30
0.0
 11
73.24221215478099
 21
22.52588733710905
 31
0.0
  0
LINE
  5
80A3
330
8090
100
AcDbEntity
  8
0
 62
     0
100
AcDbLine
 10
71.14221215478114
 20
23.72786172500195
 30
0.0
 11
68.34221215478106
 21
26.52786172500202
 31
0.0
  0
LINE
  5
80A4
330
8090
100
AcDbEntity
  8
0
 62
     0
100
AcDbLine
 10
76.04221215478111
 20
18.82786172500198
 30
0.0
 11
73.24221215478099
 21
21.62786172500216
 31
0.0
  0
LINE
  5
80A5
330
8090
100
AcDbEntity
  8
0
 62
     0
100
AcDbLine
 10
71.14221215478119
 20
22.82983611289512
 30
0.0
 11
68.34221215478113
 21
25.62983611289519
 31
0.0
  0
LINE
  5
80A6
330
8090
100
AcDbEntity
  8
0
 62
     0
100
AcDbLine
 10
64.84221215478118
 20
29.12983611289513
 30
0.0
 11
63.7220482676762
 21
30.25000000000005
 31
0.0
  0
LINE
  5
80A7
330
8090
100
AcDbEntity
  8
0
 62
     0
100
AcDbLine
 10
76.04221215478117
 20
17.92983611289514
 30
0.0
 11
73.24221215478104
 21
20.72983611289527
 31
0.0
  0
LINE
  5
80A8
330
8090
100
AcDbEntity
  8
0
 62
     0
100
AcDbLine
 10
71.14221215478114
 20
21.93181050078817
 30
0.0
 11
68.34221215478113
 21
24.73181050078824
 31
0.0
  0
LINE
  5
80A9
330
8090
100
AcDbEntity
  8
0
 62
     0
100
AcDbLine
 10
64.84221215478118
 20
28.23181050078818
 30
0.0
 11
62.82402265556931
 21
30.25000000000005
 31
0.0
  0
LINE
  5
80AA
330
8090
100
AcDbEntity
  8
0
 62
     0
100
AcDbLine
 10
76.04221215478111
 20
17.03181050078819
 30
0.0
 11
73.2422121547811
 21
19.83181050078826
 31
0.0
  0
LINE
  5
80AB
330
8090
100
AcDbEntity
  8
0
 62
     0
100
AcDbLine
 10
71.14221215478114
 20
21.03378488868128
 30
0.0
 11
68.34221215478106
 21
23.83378488868129
 31
0.0
  0
LINE
  5
80AC
330
8090
100
AcDbEntity
  8
0
 62
     0
100
AcDbLine
 10
64.84221215478112
 20
27.33378488868129
 30
0.0
 11
62.14244943145695
 21
30.03354761200546
 31
0.0
  0
LINE
  5
80AD
330
8090
100
AcDbEntity
  8
0
 62
     0
100
AcDbLine
 10
76.04221215478111
 20
16.1337848886813
 30
0.0
 11
73.24221215478104
 21
18.93378488868131
 31
0.0
  0
LINE
  5
80AE
330
8090
100
AcDbEntity
  8
0
 62
     0
100
AcDbLine
 10
71.14221215478119
 20
20.13575927657433
 30
0.0
 11
68.34221215478113
 21
22.9357592765744
 31
0.0
  0
LINE
  5
80AF
330
8090
100
AcDbEntity
  8
0
 62
     0
100
AcDbLine
 10
64.84221215478118
 20
26.43575927657434
 30
0.0
 11
62.04221215478117
 21
29.23575927657429
 31
0.0
  0
LINE
  5
80B0
330
8090
100
AcDbEntity
  8
0
 62
     0
100
AcDbLine
 10
76.04221215478117
 20
15.23575927657435
 30
0.0
 11
73.2422121547811
 21
18.03575927657442
 31
0.0
  0
LINE
  5
80B1
330
8090
100
AcDbEntity
  8
0
 62
     0
100
AcDbLine
 10
71.14221215478114
 20
19.23773366446744
 30
0.0
 11
68.34221215478106
 21
22.03773366446751
 31
0.0
  0
LINE
  5
80B2
330
8090
100
AcDbEntity
  8
0
 62
     0
100
AcDbLine
 10
64.84221215478112
 20
25.53773366446745
 30
0.0
 11
62.04221215478117
 21
28.33773366446746
 31
0.0
  0
LINE
  5
80B3
330
8090
100
AcDbEntity
  8
0
 62
     0
100
AcDbLine
 10
75.97024679989118
 20
14.40969901935744
 30
0.0
 11
73.24221215478104
 21
17.13773366446753
 31
0.0
  0
LINE
  5
80B4
330
8090
100
AcDbEntity
  8
0
 62
     0
100
AcDbLine
 10
71.14221215478114
 20
18.33970805236054
 30
0.0
 11
68.34221215478106
 21
21.13970805236061
 31
0.0
  0
LINE
  5
80B5
330
8090
100
AcDbEntity
  8
0
 62
     0
100
AcDbLine
 10
64.84221215478112
 20
24.63970805236056
 30
0.0
 11
62.04221215478117
 21
27.43970805236051
 31
0.0
  0
LINE
  5
80B6
330
8090
100
AcDbEntity
  8
0
 62
     0
100
AcDbLine
 10
75.33192020714176
 20
14.14999999999992
 30
0.0
 11
73.24221215478104
 21
16.23970805236064
 31
0.0
  0
LINE
  5
80B7
330
8090
100
AcDbEntity
  8
0
 62
     0
100
AcDbLine
 10
64.84221215478112
 20
23.74168244025361
 30
0.0
 11
62.04221215478111
 21
26.54168244025362
 31
0.0
  0
LINE
  5
80B8
330
8090
100
AcDbEntity
  8
0
 62
     0
100
AcDbLine
 10
71.14221215478107
 20
17.4416824402536
 30
0.0
 11
68.34221215478106
 21
20.24168244025366
 31
0.0
  0
LINE
  5
80B9
330
8090
100
AcDbEntity
  8
0
 62
     0
100
AcDbLine
 10
59.41721215478105
 20
29.16668244025362
 30
0.0
 11
58.33389459503473
 21
30.25
 31
0.0
  0
LINE
  5
80BA
330
8090
100
AcDbEntity
  8
0
 62
     0
100
AcDbLine
 10
74.43389459503482
 20
14.14999999999986
 30
0.0
 11
73.24221215478104
 21
15.34168244025369
 31
0.0
  0
LINE
  5
80BB
330
8090
100
AcDbEntity
  8
0
 62
     0
100
AcDbLine
 10
64.84221215478112
 20
22.84365682814677
 30
0.0
 11
62.04221215478117
 21
25.64365682814673
 31
0.0
  0
LINE
  5
80BC
330
8090
100
AcDbEntity
  8
0
 62
     0
100
AcDbLine
 10
59.41721215478111
 20
28.26865682814679
 30
0.0
 11
57.43586898292784
 21
30.25
 31
0.0
  0
LINE
  5
80BD
330
8090
100
AcDbEntity
  8
0
 62
     0
100
AcDbLine
 10
71.1162538541356
 20
16.56961512879229
 30
0.0
 11
68.34221215478106
 21
19.34365682814677
 31
0.0
  0
LINE
  5
80BE
330
8090
100
AcDbEntity
  8
0
 62
     0
100
AcDbLine
 10
64.84221215478112
 20
21.94563121603982
 30
0.0
 11
62.04221215478111
 21
24.74563121603978
 31
0.0
  0
LINE
  5
80BF
330
8090
100
AcDbEntity
  8
0
 62
     0
100
AcDbLine
 10
59.22163160866722
 20
27.56621176215372
 30
0.0
 11
56.53784337082095
 21
30.25
 31
0.0
  0
LINE
  5
80C0
330
8090
100
AcDbEntity
  8
0
 62
     0
100
AcDbLine
 10
70.92326855887836
 20
15.86457481194253
 30
0.0
 11
68.34221215478106
 21
18.44563121603988
 31
0.0
  0
LINE
  5
80C1
330
8090
100
AcDbEntity
  8
0
 62
     0
100
AcDbLine
 10
64.84221215478107
 20
21.04760560393287
 30
0.0
 11
62.04221215478111
 21
23.84760560393289
 31
0.0
  0
LINE
  5
80C2
330
8090
100
AcDbEntity
  8
0
 62
     0
100
AcDbLine
 10
58.43981775871395
 20
27.44999999999999
 30
0.0
 11
55.639817758714
 21
30.25
 31
0.0
  0
LINE
  5
80C3
330
8090
100
AcDbEntity
  8
0
 62
     0
100
AcDbLine
 10
70.59823668295473
 20
15.29158107575926
 30
0.0
 11
68.27069641562156
 21
17.61912134309244
 31
0.0
  0
LINE
  5
80C4
330
8090
100
AcDbEntity
  8
0
 62
     0
100
AcDbLine
 10
64.84221215478112
 20
20.14957999182604
 30
0.0
 11
62.04221215478117
 21
22.94957999182599
 31
0.0
  0
LINE
  5
80C5
330
8090
100
AcDbEntity
  8
0
 62
     0
100
AcDbLine
 10
57.54179214660712
 20
27.45000000000004
 30
0.0
 11
54.80422541742973
 21
30.18756672917743
 31
0.0
  0
LINE
  5
80C6
330
8090
100
AcDbEntity
  8
0
 62
     0
100
AcDbLine
 10
70.1661948856297
 20
14.82559726097747
 30
0.0
 11
67.86911077715399
 21
17.12268136945317
 31
0.0
  0
LINE
  5
80C7
330
8090
100
AcDbEntity
  8
0
 62
     0
100
AcDbLine
 10
64.84221215478112
 20
19.25155437971909
 30
0.0
 11
62.04221215478111
 21
22.0515543797191
 31
0.0
  0
LINE
  5
80C8
330
8090
100
AcDbEntity
  8
0
 62
     0
100
AcDbLine
 10
56.64376653450029
 20
27.44999999999993
 30
0.0
 11
54.13958499289646
 21
29.95418154160375
 31
0.0
  0
LINE
  5
80C9
330
8090
100
AcDbEntity
  8
0
 62
     0
100
AcDbLine
 10
69.63003254070367
 20
14.46373399379655
 30
0.0
 11
67.14376653450028
 21
16.94999999999993
 31
0.0
  0
LINE
  5
80CA
330
8090
100
AcDbEntity
  8
0
 62
     0
100
AcDbLine
 10
64.84221215478107
 20
18.3535287676122
 30
0.0
 11
62.04221215478111
 21
21.15352876761215
 31
0.0
  0
LINE
  5
80CB
330
8090
100
AcDbEntity
  8
0
 62
     0
100
AcDbLine
 10
55.76753075041148
 20
27.42821017198179
 30
0.0
 11
53.59698405568628
 21
29.59875686670699
 31
0.0
  0
LINE
  5
80CC
330
8090
100
AcDbEntity
  8
0
 62
     0
100
AcDbLine
 10
68.97361998079225
 20
14.22212094160101
 30
0.0
 11
66.24574092239328
 21
16.94999999999998
 31
0.0
  0
LINE
  5
80CD
330
8090
100
AcDbEntity
  8
0
 62
     0
100
AcDbLine
 10
55.39221215478113
 20
26.90550315550519
 30
0.0
 11
53.15887199664172
 21
29.1388433136446
 31
0.0
  0
LINE
  5
80CE
330
8090
100
AcDbEntity
  8
0
 62
     0
100
AcDbLine
 10
68.1477153102864
 20
14.14999999999992
 30
0.0
 11
62.04221215478106
 21
20.25550315550521
 31
0.0
  0
LINE
  5
80CF
330
8090
100
AcDbEntity
  8
0
 62
     0
100
AcDbLine
 10
55.39221215478113
 20
26.00747754339829
 30
0.0
 11
52.82710108428876
 21
28.57258861389073
 31
0.0
  0
LINE
  5
80D0
330
8090
100
AcDbEntity
  8
0
 62
     0
100
AcDbLine
 10
67.2496896981795
 20
14.14999999999992
 30
0.0
 11
62.04221215478111
 21
19.35747754339837
 31
0.0
  0
LINE
  5
80D1
330
8090
100
AcDbEntity
  8
0
 62
     0
100
AcDbLine
 10
55.59875643588487
 20
24.90290765018767
 30
0.0
 11
52.62492256492464
 21
27.87674152114789
 31
0.0
  0
LINE
  5
80D2
330
8090
100
AcDbEntity
  8
0
 62
     0
100
AcDbLine
 10
66.35166408607251
 20
14.14999999999997
 30
0.0
 11
62.04221215478111
 21
18.45945193129142
 31
0.0
  0
LINE
  5
80D3
330
8090
100
AcDbEntity
  8
0
 62
     0
100
AcDbLine
 10
59.81581585747244
 20
19.78782261649308
 30
0.0
 11
52.59221215478106
 21
27.01142631918452
 31
0.0
  0
LINE
  5
80D4
330
8090
100
AcDbEntity
  8
0
 62
     0
100
AcDbLine
 10
50.49221215478104
 20
29.11142631918449
 30
0.0
 11
49.35363847396558
 21
30.25
 31
0.0
  0
LINE
  5
80D5
330
8090
100
AcDbEntity
  8
0
 62
     0
100
AcDbLine
 10
65.45363847396567
 20
14.14999999999992
 30
0.0
 11
62.04221215478106
 21
17.56142631918453
 31
0.0
  0
LINE
  5
80D6
330
8090
100
AcDbEntity
  8
0
 62
     0
100
AcDbLine
 10
59.94221215478109
 20
18.76340070707766
 30
0.0
 11
52.59221215478106
 21
26.11340070707763
 31
0.0
  0
LINE
  5
80D7
330
8090
100
AcDbEntity
  8
0
 62
     0
100
AcDbLine
 10
50.4922121547811
 20
28.21340070707765
 30
0.0
 11
48.45561286185875
 21
30.24999999999994
 31
0.0
  0
LINE
  5
80D8
330
8090
100
AcDbEntity
  8
0
 62
     0
100
AcDbLine
 10
64.53916498311395
 20
14.1664478787448
 30
0.0
 11
62.05866003352594
 21
16.64695282833275
 31
0.0
  0
LINE
  5
80D9
330
8090
100
AcDbEntity
  8
0
 62
     0
100
AcDbLine
 10
50.49221215478104
 20
27.3153750949707
 30
0.0
 11
47.78482226700583
 21
30.02276498274596
 31
0.0
  0
LINE
  5
80DA
330
8090
100
AcDbEntity
  8
0
 62
     0
100
AcDbLine
 10
59.94221215478109
 20
17.86537509497071
 30
0.0
 11
52.61562282266357
 21
25.19196442708818
 31
0.0
  0
LINE
  5
80DB
330
8090
100
AcDbEntity
  8
0
 62
     0
100
AcDbLine
 10
50.49221215478104
 20
26.41734948286381
 30
0.0
 11
47.69221215478109
 21
29.21734948286376
 31
0.0
  0
LINE
  5
80DC
330
8090
100
AcDbEntity
  8
0
 62
     0
100
AcDbLine
 10
59.94221215478114
 20
16.96734948286371
 30
0.0
 11
52.93374224050376
 21
23.97581939714109
 31
0.0
  0
LINE
  5
80DD
330
8090
100
AcDbEntity
  8
0
 62
     0
100
AcDbLine
 10
50.4922121547811
 20
25.51932387075686
 30
0.0
 11
47.69221215478109
 21
28.31932387075681
 31
0.0
  0
LINE
  5
80DE
330
8090
100
AcDbEntity
  8
0
 62
     0
100
AcDbLine
 10
59.83365033719207
 20
16.17788568834589
 30
0.0
 11
57.13801554815365
 21
18.87352047738431
 31
0.0
  0
LINE
  5
80DF
330
8090
100
AcDbEntity
  8
0
 62
     0
100
AcDbLine
 10
50.49221215478104
 20
24.62129825865003
 30
0.0
 11
47.69221215478109
 21
27.42129825864998
 31
0.0
  0
LINE
  5
80E0
330
8090
100
AcDbEntity
  8
0
 62
     0
100
AcDbLine
 10
45.40072525420407
 20
29.71278515922699
 30
0.0
 11
44.86351041343107
 21
30.25
 31
0.0
  0
LINE
  5
80E1
330
8090
100
AcDbEntity
  8
0
 62
     0
100
AcDbLine
 10
59.56577462943039
 20
15.54773578400068
 30
0.0
 11
57.14221215478119
 21
17.97129825864988
 31
0.0
  0
LINE
  5
80E2
330
8090
100
AcDbEntity
  8
0
 62
     0
100
AcDbLine
 10
50.49221215478104
 20
23.72327264654308
 30
0.0
 11
47.69221215478103
 21
26.52327264654303
 31
0.0
  0
LINE
  5
80E3
330
8090
100
AcDbEntity
  8
0
 62
     0
100
AcDbLine
 10
45.20179758995147
 20
29.01368721137265
 30
0.0
 11
43.96548480132406
 21
30.25000000000005
 31
0.0
  0
LINE
  5
80E4
330
8090
100
AcDbEntity
  8
0
 62
     0
100
AcDbLine
 10
59.1827878312551
 20
15.03269697006897
 30
0.0
 11
57.0449269718946
 21
17.17055782942947
 31
0.0
  0
LINE
  5
80E5
330
8090
100
AcDbEntity
  8
0
 62
     0
100
AcDbLine
 10
50.49221215478098
 20
22.82524703443613
 30
0.0
 11
47.69221215478103
 21
25.62524703443614
 31
0.0
  0
LINE
  5
80E6
330
8090
100
AcDbEntity
  8
0
 62
     0
100
AcDbLine
 10
44.98627144304584
 20
28.33118774617133
 30
0.0
 11
43.07705587957514
 21
30.24040330964197
 31
0.0
  0
LINE
  5
80E7
330
8090
100
AcDbEntity
  8
0
 62
     0
100
AcDbLine
 10
58.69646886613941
 20
14.6209903230777
 30
0.0
 11
56.36745918921724
 21
16.94999999999993
 31
0.0
  0
LINE
  5
80E8
330
8090
100
AcDbEntity
  8
0
 62
     0
100
AcDbLine
 10
50.49221215478104
 20
21.92722142232929
 30
0.0
 11
47.69221215478114
 21
24.72722142232919
 31
0.0
  0
LINE
  5
80E9
330
8090
100
AcDbEntity
  8
0
 62
     0
100
AcDbLine
 10
44.77074529614021
 20
27.64868828097007
 30
0.0
 11
42.64274529614016
 21
29.77668828097018
 31
0.0
  0
LINE
  5
80EA
330
8090
100
AcDbEntity
  8
0
 62
     0
100
AcDbLine
 10
58.10038491767904
 20
14.31904865943124
 30
0.0
 11
55.4694335771104
 21
16.94999999999993
 31
0.0
  0
LINE
  5
80EB
330
8090
100
AcDbEntity
  8
0
 62
     0
100
AcDbLine
 10
50.49221215478104
 20
21.02919581022234
 30
0.0
 11
47.69221215478114
 21
23.82919581022224
 31
0.0
  0
LINE
  5
80EC
330
8090
100
AcDbEntity
  8
0
 62
     0
100
AcDbLine
 10
44.55521914923446
 20
26.96618881576893
 30
0.0
 11
42.42721914923442
 21
29.09418881576897
 31
0.0
  0
LINE
  5
80ED
330
8090
100
AcDbEntity
  8
0
 62
     0
100
AcDbLine
 10
57.36271226603157
 20
14.15869569897182
 30
0.0
 11
54.5714079650034
 21
16.94999999999998
 31
0.0
  0
LINE
  5
80EE
330
8090
100
AcDbEntity
  8
0
 62
     0
100
AcDbLine
 10
50.49221215478098
 20
20.13117019811545
 30
0.0
 11
47.69221215478109
 21
22.93117019811529
 31
0.0
  0
LINE
  5
80EF
330
8090
100
AcDbEntity
  8
0
 62
     0
100
AcDbLine
 10
44.33969300232883
 20
26.28368935056755
 30
0.0
 11
42.21169300232879
 21
28.41168935056765
 31
0.0
  0
LINE
  5
80F0
330
8090
100
AcDbEntity
  8
0
 62
     0
100
AcDbLine
 10
56.47338235289652
 20
14.14999999999992
 30
0.0
 11
53.6733823528964
 21
16.95000000000004
 31
0.0
  0
LINE
  5
80F1
330
8090
100
AcDbEntity
  8
0
 62
     0
100
AcDbLine
 10
50.49221215478104
 20
19.23314458600856
 30
0.0
 11
47.69221215478114
 21
22.03314458600846
 31
0.0
  0
LINE
  5
80F2
330
8090
100
AcDbEntity
  8
0
 62
     0
100
AcDbLine
 10
44.12416685542313
 20
25.60118988536646
 30
0.0
 11
41.99616685542309
 21
27.7291898853665
 31
0.0
  0
LINE
  5
80F3
330
8090
100
AcDbEntity
  8
0
 62
     0
100
AcDbLine
 10
55.57535674078962
 20
14.14999999999997
 30
0.0
 11
53.1417450434933
 21
16.5836116972963
 31
0.0
  0
LINE
  5
80F4
330
8090
100
AcDbEntity
  8
0
 62
     0
100
AcDbLine
 10
43.90864070851757
 20
24.91869042016509
 30
0.0
 11
41.78064070851746
 21
27.04669042016513
 31
0.0
  0
LINE
  5
80F5
330
8090
100
AcDbEntity
  8
0
 62
     0
100
AcDbLine
 10
50.49221215478098
 20
18.33511897390161
 30
0.0
 11
47.69221215478109
 21
21.13511897390151
 31
0.0
  0
LINE
  5
80F6
330
8090
100
AcDbEntity
  8
0
 62
     0
100
AcDbLine
 10
39.64221215478113
 20
29.18511897390152
 30
0.0
 11
38.5773311286826
 21
30.25000000000005
 31
0.0
  0
LINE
  5
80F7
330
8090
100
AcDbEntity
  8
0
 62
     0
100
AcDbLine
 10
54.67733112868273
 20
14.14999999999992
 30
0.0
 11
53.11721215478115
 21
15.7101189739015
 31
0.0
  0
LINE
  5
80F8
330
8090
100
AcDbEntity
  8
0
 62
     0
100
AcDbLine
 10
43.69311456161176
 20
24.23619095496388
 30
0.0
 11
41.56511456161172
 21
26.36419095496398
 31
0.0
  0
LINE
  5
80F9
330
8090
100
AcDbEntity
  8
0
 62
     0
100
AcDbLine
 10
50.49221215478098
 20
17.43709336179472
 30
0.0
 11
47.69221215478109
 21
20.23709336179462
 31
0.0
  0
LINE
  5
80FA
330
8090
100
AcDbEntity
  8
0
 62
     0
100
AcDbLine
 10
39.64221215478113
 20
28.28709336179457
 30
0.0
 11
37.67930551657576
 21
30.24999999999994
 31
0.0
  0
LINE
  5
80FB
330
8090
100
AcDbEntity
  8
0
 62
     0
100
AcDbLine
 10
53.77930551657579
 20
14.14999999999992
 30
0.0
 11
53.11721215478105
 21
14.81209336179466
 31
0.0
  0
LINE
  5
80FC
330
8090
100
AcDbEntity
  8
0
 62
     0
100
AcDbLine
 10
43.47758841470619
 20
23.55369148976257
 30
0.0
 11
41.34958841470615
 21
25.68169148976261
 31
0.0
  0
LINE
  5
80FD
330
8090
100
AcDbEntity
  8
0
 62
     0
100
AcDbLine
 10
39.64221215478119
 20
27.38906774968757
 30
0.0
 11
36.96676722588347
 21
30.06451267858528
 31
0.0
  0
LINE
  5
80FE
330
8090
100
AcDbEntity
  8
0
 62
     0
100
AcDbLine
 10
50.49221215478104
 20
16.53906774968771
 30
0.0
 11
47.69221215478109
 21
19.33906774968767
 31
0.0
  0
LINE
  5
80FF
330
8090
100
AcDbEntity
  8
0
 62
     0
100
AcDbLine
 10
43.2620622678005
 20
22.87119202456142
 30
0.0
 11
41.1340622678004
 21
24.99919202456152
 31
0.0
  0
LINE
  5
8100
330
8090
100
AcDbEntity
  8
0
 62
     0
100
AcDbLine
 10
39.64221215478119
 20
26.49104213758068
 30
0.0
 11
36.84221215478106
 21
29.29104213758085
 31
0.0
  0
LINE
  5
8101
330
8090
100
AcDbEntity
  8
0
 62
     0
100
AcDbLine
 10
50.4922121547811
 20
15.64104213758082
 30
0.0
 11
47.69221215478109
 21
18.44104213758083
 31
0.0
  0
LINE
  5
8102
330
8090
100
AcDbEntity
  8
0
 62
     0
100
AcDbLine
 10
43.05697375840856
 20
22.17825492184641
 30
0.0
 11
40.91853612089482
 21
24.31669255936014
 31
0.0
  0
LINE
  5
8103
330
8090
100
AcDbEntity
  8
0
 62
     0
100
AcDbLine
 10
39.64221215478119
 20
25.59301652547378
 30
0.0
 11
36.84221215478106
 21
28.39301652547391
 31
0.0
  0
LINE
  5
8104
330
8090
100
AcDbEntity
  8
0
 62
     0
100
AcDbLine
 10
50.49221215478104
 20
14.74301652547393
 30
0.0
 11
47.69221215478114
 21
17.54301652547377
 31
0.0
  0
LINE
  5
8105
330
8090
100
AcDbEntity
  8
0
 62
     0
100
AcDbLine
 10
43.47144711784255
 20
20.86575595030546
 30
0.0
 11
40.62798862521003
 21
23.70921444293799
 31
0.0
  0
LINE
  5
8106
330
8090
100
AcDbEntity
  8
0
 62
     0
100
AcDbLine
 10
39.64221215478113
 20
24.69499091336683
 30
0.0
 11
36.84221215478101
 21
27.49499091336696
 31
0.0
  0
LINE
  5
8107
330
8090
100
AcDbEntity
  8
0
 62
     0
100
AcDbLine
 10
50.15316715744865
 20
14.18403591069937
 30
0.0
 11
47.69221215478114
 21
16.64499091336688
 31
0.0
  0
LINE
  5
8108
330
8090
100
AcDbEntity
  8
0
 62
     0
100
AcDbLine
 10
43.88592047727661
 20
19.55325697876458
 30
0.0
 11
36.84221215478106
 21
26.59696530126012
 31
0.0
  0
LINE
  5
8109
330
8090
100
AcDbEntity
  8
0
 62
     0
100
AcDbLine
 10
34.39221215478119
 20
29.04696530126
 30
0.0
 11
33.18917745604113
 21
30.25
 31
0.0
  0
LINE
  5
810A
330
8090
100
AcDbEntity
  8
0
 62
     0
100
AcDbLine
 10
49.28917745604121
 20
14.14999999999997
 30
0.0
 11
47.69221215478114
 21
15.74696530125999
 31
0.0
  0
LINE
  5
810B
330
8090
100
AcDbEntity
  8
0
 62
     0
100
AcDbLine
 10
44.30039383671055
 20
18.24075800722368
 30
0.0
 11
36.84221215478101
 21
25.69893968915318
 31
0.0
  0
LINE
  5
810C
330
8090
100
AcDbEntity
  8
0
 62
     0
100
AcDbLine
 10
34.39221215478119
 20
28.14893968915305
 30
0.0
 11
32.2911518439343
 21
30.24999999999994
 31
0.0
  0
LINE
  5
810D
330
8090
100
AcDbEntity
  8
0
 62
     0
100
AcDbLine
 10
48.39115184393427
 20
14.14999999999997
 30
0.0
 11
47.69221215478114
 21
14.8489396891531
 31
0.0
  0
LINE
  5
810E
330
8090
100
AcDbEntity
  8
0
 62
     0
100
AcDbLine
 10
34.12530545939091
 20
27.51782077243638
 30
0.0
 11
31.42508374117949
 21
30.21804249064774
 31
0.0
  0
LINE
  5
810F
330
8090
100
AcDbEntity
  8
0
 62
     0
100
AcDbLine
 10
44.71486719614444
 20
16.92825903568279
 30
0.0
 11
36.84221215478101
 21
24.80091407704628
 31
0.0
  0
LINE
  5
8110
330
8090
100
AcDbEntity
  8
0
 62
     0
100
AcDbLine
 10
39.97972107712257
 20
20.76537954259782
 30
0.0
 11
36.84221215478112
 21
23.90288846493928
 31
0.0
  0
LINE
  5
8111
330
8090
100
AcDbEntity
  8
0
 62
     0
100
AcDbLine
 10
33.29510061972041
 20
27.44999999999999
 30
0.0
 11
30.68704067159222
 21
30.05805994812817
 31
0.0
  0
LINE
  5
8112
330
8090
100
AcDbEntity
  8
0
 62
     0
100
AcDbLine
 10
45.12934055557844
 20
15.61576006414196
 30
0.0
 11
41.03703286327061
 21
19.70806775644979
 31
0.0
  0
LINE
  5
8113
330
8090
100
AcDbEntity
  8
0
 62
     0
100
AcDbLine
 10
39.64221215478113
 20
20.20486285283232
 30
0.0
 11
36.84221215478112
 21
23.00486285283239
 31
0.0
  0
LINE
  5
8114
330
8090
100
AcDbEntity
  8
0
 62
     0
100
AcDbLine
 10
32.39707500761346
 20
27.44999999999999
 30
0.0
 11
30.0483192557615
 21
29.79875575185195
 31
0.0
  0
LINE
  5
8115
330
8090
100
AcDbEntity
  8
0
 62
     0
100
AcDbLine
 10
45.3643794132891
 20
14.48269559432441
 30
0.0
 11
41.45150622270455
 21
18.39556878490895
 31
0.0
  0
LINE
  5
8116
330
8090
100
AcDbEntity
  8
0
 62
     0
100
AcDbLine
 10
39.64221215478113
 20
19.30683724072542
 30
0.0
 11
36.84221215478106
 21
22.10683724072549
 31
0.0
  0
LINE
  5
8117
330
8090
100
AcDbEntity
  8
0
 62
     0
100
AcDbLine
 10
31.55396150506993
 20
27.39508789043663
 30
0.0
 11
29.48957028042696
 21
29.4594791150796
 31
0.0
  0
LINE
  5
8118
330
8090
100
AcDbEntity
  8
0
 62
     0
100
AcDbLine
 10
44.79904939550652
 20
14.15000000000003
 30
0.0
 11
41.86597958213854
 21
17.08306981336801
 31
0.0
  0
LINE
  5
8119
330
8090
100
AcDbEntity
  8
0
 62
     0
100
AcDbLine
 10
39.64221215478113
 20
18.40881162861847
 30
0.0
 11
36.84221215478106
 21
21.20881162861854
 31
0.0
  0
LINE
  5
811A
330
8090
100
AcDbEntity
  8
0
 62
     0
100
AcDbLine
 10
30.98210531223094
 20
27.06891847116867
 30
0.0
 11
29.00191507181517
 21
29.04910871158444
 31
0.0
  0
LINE
  5
811B
330
8090
100
AcDbEntity
  8
0
 62
     0
100
AcDbLine
 10
43.90102378339963
 20
14.14999999999997
 30
0.0
 11
42.28045294157243
 21
15.77057084182718
 31
0.0
  0
LINE
  5
811C
330
8090
100
AcDbEntity
  8
0
 62
     0
100
AcDbLine
 10
34.72764128757876
 20
22.42535688371401
 30
0.0
 11
33.21756903849501
 21
23.9354291327977
 31
0.0
  0
LINE
  5
811D
330
8090
100
AcDbEntity
  8
0
 62
     0
100
AcDbLine
 10
39.64221215478113
 20
17.51078601651164
 30
0.0
 11
36.84221215478106
 21
20.31078601651165
 31
0.0
  0
LINE
  5
811E
330
8090
100
AcDbEntity
  8
0
 62
     0
100
AcDbLine
 10
30.62598374210199
 20
26.52701442919078
 30
0.0
 11
28.58254904580394
 21
28.57044912548883
 31
0.0
  0
LINE
  5
811F
330
8090
100
AcDbEntity
  8
0
 62
     0
100
AcDbLine
 10
42.95266516708795
 20
14.20033300420482
 30
0.0
 11
42.70231099549727
 21
14.4506871757955
 31
0.0
  0
LINE
  5
8120
330
8090
100
AcDbEntity
  8
0
 62
     0
100
AcDbLine
 10
34.64112762743684
 20
21.61384493174898
 30
0.0
 11
32.40605708652998
 21
23.84891547265579
 31
0.0
  0
LINE
  5
8121
330
8090
100
AcDbEntity
  8
0
 62
     0
100
AcDbLine
 10
30.54221215478117
 20
25.71276040440466
 30
0.0
 11
28.23361002484228
 21
28.02136253434355
 31
0.0
  0
LINE
  5
8122
330
8090
100
AcDbEntity
  8
0
 62
     0
100
AcDbLine
 10
39.64221215478113
 20
16.61276040440469
 30
0.0
 11
36.84221215478106
 21
19.41276040440476
 31
0.0
  0
LINE
  5
8123
330
8090
100
AcDbEntity
  8
0
 62
     0
100
AcDbLine
 10
34.30927206813885
 20
21.04767487894002
 30
0.0
 11
31.83988703372108
 21
23.5170599133578
 31
0.0
  0
LINE
  5
8124
330
8090
100
AcDbEntity
  8
0
 62
     0
100
AcDbLine
 10
30.54221215478111
 20
24.81473479229777
 30
0.0
 11
27.9630303176321
 21
27.39391662944678
 31
0.0
  0
LINE
  5
8125
330
8090
100
AcDbEntity
  8
0
 62
     0
100
AcDbLine
 10
39.64221215478108
 20
15.71473479229774
 30
0.0
 11
36.84221215478106
 21
18.51473479229781
 31
0.0
  0
LINE
  5
8126
330
8090
100
AcDbEntity
  8
0
 62
     0
100
AcDbLine
 10
30.54221215478117
 20
23.91670918019087
 30
0.0
 11
27.78831644470625
 21
26.67060489026579
 31
0.0
  0
LINE
  5
8127
330
8090
100
AcDbEntity
  8
0
 62
     0
100
AcDbLine
 10
33.80743862600235
 20
20.65148270896969
 30
0.0
 11
31.44369486375075
 21
23.01522647122129
 31
0.0
  0
LINE
  5
8128
330
8090
100
AcDbEntity
  8
0
 62
     0
100
AcDbLine
 10
25.11721215478104
 20
29.34170918019094
 30
0.0
 11
24.20892133497199
 21
30.25000000000005
 31
0.0
  0
LINE
  5
8129
330
8090
100
AcDbEntity
  8
0
 62
     0
100
AcDbLine
 10
39.64221215478113
 20
14.81670918019091
 30
0.0
 11
36.84221215478106
 21
17.61670918019098
 31
0.0
  0
LINE
  5
812A
330
8090
100
AcDbEntity
  8
0
 62
     0
100
AcDbLine
 10
30.54221215478111
 20
23.01868356808392
 30
0.0
 11
27.74221215478098
 21
25.81868356808411
 31
0.0
  0
LINE
  5
812B
330
8090
100
AcDbEntity
  8
0
 62
     0
100
AcDbLine
 10
33.10711918357492
 20
20.45377653929017
 30
0.0
 11
31.24598869407117
 21
22.31490702879387
 31
0.0
  0
LINE
  5
812C
330
8090
100
AcDbEntity
  8
0
 62
     0
100
AcDbLine
 10
25.11721215478104
 20
28.44368356808405
 30
0.0
 11
23.31089572286504
 21
30.25
 31
0.0
  0
LINE
  5
812D
330
8090
100
AcDbEntity
  8
0
 62
     0
100
AcDbLine
 10
39.35430835351041
 20
14.20658736935467
 30
0.0
 11
36.84221215478106
 21
16.71868356808403
 31
0.0
  0
LINE
  5
812E
330
8090
100
AcDbEntity
  8
0
 62
     0
100
AcDbLine
 10
30.54221215478111
 20
22.12065795597703
 30
0.0
 11
27.74221215478098
 21
24.92065795597716
 31
0.0
  0
LINE
  5
812F
330
8090
100
AcDbEntity
  8
0
 62
     0
100
AcDbLine
 10
25.00817818451071
 20
27.65469192624744
 30
0.0
 11
22.41287011075815
 21
30.25
 31
0.0
  0
LINE
  5
8130
330
8090
100
AcDbEntity
  8
0
 62
     0
100
AcDbLine
 10
38.51287011075823
 20
14.14999999999986
 30
0.0
 11
36.84221215478101
 21
15.82065795597708
 31
0.0
  0
LINE
  5
8131
330
8090
100
AcDbEntity
  8
0
 62
     0
100
AcDbLine
 10
30.54221215478111
 20
21.22263234387009
 30
0.0
 11
27.74221215478092
 21
24.02263234387021
 31
0.0
  0
LINE
  5
8132
330
8090
100
AcDbEntity
  8
0
 62
     0
100
AcDbLine
 10
24.31484449865121
 20
27.44999999999999
 30
0.0
 11
21.5148444986512
 21
30.24999999999994
 31
0.0
  0
LINE
  5
8133
330
8090
100
AcDbEntity
  8
0
 62
     0
100
AcDbLine
 10
37.61484449865122
 20
14.14999999999992
 30
0.0
 11
36.84221215478101
 21
14.92263234387019
 31
0.0
  0
LINE
  5
8134
330
8090
100
AcDbEntity
  8
0
 62
     0
100
AcDbLine
 10
30.54221215478111
 20
20.32460673176325
 30
0.0
 11
27.74221215478098
 21
23.12460673176337
 31
0.0
  0
LINE
  5
8135
330
8090
100
AcDbEntity
  8
0
 62
     0
100
AcDbLine
 10
23.41681888654437
 20
27.44999999999993
 30
0.0
 11
20.65168961443953
 21
30.21512927210483
 31
0.0
  0
LINE
  5
8136
330
8090
100
AcDbEntity
  8
0
 62
     0
100
AcDbLine
 10
34.38960970594405
 20
16.47720918060025
 30
0.0
 11
33.91942133538134
 21
16.94739755116302
 31
0.0
  0
LINE
  5
8137
330
8090
100
AcDbEntity
  8
0
 62
     0
100
AcDbLine
 10
30.54221215478111
 20
19.4265811196563
 30
0.0
 11
27.74221215478104
 21
22.22658111965637
 31
0.0
  0
LINE
  5
8138
330
8090
100
AcDbEntity
  8
0
 62
     0
100
AcDbLine
 10
22.51879327443737
 20
27.44999999999999
 30
0.0
 11
19.95855480596105
 21
30.01023846847636
 31
0.0
  0
LINE
  5
8139
330
8090
100
AcDbEntity
  8
0
 62
     0
100
AcDbLine
 10
34.39221215478113
 20
15.57658111965622
 30
0.0
 11
33.01879327443742
 21
16.94999999999998
 31
0.0
  0
LINE
  5
813A
330
8090
100
AcDbEntity
  8
0
 62
     0
100
AcDbLine
 10
30.54221215478105
 20
18.52855550754935
 30
0.0
 11
27.74221215478104
 21
21.32855550754942
 31
0.0
  0
LINE
  5
813B
330
8090
100
AcDbEntity
  8
0
 62
     0
100
AcDbLine
 10
21.62076766233048
 20
27.44999999999999
 30
0.0
 11
19.39430814611387
 21
29.67645951621659
 31
0.0
  0
LINE
  5
813C
330
8090
100
AcDbEntity
  8
0
 62
     0
100
AcDbLine
 10
34.39221215478113
 20
14.67855550754933
 30
0.0
 11
32.12076766233048
 21
16.94999999999998
 31
0.0
  0
LINE
  5
813D
330
8090
100
AcDbEntity
  8
0
 62
     0
100
AcDbLine
 10
21.110474834716
 20
27.06226721550757
 30
0.0
 11
18.93621533387306
 21
29.23652671635051
 31
0.0
  0
LINE
  5
813E
330
8090
100
AcDbEntity
  8
0
 62
     0
100
AcDbLine
 10
34.00447937028866
 20
14.16826267993497
 30
0.0
 11
27.74221215478104
 21
20.43052989544258
 31
0.0
  0
LINE
  5
813F
330
8090
100
AcDbEntity
  8
0
 62
     0
100
AcDbLine
 10
21.09221215478118
 20
26.1825042833355
 30
0.0
 11
18.58273413140403
 21
28.69198230671264
 31
0.0
  0
LINE
  5
8140
330
8090
100
AcDbEntity
  8
0
 62
     0
100
AcDbLine
 10
33.12471643811676
 20
14.14999999999992
 30
0.0
 11
27.74221215478104
 21
19.53250428333564
 31
0.0
  0
LINE
  5
8141
330
8090
100
AcDbEntity
  8
0
 62
     0
100
AcDbLine
 10
21.15434786291678
 20
25.22234296309295
 30
0.0
 11
18.35185402911025
 21
28.02483679689947
 31
0.0
  0
LINE
  5
8142
330
8090
100
AcDbEntity
  8
0
 62
     0
100
AcDbLine
 10
32.22669082600981
 20
14.14999999999992
 30
0.0
 11
27.74221215478098
 21
18.63447867122869
 31
0.0
  0
LINE
  5
8143
330
8090
100
AcDbEntity
  8
0
 62
     0
100
AcDbLine
 10
25.44658824600372
 20
20.03207696789905
 30
0.0
 11
18.29221215478111
 21
27.18645305912173
 31
0.0
  0
LINE
  5
8144
330
8090
100
AcDbEntity
  8
0
 62
     0
100
AcDbLine
 10
31.27539312684621
 20
14.20327208705663
 30
0.0
 11
27.79548424183764
 21
17.6831809720652
 31
0.0
  0
LINE
  5
8145
330
8090
100
AcDbEntity
  8
0
 62
     0
100
AcDbLine
 10
25.63848276008894
 20
18.942156841707
 30
0.0
 11
18.29221215478111
 21
26.28842744701484
 31
0.0
  0
LINE
  5
8146
330
8090
100
AcDbEntity
  8
0
 62
     0
100
AcDbLine
 10
29.90158521424461
 20
14.67905438755127
 30
0.0
 11
28.27126654233222
 21
16.30937305946372
 31
0.0
  0
LINE
  5
8147
330
8090
100
AcDbEntity
  8
0
 62
     0
100
AcDbLine
 10
25.64221215478113
 20
18.04040183490781
 30
0.0
 11
18.29977660220333
 21
25.3828373874856
 31
0.0
  0
LINE
  5
8148
330
8090
100
AcDbEntity
  8
0
 62
     0
100
AcDbLine
 10
25.64221215478119
 20
17.1423762228008
 30
0.0
 11
18.52306736052719
 21
24.2615210170548
 31
0.0
  0
LINE
  5
8149
330
8090
100
AcDbEntity
  8
0
 62
     0
100
AcDbLine
 10
25.56969215864905
 20
16.31687060682617
 30
0.0
 11
22.80630051503004
 21
19.08026225044517
 31
0.0
  0
LINE
  5
814A
330
8090
100
AcDbEntity
  8
0
 62
     0
100
AcDbLine
 10
25.3277542196202
 20
15.66078293374806
 30
0.0
 11
22.84221215478106
 21
18.14632499858714
 31
0.0
  0
LINE
  5
814B
330
8090
100
AcDbEntity
  8
0
 62
     0
100
AcDbLine
 10
24.96563497223843
 20
15.12487656902288
 30
0.0
 11
22.80631312248033
 21
17.28419841878093
 31
0.0
  0
LINE
  5
814C
330
8090
100
AcDbEntity
  8
0
 62
     0
100
AcDbLine
 10
24.49940859997155
 20
14.69307732918287
 30
0.0
 11
22.24248592915444
 21
16.95000000000004
 31
0.0
  0
LINE
  5
814D
330
8090
100
AcDbEntity
  8
0
 62
     0
100
AcDbLine
 10
23.92614415223874
 20
14.36831616480878
 30
0.0
 11
21.34446031704749
 21
16.94999999999998
 31
0.0
  0
LINE
  5
814E
330
8090
100
AcDbEntity
  8
0
 62
     0
100
AcDbLine
 10
23.22073156315281
 20
14.17570314178777
 30
0.0
 11
20.44643470494059
 21
16.94999999999998
 31
0.0
  0
LINE
  5
814F
330
8090
100
AcDbEntity
  8
0
 62
     0
100
AcDbLine
 10
22.34840909283371
 20
14.14999999999992
 30
0.0
 11
19.54840909283376
 21
16.94999999999987
 31
0.0
  0
LINE
  5
8150
330
8090
100
AcDbEntity
  8
0
 62
     0
100
AcDbLine
 10
21.45038348072682
 20
14.14999999999992
 30
0.0
 11
18.89705958590894
 21
16.70332389481785
 31
0.0
  0
LINE
  5
8151
330
8090
100
AcDbEntity
  8
0
 62
     0
100
AcDbLine
 10
20.55235786861982
 20
14.14999999999997
 30
0.0
 11
18.81721215478103
 21
15.88514571383876
 31
0.0
  0
LINE
  5
8152
330
8090
100
AcDbEntity
  8
0
 62
     0
100
AcDbLine
 10
19.65433225651293
 20
14.14999999999997
 30
0.0
 11
18.81721215478103
 21
14.98712010173187
 31
0.0
  0
LINE
  5
8153
330
8090
100
AcDbEntity
  8
0
 62
     0
100
AcDbLine
 10
75.63389943944793
 20
14.16313177711748
 30
0.0
 11
76.02908037766372
 21
14.55831271533327
 31
0.0
  0
LINE
  5
8154
330
8090
100
AcDbEntity
  8
0
 62
     0
100
AcDbLine
 10
74.72274205022358
 20
14.14999999999992
 30
0.0
 11
76.04221215478117
 21
15.46947010455755
 31
0.0
  0
LINE
  5
8155
330
8090
100
AcDbEntity
  8
0
 62
     0
100
AcDbLine
 10
73.82471643811664
 20
14.14999999999997
 30
0.0
 11
76.04221215478117
 21
16.36749571666445
 31
0.0
  0
LINE
  5
8156
330
8090
100
AcDbEntity
  8
0
 62
     0
100
AcDbLine
 10
73.27340971803284
 20
14.49671889202306
 30
0.0
 11
76.04221215478111
 21
17.2655213287714
 31
0.0
  0
LINE
  5
8157
330
8090
100
AcDbEntity
  8
0
 62
     0
100
AcDbLine
 10
73.24221215478104
 20
15.36354694087822
 30
0.0
 11
76.04221215478111
 21
18.16354694087823
 31
0.0
  0
LINE
  5
8158
330
8090
100
AcDbEntity
  8
0
 62
     0
100
AcDbLine
 10
73.2422121547811
 20
16.26157255298511
 30
0.0
 11
76.04221215478111
 21
19.06157255298518
 31
0.0
  0
LINE
  5
8159
330
8090
100
AcDbEntity
  8
0
 62
     0
100
AcDbLine
 10
73.24221215478104
 20
17.15959816509206
 30
0.0
 11
76.04221215478111
 21
19.95959816509213
 31
0.0
  0
LINE
  5
815A
330
8090
100
AcDbEntity
  8
0
 62
     0
100
AcDbLine
 10
73.24221215478104
 20
18.05762377719895
 30
0.0
 11
76.04221215478111
 21
20.85762377719902
 31
0.0
  0
LINE
  5
815B
330
8090
100
AcDbEntity
  8
0
 62
     0
100
AcDbLine
 10
69.66877701684603
 20
14.484188639264
 30
0.0
 11
70.80802351551728
 21
15.62343513793524
 31
0.0
  0
LINE
  5
815C
330
8090
100
AcDbEntity
  8
0
 62
     0
100
AcDbLine
 10
73.24221215478104
 20
18.95564938930584
 30
0.0
 11
76.04221215478123
 21
21.75564938930597
 31
0.0
  0
LINE
  5
815D
330
8090
100
AcDbEntity
  8
0
 62
     0
100
AcDbLine
 10
68.43820885032352
 20
14.15164608484832
 30
0.0
 11
71.14056606993301
 21
16.85400330445776
 31
0.0
  0
LINE
  5
815E
330
8090
100
AcDbEntity
  8
0
 62
     0
100
AcDbLine
 10
73.24221215478104
 20
19.85367500141279
 30
0.0
 11
76.04221215478117
 21
22.65367500141292
 31
0.0
  0
LINE
  5
815F
330
8090
100
AcDbEntity
  8
0
 62
     0
100
AcDbLine
 10
67.53853715336822
 20
14.14999999999992
 30
0.0
 11
71.14221215478119
 21
17.75367500141294
 31
0.0
  0
LINE
  5
8160
330
8090
100
AcDbEntity
  8
0
 62
     0
100
AcDbLine
 10
73.24221215478104
 20
20.75170061351968
 30
0.0
 11
76.04221215478117
 21
23.55170061351981
 31
0.0
  0
LINE
  5
8161
330
8090
100
AcDbEntity
  8
0
 62
     0
100
AcDbLine
 10
66.64051154126127
 20
14.14999999999997
 30
0.0
 11
71.14221215478119
 21
18.65170061351983
 31
0.0
  0
LINE
  5
8162
330
8090
100
AcDbEntity
  8
0
 62
     0
100
AcDbLine
 10
73.24221215478115
 20
21.64972622562663
 30
0.0
 11
76.04221215478117
 21
24.4497262256267
 31
0.0
  0
LINE
  5
8163
330
8090
100
AcDbEntity
  8
0
 62
     0
100
AcDbLine
 10
65.74248592915438
 20
14.14999999999992
 30
0.0
 11
71.14221215478119
 21
19.54972622562672
 31
0.0
  0
LINE
  5
8164
330
8090
100
AcDbEntity
  8
0
 62
     0
100
AcDbLine
 10
68.23762095270041
 20
17.54316063565289
 30
0.0
 11
71.14221215478119
 21
20.44775183773367
 31
0.0
  0
LINE
  5
8165
330
8090
100
AcDbEntity
  8
0
 62
     0
100
AcDbLine
 10
73.2422121547811
 20
22.54775183773358
 30
0.0
 11
76.04221215478117
 21
25.34775183773365
 31
0.0
  0
LINE
  5
8166
330
8090
100
AcDbEntity
  8
0
 62
     0
100
AcDbLine
 10
64.84446031704749
 20
14.14999999999992
 30
0.0
 11
67.74905151912827
 21
17.0545912020807
 31
0.0
  0
LINE
  5
8167
330
8090
100
AcDbEntity
  8
0
 62
     0
100
AcDbLine
 10
68.34221215478113
 20
18.5457774498405
 30
0.0
 11
71.14221215478119
 21
21.34577744984056
 31
0.0
  0
LINE
  5
8168
330
8090
100
AcDbEntity
  8
0
 62
     0
100
AcDbLine
 10
73.2422121547811
 20
23.44577744984047
 30
0.0
 11
76.04221215478117
 21
26.24577744984054
 31
0.0
  0
LINE
  5
8169
330
8090
100
AcDbEntity
  8
0
 62
     0
100
AcDbLine
 10
64.05838445631769
 20
14.26194975137707
 30
0.0
 11
66.74643470494061
 21
16.95000000000004
 31
0.0
  0
LINE
  5
816A
330
8090
100
AcDbEntity
  8
0
 62
     0
100
AcDbLine
 10
68.34221215478106
 20
19.44380306194744
 30
0.0
 11
71.14221215478114
 21
22.24380306194751
 31
0.0
  0
LINE
  5
816B
330
8090
100
AcDbEntity
  8
0
 62
     0
100
AcDbLine
 10
73.24221215478104
 20
24.34380306194742
 30
0.0
 11
76.04221215478111
 21
27.14380306194749
 31
0.0
  0
LINE
  5
816C
330
8090
100
AcDbEntity
  8
0
 62
     0
100
AcDbLine
 10
63.43039758910754
 20
14.53198849627392
 30
0.0
 11
65.84928687847798
 21
16.95087778564436
 31
0.0
  0
LINE
  5
816D
330
8090
100
AcDbEntity
  8
0
 62
     0
100
AcDbLine
 10
68.34221215478118
 20
20.34182867405439
 30
0.0
 11
71.14221215478119
 21
23.14182867405435
 31
0.0
  0
LINE
  5
816E
330
8090
100
AcDbEntity
  8
0
 62
     0
100
AcDbLine
 10
73.2422121547811
 20
25.24182867405432
 30
0.0
 11
76.04221215478117
 21
28.04182867405433
 31
0.0
  0
LINE
  5
816F
330
8090
100
AcDbEntity
  8
0
 62
     0
100
AcDbLine
 10
62.91713770774248
 20
14.91675422701564
 30
0.0
 11
65.20580828976529
 21
17.2054248090385
 31
0.0
  0
LINE
  5
8170
330
8090
100
AcDbEntity
  8
0
 62
     0
100
AcDbLine
 10
68.34221215478118
 20
21.23985428616134
 30
0.0
 11
71.14221215478114
 21
24.0398542861613
 31
0.0
  0
LINE
  5
8171
330
8090
100
AcDbEntity
  8
0
 62
     0
100
AcDbLine
 10
73.2422121547811
 20
26.13985428616121
 30
0.0
 11
76.04221215478123
 21
28.93985428616133
 31
0.0
  0
LINE
  5
8172
330
8090
100
AcDbEntity
  8
0
 62
     0
100
AcDbLine
 10
62.50717353251741
 20
15.40481566389757
 30
0.0
 11
64.86857001135604
 21
17.76621214273615
 31
0.0
  0
LINE
  5
8173
330
8090
100
AcDbEntity
  8
0
 62
     0
100
AcDbLine
 10
68.34221215478118
 20
22.13787989826824
 30
0.0
 11
71.14221215478119
 21
24.9378798982683
 31
0.0
  0
LINE
  5
8174
330
8090
100
AcDbEntity
  8
0
 62
     0
100
AcDbLine
 10
73.24221215478104
 20
27.03787989826816
 30
0.0
 11
76.03206300123059
 21
29.82773074471771
 31
0.0
  0
LINE
  5
8175
330
8090
100
AcDbEntity
  8
0
 62
     0
100
AcDbLine
 10
62.20724865408351
 20
16.00291639757057
 30
0.0
 11
64.84221215478112
 21
18.63787989826823
 31
0.0
  0
LINE
  5
8176
330
8090
100
AcDbEntity
  8
0
 62
     0
100
AcDbLine
 10
68.34221215478118
 20
23.03590551037513
 30
0.0
 11
71.14221215478124
 21
25.8359055103752
 31
0.0
  0
LINE
  5
8177
330
8090
100
AcDbEntity
  8
0
 62
     0
100
AcDbLine
 10
73.2422121547811
 20
27.93590551037499
 30
0.0
 11
75.55494865615094
 21
30.24864201174489
 31
0.0
  0
LINE
  5
8178
330
8090
100
AcDbEntity
  8
0
 62
     0
100
AcDbLine
 10
62.04983511912707
 20
16.74352847472101
 30
0.0
 11
64.84221215478118
 21
19.53590551037507
 31
0.0
  0
LINE
  5
8179
330
8090
100
AcDbEntity
  8
0
 62
     0
100
AcDbLine
 10
68.34221215478118
 20
23.93393112248202
 30
0.0
 11
71.14221215478124
 21
26.73393112248209
 31
0.0
  0
LINE
  5
817A
330
8090
100
AcDbEntity
  8
0
 62
     0
100
AcDbLine
 10
73.24221215478115
 20
28.83393112248199
 30
0.0
 11
74.65828103229916
 21
30.25
 31
0.0
  0
LINE
  5
817B
330
8090
100
AcDbEntity
  8
0
 62
     0
100
AcDbLine
 10
62.04221215478117
 20
17.63393112248206
 30
0.0
 11
64.84221215478112
 21
20.43393112248202
 31
0.0
  0
LINE
  5
817C
330
8090
100
AcDbEntity
  8
0
 62
     0
100
AcDbLine
 10
68.34221215478113
 20
24.83195673458897
 30
0.0
 11
71.14221215478119
 21
27.63195673458904
 31
0.0
  0
LINE
  5
817D
330
8090
100
AcDbEntity
  8
0
 62
     0
100
AcDbLine
 10
62.04221215478117
 20
18.53195673458896
 30
0.0
 11
64.84221215478118
 21
21.33195673458903
 31
0.0
  0
LINE
  5
817E
330
8090
100
AcDbEntity
  8
0
 62
     0
100
AcDbLine
 10
73.24225886952859
 20
29.73200344933644
 30
0.0
 11
73.76020870544454
 21
30.24995328525233
 31
0.0
  0
LINE
  5
817F
330
8090
100
AcDbEntity
  8
0
 62
     0
100
AcDbLine
 10
57.72065652406894
 20
14.21040110387679
 30
0.0
 11
59.88181105090444
 21
16.37155563071229
 31
0.0
  0
LINE
  5
8180
330
8090
100
AcDbEntity
  8
0
 62
     0
100
AcDbLine
 10
62.04221215478111
 20
19.4299823466959
 30
0.0
 11
64.84221215478118
 21
22.22998234669597
 31
0.0
  0
LINE
  5
8181
330
8090
100
AcDbEntity
  8
0
 62
     0
100
AcDbLine
 10
68.34221215478113
 20
25.72998234669592
 30
0.0
 11
71.14221215478119
 21
28.52998234669593
 31
0.0
  0
LINE
  5
8182
330
8090
100
AcDbEntity
  8
0
 62
     0
100
AcDbLine
 10
56.76222980808524
 20
14.15000000000003
 30
0.0
 11
59.94221215478114
 21
17.32998234669588
 31
0.0
  0
LINE
  5
8183
330
8090
100
AcDbEntity
  8
0
 62
     0
100
AcDbLine
 10
62.04221215478117
 20
20.32800795880274
 30
0.0
 11
64.84221215478124
 21
23.12800795880281
 31
0.0
  0
LINE
  5
8184
330
8090
100
AcDbEntity
  8
0
 62
     0
100
AcDbLine
 10
68.34221215478118
 20
26.62800795880275
 30
0.0
 11
71.14221215478119
 21
29.42800795880282
 31
0.0
  0
LINE
  5
8185
330
8090
100
AcDbEntity
  8
0
 62
     0
100
AcDbLine
 10
55.86420419597828
 20
14.14999999999992
 30
0.0
 11
59.94221215478114
 21
18.22800795880277
 31
0.0
  0
LINE
  5
8186
330
8090
100
AcDbEntity
  8
0
 62
     0
100
AcDbLine
 10
62.04221215478111
 20
21.22603357090969
 30
0.0
 11
64.84221215478118
 21
24.02603357090976
 31
0.0
  0
LINE
  5
8187
330
8090
100
AcDbEntity
  8
0
 62
     0
100
AcDbLine
 10
68.34221215478113
 20
27.5260335709097
 30
0.0
 11
70.94847469994698
 21
30.13229611607556
 31
0.0
  0
LINE
  5
8188
330
8090
100
AcDbEntity
  8
0
 62
     0
100
AcDbLine
 10
54.96617858387145
 20
14.15000000000003
 30
0.0
 11
59.92789355436826
 21
19.11171497049684
 31
0.0
  0
LINE
  5
8189
330
8090
100
AcDbEntity
  8
0
 62
     0
100
AcDbLine
 10
62.04221215478117
 20
22.12405918301669
 30
0.0
 11
64.84221215478118
 21
24.92405918301665
 31
0.0
  0
LINE
  5
818A
330
8090
100
AcDbEntity
  8
0
 62
     0
100
AcDbLine
 10
68.34221215478113
 20
28.42405918301659
 30
0.0
 11
70.16815297176447
 21
30.25
 31
0.0
  0
LINE
  5
818B
330
8090
100
AcDbEntity
  8
0
 62
     0
100
AcDbLine
 10
54.06815297176445
 20
14.14999999999997
 30
0.0
 11
59.79298118373947
 21
19.874828211975
 31
0.0
  0
LINE
  5
818C
330
8090
100
AcDbEntity
  8
0
 62
     0
100
AcDbLine
 10
62.04221215478122
 20
23.02208479512358
 30
0.0
 11
64.84221215478118
 21
25.82208479512354
 31
0.0
  0
LINE
  5
818D
330
8090
100
AcDbEntity
  8
0
 62
     0
100
AcDbLine
 10
57.14221215478125
 20
18.12208479512361
 30
0.0
 11
59.55239372682086
 21
20.53226636716323
 31
0.0
  0
LINE
  5
818E
330
8090
100
AcDbEntity
  8
0
 62
     0
100
AcDbLine
 10
68.34221215478113
 20
29.32208479512349
 30
0.0
 11
69.27012735965764
 21
30.25
 31
0.0
  0
LINE
  5
818F
330
8090
100
AcDbEntity
  8
0
 62
     0
100
AcDbLine
 10
53.29838271278879
 20
14.2782553531311
 30
0.0
 11
55.97012735965762
 21
16.94999999999998
 31
0.0
  0
LINE
  5
8190
330
8090
100
AcDbEntity
  8
0
 62
     0
100
AcDbLine
 10
57.12234157965378
 20
19.00023983210303
 30
0.0
 11
59.22889442196032
 21
21.10679267440963
 31
0.0
  0
LINE
  5
8191
330
8090
100
AcDbEntity
  8
0
 62
     0
100
AcDbLine
 10
62.04221215478122
 20
23.92011040723048
 30
0.0
 11
64.84221215478118
 21
26.72011040723049
 31
0.0
  0
LINE
  5
8192
330
8090
100
AcDbEntity
  8
0
 62
     0
100
AcDbLine
 10
53.1172121547811
 20
14.99511040723035
 30
0.0
 11
55.07210174755073
 21
16.95000000000004
 31
0.0
  0
LINE
  5
8193
330
8090
100
AcDbEntity
  8
0
 62
     0
100
AcDbLine
 10
56.84795674251489
 20
19.62388060707115
 30
0.0
 11
58.83302330403245
 21
21.60894716858871
 31
0.0
  0
LINE
  5
8194
330
8090
100
AcDbEntity
  8
0
 62
     0
100
AcDbLine
 10
62.04221215478117
 20
24.81813601933743
 30
0.0
 11
64.84221215478112
 21
27.61813601933738
 31
0.0
  0
LINE
  5
8195
330
8090
100
AcDbEntity
  8
0
 62
     0
100
AcDbLine
 10
53.11721215478105
 20
15.8931360193373
 30
0.0
 11
54.17407613544378
 21
16.95000000000004
 31
0.0
  0
LINE
  5
8196
330
8090
100
AcDbEntity
  8
0
 62
     0
100
AcDbLine
 10
62.04221215478122
 20
25.71616163144426
 30
0.0
 11
64.84221215478118
 21
28.51616163144427
 31
0.0
  0
LINE
  5
8197
330
8090
100
AcDbEntity
  8
0
 62
     0
100
AcDbLine
 10
56.40668184539788
 20
20.08063132206098
 30
0.0
 11
58.3865808327202
 21
22.06053030938329
 31
0.0
  0
LINE
  5
8198
330
8090
100
AcDbEntity
  8
0
 62
     0
100
AcDbLine
 10
55.95766903934441
 20
20.52964412811445
 30
0.0
 11
57.93756802666667
 21
22.50954311543665
 31
0.0
  0
LINE
  5
8199
330
8090
100
AcDbEntity
  8
0
 62
     0
100
AcDbLine
 10
62.04221215478117
 20
26.61418724355121
 30
0.0
 11
64.84221215478118
 21
29.41418724355116
 31
0.0
  0
LINE
  5
819A
330
8090
100
AcDbEntity
  8
0
 62
     0
100
AcDbLine
 10
49.57802491122993
 20
14.14999999999997
 30
0.0
 11
50.49221215478116
 21
15.0641872435512
 31
0.0
  0
LINE
  5
819B
330
8090
100
AcDbEntity
  8
0
 62
     0
100
AcDbLine
 10
55.50865623329105
 20
20.97865693416798
 30
0.0
 11
57.48855522061319
 21
22.95855592149013
 31
0.0
  0
LINE
  5
819C
330
8090
100
AcDbEntity
  8
0
 62
     0
100
AcDbLine
 10
62.04221215478117
 20
27.51221285565816
 30
0.0
 11
64.65603124668229
 21
30.12603194755928
 31
0.0
  0
LINE
  5
819D
330
8090
100
AcDbEntity
  8
0
 62
     0
100
AcDbLine
 10
48.67999929912293
 20
14.14999999999992
 30
0.0
 11
50.49221215478116
 21
15.96221285565815
 31
0.0
  0
LINE
  5
819E
330
8090
100
AcDbEntity
  8
0
 62
     0
100
AcDbLine
 10
55.05964342723746
 20
21.4276697402214
 30
0.0
 11
57.03954241455978
 21
23.40756872754372
 31
0.0
  0
LINE
  5
819F
330
8090
100
AcDbEntity
  8
0
 62
     0
100
AcDbLine
 10
62.04221215478117
 20
28.41023846776505
 30
0.0
 11
63.88197368701606
 21
30.25
 31
0.0
  0
LINE
  5
81A0
330
8090
100
AcDbEntity
  8
0
 62
     0
100
AcDbLine
 10
47.89358482487807
 20
14.26161113786202
 30
0.0
 11
50.49221215478116
 21
16.86023846776504
 31
0.0
  0
LINE
  5
81A1
330
8090
100
AcDbEntity
  8
0
 62
     0
100
AcDbLine
 10
54.61063062118404
 20
21.87668254627482
 30
0.0
 11
56.59052960850636
 21
23.85658153359713
 31
0.0
  0
LINE
  5
81A2
330
8090
100
AcDbEntity
  8
0
 62
     0
100
AcDbLine
 10
62.04221215478117
 20
29.30826407987194
 30
0.0
 11
62.98394807490916
 21
30.24999999999994
 31
0.0
  0
LINE
  5
81A3
330
8090
100
AcDbEntity
  8
0
 62
     0
100
AcDbLine
 10
47.6922121547812
 20
14.95826407987198
 30
0.0
 11
50.49221215478116
 21
17.75826407987193
 31
0.0
  0
LINE
  5
81A4
330
8090
100
AcDbEntity
  8
0
 62
     0
100
AcDbLine
 10
54.16161781513057
 20
22.32569535232829
 30
0.0
 11
56.14151680245289
 21
24.30559433965061
 31
0.0
  0
LINE
  5
81A5
330
8090
100
AcDbEntity
  8
0
 62
     0
100
AcDbLine
 10
47.69221215478114
 20
15.85628969197887
 30
0.0
 11
50.49221215478116
 21
18.65628969197882
 31
0.0
  0
LINE
  5
81A6
330
8090
100
AcDbEntity
  8
0
 62
     0
100
AcDbLine
 10
53.71463391408929
 20
22.77673706339396
 30
0.0
 11
55.69860744747126
 21
24.76071059677593
 31
0.0
  0
LINE
  5
81A7
330
8090
100
AcDbEntity
  8
0
 62
     0
100
AcDbLine
 10
47.69221215478114
 20
16.75431530408582
 30
0.0
 11
50.4922121547811
 21
19.55431530408577
 31
0.0
  0
LINE
  5
81A8
330
8090
100
AcDbEntity
  8
0
 62
     0
100
AcDbLine
 10
58.38789685069537
 20
27.44999999999999
 30
0.0
 11
59.41721215478117
 21
28.47931530408584
 31
0.0
  0
LINE
  5
81A9
330
8090
100
AcDbEntity
  8
0
 62
     0
100
AcDbLine
 10
45.19955593007011
 20
14.26165907937479
 30
0.0
 11
45.28920829152673
 21
14.35131144083141
 31
0.0
  0
LINE
  5
81AA
330
8090
100
AcDbEntity
  8
0
 62
     0
100
AcDbLine
 10
53.31663173526732
 20
23.27676049667883
 30
0.0
 11
55.41626601268598
 21
25.37639477409749
 31
0.0
  0
LINE
  5
81AB
330
8090
100
AcDbEntity
  8
0
 62
     0
100
AcDbLine
 10
47.6922121547812
 20
17.65234091619265
 30
0.0
 11
50.49221215478116
 21
20.45234091619267
 31
0.0
  0
LINE
  5
81AC
330
8090
100
AcDbEntity
  8
0
 62
     0
100
AcDbLine
 10
57.48987123858848
 20
27.44999999999999
 30
0.0
 11
59.41721215478122
 21
29.37734091619267
 31
0.0
  0
LINE
  5
81AD
330
8090
100
AcDbEntity
  8
0
 62
     0
100
AcDbLine
 10
44.1898712385884
 20
14.14999999999992
 30
0.0
 11
45.25565033489505
 21
15.2157790963065
 31
0.0
  0
LINE
  5
81AE
330
8090
100
AcDbEntity
  8
0
 62
     0
100
AcDbLine
 10
52.99079747087057
 20
23.84895184438903
 30
0.0
 11
55.39221215478119
 21
26.25036652829965
 31
0.0
  0
LINE
  5
81AF
330
8090
100
AcDbEntity
  8
0
 62
     0
100
AcDbLine
 10
47.69221215478114
 20
18.5503665282996
 30
0.0
 11
50.49221215478116
 21
21.35036652829956
 31
0.0
  0
LINE
  5
81B0
330
8090
100
AcDbEntity
  8
0
 62
     0
100
AcDbLine
 10
56.59184562648147
 20
27.44999999999993
 30
0.0
 11
59.25054322298319
 21
30.10869759650165
 31
0.0
  0
LINE
  5
81B1
330
8090
100
AcDbEntity
  8
0
 62
     0
100
AcDbLine
 10
43.29184562648151
 20
14.14999999999992
 30
0.0
 11
45.04012418798936
 21
15.89827856150776
 31
0.0
  0
LINE
  5
81B2
330
8090
100
AcDbEntity
  8
0
 62
     0
100
AcDbLine
 10
47.69221215478114
 20
19.44839214040649
 30
0.0
 11
50.4922121547811
 21
22.2483921404065
 31
0.0
  0
LINE
  5
81B3
330
8090
100
AcDbEntity
  8
0
 62
     0
100
AcDbLine
 10
52.74741540820059
 20
24.503595393826
 30
0.0
 11
58.49382001437459
 21
30.25
 31
0.0
  0
LINE
  5
81B4
330
8090
100
AcDbEntity
  8
0
 62
     0
100
AcDbLine
 10
42.6998313158266
 20
14.45601130145195
 30
0.0
 11
44.82459804108367
 21
16.58077802670902
 31
0.0
  0
LINE
  5
81B5
330
8090
100
AcDbEntity
  8
0
 62
     0
100
AcDbLine
 10
47.69221215478109
 20
20.34641775251344
 30
0.0
 11
50.4922121547811
 21
23.14641775251339
 31
0.0
  0
LINE
  5
81B6
330
8090
100
AcDbEntity
  8
0
 62
     0
100
AcDbLine
 10
52.60870854911491
 20
25.26291414684726
 30
0.0
 11
57.5957944022677
 21
30.25
 31
0.0
  0
LINE
  5
81B7
330
8090
100
AcDbEntity
  8
0
 62
     0
100
AcDbLine
 10
42.48107189417794
 20
15.13527749191024
 30
0.0
 11
44.60907189417798
 21
17.26327749191034
 31
0.0
  0
LINE
  5
81B8
330
8090
100
AcDbEntity
  8
0
 62
     0
100
AcDbLine
 10
47.69221215478114
 20
21.24444336462033
 30
0.0
 11
50.4922121547811
 21
24.04444336462029
 31
0.0
  0
LINE
  5
81B9
330
8090
100
AcDbEntity
  8
0
 62
     0
100
AcDbLine
 10
52.59221215478112
 20
26.14444336462031
 30
0.0
 11
56.6977687901608
 21
30.25
 31
0.0
  0
LINE
  5
81BA
330
8090
100
AcDbEntity
  8
0
 62
     0
100
AcDbLine
 10
42.26554574727219
 20
15.81777695711139
 30
0.0
 11
44.39354574727235
 21
17.94577695711154
 31
0.0
  0
LINE
  5
81BB
330
8090
100
AcDbEntity
  8
0
 62
     0
100
AcDbLine
 10
47.69221215478114
 20
22.14246897672722
 30
0.0
 11
50.4922121547811
 21
24.94246897672724
 31
0.0
  0
LINE
  5
81BC
330
8090
100
AcDbEntity
  8
0
 62
     0
100
AcDbLine
 10
52.59221215478112
 20
27.0424689767272
 30
0.0
 11
55.79974317805391
 21
30.25
 31
0.0
  0
LINE
  5
81BD
330
8090
100
AcDbEntity
  8
0
 62
     0
100
AcDbLine
 10
42.05001960036662
 20
16.5002764223127
 30
0.0
 11
44.17801960036666
 21
18.6282764223128
 31
0.0
  0
LINE
  5
81BE
330
8090
100
AcDbEntity
  8
0
 62
     0
100
AcDbLine
 10
47.6922121547812
 20
23.04049458883423
 30
0.0
 11
50.4922121547811
 21
25.84049458883413
 31
0.0
  0
LINE
  5
81BF
330
8090
100
AcDbEntity
  8
0
 62
     0
100
AcDbLine
 10
41.83449345346093
 20
17.18277588751402
 30
0.0
 11
43.96249345346098
 21
19.31077588751406
 31
0.0
  0
LINE
  5
81C0
330
8090
100
AcDbEntity
  8
0
 62
     0
100
AcDbLine
 10
52.64552882490256
 20
27.99381125895559
 30
0.0
 11
54.84840089582553
 21
30.19668332987857
 31
0.0
  0
LINE
  5
81C1
330
8090
100
AcDbEntity
  8
0
 62
     0
100
AcDbLine
 10
38.80171756594683
 20
14.14999999999992
 30
0.0
 11
39.64221215478119
 21
14.99049458883428
 31
0.0
  0
LINE
  5
81C2
330
8090
100
AcDbEntity
  8
0
 62
     0
100
AcDbLine
 10
41.6189673065553
 20
17.86527535271523
 30
0.0
 11
43.74696730655535
 21
19.99327535271527
 31
0.0
  0
LINE
  5
81C3
330
8090
100
AcDbEntity
  8
0
 62
     0
100
AcDbLine
 10
47.6922121547812
 20
23.93852020094112
 30
0.0
 11
50.4922121547811
 21
26.73852020094102
 31
0.0
  0
LINE
  5
81C4
330
8090
100
AcDbEntity
  8
0
 62
     0
100
AcDbLine
 10
37.90369195383999
 20
14.14999999999986
 30
0.0
 11
39.64221215478124
 21
15.88852020094111
 31
0.0
  0
LINE
  5
81C5
330
8090
100
AcDbEntity
  8
0
 62
     0
100
AcDbLine
 10
41.40344115964956
 20
18.54777481791637
 30
0.0
 11
43.53144115964965
 21
20.67577481791653
 31
0.0
  0
LINE
  5
81C6
330
8090
100
AcDbEntity
  8
0
 62
     0
100
AcDbLine
 10
47.6922121547812
 20
24.83654581304802
 30
0.0
 11
50.4922121547811
 21
27.63654581304791
 31
0.0
  0
LINE
  5
81C7
330
8090
100
AcDbEntity
  8
0
 62
     0
100
AcDbLine
 10
37.08681608938445
 20
14.23114974765127
 30
0.0
 11
39.64221215478119
 21
16.78654581304806
 31
0.0
  0
LINE
  5
81C8
330
8090
100
AcDbEntity
  8
0
 62
     0
100
AcDbLine
 10
41.18791501274393
 20
19.23027428311775
 30
0.0
 11
43.31591501274397
 21
21.35827428311779
 31
0.0
  0
LINE
  5
81C9
330
8090
100
AcDbEntity
  8
0
 62
     0
100
AcDbLine
 10
47.69221215478114
 20
25.73457142515497
 30
0.0
 11
50.49221215478104
 21
28.53457142515486
 31
0.0
  0
LINE
  5
81CA
330
8090
100
AcDbEntity
  8
0
 62
     0
100
AcDbLine
 10
36.84221215478112
 20
14.88457142515494
 30
0.0
 11
39.64221215478119
 21
17.68457142515501
 31
0.0
  0
LINE
  5
81CB
330
8090
100
AcDbEntity
  8
0
 62
     0
100
AcDbLine
 10
40.9723888658384
 20
19.91277374831901
 30
0.0
 11
43.10038886583839
 21
22.040773748319
 31
0.0
  0
LINE
  5
81CC
330
8090
100
AcDbEntity
  8
0
 62
     0
100
AcDbLine
 10
47.6922121547812
 20
26.63259703726186
 30
0.0
 11
50.4922121547811
 21
29.43259703726175
 31
0.0
  0
LINE
  5
81CD
330
8090
100
AcDbEntity
  8
0
 62
     0
100
AcDbLine
 10
36.84221215478117
 20
15.78259703726178
 30
0.0
 11
39.64221215478124
 21
18.58259703726185
 31
0.0
  0
LINE
  5
81CE
330
8090
100
AcDbEntity
  8
0
 62
     0
100
AcDbLine
 10
40.73759007886645
 20
20.57600057345405
 30
0.0
 11
43.36788414679739
 21
23.20629464138499
 31
0.0
  0
LINE
  5
81CF
330
8090
100
AcDbEntity
  8
0
 62
     0
100
AcDbLine
 10
47.6922121547812
 20
27.53062264936875
 30
0.0
 11
50.29593673228266
 21
30.1343472268702
 31
0.0
  0
LINE
  5
81D0
330
8090
100
AcDbEntity
  8
0
 62
     0
100
AcDbLine
 10
36.84221215478112
 20
16.68062264936873
 30
0.0
 11
39.64221215478119
 21
19.48062264936879
 31
0.0
  0
LINE
  5
81D1
330
8090
100
AcDbEntity
  8
0
 62
     0
100
AcDbLine
 10
40.05040470899899
 20
20.78684081569355
 30
0.0
 11
43.7823575062315
 21
24.518793612926
 31
0.0
  0
LINE
  5
81D2
330
8090
100
AcDbEntity
  8
0
 62
     0
100
AcDbLine
 10
36.84221215478112
 20
17.57864826147567
 30
0.0
 11
39.65537133908759
 21
20.39180744578215
 31
0.0
  0
LINE
  5
81D3
330
8090
100
AcDbEntity
  8
0
 62
     0
100
AcDbLine
 10
47.69221215478114
 20
28.4286482614757
 30
0.0
 11
49.51356389330545
 21
30.25
 31
0.0
  0
LINE
  5
81D4
330
8090
100
AcDbEntity
  8
0
 62
     0
100
AcDbLine
 10
33.41356389330542
 20
14.14999999999992
 30
0.0
 11
34.39221215478124
 21
15.1286482614758
 31
0.0
  0
LINE
  5
81D5
330
8090
100
AcDbEntity
  8
0
 62
     0
100
AcDbLine
 10
36.84221215478112
 20
18.47667387358256
 30
0.0
 11
44.19683086566538
 21
25.83129258446689
 31
0.0
  0
LINE
  5
81D6
330
8090
100
AcDbEntity
  8
0
 62
     0
100
AcDbLine
 10
47.69221215478114
 20
29.32667387358259
 30
0.0
 11
48.61553828119849
 21
30.25
 31
0.0
  0
LINE
  5
81D7
330
8090
100
AcDbEntity
  8
0
 62
     0
100
AcDbLine
 10
32.51553828119847
 20
14.14999999999997
 30
0.0
 11
34.39221215478124
 21
16.02667387358269
 31
0.0
  0
LINE
  5
81D8
330
8090
100
AcDbEntity
  8
0
 62
     0
100
AcDbLine
 10
36.84221215478112
 20
19.37469948568946
 30
0.0
 11
44.61130422509955
 21
27.14379155600784
 31
0.0
  0
LINE
  5
81D9
330
8090
100
AcDbEntity
  8
0
 62
     0
100
AcDbLine
 10
31.62919329344163
 20
14.16168062434991
 30
0.0
 11
34.2508778711749
 21
16.78336520208318
 31
0.0
  0
LINE
  5
81DA
330
8090
100
AcDbEntity
  8
0
 62
     0
100
AcDbLine
 10
36.84221215478112
 20
20.27272509779635
 30
0.0
 11
40.16948705698479
 21
23.60000000000002
 31
0.0
  0
LINE
  5
81DB
330
8090
100
AcDbEntity
  8
0
 62
     0
100
AcDbLine
 10
40.93346989222562
 20
24.3639828352409
 30
0.0
 11
45.02577758453344
 21
28.45629052754873
 31
0.0
  0
LINE
  5
81DC
330
8090
100
AcDbEntity
  8
0
 62
     0
100
AcDbLine
 10
30.8610327759946
 20
14.29154571900989
 30
0.0
 11
33.51948705698464
 21
16.94999999999993
 31
0.0
  0
LINE
  5
81DD
330
8090
100
AcDbEntity
  8
0
 62
     0
100
AcDbLine
 10
36.84221215478106
 20
21.1707507099033
 30
0.0
 11
39.66020272548945
 21
23.98874128061169
 31
0.0
  0
LINE
  5
81DE
330
8090
100
AcDbEntity
  8
0
 62
     0
100
AcDbLine
 10
41.34794325165955
 20
25.67648180678179
 30
0.0
 11
45.40084903633487
 21
29.72938759145711
 31
0.0
  0
LINE
  5
81DF
330
8090
100
AcDbEntity
  8
0
 62
     0
100
AcDbLine
 10
30.19989851916824
 20
14.52843707429042
 30
0.0
 11
32.62146144487781
 21
16.95000000000004
 31
0.0
  0
LINE
  5
81E0
330
8090
100
AcDbEntity
  8
0
 62
     0
100
AcDbLine
 10
36.84221215478112
 20
22.06877632201019
 30
0.0
 11
39.64221215478124
 21
24.86877632201032
 31
0.0
  0
LINE
  5
81E1
330
8090
100
AcDbEntity
  8
0
 62
     0
100
AcDbLine
 10
41.76241661109361
 20
26.98898077832268
 30
0.0
 11
45.00683716376551
 21
30.23340133099458
 31
0.0
  0
LINE
  5
81E2
330
8090
100
AcDbEntity
  8
0
 62
     0
100
AcDbLine
 10
29.62229523500388
 20
14.84885940223296
 30
0.0
 11
31.73835709349686
 21
16.96492126072593
 31
0.0
  0
LINE
  5
81E3
330
8090
100
AcDbEntity
  8
0
 62
     0
100
AcDbLine
 10
36.84221215478117
 20
22.9668019341172
 30
0.0
 11
39.64221215478124
 21
25.76680193411721
 31
0.0
  0
LINE
  5
81E4
330
8090
100
AcDbEntity
  8
0
 62
     0
100
AcDbLine
 10
42.17688997052755
 20
28.30147974986351
 30
0.0
 11
44.12541022066398
 21
30.25
 31
0.0
  0
LINE
  5
81E5
330
8090
100
AcDbEntity
  8
0
 62
     0
100
AcDbLine
 10
29.11734026862183
 20
15.24193004795785
 30
0.0
 11
31.10404095247855
 21
17.22863073181452
 31
0.0
  0
LINE
  5
81E6
330
8090
100
AcDbEntity
  8
0
 62
     0
100
AcDbLine
 10
36.84221215478117
 20
23.86482754622409
 30
0.0
 11
39.64221215478119
 21
26.66482754622416
 31
0.0
  0
LINE
  5
81E7
330
8090
100
AcDbEntity
  8
0
 62
     0
100
AcDbLine
 10
33.50384628655735
 20
20.52646167800031
 30
0.0
 11
34.66575047678077
 21
21.68836586822374
 31
0.0
  0
LINE
  5
81E8
330
8090
100
AcDbEntity
  8
0
 62
     0
100
AcDbLine
 10
42.59136332996144
 20
29.61397872140441
 30
0.0
 11
43.22738460855709
 21
30.25000000000005
 31
0.0
  0
LINE
  5
81E9
330
8090
100
AcDbEntity
  8
0
 62
     0
100
AcDbLine
 10
28.68090319529204
 20
15.70351858673495
 30
0.0
 11
30.69379000120636
 21
17.71640539264933
 31
0.0
  0
LINE
  5
81EA
330
8090
100
AcDbEntity
  8
0
 62
     0
100
AcDbLine
 10
32.57887344492763
 20
20.49951444847755
 30
0.0
 11
34.69269770630353
 21
22.61333870985345
 31
0.0
  0
LINE
  5
81EB
330
8090
100
AcDbEntity
  8
0
 62
     0
100
AcDbLine
 10
36.84221215478112
 20
24.76285315833104
 30
0.0
 11
39.64221215478119
 21
27.5628531583311
 31
0.0
  0
LINE
  5
81EC
330
8090
100
AcDbEntity
  8
0
 62
     0
100
AcDbLine
 10
28.31388397034902
 20
16.23452497389894
 30
0.0
 11
30.54221215478111
 21
18.46285315833102
 31
0.0
  0
LINE
  5
81ED
330
8090
100
AcDbEntity
  8
0
 62
     0
100
AcDbLine
 10
31.96472687550749
 20
20.78339349116419
 30
0.0
 11
34.40881866361684
 21
23.22748527927359
 31
0.0
  0
LINE
  5
81EE
330
8090
100
AcDbEntity
  8
0
 62
     0
100
AcDbLine
 10
36.84221215478117
 20
25.66087877043787
 30
0.0
 11
39.64221215478124
 21
28.46087877043794
 31
0.0
  0
LINE
  5
81EF
330
8090
100
AcDbEntity
  8
0
 62
     0
100
AcDbLine
 10
28.02256646042434
 20
16.84123307608109
 30
0.0
 11
30.54221215478117
 21
19.36087877043792
 31
0.0
  0
LINE
  5
81F0
330
8090
100
AcDbEntity
  8
0
 62
     0
100
AcDbLine
 10
31.52676694851777
 20
21.24345917628147
 30
0.0
 11
33.94875297849961
 21
23.66544520626325
 31
0.0
  0
LINE
  5
81F1
330
8090
100
AcDbEntity
  8
0
 62
     0
100
AcDbLine
 10
36.84221215478112
 20
26.55890438254482
 30
0.0
 11
39.64221215478119
 21
29.35890438254489
 31
0.0
  0
LINE
  5
81F2
330
8090
100
AcDbEntity
  8
0
 62
     0
100
AcDbLine
 10
27.82142909624969
 20
17.53812132401333
 30
0.0
 11
30.54221215478111
 21
20.25890438254481
 31
0.0
  0
LINE
  5
81F3
330
8090
100
AcDbEntity
  8
0
 62
     0
100
AcDbLine
 10
31.27071621610946
 20
21.88543405598011
 30
0.0
 11
33.30677809880097
 21
23.92149593867162
 31
0.0
  0
LINE
  5
81F4
330
8090
100
AcDbEntity
  8
0
 62
     0
100
AcDbLine
 10
27.74221215478104
 20
18.35692999465169
 30
0.0
 11
30.54221215478111
 21
21.15692999465176
 31
0.0
  0
LINE
  5
81F5
330
8090
100
AcDbEntity
  8
0
 62
     0
100
AcDbLine
 10
36.84221215478112
 20
27.45692999465177
 30
0.0
 11
39.48496204642594
 21
30.09967988629659
 31
0.0
  0
LINE
  5
81F6
330
8090
100
AcDbEntity
  8
0
 62
     0
100
AcDbLine
 10
23.65621539690539
 20
14.27093323677604
 30
0.0
 11
25.52127891800512
 21
16.13599675787577
 31
0.0
  0
LINE
  5
81F7
330
8090
100
AcDbEntity
  8
0
 62
     0
100
AcDbLine
 10
31.38912929959031
 20
22.90187275156773
 30
0.0
 11
32.29033940321329
 21
23.80308285519078
 31
0.0
  0
LINE
  5
81F8
330
8090
100
AcDbEntity
  8
0
 62
     0
100
AcDbLine
 10
27.74221215478116
 20
19.25495560675864
 30
0.0
 11
30.54221215478117
 21
22.05495560675859
 31
0.0
  0
LINE
  5
81F9
330
8090
100
AcDbEntity
  8
0
 62
     0
100
AcDbLine
 10
36.84221215478117
 20
28.35495560675861
 30
0.0
 11
38.73725654802246
 21
30.24999999999994
 31
0.0
  0
LINE
  5
81FA
330
8090
100
AcDbEntity
  8
0
 62
     0
100
AcDbLine
 10
22.63725654802243
 20
14.14999999999992
 30
0.0
 11
25.64221215478124
 21
17.15495560675873
 31
0.0
  0
LINE
  5
81FB
330
8090
100
AcDbEntity
  8
0
 62
     0
100
AcDbLine
 10
27.74221215478116
 20
20.15298121886559
 30
0.0
 11
30.54221215478122
 21
22.9529812188656
 31
0.0
  0
LINE
  5
81FC
330
8090
100
AcDbEntity
  8
0
 62
     0
100
AcDbLine
 10
36.84221215478112
 20
29.25298121886555
 30
0.0
 11
37.83923093591556
 21
30.25
 31
0.0
  0
LINE
  5
81FD
330
8090
100
AcDbEntity
  8
0
 62
     0
100
AcDbLine
 10
21.73923093591554
 20
14.14999999999992
 30
0.0
 11
25.64221215478124
 21
18.05298121886562
 31
0.0
  0
LINE
  5
81FE
330
8090
100
AcDbEntity
  8
0
 62
     0
100
AcDbLine
 10
27.74221215478116
 20
21.05100683097248
 30
0.0
 11
30.54221215478117
 21
23.85100683097255
 31
0.0
  0
LINE
  5
81FF
330
8090
100
AcDbEntity
  8
0
 62
     0
100
AcDbLine
 10
20.84120532380859
 20
14.14999999999997
 30
0.0
 11
25.63827280222
 21
18.94706747841138
 31
0.0
  0
LINE
  5
8200
330
8090
100
AcDbEntity
  8
0
 62
     0
100
AcDbLine
 10
27.74221215478116
 20
21.94903244307943
 30
0.0
 11
30.54221215478122
 21
24.7490324430795
 31
0.0
  0
LINE
  5
8201
330
8090
100
AcDbEntity
  8
0
 62
     0
100
AcDbLine
 10
33.24317971170177
 20
27.45000000000004
 30
0.0
 11
34.39221215478124
 21
28.59903244307952
 31
0.0
  0
LINE
  5
8202
330
8090
100
AcDbEntity
  8
0
 62
     0
100
AcDbLine
 10
19.94317971170164
 20
14.14999999999992
 30
0.0
 11
25.52861096589856
 21
19.73543125419683
 31
0.0
  0
LINE
  5
8203
330
8090
100
AcDbEntity
  8
0
 62
     0
100
AcDbLine
 10
27.74221215478116
 20
22.84705805518626
 30
0.0
 11
30.54221215478117
 21
25.64705805518633
 31
0.0
  0
LINE
  5
8204
330
8090
100
AcDbEntity
  8
0
 62
     0
100
AcDbLine
 10
22.84221215478118
 20
17.94705805518629
 30
0.0
 11
25.30627222185455
 21
20.41111812225966
 31
0.0
  0
LINE
  5
8205
330
8090
100
AcDbEntity
  8
0
 62
     0
100
AcDbLine
 10
32.34515409959476
 20
27.44999999999993
 30
0.0
 11
34.39221215478124
 21
29.49705805518641
 31
0.0
  0
LINE
  5
8206
330
8090
100
AcDbEntity
  8
0
 62
     0
100
AcDbLine
 10
19.10287997485471
 20
14.20772587525988
 30
0.0
 11
21.84515409959476
 21
16.94999999999993
 31
0.0
  0
LINE
  5
8207
330
8090
100
AcDbEntity
  8
0
 62
     0
100
AcDbLine
 10
27.7422121547811
 20
23.74508366729321
 30
0.0
 11
30.70802686056072
 21
26.71089837307283
 31
0.0
  0
LINE
  5
8208
330
8090
100
AcDbEntity
  8
0
 62
     0
100
AcDbLine
 10
22.84005306317181
 20
18.84292457568386
 30
0.0
 11
24.99784068718241
 21
21.00071219969453
 31
0.0
  0
LINE
  5
8209
330
8090
100
AcDbEntity
  8
0
 62
     0
100
AcDbLine
 10
31.28131378170826
 20
27.28418529422038
 30
0.0
 11
34.15874473986116
 21
30.16161625237328
 31
0.0
  0
LINE
  5
820A
330
8090
100
AcDbEntity
  8
0
 62
     0
100
AcDbLine
 10
18.81721215478114
 20
14.82008366729326
 30
0.0
 11
20.94712848748792
 21
16.95000000000004
 31
0.0
  0
LINE
  5
820B
330
8090
100
AcDbEntity
  8
0
 62
     0
100
AcDbLine
 10
22.62045004367109
 20
19.52134716829016
 30
0.0
 11
24.61559872234352
 21
21.51649584696258
 31
0.0
  0
LINE
  5
820C
330
8090
100
AcDbEntity
  8
0
 62
     0
100
AcDbLine
 10
27.7422121547811
 20
24.64310927940016
 30
0.0
 11
33.34910287538099
 21
30.25000000000005
 31
0.0
  0
LINE
  5
820D
330
8090
100
AcDbEntity
  8
0
 62
     0
100
AcDbLine
 10
18.81721215478114
 20
15.71810927940015
 30
0.0
 11
20.04910287538092
 21
16.94999999999998
 31
0.0
  0
LINE
  5
820E
330
8090
100
AcDbEntity
  8
0
 62
     0
100
AcDbLine
 10
22.19419521536644
 20
19.99311795209234
 30
0.0
 11
24.17409420268876
 21
21.97301693941466
 31
0.0
  0
LINE
  5
820F
330
8090
100
AcDbEntity
  8
0
 62
     0
100
AcDbLine
 10
27.7422121547811
 20
25.541134891507
 30
0.0
 11
32.45107726327393
 21
30.24999999999983
 31
0.0
  0
LINE
  5
8210
330
8090
100
AcDbEntity
  8
0
 62
     0
100
AcDbLine
 10
18.88616407680081
 20
16.68508681352671
 30
0.0
 11
19.08212534125442
 21
16.88104807798032
 31
0.0
  0
LINE
  5
8211
330
8090
100
AcDbEntity
  8
0
 62
     0
100
AcDbLine
 10
27.76218726893756
 20
26.45913561777035
 30
0.0
 11
31.53307653701057
 21
30.23002488584342
 31
0.0
  0
LINE
  5
8212
330
8090
100
AcDbEntity
  8
0
 62
     0
100
AcDbLine
 10
21.74518240931297
 20
20.44213075814582
 30
0.0
 11
23.72508139663529
 21
22.42202974546813
 31
0.0
  0
LINE
  5
8213
330
8090
100
AcDbEntity
  8
0
 62
     0
100
AcDbLine
 10
28.06165070120334
 20
27.65662466214314
 30
0.0
 11
30.33558749263784
 21
29.93056145357764
 31
0.0
  0
LINE
  5
8214
330
8090
100
AcDbEntity
  8
0
 62
     0
100
AcDbLine
 10
21.2961696032595
 20
20.89114356419929
 30
0.0
 11
23.27606859058181
 21
22.87104255152161
 31
0.0
  0
LINE
  5
8215
330
8090
100
AcDbEntity
  8
0
 62
     0
100
AcDbLine
 10
20.84715679720608
 20
21.34015637025271
 30
0.0
 11
22.82705578452839
 21
23.32005535757502
 31
0.0
  0
LINE
  5
8216
330
8090
100
AcDbEntity
  8
0
 62
     0
100
AcDbLine
 10
20.39814399115261
 20
21.78916917630619
 30
0.0
 11
22.37804297847492
 21
23.7690681636285
 31
0.0
  0
LINE
  5
8217
330
8090
100
AcDbEntity
  8
0
 62
     0
100
AcDbLine
 10
19.94913118509907
 20
22.2381819823596
 30
0.0
 11
21.92903017242144
 21
24.21808096968197
 31
0.0
  0
LINE
  5
8218
330
8090
100
AcDbEntity
  8
0
 62
     0
100
AcDbLine
 10
24.26292359063257
 20
27.45000000000004
 30
0.0
 11
25.1172121547811
 21
28.30428856414852
 31
0.0
  0
LINE
  5
8219
330
8090
100
AcDbEntity
  8
0
 62
     0
100
AcDbLine
 10
19.50020169307373
 20
22.68727810244121
 30
0.0
 11
21.4802673365063
 21
24.66734374587378
 31
0.0
  0
LINE
  5
821A
330
8090
100
AcDbEntity
  8
0
 62
     0
100
AcDbLine
 10
23.36489797852562
 20
27.44999999999993
 30
0.0
 11
25.1172121547811
 21
29.20231417625541
 31
0.0
  0
LINE
  5
821B
330
8090
100
AcDbEntity
  8
0
 62
     0
100
AcDbLine
 10
19.08873376852216
 20
23.17383578999641
 30
0.0
 11
21.15037045521842
 21
25.23547247669273
 31
0.0
  0
LINE
  5
821C
330
8090
100
AcDbEntity
  8
0
 62
     0
100
AcDbLine
 10
22.46687236641867
 20
27.44999999999993
 30
0.0
 11
25.03065325502001
 21
30.01378088860127
 31
0.0
  0
LINE
  5
821D
330
8090
100
AcDbEntity
  8
0
 62
     0
100
AcDbLine
 10
18.74827316225969
 20
23.73140079584089
 30
0.0
 11
21.09221215478112
 21
26.07533978836233
 31
0.0
  0
LINE
  5
821E
330
8090
100
AcDbEntity
  8
0
 62
     0
100
AcDbLine
 10
21.56638010514171
 20
27.44753335082993
 30
0.0
 11
24.36884675431184
 21
30.25
 31
0.0
  0
LINE
  5
821F
330
8090
100
AcDbEntity
  8
0
 62
     0
100
AcDbLine
 10
18.48757986652759
 20
24.36873311221575
 30
0.0
 11
21.09467880395129
 21
26.9758320496395
 31
0.0
  0
LINE
  5
8220
330
8090
100
AcDbEntity
  8
0
 62
     0
100
AcDbLine
 10
18.32576790427953
 20
25.10494676207457
 30
0.0
 11
23.47082114220495
 21
30.25
 31
0.0
  0
LINE
  5
8221
330
8090
100
AcDbEntity
  8
0
 62
     0
100
AcDbLine
 10
18.29221215478122
 20
25.96941662468316
 30
0.0
 11
22.572795530098
 21
30.25
 31
0.0
  0
LINE
  5
8222
330
8090
100
AcDbEntity
  8
0
 62
     0
100
AcDbLine
 10
18.29221215478116
 20
26.86744223679011
 30
0.0
 11
21.67476991799111
 21
30.25
 31
0.0
  0
LINE
  5
8223
330
8090
100
AcDbEntity
  8
0
 62
     0
100
AcDbLine
 10
18.3124041652195
 20
27.78565985933534
 30
0.0
 11
20.75655229544577
 21
30.2298079895616
 31
0.0
  0
ENDBLK
  5
8225
330
8090
100
AcDbEntity
  8
0
100
AcDbBlockEnd
  0
BLOCK
  5
8ECC
330
8EC2
100
AcDbEntity
  8
0
100
AcDbBlockBegin
  2
*D3
 70
     1
 10
0.0
 20
0.0
 30
0.0
  3
*D3
  1

  0
LINE
  5
AB5A
330
8EC2
100
AcDbEntity
  8
SUNPOU
100
AcDbLine
 10
429.7422314338668
 20
493.7968371587121
 30
0.0
 11
478.8885293772144
 21
493.7968371587121
 31
0.0
  0
LINE
  5
AB5B
330
8EC2
100
AcDbEntity
  8
SUNPOU
100
AcDbLine
 10
429.7422314338668
 20
413.7968371587121
 30
0.0
 11
478.8885293772144
 21
413.7968371587121
 31
0.0
  0
LINE
  5
AB5C
330
8EC2
100
AcDbEntity
  8
SUNPOU
100
AcDbLine
 10
477.3885293772143
 20
488.7968371587121
 30
0.0
 11
477.3885293772143
 21
418.7968371587121
 31
0.0
  0
INSERT
  5
AB5D
330
8EC2
100
AcDbEntity
  8
SUNPOU
100
AcDbBlockReference
  2
_OPEN
 10
477.3885293772143
 20
493.7968371587121
 30
0.0
 41
5.0
 42
5.0
 43
5.0
 50
90.0
  0
INSERT
  5
AB5E
330
8EC2
100
AcDbEntity
  8
SUNPOU
100
AcDbBlockReference
  2
_OPEN
 10
477.3885293772143
 20
413.7968371587121
 30
0.0
 41
5.0
 42
5.0
 43
5.0
 50
270.0
  0
MTEXT
  5
AB5F
330
8EC2
100
AcDbEntity
  8
SUNPOU
100
AcDbMText
 10
472.8885293772142
 20
453.7968371587122
 30
0.0
 40
6.0
 41
0.0
 71
     5
 72
     1
  1
\A1;80
 11
0.0000000000000001
 21
1.0
 31
0.0
1001
ACAD
1000
MTEXTBEGIN
1070
    73
1070
     1
1070
    44
1040
1.0
1070
    74
1070
     0
1000
MTEXTEND
1000
MTEXTBEGIN
1070
    73
1070
     1
1070
    44
1040
1.0
1070
    74
1070
     0
1000
MTEXTEND
1000
MTEXTBEGIN
1070
    73
1070
     1
1070
    44
1040
1.0
1070
    74
1070
     0
1000
MTEXTEND
1000
MTEXTBEGIN
1070
    73
1070
     1
1070
    44
1040
1.0
1070
    74
1070
     0
1000
MTEXTEND
  0
POINT
  5
AB60
330
8EC2
100
AcDbEntity
  8
DEFPOINTS
 62
     0
100
AcDbPoint
 10
428.2422314338669
 20
493.7968371587121
 30
0.0
  0
POINT
  5
AB61
330
8EC2
100
AcDbEntity
  8
DEFPOINTS
 62
     0
100
AcDbPoint
 10
428.2422314338669
 20
413.7968371587121
 30
0.0
  0
POINT
  5
AB62
330
8EC2
100
AcDbEntity
  8
DEFPOINTS
 62
     0
100
AcDbPoint
 10
477.3885293772143
 20
413.7968371587121
 30
0.0
  0
ENDBLK
  5
8ECD
330
8EC2
100
AcDbEntity
  8
0
100
AcDbBlockEnd
  0
BLOCK
  5
8ED9
330
8ECF
100
AcDbEntity
  8
0
100
AcDbBlockBegin
  2
*D4
 70
     1
 10
0.0
 20
0.0
 30
0.0
  3
*D4
  1

  0
LINE
  5
AB80
330
8ECF
100
AcDbEntity
  8
SUNPOU
100
AcDbLine
 10
428.2422314338669
 20
331.0145951355971
 30
0.0
 11
428.2422314338669
 21
361.120522758234
 31
0.0
  0
LINE
  5
AB81
330
8ECF
100
AcDbEntity
  8
SUNPOU
100
AcDbLine
 10
292.9447252027346
 20
313.1022091797007
 30
0.0
 11
292.9447252027346
 21
361.120522758234
 31
0.0
  0
LINE
  5
AB82
330
8ECF
100
AcDbEntity
  8
SUNPOU
100
AcDbLine
 10
423.2422314338668
 20
359.620522758234
 30
0.0
 11
297.9447252027346
 21
359.620522758234
 31
0.0
  0
INSERT
  5
AB83
330
8ECF
100
AcDbEntity
  8
SUNPOU
100
AcDbBlockReference
  2
_OPEN
 10
428.2422314338669
 20
359.620522758234
 30
0.0
 41
5.0
 42
5.0
 43
5.0
  0
INSERT
  5
AB84
330
8ECF
100
AcDbEntity
  8
SUNPOU
100
AcDbBlockReference
  2
_OPEN
 10
292.9447252027346
 20
359.620522758234
 30
0.0
 41
5.0
 42
5.0
 43
5.0
 50
180.0
  0
MTEXT
  5
AB85
330
8ECF
100
AcDbEntity
  8
SUNPOU
100
AcDbMText
 10
360.5934783183007
 20
364.120522758234
 30
0.0
 40
6.0
 41
0.0
 71
     5
 72
     1
  1
\A1;135
1001
ACAD
1000
MTEXTBEGIN
1070
    73
1070
     1
1070
    44
1040
1.0
1070
    74
1070
     0
1000
MTEXTEND
1000
MTEXTBEGIN
1070
    73
1070
     1
1070
    44
1040
1.0
1070
    74
1070
     0
1000
MTEXTEND
1000
MTEXTBEGIN
1070
    73
1070
     1
1070
    44
1040
1.0
1070
    74
1070
     0
1000
MTEXTEND
1000
MTEXTBEGIN
1070
    73
1070
     1
1070
    44
1040
1.0
1070
    74
1070
     0
1000
MTEXTEND
  0
POINT
  5
AB86
330
8ECF
100
AcDbEntity
  8
DEFPOINTS
 62
     0
100
AcDbPoint
 10
428.2422314338669
 20
329.5145951355971
 30
0.0
  0
POINT
  5
AB87
330
8ECF
100
AcDbEntity
  8
DEFPOINTS
 62
     0
100
AcDbPoint
 10
292.9447252027346
 20
311.6022091797006
 30
0.0
  0
POINT
  5
AB88
330
8ECF
100
AcDbEntity
  8
DEFPOINTS
 62
     0
100
AcDbPoint
 10
292.9447252027346
 20
359.620522758234
 30
0.0
  0
ENDBLK
  5
8EDA
330
8ECF
100
AcDbEntity
  8
0
100
AcDbBlockEnd
  0
BLOCK
  5
99ED
330
99E3
100
AcDbEntity
  8
0
100
AcDbBlockBegin
  2
*D5
 70
     1
 10
0.0
 20
0.0
 30
0.0
  3
*D5
  1

  0
LINE
  5
AB6D
330
99E3
100
AcDbEntity
  8
SUNPOU
100
AcDbLine
 10
294.4117268798912
 20
467.796837158712
 30
0.0
 11
250.7455810283384
 21
467.796837158712
 31
0.0
  0
LINE
  5
AB6E
330
99E3
100
AcDbEntity
  8
SUNPOU
100
AcDbLine
 10
294.4117268798882
 20
439.7968371587121
 30
0.0
 11
250.7455810283384
 21
439.7968371587121
 31
0.0
  0
LINE
  5
AB6F
330
99E3
100
AcDbEntity
  8
SUNPOU
100
AcDbLine
 10
252.2455810283384
 20
462.796837158712
 30
0.0
 11
252.2455810283383
 21
444.7968371587121
 31
0.0
  0
INSERT
  5
AB70
330
99E3
100
AcDbEntity
  8
SUNPOU
100
AcDbBlockReference
  2
_OPEN
 10
252.2455810283384
 20
467.796837158712
 30
0.0
 41
5.0
 42
5.0
 43
5.0
 50
90.0
  0
INSERT
  5
AB71
330
99E3
100
AcDbEntity
  8
SUNPOU
100
AcDbBlockReference
  2
_OPEN
 10
252.2455810283383
 20
439.7968371587121
 30
0.0
 41
5.0
 42
5.0
 43
5.0
 50
270.0
  0
MTEXT
  5
AB72
330
99E3
100
AcDbEntity
  8
SUNPOU
100
AcDbMText
 10
247.7455810283383
 20
453.7968371587121
 30
0.0
 40
6.0
 41
0.0
 71
     5
 72
     1
  1
\A1;28
 11
0.0000000000000001
 21
1.0
 31
0.0
1001
ACAD
1000
MTEXTBEGIN
1070
    73
1070
     1
1070
    44
1040
1.0
1070
    74
1070
     0
1000
MTEXTEND
1000
MTEXTBEGIN
1070
    73
1070
     1
1070
    44
1040
1.0
1070
    74
1070
     0
1000
MTEXTEND
1000
MTEXTBEGIN
1070
    73
1070
     1
1070
    44
1040
1.0
1070
    74
1070
     0
1000
MTEXTEND
1000
MTEXTBEGIN
1070
    73
1070
     1
1070
    44
1040
1.0
1070
    74
1070
     0
1000
MTEXTEND
  0
POINT
  5
AB73
330
99E3
100
AcDbEntity
  8
DEFPOINTS
 62
     0
100
AcDbPoint
 10
295.9117268798912
 20
467.796837158712
 30
0.0
  0
POINT
  5
AB74
330
99E3
100
AcDbEntity
  8
DEFPOINTS
 62
     0
100
AcDbPoint
 10
295.9117268798881
 20
439.7968371587121
 30
0.0
  0
POINT
  5
AB75
330
99E3
100
AcDbEntity
  8
DEFPOINTS
 62
     0
100
AcDbPoint
 10
252.2455810283383
 20
439.7968371587121
 30
0.0
  0
ENDBLK
  5
99EE
330
99E3
100
AcDbEntity
  8
0
100
AcDbBlockEnd
  0
BLOCK
  5
9A04
330
99FA
100
AcDbEntity
  8
0
100
AcDbBlockBegin
  2
*D6
 70
     1
 10
0.0
 20
0.0
 30
0.0
  3
*D6
  1

  0
LINE
  5
ABC0
330
99FA
100
AcDbEntity
  8
SUNPOU
100
AcDbLine
 10
549.4614575310051
 20
319.6940280387942
 30
0.0
 11
549.4614575310051
 21
355.3032055605522
 31
0.0
  0
LINE
  5
ABC1
330
99FA
100
AcDbEntity
  8
SUNPOU
100
AcDbLine
 10
613.4614575308901
 20
319.6940280387942
 30
0.0
 11
613.4614575308901
 21
355.3032055605522
 31
0.0
  0
LINE
  5
ABC2
330
99FA
100
AcDbEntity
  8
SUNPOU
100
AcDbLine
 10
554.4614575310052
 20
353.8032055605522
 30
0.0
 11
608.4614575308901
 21
353.8032055605522
 31
0.0
  0
INSERT
  5
ABC3
330
99FA
100
AcDbEntity
  8
SUNPOU
100
AcDbBlockReference
  2
_OPEN
 10
549.4614575310051
 20
353.8032055605522
 30
0.0
 41
5.0
 42
5.0
 43
5.0
 50
180.0
  0
INSERT
  5
ABC4
330
99FA
100
AcDbEntity
  8
SUNPOU
100
AcDbBlockReference
  2
_OPEN
 10
613.4614575308901
 20
353.8032055605522
 30
0.0
 41
5.0
 42
5.0
 43
5.0
  0
MTEXT
  5
ABC5
330
99FA
100
AcDbEntity
  8
SUNPOU
100
AcDbMText
 10
581.4614575309476
 20
358.3032055605522
 30
0.0
 40
6.0
 41
0.0
 71
     5
 72
     1
  1
\A1;64
1001
ACAD
1000
MTEXTBEGIN
1070
    73
1070
     1
1070
    44
1040
1.0
1070
    74
1070
     0
1000
MTEXTEND
1000
MTEXTBEGIN
1070
    73
1070
     1
1070
    44
1040
1.0
1070
    74
1070
     0
1000
MTEXTEND
1000
MTEXTBEGIN
1070
    73
1070
     1
1070
    44
1040
1.0
1070
    74
1070
     0
1000
MTEXTEND
1000
MTEXTBEGIN
1070
    73
1070
     1
1070
    44
1040
1.0
1070
    74
1070
     0
1000
MTEXTEND
  0
POINT
  5
ABC6
330
99FA
100
AcDbEntity
  8
DEFPOINTS
 62
     0
100
AcDbPoint
 10
549.4614575310051
 20
318.1940280387942
 30
0.0
  0
POINT
  5
ABC7
330
99FA
100
AcDbEntity
  8
DEFPOINTS
 62
     0
100
AcDbPoint
 10
613.4614575308901
 20
318.1940280387942
 30
0.0
  0
POINT
  5
ABC8
330
99FA
100
AcDbEntity
  8
DEFPOINTS
 62
     0
100
AcDbPoint
 10
613.4614575308901
 20
353.8032055605522
 30
0.0
  0
ENDBLK
  5
9A05
330
99FA
100
AcDbEntity
  8
0
100
AcDbBlockEnd
  0
BLOCK
  5
9A11
330
9A07
100
AcDbEntity
  8
0
100
AcDbBlockBegin
  2
*D7
 70
     1
 10
0.0
 20
0.0
 30
0.0
  3
*D7
  1

  0
LINE
  5
ABB7
330
9A07
100
AcDbEntity
  8
SUNPOU
100
AcDbLine
 10
621.4614575309476
 20
319.4286382972474
 30
0.0
 11
621.4614575309476
 21
368.6346158199505
 31
0.0
  0
LINE
  5
ABB8
330
9A07
100
AcDbEntity
  8
SUNPOU
100
AcDbLine
 10
541.4614575309476
 20
319.4286382972474
 30
0.0
 11
541.4614575309476
 21
368.6346158199505
 31
0.0
  0
LINE
  5
ABB9
330
9A07
100
AcDbEntity
  8
SUNPOU
100
AcDbLine
 10
616.4614575309476
 20
367.1346158199505
 30
0.0
 11
546.4614575309476
 21
367.1346158199505
 31
0.0
  0
INSERT
  5
ABBA
330
9A07
100
AcDbEntity
  8
SUNPOU
100
AcDbBlockReference
  2
_OPEN
 10
621.4614575309476
 20
367.1346158199505
 30
0.0
 41
5.0
 42
5.0
 43
5.0
  0
INSERT
  5
ABBB
330
9A07
100
AcDbEntity
  8
SUNPOU
100
AcDbBlockReference
  2
_OPEN
 10
541.4614575309476
 20
367.1346158199505
 30
0.0
 41
5.0
 42
5.0
 43
5.0
 50
180.0
  0
MTEXT
  5
ABBC
330
9A07
100
AcDbEntity
  8
SUNPOU
100
AcDbMText
 10
581.4614575309476
 20
371.6346158199505
 30
0.0
 40
6.0
 41
0.0
 71
     5
 72
     1
  1
\A1;80
1001
ACAD
1000
MTEXTBEGIN
1070
    73
1070
     1
1070
    44
1040
1.0
1070
    74
1070
     0
1000
MTEXTEND
1000
MTEXTBEGIN
1070
    73
1070
     1
1070
    44
1040
1.0
1070
    74
1070
     0
1000
MTEXTEND
1000
MTEXTBEGIN
1070
    73
1070
     1
1070
    44
1040
1.0
1070
    74
1070
     0
1000
MTEXTEND
1000
MTEXTBEGIN
1070
    73
1070
     1
1070
    44
1040
1.0
1070
    74
1070
     0
1000
MTEXTEND
  0
POINT
  5
ABBD
330
9A07
100
AcDbEntity
  8
DEFPOINTS
 62
     0
100
AcDbPoint
 10
621.4614575309476
 20
317.9286382972474
 30
0.0
  0
POINT
  5
ABBE
330
9A07
100
AcDbEntity
  8
DEFPOINTS
 62
     0
100
AcDbPoint
 10
541.4614575309476
 20
317.9286382972474
 30
0.0
  0
POINT
  5
ABBF
330
9A07
100
AcDbEntity
  8
DEFPOINTS
 62
     0
100
AcDbPoint
 10
541.4614575309476
 20
367.1346158199505
 30
0.0
  0
ENDBLK
  5
9A12
330
9A07
100
AcDbEntity
  8
0
100
AcDbBlockEnd
  0
BLOCK
  5
9A1E
330
9A14
100
AcDbEntity
  8
0
100
AcDbBlockBegin
  2
*D8
 70
     1
 10
0.0
 20
0.0
 30
0.0
  3
*D8
  1

  0
LINE
  5
ABAE
330
9A14
100
AcDbEntity
  8
SUNPOU
100
AcDbLine
 10
579.9614575309476
 20
329.514595135597
 30
0.0
 11
511.9410382949933
 21
329.514595135597
 31
0.0
  0
LINE
  5
ABAF
330
9A14
100
AcDbEntity
  8
SUNPOU
100
AcDbLine
 10
540.1718194332807
 20
310.4043899410696
 30
0.0
 11
511.9410382949933
 21
310.4043899410696
 31
0.0
  0
LINE
  5
ABB0
330
9A14
100
AcDbEntity
  8
SUNPOU
100
AcDbLine
 10
513.4410382949933
 20
324.5145951355969
 30
0.0
 11
513.4410382949933
 21
315.4043899410696
 31
0.0
  0
INSERT
  5
ABB1
330
9A14
100
AcDbEntity
  8
SUNPOU
100
AcDbBlockReference
  2
_OPEN
 10
513.4410382949933
 20
329.514595135597
 30
0.0
 41
5.0
 42
5.0
 43
5.0
 50
90.0
  0
INSERT
  5
ABB2
330
9A14
100
AcDbEntity
  8
SUNPOU
100
AcDbBlockReference
  2
_OPEN
 10
513.4410382949933
 20
310.4043899410696
 30
0.0
 41
5.0
 42
5.0
 43
5.0
 50
270.0
  0
MTEXT
  5
ABB3
330
9A14
100
AcDbEntity
  8
SUNPOU
100
AcDbMText
 10
508.9410382949933
 20
319.9594925383333
 30
0.0
 40
6.0
 41
0.0
 71
     5
 72
     1
  1
\A1;19
 11
0.0000000000000001
 21
1.0
 31
0.0
1001
ACAD
1000
MTEXTBEGIN
1070
    73
1070
     1
1070
    44
1040
1.0
1070
    74
1070
     0
1000
MTEXTEND
1000
MTEXTBEGIN
1070
    73
1070
     1
1070
    44
1040
1.0
1070
    74
1070
     0
1000
MTEXTEND
1000
MTEXTBEGIN
1070
    73
1070
     1
1070
    44
1040
1.0
1070
    74
1070
     0
1000
MTEXTEND
1000
MTEXTBEGIN
1070
    73
1070
     1
1070
    44
1040
1.0
1070
    74
1070
     0
1000
MTEXTEND
  0
POINT
  5
ABB4
330
9A14
100
AcDbEntity
  8
DEFPOINTS
 62
     0
100
AcDbPoint
 10
581.4614575309476
 20
329.514595135597
 30
0.0
  0
POINT
  5
ABB5
330
9A14
100
AcDbEntity
  8
DEFPOINTS
 62
     0
100
AcDbPoint
 10
541.6718194332807
 20
310.4043899410696
 30
0.0
  0
POINT
  5
ABB6
330
9A14
100
AcDbEntity
  8
DEFPOINTS
 62
     0
100
AcDbPoint
 10
513.4410382949933
 20
310.4043899410696
 30
0.0
  0
ENDBLK
  5
9A1F
330
9A14
100
AcDbEntity
  8
0
100
AcDbBlockEnd
  0
BLOCK
  5
9A2B
330
9A21
100
AcDbEntity
  8
0
100
AcDbBlockBegin
  2
*D9
 70
     1
 10
0.0
 20
0.0
 30
0.0
  3
*D9
  1

  0
LINE
  5
B2C8
330
9A21
100
AcDbEntity
  8
SUNPOU
100
AcDbLine
 10
540.1718194332807
 20
310.4043899410696
 30
0.0
 11
511.9410382949935
 21
310.4043899410696
 31
0.0
  0
LINE
  5
B2C9
330
9A21
100
AcDbEntity
  8
SUNPOU
100
AcDbLine
 10
571.0677630599141
 20
255.4043899410472
 30
0.0
 11
511.9410382949935
 21
255.4043899410472
 31
0.0
  0
LINE
  5
B2CA
330
9A21
100
AcDbEntity
  8
SUNPOU
100
AcDbLine
 10
513.4410382949935
 20
305.4043899410696
 30
0.0
 11
513.4410382949935
 21
260.4043899410472
 31
0.0
  0
INSERT
  5
B2CB
330
9A21
100
AcDbEntity
  8
SUNPOU
100
AcDbBlockReference
  2
_OPEN
 10
513.4410382949935
 20
310.4043899410696
 30
0.0
 41
5.0
 42
5.0
 43
5.0
 50
90.0
  0
INSERT
  5
B2CC
330
9A21
100
AcDbEntity
  8
SUNPOU
100
AcDbBlockReference
  2
_OPEN
 10
513.4410382949933
 20
255.4043899410472
 30
0.0
 41
5.0
 42
5.0
 43
5.0
 50
270.0
  0
MTEXT
  5
B2CD
330
9A21
100
AcDbEntity
  8
SUNPOU
100
AcDbMText
 10
508.9410382949933
 20
282.9043899410585
 30
0.0
 40
6.0
 41
0.0
 71
     5
 72
     1
  1
\A1;55
 11
0.0000000000000001
 21
1.0
 31
0.0
  0
POINT
  5
B2CE
330
9A21
100
AcDbEntity
  8
DEFPOINTS
 62
     0
100
AcDbPoint
 10
541.6718194332807
 20
310.4043899410696
 30
0.0
  0
POINT
  5
B2CF
330
9A21
100
AcDbEntity
  8
DEFPOINTS
 62
     0
100
AcDbPoint
 10
572.5677630599141
 20
255.4043899410472
 30
0.0
  0
POINT
  5
B2D0
330
9A21
100
AcDbEntity
  8
DEFPOINTS
 62
     0
100
AcDbPoint
 10
513.4410382949933
 20
255.4043899410472
 30
0.0
  0
ENDBLK
  5
9A2C
330
9A21
100
AcDbEntity
  8
0
100
AcDbBlockEnd
  0
BLOCK
  5
9A38
330
9A2E
100
AcDbEntity
  8
0
100
AcDbBlockBegin
  2
*D10
 70
     1
 10
0.0
 20
0.0
 30
0.0
  3
*D10
  1

  0
LINE
  5
AB93
330
9A2E
100
AcDbEntity
  8
SUNPOU
100
AcDbLine
 10
579.9614575309476
 20
329.514595135597
 30
0.0
 11
497.2699674793955
 21
329.514595135597
 31
0.0
  0
LINE
  5
AB94
330
9A2E
100
AcDbEntity
  8
SUNPOU
100
AcDbLine
 10
579.9614575309476
 20
247.4043899410472
 30
0.0
 11
497.2699674793955
 21
247.4043899410473
 31
0.0
  0
LINE
  5
AB95
330
9A2E
100
AcDbEntity
  8
SUNPOU
100
AcDbLine
 10
498.7699674793955
 20
324.5145951355969
 30
0.0
 11
498.7699674793955
 21
252.4043899410473
 31
0.0
  0
INSERT
  5
AB96
330
9A2E
100
AcDbEntity
  8
SUNPOU
100
AcDbBlockReference
  2
_OPEN
 10
498.7699674793955
 20
329.514595135597
 30
0.0
 41
5.0
 42
5.0
 43
5.0
 50
90.0
  0
INSERT
  5
AB97
330
9A2E
100
AcDbEntity
  8
SUNPOU
100
AcDbBlockReference
  2
_OPEN
 10
498.7699674793955
 20
247.4043899410473
 30
0.0
 41
5.0
 42
5.0
 43
5.0
 50
270.0
  0
MTEXT
  5
AB98
330
9A2E
100
AcDbEntity
  8
SUNPOU
100
AcDbMText
 10
494.2699674793955
 20
288.4594925383222
 30
0.0
 40
6.0
 41
0.0
 71
     5
 72
     1
  1
\A1;82
 11
0.0000000000000001
 21
1.0
 31
0.0
1001
ACAD
1000
MTEXTBEGIN
1070
    73
1070
     1
1070
    44
1040
1.0
1070
    74
1070
     0
1000
MTEXTEND
1000
MTEXTBEGIN
1070
    73
1070
     1
1070
    44
1040
1.0
1070
    74
1070
     0
1000
MTEXTEND
1000
MTEXTBEGIN
1070
    73
1070
     1
1070
    44
1040
1.0
1070
    74
1070
     0
1000
MTEXTEND
1000
MTEXTBEGIN
1070
    73
1070
     1
1070
    44
1040
1.0
1070
    74
1070
     0
1000
MTEXTEND
  0
POINT
  5
AB99
330
9A2E
100
AcDbEntity
  8
DEFPOINTS
 62
     0
100
AcDbPoint
 10
581.4614575309476
 20
329.514595135597
 30
0.0
  0
POINT
  5
AB9A
330
9A2E
100
AcDbEntity
  8
DEFPOINTS
 62
     0
100
AcDbPoint
 10
581.4614575309476
 20
247.4043899410472
 30
0.0
  0
POINT
  5
AB9B
330
9A2E
100
AcDbEntity
  8
DEFPOINTS
 62
     0
100
AcDbPoint
 10
498.7699674793955
 20
247.4043899410473
 30
0.0
  0
ENDBLK
  5
9A39
330
9A2E
100
AcDbEntity
  8
0
100
AcDbBlockEnd
  0
BLOCK
  5
9A45
330
9A3B
100
AcDbEntity
  8
0
100
AcDbBlockBegin
  2
*D11
 70
     1
 10
0.0
 20
0.0
 30
0.0
  3
*D11
  1

  0
LINE
  5
AB51
330
9A3B
100
AcDbEntity
  8
SUNPOU
100
AcDbLine
 10
429.7422314338668
 20
329.514595135597
 30
0.0
 11
475.2624593007151
 21
329.514595135597
 31
0.0
  0
LINE
  5
AB52
330
9A3B
100
AcDbEntity
  8
SUNPOU
100
AcDbLine
 10
424.742231433867
 20
247.4043899410474
 30
0.0
 11
475.2624593007151
 21
247.4043899410473
 31
0.0
  0
LINE
  5
AB53
330
9A3B
100
AcDbEntity
  8
SUNPOU
100
AcDbLine
 10
473.7624593007151
 20
324.5145951355969
 30
0.0
 11
473.7624593007151
 21
252.4043899410473
 31
0.0
  0
INSERT
  5
AB54
330
9A3B
100
AcDbEntity
  8
SUNPOU
100
AcDbBlockReference
  2
_OPEN
 10
473.7624593007151
 20
329.514595135597
 30
0.0
 41
5.0
 42
5.0
 43
5.0
 50
90.0
  0
INSERT
  5
AB55
330
9A3B
100
AcDbEntity
  8
SUNPOU
100
AcDbBlockReference
  2
_OPEN
 10
473.7624593007151
 20
247.4043899410473
 30
0.0
 41
5.0
 42
5.0
 43
5.0
 50
270.0
  0
MTEXT
  5
AB56
330
9A3B
100
AcDbEntity
  8
SUNPOU
100
AcDbMText
 10
469.2624593007151
 20
288.4594925383222
 30
0.0
 40
6.0
 41
0.0
 71
     5
 72
     1
  1
\A1;82
 11
0.0000000000000001
 21
1.0
 31
0.0
1001
ACAD
1000
MTEXTBEGIN
1070
    73
1070
     1
1070
    44
1040
1.0
1070
    74
1070
     0
1000
MTEXTEND
1000
MTEXTBEGIN
1070
    73
1070
     1
1070
    44
1040
1.0
1070
    74
1070
     0
1000
MTEXTEND
1000
MTEXTBEGIN
1070
    73
1070
     1
1070
    44
1040
1.0
1070
    74
1070
     0
1000
MTEXTEND
1000
MTEXTBEGIN
1070
    73
1070
     1
1070
    44
1040
1.0
1070
    74
1070
     0
1000
MTEXTEND
  0
POINT
  5
AB57
330
9A3B
100
AcDbEntity
  8
DEFPOINTS
 62
     0
100
AcDbPoint
 10
428.2422314338669
 20
329.514595135597
 30
0.0
  0
POINT
  5
AB58
330
9A3B
100
AcDbEntity
  8
DEFPOINTS
 62
     0
100
AcDbPoint
 10
423.2422314338671
 20
247.4043899410474
 30
0.0
  0
POINT
  5
AB59
330
9A3B
100
AcDbEntity
  8
DEFPOINTS
 62
     0
100
AcDbPoint
 10
473.7624593007151
 20
247.4043899410473
 30
0.0
  0
ENDBLK
  5
9A46
330
9A3B
100
AcDbEntity
  8
0
100
AcDbBlockEnd
  0
BLOCK
  5
9A52
330
9A48
100
AcDbEntity
  8
0
100
AcDbBlockBegin
  2
*D12
 70
     1
 10
0.0
 20
0.0
 30
0.0
  3
*D12
  1

  0
LINE
  5
ABA5
330
9A48
100
AcDbEntity
  8
SUNPOU
100
AcDbLine
 10
567.4614575308892
 20
254.2298153846891
 30
0.0
 11
567.4614575308892
 21
215.6562482399156
 31
0.0
  0
LINE
  5
ABA6
330
9A48
100
AcDbEntity
  8
SUNPOU
100
AcDbLine
 10
595.4614575310061
 20
254.2298153846891
 30
0.0
 11
595.4614575310061
 21
215.6562482399156
 31
0.0
  0
LINE
  5
ABA7
330
9A48
100
AcDbEntity
  8
SUNPOU
100
AcDbLine
 10
572.4614575308891
 20
217.1562482399156
 30
0.0
 11
590.4614575310061
 21
217.1562482399156
 31
0.0
  0
INSERT
  5
ABA8
330
9A48
100
AcDbEntity
  8
SUNPOU
100
AcDbBlockReference
  2
_OPEN
 10
567.4614575308892
 20
217.1562482399156
 30
0.0
 41
5.0
 42
5.0
 43
5.0
 50
180.0
  0
INSERT
  5
ABA9
330
9A48
100
AcDbEntity
  8
SUNPOU
100
AcDbBlockReference
  2
_OPEN
 10
595.4614575310061
 20
217.1562482399156
 30
0.0
 41
5.0
 42
5.0
 43
5.0
  0
MTEXT
  5
ABAA
330
9A48
100
AcDbEntity
  8
SUNPOU
100
AcDbMText
 10
581.4614575309476
 20
221.6562482399156
 30
0.0
 40
6.0
 41
0.0
 71
     5
 72
     1
  1
\A1;28
1001
ACAD
1000
MTEXTBEGIN
1070
    73
1070
     1
1070
    44
1040
1.0
1070
    74
1070
     0
1000
MTEXTEND
1000
MTEXTBEGIN
1070
    73
1070
     1
1070
    44
1040
1.0
1070
    74
1070
     0
1000
MTEXTEND
1000
MTEXTBEGIN
1070
    73
1070
     1
1070
    44
1040
1.0
1070
    74
1070
     0
1000
MTEXTEND
1000
MTEXTBEGIN
1070
    73
1070
     1
1070
    44
1040
1.0
1070
    74
1070
     0
1000
MTEXTEND
  0
POINT
  5
ABAB
330
9A48
100
AcDbEntity
  8
DEFPOINTS
 62
     0
100
AcDbPoint
 10
567.4614575308892
 20
255.7298153846891
 30
0.0
  0
POINT
  5
ABAC
330
9A48
100
AcDbEntity
  8
DEFPOINTS
 62
     0
100
AcDbPoint
 10
595.4614575310061
 20
255.7298153846891
 30
0.0
  0
POINT
  5
ABAD
330
9A48
100
AcDbEntity
  8
DEFPOINTS
 62
     0
100
AcDbPoint
 10
595.4614575310061
 20
217.1562482399156
 30
0.0
  0
ENDBLK
  5
9A53
330
9A48
100
AcDbEntity
  8
0
100
AcDbBlockEnd
  0
BLOCK
  5
9A69
330
9A5E
100
AcDbEntity
  8
0
100
AcDbBlockBegin
  2
*D13
 70
     1
 10
0.0
 20
0.0
 30
0.0
  3
*D13
  1

  0
LINE
  5
AB89
330
9A5E
100
AcDbEntity
  8
SUNPOU
100
AcDbLine
 10
428.2422314338669
 20
329.4149336447931
 30
0.0
 11
428.2422314338669
 21
345.2237206968447
 31
0.0
  0
LINE
  5
AB8A
330
9A5E
100
AcDbEntity
  8
SUNPOU
100
AcDbLine
 10
418.2165755876556
 20
331.0145951356574
 30
0.0
 11
418.2165755876556
 21
345.2237206968447
 31
0.0
  0
LINE
  5
AB8B
330
9A5E
100
AcDbEntity
  8
SUNPOU
100
AcDbLine
 10
433.2422314338669
 20
343.7237206968447
 30
0.0
 11
438.2422314338668
 21
343.7237206968447
 31
0.0
  0
LINE
  5
AB8C
330
9A5E
100
AcDbEntity
  8
SUNPOU
100
AcDbLine
 10
413.2165755876555
 20
343.7237206968447
 30
0.0
 11
408.2165755876555
 21
343.7237206968447
 31
0.0
  0
INSERT
  5
AB8D
330
9A5E
100
AcDbEntity
  8
SUNPOU
100
AcDbBlockReference
  2
_OPEN
 10
428.2422314338669
 20
343.7237206968447
 30
0.0
 41
5.0
 42
5.0
 43
5.0
 50
180.0
  0
INSERT
  5
AB8E
330
9A5E
100
AcDbEntity
  8
SUNPOU
100
AcDbBlockReference
  2
_OPEN
 10
418.2165755876556
 20
343.7237206968447
 30
0.0
 41
5.0
 42
5.0
 43
5.0
  0
MTEXT
  5
AB8F
330
9A5E
100
AcDbEntity
  8
SUNPOU
100
AcDbMText
 10
423.2294035107612
 20
348.2237206968448
 30
0.0
 40
6.0
 41
0.0
 71
     5
 72
     1
  1
\A1;10
1001
ACAD
1000
MTEXTBEGIN
1070
    73
1070
     1
1070
    44
1040
1.0
1070
    74
1070
     0
1000
MTEXTEND
1000
MTEXTBEGIN
1070
    73
1070
     1
1070
    44
1040
1.0
1070
    74
1070
     0
1000
MTEXTEND
1000
MTEXTBEGIN
1070
    73
1070
     1
1070
    44
1040
1.0
1070
    74
1070
     0
1000
MTEXTEND
1000
MTEXTBEGIN
1070
    73
1070
     1
1070
    44
1040
1.0
1070
    74
1070
     0
1000
MTEXTEND
  0
POINT
  5
AB90
330
9A5E
100
AcDbEntity
  8
DEFPOINTS
 62
     0
100
AcDbPoint
 10
428.2422314338669
 20
327.9149336447931
 30
0.0
  0
POINT
  5
AB91
330
9A5E
100
AcDbEntity
  8
DEFPOINTS
 62
     0
100
AcDbPoint
 10
418.2165755876556
 20
329.5145951356575
 30
0.0
  0
POINT
  5
AB92
330
9A5E
100
AcDbEntity
  8
DEFPOINTS
 62
     0
100
AcDbPoint
 10
418.2165755876556
 20
343.7237206968447
 30
0.0
  0
ENDBLK
  5
9A6A
330
9A5E
100
AcDbEntity
  8
0
100
AcDbBlockEnd
  0
BLOCK
  5
9A85
330
9A7A
100
AcDbEntity
  8
0
100
AcDbBlockBegin
  2
*D14
 70
     1
 10
0.0
 20
0.0
 30
0.0
  3
*D14
  1

  0
LINE
  5
AB76
330
9A7A
100
AcDbEntity
  8
SUNPOU
100
AcDbLine
 10
406.6909197414442
 20
329.5145951357178
 30
0.0
 11
250.7455810283384
 21
329.5145951357179
 31
0.0
  0
LINE
  5
AB77
330
9A7A
100
AcDbEntity
  8
SUNPOU
100
AcDbLine
 10
296.9470371847505
 20
319.5328199990663
 30
0.0
 11
250.7455810283383
 21
319.5328199990663
 31
0.0
  0
LINE
  5
AB78
330
9A7A
100
AcDbEntity
  8
SUNPOU
100
AcDbLine
 10
252.2455810283383
 20
334.5145951357179
 30
0.0
 11
252.2455810283383
 21
339.5145951357179
 31
0.0
  0
LINE
  5
AB79
330
9A7A
100
AcDbEntity
  8
SUNPOU
100
AcDbLine
 10
252.2455810283383
 20
314.5328199990663
 30
0.0
 11
252.2455810283383
 21
299.5328199990662
 31
0.0
  0
INSERT
  5
AB7A
330
9A7A
100
AcDbEntity
  8
SUNPOU
100
AcDbBlockReference
  2
_OPEN
 10
252.2455810283383
 20
329.5145951357179
 30
0.0
 41
5.0
 42
5.0
 43
5.0
 50
270.0
  0
INSERT
  5
AB7B
330
9A7A
100
AcDbEntity
  8
SUNPOU
100
AcDbBlockReference
  2
_OPEN
 10
252.2455810283383
 20
319.5328199990663
 30
0.0
 41
5.0
 42
5.0
 43
5.0
 50
90.0
  0
MTEXT
  5
AB7C
330
9A7A
100
AcDbEntity
  8
SUNPOU
100
AcDbMText
 10
247.7455810283383
 20
304.5328199990663
 30
0.0
 40
6.0
 41
0.0
 71
     5
 72
     1
  1
\A1;10
 11
0.0000000000000001
 21
1.0
 31
0.0
1001
ACAD
1000
MTEXTBEGIN
1070
    73
1070
     1
1070
    44
1040
1.0
1070
    74
1070
     0
1000
MTEXTEND
1000
MTEXTBEGIN
1070
    73
1070
     1
1070
    44
1040
1.0
1070
    74
1070
     0
1000
MTEXTEND
1000
MTEXTBEGIN
1070
    73
1070
     1
1070
    44
1040
1.0
1070
    74
1070
     0
1000
MTEXTEND
1000
MTEXTBEGIN
1070
    73
1070
     1
1070
    44
1040
1.0
1070
    74
1070
     0
1000
MTEXTEND
  0
POINT
  5
AB7D
330
9A7A
100
AcDbEntity
  8
DEFPOINTS
 62
     0
100
AcDbPoint
 10
408.1909197414443
 20
329.5145951357178
 30
0.0
  0
POINT
  5
AB7E
330
9A7A
100
AcDbEntity
  8
DEFPOINTS
 62
     0
100
AcDbPoint
 10
298.4470371847505
 20
319.5328199990663
 30
0.0
  0
POINT
  5
AB7F
330
9A7A
100
AcDbEntity
  8
DEFPOINTS
 62
     0
100
AcDbPoint
 10
252.2455810283383
 20
319.5328199990663
 30
0.0
  0
ENDBLK
  5
9A86
330
9A7A
100
AcDbEntity
  8
0
100
AcDbBlockEnd
  0
BLOCK
  5
ACB3
330
ACA8
100
AcDbEntity
  8
0
100
AcDbBlockBegin
  2
*D15
 70
     1
 10
0.0
 20
0.0
 30
0.0
  3
*D15
  1

  0
LINE
  5
ACA9
330
ACA8
100
AcDbEntity
  8
SUNPOU
100
AcDbLine
 10
421.2422314338668
 20
245.9043899410473
 30
0.0
 11
421.2422314338668
 21
219.3613172731006
 31
0.0
  0
LINE
  5
ACAA
330
ACA8
100
AcDbEntity
  8
SUNPOU
100
AcDbLine
 10
428.2422314338669
 20
249.9043899410971
 30
0.0
 11
428.2422314338669
 21
219.3613172731006
 31
0.0
  0
LINE
  5
ACAB
330
ACA8
100
AcDbEntity
  8
SUNPOU
100
AcDbLine
 10
426.2422314338668
 20
220.8613172731006
 30
0.0
 11
423.2422314338668
 21
220.8613172731006
 31
0.0
  0
LINE
  5
ACAC
330
ACA8
100
AcDbEntity
  8
SUNPOU
100
AcDbLine
 10
428.2422314338669
 20
220.8613172731006
 30
0.0
 11
440.2422314338669
 21
220.8613172731006
 31
0.0
  0
INSERT
  5
ACAD
330
ACA8
100
AcDbEntity
  8
SUNPOU
100
AcDbBlockReference
  2
_OPEN
 10
421.2422314338668
 20
220.8613172731006
 30
0.0
 41
5.0
 42
5.0
 43
5.0
 50
180.0
  0
INSERT
  5
ACAE
330
ACA8
100
AcDbEntity
  8
SUNPOU
100
AcDbBlockReference
  2
_OPEN
 10
428.2422314338669
 20
220.8613172731006
 30
0.0
 41
5.0
 42
5.0
 43
5.0
  0
MTEXT
  5
ACAF
330
ACA8
100
AcDbEntity
  8
SUNPOU
100
AcDbMText
 10
436.7422314338669
 20
225.3613172731006
 30
0.0
 40
6.0
 41
0.0
 71
     5
 72
     1
  1
\A1;7
1001
ACAD
1000
MTEXTBEGIN
1070
    73
1070
     1
1070
    44
1040
1.0
1070
    74
1070
     0
1000
MTEXTEND
1000
MTEXTBEGIN
1070
    73
1070
     1
1070
    44
1040
1.0
1070
    74
1070
     0
1000
MTEXTEND
1000
MTEXTBEGIN
1070
    73
1070
     1
1070
    44
1040
1.0
1070
    74
1070
     0
1000
MTEXTEND
1000
MTEXTBEGIN
1070
    73
1070
     1
1070
    44
1040
1.0
1070
    74
1070
     0
1000
MTEXTEND
  0
POINT
  5
ACB0
330
ACA8
100
AcDbEntity
  8
DEFPOINTS
 62
     0
100
AcDbPoint
 10
421.2422314338668
 20
247.4043899410474
 30
0.0
  0
POINT
  5
ACB1
330
ACA8
100
AcDbEntity
  8
DEFPOINTS
 62
     0
100
AcDbPoint
 10
428.2422314338669
 20
251.4043899410971
 30
0.0
  0
POINT
  5
ACB2
330
ACA8
100
AcDbEntity
  8
DEFPOINTS
 62
     0
100
AcDbPoint
 10
428.2422314338669
 20
220.8613172731006
 30
0.0
  0
ENDBLK
  5
ACB4
330
ACA8
100
AcDbEntity
  8
0
100
AcDbBlockEnd
  0
ENDSEC
  0
SECTION
  2
ENTITIES
  0
POLYLINE
  5
275
330
1A
100
AcDbEntity
  8
ZUWAKU
100
AcDb2dPolyline
 66
     1
 10
0.0
 20
0.0
 30
0.0
 70
     1
  0
VERTEX
  5
B1E8
330
275
100
AcDbEntity
  8
ZUWAKU
100
AcDbVertex
100
AcDb2dVertex
 10
7.799999999999954
 20
557.7999999999999
 30
0.0
  0
VERTEX
  5
B1E9
330
275
100
AcDbEntity
  8
ZUWAKU
100
AcDbVertex
100
AcDb2dVertex
 10
7.799999999999954
 20
7.800000000000068
 30
0.0
  0
VERTEX
  5
B1EA
330
275
100
AcDbEntity
  8
ZUWAKU
100
AcDbVertex
100
AcDb2dVertex
 10
803.7999999999996
 20
7.800000000000068
 30
0.0
  0
VERTEX
  5
B1EB
330
275
100
AcDbEntity
  8
ZUWAKU
100
AcDbVertex
100
AcDb2dVertex
 10
803.7999999999996
 20
557.7999999999999
 30
0.0
  0
SEQEND
  5
B1EC
330
275
100
AcDbEntity
  8
ZUWAKU
  0
POLYLINE
  5
276
330
1A
100
AcDbEntity
  8
ZUWAKU
100
AcDb2dPolyline
 66
     1
 10
0.0
 20
0.0
 30
0.0
 70
     1
  0
VERTEX
  5
B1ED
330
276
100
AcDbEntity
  8
ZUWAKU
100
AcDbVertex
100
AcDb2dVertex
 10
7.399999999999977
 20
558.1999999999999
 30
0.0
  0
VERTEX
  5
B1EE
330
276
100
AcDbEntity
  8
ZUWAKU
100
AcDbVertex
100
AcDb2dVertex
 10
7.399999999999977
 20
7.40000000000009
 30
0.0
  0
VERTEX
  5
B1EF
330
276
100
AcDbEntity
  8
ZUWAKU
100
AcDbVertex
100
AcDb2dVertex
 10
804.1999999999999
 20
7.400000000000067
 30
0.0
  0
VERTEX
  5
B1F0
330
276
100
AcDbEntity
  8
ZUWAKU
100
AcDbVertex
100
AcDb2dVertex
 10
804.1999999999999
 20
558.1999999999999
 30
0.0
  0
SEQEND
  5
B1F1
330
276
100
AcDbEntity
  8
ZUWAKU
  0
POLYLINE
  5
277
330
1A
100
AcDbEntity
  8
ZUWAKU
100
AcDb2dPolyline
 66
     1
 10
0.0
 20
0.0
 30
0.0
 70
     1
  0
VERTEX
  5
B1F2
330
277
100
AcDbEntity
  8
ZUWAKU
100
AcDbVertex
100
AcDb2dVertex
 10
7.0
 20
558.6
 30
0.0
  0
VERTEX
  5
B1F3
330
277
100
AcDbEntity
  8
ZUWAKU
100
AcDbVertex
100
AcDb2dVertex
 10
7.0
 20
7.0
 30
0.0
  0
VERTEX
  5
B1F4
330
277
100
AcDbEntity
  8
ZUWAKU
100
AcDbVertex
100
AcDb2dVertex
 10
804.5999999999999
 20
7.000000000000067
 30
0.0
  0
VERTEX
  5
B1F5
330
277
100
AcDbEntity
  8
ZUWAKU
100
AcDbVertex
100
AcDb2dVertex
 10
804.5999999999999
 20
558.6000000000001
 30
0.0
  0
SEQEND
  5
B1F6
330
277
100
AcDbEntity
  8
ZUWAKU
  0
POLYLINE
  5
278
330
1A
100
AcDbEntity
  8
ZUWAKU
100
AcDb2dPolyline
 66
     1
 10
0.0
 20
0.0
 30
0.0
 70
     1
  0
VERTEX
  5
B1F7
330
278
100
AcDbEntity
  8
ZUWAKU
100
AcDbVertex
100
AcDb2dVertex
 10
7.599999999999909
 20
558.0
 30
0.0
  0
VERTEX
  5
B1F8
330
278
100
AcDbEntity
  8
ZUWAKU
100
AcDbVertex
100
AcDb2dVertex
 10
7.599999999999909
 20
7.600000000000022
 30
0.0
  0
VERTEX
  5
B1F9
330
278
100
AcDbEntity
  8
ZUWAKU
100
AcDbVertex
100
AcDb2dVertex
 10
804.0000000000002
 20
7.600000000000068
 30
0.0
  0
VERTEX
  5
B1FA
330
278
100
AcDbEntity
  8
ZUWAKU
100
AcDbVertex
100
AcDb2dVertex
 10
804.0
 20
558.0
 30
0.0
  0
SEQEND
  5
B1FB
330
278
100
AcDbEntity
  8
ZUWAKU
  0
POLYLINE
  5
279
330
1A
100
AcDbEntity
  8
ZUWAKU
100
AcDb2dPolyline
 66
     1
 10
0.0
 20
0.0
 30
0.0
 70
     1
  0
VERTEX
  5
B1FC
330
279
100
AcDbEntity
  8
ZUWAKU
100
AcDbVertex
100
AcDb2dVertex
 10
7.199999999999931
 20
558.3999999999999
 30
0.0
  0
VERTEX
  5
B1FD
330
279
100
AcDbEntity
  8
ZUWAKU
100
AcDbVertex
100
AcDb2dVertex
 10
7.199999999999931
 20
7.200000000000045
 30
0.0
  0
VERTEX
  5
B1FE
330
279
100
AcDbEntity
  8
ZUWAKU
100
AcDbVertex
100
AcDb2dVertex
 10
804.3999999999998
 20
7.200000000000068
 30
0.0
  0
VERTEX
  5
B1FF
330
279
100
AcDbEntity
  8
ZUWAKU
100
AcDbVertex
100
AcDb2dVertex
 10
804.4
 20
558.3999999999999
 30
0.0
  0
SEQEND
  5
B200
330
279
100
AcDbEntity
  8
ZUWAKU
  0
TEXT
  5
27A
330
1A
100
AcDbEntity
  8
MOJI
100
AcDbText
 10
470.246431991002
 20
18.94261772165998
 30
0.0
 40
5.599999999999998
  1
ＬＰ０１Ｔ
 41
0.9
  7
MSPｺ_ｼｯｸ
100
AcDbText
  0
LINE
  5
27B
330
1A
100
AcDbEntity
  8
ZUWAKU
100
AcDbLine
 10
7.0
 20
37.0
 30
0.0
 11
804.3999999999998
 21
37.0
 31
0.0
  0
LINE
  5
27C
330
1A
100
AcDbEntity
  8
ZUWAKU
100
AcDbLine
 10
7.0
 20
37.19999999999999
 30
0.0
 11
804.3999999999998
 21
37.19999999999999
 31
0.0
  0
LINE
  5
27D
330
1A
100
AcDbEntity
  8
ZUWAKU
100
AcDbLine
 10
7.0
 20
37.4
 30
0.0
 11
804.3999999999998
 21
37.4
 31
0.0
  0
LINE
  5
27E
330
1A
100
AcDbEntity
  8
ZUWAKU
100
AcDbLine
 10
7.0
 20
37.60000000000001
 30
0.0
 11
804.3999999999998
 21
37.60000000000001
 31
0.0
  0
LINE
  5
27F
330
1A
100
AcDbEntity
  8
ZUWAKU
100
AcDbLine
 10
7.0
 20
37.80000000000001
 30
0.0
 11
804.3999999999998
 21
37.80000000000001
 31
0.0
  0
TEXT
  5
280
330
1A
100
AcDbEntity
  8
ZUWAKU
100
AcDbText
 10
216.7240463122775
 20
16.65535653838561
 30
0.0
 40
4.0
  1
サイズ
 41
0.9
  7
MSPｺ_ｼｯｸ
100
AcDbText
  0
LINE
  5
281
330
1A
100
AcDbEntity
  8
ZUWAKU
100
AcDbLine
 10
215.646601290068
 20
22.40000000000002
 30
0.0
 11
454.4243639709914
 21
22.40000000000002
 31
0.0
  0
LINE
  5
282
330
1A
100
AcDbEntity
  8
ZUWAKU
100
AcDbLine
 10
215.646601290068
 20
22.60000000000002
 30
0.0
 11
454.4243639709914
 21
22.60000000000003
 31
0.0
  0
LINE
  5
283
330
1A
100
AcDbEntity
  8
ZUWAKU
100
AcDbLine
 10
215.646601290068
 20
22.20000000000003
 30
0.0
 11
454.4243639709914
 21
22.20000000000002
 31
0.0
  0
LINE
  5
284
330
1A
100
AcDbEntity
  8
ZUWAKU
100
AcDbLine
 10
215.4466012900677
 20
37.0
 30
0.0
 11
215.4466012900679
 21
7.800000000000068
 31
0.0
  0
LINE
  5
285
330
1A
100
AcDbEntity
  8
ZUWAKU
100
AcDbLine
 10
215.6466012900677
 20
37.0
 30
0.0
 11
215.646601290068
 21
7.800000000000068
 31
0.0
  0
LINE
  5
286
330
1A
100
AcDbEntity
  8
ZUWAKU
100
AcDbLine
 10
215.2466012900679
 20
37.0
 30
0.0
 11
215.2466012900679
 21
7.800000000000068
 31
0.0
  0
LINE
  5
287
330
1A
100
AcDbEntity
  8
ZUWAKU
100
AcDbLine
 10
73.2422121547811
 20
29.725
 30
0.0
 11
73.2422121547811
 21
14.675
 31
0.0
  0
LINE
  5
288
330
1A
100
AcDbEntity
  8
ZUWAKU
100
AcDbLine
 10
76.04221215478117
 20
14.675
 30
0.0
 11
76.04221215478117
 21
29.725
 31
0.0
  0
LINE
  5
289
330
1A
100
AcDbEntity
  8
ZUWAKU
100
AcDbLine
 10
68.34221215478113
 20
29.725
 30
0.0
 11
68.34221215478113
 21
17.99999999999999
 31
0.0
  0
LINE
  5
28A
330
1A
100
AcDbEntity
  8
ZUWAKU
100
AcDbLine
 10
71.14221215478119
 20
16.95
 30
0.0
 11
71.14221215478119
 21
29.725
 31
0.0
  0
LINE
  5
28B
330
1A
100
AcDbEntity
  8
ZUWAKU
100
AcDbLine
 10
86.12662954798839
 20
37.0
 30
0.0
 11
86.12662954798839
 21
7.800000000000068
 31
0.0
  0
LINE
  5
28C
330
1A
100
AcDbEntity
  8
ZUWAKU
100
AcDbLine
 10
86.52662954798826
 20
37.0
 30
0.0
 11
86.52662954798847
 21
7.800000000000068
 31
0.0
  0
LINE
  5
28D
330
1A
100
AcDbEntity
  8
ZUWAKU
100
AcDbLine
 10
86.32662954798821
 20
37.0
 30
0.0
 11
86.32662954798844
 21
7.800000000000068
 31
0.0
  0
LINE
  5
28E
330
1A
100
AcDbEntity
  8
ZUWAKU
100
AcDbLine
 10
52.59221215478112
 20
27.44999999999999
 30
0.0
 11
52.59221215478112
 21
25.63479797464466
 31
0.0
  0
LINE
  5
28F
330
1A
100
AcDbEntity
  8
ZUWAKU
100
AcDbLine
 10
55.39221215478119
 20
26.92499999999999
 30
0.0
 11
55.39221215478119
 21
25.63479797464466
 31
0.0
  0
LINE
  5
290
330
1A
100
AcDbEntity
  8
ZUWAKU
100
AcDbLine
 10
44.31485863695911
 20
26.20504719356342
 30
0.0
 11
43.05010689162327
 21
22.20000000000001
 31
0.0
  0
LINE
  5
291
330
1A
100
AcDbEntity
  8
ZUWAKU
100
AcDbLine
 10
42.67634709209699
 20
29.88309396816696
 30
0.0
 11
40.80807721746521
 21
23.96690603183302
 31
0.0
  0
LINE
  5
292
330
1A
100
AcDbEntity
  8
ZUWAKU
100
AcDbLine
 10
36.84221215478112
 20
29.725
 30
0.0
 11
36.84221215478112
 21
14.675
 31
0.0
  0
LINE
  5
293
330
1A
100
AcDbEntity
  8
ZUWAKU
100
AcDbLine
 10
39.64221215478119
 20
24.125
 30
0.0
 11
39.64221215478119
 21
29.725
 31
0.0
  0
LINE
  5
294
330
1A
100
AcDbEntity
  8
ZUWAKU
100
AcDbLine
 10
64.84221215478112
 20
17.99999999999999
 30
0.0
 11
64.84221215478112
 21
29.725
 31
0.0
  0
LINE
  5
295
330
1A
100
AcDbEntity
  8
ZUWAKU
100
AcDbLine
 10
62.04221215478117
 20
29.725
 30
0.0
 11
62.04221215478117
 21
16.95
 31
0.0
  0
LINE
  5
296
330
1A
100
AcDbEntity
  8
ZUWAKU
100
AcDbLine
 10
50.4922121547811
 20
14.675
 30
0.0
 11
50.4922121547811
 21
29.725
 31
0.0
  0
LINE
  5
297
330
1A
100
AcDbEntity
  8
ZUWAKU
100
AcDbLine
 10
47.69221215478114
 20
29.725
 30
0.0
 11
47.69221215478114
 21
14.675
 31
0.0
  0
LINE
  5
298
330
1A
100
AcDbEntity
  8
ZUWAKU
100
AcDbLine
 10
27.7422121547811
 20
18.35
 30
0.0
 11
27.7422121547811
 21
26.04999999999995
 31
0.0
  0
LINE
  5
299
330
1A
100
AcDbEntity
  8
ZUWAKU
100
AcDbLine
 10
30.54221215478117
 20
26.04999999999999
 30
0.0
 11
30.54221215478117
 21
18.35
 31
0.0
  0
LINE
  5
29A
330
1A
100
AcDbEntity
  8
ZUWAKU
100
AcDbLine
 10
18.29221215478116
 20
27.44999999999999
 30
0.0
 11
18.29221215478116
 21
25.63479797464466
 31
0.0
  0
LINE
  5
29B
330
1A
100
AcDbEntity
  8
ZUWAKU
100
AcDbLine
 10
21.09221215478112
 20
26.92499999999999
 30
0.0
 11
21.09221215478112
 21
25.63479797464466
 31
0.0
  0
INSERT
  5
29C
330
1A
100
AcDbEntity
  8
ZUWAKU
  6
CONTINUOUS
100
AcDbBlockReference
  2
*X2
 10
0.0
 20
0.0
 30
0.0
1001
ACAD
1000
HATCH
1002
{
1070
    19
1000
ANSI37
1040
0.2
1040
0.0
1000
R14_HATCH_DATA
1000
29C
1011
1.0
1021
0.0
1031
0.0
1011
0.0
1021
1.0
1031
0.0
1011
0.0
1021
0.0
1031
1.0
1040
0.0
1010
0.0
1020
0.0
1030
1.0
1000
ANSI37
1070
     0
1070
     0
1071
        8
1071
        7
1070
     1
1070
     1
1071
       24
1040
21.50226266111985
1040
24.64484848098358
1040
-0.1989123673796348
1040
21.09221215478112
1040
25.63479797464462
1040
0.0
1040
21.09221215478112
1040
26.925
1040
-0.4142135623730912
1040
21.6172121547811
1040
27.44999999999999
1040
0.0
1040
24.59221215478101
1040
27.44999999999999
1040
0.4142135623731546
1040
25.1172121547811
1040
27.97499999999999
1040
0.0
1040
25.1172121547811
1040
29.72500000000001
1040
0.4142135623731586
1040
24.59221215478101
1040
30.24999999999999
1040
0.0
1040
21.09221215478112
1040
30.24999999999999
1040
0.4142135623730928
1040
18.29221215478116
1040
27.45000000000002
1040
0.0
1040
18.29221215478116
1040
25.63479797464475
1040
0.1989123673796619
1040
19.52236367379759
1040
22.66494949366114
1040
0.0
1040
22.43216164844227
1040
19.75515151901649
1040
-0.1989123673796613
1040
22.84221215478112
1040
18.7652020253553
1040
0.0
1040
22.84221215478112
1040
17.47499999999998
1040
-0.4142135623730911
1040
22.31721215478114
1040
16.95
1040
0.0
1040
19.34221215478123
1040
16.95
1040
0.4142135623731526
1040
18.81721215478114
1040
16.42500000000001
1040
0.0
1040
18.81721215478114
1040
14.67499999999999
1040
0.4142135623731526
1040
19.34221215478123
1040
14.15
1040
0.0
1040
22.84221215478112
1040
14.15
1040
0.4142135623731045
1040
25.64221215478119
1040
16.94999999999998
1040
0.0
1040
25.64221215478119
1040
18.76520202535524
1040
0.1989123673796604
1040
24.41206063576464
1040
21.73505050633878
1040
0.0
1071
        0
1071
        7
1070
     1
1070
     1
1071
       16
1040
30.54221215478117
1040
26.05
1040
-0.4142135623730935
1040
31.94221215478114
1040
27.44999999999999
1040
0.0
1040
33.8672121547811
1040
27.44999999999999
1040
0.4142135623731546
1040
34.39221215478119
1040
27.97499999999999
1040
0.0
1040
34.39221215478119
1040
29.72500000000001
1040
0.4142135623730951
1040
33.86721215478121
1040
30.24999999999999
1040
0.0
1040
31.94221215478103
1040
30.24999999999995
1040
0.4142135623730893
1040
27.7422121547811
1040
26.04999999999994
1040
0.0
1040
27.7422121547811
1040
18.35000000000002
1040
0.4142135623730969
1040
31.94221215478114
1040
14.15
1040
0.0
1040
33.8672121547811
1040
14.15
1040
0.4142135623731526
1040
34.39221215478119
1040
14.67499999999999
1040
0.0
1040
34.39221215478119
1040
16.42500000000001
1040
0.4142135623730891
1040
33.86721215478121
1040
16.95
1040
0.0
1040
31.94221215478114
1040
16.95
1040
-0.4142135623730928
1040
30.54221215478117
1040
18.34999999999998
1040
0.0
1071
        0
1071
        7
1070
     1
1070
     1
1071
        2
1040
31.2422121547811
1040
22.19999999999999
1040
1.0
1040
34.7422121547811
1040
22.19999999999999
1040
1.0
1071
        0
1071
        7
1070
     1
1070
     1
1071
       26
1040
44.31485863695911
1040
26.20504719356342
1040
0.0
1040
45.37649827009693
1040
29.56690603183302
1040
0.5069206636600134
1040
44.87586737090157
1040
30.24999999999999
1040
0.0
1040
43.17697799129234
1040
30.24999999999999
1040
0.3272098845218764
1040
42.67634709209699
1040
29.88309396816696
1040
0.0
1040
40.80807721746521
1040
23.96690603183307
1040
-0.3272098845219541
1040
40.30744631826974
1040
23.59999999999999
1040
0.0
1040
40.16721215478128
1040
23.59999999999999
1040
-0.4142135623731526
1040
39.64221215478119
1040
24.12499999999998
1040
0.0
1040
39.64221215478119
1040
29.72500000000001
1040
0.4142135623730951
1040
39.11721215478121
1040
30.24999999999999
1040
0.0
1040
37.3672121547811
1040
30.24999999999999
1040
0.4142135623730871
1040
36.84221215478112
1040
29.72500000000001
1040
0.0
1040
36.84221215478112
1040
14.67499999999999
1040
0.4142135623730891
1040
37.3672121547811
1040
14.15
1040
0.0
1040
39.1172121547811
1040
14.15
1040
0.4142135623731526
1040
39.64221215478119
1040
14.67499999999999
1040
0.0
1040
39.64221215478119
1040
20.275
1040
-0.4142135623731526
1040
40.16721215478128
1040
20.79999999999999
1040
0.0
1040
40.30744631826985
1040
20.79999999999999
1040
-0.3272098845218915
1040
40.80807721746521
1040
20.43309396816693
1040
0.0
1040
42.67634709209699
1040
14.51690603183307
1040
0.3272098845218902
1040
43.17697799129234
1040
14.15
1040
0.0
1040
44.87586737090157
1040
14.15
1040
0.5069206636600336
1040
45.37649827009693
1040
14.83309396816701
1040
0.0
1040
43.05010689162327
1040
22.20000000000013
1040
0.0
1071
        0
1071
        7
1070
     1
1070
     1
1071
        8
1040
50.4922121547811
1040
29.72500000000001
1040
0.4142135623731546
1040
49.96721215478101
1040
30.24999999999999
1040
0.0
1040
48.21721215478124
1040
30.24999999999999
1040
0.4142135623731507
1040
47.69221215478114
1040
29.72500000000001
1040
0.0
1040
47.69221215478114
1040
14.67499999999999
1040
0.4142135623731526
1040
48.21721215478124
1040
14.15
1040
0.0
1040
49.96721215478101
1040
14.15
1040
0.4142135623731526
1040
50.4922121547811
1040
14.67499999999999
1040
0.0
1071
        0
1071
        7
1070
     1
1070
     1
1071
       24
1040
55.39221215478119
1040
26.925
1040
-0.4142135623731546
1040
55.91721215478128
1040
27.44999999999999
1040
0.0
1040
58.89221215478119
1040
27.44999999999999
1040
0.4142135623730911
1040
59.41721215478117
1040
27.97499999999999
1040
0.0
1040
59.41721215478117
1040
29.72500000000001
1040
0.4142135623730952
1040
58.89221215478119
1040
30.24999999999999
1040
0.0
1040
55.39221215478119
1040
30.24999999999999
1040
0.4142135623731048
1040
52.59221215478112
1040
27.45000000000002
1040
0.0
1040
52.59221215478112
1040
25.63479797464475
1040
0.1989123673796613
1040
53.82236367379767
1040
22.66494949366121
1040
0.0
1040
56.73216164844234
1040
19.75515151901653
1040
-0.1989123673796402
1040
57.14221215478119
1040
18.76520202535546
1040
0.0
1040
57.14221215478119
1040
17.47499999999998
1040
-0.4142135623730911
1040
56.61721215478121
1040
16.95
1040
0.0
1040
53.64221215478119
1040
16.95
1040
0.4142135623731526
1040
53.1172121547811
1040
16.42500000000001
1040
0.0
1040
53.1172121547811
1040
14.67499999999999
1040
0.4142135623730891
1040
53.64221215478107
1040
14.15
1040
0.0
1040
57.14221215478119
1040
14.15
1040
0.4142135623730925
1040
59.94221215478114
1040
16.94999999999998
1040
0.0
1040
59.94221215478114
1040
18.76520202535524
1040
0.1989123673796675
1040
58.7120606357646
1040
21.7350505063389
1040
0.0
1040
55.80226266112004
1040
24.64484848098342
1040
-0.1989123673796652
1040
55.39221215478119
1040
25.63479797464458
1040
0.0
1071
        0
1071
        7
1070
     1
1070
     1
1071
       16
1040
64.84221215478112
1040
29.72499999999998
1040
0.414213562373103
1040
64.31721215478114
1040
30.24999999999999
1040
0.0
1040
62.56721215478115
1040
30.24999999999999
1040
0.4142135623730871
1040
62.04221215478117
1040
29.72500000000001
1040
0.0
1040
62.04221215478117
1040
16.94999999999998
1040
0.4142135623730927
1040
64.84221215478112
1040
14.15
1040
0.0
1040
68.34221215478113
1040
14.15
1040
0.4142135623731045
1040
71.14221215478119
1040
16.94999999999998
1040
0.0
1040
71.14221215478119
1040
29.72500000000001
1040
0.4142135623730951
1040
70.61721215478121
1040
30.24999999999999
1040
0.0
1040
68.8672121547811
1040
30.24999999999999
1040
0.4142135623730871
1040
68.34221215478113
1040
29.72500000000001
1040
0.0
1040
68.34221215478113
1040
17.99999999999998
1040
-0.4142135623730879
1040
67.29221215478117
1040
16.95
1040
0.0
1040
65.89221215478119
1040
16.95
1040
-0.4142135623731197
1040
64.84221215478112
1040
17.99999999999998
1040
0.0
1071
        0
1071
        7
1070
     1
1070
     1
1071
        8
1040
76.04221215478117
1040
29.72500000000001
1040
0.4142135623730871
1040
75.51721215478119
1040
30.24999999999999
1040
0.0
1040
73.76721215478119
1040
30.24999999999999
1040
0.4142135623731507
1040
73.2422121547811
1040
29.72500000000001
1040
0.0
1040
73.2422121547811
1040
14.67499999999999
1040
0.4142135623730891
1040
73.76721215478108
1040
14.15
1040
0.0
1040
75.51721215478119
1040
14.15
1040
0.4142135623730891
1040
76.04221215478117
1040
14.67499999999999
1040
0.0
1071
        0
1070
     0
1070
     1
1040
0.0
1040
0.2
1070
     0
1070
     2
1040
0.7853981633974483
1040
-893.942304334679
1040
-6.199999999999924
1040
-0.4490128060534576
1040
0.4490128060534577
1070
     0
1040
2.356194490192344
1040
-893.942304334679
1040
-6.199999999999924
1040
-0.4490128060534577
1040
-0.4490128060534576
1070
     0
1040
0.057451373970553
1071
        8
1040
23.0798549630233
1040
22.16717364588554
1040
0.0
1040
29.40451500643916
1040
25.84406218245101
1040
0.0
1040
32.16436788565966
1040
22.51188164607071
1040
0.0
1040
37.91405998163714
1040
23.20129764644149
1040
0.0
1040
48.83847201895673
1040
23.66090991398312
1040
0.0
1040
53.89820089512955
1040
26.4185763164072
1040
0.0
1040
63.55768597240035
1040
25.72915791509501
1040
0.0
1040
74.82707961962273
1040
26.18877018263662
1040
0.0
1002
}
  0
CIRCLE
  5
29E
330
1A
100
AcDbEntity
  8
ZUWAKU
100
AcDbCircle
 10
32.9922121547811
 20
22.19999999999999
 30
0.0
 40
1.75
  0
LINE
  5
29F
330
1A
100
AcDbEntity
  8
ZUWAKU
100
AcDbLine
 10
33.8672121547811
 20
14.15
 30
0.0
 11
31.94221215478114
 21
14.15
 31
0.0
  0
LINE
  5
2A0
330
1A
100
AcDbEntity
  8
ZUWAKU
100
AcDbLine
 10
31.94221215478114
 20
16.95
 30
0.0
 11
33.8672121547811
 21
16.95
 31
0.0
  0
ARC
  5
2A1
330
1A
100
AcDbEntity
  8
ZUWAKU
100
AcDbCircle
 10
31.94221215478114
 20
18.35
 30
0.0
 40
4.199999999999998
100
AcDbArc
 50
180.0
 51
270.0
  0
ARC
  5
2A2
330
1A
100
AcDbEntity
  8
ZUWAKU
100
AcDbCircle
 10
22.84221215478112
 20
16.95
 30
0.0
 40
2.799999999999998
100
AcDbArc
 50
270.0
 51
0.0
  0
ARC
  5
2A3
330
1A
100
AcDbEntity
  8
ZUWAKU
100
AcDbCircle
 10
31.94221215478114
 20
18.35
 30
0.0
 40
1.399999999999999
100
AcDbArc
 50
180.0
 51
270.0
  0
LINE
  5
2A4
330
1A
100
AcDbEntity
  8
ZUWAKU
100
AcDbLine
 10
25.64221215478119
 20
16.95
 30
0.0
 11
25.64221215478119
 21
18.76520202535534
 31
0.0
  0
ARC
  5
2A5
330
1A
100
AcDbEntity
  8
ZUWAKU
100
AcDbCircle
 10
22.49221215478109
 20
25.63479797464469
 30
0.0
 40
4.199999999999998
100
AcDbArc
 50
180.0
 51
224.9999999999996
  0
ARC
  5
2A6
330
1A
100
AcDbEntity
  8
ZUWAKU
100
AcDbCircle
 10
22.49221215478109
 20
25.63479797464469
 30
0.0
 40
1.399999999999999
100
AcDbArc
 50
180.0000000000015
 51
224.9999999999995
  0
LINE
  5
2A7
330
1A
100
AcDbEntity
  8
ZUWAKU
100
AcDbLine
 10
19.52236367379759
 20
22.66494949366117
 30
0.0
 11
22.43216164844227
 21
19.75515151901651
 31
0.0
  0
LINE
  5
2A8
330
1A
100
AcDbEntity
  8
ZUWAKU
100
AcDbLine
 10
19.34221215478112
 20
16.95
 30
0.0
 11
22.31721215478114
 21
16.95
 31
0.0
  0
LINE
  5
2A9
330
1A
100
AcDbEntity
  8
ZUWAKU
100
AcDbLine
 10
19.34221215478112
 20
14.15
 30
0.0
 11
22.84221215478112
 21
14.15
 31
0.0
  0
ARC
  5
2AA
330
1A
100
AcDbEntity
  8
ZUWAKU
100
AcDbCircle
 10
19.34221215478112
 20
16.425
 30
0.0
 40
0.525
100
AcDbArc
 50
90.0
 51
180.0
  0
ARC
  5
2AB
330
1A
100
AcDbEntity
  8
ZUWAKU
100
AcDbCircle
 10
19.34221215478112
 20
14.675
 30
0.0
 40
0.525
100
AcDbArc
 50
180.0
 51
270.0
  0
LINE
  5
2AC
330
1A
100
AcDbEntity
  8
ZUWAKU
100
AcDbLine
 10
18.81721215478114
 20
14.675
 30
0.0
 11
18.81721215478114
 21
16.425
 31
0.0
  0
ARC
  5
2AD
330
1A
100
AcDbEntity
  8
ZUWAKU
100
AcDbCircle
 10
21.44221215478114
 20
18.76520202535534
 30
0.0
 40
1.399999999999999
100
AcDbArc
 50
0.0
 51
44.9999999999996
  0
ARC
  5
2AE
330
1A
100
AcDbEntity
  8
ZUWAKU
100
AcDbCircle
 10
22.31721215478114
 20
17.475
 30
0.0
 40
0.525
100
AcDbArc
 50
270.0
 51
0.0
  0
LINE
  5
2AF
330
1A
100
AcDbEntity
  8
ZUWAKU
100
AcDbLine
 10
22.84221215478112
 20
17.475
 30
0.0
 11
22.84221215478112
 21
18.76520202535534
 31
0.0
  0
LINE
  5
2B0
330
1A
100
AcDbEntity
  8
ZUWAKU
100
AcDbLine
 10
24.41206063576464
 20
21.73505050633882
 30
0.0
 11
21.50226266111997
 21
24.64484848098349
 31
0.0
  0
ARC
  5
2B1
330
1A
100
AcDbEntity
  8
ZUWAKU
100
AcDbCircle
 10
21.44221215478114
 20
18.7652020253553
 30
0.0
 40
4.199999999999998
100
AcDbArc
 50
0.0
 51
44.9999999999996
  0
ARC
  5
2B2
330
1A
100
AcDbEntity
  8
ZUWAKU
100
AcDbCircle
 10
65.89221215478119
 20
17.99999999999999
 30
0.0
 40
1.049999999999998
100
AcDbArc
 50
180.0
 51
270.0
  0
LINE
  5
2B3
330
1A
100
AcDbEntity
  8
ZUWAKU
100
AcDbLine
 10
64.84221215478112
 20
14.15
 30
0.0
 11
68.34221215478113
 21
14.15
 31
0.0
  0
ARC
  5
2B4
330
1A
100
AcDbEntity
  8
ZUWAKU
100
AcDbCircle
 10
64.84221215478112
 20
16.95
 30
0.0
 40
2.799999999999998
100
AcDbArc
 50
180.0
 51
270.0
  0
ARC
  5
2B5
330
1A
100
AcDbEntity
  8
ZUWAKU
100
AcDbCircle
 10
57.14221215478119
 20
16.95
 30
0.0
 40
2.799999999999998
100
AcDbArc
 50
270.0
 51
0.0
  0
LINE
  5
2B6
330
1A
100
AcDbEntity
  8
ZUWAKU
100
AcDbLine
 10
48.21721215478112
 20
14.15
 30
0.0
 11
49.96721215478112
 21
14.15
 31
0.0
  0
ARC
  5
2B7
330
1A
100
AcDbEntity
  8
ZUWAKU
100
AcDbCircle
 10
43.17697799129246
 20
14.675
 30
0.0
 40
0.525
100
AcDbArc
 50
197.5255683737225
 51
270.0
  0
LINE
  5
2B8
330
1A
100
AcDbEntity
  8
ZUWAKU
100
AcDbLine
 10
45.37649827009693
 20
14.83309396816697
 30
0.0
 11
43.05010689162327
 21
22.20000000000001
 31
0.0
  0
ARC
  5
2B9
330
1A
100
AcDbEntity
  8
ZUWAKU
100
AcDbCircle
 10
44.87586737090146
 20
14.675
 30
0.0
 40
0.525
100
AcDbArc
 50
270.0
 51
17.52556837372259
  0
LINE
  5
2BA
330
1A
100
AcDbEntity
  8
ZUWAKU
100
AcDbLine
 10
43.17697799129246
 20
14.15
 30
0.0
 11
44.87586737090146
 21
14.15
 31
0.0
  0
ARC
  5
2BB
330
1A
100
AcDbEntity
  8
ZUWAKU
100
AcDbCircle
 10
48.21721215478112
 20
14.675
 30
0.0
 40
0.525
100
AcDbArc
 50
180.0
 51
270.0
  0
ARC
  5
2BC
330
1A
100
AcDbEntity
  8
ZUWAKU
100
AcDbCircle
 10
40.16721215478116
 20
20.27499999999999
 30
0.0
 40
0.525
100
AcDbArc
 50
90.0
 51
180.0
  0
ARC
  5
2BD
330
1A
100
AcDbEntity
  8
ZUWAKU
100
AcDbCircle
 10
40.30744631826985
 20
20.27499999999999
 30
0.0
 40
0.525
100
AcDbArc
 50
17.52556837372259
 51
90.0
  0
ARC
  5
2BE
330
1A
100
AcDbEntity
  8
ZUWAKU
100
AcDbCircle
 10
37.3672121547811
 20
14.675
 30
0.0
 40
0.525
100
AcDbArc
 50
180.0
 51
270.0
  0
ARC
  5
2BF
330
1A
100
AcDbEntity
  8
ZUWAKU
100
AcDbCircle
 10
33.8672121547811
 20
16.425
 30
0.0
 40
0.525
100
AcDbArc
 50
0.0
 51
90.0
  0
ARC
  5
2C0
330
1A
100
AcDbEntity
  8
ZUWAKU
100
AcDbCircle
 10
33.8672121547811
 20
14.675
 30
0.0
 40
0.525
100
AcDbArc
 50
270.0
 51
0.0
  0
LINE
  5
2C1
330
1A
100
AcDbEntity
  8
ZUWAKU
100
AcDbLine
 10
34.39221215478119
 20
16.425
 30
0.0
 11
34.39221215478119
 21
14.675
 31
0.0
  0
LINE
  5
2C2
330
1A
100
AcDbEntity
  8
ZUWAKU
100
AcDbLine
 10
39.64221215478119
 20
14.675
 30
0.0
 11
39.64221215478119
 21
20.27499999999999
 31
0.0
  0
ARC
  5
2C3
330
1A
100
AcDbEntity
  8
ZUWAKU
100
AcDbCircle
 10
39.1172121547811
 20
14.675
 30
0.0
 40
0.525
100
AcDbArc
 50
270.0
 51
0.0
  0
LINE
  5
2C4
330
1A
100
AcDbEntity
  8
ZUWAKU
100
AcDbLine
 10
37.3672121547811
 20
14.15
 30
0.0
 11
39.1172121547811
 21
14.15
 31
0.0
  0
ARC
  5
2C5
330
1A
100
AcDbEntity
  8
ZUWAKU
100
AcDbCircle
 10
40.16721215478116
 20
24.125
 30
0.0
 40
0.525
100
AcDbArc
 50
180.0
 51
270.0
  0
LINE
  5
2C6
330
1A
100
AcDbEntity
  8
ZUWAKU
100
AcDbLine
 10
40.16721215478116
 20
20.79999999999999
 30
0.0
 11
40.30744631826985
 21
20.79999999999999
 31
0.0
  0
LINE
  5
2C7
330
1A
100
AcDbEntity
  8
ZUWAKU
100
AcDbLine
 10
40.30744631826985
 20
23.59999999999999
 30
0.0
 11
40.16721215478116
 21
23.59999999999999
 31
0.0
  0
ARC
  5
2C8
330
1A
100
AcDbEntity
  8
ZUWAKU
100
AcDbCircle
 10
40.30744631826985
 20
24.125
 30
0.0
 40
0.525
100
AcDbArc
 50
270.0
 51
342.4744316262773
  0
LINE
  5
2C9
330
1A
100
AcDbEntity
  8
ZUWAKU
100
AcDbLine
 10
42.67634709209699
 20
14.51690603183303
 30
0.0
 11
40.80807721746521
 21
20.43309396816697
 31
0.0
  0
ARC
  5
2CA
330
1A
100
AcDbEntity
  8
ZUWAKU
100
AcDbCircle
 10
55.7422121547811
 20
18.7652020253553
 30
0.0
 40
4.199999999999998
100
AcDbArc
 50
0.0
 51
44.9999999999996
  0
LINE
  5
2CB
330
1A
100
AcDbEntity
  8
ZUWAKU
100
AcDbLine
 10
59.94221215478114
 20
16.95
 30
0.0
 11
59.94221215478114
 21
18.76520202535534
 31
0.0
  0
ARC
  5
2CC
330
1A
100
AcDbEntity
  8
ZUWAKU
100
AcDbCircle
 10
56.79221215478117
 20
25.63479797464469
 30
0.0
 40
4.199999999999998
100
AcDbArc
 50
180.0
 51
224.9999999999996
  0
ARC
  5
2CD
330
1A
100
AcDbEntity
  8
ZUWAKU
100
AcDbCircle
 10
56.79221215478117
 20
25.63479797464469
 30
0.0
 40
1.399999999999999
100
AcDbArc
 50
180.0000000000015
 51
224.9999999999995
  0
LINE
  5
2CE
330
1A
100
AcDbEntity
  8
ZUWAKU
100
AcDbLine
 10
53.82236367379767
 20
22.66494949366117
 30
0.0
 11
56.73216164844234
 21
19.75515151901651
 31
0.0
  0
LINE
  5
2CF
330
1A
100
AcDbEntity
  8
ZUWAKU
100
AcDbLine
 10
53.64221215478119
 20
14.15
 30
0.0
 11
57.14221215478119
 21
14.15
 31
0.0
  0
LINE
  5
2D0
330
1A
100
AcDbEntity
  8
ZUWAKU
100
AcDbLine
 10
53.64221215478119
 20
16.95
 30
0.0
 11
56.6172121547811
 21
16.95
 31
0.0
  0
ARC
  5
2D1
330
1A
100
AcDbEntity
  8
ZUWAKU
100
AcDbCircle
 10
53.64221215478119
 20
16.425
 30
0.0
 40
0.525
100
AcDbArc
 50
90.0
 51
180.0
  0
ARC
  5
2D2
330
1A
100
AcDbEntity
  8
ZUWAKU
100
AcDbCircle
 10
49.96721215478112
 20
14.675
 30
0.0
 40
0.525
100
AcDbArc
 50
270.0
 51
0.0
  0
ARC
  5
2D3
330
1A
100
AcDbEntity
  8
ZUWAKU
100
AcDbCircle
 10
53.64221215478119
 20
14.675
 30
0.0
 40
0.525
100
AcDbArc
 50
180.0
 51
270.0
  0
LINE
  5
2D4
330
1A
100
AcDbEntity
  8
ZUWAKU
100
AcDbLine
 10
53.1172121547811
 20
14.675
 30
0.0
 11
53.1172121547811
 21
16.425
 31
0.0
  0
ARC
  5
2D5
330
1A
100
AcDbEntity
  8
ZUWAKU
100
AcDbCircle
 10
56.6172121547811
 20
17.475
 30
0.0
 40
0.525
100
AcDbArc
 50
270.0
 51
0.0
  0
ARC
  5
2D6
330
1A
100
AcDbEntity
  8
ZUWAKU
100
AcDbCircle
 10
55.7422121547811
 20
18.76520202535534
 30
0.0
 40
1.399999999999999
100
AcDbArc
 50
0.0
 51
44.9999999999996
  0
LINE
  5
2D7
330
1A
100
AcDbEntity
  8
ZUWAKU
100
AcDbLine
 10
57.14221215478119
 20
17.475
 30
0.0
 11
57.14221215478119
 21
18.76520202535534
 31
0.0
  0
LINE
  5
2D8
330
1A
100
AcDbEntity
  8
ZUWAKU
100
AcDbLine
 10
58.71206063576472
 20
21.73505050633882
 30
0.0
 11
55.80226266111992
 21
24.64484848098349
 31
0.0
  0
ARC
  5
2D9
330
1A
100
AcDbEntity
  8
ZUWAKU
100
AcDbCircle
 10
68.34221215478113
 20
16.95
 30
0.0
 40
2.799999999999998
100
AcDbArc
 50
270.0
 51
0.0
  0
ARC
  5
2DA
330
1A
100
AcDbEntity
  8
ZUWAKU
100
AcDbCircle
 10
75.51721215478119
 20
14.675
 30
0.0
 40
0.525
100
AcDbArc
 50
270.0
 51
0.0
  0
ARC
  5
2DB
330
1A
100
AcDbEntity
  8
ZUWAKU
100
AcDbCircle
 10
67.29221215478117
 20
17.99999999999999
 30
0.0
 40
1.049999999999998
100
AcDbArc
 50
270.0
 51
0.0
  0
ARC
  5
2DC
330
1A
100
AcDbEntity
  8
ZUWAKU
100
AcDbCircle
 10
73.76721215478119
 20
14.675
 30
0.0
 40
0.525
100
AcDbArc
 50
180.0
 51
270.0
  0
LINE
  5
2DD
330
1A
100
AcDbEntity
  8
ZUWAKU
100
AcDbLine
 10
73.76721215478119
 20
14.15
 30
0.0
 11
75.51721215478119
 21
14.15
 31
0.0
  0
LINE
  5
2DE
330
1A
100
AcDbEntity
  8
ZUWAKU
100
AcDbLine
 10
67.29221215478117
 20
16.95
 30
0.0
 11
65.89221215478119
 21
16.95
 31
0.0
  0
TEXT
  5
2DF
330
1A
100
AcDbEntity
  8
MOJI
100
AcDbText
 10
94.3963057554165
 20
19.88005124007306
 30
0.0
 40
5.599999999999998
  1
ﾕﾆｼｪｲﾌﾟ
 41
0.9
  7
MSPｺ_ｼｯｸ
100
AcDbText
  0
LINE
  5
2E0
330
1A
100
AcDbEntity
  8
ZUWAKU
100
AcDbLine
 10
33.8672121547811
 20
27.44999999999999
 30
0.0
 11
31.94221215478114
 21
27.44999999999999
 31
0.0
  0
LINE
  5
2E1
330
1A
100
AcDbEntity
  8
ZUWAKU
100
AcDbLine
 10
31.94221215478114
 20
30.24999999999995
 30
0.0
 11
33.8672121547811
 21
30.24999999999999
 31
0.0
  0
LINE
  5
2E2
330
1A
100
AcDbEntity
  8
ZUWAKU
100
AcDbLine
 10
21.09221215478112
 20
30.24999999999999
 30
0.0
 11
24.59221215478112
 21
30.24999999999999
 31
0.0
  0
ARC
  5
2E3
330
1A
100
AcDbEntity
  8
ZUWAKU
100
AcDbCircle
 10
24.59221215478112
 20
29.725
 30
0.0
 40
0.525
100
AcDbArc
 50
0.0
 51
90.0
  0
ARC
  5
2E4
330
1A
100
AcDbEntity
  8
ZUWAKU
100
AcDbCircle
 10
31.94221215478114
 20
26.04999999999999
 30
0.0
 40
1.399999999999999
100
AcDbArc
 50
90.0
 51
180.0
  0
LINE
  5
2E5
330
1A
100
AcDbEntity
  8
ZUWAKU
100
AcDbLine
 10
24.59221215478112
 20
27.44999999999999
 30
0.0
 11
21.6172121547811
 21
27.44999999999999
 31
0.0
  0
ARC
  5
2E6
330
1A
100
AcDbEntity
  8
ZUWAKU
100
AcDbCircle
 10
21.6172121547811
 20
26.92499999999999
 30
0.0
 40
0.525
100
AcDbArc
 50
90.0
 51
180.0
  0
ARC
  5
2E7
330
1A
100
AcDbEntity
  8
ZUWAKU
100
AcDbCircle
 10
24.59221215478112
 20
27.97499999999999
 30
0.0
 40
0.525
100
AcDbArc
 50
270.0
 51
0.0
  0
ARC
  5
2E8
330
1A
100
AcDbEntity
  8
ZUWAKU
100
AcDbCircle
 10
21.09221215478112
 20
27.44999999999999
 30
0.0
 40
2.799999999999998
100
AcDbArc
 50
90.0
 51
180.0
  0
ARC
  5
2E9
330
1A
100
AcDbEntity
  8
ZUWAKU
100
AcDbCircle
 10
31.94221215478114
 20
26.04999999999995
 30
0.0
 40
4.199999999999998
100
AcDbArc
 50
90.0
 51
180.0
  0
LINE
  5
2EA
330
1A
100
AcDbEntity
  8
ZUWAKU
100
AcDbLine
 10
25.1172121547811
 20
29.725
 30
0.0
 11
25.1172121547811
 21
27.97499999999999
 31
0.0
  0
LINE
  5
2EB
330
1A
100
AcDbEntity
  8
ZUWAKU
100
AcDbLine
 10
49.96721215478112
 20
30.24999999999999
 30
0.0
 11
48.21721215478112
 21
30.24999999999999
 31
0.0
  0
ARC
  5
2EC
330
1A
100
AcDbEntity
  8
ZUWAKU
100
AcDbCircle
 10
43.17697799129246
 20
29.725
 30
0.0
 40
0.525
100
AcDbArc
 50
90.0
 51
162.4744316262773
  0
ARC
  5
2ED
330
1A
100
AcDbEntity
  8
ZUWAKU
100
AcDbCircle
 10
44.87586737090146
 20
29.725
 30
0.0
 40
0.525
100
AcDbArc
 50
342.4744316262773
 51
90.0
  0
LINE
  5
2EE
330
1A
100
AcDbEntity
  8
ZUWAKU
100
AcDbLine
 10
43.17697799129246
 20
30.24999999999999
 30
0.0
 11
44.87586737090146
 21
30.24999999999999
 31
0.0
  0
ARC
  5
2EF
330
1A
100
AcDbEntity
  8
ZUWAKU
100
AcDbCircle
 10
48.21721215478112
 20
29.725
 30
0.0
 40
0.525
100
AcDbArc
 50
90.0
 51
180.0
  0
ARC
  5
2F0
330
1A
100
AcDbEntity
  8
ZUWAKU
100
AcDbCircle
 10
37.3672121547811
 20
29.725
 30
0.0
 40
0.525
100
AcDbArc
 50
90.0
 51
180.0
  0
ARC
  5
2F1
330
1A
100
AcDbEntity
  8
ZUWAKU
100
AcDbCircle
 10
33.8672121547811
 20
29.725
 30
0.0
 40
0.525
100
AcDbArc
 50
0.0
 51
90.0
  0
LINE
  5
2F2
330
1A
100
AcDbEntity
  8
ZUWAKU
100
AcDbLine
 10
39.1172121547811
 20
30.24999999999999
 30
0.0
 11
37.3672121547811
 21
30.24999999999999
 31
0.0
  0
ARC
  5
2F3
330
1A
100
AcDbEntity
  8
ZUWAKU
100
AcDbCircle
 10
39.1172121547811
 20
29.725
 30
0.0
 40
0.525
100
AcDbArc
 50
0.0
 51
90.0
  0
ARC
  5
2F4
330
1A
100
AcDbEntity
  8
ZUWAKU
100
AcDbCircle
 10
33.8672121547811
 20
27.97499999999999
 30
0.0
 40
0.525
100
AcDbArc
 50
270.0
 51
0.0
  0
LINE
  5
2F5
330
1A
100
AcDbEntity
  8
ZUWAKU
100
AcDbLine
 10
34.39221215478119
 20
29.725
 30
0.0
 11
34.39221215478119
 21
27.97499999999999
 31
0.0
  0
LINE
  5
2F6
330
1A
100
AcDbEntity
  8
ZUWAKU
100
AcDbLine
 10
45.37649827009693
 20
29.56690603183303
 30
0.0
 11
44.31485863695911
 21
26.20504719356342
 31
0.0
  0
ARC
  5
2F7
330
1A
100
AcDbEntity
  8
ZUWAKU
100
AcDbCircle
 10
58.89221215478119
 20
29.725
 30
0.0
 40
0.525
100
AcDbArc
 50
0.0
 51
90.0
  0
LINE
  5
2F8
330
1A
100
AcDbEntity
  8
ZUWAKU
100
AcDbLine
 10
64.31721215478114
 20
30.24999999999999
 30
0.0
 11
62.56721215478115
 21
30.24999999999999
 31
0.0
  0
ARC
  5
2F9
330
1A
100
AcDbEntity
  8
ZUWAKU
100
AcDbCircle
 10
62.56721215478115
 20
29.725
 30
0.0
 40
0.525
100
AcDbArc
 50
90.0
 51
180.0
  0
ARC
  5
2FA
330
1A
100
AcDbEntity
  8
ZUWAKU
100
AcDbCircle
 10
64.31721215478114
 20
29.725
 30
0.0
 40
0.525
100
AcDbArc
 50
0.0
 51
90.0
  0
ARC
  5
2FB
330
1A
100
AcDbEntity
  8
ZUWAKU
100
AcDbCircle
 10
49.96721215478112
 20
29.725
 30
0.0
 40
0.525
100
AcDbArc
 50
0.0
 51
90.0
  0
LINE
  5
2FC
330
1A
100
AcDbEntity
  8
ZUWAKU
100
AcDbLine
 10
55.39221215478119
 20
30.24999999999999
 30
0.0
 11
58.89221215478119
 21
30.24999999999999
 31
0.0
  0
ARC
  5
2FD
330
1A
100
AcDbEntity
  8
ZUWAKU
100
AcDbCircle
 10
58.89221215478119
 20
27.97499999999999
 30
0.0
 40
0.525
100
AcDbArc
 50
270.0
 51
0.0
  0
ARC
  5
2FE
330
1A
100
AcDbEntity
  8
ZUWAKU
100
AcDbCircle
 10
55.91721215478116
 20
26.92499999999999
 30
0.0
 40
0.525
100
AcDbArc
 50
90.0
 51
180.0
  0
LINE
  5
2FF
330
1A
100
AcDbEntity
  8
ZUWAKU
100
AcDbLine
 10
58.89221215478119
 20
27.44999999999999
 30
0.0
 11
55.91721215478116
 21
27.44999999999999
 31
0.0
  0
ARC
  5
300
330
1A
100
AcDbEntity
  8
ZUWAKU
100
AcDbCircle
 10
55.39221215478119
 20
27.44999999999999
 30
0.0
 40
2.799999999999998
100
AcDbArc
 50
90.0
 51
180.0
  0
LINE
  5
301
330
1A
100
AcDbEntity
  8
ZUWAKU
100
AcDbLine
 10
59.41721215478117
 20
29.725
 30
0.0
 11
59.41721215478117
 21
27.97499999999999
 31
0.0
  0
ARC
  5
302
330
1A
100
AcDbEntity
  8
ZUWAKU
100
AcDbCircle
 10
75.51721215478119
 20
29.725
 30
0.0
 40
0.525
100
AcDbArc
 50
0.0
 51
90.0
  0
ARC
  5
303
330
1A
100
AcDbEntity
  8
ZUWAKU
100
AcDbCircle
 10
68.8672121547811
 20
29.725
 30
0.0
 40
0.525
100
AcDbArc
 50
90.0
 51
180.0
  0
LINE
  5
304
330
1A
100
AcDbEntity
  8
ZUWAKU
100
AcDbLine
 10
70.6172121547811
 20
30.24999999999999
 30
0.0
 11
68.8672121547811
 21
30.24999999999999
 31
0.0
  0
ARC
  5
305
330
1A
100
AcDbEntity
  8
ZUWAKU
100
AcDbCircle
 10
70.6172121547811
 20
29.725
 30
0.0
 40
0.525
100
AcDbArc
 50
0.0
 51
90.0
  0
ARC
  5
306
330
1A
100
AcDbEntity
  8
ZUWAKU
100
AcDbCircle
 10
73.76721215478119
 20
29.725
 30
0.0
 40
0.525
100
AcDbArc
 50
90.0
 51
180.0
  0
LINE
  5
307
330
1A
100
AcDbEntity
  8
ZUWAKU
100
AcDbLine
 10
75.51721215478119
 20
30.24999999999999
 30
0.0
 11
73.76721215478119
 21
30.24999999999999
 31
0.0
  0
TEXT
  5
308
330
1A
100
AcDbEntity
  8
ZUWAKU
100
AcDbText
 10
216.7240463122773
 20
31.05535653838558
 30
0.0
 40
4.0
  1
品名
 41
0.9
  7
MSPｺ_ｼｯｸ
100
AcDbText
  0
LINE
  5
309
330
1A
100
AcDbEntity
  8
ZUWAKU
100
AcDbLine
 10
454.4243639709914
 20
37.0
 30
0.0
 11
454.4243639709914
 21
7.800000000000068
 31
0.0
  0
LINE
  5
30A
330
1A
100
AcDbEntity
  8
ZUWAKU
100
AcDbLine
 10
454.8243639709912
 20
37.0
 30
0.0
 11
454.8243639709915
 21
7.800000000000068
 31
0.0
  0
LINE
  5
30B
330
1A
100
AcDbEntity
  8
ZUWAKU
100
AcDbLine
 10
454.6243639709912
 20
37.0
 30
0.0
 11
454.6243639709914
 21
7.800000000000068
 31
0.0
  0
TEXT
  5
30C
330
1A
100
AcDbEntity
  8
MOJI
100
AcDbText
 10
245.2787949951864
 20
13.2015047093878
 30
0.0
 40
5.599999999999998
  1
ＵＳＴ１４０－０－１０
 41
0.9
  7
MSPｺ_ｼｯｸ
100
AcDbText
  0
TEXT
  5
30D
330
1A
100
AcDbEntity
  8
MOJI
100
AcDbText
 10
244.8787949951865
 20
27.60150470938777
 30
0.0
 40
5.599999999999998
  1
ブラケット正面打（吊）固定式
 41
0.9
  7
MSPｺ_ｼｯｸ
100
AcDbText
  0
TEXT
  5
30E
330
1A
100
AcDbEntity
  8
ZUWAKU
100
AcDbText
 10
456.3018089932008
 20
31.05535653838558
 30
0.0
 40
4.0
  1
品番
 41
0.9
  7
MSPｺ_ｼｯｸ
100
AcDbText
  0
TEXT
  5
30F
330
1A
100
AcDbEntity
  8
ZUWAKU
100
AcDbText
 10
715.5280841922436
 20
13.64884031385406
 30
0.0
 40
6.0
  1
建材事業部
 41
0.9
  7
MSPｺ_ｼｯｸ
100
AcDbText
  0
TEXT
  5
310
330
1A
100
AcDbEntity
  8
ZUWAKU
100
AcDbText
 10
715.5280841922436
 20
24.55383933568679
 30
0.0
 40
6.0
  1
積水化学工業株式会社
 41
0.9
  7
MSPｺ_ｼｯｸ
100
AcDbText
  0
LINE
  5
311
330
1A
100
AcDbEntity
  8
ZUWAKU
100
AcDbLine
 10
704.8490105485411
 20
37.0
 30
0.0
 11
704.8490105485411
 21
7.800000000000068
 31
0.0
  0
LINE
  5
312
330
1A
100
AcDbEntity
  8
ZUWAKU
100
AcDbLine
 10
704.649010548541
 20
37.0
 30
0.0
 11
704.6490105485413
 21
7.800000000000068
 31
0.0
  0
LINE
  5
313
330
1A
100
AcDbEntity
  8
ZUWAKU
100
AcDbLine
 10
704.4490105485412
 20
37.0
 30
0.0
 11
704.4490105485412
 21
7.800000000000068
 31
0.0
  0
LINE
  5
314
330
1A
100
AcDbEntity
  8
ZUWAKU
100
AcDbLine
 10
704.2490105485413
 20
37.0
 30
0.0
 11
704.2490105485413
 21
7.800000000000068
 31
0.0
  0
LINE
  5
315
330
1A
100
AcDbEntity
  8
ZUWAKU
100
AcDbLine
 10
655.4172025102046
 20
37.0
 30
0.0
 11
655.4172025102046
 21
7.800000000000068
 31
0.0
  0
LINE
  5
316
330
1A
100
AcDbEntity
  8
ZUWAKU
100
AcDbLine
 10
655.8172025102044
 20
37.0
 30
0.0
 11
655.8172025102049
 21
7.800000000000068
 31
0.0
  0
LINE
  5
317
330
1A
100
AcDbEntity
  8
ZUWAKU
100
AcDbLine
 10
655.6172025102041
 20
37.0
 30
0.0
 11
655.6172025102045
 21
7.800000000000068
 31
0.0
  0
LINE
  5
318
330
1A
100
AcDbEntity
  8
ZUWAKU
100
AcDbLine
 10
559.5269557661124
 20
37.0
 30
0.0
 11
559.5269557661124
 21
7.800000000000068
 31
0.0
  0
LINE
  5
319
330
1A
100
AcDbEntity
  8
ZUWAKU
100
AcDbLine
 10
559.9269557661123
 20
37.0
 30
0.0
 11
559.9269557661123
 21
7.800000000000068
 31
0.0
  0
LINE
  5
31A
330
1A
100
AcDbEntity
  8
ZUWAKU
100
AcDbLine
 10
559.7269557661125
 20
37.0
 30
0.0
 11
559.7269557661125
 21
7.800000000000068
 31
0.0
  0
TEXT
  5
31B
330
1A
100
AcDbEntity
  8
MOJI
100
AcDbText
 10
535.0409079723128
 20
25.00492105740738
 30
0.0
 40
5.599999999999998
  1
Ａ３
 41
0.9
  7
MSPｺ_ｼｯｸ
100
AcDbText
  0
LINE
  5
31C
330
1A
100
AcDbEntity
  8
ZUWAKU
100
AcDbLine
 10
511.799179498141
 20
37.0
 30
0.0
 11
511.799179498141
 21
7.800000000000068
 31
0.0
  0
LINE
  5
31D
330
1A
100
AcDbEntity
  8
ZUWAKU
100
AcDbLine
 10
512.1991794981409
 20
37.0
 30
0.0
 11
512.199179498141
 21
7.800000000000068
 31
0.0
  0
LINE
  5
31E
330
1A
100
AcDbEntity
  8
ZUWAKU
100
AcDbLine
 10
511.9991794981408
 20
37.0
 30
0.0
 11
511.9991794981411
 21
7.800000000000068
 31
0.0
  0
TEXT
  5
31F
330
1A
100
AcDbEntity
  8
ZUWAKU
100
AcDbText
 10
661.5120759996869
 20
25.00492105740738
 30
0.0
 40
5.599999999999998
  1
　　．　．　　
 41
0.9
  7
MSPｺ_ｼｯｸ
100
AcDbText
  0
LINE
  5
320
330
1A
100
AcDbEntity
  8
ZUWAKU
100
AcDbLine
 10
512.1991794981409
 20
22.60000000000002
 30
0.0
 11
559.5269557661124
 21
22.60000000000002
 31
0.0
  0
LINE
  5
321
330
1A
100
AcDbEntity
  8
ZUWAKU
100
AcDbLine
 10
512.1991794981409
 20
22.40000000000002
 30
0.0
 11
559.5269557661124
 21
22.40000000000002
 31
0.0
  0
LINE
  5
322
330
1A
100
AcDbEntity
  8
ZUWAKU
100
AcDbLine
 10
512.1991794981409
 20
22.20000000000003
 30
0.0
 11
559.5269557661124
 21
22.20000000000003
 31
0.0
  0
TEXT
  5
323
330
1A
100
AcDbEntity
  8
ZUWAKU
100
AcDbText
 10
513.6766245203507
 20
16.65535653838561
 30
0.0
 40
4.0
  1
縮尺
 41
0.9
  7
MSPｺ_ｼｯｸ
100
AcDbText
  0
TEXT
  5
324
330
1A
100
AcDbEntity
  8
MOJI
100
AcDbText
 10
535.0409079723128
 20
10.20492105740742
 30
0.0
 40
5.599999999999998
  1
１/２
 41
0.9
  7
MSPｺ_ｼｯｸ
100
AcDbText
  0
LINE
  5
325
330
1A
100
AcDbEntity
  8
ZUWAKU
100
AcDbLine
 10
655.8172025102042
 20
22.60000000000002
 30
0.0
 11
704.2490105485413
 21
22.60000000000002
 31
0.0
  0
LINE
  5
326
330
1A
100
AcDbEntity
  8
ZUWAKU
100
AcDbLine
 10
655.8172025102044
 20
22.40000000000003
 30
0.0
 11
704.2490105485413
 21
22.40000000000002
 31
0.0
  0
LINE
  5
327
330
1A
100
AcDbEntity
  8
ZUWAKU
100
AcDbLine
 10
655.8172025102042
 20
22.20000000000002
 30
0.0
 11
704.2490105485413
 21
22.20000000000002
 31
0.0
  0
TEXT
  5
328
330
1A
100
AcDbEntity
  8
ZUWAKU
100
AcDbText
 10
513.6766245203505
 20
31.05535653838558
 30
0.0
 40
4.0
  1
用紙
 41
0.9
  7
MSPｺ_ｼｯｸ
100
AcDbText
  0
TEXT
  5
329
330
1A
100
AcDbEntity
  8
ZUWAKU
100
AcDbText
 10
657.2946475324138
 20
31.05535653838558
 30
0.0
 40
4.0
  1
DATE
 41
0.9
  7
MSPｺ_ｼｯｸ
100
AcDbText
  0
POINT
  5
1056
330
1A
100
AcDbEntity
  8
SEIHIN
100
AcDbPoint
 10
1711.400763290751
 20
217.11344014311
 30
0.0
  0
POINT
  5
10BB
330
1A
100
AcDbEntity
  8
SEIHIN
100
AcDbPoint
 10
1704.800763290751
 20
250.2134401431161
 30
0.0
  0
POLYLINE
  5
8A6C
330
1A
100
AcDbEntity
  8
SEIHIN
100
AcDb2dPolyline
 66
     1
 10
0.0
 20
0.0
 30
0.0
  0
VERTEX
  5
B204
330
8A6C
100
AcDbEntity
  8
SEIHIN
100
AcDbVertex
100
AcDb2dVertex
 10
303.1705671639938
 20
125.2758624350232
 30
0.0
  0
VERTEX
  5
B205
330
8A6C
100
AcDbEntity
  8
SEIHIN
100
AcDbVertex
100
AcDb2dVertex
 10
303.0717386256374
 20
129.9365171772969
 30
0.0
  0
VERTEX
  5
B206
330
8A6C
100
AcDbEntity
  8
SEIHIN
100
AcDbVertex
100
AcDb2dVertex
 10
302.9707793540162
 20
134.7060634416182
 30
0.0
  0
SEQEND
  5
B207
330
8A6C
100
AcDbEntity
  8
SEIHIN
  0
POLYLINE
  5
8A6D
330
1A
100
AcDbEntity
  8
SEIHIN
100
AcDb2dPolyline
 66
     1
 10
0.0
 20
0.0
 30
0.0
  0
VERTEX
  5
B208
330
8A6D
100
AcDbEntity
  8
SEIHIN
100
AcDbVertex
100
AcDb2dVertex
 10
309.6793942426711
 20
127.1522206443506
 30
0.0
  0
VERTEX
  5
B209
330
8A6D
100
AcDbEntity
  8
SEIHIN
100
AcDbVertex
100
AcDb2dVertex
 10
309.5686771577354
 20
127.0522121584457
 30
0.0
  0
VERTEX
  5
B20A
330
8A6D
100
AcDbEntity
  8
SEIHIN
100
AcDbVertex
100
AcDb2dVertex
 10
309.5533422380792
 20
126.8946814089217
 30
0.0
  0
VERTEX
  5
B20B
330
8A6D
100
AcDbEntity
  8
SEIHIN
100
AcDbVertex
100
AcDb2dVertex
 10
309.6485332975853
 20
126.6053272738135
 30
0.0
  0
VERTEX
  5
B20C
330
8A6D
100
AcDbEntity
  8
SEIHIN
100
AcDbVertex
100
AcDb2dVertex
 10
309.9072774732435
 20
126.1282168445461
 30
0.0
  0
VERTEX
  5
B20D
330
8A6D
100
AcDbEntity
  8
SEIHIN
100
AcDbVertex
100
AcDb2dVertex
 10
310.3560852288055
 20
125.4207097128331
 30
0.0
  0
VERTEX
  5
B20E
330
8A6D
100
AcDbEntity
  8
SEIHIN
100
AcDbVertex
100
AcDb2dVertex
 10
310.4454745736459
 20
125.2833648637262
 30
0.0
  0
VERTEX
  5
B20F
330
8A6D
100
AcDbEntity
  8
SEIHIN
100
AcDbVertex
100
AcDb2dVertex
 10
310.4503549755663
 20
125.2758624350234
 30
0.0
  0
SEQEND
  5
B210
330
8A6D
100
AcDbEntity
  8
SEIHIN
  0
POLYLINE
  5
8A6E
330
1A
100
AcDbEntity
  8
SEIHIN
100
AcDb2dPolyline
 66
     1
 10
0.0
 20
0.0
 30
0.0
  0
VERTEX
  5
B211
330
8A6E
100
AcDbEntity
  8
SEIHIN
100
AcDbVertex
100
AcDb2dVertex
 10
310.1777307535269
 20
144.1013915291323
 30
0.0
  0
VERTEX
  5
B212
330
8A6E
100
AcDbEntity
  8
SEIHIN
100
AcDbVertex
100
AcDb2dVertex
 10
310.1729897902473
 20
144.0937918580748
 30
0.0
  0
VERTEX
  5
B213
330
8A6E
100
AcDbEntity
  8
SEIHIN
100
AcDbVertex
100
AcDb2dVertex
 10
310.1060293732519
 20
143.986562321695
 30
0.0
  0
VERTEX
  5
B214
330
8A6E
100
AcDbEntity
  8
SEIHIN
100
AcDbVertex
100
AcDb2dVertex
 10
309.6742045386283
 20
143.2808984881984
 30
0.0
  0
VERTEX
  5
B215
330
8A6E
100
AcDbEntity
  8
SEIHIN
100
AcDbVertex
100
AcDb2dVertex
 10
309.4206105376474
 20
142.8000931516395
 30
0.0
  0
VERTEX
  5
B216
330
8A6E
100
AcDbEntity
  8
SEIHIN
100
AcDbVertex
100
AcDb2dVertex
 10
309.327128029367
 20
142.5082647582847
 30
0.0
  0
VERTEX
  5
B217
330
8A6E
100
AcDbEntity
  8
SEIHIN
100
AcDbVertex
100
AcDb2dVertex
 10
309.3440027381948
 20
142.3510793136034
 30
0.0
  0
VERTEX
  5
B218
330
8A6E
100
AcDbEntity
  8
SEIHIN
100
AcDbVertex
100
AcDb2dVertex
 10
309.4570918529429
 20
142.2534339779617
 30
0.0
  0
SEQEND
  5
B219
330
8A6E
100
AcDbEntity
  8
SEIHIN
  0
POLYLINE
  5
8A6F
330
1A
100
AcDbEntity
  8
SEIHIN
100
AcDb2dPolyline
 66
     1
 10
0.0
 20
0.0
 30
0.0
  0
VERTEX
  5
B21A
330
8A6F
100
AcDbEntity
  8
SEIHIN
100
AcDbVertex
100
AcDb2dVertex
 10
302.9726235925245
 20
134.7060634416182
 30
0.0
  0
VERTEX
  5
B21B
330
8A6F
100
AcDbEntity
  8
SEIHIN
100
AcDbVertex
100
AcDb2dVertex
 10
303.1245224752369
 20
139.4853612068441
 30
0.0
  0
VERTEX
  5
B21C
330
8A6F
100
AcDbEntity
  8
SEIHIN
100
AcDbVertex
100
AcDb2dVertex
 10
303.2716205606502
 20
144.1013915291323
 30
0.0
  0
SEQEND
  5
B21D
330
8A6F
100
AcDbEntity
  8
SEIHIN
  0
POLYLINE
  5
8A72
330
1A
100
AcDbEntity
  8
SEIHIN
100
AcDb2dPolyline
 66
     1
 10
0.0
 20
0.0
 30
0.0
  0
VERTEX
  5
B21E
330
8A72
100
AcDbEntity
  8
SEIHIN
100
AcDbVertex
100
AcDb2dVertex
 10
142.6673131053148
 20
326.0366537903809
 30
0.0
  0
VERTEX
  5
B21F
330
8A72
100
AcDbEntity
  8
SEIHIN
100
AcDbVertex
100
AcDb2dVertex
 10
142.5954546903958
 20
325.6700347320328
 30
0.0
  0
VERTEX
  5
B220
330
8A72
100
AcDbEntity
  8
SEIHIN
100
AcDbVertex
100
AcDb2dVertex
 10
142.3882910939832
 20
325.2026699135358
 30
0.0
  0
VERTEX
  5
B221
330
8A72
100
AcDbEntity
  8
SEIHIN
100
AcDbVertex
100
AcDb2dVertex
 10
141.9950148745165
 20
324.5401788423289
 30
0.0
  0
VERTEX
  5
B222
330
8A72
100
AcDbEntity
  8
SEIHIN
100
AcDbVertex
100
AcDb2dVertex
 10
141.4697727619279
 20
323.7765842487299
 30
0.0
  0
VERTEX
  5
B223
330
8A72
100
AcDbEntity
  8
SEIHIN
100
AcDbVertex
100
AcDb2dVertex
 10
140.6328062147959
 20
322.6608612439961
 30
0.0
  0
VERTEX
  5
B224
330
8A72
100
AcDbEntity
  8
SEIHIN
100
AcDbVertex
100
AcDb2dVertex
 10
139.6690263904909
 20
321.4397192399873
 30
0.0
  0
VERTEX
  5
B225
330
8A72
100
AcDbEntity
  8
SEIHIN
100
AcDbVertex
100
AcDb2dVertex
 10
138.7802873071971
 20
320.3392012614531
 30
0.0
  0
VERTEX
  5
B226
330
8A72
100
AcDbEntity
  8
SEIHIN
100
AcDbVertex
100
AcDb2dVertex
 10
137.8530759276072
 20
319.1996187662935
 30
0.0
  0
VERTEX
  5
B227
330
8A72
100
AcDbEntity
  8
SEIHIN
100
AcDbVertex
100
AcDb2dVertex
 10
137.8418105888274
 20
319.1857753704585
 30
0.0
  0
SEQEND
  5
B228
330
8A72
100
AcDbEntity
  8
SEIHIN
  0
POLYLINE
  5
8A74
330
1A
100
AcDbEntity
  8
SEIHIN
100
AcDb2dPolyline
 66
     1
 10
0.0
 20
0.0
 30
0.0
  0
VERTEX
  5
B229
330
8A74
100
AcDbEntity
  8
SEIHIN
100
AcDbVertex
100
AcDb2dVertex
 10
297.2642824047766
 20
319.532819980716
 30
0.0
  0
VERTEX
  5
B22A
330
8A74
100
AcDbEntity
  8
SEIHIN
100
AcDbVertex
100
AcDb2dVertex
 10
296.6029120503476
 20
319.4201203523148
 30
0.0
  0
VERTEX
  5
B22B
330
8A74
100
AcDbEntity
  8
SEIHIN
100
AcDbVertex
100
AcDb2dVertex
 10
296.3930111654412
 20
319.3327615647246
 30
0.0
  0
SEQEND
  5
B22C
330
8A74
100
AcDbEntity
  8
SEIHIN
  0
POLYLINE
  5
8A75
330
1A
100
AcDbEntity
  8
SEIHIN
100
AcDb2dPolyline
 66
     1
 10
0.0
 20
0.0
 30
0.0
  0
VERTEX
  5
B22D
330
8A75
100
AcDbEntity
  8
SEIHIN
100
AcDbVertex
100
AcDb2dVertex
 10
312.5217816839303
 20
306.1732838708512
 30
0.0
  0
VERTEX
  5
B22E
330
8A75
100
AcDbEntity
  8
SEIHIN
100
AcDbVertex
100
AcDb2dVertex
 10
313.3983503751562
 20
306.0420493579993
 30
0.0
  0
VERTEX
  5
B22F
330
8A75
100
AcDbEntity
  8
SEIHIN
100
AcDbVertex
100
AcDb2dVertex
 10
314.1982556279053
 20
305.6602935013788
 30
0.0
  0
SEQEND
  5
B230
330
8A75
100
AcDbEntity
  8
SEIHIN
  0
POLYLINE
  5
8A99
330
1A
100
AcDbEntity
  8
SEIHIN
100
AcDb2dPolyline
 66
     1
 10
0.0
 20
0.0
 30
0.0
  0
VERTEX
  5
B231
330
8A99
100
AcDbEntity
  8
SEIHIN
100
AcDbVertex
100
AcDb2dVertex
 10
421.8188766518615
 20
145.7091874418989
 30
0.0
  0
VERTEX
  5
B232
330
8A99
100
AcDbEntity
  8
SEIHIN
100
AcDbVertex
100
AcDb2dVertex
 10
421.6429029117753
 20
146.0447999561271
 30
0.0
  0
VERTEX
  5
B233
330
8A99
100
AcDbEntity
  8
SEIHIN
100
AcDbVertex
100
AcDb2dVertex
 10
421.5031591892916
 20
146.9608760352125
 30
0.0
  0
VERTEX
  5
B234
330
8A99
100
AcDbEntity
  8
SEIHIN
100
AcDbVertex
100
AcDb2dVertex
 10
421.4050705369793
 20
148.4072714229032
 30
0.0
  0
VERTEX
  5
B235
330
8A99
100
AcDbEntity
  8
SEIHIN
100
AcDbVertex
100
AcDb2dVertex
 10
421.354488256989
 20
150.3296143396444
 30
0.0
  0
VERTEX
  5
B236
330
8A99
100
AcDbEntity
  8
SEIHIN
100
AcDbVertex
100
AcDb2dVertex
 10
421.3517286088039
 20
152.6700069070105
 30
0.0
  0
VERTEX
  5
B237
330
8A99
100
AcDbEntity
  8
SEIHIN
100
AcDbVertex
100
AcDb2dVertex
 10
421.3972148528514
 20
155.3619353787996
 30
0.0
  0
VERTEX
  5
B238
330
8A99
100
AcDbEntity
  8
SEIHIN
100
AcDbVertex
100
AcDb2dVertex
 10
421.4885299795528
 20
158.2930121799888
 30
0.0
  0
VERTEX
  5
B239
330
8A99
100
AcDbEntity
  8
SEIHIN
100
AcDbVertex
100
AcDb2dVertex
 10
421.6224135837497
 20
161.3161042876248
 30
0.0
  0
SEQEND
  5
B23A
330
8A99
100
AcDbEntity
  8
SEIHIN
  0
POLYLINE
  5
8A9A
330
1A
100
AcDbEntity
  8
SEIHIN
100
AcDb2dPolyline
 66
     1
 10
0.0
 20
0.0
 30
0.0
  0
VERTEX
  5
B23B
330
8A9A
100
AcDbEntity
  8
SEIHIN
100
AcDbVertex
100
AcDb2dVertex
 10
421.8609488578049
 20
146.5118981164631
 30
0.0
  0
VERTEX
  5
B23C
330
8A9A
100
AcDbEntity
  8
SEIHIN
100
AcDbVertex
100
AcDb2dVertex
 10
421.8137834617261
 20
145.6119278980522
 30
0.0
  0
VERTEX
  5
B23D
330
8A9A
100
AcDbEntity
  8
SEIHIN
100
AcDbVertex
100
AcDb2dVertex
 10
421.7606934619809
 20
144.5989096588621
 30
0.0
  0
VERTEX
  5
B23E
330
8A9A
100
AcDbEntity
  8
SEIHIN
100
AcDbVertex
100
AcDb2dVertex
 10
421.7029022350907
 20
143.4961868295914
 30
0.0
  0
VERTEX
  5
B23F
330
8A9A
100
AcDbEntity
  8
SEIHIN
100
AcDbVertex
100
AcDb2dVertex
 10
421.641741490049
 20
142.3291699437811
 30
0.0
  0
VERTEX
  5
B240
330
8A9A
100
AcDbEntity
  8
SEIHIN
100
AcDbVertex
100
AcDb2dVertex
 10
421.578620581158
 20
141.1247510915675
 30
0.0
  0
SEQEND
  5
B241
330
8A9A
100
AcDbEntity
  8
SEIHIN
  0
POLYLINE
  5
8A9B
330
1A
100
AcDbEntity
  8
SEIHIN
100
AcDb2dPolyline
 66
     1
 10
0.0
 20
0.0
 30
0.0
  0
VERTEX
  5
B242
330
8A9B
100
AcDbEntity
  8
SEIHIN
100
AcDbVertex
100
AcDb2dVertex
 10
421.8609488578049
 20
146.5118981164631
 30
0.0
  0
VERTEX
  5
B243
330
8A9B
100
AcDbEntity
  8
SEIHIN
100
AcDbVertex
100
AcDb2dVertex
 10
421.8355812173122
 20
146.0278714593133
 30
0.0
  0
VERTEX
  5
B244
330
8A9B
100
AcDbEntity
  8
SEIHIN
100
AcDbVertex
100
AcDb2dVertex
 10
421.8206945284959
 20
145.743828459278
 30
0.0
  0
VERTEX
  5
B245
330
8A9B
100
AcDbEntity
  8
SEIHIN
100
AcDbVertex
100
AcDb2dVertex
 10
421.8181528405546
 20
145.6953334640784
 30
0.0
  0
VERTEX
  5
B246
330
8A9B
100
AcDbEntity
  8
SEIHIN
100
AcDbVertex
100
AcDb2dVertex
 10
421.8181074107006
 20
145.6944675926832
 30
0.0
  0
VERTEX
  5
B247
330
8A9B
100
AcDbEntity
  8
SEIHIN
100
AcDbVertex
100
AcDb2dVertex
 10
421.8188789235912
 20
145.7091894720909
 30
0.0
  0
SEQEND
  5
B248
330
8A9B
100
AcDbEntity
  8
SEIHIN
  0
POLYLINE
  5
8A9C
330
1A
100
AcDbEntity
  8
SEIHIN
100
AcDb2dPolyline
 66
     1
 10
0.0
 20
0.0
 30
0.0
  0
VERTEX
  5
B249
330
8A9C
100
AcDbEntity
  8
SEIHIN
100
AcDbVertex
100
AcDb2dVertex
 10
421.1497345080954
 20
108.1635642014826
 30
0.0
  0
VERTEX
  5
B24A
330
8A9C
100
AcDbEntity
  8
SEIHIN
100
AcDbVertex
100
AcDb2dVertex
 10
421.0688744253888
 20
111.2017701168065
 30
0.0
  0
VERTEX
  5
B24B
330
8A9C
100
AcDbEntity
  8
SEIHIN
100
AcDbVertex
100
AcDb2dVertex
 10
421.0287216930375
 20
114.1390290740428
 30
0.0
  0
VERTEX
  5
B24C
330
8A9C
100
AcDbEntity
  8
SEIHIN
100
AcDbVertex
100
AcDb2dVertex
 10
421.0302571087304
 20
116.8465771479762
 30
0.0
  0
VERTEX
  5
B24D
330
8A9C
100
AcDbEntity
  8
SEIHIN
100
AcDbVertex
100
AcDb2dVertex
 10
421.0744999911425
 20
119.1900338921541
 30
0.0
  0
VERTEX
  5
B24E
330
8A9C
100
AcDbEntity
  8
SEIHIN
100
AcDbVertex
100
AcDb2dVertex
 10
421.1595312475846
 20
121.1167843125564
 30
0.0
  0
VERTEX
  5
B24F
330
8A9C
100
AcDbEntity
  8
SEIHIN
100
AcDbVertex
100
AcDb2dVertex
 10
421.2832162410075
 20
122.5671112200051
 30
0.0
  0
VERTEX
  5
B250
330
8A9C
100
AcDbEntity
  8
SEIHIN
100
AcDbVertex
100
AcDb2dVertex
 10
421.4399349409445
 20
123.4879152547918
 30
0.0
  0
VERTEX
  5
B251
330
8A9C
100
AcDbEntity
  8
SEIHIN
100
AcDbVertex
100
AcDb2dVertex
 10
421.6226003137294
 20
123.8136632857637
 30
0.0
  0
SEQEND
  5
B252
330
8A9C
100
AcDbEntity
  8
SEIHIN
  0
POLYLINE
  5
8A9D
330
1A
100
AcDbEntity
  8
SEIHIN
100
AcDb2dPolyline
 66
     1
 10
0.0
 20
0.0
 30
0.0
  0
VERTEX
  5
B253
330
8A9D
100
AcDbEntity
  8
SEIHIN
100
AcDbVertex
100
AcDb2dVertex
 10
421.6225690328615
 20
123.8146165065969
 30
0.0
  0
VERTEX
  5
B254
330
8A9D
100
AcDbEntity
  8
SEIHIN
100
AcDbVertex
100
AcDb2dVertex
 10
422.4042886315412
 20
123.0328968702749
 30
0.0
  0
VERTEX
  5
B255
330
8A9D
100
AcDbEntity
  8
SEIHIN
100
AcDbVertex
100
AcDb2dVertex
 10
423.089650274308
 20
122.3475351846385
 30
0.0
  0
VERTEX
  5
B256
330
8A9D
100
AcDbEntity
  8
SEIHIN
100
AcDbVertex
100
AcDb2dVertex
 10
423.6670131883154
 20
121.7701722232624
 30
0.0
  0
VERTEX
  5
B257
330
8A9D
100
AcDbEntity
  8
SEIHIN
100
AcDbVertex
100
AcDb2dVertex
 10
424.1265709442093
 20
121.3106144163052
 30
0.0
  0
VERTEX
  5
B258
330
8A9D
100
AcDbEntity
  8
SEIHIN
100
AcDbVertex
100
AcDb2dVertex
 10
424.460518016976
 20
120.976667289648
 30
0.0
  0
VERTEX
  5
B259
330
8A9D
100
AcDbEntity
  8
SEIHIN
100
AcDbVertex
100
AcDb2dVertex
 10
424.6631823617063
 20
120.7740028891153
 30
0.0
  0
VERTEX
  5
B25A
330
8A9D
100
AcDbEntity
  8
SEIHIN
100
AcDbVertex
100
AcDb2dVertex
 10
424.731121752495
 20
120.7060634415598
 30
0.0
  0
SEQEND
  5
B25B
330
8A9D
100
AcDbEntity
  8
SEIHIN
  0
POLYLINE
  5
8A9F
330
1A
100
AcDbEntity
  8
SEIHIN
100
AcDb2dPolyline
 66
     1
 10
0.0
 20
0.0
 30
0.0
  0
VERTEX
  5
B25C
330
8A9F
100
AcDbEntity
  8
SEIHIN
100
AcDbVertex
100
AcDb2dVertex
 10
420.7325004496688
 20
101.6719356474097
 30
0.0
  0
VERTEX
  5
B25D
330
8A9F
100
AcDbEntity
  8
SEIHIN
100
AcDbVertex
100
AcDb2dVertex
 10
420.7301242107625
 20
102.014966494762
 30
0.0
  0
VERTEX
  5
B25E
330
8A9F
100
AcDbEntity
  8
SEIHIN
100
AcDbVertex
100
AcDb2dVertex
 10
420.7230676948609
 20
102.3789959731308
 30
0.0
  0
VERTEX
  5
B25F
330
8A9F
100
AcDbEntity
  8
SEIHIN
100
AcDbVertex
100
AcDb2dVertex
 10
420.7115453106287
 20
102.7529632310238
 30
0.0
  0
VERTEX
  5
B260
330
8A9F
100
AcDbEntity
  8
SEIHIN
100
AcDbVertex
100
AcDb2dVertex
 10
420.6959071598801
 20
103.1255054625464
 30
0.0
  0
VERTEX
  5
B261
330
8A9F
100
AcDbEntity
  8
SEIHIN
100
AcDbVertex
100
AcDb2dVertex
 10
420.6766283999122
 20
103.4853031605092
 30
0.0
  0
VERTEX
  5
B262
330
8A9F
100
AcDbEntity
  8
SEIHIN
100
AcDbVertex
100
AcDb2dVertex
 10
420.6542948060914
 20
103.8214240539262
 30
0.0
  0
VERTEX
  5
B263
330
8A9F
100
AcDbEntity
  8
SEIHIN
100
AcDbVertex
100
AcDb2dVertex
 10
420.6295849733646
 20
104.123655279536
 30
0.0
  0
VERTEX
  5
B264
330
8A9F
100
AcDbEntity
  8
SEIHIN
100
AcDbVertex
100
AcDb2dVertex
 10
420.6032496974954
 20
104.3828136944852
 30
0.0
  0
VERTEX
  5
B265
330
8A9F
100
AcDbEntity
  8
SEIHIN
100
AcDbVertex
100
AcDb2dVertex
 10
420.5760891625145
 20
104.5910249014758
 30
0.0
  0
VERTEX
  5
B266
330
8A9F
100
AcDbEntity
  8
SEIHIN
100
AcDbVertex
100
AcDb2dVertex
 10
420.5489286275335
 20
104.7419625083434
 30
0.0
  0
VERTEX
  5
B267
330
8A9F
100
AcDbEntity
  8
SEIHIN
100
AcDbVertex
100
AcDb2dVertex
 10
420.522593351664
 20
104.8310403522815
 30
0.0
  0
VERTEX
  5
B268
330
8A9F
100
AcDbEntity
  8
SEIHIN
100
AcDbVertex
100
AcDb2dVertex
 10
420.4978835189372
 20
104.8555518480775
 30
0.0
  0
VERTEX
  5
B269
330
8A9F
100
AcDbEntity
  8
SEIHIN
100
AcDbVertex
100
AcDb2dVertex
 10
420.4755499251164
 20
104.8147522263352
 30
0.0
  0
VERTEX
  5
B26A
330
8A9F
100
AcDbEntity
  8
SEIHIN
100
AcDbVertex
100
AcDb2dVertex
 10
420.4562711651488
 20
104.7098811629155
 30
0.0
  0
VERTEX
  5
B26B
330
8A9F
100
AcDbEntity
  8
SEIHIN
100
AcDbVertex
100
AcDb2dVertex
 10
420.4406330144001
 20
104.5441251120132
 30
0.0
  0
VERTEX
  5
B26C
330
8A9F
100
AcDbEntity
  8
SEIHIN
100
AcDbVertex
100
AcDb2dVertex
 10
420.4291106301679
 20
104.3225204873582
 30
0.0
  0
VERTEX
  5
B26D
330
8A9F
100
AcDbEntity
  8
SEIHIN
100
AcDbVertex
100
AcDb2dVertex
 10
420.4220541142663
 20
104.0518006333334
 30
0.0
  0
VERTEX
  5
B26E
330
8A9F
100
AcDbEntity
  8
SEIHIN
100
AcDbVertex
100
AcDb2dVertex
 10
420.41967787536
 20
103.7401912357125
 30
0.0
  0
VERTEX
  5
B26F
330
8A9F
100
AcDbEntity
  8
SEIHIN
100
AcDbVertex
100
AcDb2dVertex
 10
420.4220541142663
 20
103.3971603883603
 30
0.0
  0
VERTEX
  5
B270
330
8A9F
100
AcDbEntity
  8
SEIHIN
100
AcDbVertex
100
AcDb2dVertex
 10
420.4291106301679
 20
103.0331309099914
 30
0.0
  0
VERTEX
  5
B271
330
8A9F
100
AcDbEntity
  8
SEIHIN
100
AcDbVertex
100
AcDb2dVertex
 10
420.4406330144001
 20
102.6591636520985
 30
0.0
  0
VERTEX
  5
B272
330
8A9F
100
AcDbEntity
  8
SEIHIN
100
AcDbVertex
100
AcDb2dVertex
 10
420.4562711651488
 20
102.2866214205759
 30
0.0
  0
VERTEX
  5
B273
330
8A9F
100
AcDbEntity
  8
SEIHIN
100
AcDbVertex
100
AcDb2dVertex
 10
420.4755499251164
 20
101.9268237226131
 30
0.0
  0
VERTEX
  5
B274
330
8A9F
100
AcDbEntity
  8
SEIHIN
100
AcDbVertex
100
AcDb2dVertex
 10
420.4978835189372
 20
101.5907028291961
 30
0.0
  0
VERTEX
  5
B275
330
8A9F
100
AcDbEntity
  8
SEIHIN
100
AcDbVertex
100
AcDb2dVertex
 10
420.522593351664
 20
101.2884716035862
 30
0.0
  0
VERTEX
  5
B276
330
8A9F
100
AcDbEntity
  8
SEIHIN
100
AcDbVertex
100
AcDb2dVertex
 10
420.5489286275335
 20
101.0293131886371
 30
0.0
  0
VERTEX
  5
B277
330
8A9F
100
AcDbEntity
  8
SEIHIN
100
AcDbVertex
100
AcDb2dVertex
 10
420.5760891625145
 20
100.8211019816465
 30
0.0
  0
VERTEX
  5
B278
330
8A9F
100
AcDbEntity
  8
SEIHIN
100
AcDbVertex
100
AcDb2dVertex
 10
420.6032496974954
 20
100.6701643747788
 30
0.0
  0
VERTEX
  5
B279
330
8A9F
100
AcDbEntity
  8
SEIHIN
100
AcDbVertex
100
AcDb2dVertex
 10
420.6295849733646
 20
100.5810865308408
 30
0.0
  0
VERTEX
  5
B27A
330
8A9F
100
AcDbEntity
  8
SEIHIN
100
AcDbVertex
100
AcDb2dVertex
 10
420.6542948060914
 20
100.5565750350447
 30
0.0
  0
VERTEX
  5
B27B
330
8A9F
100
AcDbEntity
  8
SEIHIN
100
AcDbVertex
100
AcDb2dVertex
 10
420.6766283999122
 20
100.5973746567871
 30
0.0
  0
VERTEX
  5
B27C
330
8A9F
100
AcDbEntity
  8
SEIHIN
100
AcDbVertex
100
AcDb2dVertex
 10
420.6959071598801
 20
100.7022457202068
 30
0.0
  0
VERTEX
  5
B27D
330
8A9F
100
AcDbEntity
  8
SEIHIN
100
AcDbVertex
100
AcDb2dVertex
 10
420.7115453106287
 20
100.8680017711092
 30
0.0
  0
VERTEX
  5
B27E
330
8A9F
100
AcDbEntity
  8
SEIHIN
100
AcDbVertex
100
AcDb2dVertex
 10
420.7230676948609
 20
101.0896063957641
 30
0.0
  0
VERTEX
  5
B27F
330
8A9F
100
AcDbEntity
  8
SEIHIN
100
AcDbVertex
100
AcDb2dVertex
 10
420.7301242107625
 20
101.3603262497889
 30
0.0
  0
VERTEX
  5
B280
330
8A9F
100
AcDbEntity
  8
SEIHIN
100
AcDbVertex
100
AcDb2dVertex
 10
420.7325004496688
 20
101.6719356474098
 30
0.0
  0
SEQEND
  5
B281
330
8A9F
100
AcDbEntity
  8
SEIHIN
  0
POLYLINE
  5
8AA2
330
1A
100
AcDbEntity
  8
SEIHIN
100
AcDb2dPolyline
 66
     1
 10
0.0
 20
0.0
 30
0.0
  0
VERTEX
  5
B282
330
8AA2
100
AcDbEntity
  8
SEIHIN
100
AcDbVertex
100
AcDb2dVertex
 10
421.3144401956419
 20
168.072655079798
 30
0.0
  0
VERTEX
  5
B283
330
8AA2
100
AcDbEntity
  8
SEIHIN
100
AcDbVertex
100
AcDb2dVertex
 10
421.3117416019153
 20
167.7636726942945
 30
0.0
  0
VERTEX
  5
B284
330
8AA2
100
AcDbEntity
  8
SEIHIN
100
AcDbVertex
100
AcDb2dVertex
 10
421.3037278161409
 20
167.4225553868229
 30
0.0
  0
VERTEX
  5
B285
330
8AA2
100
AcDbEntity
  8
SEIHIN
100
AcDbVertex
100
AcDb2dVertex
 10
421.2906423331437
 20
167.0596678341569
 30
0.0
  0
VERTEX
  5
B286
330
8AA2
100
AcDbEntity
  8
SEIHIN
100
AcDbVertex
100
AcDb2dVertex
 10
421.2728827487032
 20
166.6860361909542
 30
0.0
  0
VERTEX
  5
B287
330
8AA2
100
AcDbEntity
  8
SEIHIN
100
AcDbVertex
100
AcDb2dVertex
 10
421.2509886788059
 20
166.313013065627
 30
0.0
  0
VERTEX
  5
B288
330
8AA2
100
AcDbEntity
  8
SEIHIN
100
AcDbVertex
100
AcDb2dVertex
 10
421.2256253636867
 20
165.9519325770795
 30
0.0
  0
VERTEX
  5
B289
330
8AA2
100
AcDbEntity
  8
SEIHIN
100
AcDbVertex
100
AcDb2dVertex
 10
421.197563454841
 20
165.6137659732406
 30
0.0
  0
VERTEX
  5
B28A
330
8AA2
100
AcDbEntity
  8
SEIHIN
100
AcDbVertex
100
AcDb2dVertex
 10
421.1676555991691
 20
165.3087882752473
 30
0.0
  0
VERTEX
  5
B28B
330
8AA2
100
AcDbEntity
  8
SEIHIN
100
AcDbVertex
100
AcDb2dVertex
 10
421.1368105317315
 20
165.0462660761272
 30
0.0
  0
VERTEX
  5
B28C
330
8AA2
100
AcDbEntity
  8
SEIHIN
100
AcDbVertex
100
AcDb2dVertex
 10
421.1059654642938
 20
164.8341759800578
 30
0.0
  0
VERTEX
  5
B28D
330
8AA2
100
AcDbEntity
  8
SEIHIN
100
AcDbVertex
100
AcDb2dVertex
 10
421.0760576086218
 20
164.6789622372854
 30
0.0
  0
VERTEX
  5
B28E
330
8AA2
100
AcDbEntity
  8
SEIHIN
100
AcDbVertex
100
AcDb2dVertex
 10
421.047995699776
 20
164.5853409388422
 30
0.0
  0
VERTEX
  5
B28F
330
8AA2
100
AcDbEntity
  8
SEIHIN
100
AcDbVertex
100
AcDb2dVertex
 10
421.022632384657
 20
164.5561567205068
 30
0.0
  0
VERTEX
  5
B290
330
8AA2
100
AcDbEntity
  8
SEIHIN
100
AcDbVertex
100
AcDb2dVertex
 10
421.0007383147597
 20
164.5922963299852
 30
0.0
  0
VERTEX
  5
B291
330
8AA2
100
AcDbEntity
  8
SEIHIN
100
AcDbVertex
100
AcDb2dVertex
 10
420.9829787303192
 20
164.6926616835312
 30
0.0
  0
VERTEX
  5
B292
330
8AA2
100
AcDbEntity
  8
SEIHIN
100
AcDbVertex
100
AcDb2dVertex
 10
420.969893247322
 20
164.8542032306643
 30
0.0
  0
VERTEX
  5
B293
330
8AA2
100
AcDbEntity
  8
SEIHIN
100
AcDbVertex
100
AcDb2dVertex
 10
420.9618794615473
 20
165.0720126132191
 30
0.0
  0
VERTEX
  5
B294
330
8AA2
100
AcDbEntity
  8
SEIHIN
100
AcDbVertex
100
AcDb2dVertex
 10
420.959180867821
 20
165.3394718033236
 30
0.0
  0
VERTEX
  5
B295
330
8AA2
100
AcDbEntity
  8
SEIHIN
100
AcDbVertex
100
AcDb2dVertex
 10
420.9618794615473
 20
165.648454188827
 30
0.0
  0
VERTEX
  5
B296
330
8AA2
100
AcDbEntity
  8
SEIHIN
100
AcDbVertex
100
AcDb2dVertex
 10
420.969893247322
 20
165.9895714962987
 30
0.0
  0
VERTEX
  5
B297
330
8AA2
100
AcDbEntity
  8
SEIHIN
100
AcDbVertex
100
AcDb2dVertex
 10
420.9829787303192
 20
166.3524590489647
 30
0.0
  0
VERTEX
  5
B298
330
8AA2
100
AcDbEntity
  8
SEIHIN
100
AcDbVertex
100
AcDb2dVertex
 10
421.0007383147597
 20
166.7260906921673
 30
0.0
  0
VERTEX
  5
B299
330
8AA2
100
AcDbEntity
  8
SEIHIN
100
AcDbVertex
100
AcDb2dVertex
 10
421.022632384657
 20
167.0991138174945
 30
0.0
  0
VERTEX
  5
B29A
330
8AA2
100
AcDbEntity
  8
SEIHIN
100
AcDbVertex
100
AcDb2dVertex
 10
421.047995699776
 20
167.4601943060421
 30
0.0
  0
VERTEX
  5
B29B
330
8AA2
100
AcDbEntity
  8
SEIHIN
100
AcDbVertex
100
AcDb2dVertex
 10
421.0760576086218
 20
167.798360909881
 30
0.0
  0
VERTEX
  5
B29C
330
8AA2
100
AcDbEntity
  8
SEIHIN
100
AcDbVertex
100
AcDb2dVertex
 10
421.1059654642938
 20
168.1033386078742
 30
0.0
  0
VERTEX
  5
B29D
330
8AA2
100
AcDbEntity
  8
SEIHIN
100
AcDbVertex
100
AcDb2dVertex
 10
421.1368105317315
 20
168.3658608069943
 30
0.0
  0
VERTEX
  5
B29E
330
8AA2
100
AcDbEntity
  8
SEIHIN
100
AcDbVertex
100
AcDb2dVertex
 10
421.1676555991691
 20
168.5779509030637
 30
0.0
  0
VERTEX
  5
B29F
330
8AA2
100
AcDbEntity
  8
SEIHIN
100
AcDbVertex
100
AcDb2dVertex
 10
421.197563454841
 20
168.7331646458361
 30
0.0
  0
VERTEX
  5
B2A0
330
8AA2
100
AcDbEntity
  8
SEIHIN
100
AcDbVertex
100
AcDb2dVertex
 10
421.2256253636867
 20
168.8267859442793
 30
0.0
  0
VERTEX
  5
B2A1
330
8AA2
100
AcDbEntity
  8
SEIHIN
100
AcDbVertex
100
AcDb2dVertex
 10
421.2509886788059
 20
168.8559701626147
 30
0.0
  0
VERTEX
  5
B2A2
330
8AA2
100
AcDbEntity
  8
SEIHIN
100
AcDbVertex
100
AcDb2dVertex
 10
421.2728827487032
 20
168.8198305531362
 30
0.0
  0
VERTEX
  5
B2A3
330
8AA2
100
AcDbEntity
  8
SEIHIN
100
AcDbVertex
100
AcDb2dVertex
 10
421.2906423331437
 20
168.7194651995904
 30
0.0
  0
VERTEX
  5
B2A4
330
8AA2
100
AcDbEntity
  8
SEIHIN
100
AcDbVertex
100
AcDb2dVertex
 10
421.3037278161409
 20
168.5579236524571
 30
0.0
  0
VERTEX
  5
B2A5
330
8AA2
100
AcDbEntity
  8
SEIHIN
100
AcDbVertex
100
AcDb2dVertex
 10
421.3117416019153
 20
168.3401142699023
 30
0.0
  0
VERTEX
  5
B2A6
330
8AA2
100
AcDbEntity
  8
SEIHIN
100
AcDbVertex
100
AcDb2dVertex
 10
421.3144401956419
 20
168.072655079798
 30
0.0
  0
SEQEND
  5
B2A7
330
8AA2
100
AcDbEntity
  8
SEIHIN
  0
POLYLINE
  5
8AA4
330
1A
100
AcDbEntity
  8
SEIHIN
100
AcDb2dPolyline
 66
     1
 10
0.0
 20
0.0
 30
0.0
  0
VERTEX
  5
B2A8
330
8AA4
100
AcDbEntity
  8
SEIHIN
100
AcDbVertex
100
AcDb2dVertex
 10
423.3482653542871
 20
493.7968371587121
 30
0.0
  0
VERTEX
  5
B2A9
330
8AA4
100
AcDbEntity
  8
SEIHIN
100
AcDbVertex
100
AcDb2dVertex
 10
423.3253747651958
 20
493.783235229778
 30
0.0
  0
VERTEX
  5
B2AA
330
8AA4
100
AcDbEntity
  8
SEIHIN
100
AcDbVertex
100
AcDb2dVertex
 10
423.2996876977049
 20
493.7374392618927
 30
0.0
  0
VERTEX
  5
B2AB
330
8AA4
100
AcDbEntity
  8
SEIHIN
100
AcDbVertex
100
AcDb2dVertex
 10
423.2712041518145
 20
493.6515782694771
 30
0.0
  0
VERTEX
  5
B2AC
330
8AA4
100
AcDbEntity
  8
SEIHIN
100
AcDbVertex
100
AcDb2dVertex
 10
423.2399241275247
 20
493.5173531471264
 30
0.0
  0
VERTEX
  5
B2AD
330
8AA4
100
AcDbEntity
  8
SEIHIN
100
AcDbVertex
100
AcDb2dVertex
 10
423.2058476248351
 20
493.3261743982556
 30
0.0
  0
VERTEX
  5
B2AE
330
8AA4
100
AcDbEntity
  8
SEIHIN
100
AcDbVertex
100
AcDb2dVertex
 10
423.1689746437462
 20
493.0693401584059
 30
0.0
  0
VERTEX
  5
B2AF
330
8AA4
100
AcDbEntity
  8
SEIHIN
100
AcDbVertex
100
AcDb2dVertex
 10
423.0832106267069
 20
492.2750592587126
 30
0.0
  0
VERTEX
  5
B2B0
330
8AA4
100
AcDbEntity
  8
SEIHIN
100
AcDbVertex
100
AcDb2dVertex
 10
423.0232487677442
 20
491.5631224514088
 30
0.0
  0
VERTEX
  5
B2B1
330
8AA4
100
AcDbEntity
  8
SEIHIN
100
AcDbVertex
100
AcDb2dVertex
 10
422.991825877018
 20
491.141770001542
 30
0.0
  0
VERTEX
  5
B2B2
330
8AA4
100
AcDbEntity
  8
SEIHIN
100
AcDbVertex
100
AcDb2dVertex
 10
422.9843298464754
 20
491.0361949355151
 30
0.0
  0
VERTEX
  5
B2B3
330
8AA4
100
AcDbEntity
  8
SEIHIN
100
AcDbVertex
100
AcDb2dVertex
 10
422.9822570890473
 20
491.0065185844559
 30
0.0
  0
VERTEX
  5
B2B4
330
8AA4
100
AcDbEntity
  8
SEIHIN
100
AcDbVertex
100
AcDb2dVertex
 10
422.9815823318065
 20
490.9967742225126
 30
0.0
  0
VERTEX
  5
B2B5
330
8AA4
100
AcDbEntity
  8
SEIHIN
100
AcDbVertex
100
AcDb2dVertex
 10
422.9813313713875
 20
490.9931320147386
 30
0.0
  0
VERTEX
  5
B2B6
330
8AA4
100
AcDbEntity
  8
SEIHIN
100
AcDbVertex
100
AcDb2dVertex
 10
422.9812298413866
 20
490.9916546428791
 30
0.0
  0
VERTEX
  5
B2B7
330
8AA4
100
AcDbEntity
  8
SEIHIN
100
AcDbVertex
100
AcDb2dVertex
 10
422.9811868897907
 20
490.9910288583366
 30
0.0
  0
VERTEX
  5
B2B8
330
8AA4
100
AcDbEntity
  8
SEIHIN
100
AcDbVertex
100
AcDb2dVertex
 10
422.981168324391
 20
490.9907582113491
 30
0.0
  0
VERTEX
  5
B2B9
330
8AA4
100
AcDbEntity
  8
SEIHIN
100
AcDbVertex
100
AcDb2dVertex
 10
422.9811602201425
 20
490.9906400363858
 30
0.0
  0
VERTEX
  5
B2BA
330
8AA4
100
AcDbEntity
  8
SEIHIN
100
AcDbVertex
100
AcDb2dVertex
 10
422.9811538801823
 20
490.9905475746625
 30
0.0
  0
VERTEX
  5
B2BB
330
8AA4
100
AcDbEntity
  8
SEIHIN
100
AcDbVertex
100
AcDb2dVertex
 10
422.8825918155314
 20
489.3319983581276
 30
0.0
  0
VERTEX
  5
B2BC
330
8AA4
100
AcDbEntity
  8
SEIHIN
100
AcDbVertex
100
AcDb2dVertex
 10
422.8006743921264
 20
487.5661087952356
 30
0.0
  0
VERTEX
  5
B2BD
330
8AA4
100
AcDbEntity
  8
SEIHIN
100
AcDbVertex
100
AcDb2dVertex
 10
422.7354016099678
 20
485.808862508416
 30
0.0
  0
VERTEX
  5
B2BE
330
8AA4
100
AcDbEntity
  8
SEIHIN
100
AcDbVertex
100
AcDb2dVertex
 10
422.6867734690549
 20
484.1458348207752
 30
0.0
  0
SEQEND
  5
B2BF
330
8AA4
100
AcDbEntity
  8
SEIHIN
  0
POLYLINE
  5
8AA7
330
1A
100
AcDbEntity
  8
SEIHIN
100
AcDb2dPolyline
 66
     1
 10
0.0
 20
0.0
 30
0.0
  0
VERTEX
  5
B2C0
330
8AA7
100
AcDbEntity
  8
SEIHIN
100
AcDbVertex
100
AcDb2dVertex
 10
556.2344786209232
 20
317.7843282737882
 30
0.0
  0
VERTEX
  5
B2C1
330
8AA7
100
AcDbEntity
  8
SEIHIN
100
AcDbVertex
100
AcDb2dVertex
 10
556.5476307582011
 20
317.5892853653036
 30
0.0
  0
VERTEX
  5
B2C2
330
8AA7
100
AcDbEntity
  8
SEIHIN
100
AcDbVertex
100
AcDb2dVertex
 10
556.9102294263238
 20
317.5212409671531
 30
0.0
  0
SEQEND
  5
B2C3
330
8AA7
100
AcDbEntity
  8
SEIHIN
  0
POLYLINE
  5
8AA8
330
1A
100
AcDbEntity
  8
SEIHIN
100
AcDb2dPolyline
 66
     1
 10
0.0
 20
0.0
 30
0.0
  0
VERTEX
  5
B2C4
330
8AA8
100
AcDbEntity
  8
SEIHIN
100
AcDbVertex
100
AcDb2dVertex
 10
606.6884364409721
 20
317.7843282737882
 30
0.0
  0
VERTEX
  5
B2C5
330
8AA8
100
AcDbEntity
  8
SEIHIN
100
AcDbVertex
100
AcDb2dVertex
 10
606.3752843036941
 20
317.5892853653036
 30
0.0
  0
VERTEX
  5
B2C6
330
8AA8
100
AcDbEntity
  8
SEIHIN
100
AcDbVertex
100
AcDb2dVertex
 10
606.0126856355714
 20
317.5212409671531
 30
0.0
  0
SEQEND
  5
B2C7
330
8AA8
100
AcDbEntity
  8
SEIHIN
  0
ARC
  5
8AAA
330
1A
100
AcDbEntity
  8
SEIHIN
100
AcDbCircle
 10
411.0972315409157
 20
318.1664974756827
 30
0.0
 40
7.989476252484275
100
AcDbArc
 50
3.652418592909595
 51
89.9970396700972
  0
LINE
  5
8AAB
330
1A
100
AcDbEntity
  8
SEIHIN
100
AcDbLine
 10
428.2422314338669
 20
329.5145951355971
 30
0.0
 11
408.1909197414443
 21
329.5145951357178
 31
0.0
  0
LINE
  5
8AAC
330
1A
100
AcDbEntity
  8
SEIHIN
100
AcDbLine
 10
416.059896921846
 20
439.7968371587121
 30
0.0
 11
295.9117268798913
 21
439.796837158712
 31
0.0
  0
LINE
  5
8AAD
330
1A
100
AcDbEntity
  8
SEIHIN
100
AcDbLine
 10
416.5270444394388
 20
467.796837158712
 30
0.0
 11
295.9117268798913
 21
467.7968371587121
 31
0.0
  0
LINE
  5
8AAE
330
1A
100
AcDbEntity
  8
SEIHIN
100
AcDbLine
 10
415.0248484944293
 20
302.6215367909676
 30
0.0
 11
411.0584546752352
 21
302.6215367909676
 31
0.0
  0
LINE
  5
8AAF
330
1A
100
AcDbEntity
  8
SEIHIN
100
AcDbLine
 10
411.8402603501197
 20
299.5145951355904
 30
0.0
 11
417.5875129380135
 21
299.5145951355904
 31
0.0
  0
LINE
  5
8AB0
330
1A
100
AcDbEntity
  8
CENTER_L
 48
10.0
100
AcDbLine
 10
435.6994251186334
 20
453.7968371587121
 30
0.0
 11
282.7565360834171
 21
453.7968371587121
 31
0.0
  0
LINE
  5
8AB1
330
1A
100
AcDbEntity
  8
CENTER_L
 48
10.0
100
AcDbLine
 10
282.5206337255885
 20
134.7060634416183
 30
0.0
 11
442.4321781683202
 21
134.7060634416183
 31
0.0
  0
LINE
  5
8AB2
330
1A
100
AcDbEntity
  8
SEIHIN
100
AcDbLine
 10
414.1109362178954
 20
120.7060634416182
 30
0.0
 11
295.9117268798915
 21
120.7060634416181
 31
0.0
  0
LINE
  5
8AB3
330
1A
100
AcDbEntity
  8
SEIHIN
100
AcDbLine
 10
416.7718477031075
 20
142.2060634416183
 30
0.0
 11
411.5602403710177
 21
142.2060634416183
 31
0.0
  0
LINE
  5
8AB4
330
1A
100
AcDbEntity
  8
SEIHIN
100
AcDbLine
 10
411.6568719548336
 20
127.2060634416183
 30
0.0
 11
416.6459365874195
 21
127.2060634416183
 31
0.0
  0
LINE
  5
8ABC
330
1A
100
AcDbEntity
  8
CENTER_L
 48
10.0
100
AcDbLine
 10
156.6754581970533
 20
338.7759607407098
 30
0.0
 11
156.6754581970533
 21
242.2031552623083
 31
0.0
  0
LINE
  5
8ABE
330
1A
100
AcDbEntity
  8
SEIHIN
100
AcDbLine
 10
142.6673131053153
 20
319.043929226061
 30
0.0
 11
156.6673131053153
 21
319.5328199989455
 31
0.0
  0
ARC
  5
8ABF
330
1A
100
AcDbEntity
  8
SEIHIN
100
AcDbCircle
 10
150.6673131052562
 20
255.7298153845684
 30
0.0
 40
7.999999999999801
100
AcDbArc
 50
179.9999999999991
 51
232.3069639817997
  0
ARC
  5
8AC0
330
1A
100
AcDbEntity
  8
SEIHIN
100
AcDbCircle
 10
129.6673131052564
 20
282.4043899409027
 30
0.0
 40
13.0
100
AcDbArc
 50
0.3928092344869572
 51
88.00003225572345
  0
ARC
  5
8AC1
330
1A
100
AcDbEntity
  8
SEIHIN
100
AcDbCircle
 10
129.7214602333724
 20
282.5064304635367
 30
0.0
 40
15.91504012674563
100
AcDbArc
 50
14.41521908047063
 51
88.54772998587501
  0
ARC
  5
8AC2
330
1A
100
AcDbEntity
  8
SEIHIN
100
AcDbCircle
 10
86.72963633733287
 20
310.4737984950463
 30
0.0
 40
63.17581773403026
100
AcDbArc
 50
335.2541002984453
 51
344.5754490886796
  0
ARC
  5
8AC3
330
1A
100
AcDbEntity
  8
SEIHIN
100
AcDbCircle
 10
91.28417835963318
 20
307.7124514002513
 30
0.0
 40
59.23177541074259
100
AcDbArc
 50
333.0942007092847
 51
344.3513421451824
  0
LINE
  5
8AC4
330
1A
100
AcDbEntity
  8
SEIHIN
100
AcDbLine
 10
142.6673131053153
 20
272.0034859083541
 30
0.0
 11
156.6673131053153
 21
271.5145951354697
 31
0.0
  0
LINE
  5
8AC5
330
1A
100
AcDbEntity
  8
SEIHIN
100
AcDbLine
 10
142.6673131053153
 20
306.5207960618299
 30
0.0
 11
156.6673131053153
 21
306.0319052889456
 31
0.0
  0
LINE
  5
8AC7
330
1A
100
AcDbEntity
  8
SEIHIN
100
AcDbLine
 10
142.6673131053153
 20
294.7703738890442
 30
0.0
 11
147.8856648872354
 21
294.5881450293409
 31
0.0
  0
LINE
  5
8B47
330
1A
100
AcDbEntity
  8
SEIHIN
100
AcDbLine
 10
142.6673131052564
 20
255.7298153845684
 30
0.0
 11
142.6673131052857
 21
272.0034859083541
 31
0.0
  0
LINE
  5
8B48
330
1A
100
AcDbEntity
  8
SEIHIN
100
AcDbLine
 10
142.6673131053153
 20
276.2569253939888
 30
0.0
 11
142.6673131053153
 21
272.0034859083541
 31
0.0
  0
LINE
  5
8B49
330
1A
100
AcDbEntity
  8
SEIHIN
100
AcDbLine
 10
142.6673131052564
 20
282.4043899409027
 30
0.0
 11
142.6670075922042
 21
282.4935148308838
 31
0.0
  0
LINE
  5
8B4A
330
1A
100
AcDbEntity
  8
SEIHIN
100
AcDbLine
 10
142.6673131052564
 20
278.9936780706258
 30
0.0
 11
142.6673131052564
 21
282.4043899409027
 31
0.0
  0
ARC
  5
8B4B
330
1A
100
AcDbEntity
  8
SEIHIN
100
AcDbCircle
 10
155.1415855965494
 20
278.1563306062497
 30
0.0
 40
12.50234477859289
100
AcDbArc
 50
151.9849098529774
 51
176.1597270713611
  0
LINE
  5
8B4C
330
1A
100
AcDbEntity
  8
SEIHIN
100
AcDbLine
 10
142.6673131053153
 20
276.2569253939888
 30
0.0
 11
142.6673131053153
 21
278.9936780713107
 31
0.0
  0
ARC
  5
8B4D
330
1A
100
AcDbEntity
  8
SEIHIN
100
AcDbCircle
 10
153.2492983072338
 20
275.5359075726851
 30
0.0
 40
10.60652051863669
100
AcDbArc
 50
149.5659932310592
 51
176.1020994866423
  0
ARC
  5
8B4E
330
1A
100
AcDbEntity
  8
SEIHIN
100
AcDbCircle
 10
126.6673131053148
 20
318.4608766078565
 30
0.0
 40
9.999999999999962
100
AcDbArc
 50
92.00001545084303
 51
180.0
  0
ARC
  5
8B4F
330
1A
100
AcDbEntity
  8
SEIHIN
100
AcDbCircle
 10
126.6673131053149
 20
305.5231717682502
 30
0.0
 40
10.00000000000008
100
AcDbArc
 50
180.0000000000007
 51
267.9999999999833
  0
LINE
  5
8B50
330
1A
100
AcDbEntity
  8
CENTER_L
 48
10.0
100
AcDbLine
 10
116.8776750075332
 20
310.4043899410213
 30
0.0
 11
132.4569512029825
 21
310.4043899410213
 31
0.0
  0
LINE
  5
8B51
330
1A
100
AcDbEntity
  8
SEIHIN
100
AcDbLine
 10
116.6673131053148
 20
305.5231717682502
 30
0.0
 11
116.6673131053148
 21
318.4608766078565
 31
0.0
  0
LINE
  5
8B52
330
1A
100
AcDbEntity
  8
SEIHIN
100
AcDbLine
 10
119.7758661703519
 20
318.2630109812795
 30
0.0
 11
119.7758661703519
 21
305.3253061416733
 31
0.0
  0
CIRCLE
  5
8B53
330
1A
100
AcDbEntity
  8
SEIHIN
100
AcDbCircle
 10
124.6673131052576
 20
310.4043899410214
 30
0.0
 40
2.14999999999989
  0
LINE
  5
8B55
330
1A
100
AcDbEntity
  8
CENTER_L
 48
10.0
100
AcDbLine
 10
124.6673131052579
 20
318.1940280387459
 30
0.0
 11
124.6673131052579
 21
302.6147518432967
 31
0.0
  0
ARC
  5
8B56
330
1A
100
AcDbEntity
  8
SEIHIN
100
AcDbCircle
 10
126.5660719297051
 20
305.3323671512157
 30
0.0
 40
6.790209430658875
100
AcDbArc
 50
180.0595808012893
 51
267.9404191986876
  0
LINE
  5
8B57
330
1A
100
AcDbEntity
  8
SEIHIN
100
AcDbLine
 10
130.1210065623936
 20
295.3964706921508
 30
0.0
 11
126.3183181382862
 21
295.5292634980594
 31
0.0
  0
LINE
  5
8B58
330
1A
100
AcDbEntity
  8
SEIHIN
100
AcDbLine
 10
126.3220404580285
 20
298.5465442274253
 30
0.0
 11
130.1247288821359
 21
298.4137514215167
 31
0.0
  0
LINE
  5
8B5E
330
1A
100
AcDbEntity
  8
SEIHIN
100
AcDbLine
 10
137.8418105888274
 20
325.444052132863
 30
0.0
 11
126.3220404931178
 21
325.0417728967528
 31
0.0
  0
ARC
  5
8B5F
330
1A
100
AcDbEntity
  8
SEIHIN
100
AcDbCircle
 10
126.5705542652954
 20
318.2527673697127
 30
0.0
 40
6.794695816528039
100
AcDbArc
 50
92.09640093517585
 51
179.9136214559238
  0
LINE
  5
8B63
330
1A
100
AcDbEntity
  8
SEIHIN
100
AcDbLine
 10
137.8418105888274
 20
325.444052132863
 30
0.0
 11
137.9221315403988
 21
325.446190737527
 31
0.0
  0
LINE
  5
8B64
330
1A
100
AcDbEntity
  8
SEIHIN
100
AcDbLine
 10
137.9221315403988
 20
325.446190737527
 30
0.0
 11
137.9221315403988
 21
325.446857002298
 31
0.0
  0
LINE
  5
8B77
330
1A
100
AcDbEntity
  8
SEIHIN
100
AcDbLine
 10
308.5161565247829
 20
311.5328199990663
 30
0.0
 11
299.9861987257875
 21
311.5328199990663
 31
0.0
  0
ARC
  5
8B78
330
1A
100
AcDbEntity
  8
SEIHIN
100
AcDbCircle
 10
359.6854864282086
 20
331.6844703257347
 30
0.0
 40
60.00000000000045
100
AcDbArc
 50
207.6003141927615
 51
221.9951727097814
  0
LINE
  5
8B7B
330
1A
100
AcDbEntity
  8
SEIHIN
100
AcDbLine
 10
306.7580704933853
 20
142.2060634416183
 30
0.0
 11
312.5717023606564
 21
142.2060634416183
 31
0.0
  0
LINE
  5
8B7C
330
1A
100
AcDbEntity
  8
SEIHIN
100
AcDbLine
 10
312.6853679242999
 20
127.2060634416183
 30
0.0
 11
306.676856511171
 21
127.2060634416182
 31
0.0
  0
LINE
  5
8B7D
330
1A
100
AcDbEntity
  8
SEIHIN
100
AcDbLine
 10
310.4503549755647
 20
125.2758624350232
 30
0.0
 11
303.1705671639938
 21
125.2758624350232
 31
0.0
  0
LINE
  5
8B7E
330
1A
100
AcDbEntity
  8
SEIHIN
100
AcDbLine
 10
303.2716205606502
 20
144.1013915291323
 30
0.0
 11
310.1777307535269
 21
144.1013915291323
 31
0.0
  0
LINE
  5
8B7F
330
1A
100
AcDbEntity
  8
SEIHIN
100
AcDbLine
 10
292.9447252027346
 20
129.3441607942359
 30
0.0
 11
292.9447252027346
 21
134.6885937433397
 31
0.0
  0
ARC
  5
8B80
330
1A
100
AcDbEntity
  8
SEIHIN
100
AcDbCircle
 10
322.4447252027321
 20
134.7060634416176
 30
0.0
 40
29.99999999999744
100
AcDbArc
 50
190.6549054837598
 51
207.8181392846545
  0
ARC
  5
8B81
330
1A
100
AcDbEntity
  8
SEIHIN
100
AcDbCircle
 10
311.635354910436
 20
114.3742678839166
 30
0.0
 40
13.80207938497075
100
AcDbArc
 50
111.6118747976068
 51
127.8283541092084
  0
LINE
  5
8B82
330
1A
100
AcDbEntity
  8
SEIHIN
100
AcDbLine
 10
306.676856511171
 20
127.2060634416182
 30
0.0
 11
306.5518110565497
 21
127.2060634416182
 31
0.0
  0
ARC
  5
8B87
330
1A
100
AcDbEntity
  8
SEIHIN
100
AcDbCircle
 10
322.44472520273
 20
134.7060634416196
 30
0.0
 40
29.99999999999535
100
AcDbArc
 50
152.1818607153455
 51
169.3450945162419
  0
LINE
  5
8B88
330
1A
100
AcDbEntity
  8
SEIHIN
100
AcDbLine
 10
292.9447252027346
 20
134.6885937433397
 30
0.0
 11
292.9447252027346
 21
140.067966089
 31
0.0
  0
LINE
  5
8B8D
330
1A
100
AcDbEntity
  8
SEIHIN
100
AcDbLine
 10
306.6112598123188
 20
142.2060634416183
 30
0.0
 11
306.7580704933853
 21
142.2060634416183
 31
0.0
  0
ARC
  5
8B8E
330
1A
100
AcDbEntity
  8
SEIHIN
100
AcDbCircle
 10
310.371151571182
 20
152.7210828076671
 30
0.0
 40
11.16702369956963
100
AcDbArc
 50
230.5237311343574
 51
250.3242985924366
  0
LINE
  5
8B9A
330
1A
100
AcDbEntity
  8
CENTER_L
 48
10.0
100
AcDbLine
 10
148.8858200993286
 20
255.4043899324465
 30
0.0
 11
164.465096294778
 21
255.4043899324465
 31
0.0
  0
ARC
  5
8B9C
330
1A
100
AcDbEntity
  8
SEIHIN
100
AcDbCircle
 10
156.6673131053148
 20
255.4043899409266
 30
0.0
 40
2.149999999999977
100
AcDbArc
 50
44.76505287282297
 51
89.99999999999349
  0
ARC
  5
8B9D
330
1A
100
AcDbEntity
  8
SEIHIN
100
AcDbCircle
 10
156.6673131053151
 20
255.4043899409264
 30
0.0
 40
2.14999999999982
100
AcDbArc
 50
270.0
 51
315.2348278235549
  0
LINE
  5
8B9E
330
1A
100
AcDbEntity
  8
SEIHIN
100
AcDbLine
 10
150.2486254553659
 20
247.740779106529
 30
0.0
 11
156.6673131053148
 21
247.4043899409266
 31
0.0
  0
ARC
  5
8B9F
330
1A
100
AcDbEntity
  8
SEIHIN
100
AcDbCircle
 10
156.6673131053148
 20
255.4043899409266
 30
0.0
 40
2.149999999999977
100
AcDbArc
 50
90.0
 51
270.0
  0
ARC
  5
8BA0
330
1A
100
AcDbEntity
  8
SEIHIN
100
AcDbCircle
 10
150.6673131052562
 20
255.7298153845676
 30
0.0
 40
7.999999999999105
100
AcDbArc
 50
232.3069639817997
 51
267.0000000003858
  0
ARC
  5
8BA2
330
1A
100
AcDbEntity
  8
SEIHIN
100
AcDbCircle
 10
156.6754581970533
 20
255.4043899324465
 30
0.0
 40
2.144224659272423
100
AcDbArc
 50
315.0815617218701
 51
44.91831897450709
  0
ARC
  5
8BB5
330
1A
100
AcDbEntity
  8
SEIHIN
100
AcDbCircle
 10
55.02602661799483
 20
319.9010502344481
 30
0.0
 40
96.24710273682261
100
AcDbArc
 50
344.1852201652474
 51
347.9925975611809
  0
LINE
  5
8BB7
330
1A
100
AcDbEntity
  8
SEIHIN
100
AcDbLine
 10
149.1673131053153
 20
294.8113261321906
 30
0.0
 11
149.1673131053153
 21
304.1395060597265
 31
0.0
  0
LINE
  5
8BB8
330
1A
100
AcDbEntity
  8
SEIHIN
100
AcDbLine
 10
149.1673131053153
 20
294.8113261321906
 30
0.0
 11
149.1180482824101
 21
294.6348188246865
 31
0.0
  0
ARC
  5
8BB9
330
1A
100
AcDbEntity
  8
SEIHIN
100
AcDbCircle
 10
61.87439207648322
 20
317.0749800496208
 30
0.0
 40
90.08338572666458
100
AcDbArc
 50
343.6627792081451
 51
345.5754827554707
  0
ARC
  5
8BBA
330
1A
100
AcDbEntity
  8
SEIHIN
100
AcDbCircle
 10
147.1673131053153
 20
304.3624335105194
 30
0.0
 40
2.000000000000113
100
AcDbArc
 50
0.0000000000032569
 51
87.99999999999636
  0
LINE
  5
8BBB
330
1A
100
AcDbEntity
  8
SEIHIN
100
AcDbLine
 10
149.1673131053153
 20
304.1395060597265
 30
0.0
 11
149.1673131053153
 21
304.3624335105194
 31
0.0
  0
LINE
  5
8BDC
330
1A
100
AcDbEntity
  8
SEIHIN
100
AcDbLine
 10
298.0196575995196
 20
313.8891545851529
 30
0.0
 11
298.9386724663177
 21
318.9437363525446
 31
0.0
  0
ARC
  5
8BDD
330
1A
100
AcDbEntity
  8
SEIHIN
100
AcDbCircle
 10
299.4481312131006
 20
313.0308620986218
 30
0.0
 40
7.003406010366014
100
AcDbArc
 50
115.8678092520239
 51
154.1022950535279
  0
ARC
  5
8BDE
330
1A
100
AcDbEntity
  8
SEIHIN
100
AcDbCircle
 10
299.4481312131006
 20
313.0308620986218
 30
0.0
 40
7.003406010365951
100
AcDbArc
 50
205.8977049464523
 51
267.9575709617682
  0
LINE
  5
8BDF
330
1A
100
AcDbEntity
  8
SEIHIN
100
AcDbLine
 10
292.9447252027346
 20
311.6022091797006
 30
0.0
 11
292.9447252027346
 21
314.459515017543
 31
0.0
  0
LINE
  5
8BE0
330
1A
100
AcDbEntity
  8
SEIHIN
100
AcDbLine
 10
293.1461231246671
 20
316.085755009362
 30
0.0
 11
293.1480403262921
 21
316.0897100131128
 31
0.0
  0
LINE
  5
8BE1
330
1A
100
AcDbEntity
  8
SEIHIN
100
AcDbLine
 10
292.9447252027346
 20
314.459515017543
 30
0.0
 11
292.9447252027346
 21
315.2068918449543
 31
0.0
  0
ARC
  5
8BE2
330
1A
100
AcDbEntity
  8
SEIHIN
100
AcDbCircle
 10
294.9628535203737
 20
315.2069304664271
 30
0.0
 40
2.018128318008637
100
AcDbArc
 50
154.1851044592183
 51
180.00109648498
  0
LINE
  5
8BE3
330
1A
100
AcDbEntity
  8
SEIHIN
100
AcDbLine
 10
293.148040326291
 20
309.9720141841332
 30
0.0
 11
293.1461231246671
 21
309.9759691878816
 31
0.0
  0
ARC
  5
8BE4
330
1A
100
AcDbEntity
  8
SEIHIN
100
AcDbCircle
 10
294.9628535270842
 20
310.8547937323543
 30
0.0
 40
2.0181283247192
100
AcDbArc
 50
179.9989035586825
 51
205.81489549712
  0
LINE
  5
8BE5
330
1A
100
AcDbEntity
  8
SEIHIN
100
AcDbLine
 10
292.9447252027346
 20
310.8548323522893
 30
0.0
 11
292.9447252027346
 21
311.6022091797006
 31
0.0
  0
LINE
  5
8BE6
330
1A
100
AcDbEntity
  8
SEIHIN
100
AcDbLine
 10
299.9861987257875
 20
311.5328199990663
 30
0.0
 11
299.9843739493792
 21
311.532820497854
 31
0.0
  0
LINE
  5
8BE7
330
1A
100
AcDbEntity
  8
SEIHIN
100
AcDbLine
 10
298.0193316643344
 20
313.8873591533263
 30
0.0
 11
298.0196575995196
 21
313.8891545851529
 31
0.0
  0
LINE
  5
8BE8
330
1A
100
AcDbEntity
  8
SEIHIN
100
AcDbLine
 10
299.1985328877729
 20
306.0319052890663
 30
0.0
 11
302.9707793540164
 21
306.0319052890663
 31
0.0
  0
LINE
  5
8BE9
330
1A
100
AcDbEntity
  8
SEIHIN
100
AcDbLine
 10
306.512623047176
 20
303.887948963124
 30
0.0
 11
306.5134241096716
 21
303.8864166385847
 31
0.0
  0
LINE
  5
8BEA
330
1A
100
AcDbEntity
  8
SEIHIN
100
AcDbLine
 10
302.9707793540164
 20
306.0319052890663
 30
0.0
 11
302.9726235925245
 21
306.0319052890663
 31
0.0
  0
ARC
  5
8BEB
330
1A
100
AcDbEntity
  8
SEIHIN
100
AcDbCircle
 10
302.9717728554003
 20
302.0359824234107
 30
0.0
 40
3.99592270107078
100
AcDbArc
 50
27.61085981771214
 51
89.98780386955656
  0
ARC
  5
8BEC
330
1A
100
AcDbEntity
  8
SEIHIN
100
AcDbCircle
 10
299.9845498731476
 20
313.530225559681
 30
0.0
 40
1.997405069802104
100
AcDbArc
 50
169.7001856775151
 51
269.9949678537192
  0
ARC
  5
8BEE
330
1A
100
AcDbEntity
  8
SEIHIN
100
AcDbCircle
 10
298.4474493979105
 20
319.0334686089124
 30
0.0
 40
0.4993512674506108
100
AcDbArc
 50
349.7001856775256
 51
89.99496785372572
  0
LINE
  5
8BEF
330
1A
100
AcDbEntity
  8
SEIHIN
100
AcDbLine
 10
298.9386724663177
 20
318.9437363525446
 30
0.0
 11
298.9387540550779
 21
318.9441850907269
 31
0.0
  0
LINE
  5
8BF0
330
1A
100
AcDbEntity
  8
SEIHIN
100
AcDbLine
 10
297.2646320393539
 20
319.5328199990663
 30
0.0
 11
297.2642824047766
 21
319.5328199990663
 31
0.0
  0
LINE
  5
8BF1
330
1A
100
AcDbEntity
  8
SEIHIN
100
AcDbLine
 10
298.4470371847505
 20
319.5328199990663
 30
0.0
 11
297.2646320393539
 21
319.5328199990663
 31
0.0
  0
LINE
  5
8BF2
330
1A
100
AcDbEntity
  8
SEIHIN
100
AcDbLine
 10
298.447493279787
 20
319.5328199990663
 30
0.0
 11
298.4470371847505
 21
319.5328199990663
 31
0.0
  0
LINE
  5
8BF3
330
1A
100
AcDbEntity
  8
SEIHIN
100
AcDbLine
 10
296.3930111542431
 20
319.3327615878232
 30
0.0
 11
296.3925709655643
 21
319.3325481682152
 31
0.0
  0
ARC
  5
8BF4
330
1A
100
AcDbEntity
  8
SEIHIN
100
AcDbCircle
 10
360.790214819834
 20
332.6790037154716
 30
0.0
 40
61.48644592318925
100
AcDbArc
 50
221.9951727097814
 51
264.1333417830224
  0
ARC
  5
8BF9
330
1A
100
AcDbEntity
  8
SEIHIN
100
AcDbCircle
 10
337.6115433261404
 20
150.7060634416197
 30
0.0
 40
30.00000000000142
100
AcDbArc
 50
252.1950944574004
 51
270.0
  0
ARC
  5
8BFA
330
1A
100
AcDbEntity
  8
SEIHIN
100
AcDbCircle
 10
337.5832113867017
 20
118.7060634416163
 30
0.0
 40
30.00000000000196
100
AcDbArc
 50
90.0
 51
107.6992619777513
  0
LINE
  5
8BFB
330
1A
100
AcDbEntity
  8
SEIHIN
100
AcDbLine
 10
315.3100417280209
 20
126.3592097664412
 30
0.0
 11
328.4382386321467
 21
122.142966953472
 31
0.0
  0
LINE
  5
8BFC
330
1A
100
AcDbEntity
  8
SEIHIN
100
AcDbLine
 10
310.5629526070174
 20
127.2060634416182
 30
0.0
 11
310.4503549755647
 21
125.2758624349949
 31
0.0
  0
LINE
  5
8BFD
330
1A
100
AcDbEntity
  8
SEIHIN
100
AcDbLine
 10
312.8265738715317
 20
127.1567986187132
 30
0.0
 11
315.3100417280209
 21
126.3592097664412
 31
0.0
  0
LINE
  5
8BFE
330
1A
100
AcDbEntity
  8
SEIHIN
100
AcDbLine
 10
312.6853679242999
 20
127.2060634416183
 30
0.0
 11
312.8265738715317
 21
127.1567986187132
 31
0.0
  0
LINE
  5
8C00
330
1A
100
AcDbEntity
  8
SEIHIN
100
AcDbLine
 10
328.4625876943314
 20
147.2860253636044
 30
0.0
 11
315.4212970778194
 21
143.1242037173501
 31
0.0
  0
LINE
  5
8C02
330
1A
100
AcDbEntity
  8
SEIHIN
100
AcDbLine
 10
315.4212970778194
 20
143.1242037173501
 30
0.0
 11
312.7821814963267
 21
142.2819919549564
 31
0.0
  0
LINE
  5
8C03
330
1A
100
AcDbEntity
  8
SEIHIN
100
AcDbLine
 10
312.7821814963267
 20
142.2819919549564
 30
0.0
 11
312.5717023606564
 21
142.2060634416183
 31
0.0
  0
LINE
  5
8C04
330
1A
100
AcDbEntity
  8
SEIHIN
100
AcDbLine
 10
310.1777307535269
 20
144.1013915291323
 30
0.0
 11
310.3428329337291
 21
142.2060634416183
 31
0.0
  0
LINE
  5
8C07
330
1A
100
AcDbEntity
  8
SEIHIN
100
AcDbLine
 10
405.2196938659667
 20
129.5232534254497
 30
0.0
 11
405.5344559731031
 21
134.7092688787824
 31
0.0
  0
LINE
  5
8C08
330
1A
100
AcDbEntity
  8
SEIHIN
100
AcDbLine
 10
404.1504233134794
 20
134.7060634416183
 30
0.0
 11
403.9834453431744
 21
126.3953136921123
 31
0.0
  0
LINE
  5
8C09
330
1A
100
AcDbEntity
  8
SEIHIN
100
AcDbLine
 10
399.563178490813
 20
121.4039845696047
 30
0.0
 11
399.8304412767024
 21
134.7060634416183
 31
0.0
  0
ARC
  5
8C0B
330
1A
100
AcDbEntity
  8
SEIHIN
100
AcDbCircle
 10
396.2952060082343
 20
128.7060634416181
 30
0.0
 40
7.999999999999838
100
AcDbArc
 50
270.0
 51
294.1104260042298
  0
LINE
  5
8C0C
330
1A
100
AcDbEntity
  8
SEIHIN
100
AcDbLine
 10
411.6568719548336
 20
127.2060634416183
 30
0.0
 11
404.4433973805601
 21
127.2060634416183
 31
0.0
  0
ARC
  5
8C0D
330
1A
100
AcDbEntity
  8
SEIHIN
100
AcDbCircle
 10
396.2952060082336
 20
128.7060634416189
 30
0.0
 40
8.000000000000834
100
AcDbArc
 50
294.1104260042304
 51
329.999999999998
  0
LINE
  5
8C0F
330
1A
100
AcDbEntity
  8
SEIHIN
100
AcDbLine
 10
403.3164621744508
 20
124.8689961502839
 30
0.0
 11
403.2234092385096
 21
124.7060634416183
 31
0.0
  0
ARC
  5
8C10
330
1A
100
AcDbEntity
  8
SEIHIN
100
AcDbCircle
 10
395.3060962674303
 20
129.2783244478321
 30
0.0
 40
9.143748574841369
100
AcDbArc
 50
331.1692920561006
 51
341.6211614952217
  0
ARC
  5
8C11
330
1A
100
AcDbEntity
  8
SEIHIN
100
AcDbCircle
 10
385.9029011628181
 20
134.7060634416195
 30
0.0
 40
20.00000000000307
100
AcDbArc
 50
330.537529193965
 51
344.9809313755261
  0
ARC
  5
8C13
330
1A
100
AcDbEntity
  8
SEIHIN
100
AcDbCircle
 10
396.2952060082341
 20
140.7060634416183
 30
0.0
 40
8.000000000000113
100
AcDbArc
 50
66.93212240572804
 51
90.0
  0
LINE
  5
8C15
330
1A
100
AcDbEntity
  8
SEIHIN
100
AcDbLine
 10
403.2170058480805
 20
144.7171339941144
 30
0.0
 11
403.2242968121643
 21
144.7045088943374
 31
0.0
  0
LINE
  5
8C16
330
1A
100
AcDbEntity
  8
SEIHIN
100
AcDbLine
 10
404.4433973805601
 20
142.2060634416183
 30
0.0
 11
411.5602403710177
 21
142.2060634416183
 31
0.0
  0
LINE
  5
8C17
330
1A
100
AcDbEntity
  8
SEIHIN
100
AcDbLine
 10
403.8927469485165
 20
143.215180930271
 30
0.0
 11
404.1493226028246
 21
134.7060634416183
 31
0.0
  0
LINE
  5
8C18
330
1A
100
AcDbEntity
  8
SEIHIN
100
AcDbLine
 10
405.5344558869083
 20
134.7092745833871
 30
0.0
 11
404.9908961791897
 21
140.6766954228306
 31
0.0
  0
ARC
  5
8C19
330
1A
100
AcDbEntity
  8
SEIHIN
100
AcDbCircle
 10
395.1962856723421
 20
140.2066501370006
 30
0.0
 40
9.202157152649526
100
AcDbArc
 50
19.08300278878322
 51
29.26062859199804
  0
ARC
  5
8C1A
330
1A
100
AcDbEntity
  8
SEIHIN
100
AcDbCircle
 10
385.9029011628208
 20
134.7060634416185
 30
0.0
 40
20.00000000000015
100
AcDbArc
 50
17.36942889266217
 51
30.00000000000054
  0
ARC
  5
8C1B
330
1A
100
AcDbEntity
  8
SEIHIN
100
AcDbCircle
 10
396.2952060082341
 20
140.7060634416183
 30
0.0
 40
8.000000000000051
100
AcDbArc
 50
30.09159504118855
 51
66.93212240572804
  0
LINE
  5
8C1C
330
1A
100
AcDbEntity
  8
SEIHIN
100
AcDbLine
 10
399.8326313396055
 20
134.7060634416183
 30
0.0
 11
399.4297769253778
 21
148.0663939481511
 31
0.0
  0
ARC
  5
8C1D
330
1A
100
AcDbEntity
  8
SEIHIN
100
AcDbCircle
 10
350.9226519061949
 20
360.0500077112706
 30
0.0
 40
62.26852459499006
100
AcDbArc
 50
234.0669067038394
 51
281.6927776865482
  0
ARC
  5
8C1E
330
1A
100
AcDbEntity
  8
SEIHIN
100
AcDbCircle
 10
350.9226519061949
 20
360.0500077112706
 30
0.0
 40
65.62714601320507
100
AcDbArc
 50
235.9724446761393
 51
281.6927776865482
  0
LINE
  5
8C1F
330
1A
100
AcDbEntity
  8
SEIHIN
100
AcDbLine
 10
354.5054590299382
 20
271.5145951355905
 30
0.0
 11
399.8304412767024
 21
271.5145951355905
 31
0.0
  0
LINE
  5
8C20
330
1A
100
AcDbEntity
  8
SEIHIN
100
AcDbLine
 10
390.9015890549846
 20
274.8732165538053
 30
0.0
 11
354.6799814117525
 21
274.8732165538053
 31
0.0
  0
ARC
  5
8C21
330
1A
100
AcDbEntity
  8
SEIHIN
100
AcDbCircle
 10
360.790214819834
 20
332.6790037154716
 30
0.0
 40
58.12782450497423
100
AcDbArc
 50
221.9951727097814
 51
263.9660817461544
  0
LINE
  5
8C22
330
1A
100
AcDbEntity
  8
SEIHIN
100
AcDbLine
 10
308.5186252718549
 20
311.5328199990663
 30
0.0
 11
308.5161565247829
 21
311.5328199990663
 31
0.0
  0
ARC
  5
8C23
330
1A
100
AcDbEntity
  8
SEIHIN
100
AcDbCircle
 10
359.6854864282086
 20
331.6844703257347
 30
0.0
 40
56.64137858178547
100
AcDbArc
 50
208.4524290571483
 51
221.9951727097814
  0
LINE
  5
8C24
330
1A
100
AcDbEntity
  8
SEIHIN
100
AcDbLine
 10
314.3809829373228
 20
309.6310074811365
 30
0.0
 11
314.3792603718038
 21
309.6322559724128
 31
0.0
  0
LINE
  5
8C25
330
1A
100
AcDbEntity
  8
SEIHIN
100
AcDbLine
 10
310.7636592167646
 20
306.1732838708512
 30
0.0
 11
312.5217816839303
 21
306.1732838708512
 31
0.0
  0
ARC
  5
8C26
330
1A
100
AcDbEntity
  8
SEIHIN
100
AcDbCircle
 10
310.7700571658047
 20
305.1708443594111
 30
0.0
 40
1.002459928300486
100
AcDbArc
 50
90.3656784234991
 51
208.0867506336471
  0
ARC
  5
8C27
330
1A
100
AcDbEntity
  8
SEIHIN
100
AcDbCircle
 10
308.5172705231193
 20
301.5423469755935
 30
0.0
 40
9.990472932367486
100
AcDbArc
 50
54.07271890407091
 51
89.99223079965911
  0
ARC
  5
8C28
330
1A
100
AcDbEntity
  8
SEIHIN
100
AcDbCircle
 10
408.1909197414443
 20
300.2809100320591
 30
0.0
 40
29.23368510365865
100
AcDbArc
 50
90.0
 51
153.530879509886
  0
ARC
  5
8C29
330
1A
100
AcDbEntity
  8
SEIHIN
100
AcDbCircle
 10
408.1909197414443
 20
300.2809100320591
 30
0.0
 40
25.87506368544365
100
AcDbArc
 50
90.0
 51
153.530879509886
  0
ARC
  5
8C2A
330
1A
100
AcDbEntity
  8
SEIHIN
100
AcDbCircle
 10
358.1342105161547
 20
325.2045893440565
 30
0.0
 40
30.04330475384879
100
AcDbArc
 50
281.6927776865482
 51
333.530879509886
  0
ARC
  5
8C2B
330
1A
100
AcDbEntity
  8
SEIHIN
100
AcDbCircle
 10
358.1342105161547
 20
325.2045893440565
 30
0.0
 40
26.68468333563376
100
AcDbArc
 50
281.6927776865482
 51
333.530879509886
  0
LINE
  5
8C2C
330
1A
100
AcDbEntity
  8
SEIHIN
100
AcDbLine
 10
400.233981887196
 20
294.7502477825543
 30
0.0
 11
393.7168034691058
 21
276.8444509082448
 31
0.0
  0
LINE
  5
8C2D
330
1A
100
AcDbEntity
  8
SEIHIN
100
AcDbLine
 10
397.8410589949575
 20
278.355797756507
 30
0.0
 11
403.3881786812478
 21
293.5963838374961
 31
0.0
  0
LINE
  5
8C2E
330
1A
100
AcDbEntity
  8
SEIHIN
100
AcDbLine
 10
405.0344004170378
 20
277.0145951355905
 30
0.0
 11
398.7801791803878
 21
277.0145951355905
 31
0.0
  0
LINE
  5
8C2F
330
1A
100
AcDbEntity
  8
SEIHIN
100
AcDbLine
 10
398.7801791803878
 20
277.0145951355905
 30
0.0
 11
398.7790916071205
 21
277.0145954896248
 31
0.0
  0
LINE
  5
8C30
330
1A
100
AcDbEntity
  8
SEIHIN
100
AcDbLine
 10
397.8406873556764
 20
278.3547756508461
 30
0.0
 11
397.8410589949575
 21
278.355797756507
 31
0.0
  0
ARC
  5
8C31
330
1A
100
AcDbEntity
  8
SEIHIN
100
AcDbCircle
 10
398.7790205316182
 20
278.0131746680068
 30
0.0
 40
0.998579181214753
100
AcDbArc
 50
159.9958977788084
 51
270.00410222106
  0
LINE
  5
8C32
330
1A
100
AcDbEntity
  8
SEIHIN
100
AcDbLine
 10
396.2952060082341
 20
275.8064039422704
 30
0.0
 11
396.2952060082341
 21
276.3057187096476
 31
0.0
  0
LINE
  5
8C33
330
1A
100
AcDbEntity
  8
SEIHIN
100
AcDbLine
 10
396.2952060082341
 20
272.248304045553
 30
0.0
 11
396.2952060082341
 21
275.8064039422704
 31
0.0
  0
ARC
  5
8C34
330
1A
100
AcDbEntity
  8
SEIHIN
100
AcDbCircle
 10
390.899821687705
 20
277.8716292201268
 30
0.0
 40
2.998413187194719
100
AcDbArc
 50
270.0337720939379
 51
339.9662279059301
  0
LINE
  5
8C35
330
1A
100
AcDbEntity
  8
SEIHIN
100
AcDbLine
 10
405.035061548855
 20
277.0145951355905
 30
0.0
 11
405.0344004170378
 21
277.0145951355905
 31
0.0
  0
LINE
  5
8C36
330
1A
100
AcDbEntity
  8
SEIHIN
100
AcDbLine
 10
405.4663986207156
 20
276.2637562206684
 30
0.0
 11
405.4667309010506
 21
276.2643277843644
 31
0.0
  0
LINE
  5
8C37
330
1A
100
AcDbEntity
  8
SEIHIN
100
AcDbLine
 10
404.1504233134794
 20
274.0001142565609
 30
0.0
 11
405.4663986207156
 21
276.2637562206684
 31
0.0
  0
LINE
  5
8C38
330
1A
100
AcDbEntity
  8
SEIHIN
100
AcDbLine
 10
404.1493226028246
 20
273.9982208966971
 30
0.0
 11
404.1504233134794
 21
274.0001142565609
 31
0.0
  0
LINE
  5
8C39
330
1A
100
AcDbEntity
  8
SEIHIN
100
AcDbLine
 10
399.8304412767024
 20
271.5145951355905
 30
0.0
 11
399.8326313396055
 21
271.5145951355905
 31
0.0
  0
ARC
  5
8C3A
330
1A
100
AcDbEntity
  8
SEIHIN
100
AcDbCircle
 10
399.831617385267
 20
276.5095051231156
 30
0.0
 40
4.994909802570503
100
AcDbArc
 50
270.011630581745
 51
329.8166579266354
  0
ARC
  5
8C3B
330
1A
100
AcDbEntity
  8
SEIHIN
100
AcDbCircle
 10
405.0352855899566
 20
276.5154090098965
 30
0.0
 40
0.4991859147947125
100
AcDbArc
 50
329.802564689762
 51
90.02572381862341
  0
ARC
  5
8C3C
330
1A
100
AcDbEntity
  8
SEIHIN
100
AcDbCircle
 10
410.8902184183052
 20
291.4744258136422
 30
0.0
 40
11.1483804464574
100
AcDbArc
 50
89.13533688413741
 51
162.9121058117831
  0
LINE
  5
8C3D
330
1A
100
AcDbEntity
  8
SEIHIN
100
AcDbLine
 10
411.8354633240073
 20
299.5145943684903
 30
0.0
 11
411.8402603501197
 21
299.5145951355904
 31
0.0
  0
LINE
  5
8C3E
330
1A
100
AcDbEntity
  8
SEIHIN
100
AcDbLine
 10
403.3881786812478
 20
293.5963838374961
 30
0.0
 11
403.3898200816445
 21
293.6008913051721
 31
0.0
  0
ARC
  5
8C3F
330
1A
100
AcDbEntity
  8
SEIHIN
100
AcDbCircle
 10
411.8372877302558
 20
290.5243230335519
 30
0.0
 40
8.990271520053042
100
AcDbArc
 50
90.01162709920674
 51
159.988372900663
  0
LINE
  5
8C40
330
1A
100
AcDbEntity
  8
SEIHIN
100
AcDbLine
 10
408.1909197414443
 20
326.1559737175029
 30
0.0
 11
411.0976443372103
 21
326.1559737175029
 31
0.0
  0
ARC
  5
8C43
330
1A
100
AcDbEntity
  8
SEIHIN
100
AcDbCircle
 10
322.4447252027335
 20
453.7968371587121
 30
0.0
 40
29.99999999999905
100
AcDbArc
 50
152.1818607153455
 51
169.1559374363033
  0
LINE
  5
8C44
330
1A
100
AcDbEntity
  8
SEIHIN
100
AcDbLine
 10
298.9467805958652
 20
453.7959757169344
 30
0.0
 11
298.3609494096626
 21
467.7968371587121
 31
0.0
  0
ARC
  5
8C45
330
1A
100
AcDbEntity
  8
SEIHIN
100
AcDbCircle
 10
322.4447252027321
 20
453.7968371587115
 30
0.0
 40
29.9999999999976
100
AcDbArc
 50
190.8440625636966
 51
207.8181392846545
  0
ARC
  5
8C46
330
1A
100
AcDbEntity
  8
SEIHIN
100
AcDbCircle
 10
294.9447252027346
 20
459.0646640351385
 30
0.0
 40
2.000000000000059
100
AcDbArc
 50
169.1559374363041
 51
179.9999999999991
  0
ARC
  5
8C48
330
1A
100
AcDbEntity
  8
SEIHIN
100
AcDbCircle
 10
294.9447252027346
 20
448.5290102822857
 30
0.0
 40
2.000000000000001
100
AcDbArc
 50
180.0
 51
190.8440625637058
  0
LINE
  5
8C4A
330
1A
100
AcDbEntity
  8
SEIHIN
100
AcDbLine
 10
292.9447252027346
 20
448.5290102822857
 30
0.0
 11
292.9447252027346
 21
453.8143068569906
 31
0.0
  0
LINE
  5
8C4C
330
1A
100
AcDbEntity
  8
SEIHIN
100
AcDbLine
 10
292.9447252027346
 20
453.8143068569906
 30
0.0
 11
292.9447252027346
 21
459.0646640351385
 31
0.0
  0
LINE
  5
8C4D
330
1A
100
AcDbEntity
  8
SEIHIN
100
AcDbLine
 10
298.0676955516344
 20
439.7968371587121
 30
0.0
 11
298.9467805544538
 21
453.7959717533554
 31
0.0
  0
LINE
  5
8C62
330
1A
100
AcDbEntity
  8
CENTER_L
 48
10.0
100
AcDbLine
 10
581.4614575309476
 20
338.3857104517125
 30
0.0
 11
581.4614575309476
 21
239.7402853398976
 31
0.0
  0
LINE
  5
8C64
330
1A
100
AcDbEntity
  8
SEIHIN
100
AcDbLine
 10
419.15584091862
 20
115.8805609251306
 30
0.0
 11
419.5845954812551
 21
104.360790829421
 31
0.0
  0
LINE
  5
8C74
330
1A
100
AcDbEntity
  8
CENTER_L
 48
10.0
100
AcDbLine
 10
416.7918007623482
 20
102.7060634416758
 30
0.0
 11
438.0660430787229
 21
102.7060634416758
 31
0.0
  0
LINE
  5
8C75
330
1A
100
AcDbEntity
  8
SEIHIN
100
AcDbLine
 10
428.2422314338669
 20
94.70606344161826
 30
0.0
 11
424.1734495167654
 21
94.70606344161826
 31
0.0
  0
LINE
  5
8C77
330
1A
100
AcDbEntity
  8
SEIHIN
100
AcDbLine
 10
421.274496693727
 20
104.3607907943319
 30
0.0
 11
421.1499037606676
 21
108.1634792184391
 31
0.0
  0
LINE
  5
8C78
330
1A
100
AcDbEntity
  8
SEIHIN
100
AcDbLine
 10
420.2460159523257
 20
97.81461650665523
 30
0.0
 11
423.3482653542873
 21
94.7060634416182
 31
0.0
  0
LINE
  5
8C79
330
1A
100
AcDbEntity
  8
SEIHIN
100
AcDbLine
 10
420.2460159523257
 20
97.81461650665523
 30
0.0
 11
421.0712001148039
 21
97.81461650665528
 31
0.0
  0
LINE
  5
8C7A
330
1A
100
AcDbEntity
  8
SEIHIN
100
AcDbLine
 10
423.3482653542871
 20
94.7060634416182
 30
0.0
 11
423.3280458647489
 21
94.71807816341879
 31
0.0
  0
LINE
  5
8C7B
330
1A
100
AcDbEntity
  8
SEIHIN
100
AcDbLine
 10
424.1734495167654
 20
94.70606344161826
 30
0.0
 11
423.3482653542873
 21
94.7060634416182
 31
0.0
  0
LINE
  5
8C7C
330
1A
100
AcDbEntity
  8
SEIHIN
100
AcDbLine
 10
421.0712001148039
 20
97.81461650665528
 30
0.0
 11
424.1734495167654
 21
94.70606344161831
 31
0.0
  0
ARC
  5
8C7E
330
1A
100
AcDbEntity
  8
SEIHIN
100
AcDbCircle
 10
395.7877624465282
 20
101.8760574131774
 30
0.0
 40
25.6075676815031
100
AcDbArc
 50
350.8741726285482
 51
5.568240017249123
  0
ARC
  5
8C7F
330
1A
100
AcDbEntity
  8
SEIHIN
100
AcDbCircle
 10
445.634927229586
 20
103.6866743412624
 30
0.0
 40
26.0591227607065
100
AcDbArc
 50
178.5177590185613
 51
193.022635480622
  0
LINE
  5
8C8E
330
1A
100
AcDbEntity
  8
SEIHIN
100
AcDbLine
 10
581.4614575309476
 20
329.514595135597
 30
0.0
 11
611.9848170933708
 21
327.9149336446727
 31
0.0
  0
ARC
  5
8C8F
330
1A
100
AcDbEntity
  8
SEIHIN
100
AcDbCircle
 10
587.4614575310078
 20
255.7298153846874
 30
0.0
 40
7.999999999997625
100
AcDbArc
 50
298.4430580164209
 51
330.4883384076579
  0
LINE
  5
8C90
330
1A
100
AcDbEntity
  8
SEIHIN
100
AcDbLine
 10
581.4614575309476
 20
251.404389941097
 30
0.0
 11
594.3484012072026
 21
251.659188061917
 31
0.0
  0
ARC
  5
8C91
330
1A
100
AcDbEntity
  8
SEIHIN
100
AcDbCircle
 10
608.4614575310061
 20
282.4043899410233
 30
0.0
 40
13.0
100
AcDbArc
 50
92.00000000001669
 51
180.0
  0
ARC
  5
8C92
330
1A
100
AcDbEntity
  8
SEIHIN
100
AcDbCircle
 10
418.2451259087424
 20
269.9151713959754
 30
0.0
 40
2.997104260777168
100
AcDbArc
 50
0.008417249669596
 51
39.79715696898568
  0
LINE
  5
8C93
330
1A
100
AcDbEntity
  8
SEIHIN
100
AcDbLine
 10
428.2422314338669
 20
329.514595135597
 30
0.0
 11
428.2422314338669
 21
251.404389941097
 31
0.0
  0
LINE
  5
8C94
330
1A
100
AcDbEntity
  8
SEIHIN
100
AcDbLine
 10
421.2422294029765
 20
284.6255393732543
 30
0.0
 11
421.2422314338668
 21
247.4043899410474
 31
0.0
  0
LINE
  5
8C96
330
1A
100
AcDbEntity
  8
SEIHIN
100
AcDbLine
 10
420.1582985819202
 20
165.2378791357407
 30
0.0
 11
419.499550384191
 21
153.4443836604034
 31
0.0
  0
LINE
  5
8C97
330
1A
100
AcDbEntity
  8
SEIHIN
100
AcDbLine
 10
413.8352026043728
 20
132.043717454993
 30
0.0
 11
413.7422314338667
 21
134.7060634416183
 31
0.0
  0
LINE
  5
8C98
330
1A
100
AcDbEntity
  8
SEIHIN
100
AcDbLine
 10
416.8033427804771
 20
132.9560634416183
 30
0.0
 11
416.7422314338666
 21
134.7060634416183
 31
0.0
  0
LINE
  5
8C99
330
1A
100
AcDbEntity
  8
SEIHIN
100
AcDbLine
 10
418.7933427804773
 20
132.9560634416183
 30
0.0
 11
418.7322314338667
 21
134.7060634416183
 31
0.0
  0
LINE
  5
8C9A
330
1A
100
AcDbEntity
  8
SEIHIN
100
AcDbLine
 10
420.6097465051634
 20
132.9183341653085
 30
0.0
 11
420.5473176244249
 21
134.7060634416183
 31
0.0
  0
LINE
  5
8C9B
330
1A
100
AcDbEntity
  8
SEIHIN
100
AcDbLine
 10
421.2422302056365
 20
134.7060634416183
 30
0.0
 11
421.3370436025861
 21
131.9909629383208
 31
0.0
  0
LINE
  5
8C9E
330
1A
100
AcDbEntity
  8
SEIHIN
100
AcDbLine
 10
424.7311210247748
 20
120.7060634415598
 30
0.0
 11
428.2422314338669
 21
120.7060634415598
 31
0.0
  0
ARC
  5
8C9F
330
1A
100
AcDbEntity
  8
SEIHIN
100
AcDbCircle
 10
431.175555022494
 20
132.1610768571481
 30
0.0
 40
10.88131902803303
100
AcDbArc
 50
220.5408270954904
 51
251.8846199859129
  0
ARC
  5
8CA1
330
1A
100
AcDbEntity
  8
SEIHIN
100
AcDbCircle
 10
416.8388663406772
 20
127.9656768696442
 30
0.0
 40
5.064820910608891
100
AcDbArc
 50
99.83502725223026
 51
126.3733478316326
  0
LINE
  5
8CA2
330
1A
100
AcDbEntity
  8
SEIHIN
100
AcDbLine
 10
413.8370448326891
 20
131.9909629383207
 30
0.0
 11
413.8352026043728
 21
132.043717454993
 31
0.0
  0
LINE
  5
8CA8
330
1A
100
AcDbEntity
  8
SEIHIN
100
AcDbLine
 10
417.4995758526115
 20
127.2060634416183
 30
0.0
 11
416.6459365874195
 21
127.2060634416183
 31
0.0
  0
ARC
  5
8CA9
330
1A
100
AcDbEntity
  8
SEIHIN
100
AcDbCircle
 10
420.3376526775623
 20
131.956063334218
 30
0.0
 40
1.000000101693238
100
AcDbArc
 50
2.000005953872062
 51
74.21110178749656
  0
LINE
  5
8CAA
330
1A
100
AcDbEntity
  8
SEIHIN
100
AcDbLine
 10
421.3370436025861
 20
131.9909629383208
 30
0.0
 11
421.3370429228246
 21
131.9909629383208
 31
0.0
  0
LINE
  5
8CAF
330
1A
100
AcDbEntity
  8
SEIHIN
100
AcDbLine
 10
419.15584091862
 20
115.8805609251306
 30
0.0
 11
419.1522459017282
 21
115.9608818767021
 31
0.0
  0
ARC
  5
8CB2
330
1A
100
AcDbEntity
  8
SEIHIN
100
AcDbCircle
 10
414.0916088437218
 20
115.6352877490472
 30
0.0
 40
5.071100370613052
100
AcDbArc
 50
3.681254387282598
 51
90.64835864105447
  0
LINE
  5
8CB3
330
1A
100
AcDbEntity
  8
SEIHIN
100
AcDbLine
 10
421.6225672320178
 20
123.8146165065968
 30
0.0
 11
421.6225690328615
 21
123.8146165065969
 31
0.0
  0
ARC
  5
8CB4
330
1A
100
AcDbEntity
  8
SEIHIN
100
AcDbCircle
 10
417.4893112895253
 20
123.9445049413038
 30
0.0
 40
3.261574652254387
100
AcDbArc
 50
6.447602100068706
 51
89.81968307431163
  0
LINE
  5
8CB5
330
1A
100
AcDbEntity
  8
SEIHIN
100
AcDbLine
 10
420.4786189349427
 20
131.9909629383208
 30
0.0
 11
420.7302563722437
 21
124.3107619317257
 31
0.0
  0
LINE
  5
8CB6
330
1A
100
AcDbEntity
  8
SEIHIN
100
AcDbLine
 10
421.6225839543263
 20
123.8141376233642
 30
0.0
 11
421.3370429228246
 21
131.9909629383208
 31
0.0
  0
LINE
  5
8CB7
330
1A
100
AcDbEntity
  8
SEIHIN
100
AcDbLine
 10
427.7922094442954
 20
121.8191197653635
 30
0.0
 11
428.2422314338669
 21
121.8191197653635
 31
0.0
  0
LINE
  5
8CB9
330
1A
100
AcDbEntity
  8
SEIHIN
100
AcDbLine
 10
424.7320630639697
 20
148.7060634416769
 30
0.0
 11
428.2422314338669
 21
148.7060634416769
 31
0.0
  0
ARC
  5
8CBA
330
1A
100
AcDbEntity
  8
SEIHIN
100
AcDbCircle
 10
430.806407758281
 20
137.4083707009494
 30
0.0
 40
10.76022334048142
100
AcDbArc
 50
107.5437030636023
 51
138.6559810802283
  0
LINE
  5
8CBB
330
1A
100
AcDbEntity
  8
SEIHIN
100
AcDbLine
 10
419.4914799026507
 20
153.3243185540143
 30
0.0
 11
419.499550384191
 21
153.4443836604034
 31
0.0
  0
ARC
  5
8CBC
330
1A
100
AcDbEntity
  8
SEIHIN
100
AcDbCircle
 10
417.4893112895253
 20
145.4676219419329
 30
0.0
 40
3.261574652254387
100
AcDbArc
 50
270.1803169256883
 51
353.5523978999321
  0
LINE
  5
8CBD
330
1A
100
AcDbEntity
  8
SEIHIN
100
AcDbLine
 10
420.4786189349427
 20
137.4211639449159
 30
0.0
 11
420.7302563722437
 21
145.1013649515109
 31
0.0
  0
ARC
  5
8CC0
330
1A
100
AcDbEntity
  8
SEIHIN
100
AcDbCircle
 10
417.0074427868518
 20
141.8938965867265
 30
0.0
 40
5.535728018279538
100
AcDbArc
 50
235.5953100623864
 51
259.2087356965773
  0
LINE
  5
8CC1
330
1A
100
AcDbEntity
  8
SEIHIN
100
AcDbLine
 10
413.8795652465198
 20
137.3265486927017
 30
0.0
 11
413.8836100156515
 21
137.4037274853753
 31
0.0
  0
LINE
  5
8CC2
330
1A
100
AcDbEntity
  8
SEIHIN
100
AcDbLine
 10
413.8795652465198
 20
137.3265486927017
 30
0.0
 11
413.7422314338667
 21
134.7060634416183
 31
0.0
  0
LINE
  5
8CC3
330
1A
100
AcDbEntity
  8
SEIHIN
100
AcDbLine
 10
416.7718477031075
 20
142.2060634416183
 30
0.0
 11
417.6735926939991
 21
142.2060634416183
 31
0.0
  0
LINE
  5
8CC6
330
1A
100
AcDbEntity
  8
SEIHIN
100
AcDbLine
 10
416.7422314338666
 20
134.7060634416183
 30
0.0
 11
416.8339450476119
 21
136.4560634416183
 31
0.0
  0
LINE
  5
8CC9
330
1A
100
AcDbEntity
  8
SEIHIN
100
AcDbLine
 10
418.7322314338667
 20
134.7060634416183
 30
0.0
 11
418.8239450476118
 21
136.4560634416183
 31
0.0
  0
LINE
  5
8CCB
330
1A
100
AcDbEntity
  8
SEIHIN
100
AcDbLine
 10
421.5786205811605
 20
141.1247510915673
 30
0.0
 11
421.2422314338671
 21
134.7060634416184
 31
0.0
  0
ARC
  5
8CCF
330
1A
100
AcDbEntity
  8
SEIHIN
100
AcDbCircle
 10
420.3849791519424
 20
137.4560635501691
 30
0.0
 40
1.000000103433656
100
AcDbArc
 50
284.8525519443593
 51
356.9999940825521
  0
LINE
  5
8CD0
330
1A
100
AcDbEntity
  8
SEIHIN
100
AcDbLine
 10
420.5478469784207
 20
134.7060634416183
 30
0.0
 11
420.6413116035401
 21
136.4894747642187
 31
0.0
  0
ARC
  5
8CD5
330
1A
100
AcDbEntity
  8
SEIHIN
100
AcDbCircle
 10
414.4329038558543
 20
153.7852590567275
 30
0.0
 40
5.079533223463109
100
AcDbArc
 50
269.3394058473138
 51
354.7935518717616
  0
ARC
  5
8CD6
330
1A
100
AcDbEntity
  8
SEIHIN
100
AcDbCircle
 10
449.694992913809
 20
113.0659725376999
 30
0.0
 40
43.51280209698921
100
AcDbArc
 50
125.0080568216425
 51
129.7675762727837
  0
LINE
  5
8CD8
330
1A
100
AcDbEntity
  8
SEIHIN
100
AcDbLine
 10
428.2422314338669
 20
147.6681070687067
 30
0.0
 11
427.5629195124013
 21
147.6681070687067
 31
0.0
  0
LINE
  5
8CDA
330
1A
100
AcDbEntity
  8
SEIHIN
100
AcDbLine
 10
423.2422314338671
 20
247.4043899410474
 30
0.0
 11
423.2422314338671
 21
248.4043899410971
 31
0.0
  0
LINE
  5
8CDB
330
1A
100
AcDbEntity
  8
SEIHIN
100
AcDbLine
 10
424.2537234166686
 20
174.7060634416182
 30
0.0
 11
425.0449607060249
 21
174.7060634416182
 31
0.0
  0
LINE
  5
8CDC
330
1A
100
AcDbEntity
  8
SEIHIN
100
AcDbLine
 10
421.724436518956
 20
171.7101748373545
 30
0.0
 11
425.0449607060249
 21
174.7060634416182
 31
0.0
  0
LINE
  5
8CDD
330
1A
100
AcDbEntity
  8
CENTER_L
 48
10.0
100
AcDbLine
 10
416.7918007623482
 20
166.7060634415608
 30
0.0
 11
438.0660430787229
 21
166.7060634415608
 31
0.0
  0
LINE
  5
8CDF
330
1A
100
AcDbEntity
  8
SEIHIN
100
AcDbLine
 10
421.2422314338671
 20
247.4043899410474
 30
0.0
 11
423.2422314338671
 21
247.4043899410474
 31
0.0
  0
LINE
  5
8CE0
330
1A
100
AcDbEntity
  8
SEIHIN
100
AcDbLine
 10
421.724436518956
 20
171.7101748373545
 30
0.0
 11
420.9331992295997
 21
171.7101748373544
 31
0.0
  0
LINE
  5
8CE1
330
1A
100
AcDbEntity
  8
SEIHIN
100
AcDbLine
 10
420.9331992295997
 20
171.7101748373544
 30
0.0
 11
424.2537234166686
 21
174.7060634416182
 31
0.0
  0
LINE
  5
8CE2
330
1A
100
AcDbEntity
  8
SEIHIN
100
AcDbLine
 10
421.6224135837497
 20
161.3161042876248
 30
0.0
 11
421.8136392614674
 21
165.1187921954465
 31
0.0
  0
ARC
  5
8CE3
330
1A
100
AcDbEntity
  8
SEIHIN
100
AcDbCircle
 10
396.2273691046111
 20
168.0685474295564
 30
0.0
 40
25.75581287610372
100
AcDbArc
 50
353.4236940843786
 51
8.128316808046303
  0
ARC
  5
8CE4
330
1A
100
AcDbEntity
  8
SEIHIN
100
AcDbCircle
 10
445.9140843444361
 20
165.4367832529095
 30
0.0
 40
25.75655378913189
100
AcDbArc
 50
165.9029623456703
 51
180.4424691211067
  0
LINE
  5
8CE5
330
1A
100
AcDbEntity
  8
SEIHIN
100
AcDbLine
 10
425.0449607060249
 20
174.7060634416182
 30
0.0
 11
428.2422314338669
 21
174.7060634416182
 31
0.0
  0
LINE
  5
8CE9
330
1A
100
AcDbEntity
  8
CENTER_L
 48
10.0
100
AcDbLine
 10
417.2370760788346
 20
255.4043899410473
 30
0.0
 11
443.6329287933801
 21
255.4043899410473
 31
0.0
  0
LINE
  5
8CEA
330
1A
100
AcDbEntity
  8
SEIHIN
100
AcDbLine
 10
423.2422314338671
 20
248.4043899410971
 30
0.0
 11
428.2422314338669
 21
251.4043899410971
 31
0.0
  0
ARC
  5
8CEB
330
1A
100
AcDbEntity
  8
SEIHIN
100
AcDbCircle
 10
551.4614575309476
 20
305.5231717683708
 30
0.0
 40
10.0
100
AcDbArc
 50
180.0
 51
267.9999999999833
  0
ARC
  5
8CEC
330
1A
100
AcDbEntity
  8
SEIHIN
100
AcDbCircle
 10
551.4614575309476
 20
317.9286382972474
 30
0.0
 40
10.0
100
AcDbArc
 50
92.9999999999991
 51
180.0
  0
LINE
  5
8CED
330
1A
100
AcDbEntity
  8
SEIHIN
100
AcDbLine
 10
424.2537234166686
 20
317.9286382972475
 30
0.0
 11
424.5615462932501
 21
313.1024168291472
 31
0.0
  0
LINE
  5
8CEE
330
1A
100
AcDbEntity
  8
SEIHIN
100
AcDbLine
 10
419.0704800898124
 20
318.6754555943207
 30
0.0
 11
419.7396271996837
 21
308.1841880743622
 31
0.0
  0
LINE
  5
8CEF
330
1A
100
AcDbEntity
  8
SEIHIN
100
AcDbLine
 10
416.7422314338666
 20
296.5145951355939
 30
0.0
 11
416.7422314338666
 21
292.0423107238427
 31
0.0
  0
LINE
  5
8CF0
330
1A
100
AcDbEntity
  8
SEIHIN
100
AcDbLine
 10
420.5221268847749
 20
295.9157146557842
 30
0.0
 11
421.2422294029765
 21
284.6255393732543
 31
0.0
  0
ARC
  5
8CF1
330
1A
100
AcDbEntity
  8
SEIHIN
100
AcDbCircle
 10
419.7392410326894
 20
292.0417182172276
 30
0.0
 40
2.997009517779511
100
AcDbArc
 50
180.0109190950655
 51
233.9881829652214
  0
LINE
  5
8CF2
330
1A
100
AcDbEntity
  8
SEIHIN
100
AcDbLine
 10
417.9771429146232
 20
289.6174498566758
 30
0.0
 11
417.9780843333626
 21
289.6167658533827
 31
0.0
  0
LINE
  5
8CF3
330
1A
100
AcDbEntity
  8
SEIHIN
100
AcDbLine
 10
416.7422314338666
 20
292.0423107238427
 30
0.0
 11
416.7422314338666
 21
292.0411470530355
 31
0.0
  0
ARC
  5
8CF4
330
1A
100
AcDbEntity
  8
SEIHIN
100
AcDbCircle
 10
421.729335730714
 20
278.3072885246331
 30
0.0
 40
2.997104260751515
100
AcDbArc
 50
140.2028430303554
 51
179.9915858760106
  0
LINE
  5
8CF5
330
1A
100
AcDbEntity
  8
SEIHIN
100
AcDbLine
 10
418.7322314338667
 20
278.3077286660542
 30
0.0
 11
418.7322314338667
 21
278.3069017886091
 31
0.0
  0
LINE
  5
8CF6
330
1A
100
AcDbEntity
  8
SEIHIN
100
AcDbLine
 10
419.427144015078
 20
273.1783762410268
 30
0.0
 11
420.5473176244249
 21
271.8341679098184
 31
0.0
  0
LINE
  5
8CF7
330
1A
100
AcDbEntity
  8
SEIHIN
100
AcDbLine
 10
418.7322314338667
 20
275.0977594909097
 30
0.0
 11
418.7322314338667
 21
275.0969326134647
 31
0.0
  0
LINE
  5
8CF8
330
1A
100
AcDbEntity
  8
SEIHIN
100
AcDbLine
 10
419.4266146610373
 20
273.1790114658757
 30
0.0
 11
419.427144015078
 21
273.1783762410268
 31
0.0
  0
ARC
  5
8CF9
330
1A
100
AcDbEntity
  8
SEIHIN
100
AcDbCircle
 10
421.729335730714
 20
275.0973727548857
 30
0.0
 40
2.997104260751414
100
AcDbArc
 50
180.0084141239885
 51
219.7971569684444
  0
LINE
  5
8CFA
330
1A
100
AcDbEntity
  8
SEIHIN
100
AcDbLine
 10
420.5473176244249
 20
271.8341679098184
 30
0.0
 11
420.5478469363752
 21
271.833532628607
 31
0.0
  0
LINE
  5
8CFB
330
1A
100
AcDbEntity
  8
SEIHIN
100
AcDbLine
 10
418.7322314338667
 20
278.3069017886091
 30
0.0
 11
418.7322314338667
 21
275.0977594909097
 31
0.0
  0
ARC
  5
8CFC
330
1A
100
AcDbEntity
  8
SEIHIN
100
AcDbCircle
 10
418.1722181002219
 20
283.4065237461477
 30
0.0
 40
2.999999999999991
100
AcDbArc
 50
320.1944289063691
 51
3.649458263002776
  0
LINE
  5
8CFD
330
1A
100
AcDbEntity
  8
SEIHIN
100
AcDbLine
 10
419.7784052104966
 20
288.3087130634686
 30
0.0
 11
419.7792736297006
 21
288.3080819566706
 31
0.0
  0
LINE
  5
8CFE
330
1A
100
AcDbEntity
  8
SEIHIN
100
AcDbLine
 10
420.4768819389682
 20
281.4859705470992
 30
0.0
 11
419.4271440151182
 21
280.2262850385403
 31
0.0
  0
LINE
  5
8CFF
330
1A
100
AcDbEntity
  8
SEIHIN
100
AcDbLine
 10
419.4271440151182
 20
280.2262850385403
 30
0.0
 11
419.4266146610775
 21
280.2256498136914
 31
0.0
  0
LINE
  5
8D00
330
1A
100
AcDbEntity
  8
SEIHIN
100
AcDbLine
 10
421.0081098347695
 20
286.075079211301
 30
0.0
 11
421.0081782816071
 21
286.0740078744097
 31
0.0
  0
LINE
  5
8D01
330
1A
100
AcDbEntity
  8
SEIHIN
100
AcDbLine
 10
421.0081782816071
 20
286.0740078744097
 30
0.0
 11
421.1661345659117
 21
283.5974797527885
 31
0.0
  0
LINE
  5
8D02
330
1A
100
AcDbEntity
  8
SEIHIN
100
AcDbLine
 10
417.9780843333626
 20
289.6167658533827
 30
0.0
 11
419.7784052104966
 21
288.3087130634686
 31
0.0
  0
ARC
  5
8D03
330
1A
100
AcDbEntity
  8
SEIHIN
100
AcDbCircle
 10
418.0171772352841
 20
285.8837689112147
 30
0.0
 40
2.997044785383241
100
AcDbArc
 50
3.659847799710784
 51
53.98871252357808
  0
LINE
  5
8D05
330
1A
100
AcDbEntity
  8
CENTER_L
 48
10.0
100
AcDbLine
 10
413.9157469729379
 20
310.4043899410697
 30
0.0
 11
445.1065630484913
 21
310.4043899410697
 31
0.0
  0
ARC
  5
8D08
330
1A
100
AcDbEntity
  8
SEIHIN
100
AcDbCircle
 10
416.5339338805488
 20
295.6595636233942
 30
0.0
 40
3.996410488219948
100
AcDbArc
 50
3.674907936368919
 51
74.71435726957493
  0
ARC
  5
8D09
330
1A
100
AcDbEntity
  8
SEIHIN
100
AcDbCircle
 10
413.7422314338667
 20
296.5145951355939
 30
0.0
 40
3.0
100
AcDbArc
 50
0.0
 51
89.9999951189671
  0
ARC
  5
8D0A
330
1A
100
AcDbEntity
  8
SEIHIN
100
AcDbCircle
 10
415.0713893719419
 20
307.7550375741302
 30
0.0
 40
5.095361789569698
100
AcDbArc
 50
297.8761828527855
 51
340.5283828649935
  0
ARC
  5
8D0C
330
1A
100
AcDbEntity
  8
SEIHIN
100
AcDbCircle
 10
415.0257237910627
 20
307.6196344762291
 30
0.0
 40
4.99809776190512
100
AcDbArc
 50
269.9899660219598
 51
299.0647591066527
  0
LINE
  5
8D0E
330
1A
100
AcDbEntity
  8
SEIHIN
100
AcDbLine
 10
428.2422314338669
 20
295.5292634981801
 30
0.0
 11
425.1341634744989
 21
295.5292634981801
 31
0.0
  0
LINE
  5
8D13
330
1A
100
AcDbEntity
  8
SEIHIN
100
AcDbLine
 10
423.4788227689891
 20
327.9149336447931
 30
0.0
 11
428.2422314338669
 21
327.9149336447931
 31
0.0
  0
LINE
  5
8D15
330
1A
100
AcDbEntity
  8
SEIHIN
100
AcDbLine
 10
419.0704800898124
 20
328.2322095650627
 30
0.0
 11
419.0704800898124
 21
321.0132234933423
 31
0.0
  0
ARC
  5
8D16
330
1A
100
AcDbEntity
  8
SEIHIN
100
AcDbCircle
 10
343.2320036520188
 20
316.6648563048855
 30
0.0
 40
81.03157544158733
100
AcDbArc
 50
0.8936307827529732
 51
7.980480147504136
  0
LINE
  5
8D17
330
1A
100
AcDbEntity
  8
SEIHIN
100
AcDbLine
 10
422.8138404389722
 20
328.5388537311521
 30
0.0
 11
423.4788227689891
 21
327.9149336447931
 31
0.0
  0
LINE
  5
8D1C
330
1A
100
AcDbEntity
  8
SEIHIN
100
AcDbLine
 10
570.4783085570547
 20
313.9878435014317
 30
0.0
 11
570.4783085570547
 21
255.5682199391419
 31
0.0
  0
LINE
  5
8D1D
330
1A
100
AcDbEntity
  8
SEIHIN
100
AcDbLine
 10
578.9446065048416
 20
265.4790212789293
 30
0.0
 11
578.9446065048416
 21
313.9878435014317
 31
0.0
  0
LINE
  5
8D1E
330
1A
100
AcDbEntity
  8
SEIHIN
100
AcDbLine
 10
592.4446065048405
 20
313.9878435014317
 30
0.0
 11
592.4446065048405
 21
255.5682199391419
 31
0.0
  0
LINE
  5
8D1F
330
1A
100
AcDbEntity
  8
SEIHIN
100
AcDbLine
 10
583.9783085570537
 20
265.4790212789293
 30
0.0
 11
583.9783085570537
 21
313.9878435014317
 31
0.0
  0
ARC
  5
8D20
330
1A
100
AcDbEntity
  8
SEIHIN
100
AcDbCircle
 10
554.4614575308892
 20
282.4043899410233
 30
0.0
 40
13.0
100
AcDbArc
 50
0.0
 51
87.99999999998332
  0
ARC
  5
8D21
330
1A
100
AcDbEntity
  8
SEIHIN
100
AcDbCircle
 10
575.4614575308892
 20
255.7298153846891
 30
0.0
 40
8.0
100
AcDbArc
 50
180.0
 51
209.5116615923456
  0
LINE
  5
8D22
330
1A
100
AcDbEntity
  8
SEIHIN
100
AcDbLine
 10
567.4614575308892
 20
282.4043899410233
 30
0.0
 11
567.4614575308892
 21
255.7298153846891
 31
0.0
  0
CIRCLE
  5
8D23
330
1A
100
AcDbEntity
  8
SEIHIN
100
AcDbCircle
 10
581.4614575309476
 20
255.4043899410472
 30
0.0
 40
2.149999999999977
  0
LINE
  5
8D24
330
1A
100
AcDbEntity
  8
SEIHIN
100
AcDbLine
 10
571.651176456809
 20
248.6954882572016
 30
0.0
 11
581.4614575309476
 21
248.404389941097
 31
0.0
  0
LINE
  5
8D25
330
1A
100
AcDbEntity
  8
SEIHIN
100
AcDbLine
 10
568.4994139038594
 20
251.7890098153499
 30
0.0
 11
581.4614575309476
 21
251.404389941097
 31
0.0
  0
LINE
  5
8D26
330
1A
100
AcDbEntity
  8
SEIHIN
100
AcDbLine
 10
575.0427698809987
 20
247.7407791066497
 30
0.0
 11
581.4614575309476
 21
247.4043899410472
 31
0.0
  0
LINE
  5
8D27
330
1A
100
AcDbEntity
  8
CENTER_L
 48
10.0
100
AcDbLine
 10
572.5677630599141
 20
255.4043899410472
 30
0.0
 11
590.3551520019812
 21
255.4043899410472
 31
0.0
  0
ARC
  5
8D28
330
1A
100
AcDbEntity
  8
SEIHIN
100
AcDbCircle
 10
581.4614575309476
 20
255.4043899410472
 30
0.0
 40
10.01685102610607
100
AcDbArc
 50
106.6687534000217
 51
179.0968071976118
  0
ARC
  5
8D29
330
1A
100
AcDbEntity
  8
SEIHIN
100
AcDbCircle
 10
578.4456996272415
 20
265.4784342580127
 30
0.0
 40
0.4989072229484722
100
AcDbArc
 50
286.6013384033698
 51
0.0674149966593878
  0
ARC
  5
8D2A
330
1A
100
AcDbEntity
  8
SEIHIN
100
AcDbCircle
 10
575.4614575308887
 20
255.7298153846879
 30
0.0
 40
7.999999999998816
100
AcDbArc
 50
241.5569419835717
 51
267.0000000003858
  0
ARC
  5
8D2B
330
1A
100
AcDbEntity
  8
SEIHIN
100
AcDbCircle
 10
575.4614575308874
 20
255.7298153846874
 30
0.0
 40
7.999999999997625
100
AcDbArc
 50
209.5116615923421
 51
241.5569419835791
  0
LINE
  5
8D2C
330
1A
100
AcDbEntity
  8
SEIHIN
100
AcDbLine
 10
570.9337120027096
 20
255.1914959268088
 30
0.0
 11
570.9337124045876
 21
255.1915133194016
 31
0.0
  0
LINE
  5
8D2D
330
1A
100
AcDbEntity
  8
SEIHIN
100
AcDbLine
 10
570.9316438883343
 20
255.070660973732
 30
0.0
 11
570.9316438673502
 21
255.0706588685747
 31
0.0
  0
ARC
  5
8D2E
330
1A
100
AcDbEntity
  8
SEIHIN
100
AcDbCircle
 10
570.9770972715439
 20
255.5673750619902
 30
0.0
 40
0.4987894300393848
100
AcDbArc
 50
179.9029491901171
 51
264.771531185289
  0
ARC
  5
8D2F
330
1A
100
AcDbEntity
  8
SEIHIN
100
AcDbCircle
 10
570.9470409418238
 20
255.5692803363351
 30
0.0
 40
0.4988591364443686
100
AcDbArc
 50
268.231309311634
 51
359.1966393442046
  0
ARC
  5
8D30
330
1A
100
AcDbEntity
  8
SEIHIN
100
AcDbCircle
 10
581.4614575309476
 20
255.4043899410472
 30
0.0
 40
10.01685102610607
100
AcDbArc
 50
0.9031928023881468
 51
73.33124659997825
  0
ARC
  5
8D31
330
1A
100
AcDbEntity
  8
SEIHIN
100
AcDbCircle
 10
591.9458177903513
 20
255.5673750619902
 30
0.0
 40
0.4987894300393848
100
AcDbArc
 50
275.2284688147109
 51
0.0970508098828331
  0
ARC
  5
8D32
330
1A
100
AcDbEntity
  8
SEIHIN
100
AcDbCircle
 10
591.9758741200714
 20
255.5692803363351
 30
0.0
 40
0.4988591364443686
100
AcDbArc
 50
180.8033606557953
 51
271.768690688366
  0
LINE
  5
8D33
330
1A
100
AcDbEntity
  8
SEIHIN
100
AcDbLine
 10
591.9892030591856
 20
255.1914959268088
 30
0.0
 11
591.9892026573077
 21
255.1915133194016
 31
0.0
  0
LINE
  5
8D34
330
1A
100
AcDbEntity
  8
SEIHIN
100
AcDbLine
 10
591.991271173561
 20
255.070660973732
 30
0.0
 11
591.9912711945451
 21
255.0706588685747
 31
0.0
  0
LINE
  5
8D35
330
1A
100
AcDbEntity
  8
SEIHIN
100
AcDbLine
 10
581.4614575309476
 20
247.4043899410472
 30
0.0
 11
587.8801451808965
 21
247.7407791066497
 31
0.0
  0
ARC
  5
8D36
330
1A
100
AcDbEntity
  8
SEIHIN
100
AcDbCircle
 10
584.4772154346538
 20
265.4784342580127
 30
0.0
 40
0.4989072229484722
100
AcDbArc
 50
179.9325850033406
 51
253.3986615966302
  0
LINE
  5
8D37
330
1A
100
AcDbEntity
  8
SEIHIN
100
AcDbLine
 10
591.0791896648709
 20
248.5945498530075
 30
0.0
 11
581.4614575309476
 21
248.404389941097
 31
0.0
  0
ARC
  5
8D38
330
1A
100
AcDbEntity
  8
SEIHIN
100
AcDbCircle
 10
587.4614575310065
 20
255.7298153846879
 30
0.0
 40
7.999999999998816
100
AcDbArc
 50
272.9999999996142
 51
298.4430580164282
  0
ARC
  5
8D39
330
1A
100
AcDbEntity
  8
SEIHIN
100
AcDbCircle
 10
566.9458293494694
 20
318.0200181225265
 30
0.0
 40
0.4987780006378062
100
AcDbArc
 50
269.8945175100606
 51
0.1054824899344742
  0
ARC
  5
8D3A
330
1A
100
AcDbEntity
  8
SEIHIN
100
AcDbCircle
 10
566.9458293494694
 20
313.9887617595678
 30
0.0
 40
0.498778000637863
100
AcDbArc
 50
359.8945175100729
 51
90.10548248993284
  0
ARC
  5
8D3B
330
1A
100
AcDbEntity
  8
SEIHIN
100
AcDbCircle
 10
566.9458304019656
 20
323.4887091184909
 30
0.0
 40
0.4987770113547324
100
AcDbArc
 50
359.8906442641544
 51
92.10935573585057
  0
ARC
  5
8D3C
330
1A
100
AcDbEntity
  8
SEIHIN
100
AcDbCircle
 10
566.946792993037
 20
293.2141340945617
 30
0.0
 40
0.4978390885824679
100
AcDbArc
 50
220.3225778641833
 51
0.5807883544758623
  0
LINE
  5
8D3D
330
1A
100
AcDbEntity
  8
SEIHIN
100
AcDbLine
 10
581.4614575309476
 20
329.514595135597
 30
0.0
 11
550.9380979685245
 21
327.9149336446727
 31
0.0
  0
ARC
  5
8D3E
330
1A
100
AcDbEntity
  8
SEIHIN
100
AcDbCircle
 10
549.4614575310051
 20
310.4043899410696
 30
0.0
 40
10.01685102610597
100
AcDbArc
 50
262.5945688482052
 51
16.25592706113592
  0
LINE
  5
8D3F
330
1A
100
AcDbEntity
  8
CENTER_L
 48
10.0
100
AcDbLine
 10
549.4614575310051
 20
318.1940280387942
 30
0.0
 11
549.4614575310051
 21
302.614751843345
 31
0.0
  0
CIRCLE
  5
8D40
330
1A
100
AcDbEntity
  8
SEIHIN
100
AcDbCircle
 10
549.4614575310051
 20
310.4043899410696
 30
0.0
 40
2.149999999999977
  0
LINE
  5
8D41
330
1A
100
AcDbEntity
  8
SEIHIN
100
AcDbLine
 10
541.4614575309476
 20
317.9286382972474
 30
0.0
 11
541.4614575309476
 21
305.5231717683708
 31
0.0
  0
LINE
  5
8D42
330
1A
100
AcDbEntity
  8
SEIHIN
100
AcDbLine
 10
551.112462563919
 20
295.52926349818
 30
0.0
 11
554.9151509880261
 21
295.3964706922714
 31
0.0
  0
LINE
  5
8D43
330
1A
100
AcDbEntity
  8
SEIHIN
100
AcDbLine
 10
551.2177491463603
 20
298.5442767401778
 30
0.0
 11
555.0204375705175
 21
298.4114839342689
 31
0.0
  0
LINE
  5
8D44
330
1A
100
AcDbEntity
  8
CENTER_L
 48
10.0
100
AcDbLine
 10
541.6718194332807
 20
310.4043899410696
 30
0.0
 11
557.2510956287296
 21
310.4043899410696
 31
0.0
  0
ARC
  5
8D45
330
1A
100
AcDbEntity
  8
SEIHIN
100
AcDbCircle
 10
548.0906496117618
 20
299.980928564875
 30
0.0
 40
0.4966051565441513
100
AcDbArc
 50
80.76000249809252
 51
240.6669049104248
  0
ARC
  5
8D46
330
1A
100
AcDbEntity
  8
SEIHIN
100
AcDbCircle
 10
551.4614575309476
 20
305.5231717683954
 30
0.0
 40
6.983148973894044
100
AcDbArc
 50
238.832338560424
 51
267.9999999999963
  0
ARC
  5
8D47
330
1A
100
AcDbEntity
  8
SEIHIN
100
AcDbCircle
 10
554.4614575309476
 20
282.4043899410472
 30
0.0
 40
16.01685102610605
100
AcDbArc
 50
40.90336621854143
 51
88.00000000000286
  0
ARC
  5
8D48
330
1A
100
AcDbEntity
  8
SEIHIN
100
AcDbCircle
 10
549.4614575310051
 20
310.4043899410696
 30
0.0
 40
10.01685102610609
100
AcDbArc
 50
47.45549382909518
 51
114.1191005780331
  0
LINE
  5
8D49
330
1A
100
AcDbEntity
  8
SEIHIN
100
AcDbLine
 10
566.9274719728973
 20
323.9871481570283
 30
0.0
 11
546.8254015466132
 21
323.2851683893651
 31
0.0
  0
ARC
  5
8D4A
330
1A
100
AcDbEntity
  8
SEIHIN
100
AcDbCircle
 10
551.4614575309476
 20
318.4608766078065
 30
0.0
 40
6.98314897389261
100
AcDbArc
 50
140.2591977329827
 51
166.2416405173756
  0
ARC
  5
8D4B
330
1A
100
AcDbEntity
  8
SEIHIN
100
AcDbCircle
 10
545.1619773369193
 20
320.0003574201097
 30
0.0
 40
0.4982946542466969
100
AcDbArc
 50
165.9103432679411
 51
294.4503978275472
  0
ARC
  5
8D4C
330
1A
100
AcDbEntity
  8
SEIHIN
100
AcDbCircle
 10
546.8599416000704
 20
322.2870757807727
 30
0.0
 40
0.9986900773611605
100
AcDbArc
 50
91.98199028270664
 51
140.2772074502718
  0
ARC
  5
8D4D
330
1A
100
AcDbEntity
  8
SEIHIN
100
AcDbCircle
 10
560.035794651177
 20
313.4892621635742
 30
0.0
 40
0.9982778563562774
100
AcDbArc
 50
89.91475066502379
 51
196.3411763961215
  0
LINE
  5
8D4E
330
1A
100
AcDbEntity
  8
SEIHIN
100
AcDbLine
 10
556.9102294263241
 20
317.5212409671531
 30
0.0
 11
566.9449110913332
 21
317.5212409671531
 31
0.0
  0
LINE
  5
8D4F
330
1A
100
AcDbEntity
  8
SEIHIN
100
AcDbLine
 10
566.9449110913332
 20
314.4875389149412
 30
0.0
 11
560.0372799698637
 21
314.4875389149412
 31
0.0
  0
LINE
  5
8D50
330
1A
100
AcDbEntity
  8
SEIHIN
100
AcDbLine
 10
567.4446065048427
 20
293.219180438217
 30
0.0
 11
567.4446065048427
 21
313.9878435014317
 31
0.0
  0
LINE
  5
8D51
330
1A
100
AcDbEntity
  8
SEIHIN
100
AcDbLine
 10
578.9446065048416
 20
318.0209363806627
 30
0.0
 11
578.9446065048416
 21
323.8893459936183
 31
0.0
  0
ARC
  5
8D52
330
1A
100
AcDbEntity
  8
SEIHIN
100
AcDbCircle
 10
578.445829349468
 20
318.0200181225267
 30
0.0
 40
0.49877800063809
100
AcDbArc
 50
269.8945175100932
 51
0.1054824899084191
  0
ARC
  5
8D53
330
1A
100
AcDbEntity
  8
SEIHIN
100
AcDbCircle
 10
578.445829349468
 20
313.9887617595676
 30
0.0
 40
0.49877800063809
100
AcDbArc
 50
359.8945175100924
 51
90.10548248990678
  0
ARC
  5
8D54
330
1A
100
AcDbEntity
  8
SEIHIN
100
AcDbCircle
 10
578.4458304019643
 20
323.8902979676457
 30
0.0
 40
0.4987770113548944
100
AcDbArc
 50
359.890644264174
 51
92.10935573582451
  0
LINE
  5
8D55
330
1A
100
AcDbEntity
  8
SEIHIN
100
AcDbLine
 10
570.4783085570547
 20
323.6285958512377
 30
0.0
 11
570.4783085570547
 21
318.0209363806627
 31
0.0
  0
ARC
  5
8D56
330
1A
100
AcDbEntity
  8
SEIHIN
100
AcDbCircle
 10
570.9770857124283
 20
318.0200181225267
 30
0.0
 40
0.4987780006379765
100
AcDbArc
 50
179.894517510085
 51
270.1054824899198
  0
ARC
  5
8D57
330
1A
100
AcDbEntity
  8
SEIHIN
100
AcDbCircle
 10
570.9770857124283
 20
313.9887617595677
 30
0.0
 40
0.4987780006379765
100
AcDbArc
 50
89.89451751007367
 51
180.1054824899157
  0
ARC
  5
8D58
330
1A
100
AcDbEntity
  8
SEIHIN
100
AcDbCircle
 10
570.9771035824628
 20
323.6294653459204
 30
0.0
 40
0.4987957832547134
100
AcDbArc
 50
91.90012265032017
 51
180.0998773496667
  0
LINE
  5
8D59
330
1A
100
AcDbEntity
  8
SEIHIN
100
AcDbLine
 10
578.4449110913319
 20
314.4875389149412
 30
0.0
 11
570.9780039705642
 21
314.4875389149412
 31
0.0
  0
LINE
  5
8D5A
330
1A
100
AcDbEntity
  8
SEIHIN
100
AcDbLine
 10
570.9780039705645
 20
317.5212409671531
 30
0.0
 11
578.4449110913319
 21
317.5212409671531
 31
0.0
  0
LINE
  5
8D5B
330
1A
100
AcDbEntity
  8
SEIHIN
100
AcDbLine
 10
578.4274719728959
 20
324.3887370061833
 30
0.0
 11
570.9605648521282
 21
324.1279868638026
 31
0.0
  0
LINE
  5
8D5C
330
1A
100
AcDbEntity
  8
SEIHIN
100
AcDbLine
 10
567.4446065048427
 20
318.0209363806627
 30
0.0
 11
567.4446065048427
 21
323.4877571444633
 31
0.0
  0
ARC
  5
8D5D
330
1A
100
AcDbEntity
  8
SEIHIN
100
AcDbCircle
 10
591.9458114794324
 20
323.6294653459204
 30
0.0
 40
0.4987957832547134
100
AcDbArc
 50
359.9001226503332
 51
88.09987734967982
  0
ARC
  5
8D5E
330
1A
100
AcDbEntity
  8
SEIHIN
100
AcDbCircle
 10
591.945829349467
 20
318.0200181225267
 30
0.0
 40
0.4987780006379765
100
AcDbArc
 50
269.8945175100801
 51
0.1054824899149329
  0
ARC
  5
8D5F
330
1A
100
AcDbEntity
  8
SEIHIN
100
AcDbCircle
 10
591.945829349467
 20
313.9887617595677
 30
0.0
 40
0.4987780006379765
100
AcDbArc
 50
359.8945175100842
 51
90.1054824899198
  0
LINE
  5
8D60
330
1A
100
AcDbEntity
  8
SEIHIN
100
AcDbLine
 10
592.4446065048405
 20
323.6285958512377
 30
0.0
 11
592.4446065048405
 21
318.0209363806627
 31
0.0
  0
ARC
  5
8D61
330
1A
100
AcDbEntity
  8
SEIHIN
100
AcDbCircle
 10
584.477084659931
 20
323.8902979676457
 30
0.0
 40
0.4987770113548944
100
AcDbArc
 50
87.89064426417549
 51
180.109355735826
  0
ARC
  5
8D62
330
1A
100
AcDbEntity
  8
SEIHIN
100
AcDbCircle
 10
584.4770857124272
 20
318.0200181225267
 30
0.0
 40
0.49877800063809
100
AcDbArc
 50
179.8945175100915
 51
270.1054824899067
  0
LINE
  5
8D63
330
1A
100
AcDbEntity
  8
SEIHIN
100
AcDbLine
 10
583.9783085570537
 20
318.0209363806627
 30
0.0
 11
583.9783085570537
 21
323.8893459936183
 31
0.0
  0
ARC
  5
8D64
330
1A
100
AcDbEntity
  8
SEIHIN
100
AcDbCircle
 10
584.4770857124272
 20
313.9887617595676
 30
0.0
 40
0.49877800063809
100
AcDbArc
 50
89.89451751009323
 51
180.1054824899075
  0
LINE
  5
8D65
330
1A
100
AcDbEntity
  8
SEIHIN
100
AcDbLine
 10
591.9449110913308
 20
317.5212409671531
 30
0.0
 11
584.4780039705633
 21
317.5212409671531
 31
0.0
  0
LINE
  5
8D66
330
1A
100
AcDbEntity
  8
SEIHIN
100
AcDbLine
 10
584.4954430889993
 20
324.3887370061833
 30
0.0
 11
591.962350209767
 21
324.1279868638026
 31
0.0
  0
LINE
  5
8D67
330
1A
100
AcDbEntity
  8
SEIHIN
100
AcDbLine
 10
584.4780039705633
 20
314.4875389149412
 30
0.0
 11
591.944911091331
 21
314.4875389149412
 31
0.0
  0
LINE
  5
8D68
330
1A
100
AcDbEntity
  8
SEIHIN
100
AcDbLine
 10
595.4614575310061
 20
282.4043899410233
 30
0.0
 11
595.4614575310061
 21
255.7298153846891
 31
0.0
  0
ARC
  5
8D69
330
1A
100
AcDbEntity
  8
SEIHIN
100
AcDbCircle
 10
587.4614575310061
 20
255.7298153846891
 30
0.0
 40
8.0
100
AcDbArc
 50
330.4883384076543
 51
0.0
  0
LINE
  5
8D6A
330
1A
100
AcDbEntity
  8
CENTER_L
 48
10.0
100
AcDbLine
 10
621.2510956286146
 20
310.4043899410696
 30
0.0
 11
605.6718194331656
 21
310.4043899410696
 31
0.0
  0
ARC
  5
8D6B
330
1A
100
AcDbEntity
  8
SEIHIN
100
AcDbCircle
 10
611.4614575309476
 20
305.5231717683708
 30
0.0
 40
10.0
100
AcDbArc
 50
272.0000000000166
 51
0.0
  0
ARC
  5
8D6C
330
1A
100
AcDbEntity
  8
SEIHIN
100
AcDbCircle
 10
611.4614575309476
 20
317.9286382972474
 30
0.0
 40
10.0
100
AcDbArc
 50
0.0
 51
87.00000000000091
  0
LINE
  5
8D6D
330
1A
100
AcDbEntity
  8
CENTER_L
 48
10.0
100
AcDbLine
 10
613.4614575308901
 20
318.1940280387942
 30
0.0
 11
613.4614575308901
 21
302.614751843345
 31
0.0
  0
LINE
  5
8D6E
330
1A
100
AcDbEntity
  8
SEIHIN
100
AcDbLine
 10
595.4783085570524
 20
293.219180438217
 30
0.0
 11
595.4783085570524
 21
313.9878435014317
 31
0.0
  0
CIRCLE
  5
8D6F
330
1A
100
AcDbEntity
  8
SEIHIN
100
AcDbCircle
 10
613.4614575308901
 20
310.4043899410696
 30
0.0
 40
2.149999999999977
  0
ARC
  5
8D70
330
1A
100
AcDbEntity
  8
SEIHIN
100
AcDbCircle
 10
613.4614575308901
 20
310.4043899410696
 30
0.0
 40
10.01685102610597
100
AcDbArc
 50
163.7440729388633
 51
277.4054311517947
  0
ARC
  5
8D71
330
1A
100
AcDbEntity
  8
SEIHIN
100
AcDbCircle
 10
608.4614575309476
 20
282.4043899410472
 30
0.0
 40
16.01685102610605
100
AcDbArc
 50
91.99999999999715
 51
139.0966337814585
  0
ARC
  5
8D72
330
1A
100
AcDbEntity
  8
SEIHIN
100
AcDbCircle
 10
595.9761220688583
 20
293.2141340945617
 30
0.0
 40
0.4978390885824679
100
AcDbArc
 50
179.4192116455241
 51
319.6774221358166
  0
LINE
  5
8D73
330
1A
100
AcDbEntity
  8
SEIHIN
100
AcDbLine
 10
611.8104524979762
 20
295.52926349818
 30
0.0
 11
608.0077640738691
 21
295.3964706922714
 31
0.0
  0
LINE
  5
8D74
330
1A
100
AcDbEntity
  8
SEIHIN
100
AcDbLine
 10
611.7051659155349
 20
298.5442767401778
 30
0.0
 11
607.9024774913778
 21
298.4114839342689
 31
0.0
  0
ARC
  5
8D75
330
1A
100
AcDbEntity
  8
SEIHIN
100
AcDbCircle
 10
614.8322654501335
 20
299.980928564875
 30
0.0
 40
0.4966051565441513
100
AcDbArc
 50
299.333095089575
 51
99.2399975019075
  0
ARC
  5
8D76
330
1A
100
AcDbEntity
  8
SEIHIN
100
AcDbCircle
 10
611.4614575309476
 20
305.5231717683954
 30
0.0
 40
6.983148973894044
100
AcDbArc
 50
271.999999999997
 51
301.1676614395759
  0
ARC
  5
8D77
330
1A
100
AcDbEntity
  8
SEIHIN
100
AcDbCircle
 10
613.4614575308901
 20
310.4043899410696
 30
0.0
 40
10.01685102610609
100
AcDbArc
 50
65.88089942196686
 51
132.5445061709
  0
LINE
  5
8D78
330
1A
100
AcDbEntity
  8
SEIHIN
100
AcDbLine
 10
595.9954430889979
 20
323.9871481570283
 30
0.0
 11
616.0975135152821
 21
323.2851683893651
 31
0.0
  0
ARC
  5
8D79
330
1A
100
AcDbEntity
  8
SEIHIN
100
AcDbCircle
 10
602.8871204107183
 20
313.4892621635742
 30
0.0
 40
0.9982778563562774
100
AcDbArc
 50
343.6588236038784
 51
90.0852493349762
  0
LINE
  5
8D7A
330
1A
100
AcDbEntity
  8
SEIHIN
100
AcDbLine
 10
595.4783085570524
 20
318.0209363806627
 30
0.0
 11
595.4783085570524
 21
323.4877571444633
 31
0.0
  0
ARC
  5
8D7B
330
1A
100
AcDbEntity
  8
SEIHIN
100
AcDbCircle
 10
595.9770846599297
 20
323.4887091184909
 30
0.0
 40
0.4987770113547324
100
AcDbArc
 50
87.89064426414944
 51
180.1093557358455
  0
ARC
  5
8D7C
330
1A
100
AcDbEntity
  8
SEIHIN
100
AcDbCircle
 10
595.9770857124258
 20
318.0200181225265
 30
0.0
 40
0.4987780006378062
100
AcDbArc
 50
179.8945175100655
 51
270.1054824899328
  0
ARC
  5
8D7D
330
1A
100
AcDbEntity
  8
SEIHIN
100
AcDbCircle
 10
595.9770857124258
 20
313.9887617595678
 30
0.0
 40
0.498778000637863
100
AcDbArc
 50
89.89451751006717
 51
180.1054824899271
  0
LINE
  5
8D7E
330
1A
100
AcDbEntity
  8
SEIHIN
100
AcDbLine
 10
606.0126856355712
 20
317.5212409671531
 30
0.0
 11
595.9780039705619
 21
317.5212409671531
 31
0.0
  0
LINE
  5
8D7F
330
1A
100
AcDbEntity
  8
SEIHIN
100
AcDbLine
 10
595.9780039705619
 20
314.4875389149412
 30
0.0
 11
602.8856350920316
 21
314.4875389149412
 31
0.0
  0
ARC
  5
8D80
330
1A
100
AcDbEntity
  8
SEIHIN
100
AcDbCircle
 10
611.4614575309476
 20
318.4608766078065
 30
0.0
 40
6.98314897389261
100
AcDbArc
 50
13.75835948262433
 51
39.74080226701726
  0
ARC
  5
8D81
330
1A
100
AcDbEntity
  8
SEIHIN
100
AcDbCircle
 10
617.7609377249759
 20
320.0003574201097
 30
0.0
 40
0.4982946542466969
100
AcDbArc
 50
245.5496021724527
 51
14.08965673205886
  0
ARC
  5
8D82
330
1A
100
AcDbEntity
  8
SEIHIN
100
AcDbCircle
 10
616.0629734618249
 20
322.2870757807727
 30
0.0
 40
0.9986900773611605
100
AcDbArc
 50
39.72279254972819
 51
88.01800971729335
  0
LINE
  5
8D83
330
1A
100
AcDbEntity
  8
SEIHIN
100
AcDbLine
 10
621.4614575309476
 20
317.9286382972474
 30
0.0
 11
621.4614575309476
 21
305.5231717683708
 31
0.0
  0
LINE
  5
8D84
330
1A
100
AcDbEntity
  8
SEIHIN
100
AcDbLine
 10
428.2422314338669
 20
493.7968371587121
 30
0.0
 11
428.2422314338668
 21
413.796837158712
 31
0.0
  0
ARC
  5
8D85
330
1A
100
AcDbEntity
  8
SEIHIN
100
AcDbCircle
 10
447.8545036548721
 20
484.6805879721548
 30
0.0
 40
28.27510666946496
100
AcDbArc
 50
167.821050040955
 51
181.0911348698445
  0
ARC
  5
8D87
330
1A
100
AcDbEntity
  8
SEIHIN
100
AcDbCircle
 10
414.0916088437218
 20
472.8676128512831
 30
0.0
 40
5.071100370613056
100
AcDbArc
 50
269.3516413589455
 51
356.3187456127174
  0
LINE
  5
8D88
330
1A
100
AcDbEntity
  8
SEIHIN
100
AcDbLine
 10
419.15584091862
 20
472.6223396751995
 30
0.0
 11
419.1522459017282
 21
472.5420187236282
 31
0.0
  0
LINE
  5
8D89
330
1A
100
AcDbEntity
  8
SEIHIN
100
AcDbLine
 10
419.15584091862
 20
472.6223396751995
 30
0.0
 11
419.5845954812551
 21
484.1421097709091
 31
0.0
  0
LINE
  5
8D8A
330
1A
100
AcDbEntity
  8
SEIHIN
100
AcDbLine
 10
422.6868448845225
 20
484.1458321257371
 30
0.0
 11
422.2580564799903
 21
472.6251527665312
 31
0.0
  0
LINE
  5
8D8B
330
1A
100
AcDbEntity
  8
CENTER_L
 48
10.0
100
AcDbLine
 10
415.7540138335866
 20
485.7968371586546
 30
0.0
 11
431.3332900290361
 21
485.7968371586546
 31
0.0
  0
LINE
  5
8D8C
330
1A
100
AcDbEntity
  8
SEIHIN
100
AcDbLine
 10
423.3482653542873
 20
493.7968371587121
 30
0.0
 11
428.2422314338669
 21
493.7968371587121
 31
0.0
  0
LINE
  5
8D8D
330
1A
100
AcDbEntity
  8
SEIHIN
100
AcDbLine
 10
423.3281193872903
 20
493.7876400967898
 30
0.0
 11
420.1974504976951
 21
490.6550932248124
 31
0.0
  0
DIMENSION
  5
8EC1
330
1A
100
AcDbEntity
  8
SUNPOU
100
AcDbDimension
  2
*D3
 10
477.3885293772143
 20
413.7968371587121
 30
0.0
 11
472.8885293772142
 21
453.7968371587122
 31
0.0
 70
    32
  3
STANDARD
100
AcDbAlignedDimension
 13
428.2422314338669
 23
493.7968371587121
 33
0.0
 14
428.2422314338669
 24
413.7968371587121
 34
0.0
 50
90.0
100
AcDbRotatedDimension
  0
DIMENSION
  5
8ECE
330
1A
100
AcDbEntity
  8
SUNPOU
100
AcDbDimension
  2
*D4
 10
292.9447252027346
 20
359.620522758234
 30
0.0
 11
360.5934783183007
 21
364.120522758234
 31
0.0
 70
    32
  3
STANDARD
100
AcDbAlignedDimension
 13
428.2422314338669
 23
329.5145951355971
 33
0.0
 14
292.9447252027346
 24
311.6022091797006
 34
0.0
100
AcDbRotatedDimension
  0
DIMENSION
  5
99E2
330
1A
100
AcDbEntity
  8
SUNPOU
100
AcDbDimension
  2
*D5
 10
252.2455810283383
 20
439.7968371587121
 30
0.0
 11
247.7455810283383
 21
453.7968371587121
 31
0.0
 70
    32
  3
STANDARD
100
AcDbAlignedDimension
 13
295.9117268798912
 23
467.796837158712
 33
0.0
 14
295.9117268798881
 24
439.7968371587121
 34
0.0
 50
90.0
100
AcDbRotatedDimension
  0
DIMENSION
  5
99F9
330
1A
100
AcDbEntity
  8
SUNPOU
100
AcDbDimension
  2
*D6
 10
613.4614575308901
 20
353.8032055605522
 30
0.0
 11
581.4614575309476
 21
358.3032055605522
 31
0.0
 70
    32
  3
STANDARD
100
AcDbAlignedDimension
 13
549.4614575310051
 23
318.1940280387942
 33
0.0
 14
613.4614575308901
 24
318.1940280387942
 34
0.0
100
AcDbRotatedDimension
  0
DIMENSION
  5
9A06
330
1A
100
AcDbEntity
  8
SUNPOU
100
AcDbDimension
  2
*D7
 10
541.4614575309476
 20
367.1346158199505
 30
0.0
 11
581.4614575309476
 21
371.6346158199505
 31
0.0
 70
    32
  3
STANDARD
100
AcDbAlignedDimension
 13
621.4614575309476
 23
317.9286382972474
 33
0.0
 14
541.4614575309476
 24
317.9286382972474
 34
0.0
100
AcDbRotatedDimension
  0
DIMENSION
  5
9A13
330
1A
100
AcDbEntity
  8
SUNPOU
100
AcDbDimension
  2
*D8
 10
513.4410382949933
 20
310.4043899410696
 30
0.0
 11
508.9410382949933
 21
319.9594925383333
 31
0.0
 70
    32
  3
STANDARD
100
AcDbAlignedDimension
 13
581.4614575309476
 23
329.514595135597
 33
0.0
 14
541.6718194332807
 24
310.4043899410696
 34
0.0
 50
90.0
100
AcDbRotatedDimension
  0
DIMENSION
  5
9A20
330
1A
100
AcDbEntity
  8
SUNPOU
100
AcDbDimension
  2
*D9
 10
513.4410382949933
 20
255.4043899410472
 30
0.0
 11
508.9410382949933
 21
282.9043899410585
 31
0.0
 70
    32
  3
STANDARD
100
AcDbAlignedDimension
 13
541.6718194332807
 23
310.4043899410696
 33
0.0
 14
572.5677630599141
 24
255.4043899410472
 34
0.0
 50
90.0
100
AcDbRotatedDimension
1001
ACAD
1000
DSTYLE
1002
{
1070
   287
1070
     4
1070
   287
1070
     4
1070
   287
1070
     4
1070
   287
1070
     4
1070
   287
1070
     4
1070
   287
1070
     4
1070
   287
1070
     4
1070
   287
1070
     4
1070
   279
1070
     1
1002
}
  0
DIMENSION
  5
9A2D
330
1A
100
AcDbEntity
  8
SUNPOU
100
AcDbDimension
  2
*D10
 10
498.7699674793955
 20
247.4043899410473
 30
0.0
 11
494.2699674793955
 21
288.4594925383222
 31
0.0
 70
    32
  3
STANDARD
100
AcDbAlignedDimension
 13
581.4614575309476
 23
329.514595135597
 33
0.0
 14
581.4614575309476
 24
247.4043899410472
 34
0.0
 50
90.0
100
AcDbRotatedDimension
  0
DIMENSION
  5
9A3A
330
1A
100
AcDbEntity
  8
SUNPOU
100
AcDbDimension
  2
*D11
 10
473.7624593007151
 20
247.4043899410473
 30
0.0
 11
469.2624593007151
 21
288.4594925383222
 31
0.0
 70
    32
  3
STANDARD
100
AcDbAlignedDimension
 13
428.2422314338669
 23
329.514595135597
 33
0.0
 14
423.2422314338671
 24
247.4043899410474
 34
0.0
 50
90.0
100
AcDbRotatedDimension
  0
DIMENSION
  5
9A47
330
1A
100
AcDbEntity
  8
SUNPOU
100
AcDbDimension
  2
*D12
 10
595.4614575310061
 20
217.1562482399156
 30
0.0
 11
581.4614575309476
 21
221.6562482399156
 31
0.0
 70
    32
  3
STANDARD
100
AcDbAlignedDimension
 13
567.4614575308892
 23
255.7298153846891
 33
0.0
 14
595.4614575310061
 24
255.7298153846891
 34
0.0
100
AcDbRotatedDimension
  0
LEADER
  5
9A54
330
1A
100
AcDbEntity
  8
SUNPOU
100
AcDbLeader
  3
STANDARD
 40
6.0
 41
31.19999999999999
 76
     3
 10
547.9972124880801
 20
311.9894930837247
 30
0.0
 10
531.3343077319866
 20
347.2396096857378
 30
0.0
 10
492.7469271806209
 20
347.2396096857378
 30
0.0
213
0.0
223
3.0
233
0.0
1001
ACAD
1000
DSTYLE
1002
{
1070
     5
1000
OPEN
1070
    77
1070
     0
1070
   147
1040
1.5
1070
   341
1005
6A30
1070
   342
1005
6A30
1002
}
1000
LEANOF
1010
0.0
1020
3.0
1030
0.0
  0
MTEXT
  5
9A5C
330
1A
100
AcDbEntity
  8
SUNPOU
100
AcDbMText
 10
525.258150479244
 20
349.6736538150144
 30
0.0
 40
6.0
 41
0.0
 71
     9
 72
     1
  1
\A1;3-φ4.2
1001
ACAD
1000
MTEXTBEGIN
1070
    73
1070
     1
1070
    44
1040
1.0
1070
    74
1070
     0
1000
MTEXTEND
1000
MTEXTBEGIN
1070
    73
1070
     1
1070
    44
1040
1.0
1070
    74
1070
     0
1000
MTEXTEND
1000
MTEXTBEGIN
1070
    73
1070
     1
1070
    44
1040
1.0
1070
    74
1070
     0
1000
MTEXTEND
1000
MTEXTBEGIN
1070
    73
1070
     1
1070
    44
1040
1.0
1070
    74
1070
     0
1000
MTEXTEND
1000
MTEXTBEGIN
1070
    73
1070
     1
1070
    44
1040
1.0
1070
    74
1070
     0
1000
MTEXTEND
1000
MTEXTBEGIN
1070
    73
1070
     1
1070
    44
1040
1.0
1070
    74
1070
     0
1000
MTEXTEND
1000
MTEXTBEGIN
1070
    73
1070
     1
1070
    44
1040
1.0
1070
    74
1070
     0
1000
MTEXTEND
1000
MTEXTBEGIN
1070
    73
1070
     1
1070
    44
1040
1.0
1070
    74
1070
     0
1000
MTEXTEND
  0
DIMENSION
  5
9A5D
330
1A
100
AcDbEntity
  8
SUNPOU
100
AcDbDimension
  2
*D13
 10
418.2165755876556
 20
343.7237206968447
 30
0.0
 11
423.2294035107612
 21
348.2237206968448
 31
0.0
 70
    32
  3
STANDARD
100
AcDbAlignedDimension
 13
428.2422314338669
 23
327.9149336447931
 33
0.0
 14
418.2165755876556
 24
329.5145951356575
 34
0.0
100
AcDbRotatedDimension
  0
DIMENSION
  5
9A79
330
1A
100
AcDbEntity
  8
SUNPOU
100
AcDbDimension
  2
*D14
 10
252.2455810283383
 20
319.5328199990663
 30
0.0
 11
247.7455810283383
 21
304.5328199990663
 31
0.0
 70
    32
  3
STANDARD
100
AcDbAlignedDimension
 13
408.1909197414443
 23
329.5145951357178
 33
0.0
 14
298.4470371847505
 24
319.5328199990663
 34
0.0
 50
90.0
100
AcDbRotatedDimension
  0
LINE
  5
A14A
330
1A
100
AcDbEntity
  8
SEIHIN
100
AcDbLine
 10
419.7396271996837
 20
308.1841880743622
 30
0.0
 11
420.5221268847749
 21
295.9157146557842
 31
0.0
  0
LINE
  5
A414
330
1A
100
AcDbEntity
  8
SEIHIN
100
AcDbLine
 10
295.9117268798911
 20
148.7060634416177
 30
0.0
 11
414.4329038558543
 21
148.7057258332644
 31
0.0
  0
ARC
  5
A415
330
1A
100
AcDbEntity
  8
SEIHIN
100
AcDbCircle
 10
293.9447252027346
 20
129.3441607942359
 30
0.0
 40
1.0
100
AcDbArc
 50
180.0
 51
190.6549054837595
  0
ARC
  5
A416
330
1A
100
AcDbEntity
  8
SEIHIN
100
AcDbCircle
 10
293.9447252027346
 20
140.067966089
 30
0.0
 40
1.0
100
AcDbArc
 50
169.3450945162422
 51
180.0
  0
LINE
  5
A417
330
1A
100
AcDbEntity
  8
SEIHIN
100
AcDbLine
 10
428.2422314338669
 20
174.7060634416182
 30
0.0
 11
428.2422314338669
 21
94.70606344161826
 31
0.0
  0
LINE
  5
A41D
330
1A
100
AcDbEntity
  8
SEIHIN
100
AcDbLine
 10
142.6673131053153
 20
294.7703738890442
 30
0.0
 11
142.6673131053153
 21
329.0257043627128
 31
0.0
  0
LINE
  5
A41F
330
1A
100
AcDbEntity
  8
SEIHIN
100
AcDbLine
 10
126.3183154432517
 20
328.4547847839343
 30
0.0
 11
156.6673131053148
 21
329.5145951355971
 31
0.0
  0
POLYLINE
  5
A42B
330
1A
100
AcDbEntity
  8
SEIHIN
100
AcDb2dPolyline
 66
     1
 10
0.0
 20
0.0
 30
0.0
  0
VERTEX
  5
B2D1
330
A42B
100
AcDbEntity
  8
SEIHIN
100
AcDbVertex
100
AcDb2dVertex
 10
144.9260908050877
 20
251.8329597273324
 30
0.0
  0
VERTEX
  5
B2D2
330
A42B
100
AcDbEntity
  8
SEIHIN
100
AcDbVertex
100
AcDb2dVertex
 10
145.3617952710967
 20
266.3226048704482
 30
0.0
  0
VERTEX
  5
B2D3
330
A42B
100
AcDbEntity
  8
SEIHIN
100
AcDbVertex
100
AcDb2dVertex
 10
145.5048484631513
 20
272.1004488510311
 30
0.0
  0
SEQEND
  5
B2D4
330
A42B
100
AcDbEntity
  8
SEIHIN
  0
ARC
  5
A42C
330
1A
100
AcDbEntity
  8
SEIHIN
100
AcDbCircle
 10
160.1016180868727
 20
275.5359075726851
 30
0.0
 40
10.60652051863669
100
AcDbArc
 50
3.897900513357641
 51
30.43400676894076
  0
ARC
  5
A42D
330
1A
100
AcDbEntity
  8
SEIHIN
100
AcDbCircle
 10
158.2093307975571
 20
278.1563306062497
 30
0.0
 40
12.50234477859289
100
AcDbArc
 50
3.840272928638844
 51
28.01509014702256
  0
LINE
  5
A42E
330
1A
100
AcDbEntity
  8
SEIHIN
100
AcDbLine
 10
170.6836032888502
 20
278.9936780706258
 30
0.0
 11
170.6836032888502
 21
282.4043899409027
 31
0.0
  0
LINE
  5
A42F
330
1A
100
AcDbEntity
  8
SEIHIN
100
AcDbLine
 10
170.6836032887913
 20
272.0034859083541
 30
0.0
 11
156.6836032887913
 21
271.5145951354697
 31
0.0
  0
LINE
  5
A430
330
1A
100
AcDbEntity
  8
SEIHIN
100
AcDbLine
 10
170.6836032887913
 20
276.2569253939888
 30
0.0
 11
170.6836032887913
 21
278.9936780713107
 31
0.0
  0
LINE
  5
A431
330
1A
100
AcDbEntity
  8
SEIHIN
100
AcDbLine
 10
170.6836032887913
 20
276.2569253939888
 30
0.0
 11
170.6836032887913
 21
272.0034859083541
 31
0.0
  0
LINE
  5
A432
330
1A
100
AcDbEntity
  8
SEIHIN
100
AcDbLine
 10
187.0326009508548
 20
328.4547847839343
 30
0.0
 11
156.6836032887918
 21
329.5145951355971
 31
0.0
  0
LINE
  5
A433
330
1A
100
AcDbEntity
  8
CENTER_L
 48
10.0
100
AcDbLine
 10
196.4732413865733
 20
310.4043899410213
 30
0.0
 11
180.8939651911241
 21
310.4043899410213
 31
0.0
  0
LINE
  5
A434
330
1A
100
AcDbEntity
  8
SEIHIN
100
AcDbLine
 10
175.5091058052792
 20
325.444052132863
 30
0.0
 11
187.0288759009888
 21
325.0417728967528
 31
0.0
  0
LINE
  5
A435
330
1A
100
AcDbEntity
  8
SEIHIN
100
AcDbLine
 10
187.028875936078
 20
298.5465442274253
 30
0.0
 11
183.2261875119707
 21
298.4137514215167
 31
0.0
  0
LINE
  5
A436
330
1A
100
AcDbEntity
  8
SEIHIN
100
AcDbLine
 10
183.229909831713
 20
295.3964706921508
 30
0.0
 11
187.0325982558204
 21
295.5292634980594
 31
0.0
  0
ARC
  5
A437
330
1A
100
AcDbEntity
  8
SEIHIN
100
AcDbCircle
 10
186.7803621288112
 20
318.2527673697127
 30
0.0
 40
6.794695816528039
100
AcDbArc
 50
0.0863785440761467
 51
87.90359906482416
  0
ARC
  5
A438
330
1A
100
AcDbEntity
  8
SEIHIN
100
AcDbCircle
 10
186.6836032887918
 20
318.4608766078565
 30
0.0
 40
9.999999999999962
100
AcDbArc
 50
0.000000000000007
 51
87.99998454915698
  0
ARC
  5
A439
330
1A
100
AcDbEntity
  8
SEIHIN
100
AcDbCircle
 10
186.7848444644015
 20
305.3323671512157
 30
0.0
 40
6.790209430658875
100
AcDbArc
 50
272.0595808013123
 51
359.9404191987107
  0
ARC
  5
A43A
330
1A
100
AcDbEntity
  8
SEIHIN
100
AcDbCircle
 10
186.6836032887917
 20
305.5231717682502
 30
0.0
 40
10.00000000000008
100
AcDbArc
 50
272.0000000000166
 51
359.9999999999992
  0
LINE
  5
A43B
330
1A
100
AcDbEntity
  8
CENTER_L
 48
10.0
100
AcDbLine
 10
188.6836032888487
 20
318.1940280387459
 30
0.0
 11
188.6836032888487
 21
302.6147518432967
 31
0.0
  0
CIRCLE
  5
A43C
330
1A
100
AcDbEntity
  8
SEIHIN
100
AcDbCircle
 10
188.6836032888489
 20
310.4043899410214
 30
0.0
 40
2.14999999999989
  0
LINE
  5
A43D
330
1A
100
AcDbEntity
  8
SEIHIN
100
AcDbLine
 10
193.5750502237547
 20
318.2630109812795
 30
0.0
 11
193.5750502237547
 21
305.3253061416733
 31
0.0
  0
LINE
  5
A43E
330
1A
100
AcDbEntity
  8
SEIHIN
100
AcDbLine
 10
196.6836032887917
 20
305.5231717682502
 30
0.0
 11
196.6836032887917
 21
318.4608766078565
 31
0.0
  0
LINE
  5
A43F
330
1A
100
AcDbEntity
  8
SEIHIN
100
AcDbLine
 10
170.6836032887913
 20
294.7703738890442
 30
0.0
 11
170.6836032887913
 21
329.0257043627128
 31
0.0
  0
POLYLINE
  5
A441
330
1A
100
AcDbEntity
  8
SEIHIN
100
AcDb2dPolyline
 66
     1
 10
0.0
 20
0.0
 30
0.0
  0
VERTEX
  5
B2D5
330
A441
100
AcDbEntity
  8
SEIHIN
100
AcDbVertex
100
AcDb2dVertex
 10
170.6836032887918
 20
326.0366537903809
 30
0.0
  0
VERTEX
  5
B2D6
330
A441
100
AcDbEntity
  8
SEIHIN
100
AcDbVertex
100
AcDb2dVertex
 10
170.7554617037108
 20
325.6700347320328
 30
0.0
  0
VERTEX
  5
B2D7
330
A441
100
AcDbEntity
  8
SEIHIN
100
AcDbVertex
100
AcDb2dVertex
 10
170.9626253001233
 20
325.2026699135358
 30
0.0
  0
VERTEX
  5
B2D8
330
A441
100
AcDbEntity
  8
SEIHIN
100
AcDbVertex
100
AcDb2dVertex
 10
171.3559015195901
 20
324.5401788423289
 30
0.0
  0
VERTEX
  5
B2D9
330
A441
100
AcDbEntity
  8
SEIHIN
100
AcDbVertex
100
AcDb2dVertex
 10
171.8811436321787
 20
323.7765842487299
 30
0.0
  0
VERTEX
  5
B2DA
330
A441
100
AcDbEntity
  8
SEIHIN
100
AcDbVertex
100
AcDb2dVertex
 10
172.7181101793107
 20
322.6608612439961
 30
0.0
  0
VERTEX
  5
B2DB
330
A441
100
AcDbEntity
  8
SEIHIN
100
AcDbVertex
100
AcDb2dVertex
 10
173.6818900036157
 20
321.4397192399873
 30
0.0
  0
VERTEX
  5
B2DC
330
A441
100
AcDbEntity
  8
SEIHIN
100
AcDbVertex
100
AcDb2dVertex
 10
174.5706290869095
 20
320.3392012614531
 30
0.0
  0
VERTEX
  5
B2DD
330
A441
100
AcDbEntity
  8
SEIHIN
100
AcDbVertex
100
AcDb2dVertex
 10
175.4978404664993
 20
319.1996187662935
 30
0.0
  0
VERTEX
  5
B2DE
330
A441
100
AcDbEntity
  8
SEIHIN
100
AcDbVertex
100
AcDb2dVertex
 10
175.5091058052792
 20
319.1857753704585
 30
0.0
  0
SEQEND
  5
B2DF
330
A441
100
AcDbEntity
  8
SEIHIN
  0
LINE
  5
A442
330
1A
100
AcDbEntity
  8
SEIHIN
100
AcDbLine
 10
164.1836032887913
 20
294.8113261321906
 30
0.0
 11
164.1836032887913
 21
304.1395060597265
 31
0.0
  0
ARC
  5
A443
330
1A
100
AcDbEntity
  8
SEIHIN
100
AcDbCircle
 10
183.6294561607342
 20
282.5064304635367
 30
0.0
 40
15.91504012674563
100
AcDbArc
 50
91.45227001412498
 51
165.5847809195293
  0
ARC
  5
A444
330
1A
100
AcDbEntity
  8
SEIHIN
100
AcDbCircle
 10
183.6836032888502
 20
282.4043899409027
 30
0.0
 40
13.0
100
AcDbArc
 50
91.99996774427653
 51
179.607190765513
  0
ARC
  5
A445
330
1A
100
AcDbEntity
  8
SEIHIN
100
AcDbCircle
 10
222.0667380344734
 20
307.7124514002513
 30
0.0
 40
59.23177541074259
100
AcDbArc
 50
195.6486578548175
 51
206.9057992907152
  0
ARC
  5
A446
330
1A
100
AcDbEntity
  8
SEIHIN
100
AcDbCircle
 10
226.6212800567738
 20
310.4737984950463
 30
0.0
 40
63.17581773403026
100
AcDbArc
 50
195.4245509113203
 51
204.7458997015546
  0
LINE
  5
A447
330
1A
100
AcDbEntity
  8
SEIHIN
100
AcDbLine
 10
170.6836032888502
 20
282.4043899409027
 30
0.0
 11
170.6839088019023
 21
282.4935148308838
 31
0.0
  0
ARC
  5
A448
330
1A
100
AcDbEntity
  8
SEIHIN
100
AcDbCircle
 10
251.4765243176234
 20
317.0749800496208
 30
0.0
 40
90.08338572666458
100
AcDbArc
 50
194.4245172445292
 51
196.3372207918548
  0
LINE
  5
A449
330
1A
100
AcDbEntity
  8
SEIHIN
100
AcDbLine
 10
164.1836032887913
 20
294.8113261321906
 30
0.0
 11
164.2328681116964
 21
294.6348188246865
 31
0.0
  0
ARC
  5
A44A
330
1A
100
AcDbEntity
  8
SEIHIN
100
AcDbCircle
 10
258.3248897761118
 20
319.9010502344481
 30
0.0
 40
96.24710273682261
100
AcDbArc
 50
192.007402438819
 51
195.8147798347526
  0
LINE
  5
A44B
330
1A
100
AcDbEntity
  8
SEIHIN
100
AcDbLine
 10
170.6836032887913
 20
294.7703738890442
 30
0.0
 11
165.4652515068712
 21
294.5881450293409
 31
0.0
  0
LINE
  5
A44D
330
1A
100
AcDbEntity
  8
SEIHIN
100
AcDbLine
 10
170.6836032887913
 20
306.5207960618299
 30
0.0
 11
156.6836032887913
 21
306.0319052889456
 31
0.0
  0
LINE
  5
A44E
330
1A
100
AcDbEntity
  8
SEIHIN
100
AcDbLine
 10
164.1836032887913
 20
304.1395060597265
 30
0.0
 11
164.1836032887913
 21
304.3624335105194
 31
0.0
  0
ARC
  5
A44F
330
1A
100
AcDbEntity
  8
SEIHIN
100
AcDbCircle
 10
166.1836032887913
 20
304.3624335105194
 30
0.0
 40
2.000000000000113
100
AcDbArc
 50
92.00000000000365
 51
179.9999999999967
  0
LINE
  5
A451
330
1A
100
AcDbEntity
  8
SEIHIN
100
AcDbLine
 10
170.6836032887913
 20
319.043929226061
 30
0.0
 11
156.6836032887913
 21
319.5328199989455
 31
0.0
  0
LINE
  5
A452
330
1A
100
AcDbEntity
  8
SEIHIN
100
AcDbLine
 10
175.4287848537078
 20
325.446190737527
 30
0.0
 11
175.4287848537078
 21
325.446857002298
 31
0.0
  0
LINE
  5
A453
330
1A
100
AcDbEntity
  8
SEIHIN
100
AcDbLine
 10
175.5091058052792
 20
325.444052132863
 30
0.0
 11
175.4287848537078
 21
325.446190737527
 31
0.0
  0
POLYLINE
  5
A454
330
1A
100
AcDbEntity
  8
SEIHIN
100
AcDb2dPolyline
 66
     1
 10
0.0
 20
0.0
 30
0.0
  0
VERTEX
  5
B2E0
330
A454
100
AcDbEntity
  8
SEIHIN
100
AcDbVertex
100
AcDb2dVertex
 10
168.4248255890189
 20
251.8329597273324
 30
0.0
  0
VERTEX
  5
B2E1
330
A454
100
AcDbEntity
  8
SEIHIN
100
AcDbVertex
100
AcDb2dVertex
 10
167.9891211230099
 20
266.3226048704482
 30
0.0
  0
VERTEX
  5
B2E2
330
A454
100
AcDbEntity
  8
SEIHIN
100
AcDbVertex
100
AcDb2dVertex
 10
167.8460679309553
 20
272.1004488510311
 30
0.0
  0
SEQEND
  5
B2E3
330
A454
100
AcDbEntity
  8
SEIHIN
  0
LINE
  5
A455
330
1A
100
AcDbEntity
  8
SEIHIN
100
AcDbLine
 10
170.6836032888502
 20
255.7298153845684
 30
0.0
 11
170.6836032888209
 21
272.0034859083541
 31
0.0
  0
ARC
  5
A456
330
1A
100
AcDbEntity
  8
SEIHIN
100
AcDbCircle
 10
162.6836032888504
 20
255.7298153845684
 30
0.0
 40
7.999999999999801
100
AcDbArc
 50
307.6930360182002
 51
0.0000000000008212
  0
LINE
  5
A457
330
1A
100
AcDbEntity
  8
SEIHIN
100
AcDbLine
 10
163.1022909387406
 20
247.740779106529
 30
0.0
 11
156.6836032887918
 21
247.4043899409266
 31
0.0
  0
ARC
  5
A458
330
1A
100
AcDbEntity
  8
SEIHIN
100
AcDbCircle
 10
162.6836032888504
 20
255.7298153845676
 30
0.0
 40
7.999999999999105
100
AcDbArc
 50
272.9999999996142
 51
307.6930360182002
  0
ARC
  5
AC3A
330
1A
100
AcDbEntity
  8
NOKITOI
 48
0.2
100
AcDbCircle
 10
356.8017806528553
 20
1212.032819999067
 30
0.0
 40
999.8000000000002
100
AcDbArc
 50
267.2627870055292
 51
272.6033918042164
  0
ARC
  5
AC3B
330
1A
100
AcDbEntity
  8
NOKITOI
 48
0.2
100
AcDbCircle
 10
356.8017806528553
 20
1212.032819999067
 30
0.0
 40
1000.0
100
AcDbArc
 50
267.2627870055292
 51
272.6033918042164
  0
ARC
  5
AC3C
330
1A
100
AcDbEntity
  8
NOKITOI
 48
0.2
100
AcDbCircle
 10
356.8017806528553
 20
1212.032819999067
 30
0.0
 40
998.3999999999999
100
AcDbArc
 50
267.3431291593075
 51
272.5751779642489
  0
ARC
  5
AC3D
330
1A
100
AcDbEntity
  8
NOKITOI
 48
0.2
100
AcDbCircle
 10
1285.589970879176
 20
332.0328199990665
 30
0.0
 40
998.4000000000001
100
AcDbArc
 50
182.4109906480892
 51
185.2410550612985
  0
ARC
  5
AC3E
330
1A
100
AcDbEntity
  8
NOKITOI
 48
0.2
100
AcDbCircle
 10
1285.589970879176
 20
332.0328199990665
 30
0.0
 40
999.800000000736
100
AcDbArc
 50
180.0795916737998
 51
185.9063572242696
  0
ARC
  5
AC3F
330
1A
100
AcDbEntity
  8
NOKITOI
 48
0.2
100
AcDbCircle
 10
1285.589970879176
 20
332.0328199990665
 30
0.0
 40
1000.000000000736
100
AcDbArc
 50
180.0795916737998
 51
185.9063572242696
  0
LINE
  5
AC40
330
1A
100
AcDbEntity
  8
NOKITOI
 48
0.2
100
AcDbLine
 10
305.476670018289
 20
237.1864968275141
 30
0.0
 11
291.3640810533274
 21
240.8328199990671
 31
0.0
  0
LINE
  5
AC41
330
1A
100
AcDbEntity
  8
NOKITOI
 48
0.2
100
AcDbLine
 10
291.8932565837778
 20
228.432819999067
 30
0.0
 11
305.0754454515674
 21
228.432819999067
 31
0.0
  0
LINE
  5
AC42
330
1A
100
AcDbEntity
  8
NOKITOI
 48
0.2
100
AcDbLine
 10
305.9521877953536
 20
229.8328199990671
 30
0.0
 11
292.4345349075451
 21
229.8328199990671
 31
0.0
  0
LINE
  5
AC43
330
1A
100
AcDbEntity
  8
NOKITOI
 48
0.2
100
AcDbLine
 10
291.8932565837778
 20
228.232819999067
 30
0.0
 11
305.0754454515674
 21
228.232819999067
 31
0.0
  0
LINE
  5
AC44
330
1A
100
AcDbEntity
  8
NOKITOI
 48
0.2
100
AcDbLine
 10
291.5109527605625
 20
239.2456132497861
 30
0.0
 11
305.4436461814336
 21
235.6457703727068
 31
0.0
  0
ARC
  5
AC45
330
1A
100
AcDbEntity
  8
NOKITOI
 48
0.2
100
AcDbCircle
 10
1285.589970879176
 20
332.0328199990665
 30
0.0
 40
998.4000000000001
100
AcDbArc
 50
185.3325301949828
 51
185.8753038897116
  0
ARC
  5
AC46
330
1A
100
AcDbEntity
  8
NOKITOI
 48
0.2
100
AcDbCircle
 10
291.8932565837778
 20
229.2328199990671
 30
0.0
 40
0.8000000000001556
100
AcDbArc
 50
185.9063572242696
 51
270.0
  0
ARC
  5
AC47
330
1A
100
AcDbEntity
  8
NOKITOI
 48
0.2
100
AcDbCircle
 10
291.8932565837778
 20
229.2328199990671
 30
0.0
 40
1.000000000000155
100
AcDbArc
 50
185.9063572242696
 51
270.0
  0
LINE
  5
AC48
330
1A
100
AcDbEntity
  8
NOKITOI
 48
0.2
100
AcDbLine
 10
306.2708795471749
 20
227.3374016564423
 30
0.0
 11
307.348930935283
 21
215.0145965058445
 31
0.0
  0
LINE
  5
AC49
330
1A
100
AcDbEntity
  8
NOKITOI
 48
0.2
100
AcDbLine
 10
306.0716405312402
 20
227.3199713802132
 30
0.0
 11
307.1496919193484
 21
214.9971662296152
 31
0.0
  0
LINE
  5
AC4A
330
1A
100
AcDbEntity
  8
NOKITOI
 48
0.2
100
AcDbLine
 10
308.6217395482076
 20
216.5295962763948
 30
0.0
 11
306.9687426637106
 21
235.4243899262121
 31
0.0
  0
ARC
  5
AC4B
330
1A
100
AcDbEntity
  8
NOKITOI
 48
0.2
100
AcDbCircle
 10
309.142082078694
 20
215.1714689919073
 30
0.0
 40
1.800000000000289
100
AcDbArc
 50
184.9997491441009
 51
267.2627870055292
  0
ARC
  5
AC4C
330
1A
100
AcDbEntity
  8
NOKITOI
 48
0.2
100
AcDbCircle
 10
309.142082078694
 20
215.1714689919073
 30
0.0
 40
2.000000000000289
100
AcDbArc
 50
184.9997491441009
 51
267.2627870055292
  0
ARC
  5
AC4D
330
1A
100
AcDbEntity
  8
NOKITOI
 48
0.2
100
AcDbCircle
 10
310.6141297075532
 20
216.703899038687
 30
0.0
 40
1.999999999999942
100
AcDbArc
 50
184.9997491441009
 51
267.3431291593075
  0
LINE
  5
AC4E
330
1A
100
AcDbEntity
  8
NOKITOI
 48
0.2
100
AcDbLine
 10
305.4436461814336
 20
235.6457703727068
 30
0.0
 11
305.9521877953536
 21
229.8328199990671
 31
0.0
  0
ARC
  5
AC4F
330
1A
100
AcDbEntity
  8
NOKITOI
 48
0.2
100
AcDbCircle
 10
305.0754454515674
 20
227.2328199990671
 30
0.0
 40
1.200000000000007
100
AcDbArc
 50
4.999749144100993
 51
90.0
  0
ARC
  5
AC50
330
1A
100
AcDbEntity
  8
NOKITOI
 48
0.2
100
AcDbCircle
 10
305.0754454515674
 20
227.2328199990671
 30
0.0
 40
1.000000000000007
100
AcDbArc
 50
4.999749144100993
 51
90.0
  0
ARC
  5
AC51
330
1A
100
AcDbEntity
  8
NOKITOI
 48
0.2
100
AcDbCircle
 10
304.9763525043649
 20
235.2500871639201
 30
0.0
 40
2.000000000000012
100
AcDbArc
 50
4.999749144100993
 51
75.51309319945758
  0
LINE
  5
AC52
330
1A
100
AcDbEntity
  8
NOKITOI
 48
0.2
100
AcDbLine
 10
294.3817636888514
 20
319.5328199990663
 30
0.0
 11
300.1622708865566
 21
319.5328199990663
 31
0.0
  0
LINE
  5
AC53
330
1A
100
AcDbEntity
  8
NOKITOI
 48
0.2
100
AcDbLine
 10
294.3817636888514
 20
321.0328199990663
 30
0.0
 11
295.58997087844
 21
321.0328199990663
 31
0.0
  0
LINE
  5
AC54
330
1A
100
AcDbEntity
  8
NOKITOI
 48
0.2
100
AcDbLine
 10
295.58997087844
 20
323.5199860636505
 30
0.0
 11
290.7762739996346
 21
324.5729822558891
 31
0.0
  0
LINE
  5
AC55
330
1A
100
AcDbEntity
  8
NOKITOI
 48
0.2
100
AcDbLine
 10
303.0899708784402
 20
302.5328199990662
 30
0.0
 11
294.4124085819569
 21
302.5328199990662
 31
0.0
  0
LINE
  5
AC56
330
1A
100
AcDbEntity
  8
NOKITOI
 48
0.2
100
AcDbLine
 10
302.98997087844
 20
304.0328199990662
 30
0.0
 11
294.4124085819569
 21
304.0328199990662
 31
0.0
  0
LINE
  5
AC57
330
1A
100
AcDbEntity
  8
NOKITOI
 48
0.2
100
AcDbLine
 10
305.9746252602899
 20
322.6814476111097
 30
0.0
 11
292.3335346238734
 21
325.6654361878258
 31
0.0
  0
LINE
  5
AC58
330
1A
100
AcDbEntity
  8
NOKITOI
 48
0.2
100
AcDbLine
 10
306.017364636051
 20
322.876827614589
 30
0.0
 11
292.3762739996345
 21
325.860816191305
 31
0.0
  0
LINE
  5
AC59
330
1A
100
AcDbEntity
  8
NOKITOI
 48
0.2
100
AcDbLine
 10
288.0048336992247
 20
291.7034996767831
 30
0.0
 11
303.0899708784402
 21
299.9236879030863
 31
0.0
  0
LINE
  5
AC5A
330
1A
100
AcDbEntity
  8
NOKITOI
 48
0.2
100
AcDbLine
 10
288.0737755219277
 20
290.0328199990667
 30
0.0
 11
303.7555550801555
 21
298.5781304036442
 31
0.0
  0
ARC
  5
AC5B
330
1A
100
AcDbEntity
  8
NOKITOI
 48
0.2
100
AcDbCircle
 10
1285.589970879176
 20
332.0328199990665
 30
0.0
 40
998.4000000007354
100
AcDbArc
 50
181.127032230844
 51
181.2137395248443
  0
ARC
  5
AC5C
330
1A
100
AcDbEntity
  8
NOKITOI
 48
0.2
100
AcDbCircle
 10
1285.589970879176
 20
332.0328199990665
 30
0.0
 40
998.3999999999999
100
AcDbArc
 50
181.4914279597314
 51
182.3150327430775
  0
ARC
  5
AC5D
330
1A
100
AcDbEntity
  8
NOKITOI
 48
0.2
100
AcDbCircle
 10
294.4124085819569
 20
311.0328199990663
 30
0.0
 40
7.000000000000047
100
AcDbArc
 50
181.2137395248443
 51
270.0
  0
ARC
  5
AC5E
330
1A
100
AcDbEntity
  8
NOKITOI
 48
0.2
100
AcDbCircle
 10
294.4124085819569
 20
311.0328199990663
 30
0.0
 40
8.500000000000021
100
AcDbArc
 50
215.9131497548197
 51
270.0
  0
ARC
  5
AC5F
330
1A
100
AcDbEntity
  8
NOKITOI
 48
0.2
100
AcDbCircle
 10
1285.589970879176
 20
332.0328199990665
 30
0.0
 40
998.3999999999998
100
AcDbArc
 50
180.1673696882618
 51
180.8493437959589
  0
ARC
  5
AC60
330
1A
100
AcDbEntity
  8
NOKITOI
 48
0.2
100
AcDbCircle
 10
294.3817636888514
 20
312.5328199990663
 30
0.0
 40
7.000000000000182
100
AcDbArc
 50
90.0
 51
181.127032230844
  0
ARC
  5
AC61
330
1A
100
AcDbEntity
  8
NOKITOI
 48
0.2
100
AcDbCircle
 10
294.3817636888514
 20
312.5328199990663
 30
0.0
 40
8.500000000000023
100
AcDbArc
 50
90.0
 51
146.4276220008681
  0
ARC
  5
AC62
330
1A
100
AcDbEntity
  8
NOKITOI
 48
0.2
100
AcDbCircle
 10
286.5909347639105
 20
330.6450728171866
 30
0.0
 40
0.8000000000001193
100
AcDbArc
 50
71.56505117707208
 51
180.0795916737998
  0
ARC
  5
AC63
330
1A
100
AcDbEntity
  8
NOKITOI
 48
0.2
100
AcDbCircle
 10
286.5909347639105
 20
330.6450728171866
 30
0.0
 40
1.000000000000119
100
AcDbArc
 50
71.56505117707208
 51
180.0795916737998
  0
LINE
  5
AC64
330
1A
100
AcDbEntity
  8
NOKITOI
 48
0.2
100
AcDbLine
 10
291.1848392082451
 20
329.9570453784534
 30
0.0
 11
286.8439169767241
 21
331.4040194556271
 31
0.0
  0
LINE
  5
AC65
330
1A
100
AcDbEntity
  8
NOKITOI
 48
0.2
100
AcDbLine
 10
291.2480847614485
 20
330.1467820380636
 30
0.0
 11
286.9071625299275
 21
331.5937561152372
 31
0.0
  0
ARC
  5
AC66
330
1A
100
AcDbEntity
  8
NOKITOI
 48
0.2
100
AcDbCircle
 10
291.08997087844
 20
329.6724403890383
 30
0.0
 40
0.3000000000000076
100
AcDbArc
 50
0.0
 51
71.56505117707208
  0
ARC
  5
AC67
330
1A
100
AcDbEntity
  8
NOKITOI
 48
0.2
100
AcDbCircle
 10
292.5899708784399
 20
326.8377162087013
 30
0.0
 40
1.20000000000001
100
AcDbArc
 50
180.0
 51
257.6609127216743
  0
ARC
  5
AC68
330
1A
100
AcDbEntity
  8
NOKITOI
 48
0.2
100
AcDbCircle
 10
291.08997087844
 20
329.6724403890383
 30
0.0
 40
0.5000000000000077
100
AcDbArc
 50
0.0
 51
71.56505117707208
  0
ARC
  5
AC69
330
1A
100
AcDbEntity
  8
NOKITOI
 48
0.2
100
AcDbCircle
 10
292.5899708784399
 20
326.8377162087013
 30
0.0
 40
1.00000000000001
100
AcDbArc
 50
180.0
 51
257.6609127216743
  0
LINE
  5
AC6A
330
1A
100
AcDbEntity
  8
NOKITOI
 48
0.2
100
AcDbLine
 10
289.9899708784401
 20
325.5498822732854
 30
0.0
 11
289.9899708784401
 21
328.5192256369485
 31
0.0
  0
ARC
  5
AC6B
330
1A
100
AcDbEntity
  8
NOKITOI
 48
0.2
100
AcDbCircle
 10
290.98997087844
 20
325.5498822732854
 30
0.0
 40
1.0
100
AcDbArc
 50
180.0
 51
257.6609127216743
  0
LINE
  5
AC6C
330
1A
100
AcDbEntity
  8
NOKITOI
 48
0.2
100
AcDbLine
 10
289.6480847614484
 20
328.9935672859737
 30
0.0
 11
287.8523423642489
 21
329.5921480850402
 31
0.0
  0
ARC
  5
AC6D
330
1A
100
AcDbEntity
  8
NOKITOI
 48
0.2
100
AcDbCircle
 10
287.6942284812405
 20
329.1178064360149
 30
0.0
 40
0.5000000000000031
100
AcDbArc
 50
71.56505117707208
 51
180.1673696882651
  0
LINE
  5
AC6E
330
1A
100
AcDbEntity
  8
NOKITOI
 48
0.2
100
AcDbLine
 10
291.3899708784399
 20
326.8377162087013
 30
0.0
 11
291.3899708784399
 21
329.6724403890383
 31
0.0
  0
ARC
  5
AC6F
330
1A
100
AcDbEntity
  8
NOKITOI
 48
0.2
100
AcDbCircle
 10
289.48997087844
 20
328.5192256369485
 30
0.0
 40
0.5
100
AcDbArc
 50
0.0
 51
71.56505117707208
  0
LINE
  5
AC70
330
1A
100
AcDbEntity
  8
NOKITOI
 48
0.2
100
AcDbLine
 10
291.5899708784399
 20
326.8377162087013
 30
0.0
 11
291.5899708784399
 21
329.6724403890383
 31
0.0
  0
ARC
  5
AC71
330
1A
100
AcDbEntity
  8
NOKITOI
 48
0.2
100
AcDbCircle
 10
302.98997087844
 20
299.9830790966875
 30
0.0
 40
1.600000000000008
100
AcDbArc
 50
298.5868361218864
 51
0.0
  0
ARC
  5
AC72
330
1A
100
AcDbEntity
  8
NOKITOI
 48
0.2
100
AcDbCircle
 10
302.98997087844
 20
302.4328199990663
 30
0.0
 40
1.600000000000008
100
AcDbArc
 50
0.0
 51
90.0
  0
LINE
  5
AC73
330
1A
100
AcDbEntity
  8
NOKITOI
 48
0.2
100
AcDbLine
 10
303.0899708784402
 20
299.9236879030863
 30
0.0
 11
303.0899708784402
 21
302.5328199990662
 31
0.0
  0
LINE
  5
AC74
330
1A
100
AcDbEntity
  8
NOKITOI
 48
0.2
100
AcDbLine
 10
304.5899708784402
 20
299.9830790966875
 30
0.0
 11
304.5899708784402
 21
302.4328199990663
 31
0.0
  0
ARC
  5
AC75
330
1A
100
AcDbEntity
  8
NOKITOI
 48
0.2
100
AcDbCircle
 10
305.5899708784402
 20
320.9230275797965
 30
0.0
 40
2.0
100
AcDbArc
 50
0.0
 51
77.66091272167438
  0
LINE
  5
AC76
330
1A
100
AcDbEntity
  8
NOKITOI
 48
0.2
100
AcDbLine
 10
295.58997087844
 20
323.5199860636505
 30
0.0
 11
295.58997087844
 21
321.0328199990663
 31
0.0
  0
LINE
  5
AC77
330
1A
100
AcDbEntity
  8
NOKITOI
 48
0.2
100
AcDbLine
 10
297.08997087844
 20
321.0328199990663
 30
0.0
 11
297.08997087844
 21
323.1918610636505
 31
0.0
  0
LINE
  5
AC78
330
1A
100
AcDbEntity
  8
NOKITOI
 48
0.2
100
AcDbLine
 10
305.6968193178429
 20
321.3091129675311
 30
0.0
 11
297.08997087844
 21
323.1918610636505
 31
0.0
  0
ARC
  5
AC79
330
1A
100
AcDbEntity
  8
NOKITOI
 48
0.2
100
AcDbCircle
 10
302.5899708784402
 20
319.0328199990663
 30
0.0
 40
4.999999999999985
100
AcDbArc
 50
270.0
 51
0.0
  0
ARC
  5
AC7A
330
1A
100
AcDbEntity
  8
NOKITOI
 48
0.2
100
AcDbCircle
 10
300.0195008873681
 20
318.4328199990662
 30
0.0
 40
2.600000000000022
100
AcDbArc
 50
340.0168934781017
 51
90.0
  0
ARC
  5
AC7B
330
1A
100
AcDbEntity
  8
NOKITOI
 48
0.2
100
AcDbCircle
 10
302.5899708784402
 20
319.0328199990663
 30
0.0
 40
3.499999999999985
100
AcDbArc
 50
270.0
 51
0.0
  0
LINE
  5
AC7C
330
1A
100
AcDbEntity
  8
NOKITOI
 48
0.2
100
AcDbLine
 10
297.08997087844
 20
321.0328199990663
 30
0.0
 11
300.0195008873681
 21
321.0328199990663
 31
0.0
  0
ARC
  5
AC7D
330
1A
100
AcDbEntity
  8
NOKITOI
 48
0.2
100
AcDbCircle
 10
300.3038208743819
 20
314.5328199990663
 30
0.0
 40
0.5
100
AcDbArc
 50
160.0168934781017
 51
270.0
  0
LINE
  5
AC7E
330
1A
100
AcDbEntity
  8
NOKITOI
 48
0.2
100
AcDbLine
 10
300.3038208743819
 20
314.0328199990662
 30
0.0
 11
302.5899708784402
 21
314.0328199990662
 31
0.0
  0
LINE
  5
AC7F
330
1A
100
AcDbEntity
  8
NOKITOI
 48
0.2
100
AcDbLine
 10
301.1020643100448
 20
318.1910769359796
 30
0.0
 11
299.8339241626376
 21
314.7036915306096
 31
0.0
  0
LINE
  5
AC80
330
1A
100
AcDbEntity
  8
NOKITOI
 48
0.2
100
AcDbLine
 10
302.4453708622075
 20
315.5328199990663
 30
0.0
 11
302.5899708784402
 21
315.5328199990663
 31
0.0
  0
LINE
  5
AC81
330
1A
100
AcDbEntity
  8
NOKITOI
 48
0.2
100
AcDbLine
 10
302.4629637884381
 20
317.5442880350408
 30
0.0
 11
301.9754741504632
 21
316.2036915306096
 31
0.0
  0
ARC
  5
AC82
330
1A
100
AcDbEntity
  8
NOKITOI
 48
0.2
100
AcDbCircle
 10
302.4453708622075
 20
316.0328199990662
 30
0.0
 40
0.5
100
AcDbArc
 50
160.0168934781017
 51
270.0
  0
ARC
  5
AC83
330
1A
100
AcDbEntity
  8
NOKITOI
 48
0.2
100
AcDbCircle
 10
300.1622708865566
 20
318.5328199990663
 30
0.0
 40
1.000000000000003
100
AcDbArc
 50
340.0168934781017
 51
90.0
  0
ARC
  5
AC84
330
1A
100
AcDbEntity
  8
NOKITOI
 48
0.2
100
AcDbCircle
 10
305.6093989918522
 20
320.724771829792
 30
0.0
 40
1.990469879287869
100
AcDbArc
 50
5.716280370791512
 51
79.42703903833133
  0
ARC
  5
AC85
330
1A
100
AcDbEntity
  8
NOKITOI
 48
0.2
100
AcDbCircle
 10
305.5899708784402
 20
320.820662958833
 30
0.0
 40
0.5
100
AcDbArc
 50
0.0
 51
77.66091272167438
  0
LINE
  5
AC86
330
1A
100
AcDbEntity
  8
NOKITOI
 48
0.2
100
AcDbLine
 10
306.0899708784402
 20
319.0328199990663
 30
0.0
 11
306.0899708784402
 21
320.820662958833
 31
0.0
  0
LINE
  5
AC87
330
1A
100
AcDbEntity
  8
NOKITOI
 48
0.2
100
AcDbLine
 10
307.5899708784402
 20
319.0328199990663
 30
0.0
 11
307.5899708784402
 21
320.9230275797965
 31
0.0
  0
LINE
  5
AC88
330
1A
100
AcDbEntity
  8
NOKITOI
 48
0.2
100
AcDbLine
 10
406.7382584908028
 20
217.3124303458743
 30
0.0
 11
416.104218604941
 21
276.7338089743633
 31
0.0
  0
LINE
  5
AC89
330
1A
100
AcDbEntity
  8
NOKITOI
 48
0.2
100
AcDbLine
 10
406.9358194576231
 20
217.2812909112455
 30
0.0
 11
416.3017795717612
 21
276.7026695397345
 31
0.0
  0
LINE
  5
AC8A
330
1A
100
AcDbEntity
  8
NOKITOI
 48
0.2
100
AcDbLine
 10
414.7212918371986
 20
276.9517850167641
 30
0.0
 11
405.4315944600636
 21
218.0142475444949
 31
0.0
  0
LINE
  5
AC8B
330
1A
100
AcDbEntity
  8
CENTER_L
 48
0.3
100
AcDbLine
 10
356.801780652855
 20
203.8855185314059
 30
0.0
 11
356.801780652855
 21
220.5801214667282
 31
0.0
  0
ARC
  5
AC8C
330
1A
100
AcDbEntity
  8
NOKITOI
 48
0.2
100
AcDbCircle
 10
401.9967952871136
 20
218.0597767769635
 30
0.0
 40
4.799999999999973
100
AcDbArc
 50
272.6033918042164
 51
351.0427677630336
  0
ARC
  5
AC8D
330
1A
100
AcDbEntity
  8
NOKITOI
 48
0.2
100
AcDbCircle
 10
401.4803751236561
 20
218.6370362370693
 30
0.0
 40
4.000000000000015
100
AcDbArc
 50
272.5751779642489
 51
351.0427677630336
  0
ARC
  5
AC8E
330
1A
100
AcDbEntity
  8
NOKITOI
 48
0.2
100
AcDbCircle
 10
401.9967952871136
 20
218.0597767769635
 30
0.0
 40
4.999999999999973
100
AcDbArc
 50
272.6033918042164
 51
351.0427677630336
  0
LINE
  5
AC8F
330
1A
100
AcDbEntity
  8
NOKITOI
 48
0.2
100
AcDbLine
 10
416.401780652855
 20
280.5328199990671
 30
0.0
 11
416.4017806528554
 21
292.0328199990671
 31
0.0
  0
LINE
  5
AC90
330
1A
100
AcDbEntity
  8
NOKITOI
 48
0.2
100
AcDbLine
 10
409.6310021603867
 20
295.4328199990672
 30
0.0
 11
403.7160021603868
 21
278.5328199990678
 31
0.0
  0
LINE
  5
AC91
330
1A
100
AcDbEntity
  8
NOKITOI
 48
0.2
100
AcDbLine
 10
415.0017806528556
 20
282.5710719317058
 30
0.0
 11
415.0017806528556
 21
292.0328199990671
 31
0.0
  0
LINE
  5
AC92
330
1A
100
AcDbEntity
  8
NOKITOI
 48
0.2
100
AcDbLine
 10
416.601780652855
 20
280.5328199990671
 30
0.0
 11
416.6017806528555
 21
292.0328199990671
 31
0.0
  0
LINE
  5
AC93
330
1A
100
AcDbEntity
  8
NOKITOI
 48
0.2
100
AcDbLine
 10
408.3674033015102
 20
296.3631704237952
 30
0.0
 11
401.6017806528554
 21
277.0328199990678
 31
0.0
  0
LINE
  5
AC94
330
1A
100
AcDbEntity
  8
NOKITOI
 48
0.2
100
AcDbLine
 10
401.6017806528554
 20
277.0328199990678
 30
0.0
 11
409.6017806528554
 21
277.0328199990678
 31
0.0
  0
LINE
  5
AC95
330
1A
100
AcDbEntity
  8
NOKITOI
 48
0.2
100
AcDbLine
 10
409.4458196648633
 20
281.308353525344
 30
0.0
 11
415.0017806528556
 21
282.5710719317058
 31
0.0
  0
LINE
  5
AC96
330
1A
100
AcDbEntity
  8
NOKITOI
 48
0.2
100
AcDbLine
 10
408.5206418227712
 20
278.5328199990678
 30
0.0
 11
409.4458196648633
 21
281.308353525344
 31
0.0
  0
LINE
  5
AC97
330
1A
100
AcDbEntity
  8
NOKITOI
 48
0.2
100
AcDbLine
 10
403.7160021603868
 20
278.5328199990678
 30
0.0
 11
408.5206418227712
 21
278.5328199990678
 31
0.0
  0
LINE
  5
AC98
330
1A
100
AcDbEntity
  8
NOKITOI
 48
0.2
100
AcDbLine
 10
410.6017806528554
 20
280.0328199990678
 30
0.0
 11
415.0017806528556
 21
281.0328199990678
 31
0.0
  0
LINE
  5
AC99
330
1A
100
AcDbEntity
  8
NOKITOI
 48
0.2
100
AcDbLine
 10
409.6017806528554
 20
277.0328199990678
 30
0.0
 11
410.6017806528554
 21
280.0328199990678
 31
0.0
  0
ARC
  5
AC9A
330
1A
100
AcDbEntity
  8
NOKITOI
 48
0.2
100
AcDbCircle
 10
392.0017806528546
 20
280.5328199990671
 30
0.0
 40
24.40000000000039
100
AcDbArc
 50
351.0427677630336
 51
0.0
  0
ARC
  5
AC9B
330
1A
100
AcDbEntity
  8
NOKITOI
 48
0.2
100
AcDbCircle
 10
392.0017806528546
 20
280.5328199990671
 30
0.0
 40
24.60000000000039
100
AcDbArc
 50
351.0427677630336
 51
0.0
  0
ARC
  5
AC9C
330
1A
100
AcDbEntity
  8
NOKITOI
 48
0.2
100
AcDbCircle
 10
392.0017806528546
 20
280.5328199990671
 30
0.0
 40
23.00000000000073
100
AcDbArc
 50
351.0427677630336
 51
0.0
  0
LINE
  5
AC9D
330
1A
100
AcDbEntity
  8
NOKITOI
 48
0.2
100
AcDbLine
 10
415.0017806528556
 20
281.0328199990678
 30
0.0
 11
415.0017806528553
 21
280.5328199990671
 31
0.0
  0
LINE
  5
AC9E
330
1A
100
AcDbEntity
  8
NOKITOI
 48
0.2
100
AcDbLine
 10
411.6017806528555
 20
296.8328199990671
 30
0.0
 11
409.3112616578762
 21
296.8328199990671
 31
0.0
  0
LINE
  5
AC9F
330
1A
100
AcDbEntity
  8
NOKITOI
 48
0.2
100
AcDbLine
 10
411.6017806528555
 20
297.0328199990671
 30
0.0
 11
409.3112616578762
 21
297.0328199990671
 31
0.0
  0
ARC
  5
ACA0
330
1A
100
AcDbEntity
  8
NOKITOI
 48
0.2
100
AcDbCircle
 10
409.2259737894817
 20
295.8209592033633
 30
0.0
 40
1.015448812288253
100
AcDbArc
 50
85.18203328732573
 51
147.7264463795293
  0
ARC
  5
ACA1
330
1A
100
AcDbEntity
  8
NOKITOI
 48
0.2
100
AcDbCircle
 10
409.3112616578762
 20
296.0328199990671
 30
0.0
 40
1.000000000000013
100
AcDbArc
 50
90.0
 51
160.7099537808137
  0
LINE
  5
ACA2
330
1A
100
AcDbEntity
  8
NOKITOI
 48
0.2
100
AcDbLine
 10
411.6017806528555
 20
295.4328199990672
 30
0.0
 11
409.6310021603867
 21
295.4328199990672
 31
0.0
  0
ARC
  5
ACA3
330
1A
100
AcDbEntity
  8
NOKITOI
 48
0.2
100
AcDbCircle
 10
411.6017806528555
 20
292.0328199990671
 30
0.0
 40
4.800000000000028
100
AcDbArc
 50
0.0
 51
90.0
  0
ARC
  5
ACA4
330
1A
100
AcDbEntity
  8
NOKITOI
 48
0.2
100
AcDbCircle
 10
411.6017806528555
 20
292.0328199990671
 30
0.0
 40
3.400000000000034
100
AcDbArc
 50
0.0
 51
90.0
  0
ARC
  5
ACA5
330
1A
100
AcDbEntity
  8
NOKITOI
 48
0.2
100
AcDbCircle
 10
411.6017806528555
 20
292.0328199990671
 30
0.0
 40
5.000000000000028
100
AcDbArc
 50
0.0
 51
90.0
  0
DIMENSION
  5
ACA7
330
1A
100
AcDbEntity
  8
SUNPOU
100
AcDbDimension
  2
*D15
 10
428.2422314338669
 20
220.8613172731006
 30
0.0
 11
436.7422314338669
 21
225.3613172731006
 31
0.0
 70
    32
  3
STANDARD
100
AcDbAlignedDimension
 13
421.2422314338668
 23
247.4043899410474
 33
0.0
 14
428.2422314338669
 24
251.4043899410971
 34
0.0
100
AcDbRotatedDimension
  0
LINE
  5
ACB7
330
1A
100
AcDbEntity
  8
SEIHIN
100
AcDbLine
 10
422.7280963886288
 20
144.5163445157569
 30
0.0
 11
422.9063728269847
 21
125.0883313076951
 31
0.0
  0
LINE
  5
ACB8
330
1A
100
AcDbEntity
  8
SEIHIN
100
AcDbLine
 10
415.9709798698469
 20
136.4560634416182
 30
0.0
 11
420.6413116035401
 21
136.4894747642187
 31
0.0
  0
LINE
  5
ACB9
330
1A
100
AcDbEntity
  8
SEIHIN
100
AcDbLine
 10
415.9737347213256
 20
132.9560634416183
 30
0.0
 11
420.6097465051634
 21
132.9183341653085
 31
0.0
  0
LINE
  5
ACBA
330
1A
100
AcDbEntity
  8
SEIHIN
100
AcDbLine
 10
425.044960706025
 20
174.7060634416182
 30
0.0
 11
424.7320630639686
 21
148.7060634416762
 31
0.0
  0
LINE
  5
ACBB
330
1A
100
AcDbEntity
  8
SEIHIN
100
AcDbLine
 10
424.731133599932
 20
120.7057579285078
 30
0.0
 11
424.1734495167654
 21
94.70606344161856
 31
0.0
  0
ARC
  5
AE13
330
1A
100
AcDbEntity
  8
SEIHIN
100
AcDbCircle
 10
416.5270444394388
 20
473.6122327520235
 30
0.0
 40
5.81539559331143
100
AcDbArc
 50
270.0
 51
350.049551898101
  0
LINE
  5
AE1B
330
1A
100
AcDbEntity
  8
SEIHIN
100
AcDbLine
 10
422.6794173187982
 20
423.4510279464022
 30
0.0
 11
422.2534486281692
 21
434.9718119070577
 31
0.0
  0
LINE
  5
AE1C
330
1A
100
AcDbEntity
  8
SEIHIN
100
AcDbLine
 10
419.1512338482229
 20
434.9753842695456
 30
0.0
 11
419.5771689194991
 21
423.4555095806419
 31
0.0
  0
ARC
  5
AE1D
330
1A
100
AcDbEntity
  8
SEIHIN
100
AcDbCircle
 10
416.5221951701772
 20
433.9861346236829
 30
0.0
 40
5.81539559331143
100
AcDbArc
 50
9.936424886182534
 51
89.98597678428353
  0
ARC
  5
AE1E
330
1A
100
AcDbEntity
  8
SEIHIN
100
AcDbCircle
 10
414.0869418940818
 20
434.7313505781087
 30
0.0
 40
5.071100370613056
100
AcDbArc
 50
3.667231171566137
 51
90.63433542533799
  0
LINE
  5
AE1F
330
1A
100
AcDbEntity
  8
SEIHIN
100
AcDbLine
 10
419.1512338482229
 20
434.9753842695456
 30
0.0
 11
419.1476584900948
 21
435.0557060985962
 31
0.0
  0
LINE
  5
AE20
330
1A
100
AcDbEntity
  8
CENTER_L
 48
10.0
100
AcDbLine
 10
415.7461823899107
 20
421.8017197822332
 30
0.0
 11
431.325458118736
 21
421.7979067343879
 31
0.0
  0
ARC
  5
AE21
330
1A
100
AcDbEntity
  8
SEIHIN
100
AcDbCircle
 10
447.8469444531564
 20
422.9101122992139
 30
0.0
 40
28.27510666946496
100
AcDbArc
 50
178.8948419144389
 51
192.1649267433285
  0
POLYLINE
  5
AE22
330
1A
100
AcDbEntity
  8
SEIHIN
100
AcDb2dPolyline
 66
     1
 10
0.0
 20
0.0
 30
0.0
  0
VERTEX
  5
B2E4
330
AE22
100
AcDbEntity
  8
SEIHIN
100
AcDbVertex
100
AcDb2dVertex
 10
423.338475672883
 20
413.7998613189813
 30
0.0
  0
VERTEX
  5
B2E5
330
AE22
100
AcDbEntity
  8
SEIHIN
100
AcDbVertex
100
AcDb2dVertex
 10
423.315588413567
 20
413.8134688500091
 30
0.0
  0
VERTEX
  5
B2E6
330
AE22
100
AcDbEntity
  8
SEIHIN
100
AcDbVertex
100
AcDb2dVertex
 10
423.2899125554673
 20
413.8592711034654
 30
0.0
  0
VERTEX
  5
B2E7
330
AE22
100
AcDbEntity
  8
SEIHIN
100
AcDbVertex
100
AcDb2dVertex
 10
423.2614500250181
 20
413.9451390646938
 30
0.0
  0
VERTEX
  5
B2E8
330
AE22
100
AcDbEntity
  8
SEIHIN
100
AcDbVertex
100
AcDb2dVertex
 10
423.2302028534362
 20
414.0793718388503
 30
0.0
  0
VERTEX
  5
B2E9
330
AE22
100
AcDbEntity
  8
SEIHIN
100
AcDbVertex
100
AcDb2dVertex
 10
423.1961731430113
 20
414.2705589222628
 30
0.0
  0
VERTEX
  5
B2EA
330
AE22
100
AcDbEntity
  8
SEIHIN
100
AcDbVertex
100
AcDb2dVertex
 10
423.1593630235367
 20
414.5274021791292
 30
0.0
  0
VERTEX
  5
B2EB
330
AE22
100
AcDbEntity
  8
SEIHIN
100
AcDbVertex
100
AcDb2dVertex
 10
423.0737934103358
 20
415.3217040458859
 30
0.0
  0
VERTEX
  5
B2EC
330
AE22
100
AcDbEntity
  8
SEIHIN
100
AcDbVertex
100
AcDb2dVertex
 10
423.0140058006165
 20
416.033655507608
 30
0.0
  0
VERTEX
  5
B2ED
330
AE22
100
AcDbEntity
  8
SEIHIN
100
AcDbVertex
100
AcDb2dVertex
 10
422.9826860373845
 20
416.4550156356474
 30
0.0
  0
VERTEX
  5
B2EE
330
AE22
100
AcDbEntity
  8
SEIHIN
100
AcDbVertex
100
AcDb2dVertex
 10
422.9752158466992
 20
416.5605925331753
 30
0.0
  0
VERTEX
  5
B2EF
330
AE22
100
AcDbEntity
  8
SEIHIN
100
AcDbVertex
100
AcDb2dVertex
 10
422.9731503526583
 20
416.5902693906557
 30
0.0
  0
VERTEX
  5
B2F0
330
AE22
100
AcDbEntity
  8
SEIHIN
100
AcDbVertex
100
AcDb2dVertex
 10
422.9724779803827
 20
416.6000139174548
 30
0.0
  0
VERTEX
  5
B2F1
330
AE22
100
AcDbEntity
  8
SEIHIN
100
AcDbVertex
100
AcDb2dVertex
 10
422.9722279114064
 20
416.6036561865426
 30
0.0
  0
VERTEX
  5
B2F2
330
AE22
100
AcDbEntity
  8
SEIHIN
100
AcDbVertex
100
AcDb2dVertex
 10
422.9721267429972
 20
416.6051335832074
 30
0.0
  0
VERTEX
  5
B2F3
330
AE22
100
AcDbEntity
  8
SEIHIN
100
AcDbVertex
100
AcDb2dVertex
 10
422.972083944564
 20
416.6057593782436
 30
0.0
  0
VERTEX
  5
B2F4
330
AE22
100
AcDbEntity
  8
SEIHIN
100
AcDbVertex
100
AcDb2dVertex
 10
422.9720654454061
 20
416.6060300297671
 30
0.0
  0
VERTEX
  5
B2F5
330
AE22
100
AcDbEntity
  8
SEIHIN
100
AcDbVertex
100
AcDb2dVertex
 10
422.9720573700813
 20
416.6061482067102
 30
0.0
  0
VERTEX
  5
B2F6
330
AE22
100
AcDbEntity
  8
SEIHIN
100
AcDbVertex
100
AcDb2dVertex
 10
422.9720510527514
 20
416.6062406699825
 30
0.0
  0
VERTEX
  5
B2F7
330
AE22
100
AcDbEntity
  8
SEIHIN
100
AcDbVertex
100
AcDb2dVertex
 10
422.8738949231022
 20
418.264813960033
 30
0.0
  0
VERTEX
  5
B2F8
330
AE22
100
AcDbEntity
  8
SEIHIN
100
AcDbVertex
100
AcDb2dVertex
 10
422.7924097058878
 20
420.0307235194284
 30
0.0
  0
VERTEX
  5
B2F9
330
AE22
100
AcDbEntity
  8
SEIHIN
100
AcDbVertex
100
AcDb2dVertex
 10
422.7275670139683
 20
421.7879857292128
 30
0.0
  0
VERTEX
  5
B2FA
330
AE22
100
AcDbEntity
  8
SEIHIN
100
AcDbVertex
100
AcDb2dVertex
 10
422.6793459026731
 20
423.4510252688432
 30
0.0
  0
SEQEND
  5
B2FB
330
AE22
100
AcDbEntity
  8
SEIHIN
  0
LINE
  5
AE23
330
1A
100
AcDbEntity
  8
SEIHIN
100
AcDbLine
 10
423.3384756728833
 20
413.7998613189813
 30
0.0
 11
428.2324416058807
 21
413.7986635145018
 31
0.0
  0
LINE
  5
AE24
330
1A
100
AcDbEntity
  8
SEIHIN
100
AcDbLine
 10
423.3183319574823
 20
413.8090633113795
 30
0.0
 11
420.1884298565233
 21
416.9423763247611
 31
0.0
  0
LINE
  5
B1E4
330
1A
100
AcDbEntity
  8
SEIHIN
100
AcDbLine
 10
424.5615462932501
 20
249.1959788567269
 30
0.0
 11
424.5615462932501
 21
313.1461254674779
 31
0.0
  0
VIEWPORT
  5
22
330
17
100
AcDbEntity
 67
     1
  8
0
100
AcDbViewport
 10
224.6338671309299
 20
200.696324347002
 30
0.0
 40
668.2500455191894
 41
437.3596643431239
 68
     1
 69
     1
1001
ACAD
1000
MVIEW
1002
{
1070
    16
1010
0.0
1020
0.0
1030
0.0
1010
0.0
1020
0.0
1030
1.0
1040
0.0
1040
437.3596643431239
1040
224.6338671309299
1040
200.696324347002
1040
50.0
1040
0.0
1040
0.0
1070
     0
1070
   100
1070
     1
1070
     0
1070
     0
1070
     0
1070
     0
1070
     0
1040
0.0
1040
0.0
1040
0.0
1040
1.0
1040
1.0
1040
10.0
1040
10.0
1070
     0
1002
{
1002
}
1002
}
  0
VIEWPORT
  5
64
330
17
100
AcDbEntity
 67
     1
  8
VIEWPORT
100
AcDbViewport
 10
210.0
 20
148.5
 30
0.0
 40
420.0
 41
297.0
 68
     2
 69
     2
1001
ACAD
1000
MVIEW
1002
{
1070
    16
1010
0.0
1020
0.0
1030
0.0
1010
0.0
1020
0.0
1030
1.0
1040
0.0
1040
584.072402851593
1040
881.5698625043406
1040
268.8891101169707
1040
50.0
1040
0.0
1040
0.0
1070
     0
1070
   100
1070
     1
1070
     0
1070
     0
1070
     0
1070
     0
1070
     0
1040
0.0
1040
0.0
1040
0.0
1040
5.0
1040
5.0
1040
0.0
1040
0.0
1070
     0
1002
{
1002
}
1002
}
  0
ENDSEC
  0
SECTION
  2
OBJECTS
  0
DICTIONARY
  5
C
330
0
100
AcDbDictionary
  3
ACAD_GROUP
350
D
  3
ACAD_LAYOUT
350
15A
  3
ACAD_MLINESTYLE
350
E
  3
ACAD_PLOTSETTINGS
350
15B
1001
ACAD
1000
TREAT_AS_HARD
1070
     0
  0
DICTIONARY
  5
806D
330
1A
100
AcDbDictionary
  3
ACAD_LAYOUTSELFREF
350
B1E7
1001
ACAD
1000
TREAT_AS_HARD
1070
     1
  0
DICTIONARY
  5
806B
330
17
100
AcDbDictionary
  3
ACAD_LAYOUTSELFREF
350
B1E6
1001
ACAD
1000
TREAT_AS_HARD
1070
     1
  0
DICTIONARY
  5
D
102
{ACAD_REACTORS
330
C
102
}
330
C
100
AcDbDictionary
  3
*A1
350
638F
1001
ACAD
1000
TREAT_AS_HARD
1070
     0
  0
DICTIONARY
  5
15A
102
{ACAD_REACTORS
330
C
102
}
330
C
100
AcDbDictionary
1001
ACAD
1000
TREAT_AS_HARD
1070
     0
  0
DICTIONARY
  5
E
102
{ACAD_REACTORS
330
C
102
}
330
C
100
AcDbDictionary
  3
STANDARD
350
13
1001
ACAD
1000
TREAT_AS_HARD
1070
     0
  0
DICTIONARY
  5
15B
102
{ACAD_REACTORS
330
C
102
}
330
C
100
AcDbDictionary
1001
ACAD
1000
TREAT_AS_HARD
1070
     0
  0
XRECORD
  5
B1E7
102
{ACAD_REACTORS
330
806D
102
}
330
806D
100
AcDbXrecord
340
1A
  0
XRECORD
  5
B1E6
102
{ACAD_REACTORS
330
806B
102
}
330
806B
100
AcDbXrecord
340
17
  0
GROUP
  5
638F
102
{ACAD_REACTORS
330
D
102
}
330
D
100
AcDbGroup
300

 70
     1
 71
     1
  0
MLINESTYLE
  5
13
102
{ACAD_REACTORS
330
E
102
}
330
E
100
AcDbMlineStyle
  2
STANDARD
 70
     0
  3

 62
     0
 51
90.0
 52
90.0
 71
     2
 49
0.5
 62
   256
  6
BYLAYER
 49
-0.5
 62
   256
  6
BYLAYER
  0
ENDSEC
  0
EOF
