  0
SECTION
  2
HEADER
  9
$ACADVER
  1
AC1012
  9
$DWGCODEPAGE
  3
dos932
  9
$INSBASE
 10
0.0
 20
0.0
 30
0.0
  9
$EXTMIN
 10
6.97346379553619
 20
6.972273037224567
 30
-0.0015258207003583
  9
$EXTMAX
 10
804.6245563167435
 20
558.6170484197528
 30
0.0000000349246037
  9
$LIMMIN
 10
0.0
 20
0.0
  9
$LIMMAX
 10
841.0
 20
594.0
  9
$ORTHOMODE
 70
     1
  9
$REGENMODE
 70
     1
  9
$FILLMODE
 70
     1
  9
$QTEXTMODE
 70
     0
  9
$MIRRTEXT
 70
     1
  9
$DRAGMODE
 70
     2
  9
$LTSCALE
 40
1.0
  9
$OSMODE
 70
    63
  9
$ATTMODE
 70
     1
  9
$TEXTSIZE
 40
2.5
  9
$TRACEWID
 40
1.0
  9
$TEXTSTYLE
  7
STANDARD
  9
$CLAYER
  8
0
  9
$CELTYPE
  6
BYLAYER
  9
$CECOLOR
 62
   256
  9
$CELTSCALE
 40
1.0
  9
$DELOBJ
 70
     1
  9
$DISPSILH
 70
     0
  9
$DIMSCALE
 40
1.0
  9
$DIMASZ
 40
4.0
  9
$DIMEXO
 40
1.5
  9
$DIMDLI
 40
7.0
  9
$DIMRND
 40
0.0
  9
$DIMDLE
 40
0.0
  9
$DIMEXE
 40
1.5
  9
$DIMTP
 40
0.0
  9
$DIMTM
 40
0.0
  9
$DIMTXT
 40
5.0
  9
$DIMCEN
 40
0.0
  9
$DIMTSZ
 40
0.0
  9
$DIMTOL
 70
     0
  9
$DIMLIM
 70
     0
  9
$DIMTIH
 70
     0
  9
$DIMTOH
 70
     0
  9
$DIMSE1
 70
     0
  9
$DIMSE2
 70
     0
  9
$DIMTAD
 70
     3
  9
$DIMZIN
 70
     0
  9
$DIMBLK
  1
OPEN
  9
$DIMASO
 70
     1
  9
$DIMSHO
 70
     1
  9
$DIMPOST
  1

  9
$DIMAPOST
  1

  9
$DIMALT
 70
     0
  9
$DIMALTD
 70
     2
  9
$DIMALTF
 40
25.4
  9
$DIMLFAC
 40
1.0
  9
$DIMTOFL
 70
     0
  9
$DIMTVP
 40
0.0
  9
$DIMTIX
 70
     0
  9
$DIMSOXD
 70
     0
  9
$DIMSAH
 70
     0
  9
$DIMBLK1
  1

  9
$DIMBLK2
  1

  9
$DIMSTYLE
  2
STANDARD
  9
$DIMCLRD
 70
   256
  9
$DIMCLRE
 70
   256
  9
$DIMCLRT
 70
   256
  9
$DIMTFAC
 40
1.0
  9
$DIMGAP
 40
1.5
  9
$DIMJUST
 70
     0
  9
$DIMSD1
 70
     0
  9
$DIMSD2
 70
     0
  9
$DIMTOLJ
 70
     1
  9
$DIMTZIN
 70
     0
  9
$DIMALTZ
 70
     0
  9
$DIMALTTZ
 70
     0
  9
$DIMFIT
 70
     3
  9
$DIMUPT
 70
     0
  9
$DIMUNIT
 70
     2
  9
$DIMDEC
 70
     0
  9
$DIMTDEC
 70
     0
  9
$DIMALTU
 70
     2
  9
$DIMALTTD
 70
     2
  9
$DIMTXSTY
  7
STANDARD
  9
$DIMAUNIT
 70
     0
  9
$LUNITS
 70
     2
  9
$LUPREC
 70
     4
  9
$SKETCHINC
 40
1.0
  9
$FILLETRAD
 40
1.0
  9
$AUNITS
 70
     0
  9
$AUPREC
 70
     0
  9
$MENU
  1
.
  9
$ELEVATION
 40
0.0
  9
$PELEVATION
 40
0.0
  9
$THICKNESS
 40
0.0
  9
$LIMCHECK
 70
     0
  9
$BLIPMODE
 70
     0
  9
$CHAMFERA
 40
0.0
  9
$CHAMFERB
 40
0.0
  9
$CHAMFERC
 40
20.0
  9
$CHAMFERD
 40
0.0
  9
$SKPOLY
 70
     0
  9
$TDCREATE
 40
2450994.350997107
  9
$TDUPDATE
 40
2455894.651802870
  9
$TDINDWG
 40
0.3011698264
  9
$TDUSRTIMER
 40
0.3011698264
  9
$USRTIMER
 70
     1
  9
$ANGBASE
 50
0.0
  9
$ANGDIR
 70
     0
  9
$PDMODE
 70
     1
  9
$PDSIZE
 40
0.0
  9
$PLINEWID
 40
0.0
  9
$COORDS
 70
     0
  9
$SPLFRAME
 70
     0
  9
$SPLINETYPE
 70
     6
  9
$SPLINESEGS
 70
     8
  9
$ATTDIA
 70
     0
  9
$ATTREQ
 70
     1
  9
$HANDLING
 70
 10241
  9
$HANDSEED
  5
12B37
  9
$SURFTAB1
 70
     6
  9
$SURFTAB2
 70
     6
  9
$SURFTYPE
 70
     6
  9
$SURFU
 70
     6
  9
$SURFV
 70
     6
  9
$UCSNAME
  2

  9
$UCSORG
 10
0.0
 20
0.0
 30
0.0
  9
$UCSXDIR
 10
1.0
 20
0.0
 30
0.0
  9
$UCSYDIR
 10
0.0
 20
1.0
 30
0.0
  9
$PUCSNAME
  2

  9
$PUCSORG
 10
0.0
 20
0.0
 30
0.0
  9
$PUCSXDIR
 10
1.0
 20
0.0
 30
0.0
  9
$PUCSYDIR
 10
0.0
 20
1.0
 30
0.0
  9
$USERI1
 70
     0
  9
$USERI2
 70
     0
  9
$USERI3
 70
     0
  9
$USERI4
 70
     0
  9
$USERI5
 70
     0
  9
$USERR1
 40
0.0
  9
$USERR2
 40
0.0
  9
$USERR3
 40
0.0
  9
$USERR4
 40
0.0
  9
$USERR5
 40
0.0
  9
$WORLDVIEW
 70
     1
  9
$SHADEDGE
 70
     3
  9
$SHADEDIF
 70
    70
  9
$TILEMODE
 70
     1
  9
$MAXACTVP
 70
    16
  9
$PINSBASE
 10
0.0
 20
0.0
 30
0.0
  9
$PLIMCHECK
 70
     0
  9
$PEXTMIN
 10
0.0
 20
0.0
 30
0.0
  9
$PEXTMAX
 10
420.0
 20
297.0
 30
0.0
  9
$PLIMMIN
 10
0.0234348157644355
 20
-0.0028127621778777
  9
$PLIMMAX
 10
419.9700900892019
 20
297.0078378725877
  9
$UNITMODE
 70
     0
  9
$VISRETAIN
 70
     0
  9
$PLINEGEN
 70
     0
  9
$PSLTSCALE
 70
     1
  9
$TREEDEPTH
 70
  3020
  9
$PICKSTYLE
 70
     1
  9
$CMLSTYLE
  2
STANDARD
  9
$CMLJUST
 70
     0
  9
$CMLSCALE
 40
1.0
  9
$SAVEIMAGES
 70
     1
  0
ENDSEC
  0
SECTION
  2
CLASSES
  0
CLASS
  1
ACDBDICTIONARYWDFLT
  2
AcDbDictionaryWithDefault
  3
AutoCAD 2000
 90
    32768
280
     0
281
     0
  0
CLASS
  1
ACDBPLACEHOLDER
  2
AcDbPlaceHolder
  3
AutoCAD 2000
 90
    32768
280
     0
281
     0
  0
CLASS
  1
LAYOUT
  2
AcDbLayout
  3
AutoCAD 2000
 90
    32768
280
     0
281
     0
  0
CLASS
  1
LONG_TRANSACTION
  2
AcDbLongTransaction
  3
AutoCAD 2000
 90
    32768
280
     0
281
     0
  0
CLASS
  1
LWPOLYLINE
  2
AcDbPolyline
  3
AutoCAD 2000
 90
    32768
280
     0
281
     1
  0
CLASS
  1
HATCH
  2
AcDbHatch
  3
AutoCAD 2000
 90
    32768
280
     0
281
     1
  0
CLASS
  1
XRECORD
  2
AcDbXrecord
  3
AutoCAD 2000
 90
    32768
280
     0
281
     0
  0
CLASS
  1
LONG_TRANSACTION
  2
AcDbLongTransaction
  3
AutoCAD 2000
 90
    32768
280
     0
281
     0
  0
CLASS
  1
LWPOLYLINE
  2
AcDbPolyline
  3
AutoCAD 2000
 90
    32768
280
     0
281
     1
  0
CLASS
  1
HATCH
  2
AcDbHatch
  3
AutoCAD 2000
 90
    32768
280
     0
281
     1
  0
CLASS
  1
XRECORD
  2
AcDbXrecord
  3
AutoCAD 2000
 90
    32768
280
     0
281
     0
  0
CLASS
  1
LONG_TRANSACTION
  2
AcDbLongTransaction
  3
AutoCAD 2000
 90
    32768
280
     0
281
     0
  0
CLASS
  1
LWPOLYLINE
  2
AcDbPolyline
  3
AutoCAD 2000
 90
    32768
280
     0
281
     1
  0
CLASS
  1
HATCH
  2
AcDbHatch
  3
AutoCAD 2000
 90
    32768
280
     0
281
     1
  0
CLASS
  1
XRECORD
  2
AcDbXrecord
  3
AutoCAD 2000
 90
    32768
280
     0
281
     0
  0
CLASS
  1
LONG_TRANSACTION
  2
AcDbLongTransaction
  3
AutoCAD 2000
 90
    32768
280
     0
281
     0
  0
CLASS
  1
LWPOLYLINE
  2
AcDbPolyline
  3
AutoCAD 2000
 90
    32768
280
     0
281
     1
  0
CLASS
  1
HATCH
  2
AcDbHatch
  3
AutoCAD 2000
 90
    32768
280
     0
281
     1
  0
CLASS
  1
XRECORD
  2
AcDbXrecord
  3
AutoCAD 2000
 90
    32768
280
     0
281
     0
  0
CLASS
  1
DICTIONARYVAR
  2
AcDbDictionaryVar
  3
AutoCAD 2000
 90
    32768
280
     0
281
     0
  0
CLASS
  1
LONG_TRANSACTION
  2
AcDbLongTransaction
  3
AutoCAD 2000
 90
    32768
280
     0
281
     0
  0
CLASS
  1
LWPOLYLINE
  2
AcDbPolyline
  3
AutoCAD 2000
 90
    32768
280
     0
281
     1
  0
CLASS
  1
HATCH
  2
AcDbHatch
  3
AutoCAD 2000
 90
    32768
280
     0
281
     1
  0
CLASS
  1
XRECORD
  2
AcDbXrecord
  3
AutoCAD 2000
 90
    32768
280
     0
281
     0
  0
CLASS
  1
LONG_TRANSACTION
  2
AcDbLongTransaction
  3
AutoCAD 2000
 90
    32768
280
     0
281
     0
  0
CLASS
  1
LWPOLYLINE
  2
AcDbPolyline
  3
AutoCAD 2000
 90
    32768
280
     0
281
     1
  0
CLASS
  1
HATCH
  2
AcDbHatch
  3
AutoCAD 2000
 90
    32768
280
     0
281
     1
  0
CLASS
  1
XRECORD
  2
AcDbXrecord
  3
AutoCAD 2000
 90
    32768
280
     0
281
     0
  0
CLASS
  1
LONG_TRANSACTION
  2
AcDbLongTransaction
  3
AutoCAD 2000
 90
    32768
280
     0
281
     0
  0
CLASS
  1
LWPOLYLINE
  2
AcDbPolyline
  3
AutoCAD 2000
 90
    32768
280
     0
281
     1
  0
CLASS
  1
HATCH
  2
AcDbHatch
  3
AutoCAD 2000
 90
    32768
280
     0
281
     1
  0
CLASS
  1
XRECORD
  2
AcDbXrecord
  3
AutoCAD 2000
 90
    32768
280
     0
281
     0
  0
CLASS
  1
LONG_TRANSACTION
  2
AcDbLongTransaction
  3
AutoCAD 2000
 90
    32768
280
     0
281
     0
  0
CLASS
  1
LWPOLYLINE
  2
AcDbPolyline
  3
AutoCAD 2000
 90
    32768
280
     0
281
     1
  0
CLASS
  1
HATCH
  2
AcDbHatch
  3
AutoCAD 2000
 90
    32768
280
     0
281
     1
  0
CLASS
  1
XRECORD
  2
AcDbXrecord
  3
AutoCAD 2000
 90
    32768
280
     0
281
     0
  0
CLASS
  1
LONG_TRANSACTION
  2
AcDbLongTransaction
  3
AutoCAD 2000
 90
    32768
280
     0
281
     0
  0
CLASS
  1
LWPOLYLINE
  2
AcDbPolyline
  3
AutoCAD 2000
 90
    32768
280
     0
281
     1
  0
CLASS
  1
HATCH
  2
AcDbHatch
  3
AutoCAD 2000
 90
    32768
280
     0
281
     1
  0
CLASS
  1
XRECORD
  2
AcDbXrecord
  3
AutoCAD 2000
 90
    32768
280
     0
281
     0
  0
CLASS
  1
LONG_TRANSACTION
  2
AcDbLongTransaction
  3
AutoCAD 2000
 90
    32768
280
     0
281
     0
  0
CLASS
  1
LWPOLYLINE
  2
AcDbPolyline
  3
AutoCAD 2000
 90
    32768
280
     0
281
     1
  0
CLASS
  1
HATCH
  2
AcDbHatch
  3
AutoCAD 2000
 90
    32768
280
     0
281
     1
  0
CLASS
  1
XRECORD
  2
AcDbXrecord
  3
AutoCAD 2000
 90
    32768
280
     0
281
     0
  0
CLASS
  1
LONG_TRANSACTION
  2
AcDbLongTransaction
  3
AutoCAD 2000
 90
    32768
280
     0
281
     0
  0
CLASS
  1
LWPOLYLINE
  2
AcDbPolyline
  3
AutoCAD 2000
 90
    32768
280
     0
281
     1
  0
CLASS
  1
HATCH
  2
AcDbHatch
  3
AutoCAD 2000
 90
    32768
280
     0
281
     1
  0
CLASS
  1
XRECORD
  2
AcDbXrecord
  3
AutoCAD 2000
 90
    32768
280
     0
281
     0
  0
ENDSEC
  0
SECTION
  2
TABLES
  0
TABLE
  2
VPORT
  5
8
330
0
100
AcDbSymbolTable
 70
     2
  0
VPORT
  5
12AE8
330
8
100
AcDbSymbolTableRecord
100
AcDbViewportTableRecord
  2
*ACTIVE
 70
     0
 10
0.0
 20
0.0
 11
1.0
 21
1.0
 12
402.3122781583717
 22
279.3085242098764
 13
0.0
 23
0.0
 14
5.0
 24
5.0
 15
0.0
 25
0.0
 16
0.0
 26
0.0
 36
1.0
 17
0.0
 27
0.0
 37
0.0
 40
562.8867328662732
 41
1.535714285714285
 42
50.0
 43
0.0
 44
0.0
 50
0.0
 51
0.0
 71
     0
 72
   100
 73
     1
 74
     0
 75
     0
 76
     0
 77
     0
 78
     0
  0
ENDTAB
  0
TABLE
  2
LTYPE
  5
5
330
0
100
AcDbSymbolTable
 70
     4
  0
LTYPE
  5
14
330
5
100
AcDbSymbolTableRecord
100
AcDbLinetypeTableRecord
  2
BYBLOCK
 70
     0
  3

 72
    65
 73
     0
 40
0.0
  0
LTYPE
  5
15
330
5
100
AcDbSymbolTableRecord
100
AcDbLinetypeTableRecord
  2
BYLAYER
 70
     0
  3

 72
    65
 73
     0
 40
0.0
  0
LTYPE
  5
16
330
5
100
AcDbSymbolTableRecord
100
AcDbLinetypeTableRecord
  2
CONTINUOUS
 70
     0
  3
Solid line
 72
    65
 73
     0
 40
0.0
  0
LTYPE
  5
120
330
5
100
AcDbSymbolTableRecord
100
AcDbLinetypeTableRecord
  2
CENTER
 70
     0
  3
____ _ ____ _ ____ _ ____ _ ____ _ ____ _ ____ 
 72
    65
 73
     4
 40
2.0
 49
1.25
 74
     0
 49
-0.25
 74
     0
 49
0.25
 74
     0
 49
-0.25
 74
     0
  0
LTYPE
  5
ACBE
330
5
100
AcDbSymbolTableRecord
100
AcDbLinetypeTableRecord
  2
PHANTOM
 70
     0
  3
Phantom ______  __  __  ______  __  __  ______
 72
    65
 73
     6
 40
63.5
 49
31.75
 74
     0
 49
-6.349999999999999
 74
     0
 49
6.349999999999999
 74
     0
 49
-6.349999999999999
 74
     0
 49
6.349999999999999
 74
     0
 49
-6.349999999999999
 74
     0
  0
LTYPE
  5
ED78
330
5
100
AcDbSymbolTableRecord
100
AcDbLinetypeTableRecord
  2
HIDDEN
 70
     0
  3
Hidden __ __ __ __ __ __ __ __ __ __ __ __ __ _
 72
    65
 73
     2
 40
9.524999999999998
 49
6.349999999999999
 74
     0
 49
-3.174999999999999
 74
     0
  0
ENDTAB
  0
TABLE
  2
LAYER
  5
2
330
0
100
AcDbSymbolTable
 70
    13
  0
LAYER
  5
F
330
2
100
AcDbSymbolTableRecord
100
AcDbLayerTableRecord
  2
0
 70
     0
 62
     7
  6
CONTINUOUS
  0
LAYER
  5
62
330
2
100
AcDbSymbolTableRecord
100
AcDbLayerTableRecord
  2
VIEWPORT
 70
     0
 62
     7
  6
CONTINUOUS
  0
LAYER
  5
16E
330
2
100
AcDbSymbolTableRecord
100
AcDbLayerTableRecord
  2
DEFPOINTS
 70
     0
 62
     7
  6
CONTINUOUS
  0
LAYER
  5
1B8
330
2
100
AcDbSymbolTableRecord
100
AcDbLayerTableRecord
  2
ZUWAKU
 70
     0
 62
     7
  6
CONTINUOUS
  0
LAYER
  5
1B9
330
2
100
AcDbSymbolTableRecord
100
AcDbLayerTableRecord
  2
MOJI
 70
     0
 62
     2
  6
CONTINUOUS
  0
LAYER
  5
49D
330
2
100
AcDbSymbolTableRecord
100
AcDbLayerTableRecord
  2
SEIHIN
 70
     0
 62
     3
  6
CONTINUOUS
  0
LAYER
  5
2262
330
2
100
AcDbSymbolTableRecord
100
AcDbLayerTableRecord
  2
SUNPOU
 70
     0
 62
     4
  6
CONTINUOUS
  0
LAYER
  5
2263
330
2
100
AcDbSymbolTableRecord
100
AcDbLayerTableRecord
  2
CENTER_L
 70
     0
 62
     1
  6
CENTER
  0
LAYER
  5
ABC9
330
2
100
AcDbSymbolTableRecord
100
AcDbLayerTableRecord
  2
NOKITOI
 70
     0
 62
     7
  6
PHANTOM
  0
LAYER
  5
10AA5
330
2
100
AcDbSymbolTableRecord
100
AcDbLayerTableRecord
  2
止め具
 70
     0
 62
     3
  6
CONTINUOUS
  0
LAYER
  5
10AA6
330
2
100
AcDbSymbolTableRecord
100
AcDbLayerTableRecord
  2
ﾌ_ﾗｹｯﾄ本体
 70
     0
 62
     2
  6
CONTINUOUS
  0
LAYER
  5
10AA7
330
2
100
AcDbSymbolTableRecord
100
AcDbLayerTableRecord
  2
ﾋ_ｽ_ﾅｯﾄ
 70
     0
 62
     7
  6
CONTINUOUS
  0
LAYER
  5
10AA8
330
2
100
AcDbSymbolTableRecord
100
AcDbLayerTableRecord
  2
ｽﾗｲﾄ_幅
 70
     0
 62
     6
  6
PHANTOM
  0
ENDTAB
  0
TABLE
  2
STYLE
  5
3
330
0
100
AcDbSymbolTable
 70
     3
  0
STYLE
  5
10
330
3
100
AcDbSymbolTableRecord
100
AcDbTextStyleTableRecord
  2
STANDARD
 70
     0
 40
0.0
 41
1.0
 50
0.0
 71
     0
 42
2.5
  3
TXT
  4
bigfont.shx
  0
STYLE
  5
1BA
330
3
100
AcDbSymbolTableRecord
100
AcDbTextStyleTableRecord
  2
MSPｺ_ｼｯｸ
 70
     0
 40
0.0
 41
1.0
 50
0.0
 71
     0
 42
2.5
  3
MS PGothic.ttf
  4

1001
ACAD
1000
MS PGothic
1071
    32818
  0
STYLE
  5
E330
330
3
100
AcDbSymbolTableRecord
100
AcDbTextStyleTableRecord
  2
STYLE2
 70
     0
 40
0.0
 41
1.0
 50
0.0
 71
     0
 42
0.35
  3
ＭＳ ゴシック
  4

  0
ENDTAB
  0
TABLE
  2
VIEW
  5
6
330
0
100
AcDbSymbolTable
 70
     0
  0
ENDTAB
  0
TABLE
  2
UCS
  5
7
330
0
100
AcDbSymbolTable
 70
     0
  0
ENDTAB
  0
TABLE
  2
APPID
  5
9
330
0
100
AcDbSymbolTable
 70
     1
  0
APPID
  5
11
330
9
100
AcDbSymbolTableRecord
100
AcDbRegAppTableRecord
  2
ACAD
 70
     0
  0
ENDTAB
  0
TABLE
  2
DIMSTYLE
  5
A
330
0
100
AcDbSymbolTable
 70
     1
  0
DIMSTYLE
105
1D
102
{ACAD_REACTORS
330
113B9
330
113C7
330
113D5
330
113E2
330
113EF
330
113FC
330
11409
330
11417
330
11424
330
11431
330
1143E
330
1144B
330
11458
330
11465
330
113B5
330
113B6
330
11622
330
11630
330
12ADB
102
}
330
A
100
AcDbSymbolTableRecord
100
AcDbDimStyleTableRecord
  2
STANDARD
 70
     0
  3

  4

  5
OPEN
  6

  7

 40
1.0
 41
4.0
 42
1.5
 43
7.0
 44
1.5
 45
0.0
 46
0.0
 47
0.0
 48
0.0
140
5.0
141
0.0
142
0.0
143
25.4
144
1.0
145
0.0
146
1.0
147
1.5
 71
     0
 72
     0
 73
     0
 74
     0
 75
     0
 76
     0
 77
     3
 78
     0
170
     0
171
     2
172
     0
173
     0
174
     0
175
     0
176
   256
177
   256
178
   256
270
     2
271
     0
272
     0
273
     2
274
     2
340
10
275
     0
280
     0
281
     0
282
     0
283
     1
284
     0
285
     0
286
     0
287
     3
288
     0
  0
ENDTAB
  0
TABLE
  2
BLOCK_RECORD
  5
1
330
0
100
AcDbSymbolTable
 70
    20
  0
BLOCK_RECORD
  5
1A
102
{ACAD_XDICTIONARY
360
806D
102
}
330
1
100
AcDbSymbolTableRecord
100
AcDbBlockTableRecord
  2
*MODEL_SPACE
  0
BLOCK_RECORD
  5
17
102
{ACAD_XDICTIONARY
360
806B
102
}
330
1
100
AcDbSymbolTableRecord
100
AcDbBlockTableRecord
  2
*PAPER_SPACE
  0
BLOCK_RECORD
  5
6A30
330
1
100
AcDbSymbolTableRecord
100
AcDbBlockTableRecord
  2
_OPEN
  0
BLOCK_RECORD
  5
6A36
330
1
100
AcDbSymbolTableRecord
100
AcDbBlockTableRecord
  2
_DOTSMALL
  0
BLOCK_RECORD
  5
8090
330
1
100
AcDbSymbolTableRecord
100
AcDbBlockTableRecord
  2
*X2
  0
BLOCK_RECORD
  5
113BA
330
1
100
AcDbSymbolTableRecord
100
AcDbBlockTableRecord
  2
*D3
  0
BLOCK_RECORD
  5
113C8
330
1
100
AcDbSymbolTableRecord
100
AcDbBlockTableRecord
  2
*D4
  0
BLOCK_RECORD
  5
113D6
330
1
100
AcDbSymbolTableRecord
100
AcDbBlockTableRecord
  2
*D5
  0
BLOCK_RECORD
  5
113E3
330
1
100
AcDbSymbolTableRecord
100
AcDbBlockTableRecord
  2
*D6
  0
BLOCK_RECORD
  5
113F0
330
1
100
AcDbSymbolTableRecord
100
AcDbBlockTableRecord
  2
*D7
  0
BLOCK_RECORD
  5
113FD
330
1
100
AcDbSymbolTableRecord
100
AcDbBlockTableRecord
  2
*D8
  0
BLOCK_RECORD
  5
1140A
330
1
100
AcDbSymbolTableRecord
100
AcDbBlockTableRecord
  2
*D9
  0
BLOCK_RECORD
  5
11418
330
1
100
AcDbSymbolTableRecord
100
AcDbBlockTableRecord
  2
*D10
  0
BLOCK_RECORD
  5
11425
330
1
100
AcDbSymbolTableRecord
100
AcDbBlockTableRecord
  2
*D11
  0
BLOCK_RECORD
  5
11432
330
1
100
AcDbSymbolTableRecord
100
AcDbBlockTableRecord
  2
*D12
  0
BLOCK_RECORD
  5
1143F
330
1
100
AcDbSymbolTableRecord
100
AcDbBlockTableRecord
  2
*D13
  0
BLOCK_RECORD
  5
1144C
330
1
100
AcDbSymbolTableRecord
100
AcDbBlockTableRecord
  2
*D14
  0
BLOCK_RECORD
  5
11459
330
1
100
AcDbSymbolTableRecord
100
AcDbBlockTableRecord
  2
*D15
  0
BLOCK_RECORD
  5
11466
330
1
100
AcDbSymbolTableRecord
100
AcDbBlockTableRecord
  2
*D16
  0
BLOCK_RECORD
  5
11623
330
1
100
AcDbSymbolTableRecord
100
AcDbBlockTableRecord
  2
*D17
  0
BLOCK_RECORD
  5
11631
330
1
100
AcDbSymbolTableRecord
100
AcDbBlockTableRecord
  2
*D18
  0
BLOCK_RECORD
  5
12ADC
330
1
100
AcDbSymbolTableRecord
100
AcDbBlockTableRecord
  2
*D19
  0
ENDTAB
  0
ENDSEC
  0
SECTION
  2
BLOCKS
  0
BLOCK
  5
1B
330
1A
100
AcDbEntity
  8
0
100
AcDbBlockBegin
  2
*MODEL_SPACE
 70
     0
 10
0.0
 20
0.0
 30
0.0
  3
*MODEL_SPACE
  1

  0
ENDBLK
  5
1C
330
1A
100
AcDbEntity
  8
0
100
AcDbBlockEnd
  0
BLOCK
  5
18
330
17
100
AcDbEntity
 67
     1
  8
0
100
AcDbBlockBegin
  2
*PAPER_SPACE
 70
     0
 10
0.0
 20
0.0
 30
0.0
  3
*PAPER_SPACE
  1

  0
ENDBLK
  5
19
330
17
100
AcDbEntity
 67
     1
  8
0
100
AcDbBlockEnd
  0
BLOCK
  5
6A34
330
6A30
100
AcDbEntity
  8
0
100
AcDbBlockBegin
  2
_OPEN
 70
     0
 10
0.0
 20
0.0
 30
0.0
  3
_OPEN
  1

  0
LINE
  5
6A31
330
6A30
100
AcDbEntity
  8
0
 62
     0
100
AcDbLine
 10
-1.0
 20
0.1666666666666666
 30
0.0
 11
0.0
 21
0.0
 31
0.0
  0
LINE
  5
6A32
330
6A30
100
AcDbEntity
  8
0
 62
     0
100
AcDbLine
 10
-1.0
 20
-0.1666666666666666
 30
0.0
 11
0.0
 21
0.0
 31
0.0
  0
LINE
  5
6A33
330
6A30
100
AcDbEntity
  8
0
 62
     0
100
AcDbLine
 10
0.0
 20
0.0
 30
0.0
 11
-1.0
 21
0.0
 31
0.0
  0
ENDBLK
  5
6A35
330
6A30
100
AcDbEntity
  8
0
100
AcDbBlockEnd
  0
BLOCK
  5
6A38
330
6A36
100
AcDbEntity
  8
0
100
AcDbBlockBegin
  2
_DOTSMALL
 70
     0
 10
0.0
 20
0.0
 30
0.0
  3
_DOTSMALL
  1

  0
POLYLINE
  5
6A37
330
6A36
100
AcDbEntity
  8
0
 62
     0
100
AcDb2dPolyline
 66
     1
 10
0.0
 20
0.0
 30
0.0
 70
     1
 40
0.5
 41
0.5
  0
VERTEX
  5
12B04
330
6A37
100
AcDbEntity
  8
0
 62
     0
100
AcDbVertex
100
AcDb2dVertex
 10
-0.0625
 20
0.0
 30
0.0
 42
1.0
  0
VERTEX
  5
12B05
330
6A37
100
AcDbEntity
  8
0
 62
     0
100
AcDbVertex
100
AcDb2dVertex
 10
0.0625
 20
0.0
 30
0.0
 42
1.0
  0
SEQEND
  5
12B06
330
6A37
100
AcDbEntity
  8
0
 62
     0
  0
ENDBLK
  5
6A39
330
6A36
100
AcDbEntity
  8
0
100
AcDbBlockEnd
  0
BLOCK
  5
8224
330
8090
100
AcDbEntity
  8
0
100
AcDbBlockBegin
  2
*X2
 70
     1
 10
0.0
 20
0.0
 30
0.0
  3
*X2
  1

  0
LINE
  5
8091
330
8090
100
AcDbEntity
  8
0
 62
     0
100
AcDbLine
 10
76.04221215478117
 20
29.60416907028502
 30
0.0
 11
75.39638122506613
 21
30.25000000000005
 31
0.0
  0
LINE
  5
8092
330
8090
100
AcDbEntity
  8
0
 62
     0
100
AcDbLine
 10
76.04221215478111
 20
28.70614345817807
 30
0.0
 11
74.49835561295924
 21
30.24999999999994
 31
0.0
  0
LINE
  5
8093
330
8090
100
AcDbEntity
  8
0
 62
     0
100
AcDbLine
 10
76.04221215478111
 20
27.80811784607118
 30
0.0
 11
73.62107820876622
 21
30.22925179208607
 31
0.0
  0
LINE
  5
8094
330
8090
100
AcDbEntity
  8
0
 62
     0
100
AcDbLine
 10
76.04221215478111
 20
26.91009223396429
 30
0.0
 11
73.2422121547811
 21
29.71009223396436
 31
0.0
  0
LINE
  5
8095
330
8090
100
AcDbEntity
  8
0
 62
     0
100
AcDbLine
 10
76.04221215478111
 20
26.0120666218574
 30
0.0
 11
73.24221215478104
 21
28.81206662185741
 31
0.0
  0
LINE
  5
8096
330
8090
100
AcDbEntity
  8
0
 62
     0
100
AcDbLine
 10
76.04221215478111
 20
25.11404100975045
 30
0.0
 11
73.24221215478104
 21
27.91404100975052
 31
0.0
  0
LINE
  5
8097
330
8090
100
AcDbEntity
  8
0
 62
     0
100
AcDbLine
 10
71.14221215478114
 20
29.11601539764353
 30
0.0
 11
70.00822755242467
 21
30.25000000000005
 31
0.0
  0
LINE
  5
8098
330
8090
100
AcDbEntity
  8
0
 62
     0
100
AcDbLine
 10
76.04221215478111
 20
24.21601539764356
 30
0.0
 11
73.24221215478104
 21
27.01601539764363
 31
0.0
  0
LINE
  5
8099
330
8090
100
AcDbEntity
  8
0
 62
     0
100
AcDbLine
 10
71.14221215478114
 20
28.21798978553664
 30
0.0
 11
69.11020194031784
 21
30.24999999999994
 31
0.0
  0
LINE
  5
809A
330
8090
100
AcDbEntity
  8
0
 62
     0
100
AcDbLine
 10
76.04221215478111
 20
23.31798978553667
 30
0.0
 11
73.24221215478104
 21
26.11798978553673
 31
0.0
  0
LINE
  5
809B
330
8090
100
AcDbEntity
  8
0
 62
     0
100
AcDbLine
 10
71.14221215478119
 20
27.31996417342964
 30
0.0
 11
68.436701189644
 21
30.02547513856677
 31
0.0
  0
LINE
  5
809C
330
8090
100
AcDbEntity
  8
0
 62
     0
100
AcDbLine
 10
76.04221215478105
 20
22.41996417342972
 30
0.0
 11
73.24221215478104
 21
25.21996417342978
 31
0.0
  0
LINE
  5
809D
330
8090
100
AcDbEntity
  8
0
 62
     0
100
AcDbLine
 10
71.14221215478119
 20
26.42193856132269
 30
0.0
 11
68.34221215478118
 21
29.22193856132276
 31
0.0
  0
LINE
  5
809E
330
8090
100
AcDbEntity
  8
0
 62
     0
100
AcDbLine
 10
76.04221215478111
 20
21.52193856132282
 30
0.0
 11
73.24221215478104
 21
24.32193856132284
 31
0.0
  0
LINE
  5
809F
330
8090
100
AcDbEntity
  8
0
 62
     0
100
AcDbLine
 10
71.14221215478119
 20
25.52391294921585
 30
0.0
 11
68.34221215478113
 21
28.32391294921587
 31
0.0
  0
LINE
  5
80A0
330
8090
100
AcDbEntity
  8
0
 62
     0
100
AcDbLine
 10
76.04221215478111
 20
20.62391294921593
 30
0.0
 11
73.24221215478104
 21
23.423912949216
 31
0.0
  0
LINE
  5
80A1
330
8090
100
AcDbEntity
  8
0
 62
     0
100
AcDbLine
 10
71.14221215478119
 20
24.6258873371089
 30
0.0
 11
68.34221215478113
 21
27.42588733710897
 31
0.0
  0
LINE
  5
80A2
330
8090
100
AcDbEntity
  8
0
 62
     0
100
AcDbLine
 10
76.04221215478105
 20
19.72588733710898
 30
0.0
 11
73.24221215478099
 21
22.52588733710905
 31
0.0
  0
LINE
  5
80A3
330
8090
100
AcDbEntity
  8
0
 62
     0
100
AcDbLine
 10
71.14221215478114
 20
23.72786172500195
 30
0.0
 11
68.34221215478106
 21
26.52786172500202
 31
0.0
  0
LINE
  5
80A4
330
8090
100
AcDbEntity
  8
0
 62
     0
100
AcDbLine
 10
76.04221215478111
 20
18.82786172500198
 30
0.0
 11
73.24221215478099
 21
21.62786172500216
 31
0.0
  0
LINE
  5
80A5
330
8090
100
AcDbEntity
  8
0
 62
     0
100
AcDbLine
 10
71.14221215478119
 20
22.82983611289512
 30
0.0
 11
68.34221215478113
 21
25.62983611289519
 31
0.0
  0
LINE
  5
80A6
330
8090
100
AcDbEntity
  8
0
 62
     0
100
AcDbLine
 10
64.84221215478118
 20
29.12983611289513
 30
0.0
 11
63.7220482676762
 21
30.25000000000005
 31
0.0
  0
LINE
  5
80A7
330
8090
100
AcDbEntity
  8
0
 62
     0
100
AcDbLine
 10
76.04221215478117
 20
17.92983611289514
 30
0.0
 11
73.24221215478104
 21
20.72983611289527
 31
0.0
  0
LINE
  5
80A8
330
8090
100
AcDbEntity
  8
0
 62
     0
100
AcDbLine
 10
71.14221215478114
 20
21.93181050078817
 30
0.0
 11
68.34221215478113
 21
24.73181050078824
 31
0.0
  0
LINE
  5
80A9
330
8090
100
AcDbEntity
  8
0
 62
     0
100
AcDbLine
 10
64.84221215478118
 20
28.23181050078818
 30
0.0
 11
62.82402265556931
 21
30.25000000000005
 31
0.0
  0
LINE
  5
80AA
330
8090
100
AcDbEntity
  8
0
 62
     0
100
AcDbLine
 10
76.04221215478111
 20
17.03181050078819
 30
0.0
 11
73.2422121547811
 21
19.83181050078826
 31
0.0
  0
LINE
  5
80AB
330
8090
100
AcDbEntity
  8
0
 62
     0
100
AcDbLine
 10
71.14221215478114
 20
21.03378488868128
 30
0.0
 11
68.34221215478106
 21
23.83378488868129
 31
0.0
  0
LINE
  5
80AC
330
8090
100
AcDbEntity
  8
0
 62
     0
100
AcDbLine
 10
64.84221215478112
 20
27.33378488868129
 30
0.0
 11
62.14244943145695
 21
30.03354761200546
 31
0.0
  0
LINE
  5
80AD
330
8090
100
AcDbEntity
  8
0
 62
     0
100
AcDbLine
 10
76.04221215478111
 20
16.1337848886813
 30
0.0
 11
73.24221215478104
 21
18.93378488868131
 31
0.0
  0
LINE
  5
80AE
330
8090
100
AcDbEntity
  8
0
 62
     0
100
AcDbLine
 10
71.14221215478119
 20
20.13575927657433
 30
0.0
 11
68.34221215478113
 21
22.9357592765744
 31
0.0
  0
LINE
  5
80AF
330
8090
100
AcDbEntity
  8
0
 62
     0
100
AcDbLine
 10
64.84221215478118
 20
26.43575927657434
 30
0.0
 11
62.04221215478117
 21
29.23575927657429
 31
0.0
  0
LINE
  5
80B0
330
8090
100
AcDbEntity
  8
0
 62
     0
100
AcDbLine
 10
76.04221215478117
 20
15.23575927657435
 30
0.0
 11
73.2422121547811
 21
18.03575927657442
 31
0.0
  0
LINE
  5
80B1
330
8090
100
AcDbEntity
  8
0
 62
     0
100
AcDbLine
 10
71.14221215478114
 20
19.23773366446744
 30
0.0
 11
68.34221215478106
 21
22.03773366446751
 31
0.0
  0
LINE
  5
80B2
330
8090
100
AcDbEntity
  8
0
 62
     0
100
AcDbLine
 10
64.84221215478112
 20
25.53773366446745
 30
0.0
 11
62.04221215478117
 21
28.33773366446746
 31
0.0
  0
LINE
  5
80B3
330
8090
100
AcDbEntity
  8
0
 62
     0
100
AcDbLine
 10
75.97024679989118
 20
14.40969901935744
 30
0.0
 11
73.24221215478104
 21
17.13773366446753
 31
0.0
  0
LINE
  5
80B4
330
8090
100
AcDbEntity
  8
0
 62
     0
100
AcDbLine
 10
71.14221215478114
 20
18.33970805236054
 30
0.0
 11
68.34221215478106
 21
21.13970805236061
 31
0.0
  0
LINE
  5
80B5
330
8090
100
AcDbEntity
  8
0
 62
     0
100
AcDbLine
 10
64.84221215478112
 20
24.63970805236056
 30
0.0
 11
62.04221215478117
 21
27.43970805236051
 31
0.0
  0
LINE
  5
80B6
330
8090
100
AcDbEntity
  8
0
 62
     0
100
AcDbLine
 10
75.33192020714176
 20
14.14999999999992
 30
0.0
 11
73.24221215478104
 21
16.23970805236064
 31
0.0
  0
LINE
  5
80B7
330
8090
100
AcDbEntity
  8
0
 62
     0
100
AcDbLine
 10
64.84221215478112
 20
23.74168244025361
 30
0.0
 11
62.04221215478111
 21
26.54168244025362
 31
0.0
  0
LINE
  5
80B8
330
8090
100
AcDbEntity
  8
0
 62
     0
100
AcDbLine
 10
71.14221215478107
 20
17.4416824402536
 30
0.0
 11
68.34221215478106
 21
20.24168244025366
 31
0.0
  0
LINE
  5
80B9
330
8090
100
AcDbEntity
  8
0
 62
     0
100
AcDbLine
 10
59.41721215478105
 20
29.16668244025362
 30
0.0
 11
58.33389459503473
 21
30.25
 31
0.0
  0
LINE
  5
80BA
330
8090
100
AcDbEntity
  8
0
 62
     0
100
AcDbLine
 10
74.43389459503482
 20
14.14999999999986
 30
0.0
 11
73.24221215478104
 21
15.34168244025369
 31
0.0
  0
LINE
  5
80BB
330
8090
100
AcDbEntity
  8
0
 62
     0
100
AcDbLine
 10
64.84221215478112
 20
22.84365682814677
 30
0.0
 11
62.04221215478117
 21
25.64365682814673
 31
0.0
  0
LINE
  5
80BC
330
8090
100
AcDbEntity
  8
0
 62
     0
100
AcDbLine
 10
59.41721215478111
 20
28.26865682814679
 30
0.0
 11
57.43586898292784
 21
30.25
 31
0.0
  0
LINE
  5
80BD
330
8090
100
AcDbEntity
  8
0
 62
     0
100
AcDbLine
 10
71.1162538541356
 20
16.56961512879229
 30
0.0
 11
68.34221215478106
 21
19.34365682814677
 31
0.0
  0
LINE
  5
80BE
330
8090
100
AcDbEntity
  8
0
 62
     0
100
AcDbLine
 10
64.84221215478112
 20
21.94563121603982
 30
0.0
 11
62.04221215478111
 21
24.74563121603978
 31
0.0
  0
LINE
  5
80BF
330
8090
100
AcDbEntity
  8
0
 62
     0
100
AcDbLine
 10
59.22163160866722
 20
27.56621176215372
 30
0.0
 11
56.53784337082095
 21
30.25
 31
0.0
  0
LINE
  5
80C0
330
8090
100
AcDbEntity
  8
0
 62
     0
100
AcDbLine
 10
70.92326855887836
 20
15.86457481194253
 30
0.0
 11
68.34221215478106
 21
18.44563121603988
 31
0.0
  0
LINE
  5
80C1
330
8090
100
AcDbEntity
  8
0
 62
     0
100
AcDbLine
 10
64.84221215478107
 20
21.04760560393287
 30
0.0
 11
62.04221215478111
 21
23.84760560393289
 31
0.0
  0
LINE
  5
80C2
330
8090
100
AcDbEntity
  8
0
 62
     0
100
AcDbLine
 10
58.43981775871395
 20
27.44999999999999
 30
0.0
 11
55.639817758714
 21
30.25
 31
0.0
  0
LINE
  5
80C3
330
8090
100
AcDbEntity
  8
0
 62
     0
100
AcDbLine
 10
70.59823668295473
 20
15.29158107575926
 30
0.0
 11
68.27069641562156
 21
17.61912134309244
 31
0.0
  0
LINE
  5
80C4
330
8090
100
AcDbEntity
  8
0
 62
     0
100
AcDbLine
 10
64.84221215478112
 20
20.14957999182604
 30
0.0
 11
62.04221215478117
 21
22.94957999182599
 31
0.0
  0
LINE
  5
80C5
330
8090
100
AcDbEntity
  8
0
 62
     0
100
AcDbLine
 10
57.54179214660712
 20
27.45000000000004
 30
0.0
 11
54.80422541742973
 21
30.18756672917743
 31
0.0
  0
LINE
  5
80C6
330
8090
100
AcDbEntity
  8
0
 62
     0
100
AcDbLine
 10
70.1661948856297
 20
14.82559726097747
 30
0.0
 11
67.86911077715399
 21
17.12268136945317
 31
0.0
  0
LINE
  5
80C7
330
8090
100
AcDbEntity
  8
0
 62
     0
100
AcDbLine
 10
64.84221215478112
 20
19.25155437971909
 30
0.0
 11
62.04221215478111
 21
22.0515543797191
 31
0.0
  0
LINE
  5
80C8
330
8090
100
AcDbEntity
  8
0
 62
     0
100
AcDbLine
 10
56.64376653450029
 20
27.44999999999993
 30
0.0
 11
54.13958499289646
 21
29.95418154160375
 31
0.0
  0
LINE
  5
80C9
330
8090
100
AcDbEntity
  8
0
 62
     0
100
AcDbLine
 10
69.63003254070367
 20
14.46373399379655
 30
0.0
 11
67.14376653450028
 21
16.94999999999993
 31
0.0
  0
LINE
  5
80CA
330
8090
100
AcDbEntity
  8
0
 62
     0
100
AcDbLine
 10
64.84221215478107
 20
18.3535287676122
 30
0.0
 11
62.04221215478111
 21
21.15352876761215
 31
0.0
  0
LINE
  5
80CB
330
8090
100
AcDbEntity
  8
0
 62
     0
100
AcDbLine
 10
55.76753075041148
 20
27.42821017198179
 30
0.0
 11
53.59698405568628
 21
29.59875686670699
 31
0.0
  0
LINE
  5
80CC
330
8090
100
AcDbEntity
  8
0
 62
     0
100
AcDbLine
 10
68.97361998079225
 20
14.22212094160101
 30
0.0
 11
66.24574092239328
 21
16.94999999999998
 31
0.0
  0
LINE
  5
80CD
330
8090
100
AcDbEntity
  8
0
 62
     0
100
AcDbLine
 10
55.39221215478113
 20
26.90550315550519
 30
0.0
 11
53.15887199664172
 21
29.1388433136446
 31
0.0
  0
LINE
  5
80CE
330
8090
100
AcDbEntity
  8
0
 62
     0
100
AcDbLine
 10
68.1477153102864
 20
14.14999999999992
 30
0.0
 11
62.04221215478106
 21
20.25550315550521
 31
0.0
  0
LINE
  5
80CF
330
8090
100
AcDbEntity
  8
0
 62
     0
100
AcDbLine
 10
55.39221215478113
 20
26.00747754339829
 30
0.0
 11
52.82710108428876
 21
28.57258861389073
 31
0.0
  0
LINE
  5
80D0
330
8090
100
AcDbEntity
  8
0
 62
     0
100
AcDbLine
 10
67.2496896981795
 20
14.14999999999992
 30
0.0
 11
62.04221215478111
 21
19.35747754339837
 31
0.0
  0
LINE
  5
80D1
330
8090
100
AcDbEntity
  8
0
 62
     0
100
AcDbLine
 10
55.59875643588487
 20
24.90290765018767
 30
0.0
 11
52.62492256492464
 21
27.87674152114789
 31
0.0
  0
LINE
  5
80D2
330
8090
100
AcDbEntity
  8
0
 62
     0
100
AcDbLine
 10
66.35166408607251
 20
14.14999999999997
 30
0.0
 11
62.04221215478111
 21
18.45945193129142
 31
0.0
  0
LINE
  5
80D3
330
8090
100
AcDbEntity
  8
0
 62
     0
100
AcDbLine
 10
59.81581585747244
 20
19.78782261649308
 30
0.0
 11
52.59221215478106
 21
27.01142631918452
 31
0.0
  0
LINE
  5
80D4
330
8090
100
AcDbEntity
  8
0
 62
     0
100
AcDbLine
 10
50.49221215478104
 20
29.11142631918449
 30
0.0
 11
49.35363847396558
 21
30.25
 31
0.0
  0
LINE
  5
80D5
330
8090
100
AcDbEntity
  8
0
 62
     0
100
AcDbLine
 10
65.45363847396567
 20
14.14999999999992
 30
0.0
 11
62.04221215478106
 21
17.56142631918453
 31
0.0
  0
LINE
  5
80D6
330
8090
100
AcDbEntity
  8
0
 62
     0
100
AcDbLine
 10
59.94221215478109
 20
18.76340070707766
 30
0.0
 11
52.59221215478106
 21
26.11340070707763
 31
0.0
  0
LINE
  5
80D7
330
8090
100
AcDbEntity
  8
0
 62
     0
100
AcDbLine
 10
50.4922121547811
 20
28.21340070707765
 30
0.0
 11
48.45561286185875
 21
30.24999999999994
 31
0.0
  0
LINE
  5
80D8
330
8090
100
AcDbEntity
  8
0
 62
     0
100
AcDbLine
 10
64.53916498311395
 20
14.1664478787448
 30
0.0
 11
62.05866003352594
 21
16.64695282833275
 31
0.0
  0
LINE
  5
80D9
330
8090
100
AcDbEntity
  8
0
 62
     0
100
AcDbLine
 10
50.49221215478104
 20
27.3153750949707
 30
0.0
 11
47.78482226700583
 21
30.02276498274596
 31
0.0
  0
LINE
  5
80DA
330
8090
100
AcDbEntity
  8
0
 62
     0
100
AcDbLine
 10
59.94221215478109
 20
17.86537509497071
 30
0.0
 11
52.61562282266357
 21
25.19196442708818
 31
0.0
  0
LINE
  5
80DB
330
8090
100
AcDbEntity
  8
0
 62
     0
100
AcDbLine
 10
50.49221215478104
 20
26.41734948286381
 30
0.0
 11
47.69221215478109
 21
29.21734948286376
 31
0.0
  0
LINE
  5
80DC
330
8090
100
AcDbEntity
  8
0
 62
     0
100
AcDbLine
 10
59.94221215478114
 20
16.96734948286371
 30
0.0
 11
52.93374224050376
 21
23.97581939714109
 31
0.0
  0
LINE
  5
80DD
330
8090
100
AcDbEntity
  8
0
 62
     0
100
AcDbLine
 10
50.4922121547811
 20
25.51932387075686
 30
0.0
 11
47.69221215478109
 21
28.31932387075681
 31
0.0
  0
LINE
  5
80DE
330
8090
100
AcDbEntity
  8
0
 62
     0
100
AcDbLine
 10
59.83365033719207
 20
16.17788568834589
 30
0.0
 11
57.13801554815365
 21
18.87352047738431
 31
0.0
  0
LINE
  5
80DF
330
8090
100
AcDbEntity
  8
0
 62
     0
100
AcDbLine
 10
50.49221215478104
 20
24.62129825865003
 30
0.0
 11
47.69221215478109
 21
27.42129825864998
 31
0.0
  0
LINE
  5
80E0
330
8090
100
AcDbEntity
  8
0
 62
     0
100
AcDbLine
 10
45.40072525420407
 20
29.71278515922699
 30
0.0
 11
44.86351041343107
 21
30.25
 31
0.0
  0
LINE
  5
80E1
330
8090
100
AcDbEntity
  8
0
 62
     0
100
AcDbLine
 10
59.56577462943039
 20
15.54773578400068
 30
0.0
 11
57.14221215478119
 21
17.97129825864988
 31
0.0
  0
LINE
  5
80E2
330
8090
100
AcDbEntity
  8
0
 62
     0
100
AcDbLine
 10
50.49221215478104
 20
23.72327264654308
 30
0.0
 11
47.69221215478103
 21
26.52327264654303
 31
0.0
  0
LINE
  5
80E3
330
8090
100
AcDbEntity
  8
0
 62
     0
100
AcDbLine
 10
45.20179758995147
 20
29.01368721137265
 30
0.0
 11
43.96548480132406
 21
30.25000000000005
 31
0.0
  0
LINE
  5
80E4
330
8090
100
AcDbEntity
  8
0
 62
     0
100
AcDbLine
 10
59.1827878312551
 20
15.03269697006897
 30
0.0
 11
57.0449269718946
 21
17.17055782942947
 31
0.0
  0
LINE
  5
80E5
330
8090
100
AcDbEntity
  8
0
 62
     0
100
AcDbLine
 10
50.49221215478098
 20
22.82524703443613
 30
0.0
 11
47.69221215478103
 21
25.62524703443614
 31
0.0
  0
LINE
  5
80E6
330
8090
100
AcDbEntity
  8
0
 62
     0
100
AcDbLine
 10
44.98627144304584
 20
28.33118774617133
 30
0.0
 11
43.07705587957514
 21
30.24040330964197
 31
0.0
  0
LINE
  5
80E7
330
8090
100
AcDbEntity
  8
0
 62
     0
100
AcDbLine
 10
58.69646886613941
 20
14.6209903230777
 30
0.0
 11
56.36745918921724
 21
16.94999999999993
 31
0.0
  0
LINE
  5
80E8
330
8090
100
AcDbEntity
  8
0
 62
     0
100
AcDbLine
 10
50.49221215478104
 20
21.92722142232929
 30
0.0
 11
47.69221215478114
 21
24.72722142232919
 31
0.0
  0
LINE
  5
80E9
330
8090
100
AcDbEntity
  8
0
 62
     0
100
AcDbLine
 10
44.77074529614021
 20
27.64868828097007
 30
0.0
 11
42.64274529614016
 21
29.77668828097018
 31
0.0
  0
LINE
  5
80EA
330
8090
100
AcDbEntity
  8
0
 62
     0
100
AcDbLine
 10
58.10038491767904
 20
14.31904865943124
 30
0.0
 11
55.4694335771104
 21
16.94999999999993
 31
0.0
  0
LINE
  5
80EB
330
8090
100
AcDbEntity
  8
0
 62
     0
100
AcDbLine
 10
50.49221215478104
 20
21.02919581022234
 30
0.0
 11
47.69221215478114
 21
23.82919581022224
 31
0.0
  0
LINE
  5
80EC
330
8090
100
AcDbEntity
  8
0
 62
     0
100
AcDbLine
 10
44.55521914923446
 20
26.96618881576893
 30
0.0
 11
42.42721914923442
 21
29.09418881576897
 31
0.0
  0
LINE
  5
80ED
330
8090
100
AcDbEntity
  8
0
 62
     0
100
AcDbLine
 10
57.36271226603157
 20
14.15869569897182
 30
0.0
 11
54.5714079650034
 21
16.94999999999998
 31
0.0
  0
LINE
  5
80EE
330
8090
100
AcDbEntity
  8
0
 62
     0
100
AcDbLine
 10
50.49221215478098
 20
20.13117019811545
 30
0.0
 11
47.69221215478109
 21
22.93117019811529
 31
0.0
  0
LINE
  5
80EF
330
8090
100
AcDbEntity
  8
0
 62
     0
100
AcDbLine
 10
44.33969300232883
 20
26.28368935056755
 30
0.0
 11
42.21169300232879
 21
28.41168935056765
 31
0.0
  0
LINE
  5
80F0
330
8090
100
AcDbEntity
  8
0
 62
     0
100
AcDbLine
 10
56.47338235289652
 20
14.14999999999992
 30
0.0
 11
53.6733823528964
 21
16.95000000000004
 31
0.0
  0
LINE
  5
80F1
330
8090
100
AcDbEntity
  8
0
 62
     0
100
AcDbLine
 10
50.49221215478104
 20
19.23314458600856
 30
0.0
 11
47.69221215478114
 21
22.03314458600846
 31
0.0
  0
LINE
  5
80F2
330
8090
100
AcDbEntity
  8
0
 62
     0
100
AcDbLine
 10
44.12416685542313
 20
25.60118988536646
 30
0.0
 11
41.99616685542309
 21
27.7291898853665
 31
0.0
  0
LINE
  5
80F3
330
8090
100
AcDbEntity
  8
0
 62
     0
100
AcDbLine
 10
55.57535674078962
 20
14.14999999999997
 30
0.0
 11
53.1417450434933
 21
16.5836116972963
 31
0.0
  0
LINE
  5
80F4
330
8090
100
AcDbEntity
  8
0
 62
     0
100
AcDbLine
 10
43.90864070851757
 20
24.91869042016509
 30
0.0
 11
41.78064070851746
 21
27.04669042016513
 31
0.0
  0
LINE
  5
80F5
330
8090
100
AcDbEntity
  8
0
 62
     0
100
AcDbLine
 10
50.49221215478098
 20
18.33511897390161
 30
0.0
 11
47.69221215478109
 21
21.13511897390151
 31
0.0
  0
LINE
  5
80F6
330
8090
100
AcDbEntity
  8
0
 62
     0
100
AcDbLine
 10
39.64221215478113
 20
29.18511897390152
 30
0.0
 11
38.5773311286826
 21
30.25000000000005
 31
0.0
  0
LINE
  5
80F7
330
8090
100
AcDbEntity
  8
0
 62
     0
100
AcDbLine
 10
54.67733112868273
 20
14.14999999999992
 30
0.0
 11
53.11721215478115
 21
15.7101189739015
 31
0.0
  0
LINE
  5
80F8
330
8090
100
AcDbEntity
  8
0
 62
     0
100
AcDbLine
 10
43.69311456161176
 20
24.23619095496388
 30
0.0
 11
41.56511456161172
 21
26.36419095496398
 31
0.0
  0
LINE
  5
80F9
330
8090
100
AcDbEntity
  8
0
 62
     0
100
AcDbLine
 10
50.49221215478098
 20
17.43709336179472
 30
0.0
 11
47.69221215478109
 21
20.23709336179462
 31
0.0
  0
LINE
  5
80FA
330
8090
100
AcDbEntity
  8
0
 62
     0
100
AcDbLine
 10
39.64221215478113
 20
28.28709336179457
 30
0.0
 11
37.67930551657576
 21
30.24999999999994
 31
0.0
  0
LINE
  5
80FB
330
8090
100
AcDbEntity
  8
0
 62
     0
100
AcDbLine
 10
53.77930551657579
 20
14.14999999999992
 30
0.0
 11
53.11721215478105
 21
14.81209336179466
 31
0.0
  0
LINE
  5
80FC
330
8090
100
AcDbEntity
  8
0
 62
     0
100
AcDbLine
 10
43.47758841470619
 20
23.55369148976257
 30
0.0
 11
41.34958841470615
 21
25.68169148976261
 31
0.0
  0
LINE
  5
80FD
330
8090
100
AcDbEntity
  8
0
 62
     0
100
AcDbLine
 10
39.64221215478119
 20
27.38906774968757
 30
0.0
 11
36.96676722588347
 21
30.06451267858528
 31
0.0
  0
LINE
  5
80FE
330
8090
100
AcDbEntity
  8
0
 62
     0
100
AcDbLine
 10
50.49221215478104
 20
16.53906774968771
 30
0.0
 11
47.69221215478109
 21
19.33906774968767
 31
0.0
  0
LINE
  5
80FF
330
8090
100
AcDbEntity
  8
0
 62
     0
100
AcDbLine
 10
43.2620622678005
 20
22.87119202456142
 30
0.0
 11
41.1340622678004
 21
24.99919202456152
 31
0.0
  0
LINE
  5
8100
330
8090
100
AcDbEntity
  8
0
 62
     0
100
AcDbLine
 10
39.64221215478119
 20
26.49104213758068
 30
0.0
 11
36.84221215478106
 21
29.29104213758085
 31
0.0
  0
LINE
  5
8101
330
8090
100
AcDbEntity
  8
0
 62
     0
100
AcDbLine
 10
50.4922121547811
 20
15.64104213758082
 30
0.0
 11
47.69221215478109
 21
18.44104213758083
 31
0.0
  0
LINE
  5
8102
330
8090
100
AcDbEntity
  8
0
 62
     0
100
AcDbLine
 10
43.05697375840856
 20
22.17825492184641
 30
0.0
 11
40.91853612089482
 21
24.31669255936014
 31
0.0
  0
LINE
  5
8103
330
8090
100
AcDbEntity
  8
0
 62
     0
100
AcDbLine
 10
39.64221215478119
 20
25.59301652547378
 30
0.0
 11
36.84221215478106
 21
28.39301652547391
 31
0.0
  0
LINE
  5
8104
330
8090
100
AcDbEntity
  8
0
 62
     0
100
AcDbLine
 10
50.49221215478104
 20
14.74301652547393
 30
0.0
 11
47.69221215478114
 21
17.54301652547377
 31
0.0
  0
LINE
  5
8105
330
8090
100
AcDbEntity
  8
0
 62
     0
100
AcDbLine
 10
43.47144711784255
 20
20.86575595030546
 30
0.0
 11
40.62798862521003
 21
23.70921444293799
 31
0.0
  0
LINE
  5
8106
330
8090
100
AcDbEntity
  8
0
 62
     0
100
AcDbLine
 10
39.64221215478113
 20
24.69499091336683
 30
0.0
 11
36.84221215478101
 21
27.49499091336696
 31
0.0
  0
LINE
  5
8107
330
8090
100
AcDbEntity
  8
0
 62
     0
100
AcDbLine
 10
50.15316715744865
 20
14.18403591069937
 30
0.0
 11
47.69221215478114
 21
16.64499091336688
 31
0.0
  0
LINE
  5
8108
330
8090
100
AcDbEntity
  8
0
 62
     0
100
AcDbLine
 10
43.88592047727661
 20
19.55325697876458
 30
0.0
 11
36.84221215478106
 21
26.59696530126012
 31
0.0
  0
LINE
  5
8109
330
8090
100
AcDbEntity
  8
0
 62
     0
100
AcDbLine
 10
34.39221215478119
 20
29.04696530126
 30
0.0
 11
33.18917745604113
 21
30.25
 31
0.0
  0
LINE
  5
810A
330
8090
100
AcDbEntity
  8
0
 62
     0
100
AcDbLine
 10
49.28917745604121
 20
14.14999999999997
 30
0.0
 11
47.69221215478114
 21
15.74696530125999
 31
0.0
  0
LINE
  5
810B
330
8090
100
AcDbEntity
  8
0
 62
     0
100
AcDbLine
 10
44.30039383671055
 20
18.24075800722368
 30
0.0
 11
36.84221215478101
 21
25.69893968915318
 31
0.0
  0
LINE
  5
810C
330
8090
100
AcDbEntity
  8
0
 62
     0
100
AcDbLine
 10
34.39221215478119
 20
28.14893968915305
 30
0.0
 11
32.2911518439343
 21
30.24999999999994
 31
0.0
  0
LINE
  5
810D
330
8090
100
AcDbEntity
  8
0
 62
     0
100
AcDbLine
 10
48.39115184393427
 20
14.14999999999997
 30
0.0
 11
47.69221215478114
 21
14.8489396891531
 31
0.0
  0
LINE
  5
810E
330
8090
100
AcDbEntity
  8
0
 62
     0
100
AcDbLine
 10
34.12530545939091
 20
27.51782077243638
 30
0.0
 11
31.42508374117949
 21
30.21804249064774
 31
0.0
  0
LINE
  5
810F
330
8090
100
AcDbEntity
  8
0
 62
     0
100
AcDbLine
 10
44.71486719614444
 20
16.92825903568279
 30
0.0
 11
36.84221215478101
 21
24.80091407704628
 31
0.0
  0
LINE
  5
8110
330
8090
100
AcDbEntity
  8
0
 62
     0
100
AcDbLine
 10
39.97972107712257
 20
20.76537954259782
 30
0.0
 11
36.84221215478112
 21
23.90288846493928
 31
0.0
  0
LINE
  5
8111
330
8090
100
AcDbEntity
  8
0
 62
     0
100
AcDbLine
 10
33.29510061972041
 20
27.44999999999999
 30
0.0
 11
30.68704067159222
 21
30.05805994812817
 31
0.0
  0
LINE
  5
8112
330
8090
100
AcDbEntity
  8
0
 62
     0
100
AcDbLine
 10
45.12934055557844
 20
15.61576006414196
 30
0.0
 11
41.03703286327061
 21
19.70806775644979
 31
0.0
  0
LINE
  5
8113
330
8090
100
AcDbEntity
  8
0
 62
     0
100
AcDbLine
 10
39.64221215478113
 20
20.20486285283232
 30
0.0
 11
36.84221215478112
 21
23.00486285283239
 31
0.0
  0
LINE
  5
8114
330
8090
100
AcDbEntity
  8
0
 62
     0
100
AcDbLine
 10
32.39707500761346
 20
27.44999999999999
 30
0.0
 11
30.0483192557615
 21
29.79875575185195
 31
0.0
  0
LINE
  5
8115
330
8090
100
AcDbEntity
  8
0
 62
     0
100
AcDbLine
 10
45.3643794132891
 20
14.48269559432441
 30
0.0
 11
41.45150622270455
 21
18.39556878490895
 31
0.0
  0
LINE
  5
8116
330
8090
100
AcDbEntity
  8
0
 62
     0
100
AcDbLine
 10
39.64221215478113
 20
19.30683724072542
 30
0.0
 11
36.84221215478106
 21
22.10683724072549
 31
0.0
  0
LINE
  5
8117
330
8090
100
AcDbEntity
  8
0
 62
     0
100
AcDbLine
 10
31.55396150506993
 20
27.39508789043663
 30
0.0
 11
29.48957028042696
 21
29.4594791150796
 31
0.0
  0
LINE
  5
8118
330
8090
100
AcDbEntity
  8
0
 62
     0
100
AcDbLine
 10
44.79904939550652
 20
14.15000000000003
 30
0.0
 11
41.86597958213854
 21
17.08306981336801
 31
0.0
  0
LINE
  5
8119
330
8090
100
AcDbEntity
  8
0
 62
     0
100
AcDbLine
 10
39.64221215478113
 20
18.40881162861847
 30
0.0
 11
36.84221215478106
 21
21.20881162861854
 31
0.0
  0
LINE
  5
811A
330
8090
100
AcDbEntity
  8
0
 62
     0
100
AcDbLine
 10
30.98210531223094
 20
27.06891847116867
 30
0.0
 11
29.00191507181517
 21
29.04910871158444
 31
0.0
  0
LINE
  5
811B
330
8090
100
AcDbEntity
  8
0
 62
     0
100
AcDbLine
 10
43.90102378339963
 20
14.14999999999997
 30
0.0
 11
42.28045294157243
 21
15.77057084182718
 31
0.0
  0
LINE
  5
811C
330
8090
100
AcDbEntity
  8
0
 62
     0
100
AcDbLine
 10
34.72764128757876
 20
22.42535688371401
 30
0.0
 11
33.21756903849501
 21
23.9354291327977
 31
0.0
  0
LINE
  5
811D
330
8090
100
AcDbEntity
  8
0
 62
     0
100
AcDbLine
 10
39.64221215478113
 20
17.51078601651164
 30
0.0
 11
36.84221215478106
 21
20.31078601651165
 31
0.0
  0
LINE
  5
811E
330
8090
100
AcDbEntity
  8
0
 62
     0
100
AcDbLine
 10
30.62598374210199
 20
26.52701442919078
 30
0.0
 11
28.58254904580394
 21
28.57044912548883
 31
0.0
  0
LINE
  5
811F
330
8090
100
AcDbEntity
  8
0
 62
     0
100
AcDbLine
 10
42.95266516708795
 20
14.20033300420482
 30
0.0
 11
42.70231099549727
 21
14.4506871757955
 31
0.0
  0
LINE
  5
8120
330
8090
100
AcDbEntity
  8
0
 62
     0
100
AcDbLine
 10
34.64112762743684
 20
21.61384493174898
 30
0.0
 11
32.40605708652998
 21
23.84891547265579
 31
0.0
  0
LINE
  5
8121
330
8090
100
AcDbEntity
  8
0
 62
     0
100
AcDbLine
 10
30.54221215478117
 20
25.71276040440466
 30
0.0
 11
28.23361002484228
 21
28.02136253434355
 31
0.0
  0
LINE
  5
8122
330
8090
100
AcDbEntity
  8
0
 62
     0
100
AcDbLine
 10
39.64221215478113
 20
16.61276040440469
 30
0.0
 11
36.84221215478106
 21
19.41276040440476
 31
0.0
  0
LINE
  5
8123
330
8090
100
AcDbEntity
  8
0
 62
     0
100
AcDbLine
 10
34.30927206813885
 20
21.04767487894002
 30
0.0
 11
31.83988703372108
 21
23.5170599133578
 31
0.0
  0
LINE
  5
8124
330
8090
100
AcDbEntity
  8
0
 62
     0
100
AcDbLine
 10
30.54221215478111
 20
24.81473479229777
 30
0.0
 11
27.9630303176321
 21
27.39391662944678
 31
0.0
  0
LINE
  5
8125
330
8090
100
AcDbEntity
  8
0
 62
     0
100
AcDbLine
 10
39.64221215478108
 20
15.71473479229774
 30
0.0
 11
36.84221215478106
 21
18.51473479229781
 31
0.0
  0
LINE
  5
8126
330
8090
100
AcDbEntity
  8
0
 62
     0
100
AcDbLine
 10
30.54221215478117
 20
23.91670918019087
 30
0.0
 11
27.78831644470625
 21
26.67060489026579
 31
0.0
  0
LINE
  5
8127
330
8090
100
AcDbEntity
  8
0
 62
     0
100
AcDbLine
 10
33.80743862600235
 20
20.65148270896969
 30
0.0
 11
31.44369486375075
 21
23.01522647122129
 31
0.0
  0
LINE
  5
8128
330
8090
100
AcDbEntity
  8
0
 62
     0
100
AcDbLine
 10
25.11721215478104
 20
29.34170918019094
 30
0.0
 11
24.20892133497199
 21
30.25000000000005
 31
0.0
  0
LINE
  5
8129
330
8090
100
AcDbEntity
  8
0
 62
     0
100
AcDbLine
 10
39.64221215478113
 20
14.81670918019091
 30
0.0
 11
36.84221215478106
 21
17.61670918019098
 31
0.0
  0
LINE
  5
812A
330
8090
100
AcDbEntity
  8
0
 62
     0
100
AcDbLine
 10
30.54221215478111
 20
23.01868356808392
 30
0.0
 11
27.74221215478098
 21
25.81868356808411
 31
0.0
  0
LINE
  5
812B
330
8090
100
AcDbEntity
  8
0
 62
     0
100
AcDbLine
 10
33.10711918357492
 20
20.45377653929017
 30
0.0
 11
31.24598869407117
 21
22.31490702879387
 31
0.0
  0
LINE
  5
812C
330
8090
100
AcDbEntity
  8
0
 62
     0
100
AcDbLine
 10
25.11721215478104
 20
28.44368356808405
 30
0.0
 11
23.31089572286504
 21
30.25
 31
0.0
  0
LINE
  5
812D
330
8090
100
AcDbEntity
  8
0
 62
     0
100
AcDbLine
 10
39.35430835351041
 20
14.20658736935467
 30
0.0
 11
36.84221215478106
 21
16.71868356808403
 31
0.0
  0
LINE
  5
812E
330
8090
100
AcDbEntity
  8
0
 62
     0
100
AcDbLine
 10
30.54221215478111
 20
22.12065795597703
 30
0.0
 11
27.74221215478098
 21
24.92065795597716
 31
0.0
  0
LINE
  5
812F
330
8090
100
AcDbEntity
  8
0
 62
     0
100
AcDbLine
 10
25.00817818451071
 20
27.65469192624744
 30
0.0
 11
22.41287011075815
 21
30.25
 31
0.0
  0
LINE
  5
8130
330
8090
100
AcDbEntity
  8
0
 62
     0
100
AcDbLine
 10
38.51287011075823
 20
14.14999999999986
 30
0.0
 11
36.84221215478101
 21
15.82065795597708
 31
0.0
  0
LINE
  5
8131
330
8090
100
AcDbEntity
  8
0
 62
     0
100
AcDbLine
 10
30.54221215478111
 20
21.22263234387009
 30
0.0
 11
27.74221215478092
 21
24.02263234387021
 31
0.0
  0
LINE
  5
8132
330
8090
100
AcDbEntity
  8
0
 62
     0
100
AcDbLine
 10
24.31484449865121
 20
27.44999999999999
 30
0.0
 11
21.5148444986512
 21
30.24999999999994
 31
0.0
  0
LINE
  5
8133
330
8090
100
AcDbEntity
  8
0
 62
     0
100
AcDbLine
 10
37.61484449865122
 20
14.14999999999992
 30
0.0
 11
36.84221215478101
 21
14.92263234387019
 31
0.0
  0
LINE
  5
8134
330
8090
100
AcDbEntity
  8
0
 62
     0
100
AcDbLine
 10
30.54221215478111
 20
20.32460673176325
 30
0.0
 11
27.74221215478098
 21
23.12460673176337
 31
0.0
  0
LINE
  5
8135
330
8090
100
AcDbEntity
  8
0
 62
     0
100
AcDbLine
 10
23.41681888654437
 20
27.44999999999993
 30
0.0
 11
20.65168961443953
 21
30.21512927210483
 31
0.0
  0
LINE
  5
8136
330
8090
100
AcDbEntity
  8
0
 62
     0
100
AcDbLine
 10
34.38960970594405
 20
16.47720918060025
 30
0.0
 11
33.91942133538134
 21
16.94739755116302
 31
0.0
  0
LINE
  5
8137
330
8090
100
AcDbEntity
  8
0
 62
     0
100
AcDbLine
 10
30.54221215478111
 20
19.4265811196563
 30
0.0
 11
27.74221215478104
 21
22.22658111965637
 31
0.0
  0
LINE
  5
8138
330
8090
100
AcDbEntity
  8
0
 62
     0
100
AcDbLine
 10
22.51879327443737
 20
27.44999999999999
 30
0.0
 11
19.95855480596105
 21
30.01023846847636
 31
0.0
  0
LINE
  5
8139
330
8090
100
AcDbEntity
  8
0
 62
     0
100
AcDbLine
 10
34.39221215478113
 20
15.57658111965622
 30
0.0
 11
33.01879327443742
 21
16.94999999999998
 31
0.0
  0
LINE
  5
813A
330
8090
100
AcDbEntity
  8
0
 62
     0
100
AcDbLine
 10
30.54221215478105
 20
18.52855550754935
 30
0.0
 11
27.74221215478104
 21
21.32855550754942
 31
0.0
  0
LINE
  5
813B
330
8090
100
AcDbEntity
  8
0
 62
     0
100
AcDbLine
 10
21.62076766233048
 20
27.44999999999999
 30
0.0
 11
19.39430814611387
 21
29.67645951621659
 31
0.0
  0
LINE
  5
813C
330
8090
100
AcDbEntity
  8
0
 62
     0
100
AcDbLine
 10
34.39221215478113
 20
14.67855550754933
 30
0.0
 11
32.12076766233048
 21
16.94999999999998
 31
0.0
  0
LINE
  5
813D
330
8090
100
AcDbEntity
  8
0
 62
     0
100
AcDbLine
 10
21.110474834716
 20
27.06226721550757
 30
0.0
 11
18.93621533387306
 21
29.23652671635051
 31
0.0
  0
LINE
  5
813E
330
8090
100
AcDbEntity
  8
0
 62
     0
100
AcDbLine
 10
34.00447937028866
 20
14.16826267993497
 30
0.0
 11
27.74221215478104
 21
20.43052989544258
 31
0.0
  0
LINE
  5
813F
330
8090
100
AcDbEntity
  8
0
 62
     0
100
AcDbLine
 10
21.09221215478118
 20
26.1825042833355
 30
0.0
 11
18.58273413140403
 21
28.69198230671264
 31
0.0
  0
LINE
  5
8140
330
8090
100
AcDbEntity
  8
0
 62
     0
100
AcDbLine
 10
33.12471643811676
 20
14.14999999999992
 30
0.0
 11
27.74221215478104
 21
19.53250428333564
 31
0.0
  0
LINE
  5
8141
330
8090
100
AcDbEntity
  8
0
 62
     0
100
AcDbLine
 10
21.15434786291678
 20
25.22234296309295
 30
0.0
 11
18.35185402911025
 21
28.02483679689947
 31
0.0
  0
LINE
  5
8142
330
8090
100
AcDbEntity
  8
0
 62
     0
100
AcDbLine
 10
32.22669082600981
 20
14.14999999999992
 30
0.0
 11
27.74221215478098
 21
18.63447867122869
 31
0.0
  0
LINE
  5
8143
330
8090
100
AcDbEntity
  8
0
 62
     0
100
AcDbLine
 10
25.44658824600372
 20
20.03207696789905
 30
0.0
 11
18.29221215478111
 21
27.18645305912173
 31
0.0
  0
LINE
  5
8144
330
8090
100
AcDbEntity
  8
0
 62
     0
100
AcDbLine
 10
31.27539312684621
 20
14.20327208705663
 30
0.0
 11
27.79548424183764
 21
17.6831809720652
 31
0.0
  0
LINE
  5
8145
330
8090
100
AcDbEntity
  8
0
 62
     0
100
AcDbLine
 10
25.63848276008894
 20
18.942156841707
 30
0.0
 11
18.29221215478111
 21
26.28842744701484
 31
0.0
  0
LINE
  5
8146
330
8090
100
AcDbEntity
  8
0
 62
     0
100
AcDbLine
 10
29.90158521424461
 20
14.67905438755127
 30
0.0
 11
28.27126654233222
 21
16.30937305946372
 31
0.0
  0
LINE
  5
8147
330
8090
100
AcDbEntity
  8
0
 62
     0
100
AcDbLine
 10
25.64221215478113
 20
18.04040183490781
 30
0.0
 11
18.29977660220333
 21
25.3828373874856
 31
0.0
  0
LINE
  5
8148
330
8090
100
AcDbEntity
  8
0
 62
     0
100
AcDbLine
 10
25.64221215478119
 20
17.1423762228008
 30
0.0
 11
18.52306736052719
 21
24.2615210170548
 31
0.0
  0
LINE
  5
8149
330
8090
100
AcDbEntity
  8
0
 62
     0
100
AcDbLine
 10
25.56969215864905
 20
16.31687060682617
 30
0.0
 11
22.80630051503004
 21
19.08026225044517
 31
0.0
  0
LINE
  5
814A
330
8090
100
AcDbEntity
  8
0
 62
     0
100
AcDbLine
 10
25.3277542196202
 20
15.66078293374806
 30
0.0
 11
22.84221215478106
 21
18.14632499858714
 31
0.0
  0
LINE
  5
814B
330
8090
100
AcDbEntity
  8
0
 62
     0
100
AcDbLine
 10
24.96563497223843
 20
15.12487656902288
 30
0.0
 11
22.80631312248033
 21
17.28419841878093
 31
0.0
  0
LINE
  5
814C
330
8090
100
AcDbEntity
  8
0
 62
     0
100
AcDbLine
 10
24.49940859997155
 20
14.69307732918287
 30
0.0
 11
22.24248592915444
 21
16.95000000000004
 31
0.0
  0
LINE
  5
814D
330
8090
100
AcDbEntity
  8
0
 62
     0
100
AcDbLine
 10
23.92614415223874
 20
14.36831616480878
 30
0.0
 11
21.34446031704749
 21
16.94999999999998
 31
0.0
  0
LINE
  5
814E
330
8090
100
AcDbEntity
  8
0
 62
     0
100
AcDbLine
 10
23.22073156315281
 20
14.17570314178777
 30
0.0
 11
20.44643470494059
 21
16.94999999999998
 31
0.0
  0
LINE
  5
814F
330
8090
100
AcDbEntity
  8
0
 62
     0
100
AcDbLine
 10
22.34840909283371
 20
14.14999999999992
 30
0.0
 11
19.54840909283376
 21
16.94999999999987
 31
0.0
  0
LINE
  5
8150
330
8090
100
AcDbEntity
  8
0
 62
     0
100
AcDbLine
 10
21.45038348072682
 20
14.14999999999992
 30
0.0
 11
18.89705958590894
 21
16.70332389481785
 31
0.0
  0
LINE
  5
8151
330
8090
100
AcDbEntity
  8
0
 62
     0
100
AcDbLine
 10
20.55235786861982
 20
14.14999999999997
 30
0.0
 11
18.81721215478103
 21
15.88514571383876
 31
0.0
  0
LINE
  5
8152
330
8090
100
AcDbEntity
  8
0
 62
     0
100
AcDbLine
 10
19.65433225651293
 20
14.14999999999997
 30
0.0
 11
18.81721215478103
 21
14.98712010173187
 31
0.0
  0
LINE
  5
8153
330
8090
100
AcDbEntity
  8
0
 62
     0
100
AcDbLine
 10
75.63389943944793
 20
14.16313177711748
 30
0.0
 11
76.02908037766372
 21
14.55831271533327
 31
0.0
  0
LINE
  5
8154
330
8090
100
AcDbEntity
  8
0
 62
     0
100
AcDbLine
 10
74.72274205022358
 20
14.14999999999992
 30
0.0
 11
76.04221215478117
 21
15.46947010455755
 31
0.0
  0
LINE
  5
8155
330
8090
100
AcDbEntity
  8
0
 62
     0
100
AcDbLine
 10
73.82471643811664
 20
14.14999999999997
 30
0.0
 11
76.04221215478117
 21
16.36749571666445
 31
0.0
  0
LINE
  5
8156
330
8090
100
AcDbEntity
  8
0
 62
     0
100
AcDbLine
 10
73.27340971803284
 20
14.49671889202306
 30
0.0
 11
76.04221215478111
 21
17.2655213287714
 31
0.0
  0
LINE
  5
8157
330
8090
100
AcDbEntity
  8
0
 62
     0
100
AcDbLine
 10
73.24221215478104
 20
15.36354694087822
 30
0.0
 11
76.04221215478111
 21
18.16354694087823
 31
0.0
  0
LINE
  5
8158
330
8090
100
AcDbEntity
  8
0
 62
     0
100
AcDbLine
 10
73.2422121547811
 20
16.26157255298511
 30
0.0
 11
76.04221215478111
 21
19.06157255298518
 31
0.0
  0
LINE
  5
8159
330
8090
100
AcDbEntity
  8
0
 62
     0
100
AcDbLine
 10
73.24221215478104
 20
17.15959816509206
 30
0.0
 11
76.04221215478111
 21
19.95959816509213
 31
0.0
  0
LINE
  5
815A
330
8090
100
AcDbEntity
  8
0
 62
     0
100
AcDbLine
 10
73.24221215478104
 20
18.05762377719895
 30
0.0
 11
76.04221215478111
 21
20.85762377719902
 31
0.0
  0
LINE
  5
815B
330
8090
100
AcDbEntity
  8
0
 62
     0
100
AcDbLine
 10
69.66877701684603
 20
14.484188639264
 30
0.0
 11
70.80802351551728
 21
15.62343513793524
 31
0.0
  0
LINE
  5
815C
330
8090
100
AcDbEntity
  8
0
 62
     0
100
AcDbLine
 10
73.24221215478104
 20
18.95564938930584
 30
0.0
 11
76.04221215478123
 21
21.75564938930597
 31
0.0
  0
LINE
  5
815D
330
8090
100
AcDbEntity
  8
0
 62
     0
100
AcDbLine
 10
68.43820885032352
 20
14.15164608484832
 30
0.0
 11
71.14056606993301
 21
16.85400330445776
 31
0.0
  0
LINE
  5
815E
330
8090
100
AcDbEntity
  8
0
 62
     0
100
AcDbLine
 10
73.24221215478104
 20
19.85367500141279
 30
0.0
 11
76.04221215478117
 21
22.65367500141292
 31
0.0
  0
LINE
  5
815F
330
8090
100
AcDbEntity
  8
0
 62
     0
100
AcDbLine
 10
67.53853715336822
 20
14.14999999999992
 30
0.0
 11
71.14221215478119
 21
17.75367500141294
 31
0.0
  0
LINE
  5
8160
330
8090
100
AcDbEntity
  8
0
 62
     0
100
AcDbLine
 10
73.24221215478104
 20
20.75170061351968
 30
0.0
 11
76.04221215478117
 21
23.55170061351981
 31
0.0
  0
LINE
  5
8161
330
8090
100
AcDbEntity
  8
0
 62
     0
100
AcDbLine
 10
66.64051154126127
 20
14.14999999999997
 30
0.0
 11
71.14221215478119
 21
18.65170061351983
 31
0.0
  0
LINE
  5
8162
330
8090
100
AcDbEntity
  8
0
 62
     0
100
AcDbLine
 10
73.24221215478115
 20
21.64972622562663
 30
0.0
 11
76.04221215478117
 21
24.4497262256267
 31
0.0
  0
LINE
  5
8163
330
8090
100
AcDbEntity
  8
0
 62
     0
100
AcDbLine
 10
65.74248592915438
 20
14.14999999999992
 30
0.0
 11
71.14221215478119
 21
19.54972622562672
 31
0.0
  0
LINE
  5
8164
330
8090
100
AcDbEntity
  8
0
 62
     0
100
AcDbLine
 10
68.23762095270041
 20
17.54316063565289
 30
0.0
 11
71.14221215478119
 21
20.44775183773367
 31
0.0
  0
LINE
  5
8165
330
8090
100
AcDbEntity
  8
0
 62
     0
100
AcDbLine
 10
73.2422121547811
 20
22.54775183773358
 30
0.0
 11
76.04221215478117
 21
25.34775183773365
 31
0.0
  0
LINE
  5
8166
330
8090
100
AcDbEntity
  8
0
 62
     0
100
AcDbLine
 10
64.84446031704749
 20
14.14999999999992
 30
0.0
 11
67.74905151912827
 21
17.0545912020807
 31
0.0
  0
LINE
  5
8167
330
8090
100
AcDbEntity
  8
0
 62
     0
100
AcDbLine
 10
68.34221215478113
 20
18.5457774498405
 30
0.0
 11
71.14221215478119
 21
21.34577744984056
 31
0.0
  0
LINE
  5
8168
330
8090
100
AcDbEntity
  8
0
 62
     0
100
AcDbLine
 10
73.2422121547811
 20
23.44577744984047
 30
0.0
 11
76.04221215478117
 21
26.24577744984054
 31
0.0
  0
LINE
  5
8169
330
8090
100
AcDbEntity
  8
0
 62
     0
100
AcDbLine
 10
64.05838445631769
 20
14.26194975137707
 30
0.0
 11
66.74643470494061
 21
16.95000000000004
 31
0.0
  0
LINE
  5
816A
330
8090
100
AcDbEntity
  8
0
 62
     0
100
AcDbLine
 10
68.34221215478106
 20
19.44380306194744
 30
0.0
 11
71.14221215478114
 21
22.24380306194751
 31
0.0
  0
LINE
  5
816B
330
8090
100
AcDbEntity
  8
0
 62
     0
100
AcDbLine
 10
73.24221215478104
 20
24.34380306194742
 30
0.0
 11
76.04221215478111
 21
27.14380306194749
 31
0.0
  0
LINE
  5
816C
330
8090
100
AcDbEntity
  8
0
 62
     0
100
AcDbLine
 10
63.43039758910754
 20
14.53198849627392
 30
0.0
 11
65.84928687847798
 21
16.95087778564436
 31
0.0
  0
LINE
  5
816D
330
8090
100
AcDbEntity
  8
0
 62
     0
100
AcDbLine
 10
68.34221215478118
 20
20.34182867405439
 30
0.0
 11
71.14221215478119
 21
23.14182867405435
 31
0.0
  0
LINE
  5
816E
330
8090
100
AcDbEntity
  8
0
 62
     0
100
AcDbLine
 10
73.2422121547811
 20
25.24182867405432
 30
0.0
 11
76.04221215478117
 21
28.04182867405433
 31
0.0
  0
LINE
  5
816F
330
8090
100
AcDbEntity
  8
0
 62
     0
100
AcDbLine
 10
62.91713770774248
 20
14.91675422701564
 30
0.0
 11
65.20580828976529
 21
17.2054248090385
 31
0.0
  0
LINE
  5
8170
330
8090
100
AcDbEntity
  8
0
 62
     0
100
AcDbLine
 10
68.34221215478118
 20
21.23985428616134
 30
0.0
 11
71.14221215478114
 21
24.0398542861613
 31
0.0
  0
LINE
  5
8171
330
8090
100
AcDbEntity
  8
0
 62
     0
100
AcDbLine
 10
73.2422121547811
 20
26.13985428616121
 30
0.0
 11
76.04221215478123
 21
28.93985428616133
 31
0.0
  0
LINE
  5
8172
330
8090
100
AcDbEntity
  8
0
 62
     0
100
AcDbLine
 10
62.50717353251741
 20
15.40481566389757
 30
0.0
 11
64.86857001135604
 21
17.76621214273615
 31
0.0
  0
LINE
  5
8173
330
8090
100
AcDbEntity
  8
0
 62
     0
100
AcDbLine
 10
68.34221215478118
 20
22.13787989826824
 30
0.0
 11
71.14221215478119
 21
24.9378798982683
 31
0.0
  0
LINE
  5
8174
330
8090
100
AcDbEntity
  8
0
 62
     0
100
AcDbLine
 10
73.24221215478104
 20
27.03787989826816
 30
0.0
 11
76.03206300123059
 21
29.82773074471771
 31
0.0
  0
LINE
  5
8175
330
8090
100
AcDbEntity
  8
0
 62
     0
100
AcDbLine
 10
62.20724865408351
 20
16.00291639757057
 30
0.0
 11
64.84221215478112
 21
18.63787989826823
 31
0.0
  0
LINE
  5
8176
330
8090
100
AcDbEntity
  8
0
 62
     0
100
AcDbLine
 10
68.34221215478118
 20
23.03590551037513
 30
0.0
 11
71.14221215478124
 21
25.8359055103752
 31
0.0
  0
LINE
  5
8177
330
8090
100
AcDbEntity
  8
0
 62
     0
100
AcDbLine
 10
73.2422121547811
 20
27.93590551037499
 30
0.0
 11
75.55494865615094
 21
30.24864201174489
 31
0.0
  0
LINE
  5
8178
330
8090
100
AcDbEntity
  8
0
 62
     0
100
AcDbLine
 10
62.04983511912707
 20
16.74352847472101
 30
0.0
 11
64.84221215478118
 21
19.53590551037507
 31
0.0
  0
LINE
  5
8179
330
8090
100
AcDbEntity
  8
0
 62
     0
100
AcDbLine
 10
68.34221215478118
 20
23.93393112248202
 30
0.0
 11
71.14221215478124
 21
26.73393112248209
 31
0.0
  0
LINE
  5
817A
330
8090
100
AcDbEntity
  8
0
 62
     0
100
AcDbLine
 10
73.24221215478115
 20
28.83393112248199
 30
0.0
 11
74.65828103229916
 21
30.25
 31
0.0
  0
LINE
  5
817B
330
8090
100
AcDbEntity
  8
0
 62
     0
100
AcDbLine
 10
62.04221215478117
 20
17.63393112248206
 30
0.0
 11
64.84221215478112
 21
20.43393112248202
 31
0.0
  0
LINE
  5
817C
330
8090
100
AcDbEntity
  8
0
 62
     0
100
AcDbLine
 10
68.34221215478113
 20
24.83195673458897
 30
0.0
 11
71.14221215478119
 21
27.63195673458904
 31
0.0
  0
LINE
  5
817D
330
8090
100
AcDbEntity
  8
0
 62
     0
100
AcDbLine
 10
62.04221215478117
 20
18.53195673458896
 30
0.0
 11
64.84221215478118
 21
21.33195673458903
 31
0.0
  0
LINE
  5
817E
330
8090
100
AcDbEntity
  8
0
 62
     0
100
AcDbLine
 10
73.24225886952859
 20
29.73200344933644
 30
0.0
 11
73.76020870544454
 21
30.24995328525233
 31
0.0
  0
LINE
  5
817F
330
8090
100
AcDbEntity
  8
0
 62
     0
100
AcDbLine
 10
57.72065652406894
 20
14.21040110387679
 30
0.0
 11
59.88181105090444
 21
16.37155563071229
 31
0.0
  0
LINE
  5
8180
330
8090
100
AcDbEntity
  8
0
 62
     0
100
AcDbLine
 10
62.04221215478111
 20
19.4299823466959
 30
0.0
 11
64.84221215478118
 21
22.22998234669597
 31
0.0
  0
LINE
  5
8181
330
8090
100
AcDbEntity
  8
0
 62
     0
100
AcDbLine
 10
68.34221215478113
 20
25.72998234669592
 30
0.0
 11
71.14221215478119
 21
28.52998234669593
 31
0.0
  0
LINE
  5
8182
330
8090
100
AcDbEntity
  8
0
 62
     0
100
AcDbLine
 10
56.76222980808524
 20
14.15000000000003
 30
0.0
 11
59.94221215478114
 21
17.32998234669588
 31
0.0
  0
LINE
  5
8183
330
8090
100
AcDbEntity
  8
0
 62
     0
100
AcDbLine
 10
62.04221215478117
 20
20.32800795880274
 30
0.0
 11
64.84221215478124
 21
23.12800795880281
 31
0.0
  0
LINE
  5
8184
330
8090
100
AcDbEntity
  8
0
 62
     0
100
AcDbLine
 10
68.34221215478118
 20
26.62800795880275
 30
0.0
 11
71.14221215478119
 21
29.42800795880282
 31
0.0
  0
LINE
  5
8185
330
8090
100
AcDbEntity
  8
0
 62
     0
100
AcDbLine
 10
55.86420419597828
 20
14.14999999999992
 30
0.0
 11
59.94221215478114
 21
18.22800795880277
 31
0.0
  0
LINE
  5
8186
330
8090
100
AcDbEntity
  8
0
 62
     0
100
AcDbLine
 10
62.04221215478111
 20
21.22603357090969
 30
0.0
 11
64.84221215478118
 21
24.02603357090976
 31
0.0
  0
LINE
  5
8187
330
8090
100
AcDbEntity
  8
0
 62
     0
100
AcDbLine
 10
68.34221215478113
 20
27.5260335709097
 30
0.0
 11
70.94847469994698
 21
30.13229611607556
 31
0.0
  0
LINE
  5
8188
330
8090
100
AcDbEntity
  8
0
 62
     0
100
AcDbLine
 10
54.96617858387145
 20
14.15000000000003
 30
0.0
 11
59.92789355436826
 21
19.11171497049684
 31
0.0
  0
LINE
  5
8189
330
8090
100
AcDbEntity
  8
0
 62
     0
100
AcDbLine
 10
62.04221215478117
 20
22.12405918301669
 30
0.0
 11
64.84221215478118
 21
24.92405918301665
 31
0.0
  0
LINE
  5
818A
330
8090
100
AcDbEntity
  8
0
 62
     0
100
AcDbLine
 10
68.34221215478113
 20
28.42405918301659
 30
0.0
 11
70.16815297176447
 21
30.25
 31
0.0
  0
LINE
  5
818B
330
8090
100
AcDbEntity
  8
0
 62
     0
100
AcDbLine
 10
54.06815297176445
 20
14.14999999999997
 30
0.0
 11
59.79298118373947
 21
19.874828211975
 31
0.0
  0
LINE
  5
818C
330
8090
100
AcDbEntity
  8
0
 62
     0
100
AcDbLine
 10
62.04221215478122
 20
23.02208479512358
 30
0.0
 11
64.84221215478118
 21
25.82208479512354
 31
0.0
  0
LINE
  5
818D
330
8090
100
AcDbEntity
  8
0
 62
     0
100
AcDbLine
 10
57.14221215478125
 20
18.12208479512361
 30
0.0
 11
59.55239372682086
 21
20.53226636716323
 31
0.0
  0
LINE
  5
818E
330
8090
100
AcDbEntity
  8
0
 62
     0
100
AcDbLine
 10
68.34221215478113
 20
29.32208479512349
 30
0.0
 11
69.27012735965764
 21
30.25
 31
0.0
  0
LINE
  5
818F
330
8090
100
AcDbEntity
  8
0
 62
     0
100
AcDbLine
 10
53.29838271278879
 20
14.2782553531311
 30
0.0
 11
55.97012735965762
 21
16.94999999999998
 31
0.0
  0
LINE
  5
8190
330
8090
100
AcDbEntity
  8
0
 62
     0
100
AcDbLine
 10
57.12234157965378
 20
19.00023983210303
 30
0.0
 11
59.22889442196032
 21
21.10679267440963
 31
0.0
  0
LINE
  5
8191
330
8090
100
AcDbEntity
  8
0
 62
     0
100
AcDbLine
 10
62.04221215478122
 20
23.92011040723048
 30
0.0
 11
64.84221215478118
 21
26.72011040723049
 31
0.0
  0
LINE
  5
8192
330
8090
100
AcDbEntity
  8
0
 62
     0
100
AcDbLine
 10
53.1172121547811
 20
14.99511040723035
 30
0.0
 11
55.07210174755073
 21
16.95000000000004
 31
0.0
  0
LINE
  5
8193
330
8090
100
AcDbEntity
  8
0
 62
     0
100
AcDbLine
 10
56.84795674251489
 20
19.62388060707115
 30
0.0
 11
58.83302330403245
 21
21.60894716858871
 31
0.0
  0
LINE
  5
8194
330
8090
100
AcDbEntity
  8
0
 62
     0
100
AcDbLine
 10
62.04221215478117
 20
24.81813601933743
 30
0.0
 11
64.84221215478112
 21
27.61813601933738
 31
0.0
  0
LINE
  5
8195
330
8090
100
AcDbEntity
  8
0
 62
     0
100
AcDbLine
 10
53.11721215478105
 20
15.8931360193373
 30
0.0
 11
54.17407613544378
 21
16.95000000000004
 31
0.0
  0
LINE
  5
8196
330
8090
100
AcDbEntity
  8
0
 62
     0
100
AcDbLine
 10
62.04221215478122
 20
25.71616163144426
 30
0.0
 11
64.84221215478118
 21
28.51616163144427
 31
0.0
  0
LINE
  5
8197
330
8090
100
AcDbEntity
  8
0
 62
     0
100
AcDbLine
 10
56.40668184539788
 20
20.08063132206098
 30
0.0
 11
58.3865808327202
 21
22.06053030938329
 31
0.0
  0
LINE
  5
8198
330
8090
100
AcDbEntity
  8
0
 62
     0
100
AcDbLine
 10
55.95766903934441
 20
20.52964412811445
 30
0.0
 11
57.93756802666667
 21
22.50954311543665
 31
0.0
  0
LINE
  5
8199
330
8090
100
AcDbEntity
  8
0
 62
     0
100
AcDbLine
 10
62.04221215478117
 20
26.61418724355121
 30
0.0
 11
64.84221215478118
 21
29.41418724355116
 31
0.0
  0
LINE
  5
819A
330
8090
100
AcDbEntity
  8
0
 62
     0
100
AcDbLine
 10
49.57802491122993
 20
14.14999999999997
 30
0.0
 11
50.49221215478116
 21
15.0641872435512
 31
0.0
  0
LINE
  5
819B
330
8090
100
AcDbEntity
  8
0
 62
     0
100
AcDbLine
 10
55.50865623329105
 20
20.97865693416798
 30
0.0
 11
57.48855522061319
 21
22.95855592149013
 31
0.0
  0
LINE
  5
819C
330
8090
100
AcDbEntity
  8
0
 62
     0
100
AcDbLine
 10
62.04221215478117
 20
27.51221285565816
 30
0.0
 11
64.65603124668229
 21
30.12603194755928
 31
0.0
  0
LINE
  5
819D
330
8090
100
AcDbEntity
  8
0
 62
     0
100
AcDbLine
 10
48.67999929912293
 20
14.14999999999992
 30
0.0
 11
50.49221215478116
 21
15.96221285565815
 31
0.0
  0
LINE
  5
819E
330
8090
100
AcDbEntity
  8
0
 62
     0
100
AcDbLine
 10
55.05964342723746
 20
21.4276697402214
 30
0.0
 11
57.03954241455978
 21
23.40756872754372
 31
0.0
  0
LINE
  5
819F
330
8090
100
AcDbEntity
  8
0
 62
     0
100
AcDbLine
 10
62.04221215478117
 20
28.41023846776505
 30
0.0
 11
63.88197368701606
 21
30.25
 31
0.0
  0
LINE
  5
81A0
330
8090
100
AcDbEntity
  8
0
 62
     0
100
AcDbLine
 10
47.89358482487807
 20
14.26161113786202
 30
0.0
 11
50.49221215478116
 21
16.86023846776504
 31
0.0
  0
LINE
  5
81A1
330
8090
100
AcDbEntity
  8
0
 62
     0
100
AcDbLine
 10
54.61063062118404
 20
21.87668254627482
 30
0.0
 11
56.59052960850636
 21
23.85658153359713
 31
0.0
  0
LINE
  5
81A2
330
8090
100
AcDbEntity
  8
0
 62
     0
100
AcDbLine
 10
62.04221215478117
 20
29.30826407987194
 30
0.0
 11
62.98394807490916
 21
30.24999999999994
 31
0.0
  0
LINE
  5
81A3
330
8090
100
AcDbEntity
  8
0
 62
     0
100
AcDbLine
 10
47.6922121547812
 20
14.95826407987198
 30
0.0
 11
50.49221215478116
 21
17.75826407987193
 31
0.0
  0
LINE
  5
81A4
330
8090
100
AcDbEntity
  8
0
 62
     0
100
AcDbLine
 10
54.16161781513057
 20
22.32569535232829
 30
0.0
 11
56.14151680245289
 21
24.30559433965061
 31
0.0
  0
LINE
  5
81A5
330
8090
100
AcDbEntity
  8
0
 62
     0
100
AcDbLine
 10
47.69221215478114
 20
15.85628969197887
 30
0.0
 11
50.49221215478116
 21
18.65628969197882
 31
0.0
  0
LINE
  5
81A6
330
8090
100
AcDbEntity
  8
0
 62
     0
100
AcDbLine
 10
53.71463391408929
 20
22.77673706339396
 30
0.0
 11
55.69860744747126
 21
24.76071059677593
 31
0.0
  0
LINE
  5
81A7
330
8090
100
AcDbEntity
  8
0
 62
     0
100
AcDbLine
 10
47.69221215478114
 20
16.75431530408582
 30
0.0
 11
50.4922121547811
 21
19.55431530408577
 31
0.0
  0
LINE
  5
81A8
330
8090
100
AcDbEntity
  8
0
 62
     0
100
AcDbLine
 10
58.38789685069537
 20
27.44999999999999
 30
0.0
 11
59.41721215478117
 21
28.47931530408584
 31
0.0
  0
LINE
  5
81A9
330
8090
100
AcDbEntity
  8
0
 62
     0
100
AcDbLine
 10
45.19955593007011
 20
14.26165907937479
 30
0.0
 11
45.28920829152673
 21
14.35131144083141
 31
0.0
  0
LINE
  5
81AA
330
8090
100
AcDbEntity
  8
0
 62
     0
100
AcDbLine
 10
53.31663173526732
 20
23.27676049667883
 30
0.0
 11
55.41626601268598
 21
25.37639477409749
 31
0.0
  0
LINE
  5
81AB
330
8090
100
AcDbEntity
  8
0
 62
     0
100
AcDbLine
 10
47.6922121547812
 20
17.65234091619265
 30
0.0
 11
50.49221215478116
 21
20.45234091619267
 31
0.0
  0
LINE
  5
81AC
330
8090
100
AcDbEntity
  8
0
 62
     0
100
AcDbLine
 10
57.48987123858848
 20
27.44999999999999
 30
0.0
 11
59.41721215478122
 21
29.37734091619267
 31
0.0
  0
LINE
  5
81AD
330
8090
100
AcDbEntity
  8
0
 62
     0
100
AcDbLine
 10
44.1898712385884
 20
14.14999999999992
 30
0.0
 11
45.25565033489505
 21
15.2157790963065
 31
0.0
  0
LINE
  5
81AE
330
8090
100
AcDbEntity
  8
0
 62
     0
100
AcDbLine
 10
52.99079747087057
 20
23.84895184438903
 30
0.0
 11
55.39221215478119
 21
26.25036652829965
 31
0.0
  0
LINE
  5
81AF
330
8090
100
AcDbEntity
  8
0
 62
     0
100
AcDbLine
 10
47.69221215478114
 20
18.5503665282996
 30
0.0
 11
50.49221215478116
 21
21.35036652829956
 31
0.0
  0
LINE
  5
81B0
330
8090
100
AcDbEntity
  8
0
 62
     0
100
AcDbLine
 10
56.59184562648147
 20
27.44999999999993
 30
0.0
 11
59.25054322298319
 21
30.10869759650165
 31
0.0
  0
LINE
  5
81B1
330
8090
100
AcDbEntity
  8
0
 62
     0
100
AcDbLine
 10
43.29184562648151
 20
14.14999999999992
 30
0.0
 11
45.04012418798936
 21
15.89827856150776
 31
0.0
  0
LINE
  5
81B2
330
8090
100
AcDbEntity
  8
0
 62
     0
100
AcDbLine
 10
47.69221215478114
 20
19.44839214040649
 30
0.0
 11
50.4922121547811
 21
22.2483921404065
 31
0.0
  0
LINE
  5
81B3
330
8090
100
AcDbEntity
  8
0
 62
     0
100
AcDbLine
 10
52.74741540820059
 20
24.503595393826
 30
0.0
 11
58.49382001437459
 21
30.25
 31
0.0
  0
LINE
  5
81B4
330
8090
100
AcDbEntity
  8
0
 62
     0
100
AcDbLine
 10
42.6998313158266
 20
14.45601130145195
 30
0.0
 11
44.82459804108367
 21
16.58077802670902
 31
0.0
  0
LINE
  5
81B5
330
8090
100
AcDbEntity
  8
0
 62
     0
100
AcDbLine
 10
47.69221215478109
 20
20.34641775251344
 30
0.0
 11
50.4922121547811
 21
23.14641775251339
 31
0.0
  0
LINE
  5
81B6
330
8090
100
AcDbEntity
  8
0
 62
     0
100
AcDbLine
 10
52.60870854911491
 20
25.26291414684726
 30
0.0
 11
57.5957944022677
 21
30.25
 31
0.0
  0
LINE
  5
81B7
330
8090
100
AcDbEntity
  8
0
 62
     0
100
AcDbLine
 10
42.48107189417794
 20
15.13527749191024
 30
0.0
 11
44.60907189417798
 21
17.26327749191034
 31
0.0
  0
LINE
  5
81B8
330
8090
100
AcDbEntity
  8
0
 62
     0
100
AcDbLine
 10
47.69221215478114
 20
21.24444336462033
 30
0.0
 11
50.4922121547811
 21
24.04444336462029
 31
0.0
  0
LINE
  5
81B9
330
8090
100
AcDbEntity
  8
0
 62
     0
100
AcDbLine
 10
52.59221215478112
 20
26.14444336462031
 30
0.0
 11
56.6977687901608
 21
30.25
 31
0.0
  0
LINE
  5
81BA
330
8090
100
AcDbEntity
  8
0
 62
     0
100
AcDbLine
 10
42.26554574727219
 20
15.81777695711139
 30
0.0
 11
44.39354574727235
 21
17.94577695711154
 31
0.0
  0
LINE
  5
81BB
330
8090
100
AcDbEntity
  8
0
 62
     0
100
AcDbLine
 10
47.69221215478114
 20
22.14246897672722
 30
0.0
 11
50.4922121547811
 21
24.94246897672724
 31
0.0
  0
LINE
  5
81BC
330
8090
100
AcDbEntity
  8
0
 62
     0
100
AcDbLine
 10
52.59221215478112
 20
27.0424689767272
 30
0.0
 11
55.79974317805391
 21
30.25
 31
0.0
  0
LINE
  5
81BD
330
8090
100
AcDbEntity
  8
0
 62
     0
100
AcDbLine
 10
42.05001960036662
 20
16.5002764223127
 30
0.0
 11
44.17801960036666
 21
18.6282764223128
 31
0.0
  0
LINE
  5
81BE
330
8090
100
AcDbEntity
  8
0
 62
     0
100
AcDbLine
 10
47.6922121547812
 20
23.04049458883423
 30
0.0
 11
50.4922121547811
 21
25.84049458883413
 31
0.0
  0
LINE
  5
81BF
330
8090
100
AcDbEntity
  8
0
 62
     0
100
AcDbLine
 10
41.83449345346093
 20
17.18277588751402
 30
0.0
 11
43.96249345346098
 21
19.31077588751406
 31
0.0
  0
LINE
  5
81C0
330
8090
100
AcDbEntity
  8
0
 62
     0
100
AcDbLine
 10
52.64552882490256
 20
27.99381125895559
 30
0.0
 11
54.84840089582553
 21
30.19668332987857
 31
0.0
  0
LINE
  5
81C1
330
8090
100
AcDbEntity
  8
0
 62
     0
100
AcDbLine
 10
38.80171756594683
 20
14.14999999999992
 30
0.0
 11
39.64221215478119
 21
14.99049458883428
 31
0.0
  0
LINE
  5
81C2
330
8090
100
AcDbEntity
  8
0
 62
     0
100
AcDbLine
 10
41.6189673065553
 20
17.86527535271523
 30
0.0
 11
43.74696730655535
 21
19.99327535271527
 31
0.0
  0
LINE
  5
81C3
330
8090
100
AcDbEntity
  8
0
 62
     0
100
AcDbLine
 10
47.6922121547812
 20
23.93852020094112
 30
0.0
 11
50.4922121547811
 21
26.73852020094102
 31
0.0
  0
LINE
  5
81C4
330
8090
100
AcDbEntity
  8
0
 62
     0
100
AcDbLine
 10
37.90369195383999
 20
14.14999999999986
 30
0.0
 11
39.64221215478124
 21
15.88852020094111
 31
0.0
  0
LINE
  5
81C5
330
8090
100
AcDbEntity
  8
0
 62
     0
100
AcDbLine
 10
41.40344115964956
 20
18.54777481791637
 30
0.0
 11
43.53144115964965
 21
20.67577481791653
 31
0.0
  0
LINE
  5
81C6
330
8090
100
AcDbEntity
  8
0
 62
     0
100
AcDbLine
 10
47.6922121547812
 20
24.83654581304802
 30
0.0
 11
50.4922121547811
 21
27.63654581304791
 31
0.0
  0
LINE
  5
81C7
330
8090
100
AcDbEntity
  8
0
 62
     0
100
AcDbLine
 10
37.08681608938445
 20
14.23114974765127
 30
0.0
 11
39.64221215478119
 21
16.78654581304806
 31
0.0
  0
LINE
  5
81C8
330
8090
100
AcDbEntity
  8
0
 62
     0
100
AcDbLine
 10
41.18791501274393
 20
19.23027428311775
 30
0.0
 11
43.31591501274397
 21
21.35827428311779
 31
0.0
  0
LINE
  5
81C9
330
8090
100
AcDbEntity
  8
0
 62
     0
100
AcDbLine
 10
47.69221215478114
 20
25.73457142515497
 30
0.0
 11
50.49221215478104
 21
28.53457142515486
 31
0.0
  0
LINE
  5
81CA
330
8090
100
AcDbEntity
  8
0
 62
     0
100
AcDbLine
 10
36.84221215478112
 20
14.88457142515494
 30
0.0
 11
39.64221215478119
 21
17.68457142515501
 31
0.0
  0
LINE
  5
81CB
330
8090
100
AcDbEntity
  8
0
 62
     0
100
AcDbLine
 10
40.9723888658384
 20
19.91277374831901
 30
0.0
 11
43.10038886583839
 21
22.040773748319
 31
0.0
  0
LINE
  5
81CC
330
8090
100
AcDbEntity
  8
0
 62
     0
100
AcDbLine
 10
47.6922121547812
 20
26.63259703726186
 30
0.0
 11
50.4922121547811
 21
29.43259703726175
 31
0.0
  0
LINE
  5
81CD
330
8090
100
AcDbEntity
  8
0
 62
     0
100
AcDbLine
 10
36.84221215478117
 20
15.78259703726178
 30
0.0
 11
39.64221215478124
 21
18.58259703726185
 31
0.0
  0
LINE
  5
81CE
330
8090
100
AcDbEntity
  8
0
 62
     0
100
AcDbLine
 10
40.73759007886645
 20
20.57600057345405
 30
0.0
 11
43.36788414679739
 21
23.20629464138499
 31
0.0
  0
LINE
  5
81CF
330
8090
100
AcDbEntity
  8
0
 62
     0
100
AcDbLine
 10
47.6922121547812
 20
27.53062264936875
 30
0.0
 11
50.29593673228266
 21
30.1343472268702
 31
0.0
  0
LINE
  5
81D0
330
8090
100
AcDbEntity
  8
0
 62
     0
100
AcDbLine
 10
36.84221215478112
 20
16.68062264936873
 30
0.0
 11
39.64221215478119
 21
19.48062264936879
 31
0.0
  0
LINE
  5
81D1
330
8090
100
AcDbEntity
  8
0
 62
     0
100
AcDbLine
 10
40.05040470899899
 20
20.78684081569355
 30
0.0
 11
43.7823575062315
 21
24.518793612926
 31
0.0
  0
LINE
  5
81D2
330
8090
100
AcDbEntity
  8
0
 62
     0
100
AcDbLine
 10
36.84221215478112
 20
17.57864826147567
 30
0.0
 11
39.65537133908759
 21
20.39180744578215
 31
0.0
  0
LINE
  5
81D3
330
8090
100
AcDbEntity
  8
0
 62
     0
100
AcDbLine
 10
47.69221215478114
 20
28.4286482614757
 30
0.0
 11
49.51356389330545
 21
30.25
 31
0.0
  0
LINE
  5
81D4
330
8090
100
AcDbEntity
  8
0
 62
     0
100
AcDbLine
 10
33.41356389330542
 20
14.14999999999992
 30
0.0
 11
34.39221215478124
 21
15.1286482614758
 31
0.0
  0
LINE
  5
81D5
330
8090
100
AcDbEntity
  8
0
 62
     0
100
AcDbLine
 10
36.84221215478112
 20
18.47667387358256
 30
0.0
 11
44.19683086566538
 21
25.83129258446689
 31
0.0
  0
LINE
  5
81D6
330
8090
100
AcDbEntity
  8
0
 62
     0
100
AcDbLine
 10
47.69221215478114
 20
29.32667387358259
 30
0.0
 11
48.61553828119849
 21
30.25
 31
0.0
  0
LINE
  5
81D7
330
8090
100
AcDbEntity
  8
0
 62
     0
100
AcDbLine
 10
32.51553828119847
 20
14.14999999999997
 30
0.0
 11
34.39221215478124
 21
16.02667387358269
 31
0.0
  0
LINE
  5
81D8
330
8090
100
AcDbEntity
  8
0
 62
     0
100
AcDbLine
 10
36.84221215478112
 20
19.37469948568946
 30
0.0
 11
44.61130422509955
 21
27.14379155600784
 31
0.0
  0
LINE
  5
81D9
330
8090
100
AcDbEntity
  8
0
 62
     0
100
AcDbLine
 10
31.62919329344163
 20
14.16168062434991
 30
0.0
 11
34.2508778711749
 21
16.78336520208318
 31
0.0
  0
LINE
  5
81DA
330
8090
100
AcDbEntity
  8
0
 62
     0
100
AcDbLine
 10
36.84221215478112
 20
20.27272509779635
 30
0.0
 11
40.16948705698479
 21
23.60000000000002
 31
0.0
  0
LINE
  5
81DB
330
8090
100
AcDbEntity
  8
0
 62
     0
100
AcDbLine
 10
40.93346989222562
 20
24.3639828352409
 30
0.0
 11
45.02577758453344
 21
28.45629052754873
 31
0.0
  0
LINE
  5
81DC
330
8090
100
AcDbEntity
  8
0
 62
     0
100
AcDbLine
 10
30.8610327759946
 20
14.29154571900989
 30
0.0
 11
33.51948705698464
 21
16.94999999999993
 31
0.0
  0
LINE
  5
81DD
330
8090
100
AcDbEntity
  8
0
 62
     0
100
AcDbLine
 10
36.84221215478106
 20
21.1707507099033
 30
0.0
 11
39.66020272548945
 21
23.98874128061169
 31
0.0
  0
LINE
  5
81DE
330
8090
100
AcDbEntity
  8
0
 62
     0
100
AcDbLine
 10
41.34794325165955
 20
25.67648180678179
 30
0.0
 11
45.40084903633487
 21
29.72938759145711
 31
0.0
  0
LINE
  5
81DF
330
8090
100
AcDbEntity
  8
0
 62
     0
100
AcDbLine
 10
30.19989851916824
 20
14.52843707429042
 30
0.0
 11
32.62146144487781
 21
16.95000000000004
 31
0.0
  0
LINE
  5
81E0
330
8090
100
AcDbEntity
  8
0
 62
     0
100
AcDbLine
 10
36.84221215478112
 20
22.06877632201019
 30
0.0
 11
39.64221215478124
 21
24.86877632201032
 31
0.0
  0
LINE
  5
81E1
330
8090
100
AcDbEntity
  8
0
 62
     0
100
AcDbLine
 10
41.76241661109361
 20
26.98898077832268
 30
0.0
 11
45.00683716376551
 21
30.23340133099458
 31
0.0
  0
LINE
  5
81E2
330
8090
100
AcDbEntity
  8
0
 62
     0
100
AcDbLine
 10
29.62229523500388
 20
14.84885940223296
 30
0.0
 11
31.73835709349686
 21
16.96492126072593
 31
0.0
  0
LINE
  5
81E3
330
8090
100
AcDbEntity
  8
0
 62
     0
100
AcDbLine
 10
36.84221215478117
 20
22.9668019341172
 30
0.0
 11
39.64221215478124
 21
25.76680193411721
 31
0.0
  0
LINE
  5
81E4
330
8090
100
AcDbEntity
  8
0
 62
     0
100
AcDbLine
 10
42.17688997052755
 20
28.30147974986351
 30
0.0
 11
44.12541022066398
 21
30.25
 31
0.0
  0
LINE
  5
81E5
330
8090
100
AcDbEntity
  8
0
 62
     0
100
AcDbLine
 10
29.11734026862183
 20
15.24193004795785
 30
0.0
 11
31.10404095247855
 21
17.22863073181452
 31
0.0
  0
LINE
  5
81E6
330
8090
100
AcDbEntity
  8
0
 62
     0
100
AcDbLine
 10
36.84221215478117
 20
23.86482754622409
 30
0.0
 11
39.64221215478119
 21
26.66482754622416
 31
0.0
  0
LINE
  5
81E7
330
8090
100
AcDbEntity
  8
0
 62
     0
100
AcDbLine
 10
33.50384628655735
 20
20.52646167800031
 30
0.0
 11
34.66575047678077
 21
21.68836586822374
 31
0.0
  0
LINE
  5
81E8
330
8090
100
AcDbEntity
  8
0
 62
     0
100
AcDbLine
 10
42.59136332996144
 20
29.61397872140441
 30
0.0
 11
43.22738460855709
 21
30.25000000000005
 31
0.0
  0
LINE
  5
81E9
330
8090
100
AcDbEntity
  8
0
 62
     0
100
AcDbLine
 10
28.68090319529204
 20
15.70351858673495
 30
0.0
 11
30.69379000120636
 21
17.71640539264933
 31
0.0
  0
LINE
  5
81EA
330
8090
100
AcDbEntity
  8
0
 62
     0
100
AcDbLine
 10
32.57887344492763
 20
20.49951444847755
 30
0.0
 11
34.69269770630353
 21
22.61333870985345
 31
0.0
  0
LINE
  5
81EB
330
8090
100
AcDbEntity
  8
0
 62
     0
100
AcDbLine
 10
36.84221215478112
 20
24.76285315833104
 30
0.0
 11
39.64221215478119
 21
27.5628531583311
 31
0.0
  0
LINE
  5
81EC
330
8090
100
AcDbEntity
  8
0
 62
     0
100
AcDbLine
 10
28.31388397034902
 20
16.23452497389894
 30
0.0
 11
30.54221215478111
 21
18.46285315833102
 31
0.0
  0
LINE
  5
81ED
330
8090
100
AcDbEntity
  8
0
 62
     0
100
AcDbLine
 10
31.96472687550749
 20
20.78339349116419
 30
0.0
 11
34.40881866361684
 21
23.22748527927359
 31
0.0
  0
LINE
  5
81EE
330
8090
100
AcDbEntity
  8
0
 62
     0
100
AcDbLine
 10
36.84221215478117
 20
25.66087877043787
 30
0.0
 11
39.64221215478124
 21
28.46087877043794
 31
0.0
  0
LINE
  5
81EF
330
8090
100
AcDbEntity
  8
0
 62
     0
100
AcDbLine
 10
28.02256646042434
 20
16.84123307608109
 30
0.0
 11
30.54221215478117
 21
19.36087877043792
 31
0.0
  0
LINE
  5
81F0
330
8090
100
AcDbEntity
  8
0
 62
     0
100
AcDbLine
 10
31.52676694851777
 20
21.24345917628147
 30
0.0
 11
33.94875297849961
 21
23.66544520626325
 31
0.0
  0
LINE
  5
81F1
330
8090
100
AcDbEntity
  8
0
 62
     0
100
AcDbLine
 10
36.84221215478112
 20
26.55890438254482
 30
0.0
 11
39.64221215478119
 21
29.35890438254489
 31
0.0
  0
LINE
  5
81F2
330
8090
100
AcDbEntity
  8
0
 62
     0
100
AcDbLine
 10
27.82142909624969
 20
17.53812132401333
 30
0.0
 11
30.54221215478111
 21
20.25890438254481
 31
0.0
  0
LINE
  5
81F3
330
8090
100
AcDbEntity
  8
0
 62
     0
100
AcDbLine
 10
31.27071621610946
 20
21.88543405598011
 30
0.0
 11
33.30677809880097
 21
23.92149593867162
 31
0.0
  0
LINE
  5
81F4
330
8090
100
AcDbEntity
  8
0
 62
     0
100
AcDbLine
 10
27.74221215478104
 20
18.35692999465169
 30
0.0
 11
30.54221215478111
 21
21.15692999465176
 31
0.0
  0
LINE
  5
81F5
330
8090
100
AcDbEntity
  8
0
 62
     0
100
AcDbLine
 10
36.84221215478112
 20
27.45692999465177
 30
0.0
 11
39.48496204642594
 21
30.09967988629659
 31
0.0
  0
LINE
  5
81F6
330
8090
100
AcDbEntity
  8
0
 62
     0
100
AcDbLine
 10
23.65621539690539
 20
14.27093323677604
 30
0.0
 11
25.52127891800512
 21
16.13599675787577
 31
0.0
  0
LINE
  5
81F7
330
8090
100
AcDbEntity
  8
0
 62
     0
100
AcDbLine
 10
31.38912929959031
 20
22.90187275156773
 30
0.0
 11
32.29033940321329
 21
23.80308285519078
 31
0.0
  0
LINE
  5
81F8
330
8090
100
AcDbEntity
  8
0
 62
     0
100
AcDbLine
 10
27.74221215478116
 20
19.25495560675864
 30
0.0
 11
30.54221215478117
 21
22.05495560675859
 31
0.0
  0
LINE
  5
81F9
330
8090
100
AcDbEntity
  8
0
 62
     0
100
AcDbLine
 10
36.84221215478117
 20
28.35495560675861
 30
0.0
 11
38.73725654802246
 21
30.24999999999994
 31
0.0
  0
LINE
  5
81FA
330
8090
100
AcDbEntity
  8
0
 62
     0
100
AcDbLine
 10
22.63725654802243
 20
14.14999999999992
 30
0.0
 11
25.64221215478124
 21
17.15495560675873
 31
0.0
  0
LINE
  5
81FB
330
8090
100
AcDbEntity
  8
0
 62
     0
100
AcDbLine
 10
27.74221215478116
 20
20.15298121886559
 30
0.0
 11
30.54221215478122
 21
22.9529812188656
 31
0.0
  0
LINE
  5
81FC
330
8090
100
AcDbEntity
  8
0
 62
     0
100
AcDbLine
 10
36.84221215478112
 20
29.25298121886555
 30
0.0
 11
37.83923093591556
 21
30.25
 31
0.0
  0
LINE
  5
81FD
330
8090
100
AcDbEntity
  8
0
 62
     0
100
AcDbLine
 10
21.73923093591554
 20
14.14999999999992
 30
0.0
 11
25.64221215478124
 21
18.05298121886562
 31
0.0
  0
LINE
  5
81FE
330
8090
100
AcDbEntity
  8
0
 62
     0
100
AcDbLine
 10
27.74221215478116
 20
21.05100683097248
 30
0.0
 11
30.54221215478117
 21
23.85100683097255
 31
0.0
  0
LINE
  5
81FF
330
8090
100
AcDbEntity
  8
0
 62
     0
100
AcDbLine
 10
20.84120532380859
 20
14.14999999999997
 30
0.0
 11
25.63827280222
 21
18.94706747841138
 31
0.0
  0
LINE
  5
8200
330
8090
100
AcDbEntity
  8
0
 62
     0
100
AcDbLine
 10
27.74221215478116
 20
21.94903244307943
 30
0.0
 11
30.54221215478122
 21
24.7490324430795
 31
0.0
  0
LINE
  5
8201
330
8090
100
AcDbEntity
  8
0
 62
     0
100
AcDbLine
 10
33.24317971170177
 20
27.45000000000004
 30
0.0
 11
34.39221215478124
 21
28.59903244307952
 31
0.0
  0
LINE
  5
8202
330
8090
100
AcDbEntity
  8
0
 62
     0
100
AcDbLine
 10
19.94317971170164
 20
14.14999999999992
 30
0.0
 11
25.52861096589856
 21
19.73543125419683
 31
0.0
  0
LINE
  5
8203
330
8090
100
AcDbEntity
  8
0
 62
     0
100
AcDbLine
 10
27.74221215478116
 20
22.84705805518626
 30
0.0
 11
30.54221215478117
 21
25.64705805518633
 31
0.0
  0
LINE
  5
8204
330
8090
100
AcDbEntity
  8
0
 62
     0
100
AcDbLine
 10
22.84221215478118
 20
17.94705805518629
 30
0.0
 11
25.30627222185455
 21
20.41111812225966
 31
0.0
  0
LINE
  5
8205
330
8090
100
AcDbEntity
  8
0
 62
     0
100
AcDbLine
 10
32.34515409959476
 20
27.44999999999993
 30
0.0
 11
34.39221215478124
 21
29.49705805518641
 31
0.0
  0
LINE
  5
8206
330
8090
100
AcDbEntity
  8
0
 62
     0
100
AcDbLine
 10
19.10287997485471
 20
14.20772587525988
 30
0.0
 11
21.84515409959476
 21
16.94999999999993
 31
0.0
  0
LINE
  5
8207
330
8090
100
AcDbEntity
  8
0
 62
     0
100
AcDbLine
 10
27.7422121547811
 20
23.74508366729321
 30
0.0
 11
30.70802686056072
 21
26.71089837307283
 31
0.0
  0
LINE
  5
8208
330
8090
100
AcDbEntity
  8
0
 62
     0
100
AcDbLine
 10
22.84005306317181
 20
18.84292457568386
 30
0.0
 11
24.99784068718241
 21
21.00071219969453
 31
0.0
  0
LINE
  5
8209
330
8090
100
AcDbEntity
  8
0
 62
     0
100
AcDbLine
 10
31.28131378170826
 20
27.28418529422038
 30
0.0
 11
34.15874473986116
 21
30.16161625237328
 31
0.0
  0
LINE
  5
820A
330
8090
100
AcDbEntity
  8
0
 62
     0
100
AcDbLine
 10
18.81721215478114
 20
14.82008366729326
 30
0.0
 11
20.94712848748792
 21
16.95000000000004
 31
0.0
  0
LINE
  5
820B
330
8090
100
AcDbEntity
  8
0
 62
     0
100
AcDbLine
 10
22.62045004367109
 20
19.52134716829016
 30
0.0
 11
24.61559872234352
 21
21.51649584696258
 31
0.0
  0
LINE
  5
820C
330
8090
100
AcDbEntity
  8
0
 62
     0
100
AcDbLine
 10
27.7422121547811
 20
24.64310927940016
 30
0.0
 11
33.34910287538099
 21
30.25000000000005
 31
0.0
  0
LINE
  5
820D
330
8090
100
AcDbEntity
  8
0
 62
     0
100
AcDbLine
 10
18.81721215478114
 20
15.71810927940015
 30
0.0
 11
20.04910287538092
 21
16.94999999999998
 31
0.0
  0
LINE
  5
820E
330
8090
100
AcDbEntity
  8
0
 62
     0
100
AcDbLine
 10
22.19419521536644
 20
19.99311795209234
 30
0.0
 11
24.17409420268876
 21
21.97301693941466
 31
0.0
  0
LINE
  5
820F
330
8090
100
AcDbEntity
  8
0
 62
     0
100
AcDbLine
 10
27.7422121547811
 20
25.541134891507
 30
0.0
 11
32.45107726327393
 21
30.24999999999983
 31
0.0
  0
LINE
  5
8210
330
8090
100
AcDbEntity
  8
0
 62
     0
100
AcDbLine
 10
18.88616407680081
 20
16.68508681352671
 30
0.0
 11
19.08212534125442
 21
16.88104807798032
 31
0.0
  0
LINE
  5
8211
330
8090
100
AcDbEntity
  8
0
 62
     0
100
AcDbLine
 10
27.76218726893756
 20
26.45913561777035
 30
0.0
 11
31.53307653701057
 21
30.23002488584342
 31
0.0
  0
LINE
  5
8212
330
8090
100
AcDbEntity
  8
0
 62
     0
100
AcDbLine
 10
21.74518240931297
 20
20.44213075814582
 30
0.0
 11
23.72508139663529
 21
22.42202974546813
 31
0.0
  0
LINE
  5
8213
330
8090
100
AcDbEntity
  8
0
 62
     0
100
AcDbLine
 10
28.06165070120334
 20
27.65662466214314
 30
0.0
 11
30.33558749263784
 21
29.93056145357764
 31
0.0
  0
LINE
  5
8214
330
8090
100
AcDbEntity
  8
0
 62
     0
100
AcDbLine
 10
21.2961696032595
 20
20.89114356419929
 30
0.0
 11
23.27606859058181
 21
22.87104255152161
 31
0.0
  0
LINE
  5
8215
330
8090
100
AcDbEntity
  8
0
 62
     0
100
AcDbLine
 10
20.84715679720608
 20
21.34015637025271
 30
0.0
 11
22.82705578452839
 21
23.32005535757502
 31
0.0
  0
LINE
  5
8216
330
8090
100
AcDbEntity
  8
0
 62
     0
100
AcDbLine
 10
20.39814399115261
 20
21.78916917630619
 30
0.0
 11
22.37804297847492
 21
23.7690681636285
 31
0.0
  0
LINE
  5
8217
330
8090
100
AcDbEntity
  8
0
 62
     0
100
AcDbLine
 10
19.94913118509907
 20
22.2381819823596
 30
0.0
 11
21.92903017242144
 21
24.21808096968197
 31
0.0
  0
LINE
  5
8218
330
8090
100
AcDbEntity
  8
0
 62
     0
100
AcDbLine
 10
24.26292359063257
 20
27.45000000000004
 30
0.0
 11
25.1172121547811
 21
28.30428856414852
 31
0.0
  0
LINE
  5
8219
330
8090
100
AcDbEntity
  8
0
 62
     0
100
AcDbLine
 10
19.50020169307373
 20
22.68727810244121
 30
0.0
 11
21.4802673365063
 21
24.66734374587378
 31
0.0
  0
LINE
  5
821A
330
8090
100
AcDbEntity
  8
0
 62
     0
100
AcDbLine
 10
23.36489797852562
 20
27.44999999999993
 30
0.0
 11
25.1172121547811
 21
29.20231417625541
 31
0.0
  0
LINE
  5
821B
330
8090
100
AcDbEntity
  8
0
 62
     0
100
AcDbLine
 10
19.08873376852216
 20
23.17383578999641
 30
0.0
 11
21.15037045521842
 21
25.23547247669273
 31
0.0
  0
LINE
  5
821C
330
8090
100
AcDbEntity
  8
0
 62
     0
100
AcDbLine
 10
22.46687236641867
 20
27.44999999999993
 30
0.0
 11
25.03065325502001
 21
30.01378088860127
 31
0.0
  0
LINE
  5
821D
330
8090
100
AcDbEntity
  8
0
 62
     0
100
AcDbLine
 10
18.74827316225969
 20
23.73140079584089
 30
0.0
 11
21.09221215478112
 21
26.07533978836233
 31
0.0
  0
LINE
  5
821E
330
8090
100
AcDbEntity
  8
0
 62
     0
100
AcDbLine
 10
21.56638010514171
 20
27.44753335082993
 30
0.0
 11
24.36884675431184
 21
30.25
 31
0.0
  0
LINE
  5
821F
330
8090
100
AcDbEntity
  8
0
 62
     0
100
AcDbLine
 10
18.48757986652759
 20
24.36873311221575
 30
0.0
 11
21.09467880395129
 21
26.9758320496395
 31
0.0
  0
LINE
  5
8220
330
8090
100
AcDbEntity
  8
0
 62
     0
100
AcDbLine
 10
18.32576790427953
 20
25.10494676207457
 30
0.0
 11
23.47082114220495
 21
30.25
 31
0.0
  0
LINE
  5
8221
330
8090
100
AcDbEntity
  8
0
 62
     0
100
AcDbLine
 10
18.29221215478122
 20
25.96941662468316
 30
0.0
 11
22.572795530098
 21
30.25
 31
0.0
  0
LINE
  5
8222
330
8090
100
AcDbEntity
  8
0
 62
     0
100
AcDbLine
 10
18.29221215478116
 20
26.86744223679011
 30
0.0
 11
21.67476991799111
 21
30.25
 31
0.0
  0
LINE
  5
8223
330
8090
100
AcDbEntity
  8
0
 62
     0
100
AcDbLine
 10
18.3124041652195
 20
27.78565985933534
 30
0.0
 11
20.75655229544577
 21
30.2298079895616
 31
0.0
  0
ENDBLK
  5
8225
330
8090
100
AcDbEntity
  8
0
100
AcDbBlockEnd
  0
BLOCK
  5
113C5
330
113BA
100
AcDbEntity
  8
0
100
AcDbBlockBegin
  2
*D3
 70
     1
 10
0.0
 20
0.0
 30
0.0
  3
*D3
  1

  0
LINE
  5
1165A
330
113BA
100
AcDbEntity
  8
SUNPOU
100
AcDbLine
 10
515.7898672927892
 20
279.759616019202
 30
0.0
 11
471.062312630168
 21
279.759616019202
 31
0.0
  0
LINE
  5
1165B
330
113BA
100
AcDbEntity
  8
SUNPOU
100
AcDbLine
 10
507.9546494739324
 20
270.7596160192019
 30
0.0
 11
471.062312630168
 21
270.7596160192019
 31
0.0
  0
LINE
  5
1165C
330
113BA
100
AcDbEntity
  8
SUNPOU
100
AcDbLine
 10
472.5623126301679
 20
283.759616019202
 30
0.0
 11
472.5623126301679
 21
287.7596160192019
 31
0.0
  0
LINE
  5
1165D
330
113BA
100
AcDbEntity
  8
SUNPOU
100
AcDbLine
 10
472.5623126301679
 20
266.7596160192019
 30
0.0
 11
472.5623126301679
 21
262.7596160192019
 31
0.0
  0
INSERT
  5
1165E
330
113BA
100
AcDbEntity
  8
SUNPOU
100
AcDbBlockReference
  2
_OPEN
 10
472.5623126301679
 20
279.759616019202
 30
0.0
 41
4.0
 42
4.0
 43
4.0
 50
270.0
  0
INSERT
  5
1165F
330
113BA
100
AcDbEntity
  8
SUNPOU
100
AcDbBlockReference
  2
_OPEN
 10
472.5623126301679
 20
270.7596160192019
 30
0.0
 41
4.0
 42
4.0
 43
4.0
 50
90.0
  0
MTEXT
  5
11660
330
113BA
100
AcDbEntity
  8
SUNPOU
100
AcDbMText
 10
468.5623126301678
 20
275.259616019202
 30
0.0
 40
5.0
 41
0.0
 71
     5
 72
     1
  1
\A1;9
 11
0.0000000000000001
 21
1.0
 31
0.0
1001
ACAD
1000
MTEXTBEGIN
1070
    73
1070
     1
1070
    44
1040
1.0
1070
    74
1070
     0
1000
MTEXTEND
1000
MTEXTBEGIN
1070
    73
1070
     1
1070
    44
1040
1.0
1070
    74
1070
     0
1000
MTEXTEND
1000
MTEXTBEGIN
1070
    73
1070
     1
1070
    44
1040
1.0
1070
    74
1070
     0
1000
MTEXTEND
  0
POINT
  5
11661
330
113BA
100
AcDbEntity
  8
DEFPOINTS
 62
     0
100
AcDbPoint
 10
517.2898672927892
 20
279.759616019202
 30
0.0
  0
POINT
  5
11662
330
113BA
100
AcDbEntity
  8
DEFPOINTS
 62
     0
100
AcDbPoint
 10
509.4546494739325
 20
270.7596160192019
 30
0.0
  0
POINT
  5
11663
330
113BA
100
AcDbEntity
  8
DEFPOINTS
 62
     0
100
AcDbPoint
 10
472.5623126301679
 20
270.7596160192019
 30
0.0
  0
ENDBLK
  5
113C6
330
113BA
100
AcDbEntity
  8
0
100
AcDbBlockEnd
  0
BLOCK
  5
113D2
330
113C8
100
AcDbEntity
  8
0
100
AcDbBlockBegin
  2
*D4
 70
     1
 10
0.0
 20
0.0
 30
0.0
  3
*D4
  1

  0
LINE
  5
11651
330
113C8
100
AcDbEntity
  8
SUNPOU
100
AcDbLine
 10
515.7898672927892
 20
279.759616019202
 30
0.0
 11
458.9572777900766
 21
279.759616019202
 31
0.0
  0
LINE
  5
11652
330
113C8
100
AcDbEntity
  8
SUNPOU
100
AcDbLine
 10
506.5989992582626
 20
266.2800963541815
 30
0.0
 11
458.9572777900766
 21
266.2800963541815
 31
0.0
  0
LINE
  5
11653
330
113C8
100
AcDbEntity
  8
SUNPOU
100
AcDbLine
 10
460.4572777900767
 20
275.759616019202
 30
0.0
 11
460.4572777900767
 21
270.2800963541815
 31
0.0
  0
INSERT
  5
11654
330
113C8
100
AcDbEntity
  8
SUNPOU
100
AcDbBlockReference
  2
_OPEN
 10
460.4572777900767
 20
279.759616019202
 30
0.0
 41
4.0
 42
4.0
 43
4.0
 50
90.0
  0
INSERT
  5
11655
330
113C8
100
AcDbEntity
  8
SUNPOU
100
AcDbBlockReference
  2
_OPEN
 10
460.4572777900767
 20
266.2800963541815
 30
0.0
 41
4.0
 42
4.0
 43
4.0
 50
270.0
  0
MTEXT
  5
11656
330
113C8
100
AcDbEntity
  8
SUNPOU
100
AcDbMText
 10
456.4572777900766
 20
273.0198561866918
 30
0.0
 40
5.0
 41
0.0
 71
     5
 72
     1
  1
\A1;13
 11
0.0000000000000001
 21
1.0
 31
0.0
1001
ACAD
1000
MTEXTBEGIN
1070
    73
1070
     1
1070
    44
1040
1.0
1070
    74
1070
     0
1000
MTEXTEND
1000
MTEXTBEGIN
1070
    73
1070
     1
1070
    44
1040
1.0
1070
    74
1070
     0
1000
MTEXTEND
1000
MTEXTBEGIN
1070
    73
1070
     1
1070
    44
1040
1.0
1070
    74
1070
     0
1000
MTEXTEND
  0
POINT
  5
11657
330
113C8
100
AcDbEntity
  8
DEFPOINTS
 62
     0
100
AcDbPoint
 10
517.2898672927892
 20
279.759616019202
 30
0.0
  0
POINT
  5
11658
330
113C8
100
AcDbEntity
  8
DEFPOINTS
 62
     0
100
AcDbPoint
 10
508.0989992582626
 20
266.2800963541815
 30
0.0
  0
POINT
  5
11659
330
113C8
100
AcDbEntity
  8
DEFPOINTS
 62
     0
100
AcDbPoint
 10
460.4572777900767
 20
266.2800963541815
 30
0.0
  0
ENDBLK
  5
113D3
330
113C8
100
AcDbEntity
  8
0
100
AcDbBlockEnd
  0
BLOCK
  5
113E0
330
113D6
100
AcDbEntity
  8
0
100
AcDbBlockBegin
  2
*D5
 70
     1
 10
0.0
 20
0.0
 30
0.0
  3
*D5
  1

  0
LINE
  5
11664
330
113D6
100
AcDbEntity
  8
SUNPOU
100
AcDbLine
 10
515.7898672927892
 20
279.759616019202
 30
0.0
 11
447.3398512370722
 21
279.759616019202
 31
0.0
  0
LINE
  5
11665
330
113D6
100
AcDbEntity
  8
SUNPOU
100
AcDbLine
 10
542.7898672927892
 20
205.7596160192019
 30
0.0
 11
447.3398512370722
 21
205.759616019202
 31
0.0
  0
LINE
  5
11666
330
113D6
100
AcDbEntity
  8
SUNPOU
100
AcDbLine
 10
448.8398512370722
 20
275.759616019202
 30
0.0
 11
448.8398512370722
 21
209.7596160192019
 31
0.0
  0
INSERT
  5
11667
330
113D6
100
AcDbEntity
  8
SUNPOU
100
AcDbBlockReference
  2
_OPEN
 10
448.8398512370722
 20
279.759616019202
 30
0.0
 41
4.0
 42
4.0
 43
4.0
 50
90.0
  0
INSERT
  5
11668
330
113D6
100
AcDbEntity
  8
SUNPOU
100
AcDbBlockReference
  2
_OPEN
 10
448.8398512370722
 20
205.7596160192019
 30
0.0
 41
4.0
 42
4.0
 43
4.0
 50
270.0
  0
MTEXT
  5
11669
330
113D6
100
AcDbEntity
  8
SUNPOU
100
AcDbMText
 10
444.8398512370721
 20
242.759616019202
 30
0.0
 40
5.0
 41
0.0
 71
     5
 72
     1
  1
\A1;74
 11
0.0000000000000001
 21
1.0
 31
0.0
1001
ACAD
1000
MTEXTBEGIN
1070
    73
1070
     1
1070
    44
1040
1.0
1070
    74
1070
     0
1000
MTEXTEND
1000
MTEXTBEGIN
1070
    73
1070
     1
1070
    44
1040
1.0
1070
    74
1070
     0
1000
MTEXTEND
1000
MTEXTBEGIN
1070
    73
1070
     1
1070
    44
1040
1.0
1070
    74
1070
     0
1000
MTEXTEND
  0
POINT
  5
1166A
330
113D6
100
AcDbEntity
  8
DEFPOINTS
 62
     0
100
AcDbPoint
 10
517.2898672927892
 20
279.759616019202
 30
0.0
  0
POINT
  5
1166B
330
113D6
100
AcDbEntity
  8
DEFPOINTS
 62
     0
100
AcDbPoint
 10
544.2898672927892
 20
205.7596160192019
 30
0.0
  0
POINT
  5
1166C
330
113D6
100
AcDbEntity
  8
DEFPOINTS
 62
     0
100
AcDbPoint
 10
448.8398512370722
 20
205.7596160192019
 30
0.0
  0
ENDBLK
  5
113E1
330
113D6
100
AcDbEntity
  8
0
100
AcDbBlockEnd
  0
BLOCK
  5
113ED
330
113E3
100
AcDbEntity
  8
0
100
AcDbBlockBegin
  2
*D6
 70
     1
 10
0.0
 20
0.0
 30
0.0
  3
*D6
  1

  0
LINE
  5
11677
330
113E3
100
AcDbEntity
  8
SUNPOU
100
AcDbLine
 10
526.7898672927892
 20
212.0567452654329
 30
0.0
 11
526.7898672927892
 21
178.2148921220768
 31
0.0
  0
LINE
  5
11678
330
113E3
100
AcDbEntity
  8
SUNPOU
100
AcDbLine
 10
561.7898672928049
 20
212.0567452653978
 30
0.0
 11
561.7898672928049
 21
178.2148921220768
 31
0.0
  0
LINE
  5
11679
330
113E3
100
AcDbEntity
  8
SUNPOU
100
AcDbLine
 10
530.7898672927892
 20
179.7148921220768
 30
0.0
 11
557.7898672928049
 21
179.7148921220768
 31
0.0
  0
INSERT
  5
1167A
330
113E3
100
AcDbEntity
  8
SUNPOU
100
AcDbBlockReference
  2
_OPEN
 10
526.7898672927892
 20
179.7148921220768
 30
0.0
 41
4.0
 42
4.0
 43
4.0
 50
180.0
  0
INSERT
  5
1167B
330
113E3
100
AcDbEntity
  8
SUNPOU
100
AcDbBlockReference
  2
_OPEN
 10
561.7898672928049
 20
179.7148921220768
 30
0.0
 41
4.0
 42
4.0
 43
4.0
  0
MTEXT
  5
1167C
330
113E3
100
AcDbEntity
  8
SUNPOU
100
AcDbMText
 10
544.2898672927971
 20
183.7148921220769
 30
0.0
 40
5.0
 41
0.0
 71
     5
 72
     1
  1
\A1;35
1001
ACAD
1000
MTEXTBEGIN
1070
    73
1070
     1
1070
    44
1040
1.0
1070
    74
1070
     0
1000
MTEXTEND
1000
MTEXTBEGIN
1070
    73
1070
     1
1070
    44
1040
1.0
1070
    74
1070
     0
1000
MTEXTEND
1000
MTEXTBEGIN
1070
    73
1070
     1
1070
    44
1040
1.0
1070
    74
1070
     0
1000
MTEXTEND
  0
POINT
  5
1167D
330
113E3
100
AcDbEntity
  8
DEFPOINTS
 62
     0
100
AcDbPoint
 10
526.7898672927892
 20
213.5567452654329
 30
0.0
  0
POINT
  5
1167E
330
113E3
100
AcDbEntity
  8
DEFPOINTS
 62
     0
100
AcDbPoint
 10
561.7898672928049
 20
213.5567452653978
 30
0.0
  0
POINT
  5
1167F
330
113E3
100
AcDbEntity
  8
DEFPOINTS
 62
     0
100
AcDbPoint
 10
561.7898672928049
 20
179.7148921220768
 30
0.0
  0
ENDBLK
  5
113EE
330
113E3
100
AcDbEntity
  8
0
100
AcDbBlockEnd
  0
BLOCK
  5
113FA
330
113F0
100
AcDbEntity
  8
0
100
AcDbBlockBegin
  2
*D7
 70
     1
 10
0.0
 20
0.0
 30
0.0
  3
*D7
  1

  0
LINE
  5
115BD
330
113F0
100
AcDbEntity
  8
SUNPOU
100
AcDbLine
 10
573.2898672927892
 20
278.0948338380587
 30
0.0
 11
573.2898672927892
 21
305.5687853931076
 31
0.0
  0
LINE
  5
115BE
330
113F0
100
AcDbEntity
  8
SUNPOU
100
AcDbLine
 10
515.2898672927892
 20
278.0948338380587
 30
0.0
 11
515.2898672927892
 21
305.5687853931076
 31
0.0
  0
LINE
  5
115BF
330
113F0
100
AcDbEntity
  8
SUNPOU
100
AcDbLine
 10
569.2898672927892
 20
304.0687853931076
 30
0.0
 11
519.2898672927892
 21
304.0687853931076
 31
0.0
  0
INSERT
  5
115C0
330
113F0
100
AcDbEntity
  8
SUNPOU
100
AcDbBlockReference
  2
_OPEN
 10
573.2898672927892
 20
304.0687853931076
 30
0.0
 41
4.0
 42
4.0
 43
4.0
  0
INSERT
  5
115C1
330
113F0
100
AcDbEntity
  8
SUNPOU
100
AcDbBlockReference
  2
_OPEN
 10
515.2898672927892
 20
304.0687853931076
 30
0.0
 41
4.0
 42
4.0
 43
4.0
 50
180.0
  0
MTEXT
  5
115C2
330
113F0
100
AcDbEntity
  8
SUNPOU
100
AcDbMText
 10
544.2898672927892
 20
308.0687853931076
 30
0.0
 40
5.0
 41
0.0
 71
     5
 72
     1
  1
\A1;58
1001
ACAD
1000
MTEXTBEGIN
1070
    73
1070
     1
1070
    44
1040
1.0
1070
    74
1070
     0
1000
MTEXTEND
1000
MTEXTBEGIN
1070
    73
1070
     1
1070
    44
1040
1.0
1070
    74
1070
     0
1000
MTEXTEND
1000
MTEXTBEGIN
1070
    73
1070
     1
1070
    44
1040
1.0
1070
    74
1070
     0
1000
MTEXTEND
  0
POINT
  5
115C3
330
113F0
100
AcDbEntity
  8
DEFPOINTS
 62
     0
100
AcDbPoint
 10
573.2898672927892
 20
276.5948338380587
 30
0.0
  0
POINT
  5
115C4
330
113F0
100
AcDbEntity
  8
DEFPOINTS
 62
     0
100
AcDbPoint
 10
515.2898672927892
 20
276.5948338380587
 30
0.0
  0
POINT
  5
115C5
330
113F0
100
AcDbEntity
  8
DEFPOINTS
 62
     0
100
AcDbPoint
 10
515.2898672927892
 20
304.0687853931076
 30
0.0
  0
ENDBLK
  5
113FB
330
113F0
100
AcDbEntity
  8
0
100
AcDbBlockEnd
  0
BLOCK
  5
11407
330
113FD
100
AcDbEntity
  8
0
100
AcDbBlockBegin
  2
*D8
 70
     1
 10
0.0
 20
0.0
 30
0.0
  3
*D8
  1

  0
LINE
  5
115C6
330
113FD
100
AcDbEntity
  8
SUNPOU
100
AcDbLine
 10
581.2898672929177
 20
271.2596160191477
 30
0.0
 11
581.2898672929177
 21
317.8708705442459
 31
0.0
  0
LINE
  5
115C7
330
113FD
100
AcDbEntity
  8
SUNPOU
100
AcDbLine
 10
507.339992921723
 20
272.2596160192019
 30
0.0
 11
507.339992921723
 21
317.8708705442459
 31
0.0
  0
LINE
  5
115C8
330
113FD
100
AcDbEntity
  8
SUNPOU
100
AcDbLine
 10
577.2898672929177
 20
316.3708705442459
 30
0.0
 11
511.339992921723
 21
316.3708705442459
 31
0.0
  0
INSERT
  5
115C9
330
113FD
100
AcDbEntity
  8
SUNPOU
100
AcDbBlockReference
  2
_OPEN
 10
581.2898672929177
 20
316.3708705442459
 30
0.0
 41
4.0
 42
4.0
 43
4.0
  0
INSERT
  5
115CA
330
113FD
100
AcDbEntity
  8
SUNPOU
100
AcDbBlockReference
  2
_OPEN
 10
507.339992921723
 20
316.3708705442459
 30
0.0
 41
4.0
 42
4.0
 43
4.0
 50
180.0
  0
MTEXT
  5
115CB
330
113FD
100
AcDbEntity
  8
SUNPOU
100
AcDbMText
 10
544.3149301073203
 20
320.3708705442459
 30
0.0
 40
5.0
 41
0.0
 71
     5
 72
     1
  1
\A1;74
1001
ACAD
1000
MTEXTBEGIN
1070
    73
1070
     1
1070
    44
1040
1.0
1070
    74
1070
     0
1000
MTEXTEND
1000
MTEXTBEGIN
1070
    73
1070
     1
1070
    44
1040
1.0
1070
    74
1070
     0
1000
MTEXTEND
1000
MTEXTBEGIN
1070
    73
1070
     1
1070
    44
1040
1.0
1070
    74
1070
     0
1000
MTEXTEND
  0
POINT
  5
115CC
330
113FD
100
AcDbEntity
  8
DEFPOINTS
 62
     0
100
AcDbPoint
 10
581.2898672929177
 20
269.7596160191477
 30
0.0
  0
POINT
  5
115CD
330
113FD
100
AcDbEntity
  8
DEFPOINTS
 62
     0
100
AcDbPoint
 10
507.339992921723
 20
270.7596160192019
 30
0.0
  0
POINT
  5
115CE
330
113FD
100
AcDbEntity
  8
DEFPOINTS
 62
     0
100
AcDbPoint
 10
507.339992921723
 20
316.3708705442459
 30
0.0
  0
ENDBLK
  5
11408
330
113FD
100
AcDbEntity
  8
0
100
AcDbBlockEnd
  0
BLOCK
  5
11415
330
1140A
100
AcDbEntity
  8
0
100
AcDbBlockBegin
  2
*D9
 70
     1
 10
0.0
 20
0.0
 30
0.0
  3
*D9
  1

  0
LINE
  5
1166D
330
1140A
100
AcDbEntity
  8
SUNPOU
100
AcDbLine
 10
536.9546494739397
 20
213.0096160192058
 30
0.0
 11
502.1587796971707
 21
213.0096160192058
 31
0.0
  0
LINE
  5
1166E
330
1140A
100
AcDbEntity
  8
SUNPOU
100
AcDbLine
 10
542.7898672927892
 20
205.7596160192019
 30
0.0
 11
502.1587796971707
 21
205.7596160192019
 31
0.0
  0
LINE
  5
1166F
330
1140A
100
AcDbEntity
  8
SUNPOU
100
AcDbLine
 10
503.6587796971708
 20
217.0096160192058
 30
0.0
 11
503.6587796971708
 21
221.0096160192058
 31
0.0
  0
LINE
  5
11670
330
1140A
100
AcDbEntity
  8
SUNPOU
100
AcDbLine
 10
503.6587796971708
 20
201.7596160192019
 30
0.0
 11
503.6587796971708
 21
197.7596160192019
 31
0.0
  0
INSERT
  5
11671
330
1140A
100
AcDbEntity
  8
SUNPOU
100
AcDbBlockReference
  2
_OPEN
 10
503.6587796971708
 20
213.0096160192058
 30
0.0
 41
4.0
 42
4.0
 43
4.0
 50
270.0
  0
INSERT
  5
11672
330
1140A
100
AcDbEntity
  8
SUNPOU
100
AcDbBlockReference
  2
_OPEN
 10
503.6587796971708
 20
205.7596160192019
 30
0.0
 41
4.0
 42
4.0
 43
4.0
 50
90.0
  0
MTEXT
  5
11673
330
1140A
100
AcDbEntity
  8
SUNPOU
100
AcDbMText
 10
499.6587796971707
 20
209.384616019204
 30
0.0
 40
5.0
 41
0.0
 71
     5
 72
     1
  1
\A1;7
 11
0.0000000000000001
 21
1.0
 31
0.0
1001
ACAD
1000
MTEXTBEGIN
1070
    73
1070
     1
1070
    44
1040
1.0
1070
    74
1070
     0
1000
MTEXTEND
1000
MTEXTBEGIN
1070
    73
1070
     1
1070
    44
1040
1.0
1070
    74
1070
     0
1000
MTEXTEND
1000
MTEXTBEGIN
1070
    73
1070
     1
1070
    44
1040
1.0
1070
    74
1070
     0
1000
MTEXTEND
  0
POINT
  5
11674
330
1140A
100
AcDbEntity
  8
DEFPOINTS
 62
     0
100
AcDbPoint
 10
538.4546494739397
 20
213.0096160192058
 30
0.0
  0
POINT
  5
11675
330
1140A
100
AcDbEntity
  8
DEFPOINTS
 62
     0
100
AcDbPoint
 10
544.2898672927892
 20
205.7596160192019
 30
0.0
  0
POINT
  5
11676
330
1140A
100
AcDbEntity
  8
DEFPOINTS
 62
     0
100
AcDbPoint
 10
503.6587796971708
 20
205.7596160192019
 30
0.0
  0
ENDBLK
  5
11416
330
1140A
100
AcDbEntity
  8
0
100
AcDbBlockEnd
  0
BLOCK
  5
11422
330
11418
100
AcDbEntity
  8
0
100
AcDbBlockBegin
  2
*D10
 70
     1
 10
0.0
 20
0.0
 30
0.0
  3
*D10
  1

  0
LINE
  5
127F7
330
11418
100
AcDbEntity
  8
SUNPOU
100
AcDbLine
 10
378.3876749489706
 20
279.759616019202
 30
0.0
 11
398.5482712115608
 21
279.7596160192019
 31
0.0
  0
LINE
  5
127F8
330
11418
100
AcDbEntity
  8
SUNPOU
100
AcDbLine
 10
378.3876749489706
 20
205.7596160192019
 30
0.0
 11
398.5482712115608
 21
205.7596160192019
 31
0.0
  0
LINE
  5
127F9
330
11418
100
AcDbEntity
  8
SUNPOU
100
AcDbLine
 10
397.0482712115608
 20
275.7596160192019
 30
0.0
 11
397.0482712115608
 21
209.7596160192019
 31
0.0
  0
INSERT
  5
127FA
330
11418
100
AcDbEntity
  8
SUNPOU
100
AcDbBlockReference
  2
_OPEN
 10
397.0482712115608
 20
279.7596160192019
 30
0.0
 41
4.0
 42
4.0
 43
4.0
 50
90.0
  0
INSERT
  5
127FB
330
11418
100
AcDbEntity
  8
SUNPOU
100
AcDbBlockReference
  2
_OPEN
 10
397.0482712115608
 20
205.7596160192019
 30
0.0
 41
4.0
 42
4.0
 43
4.0
 50
270.0
  0
MTEXT
  5
127FC
330
11418
100
AcDbEntity
  8
SUNPOU
100
AcDbMText
 10
393.0482712115608
 20
242.759616019202
 30
0.0
 40
5.0
 41
0.0
 71
     5
 72
     1
  1
\A1;74
 11
0.0000000000000001
 21
1.0
 31
0.0
1001
ACAD
1000
MTEXTBEGIN
1070
    73
1070
     1
1070
    44
1040
1.0
1070
    74
1070
     0
1000
MTEXTEND
1000
MTEXTBEGIN
1070
    73
1070
     1
1070
    44
1040
1.0
1070
    74
1070
     0
1000
MTEXTEND
1000
MTEXTBEGIN
1070
    73
1070
     1
1070
    44
1040
1.0
1070
    74
1070
     0
1000
MTEXTEND
  0
POINT
  5
127FD
330
11418
100
AcDbEntity
  8
DEFPOINTS
 62
     0
100
AcDbPoint
 10
376.8876749489706
 20
279.759616019202
 30
0.0
  0
POINT
  5
127FE
330
11418
100
AcDbEntity
  8
DEFPOINTS
 62
     0
100
AcDbPoint
 10
376.8876749489706
 20
205.7596160192019
 30
0.0
  0
POINT
  5
127FF
330
11418
100
AcDbEntity
  8
DEFPOINTS
 62
     0
100
AcDbPoint
 10
397.0482712115608
 20
205.7596160192019
 30
0.0
  0
ENDBLK
  5
11423
330
11418
100
AcDbEntity
  8
0
100
AcDbBlockEnd
  0
BLOCK
  5
1142F
330
11425
100
AcDbEntity
  8
0
100
AcDbBlockBegin
  2
*D11
 70
     1
 10
0.0
 20
0.0
 30
0.0
  3
*D11
  1

  0
LINE
  5
11619
330
11425
100
AcDbEntity
  8
SUNPOU
100
AcDbLine
 10
376.8876749489706
 20
281.2596160192019
 30
0.0
 11
376.8876749489706
 21
322.3991178119886
 31
0.0
  0
LINE
  5
1161A
330
11425
100
AcDbEntity
  8
SUNPOU
100
AcDbLine
 10
277.8876749489705
 20
254.2596160192022
 30
0.0
 11
277.8876749489705
 21
322.3991178119886
 31
0.0
  0
LINE
  5
1161B
330
11425
100
AcDbEntity
  8
SUNPOU
100
AcDbLine
 10
372.8876749489707
 20
320.8991178119886
 30
0.0
 11
281.8876749489705
 21
320.8991178119886
 31
0.0
  0
INSERT
  5
1161C
330
11425
100
AcDbEntity
  8
SUNPOU
100
AcDbBlockReference
  2
_OPEN
 10
376.8876749489706
 20
320.8991178119886
 30
0.0
 41
4.0
 42
4.0
 43
4.0
  0
INSERT
  5
1161D
330
11425
100
AcDbEntity
  8
SUNPOU
100
AcDbBlockReference
  2
_OPEN
 10
277.8876749489705
 20
320.8991178119886
 30
0.0
 41
4.0
 42
4.0
 43
4.0
 50
180.0
  0
MTEXT
  5
1161E
330
11425
100
AcDbEntity
  8
SUNPOU
100
AcDbMText
 10
327.3876749489706
 20
324.8991178119886
 30
0.0
 40
5.0
 41
0.0
 71
     5
 72
     1
  1
\A1;99
1001
ACAD
1000
MTEXTBEGIN
1070
    73
1070
     1
1070
    44
1040
1.0
1070
    74
1070
     0
1000
MTEXTEND
1000
MTEXTBEGIN
1070
    73
1070
     1
1070
    44
1040
1.0
1070
    74
1070
     0
1000
MTEXTEND
1000
MTEXTBEGIN
1070
    73
1070
     1
1070
    44
1040
1.0
1070
    74
1070
     0
1000
MTEXTEND
  0
POINT
  5
1161F
330
11425
100
AcDbEntity
  8
DEFPOINTS
 62
     0
100
AcDbPoint
 10
376.8876749489706
 20
279.759616019202
 30
0.0
  0
POINT
  5
11620
330
11425
100
AcDbEntity
  8
DEFPOINTS
 62
     0
100
AcDbPoint
 10
277.8876749489705
 20
252.7596160192022
 30
0.0
  0
POINT
  5
11621
330
11425
100
AcDbEntity
  8
DEFPOINTS
 62
     0
100
AcDbPoint
 10
277.8876749489705
 20
320.8991178119886
 30
0.0
  0
ENDBLK
  5
11430
330
11425
100
AcDbEntity
  8
0
100
AcDbBlockEnd
  0
BLOCK
  5
1143C
330
11432
100
AcDbEntity
  8
0
100
AcDbBlockBegin
  2
*D12
 70
     1
 10
0.0
 20
0.0
 30
0.0
  3
*D12
  1

  0
LINE
  5
127EE
330
11432
100
AcDbEntity
  8
SUNPOU
100
AcDbLine
 10
378.3876749489706
 20
397.7805275713794
 30
0.0
 11
407.691855868763
 21
397.7805275713794
 31
0.0
  0
LINE
  5
127EF
330
11432
100
AcDbEntity
  8
SUNPOU
100
AcDbLine
 10
378.3876749489706
 20
471.7805275713795
 30
0.0
 11
407.691855868763
 21
471.7805275713794
 31
0.0
  0
LINE
  5
127F0
330
11432
100
AcDbEntity
  8
SUNPOU
100
AcDbLine
 10
406.191855868763
 20
401.7805275713794
 30
0.0
 11
406.191855868763
 21
467.7805275713794
 31
0.0
  0
INSERT
  5
127F1
330
11432
100
AcDbEntity
  8
SUNPOU
100
AcDbBlockReference
  2
_OPEN
 10
406.191855868763
 20
397.7805275713794
 30
0.0
 41
4.0
 42
4.0
 43
4.0
 50
270.0
  0
INSERT
  5
127F2
330
11432
100
AcDbEntity
  8
SUNPOU
100
AcDbBlockReference
  2
_OPEN
 10
406.191855868763
 20
471.7805275713794
 30
0.0
 41
4.0
 42
4.0
 43
4.0
 50
90.0
  0
MTEXT
  5
127F3
330
11432
100
AcDbEntity
  8
SUNPOU
100
AcDbMText
 10
402.1918558687629
 20
434.7805275713795
 30
0.0
 40
5.0
 41
0.0
 71
     5
 72
     1
  1
\A1;74
 11
0.0000000000000001
 21
1.0
 31
0.0
1001
ACAD
1000
MTEXTBEGIN
1070
    73
1070
     1
1070
    44
1040
1.0
1070
    74
1070
     0
1000
MTEXTEND
1000
MTEXTBEGIN
1070
    73
1070
     1
1070
    44
1040
1.0
1070
    74
1070
     0
1000
MTEXTEND
1000
MTEXTBEGIN
1070
    73
1070
     1
1070
    44
1040
1.0
1070
    74
1070
     0
1000
MTEXTEND
  0
POINT
  5
127F4
330
11432
100
AcDbEntity
  8
DEFPOINTS
 62
     0
100
AcDbPoint
 10
376.8876749489706
 20
397.7805275713794
 30
0.0
  0
POINT
  5
127F5
330
11432
100
AcDbEntity
  8
DEFPOINTS
 62
     0
100
AcDbPoint
 10
376.8876749489706
 20
471.7805275713795
 30
0.0
  0
POINT
  5
127F6
330
11432
100
AcDbEntity
  8
DEFPOINTS
 62
     0
100
AcDbPoint
 10
406.191855868763
 20
471.7805275713794
 30
0.0
  0
ENDBLK
  5
1143D
330
11432
100
AcDbEntity
  8
0
100
AcDbBlockEnd
  0
BLOCK
  5
11449
330
1143F
100
AcDbEntity
  8
0
100
AcDbBlockBegin
  2
*D13
 70
     1
 10
0.0
 20
0.0
 30
0.0
  3
*D13
  1

  0
LINE
  5
115F4
330
1143F
100
AcDbEntity
  8
SUNPOU
100
AcDbLine
 10
231.3546766261272
 20
448.7805275713793
 30
0.0
 11
191.7416387943958
 21
448.7805275713793
 31
0.0
  0
LINE
  5
115F5
330
1143F
100
AcDbEntity
  8
SUNPOU
100
AcDbLine
 10
231.1018323724558
 20
421.2822698337398
 30
0.0
 11
191.7416387943958
 21
421.2822698337398
 31
0.0
  0
LINE
  5
115F6
330
1143F
100
AcDbEntity
  8
SUNPOU
100
AcDbLine
 10
193.2416387943958
 20
444.7805275713793
 30
0.0
 11
193.2416387943958
 21
425.2822698337398
 31
0.0
  0
INSERT
  5
115F7
330
1143F
100
AcDbEntity
  8
SUNPOU
100
AcDbBlockReference
  2
_OPEN
 10
193.2416387943958
 20
448.7805275713793
 30
0.0
 41
4.0
 42
4.0
 43
4.0
 50
90.0
  0
INSERT
  5
115F8
330
1143F
100
AcDbEntity
  8
SUNPOU
100
AcDbBlockReference
  2
_OPEN
 10
193.2416387943958
 20
421.2822698337398
 30
0.0
 41
4.0
 42
4.0
 43
4.0
 50
270.0
  0
MTEXT
  5
115F9
330
1143F
100
AcDbEntity
  8
SUNPOU
100
AcDbMText
 10
189.2416387943957
 20
435.0313987025597
 30
0.0
 40
5.0
 41
0.0
 71
     5
 72
     1
  1
\A1;27
 11
0.0000000000000001
 21
1.0
 31
0.0
1001
ACAD
1000
MTEXTBEGIN
1070
    73
1070
     1
1070
    44
1040
1.0
1070
    74
1070
     0
1000
MTEXTEND
1000
MTEXTBEGIN
1070
    73
1070
     1
1070
    44
1040
1.0
1070
    74
1070
     0
1000
MTEXTEND
1000
MTEXTBEGIN
1070
    73
1070
     1
1070
    44
1040
1.0
1070
    74
1070
     0
1000
MTEXTEND
  0
POINT
  5
115FA
330
1143F
100
AcDbEntity
  8
DEFPOINTS
 62
     0
100
AcDbPoint
 10
232.8546766261272
 20
448.7805275713793
 30
0.0
  0
POINT
  5
115FB
330
1143F
100
AcDbEntity
  8
DEFPOINTS
 62
     0
100
AcDbPoint
 10
232.6018323724558
 20
421.2822698337398
 30
0.0
  0
POINT
  5
115FC
330
1143F
100
AcDbEntity
  8
DEFPOINTS
 62
     0
100
AcDbPoint
 10
193.2416387943958
 20
421.2822698337398
 30
0.0
  0
ENDBLK
  5
1144A
330
1143F
100
AcDbEntity
  8
0
100
AcDbBlockEnd
  0
BLOCK
  5
11456
330
1144C
100
AcDbEntity
  8
0
100
AcDbBlockBegin
  2
*D14
 70
     1
 10
0.0
 20
0.0
 30
0.0
  3
*D14
  1

  0
LINE
  5
115FD
330
1144C
100
AcDbEntity
  8
SUNPOU
100
AcDbLine
 10
276.3876749489706
 20
451.0305275713794
 30
0.0
 11
176.7014074423514
 21
451.0305275713794
 31
0.0
  0
LINE
  5
115FE
330
1144C
100
AcDbEntity
  8
SUNPOU
100
AcDbLine
 10
276.3876749489706
 20
418.5305275713792
 30
0.0
 11
176.7014074423514
 21
418.5305275713792
 31
0.0
  0
LINE
  5
115FF
330
1144C
100
AcDbEntity
  8
SUNPOU
100
AcDbLine
 10
178.2014074423514
 20
447.0305275713794
 30
0.0
 11
178.2014074423514
 21
422.5305275713792
 31
0.0
  0
INSERT
  5
11600
330
1144C
100
AcDbEntity
  8
SUNPOU
100
AcDbBlockReference
  2
_OPEN
 10
178.2014074423514
 20
451.0305275713794
 30
0.0
 41
4.0
 42
4.0
 43
4.0
 50
90.0
  0
INSERT
  5
11601
330
1144C
100
AcDbEntity
  8
SUNPOU
100
AcDbBlockReference
  2
_OPEN
 10
178.2014074423514
 20
418.5305275713792
 30
0.0
 41
4.0
 42
4.0
 43
4.0
 50
270.0
  0
MTEXT
  5
11602
330
1144C
100
AcDbEntity
  8
SUNPOU
100
AcDbMText
 10
174.2014074423513
 20
434.7805275713794
 30
0.0
 40
5.0
 41
0.0
 71
     5
 72
     1
  1
\A1;33
 11
0.0000000000000001
 21
1.0
 31
0.0
1001
ACAD
1000
MTEXTBEGIN
1070
    73
1070
     1
1070
    44
1040
1.0
1070
    74
1070
     0
1000
MTEXTEND
1000
MTEXTBEGIN
1070
    73
1070
     1
1070
    44
1040
1.0
1070
    74
1070
     0
1000
MTEXTEND
1000
MTEXTBEGIN
1070
    73
1070
     1
1070
    44
1040
1.0
1070
    74
1070
     0
1000
MTEXTEND
  0
POINT
  5
11603
330
1144C
100
AcDbEntity
  8
DEFPOINTS
 62
     0
100
AcDbPoint
 10
277.8876749489707
 20
451.0305275713794
 30
0.0
  0
POINT
  5
11604
330
1144C
100
AcDbEntity
  8
DEFPOINTS
 62
     0
100
AcDbPoint
 10
277.8876749489707
 20
418.5305275713792
 30
0.0
  0
POINT
  5
11605
330
1144C
100
AcDbEntity
  8
DEFPOINTS
 62
     0
100
AcDbPoint
 10
178.2014074423514
 20
418.5305275713792
 30
0.0
  0
ENDBLK
  5
11457
330
1144C
100
AcDbEntity
  8
0
100
AcDbBlockEnd
  0
BLOCK
  5
11463
330
11459
100
AcDbEntity
  8
0
100
AcDbBlockBegin
  2
*D15
 70
     1
 10
0.0
 20
0.0
 30
0.0
  3
*D15
  1

  0
LINE
  5
11606
330
11459
100
AcDbEntity
  8
SUNPOU
100
AcDbLine
 10
376.8876749489706
 20
281.2596160192019
 30
0.0
 11
376.8876749489706
 21
333.9431408666305
 31
0.0
  0
LINE
  5
11607
330
11459
100
AcDbEntity
  8
SUNPOU
100
AcDbLine
 10
229.8876749489707
 20
271.9362414441849
 30
0.0
 11
229.8876749489707
 21
333.9431408666305
 31
0.0
  0
LINE
  5
11608
330
11459
100
AcDbEntity
  8
SUNPOU
100
AcDbLine
 10
372.8876749489707
 20
332.4431408666305
 30
0.0
 11
233.8876749489707
 21
332.4431408666305
 31
0.0
  0
INSERT
  5
11609
330
11459
100
AcDbEntity
  8
SUNPOU
100
AcDbBlockReference
  2
_OPEN
 10
376.8876749489706
 20
332.4431408666305
 30
0.0
 41
4.0
 42
4.0
 43
4.0
  0
INSERT
  5
1160A
330
11459
100
AcDbEntity
  8
SUNPOU
100
AcDbBlockReference
  2
_OPEN
 10
229.8876749489707
 20
332.4431408666305
 30
0.0
 41
4.0
 42
4.0
 43
4.0
 50
180.0
  0
MTEXT
  5
1160B
330
11459
100
AcDbEntity
  8
SUNPOU
100
AcDbMText
 10
303.3876749489706
 20
336.4431408666305
 30
0.0
 40
5.0
 41
0.0
 71
     5
 72
     1
  1
\A1;147
1001
ACAD
1000
MTEXTBEGIN
1070
    73
1070
     1
1070
    44
1040
1.0
1070
    74
1070
     0
1000
MTEXTEND
1000
MTEXTBEGIN
1070
    73
1070
     1
1070
    44
1040
1.0
1070
    74
1070
     0
1000
MTEXTEND
1000
MTEXTBEGIN
1070
    73
1070
     1
1070
    44
1040
1.0
1070
    74
1070
     0
1000
MTEXTEND
  0
POINT
  5
1160C
330
11459
100
AcDbEntity
  8
DEFPOINTS
 62
     0
100
AcDbPoint
 10
376.8876749489706
 20
279.759616019202
 30
0.0
  0
POINT
  5
1160D
330
11459
100
AcDbEntity
  8
DEFPOINTS
 62
     0
100
AcDbPoint
 10
229.8876749489707
 20
270.4362414441849
 30
0.0
  0
POINT
  5
1160E
330
11459
100
AcDbEntity
  8
DEFPOINTS
 62
     0
100
AcDbPoint
 10
229.8876749489707
 20
332.4431408666305
 30
0.0
  0
ENDBLK
  5
11464
330
11459
100
AcDbEntity
  8
0
100
AcDbBlockEnd
  0
BLOCK
  5
11471
330
11466
100
AcDbEntity
  8
0
100
AcDbBlockBegin
  2
*D16
 70
     1
 10
0.0
 20
0.0
 30
0.0
  3
*D16
  1

  0
LINE
  5
1160F
330
11466
100
AcDbEntity
  8
SUNPOU
100
AcDbLine
 10
376.8876749489706
 20
204.2596160192019
 30
0.0
 11
376.8876749489706
 21
168.180454602093
 31
0.0
  0
LINE
  5
11610
330
11466
100
AcDbEntity
  8
SUNPOU
100
AcDbLine
 10
368.3876749489706
 20
206.3746575036085
 30
0.0
 11
368.3876749489706
 21
168.180454602093
 31
0.0
  0
LINE
  5
11611
330
11466
100
AcDbEntity
  8
SUNPOU
100
AcDbLine
 10
380.8876749489706
 20
169.680454602093
 30
0.0
 11
384.8876749489706
 21
169.680454602093
 31
0.0
  0
LINE
  5
11612
330
11466
100
AcDbEntity
  8
SUNPOU
100
AcDbLine
 10
364.3876749489706
 20
169.680454602093
 30
0.0
 11
360.3876749489707
 21
169.680454602093
 31
0.0
  0
INSERT
  5
11613
330
11466
100
AcDbEntity
  8
SUNPOU
100
AcDbBlockReference
  2
_OPEN
 10
376.8876749489706
 20
169.680454602093
 30
0.0
 41
4.0
 42
4.0
 43
4.0
 50
180.0
  0
INSERT
  5
11614
330
11466
100
AcDbEntity
  8
SUNPOU
100
AcDbBlockReference
  2
_OPEN
 10
368.3876749489706
 20
169.680454602093
 30
0.0
 41
4.0
 42
4.0
 43
4.0
  0
MTEXT
  5
11615
330
11466
100
AcDbEntity
  8
SUNPOU
100
AcDbMText
 10
372.6376749489706
 20
173.680454602093
 30
0.0
 40
5.0
 41
0.0
 71
     5
 72
     1
  1
\A1;9
1001
ACAD
1000
MTEXTBEGIN
1070
    73
1070
     1
1070
    44
1040
1.0
1070
    74
1070
     0
1000
MTEXTEND
1000
MTEXTBEGIN
1070
    73
1070
     1
1070
    44
1040
1.0
1070
    74
1070
     0
1000
MTEXTEND
1000
MTEXTBEGIN
1070
    73
1070
     1
1070
    44
1040
1.0
1070
    74
1070
     0
1000
MTEXTEND
  0
POINT
  5
11616
330
11466
100
AcDbEntity
  8
DEFPOINTS
 62
     0
100
AcDbPoint
 10
376.8876749489706
 20
205.7596160192019
 30
0.0
  0
POINT
  5
11617
330
11466
100
AcDbEntity
  8
DEFPOINTS
 62
     0
100
AcDbPoint
 10
368.3876749489706
 20
207.8746575036085
 30
0.0
  0
POINT
  5
11618
330
11466
100
AcDbEntity
  8
DEFPOINTS
 62
     0
100
AcDbPoint
 10
368.3876749489706
 20
169.680454602093
 30
0.0
  0
ENDBLK
  5
11472
330
11466
100
AcDbEntity
  8
0
100
AcDbBlockEnd
  0
BLOCK
  5
1162E
330
11623
100
AcDbEntity
  8
0
100
AcDbBlockBegin
  2
*D17
 70
     1
 10
0.0
 20
0.0
 30
0.0
  3
*D17
  1

  0
LINE
  5
11647
330
11623
100
AcDbEntity
  8
SUNPOU
100
AcDbLine
 10
366.8876749489707
 20
281.2596160192019
 30
0.0
 11
366.8876749489707
 21
304.9176055465504
 31
0.0
  0
LINE
  5
11648
330
11623
100
AcDbEntity
  8
SUNPOU
100
AcDbLine
 10
376.8876749489706
 20
281.2596160192019
 30
0.0
 11
376.8876749489706
 21
304.9176055465504
 31
0.0
  0
LINE
  5
11649
330
11623
100
AcDbEntity
  8
SUNPOU
100
AcDbLine
 10
362.8876749489707
 20
303.4176055465504
 30
0.0
 11
358.8876749489707
 21
303.4176055465504
 31
0.0
  0
LINE
  5
1164A
330
11623
100
AcDbEntity
  8
SUNPOU
100
AcDbLine
 10
380.8876749489706
 20
303.4176055465504
 30
0.0
 11
384.8876749489706
 21
303.4176055465504
 31
0.0
  0
INSERT
  5
1164B
330
11623
100
AcDbEntity
  8
SUNPOU
100
AcDbBlockReference
  2
_OPEN
 10
366.8876749489707
 20
303.4176055465504
 30
0.0
 41
4.0
 42
4.0
 43
4.0
  0
INSERT
  5
1164C
330
11623
100
AcDbEntity
  8
SUNPOU
100
AcDbBlockReference
  2
_OPEN
 10
376.8876749489706
 20
303.4176055465504
 30
0.0
 41
4.0
 42
4.0
 43
4.0
 50
180.0
  0
MTEXT
  5
1164D
330
11623
100
AcDbEntity
  8
SUNPOU
100
AcDbMText
 10
371.8876749489707
 20
307.4176055465504
 30
0.0
 40
5.0
 41
0.0
 71
     5
 72
     1
  1
\A1;10
1001
ACAD
1000
MTEXTBEGIN
1070
    73
1070
     1
1070
    44
1040
1.0
1070
    74
1070
     0
1000
MTEXTEND
1000
MTEXTBEGIN
1070
    73
1070
     1
1070
    44
1040
1.0
1070
    74
1070
     0
1000
MTEXTEND
1000
MTEXTBEGIN
1070
    73
1070
     1
1070
    44
1040
1.0
1070
    74
1070
     0
1000
MTEXTEND
  0
POINT
  5
1164E
330
11623
100
AcDbEntity
  8
DEFPOINTS
 62
     0
100
AcDbPoint
 10
366.8876749489707
 20
279.759616019202
 30
0.0
  0
POINT
  5
1164F
330
11623
100
AcDbEntity
  8
DEFPOINTS
 62
     0
100
AcDbPoint
 10
376.8876749489706
 20
279.759616019202
 30
0.0
  0
POINT
  5
11650
330
11623
100
AcDbEntity
  8
DEFPOINTS
 62
     0
100
AcDbPoint
 10
376.8876749489706
 20
303.4176055465504
 30
0.0
  0
ENDBLK
  5
1162F
330
11623
100
AcDbEntity
  8
0
100
AcDbBlockEnd
  0
BLOCK
  5
1163B
330
11631
100
AcDbEntity
  8
0
100
AcDbBlockBegin
  2
*D18
 70
     1
 10
0.0
 20
0.0
 30
0.0
  3
*D18
  1

  0
LINE
  5
12B2E
330
11631
100
AcDbEntity
  8
SUNPOU
100
AcDbLine
 10
376.8876749489706
 20
281.2596160192019
 30
0.0
 11
376.8876749489706
 21
304.9176055465504
 31
0.0
  0
LINE
  5
12B2F
330
11631
100
AcDbEntity
  8
SUNPOU
100
AcDbLine
 10
401.8876749489707
 20
281.2596160192019
 30
0.0
 11
401.8876749489707
 21
304.9176055465504
 31
0.0
  0
LINE
  5
12B30
330
11631
100
AcDbEntity
  8
SUNPOU
100
AcDbLine
 10
380.8876749489706
 20
303.4176055465504
 30
0.0
 11
397.8876749489707
 21
303.4176055465504
 31
0.0
  0
INSERT
  5
12B31
330
11631
100
AcDbEntity
  8
SUNPOU
100
AcDbBlockReference
  2
_OPEN
 10
376.8876749489706
 20
303.4176055465504
 30
0.0
 41
4.0
 42
4.0
 43
4.0
 50
180.0
  0
INSERT
  5
12B32
330
11631
100
AcDbEntity
  8
SUNPOU
100
AcDbBlockReference
  2
_OPEN
 10
401.8876749489707
 20
303.4176055465504
 30
0.0
 41
4.0
 42
4.0
 43
4.0
  0
MTEXT
  5
12B33
330
11631
100
AcDbEntity
  8
SUNPOU
100
AcDbMText
 10
389.3876749489706
 20
307.4176055465504
 30
0.0
 40
5.0
 41
0.0
 71
     5
 72
     1
  1
\A1;25
  0
POINT
  5
12B34
330
11631
100
AcDbEntity
  8
DEFPOINTS
 62
     0
100
AcDbPoint
 10
376.8876749489706
 20
279.759616019202
 30
0.0
  0
POINT
  5
12B35
330
11631
100
AcDbEntity
  8
DEFPOINTS
 62
     0
100
AcDbPoint
 10
401.8876749489707
 20
279.759616019202
 30
0.0
  0
POINT
  5
12B36
330
11631
100
AcDbEntity
  8
DEFPOINTS
 62
     0
100
AcDbPoint
 10
401.8876749489707
 20
303.4176055465504
 30
0.0
  0
ENDBLK
  5
1163C
330
11631
100
AcDbEntity
  8
0
100
AcDbBlockEnd
  0
BLOCK
  5
12AE6
330
12ADC
100
AcDbEntity
  8
0
100
AcDbBlockBegin
  2
*D19
 70
     1
 10
0.0
 20
0.0
 30
0.0
  3
*D19
  1

  0
LINE
  5
12ADD
330
12ADC
100
AcDbEntity
  8
0
100
AcDbLine
 10
7.799999999999954
 20
556.2999999999999
 30
0.0
 11
7.79999999999995
 21
502.9632184974516
 31
0.0
  0
LINE
  5
12ADE
330
12ADC
100
AcDbEntity
  8
0
100
AcDbLine
 10
803.7999999999996
 20
556.2999999999999
 30
0.0
 11
803.7999999999996
 21
502.9632184974516
 31
0.0
  0
LINE
  5
12ADF
330
12ADC
100
AcDbEntity
  8
0
100
AcDbLine
 10
11.79999999999995
 20
504.4632184974516
 30
0.0
 11
799.7999999999997
 21
504.4632184974516
 31
0.0
  0
INSERT
  5
12AE0
330
12ADC
100
AcDbEntity
  8
0
100
AcDbBlockReference
  2
_OPEN
 10
7.79999999999995
 20
504.4632184974516
 30
0.0
 41
4.0
 42
4.0
 43
4.0
 50
180.0
  0
INSERT
  5
12AE1
330
12ADC
100
AcDbEntity
  8
0
100
AcDbBlockReference
  2
_OPEN
 10
803.7999999999996
 20
504.4632184974516
 30
0.0
 41
4.0
 42
4.0
 43
4.0
  0
MTEXT
  5
12AE2
330
12ADC
100
AcDbEntity
  8
0
100
AcDbMText
 10
405.7999999999998
 20
508.4632184974516
 30
0.0
 40
5.0
 41
0.0
 71
     5
 72
     1
  1
\A1;796
1001
ACAD
1000
MTEXTBEGIN
1070
    73
1070
     1
1070
    44
1040
1.0
1070
    74
1070
     0
1000
MTEXTEND
  0
POINT
  5
12AE3
330
12ADC
100
AcDbEntity
  8
DEFPOINTS
 62
     0
100
AcDbPoint
 10
7.799999999999954
 20
557.7999999999999
 30
0.0
  0
POINT
  5
12AE4
330
12ADC
100
AcDbEntity
  8
DEFPOINTS
 62
     0
100
AcDbPoint
 10
803.7999999999996
 20
557.7999999999999
 30
0.0
  0
POINT
  5
12AE5
330
12ADC
100
AcDbEntity
  8
DEFPOINTS
 62
     0
100
AcDbPoint
 10
803.7999999999996
 20
504.4632184974516
 30
0.0
  0
ENDBLK
  5
12AE7
330
12ADC
100
AcDbEntity
  8
0
100
AcDbBlockEnd
  0
ENDSEC
  0
SECTION
  2
ENTITIES
  0
POLYLINE
  5
275
330
1A
100
AcDbEntity
  8
ZUWAKU
100
AcDb2dPolyline
 66
     1
 10
0.0
 20
0.0
 30
0.0
 70
     1
  0
VERTEX
  5
12AEB
330
275
100
AcDbEntity
  8
ZUWAKU
100
AcDbVertex
100
AcDb2dVertex
 10
7.799999999999954
 20
557.7999999999999
 30
0.0
  0
VERTEX
  5
12AEC
330
275
100
AcDbEntity
  8
ZUWAKU
100
AcDbVertex
100
AcDb2dVertex
 10
7.799999999999954
 20
7.800000000000068
 30
0.0
  0
VERTEX
  5
12AED
330
275
100
AcDbEntity
  8
ZUWAKU
100
AcDbVertex
100
AcDb2dVertex
 10
803.7999999999996
 20
7.800000000000068
 30
0.0
  0
VERTEX
  5
12AEE
330
275
100
AcDbEntity
  8
ZUWAKU
100
AcDbVertex
100
AcDb2dVertex
 10
803.7999999999996
 20
557.7999999999999
 30
0.0
  0
SEQEND
  5
12AEF
330
275
100
AcDbEntity
  8
ZUWAKU
  0
POLYLINE
  5
276
330
1A
100
AcDbEntity
  8
ZUWAKU
100
AcDb2dPolyline
 66
     1
 10
0.0
 20
0.0
 30
0.0
 70
     1
  0
VERTEX
  5
12AF0
330
276
100
AcDbEntity
  8
ZUWAKU
100
AcDbVertex
100
AcDb2dVertex
 10
7.399999999999977
 20
558.1999999999999
 30
0.0
  0
VERTEX
  5
12AF1
330
276
100
AcDbEntity
  8
ZUWAKU
100
AcDbVertex
100
AcDb2dVertex
 10
7.399999999999977
 20
7.40000000000009
 30
0.0
  0
VERTEX
  5
12AF2
330
276
100
AcDbEntity
  8
ZUWAKU
100
AcDbVertex
100
AcDb2dVertex
 10
804.1999999999999
 20
7.400000000000067
 30
0.0
  0
VERTEX
  5
12AF3
330
276
100
AcDbEntity
  8
ZUWAKU
100
AcDbVertex
100
AcDb2dVertex
 10
804.1999999999999
 20
558.1999999999999
 30
0.0
  0
SEQEND
  5
12AF4
330
276
100
AcDbEntity
  8
ZUWAKU
  0
POLYLINE
  5
277
330
1A
100
AcDbEntity
  8
ZUWAKU
100
AcDb2dPolyline
 66
     1
 10
0.0
 20
0.0
 30
0.0
 70
     1
  0
VERTEX
  5
12AF5
330
277
100
AcDbEntity
  8
ZUWAKU
100
AcDbVertex
100
AcDb2dVertex
 10
7.0
 20
558.6
 30
0.0
  0
VERTEX
  5
12AF6
330
277
100
AcDbEntity
  8
ZUWAKU
100
AcDbVertex
100
AcDb2dVertex
 10
7.0
 20
7.0
 30
0.0
  0
VERTEX
  5
12AF7
330
277
100
AcDbEntity
  8
ZUWAKU
100
AcDbVertex
100
AcDb2dVertex
 10
804.5999999999999
 20
7.000000000000067
 30
0.0
  0
VERTEX
  5
12AF8
330
277
100
AcDbEntity
  8
ZUWAKU
100
AcDbVertex
100
AcDb2dVertex
 10
804.5999999999999
 20
558.6000000000001
 30
0.0
  0
SEQEND
  5
12AF9
330
277
100
AcDbEntity
  8
ZUWAKU
  0
POLYLINE
  5
278
330
1A
100
AcDbEntity
  8
ZUWAKU
100
AcDb2dPolyline
 66
     1
 10
0.0
 20
0.0
 30
0.0
 70
     1
  0
VERTEX
  5
12AFA
330
278
100
AcDbEntity
  8
ZUWAKU
100
AcDbVertex
100
AcDb2dVertex
 10
7.599999999999909
 20
558.0
 30
0.0
  0
VERTEX
  5
12AFB
330
278
100
AcDbEntity
  8
ZUWAKU
100
AcDbVertex
100
AcDb2dVertex
 10
7.599999999999909
 20
7.600000000000022
 30
0.0
  0
VERTEX
  5
12AFC
330
278
100
AcDbEntity
  8
ZUWAKU
100
AcDbVertex
100
AcDb2dVertex
 10
804.0000000000002
 20
7.600000000000068
 30
0.0
  0
VERTEX
  5
12AFD
330
278
100
AcDbEntity
  8
ZUWAKU
100
AcDbVertex
100
AcDb2dVertex
 10
804.0
 20
558.0
 30
0.0
  0
SEQEND
  5
12AFE
330
278
100
AcDbEntity
  8
ZUWAKU
  0
POLYLINE
  5
279
330
1A
100
AcDbEntity
  8
ZUWAKU
100
AcDb2dPolyline
 66
     1
 10
0.0
 20
0.0
 30
0.0
 70
     1
  0
VERTEX
  5
12AFF
330
279
100
AcDbEntity
  8
ZUWAKU
100
AcDbVertex
100
AcDb2dVertex
 10
7.199999999999931
 20
558.3999999999999
 30
0.0
  0
VERTEX
  5
12B00
330
279
100
AcDbEntity
  8
ZUWAKU
100
AcDbVertex
100
AcDb2dVertex
 10
7.199999999999931
 20
7.200000000000045
 30
0.0
  0
VERTEX
  5
12B01
330
279
100
AcDbEntity
  8
ZUWAKU
100
AcDbVertex
100
AcDb2dVertex
 10
804.3999999999998
 20
7.200000000000068
 30
0.0
  0
VERTEX
  5
12B02
330
279
100
AcDbEntity
  8
ZUWAKU
100
AcDbVertex
100
AcDb2dVertex
 10
804.4
 20
558.3999999999999
 30
0.0
  0
SEQEND
  5
12B03
330
279
100
AcDbEntity
  8
ZUWAKU
  0
TEXT
  5
27A
330
1A
100
AcDbEntity
  8
MOJI
100
AcDbText
 10
470.246431991002
 20
18.94261772165998
 30
0.0
 40
5.599999999999998
  1
ＬＳ０１Ｔ
 41
0.9
  7
MSPｺ_ｼｯｸ
100
AcDbText
  0
LINE
  5
27B
330
1A
100
AcDbEntity
  8
ZUWAKU
100
AcDbLine
 10
7.0
 20
37.0
 30
0.0
 11
804.3999999999998
 21
37.0
 31
0.0
  0
LINE
  5
27C
330
1A
100
AcDbEntity
  8
ZUWAKU
100
AcDbLine
 10
7.0
 20
37.19999999999999
 30
0.0
 11
804.3999999999998
 21
37.19999999999999
 31
0.0
  0
LINE
  5
27D
330
1A
100
AcDbEntity
  8
ZUWAKU
100
AcDbLine
 10
7.0
 20
37.4
 30
0.0
 11
804.3999999999998
 21
37.4
 31
0.0
  0
LINE
  5
27E
330
1A
100
AcDbEntity
  8
ZUWAKU
100
AcDbLine
 10
7.0
 20
37.60000000000001
 30
0.0
 11
804.3999999999998
 21
37.60000000000001
 31
0.0
  0
LINE
  5
27F
330
1A
100
AcDbEntity
  8
ZUWAKU
100
AcDbLine
 10
7.0
 20
37.80000000000001
 30
0.0
 11
804.3999999999998
 21
37.80000000000001
 31
0.0
  0
TEXT
  5
280
330
1A
100
AcDbEntity
  8
ZUWAKU
100
AcDbText
 10
216.7240463122775
 20
16.65535653838561
 30
0.0
 40
4.0
  1
サイズ
 41
0.9
  7
MSPｺ_ｼｯｸ
100
AcDbText
  0
LINE
  5
281
330
1A
100
AcDbEntity
  8
ZUWAKU
100
AcDbLine
 10
215.646601290068
 20
22.40000000000002
 30
0.0
 11
454.4243639709914
 21
22.40000000000002
 31
0.0
  0
LINE
  5
282
330
1A
100
AcDbEntity
  8
ZUWAKU
100
AcDbLine
 10
215.646601290068
 20
22.60000000000002
 30
0.0
 11
454.4243639709914
 21
22.60000000000003
 31
0.0
  0
LINE
  5
283
330
1A
100
AcDbEntity
  8
ZUWAKU
100
AcDbLine
 10
215.646601290068
 20
22.20000000000003
 30
0.0
 11
454.4243639709914
 21
22.20000000000002
 31
0.0
  0
LINE
  5
284
330
1A
100
AcDbEntity
  8
ZUWAKU
100
AcDbLine
 10
215.4466012900677
 20
37.0
 30
0.0
 11
215.4466012900679
 21
7.800000000000068
 31
0.0
  0
LINE
  5
285
330
1A
100
AcDbEntity
  8
ZUWAKU
100
AcDbLine
 10
215.6466012900677
 20
37.0
 30
0.0
 11
215.646601290068
 21
7.800000000000068
 31
0.0
  0
LINE
  5
286
330
1A
100
AcDbEntity
  8
ZUWAKU
100
AcDbLine
 10
215.2466012900679
 20
37.0
 30
0.0
 11
215.2466012900679
 21
7.800000000000068
 31
0.0
  0
LINE
  5
287
330
1A
100
AcDbEntity
  8
ZUWAKU
100
AcDbLine
 10
73.2422121547811
 20
29.725
 30
0.0
 11
73.2422121547811
 21
14.675
 31
0.0
  0
LINE
  5
288
330
1A
100
AcDbEntity
  8
ZUWAKU
100
AcDbLine
 10
76.04221215478117
 20
14.675
 30
0.0
 11
76.04221215478117
 21
29.725
 31
0.0
  0
LINE
  5
289
330
1A
100
AcDbEntity
  8
ZUWAKU
100
AcDbLine
 10
68.34221215478113
 20
29.725
 30
0.0
 11
68.34221215478113
 21
17.99999999999999
 31
0.0
  0
LINE
  5
28A
330
1A
100
AcDbEntity
  8
ZUWAKU
100
AcDbLine
 10
71.14221215478119
 20
16.95
 30
0.0
 11
71.14221215478119
 21
29.725
 31
0.0
  0
LINE
  5
28B
330
1A
100
AcDbEntity
  8
ZUWAKU
100
AcDbLine
 10
86.12662954798839
 20
37.0
 30
0.0
 11
86.12662954798839
 21
7.800000000000068
 31
0.0
  0
LINE
  5
28C
330
1A
100
AcDbEntity
  8
ZUWAKU
100
AcDbLine
 10
86.52662954798826
 20
37.0
 30
0.0
 11
86.52662954798847
 21
7.800000000000068
 31
0.0
  0
LINE
  5
28D
330
1A
100
AcDbEntity
  8
ZUWAKU
100
AcDbLine
 10
86.32662954798821
 20
37.0
 30
0.0
 11
86.32662954798844
 21
7.800000000000068
 31
0.0
  0
LINE
  5
28E
330
1A
100
AcDbEntity
  8
ZUWAKU
100
AcDbLine
 10
52.59221215478112
 20
27.44999999999999
 30
0.0
 11
52.59221215478112
 21
25.63479797464466
 31
0.0
  0
LINE
  5
28F
330
1A
100
AcDbEntity
  8
ZUWAKU
100
AcDbLine
 10
55.39221215478119
 20
26.92499999999999
 30
0.0
 11
55.39221215478119
 21
25.63479797464466
 31
0.0
  0
LINE
  5
290
330
1A
100
AcDbEntity
  8
ZUWAKU
100
AcDbLine
 10
44.31485863695911
 20
26.20504719356342
 30
0.0
 11
43.05010689162327
 21
22.20000000000001
 31
0.0
  0
LINE
  5
291
330
1A
100
AcDbEntity
  8
ZUWAKU
100
AcDbLine
 10
42.67634709209699
 20
29.88309396816696
 30
0.0
 11
40.80807721746521
 21
23.96690603183302
 31
0.0
  0
LINE
  5
292
330
1A
100
AcDbEntity
  8
ZUWAKU
100
AcDbLine
 10
36.84221215478112
 20
29.725
 30
0.0
 11
36.84221215478112
 21
14.675
 31
0.0
  0
LINE
  5
293
330
1A
100
AcDbEntity
  8
ZUWAKU
100
AcDbLine
 10
39.64221215478119
 20
24.125
 30
0.0
 11
39.64221215478119
 21
29.725
 31
0.0
  0
LINE
  5
294
330
1A
100
AcDbEntity
  8
ZUWAKU
100
AcDbLine
 10
64.84221215478112
 20
17.99999999999999
 30
0.0
 11
64.84221215478112
 21
29.725
 31
0.0
  0
LINE
  5
295
330
1A
100
AcDbEntity
  8
ZUWAKU
100
AcDbLine
 10
62.04221215478117
 20
29.725
 30
0.0
 11
62.04221215478117
 21
16.95
 31
0.0
  0
LINE
  5
296
330
1A
100
AcDbEntity
  8
ZUWAKU
100
AcDbLine
 10
50.4922121547811
 20
14.675
 30
0.0
 11
50.4922121547811
 21
29.725
 31
0.0
  0
LINE
  5
297
330
1A
100
AcDbEntity
  8
ZUWAKU
100
AcDbLine
 10
47.69221215478114
 20
29.725
 30
0.0
 11
47.69221215478114
 21
14.675
 31
0.0
  0
LINE
  5
298
330
1A
100
AcDbEntity
  8
ZUWAKU
100
AcDbLine
 10
27.7422121547811
 20
18.35
 30
0.0
 11
27.7422121547811
 21
26.04999999999995
 31
0.0
  0
LINE
  5
299
330
1A
100
AcDbEntity
  8
ZUWAKU
100
AcDbLine
 10
30.54221215478117
 20
26.04999999999999
 30
0.0
 11
30.54221215478117
 21
18.35
 31
0.0
  0
LINE
  5
29A
330
1A
100
AcDbEntity
  8
ZUWAKU
100
AcDbLine
 10
18.29221215478116
 20
27.44999999999999
 30
0.0
 11
18.29221215478116
 21
25.63479797464466
 31
0.0
  0
LINE
  5
29B
330
1A
100
AcDbEntity
  8
ZUWAKU
100
AcDbLine
 10
21.09221215478112
 20
26.92499999999999
 30
0.0
 11
21.09221215478112
 21
25.63479797464466
 31
0.0
  0
INSERT
  5
29C
330
1A
100
AcDbEntity
  8
ZUWAKU
  6
CONTINUOUS
100
AcDbBlockReference
  2
*X2
 10
0.0
 20
0.0
 30
0.0
1001
ACAD
1000
HATCH
1002
{
1070
    19
1000
ANSI37
1040
0.2
1040
0.0
1000
R14_HATCH_DATA
1000
29C
1011
1.0
1021
0.0
1031
0.0
1011
0.0
1021
1.0
1031
0.0
1011
0.0
1021
0.0
1031
1.0
1040
0.0
1010
0.0
1020
0.0
1030
1.0
1000
ANSI37
1070
     0
1070
     0
1071
        8
1071
        7
1070
     1
1070
     1
1071
       24
1040
21.50226266111985
1040
24.64484848098358
1040
-0.1989123673796348
1040
21.09221215478112
1040
25.63479797464462
1040
0.0
1040
21.09221215478112
1040
26.925
1040
-0.4142135623730912
1040
21.6172121547811
1040
27.44999999999999
1040
0.0
1040
24.59221215478101
1040
27.44999999999999
1040
0.4142135623731546
1040
25.1172121547811
1040
27.97499999999999
1040
0.0
1040
25.1172121547811
1040
29.72500000000001
1040
0.4142135623731586
1040
24.59221215478101
1040
30.24999999999999
1040
0.0
1040
21.09221215478112
1040
30.24999999999999
1040
0.4142135623730928
1040
18.29221215478116
1040
27.45000000000002
1040
0.0
1040
18.29221215478116
1040
25.63479797464475
1040
0.1989123673796619
1040
19.52236367379759
1040
22.66494949366114
1040
0.0
1040
22.43216164844227
1040
19.75515151901649
1040
-0.1989123673796613
1040
22.84221215478112
1040
18.7652020253553
1040
0.0
1040
22.84221215478112
1040
17.47499999999998
1040
-0.4142135623730911
1040
22.31721215478114
1040
16.95
1040
0.0
1040
19.34221215478123
1040
16.95
1040
0.4142135623731526
1040
18.81721215478114
1040
16.42500000000001
1040
0.0
1040
18.81721215478114
1040
14.67499999999999
1040
0.4142135623731526
1040
19.34221215478123
1040
14.15
1040
0.0
1040
22.84221215478112
1040
14.15
1040
0.4142135623731045
1040
25.64221215478119
1040
16.94999999999998
1040
0.0
1040
25.64221215478119
1040
18.76520202535524
1040
0.1989123673796604
1040
24.41206063576464
1040
21.73505050633878
1040
0.0
1071
        0
1071
        7
1070
     1
1070
     1
1071
       16
1040
30.54221215478117
1040
26.05
1040
-0.4142135623730935
1040
31.94221215478114
1040
27.44999999999999
1040
0.0
1040
33.8672121547811
1040
27.44999999999999
1040
0.4142135623731546
1040
34.39221215478119
1040
27.97499999999999
1040
0.0
1040
34.39221215478119
1040
29.72500000000001
1040
0.4142135623730951
1040
33.86721215478121
1040
30.24999999999999
1040
0.0
1040
31.94221215478103
1040
30.24999999999995
1040
0.4142135623730893
1040
27.7422121547811
1040
26.04999999999994
1040
0.0
1040
27.7422121547811
1040
18.35000000000002
1040
0.4142135623730969
1040
31.94221215478114
1040
14.15
1040
0.0
1040
33.8672121547811
1040
14.15
1040
0.4142135623731526
1040
34.39221215478119
1040
14.67499999999999
1040
0.0
1040
34.39221215478119
1040
16.42500000000001
1040
0.4142135623730891
1040
33.86721215478121
1040
16.95
1040
0.0
1040
31.94221215478114
1040
16.95
1040
-0.4142135623730928
1040
30.54221215478117
1040
18.34999999999998
1040
0.0
1071
        0
1071
        7
1070
     1
1070
     1
1071
        2
1040
31.2422121547811
1040
22.19999999999999
1040
1.0
1040
34.7422121547811
1040
22.19999999999999
1040
1.0
1071
        0
1071
        7
1070
     1
1070
     1
1071
       26
1040
44.31485863695911
1040
26.20504719356342
1040
0.0
1040
45.37649827009693
1040
29.56690603183302
1040
0.5069206636600134
1040
44.87586737090157
1040
30.24999999999999
1040
0.0
1040
43.17697799129234
1040
30.24999999999999
1040
0.3272098845218764
1040
42.67634709209699
1040
29.88309396816696
1040
0.0
1040
40.80807721746521
1040
23.96690603183307
1040
-0.3272098845219541
1040
40.30744631826974
1040
23.59999999999999
1040
0.0
1040
40.16721215478128
1040
23.59999999999999
1040
-0.4142135623731526
1040
39.64221215478119
1040
24.12499999999998
1040
0.0
1040
39.64221215478119
1040
29.72500000000001
1040
0.4142135623730951
1040
39.11721215478121
1040
30.24999999999999
1040
0.0
1040
37.3672121547811
1040
30.24999999999999
1040
0.4142135623730871
1040
36.84221215478112
1040
29.72500000000001
1040
0.0
1040
36.84221215478112
1040
14.67499999999999
1040
0.4142135623730891
1040
37.3672121547811
1040
14.15
1040
0.0
1040
39.1172121547811
1040
14.15
1040
0.4142135623731526
1040
39.64221215478119
1040
14.67499999999999
1040
0.0
1040
39.64221215478119
1040
20.275
1040
-0.4142135623731526
1040
40.16721215478128
1040
20.79999999999999
1040
0.0
1040
40.30744631826985
1040
20.79999999999999
1040
-0.3272098845218915
1040
40.80807721746521
1040
20.43309396816693
1040
0.0
1040
42.67634709209699
1040
14.51690603183307
1040
0.3272098845218902
1040
43.17697799129234
1040
14.15
1040
0.0
1040
44.87586737090157
1040
14.15
1040
0.5069206636600336
1040
45.37649827009693
1040
14.83309396816701
1040
0.0
1040
43.05010689162327
1040
22.20000000000013
1040
0.0
1071
        0
1071
        7
1070
     1
1070
     1
1071
        8
1040
50.4922121547811
1040
29.72500000000001
1040
0.4142135623731546
1040
49.96721215478101
1040
30.24999999999999
1040
0.0
1040
48.21721215478124
1040
30.24999999999999
1040
0.4142135623731507
1040
47.69221215478114
1040
29.72500000000001
1040
0.0
1040
47.69221215478114
1040
14.67499999999999
1040
0.4142135623731526
1040
48.21721215478124
1040
14.15
1040
0.0
1040
49.96721215478101
1040
14.15
1040
0.4142135623731526
1040
50.4922121547811
1040
14.67499999999999
1040
0.0
1071
        0
1071
        7
1070
     1
1070
     1
1071
       24
1040
55.39221215478119
1040
26.925
1040
-0.4142135623731546
1040
55.91721215478128
1040
27.44999999999999
1040
0.0
1040
58.89221215478119
1040
27.44999999999999
1040
0.4142135623730911
1040
59.41721215478117
1040
27.97499999999999
1040
0.0
1040
59.41721215478117
1040
29.72500000000001
1040
0.4142135623730952
1040
58.89221215478119
1040
30.24999999999999
1040
0.0
1040
55.39221215478119
1040
30.24999999999999
1040
0.4142135623731048
1040
52.59221215478112
1040
27.45000000000002
1040
0.0
1040
52.59221215478112
1040
25.63479797464475
1040
0.1989123673796613
1040
53.82236367379767
1040
22.66494949366121
1040
0.0
1040
56.73216164844234
1040
19.75515151901653
1040
-0.1989123673796402
1040
57.14221215478119
1040
18.76520202535546
1040
0.0
1040
57.14221215478119
1040
17.47499999999998
1040
-0.4142135623730911
1040
56.61721215478121
1040
16.95
1040
0.0
1040
53.64221215478119
1040
16.95
1040
0.4142135623731526
1040
53.1172121547811
1040
16.42500000000001
1040
0.0
1040
53.1172121547811
1040
14.67499999999999
1040
0.4142135623730891
1040
53.64221215478107
1040
14.15
1040
0.0
1040
57.14221215478119
1040
14.15
1040
0.4142135623730925
1040
59.94221215478114
1040
16.94999999999998
1040
0.0
1040
59.94221215478114
1040
18.76520202535524
1040
0.1989123673796675
1040
58.7120606357646
1040
21.7350505063389
1040
0.0
1040
55.80226266112004
1040
24.64484848098342
1040
-0.1989123673796652
1040
55.39221215478119
1040
25.63479797464458
1040
0.0
1071
        0
1071
        7
1070
     1
1070
     1
1071
       16
1040
64.84221215478112
1040
29.72499999999998
1040
0.414213562373103
1040
64.31721215478114
1040
30.24999999999999
1040
0.0
1040
62.56721215478115
1040
30.24999999999999
1040
0.4142135623730871
1040
62.04221215478117
1040
29.72500000000001
1040
0.0
1040
62.04221215478117
1040
16.94999999999998
1040
0.4142135623730927
1040
64.84221215478112
1040
14.15
1040
0.0
1040
68.34221215478113
1040
14.15
1040
0.4142135623731045
1040
71.14221215478119
1040
16.94999999999998
1040
0.0
1040
71.14221215478119
1040
29.72500000000001
1040
0.4142135623730951
1040
70.61721215478121
1040
30.24999999999999
1040
0.0
1040
68.8672121547811
1040
30.24999999999999
1040
0.4142135623730871
1040
68.34221215478113
1040
29.72500000000001
1040
0.0
1040
68.34221215478113
1040
17.99999999999998
1040
-0.4142135623730879
1040
67.29221215478117
1040
16.95
1040
0.0
1040
65.89221215478119
1040
16.95
1040
-0.4142135623731197
1040
64.84221215478112
1040
17.99999999999998
1040
0.0
1071
        0
1071
        7
1070
     1
1070
     1
1071
        8
1040
76.04221215478117
1040
29.72500000000001
1040
0.4142135623730871
1040
75.51721215478119
1040
30.24999999999999
1040
0.0
1040
73.76721215478119
1040
30.24999999999999
1040
0.4142135623731507
1040
73.2422121547811
1040
29.72500000000001
1040
0.0
1040
73.2422121547811
1040
14.67499999999999
1040
0.4142135623730891
1040
73.76721215478108
1040
14.15
1040
0.0
1040
75.51721215478119
1040
14.15
1040
0.4142135623730891
1040
76.04221215478117
1040
14.67499999999999
1040
0.0
1071
        0
1070
     0
1070
     1
1040
0.0
1040
0.2
1070
     0
1070
     2
1040
0.7853981633974483
1040
-893.942304334679
1040
-6.199999999999924
1040
-0.4490128060534576
1040
0.4490128060534577
1070
     0
1040
2.356194490192344
1040
-893.942304334679
1040
-6.199999999999924
1040
-0.4490128060534577
1040
-0.4490128060534576
1070
     0
1040
0.057451373970553
1071
        8
1040
23.0798549630233
1040
22.16717364588554
1040
0.0
1040
29.40451500643916
1040
25.84406218245101
1040
0.0
1040
32.16436788565966
1040
22.51188164607071
1040
0.0
1040
37.91405998163714
1040
23.20129764644149
1040
0.0
1040
48.83847201895673
1040
23.66090991398312
1040
0.0
1040
53.89820089512955
1040
26.4185763164072
1040
0.0
1040
63.55768597240035
1040
25.72915791509501
1040
0.0
1040
74.82707961962273
1040
26.18877018263662
1040
0.0
1002
}
  0
CIRCLE
  5
29E
330
1A
100
AcDbEntity
  8
ZUWAKU
100
AcDbCircle
 10
32.9922121547811
 20
22.19999999999999
 30
0.0
 40
1.75
  0
LINE
  5
29F
330
1A
100
AcDbEntity
  8
ZUWAKU
100
AcDbLine
 10
33.8672121547811
 20
14.15
 30
0.0
 11
31.94221215478114
 21
14.15
 31
0.0
  0
LINE
  5
2A0
330
1A
100
AcDbEntity
  8
ZUWAKU
100
AcDbLine
 10
31.94221215478114
 20
16.95
 30
0.0
 11
33.8672121547811
 21
16.95
 31
0.0
  0
ARC
  5
2A1
330
1A
100
AcDbEntity
  8
ZUWAKU
100
AcDbCircle
 10
31.94221215478114
 20
18.35
 30
0.0
 40
4.199999999999998
100
AcDbArc
 50
180.0
 51
270.0
  0
ARC
  5
2A2
330
1A
100
AcDbEntity
  8
ZUWAKU
100
AcDbCircle
 10
22.84221215478112
 20
16.95
 30
0.0
 40
2.799999999999998
100
AcDbArc
 50
270.0
 51
0.0
  0
ARC
  5
2A3
330
1A
100
AcDbEntity
  8
ZUWAKU
100
AcDbCircle
 10
31.94221215478114
 20
18.35
 30
0.0
 40
1.399999999999999
100
AcDbArc
 50
180.0
 51
270.0
  0
LINE
  5
2A4
330
1A
100
AcDbEntity
  8
ZUWAKU
100
AcDbLine
 10
25.64221215478119
 20
16.95
 30
0.0
 11
25.64221215478119
 21
18.76520202535534
 31
0.0
  0
ARC
  5
2A5
330
1A
100
AcDbEntity
  8
ZUWAKU
100
AcDbCircle
 10
22.49221215478109
 20
25.63479797464469
 30
0.0
 40
4.199999999999998
100
AcDbArc
 50
180.0
 51
224.9999999999996
  0
ARC
  5
2A6
330
1A
100
AcDbEntity
  8
ZUWAKU
100
AcDbCircle
 10
22.49221215478109
 20
25.63479797464469
 30
0.0
 40
1.399999999999999
100
AcDbArc
 50
180.0000000000015
 51
224.9999999999995
  0
LINE
  5
2A7
330
1A
100
AcDbEntity
  8
ZUWAKU
100
AcDbLine
 10
19.52236367379759
 20
22.66494949366117
 30
0.0
 11
22.43216164844227
 21
19.75515151901651
 31
0.0
  0
LINE
  5
2A8
330
1A
100
AcDbEntity
  8
ZUWAKU
100
AcDbLine
 10
19.34221215478112
 20
16.95
 30
0.0
 11
22.31721215478114
 21
16.95
 31
0.0
  0
LINE
  5
2A9
330
1A
100
AcDbEntity
  8
ZUWAKU
100
AcDbLine
 10
19.34221215478112
 20
14.15
 30
0.0
 11
22.84221215478112
 21
14.15
 31
0.0
  0
ARC
  5
2AA
330
1A
100
AcDbEntity
  8
ZUWAKU
100
AcDbCircle
 10
19.34221215478112
 20
16.425
 30
0.0
 40
0.525
100
AcDbArc
 50
90.0
 51
180.0
  0
ARC
  5
2AB
330
1A
100
AcDbEntity
  8
ZUWAKU
100
AcDbCircle
 10
19.34221215478112
 20
14.675
 30
0.0
 40
0.525
100
AcDbArc
 50
180.0
 51
270.0
  0
LINE
  5
2AC
330
1A
100
AcDbEntity
  8
ZUWAKU
100
AcDbLine
 10
18.81721215478114
 20
14.675
 30
0.0
 11
18.81721215478114
 21
16.425
 31
0.0
  0
ARC
  5
2AD
330
1A
100
AcDbEntity
  8
ZUWAKU
100
AcDbCircle
 10
21.44221215478114
 20
18.76520202535534
 30
0.0
 40
1.399999999999999
100
AcDbArc
 50
0.0
 51
44.9999999999996
  0
ARC
  5
2AE
330
1A
100
AcDbEntity
  8
ZUWAKU
100
AcDbCircle
 10
22.31721215478114
 20
17.475
 30
0.0
 40
0.525
100
AcDbArc
 50
270.0
 51
0.0
  0
LINE
  5
2AF
330
1A
100
AcDbEntity
  8
ZUWAKU
100
AcDbLine
 10
22.84221215478112
 20
17.475
 30
0.0
 11
22.84221215478112
 21
18.76520202535534
 31
0.0
  0
LINE
  5
2B0
330
1A
100
AcDbEntity
  8
ZUWAKU
100
AcDbLine
 10
24.41206063576464
 20
21.73505050633882
 30
0.0
 11
21.50226266111997
 21
24.64484848098349
 31
0.0
  0
ARC
  5
2B1
330
1A
100
AcDbEntity
  8
ZUWAKU
100
AcDbCircle
 10
21.44221215478114
 20
18.7652020253553
 30
0.0
 40
4.199999999999998
100
AcDbArc
 50
0.0
 51
44.9999999999996
  0
ARC
  5
2B2
330
1A
100
AcDbEntity
  8
ZUWAKU
100
AcDbCircle
 10
65.89221215478119
 20
17.99999999999999
 30
0.0
 40
1.049999999999998
100
AcDbArc
 50
180.0
 51
270.0
  0
LINE
  5
2B3
330
1A
100
AcDbEntity
  8
ZUWAKU
100
AcDbLine
 10
64.84221215478112
 20
14.15
 30
0.0
 11
68.34221215478113
 21
14.15
 31
0.0
  0
ARC
  5
2B4
330
1A
100
AcDbEntity
  8
ZUWAKU
100
AcDbCircle
 10
64.84221215478112
 20
16.95
 30
0.0
 40
2.799999999999998
100
AcDbArc
 50
180.0
 51
270.0
  0
ARC
  5
2B5
330
1A
100
AcDbEntity
  8
ZUWAKU
100
AcDbCircle
 10
57.14221215478119
 20
16.95
 30
0.0
 40
2.799999999999998
100
AcDbArc
 50
270.0
 51
0.0
  0
LINE
  5
2B6
330
1A
100
AcDbEntity
  8
ZUWAKU
100
AcDbLine
 10
48.21721215478112
 20
14.15
 30
0.0
 11
49.96721215478112
 21
14.15
 31
0.0
  0
ARC
  5
2B7
330
1A
100
AcDbEntity
  8
ZUWAKU
100
AcDbCircle
 10
43.17697799129246
 20
14.675
 30
0.0
 40
0.525
100
AcDbArc
 50
197.5255683737225
 51
270.0
  0
LINE
  5
2B8
330
1A
100
AcDbEntity
  8
ZUWAKU
100
AcDbLine
 10
45.37649827009693
 20
14.83309396816697
 30
0.0
 11
43.05010689162327
 21
22.20000000000001
 31
0.0
  0
ARC
  5
2B9
330
1A
100
AcDbEntity
  8
ZUWAKU
100
AcDbCircle
 10
44.87586737090146
 20
14.675
 30
0.0
 40
0.525
100
AcDbArc
 50
270.0
 51
17.52556837372259
  0
LINE
  5
2BA
330
1A
100
AcDbEntity
  8
ZUWAKU
100
AcDbLine
 10
43.17697799129246
 20
14.15
 30
0.0
 11
44.87586737090146
 21
14.15
 31
0.0
  0
ARC
  5
2BB
330
1A
100
AcDbEntity
  8
ZUWAKU
100
AcDbCircle
 10
48.21721215478112
 20
14.675
 30
0.0
 40
0.525
100
AcDbArc
 50
180.0
 51
270.0
  0
ARC
  5
2BC
330
1A
100
AcDbEntity
  8
ZUWAKU
100
AcDbCircle
 10
40.16721215478116
 20
20.27499999999999
 30
0.0
 40
0.525
100
AcDbArc
 50
90.0
 51
180.0
  0
ARC
  5
2BD
330
1A
100
AcDbEntity
  8
ZUWAKU
100
AcDbCircle
 10
40.30744631826985
 20
20.27499999999999
 30
0.0
 40
0.525
100
AcDbArc
 50
17.52556837372259
 51
90.0
  0
ARC
  5
2BE
330
1A
100
AcDbEntity
  8
ZUWAKU
100
AcDbCircle
 10
37.3672121547811
 20
14.675
 30
0.0
 40
0.525
100
AcDbArc
 50
180.0
 51
270.0
  0
ARC
  5
2BF
330
1A
100
AcDbEntity
  8
ZUWAKU
100
AcDbCircle
 10
33.8672121547811
 20
16.425
 30
0.0
 40
0.525
100
AcDbArc
 50
0.0
 51
90.0
  0
ARC
  5
2C0
330
1A
100
AcDbEntity
  8
ZUWAKU
100
AcDbCircle
 10
33.8672121547811
 20
14.675
 30
0.0
 40
0.525
100
AcDbArc
 50
270.0
 51
0.0
  0
LINE
  5
2C1
330
1A
100
AcDbEntity
  8
ZUWAKU
100
AcDbLine
 10
34.39221215478119
 20
16.425
 30
0.0
 11
34.39221215478119
 21
14.675
 31
0.0
  0
LINE
  5
2C2
330
1A
100
AcDbEntity
  8
ZUWAKU
100
AcDbLine
 10
39.64221215478119
 20
14.675
 30
0.0
 11
39.64221215478119
 21
20.27499999999999
 31
0.0
  0
ARC
  5
2C3
330
1A
100
AcDbEntity
  8
ZUWAKU
100
AcDbCircle
 10
39.1172121547811
 20
14.675
 30
0.0
 40
0.525
100
AcDbArc
 50
270.0
 51
0.0
  0
LINE
  5
2C4
330
1A
100
AcDbEntity
  8
ZUWAKU
100
AcDbLine
 10
37.3672121547811
 20
14.15
 30
0.0
 11
39.1172121547811
 21
14.15
 31
0.0
  0
ARC
  5
2C5
330
1A
100
AcDbEntity
  8
ZUWAKU
100
AcDbCircle
 10
40.16721215478116
 20
24.125
 30
0.0
 40
0.525
100
AcDbArc
 50
180.0
 51
270.0
  0
LINE
  5
2C6
330
1A
100
AcDbEntity
  8
ZUWAKU
100
AcDbLine
 10
40.16721215478116
 20
20.79999999999999
 30
0.0
 11
40.30744631826985
 21
20.79999999999999
 31
0.0
  0
LINE
  5
2C7
330
1A
100
AcDbEntity
  8
ZUWAKU
100
AcDbLine
 10
40.30744631826985
 20
23.59999999999999
 30
0.0
 11
40.16721215478116
 21
23.59999999999999
 31
0.0
  0
ARC
  5
2C8
330
1A
100
AcDbEntity
  8
ZUWAKU
100
AcDbCircle
 10
40.30744631826985
 20
24.125
 30
0.0
 40
0.525
100
AcDbArc
 50
270.0
 51
342.4744316262773
  0
LINE
  5
2C9
330
1A
100
AcDbEntity
  8
ZUWAKU
100
AcDbLine
 10
42.67634709209699
 20
14.51690603183303
 30
0.0
 11
40.80807721746521
 21
20.43309396816697
 31
0.0
  0
ARC
  5
2CA
330
1A
100
AcDbEntity
  8
ZUWAKU
100
AcDbCircle
 10
55.7422121547811
 20
18.7652020253553
 30
0.0
 40
4.199999999999998
100
AcDbArc
 50
0.0
 51
44.9999999999996
  0
LINE
  5
2CB
330
1A
100
AcDbEntity
  8
ZUWAKU
100
AcDbLine
 10
59.94221215478114
 20
16.95
 30
0.0
 11
59.94221215478114
 21
18.76520202535534
 31
0.0
  0
ARC
  5
2CC
330
1A
100
AcDbEntity
  8
ZUWAKU
100
AcDbCircle
 10
56.79221215478117
 20
25.63479797464469
 30
0.0
 40
4.199999999999998
100
AcDbArc
 50
180.0
 51
224.9999999999996
  0
ARC
  5
2CD
330
1A
100
AcDbEntity
  8
ZUWAKU
100
AcDbCircle
 10
56.79221215478117
 20
25.63479797464469
 30
0.0
 40
1.399999999999999
100
AcDbArc
 50
180.0000000000015
 51
224.9999999999995
  0
LINE
  5
2CE
330
1A
100
AcDbEntity
  8
ZUWAKU
100
AcDbLine
 10
53.82236367379767
 20
22.66494949366117
 30
0.0
 11
56.73216164844234
 21
19.75515151901651
 31
0.0
  0
LINE
  5
2CF
330
1A
100
AcDbEntity
  8
ZUWAKU
100
AcDbLine
 10
53.64221215478119
 20
14.15
 30
0.0
 11
57.14221215478119
 21
14.15
 31
0.0
  0
LINE
  5
2D0
330
1A
100
AcDbEntity
  8
ZUWAKU
100
AcDbLine
 10
53.64221215478119
 20
16.95
 30
0.0
 11
56.6172121547811
 21
16.95
 31
0.0
  0
ARC
  5
2D1
330
1A
100
AcDbEntity
  8
ZUWAKU
100
AcDbCircle
 10
53.64221215478119
 20
16.425
 30
0.0
 40
0.525
100
AcDbArc
 50
90.0
 51
180.0
  0
ARC
  5
2D2
330
1A
100
AcDbEntity
  8
ZUWAKU
100
AcDbCircle
 10
49.96721215478112
 20
14.675
 30
0.0
 40
0.525
100
AcDbArc
 50
270.0
 51
0.0
  0
ARC
  5
2D3
330
1A
100
AcDbEntity
  8
ZUWAKU
100
AcDbCircle
 10
53.64221215478119
 20
14.675
 30
0.0
 40
0.525
100
AcDbArc
 50
180.0
 51
270.0
  0
LINE
  5
2D4
330
1A
100
AcDbEntity
  8
ZUWAKU
100
AcDbLine
 10
53.1172121547811
 20
14.675
 30
0.0
 11
53.1172121547811
 21
16.425
 31
0.0
  0
ARC
  5
2D5
330
1A
100
AcDbEntity
  8
ZUWAKU
100
AcDbCircle
 10
56.6172121547811
 20
17.475
 30
0.0
 40
0.525
100
AcDbArc
 50
270.0
 51
0.0
  0
ARC
  5
2D6
330
1A
100
AcDbEntity
  8
ZUWAKU
100
AcDbCircle
 10
55.7422121547811
 20
18.76520202535534
 30
0.0
 40
1.399999999999999
100
AcDbArc
 50
0.0
 51
44.9999999999996
  0
LINE
  5
2D7
330
1A
100
AcDbEntity
  8
ZUWAKU
100
AcDbLine
 10
57.14221215478119
 20
17.475
 30
0.0
 11
57.14221215478119
 21
18.76520202535534
 31
0.0
  0
LINE
  5
2D8
330
1A
100
AcDbEntity
  8
ZUWAKU
100
AcDbLine
 10
58.71206063576472
 20
21.73505050633882
 30
0.0
 11
55.80226266111992
 21
24.64484848098349
 31
0.0
  0
ARC
  5
2D9
330
1A
100
AcDbEntity
  8
ZUWAKU
100
AcDbCircle
 10
68.34221215478113
 20
16.95
 30
0.0
 40
2.799999999999998
100
AcDbArc
 50
270.0
 51
0.0
  0
ARC
  5
2DA
330
1A
100
AcDbEntity
  8
ZUWAKU
100
AcDbCircle
 10
75.51721215478119
 20
14.675
 30
0.0
 40
0.525
100
AcDbArc
 50
270.0
 51
0.0
  0
ARC
  5
2DB
330
1A
100
AcDbEntity
  8
ZUWAKU
100
AcDbCircle
 10
67.29221215478117
 20
17.99999999999999
 30
0.0
 40
1.049999999999998
100
AcDbArc
 50
270.0
 51
0.0
  0
ARC
  5
2DC
330
1A
100
AcDbEntity
  8
ZUWAKU
100
AcDbCircle
 10
73.76721215478119
 20
14.675
 30
0.0
 40
0.525
100
AcDbArc
 50
180.0
 51
270.0
  0
LINE
  5
2DD
330
1A
100
AcDbEntity
  8
ZUWAKU
100
AcDbLine
 10
73.76721215478119
 20
14.15
 30
0.0
 11
75.51721215478119
 21
14.15
 31
0.0
  0
LINE
  5
2DE
330
1A
100
AcDbEntity
  8
ZUWAKU
100
AcDbLine
 10
67.29221215478117
 20
16.95
 30
0.0
 11
65.89221215478119
 21
16.95
 31
0.0
  0
TEXT
  5
2DF
330
1A
100
AcDbEntity
  8
MOJI
100
AcDbText
 10
94.3963057554165
 20
19.88005124007306
 30
0.0
 40
5.599999999999998
  1
ﾕﾆｼｪｲﾌﾟ
 41
0.9
  7
MSPｺ_ｼｯｸ
100
AcDbText
  0
LINE
  5
2E0
330
1A
100
AcDbEntity
  8
ZUWAKU
100
AcDbLine
 10
33.8672121547811
 20
27.44999999999999
 30
0.0
 11
31.94221215478114
 21
27.44999999999999
 31
0.0
  0
LINE
  5
2E1
330
1A
100
AcDbEntity
  8
ZUWAKU
100
AcDbLine
 10
31.94221215478114
 20
30.24999999999995
 30
0.0
 11
33.8672121547811
 21
30.24999999999999
 31
0.0
  0
LINE
  5
2E2
330
1A
100
AcDbEntity
  8
ZUWAKU
100
AcDbLine
 10
21.09221215478112
 20
30.24999999999999
 30
0.0
 11
24.59221215478112
 21
30.24999999999999
 31
0.0
  0
ARC
  5
2E3
330
1A
100
AcDbEntity
  8
ZUWAKU
100
AcDbCircle
 10
24.59221215478112
 20
29.725
 30
0.0
 40
0.525
100
AcDbArc
 50
0.0
 51
90.0
  0
ARC
  5
2E4
330
1A
100
AcDbEntity
  8
ZUWAKU
100
AcDbCircle
 10
31.94221215478114
 20
26.04999999999999
 30
0.0
 40
1.399999999999999
100
AcDbArc
 50
90.0
 51
180.0
  0
LINE
  5
2E5
330
1A
100
AcDbEntity
  8
ZUWAKU
100
AcDbLine
 10
24.59221215478112
 20
27.44999999999999
 30
0.0
 11
21.6172121547811
 21
27.44999999999999
 31
0.0
  0
ARC
  5
2E6
330
1A
100
AcDbEntity
  8
ZUWAKU
100
AcDbCircle
 10
21.6172121547811
 20
26.92499999999999
 30
0.0
 40
0.525
100
AcDbArc
 50
90.0
 51
180.0
  0
ARC
  5
2E7
330
1A
100
AcDbEntity
  8
ZUWAKU
100
AcDbCircle
 10
24.59221215478112
 20
27.97499999999999
 30
0.0
 40
0.525
100
AcDbArc
 50
270.0
 51
0.0
  0
ARC
  5
2E8
330
1A
100
AcDbEntity
  8
ZUWAKU
100
AcDbCircle
 10
21.09221215478112
 20
27.44999999999999
 30
0.0
 40
2.799999999999998
100
AcDbArc
 50
90.0
 51
180.0
  0
ARC
  5
2E9
330
1A
100
AcDbEntity
  8
ZUWAKU
100
AcDbCircle
 10
31.94221215478114
 20
26.04999999999995
 30
0.0
 40
4.199999999999998
100
AcDbArc
 50
90.0
 51
180.0
  0
LINE
  5
2EA
330
1A
100
AcDbEntity
  8
ZUWAKU
100
AcDbLine
 10
25.1172121547811
 20
29.725
 30
0.0
 11
25.1172121547811
 21
27.97499999999999
 31
0.0
  0
LINE
  5
2EB
330
1A
100
AcDbEntity
  8
ZUWAKU
100
AcDbLine
 10
49.96721215478112
 20
30.24999999999999
 30
0.0
 11
48.21721215478112
 21
30.24999999999999
 31
0.0
  0
ARC
  5
2EC
330
1A
100
AcDbEntity
  8
ZUWAKU
100
AcDbCircle
 10
43.17697799129246
 20
29.725
 30
0.0
 40
0.525
100
AcDbArc
 50
90.0
 51
162.4744316262773
  0
ARC
  5
2ED
330
1A
100
AcDbEntity
  8
ZUWAKU
100
AcDbCircle
 10
44.87586737090146
 20
29.725
 30
0.0
 40
0.525
100
AcDbArc
 50
342.4744316262773
 51
90.0
  0
LINE
  5
2EE
330
1A
100
AcDbEntity
  8
ZUWAKU
100
AcDbLine
 10
43.17697799129246
 20
30.24999999999999
 30
0.0
 11
44.87586737090146
 21
30.24999999999999
 31
0.0
  0
ARC
  5
2EF
330
1A
100
AcDbEntity
  8
ZUWAKU
100
AcDbCircle
 10
48.21721215478112
 20
29.725
 30
0.0
 40
0.525
100
AcDbArc
 50
90.0
 51
180.0
  0
ARC
  5
2F0
330
1A
100
AcDbEntity
  8
ZUWAKU
100
AcDbCircle
 10
37.3672121547811
 20
29.725
 30
0.0
 40
0.525
100
AcDbArc
 50
90.0
 51
180.0
  0
ARC
  5
2F1
330
1A
100
AcDbEntity
  8
ZUWAKU
100
AcDbCircle
 10
33.8672121547811
 20
29.725
 30
0.0
 40
0.525
100
AcDbArc
 50
0.0
 51
90.0
  0
LINE
  5
2F2
330
1A
100
AcDbEntity
  8
ZUWAKU
100
AcDbLine
 10
39.1172121547811
 20
30.24999999999999
 30
0.0
 11
37.3672121547811
 21
30.24999999999999
 31
0.0
  0
ARC
  5
2F3
330
1A
100
AcDbEntity
  8
ZUWAKU
100
AcDbCircle
 10
39.1172121547811
 20
29.725
 30
0.0
 40
0.525
100
AcDbArc
 50
0.0
 51
90.0
  0
ARC
  5
2F4
330
1A
100
AcDbEntity
  8
ZUWAKU
100
AcDbCircle
 10
33.8672121547811
 20
27.97499999999999
 30
0.0
 40
0.525
100
AcDbArc
 50
270.0
 51
0.0
  0
LINE
  5
2F5
330
1A
100
AcDbEntity
  8
ZUWAKU
100
AcDbLine
 10
34.39221215478119
 20
29.725
 30
0.0
 11
34.39221215478119
 21
27.97499999999999
 31
0.0
  0
LINE
  5
2F6
330
1A
100
AcDbEntity
  8
ZUWAKU
100
AcDbLine
 10
45.37649827009693
 20
29.56690603183303
 30
0.0
 11
44.31485863695911
 21
26.20504719356342
 31
0.0
  0
ARC
  5
2F7
330
1A
100
AcDbEntity
  8
ZUWAKU
100
AcDbCircle
 10
58.89221215478119
 20
29.725
 30
0.0
 40
0.525
100
AcDbArc
 50
0.0
 51
90.0
  0
LINE
  5
2F8
330
1A
100
AcDbEntity
  8
ZUWAKU
100
AcDbLine
 10
64.31721215478114
 20
30.24999999999999
 30
0.0
 11
62.56721215478115
 21
30.24999999999999
 31
0.0
  0
ARC
  5
2F9
330
1A
100
AcDbEntity
  8
ZUWAKU
100
AcDbCircle
 10
62.56721215478115
 20
29.725
 30
0.0
 40
0.525
100
AcDbArc
 50
90.0
 51
180.0
  0
ARC
  5
2FA
330
1A
100
AcDbEntity
  8
ZUWAKU
100
AcDbCircle
 10
64.31721215478114
 20
29.725
 30
0.0
 40
0.525
100
AcDbArc
 50
0.0
 51
90.0
  0
ARC
  5
2FB
330
1A
100
AcDbEntity
  8
ZUWAKU
100
AcDbCircle
 10
49.96721215478112
 20
29.725
 30
0.0
 40
0.525
100
AcDbArc
 50
0.0
 51
90.0
  0
LINE
  5
2FC
330
1A
100
AcDbEntity
  8
ZUWAKU
100
AcDbLine
 10
55.39221215478119
 20
30.24999999999999
 30
0.0
 11
58.89221215478119
 21
30.24999999999999
 31
0.0
  0
ARC
  5
2FD
330
1A
100
AcDbEntity
  8
ZUWAKU
100
AcDbCircle
 10
58.89221215478119
 20
27.97499999999999
 30
0.0
 40
0.525
100
AcDbArc
 50
270.0
 51
0.0
  0
ARC
  5
2FE
330
1A
100
AcDbEntity
  8
ZUWAKU
100
AcDbCircle
 10
55.91721215478116
 20
26.92499999999999
 30
0.0
 40
0.525
100
AcDbArc
 50
90.0
 51
180.0
  0
LINE
  5
2FF
330
1A
100
AcDbEntity
  8
ZUWAKU
100
AcDbLine
 10
58.89221215478119
 20
27.44999999999999
 30
0.0
 11
55.91721215478116
 21
27.44999999999999
 31
0.0
  0
ARC
  5
300
330
1A
100
AcDbEntity
  8
ZUWAKU
100
AcDbCircle
 10
55.39221215478119
 20
27.44999999999999
 30
0.0
 40
2.799999999999998
100
AcDbArc
 50
90.0
 51
180.0
  0
LINE
  5
301
330
1A
100
AcDbEntity
  8
ZUWAKU
100
AcDbLine
 10
59.41721215478117
 20
29.725
 30
0.0
 11
59.41721215478117
 21
27.97499999999999
 31
0.0
  0
ARC
  5
302
330
1A
100
AcDbEntity
  8
ZUWAKU
100
AcDbCircle
 10
75.51721215478119
 20
29.725
 30
0.0
 40
0.525
100
AcDbArc
 50
0.0
 51
90.0
  0
ARC
  5
303
330
1A
100
AcDbEntity
  8
ZUWAKU
100
AcDbCircle
 10
68.8672121547811
 20
29.725
 30
0.0
 40
0.525
100
AcDbArc
 50
90.0
 51
180.0
  0
LINE
  5
304
330
1A
100
AcDbEntity
  8
ZUWAKU
100
AcDbLine
 10
70.6172121547811
 20
30.24999999999999
 30
0.0
 11
68.8672121547811
 21
30.24999999999999
 31
0.0
  0
ARC
  5
305
330
1A
100
AcDbEntity
  8
ZUWAKU
100
AcDbCircle
 10
70.6172121547811
 20
29.725
 30
0.0
 40
0.525
100
AcDbArc
 50
0.0
 51
90.0
  0
ARC
  5
306
330
1A
100
AcDbEntity
  8
ZUWAKU
100
AcDbCircle
 10
73.76721215478119
 20
29.725
 30
0.0
 40
0.525
100
AcDbArc
 50
90.0
 51
180.0
  0
LINE
  5
307
330
1A
100
AcDbEntity
  8
ZUWAKU
100
AcDbLine
 10
75.51721215478119
 20
30.24999999999999
 30
0.0
 11
73.76721215478119
 21
30.24999999999999
 31
0.0
  0
TEXT
  5
308
330
1A
100
AcDbEntity
  8
ZUWAKU
100
AcDbText
 10
216.7240463122773
 20
31.05535653838558
 30
0.0
 40
4.0
  1
品名
 41
0.9
  7
MSPｺ_ｼｯｸ
100
AcDbText
  0
LINE
  5
309
330
1A
100
AcDbEntity
  8
ZUWAKU
100
AcDbLine
 10
454.4243639709914
 20
37.0
 30
0.0
 11
454.4243639709914
 21
7.800000000000068
 31
0.0
  0
LINE
  5
30A
330
1A
100
AcDbEntity
  8
ZUWAKU
100
AcDbLine
 10
454.8243639709912
 20
37.0
 30
0.0
 11
454.8243639709915
 21
7.800000000000068
 31
0.0
  0
LINE
  5
30B
330
1A
100
AcDbEntity
  8
ZUWAKU
100
AcDbLine
 10
454.6243639709912
 20
37.0
 30
0.0
 11
454.6243639709914
 21
7.800000000000068
 31
0.0
  0
TEXT
  5
30C
330
1A
100
AcDbEntity
  8
MOJI
100
AcDbText
 10
245.2787949951864
 20
13.2015047093878
 30
0.0
 40
5.599999999999998
  1
ＵＳＴ１４０－０－１０～４５
 41
0.9
  7
MSPｺ_ｼｯｸ
100
AcDbText
  0
TEXT
  5
30D
330
1A
100
AcDbEntity
  8
MOJI
100
AcDbText
 10
244.8787949951865
 20
27.60150470938777
 30
0.0
 40
5.599999999999998
  1
ブラケット正面打（吊）自在式
 41
0.9
  7
MSPｺ_ｼｯｸ
100
AcDbText
  0
TEXT
  5
30E
330
1A
100
AcDbEntity
  8
ZUWAKU
100
AcDbText
 10
456.3018089932008
 20
31.05535653838558
 30
0.0
 40
4.0
  1
品番
 41
0.9
  7
MSPｺ_ｼｯｸ
100
AcDbText
  0
TEXT
  5
30F
330
1A
100
AcDbEntity
  8
ZUWAKU
100
AcDbText
 10
715.5280841922436
 20
13.64884031385406
 30
0.0
 40
6.0
  1
建材事業部
 41
0.9
  7
MSPｺ_ｼｯｸ
100
AcDbText
  0
TEXT
  5
310
330
1A
100
AcDbEntity
  8
ZUWAKU
100
AcDbText
 10
715.5280841922436
 20
24.55383933568679
 30
0.0
 40
6.0
  1
積水化学工業株式会社
 41
0.9
  7
MSPｺ_ｼｯｸ
100
AcDbText
  0
LINE
  5
311
330
1A
100
AcDbEntity
  8
ZUWAKU
100
AcDbLine
 10
704.8490105485411
 20
37.0
 30
0.0
 11
704.8490105485411
 21
7.800000000000068
 31
0.0
  0
LINE
  5
312
330
1A
100
AcDbEntity
  8
ZUWAKU
100
AcDbLine
 10
704.649010548541
 20
37.0
 30
0.0
 11
704.6490105485413
 21
7.800000000000068
 31
0.0
  0
LINE
  5
313
330
1A
100
AcDbEntity
  8
ZUWAKU
100
AcDbLine
 10
704.4490105485412
 20
37.0
 30
0.0
 11
704.4490105485412
 21
7.800000000000068
 31
0.0
  0
LINE
  5
314
330
1A
100
AcDbEntity
  8
ZUWAKU
100
AcDbLine
 10
704.2490105485413
 20
37.0
 30
0.0
 11
704.2490105485413
 21
7.800000000000068
 31
0.0
  0
LINE
  5
315
330
1A
100
AcDbEntity
  8
ZUWAKU
100
AcDbLine
 10
655.4172025102046
 20
37.0
 30
0.0
 11
655.4172025102046
 21
7.800000000000068
 31
0.0
  0
LINE
  5
316
330
1A
100
AcDbEntity
  8
ZUWAKU
100
AcDbLine
 10
655.8172025102044
 20
37.0
 30
0.0
 11
655.8172025102049
 21
7.800000000000068
 31
0.0
  0
LINE
  5
317
330
1A
100
AcDbEntity
  8
ZUWAKU
100
AcDbLine
 10
655.6172025102041
 20
37.0
 30
0.0
 11
655.6172025102045
 21
7.800000000000068
 31
0.0
  0
LINE
  5
318
330
1A
100
AcDbEntity
  8
ZUWAKU
100
AcDbLine
 10
559.5269557661124
 20
37.0
 30
0.0
 11
559.5269557661124
 21
7.800000000000068
 31
0.0
  0
LINE
  5
319
330
1A
100
AcDbEntity
  8
ZUWAKU
100
AcDbLine
 10
559.9269557661123
 20
37.0
 30
0.0
 11
559.9269557661123
 21
7.800000000000068
 31
0.0
  0
LINE
  5
31A
330
1A
100
AcDbEntity
  8
ZUWAKU
100
AcDbLine
 10
559.7269557661125
 20
37.0
 30
0.0
 11
559.7269557661125
 21
7.800000000000068
 31
0.0
  0
TEXT
  5
31B
330
1A
100
AcDbEntity
  8
MOJI
100
AcDbText
 10
535.0409079723128
 20
25.00492105740738
 30
0.0
 40
5.599999999999998
  1
Ａ３
 41
0.9
  7
MSPｺ_ｼｯｸ
100
AcDbText
  0
LINE
  5
31C
330
1A
100
AcDbEntity
  8
ZUWAKU
100
AcDbLine
 10
511.799179498141
 20
37.0
 30
0.0
 11
511.799179498141
 21
7.800000000000068
 31
0.0
  0
LINE
  5
31D
330
1A
100
AcDbEntity
  8
ZUWAKU
100
AcDbLine
 10
512.1991794981409
 20
37.0
 30
0.0
 11
512.199179498141
 21
7.800000000000068
 31
0.0
  0
LINE
  5
31E
330
1A
100
AcDbEntity
  8
ZUWAKU
100
AcDbLine
 10
511.9991794981408
 20
37.0
 30
0.0
 11
511.9991794981411
 21
7.800000000000068
 31
0.0
  0
TEXT
  5
31F
330
1A
100
AcDbEntity
  8
ZUWAKU
100
AcDbText
 10
661.5120759996869
 20
25.00492105740738
 30
0.0
 40
5.599999999999998
  1
　　．　．　　
 41
0.9
  7
MSPｺ_ｼｯｸ
100
AcDbText
  0
LINE
  5
320
330
1A
100
AcDbEntity
  8
ZUWAKU
100
AcDbLine
 10
512.1991794981409
 20
22.60000000000002
 30
0.0
 11
559.5269557661124
 21
22.60000000000002
 31
0.0
  0
LINE
  5
321
330
1A
100
AcDbEntity
  8
ZUWAKU
100
AcDbLine
 10
512.1991794981409
 20
22.40000000000002
 30
0.0
 11
559.5269557661124
 21
22.40000000000002
 31
0.0
  0
LINE
  5
322
330
1A
100
AcDbEntity
  8
ZUWAKU
100
AcDbLine
 10
512.1991794981409
 20
22.20000000000003
 30
0.0
 11
559.5269557661124
 21
22.20000000000003
 31
0.0
  0
TEXT
  5
323
330
1A
100
AcDbEntity
  8
ZUWAKU
100
AcDbText
 10
513.6766245203507
 20
16.65535653838561
 30
0.0
 40
4.0
  1
縮尺
 41
0.9
  7
MSPｺ_ｼｯｸ
100
AcDbText
  0
TEXT
  5
324
330
1A
100
AcDbEntity
  8
MOJI
100
AcDbText
 10
535.0409079723128
 20
10.20492105740742
 30
0.0
 40
5.599999999999998
  1
１/２
 41
0.9
  7
MSPｺ_ｼｯｸ
100
AcDbText
  0
LINE
  5
325
330
1A
100
AcDbEntity
  8
ZUWAKU
100
AcDbLine
 10
655.8172025102042
 20
22.60000000000002
 30
0.0
 11
704.2490105485413
 21
22.60000000000002
 31
0.0
  0
LINE
  5
326
330
1A
100
AcDbEntity
  8
ZUWAKU
100
AcDbLine
 10
655.8172025102044
 20
22.40000000000003
 30
0.0
 11
704.2490105485413
 21
22.40000000000002
 31
0.0
  0
LINE
  5
327
330
1A
100
AcDbEntity
  8
ZUWAKU
100
AcDbLine
 10
655.8172025102042
 20
22.20000000000002
 30
0.0
 11
704.2490105485413
 21
22.20000000000002
 31
0.0
  0
TEXT
  5
328
330
1A
100
AcDbEntity
  8
ZUWAKU
100
AcDbText
 10
513.6766245203505
 20
31.05535653838558
 30
0.0
 40
4.0
  1
用紙
 41
0.9
  7
MSPｺ_ｼｯｸ
100
AcDbText
  0
TEXT
  5
329
330
1A
100
AcDbEntity
  8
ZUWAKU
100
AcDbText
 10
657.2946475324138
 20
31.05535653838558
 30
0.0
 40
4.0
  1
DATE
 41
0.9
  7
MSPｺ_ｼｯｸ
100
AcDbText
  0
POINT
  5
1056
330
1A
100
AcDbEntity
  8
SEIHIN
100
AcDbPoint
 10
1711.400763290751
 20
217.11344014311
 30
0.0
  0
POINT
  5
10BB
330
1A
100
AcDbEntity
  8
SEIHIN
100
AcDbPoint
 10
1704.800763290751
 20
250.2134401431161
 30
0.0
  0
ARC
  5
AC3A
330
1A
100
AcDbEntity
  8
NOKITOI
 48
0.2
100
AcDbCircle
 10
293.7658938001325
 20
1167.510760182962
 30
0.0
 40
999.8000000000002
100
AcDbArc
 50
267.2627870055292
 51
272.6033918042164
  0
ARC
  5
AC3B
330
1A
100
AcDbEntity
  8
NOKITOI
 48
0.2
100
AcDbCircle
 10
293.7658938001325
 20
1167.510760182962
 30
0.0
 40
1000.0
100
AcDbArc
 50
267.2627870055292
 51
272.6033918042164
  0
ARC
  5
AC3C
330
1A
100
AcDbEntity
  8
NOKITOI
 48
0.2
100
AcDbCircle
 10
293.7658938001325
 20
1167.510760182962
 30
0.0
 40
998.3999999999999
100
AcDbArc
 50
267.3431291593075
 51
272.5751779642489
  0
ARC
  5
AC3D
330
1A
100
AcDbEntity
  8
NOKITOI
 48
0.2
100
AcDbCircle
 10
1222.554084026453
 20
287.5107601829611
 30
0.0
 40
998.4000000000001
100
AcDbArc
 50
182.4109906480892
 51
185.2410550612985
  0
ARC
  5
AC3E
330
1A
100
AcDbEntity
  8
NOKITOI
 48
0.2
100
AcDbCircle
 10
1222.554084026453
 20
287.5107601829611
 30
0.0
 40
999.800000000736
100
AcDbArc
 50
180.0795916737998
 51
185.9063572242696
  0
ARC
  5
AC3F
330
1A
100
AcDbEntity
  8
NOKITOI
 48
0.2
100
AcDbCircle
 10
1222.554084026453
 20
287.5107601829611
 30
0.0
 40
1000.000000000736
100
AcDbArc
 50
180.0795916737998
 51
185.9063572242696
  0
LINE
  5
AC40
330
1A
100
AcDbEntity
  8
NOKITOI
 48
0.2
100
AcDbLine
 10
242.4407831655662
 20
192.6644370114087
 30
0.0
 11
228.3281942006047
 21
196.3107601829617
 31
0.0
  0
LINE
  5
AC41
330
1A
100
AcDbEntity
  8
NOKITOI
 48
0.2
100
AcDbLine
 10
228.8573697310551
 20
183.9107601829616
 30
0.0
 11
242.0395585988446
 21
183.9107601829616
 31
0.0
  0
LINE
  5
AC42
330
1A
100
AcDbEntity
  8
NOKITOI
 48
0.2
100
AcDbLine
 10
242.9163009426308
 20
185.3107601829617
 30
0.0
 11
229.3986480548223
 21
185.3107601829617
 31
0.0
  0
LINE
  5
AC43
330
1A
100
AcDbEntity
  8
NOKITOI
 48
0.2
100
AcDbLine
 10
228.8573697310551
 20
183.7107601829616
 30
0.0
 11
242.0395585988446
 21
183.7107601829616
 31
0.0
  0
LINE
  5
AC44
330
1A
100
AcDbEntity
  8
NOKITOI
 48
0.2
100
AcDbLine
 10
228.4750659078397
 20
194.7235534336807
 30
0.0
 11
242.4077593287108
 21
191.1237105566014
 31
0.0
  0
ARC
  5
AC45
330
1A
100
AcDbEntity
  8
NOKITOI
 48
0.2
100
AcDbCircle
 10
1222.554084026453
 20
287.5107601829611
 30
0.0
 40
998.4000000000001
100
AcDbArc
 50
185.3325301949828
 51
185.8753038897116
  0
ARC
  5
AC46
330
1A
100
AcDbEntity
  8
NOKITOI
 48
0.2
100
AcDbCircle
 10
228.8573697310551
 20
184.7107601829616
 30
0.0
 40
0.8000000000001556
100
AcDbArc
 50
185.9063572242696
 51
270.0
  0
ARC
  5
AC47
330
1A
100
AcDbEntity
  8
NOKITOI
 48
0.2
100
AcDbCircle
 10
228.8573697310551
 20
184.7107601829616
 30
0.0
 40
1.000000000000155
100
AcDbArc
 50
185.9063572242696
 51
270.0
  0
LINE
  5
AC48
330
1A
100
AcDbEntity
  8
NOKITOI
 48
0.2
100
AcDbLine
 10
243.2349926944521
 20
182.8153418403369
 30
0.0
 11
244.3130440825602
 21
170.492536689739
 31
0.0
  0
LINE
  5
AC49
330
1A
100
AcDbEntity
  8
NOKITOI
 48
0.2
100
AcDbLine
 10
243.0357536785174
 20
182.7979115641077
 30
0.0
 11
244.1138050666256
 21
170.4751064135098
 31
0.0
  0
LINE
  5
AC4A
330
1A
100
AcDbEntity
  8
NOKITOI
 48
0.2
100
AcDbLine
 10
245.5858526954848
 20
172.0075364602895
 30
0.0
 11
243.9328558109878
 21
190.9023301101066
 31
0.0
  0
ARC
  5
AC4B
330
1A
100
AcDbEntity
  8
NOKITOI
 48
0.2
100
AcDbCircle
 10
246.1061952259713
 20
170.6494091758019
 30
0.0
 40
1.800000000000289
100
AcDbArc
 50
184.9997491441009
 51
267.2627870055292
  0
ARC
  5
AC4C
330
1A
100
AcDbEntity
  8
NOKITOI
 48
0.2
100
AcDbCircle
 10
246.1061952259713
 20
170.6494091758019
 30
0.0
 40
2.000000000000289
100
AcDbArc
 50
184.9997491441009
 51
267.2627870055292
  0
ARC
  5
AC4D
330
1A
100
AcDbEntity
  8
NOKITOI
 48
0.2
100
AcDbCircle
 10
247.5782428548304
 20
172.1818392225815
 30
0.0
 40
1.999999999999942
100
AcDbArc
 50
184.9997491441009
 51
267.3431291593075
  0
LINE
  5
AC4E
330
1A
100
AcDbEntity
  8
NOKITOI
 48
0.2
100
AcDbLine
 10
242.4077593287108
 20
191.1237105566014
 30
0.0
 11
242.9163009426308
 21
185.3107601829617
 31
0.0
  0
ARC
  5
AC4F
330
1A
100
AcDbEntity
  8
NOKITOI
 48
0.2
100
AcDbCircle
 10
242.0395585988446
 20
182.7107601829616
 30
0.0
 40
1.200000000000007
100
AcDbArc
 50
4.999749144100993
 51
90.0
  0
ARC
  5
AC50
330
1A
100
AcDbEntity
  8
NOKITOI
 48
0.2
100
AcDbCircle
 10
242.0395585988446
 20
182.7107601829616
 30
0.0
 40
1.000000000000007
100
AcDbArc
 50
4.999749144100993
 51
90.0
  0
ARC
  5
AC51
330
1A
100
AcDbEntity
  8
NOKITOI
 48
0.2
100
AcDbCircle
 10
241.9404656516421
 20
190.7280273478147
 30
0.0
 40
2.000000000000012
100
AcDbArc
 50
4.999749144100993
 51
75.51309319945758
  0
LINE
  5
AC52
330
1A
100
AcDbEntity
  8
NOKITOI
 48
0.2
100
AcDbLine
 10
231.3458768361285
 20
275.0107601829609
 30
0.0
 11
237.1263840338337
 21
275.0107601829609
 31
0.0
  0
LINE
  5
AC53
330
1A
100
AcDbEntity
  8
NOKITOI
 48
0.2
100
AcDbLine
 10
231.3458768361285
 20
276.5107601829608
 30
0.0
 11
232.5540840257172
 21
276.5107601829608
 31
0.0
  0
LINE
  5
AC54
330
1A
100
AcDbEntity
  8
NOKITOI
 48
0.2
100
AcDbLine
 10
232.5540840257172
 20
278.9979262475451
 30
0.0
 11
227.7403871469118
 21
280.0509224397838
 31
0.0
  0
LINE
  5
AC55
330
1A
100
AcDbEntity
  8
NOKITOI
 48
0.2
100
AcDbLine
 10
240.0540840257174
 20
258.0107601829608
 30
0.0
 11
231.3765217292341
 21
258.0107601829608
 31
0.0
  0
LINE
  5
AC56
330
1A
100
AcDbEntity
  8
NOKITOI
 48
0.2
100
AcDbLine
 10
239.9540840257173
 20
259.5107601829608
 30
0.0
 11
231.3765217292341
 21
259.5107601829608
 31
0.0
  0
LINE
  5
AC57
330
1A
100
AcDbEntity
  8
NOKITOI
 48
0.2
100
AcDbLine
 10
242.9387384075671
 20
278.1593877950043
 30
0.0
 11
229.2976477711506
 21
281.1433763717204
 31
0.0
  0
LINE
  5
AC58
330
1A
100
AcDbEntity
  8
NOKITOI
 48
0.2
100
AcDbLine
 10
242.9814777833282
 20
278.3547677984836
 30
0.0
 11
229.3403871469117
 21
281.3387563751996
 31
0.0
  0
LINE
  5
AC59
330
1A
100
AcDbEntity
  8
NOKITOI
 48
0.2
100
AcDbLine
 10
224.9689468465019
 20
247.1814398606777
 30
0.0
 11
240.0540840257174
 21
255.4016280869809
 31
0.0
  0
LINE
  5
AC5A
330
1A
100
AcDbEntity
  8
NOKITOI
 48
0.2
100
AcDbLine
 10
225.0378886692049
 20
245.5107601829613
 30
0.0
 11
240.7196682274327
 21
254.0560705875388
 31
0.0
  0
ARC
  5
AC5B
330
1A
100
AcDbEntity
  8
NOKITOI
 48
0.2
100
AcDbCircle
 10
1222.554084026453
 20
287.5107601829611
 30
0.0
 40
998.4000000007354
100
AcDbArc
 50
181.127032230844
 51
181.2137395248443
  0
ARC
  5
AC5C
330
1A
100
AcDbEntity
  8
NOKITOI
 48
0.2
100
AcDbCircle
 10
1222.554084026453
 20
287.5107601829611
 30
0.0
 40
998.3999999999999
100
AcDbArc
 50
181.4914279597314
 51
182.3150327430775
  0
ARC
  5
AC5D
330
1A
100
AcDbEntity
  8
NOKITOI
 48
0.2
100
AcDbCircle
 10
231.3765217292341
 20
266.5107601829609
 30
0.0
 40
7.000000000000047
100
AcDbArc
 50
181.2137395248443
 51
270.0
  0
ARC
  5
AC5E
330
1A
100
AcDbEntity
  8
NOKITOI
 48
0.2
100
AcDbCircle
 10
231.3765217292341
 20
266.5107601829609
 30
0.0
 40
8.500000000000021
100
AcDbArc
 50
215.9131497548197
 51
270.0
  0
ARC
  5
AC5F
330
1A
100
AcDbEntity
  8
NOKITOI
 48
0.2
100
AcDbCircle
 10
1222.554084026453
 20
287.5107601829611
 30
0.0
 40
998.3999999999998
100
AcDbArc
 50
180.1673696882618
 51
180.8493437959589
  0
ARC
  5
AC60
330
1A
100
AcDbEntity
  8
NOKITOI
 48
0.2
100
AcDbCircle
 10
231.3458768361285
 20
268.0107601829608
 30
0.0
 40
7.000000000000182
100
AcDbArc
 50
90.0
 51
181.127032230844
  0
ARC
  5
AC61
330
1A
100
AcDbEntity
  8
NOKITOI
 48
0.2
100
AcDbCircle
 10
231.3458768361285
 20
268.0107601829608
 30
0.0
 40
8.500000000000023
100
AcDbArc
 50
90.0
 51
146.4276220008681
  0
ARC
  5
AC62
330
1A
100
AcDbEntity
  8
NOKITOI
 48
0.2
100
AcDbCircle
 10
223.5550479111878
 20
286.1230130010812
 30
0.0
 40
0.8000000000001193
100
AcDbArc
 50
71.56505117707208
 51
180.0795916737998
  0
ARC
  5
AC63
330
1A
100
AcDbEntity
  8
NOKITOI
 48
0.2
100
AcDbCircle
 10
223.5550479111878
 20
286.1230130010812
 30
0.0
 40
1.000000000000119
100
AcDbArc
 50
71.56505117707208
 51
180.0795916737998
  0
LINE
  5
AC64
330
1A
100
AcDbEntity
  8
NOKITOI
 48
0.2
100
AcDbLine
 10
228.1489523555224
 20
285.434985562348
 30
0.0
 11
223.8080301240013
 21
286.8819596395216
 31
0.0
  0
LINE
  5
AC65
330
1A
100
AcDbEntity
  8
NOKITOI
 48
0.2
100
AcDbLine
 10
228.2121979087258
 20
285.6247222219581
 30
0.0
 11
223.8712756772047
 21
287.0716962991318
 31
0.0
  0
ARC
  5
AC66
330
1A
100
AcDbEntity
  8
NOKITOI
 48
0.2
100
AcDbCircle
 10
228.0540840257172
 20
285.1503805729329
 30
0.0
 40
0.3000000000000076
100
AcDbArc
 50
0.0
 51
71.56505117707208
  0
ARC
  5
AC67
330
1A
100
AcDbEntity
  8
NOKITOI
 48
0.2
100
AcDbCircle
 10
229.5540840257172
 20
282.3156563925959
 30
0.0
 40
1.20000000000001
100
AcDbArc
 50
180.0
 51
257.6609127216743
  0
ARC
  5
AC68
330
1A
100
AcDbEntity
  8
NOKITOI
 48
0.2
100
AcDbCircle
 10
228.0540840257172
 20
285.1503805729329
 30
0.0
 40
0.5000000000000077
100
AcDbArc
 50
0.0
 51
71.56505117707208
  0
ARC
  5
AC69
330
1A
100
AcDbEntity
  8
NOKITOI
 48
0.2
100
AcDbCircle
 10
229.5540840257172
 20
282.3156563925959
 30
0.0
 40
1.00000000000001
100
AcDbArc
 50
180.0
 51
257.6609127216743
  0
LINE
  5
AC6A
330
1A
100
AcDbEntity
  8
NOKITOI
 48
0.2
100
AcDbLine
 10
226.9540840257172
 20
281.02782245718
 30
0.0
 11
226.9540840257172
 21
283.9971658208431
 31
0.0
  0
ARC
  5
AC6B
330
1A
100
AcDbEntity
  8
NOKITOI
 48
0.2
100
AcDbCircle
 10
227.9540840257173
 20
281.02782245718
 30
0.0
 40
1.0
100
AcDbArc
 50
180.0
 51
257.6609127216743
  0
LINE
  5
AC6C
330
1A
100
AcDbEntity
  8
NOKITOI
 48
0.2
100
AcDbLine
 10
226.6121979087256
 20
284.4715074698683
 30
0.0
 11
224.816455511526
 21
285.0700882689348
 31
0.0
  0
ARC
  5
AC6D
330
1A
100
AcDbEntity
  8
NOKITOI
 48
0.2
100
AcDbCircle
 10
224.6583416285177
 20
284.5957466199095
 30
0.0
 40
0.5000000000000031
100
AcDbArc
 50
71.56505117707208
 51
180.1673696882651
  0
LINE
  5
AC6E
330
1A
100
AcDbEntity
  8
NOKITOI
 48
0.2
100
AcDbLine
 10
228.3540840257171
 20
282.3156563925959
 30
0.0
 11
228.3540840257171
 21
285.1503805729329
 31
0.0
  0
ARC
  5
AC6F
330
1A
100
AcDbEntity
  8
NOKITOI
 48
0.2
100
AcDbCircle
 10
226.4540840257172
 20
283.9971658208431
 30
0.0
 40
0.5
100
AcDbArc
 50
0.0
 51
71.56505117707208
  0
LINE
  5
AC70
330
1A
100
AcDbEntity
  8
NOKITOI
 48
0.2
100
AcDbLine
 10
228.5540840257171
 20
282.3156563925959
 30
0.0
 11
228.5540840257171
 21
285.1503805729329
 31
0.0
  0
ARC
  5
AC71
330
1A
100
AcDbEntity
  8
NOKITOI
 48
0.2
100
AcDbCircle
 10
239.9540840257173
 20
255.461019280582
 30
0.0
 40
1.600000000000008
100
AcDbArc
 50
298.5868361218864
 51
0.0
  0
ARC
  5
AC72
330
1A
100
AcDbEntity
  8
NOKITOI
 48
0.2
100
AcDbCircle
 10
239.9540840257173
 20
257.9107601829609
 30
0.0
 40
1.600000000000008
100
AcDbArc
 50
0.0
 51
90.0
  0
LINE
  5
AC73
330
1A
100
AcDbEntity
  8
NOKITOI
 48
0.2
100
AcDbLine
 10
240.0540840257174
 20
255.4016280869809
 30
0.0
 11
240.0540840257174
 21
258.0107601829608
 31
0.0
  0
LINE
  5
AC74
330
1A
100
AcDbEntity
  8
NOKITOI
 48
0.2
100
AcDbLine
 10
241.5540840257174
 20
255.461019280582
 30
0.0
 11
241.5540840257174
 21
257.9107601829609
 31
0.0
  0
ARC
  5
AC75
330
1A
100
AcDbEntity
  8
NOKITOI
 48
0.2
100
AcDbCircle
 10
242.5540840257174
 20
276.4009677636911
 30
0.0
 40
2.0
100
AcDbArc
 50
0.0
 51
77.66091272167438
  0
LINE
  5
AC76
330
1A
100
AcDbEntity
  8
NOKITOI
 48
0.2
100
AcDbLine
 10
232.5540840257172
 20
278.9979262475451
 30
0.0
 11
232.5540840257172
 21
276.5107601829608
 31
0.0
  0
LINE
  5
AC77
330
1A
100
AcDbEntity
  8
NOKITOI
 48
0.2
100
AcDbLine
 10
234.0540840257172
 20
276.5107601829608
 30
0.0
 11
234.0540840257172
 21
278.6698012475451
 31
0.0
  0
LINE
  5
AC78
330
1A
100
AcDbEntity
  8
NOKITOI
 48
0.2
100
AcDbLine
 10
242.6609324651201
 20
276.7870531514257
 30
0.0
 11
234.0540840257172
 21
278.6698012475451
 31
0.0
  0
ARC
  5
AC79
330
1A
100
AcDbEntity
  8
NOKITOI
 48
0.2
100
AcDbCircle
 10
239.5540840257174
 20
274.5107601829608
 30
0.0
 40
4.999999999999985
100
AcDbArc
 50
270.0
 51
0.0
  0
ARC
  5
AC7A
330
1A
100
AcDbEntity
  8
NOKITOI
 48
0.2
100
AcDbCircle
 10
236.9836140346453
 20
273.9107601829608
 30
0.0
 40
2.600000000000022
100
AcDbArc
 50
340.0168934781017
 51
90.0
  0
ARC
  5
AC7B
330
1A
100
AcDbEntity
  8
NOKITOI
 48
0.2
100
AcDbCircle
 10
239.5540840257174
 20
274.5107601829608
 30
0.0
 40
3.499999999999985
100
AcDbArc
 50
270.0
 51
0.0
  0
LINE
  5
AC7C
330
1A
100
AcDbEntity
  8
NOKITOI
 48
0.2
100
AcDbLine
 10
234.0540840257172
 20
276.5107601829608
 30
0.0
 11
236.9836140346453
 21
276.5107601829608
 31
0.0
  0
ARC
  5
AC7D
330
1A
100
AcDbEntity
  8
NOKITOI
 48
0.2
100
AcDbCircle
 10
237.2679340216591
 20
270.0107601829608
 30
0.0
 40
0.5
100
AcDbArc
 50
160.0168934781017
 51
270.0
  0
LINE
  5
AC7E
330
1A
100
AcDbEntity
  8
NOKITOI
 48
0.2
100
AcDbLine
 10
237.2679340216591
 20
269.5107601829608
 30
0.0
 11
239.5540840257174
 21
269.5107601829608
 31
0.0
  0
LINE
  5
AC7F
330
1A
100
AcDbEntity
  8
NOKITOI
 48
0.2
100
AcDbLine
 10
238.066177457322
 20
273.6690171198741
 30
0.0
 11
236.7980373099149
 21
270.1816317145042
 31
0.0
  0
LINE
  5
AC80
330
1A
100
AcDbEntity
  8
NOKITOI
 48
0.2
100
AcDbLine
 10
239.4094840094846
 20
271.0107601829609
 30
0.0
 11
239.5540840257174
 21
271.0107601829609
 31
0.0
  0
LINE
  5
AC81
330
1A
100
AcDbEntity
  8
NOKITOI
 48
0.2
100
AcDbLine
 10
239.4270769357153
 20
273.0222282189354
 30
0.0
 11
238.9395872977404
 21
271.6816317145042
 31
0.0
  0
ARC
  5
AC82
330
1A
100
AcDbEntity
  8
NOKITOI
 48
0.2
100
AcDbCircle
 10
239.4094840094846
 20
271.5107601829608
 30
0.0
 40
0.5
100
AcDbArc
 50
160.0168934781017
 51
270.0
  0
ARC
  5
AC83
330
1A
100
AcDbEntity
  8
NOKITOI
 48
0.2
100
AcDbCircle
 10
237.1263840338337
 20
274.0107601829608
 30
0.0
 40
1.000000000000003
100
AcDbArc
 50
340.0168934781017
 51
90.0
  0
ARC
  5
AC84
330
1A
100
AcDbEntity
  8
NOKITOI
 48
0.2
100
AcDbCircle
 10
242.5735121391294
 20
276.2027120136866
 30
0.0
 40
1.990469879287869
100
AcDbArc
 50
5.716280370791512
 51
79.42703903833133
  0
ARC
  5
AC85
330
1A
100
AcDbEntity
  8
NOKITOI
 48
0.2
100
AcDbCircle
 10
242.5540840257174
 20
276.2986031427276
 30
0.0
 40
0.5
100
AcDbArc
 50
0.0
 51
77.66091272167438
  0
LINE
  5
AC86
330
1A
100
AcDbEntity
  8
NOKITOI
 48
0.2
100
AcDbLine
 10
243.0540840257174
 20
274.5107601829608
 30
0.0
 11
243.0540840257174
 21
276.2986031427276
 31
0.0
  0
LINE
  5
AC87
330
1A
100
AcDbEntity
  8
NOKITOI
 48
0.2
100
AcDbLine
 10
244.5540840257174
 20
274.5107601829608
 30
0.0
 11
244.5540840257174
 21
276.400967763691
 31
0.0
  0
LINE
  5
AC88
330
1A
100
AcDbEntity
  8
NOKITOI
 48
0.2
100
AcDbLine
 10
343.7023716380799
 20
172.7903705297689
 30
0.0
 11
353.0683317522182
 21
232.2117491582578
 31
0.0
  0
LINE
  5
AC89
330
1A
100
AcDbEntity
  8
NOKITOI
 48
0.2
100
AcDbLine
 10
343.8999326049004
 20
172.7592310951401
 30
0.0
 11
353.2658927190384
 21
232.1806097236291
 31
0.0
  0
LINE
  5
AC8A
330
1A
100
AcDbEntity
  8
NOKITOI
 48
0.2
100
AcDbLine
 10
351.6854049844758
 20
232.4297252006587
 30
0.0
 11
342.3957076073409
 21
173.4921877283895
 31
0.0
  0
LINE
  5
AC8B
330
1A
100
AcDbEntity
  8
CENTER_L
 48
0.3
100
AcDbLine
 10
293.7658938001323
 20
159.3634587153005
 30
0.0
 11
293.7658938001323
 21
176.0580616506228
 31
0.0
  0
ARC
  5
AC8C
330
1A
100
AcDbEntity
  8
NOKITOI
 48
0.2
100
AcDbCircle
 10
338.9609084343908
 20
173.5377169608581
 30
0.0
 40
4.799999999999973
100
AcDbArc
 50
272.6033918042164
 51
351.0427677630336
  0
ARC
  5
AC8D
330
1A
100
AcDbEntity
  8
NOKITOI
 48
0.2
100
AcDbCircle
 10
338.4444882709333
 20
174.1149764209639
 30
0.0
 40
4.000000000000015
100
AcDbArc
 50
272.5751779642489
 51
351.0427677630336
  0
ARC
  5
AC8E
330
1A
100
AcDbEntity
  8
NOKITOI
 48
0.2
100
AcDbCircle
 10
338.9609084343908
 20
173.5377169608581
 30
0.0
 40
4.999999999999973
100
AcDbArc
 50
272.6033918042164
 51
351.0427677630336
  0
LINE
  5
AC8F
330
1A
100
AcDbEntity
  8
NOKITOI
 48
0.2
100
AcDbLine
 10
353.3658938001321
 20
236.0107601829617
 30
0.0
 11
353.3658938001326
 21
247.5107601829617
 31
0.0
  0
LINE
  5
AC90
330
1A
100
AcDbEntity
  8
NOKITOI
 48
0.2
100
AcDbLine
 10
346.5951153076639
 20
250.9107601829618
 30
0.0
 11
340.6801153076639
 21
234.0107601829624
 31
0.0
  0
LINE
  5
AC91
330
1A
100
AcDbEntity
  8
NOKITOI
 48
0.2
100
AcDbLine
 10
351.9658938001327
 20
238.0490121156004
 30
0.0
 11
351.9658938001327
 21
247.5107601829617
 31
0.0
  0
LINE
  5
AC92
330
1A
100
AcDbEntity
  8
NOKITOI
 48
0.2
100
AcDbLine
 10
353.5658938001322
 20
236.0107601829617
 30
0.0
 11
353.5658938001327
 21
247.5107601829617
 31
0.0
  0
LINE
  5
AC93
330
1A
100
AcDbEntity
  8
NOKITOI
 48
0.2
100
AcDbLine
 10
345.3315164487873
 20
251.8411106076898
 30
0.0
 11
338.5658938001327
 21
232.5107601829624
 31
0.0
  0
LINE
  5
AC94
330
1A
100
AcDbEntity
  8
NOKITOI
 48
0.2
100
AcDbLine
 10
338.5658938001327
 20
232.5107601829624
 30
0.0
 11
346.5658938001327
 21
232.5107601829624
 31
0.0
  0
LINE
  5
AC95
330
1A
100
AcDbEntity
  8
NOKITOI
 48
0.2
100
AcDbLine
 10
346.4099328121406
 20
236.7862937092386
 30
0.0
 11
351.9658938001327
 21
238.0490121156004
 31
0.0
  0
LINE
  5
AC96
330
1A
100
AcDbEntity
  8
NOKITOI
 48
0.2
100
AcDbLine
 10
345.4847549700484
 20
234.0107601829624
 30
0.0
 11
346.4099328121406
 21
236.7862937092386
 31
0.0
  0
LINE
  5
AC97
330
1A
100
AcDbEntity
  8
NOKITOI
 48
0.2
100
AcDbLine
 10
340.6801153076639
 20
234.0107601829624
 30
0.0
 11
345.4847549700484
 21
234.0107601829624
 31
0.0
  0
LINE
  5
AC98
330
1A
100
AcDbEntity
  8
NOKITOI
 48
0.2
100
AcDbLine
 10
347.5658938001326
 20
235.5107601829624
 30
0.0
 11
351.9658938001327
 21
236.5107601829624
 31
0.0
  0
LINE
  5
AC99
330
1A
100
AcDbEntity
  8
NOKITOI
 48
0.2
100
AcDbLine
 10
346.5658938001327
 20
232.5107601829624
 30
0.0
 11
347.5658938001326
 21
235.5107601829624
 31
0.0
  0
ARC
  5
AC9A
330
1A
100
AcDbEntity
  8
NOKITOI
 48
0.2
100
AcDbCircle
 10
328.9658938001319
 20
236.0107601829617
 30
0.0
 40
24.40000000000039
100
AcDbArc
 50
351.0427677630336
 51
0.0
  0
ARC
  5
AC9B
330
1A
100
AcDbEntity
  8
NOKITOI
 48
0.2
100
AcDbCircle
 10
328.9658938001319
 20
236.0107601829617
 30
0.0
 40
24.60000000000039
100
AcDbArc
 50
351.0427677630336
 51
0.0
  0
ARC
  5
AC9C
330
1A
100
AcDbEntity
  8
NOKITOI
 48
0.2
100
AcDbCircle
 10
328.9658938001319
 20
236.0107601829617
 30
0.0
 40
23.00000000000073
100
AcDbArc
 50
351.0427677630336
 51
0.0
  0
LINE
  5
AC9D
330
1A
100
AcDbEntity
  8
NOKITOI
 48
0.2
100
AcDbLine
 10
351.9658938001327
 20
236.5107601829624
 30
0.0
 11
351.9658938001325
 21
236.0107601829617
 31
0.0
  0
LINE
  5
AC9E
330
1A
100
AcDbEntity
  8
NOKITOI
 48
0.2
100
AcDbLine
 10
348.5658938001327
 20
252.3107601829617
 30
0.0
 11
346.2753748051534
 21
252.3107601829617
 31
0.0
  0
LINE
  5
AC9F
330
1A
100
AcDbEntity
  8
NOKITOI
 48
0.2
100
AcDbLine
 10
348.5658938001327
 20
252.5107601829617
 30
0.0
 11
346.2753748051534
 21
252.5107601829617
 31
0.0
  0
ARC
  5
ACA0
330
1A
100
AcDbEntity
  8
NOKITOI
 48
0.2
100
AcDbCircle
 10
346.1900869367589
 20
251.2988993872578
 30
0.0
 40
1.015448812288253
100
AcDbArc
 50
85.18203328732573
 51
147.7264463795293
  0
ARC
  5
ACA1
330
1A
100
AcDbEntity
  8
NOKITOI
 48
0.2
100
AcDbCircle
 10
346.2753748051534
 20
251.5107601829617
 30
0.0
 40
1.000000000000013
100
AcDbArc
 50
90.0
 51
160.7099537808137
  0
LINE
  5
ACA2
330
1A
100
AcDbEntity
  8
NOKITOI
 48
0.2
100
AcDbLine
 10
348.5658938001327
 20
250.9107601829618
 30
0.0
 11
346.5951153076639
 21
250.9107601829618
 31
0.0
  0
ARC
  5
ACA3
330
1A
100
AcDbEntity
  8
NOKITOI
 48
0.2
100
AcDbCircle
 10
348.5658938001327
 20
247.5107601829617
 30
0.0
 40
4.800000000000028
100
AcDbArc
 50
0.0
 51
90.0
  0
ARC
  5
ACA4
330
1A
100
AcDbEntity
  8
NOKITOI
 48
0.2
100
AcDbCircle
 10
348.5658938001327
 20
247.5107601829617
 30
0.0
 40
3.400000000000034
100
AcDbArc
 50
0.0
 51
90.0
  0
ARC
  5
ACA5
330
1A
100
AcDbEntity
  8
NOKITOI
 48
0.2
100
AcDbCircle
 10
348.5658938001327
 20
247.5107601829617
 30
0.0
 40
5.000000000000028
100
AcDbArc
 50
0.0
 51
90.0
  0
LINE
  5
CC7D
330
1A
100
AcDbEntity
  8
止め具
100
AcDbLine
 10
533.6516706916643
 20
253.2922398113269
 30
0.0
 11
533.6516706916643
 21
273.726992227077
 31
0.0
  0
LINE
  5
CC83
330
1A
100
AcDbEntity
  8
止め具
100
AcDbLine
 10
523.0676065780714
 20
273.726992227077
 30
0.0
 11
523.0676065780714
 21
265.4520014653799
 31
0.0
  0
LINE
  5
CC94
330
1A
100
AcDbEntity
  8
止め具
100
AcDbLine
 10
539.8845503396603
 20
273.6947904721862
 30
0.0
 11
539.8845503396585
 21
221.3982969997564
 31
0.0
  0
LINE
  5
CC95
330
1A
100
AcDbEntity
  8
止め具
100
AcDbLine
 10
548.6951842459181
 20
221.3982969997632
 30
0.0
 11
548.6951842459181
 21
273.6947904721862
 31
0.0
  0
ARC
  5
CCB0
330
1A
100
AcDbEntity
  8
止め具
100
AcDbCircle
 10
515.2898672927892
 20
270.7596160192019
 30
0.0
 40
2.362515129828146
100
AcDbArc
 50
321.0358662985946
 51
218.9641337014053
  0
ARC
  5
CCB1
330
1A
100
AcDbEntity
  8
止め具
100
AcDbCircle
 10
517.2898672927892
 20
269.7596160192019
 30
0.0
 40
10.0
100
AcDbArc
 50
90.0
 51
180.0
  0
ARC
  5
CCB2
330
1A
100
AcDbEntity
  8
止め具
100
AcDbCircle
 10
517.2898672927892
 20
254.759616019202
 30
0.0
 40
10.00000000000002
100
AcDbArc
 50
180.0
 51
261.2470709230899
  0
LINE
  5
CDF9
330
1A
100
AcDbEntity
  8
止め具
100
AcDbLine
 10
529.9280638939142
 20
232.0274801758634
 30
0.0
 11
529.9280638939142
 21
213.5567452654329
 31
0.0
  0
LINE
  5
CDFA
330
1A
100
AcDbEntity
  8
止め具
100
AcDbLine
 10
533.3660324220033
 20
210.0678387371294
 30
0.0
 11
533.3660324220033
 21
246.726992227077
 31
0.0
  0
LINE
  5
CE01
330
1A
100
AcDbEntity
  8
止め具
100
AcDbLine
 10
526.7898672927892
 20
232.0274801758634
 30
0.0
 11
526.7898672927892
 21
213.5567452654329
 31
0.0
  0
LINE
  5
CE03
330
1A
100
AcDbEntity
  8
止め具
100
AcDbLine
 10
533.6604316099635
 20
206.3166811384657
 30
0.0
 11
544.2898672927892
 21
205.7596160192019
 31
0.0
  0
ARC
  5
CE0E
330
1A
100
AcDbEntity
  8
止め具
100
AcDbCircle
 10
534.0398672927892
 20
213.5567452654329
 30
0.0
 40
4.111803398880607
100
AcDbArc
 50
180.0
 51
252.1868533247097
  0
POLYLINE
  5
CE0F
330
1A
100
AcDbEntity
  8
止め具
100
AcDb2dPolyline
 66
     1
 10
0.0
 20
0.0
 30
0.0
  0
VERTEX
  5
12B07
330
CE0F
100
AcDbEntity
  8
止め具
100
AcDbVertex
100
AcDb2dVertex
 10
532.7820100314617
 20
209.6420649079634
 30
0.0
  0
VERTEX
  5
12B08
330
CE0F
100
AcDbEntity
  8
止め具
100
AcDbVertex
100
AcDb2dVertex
 10
532.9774109561729
 20
209.5773778873247
 30
0.0
  0
VERTEX
  5
12B09
330
CE0F
100
AcDbEntity
  8
止め具
100
AcDbVertex
100
AcDb2dVertex
 10
533.0892017285621
 20
209.5733531228872
 30
0.0
  0
VERTEX
  5
12B0A
330
CE0F
100
AcDbEntity
  8
止め具
100
AcDbVertex
100
AcDb2dVertex
 10
533.1618592478987
 20
209.5882900624578
 30
0.0
  0
VERTEX
  5
12B0B
330
CE0F
100
AcDbEntity
  8
止め具
100
AcDbVertex
100
AcDb2dVertex
 10
533.2433444147716
 20
209.629803445749
 30
0.0
  0
VERTEX
  5
12B0C
330
CE0F
100
AcDbEntity
  8
止め具
100
AcDbVertex
100
AcDb2dVertex
 10
533.284844299116
 20
209.6672389252426
 30
0.0
  0
VERTEX
  5
12B0D
330
CE0F
100
AcDbEntity
  8
止め具
100
AcDbVertex
100
AcDb2dVertex
 10
533.3421428256695
 20
209.7588022963777
 30
0.0
  0
VERTEX
  5
12B0E
330
CE0F
100
AcDbEntity
  8
止め具
100
AcDbVertex
100
AcDb2dVertex
 10
533.3519494361678
 20
209.7850113564245
 30
0.0
  0
VERTEX
  5
12B0F
330
CE0F
100
AcDbEntity
  8
止め具
100
AcDbVertex
100
AcDb2dVertex
 10
533.3759038756158
 20
209.9397082703949
 30
0.0
  0
VERTEX
  5
12B10
330
CE0F
100
AcDbEntity
  8
止め具
100
AcDbVertex
100
AcDb2dVertex
 10
533.3660324220033
 20
210.0678387371297
 30
0.0
  0
SEQEND
  5
12B11
330
CE0F
100
AcDbEntity
  8
止め具
  0
ARC
  5
CE14
330
1A
100
AcDbEntity
  8
止め具
100
AcDbCircle
 10
534.0398672927892
 20
213.5567452654329
 30
0.0
 40
7.250000000000001
100
AcDbArc
 50
180.0
 51
266.9999999994725
  0
CIRCLE
  5
CE1F
330
1A
100
AcDbEntity
  8
止め具
100
AcDbCircle
 10
544.2898672927965
 20
213.0096160192058
 30
0.0
 40
2.379975514573743
  0
LINE
  5
CE28
330
1A
100
AcDbEntity
  8
止め具
100
AcDbLine
 10
544.2898672927892
 20
205.7596160192019
 30
0.0
 11
554.7928886439073
 21
206.1263896068094
 31
0.0
  0
ARC
  5
CE38
330
1A
100
AcDbEntity
  8
止め具
100
AcDbCircle
 10
540.8041309910766
 20
221.3229548521917
 30
0.0
 40
0.9226619173127364
100
AcDbArc
 50
175.3161620926805
 51
296.9529936630614
  0
ARC
  5
CE3A
330
1A
100
AcDbEntity
  8
止め具
100
AcDbCircle
 10
544.2898672927965
 20
213.0096160192058
 30
0.0
 40
8.094646086245079
100
AcDbArc
 50
67.7308442439536
 51
112.2691557561589
  0
ARC
  5
CE3D
330
1A
100
AcDbEntity
  8
止め具
100
AcDbCircle
 10
547.7755772422822
 20
221.3229941196098
 30
0.0
 40
0.9226849759799405
100
AcDbArc
 50
243.0495701972683
 51
4.681274046308
  0
LINE
  5
CE75
330
1A
100
AcDbEntity
  8
止め具
100
AcDbLine
 10
522.4343523803288
 20
246.726992227077
 30
0.0
 11
522.4343523803288
 21
246.1384484554114
 31
0.0
  0
ARC
  5
CE77
330
1A
100
AcDbEntity
  8
止め具
100
AcDbCircle
 10
523.2209510841092
 20
246.8348207142951
 30
0.0
 40
0.7939549757054679
100
AcDbArc
 50
82.19443264944814
 51
187.8055673506292
  0
ARC
  5
CE79
330
1A
100
AcDbEntity
  8
止め具
100
AcDbCircle
 10
523.2347977503357
 20
246.0885388645106
 30
0.0
 40
0.8019998488964537
100
AcDbArc
 50
176.4320967110214
 51
239.5094949498496
  0
ARC
  5
CE7B
330
1A
100
AcDbEntity
  8
止め具
100
AcDbCircle
 10
513.7898672927892
 20
232.0274801758634
 30
0.0
 40
16.13819660112503
100
AcDbArc
 50
0.0
 51
55.94159166137377
  0
LINE
  5
CE7E
330
1A
100
AcDbEntity
  8
止め具
100
AcDbLine
 10
532.4716052310029
 20
247.621419418077
 30
0.0
 11
523.3287795713274
 21
247.621419418077
 31
0.0
  0
ARC
  5
CE80
330
1A
100
AcDbEntity
  8
止め具
100
AcDbCircle
 10
532.5794337182212
 20
246.8348207142955
 30
0.0
 40
0.7939549757049261
100
AcDbArc
 50
352.1944326493319
 51
97.80556735065712
  0
ARC
  5
CE82
330
1A
100
AcDbEntity
  8
止め具
100
AcDbCircle
 10
532.8650719878821
 20
253.184411324109
 30
0.0
 40
0.7939549757059011
100
AcDbArc
 50
262.1944326494481
 51
7.80556735061633
  0
LINE
  5
CEDF
330
1A
100
AcDbEntity
  8
止め具
100
AcDbLine
 10
514.4280638939142
 20
258.4576918590237
 30
0.0
 11
514.4280638939142
 21
253.2922398113269
 31
0.0
  0
ARC
  5
CEE3
330
1A
100
AcDbEntity
  8
止め具
100
AcDbCircle
 10
515.2146625976963
 20
253.184411324109
 30
0.0
 40
0.793954975705271
100
AcDbArc
 50
172.1944326493578
 51
277.8055673506571
  0
ARC
  5
CEF1
330
1A
100
AcDbEntity
  8
止め具
100
AcDbCircle
 10
515.208198966671
 20
258.5768162445688
 30
0.0
 40
0.78917764221777
100
AcDbArc
 50
78.94618660058675
 51
188.681839066047
  0
LINE
  5
CEF5
330
1A
100
AcDbEntity
  8
止め具
100
AcDbLine
 10
507.2898672927892
 20
254.759616019202
 30
0.0
 11
507.2898672927892
 21
269.7596160192019
 31
0.0
  0
LINE
  5
CEF9
330
1A
100
AcDbEntity
  8
止め具
100
AcDbLine
 10
515.3224910849146
 20
252.3978126203269
 30
0.0
 11
532.7572435006638
 21
252.3978126203269
 31
0.0
  0
ARC
  5
CEFB
330
1A
100
AcDbEntity
  8
止め具
100
AcDbCircle
 10
513.7898672927892
 20
232.0274801758634
 30
0.0
 40
13.0
100
AcDbArc
 50
0.0
 51
81.24707092308995
  0
ARC
  5
CEFF
330
1A
100
AcDbEntity
  8
止め具
100
AcDbCircle
 10
515.6712532343024
 20
266.8773369846217
 30
0.0
 40
7.532438126415431
100
AcDbArc
 50
267.6280256667169
 51
349.0923636471401
  0
ARC
  5
CF02
330
1A
100
AcDbEntity
  8
止め具
100
AcDbCircle
 10
515.2898672927892
 20
266.2800963541815
 30
0.0
 40
3.512515129828058
100
AcDbArc
 50
121.5318647333874
 51
58.46813526650421
  0
LINE
  5
CF84
330
1A
100
AcDbEntity
  8
止め具
100
AcDbLine
 10
571.2898672927892
 20
279.759616019202
 30
0.0
 11
517.2898672927892
 21
279.759616019202
 31
0.0
  0
LINE
  5
CF85
330
1A
100
AcDbEntity
  8
止め具
100
AcDbLine
 10
531.4398672927889
 20
282.0932144984933
 30
0.0
 11
557.1398672927896
 21
282.0932144984933
 31
0.0
  0
ARC
  5
CF98
330
1A
100
AcDbEntity
  8
止め具
100
AcDbCircle
 10
523.8542052818518
 20
273.8348207142962
 30
0.0
 40
0.7939549757043613
100
AcDbArc
 50
82.19443264934289
 51
187.8055673507197
  0
LINE
  5
CF9A
330
1A
100
AcDbEntity
  8
止め具
100
AcDbLine
 10
532.7572435006638
 20
274.621419418077
 30
0.0
 11
523.9620337690701
 21
274.621419418077
 31
0.0
  0
ARC
  5
CF9C
330
1A
100
AcDbEntity
  8
止め具
100
AcDbCircle
 10
532.8650719878821
 20
273.8348207142953
 30
0.0
 40
0.7939549757052764
100
AcDbArc
 50
352.1944326493578
 51
97.80556735065712
  0
ARC
  5
CFBE
330
1A
100
AcDbEntity
  8
止め具
100
AcDbCircle
 10
540.8111262269374
 20
273.7383570850543
 30
0.0
 40
0.9275995497197722
100
AcDbArc
 50
87.30799601922546
 51
182.6920039807746
  0
ARC
  5
CFC2
330
1A
100
AcDbEntity
  8
止め具
100
AcDbCircle
 10
547.7686083586411
 20
273.7383570850545
 30
0.0
 40
0.9275995497197438
100
AcDbArc
 50
357.3079960192254
 51
92.69200398077453
  0
ARC
  5
CFCF
330
1A
100
AcDbEntity
  8
止め具
100
AcDbCircle
 10
531.4398672927889
 20
278.0932144984926
 30
0.0
 40
4.00000000000092
100
AcDbArc
 50
90.0
 51
155.3798594527963
  0
LINE
  5
D972
330
1A
100
AcDbEntity
  8
止め具
100
AcDbLine
 10
376.8876749489706
 20
471.7805275713795
 30
0.0
 11
376.8876749489706
 21
397.7805275713794
 31
0.0
  0
LINE
  5
D973
330
1A
100
AcDbEntity
  8
止め具
100
AcDbLine
 10
368.8876749489689
 20
399.7805275713794
 30
0.0
 11
368.8876749489689
 21
415.5305275713795
 31
0.0
  0
ARC
  5
D9E0
330
1A
100
AcDbEntity
  8
止め具
100
AcDbCircle
 10
327.5327359993705
 20
242.2596160192022
 30
0.0
 40
14.99999999999992
100
AcDbArc
 50
90.0
 51
133.4088597287702
  0
LINE
  5
D9E5
330
1A
100
AcDbEntity
  8
止め具
100
AcDbLine
 10
312.9562990805395
 20
275.1005217774459
 30
0.0
 11
349.4650872414319
 21
278.141710771152
 31
0.0
  0
ARC
  5
D9EF
330
1A
100
AcDbEntity
  8
止め具
100
AcDbCircle
 10
304.2434066776702
 20
247.7596160192022
 30
0.0
 40
5.000000000016228
100
AcDbArc
 50
270.0
 51
313.4088597287523
  0
LINE
  5
D9F5
330
1A
100
AcDbEntity
  8
止め具
100
AcDbLine
 10
277.8876749489707
 20
246.7596160192022
 30
0.0
 11
281.8876749489707
 21
242.7596160192022
 31
0.0
  0
LINE
  5
D9F6
330
1A
100
AcDbEntity
  8
ﾋ_ｽ_ﾅｯﾄ
100
AcDbLine
 10
283.5455795611512
 20
226.159616019202
 30
0.0
 11
292.5370135553882
 21
226.159616019202
 31
0.0
  0
LINE
  5
D9F7
330
1A
100
AcDbEntity
  8
ﾋ_ｽ_ﾅｯﾄ
100
AcDbLine
 10
285.0441518935229
 20
223.159616019202
 30
0.0
 11
291.0384412230148
 21
223.159616019202
 31
0.0
  0
LINE
  5
D9F8
330
1A
100
AcDbEntity
  8
ﾋ_ｽ_ﾅｯﾄ
100
AcDbLine
 10
282.5412965582697
 20
227.159616019202
 30
0.0
 11
293.5412965582697
 21
227.159616019202
 31
0.0
  0
LINE
  5
D9F9
330
1A
100
AcDbEntity
  8
ﾋ_ｽ_ﾅｯﾄ
100
AcDbLine
 10
282.5412965582697
 20
228.659616019202
 30
0.0
 11
293.5412965582697
 21
228.659616019202
 31
0.0
  0
LINE
  5
D9FA
330
1A
100
AcDbEntity
  8
ﾋ_ｽ_ﾅｯﾄ
100
AcDbLine
 10
285.4212965582689
 20
219.5996160192021
 30
0.0
 11
290.6612965582687
 21
219.5996160192021
 31
0.0
  0
LINE
  5
D9FB
330
1A
100
AcDbEntity
  8
止め具
100
AcDbLine
 10
281.8876749489707
 20
242.7596160192022
 30
0.0
 11
304.2434066776702
 21
242.759616019186
 31
0.0
  0
LINE
  5
D9FC
330
1A
100
AcDbEntity
  8
ﾋ_ｽ_ﾅｯﾄ
100
AcDbLine
 10
283.2991623095829
 20
217.0463339855353
 30
0.0
 11
284.9406392410644
 21
222.7969765832353
 31
0.0
  0
LINE
  5
D9FD
330
1A
100
AcDbEntity
  8
ﾋ_ｽ_ﾅｯﾄ
100
AcDbLine
 10
282.8188579145741
 20
217.1836945495294
 30
0.0
 11
284.4570871693692
 21
222.9229594495295
 31
0.0
  0
LINE
  5
D9FE
330
1A
100
AcDbEntity
  8
ﾋ_ｽ_ﾅｯﾄ
100
AcDbLine
 10
284.4549019354078
 20
222.9229594495295
 30
0.0
 11
282.8156738789773
 21
217.1836945495294
 31
0.0
  0
LINE
  5
D9FF
330
1A
100
AcDbEntity
  8
ﾋ_ｽ_ﾅｯﾄ
100
AcDbLine
 10
285.4212965582689
 20
223.159616019202
 30
0.0
 11
285.4212965582689
 21
219.5996160192021
 31
0.0
  0
ARC
  5
DA00
330
1A
100
AcDbEntity
  8
ﾋ_ｽ_ﾅｯﾄ
100
AcDbCircle
 10
297.6521080803292
 20
211.9790947939595
 30
0.0
 40
19.50232128299807
100
AcDbArc
 50
139.0745325931186
 51
155.7936823541172
  0
ARC
  5
DA01
330
1A
100
AcDbEntity
  8
ﾋ_ｽ_ﾅｯﾄ
100
AcDbCircle
 10
297.6392095988346
 20
211.9733956663369
 30
0.0
 40
19.99999999998523
100
AcDbArc
 50
134.8211145526307
 51
155.7722546814999
  0
ARC
  5
DA02
330
1A
100
AcDbEntity
  8
ﾋ_ｽ_ﾅｯﾄ
100
AcDbCircle
 10
297.6509620497606
 20
211.980247949288
 30
0.0
 40
20.00040734615422
100
AcDbArc
 50
134.8501294230891
 51
155.7943038096235
  0
LINE
  5
DA03
330
1A
100
AcDbEntity
  8
ﾋ_ｽ_ﾅｯﾄ
100
AcDbLine
 10
279.2722422269696
 20
216.9134268855023
 30
0.0
 11
282.1370044658312
 21
216.3404744377112
 31
0.0
  0
LINE
  5
DA04
330
1A
100
AcDbEntity
  8
ﾋ_ｽ_ﾅｯﾄ
100
AcDbLine
 10
279.2805884236301
 20
216.9134268855023
 30
0.0
 11
282.1426240436201
 21
216.3404744377112
 31
0.0
  0
LINE
  5
DA05
330
1A
100
AcDbEntity
  8
ﾋ_ｽ_ﾅｯﾄ
100
AcDbLine
 10
279.3785531616783
 20
217.4037172233138
 30
0.0
 11
282.2405887817065
 21
216.8307647756137
 31
0.0
  0
LINE
  5
DA06
330
1A
100
AcDbEntity
  8
ﾋ_ｽ_ﾅｯﾄ
100
AcDbLine
 10
279.8645301320709
 20
219.9755068743838
 30
0.0
 11
279.0209911206718
 21
218.0991898998836
 31
0.0
  0
ARC
  5
DA07
330
1A
100
AcDbEntity
  8
ﾋ_ｽ_ﾅｯﾄ
100
AcDbCircle
 10
279.4770114778736
 20
217.8939900931065
 30
0.0
 40
0.5000615230974327
100
AcDbArc
 50
155.7732320369377
 51
258.6447060944808
  0
LINE
  5
DA08
330
1A
100
AcDbEntity
  8
ﾋ_ｽ_ﾅｯﾄ
100
AcDbLine
 10
278.5654643416862
 20
218.3043722384788
 30
0.0
 11
278.5564368569237
 21
218.3043722384788
 31
0.0
  0
LINE
  5
DA09
330
1A
100
AcDbEntity
  8
ﾋ_ｽ_ﾅｯﾄ
100
AcDbLine
 10
279.2805884236301
 20
216.9134268855023
 30
0.0
 11
279.2722422269696
 21
216.9134268855023
 31
0.0
  0
LINE
  5
DA0A
330
1A
100
AcDbEntity
  8
ﾋ_ｽ_ﾅｯﾄ
100
AcDbLine
 10
279.4007794954239
 20
220.1806892130789
 30
0.0
 11
278.5564368569237
 21
218.3043722384788
 31
0.0
  0
LINE
  5
DA0B
330
1A
100
AcDbEntity
  8
ﾋ_ｽ_ﾅｯﾄ
100
AcDbLine
 10
279.4090033530853
 20
220.1806892130789
 30
0.0
 11
278.5654643416862
 21
218.3043722384788
 31
0.0
  0
LINE
  5
DA0C
330
1A
100
AcDbEntity
  8
ﾋ_ｽ_ﾅｯﾄ
100
AcDbLine
 10
279.4090033530853
 20
220.1806892130789
 30
0.0
 11
279.4007794954239
 21
220.1806892130789
 31
0.0
  0
ARC
  5
DA0D
330
1A
100
AcDbEntity
  8
ﾋ_ｽ_ﾅｯﾄ
100
AcDbCircle
 10
279.4683583620614
 20
217.8940075611622
 30
0.0
 40
0.9999999999608172
100
AcDbArc
 50
155.7722546818039
 51
258.6900675282608
  0
ARC
  5
DA0E
330
1A
100
AcDbEntity
  8
ﾋ_ｽ_ﾅｯﾄ
100
AcDbCircle
 10
279.47750505613
 20
217.8939726250512
 30
0.0
 40
1.000123046181473
100
AcDbArc
 50
155.7732320445632
 51
258.6447060876774
  0
LINE
  5
DA0F
330
1A
100
AcDbEntity
  8
ﾋ_ｽ_ﾅｯﾄ
100
AcDbLine
 10
282.8188579145741
 20
217.1836945495294
 30
0.0
 11
282.8156738789773
 21
217.1836945495294
 31
0.0
  0
ARC
  5
DA10
330
1A
100
AcDbEntity
  8
ﾋ_ｽ_ﾅｯﾄ
100
AcDbCircle
 10
282.333120600974
 20
217.3210551134261
 30
0.0
 40
1.000000000024358
100
AcDbArc
 50
258.6900675260288
 51
270.0
  0
LINE
  5
DA11
330
1A
100
AcDbEntity
  8
ﾋ_ｽ_ﾅｯﾄ
100
AcDbLine
 10
282.333120600974
 20
216.3210551134018
 30
0.0
 11
282.3385535196564
 21
216.3210551134018
 31
0.0
  0
LINE
  5
DA12
330
1A
100
AcDbEntity
  8
ﾋ_ｽ_ﾅｯﾄ
100
AcDbLine
 10
282.3350766503106
 20
216.8210551134716
 30
0.0
 11
282.3385535196564
 21
216.8210551134716
 31
0.0
  0
LINE
  5
DA13
330
1A
100
AcDbEntity
  8
ﾋ_ｽ_ﾅｯﾄ
100
AcDbLine
 10
282.1426240436201
 20
216.3404744377112
 30
0.0
 11
282.1370044658312
 21
216.3404744377112
 31
0.0
  0
ARC
  5
DA14
330
1A
100
AcDbEntity
  8
ﾋ_ｽ_ﾅｯﾄ
100
AcDbCircle
 10
282.3384796305624
 20
217.3205790790946
 30
0.0
 40
0.4995004206045504
100
AcDbArc
 50
258.6981673207528
 51
344.0950163202174
  0
ARC
  5
DA15
330
1A
100
AcDbEntity
  8
ﾋ_ｽ_ﾅｯﾄ
100
AcDbCircle
 10
282.335012935832
 20
217.3209211825487
 30
0.0
 40
0.4998660731378002
100
AcDbArc
 50
270.0073030974556
 51
344.066183530516
  0
ARC
  5
DA16
330
1A
100
AcDbEntity
  8
ﾋ_ｽ_ﾅｯﾄ
100
AcDbCircle
 10
282.3384057414684
 20
217.320103044763
 30
0.0
 40
0.9990008413245144
100
AcDbArc
 50
258.6981673140572
 51
344.0950163162713
  0
LINE
  5
DA38
330
1A
100
AcDbEntity
  8
ﾋ_ｽ_ﾅｯﾄ
100
AcDbLine
 10
284.0412965582697
 20
227.159616019202
 30
0.0
 11
283.5412965582697
 21
226.159616019202
 31
0.0
  0
LINE
  5
DA3A
330
1A
100
AcDbEntity
  8
ﾋ_ｽ_ﾅｯﾄ
100
AcDbLine
 10
285.0441518935229
 20
223.159616019202
 30
0.0
 11
283.5455795611512
 21
226.159616019202
 31
0.0
  0
LINE
  5
DA3B
330
1A
100
AcDbEntity
  8
ﾋ_ｽ_ﾅｯﾄ
100
AcDbLine
 10
284.4235707774667
 20
223.2839267624751
 30
0.0
 11
283.740937125495
 21
224.6504947995754
 31
0.0
  0
LINE
  5
DA3C
330
1A
100
AcDbEntity
  8
ﾋ_ｽ_ﾅｯﾄ
100
AcDbLine
 10
283.7383152665413
 20
224.6504947995754
 30
0.0
 11
284.4213651091092
 21
223.2839267624751
 31
0.0
  0
LINE
  5
DA3D
330
1A
100
AcDbEntity
  8
ﾋ_ｽ_ﾅｯﾄ
100
AcDbLine
 10
283.740937125495
 20
224.6504947995754
 30
0.0
 11
283.7383152665413
 21
224.6504947995754
 31
0.0
  0
LINE
  5
DA3E
330
1A
100
AcDbEntity
  8
ﾋ_ｽ_ﾅｯﾄ
100
AcDbLine
 10
284.4235707774667
 20
223.2839267624751
 30
0.0
 11
284.4213651091092
 21
223.2839267624751
 31
0.0
  0
LINE
  5
DA40
330
1A
100
AcDbEntity
  8
ﾋ_ｽ_ﾅｯﾄ
100
AcDbLine
 10
282.5412965582697
 20
228.659616019202
 30
0.0
 11
282.5412965582697
 21
227.159616019202
 31
0.0
  0
LINE
  5
DA41
330
1A
100
AcDbEntity
  8
ﾋ_ｽ_ﾅｯﾄ
100
AcDbLine
 10
283.2941492088382
 20
224.9268879405751
 30
0.0
 11
283.2912549505861
 21
224.9268879405751
 31
0.0
  0
LINE
  5
DA42
330
1A
100
AcDbEntity
  8
ﾋ_ｽ_ﾅｯﾄ
100
AcDbLine
 10
283.2941492088382
 20
224.9268879405751
 30
0.0
 11
283.2912549505861
 21
224.9268879405751
 31
0.0
  0
ARC
  5
DA43
330
1A
100
AcDbEntity
  8
ﾋ_ｽ_ﾅｯﾄ
100
AcDbCircle
 10
283.294169284966
 20
224.4275713311765
 30
0.0
 40
0.499295880308475
100
AcDbArc
 50
26.51779115406758
 51
139.0801543405679
  0
ARC
  5
DA44
330
1A
100
AcDbEntity
  8
ﾋ_ｽ_ﾅｯﾄ
100
AcDbCircle
 10
283.2912244154984
 20
224.4270864702027
 30
0.0
 40
0.4998014713052652
100
AcDbArc
 50
26.55099408938626
 51
89.99649954691209
  0
LINE
  5
DA45
330
1A
100
AcDbEntity
  8
ﾋ_ｽ_ﾅｯﾄ
100
AcDbLine
 10
284.4570871693692
 20
222.9229594495295
 30
0.0
 11
284.4549019354078
 21
222.9229594495295
 31
0.0
  0
ARC
  5
DA46
330
1A
100
AcDbEntity
  8
ﾋ_ｽ_ﾅｯﾄ
100
AcDbCircle
 10
285.4210964853289
 20
222.6600199124577
 30
0.0
 40
0.4995961301261877
100
AcDbArc
 50
90.01752940313513
 51
164.0895411855076
  0
ARC
  5
DA47
330
1A
100
AcDbEntity
  8
ﾋ_ｽ_ﾅｯﾄ
100
AcDbCircle
 10
283.9758803373722
 20
223.0603183078674
 30
0.0
 40
0.5004272885494924
100
AcDbArc
 50
344.0687843663401
 51
26.54080490550041
  0
ARC
  5
DA48
330
1A
100
AcDbEntity
  8
ﾋ_ｽ_ﾅｯﾄ
100
AcDbCircle
 10
283.9739799027436
 20
223.0603194248396
 30
0.0
 40
0.5001537406822703
100
AcDbArc
 50
344.0597061559866
 51
26.55631467292161
  0
LINE
  5
DA4B
330
1A
100
AcDbEntity
  8
ﾋ_ｽ_ﾅｯﾄ
100
AcDbLine
 10
291.6255059471702
 20
222.9229594495295
 30
0.0
 11
293.2637352019635
 21
217.1836945495294
 31
0.0
  0
LINE
  5
DA4C
330
1A
100
AcDbEntity
  8
ﾋ_ｽ_ﾅｯﾄ
100
AcDbLine
 10
291.1419538754732
 20
222.7969765832353
 30
0.0
 11
292.7834308069548
 21
217.0463339855353
 31
0.0
  0
LINE
  5
DA4D
330
1A
100
AcDbEntity
  8
ﾋ_ｽ_ﾅｯﾄ
100
AcDbLine
 10
291.6276911811298
 20
222.9229594495295
 30
0.0
 11
293.2669192375622
 21
217.1836945495294
 31
0.0
  0
LINE
  5
DA4E
330
1A
100
AcDbEntity
  8
ﾋ_ｽ_ﾅｯﾄ
100
AcDbLine
 10
290.6612965582687
 20
219.5996160192021
 30
0.0
 11
290.6612965582687
 21
223.159616019202
 31
0.0
  0
ARC
  5
DA4F
330
1A
100
AcDbEntity
  8
ﾋ_ｽ_ﾅｯﾄ
100
AcDbCircle
 10
278.4304850362139
 20
211.9790947939632
 30
0.0
 40
19.50232128299258
100
AcDbArc
 50
24.20631764588275
 51
40.92546740688137
  0
ARC
  5
DA50
330
1A
100
AcDbEntity
  8
ﾋ_ｽ_ﾅｯﾄ
100
AcDbCircle
 10
278.443383517703
 20
211.9733956663369
 30
0.0
 40
19.99999999998523
100
AcDbArc
 50
24.22774531850006
 51
45.17888544736928
  0
ARC
  5
DA51
330
1A
100
AcDbEntity
  8
ﾋ_ｽ_ﾅｯﾄ
100
AcDbCircle
 10
278.4316310667788
 20
211.9802479492891
 30
0.0
 40
20.00040734615296
100
AcDbArc
 50
24.20569619037572
 51
45.14987057691085
  0
ARC
  5
DA52
330
1A
100
AcDbEntity
  8
ﾋ_ｽ_ﾅｯﾄ
100
AcDbCircle
 10
296.614234754478
 20
217.8940075611622
 30
0.0
 40
0.9999999999605526
100
AcDbArc
 50
281.3099324717391
 51
24.22774531823112
  0
ARC
  5
DA53
330
1A
100
AcDbEntity
  8
ﾋ_ｽ_ﾅｯﾄ
100
AcDbCircle
 10
296.6050880604095
 20
217.893972625051
 30
0.0
 40
1.000123046180856
100
AcDbArc
 50
281.3552939123225
 51
24.2267679554923
  0
LINE
  5
DA54
330
1A
100
AcDbEntity
  8
ﾋ_ｽ_ﾅｯﾄ
100
AcDbLine
 10
293.9455886507064
 20
216.3404744377112
 30
0.0
 11
296.8103508895699
 21
216.9134268855023
 31
0.0
  0
ARC
  5
DA55
330
1A
100
AcDbEntity
  8
ﾋ_ｽ_ﾅｯﾄ
100
AcDbCircle
 10
293.7494725155636
 20
217.3210551134261
 30
0.0
 40
1.000000000024358
100
AcDbArc
 50
270.0
 51
281.3099324739711
  0
LINE
  5
DA56
330
1A
100
AcDbEntity
  8
ﾋ_ｽ_ﾅｯﾄ
100
AcDbLine
 10
293.7440395968812
 20
216.3210551134018
 30
0.0
 11
293.7494725155636
 21
216.3210551134018
 31
0.0
  0
LINE
  5
DA57
330
1A
100
AcDbEntity
  8
ﾋ_ｽ_ﾅｯﾄ
100
AcDbLine
 10
293.7440395968812
 20
216.8210551134716
 30
0.0
 11
293.7475164662289
 21
216.8210551134716
 31
0.0
  0
ARC
  5
DA58
330
1A
100
AcDbEntity
  8
ﾋ_ｽ_ﾅｯﾄ
100
AcDbCircle
 10
293.7441134859771
 20
217.3205790790948
 30
0.0
 40
0.4995004206048386
100
AcDbArc
 50
195.9049836798339
 51
281.3018326791407
  0
LINE
  5
DA59
330
1A
100
AcDbEntity
  8
ﾋ_ｽ_ﾅｯﾄ
100
AcDbLine
 10
293.8420043348312
 20
216.8307647756137
 30
0.0
 11
296.7040399548593
 21
217.4037172233138
 31
0.0
  0
ARC
  5
DA5A
330
1A
100
AcDbEntity
  8
ﾋ_ｽ_ﾅｯﾄ
100
AcDbCircle
 10
296.6055816386658
 20
217.8939900931065
 30
0.0
 40
0.5000615230975674
100
AcDbArc
 50
281.3552939055191
 51
24.2267679630623
  0
LINE
  5
DA5B
330
1A
100
AcDbEntity
  8
ﾋ_ｽ_ﾅｯﾄ
100
AcDbLine
 10
297.0616019958658
 20
218.0991898998836
 30
0.0
 11
296.2180629844667
 21
219.9755068743838
 31
0.0
  0
LINE
  5
DA5C
330
1A
100
AcDbEntity
  8
ﾋ_ｽ_ﾅｯﾄ
100
AcDbLine
 10
293.9399690729194
 20
216.3404744377112
 30
0.0
 11
296.8020046929093
 21
216.9134268855023
 31
0.0
  0
ARC
  5
DA5D
330
1A
100
AcDbEntity
  8
ﾋ_ｽ_ﾅｯﾄ
100
AcDbCircle
 10
293.744187375071
 20
217.3201030447635
 30
0.0
 40
0.9990008413247199
100
AcDbArc
 50
195.9049836837532
 51
281.3018326859427
  0
LINE
  5
DA5E
330
1A
100
AcDbEntity
  8
ﾋ_ｽ_ﾅｯﾄ
100
AcDbLine
 10
293.2669192375622
 20
217.1836945495294
 30
0.0
 11
293.2637352019635
 21
217.1836945495294
 31
0.0
  0
ARC
  5
DA5F
330
1A
100
AcDbEntity
  8
ﾋ_ｽ_ﾅｯﾄ
100
AcDbCircle
 10
293.7475801807056
 20
217.3209211825473
 30
0.0
 40
0.4998660731364045
100
AcDbArc
 50
195.9338164693953
 51
269.9926969026485
  0
LINE
  5
DA60
330
1A
100
AcDbEntity
  8
ﾋ_ｽ_ﾅｯﾄ
100
AcDbLine
 10
297.526156259614
 20
218.3043722384788
 30
0.0
 11
297.5171287748514
 21
218.3043722384788
 31
0.0
  0
LINE
  5
DA61
330
1A
100
AcDbEntity
  8
ﾋ_ｽ_ﾅｯﾄ
100
AcDbLine
 10
296.8103508895699
 20
216.9134268855023
 30
0.0
 11
296.8020046929093
 21
216.9134268855023
 31
0.0
  0
LINE
  5
DA62
330
1A
100
AcDbEntity
  8
ﾋ_ｽ_ﾅｯﾄ
100
AcDbLine
 10
293.9455886507064
 20
216.3404744377112
 30
0.0
 11
293.9399690729194
 21
216.3404744377112
 31
0.0
  0
LINE
  5
DA63
330
1A
100
AcDbEntity
  8
ﾋ_ｽ_ﾅｯﾄ
100
AcDbLine
 10
297.526156259614
 20
218.3043722384788
 30
0.0
 11
296.6818136211138
 21
220.1806892130789
 31
0.0
  0
LINE
  5
DA64
330
1A
100
AcDbEntity
  8
ﾋ_ｽ_ﾅｯﾄ
100
AcDbLine
 10
297.5171287748514
 20
218.3043722384788
 30
0.0
 11
296.6735897634523
 21
220.1806892130789
 31
0.0
  0
LINE
  5
DA65
330
1A
100
AcDbEntity
  8
ﾋ_ｽ_ﾅｯﾄ
100
AcDbLine
 10
296.6818136211138
 20
220.1806892130789
 30
0.0
 11
296.6735897634523
 21
220.1806892130789
 31
0.0
  0
LINE
  5
DA66
330
1A
100
AcDbEntity
  8
ﾋ_ｽ_ﾅｯﾄ
100
AcDbLine
 10
293.5412965582697
 20
227.159616019202
 30
0.0
 11
293.5412965582697
 21
228.659616019202
 31
0.0
  0
LINE
  5
DA67
330
1A
100
AcDbEntity
  8
ﾋ_ｽ_ﾅｯﾄ
100
AcDbLine
 10
292.5412965582697
 20
226.159616019202
 30
0.0
 11
292.0412965582698
 21
227.159616019202
 31
0.0
  0
LINE
  5
DA69
330
1A
100
AcDbEntity
  8
ﾋ_ｽ_ﾅｯﾄ
100
AcDbLine
 10
292.7913381659534
 20
224.9268879405751
 30
0.0
 11
292.7884439076994
 21
224.9268879405751
 31
0.0
  0
LINE
  5
DA6A
330
1A
100
AcDbEntity
  8
ﾋ_ｽ_ﾅｯﾄ
100
AcDbLine
 10
292.7913381659534
 20
224.9268879405751
 30
0.0
 11
292.7884439076994
 21
224.9268879405751
 31
0.0
  0
LINE
  5
DA6B
330
1A
100
AcDbEntity
  8
ﾋ_ｽ_ﾅｯﾄ
100
AcDbLine
 10
292.5370135553882
 20
226.159616019202
 30
0.0
 11
292.5412965582697
 21
226.159616019202
 31
0.0
  0
LINE
  5
DA6C
330
1A
100
AcDbEntity
  8
ﾋ_ｽ_ﾅｯﾄ
100
AcDbLine
 10
292.5370135553882
 20
226.159616019202
 30
0.0
 11
291.0384412230148
 21
223.159616019202
 31
0.0
  0
ARC
  5
DA6D
330
1A
100
AcDbEntity
  8
ﾋ_ｽ_ﾅｯﾄ
100
AcDbCircle
 10
292.7884238315716
 20
224.4275713311763
 30
0.0
 40
0.4992958803086591
100
AcDbArc
 50
40.91984565943204
 51
153.4822088459323
  0
LINE
  5
DA6E
330
1A
100
AcDbEntity
  8
ﾋ_ｽ_ﾅｯﾄ
100
AcDbLine
 10
292.3416559910445
 20
224.6504947995754
 30
0.0
 11
291.659022339071
 21
223.2839267624751
 31
0.0
  0
LINE
  5
DA6F
330
1A
100
AcDbEntity
  8
ﾋ_ｽ_ﾅｯﾄ
100
AcDbLine
 10
292.3442778499981
 20
224.6504947995754
 30
0.0
 11
291.6612280074303
 21
223.2839267624751
 31
0.0
  0
ARC
  5
DA70
330
1A
100
AcDbEntity
  8
ﾋ_ｽ_ﾅｯﾄ
100
AcDbCircle
 10
292.7913687010411
 20
224.427086470202
 30
0.0
 40
0.4998014713058553
100
AcDbArc
 50
90.00350045319214
 51
153.4490059105678
  0
LINE
  5
DA71
330
1A
100
AcDbEntity
  8
ﾋ_ｽ_ﾅｯﾄ
100
AcDbLine
 10
292.3442778499981
 20
224.6504947995754
 30
0.0
 11
292.3416559910445
 21
224.6504947995754
 31
0.0
  0
LINE
  5
DA72
330
1A
100
AcDbEntity
  8
ﾋ_ｽ_ﾅｯﾄ
100
AcDbLine
 10
291.6612280074303
 20
223.2839267624751
 30
0.0
 11
291.659022339071
 21
223.2839267624751
 31
0.0
  0
LINE
  5
DA74
330
1A
100
AcDbEntity
  8
ﾋ_ｽ_ﾅｯﾄ
100
AcDbLine
 10
291.6276911811298
 20
222.9229594495295
 30
0.0
 11
291.6255059471702
 21
222.9229594495295
 31
0.0
  0
ARC
  5
DA75
330
1A
100
AcDbEntity
  8
ﾋ_ｽ_ﾅｯﾄ
100
AcDbCircle
 10
292.1067127791654
 20
223.0603183078678
 30
0.0
 40
0.5004272885487245
100
AcDbArc
 50
153.4591950944995
 51
195.9312156337231
  0
ARC
  5
DA76
330
1A
100
AcDbEntity
  8
ﾋ_ｽ_ﾅｯﾄ
100
AcDbCircle
 10
290.6614966312088
 20
222.6600199124589
 30
0.0
 40
0.4995961301250857
100
AcDbArc
 50
15.91045881440216
 51
89.98247059696911
  0
ARC
  5
DA77
330
1A
100
AcDbEntity
  8
ﾋ_ｽ_ﾅｯﾄ
100
AcDbCircle
 10
292.1086132137977
 20
223.060319424839
 30
0.0
 40
0.5001537406853798
100
AcDbArc
 50
153.4436853271948
 51
195.9402938438598
  0
LINE
  5
DA78
330
1A
100
AcDbEntity
  8
ﾋ_ｽ_ﾅｯﾄ
100
AcDbLine
 10
282.5412965582697
 20
253.7596160192022
 30
0.0
 11
293.5412965582697
 21
253.7596160192022
 31
0.0
  0
ARC
  5
DA79
330
1A
100
AcDbEntity
  8
ﾋ_ｽ_ﾅｯﾄ
100
AcDbCircle
 10
288.0422056595841
 20
244.4296160573585
 30
0.0
 40
10.83
100
AcDbArc
 50
59.48495302149814
 51
90.0
  0
LINE
  5
DA7A
330
1A
100
AcDbEntity
  8
止め具
100
AcDbLine
 10
277.8876749489707
 20
252.7596160192022
 30
0.0
 11
294.6320269312461
 21
252.7596160192022
 31
0.0
  0
ARC
  5
DA94
330
1A
100
AcDbEntity
  8
ﾋ_ｽ_ﾅｯﾄ
100
AcDbCircle
 10
288.0403874569535
 20
244.4296160573585
 30
0.0
 40
10.83000000000014
100
AcDbArc
 50
90.0
 51
120.5150469785018
  0
LINE
  5
DA96
330
1A
100
AcDbEntity
  8
止め具
100
AcDbLine
 10
277.8876749489705
 20
252.7596160192022
 30
0.0
 11
277.8876749489707
 21
246.7596160192022
 31
0.0
  0
LINE
  5
DA9D
330
1A
100
AcDbEntity
  8
ﾋ_ｽ_ﾅｯﾄ
100
AcDbLine
 10
282.5412965582697
 20
253.7596160192022
 30
0.0
 11
282.5412965582697
 21
252.7596160192022
 31
0.0
  0
LINE
  5
DA9E
330
1A
100
AcDbEntity
  8
ﾋ_ｽ_ﾅｯﾄ
100
AcDbLine
 10
288.0422056595841
 20
255.2596160573584
 30
0.0
 11
288.0403874569535
 21
255.2596160573584
 31
0.0
  0
LINE
  5
DAA1
330
1A
100
AcDbEntity
  8
止め具
100
AcDbLine
 10
299.204663384339
 20
255.7369949800888
 30
0.0
 11
305.1772611526255
 21
269.2395333927691
 31
0.0
  0
ARC
  5
DAA2
330
1A
100
AcDbEntity
  8
止め具
100
AcDbCircle
 10
294.6320269312461
 20
257.7596160192022
 30
0.0
 40
5.000000000000069
100
AcDbArc
 50
270.0
 51
336.1386850065934
  0
LINE
  5
DAA4
330
1A
100
AcDbEntity
  8
ﾋ_ｽ_ﾅｯﾄ
100
AcDbLine
 10
293.5412965582697
 20
252.7596160192022
 30
0.0
 11
293.5412965582697
 21
253.7596160192022
 31
0.0
  0
LINE
  5
DAA7
330
1A
100
AcDbEntity
  8
止め具
100
AcDbLine
 10
307.6794059470582
 20
244.127273934414
 30
0.0
 11
317.22473819123
 21
253.1566422735231
 31
0.0
  0
ARC
  5
DAA9
330
1A
100
AcDbEntity
  8
止め具
100
AcDbCircle
 10
314.3225340588076
 20
265.1942913145426
 30
0.0
 40
9.999999999999879
100
AcDbArc
 50
97.85250939115893
 51
156.1386850065935
  0
LINE
  5
DB0D
330
1A
100
AcDbEntity
  8
止め具
100
AcDbLine
 10
368.3876749489706
 20
207.98786984411
 30
0.0
 11
368.3876749489706
 21
254.4390654910007
 31
0.0
  0
ARC
  5
DB11
330
1A
100
AcDbEntity
  8
止め具
100
AcDbCircle
 10
370.3885899391432
 20
207.7605310089929
 30
0.0
 40
2.000915198996876
100
AcDbArc
 50
179.9738233912131
 51
269.9737994508561
  0
LINE
  5
DB15
330
1A
100
AcDbEntity
  8
止め具
100
AcDbLine
 10
370.8876749489707
 20
206.3166811384657
 30
0.0
 11
376.8876749489706
 21
206.3166811384657
 31
0.0
  0
LINE
  5
DB16
330
1A
100
AcDbEntity
  8
止め具
100
AcDbLine
 10
370.3876749489706
 20
205.7596160192019
 30
0.0
 11
376.8876749489706
 21
205.7596160192019
 31
0.0
  0
LINE
  5
DB1E
330
1A
100
AcDbEntity
  8
止め具
100
AcDbLine
 10
368.8876749489689
 20
208.2995404489415
 30
0.0
 11
368.8876749489689
 21
208.3139402079739
 31
0.0
  0
LINE
  5
DB23
330
1A
100
AcDbEntity
  8
止め具
100
AcDbLine
 10
368.3876749489706
 20
207.761445163107
 30
0.0
 11
368.3876749489706
 21
207.98786984411
 31
0.0
  0
ARC
  5
DB25
330
1A
100
AcDbEntity
  8
止め具
100
AcDbCircle
 10
370.886305422812
 20
208.3153116135965
 30
0.0
 40
1.998630944352648
100
AcDbArc
 50
180.0393147922435
 51
270.039260912699
  0
LINE
  5
DB50
330
1A
100
AcDbEntity
  8
止め具
100
AcDbLine
 10
352.3847567526088
 20
278.3849197964288
 30
0.0
 11
354.465087241432
 21
278.5582117215949
 31
0.0
  0
LINE
  5
DB52
330
1A
100
AcDbEntity
  8
止め具
100
AcDbLine
 10
351.8781486999348
 20
257.2596160192019
 30
0.0
 11
354.8972011980044
 21
257.2596160192019
 31
0.0
  0
LINE
  5
DB56
330
1A
100
AcDbEntity
  8
止め具
100
AcDbLine
 10
349.8972011980045
 20
278.2944015493502
 30
0.0
 11
349.8972011980047
 21
257.0596160192021
 31
0.0
  0
LINE
  5
DB58
330
1A
100
AcDbEntity
  8
止め具
100
AcDbLine
 10
351.8781486999348
 20
257.0596160192021
 30
0.0
 11
351.878148699935
 21
278.4546536226878
 31
0.0
  0
LINE
  5
DB5F
330
1A
100
AcDbEntity
  8
止め具
100
AcDbLine
 10
327.5327359993705
 20
257.2596160192019
 30
0.0
 11
349.8972011980045
 21
257.2596160192019
 31
0.0
  0
ARC
  5
DB9C
330
1A
100
AcDbEntity
  8
止め具
100
AcDbCircle
 10
350.1972011980047
 20
257.0596160192021
 30
0.0
 40
0.2999999999999971
100
AcDbArc
 50
180.0
 51
270.0
  0
LINE
  5
DB9F
330
1A
100
AcDbEntity
  8
止め具
100
AcDbLine
 10
351.5781486999348
 20
256.759616019202
 30
0.0
 11
350.1972011980047
 21
256.7596160192022
 31
0.0
  0
ARC
  5
DBA2
330
1A
100
AcDbEntity
  8
止め具
100
AcDbCircle
 10
351.5781486999348
 20
257.0596160192021
 30
0.0
 40
0.2999999999999971
100
AcDbArc
 50
270.0
 51
0.0
  0
LINE
  5
DBAB
330
1A
100
AcDbEntity
  8
止め具
100
AcDbLine
 10
349.8876749489706
 20
278.176912407519
 30
0.0
 11
349.8877335117838
 21
278.1776346744523
 31
0.0
  0
LINE
  5
DBB0
330
1A
100
AcDbEntity
  8
止め具
100
AcDbLine
 10
351.8875833619393
 20
278.3445813151888
 30
0.0
 11
351.8876749489706
 21
278.3435127876962
 31
0.0
  0
LINE
  5
DBB4
330
1A
100
AcDbEntity
  8
止め具
100
AcDbLine
 10
350.4143348901441
 20
281.2602125976077
 30
0.0
 11
351.3622889433779
 21
281.2602125976077
 31
0.0
  0
LINE
  5
DBB9
330
1A
100
AcDbEntity
  8
止め具
100
AcDbLine
 10
349.8877335117838
 20
278.1776346744529
 30
0.0
 11
350.1153161967038
 21
280.984457617149
 31
0.0
  0
ARC
  5
DBBA
330
1A
100
AcDbEntity
  8
止め具
100
AcDbCircle
 10
350.4143348901441
 20
280.9602125976075
 30
0.0
 40
0.300000000000198
100
AcDbArc
 50
90.0
 51
175.3644869623679
  0
LINE
  5
DBBB
330
1A
100
AcDbEntity
  8
止め具
100
AcDbLine
 10
351.6611929628623
 20
280.9858326510038
 30
0.0
 11
351.8875833619393
 21
278.3445813151888
 31
0.0
  0
ARC
  5
DBBC
330
1A
100
AcDbEntity
  8
止め具
100
AcDbCircle
 10
351.3622889433779
 20
280.9602125976075
 30
0.0
 40
0.3000000000000911
100
AcDbArc
 50
4.89903705501717
 51
90.0
  0
ARC
  5
DBCB
330
1A
100
AcDbEntity
  8
止め具
100
AcDbCircle
 10
352.3432504132367
 20
278.8831940419925
 30
0.0
 40
0.5000000000000177
100
AcDbArc
 50
184.8990370550171
 51
274.7617558138845
  0
ARC
  5
DBCC
330
1A
100
AcDbEntity
  8
止め具
100
AcDbCircle
 10
349.4235809020599
 20
278.6399850167156
 30
0.0
 40
0.5000000000001057
100
AcDbArc
 50
274.7617558138845
 51
355.3644869623679
  0
LINE
  5
DBD1
330
1A
100
AcDbEntity
  8
止め具
100
AcDbLine
 10
376.8876749489706
 20
205.7596160192019
 30
0.0
 11
376.8876749489706
 21
279.759616019202
 31
0.0
  0
LINE
  5
DBD3
330
1A
100
AcDbEntity
  8
止め具
100
AcDbLine
 10
368.8876749489691
 20
208.3166830179682
 30
0.0
 11
368.8876749489689
 21
269.7596160192019
 31
0.0
  0
LINE
  5
DBD8
330
1A
100
AcDbEntity
  8
止め具
100
AcDbLine
 10
356.8781486999366
 20
257.0596160192021
 30
0.0
 11
356.8781486999366
 21
278.8711545731087
 31
0.0
  0
LINE
  5
DBDA
330
1A
100
AcDbEntity
  8
止め具
100
AcDbLine
 10
354.8972011980047
 20
278.7109024997941
 30
0.0
 11
354.8972011980047
 21
257.0596160192021
 31
0.0
  0
ARC
  5
DBDD
330
1A
100
AcDbEntity
  8
止め具
100
AcDbCircle
 10
363.887674949038
 20
252.2596160192465
 30
0.0
 40
4.999999999932386
100
AcDbArc
 50
359.9999999994919
 51
66.42182152227601
  0
LINE
  5
DC05
330
1A
100
AcDbEntity
  8
止め具
100
AcDbLine
 10
356.5781486999367
 20
256.759616019202
 30
0.0
 11
355.1972011980044
 21
256.759616019202
 31
0.0
  0
LINE
  5
DC10
330
1A
100
AcDbEntity
  8
止め具
100
AcDbLine
 10
356.8781486999366
 20
257.2596160192019
 30
0.0
 11
359.8972011980047
 21
257.2596160192019
 31
0.0
  0
LINE
  5
DC17
330
1A
100
AcDbEntity
  8
止め具
100
AcDbLine
 10
361.8781486999366
 20
257.2596160192019
 30
0.0
 11
363.8876749489706
 21
257.2596160192019
 31
0.0
  0
ARC
  5
DC18
330
1A
100
AcDbEntity
  8
止め具
100
AcDbCircle
 10
363.8876749489706
 20
252.2596160192019
 30
0.0
 40
5.000000000000002
100
AcDbArc
 50
66.42182152182065
 51
90.0
  0
LINE
  5
DC1E
330
1A
100
AcDbEntity
  8
止め具
100
AcDbLine
 10
370.8876749489707
 20
244.8760786960115
 30
0.0
 11
376.8876749489706
 21
244.8760786960115
 31
0.0
  0
ARC
  5
DC1F
330
1A
100
AcDbEntity
  8
止め具
100
AcDbCircle
 10
370.8760964990658
 20
246.8645010452373
 30
0.0
 40
1.988456059208681
100
AcDbArc
 50
180.3375570328551
 51
270.3336257085427
  0
LINE
  5
DC24
330
1A
100
AcDbEntity
  8
止め具
100
AcDbLine
 10
365.7216495914842
 20
279.4958855050981
 30
0.0
 11
368.8562001391608
 21
279.756994161562
 31
0.0
  0
LINE
  5
DC26
330
1A
100
AcDbEntity
  8
止め具
100
AcDbLine
 10
360.4143348901441
 20
282.0932144984933
 30
0.0
 11
361.3622889433798
 21
282.0932144984933
 31
0.0
  0
LINE
  5
DC28
330
1A
100
AcDbEntity
  8
止め具
100
AcDbLine
 10
359.8972011980049
 20
279.1274034502387
 30
0.0
 11
360.1153161967038
 21
281.8174595180348
 31
0.0
  0
ARC
  5
DC2B
330
1A
100
AcDbEntity
  8
止め具
100
AcDbCircle
 10
355.4143348901441
 20
281.3767135480505
 30
0.0
 40
0.2999999999999829
100
AcDbArc
 50
90.0
 51
175.3644869623679
  0
ARC
  5
DC2C
330
1A
100
AcDbEntity
  8
止め具
100
AcDbCircle
 10
356.3622889433779
 20
281.3767135480505
 30
0.0
 40
0.3000000000000911
100
AcDbArc
 50
4.89903705501717
 51
90.0
  0
ARC
  5
DC3A
330
1A
100
AcDbEntity
  8
止め具
100
AcDbCircle
 10
359.4235809020599
 20
279.4729869176012
 30
0.0
 40
0.4999999999999847
100
AcDbArc
 50
274.7617558138845
 51
355.3644869623679
  0
LINE
  5
DC4A
330
1A
100
AcDbEntity
  8
止め具
100
AcDbLine
 10
354.8972011980049
 20
278.7109024997965
 30
0.0
 11
355.1153161967038
 21
281.4009585675917
 31
0.0
  0
LINE
  5
DC4B
330
1A
100
AcDbEntity
  8
止め具
100
AcDbLine
 10
356.6611929628622
 20
281.402333601447
 30
0.0
 11
356.8781486999366
 21
278.8711545731092
 31
0.0
  0
ARC
  5
DC5A
330
1A
100
AcDbEntity
  8
止め具
100
AcDbCircle
 10
357.3432504132367
 20
279.2996949924354
 30
0.0
 40
0.5000000000000177
100
AcDbArc
 50
184.8990370550171
 51
274.7617558138845
  0
ARC
  5
DC5B
330
1A
100
AcDbEntity
  8
止め具
100
AcDbCircle
 10
354.4235809020599
 20
279.0564859671585
 30
0.0
 40
0.4999999999999988
100
AcDbArc
 50
274.7617558138845
 51
355.3644869623679
  0
LINE
  5
DC5C
330
1A
100
AcDbEntity
  8
止め具
100
AcDbLine
 10
357.3847567526088
 20
278.8014207468718
 30
0.0
 11
359.465087241432
 21
278.9747126720378
 31
0.0
  0
ARC
  5
DC5E
330
1A
100
AcDbEntity
  8
止め具
100
AcDbCircle
 10
360.4143348901441
 20
281.7932144984934
 30
0.0
 40
0.2999999999999971
100
AcDbArc
 50
90.0
 51
175.3644869623679
  0
LINE
  5
DC5F
330
1A
100
AcDbEntity
  8
止め具
100
AcDbLine
 10
355.4143348901441
 20
281.6767135480504
 30
0.0
 11
356.3622889433779
 21
281.6767135480504
 31
0.0
  0
LINE
  5
DC61
330
1A
100
AcDbEntity
  8
止め具
100
AcDbLine
 10
361.661192962864
 20
281.8188345518897
 30
0.0
 11
361.8781486999366
 21
279.287655523555
 31
0.0
  0
LINE
  5
DC73
330
1A
100
AcDbEntity
  8
止め具
100
AcDbLine
 10
362.3847567526088
 20
279.2179216973147
 30
0.0
 11
365.7216495914842
 21
279.4958855050981
 31
0.0
  0
ARC
  5
DC75
330
1A
100
AcDbEntity
  8
止め具
100
AcDbCircle
 10
362.3432504132367
 20
279.7161959428783
 30
0.0
 40
0.5000000000003804
100
AcDbArc
 50
184.8990370550171
 51
274.7617558138845
  0
ARC
  5
DC76
330
1A
100
AcDbEntity
  8
止め具
100
AcDbCircle
 10
361.3622889433798
 20
281.7932144984934
 30
0.0
 40
0.2999999999999971
100
AcDbArc
 50
4.89903705501717
 51
90.0
  0
LINE
  5
DC79
330
1A
100
AcDbEntity
  8
止め具
100
AcDbLine
 10
368.8876749489689
 20
269.7596160192019
 30
0.0
 11
368.8876749489689
 21
277.759616019202
 31
0.0
  0
LINE
  5
DC7C
330
1A
100
AcDbEntity
  8
止め具
100
AcDbLine
 10
370.8876749489707
 20
279.759616019202
 30
0.0
 11
376.8876749489706
 21
279.759616019202
 31
0.0
  0
LINE
  5
DC7D
330
1A
100
AcDbEntity
  8
止め具
100
AcDbLine
 10
368.8562001391608
 20
279.756994161562
 30
0.0
 11
368.8876749489689
 21
279.759616019202
 31
0.0
  0
ARC
  5
DC7E
330
1A
100
AcDbEntity
  8
止め具
100
AcDbCircle
 10
370.8876749489707
 20
277.759616019202
 30
0.0
 40
2.000000000000454
100
AcDbArc
 50
90.0
 51
180.0
  0
LINE
  5
DC7F
330
1A
100
AcDbEntity
  8
止め具
100
AcDbLine
 10
368.8876749489689
 20
279.759616019202
 30
0.0
 11
370.8876749489707
 21
279.759616019202
 31
0.0
  0
LINE
  5
DC83
330
1A
100
AcDbEntity
  8
止め具
100
AcDbLine
 10
376.8876749489706
 20
397.7805275713794
 30
0.0
 11
370.8876749489707
 21
397.7805275713794
 31
0.0
  0
ARC
  5
DC84
330
1A
100
AcDbEntity
  8
止め具
100
AcDbCircle
 10
370.8876749489707
 20
399.7805275713794
 30
0.0
 40
2.000000000000454
100
AcDbArc
 50
180.0
 51
270.0
  0
LINE
  5
DCC5
330
1A
100
AcDbEntity
  8
止め具
100
AcDbLine
 10
349.413078279728
 20
418.5305275713794
 30
0.0
 11
277.8876749489707
 21
418.5305275713793
 31
0.0
  0
LINE
  5
DCC7
330
1A
100
AcDbEntity
  8
止め具
100
AcDbLine
 10
277.8876749489707
 20
451.0305275713794
 30
0.0
 11
349.413078279728
 21
451.0305275713794
 31
0.0
  0
CIRCLE
  5
DCCD
330
1A
100
AcDbEntity
  8
止め具
100
AcDbCircle
 10
288.0412965582697
 20
434.7805275713796
 30
0.0
 40
5.500000000000227
  0
LINE
  5
DCCE
330
1A
100
AcDbEntity
  8
止め具
100
AcDbLine
 10
277.8876749489707
 20
451.0305275713794
 30
0.0
 11
277.8876749489707
 21
418.5305275713792
 31
0.0
  0
LINE
  5
DCF5
330
1A
100
AcDbEntity
  8
止め具
100
AcDbLine
 10
297.8876749490063
 20
449.0305275713793
 30
0.0
 11
297.8876749490063
 21
420.5305275713794
 31
0.0
  0
LINE
  5
DCF6
330
1A
100
AcDbEntity
  8
止め具
100
AcDbLine
 10
307.5713451998284
 20
449.0305275713795
 30
0.0
 11
307.5713451998284
 21
420.5305275713794
 31
0.0
  0
ARC
  5
DCFB
330
1A
100
AcDbEntity
  8
止め具
100
AcDbCircle
 10
309.4898666763633
 20
420.4487076540222
 30
0.0
 40
1.920265386555114
100
AcDbArc
 50
177.5579648382613
 51
267.3295712688969
  0
ARC
  5
DCFF
330
1A
100
AcDbEntity
  8
止め具
100
AcDbCircle
 10
299.8061964255412
 20
420.448707654022
 30
0.0
 40
1.920265386555114
100
AcDbArc
 50
177.5579648382613
 51
267.3295712688969
  0
ARC
  5
DD04
330
1A
100
AcDbEntity
  8
止め具
100
AcDbCircle
 10
309.4898666763633
 20
449.1123474887365
 30
0.0
 40
1.920265386555554
100
AcDbArc
 50
92.67042873110304
 51
182.4420351617385
  0
ARC
  5
DD09
330
1A
100
AcDbEntity
  8
止め具
100
AcDbCircle
 10
299.8061964255412
 20
449.1123474887368
 30
0.0
 40
1.920265386555119
100
AcDbArc
 50
92.67042873110304
 51
182.4420351617516
  0
LINE
  5
DD0D
330
1A
100
AcDbEntity
  8
止め具
100
AcDbLine
 10
368.8876749489689
 20
454.0305275713794
 30
0.0
 11
368.8876749489691
 21
469.7805275713792
 31
0.0
  0
LINE
  5
DD0F
330
1A
100
AcDbEntity
  8
止め具
100
AcDbLine
 10
352.3622716182114
 20
451.0305275713794
 30
0.0
 11
354.4130782797281
 21
451.0305275713794
 31
0.0
  0
LINE
  5
DD11
330
1A
100
AcDbEntity
  8
止め具
100
AcDbLine
 10
354.4130782797281
 20
418.5305275713794
 30
0.0
 11
352.3622716182114
 21
418.5305275713794
 31
0.0
  0
ARC
  5
DD1D
330
1A
100
AcDbEntity
  8
止め具
100
AcDbCircle
 10
349.413078279728
 20
418.0305275713794
 30
0.0
 40
0.5
100
AcDbArc
 50
14.47751218594842
 51
90.0
  0
ARC
  5
DD1F
330
1A
100
AcDbEntity
  8
止め具
100
AcDbCircle
 10
352.3622716182114
 20
418.0305275713794
 30
0.0
 40
0.5000000000002359
100
AcDbArc
 50
90.0
 51
165.5224878140634
  0
ARC
  5
DD24
330
1A
100
AcDbEntity
  8
止め具
100
AcDbCircle
 10
350.1876749489699
 20
418.2305275713797
 30
0.0
 40
0.3000000000001819
100
AcDbArc
 50
180.0
 51
270.0
  0
LINE
  5
DD25
330
1A
100
AcDbEntity
  8
止め具
100
AcDbLine
 10
349.8876749489706
 20
418.2305275713797
 30
0.0
 11
349.8876749489706
 21
418.3458851263776
 31
0.0
  0
ARC
  5
DD27
330
1A
100
AcDbEntity
  8
止め具
100
AcDbCircle
 10
351.5876749489696
 20
418.2305275713797
 30
0.0
 40
0.3000000000001819
100
AcDbArc
 50
270.0
 51
357.1075260435209
  0
LINE
  5
DD28
330
1A
100
AcDbEntity
  8
止め具
100
AcDbLine
 10
351.8872927472191
 20
418.2153890452936
 30
0.0
 11
351.8876749489706
 21
418.2320090977254
 31
0.0
  0
LINE
  5
DD29
330
1A
100
AcDbEntity
  8
止め具
100
AcDbLine
 10
351.8876749489706
 20
418.3926665370604
 30
0.0
 11
351.8876749489706
 21
418.2320090977254
 31
0.0
  0
LINE
  5
DD36
330
1A
100
AcDbEntity
  8
止め具
100
AcDbLine
 10
349.8876749489706
 20
418.3458851263776
 30
0.0
 11
349.8877335117838
 21
418.339951747879
 31
0.0
  0
LINE
  5
DD39
330
1A
100
AcDbEntity
  8
止め具
100
AcDbLine
 10
351.8875833619393
 20
418.3852417907846
 30
0.0
 11
351.8876749489706
 21
418.3926665370604
 31
0.0
  0
LINE
  5
DD3E
330
1A
100
AcDbEntity
  8
止め具
100
AcDbLine
 10
351.5876749489696
 20
417.9305275713796
 30
0.0
 11
350.1876749489699
 21
417.9305275713796
 31
0.0
  0
ARC
  5
DD48
330
1A
100
AcDbEntity
  8
止め具
100
AcDbCircle
 10
349.413078279728
 20
451.5305275713794
 30
0.0
 40
0.5
100
AcDbArc
 50
270.0
 51
345.5224878140516
  0
ARC
  5
DD49
330
1A
100
AcDbEntity
  8
止め具
100
AcDbCircle
 10
352.3622716182114
 20
451.5305275713794
 30
0.0
 40
0.5000000000002359
100
AcDbArc
 50
194.4775121859365
 51
270.0
  0
ARC
  5
DD50
330
1A
100
AcDbEntity
  8
止め具
100
AcDbCircle
 10
350.1876749489699
 20
451.3305275713794
 30
0.0
 40
0.2999999999999545
100
AcDbArc
 50
90.0
 51
180.0
  0
ARC
  5
DD54
330
1A
100
AcDbEntity
  8
止め具
100
AcDbCircle
 10
351.5876749489696
 20
451.3305275713794
 30
0.0
 40
0.2999999999999545
100
AcDbArc
 50
2.892473956479116
 51
90.0
  0
LINE
  5
DD6C
330
1A
100
AcDbEntity
  8
止め具
100
AcDbLine
 10
350.1876749489699
 20
451.6305275713794
 30
0.0
 11
351.5876749489696
 21
451.6305275713794
 31
0.0
  0
LINE
  5
DD86
330
1A
100
AcDbEntity
  8
止め具
100
AcDbLine
 10
361.5876749489696
 20
417.9305275713796
 30
0.0
 11
360.1876749489699
 21
417.9305275713796
 31
0.0
  0
LINE
  5
DD88
330
1A
100
AcDbEntity
  8
止め具
100
AcDbLine
 10
359.4130782797299
 20
418.5305275713794
 30
0.0
 11
357.3622716182114
 21
418.5305275713794
 31
0.0
  0
ARC
  5
DD8C
330
1A
100
AcDbEntity
  8
止め具
100
AcDbCircle
 10
354.4130782797281
 20
418.0305275713794
 30
0.0
 40
0.5000000000002359
100
AcDbArc
 50
14.4775121859366
 51
90.0
  0
ARC
  5
DD8E
330
1A
100
AcDbEntity
  8
止め具
100
AcDbCircle
 10
357.3622716182114
 20
418.0305275713794
 30
0.0
 40
0.5
100
AcDbArc
 50
90.0
 51
165.5224878140515
  0
ARC
  5
DD93
330
1A
100
AcDbEntity
  8
止め具
100
AcDbCircle
 10
355.1876749489699
 20
418.2305275713797
 30
0.0
 40
0.3000000000001819
100
AcDbArc
 50
180.0
 51
270.0
  0
LINE
  5
DD94
330
1A
100
AcDbEntity
  8
止め具
100
AcDbLine
 10
354.8876749489707
 20
418.2305275713797
 30
0.0
 11
354.8876749489707
 21
418.3458851263776
 31
0.0
  0
ARC
  5
DD96
330
1A
100
AcDbEntity
  8
止め具
100
AcDbCircle
 10
356.5876749489696
 20
418.2305275713797
 30
0.0
 40
0.3000000000001819
100
AcDbArc
 50
270.0
 51
357.1075260435209
  0
LINE
  5
DD97
330
1A
100
AcDbEntity
  8
止め具
100
AcDbLine
 10
356.8872927472191
 20
418.2153890452936
 30
0.0
 11
356.8876749489707
 21
418.232009097746
 31
0.0
  0
LINE
  5
DD98
330
1A
100
AcDbEntity
  8
止め具
100
AcDbLine
 10
356.8876749489707
 20
418.3926665370604
 30
0.0
 11
356.8876749489707
 21
418.232009097746
 31
0.0
  0
LINE
  5
DDA5
330
1A
100
AcDbEntity
  8
止め具
100
AcDbLine
 10
354.8876749489707
 20
418.3458851263776
 30
0.0
 11
354.8877335117838
 21
418.339951747879
 31
0.0
  0
LINE
  5
DDA8
330
1A
100
AcDbEntity
  8
止め具
100
AcDbLine
 10
356.8875833619392
 20
418.3852417907846
 30
0.0
 11
356.8876749489707
 21
418.3926665370604
 31
0.0
  0
LINE
  5
DDAD
330
1A
100
AcDbEntity
  8
止め具
100
AcDbLine
 10
356.5876749489696
 20
417.9305275713796
 30
0.0
 11
355.1876749489699
 21
417.9305275713796
 31
0.0
  0
ARC
  5
DDB8
330
1A
100
AcDbEntity
  8
止め具
100
AcDbCircle
 10
359.4130782797281
 20
418.0305275713794
 30
0.0
 40
0.5000000000002359
100
AcDbArc
 50
14.4775121859366
 51
89.99999999989578
  0
ARC
  5
DDBC
330
1A
100
AcDbEntity
  8
止め具
100
AcDbCircle
 10
360.1876749489699
 20
418.2305275713792
 30
0.0
 40
0.3000000000001819
100
AcDbArc
 50
180.0
 51
270.0
  0
ARC
  5
DDCB
330
1A
100
AcDbEntity
  8
止め具
100
AcDbCircle
 10
362.3622716182115
 20
418.0305275713794
 30
0.0
 40
0.5
100
AcDbArc
 50
90.0
 51
165.5224878140515
  0
ARC
  5
DDCE
330
1A
100
AcDbEntity
  8
止め具
100
AcDbCircle
 10
361.5876749489696
 20
418.2305275713792
 30
0.0
 40
0.2999999999999545
100
AcDbArc
 50
270.0
 51
357.1075260435599
  0
LINE
  5
DDD3
330
1A
100
AcDbEntity
  8
止め具
100
AcDbLine
 10
365.8876749489706
 20
418.5305275713794
 30
0.0
 11
362.3622716182115
 21
418.5305275713794
 31
0.0
  0
LINE
  5
DDEA
330
1A
100
AcDbEntity
  8
止め具
100
AcDbLine
 10
360.1876749489699
 20
451.6305275713794
 30
0.0
 11
361.5876749489696
 21
451.6305275713794
 31
0.0
  0
LINE
  5
DDEC
330
1A
100
AcDbEntity
  8
止め具
100
AcDbLine
 10
357.3622716182114
 20
451.0305275713794
 30
0.0
 11
359.4130782797281
 21
451.0305275713794
 31
0.0
  0
ARC
  5
DDEF
330
1A
100
AcDbEntity
  8
止め具
100
AcDbCircle
 10
354.4130782797281
 20
451.5305275713794
 30
0.0
 40
0.5000000000002359
100
AcDbArc
 50
270.0
 51
345.5224878140634
  0
ARC
  5
DDF1
330
1A
100
AcDbEntity
  8
止め具
100
AcDbCircle
 10
357.3622716182114
 20
451.5305275713794
 30
0.0
 40
0.5
100
AcDbArc
 50
194.4775121859484
 51
270.0
  0
ARC
  5
DDF7
330
1A
100
AcDbEntity
  8
止め具
100
AcDbCircle
 10
355.1876749489699
 20
451.3305275713794
 30
0.0
 40
0.3000000000001819
100
AcDbArc
 50
90.0
 51
180.0
  0
ARC
  5
DDFB
330
1A
100
AcDbEntity
  8
止め具
100
AcDbCircle
 10
356.5876749489696
 20
451.3305275713794
 30
0.0
 40
0.2999999999999545
100
AcDbArc
 50
2.892473956479116
 51
90.0
  0
LINE
  5
DE13
330
1A
100
AcDbEntity
  8
止め具
100
AcDbLine
 10
355.1876749489699
 20
451.6305275713794
 30
0.0
 11
356.5876749489696
 21
451.6305275713794
 31
0.0
  0
ARC
  5
DE1A
330
1A
100
AcDbEntity
  8
止め具
100
AcDbCircle
 10
359.4130782797281
 20
451.5305275713794
 30
0.0
 40
0.5000000000002359
100
AcDbArc
 50
270.0
 51
345.5224878140634
  0
ARC
  5
DE1E
330
1A
100
AcDbEntity
  8
止め具
100
AcDbCircle
 10
360.1876749489699
 20
451.3305275713794
 30
0.0
 40
0.3000000000001819
100
AcDbArc
 50
90.0
 51
180.0
  0
ARC
  5
DE2C
330
1A
100
AcDbEntity
  8
止め具
100
AcDbCircle
 10
362.3622716182115
 20
451.5305275713794
 30
0.0
 40
0.5
100
AcDbArc
 50
194.4775121859484
 51
270.0
  0
ARC
  5
DE32
330
1A
100
AcDbEntity
  8
止め具
100
AcDbCircle
 10
361.5876749489696
 20
451.3305275713794
 30
0.0
 40
0.2999999999999545
100
AcDbArc
 50
2.892473956479116
 51
90.0
  0
LINE
  5
DE33
330
1A
100
AcDbEntity
  8
止め具
100
AcDbLine
 10
362.3622716182115
 20
451.0305275713794
 30
0.0
 11
365.8876749489706
 21
451.0305275713794
 31
0.0
  0
LINE
  5
DE4E
330
1A
100
AcDbEntity
  8
止め具
100
AcDbLine
 10
370.8876749489707
 20
471.7805275713795
 30
0.0
 11
376.8876749489706
 21
471.7805275713795
 31
0.0
  0
ARC
  5
DE4F
330
1A
100
AcDbEntity
  8
止め具
100
AcDbCircle
 10
370.8876749489707
 20
469.7805275713792
 30
0.0
 40
2.000000000000454
100
AcDbArc
 50
90.0
 51
180.0
  0
ARC
  5
DE53
330
1A
100
AcDbEntity
  8
止め具
100
AcDbCircle
 10
355.1972011980044
 20
257.0596160192021
 30
0.0
 40
0.2999999999999971
100
AcDbArc
 50
180.0
 51
270.0
  0
ARC
  5
DE54
330
1A
100
AcDbEntity
  8
止め具
100
AcDbCircle
 10
356.5781486999367
 20
257.0596160192021
 30
0.0
 40
0.2999999999999971
100
AcDbArc
 50
270.0
 51
0.0
  0
LINE
  5
DE55
330
1A
100
AcDbEntity
  8
止め具
100
AcDbLine
 10
361.5781486999367
 20
256.759616019202
 30
0.0
 11
360.1972011980044
 21
256.759616019202
 31
0.0
  0
ARC
  5
DE56
330
1A
100
AcDbEntity
  8
止め具
100
AcDbCircle
 10
361.5781486999367
 20
257.0596160192021
 30
0.0
 40
0.2999999999999971
100
AcDbArc
 50
270.0
 51
0.0
  0
ARC
  5
DE57
330
1A
100
AcDbEntity
  8
止め具
100
AcDbCircle
 10
360.1972011980044
 20
257.0596160192021
 30
0.0
 40
0.2999999999999971
100
AcDbArc
 50
180.0
 51
270.0
  0
LINE
  5
DE58
330
1A
100
AcDbEntity
  8
止め具
100
AcDbLine
 10
361.8781486999366
 20
257.0596160192021
 30
0.0
 11
361.8781486999366
 21
279.2876555235528
 31
0.0
  0
LINE
  5
DE59
330
1A
100
AcDbEntity
  8
止め具
100
AcDbLine
 10
359.8972011980047
 20
279.1274034502392
 30
0.0
 11
359.8972011980047
 21
257.0596160192021
 31
0.0
  0
ARC
  5
DE5B
330
1A
100
AcDbEntity
  8
止め具
100
AcDbCircle
 10
365.8876749489714
 20
454.0305275713767
 30
0.0
 40
2.999999999997271
100
AcDbArc
 50
269.999999999987
 51
0.0000000000521229
  0
ARC
  5
DE5C
330
1A
100
AcDbEntity
  8
止め具
100
AcDbCircle
 10
365.8876749489702
 20
415.530527571379
 30
0.0
 40
3.000000000000454
100
AcDbArc
 50
0.000000000008713
 51
89.99999999999136
  0
LINE
  5
DE5D
330
1A
100
AcDbEntity
  8
止め具
100
AcDbLine
 10
361.8872927472191
 20
451.3456660974652
 30
0.0
 11
361.8872927472191
 21
418.2153890452936
 31
0.0
  0
LINE
  5
DE5E
330
1A
100
AcDbEntity
  8
止め具
100
AcDbLine
 10
359.8876749489698
 20
451.3305275713794
 30
0.0
 11
359.8876749489698
 21
418.2305275713792
 31
0.0
  0
LINE
  5
DE60
330
1A
100
AcDbEntity
  8
止め具
100
AcDbLine
 10
356.8872927472191
 20
451.3456660974652
 30
0.0
 11
356.8872927472191
 21
418.2153890452936
 31
0.0
  0
LINE
  5
DE61
330
1A
100
AcDbEntity
  8
止め具
100
AcDbLine
 10
354.8876749489697
 20
451.3305275713794
 30
0.0
 11
354.8876749489697
 21
418.2305275713792
 31
0.0
  0
LINE
  5
DE62
330
1A
100
AcDbEntity
  8
止め具
100
AcDbLine
 10
349.8876749489697
 20
451.3305275713794
 30
0.0
 11
349.8876749489697
 21
418.2305275713792
 31
0.0
  0
LINE
  5
DE63
330
1A
100
AcDbEntity
  8
止め具
100
AcDbLine
 10
351.8872927472191
 20
451.3456660974652
 30
0.0
 11
351.8872927472191
 21
418.2153890452936
 31
0.0
  0
LINE
  5
ECA5
330
1A
100
AcDbEntity
  8
ﾌ_ﾗｹｯﾄ本体
100
AcDbLine
 10
320.6880900810626
 20
230.8637589454769
 30
0.0
 11
258.8027571250175
 21
231.7796057264337
 31
0.0
  0
LINE
  5
ECA6
330
1A
100
AcDbEntity
  8
ﾌ_ﾗｹｯﾄ本体
100
AcDbLine
 10
261.9029699889194
 20
247.7718468974054
 30
0.0
 11
277.8876749489707
 21
247.7391791250112
 31
0.0
  0
LINE
  5
ECA7
330
1A
100
AcDbEntity
  8
ﾌ_ﾗｹｯﾄ本体
100
AcDbLine
 10
260.6694797810794
 20
244.7906839123076
 30
0.0
 11
279.8566070558653
 21
244.7906839123076
 31
0.0
  0
LINE
  5
ECA8
330
1A
100
AcDbEntity
  8
ﾌ_ﾗｹｯﾄ本体
100
AcDbLine
 10
321.2069270959653
 20
227.8726182896424
 30
0.0
 11
257.4849110868214
 21
229.0369332212466
 31
0.0
  0
POLYLINE
  5
ECA9
330
1A
100
AcDbEntity
  8
ﾌ_ﾗｹｯﾄ本体
100
AcDb2dPolyline
 66
     1
 10
0.0
 20
0.0
 30
0.0
  0
VERTEX
  5
12B12
330
ECA9
100
AcDbEntity
  8
ﾌ_ﾗｹｯﾄ本体
100
AcDbVertex
100
AcDb2dVertex
 10
252.3929281068628
 20
250.4955230717895
 30
0.0
  0
VERTEX
  5
12B13
330
ECA9
100
AcDbEntity
  8
ﾌ_ﾗｹｯﾄ本体
100
AcDbVertex
100
AcDb2dVertex
 10
251.3487426053523
 20
253.1646835027296
 30
0.0
  0
VERTEX
  5
12B14
330
ECA9
100
AcDbEntity
  8
ﾌ_ﾗｹｯﾄ本体
100
AcDbVertex
100
AcDb2dVertex
 10
249.6840843125917
 20
257.4158588167346
 30
0.0
  0
VERTEX
  5
12B15
330
ECA9
100
AcDbEntity
  8
ﾌ_ﾗｹｯﾄ本体
100
AcDbVertex
100
AcDb2dVertex
 10
248.0136992997683
 20
261.6749078146066
 30
0.0
  0
SEQEND
  5
12B16
330
ECA9
100
AcDbEntity
  8
ﾌ_ﾗｹｯﾄ本体
  0
LINE
  5
ECAA
330
1A
100
AcDbEntity
  8
ﾌ_ﾗｹｯﾄ本体
100
AcDbLine
 10
254.4900176752123
 20
252.7719463679358
 30
0.0
 11
249.3448105198583
 21
265.5067809561713
 31
0.0
  0
LINE
  5
ECAB
330
1A
100
AcDbEntity
  8
ﾌ_ﾗｹｯﾄ本体
100
AcDbLine
 10
246.4043979751875
 20
259.6995271857139
 30
0.0
 11
247.8485432807299
 21
253.6226165291215
 31
0.0
  0
LINE
  5
ECAC
330
1A
100
AcDbEntity
  8
ﾌ_ﾗｹｯﾄ本体
100
AcDbLine
 10
243.6201219734809
 20
258.1835016488156
 30
0.0
 11
248.9037309062839
 21
235.9502683960601
 31
0.0
  0
ARC
  5
ECAD
330
1A
100
AcDbEntity
  8
ﾌ_ﾗｹｯﾄ本体
100
AcDbCircle
 10
512.5821197364948
 20
295.937300014349
 30
0.0
 40
267.7201451965198
100
AcDbArc
 50
191.1189108525751
 51
192.5055456718573
  0
ARC
  5
ECAE
330
1A
100
AcDbEntity
  8
ﾌ_ﾗｹｯﾄ本体
100
AcDbCircle
 10
257.6509316461376
 20
238.0253687513071
 30
0.0
 40
8.989968637552207
100
AcDbArc
 50
193.3794439090927
 51
268.9418407885344
  0
LINE
  5
ECAF
330
1A
100
AcDbEntity
  8
ﾌ_ﾗｹｯﾄ本体
100
AcDbLine
 10
248.9037309062839
 20
235.9502683960601
 30
0.0
 11
248.9049601057465
 21
235.9451000381735
 31
0.0
  0
ARC
  5
ECB0
330
1A
100
AcDbEntity
  8
ﾌ_ﾗｹｯﾄ本体
100
AcDbCircle
 10
11.79983414450521
 20
197.0727571386183
 30
0.0
 40
242.7279952579917
100
AcDbArc
 50
11.22158848945333
 51
13.47235991695904
  0
MTEXT
  5
ECB1
330
1A
100
AcDbEntity
  8
ﾌ_ﾗｹｯﾄ本体
100
AcDbMText
 10
276.4151880339359
 20
241.0445498108351
 30
0.0
 40
3.174999952316284
 41
7.572153550054679
 71
     1
 72
     1
  1
20
  7
STYLE2
1001
ACAD
1000
MTEXTBEGIN
1070
    73
1070
     1
1070
    44
1040
1.0
1070
    74
1070
     0
1000
MTEXTEND
1000
MTEXTBEGIN
1070
    73
1070
     1
1070
    44
1040
1.0
1070
    74
1070
     0
1000
MTEXTEND
1000
MTEXTBEGIN
1070
    73
1070
     1
1070
    44
1040
1.0
1070
    74
1070
     0
1000
MTEXTEND
1000
MTEXTBEGIN
1070
    73
1070
     1
1070
    44
1040
1.0
1070
    74
1070
     0
1000
MTEXTEND
1000
MTEXTBEGIN
1070
    73
1070
     1
1070
    44
1040
1.0
1070
    74
1070
     0
1000
MTEXTEND
1000
MTEXTBEGIN
1070
    73
1070
     1
1070
    44
1040
1.0
1070
    74
1070
     0
1000
MTEXTEND
1000
MTEXTBEGIN
1070
    73
1070
     1
1070
    44
1040
1.0
1070
    74
1070
     0
1000
MTEXTEND
1000
MTEXTBEGIN
1070
    73
1070
     1
1070
    44
1040
1.0
1070
    74
1070
     0
1000
MTEXTEND
1000
MTEXTBEGIN
1070
    73
1070
     1
1070
    44
1040
1.0
1070
    74
1070
     0
1000
MTEXTEND
1000
MTEXTBEGIN
1070
    73
1070
     1
1070
    44
1040
1.0
1070
    74
1070
     0
1000
MTEXTEND
1000
MTEXTBEGIN
1070
    73
1070
     1
1070
    44
1040
1.0
1070
    74
1070
     0
1000
MTEXTEND
  0
MTEXT
  5
ECB2
330
1A
100
AcDbEntity
  8
ﾌ_ﾗｹｯﾄ本体
100
AcDbMText
 10
286.2871045532144
 20
241.0608318621172
 30
0.0
 40
3.174999952316284
 41
7.572153550054679
 71
     1
 72
     1
  1
30
  7
STYLE2
1001
ACAD
1000
MTEXTBEGIN
1070
    73
1070
     1
1070
    44
1040
1.0
1070
    74
1070
     0
1000
MTEXTEND
1000
MTEXTBEGIN
1070
    73
1070
     1
1070
    44
1040
1.0
1070
    74
1070
     0
1000
MTEXTEND
1000
MTEXTBEGIN
1070
    73
1070
     1
1070
    44
1040
1.0
1070
    74
1070
     0
1000
MTEXTEND
1000
MTEXTBEGIN
1070
    73
1070
     1
1070
    44
1040
1.0
1070
    74
1070
     0
1000
MTEXTEND
1000
MTEXTBEGIN
1070
    73
1070
     1
1070
    44
1040
1.0
1070
    74
1070
     0
1000
MTEXTEND
1000
MTEXTBEGIN
1070
    73
1070
     1
1070
    44
1040
1.0
1070
    74
1070
     0
1000
MTEXTEND
1000
MTEXTBEGIN
1070
    73
1070
     1
1070
    44
1040
1.0
1070
    74
1070
     0
1000
MTEXTEND
1000
MTEXTBEGIN
1070
    73
1070
     1
1070
    44
1040
1.0
1070
    74
1070
     0
1000
MTEXTEND
1000
MTEXTBEGIN
1070
    73
1070
     1
1070
    44
1040
1.0
1070
    74
1070
     0
1000
MTEXTEND
1000
MTEXTBEGIN
1070
    73
1070
     1
1070
    44
1040
1.0
1070
    74
1070
     0
1000
MTEXTEND
1000
MTEXTBEGIN
1070
    73
1070
     1
1070
    44
1040
1.0
1070
    74
1070
     0
1000
MTEXTEND
  0
MTEXT
  5
ECB3
330
1A
100
AcDbEntity
  8
ﾌ_ﾗｹｯﾄ本体
100
AcDbMText
 10
266.0801363137616
 20
241.0407499341331
 30
0.0
 40
3.174999952316284
 41
7.572153550054679
 71
     1
 72
     1
  1
10
  7
STYLE2
1001
ACAD
1000
MTEXTBEGIN
1070
    73
1070
     1
1070
    44
1040
1.0
1070
    74
1070
     0
1000
MTEXTEND
1000
MTEXTBEGIN
1070
    73
1070
     1
1070
    44
1040
1.0
1070
    74
1070
     0
1000
MTEXTEND
1000
MTEXTBEGIN
1070
    73
1070
     1
1070
    44
1040
1.0
1070
    74
1070
     0
1000
MTEXTEND
1000
MTEXTBEGIN
1070
    73
1070
     1
1070
    44
1040
1.0
1070
    74
1070
     0
1000
MTEXTEND
1000
MTEXTBEGIN
1070
    73
1070
     1
1070
    44
1040
1.0
1070
    74
1070
     0
1000
MTEXTEND
1000
MTEXTBEGIN
1070
    73
1070
     1
1070
    44
1040
1.0
1070
    74
1070
     0
1000
MTEXTEND
1000
MTEXTBEGIN
1070
    73
1070
     1
1070
    44
1040
1.0
1070
    74
1070
     0
1000
MTEXTEND
1000
MTEXTBEGIN
1070
    73
1070
     1
1070
    44
1040
1.0
1070
    74
1070
     0
1000
MTEXTEND
1000
MTEXTBEGIN
1070
    73
1070
     1
1070
    44
1040
1.0
1070
    74
1070
     0
1000
MTEXTEND
1000
MTEXTBEGIN
1070
    73
1070
     1
1070
    44
1040
1.0
1070
    74
1070
     0
1000
MTEXTEND
1000
MTEXTBEGIN
1070
    73
1070
     1
1070
    44
1040
1.0
1070
    74
1070
     0
1000
MTEXTEND
  0
LINE
  5
ECB4
330
1A
100
AcDbEntity
  8
ﾌ_ﾗｹｯﾄ本体
100
AcDbLine
 10
275.2009383999845
 20
244.124913234567
 30
0.0
 11
275.2009383999845
 21
232.3607715025201
 31
0.0
  0
LINE
  5
ECB5
330
1A
100
AcDbEntity
  8
ﾌ_ﾗｹｯﾄ本体
100
AcDbLine
 10
268.5832913412002
 20
231.6017516927526
 30
0.0
 11
268.5832913412011
 21
244.7906839123076
 31
0.0
  0
ARC
  5
ECB6
330
1A
100
AcDbEntity
  8
ﾌ_ﾗｹｯﾄ本体
100
AcDbCircle
 10
258.903648782292
 20
239.6605256519193
 30
0.0
 40
7.874349756965287
100
AcDbArc
 50
192.4213648243267
 51
254.4024793327178
  0
ARC
  5
ECB7
330
1A
100
AcDbEntity
  8
ﾌ_ﾗｹｯﾄ本体
100
AcDbCircle
 10
258.9485780261564
 20
239.7743214689847
 30
0.0
 40
7.996045493830318
100
AcDbArc
 50
254.3116386228464
 51
268.9550603005418
  0
LINE
  5
ECB8
330
1A
100
AcDbEntity
  8
ﾌ_ﾗｹｯﾄ本体
100
AcDbLine
 10
275.2009383999845
 20
232.3607715025201
 30
0.0
 11
275.1853611858293
 21
231.5082424617379
 31
0.0
  0
LINE
  5
ECB9
330
1A
100
AcDbEntity
  8
ﾌ_ﾗｹｯﾄ本体
100
AcDbLine
 10
268.1376749486016
 20
241.2596055775477
 30
0.0
 11
268.1376749486016
 21
242.7596055775477
 31
0.0
  0
LINE
  5
ECBA
330
1A
100
AcDbEntity
  8
ﾌ_ﾗｹｯﾄ本体
100
AcDbLine
 10
267.6376749486016
 20
241.2596055775477
 30
0.0
 11
267.6376749486016
 21
242.7596055775477
 31
0.0
  0
LINE
  5
ECBB
330
1A
100
AcDbEntity
  8
ﾌ_ﾗｹｯﾄ本体
100
AcDbLine
 10
267.6376749486016
 20
241.2596055775477
 30
0.0
 11
268.1376749486016
 21
241.2596055775477
 31
0.0
  0
LINE
  5
ECBC
330
1A
100
AcDbEntity
  8
ﾌ_ﾗｹｯﾄ本体
100
AcDbLine
 10
267.6376749486016
 20
242.7596055775477
 30
0.0
 11
268.1376749486016
 21
242.7596055775477
 31
0.0
  0
LINE
  5
ECBD
330
1A
100
AcDbEntity
  8
ﾌ_ﾗｹｯﾄ本体
100
AcDbLine
 10
261.9029699889194
 20
247.7718468974054
 30
0.0
 11
261.8988624308037
 21
247.7718475301829
 31
0.0
  0
ARC
  5
ECBE
330
1A
100
AcDbEntity
  8
ﾌ_ﾗｹｯﾄ本体
100
AcDbCircle
 10
260.9777705154463
 20
253.8503512729493
 30
0.0
 40
9.21707065392716
100
AcDbArc
 50
201.3448157940551
 51
236.1612498574003
  0
ARC
  5
ECBF
330
1A
100
AcDbEntity
  8
ﾌ_ﾗｹｯﾄ本体
100
AcDbCircle
 10
261.9005590361173
 20
255.7633991290371
 30
0.0
 40
7.99155177894858
100
AcDbArc
 50
202.0121638861046
 51
269.987836113973
  0
ARC
  5
ECC0
330
1A
100
AcDbEntity
  8
ﾌ_ﾗｹｯﾄ本体
100
AcDbCircle
 10
260.6686011587169
 20
253.778665515433
 30
0.0
 40
8.987981646070462
100
AcDbArc
 50
237.5439299867907
 51
270.005600963048
  0
LINE
  5
ECC1
330
1A
100
AcDbEntity
  8
ﾌ_ﾗｹｯﾄ本体
100
AcDbLine
 10
272.6376749486016
 20
240.7596055775477
 30
0.0
 11
272.6376749486016
 21
242.7596055775477
 31
0.0
  0
LINE
  5
ECC2
330
1A
100
AcDbEntity
  8
ﾌ_ﾗｹｯﾄ本体
100
AcDbLine
 10
273.1376749486016
 20
240.7596055775477
 30
0.0
 11
273.1376749486016
 21
242.7596055775477
 31
0.0
  0
LINE
  5
ECC3
330
1A
100
AcDbEntity
  8
ﾌ_ﾗｹｯﾄ本体
100
AcDbLine
 10
277.6376749486016
 20
241.2596055775477
 30
0.0
 11
277.6376749486016
 21
242.7596055775477
 31
0.0
  0
LINE
  5
ECC4
330
1A
100
AcDbEntity
  8
ﾌ_ﾗｹｯﾄ本体
100
AcDbLine
 10
278.1376749486016
 20
241.2596055775477
 30
0.0
 11
278.1376749486016
 21
242.7596055775477
 31
0.0
  0
LINE
  5
ECC5
330
1A
100
AcDbEntity
  8
ﾌ_ﾗｹｯﾄ本体
100
AcDbLine
 10
282.6376749486016
 20
240.7596055775477
 30
0.0
 11
282.6376749486016
 21
242.7596055775477
 31
0.0
  0
LINE
  5
ECC6
330
1A
100
AcDbEntity
  8
ﾌ_ﾗｹｯﾄ本体
100
AcDbLine
 10
287.6376749486016
 20
241.2596055775477
 30
0.0
 11
287.6376749486016
 21
242.7596055775477
 31
0.0
  0
LINE
  5
ECC7
330
1A
100
AcDbEntity
  8
ﾌ_ﾗｹｯﾄ本体
100
AcDbLine
 10
288.1376749486016
 20
241.2596055775477
 30
0.0
 11
288.1376749486016
 21
242.7596055775477
 31
0.0
  0
LINE
  5
ECC8
330
1A
100
AcDbEntity
  8
ﾌ_ﾗｹｯﾄ本体
100
AcDbLine
 10
283.1376749486016
 20
240.7596055775477
 30
0.0
 11
283.1376749486016
 21
242.7596055775477
 31
0.0
  0
LINE
  5
ECC9
330
1A
100
AcDbEntity
  8
ﾌ_ﾗｹｯﾄ本体
100
AcDbLine
 10
272.6376749486016
 20
240.7596055775477
 30
0.0
 11
273.1376749486016
 21
240.7596055775477
 31
0.0
  0
LINE
  5
ECCA
330
1A
100
AcDbEntity
  8
ﾌ_ﾗｹｯﾄ本体
100
AcDbLine
 10
282.6376749486016
 20
240.7596055775477
 30
0.0
 11
283.1376749486016
 21
240.7596055775477
 31
0.0
  0
LINE
  5
ECCB
330
1A
100
AcDbEntity
  8
ﾌ_ﾗｹｯﾄ本体
100
AcDbLine
 10
277.6376749486016
 20
241.2596055775477
 30
0.0
 11
278.1376749486016
 21
241.2596055775477
 31
0.0
  0
LINE
  5
ECCC
330
1A
100
AcDbEntity
  8
ﾌ_ﾗｹｯﾄ本体
100
AcDbLine
 10
287.6376749486016
 20
241.2596055775477
 30
0.0
 11
288.1376749486016
 21
241.2596055775477
 31
0.0
  0
LINE
  5
ECCD
330
1A
100
AcDbEntity
  8
ﾌ_ﾗｹｯﾄ本体
100
AcDbLine
 10
272.6376749486016
 20
242.7596055775477
 30
0.0
 11
273.1376749486016
 21
242.7596055775477
 31
0.0
  0
LINE
  5
ECCE
330
1A
100
AcDbEntity
  8
ﾌ_ﾗｹｯﾄ本体
100
AcDbLine
 10
282.6376749486016
 20
242.7596055775477
 30
0.0
 11
283.1376749486016
 21
242.7596055775477
 31
0.0
  0
LINE
  5
ECCF
330
1A
100
AcDbEntity
  8
ﾌ_ﾗｹｯﾄ本体
100
AcDbLine
 10
277.6376749486016
 20
242.7596055775477
 30
0.0
 11
278.1376749486016
 21
242.7596055775477
 31
0.0
  0
LINE
  5
ECD0
330
1A
100
AcDbEntity
  8
ﾌ_ﾗｹｯﾄ本体
100
AcDbLine
 10
287.6376749486016
 20
242.7596055775477
 30
0.0
 11
288.1376749486016
 21
242.7596055775477
 31
0.0
  0
LINE
  5
ECD1
330
1A
100
AcDbEntity
  8
ﾌ_ﾗｹｯﾄ本体
100
AcDbLine
 10
275.2009383999845
 20
244.6242280019445
 30
0.0
 11
275.2009383999845
 21
244.124913234567
 31
0.0
  0
LINE
  5
ECD2
330
1A
100
AcDbEntity
  8
ﾌ_ﾗｹｯﾄ本体
100
AcDbLine
 10
234.9636467205834
 20
269.1131404098908
 30
0.0
 11
235.882661574509
 21
274.1677221064845
 31
0.0
  0
ARC
  5
ECD3
330
1A
100
AcDbEntity
  8
ﾌ_ﾗｹｯﾄ本体
100
AcDbCircle
 10
231.9058032705104
 20
270.4362800647187
 30
0.0
 40
2.018128321909043
100
AcDbArc
 50
154.185104343848
 51
180.0010964583232
  0
LINE
  5
ECD4
330
1A
100
AcDbEntity
  8
ﾌ_ﾗｹｯﾄ本体
100
AcDbLine
 10
232.8546766261267
 20
263.5560760596871
 30
0.0
 11
232.8546766261286
 21
272.8155879504828
 31
0.0
  0
LINE
  5
ECD5
330
1A
100
AcDbEntity
  8
ﾌ_ﾗｹｯﾄ本体
100
AcDbLine
 10
249.3448105198583
 20
265.5067809561713
 30
0.0
 11
249.344425800298
 21
265.5077331704968
 31
0.0
  0
LINE
  5
ECD6
330
1A
100
AcDbEntity
  8
ﾌ_ﾗｹｯﾄ本体
100
AcDbLine
 10
247.4925994376642
 20
266.7568058238038
 30
0.0
 11
247.4915724414311
 21
266.7568058238038
 31
0.0
  0
LINE
  5
ECD7
330
1A
100
AcDbEntity
  8
ﾌ_ﾗｹｯﾄ本体
100
AcDbLine
 10
246.4595438096828
 20
261.6967862552231
 30
0.0
 11
247.5529946811391
 21
261.9905146637664
 31
0.0
  0
LINE
  5
ECD8
330
1A
100
AcDbEntity
  8
ﾌ_ﾗｹｯﾄ本体
100
AcDbLine
 10
243.6195651463674
 20
258.1858428785616
 30
0.0
 11
243.6201219734809
 21
258.1835016488156
 31
0.0
  0
ARC
  5
ECD9
330
1A
100
AcDbEntity
  8
ﾌ_ﾗｹｯﾄ本体
100
AcDbCircle
 10
214.9659704655621
 20
252.2951679550388
 30
0.0
 40
32.29859532386569
100
AcDbArc
 50
13.25274929193975
 51
15.65038424947112
  0
ARC
  5
ECDA
330
1A
100
AcDbEntity
  8
ﾌ_ﾗｹｯﾄ本体
100
AcDbCircle
 10
246.5462267509099
 20
261.1912850305824
 30
0.0
 40
0.5128795379162616
100
AcDbArc
 50
99.73039603527309
 51
200.9081533542339
  0
ARC
  5
ECDB
330
1A
100
AcDbEntity
  8
ﾌ_ﾗｹｯﾄ本体
100
AcDbCircle
 10
247.4921608311467
 20
264.7588964933921
 30
0.0
 40
1.997909220330218
100
AcDbArc
 50
22.01257778538358
 51
89.98742221477582
  0
ARC
  5
ECDC
330
1A
100
AcDbEntity
  8
ﾌ_ﾗｹｯﾄ本体
100
AcDbCircle
 10
247.5522525700632
 20
261.4953729745173
 30
0.0
 40
0.4951422453814471
100
AcDbArc
 50
21.25949289433279
 51
89.91412599325563
  0
LINE
  5
ECDD
330
1A
100
AcDbEntity
  8
ﾌ_ﾗｹｯﾄ本体
100
AcDbLine
 10
239.7308730321581
 20
261.2568057538038
 30
0.0
 11
239.7332795676281
 21
261.2568053195074
 31
0.0
  0
LINE
  5
ECDE
330
1A
100
AcDbEntity
  8
ﾌ_ﾗｹｯﾄ本体
100
AcDbLine
 10
236.3910809053738
 20
261.256805753804
 30
0.0
 11
239.7308730321581
 21
261.256805753804
 31
0.0
  0
ARC
  5
ECDF
330
1A
100
AcDbEntity
  8
ﾌ_ﾗｹｯﾄ本体
100
AcDbCircle
 10
235.0648427881094
 20
263.6564436932989
 30
0.0
 40
2.212443925944471
100
AcDbArc
 50
182.6001183695861
 51
254.2793732736374
  0
LINE
  5
ECE0
330
1A
100
AcDbEntity
  8
ﾌ_ﾗｹｯﾄ本体
100
AcDbLine
 10
230.0909900746899
 20
265.2013638036727
 30
0.0
 11
230.0890728730625
 21
265.2053188074034
 31
0.0
  0
ARC
  5
ECE1
330
1A
100
AcDbEntity
  8
ﾌ_ﾗｹｯﾄ本体
100
AcDbCircle
 10
231.9058032731406
 20
266.0841433562972
 30
0.0
 40
2.018128324539063
100
AcDbArc
 50
179.9989035587949
 51
205.8148956390224
  0
ARC
  5
ECE2
330
1A
100
AcDbEntity
  8
ﾌ_ﾗｹｯﾄ本体
100
AcDbCircle
 10
236.3910809053738
 20
268.2602117102065
 30
0.0
 40
7.00340595640272
100
AcDbArc
 50
205.8977050884752
 51
270.0
  0
LINE
  5
ECE3
330
1A
100
AcDbEntity
  8
ﾌ_ﾗｹｯﾄ本体
100
AcDbLine
 10
247.4915724414311
 20
266.7568058238038
 30
0.0
 11
236.930187846852
 21
266.7568058238038
 31
0.0
  0
ARC
  5
ECE4
330
1A
100
AcDbEntity
  8
ﾌ_ﾗｹｯﾄ本体
100
AcDbCircle
 10
239.7324919057461
 20
257.2612911210863
 30
0.0
 40
3.995514276106281
100
AcDbArc
 50
13.3793544960827
 51
89.98870899884789
  0
ARC
  5
ECE5
330
1A
100
AcDbEntity
  8
ﾌ_ﾗｹｯﾄ本体
100
AcDbCircle
 10
236.9285389942122
 20
268.7542113844191
 30
0.0
 40
1.997405069802443
100
AcDbArc
 50
169.7001856775239
 51
269.9949678537452
  0
LINE
  5
ECE6
330
1A
100
AcDbEntity
  8
ﾌ_ﾗｹｯﾄ本体
100
AcDbLine
 10
229.8876749489697
 20
266.084181976228
 30
0.0
 11
229.8876749489707
 21
270.4362414441849
 31
0.0
  0
ARC
  5
ECE7
330
1A
100
AcDbEntity
  8
ﾌ_ﾗｹｯﾄ本体
100
AcDbCircle
 10
235.3914385061032
 20
274.2574543628526
 30
0.0
 40
0.4993512674506938
100
AcDbArc
 50
349.7001856775111
 51
89.99496785374526
  0
LINE
  5
ECE8
330
1A
100
AcDbEntity
  8
ﾌ_ﾗｹｯﾄ本体
100
AcDbLine
 10
235.3910262929419
 20
274.7568057530062
 30
0.0
 11
234.8897676920585
 21
274.7568057530062
 31
0.0
  0
LINE
  5
ECE9
330
1A
100
AcDbEntity
  8
ﾌ_ﾗｹｯﾄ本体
100
AcDbLine
 10
230.0890728730625
 20
271.31510461301
 30
0.0
 11
230.0909900746899
 21
271.3190596167431
 31
0.0
  0
ARC
  5
ECEA
330
1A
100
AcDbEntity
  8
ﾌ_ﾗｹｯﾄ本体
100
AcDbCircle
 10
236.3910809053738
 20
268.2602117102065
 30
0.0
 40
7.003405956402789
100
AcDbArc
 50
127.3072112058877
 51
154.1022949115123
  0
ARC
  5
ECEB
330
1A
100
AcDbEntity
  8
ﾌ_ﾗｹｯﾄ本体
100
AcDbCircle
 10
234.8897676920585
 20
270.2304525383118
 30
0.0
 40
4.526353214694267
100
AcDbArc
 50
90.0
 51
127.3072112058877
  0
ARC
  5
ECEC
330
1A
100
AcDbEntity
  8
ﾌ_ﾗｹｯﾄ本体
100
AcDbCircle
 10
234.8806578847522
 20
272.7368986055827
 30
0.0
 40
2.027508834332333
100
AcDbArc
 50
96.88946681227278
 51
177.7757433641488
  0
LINE
  5
ECED
330
1A
100
AcDbEntity
  8
ﾌ_ﾗｹｯﾄ本体
  6
HIDDEN
100
AcDbLine
 10
358.8091542601939
 20
255.7750908917638
 30
0.0
 11
358.8091542601939
 21
225.8050910482846
 31
0.0
  0
LINE
  5
ECEE
330
1A
100
AcDbEntity
  8
ﾌ_ﾗｹｯﾄ本体
100
AcDbLine
 10
329.884000229207
 20
255.5458866672896
 30
0.0
 11
329.8819406650907
 21
255.5395914677796
 31
0.0
  0
LINE
  5
ECEF
330
1A
100
AcDbEntity
  8
ﾌ_ﾗｹｯﾄ本体
100
AcDbLine
 10
362.1517651013789
 20
255.775090891764
 30
0.0
 11
362.1517651013798
 21
225.8050913111929
 31
0.0
  0
ARC
  5
ECF0
330
1A
100
AcDbEntity
  8
ﾌ_ﾗｹｯﾄ本体
100
AcDbCircle
 10
344.7270389064831
 20
251.7107989162576
 30
0.0
 40
5.990355586800109
100
AcDbArc
 50
112.1360433961877
 51
160.0095215164273
  0
ARC
  5
ECF1
330
1A
100
AcDbEntity
  8
ﾌ_ﾗｹｯﾄ本体
100
AcDbCircle
 10
340.2201162785347
 20
252.8226814935375
 30
0.0
 40
7.987008860035913
100
AcDbArc
 50
146.2535359472398
 51
161.8686669372147
  0
LINE
  5
ECF2
330
1A
100
AcDbEntity
  8
ﾌ_ﾗｹｯﾄ本体
100
AcDbLine
 10
335.3416405257683
 20
247.2791584757452
 30
0.0
 11
332.755572793352
 21
247.2780113621164
 31
0.0
  0
LINE
  5
ECF3
330
1A
100
AcDbEntity
  8
ﾌ_ﾗｹｯﾄ本体
100
AcDbLine
 10
334.3573867687043
 20
240.770141058212
 30
0.0
 11
331.6268350665502
 21
233.2680119140089
 31
0.0
  0
LINE
  5
ECF4
330
1A
100
AcDbEntity
  8
ﾌ_ﾗｹｯﾄ本体
100
AcDbLine
 10
321.2069270959653
 20
227.8726182896424
 30
0.0
 11
339.4757274117362
 21
228.9135418816532
 31
0.0
  0
ARC
  5
ECF5
330
1A
100
AcDbEntity
  8
ﾌ_ﾗｹｯﾄ本体
100
AcDbCircle
 10
331.5454177769586
 20
241.797067777254
 30
0.0
 40
2.99361789425795
100
AcDbArc
 50
339.9378848441865
 51
90.06211515549468
  0
MTEXT
  5
ECF6
330
1A
100
AcDbEntity
  8
ﾌ_ﾗｹｯﾄ本体
100
AcDbMText
 10
301.4680151044008
 20
241.0276705158404
 30
0.0
 40
3.174999952316284
 41
7.572153550054679
 71
     1
 72
     1
  1
45
  7
STYLE2
1001
ACAD
1000
MTEXTBEGIN
1070
    73
1070
     1
1070
    44
1040
1.0
1070
    74
1070
     0
1000
MTEXTEND
1000
MTEXTBEGIN
1070
    73
1070
     1
1070
    44
1040
1.0
1070
    74
1070
     0
1000
MTEXTEND
1000
MTEXTBEGIN
1070
    73
1070
     1
1070
    44
1040
1.0
1070
    74
1070
     0
1000
MTEXTEND
1000
MTEXTBEGIN
1070
    73
1070
     1
1070
    44
1040
1.0
1070
    74
1070
     0
1000
MTEXTEND
1000
MTEXTBEGIN
1070
    73
1070
     1
1070
    44
1040
1.0
1070
    74
1070
     0
1000
MTEXTEND
1000
MTEXTBEGIN
1070
    73
1070
     1
1070
    44
1040
1.0
1070
    74
1070
     0
1000
MTEXTEND
1000
MTEXTBEGIN
1070
    73
1070
     1
1070
    44
1040
1.0
1070
    74
1070
     0
1000
MTEXTEND
1000
MTEXTBEGIN
1070
    73
1070
     1
1070
    44
1040
1.0
1070
    74
1070
     0
1000
MTEXTEND
1000
MTEXTBEGIN
1070
    73
1070
     1
1070
    44
1040
1.0
1070
    74
1070
     0
1000
MTEXTEND
1000
MTEXTBEGIN
1070
    73
1070
     1
1070
    44
1040
1.0
1070
    74
1070
     0
1000
MTEXTEND
1000
MTEXTBEGIN
1070
    73
1070
     1
1070
    44
1040
1.0
1070
    74
1070
     0
1000
MTEXTEND
  0
LINE
  5
ECF7
330
1A
100
AcDbEntity
  8
ﾌ_ﾗｹｯﾄ本体
100
AcDbLine
 10
323.0708583739312
 20
230.9648200242301
 30
0.0
 11
323.0708583739312
 21
244.7906839123076
 31
0.0
  0
LINE
  5
ECF8
330
1A
100
AcDbEntity
  8
ﾌ_ﾗｹｯﾄ本体
100
AcDbLine
 10
316.4532113150733
 20
230.9237401735111
 30
0.0
 11
316.4532113150751
 21
244.7906839123076
 31
0.0
  0
ARC
  5
ECF9
330
1A
100
AcDbEntity
  8
ﾌ_ﾗｹｯﾄ本体
100
AcDbCircle
 10
328.8120247793756
 20
234.292122612028
 30
0.0
 40
2.995322966658246
100
AcDbArc
 50
273.2539587814215
 51
340.0071263302411
  0
LINE
  5
ECFA
330
1A
100
AcDbEntity
  8
ﾌ_ﾗｹｯﾄ本体
100
AcDbLine
 10
328.9820446129013
 20
231.3016288516604
 30
0.0
 11
321.1492835460483
 21
230.855332124774
 31
0.0
  0
LINE
  5
ECFE
330
1A
100
AcDbEntity
  8
ﾌ_ﾗｹｯﾄ本体
100
AcDbLine
 10
321.1492835460483
 20
230.855332124774
 30
0.0
 11
320.6880900810626
 21
230.8637589454769
 31
0.0
  0
LINE
  5
ECFF
330
1A
100
AcDbEntity
  8
ﾌ_ﾗｹｯﾄ本体
100
AcDbLine
 10
292.6376749486016
 20
240.7596055775477
 30
0.0
 11
292.6376749486016
 21
242.7596055775477
 31
0.0
  0
LINE
  5
ED00
330
1A
100
AcDbEntity
  8
ﾌ_ﾗｹｯﾄ本体
100
AcDbLine
 10
293.1376749486016
 20
240.7596055775477
 30
0.0
 11
293.1376749486016
 21
242.7596055775477
 31
0.0
  0
LINE
  5
ED01
330
1A
100
AcDbEntity
  8
ﾌ_ﾗｹｯﾄ本体
100
AcDbLine
 10
292.6376749486016
 20
240.7596055775477
 30
0.0
 11
293.1376749486016
 21
240.7596055775477
 31
0.0
  0
LINE
  5
ED02
330
1A
100
AcDbEntity
  8
ﾌ_ﾗｹｯﾄ本体
100
AcDbLine
 10
292.6376749486016
 20
242.7596055775477
 30
0.0
 11
293.1376749486016
 21
242.7596055775477
 31
0.0
  0
LINE
  5
ED03
330
1A
100
AcDbEntity
  8
ﾌ_ﾗｹｯﾄ本体
100
AcDbLine
 10
298.1376749486016
 20
240.7596055775477
 30
0.0
 11
298.1376749486016
 21
242.7596055775477
 31
0.0
  0
LINE
  5
ED04
330
1A
100
AcDbEntity
  8
ﾌ_ﾗｹｯﾄ本体
100
AcDbLine
 10
297.6376749486016
 20
240.7596055775477
 30
0.0
 11
297.6376749486016
 21
242.7596055775477
 31
0.0
  0
LINE
  5
ED05
330
1A
100
AcDbEntity
  8
ﾌ_ﾗｹｯﾄ本体
100
AcDbLine
 10
302.6376749486016
 20
241.2596055775477
 30
0.0
 11
302.6376749486016
 21
242.7596055775477
 31
0.0
  0
LINE
  5
ED06
330
1A
100
AcDbEntity
  8
ﾌ_ﾗｹｯﾄ本体
100
AcDbLine
 10
303.1376749486016
 20
241.2596055775477
 30
0.0
 11
303.1376749486016
 21
242.7596055775477
 31
0.0
  0
LINE
  5
ED07
330
1A
100
AcDbEntity
  8
ﾌ_ﾗｹｯﾄ本体
100
AcDbLine
 10
297.6376749486016
 20
240.7596055775477
 30
0.0
 11
298.1376749486016
 21
240.7596055775477
 31
0.0
  0
LINE
  5
ED08
330
1A
100
AcDbEntity
  8
ﾌ_ﾗｹｯﾄ本体
100
AcDbLine
 10
302.6376749486016
 20
241.2596055775477
 30
0.0
 11
303.1376749486016
 21
241.2596055775477
 31
0.0
  0
LINE
  5
ED09
330
1A
100
AcDbEntity
  8
ﾌ_ﾗｹｯﾄ本体
100
AcDbLine
 10
297.6376749486016
 20
242.7596055775477
 30
0.0
 11
298.1376749486016
 21
242.7596055775477
 31
0.0
  0
LINE
  5
ED0A
330
1A
100
AcDbEntity
  8
ﾌ_ﾗｹｯﾄ本体
100
AcDbLine
 10
302.6376749486016
 20
242.7596055775477
 30
0.0
 11
303.1376749486016
 21
242.7596055775477
 31
0.0
  0
LINE
  5
ED0B
330
1A
100
AcDbEntity
  8
ﾌ_ﾗｹｯﾄ本体
100
AcDbLine
 10
329.1438101193996
 20
253.2821798467283
 30
0.0
 11
329.1424370766542
 21
253.2779830470552
 31
0.0
  0
LINE
  5
ED0C
330
1A
100
AcDbEntity
  8
ﾌ_ﾗｹｯﾄ本体
100
AcDbLine
 10
330.8567147353239
 20
249.8971589740134
 30
0.0
 11
332.6296968211861
 21
255.3082081966321
 31
0.0
  0
ARC
  5
ED0D
330
1A
100
AcDbEntity
  8
ﾌ_ﾗｹｯﾄ本体
100
AcDbCircle
 10
332.7527032551331
 20
249.2738321395355
 30
0.0
 40
1.995822840291047
100
AcDbArc
 50
161.8011583075805
 51
270.0823782965045
  0
ARC
  5
ED0F
330
1A
100
AcDbEntity
  8
ﾌ_ﾗｹｯﾄ本体
100
AcDbCircle
 10
321.5473588500369
 20
255.7631819357069
 30
0.0
 40
7.991334480835699
100
AcDbArc
 50
270.0119472726424
 51
341.8812952007117
  0
LINE
  5
ED12
330
1A
100
AcDbEntity
  8
ﾌ_ﾗｹｯﾄ本体
100
AcDbLine
 10
329.8819406650907
 20
255.5395914677796
 30
0.0
 11
329.1438101193996
 21
253.2821798467283
 31
0.0
  0
LINE
  5
ED13
330
1A
100
AcDbEntity
  8
ﾌ_ﾗｹｯﾄ本体
100
AcDbLine
 10
356.8191542643251
 20
251.7550908917641
 30
0.0
 11
356.8191542643251
 21
225.805090891764
 31
0.0
  0
LINE
  5
ED14
330
1A
100
AcDbEntity
  8
ﾌ_ﾗｹｯﾄ本体
100
AcDbLine
 10
334.9188071818023
 20
233.596293512683
 30
0.0
 11
341.9019620365649
 21
252.7823537924067
 31
0.0
  0
ARC
  5
ED15
330
1A
100
AcDbEntity
  8
ﾌ_ﾗｹｯﾄ本体
100
AcDbCircle
 10
342.1110395392858
 20
231.755924828284
 30
0.0
 40
0.4991658685565928
100
AcDbArc
 50
329.6828451623436
 51
90.0297970710587
  0
LINE
  5
ED16
330
1A
100
AcDbEntity
  8
ﾌ_ﾗｹｯﾄ本体
100
AcDbLine
 10
342.1107800211864
 20
232.2550908917638
 30
0.0
 11
342.1101173452259
 21
232.2550908917638
 31
0.0
  0
LINE
  5
ED17
330
1A
100
AcDbEntity
  8
ﾌ_ﾗｹｯﾄ本体
100
AcDbLine
 10
342.5416077591542
 20
231.5033805402644
 30
0.0
 11
342.5419419712286
 21
231.5039527654974
 31
0.0
  0
LINE
  5
ED18
330
1A
100
AcDbEntity
  8
ﾌ_ﾗｹｯﾄ本体
100
AcDbLine
 10
339.4757274117362
 20
228.9135418816532
 30
0.0
 11
339.4769513538774
 21
228.913611619689
 31
0.0
  0
LINE
  5
ED19
330
1A
100
AcDbEntity
  8
ﾌ_ﾗｹｯﾄ本体
100
AcDbLine
 10
341.8934977337191
 20
230.3937111477388
 30
0.0
 11
341.8941160143456
 21
230.394769744368
 31
0.0
  0
LINE
  5
ED1A
330
1A
100
AcDbEntity
  8
ﾌ_ﾗｹｯﾄ本体
100
AcDbLine
 10
341.8941160143456
 20
230.394769744368
 30
0.0
 11
342.5416077591542
 21
231.5033805402644
 31
0.0
  0
ARC
  5
ED1B
330
1A
100
AcDbEntity
  8
ﾌ_ﾗｹｯﾄ本体
100
AcDbCircle
 10
339.3058780671233
 20
231.905709081578
 30
0.0
 40
2.996983882125313
100
AcDbArc
 50
273.2723254995698
 51
329.7014018457323
  0
ARC
  5
ED1C
330
1A
100
AcDbEntity
  8
ﾌ_ﾗｹｯﾄ本体
100
AcDbCircle
 10
335.856768718462
 20
233.2536704241803
 30
0.0
 40
0.9985791812147333
100
AcDbArc
 50
159.9958977786543
 51
270.0041022210405
  0
LINE
  5
ED1D
330
1A
100
AcDbEntity
  8
ﾌ_ﾗｹｯﾄ本体
100
AcDbLine
 10
334.918435542522
 20
233.595271407022
 30
0.0
 11
334.9188071818023
 21
233.596293512683
 31
0.0
  0
LINE
  5
ED1E
330
1A
100
AcDbEntity
  8
ﾌ_ﾗｹｯﾄ本体
100
AcDbLine
 10
335.857927367231
 20
232.2550908917638
 30
0.0
 11
335.856839793965
 21
232.2550912457983
 31
0.0
  0
LINE
  5
ED1F
330
1A
100
AcDbEntity
  8
ﾌ_ﾗｹｯﾄ本体
100
AcDbLine
 10
342.1101173452259
 20
232.2550908917638
 30
0.0
 11
335.857927367231
 21
232.2550908917638
 31
0.0
  0
LINE
  5
ED20
330
1A
100
AcDbEntity
  8
ﾌ_ﾗｹｯﾄ本体
100
AcDbLine
 10
356.8191542643251
 20
236.9181649171849
 30
0.0
 11
356.8191541959074
 21
236.9173380233161
 31
0.0
  0
ARC
  5
ED21
330
1A
100
AcDbEntity
  8
ﾌ_ﾗｹｯﾄ本体
100
AcDbCircle
 10
353.822081693888
 20
236.9177723848496
 30
0.0
 40
2.997072533495267
100
AcDbArc
 50
326.3139580691533
 51
359.9916965964562
  0
LINE
  5
ED22
330
1A
100
AcDbEntity
  8
ﾌ_ﾗｹｯﾄ本体
100
AcDbLine
 10
356.8191541959074
 20
228.332316028196
 30
0.0
 11
356.8191542643251
 21
228.3314891343274
 31
0.0
  0
ARC
  5
ED23
330
1A
100
AcDbEntity
  8
ﾌ_ﾗｹｯﾄ本体
100
AcDbCircle
 10
353.822081693888
 20
228.3318816666627
 30
0.0
 40
2.997072533495495
100
AcDbArc
 50
0.0083034035437287
 51
33.68604193084668
  0
LINE
  5
ED24
330
1A
100
AcDbEntity
  8
ﾌ_ﾗｹｯﾄ本体
100
AcDbLine
 10
356.3159135768089
 20
229.9941831768447
 30
0.0
 11
356.3158384769264
 21
229.9942958388204
 31
0.0
  0
ARC
  5
ED25
330
1A
100
AcDbEntity
  8
ﾌ_ﾗｹｯﾄ本体
100
AcDbCircle
 10
358.8096962491724
 20
231.6565781365892
 30
0.0
 40
2.997083416201892
100
AcDbArc
 50
180.0051583863735
 51
213.6854618230959
  0
LINE
  5
ED26
330
1A
100
AcDbEntity
  8
ﾌ_ﾗｹｯﾄ本体
100
AcDbLine
 10
355.8126128151595
 20
233.592798581987
 30
0.0
 11
355.8126128151595
 21
231.6568554695249
 31
0.0
  0
LINE
  5
ED27
330
1A
100
AcDbEntity
  8
ﾌ_ﾗｹｯﾄ本体
100
AcDbLine
 10
355.8126128151595
 20
233.5933457556647
 30
0.0
 11
355.8126128151595
 21
233.592798581987
 31
0.0
  0
LINE
  5
ED28
330
1A
100
AcDbEntity
  8
ﾌ_ﾗｹｯﾄ本体
100
AcDbLine
 10
355.8126128151595
 20
231.6568554695249
 30
0.0
 11
355.8126128151595
 21
231.656308295847
 31
0.0
  0
LINE
  5
ED29
330
1A
100
AcDbEntity
  8
ﾌ_ﾗｹｯﾄ本体
100
AcDbLine
 10
356.8191542643251
 20
225.805090891764
 30
0.0
 11
362.1517651013798
 21
225.8050913111929
 31
0.0
  0
POLYLINE
  5
ED2A
330
1A
100
AcDbEntity
  8
ﾌ_ﾗｹｯﾄ本体
100
AcDb2dPolyline
 66
     1
 10
0.0
 20
0.0
 30
0.0
  0
VERTEX
  5
12B17
330
ED2A
100
AcDbEntity
  8
ﾌ_ﾗｹｯﾄ本体
100
AcDbVertex
100
AcDb2dVertex
 10
355.8126128451165
 20
233.5933457448185
 30
0.0
  0
VERTEX
  5
12B18
330
ED2A
100
AcDbEntity
  8
ﾌ_ﾗｹｯﾄ本体
100
AcDbVertex
100
AcDb2dVertex
 10
355.9061971550706
 20
234.3361803757583
 30
0.0
  0
VERTEX
  5
12B19
330
ED2A
100
AcDbEntity
  8
ﾌ_ﾗｹｯﾄ本体
100
AcDbVertex
100
AcDb2dVertex
 10
356.3158384804789
 20
235.2553582114056
 30
0.0
  0
SEQEND
  5
12B1A
330
ED2A
100
AcDbEntity
  8
ﾌ_ﾗｹｯﾄ本体
  0
ARC
  5
ED2B
330
1A
100
AcDbEntity
  8
ﾌ_ﾗｹｯﾄ本体
100
AcDbCircle
 10
353.8191542643251
 20
251.7550908917641
 30
0.0
 40
3.0
100
AcDbArc
 50
0.0
 51
90.0
  0
ARC
  5
ED2C
330
1A
100
AcDbEntity
  8
ﾌ_ﾗｹｯﾄ本体
100
AcDbCircle
 10
356.8096224140224
 20
247.2621553019192
 30
0.0
 40
2.997009517822447
100
AcDbArc
 50
180.0109177760722
 51
233.988184284653
  0
ARC
  5
ED2D
330
1A
100
AcDbEntity
  8
ﾌ_ﾗｹｯﾄ本体
100
AcDbCircle
 10
350.8162912508885
 20
251.7587693274937
 30
0.0
 40
2.996321074338088
100
AcDbArc
 50
0.0082774037284371
 51
89.99172259631064
  0
LINE
  5
ED2E
330
1A
100
AcDbEntity
  8
ﾌ_ﾗｹｯﾄ本体
100
AcDbLine
 10
353.8126128151596
 20
251.7569184107068
 30
0.0
 11
353.8126128151596
 21
247.2627478085138
 31
0.0
  0
LINE
  5
ED2F
330
1A
100
AcDbEntity
  8
ﾌ_ﾗｹｯﾄ本体
100
AcDbLine
 10
353.8126122937608
 20
251.7592026332032
 30
0.0
 11
353.8126128151596
 21
251.7569184107068
 31
0.0
  0
LINE
  5
ED30
330
1A
100
AcDbEntity
  8
ﾌ_ﾗｹｯﾄ本体
100
AcDbLine
 10
353.8126128151596
 20
247.2627478085138
 30
0.0
 11
353.8126128151596
 21
247.2615842067224
 31
0.0
  0
LINE
  5
ED31
330
1A
100
AcDbEntity
  8
ﾌ_ﾗｹｯﾄ本体
100
AcDbLine
 10
350.8144403341009
 20
254.755090891764
 30
0.0
 11
350.816724556598
 21
254.755090370366
 31
0.0
  0
LINE
  5
ED32
330
1A
100
AcDbEntity
  8
ﾌ_ﾗｹｯﾄ本体
100
AcDbLine
 10
344.7177232863503
 20
254.7550906359689
 30
0.0
 11
344.7193225928529
 21
254.755090891764
 31
0.0
  0
LINE
  5
ED33
330
1A
100
AcDbEntity
  8
ﾌ_ﾗｹｯﾄ本体
100
AcDbLine
 10
339.0976055664139
 20
253.7586857114778
 30
0.0
 11
337.21756420213
 21
248.5933145155444
 31
0.0
  0
LINE
  5
ED34
330
1A
100
AcDbEntity
  8
ﾌ_ﾗｹｯﾄ本体
100
AcDbLine
 10
341.9019620365649
 20
252.7823537924067
 30
0.0
 11
341.9025092719728
 21
252.7838565614384
 31
0.0
  0
ARC
  5
ED35
330
1A
100
AcDbEntity
  8
ﾌ_ﾗｹｯﾄ本体
100
AcDbCircle
 10
344.718387004106
 20
251.758254569912
 30
0.0
 40
2.996836139569222
100
AcDbArc
 50
90.01268661124703
 51
159.9873133884473
  0
ARC
  5
ED36
330
1A
100
AcDbEntity
  8
ﾌ_ﾗｹｯﾄ本体
100
AcDbCircle
 10
335.3410494725028
 20
249.2759964155173
 30
0.0
 40
1.996838027246785
100
AcDbArc
 50
270.0169592413539
 51
340.0084557018501
  0
LINE
  5
ED37
330
1A
100
AcDbEntity
  8
ﾌ_ﾗｹｯﾄ本体
100
AcDbLine
 10
344.7193225928529
 20
254.755090891764
 30
0.0
 11
353.8191542643251
 21
254.755090891764
 31
0.0
  0
LINE
  5
ED38
330
1A
100
AcDbEntity
  8
ﾌ_ﾗｹｯﾄ本体
100
AcDbLine
 10
356.8191541288449
 20
242.0242281322097
 30
0.0
 11
356.8191542643251
 21
242.0230644156339
 31
0.0
  0
ARC
  5
ED39
330
1A
100
AcDbEntity
  8
ﾌ_ﾗｹｯﾄ本体
100
AcDbCircle
 10
353.8221446655004
 20
242.0236569222489
 30
0.0
 40
2.997009517780023
100
AcDbArc
 50
0.0109190950597912
 51
53.9881829655749
  0
LINE
  5
ED3A
330
1A
100
AcDbEntity
  8
ﾌ_ﾗｹｯﾄ本体
100
AcDbLine
 10
355.5833013648113
 20
244.448609286106
 30
0.0
 11
355.584242740944
 21
244.4479251463056
 31
0.0
  0
LINE
  5
ED3B
330
1A
100
AcDbEntity
  8
ﾌ_ﾗｹｯﾄ本体
100
AcDbLine
 10
355.0484657146714
 20
244.8372029380419
 30
0.0
 11
355.5833013648113
 21
244.448609286106
 31
0.0
  0
LINE
  5
ED3C
330
1A
100
AcDbEntity
  8
ﾌ_ﾗｹｯﾄ本体
100
AcDbLine
 10
355.0475243517664
 20
244.8378869007677
 30
0.0
 11
355.0484657146714
 21
244.8372029380419
 31
0.0
  0
ARC
  5
ED3D
330
1A
100
AcDbEntity
  8
ﾌ_ﾗｹｯﾄ本体
100
AcDbCircle
 10
341.276318252763
 20
251.8183660049184
 30
0.0
 40
11.98663089605426
100
AcDbArc
 50
153.0030392510342
 51
161.8821117095037
  0
ARC
  5
ED3F
330
1A
100
AcDbEntity
  8
ﾌ_ﾗｹｯﾄ本体
  6
HIDDEN
100
AcDbCircle
 10
350.8091542601939
 20
255.7750908917638
 30
0.0
 40
8.0
100
AcDbArc
 50
0.0
 51
10.69411227492582
  0
ARC
  5
ED49
330
1A
100
AcDbEntity
  8
ﾌ_ﾗｹｯﾄ本体
100
AcDbCircle
 10
354.1517651013789
 20
255.775090891764
 30
0.0
 40
8.0
100
AcDbArc
 50
0.0
 51
10.69411227492414
  0
LINE
  5
ED4C
330
1A
100
AcDbEntity
  8
CENTER_L
 48
10.0
100
AcDbLine
 10
219.9128660255035
 20
434.7805275713794
 30
0.0
 11
389.0087736058922
 21
434.7805275713794
 31
0.0
  0
LINE
  5
ED5A
330
1A
100
AcDbEntity
  8
CENTER_L
 48
10.0
100
AcDbLine
 10
365.8127335466858
 20
463.7805275713794
 30
0.0
 11
383.8794417917679
 21
463.7805275713794
 31
0.0
  0
LINE
  5
ED5B
330
1A
100
AcDbEntity
  8
CENTER_L
 48
10.0
100
AcDbLine
 10
365.8127335466858
 20
405.7805275713794
 30
0.0
 11
383.8794417917679
 21
405.7805275713794
 31
0.0
  0
LINE
  5
ED5F
330
1A
100
AcDbEntity
  8
CENTER_L
 48
10.0
100
AcDbLine
 10
384.934725789463
 20
270.7596160192019
 30
0.0
 11
365.9108773792922
 21
270.7596160192019
 31
0.0
  0
LINE
  5
ED60
330
1A
100
AcDbEntity
  8
CENTER_L
 48
10.0
100
AcDbLine
 10
384.934725789463
 20
266.2800963541815
 30
0.0
 11
365.8115990013011
 21
266.2800963541815
 31
0.0
  0
LINE
  5
ED61
330
1A
100
AcDbEntity
  8
CENTER_L
 48
10.0
100
AcDbLine
 10
384.9347257894628
 20
213.0096160192058
 30
0.0
 11
365.8417984800362
 21
213.0096160192058
 31
0.0
  0
LINE
  5
EE92
330
1A
100
AcDbEntity
  8
CENTER_L
 48
10.0
100
AcDbLine
 10
544.2898672927892
 20
288.4238996382357
 30
0.0
 11
544.2898672927892
 21
195.2877775890333
 31
0.0
  0
LINE
  5
EE94
330
1A
100
AcDbEntity
  8
止め具
100
AcDbLine
 10
540.8546928398054
 20
274.6649329723314
 30
0.0
 11
547.7250417457731
 21
274.6649329723317
 31
0.0
  0
LINE
  5
EE95
330
1A
100
AcDbEntity
  8
止め具
100
AcDbLine
 10
554.9280638940096
 20
253.2922398113055
 30
0.0
 11
554.9280638940506
 21
273.7269922270556
 31
0.0
  0
ARC
  5
EE96
330
1A
100
AcDbEntity
  8
止め具
100
AcDbCircle
 10
573.3715356190134
 20
258.5768162445103
 30
0.0
 40
0.78917764221777
100
AcDbArc
 50
351.3181609338379
 51
101.0538133992982
  0
LINE
  5
EE97
330
1A
100
AcDbEntity
  8
止め具
100
AcDbLine
 10
581.2898672928877
 20
254.7596160191276
 30
0.0
 11
581.2898672929177
 21
269.7596160191277
 31
0.0
  0
ARC
  5
EE98
330
1A
100
AcDbEntity
  8
止め具
100
AcDbCircle
 10
572.9084813513988
 20
266.8773369845642
 30
0.0
 40
7.532438126415431
100
AcDbArc
 50
190.9076363527448
 51
272.3719743331679
  0
LINE
  5
EE99
330
1A
100
AcDbEntity
  8
止め具
100
AcDbLine
 10
558.651670691717
 20
232.0274801758346
 30
0.0
 11
558.65167069168
 21
213.556745265404
 31
0.0
  0
LINE
  5
EE9A
330
1A
100
AcDbEntity
  8
止め具
100
AcDbLine
 10
555.2137021635838
 20
210.0678387371075
 30
0.0
 11
555.2137021636574
 21
246.7269922270551
 31
0.0
  0
LINE
  5
EE9B
330
1A
100
AcDbEntity
  8
止め具
100
AcDbLine
 10
561.7898672928419
 20
232.0274801758283
 30
0.0
 11
561.7898672928049
 21
213.5567452653978
 31
0.0
  0
ARC
  5
EE9C
330
1A
100
AcDbEntity
  8
止め具
100
AcDbCircle
 10
554.5398672928049
 20
213.5567452654123
 30
0.0
 40
7.250000000000001
100
AcDbArc
 50
273.0000000004124
 51
359.999999999885
  0
ARC
  5
EE9D
330
1A
100
AcDbEntity
  8
止め具
100
AcDbCircle
 10
554.5398672928049
 20
213.5567452654123
 30
0.0
 40
4.111803398880607
100
AcDbArc
 50
287.8131466751751
 51
359.999999999885
  0
POLYLINE
  5
EE9E
330
1A
100
AcDbEntity
  8
止め具
100
AcDb2dPolyline
 66
     1
 10
0.0
 20
0.0
 30
0.0
  0
VERTEX
  5
12B1B
330
EE9E
100
AcDbEntity
  8
止め具
100
AcDbVertex
100
AcDb2dVertex
 10
555.7977245541244
 20
209.6420649079403
 30
0.0
  0
VERTEX
  5
12B1C
330
EE9E
100
AcDbEntity
  8
止め具
100
AcDbVertex
100
AcDb2dVertex
 10
555.6023236294134
 20
209.5773778873019
 30
0.0
  0
VERTEX
  5
12B1D
330
EE9E
100
AcDbEntity
  8
止め具
100
AcDbVertex
100
AcDb2dVertex
 10
555.4905328570241
 20
209.5733531228647
 30
0.0
  0
VERTEX
  5
12B1E
330
EE9E
100
AcDbEntity
  8
止め具
100
AcDbVertex
100
AcDb2dVertex
 10
555.4178753376874
 20
209.5882900624355
 30
0.0
  0
VERTEX
  5
12B1F
330
EE9E
100
AcDbEntity
  8
止め具
100
AcDbVertex
100
AcDb2dVertex
 10
555.3363901708146
 20
209.6298034457269
 30
0.0
  0
VERTEX
  5
12B20
330
EE9E
100
AcDbEntity
  8
止め具
100
AcDbVertex
100
AcDb2dVertex
 10
555.2948902864705
 20
209.6672389252205
 30
0.0
  0
VERTEX
  5
12B21
330
EE9E
100
AcDbEntity
  8
止め具
100
AcDbVertex
100
AcDb2dVertex
 10
555.237591759917
 20
209.7588022963557
 30
0.0
  0
VERTEX
  5
12B22
330
EE9E
100
AcDbEntity
  8
止め具
100
AcDbVertex
100
AcDb2dVertex
 10
555.2277851494189
 20
209.7850113564025
 30
0.0
  0
VERTEX
  5
12B23
330
EE9E
100
AcDbEntity
  8
止め具
100
AcDbVertex
100
AcDb2dVertex
 10
555.203830709971
 20
209.9397082703729
 30
0.0
  0
VERTEX
  5
12B24
330
EE9E
100
AcDbEntity
  8
止め具
100
AcDbVertex
100
AcDb2dVertex
 10
555.2137021635838
 20
210.0678387371077
 30
0.0
  0
SEQEND
  5
12B25
330
EE9E
100
AcDbEntity
  8
止め具
  0
ARC
  5
EE9F
330
1A
100
AcDbEntity
  8
止め具
100
AcDbCircle
 10
555.7146625977916
 20
253.1844113240861
 30
0.0
 40
0.7939549757059011
100
AcDbArc
 50
172.1944326492686
 51
277.8055673504368
  0
ARC
  5
EEA0
330
1A
100
AcDbEntity
  8
止め具
100
AcDbCircle
 10
574.789867292842
 20
232.0274801758023
 30
0.0
 40
16.13819660112503
100
AcDbArc
 50
124.0584083385112
 51
179.9999999998849
  0
ARC
  5
EEA1
330
1A
100
AcDbEntity
  8
止め具
100
AcDbCircle
 10
574.789867292842
 20
232.0274801758023
 30
0.0
 40
13.0
100
AcDbArc
 50
98.75292907679506
 51
179.9999999998849
  0
ARC
  5
EEA2
330
1A
100
AcDbEntity
  8
止め具
100
AcDbCircle
 10
571.2898672928877
 20
254.7596160191477
 30
0.0
 40
10.00000000000002
100
AcDbArc
 50
278.752929076795
 51
359.999999999885
  0
LINE
  5
EEA3
330
1A
100
AcDbEntity
  8
止め具
100
AcDbLine
 10
566.145382205332
 20
246.7269922270332
 30
0.0
 11
566.1453822053306
 21
246.1384484553675
 31
0.0
  0
ARC
  5
EEA4
330
1A
100
AcDbEntity
  8
止め具
100
AcDbCircle
 10
565.3587835015518
 20
246.8348207142528
 30
0.0
 40
0.7939549757054679
100
AcDbArc
 50
352.1944326492556
 51
97.80556735043687
  0
ARC
  5
EEA5
330
1A
100
AcDbEntity
  8
止め具
100
AcDbCircle
 10
565.3449368353237
 20
246.0885388644683
 30
0.0
 40
0.8019998488964537
100
AcDbArc
 50
300.4905050500352
 51
3.567903288863547
  0
LINE
  5
EEA6
330
1A
100
AcDbEntity
  8
止め具
100
AcDbLine
 10
556.1081293546597
 20
247.6214194180532
 30
0.0
 11
565.2509550143352
 21
247.6214194180349
 31
0.0
  0
ARC
  5
EEA7
330
1A
100
AcDbEntity
  8
止め具
100
AcDbCircle
 10
556.0003008674398
 20
246.834820714272
 30
0.0
 40
0.7939549757049261
100
AcDbArc
 50
82.19443264922789
 51
187.805567350553
  0
LINE
  5
EEA8
330
1A
100
AcDbEntity
  8
止め具
100
AcDbLine
 10
574.15167069177
 20
258.4576918589638
 30
0.0
 11
574.1516706917598
 21
253.2922398112668
 31
0.0
  0
ARC
  5
EEA9
330
1A
100
AcDbEntity
  8
止め具
100
AcDbCircle
 10
573.3650719879774
 20
253.1844113240506
 30
0.0
 40
0.793954975705271
100
AcDbArc
 50
262.1944326492279
 51
7.805567350527138
  0
LINE
  5
EEAA
330
1A
100
AcDbEntity
  8
止め具
100
AcDbLine
 10
573.2572435007575
 20
252.3978126202687
 30
0.0
 11
555.8224910850083
 21
252.3978126203037
 31
0.0
  0
ARC
  5
EEAB
330
1A
100
AcDbEntity
  8
止め具
100
AcDbCircle
 10
555.7146625978329
 20
273.8348207142724
 30
0.0
 40
0.7939549757052764
100
AcDbArc
 50
82.19443264922789
 51
187.8055673505271
  0
ARC
  5
EEAC
330
1A
100
AcDbEntity
  8
止め具
100
AcDbCircle
 10
564.7255293038633
 20
273.8348207142552
 30
0.0
 40
0.7939549757043613
100
AcDbArc
 50
352.1944326491652
 51
97.80556735054211
  0
ARC
  5
EEAD
330
1A
100
AcDbEntity
  8
止め具
100
AcDbCircle
 10
571.2898672929177
 20
269.7596160191477
 30
0.0
 40
10.0
100
AcDbArc
 50
359.999999999885
 51
89.99999999988501
  0
ARC
  5
EEAE
330
1A
100
AcDbEntity
  8
止め具
100
AcDbCircle
 10
573.2898672929106
 20
266.2800963541233
 30
0.0
 40
3.512515129828058
100
AcDbArc
 50
121.5318647333807
 51
58.46813526649761
  0
LINE
  5
EEAF
330
1A
100
AcDbEntity
  8
止め具
100
AcDbLine
 10
565.5121280076435
 20
273.7269922270344
 30
0.0
 11
565.5121280076269
 21
265.4520014653372
 31
0.0
  0
ARC
  5
EEB0
330
1A
100
AcDbEntity
  8
止め具
100
AcDbCircle
 10
573.2898672929198
 20
270.7596160191438
 30
0.0
 40
2.362515129828146
100
AcDbArc
 50
321.0358662984796
 51
218.9641337012903
  0
LINE
  5
EEB1
330
1A
100
AcDbEntity
  8
止め具
100
AcDbLine
 10
555.8224910850529
 20
274.6214194180538
 30
0.0
 11
564.6177008166467
 21
274.6214194180362
 31
0.0
  0
ARC
  5
EEB2
330
1A
100
AcDbEntity
  8
止め具
100
AcDbCircle
 10
557.1398672929348
 20
278.0932144984668
 30
0.0
 40
4.00000000000092
100
AcDbArc
 50
24.62014054708868
 51
89.99999999988501
  0
LINE
  5
EEB5
330
1A
100
AcDbEntity
  8
CENTER_L
 48
10.0
100
AcDbLine
 10
508.0989992582626
 20
266.2800963541815
 30
0.0
 11
522.4807353273158
 21
266.2800963541815
 31
0.0
  0
LINE
  5
EEB7
330
1A
100
AcDbEntity
  8
CENTER_L
 48
10.0
100
AcDbLine
 10
515.2898672927892
 20
276.5948338380587
 30
0.0
 11
515.2898672927892
 21
259.0892283196549
 31
0.0
  0
LINE
  5
EEB8
330
1A
100
AcDbEntity
  8
CENTER_L
 48
10.0
100
AcDbLine
 10
509.4546494739325
 20
270.7596160192019
 30
0.0
 11
521.125085111646
 21
270.7596160192019
 31
0.0
  0
LINE
  5
EEBA
330
1A
100
AcDbEntity
  8
CENTER_L
 48
10.0
100
AcDbLine
 10
538.4546494739397
 20
213.0096160192058
 30
0.0
 11
550.1250851116533
 21
213.0096160192058
 31
0.0
  0
LINE
  5
EEBB
330
1A
100
AcDbEntity
  8
CENTER_L
 48
10.0
100
AcDbLine
 10
573.2898672927892
 20
276.5948338380587
 30
0.0
 11
573.2898672927892
 21
259.0892283196549
 31
0.0
  0
LINE
  5
EEBC
330
1A
100
AcDbEntity
  8
CENTER_L
 48
10.0
100
AcDbLine
 10
579.125085111646
 20
270.7596160192019
 30
0.0
 11
567.4546494739324
 21
270.7596160192019
 31
0.0
  0
LINE
  5
EEBD
330
1A
100
AcDbEntity
  8
CENTER_L
 48
10.0
100
AcDbLine
 10
580.4807353273158
 20
266.2800963541815
 30
0.0
 11
566.0989992582626
 21
266.2800963541815
 31
0.0
  0
LINE
  5
EEC1
330
1A
100
AcDbEntity
  8
ﾌ_ﾗｹｯﾄ本体
100
AcDbLine
 10
261.8988624308033
 20
434.7805396454949
 30
0.0
 11
261.5489020185862
 21
424.8805275713793
 31
0.0
  0
ARC
  5
EEC2
330
1A
100
AcDbEntity
  8
ﾌ_ﾗｹｯﾄ本体
100
AcDbCircle
 10
259.3876749489584
 20
434.7805275713752
 30
0.0
 40
29.99999999998657
100
AcDbArc
 50
190.8440625636854
 51
203.527034583842
  0
LINE
  5
EEC3
330
1A
100
AcDbEntity
  8
ﾌ_ﾗｹｯﾄ本体
100
AcDbLine
 10
249.9741437686109
 20
420.7805275713793
 30
0.0
 11
254.093167678134
 21
423.510525199336
 31
0.0
  0
POLYLINE
  5
EEC6
330
1A
100
AcDbEntity
  8
ﾌ_ﾗｹｯﾄ本体
100
AcDb2dPolyline
 66
     1
 10
0.0
 20
0.0
 30
0.0
  0
VERTEX
  5
12B26
330
EEC6
100
AcDbEntity
  8
ﾌ_ﾗｹｯﾄ本体
100
AcDbVertex
100
AcDb2dVertex
 10
232.8546766261272
 20
420.7805275713793
 30
0.0
  0
VERTEX
  5
12B27
330
EEC6
100
AcDbEntity
  8
ﾌ_ﾗｹｯﾄ本体
100
AcDbVertex
100
AcDb2dVertex
 10
232.3489881187845
 20
421.7840120961003
 30
0.0
  0
VERTEX
  5
12B28
330
EEC6
100
AcDbEntity
  8
ﾌ_ﾗｹｯﾄ本体
100
AcDbVertex
100
AcDb2dVertex
 10
231.8815201824829
 20
422.805075598194
 30
0.0
  0
SEQEND
  5
12B29
330
EEC6
100
AcDbEntity
  8
ﾌ_ﾗｹｯﾄ本体
  0
ARC
  5
EECC
330
1A
100
AcDbEntity
  8
止め具
100
AcDbCircle
 10
277.2016755152101
 20
450.7805275714516
 30
0.0
 40
30.00000000007231
100
AcDbArc
 50
270.0
 51
271.3102766140346
  0
LINE
  5
EECD
330
1A
100
AcDbEntity
  8
ﾌ_ﾗｹｯﾄ本体
100
AcDbLine
 10
232.8546766261272
 20
420.7805275713793
 30
0.0
 11
277.2016755152119
 21
420.7805275713793
 31
0.0
  0
ARC
  5
EECF
330
1A
100
AcDbEntity
  8
ﾌ_ﾗｹｯﾄ本体
100
AcDbCircle
 10
268.1765148915121
 20
400.2319697186822
 30
0.0
 40
27.20720150986515
100
AcDbArc
 50
115.0474992434083
 51
121.1736159409321
  0
LINE
  5
EED0
330
1A
100
AcDbEntity
  8
ﾌ_ﾗｹｯﾄ本体
100
AcDbLine
 10
258.9732819063913
 20
424.8805275713793
 30
0.0
 11
258.8027571250197
 21
420.7805275713793
 31
0.0
  0
ARC
  5
EED3
330
1A
100
AcDbEntity
  8
ﾌ_ﾗｹｯﾄ本体
100
AcDbCircle
 10
259.3876749489911
 20
434.7805275713731
 30
0.0
 40
30.00000000002167
100
AcDbArc
 50
157.1252984124379
 51
169.1559374363025
  0
LINE
  5
EED4
330
1A
100
AcDbEntity
  8
ﾌ_ﾗｹｯﾄ本体
100
AcDbLine
 10
229.8876749489693
 20
434.7979972696578
 30
0.0
 11
229.8876749489693
 21
440.0483544478057
 31
0.0
  0
LINE
  5
EED5
330
1A
100
AcDbEntity
  8
ﾌ_ﾗｹｯﾄ本体
100
AcDbLine
 10
229.8876749489693
 20
429.5127006949527
 30
0.0
 11
229.8876749489693
 21
434.7979972696578
 31
0.0
  0
ARC
  5
EED6
330
1A
100
AcDbEntity
  8
ﾌ_ﾗｹｯﾄ本体
100
AcDbCircle
 10
231.8876749489693
 20
429.5127006949527
 30
0.0
 40
2.0
100
AcDbArc
 50
180.0
 51
190.8440625636974
  0
ARC
  5
EED7
330
1A
100
AcDbEntity
  8
ﾌ_ﾗｹｯﾄ本体
100
AcDbCircle
 10
231.8876749489693
 20
440.0483544478057
 30
0.0
 40
2.0
100
AcDbArc
 50
169.1559374363025
 51
180.0
  0
POLYLINE
  5
EEDD
330
1A
100
AcDbEntity
  8
ﾌ_ﾗｹｯﾄ本体
100
AcDb2dPolyline
 66
     1
 10
0.0
 20
0.0
 30
0.0
  0
VERTEX
  5
12B2A
330
EEDD
100
AcDbEntity
  8
ﾌ_ﾗｹｯﾄ本体
100
AcDbVertex
100
AcDb2dVertex
 10
231.7469610554701
 20
446.4420427155497
 30
0.0
  0
VERTEX
  5
12B2B
330
EEDD
100
AcDbEntity
  8
ﾌ_ﾗｹｯﾄ本体
100
AcDbVertex
100
AcDb2dVertex
 10
232.2684526363966
 20
447.6081454781136
 30
0.0
  0
VERTEX
  5
12B2C
330
EEDD
100
AcDbEntity
  8
ﾌ_ﾗｹｯﾄ本体
100
AcDbVertex
100
AcDb2dVertex
 10
232.8546766261272
 20
448.7805275713793
 30
0.0
  0
SEQEND
  5
12B2D
330
EEDD
100
AcDbEntity
  8
ﾌ_ﾗｹｯﾄ本体
  0
LINE
  5
EEDE
330
1A
100
AcDbEntity
  8
ﾌ_ﾗｹｯﾄ本体
100
AcDbLine
 10
261.6697818601944
 20
444.6805275713794
 30
0.0
 11
261.902969988919
 21
434.7805275713794
 31
0.0
  0
ARC
  5
EEE4
330
1A
100
AcDbEntity
  8
ﾌ_ﾗｹｯﾄ本体
100
AcDbCircle
 10
271.9563678097467
 20
475.1367736923902
 30
0.0
 40
34.02510169536443
100
AcDbArc
 50
238.5891092458492
 51
243.522703488012
  0
LINE
  5
EEE5
330
1A
100
AcDbEntity
  8
ﾌ_ﾗｹｯﾄ本体
100
AcDbLine
 10
259.0017696838324
 20
448.7805275713793
 30
0.0
 11
259.115395116248
 21
444.6805275713794
 31
0.0
  0
LINE
  5
EEE7
330
1A
100
AcDbEntity
  8
ﾌ_ﾗｹｯﾄ本体
100
AcDbLine
 10
250.3371015830282
 20
448.7805275713793
 30
0.0
 11
254.2234421040186
 21
446.0979911542907
 31
0.0
  0
LINE
  5
EEEB
330
1A
100
AcDbEntity
  8
ﾌ_ﾗｹｯﾄ本体
100
AcDbLine
 10
256.7865089575273
 20
444.6630578731006
 30
0.0
 11
277.8876749489707
 21
444.6630578731006
 31
0.0
  0
LINE
  5
EEEC
330
1A
100
AcDbEntity
  8
ﾌ_ﾗｹｯﾄ本体
100
AcDbLine
 10
277.8876749489707
 20
424.8630578731007
 30
0.0
 11
256.6578166238853
 21
424.8630578731007
 31
0.0
  0
LINE
  5
1123F
330
1A
100
AcDbEntity
  8
ﾌ_ﾗｹｯﾄ本体
100
AcDbLine
 10
232.8546766261272
 20
448.7805275713793
 30
0.0
 11
277.8876749489707
 21
448.7805275713793
 31
0.0
  0
MTEXT
  5
11240
330
1A
100
AcDbEntity
  8
ﾌ_ﾗｹｯﾄ本体
100
AcDbMText
 10
307.0073790689507
 20
242.410268710939
 30
0.0
 40
3.174999952316284
 41
9.065584775461012
 71
     1
 72
     1
  1
{\FMS UI Gothic.ttf;UST}
  7
STYLE2
1001
ACAD
1000
MTEXTBEGIN
1070
    73
1070
     1
1070
    44
1040
1.0
1070
    74
1070
     0
1000
MTEXTEND
1000
MTEXTBEGIN
1070
    73
1070
     1
1070
    44
1040
1.0
1070
    74
1070
     0
1000
MTEXTEND
1000
MTEXTBEGIN
1070
    73
1070
     1
1070
    44
1040
1.0
1070
    74
1070
     0
1000
MTEXTEND
1000
MTEXTBEGIN
1070
    73
1070
     1
1070
    44
1040
1.0
1070
    74
1070
     0
1000
MTEXTEND
1000
MTEXTBEGIN
1070
    73
1070
     1
1070
    44
1040
1.0
1070
    74
1070
     0
1000
MTEXTEND
1000
MTEXTBEGIN
1070
    73
1070
     1
1070
    44
1040
1.0
1070
    74
1070
     0
1000
MTEXTEND
1000
MTEXTBEGIN
1070
    73
1070
     1
1070
    44
1040
1.0
1070
    74
1070
     0
1000
MTEXTEND
1000
MTEXTBEGIN
1070
    73
1070
     1
1070
    44
1040
1.0
1070
    74
1070
     0
1000
MTEXTEND
1000
MTEXTBEGIN
1070
    73
1070
     1
1070
    44
1040
1.0
1070
    74
1070
     0
1000
MTEXTEND
1000
MTEXTBEGIN
1070
    73
1070
     1
1070
    44
1040
1.0
1070
    74
1070
     0
1000
MTEXTEND
1000
MTEXTBEGIN
1070
    73
1070
     1
1070
    44
1040
1.0
1070
    74
1070
     0
1000
MTEXTEND
  0
MTEXT
  5
11241
330
1A
100
AcDbEntity
  8
ﾌ_ﾗｹｯﾄ本体
100
AcDbMText
 10
307.727661090807
 20
237.7068806462608
 30
0.0
 40
3.174999952316284
 41
9.065599999999999
 71
     1
 72
     1
  1
{\FMS UI Gothic.ttf;140}
  7
STYLE2
1001
ACAD
1000
MTEXTBEGIN
1070
    73
1070
     1
1070
    44
1040
1.0
1070
    74
1070
     0
1000
MTEXTEND
1000
MTEXTBEGIN
1070
    73
1070
     1
1070
    44
1040
1.0
1070
    74
1070
     0
1000
MTEXTEND
1000
MTEXTBEGIN
1070
    73
1070
     1
1070
    44
1040
1.0
1070
    74
1070
     0
1000
MTEXTEND
1000
MTEXTBEGIN
1070
    73
1070
     1
1070
    44
1040
1.0
1070
    74
1070
     0
1000
MTEXTEND
1000
MTEXTBEGIN
1070
    73
1070
     1
1070
    44
1040
1.0
1070
    74
1070
     0
1000
MTEXTEND
1000
MTEXTBEGIN
1070
    73
1070
     1
1070
    44
1040
1.0
1070
    74
1070
     0
1000
MTEXTEND
1000
MTEXTBEGIN
1070
    73
1070
     1
1070
    44
1040
1.0
1070
    74
1070
     0
1000
MTEXTEND
1000
MTEXTBEGIN
1070
    73
1070
     1
1070
    44
1040
1.0
1070
    74
1070
     0
1000
MTEXTEND
1000
MTEXTBEGIN
1070
    73
1070
     1
1070
    44
1040
1.0
1070
    74
1070
     0
1000
MTEXTEND
1000
MTEXTBEGIN
1070
    73
1070
     1
1070
    44
1040
1.0
1070
    74
1070
     0
1000
MTEXTEND
1000
MTEXTBEGIN
1070
    73
1070
     1
1070
    44
1040
1.0
1070
    74
1070
     0
1000
MTEXTEND
  0
LINE
  5
113AD
330
1A
100
AcDbEntity
  8
ﾌ_ﾗｹｯﾄ本体
100
AcDbLine
 10
248.8397676903855
 20
422.0996616707101
 30
0.0
 11
248.8397676903853
 21
447.4613934720483
 31
0.0
  0
LINE
  5
113AE
330
1A
100
AcDbEntity
  8
ﾌ_ﾗｹｯﾄ本体
100
AcDbLine
 10
235.882661574509
 20
420.7805275713793
 30
0.0
 11
235.882661574509
 21
448.7805275713791
 31
0.0
  0
LINE
  5
113B3
330
1A
100
AcDbEntity
  8
ﾌ_ﾗｹｯﾄ本体
100
AcDbLine
 10
311.4252487418498
 20
247.6706387403088
 30
0.0
 11
321.5490251970513
 21
247.7718476286039
 31
0.0
  0
LINE
  5
113B4
330
1A
100
AcDbEntity
  8
ﾌ_ﾗｹｯﾄ本体
100
AcDbLine
 10
308.3807250665436
 20
244.7906839123075
 30
0.0
 11
331.5421723545857
 21
244.7906839123076
 31
0.0
  0
LEADER
  5
113B5
330
1A
100
AcDbEntity
  8
SUNPOU
100
AcDbLeader
  3
STANDARD
 40
6.0
 41
31.19999999999999
 76
     3
 10
513.9884566137493
 20
272.953156256559
 30
0.0
 10
504.0915125271546
 20
290.9679624931206
 30
0.0
 10
460.6003635469376
 20
290.9679624931206
 30
0.0
213
0.0
223
3.0
233
0.0
1001
ACAD
1000
DSTYLE
1002
{
1070
     5
1000
OPEN
1070
    77
1070
     0
1070
   147
1040
1.5
1070
   341
1005
6A30
1070
   342
1005
6A30
1002
}
1000
LEANOF
1010
0.0
1020
3.0
1030
0.0
  0
LEADER
  5
113B6
330
1A
100
AcDbEntity
  8
SUNPOU
100
AcDbLeader
  3
STANDARD
 40
6.000000000000001
 41
31.19999999999999
 76
     3
 10
513.3877999284593
 20
263.0879712799184
 30
0.0
 10
505.1772209060507
 20
240.842762948897
 30
0.0
 10
470.6072789982352
 20
240.842762948897
 30
0.0
213
0.0
223
3.0
233
0.0
1001
ACAD
1000
DSTYLE
1002
{
1070
     5
1000
OPEN
1070
    77
1070
     0
1070
   147
1040
1.5
1070
   341
1005
6A30
1070
   342
1005
6A30
1002
}
1000
LEANOF
1010
0.0
1020
3.0
1030
0.0
  0
MTEXT
  5
113B7
330
1A
100
AcDbEntity
  8
SUNPOU
100
AcDbMText
 10
501.8072769276693
 20
242.5145450685651
 30
0.0
 40
6.0
 41
0.0
 71
     9
 72
     1
  1
\A1;2-φ6.2
1001
ACAD
1000
MTEXTBEGIN
1070
    73
1070
     1
1070
    44
1040
1.0
1070
    74
1070
     0
1000
MTEXTEND
1000
MTEXTBEGIN
1070
    73
1070
     1
1070
    44
1040
1.0
1070
    74
1070
     0
1000
MTEXTEND
1000
MTEXTBEGIN
1070
    73
1070
     1
1070
    44
1040
1.0
1070
    74
1070
     0
1000
MTEXTEND
1000
MTEXTBEGIN
1070
    73
1070
     1
1070
    44
1040
1.0
1070
    74
1070
     0
1000
MTEXTEND
  0
MTEXT
  5
113B8
330
1A
100
AcDbEntity
  8
SUNPOU
100
AcDbMText
 10
492.024943891274
 20
293.1239559196921
 30
0.0
 40
6.0
 41
0.0
 71
     9
 72
     1
  1
\A1;3-φ4.2
1001
ACAD
1000
MTEXTBEGIN
1070
    73
1070
     1
1070
    44
1040
1.0
1070
    74
1070
     0
1000
MTEXTEND
1000
MTEXTBEGIN
1070
    73
1070
     1
1070
    44
1040
1.0
1070
    74
1070
     0
1000
MTEXTEND
1000
MTEXTBEGIN
1070
    73
1070
     1
1070
    44
1040
1.0
1070
    74
1070
     0
1000
MTEXTEND
1000
MTEXTBEGIN
1070
    73
1070
     1
1070
    44
1040
1.0
1070
    74
1070
     0
1000
MTEXTEND
  0
DIMENSION
  5
113B9
330
1A
100
AcDbEntity
  8
SUNPOU
100
AcDbDimension
  2
*D3
 10
472.5623126301679
 20
270.7596160192019
 30
0.0
 11
468.5623126301678
 21
275.259616019202
 31
0.0
 70
    32
  3
STANDARD
100
AcDbAlignedDimension
 13
517.2898672927892
 23
279.759616019202
 33
0.0
 14
509.4546494739325
 24
270.7596160192019
 34
0.0
 50
90.0
100
AcDbRotatedDimension
  0
DIMENSION
  5
113C7
330
1A
100
AcDbEntity
  8
SUNPOU
100
AcDbDimension
  2
*D4
 10
460.4572777900767
 20
266.2800963541815
 30
0.0
 11
456.4572777900766
 21
273.0198561866918
 31
0.0
 70
    32
  3
STANDARD
100
AcDbAlignedDimension
 13
517.2898672927892
 23
279.759616019202
 33
0.0
 14
508.0989992582626
 24
266.2800963541815
 34
0.0
 50
90.0
100
AcDbRotatedDimension
  0
DIMENSION
  5
113D5
330
1A
100
AcDbEntity
  8
SUNPOU
100
AcDbDimension
  2
*D5
 10
448.8398512370722
 20
205.7596160192019
 30
0.0
 11
444.8398512370721
 21
242.759616019202
 31
0.0
 70
    32
  3
STANDARD
100
AcDbAlignedDimension
 13
517.2898672927892
 23
279.759616019202
 33
0.0
 14
544.2898672927892
 24
205.7596160192019
 34
0.0
 50
90.0
100
AcDbRotatedDimension
  0
DIMENSION
  5
113E2
330
1A
100
AcDbEntity
  8
SUNPOU
100
AcDbDimension
  2
*D6
 10
561.7898672928049
 20
179.7148921220768
 30
0.0
 11
544.2898672927971
 21
183.7148921220769
 31
0.0
 70
    32
  3
STANDARD
100
AcDbAlignedDimension
 13
526.7898672927892
 23
213.5567452654329
 33
0.0
 14
561.7898672928049
 24
213.5567452653978
 34
0.0
100
AcDbRotatedDimension
  0
DIMENSION
  5
113EF
330
1A
100
AcDbEntity
  8
SUNPOU
100
AcDbDimension
  2
*D7
 10
515.2898672927892
 20
304.0687853931076
 30
0.0
 11
544.2898672927892
 21
308.0687853931076
 31
0.0
 70
    32
  3
STANDARD
100
AcDbAlignedDimension
 13
573.2898672927892
 23
276.5948338380587
 33
0.0
 14
515.2898672927892
 24
276.5948338380587
 34
0.0
100
AcDbRotatedDimension
  0
DIMENSION
  5
113FC
330
1A
100
AcDbEntity
  8
SUNPOU
100
AcDbDimension
  2
*D8
 10
507.339992921723
 20
316.3708705442459
 30
0.0
 11
544.3149301073203
 21
320.3708705442459
 31
0.0
 70
    32
  3
STANDARD
100
AcDbAlignedDimension
 13
581.2898672929177
 23
269.7596160191477
 33
0.0
 14
507.339992921723
 24
270.7596160192019
 34
0.0
100
AcDbRotatedDimension
  0
DIMENSION
  5
11409
330
1A
100
AcDbEntity
  8
SUNPOU
100
AcDbDimension
  2
*D9
 10
503.6587796971708
 20
205.7596160192019
 30
0.0
 11
499.6587796971707
 21
209.384616019204
 31
0.0
 70
    32
  3
STANDARD
100
AcDbAlignedDimension
 13
538.4546494739397
 23
213.0096160192058
 33
0.0
 14
544.2898672927892
 24
205.7596160192019
 34
0.0
 50
90.0
100
AcDbRotatedDimension
  0
DIMENSION
  5
11417
330
1A
100
AcDbEntity
  8
SUNPOU
100
AcDbDimension
  2
*D10
 10
397.0482712115608
 20
205.7596160192019
 30
0.0
 11
393.0482712115608
 21
242.759616019202
 31
0.0
 70
    32
  3
STANDARD
100
AcDbAlignedDimension
 13
376.8876749489706
 23
279.759616019202
 33
0.0
 14
376.8876749489706
 24
205.7596160192019
 34
0.0
 50
90.0
100
AcDbRotatedDimension
  0
DIMENSION
  5
11424
330
1A
100
AcDbEntity
  8
SUNPOU
100
AcDbDimension
  2
*D11
 10
277.8876749489705
 20
320.8991178119886
 30
0.0
 11
327.3876749489706
 21
324.8991178119886
 31
0.0
 70
    32
  3
STANDARD
100
AcDbAlignedDimension
 13
376.8876749489706
 23
279.759616019202
 33
0.0
 14
277.8876749489705
 24
252.7596160192022
 34
0.0
100
AcDbRotatedDimension
  0
DIMENSION
  5
11431
330
1A
100
AcDbEntity
  8
SUNPOU
100
AcDbDimension
  2
*D12
 10
406.191855868763
 20
471.7805275713794
 30
0.0
 11
402.1918558687629
 21
434.7805275713795
 31
0.0
 70
    32
  3
STANDARD
100
AcDbAlignedDimension
 13
376.8876749489706
 23
397.7805275713794
 33
0.0
 14
376.8876749489706
 24
471.7805275713795
 34
0.0
 50
90.0
100
AcDbRotatedDimension
  0
DIMENSION
  5
1143E
330
1A
100
AcDbEntity
  8
SUNPOU
100
AcDbDimension
  2
*D13
 10
193.2416387943958
 20
421.2822698337398
 30
0.0
 11
189.2416387943957
 21
435.0313987025597
 31
0.0
 70
    32
  3
STANDARD
100
AcDbAlignedDimension
 13
232.8546766261272
 23
448.7805275713793
 33
0.0
 14
232.6018323724558
 24
421.2822698337398
 34
0.0
 50
90.0
100
AcDbRotatedDimension
  0
DIMENSION
  5
1144B
330
1A
100
AcDbEntity
  8
SUNPOU
100
AcDbDimension
  2
*D14
 10
178.2014074423514
 20
418.5305275713792
 30
0.0
 11
174.2014074423513
 21
434.7805275713794
 31
0.0
 70
    32
  3
STANDARD
100
AcDbAlignedDimension
 13
277.8876749489707
 23
451.0305275713794
 33
0.0
 14
277.8876749489707
 24
418.5305275713792
 34
0.0
 50
90.0
100
AcDbRotatedDimension
  0
DIMENSION
  5
11458
330
1A
100
AcDbEntity
  8
SUNPOU
100
AcDbDimension
  2
*D15
 10
229.8876749489707
 20
332.4431408666305
 30
0.0
 11
303.3876749489706
 21
336.4431408666305
 31
0.0
 70
    32
  3
STANDARD
100
AcDbAlignedDimension
 13
376.8876749489706
 23
279.759616019202
 33
0.0
 14
229.8876749489707
 24
270.4362414441849
 34
0.0
100
AcDbRotatedDimension
  0
DIMENSION
  5
11465
330
1A
100
AcDbEntity
  8
SUNPOU
100
AcDbDimension
  2
*D16
 10
368.3876749489706
 20
169.680454602093
 30
0.0
 11
372.6376749489706
 21
173.680454602093
 31
0.0
 70
    32
  3
STANDARD
100
AcDbAlignedDimension
 13
376.8876749489706
 23
205.7596160192019
 33
0.0
 14
368.3876749489706
 24
207.8746575036085
 34
0.0
100
AcDbRotatedDimension
  0
LINE
  5
11473
330
1A
100
AcDbEntity
  8
ｽﾗｲﾄ_幅
 48
0.2
100
AcDbLine
 10
395.8876749489707
 20
279.759616019202
 30
0.0
 11
401.8876749489707
 21
279.759616019202
 31
0.0
  0
LINE
  5
11474
330
1A
100
AcDbEntity
  8
ｽﾗｲﾄ_幅
 48
0.2
100
AcDbLine
 10
401.8876749489707
 20
205.7596160192019
 30
0.0
 11
401.8876749489707
 21
279.759616019202
 31
0.0
  0
LINE
  5
11475
330
1A
100
AcDbEntity
  8
ｽﾗｲﾄ_幅
 48
0.2
100
AcDbLine
 10
366.8876749489707
 20
205.7596160192019
 30
0.0
 11
366.8876749489707
 21
279.759616019202
 31
0.0
  0
DIMENSION
  5
11622
330
1A
100
AcDbEntity
  8
SUNPOU
100
AcDbDimension
  2
*D17
 10
376.8876749489706
 20
303.4176055465504
 30
0.0
 11
371.8876749489707
 21
307.4176055465504
 31
0.0
 70
    32
  3
STANDARD
100
AcDbAlignedDimension
 13
366.8876749489707
 23
279.759616019202
 33
0.0
 14
376.8876749489706
 24
279.759616019202
 34
0.0
100
AcDbRotatedDimension
  0
DIMENSION
  5
11630
330
1A
100
AcDbEntity
  8
SUNPOU
100
AcDbDimension
  2
*D18
 10
401.8876749489707
 20
303.4176055465504
 30
0.0
 11
389.3876749489706
 21
307.4176055465504
 31
0.0
 70
    32
  3
STANDARD
100
AcDbAlignedDimension
 13
376.8876749489706
 23
279.759616019202
 33
0.0
 14
401.8876749489707
 24
279.759616019202
 34
0.0
100
AcDbRotatedDimension
1001
ACAD
1000
DSTYLE
1002
{
1070
   287
1070
     4
1070
   287
1070
     4
1070
   287
1070
     4
1070
   279
1070
     1
1002
}
  0
MTEXT
  5
1163D
330
1A
100
AcDbEntity
  8
SUNPOU
100
AcDbMText
 10
404.4058509533174
 20
312.2830265246848
 30
0.0
 40
5.0
 41
0.0
 71
     9
 72
     1
  1
（スライド幅）
1001
ACAD
1000
MTEXTBEGIN
1070
    73
1070
     1
1070
    44
1040
1.0
1070
    74
1070
     0
1000
MTEXTEND
1000
MTEXTBEGIN
1070
    73
1070
     1
1070
    44
1040
1.0
1070
    74
1070
     0
1000
MTEXTEND
1000
MTEXTBEGIN
1070
    73
1070
     1
1070
    44
1040
1.0
1070
    74
1070
     0
1000
MTEXTEND
1000
MTEXTBEGIN
1070
    73
1070
     1
1070
    44
1040
1.0
1070
    74
1070
     0
1000
MTEXTEND
  0
VIEWPORT
  5
22
330
17
100
AcDbEntity
 67
     1
  8
0
100
AcDbViewport
 10
224.6338671309299
 20
200.696324347002
 30
0.0
 40
668.2500455191894
 41
437.3596643431239
 68
     1
 69
     1
1001
ACAD
1000
MVIEW
1002
{
1070
    16
1010
0.0
1020
0.0
1030
0.0
1010
0.0
1020
0.0
1030
1.0
1040
0.0
1040
437.3596643431239
1040
224.6338671309299
1040
200.696324347002
1040
50.0
1040
0.0
1040
0.0
1070
     0
1070
   100
1070
     1
1070
     0
1070
     0
1070
     0
1070
     0
1070
     0
1040
0.0
1040
0.0
1040
0.0
1040
1.0
1040
1.0
1040
10.0
1040
10.0
1070
     0
1002
{
1002
}
1002
}
  0
VIEWPORT
  5
64
330
17
100
AcDbEntity
 67
     1
  8
VIEWPORT
100
AcDbViewport
 10
210.0
 20
148.5
 30
0.0
 40
420.0
 41
297.0
 68
     2
 69
     2
1001
ACAD
1000
MVIEW
1002
{
1070
    16
1010
0.0
1020
0.0
1030
0.0
1010
0.0
1020
0.0
1030
1.0
1040
0.0
1040
584.072402851593
1040
881.5698625043406
1040
268.8891101169707
1040
50.0
1040
0.0
1040
0.0
1070
     0
1070
   100
1070
     1
1070
     0
1070
     0
1070
     0
1070
     0
1070
     0
1040
0.0
1040
0.0
1040
0.0
1040
5.0
1040
5.0
1040
0.0
1040
0.0
1070
     0
1002
{
1002
}
1002
}
  0
ENDSEC
  0
SECTION
  2
OBJECTS
  0
DICTIONARY
  5
C
330
0
100
AcDbDictionary
  3
ACAD_GROUP
350
D
  3
ACAD_LAYOUT
350
15A
  3
ACAD_MLINESTYLE
350
E
  3
ACAD_PLOTSETTINGS
350
15B
1001
ACAD
1000
TREAT_AS_HARD
1070
     0
  0
DICTIONARY
  5
806D
330
1A
100
AcDbDictionary
  3
ACAD_LAYOUTSELFREF
350
12AEA
1001
ACAD
1000
TREAT_AS_HARD
1070
     1
  0
DICTIONARY
  5
806B
330
17
100
AcDbDictionary
  3
ACAD_LAYOUTSELFREF
350
12AE9
1001
ACAD
1000
TREAT_AS_HARD
1070
     1
  0
DICTIONARY
  5
D
102
{ACAD_REACTORS
330
C
102
}
330
C
100
AcDbDictionary
  3
*A1
350
638F
  3
*A2
350
EEED
1001
ACAD
1000
TREAT_AS_HARD
1070
     0
  0
DICTIONARY
  5
15A
102
{ACAD_REACTORS
330
C
102
}
330
C
100
AcDbDictionary
1001
ACAD
1000
TREAT_AS_HARD
1070
     0
  0
DICTIONARY
  5
E
102
{ACAD_REACTORS
330
C
102
}
330
C
100
AcDbDictionary
  3
STANDARD
350
13
1001
ACAD
1000
TREAT_AS_HARD
1070
     0
  0
DICTIONARY
  5
15B
102
{ACAD_REACTORS
330
C
102
}
330
C
100
AcDbDictionary
1001
ACAD
1000
TREAT_AS_HARD
1070
     0
  0
XRECORD
  5
12AEA
102
{ACAD_REACTORS
330
806D
102
}
330
806D
100
AcDbXrecord
340
1A
  0
XRECORD
  5
12AE9
102
{ACAD_REACTORS
330
806B
102
}
330
806B
100
AcDbXrecord
340
17
  0
GROUP
  5
638F
102
{ACAD_REACTORS
330
D
102
}
330
D
100
AcDbGroup
300

 70
     1
 71
     1
  0
GROUP
  5
EEED
102
{ACAD_REACTORS
330
D
102
}
330
D
100
AcDbGroup
300

 70
     1
 71
     1
340
AC70
340
AC6E
340
AC6A
340
AC5F
340
AC3F
340
AC3E
340
AC3C
340
AC3B
340
AC3A
340
AC8B
340
AC3D
340
AC4E
340
AC4A
340
AC45
340
AC49
340
AC48
340
AC4D
340
AC4C
340
AC4B
340
AC42
340
AC43
340
AC41
340
AC47
340
AC46
340
AC50
340
AC4F
340
AC40
340
AC44
340
AC51
340
AC5A
340
AC59
340
AC5C
340
AC5B
340
AC56
340
AC55
340
AC5E
340
AC5D
340
AC72
340
AC71
340
AC74
340
AC73
340
AC54
340
AC53
340
AC52
340
AC58
340
AC57
340
AC6B
340
AC69
340
AC67
340
AC61
340
AC60
340
AC87
340
AC86
340
AC85
340
AC84
340
AC82
340
AC81
340
AC80
340
AC7E
340
AC7B
340
AC7C
340
AC83
340
AC7F
340
AC7D
340
AC7A
340
AC79
340
AC78
340
AC77
340
AC76
340
AC75
340
AC8A
340
AC89
340
AC88
340
AC8E
340
AC8D
340
AC8C
340
ACA5
340
ACA3
340
ACA1
340
ACA0
340
AC92
340
AC8F
340
AC96
340
AC90
340
AC93
340
AC97
340
AC9C
340
AC9B
340
AC9A
340
AC99
340
AC94
340
AC9D
340
AC98
340
ACA4
340
ACA2
340
AC95
340
AC91
340
AC9F
340
AC9E
340
AC6F
340
AC6D
340
AC6C
340
AC68
340
AC66
340
AC65
340
AC64
340
AC63
340
AC62
  0
MLINESTYLE
  5
13
102
{ACAD_REACTORS
330
E
102
}
330
E
100
AcDbMlineStyle
  2
STANDARD
 70
     0
  3

 62
     0
 51
90.0
 52
90.0
 71
     2
 49
0.5
 62
   256
  6
BYLAYER
 49
-0.5
 62
   256
  6
BYLAYER
  0
ENDSEC
  0
EOF
