  0
SECTION
  2
HEADER
  9
$ACADVER
  1
AC1018
  9
$ACADMAINTVER
 70
     0
  9
$DWGCODEPAGE
  3
ANSI_932
  9
$INSBASE
 10
0.0
 20
0.0
 30
0.0
  9
$EXTMIN
 10
539.7583426862064
 20
-64.21880471570807
 30
0.0
  9
$EXTMAX
 10
938.5583426862064
 20
211.581195284292
 30
0.0
  9
$LIMMIN
 10
0.0
 20
0.0
  9
$LIMMAX
 10
420.0
 20
297.0
  9
$ORTHOMODE
 70
     0
  9
$REGENMODE
 70
     1
  9
$FILLMODE
 70
     1
  9
$QTEXTMODE
 70
     0
  9
$MIRRTEXT
 70
     1
  9
$LTSCALE
 40
1.0
  9
$ATTMODE
 70
     1
  9
$TEXTSIZE
 40
2.5
  9
$TRACEWID
 40
1.0
  9
$TEXTSTYLE
  7
kanji
  9
$CLAYER
  8
製品
  9
$CELTYPE
  6
BYLAYER
  9
$CECOLOR
 62
   256
  9
$CELTSCALE
 40
1.0
  9
$DISPSILH
 70
     0
  9
$DIMSCALE
 40
1.0
  9
$DIMASZ
 40
3.0
  9
$DIMEXO
 40
3.0
  9
$DIMDLI
 40
7.0
  9
$DIMRND
 40
0.0
  9
$DIMDLE
 40
0.0
  9
$DIMEXE
 40
1.5
  9
$DIMTP
 40
0.0
  9
$DIMTM
 40
0.0
  9
$DIMTXT
 40
3.0
  9
$DIMCEN
 40
15.0
  9
$DIMTSZ
 40
0.0
  9
$DIMTOL
 70
     0
  9
$DIMLIM
 70
     0
  9
$DIMTIH
 70
     0
  9
$DIMTOH
 70
     0
  9
$DIMSE1
 70
     0
  9
$DIMSE2
 70
     0
  9
$DIMTAD
 70
     3
  9
$DIMZIN
 70
     0
  9
$DIMBLK
  1
Open30
  9
$DIMASO
 70
     1
  9
$DIMSHO
 70
     1
  9
$DIMPOST
  1

  9
$DIMAPOST
  1

  9
$DIMALT
 70
     0
  9
$DIMALTD
 70
     2
  9
$DIMALTF
 40
25.4
  9
$DIMLFAC
 40
1.0
  9
$DIMTOFL
 70
     1
  9
$DIMTVP
 40
0.0
  9
$DIMTIX
 70
     0
  9
$DIMSOXD
 70
     0
  9
$DIMSAH
 70
     0
  9
$DIMBLK1
  1

  9
$DIMBLK2
  1

  9
$DIMSTYLE
  2
STANDARD
  9
$DIMCLRD
 70
     4
  9
$DIMCLRE
 70
     4
  9
$DIMCLRT
 70
     4
  9
$DIMTFAC
 40
1.0
  9
$DIMGAP
 40
1.0
  9
$DIMJUST
 70
     0
  9
$DIMSD1
 70
     0
  9
$DIMSD2
 70
     0
  9
$DIMTOLJ
 70
     1
  9
$DIMTZIN
 70
     0
  9
$DIMALTZ
 70
     0
  9
$DIMALTTZ
 70
     0
  9
$DIMUPT
 70
     0
  9
$DIMDEC
 70
     0
  9
$DIMTDEC
 70
     0
  9
$DIMALTU
 70
     2
  9
$DIMALTTD
 70
     2
  9
$DIMTXSTY
  7
STANDARD
  9
$DIMAUNIT
 70
     0
  9
$DIMADEC
 70
     0
  9
$DIMALTRND
 40
0.0
  9
$DIMAZIN
 70
     0
  9
$DIMDSEP
 70
    46
  9
$DIMATFIT
 70
     3
  9
$DIMFRAC
 70
     0
  9
$DIMLDRBLK
  1
Open30
  9
$DIMLUNIT
 70
     2
  9
$DIMLWD
 70
    -2
  9
$DIMLWE
 70
    -2
  9
$DIMTMOVE
 70
     0
  9
$LUNITS
 70
     2
  9
$LUPREC
 70
     4
  9
$SKETCHINC
 40
1.0
  9
$FILLETRAD
 40
9.0
  9
$AUNITS
 70
     0
  9
$AUPREC
 70
     0
  9
$MENU
  1
.
  9
$ELEVATION
 40
0.0
  9
$PELEVATION
 40
0.0
  9
$THICKNESS
 40
0.0
  9
$LIMCHECK
 70
     0
  9
$CHAMFERA
 40
0.0
  9
$CHAMFERB
 40
0.0
  9
$CHAMFERC
 40
20.0
  9
$CHAMFERD
 40
0.0
  9
$SKPOLY
 70
     0
  9
$TDCREATE
 40
2450994.350997107
  9
$TDUCREATE
 40
2450993.975997107
  9
$TDUPDATE
 40
2460125.531342083
  9
$TDUUPDATE
 40
2460125.156342083
  9
$TDINDWG
 40
0.0735957176
  9
$TDUSRTIMER
 40
0.0735957176
  9
$USRTIMER
 70
     1
  9
$ANGBASE
 50
0.0
  9
$ANGDIR
 70
     0
  9
$PDMODE
 70
     3
  9
$PDSIZE
 40
0.0
  9
$PLINEWID
 40
0.0
  9
$SPLFRAME
 70
     0
  9
$SPLINETYPE
 70
     6
  9
$SPLINESEGS
 70
     8
  9
$HANDSEED
  5
4EC6
  9
$SURFTAB1
 70
     6
  9
$SURFTAB2
 70
     6
  9
$SURFTYPE
 70
     6
  9
$SURFU
 70
     6
  9
$SURFV
 70
     6
  9
$UCSBASE
  2

  9
$UCSNAME
  2

  9
$UCSORG
 10
0.0
 20
0.0
 30
0.0
  9
$UCSXDIR
 10
1.0
 20
0.0
 30
0.0
  9
$UCSYDIR
 10
0.0
 20
1.0
 30
0.0
  9
$UCSORTHOREF
  2

  9
$UCSORTHOVIEW
 70
     0
  9
$UCSORGTOP
 10
0.0
 20
0.0
 30
0.0
  9
$UCSORGBOTTOM
 10
0.0
 20
0.0
 30
0.0
  9
$UCSORGLEFT
 10
0.0
 20
0.0
 30
0.0
  9
$UCSORGRIGHT
 10
0.0
 20
0.0
 30
0.0
  9
$UCSORGFRONT
 10
0.0
 20
0.0
 30
0.0
  9
$UCSORGBACK
 10
0.0
 20
0.0
 30
0.0
  9
$PUCSBASE
  2

  9
$PUCSNAME
  2

  9
$PUCSORG
 10
0.0
 20
0.0
 30
0.0
  9
$PUCSXDIR
 10
1.0
 20
0.0
 30
0.0
  9
$PUCSYDIR
 10
0.0
 20
1.0
 30
0.0
  9
$PUCSORTHOREF
  2

  9
$PUCSORTHOVIEW
 70
     0
  9
$PUCSORGTOP
 10
0.0
 20
0.0
 30
0.0
  9
$PUCSORGBOTTOM
 10
0.0
 20
0.0
 30
0.0
  9
$PUCSORGLEFT
 10
0.0
 20
0.0
 30
0.0
  9
$PUCSORGRIGHT
 10
0.0
 20
0.0
 30
0.0
  9
$PUCSORGFRONT
 10
0.0
 20
0.0
 30
0.0
  9
$PUCSORGBACK
 10
0.0
 20
0.0
 30
0.0
  9
$USERI1
 70
     0
  9
$USERI2
 70
     0
  9
$USERI3
 70
     0
  9
$USERI4
 70
     0
  9
$USERI5
 70
     0
  9
$USERR1
 40
0.0
  9
$USERR2
 40
0.0
  9
$USERR3
 40
0.0
  9
$USERR4
 40
0.0
  9
$USERR5
 40
0.0
  9
$WORLDVIEW
 70
     1
  9
$SHADEDGE
 70
     3
  9
$SHADEDIF
 70
    70
  9
$TILEMODE
 70
     1
  9
$MAXACTVP
 70
    16
  9
$PINSBASE
 10
0.0
 20
0.0
 30
0.0
  9
$PLIMCHECK
 70
     0
  9
$PEXTMIN
 10
-4.165496673500456
 20
-3.645128626816926
 30
0.0
  9
$PEXTMAX
 10
411.9702118584461
 20
288.4294609741808
 30
0.0
  9
$PLIMMIN
 10
-3.17498779296875
 20
-3.174999952316284
  9
$PLIMMAX
 10
416.8139953613281
 20
293.8356506824494
  9
$UNITMODE
 70
     0
  9
$VISRETAIN
 70
     0
  9
$PLINEGEN
 70
     0
  9
$PSLTSCALE
 70
     1
  9
$TREEDEPTH
 70
  3020
  9
$CMLSTYLE
  2
STANDARD
  9
$CMLJUST
 70
     0
  9
$CMLSCALE
 40
1.0
  9
$PROXYGRAPHICS
 70
     1
  9
$MEASUREMENT
 70
     1
  9
$CELWEIGHT
370
    -1
  9
$ENDCAPS
280
     0
  9
$JOINSTYLE
280
     0
  9
$LWDISPLAY
290
     0
  9
$INSUNITS
 70
     0
  9
$HYPERLINKBASE
  1

  9
$STYLESHEET
  1

  9
$XEDIT
290
     1
  9
$CEPSNTYPE
380
     0
  9
$PSTYLEMODE
290
     1
  9
$FINGERPRINTGUID
  2
{D5C42BA0-D3BA-11D7-B8F8-000039219C21}
  9
$VERSIONGUID
  2
{E0F1E224-43F1-4701-8EA1-F2BA2BB6B99F}
  9
$EXTNAMES
290
     1
  9
$PSVPSCALE
 40
0.0
  9
$OLESTARTUP
290
     0
  9
$SORTENTS
280
   127
  9
$INDEXCTL
280
     0
  9
$HIDETEXT
280
     0
  9
$XCLIPFRAME
290
     0
  9
$HALOGAP
280
     0
  9
$OBSCOLOR
 70
   257
  9
$OBSLTYPE
280
     0
  9
$INTERSECTIONDISPLAY
280
     0
  9
$INTERSECTIONCOLOR
 70
   257
  9
$DIMASSOC
280
     1
  9
$PROJECTNAME
  1

  0
ENDSEC
  0
SECTION
  2
CLASSES
  0
CLASS
  1
ACDBDICTIONARYWDFLT
  2
AcDbDictionaryWithDefault
  3
ObjectDBX Classes
 90
        0
 91
        1
280
     0
281
     0
  0
ENDSEC
  0
SECTION
  2
TABLES
  0
TABLE
  2
VPORT
  5
8
330
0
100
AcDbSymbolTable
 70
     2
  0
VPORT
  5
4EC5
330
8
100
AcDbSymbolTableRecord
100
AcDbViewportTableRecord
  2
*Active
 70
     0
 10
0.0
 20
0.0
 11
1.0
 21
1.0
 12
954.0968941306472
 22
40.76221105212968
 13
0.0
 23
0.0
 14
5.0
 24
5.0
 15
0.0
 25
0.0
 16
0.0
 26
0.0
 36
1.0
 17
0.0
 27
0.0
 37
0.0
 40
409.4207576878757
 41
2.28894472361809
 42
50.0
 43
0.0
 44
0.0
 50
0.0
 51
0.0
 71
     0
 72
   100
 73
     1
 74
     0
 75
     0
 76
     0
 77
     0
 78
     0
281
     0
 65
     1
110
0.0
120
0.0
130
0.0
111
1.0
121
0.0
131
0.0
112
0.0
122
1.0
132
0.0
 79
     0
146
0.0
  0
ENDTAB
  0
TABLE
  2
LTYPE
  5
5
330
0
100
AcDbSymbolTable
 70
     5
  0
LTYPE
  5
14
330
5
100
AcDbSymbolTableRecord
100
AcDbLinetypeTableRecord
  2
BYBLOCK
 70
     0
  3

 72
    65
 73
     0
 40
0.0
  0
LTYPE
  5
15
330
5
100
AcDbSymbolTableRecord
100
AcDbLinetypeTableRecord
  2
BYLAYER
 70
     0
  3

 72
    65
 73
     0
 40
0.0
  0
LTYPE
  5
16
330
5
100
AcDbSymbolTableRecord
100
AcDbLinetypeTableRecord
  2
CONTINUOUS
 70
     0
  3
Solid line
 72
    65
 73
     0
 40
0.0
  0
LTYPE
  5
120
330
5
100
AcDbSymbolTableRecord
100
AcDbLinetypeTableRecord
  2
CENTER
 70
     0
  3
____ _ ____ _ ____ _ ____ _ ____ _ ____ _ ____ 
 72
    65
 73
     4
 40
2.0
 49
1.25
 74
     0
 49
-0.25
 74
     0
 49
0.25
 74
     0
 49
-0.25
 74
     0
  0
LTYPE
  5
122
330
5
100
AcDbSymbolTableRecord
100
AcDbLinetypeTableRecord
  2
PHANTOM
 70
     0
  3
______  __  __  ______  __  __  ______  __  __ 
 72
    65
 73
     6
 40
2.5
 49
1.25
 74
     0
 49
-0.25
 74
     0
 49
0.25
 74
     0
 49
-0.25
 74
     0
 49
0.25
 74
     0
 49
-0.25
 74
     0
  0
LTYPE
  5
12B
330
5
100
AcDbSymbolTableRecord
100
AcDbLinetypeTableRecord
  2
DASHED
 70
     0
  3
__ __ __ __ __ __ __ __ __ __ __ __ __ __ __ __
 72
    65
 73
     2
 40
0.75
 49
0.5
 74
     0
 49
-0.25
 74
     0
  0
LTYPE
  5
492
330
5
100
AcDbSymbolTableRecord
100
AcDbLinetypeTableRecord
  2
CENTER2
 70
     0
  3

 72
    65
 73
     4
 40
23.0
 49
20.0
 74
     0
 49
-1.0
 74
     0
 49
1.0
 74
     0
 49
-1.0
 74
     0
  0
ENDTAB
  0
TABLE
  2
LAYER
  5
2
102
{ACAD_XDICTIONARY
360
499
102
}
330
0
100
AcDbSymbolTable
 70
    15
  0
LAYER
  5
F
330
2
100
AcDbSymbolTableRecord
100
AcDbLayerTableRecord
  2
0
 70
     0
 62
     7
  6
CONTINUOUS
370
    -3
390
159
  0
LAYER
  5
62
330
2
100
AcDbSymbolTableRecord
100
AcDbLayerTableRecord
  2
VIEWPORT
 70
     0
 62
     7
  6
CONTINUOUS
370
    -3
390
159
  0
LAYER
  5
6B
330
2
100
AcDbSymbolTableRecord
100
AcDbLayerTableRecord
  2
図枠
 70
     0
 62
     7
  6
CONTINUOUS
370
    -3
390
159
  0
LAYER
  5
14E
330
2
100
AcDbSymbolTableRecord
100
AcDbLayerTableRecord
  2
軒樋
 70
     0
 62
     8
  6
PHANTOM
370
    -3
390
159
  0
LAYER
  5
14F
330
2
100
AcDbSymbolTableRecord
100
AcDbLayerTableRecord
  2
製品
 70
     0
 62
     3
  6
CONTINUOUS
370
    -3
390
159
  0
LAYER
  5
150
330
2
100
AcDbSymbolTableRecord
100
AcDbLayerTableRecord
  2
寸法
 70
     0
 62
     4
  6
CONTINUOUS
370
    -3
390
159
  0
LAYER
  5
151
330
2
100
AcDbSymbolTableRecord
100
AcDbLayerTableRecord
  2
中心線
 70
     0
 62
     1
  6
CENTER
370
    -3
390
159
  0
LAYER
  5
16E
330
2
100
AcDbSymbolTableRecord
100
AcDbLayerTableRecord
  2
Defpoints
 70
     0
 62
     7
  6
CONTINUOUS
290
     0
370
    -3
390
159
  0
LAYER
  5
180
330
2
100
AcDbSymbolTableRecord
100
AcDbLayerTableRecord
  2
ZUWAKU
 70
     0
 62
     7
  6
CONTINUOUS
370
    -3
390
159
  0
LAYER
  5
181
330
2
100
AcDbSymbolTableRecord
100
AcDbLayerTableRecord
  2
MOJI
 70
     0
 62
     2
  6
CONTINUOUS
370
    -3
390
159
  0
LAYER
  5
493
330
2
100
AcDbSymbolTableRecord
100
AcDbLayerTableRecord
  2
ﾚｲﾔｰ1
 70
     0
 62
     7
  6
CONTINUOUS
370
    -3
390
159
  0
LAYER
  5
494
330
2
100
AcDbSymbolTableRecord
100
AcDbLayerTableRecord
  2
寸法線
 70
     0
 62
     7
  6
CONTINUOUS
370
    -3
390
159
  0
LAYER
  5
495
330
2
100
AcDbSymbolTableRecord
100
AcDbLayerTableRecord
  2
CENTER L
 70
     0
 62
     1
  6
CENTER
370
    -3
390
159
  0
LAYER
  5
496
330
2
100
AcDbSymbolTableRecord
100
AcDbLayerTableRecord
  2
ﾌﾞﾗｹｯﾄ本体
 70
     0
 62
     2
  6
CONTINUOUS
370
    -3
390
159
  0
LAYER
  5
497
330
2
100
AcDbSymbolTableRecord
100
AcDbLayerTableRecord
  2
SEIHIN
 70
     0
 62
     3
  6
CONTINUOUS
370
    -3
390
159
  0
ENDTAB
  0
TABLE
  2
STYLE
  5
3
330
0
100
AcDbSymbolTable
 70
     5
  0
STYLE
  5
10
330
3
100
AcDbSymbolTableRecord
100
AcDbTextStyleTableRecord
  2
STANDARD
 70
     0
 40
0.0
 41
1.0
 50
0.0
 71
     0
 42
2.5
  3
TXT
  4
bigfont.shx
  0
STYLE
  5
16C
330
3
100
AcDbSymbolTableRecord
100
AcDbTextStyleTableRecord
  2
kanji
 70
     0
 40
0.0
 41
1.0
 50
0.0
 71
     0
 42
2.5
  3
TXT.shx
  4
bigfont.shx
  0
STYLE
  5
182
330
3
100
AcDbSymbolTableRecord
100
AcDbTextStyleTableRecord
  2
ｽﾀｲﾙ1
 70
     0
 40
0.0
 41
1.0
 50
0.0
 71
     0
 42
2.5
  3

  4

1001
ACAD
1000
MS PGothic
1071
    32818
  0
STYLE
  5
498
330
3
100
AcDbSymbolTableRecord
100
AcDbTextStyleTableRecord
  2
Style2
 70
     0
 40
0.0
 41
1.0
 50
0.0
 71
     0
 42
0.35
  3
ＭＳ ゴシック
  4

  0
STYLE
  5
2308
330
3
100
AcDbSymbolTableRecord
100
AcDbTextStyleTableRecord
  2
MSPｺﾞｼｯｸ
 70
     0
 40
0.0
 41
1.0
 50
0.0
 71
     0
 42
2.5
  3

  4

1001
ACAD
1000
MS PGothic
1071
    32818
  0
ENDTAB
  0
TABLE
  2
VIEW
  5
6
330
0
100
AcDbSymbolTable
 70
     0
  0
ENDTAB
  0
TABLE
  2
UCS
  5
7
330
0
100
AcDbSymbolTable
 70
     0
  0
ENDTAB
  0
TABLE
  2
APPID
  5
9
330
0
100
AcDbSymbolTable
 70
     1
  0
APPID
  5
11
330
9
100
AcDbSymbolTableRecord
100
AcDbRegAppTableRecord
  2
ACAD
 70
     0
  0
ENDTAB
  0
TABLE
  2
DIMSTYLE
  5
A
330
0
100
AcDbSymbolTable
 70
     8
100
AcDbDimStyleTable
 71
     1
340
1D
  0
DIMSTYLE
105
1D
102
{ACAD_REACTORS
330
2F98
330
2F97
330
41B4
330
41B3
330
41B2
330
41B1
330
41B0
330
41AF
102
}
330
A
100
AcDbSymbolTableRecord
100
AcDbDimStyleTableRecord
  2
STANDARD
 70
     0
340
10
  0
DIMSTYLE
105
24
330
A
100
AcDbSymbolTableRecord
100
AcDbDimStyleTableRecord
  2
ISO-25
 70
     0
 41
2.5
 42
0.625
 43
3.75
 44
1.25
 74
     0
 77
     1
 78
     8
140
2.5
141
2.5
143
0.0394
145
1.0
147
0.625
172
     1
340
10
  0
DIMSTYLE
105
25
330
A
100
AcDbSymbolTableRecord
100
AcDbDimStyleTableRecord
  2
ISO-35
 70
     0
 41
3.5
 42
0.875
 43
5.25
 44
1.75
 74
     0
 77
     1
 78
     8
140
3.5
141
3.5
143
0.0394
145
1.399999999999999
147
0.875
172
     1
340
10
  0
DIMSTYLE
105
26
330
A
100
AcDbSymbolTableRecord
100
AcDbDimStyleTableRecord
  2
ISO-5
 70
     0
 41
5.0
 42
1.25
 43
7.5
 44
2.5
 74
     0
 77
     1
 78
     8
140
5.0
141
5.0
143
0.0394
145
2.0
147
1.25
172
     1
340
10
  0
DIMSTYLE
105
27
330
A
100
AcDbSymbolTableRecord
100
AcDbDimStyleTableRecord
  2
ISO-7
 70
     0
 41
7.0
 42
1.75
 43
10.5
 44
3.5
 74
     0
 77
     1
 78
     8
140
7.0
141
7.0
143
0.0394
145
2.799999999999999
147
1.75
172
     1
340
10
  0
DIMSTYLE
105
28
330
A
100
AcDbSymbolTableRecord
100
AcDbDimStyleTableRecord
  2
ISO1
 70
     0
 41
10.0
 42
2.5
 43
15.0
 44
5.0
 74
     0
 77
     1
 78
     8
140
10.0
141
10.0
143
0.0394
145
4.0
147
2.5
172
     1
340
10
  0
DIMSTYLE
105
29
330
A
100
AcDbSymbolTableRecord
100
AcDbDimStyleTableRecord
  2
ISO1-4
 70
     0
 41
14.0
 42
3.5
 43
21.0
 44
7.0
 74
     0
 77
     1
 78
     8
140
14.0
141
14.0
143
0.0394
145
5.599999999999999
147
3.5
172
     1
340
10
  0
DIMSTYLE
105
2A
330
A
100
AcDbSymbolTableRecord
100
AcDbDimStyleTableRecord
  2
ISO2
 70
     0
 41
20.0
 42
5.0
 43
30.0
 44
10.0
 74
     0
 77
     1
 78
     8
140
20.0
141
20.0
143
0.0394
145
8.0
147
5.0
172
     1
340
10
  0
ENDTAB
  0
TABLE
  2
BLOCK_RECORD
  5
1
330
0
100
AcDbSymbolTable
 70
    21
  0
BLOCK_RECORD
  5
1A
330
1
100
AcDbSymbolTableRecord
100
AcDbBlockTableRecord
  2
*MODEL_SPACE
340
15C
  0
BLOCK_RECORD
  5
4EB0
330
1
100
AcDbSymbolTableRecord
100
AcDbBlockTableRecord
  2
*Paper_Space
340
4EB1
  0
BLOCK_RECORD
  5
70
330
1
100
AcDbSymbolTableRecord
100
AcDbBlockTableRecord
  2
A$C13B5
340
0
  0
BLOCK_RECORD
  5
B2
330
1
100
AcDbSymbolTableRecord
100
AcDbBlockTableRecord
  2
_OPEN
340
0
  0
BLOCK_RECORD
  5
166
330
1
100
AcDbSymbolTableRecord
100
AcDbBlockTableRecord
  2
_Open30
340
0
102
{BLKREFS
331
320A
331
320B
331
3213
331
3214
331
3885
331
3886
331
3893
331
3894
331
389F
331
38A0
331
38AD
331
38AE
331
38B9
331
38BA
331
38C5
331
38C6
331
38D1
331
38D2
331
38DD
331
38DE
331
4E4D
331
4E4E
331
4E58
331
4E59
331
4E61
331
4E62
331
4E6C
331
4E6D
331
4E75
331
4E76
331
4E7E
331
4E7F
102
}
  0
BLOCK_RECORD
  5
3133
330
1
100
AcDbSymbolTableRecord
100
AcDbBlockTableRecord
  2
*D3
340
0
  0
BLOCK_RECORD
  5
313F
330
1
100
AcDbSymbolTableRecord
100
AcDbBlockTableRecord
  2
*D4
340
0
  0
BLOCK_RECORD
  5
3880
330
1
100
AcDbSymbolTableRecord
100
AcDbBlockTableRecord
  2
*D5
340
0
  0
BLOCK_RECORD
  5
388C
330
1
100
AcDbSymbolTableRecord
100
AcDbBlockTableRecord
  2
*D6
340
0
  0
BLOCK_RECORD
  5
389A
330
1
100
AcDbSymbolTableRecord
100
AcDbBlockTableRecord
  2
*D7
340
0
  0
BLOCK_RECORD
  5
38A6
330
1
100
AcDbSymbolTableRecord
100
AcDbBlockTableRecord
  2
*D8
340
0
  0
BLOCK_RECORD
  5
38B4
330
1
100
AcDbSymbolTableRecord
100
AcDbBlockTableRecord
  2
*D9
340
0
  0
BLOCK_RECORD
  5
38C0
330
1
100
AcDbSymbolTableRecord
100
AcDbBlockTableRecord
  2
*D10
340
0
  0
BLOCK_RECORD
  5
38CC
330
1
100
AcDbSymbolTableRecord
100
AcDbBlockTableRecord
  2
*D11
340
0
  0
BLOCK_RECORD
  5
38D8
330
1
100
AcDbSymbolTableRecord
100
AcDbBlockTableRecord
  2
*D12
340
0
  0
BLOCK_RECORD
  5
38E4
330
1
100
AcDbSymbolTableRecord
100
AcDbBlockTableRecord
  2
A$C487C5814
340
0
  0
BLOCK_RECORD
  5
41D8
330
1
100
AcDbSymbolTableRecord
100
AcDbBlockTableRecord
  2
*D14
340
0
  0
BLOCK_RECORD
  5
41E4
330
1
100
AcDbSymbolTableRecord
100
AcDbBlockTableRecord
  2
*D15
340
0
  0
BLOCK_RECORD
  5
41F2
330
1
100
AcDbSymbolTableRecord
100
AcDbBlockTableRecord
  2
*D16
340
0
  0
BLOCK_RECORD
  5
41FE
330
1
100
AcDbSymbolTableRecord
100
AcDbBlockTableRecord
  2
*D17
340
0
  0
BLOCK_RECORD
  5
420C
330
1
100
AcDbSymbolTableRecord
100
AcDbBlockTableRecord
  2
*D18
340
0
  0
BLOCK_RECORD
  5
4218
330
1
100
AcDbSymbolTableRecord
100
AcDbBlockTableRecord
  2
*D19
340
0
  0
BLOCK_RECORD
  5
17
330
1
100
AcDbSymbolTableRecord
100
AcDbBlockTableRecord
  2
*PAPER_SPACE20
340
15D
  0
ENDTAB
  0
ENDSEC
  0
SECTION
  2
BLOCKS
  0
BLOCK
  5
1B
330
1A
100
AcDbEntity
  8
0
100
AcDbBlockBegin
  2
*MODEL_SPACE
 70
     0
 10
0.0
 20
0.0
 30
0.0
  3
*MODEL_SPACE
  1

  0
ENDBLK
  5
1C
330
1A
100
AcDbEntity
  8
0
100
AcDbBlockEnd
  0
BLOCK
  5
4EB2
330
4EB0
100
AcDbEntity
 67
     1
  8
0
100
AcDbBlockBegin
  2
*Paper_Space
 70
     0
 10
0.0
 20
0.0
 30
0.0
  3
*Paper_Space
  1

  0
ENDBLK
  5
4EB3
330
4EB0
100
AcDbEntity
 67
     1
  8
0
100
AcDbBlockEnd
  0
BLOCK
  5
8A
330
70
100
AcDbEntity
  8
0
100
AcDbBlockBegin
  2
A$C13B5
 70
     0
 10
0.0
 20
0.0
 30
0.0
  3
A$C13B5
  1

  0
LINE
  5
71
330
70
100
AcDbEntity
  8
図枠
 62
     4
 48
10.0
100
AcDbLine
 10
1.288909537446727
 20
14.55345049516773
 30
0.0
 11
389.2889095374467
 21
14.55345049516768
 31
0.0
  0
LINE
  5
72
330
70
100
AcDbEntity
  8
図枠
 62
     6
 48
10.0
100
AcDbLine
 10
1.288909537446727
 20
6.553450495167737
 30
0.0
 11
389.2889095374467
 21
6.553450495167737
 31
0.0
  0
LINE
  5
73
330
70
100
AcDbEntity
  8
図枠
 62
     6
 48
10.0
100
AcDbLine
 10
1.288909537446727
 20
282.5534504951678
 30
0.0
 11
389.2889095374467
 21
282.5534504951677
 31
0.0
  0
LINE
  5
74
330
70
100
AcDbEntity
  8
図枠
 62
     6
 48
10.0
100
AcDbLine
 10
1.288909537446727
 20
6.553450495167737
 30
0.0
 11
1.288909537446727
 21
282.5534504951678
 31
0.0
  0
TEXT
  5
75
330
70
100
AcDbEntity
  8
図枠
100
AcDbText
 10
27.01140845066024
 20
7.713688301955187
 30
0.0
 40
6.0
  1
たてとい ｱｰﾊﾞﾝﾄｯﾌﾟ 
100
AcDbText
  0
TEXT
  5
76
330
70
100
AcDbEntity
  8
図枠
100
AcDbText
 10
5.016931864020591
 20
7.42362867277842
 30
0.0
 40
6.0
  1
品 名
100
AcDbText
  0
LINE
  5
77
330
70
100
AcDbEntity
  8
図枠
 62
     4
 48
10.0
100
AcDbLine
 10
23.28890953744673
 20
6.553450495167737
 30
0.0
 11
23.28890953744673
 21
14.55345049516774
 31
0.0
  0
LINE
  5
78
330
70
100
AcDbEntity
  8
図枠
 62
     4
 48
10.0
100
AcDbLine
 10
200.2889095374467
 20
6.553450495167737
 30
0.0
 11
200.2889095374467
 21
14.55345049516774
 31
0.0
  0
LINE
  5
79
330
70
100
AcDbEntity
  8
図枠
 62
     6
 48
10.0
100
AcDbLine
 10
170.2889095374467
 20
6.553450495167737
 30
0.0
 11
170.2889095374467
 21
14.55345049516774
 31
0.0
  0
TEXT
  5
7A
330
70
100
AcDbEntity
  8
図枠
100
AcDbText
 10
176.0849013274096
 20
7.75394793026868
 30
0.0
 40
6.0
  1
ｻ ｲ ｽﾞ
100
AcDbText
  0
LINE
  5
7B
330
70
100
AcDbEntity
  8
図枠
 62
     6
 48
10.0
100
AcDbLine
 10
389.2889095374467
 20
282.5534504951678
 30
0.0
 11
389.2889095374467
 21
6.553450495167737
 31
0.0
  0
TEXT
  5
7C
330
70
100
AcDbEntity
  8
図枠
100
AcDbText
 10
204.0370891170811
 20
7.483365856018338
 30
0.0
 40
6.0
  1
MY60
100
AcDbText
  0
LINE
  5
7D
330
70
100
AcDbEntity
  8
図枠
 62
     4
 48
10.0
100
AcDbLine
 10
302.2889095374467
 20
6.553450495167624
 30
0.0
 11
302.2889095374467
 21
14.55345049516774
 31
0.0
  0
LINE
  5
7E
330
70
100
AcDbEntity
  8
図枠
 62
     6
 48
10.0
100
AcDbLine
 10
280.2889095374467
 20
6.553450495167624
 30
0.0
 11
280.2889095374467
 21
14.55345049516774
 31
0.0
  0
TEXT
  5
7F
330
70
100
AcDbEntity
  8
図枠
100
AcDbText
 10
283.0671879169738
 20
7.488111900969613
 30
0.0
 40
6.0
  1
品 番
100
AcDbText
  0
TEXT
  5
80
330
70
100
AcDbEntity
  8
図枠
100
AcDbText
 10
305.4357802301391
 20
7.613597276414054
 30
0.0
 40
6.0
  1
C
100
AcDbText
  0
TEXT
  5
81
330
70
100
AcDbEntity
  8
図枠
 62
     6
 48
10.0
100
AcDbText
 10
287.5750180087266
 20
1.264336022576742
 30
0.0
 40
4.0
  1
積水化学工業株式会社
100
AcDbText
  0
TEXT
  5
82
330
70
100
AcDbEntity
  8
図枠
100
AcDbText
 10
378.9143972244913
 20
7.28414306680321
 30
0.0
 40
6.0
  1
1
100
AcDbText
  0
LINE
  5
83
330
70
100
AcDbEntity
  8
図枠
 62
     6
 48
10.0
100
AcDbLine
 10
363.2889095374467
 20
6.553450495167624
 30
0.0
 11
363.2889095374467
 21
14.55345049516774
 31
0.0
  0
TEXT
  5
84
330
70
100
AcDbEntity
  8
図枠
100
AcDbText
 10
366.7712800492437
 20
7.439601954164061
 30
0.0
 40
6.0
  1
1
100
AcDbText
  0
TEXT
  5
85
330
70
100
AcDbEntity
  8
図枠
100
AcDbText
 10
343.2307409172757
 20
7.283296132810676
 30
0.0
 40
6.0
  1
尺 度
100
AcDbText
  0
LINE
  5
86
330
70
100
AcDbEntity
  8
図枠
 62
     6
 48
10.0
100
AcDbLine
 10
340.2889095374467
 20
6.553450495167624
 30
0.0
 11
340.2889095374467
 21
14.55345049516774
 31
0.0
  0
LINE
  5
87
330
70
100
AcDbEntity
  8
図枠
 62
     4
100
AcDbLine
 10
375.8063876295765
 20
13.2465143593065
 30
0.0
 11
371.5781694695176
 21
7.361027351289919
 31
0.0
  0
TEXT
  5
88
330
70
100
AcDbEntity
  8
図枠
 62
     6
 48
10.0
100
AcDbText
 10
341.4974857461839
 20
1.41668541775158
 30
0.0
 40
4.0
  1
建材
100
AcDbText
  0
TEXT
  5
89
330
70
100
AcDbEntity
  8
図枠
 62
     6
 48
10.0
100
AcDbText
 10
380.7768613132438
 20
1.181327481845247
 30
0.0
 40
4.0
  1
A3
100
AcDbText
  0
ENDBLK
  5
8B
330
70
100
AcDbEntity
  8
0
100
AcDbBlockEnd
  0
BLOCK
  5
B3
330
B2
100
AcDbEntity
  8
0
100
AcDbBlockBegin
  2
_OPEN
 70
     0
 10
0.0
 20
0.0
 30
0.0
  3
_OPEN
  1

  0
LINE
  5
B4
330
B2
100
AcDbEntity
  8
0
  6
ByBlock
 62
     0
100
AcDbLine
 10
-1.0
 20
0.1666666666666666
 30
0.0
 11
0.0
 21
0.0
 31
0.0
  0
LINE
  5
B5
330
B2
100
AcDbEntity
  8
0
  6
ByBlock
 62
     0
100
AcDbLine
 10
0.0
 20
0.0
 30
0.0
 11
-1.0
 21
-0.1666666666666666
 31
0.0
  0
LINE
  5
B6
330
B2
100
AcDbEntity
  8
0
  6
ByBlock
 62
     0
100
AcDbLine
 10
0.0
 20
0.0
 30
0.0
 11
-1.0
 21
0.0
 31
0.0
  0
ENDBLK
  5
B7
330
B2
100
AcDbEntity
  8
0
100
AcDbBlockEnd
  0
BLOCK
  5
16A
330
166
100
AcDbEntity
  8
0
100
AcDbBlockBegin
  2
_Open30
 70
     0
 10
0.0
 20
0.0
 30
0.0
  3
_Open30
  1

  0
LINE
  5
167
330
166
100
AcDbEntity
  8
図枠
 62
     0
370
    -2
100
AcDbLine
 10
-1.0
 20
0.26794919
 30
0.0
 11
0.0
 21
0.0
 31
0.0
  0
LINE
  5
168
330
166
100
AcDbEntity
  8
図枠
 62
     0
370
    -2
100
AcDbLine
 10
0.0
 20
0.0
 30
0.0
 11
-1.0
 21
-0.26794919
 31
0.0
  0
LINE
  5
169
330
166
100
AcDbEntity
  8
図枠
 62
     0
370
    -2
100
AcDbLine
 10
0.0
 20
0.0
 30
0.0
 11
-1.0
 21
0.0
 31
0.0
  0
ENDBLK
  5
16B
330
166
100
AcDbEntity
  8
0
100
AcDbBlockEnd
  0
BLOCK
  5
313D
330
3133
100
AcDbEntity
  8
0
100
AcDbBlockBegin
  2
*D3
 70
     1
 10
0.0
 20
0.0
 30
0.0
  3
*D3
  1

  0
LINE
  5
3207
330
3133
100
AcDbEntity
  8
寸法
 62
     4
370
    -2
100
AcDbLine
 10
649.4729620290977
 20
142.4339868592769
 30
0.0
 11
603.3308006120871
 21
142.4339868592769
 31
0.0
  0
LINE
  5
3208
330
3133
100
AcDbEntity
  8
寸法
 62
     4
370
    -2
100
AcDbLine
 10
649.4729620290977
 20
122.4339868592765
 30
0.0
 11
603.3308006120871
 21
122.4339868592766
 31
0.0
  0
LINE
  5
3209
330
3133
100
AcDbEntity
  8
寸法
 62
     4
370
    -2
100
AcDbLine
 10
604.8308006120871
 20
139.4339868592769
 30
0.0
 11
604.8308006120871
 21
125.4339868592766
 31
0.0
  0
INSERT
  5
320A
330
3133
100
AcDbEntity
  8
寸法
 62
     4
370
    -2
100
AcDbBlockReference
  2
_Open30
 10
604.8308006120871
 20
142.4339868592769
 30
0.0
 41
3.0
 42
3.0
 43
3.0
 50
90.0
  0
INSERT
  5
320B
330
3133
100
AcDbEntity
  8
寸法
 62
     4
370
    -2
100
AcDbBlockReference
  2
_Open30
 10
604.8308006120871
 20
122.4339868592766
 30
0.0
 41
3.0
 42
3.0
 43
3.0
 50
270.0
  0
MTEXT
  5
320C
330
3133
100
AcDbEntity
  8
寸法
 62
     4
100
AcDbMText
 10
602.3308006120871
 20
132.4339868592768
 30
0.0
 40
3.0
 41
0.0
 71
     5
 72
     1
  1
\A1;20
 11
0.0000000000000001
 21
1.0
 31
0.0
 73
     1
 44
1.0
  0
POINT
  5
320D
330
3133
100
AcDbEntity
  8
Defpoints
 62
     0
100
AcDbPoint
 10
652.4729620290977
 20
142.4339868592769
 30
0.0
  0
POINT
  5
320E
330
3133
100
AcDbEntity
  8
Defpoints
 62
     0
100
AcDbPoint
 10
652.4729620290977
 20
122.4339868592765
 30
0.0
  0
POINT
  5
320F
330
3133
100
AcDbEntity
  8
Defpoints
 62
     0
100
AcDbPoint
 10
604.8308006120871
 20
122.4339868592766
 30
0.0
  0
ENDBLK
  5
313E
330
3133
100
AcDbEntity
  8
0
100
AcDbBlockEnd
  0
BLOCK
  5
3149
330
313F
100
AcDbEntity
  8
0
100
AcDbBlockBegin
  2
*D4
 70
     1
 10
0.0
 20
0.0
 30
0.0
  3
*D4
  1

  0
LINE
  5
3210
330
313F
100
AcDbEntity
  8
寸法
 62
     4
370
    -2
100
AcDbLine
 10
613.9999637060496
 20
146.4339868592746
 30
0.0
 11
591.4307054796474
 21
146.4339868592746
 31
0.0
  0
LINE
  5
3211
330
313F
100
AcDbEntity
  8
寸法
 62
     4
370
    -2
100
AcDbLine
 10
613.9999637060492
 20
118.4339868592791
 30
0.0
 11
591.4307054796474
 21
118.4339868592792
 31
0.0
  0
LINE
  5
3212
330
313F
100
AcDbEntity
  8
寸法
 62
     4
370
    -2
100
AcDbLine
 10
592.9307054796474
 20
143.4339868592746
 30
0.0
 11
592.9307054796474
 21
121.4339868592792
 31
0.0
  0
INSERT
  5
3213
330
313F
100
AcDbEntity
  8
寸法
 62
     4
370
    -2
100
AcDbBlockReference
  2
_Open30
 10
592.9307054796474
 20
146.4339868592746
 30
0.0
 41
3.0
 42
3.0
 43
3.0
 50
90.0
  0
INSERT
  5
3214
330
313F
100
AcDbEntity
  8
寸法
 62
     4
370
    -2
100
AcDbBlockReference
  2
_Open30
 10
592.9307054796474
 20
118.4339868592792
 30
0.0
 41
3.0
 42
3.0
 43
3.0
 50
270.0
  0
MTEXT
  5
3215
330
313F
100
AcDbEntity
  8
寸法
 62
     4
100
AcDbMText
 10
590.4307054796475
 20
132.433986859277
 30
0.0
 40
3.0
 41
0.0
 71
     5
 72
     1
  1
\A1;28
 11
0.0000000000000001
 21
1.0
 31
0.0
 73
     1
 44
1.0
  0
POINT
  5
3216
330
313F
100
AcDbEntity
  8
Defpoints
 62
     0
100
AcDbPoint
 10
616.9999637060495
 20
146.4339868592746
 30
0.0
  0
POINT
  5
3217
330
313F
100
AcDbEntity
  8
Defpoints
 62
     0
100
AcDbPoint
 10
616.9999637060492
 20
118.4339868592791
 30
0.0
  0
POINT
  5
3218
330
313F
100
AcDbEntity
  8
Defpoints
 62
     0
100
AcDbPoint
 10
592.9307054796474
 20
118.4339868592792
 30
0.0
  0
ENDBLK
  5
314A
330
313F
100
AcDbEntity
  8
0
100
AcDbBlockEnd
  0
BLOCK
  5
3881
330
3880
100
AcDbEntity
  8
0
100
AcDbBlockBegin
  2
*D5
 70
     1
 10
0.0
 20
0.0
 30
0.0
  3
*D5
  1

  0
LINE
  5
3882
330
3880
100
AcDbEntity
  8
寸法
 62
     4
370
    -2
100
AcDbLine
 10
818.2002247801987
 20
40.85995631076343
 30
0.0
 11
797.2436126514503
 21
33.5251420657049
 31
0.0
  0
LINE
  5
3883
330
3880
100
AcDbEntity
  8
寸法
 62
     4
370
    -2
100
AcDbLine
 10
829.7624896456825
 20
7.824913837952664
 30
0.0
 11
808.8058775169294
 21
0.4900995928924772
 31
0.0
  0
LINE
  5
3884
330
3880
100
AcDbEntity
  8
寸法
 62
     4
370
    -2
100
AcDbLine
 10
799.6504514601833
 20
31.18909263369867
 30
0.0
 11
809.2306137772945
 21
3.817200299082628
 31
0.0
  0
INSERT
  5
3885
330
3880
100
AcDbEntity
  8
寸法
 62
     4
370
    -2
100
AcDbBlockReference
  2
_Open30
 10
798.6594001859995
 20
34.02066770279686
 30
0.0
 41
3.0
 42
3.0
 43
3.0
 50
109.2900462191805
  0
INSERT
  5
3886
330
3880
100
AcDbEntity
  8
寸法
 62
     4
370
    -2
100
AcDbBlockReference
  2
_Open30
 10
810.2216650514785
 20
0.9856252299844356
 30
0.0
 41
3.0
 42
3.0
 43
3.0
 50
289.2900462191805
  0
MTEXT
  5
3887
330
3880
100
AcDbEntity
  8
寸法
 62
     4
100
AcDbMText
 10
806.8001785096541
 20
18.3290225282106
 30
0.0
 40
3.0
 41
0.0
 71
     5
 72
     1
  1
\A1;35
 11
0.3303504247279708
 21
-0.9438583563660646
 31
0.0
 73
     1
 44
1.0
  0
POINT
  5
3888
330
3880
100
AcDbEntity
  8
Defpoints
 62
     0
100
AcDbPoint
 10
821.0317998492969
 20
41.85100758494735
 30
0.0
  0
POINT
  5
3889
330
3880
100
AcDbEntity
  8
Defpoints
 62
     0
100
AcDbPoint
 10
832.5940647147806
 20
8.815965112136581
 30
0.0
  0
POINT
  5
388A
330
3880
100
AcDbEntity
  8
Defpoints
 62
     0
100
AcDbPoint
 10
810.2216650514785
 20
0.9856252299844356
 30
0.0
  0
ENDBLK
  5
388B
330
3880
100
AcDbEntity
  8
0
100
AcDbBlockEnd
  0
BLOCK
  5
388D
330
388C
100
AcDbEntity
  8
0
100
AcDbBlockBegin
  2
*D6
 70
     1
 10
0.0
 20
0.0
 30
0.0
  3
*D6
  1

  0
LINE
  5
388E
330
388C
100
AcDbEntity
  8
寸法
 62
     4
370
    -2
100
AcDbLine
 10
822.2798637539195
 20
34.87146291641975
 30
0.0
 11
813.9974713377489
 21
31.97262557076133
 31
0.0
  0
LINE
  5
388F
330
388C
100
AcDbEntity
  8
寸法
 62
     4
370
    -2
100
AcDbLine
 10
818.2002247801987
 20
40.85995631076343
 30
0.0
 11
811.6850183646532
 21
38.57963406532355
 31
0.0
  0
LINE
  5
3890
330
388C
100
AcDbEntity
  8
寸法
 62
     4
370
    -2
100
AcDbLine
 10
816.4043101464818
 20
29.63657613875506
 30
0.0
 11
817.3953614206658
 21
26.80500106965687
 31
0.0
  0
LINE
  5
3891
330
388C
100
AcDbEntity
  8
寸法
 62
     4
370
    -2
100
AcDbLine
 10
812.1097546250181
 20
41.90673477151366
 30
0.0
 11
811.1187033508343
 21
44.73830984061186
 31
0.0
  0
LINE
  5
3892
330
388C
100
AcDbEntity
  8
寸法
 62
     4
370
    -2
100
AcDbLine
 10
815.4132588722978
 20
32.46815120785325
 30
0.0
 11
813.1008058992021
 21
39.07515970241547
 31
0.0
  0
INSERT
  5
3893
330
388C
100
AcDbEntity
  8
寸法
 62
     4
370
    -2
100
AcDbBlockReference
  2
_Open30
 10
815.4132588722978
 20
32.46815120785325
 30
0.0
 41
3.0
 42
3.0
 43
3.0
 50
109.2900462191805
  0
INSERT
  5
3894
330
388C
100
AcDbEntity
  8
寸法
 62
     4
370
    -2
100
AcDbBlockReference
  2
_Open30
 10
813.1008058992021
 20
39.07515970241547
 30
0.0
 41
3.0
 42
3.0
 43
3.0
 50
289.2900462191805
  0
MTEXT
  5
3895
330
388C
100
AcDbEntity
  8
寸法
 62
     4
100
AcDbMText
 10
816.6166782766651
 20
36.59753151695432
 30
0.0
 40
3.0
 41
0.0
 71
     5
 72
     1
  1
\A1;7
 11
0.3303504247279708
 21
-0.9438583563660646
 31
0.0
 73
     1
 44
1.0
  0
POINT
  5
3896
330
388C
100
AcDbEntity
  8
Defpoints
 62
     0
100
AcDbPoint
 10
825.1114388230176
 20
35.86251419060366
 30
0.0
  0
POINT
  5
3897
330
388C
100
AcDbEntity
  8
Defpoints
 62
     0
100
AcDbPoint
 10
821.0317998492969
 20
41.85100758494735
 30
0.0
  0
POINT
  5
3898
330
388C
100
AcDbEntity
  8
Defpoints
 62
     0
100
AcDbPoint
 10
813.1008058992021
 20
39.07515970241547
 30
0.0
  0
ENDBLK
  5
3899
330
388C
100
AcDbEntity
  8
0
100
AcDbBlockEnd
  0
BLOCK
  5
389B
330
389A
100
AcDbEntity
  8
0
100
AcDbBlockBegin
  2
*D7
 70
     1
 10
0.0
 20
0.0
 30
0.0
  3
*D7
  1

  0
LINE
  5
389C
330
389A
100
AcDbEntity
  8
寸法
 62
     4
370
    -2
100
AcDbLine
 10
818.2002247801987
 20
40.85995631076343
 30
0.0
 11
804.4952187440546
 21
36.06320419811524
 31
0.0
  0
LINE
  5
389D
330
389A
100
AcDbEntity
  8
寸法
 62
     4
370
    -2
100
AcDbLine
 10
823.1668074513972
 20
28.82500718041155
 30
0.0
 11
808.7897742655183
 21
23.79304556535627
 31
0.0
  0
LINE
  5
389E
330
389A
100
AcDbEntity
  8
寸法
 62
     4
370
    -2
100
AcDbLine
 10
806.9020575527876
 20
33.72715476610901
 30
0.0
 11
809.2145105258834
 21
27.12014627154642
 31
0.0
  0
INSERT
  5
389F
330
389A
100
AcDbEntity
  8
寸法
 62
     4
370
    -2
100
AcDbBlockReference
  2
_Open30
 10
805.9110062786038
 20
36.5587298352072
 30
0.0
 41
3.0
 42
3.0
 43
3.0
 50
109.2900462191805
  0
INSERT
  5
38A0
330
389A
100
AcDbEntity
  8
寸法
 62
     4
370
    -2
100
AcDbBlockReference
  2
_Open30
 10
810.2055618000672
 20
24.28857120244823
 30
0.0
 41
3.0
 42
3.0
 43
3.0
 50
289.2900462191805
  0
MTEXT
  5
38A1
330
389A
100
AcDbEntity
  8
寸法
 62
     4
100
AcDbMText
 10
810.4179299302508
 20
31.24952658064766
 30
0.0
 40
3.0
 41
0.0
 71
     5
 72
     1
  1
\A1;13
 11
0.3303504247279708
 21
-0.9438583563660646
 31
0.0
 73
     1
 44
1.0
  0
POINT
  5
38A2
330
389A
100
AcDbEntity
  8
Defpoints
 62
     0
100
AcDbPoint
 10
821.0317998492969
 20
41.85100758494735
 30
0.0
  0
POINT
  5
38A3
330
389A
100
AcDbEntity
  8
Defpoints
 62
     0
100
AcDbPoint
 10
825.9983825204953
 20
29.81605845459546
 30
0.0
  0
POINT
  5
38A4
330
389A
100
AcDbEntity
  8
Defpoints
 62
     0
100
AcDbPoint
 10
810.2055618000672
 20
24.28857120244823
 30
0.0
  0
ENDBLK
  5
38A5
330
389A
100
AcDbEntity
  8
0
100
AcDbBlockEnd
  0
BLOCK
  5
38A7
330
38A6
100
AcDbEntity
  8
0
100
AcDbBlockBegin
  2
*D8
 70
     1
 10
0.0
 20
0.0
 30
0.0
  3
*D8
  1

  0
LINE
  5
38A8
330
38A6
100
AcDbEntity
  8
寸法
 62
     4
370
    -2
100
AcDbLine
 10
829.0079692756032
 20
14.97719874357102
 30
0.0
 11
820.9348302570399
 21
12.15160008707516
 31
0.0
  0
LINE
  5
38A9
330
38A6
100
AcDbEntity
  8
寸法
 62
     4
370
    -2
100
AcDbLine
 10
829.7624896456825
 20
7.824913837952664
 30
0.0
 11
823.2472832301358
 21
5.544591592512375
 31
0.0
  0
LINE
  5
38AA
330
38A6
100
AcDbEntity
  8
寸法
 62
     4
370
    -2
100
AcDbLine
 10
821.359566517405
 20
15.47870079326535
 30
0.0
 11
820.368515243221
 21
18.31027586236354
 31
0.0
  0
LINE
  5
38AB
330
38A6
100
AcDbEntity
  8
寸法
 62
     4
370
    -2
100
AcDbLine
 10
825.6541220388687
 20
3.208542160506169
 30
0.0
 11
826.6451733130526
 21
0.3769670914080052
 31
0.0
  0
LINE
  5
38AC
330
38A6
100
AcDbEntity
  8
寸法
 62
     4
370
    -2
100
AcDbLine
 10
822.350617791589
 20
12.64712572416715
 30
0.0
 11
824.6630707646849
 21
6.040117229604362
 31
0.0
  0
INSERT
  5
38AD
330
38A6
100
AcDbEntity
  8
寸法
 62
     4
370
    -2
100
AcDbBlockReference
  2
_Open30
 10
822.350617791589
 20
12.64712572416715
 30
0.0
 41
3.0
 42
3.0
 43
3.0
 50
289.2900462191805
  0
INSERT
  5
38AE
330
38A6
100
AcDbEntity
  8
寸法
 62
     4
370
    -2
100
AcDbBlockReference
  2
_Open30
 10
824.6630707646849
 20
6.040117229604362
 30
0.0
 41
3.0
 42
3.0
 43
3.0
 50
109.2900462191805
  0
MTEXT
  5
38AF
330
38A6
100
AcDbEntity
  8
寸法
 62
     4
100
AcDbMText
 10
825.866490169052
 20
10.16949753870562
 30
0.0
 40
3.0
 41
0.0
 71
     5
 72
     1
  1
\A1;7
 11
0.3303504247279708
 21
-0.9438583563660646
 31
0.0
 73
     1
 44
1.0
  0
POINT
  5
38B0
330
38A6
100
AcDbEntity
  8
Defpoints
 62
     0
100
AcDbPoint
 10
831.8395443447013
 20
15.96825001775494
 30
0.0
  0
POINT
  5
38B1
330
38A6
100
AcDbEntity
  8
Defpoints
 62
     0
100
AcDbPoint
 10
832.5940647147806
 20
8.815965112136581
 30
0.0
  0
POINT
  5
38B2
330
38A6
100
AcDbEntity
  8
Defpoints
 62
     0
100
AcDbPoint
 10
824.6630707646849
 20
6.040117229604362
 30
0.0
  0
ENDBLK
  5
38B3
330
38A6
100
AcDbEntity
  8
0
100
AcDbBlockEnd
  0
BLOCK
  5
38B5
330
38B4
100
AcDbEntity
  8
0
100
AcDbBlockBegin
  2
*D9
 70
     1
 10
0.0
 20
0.0
 30
0.0
  3
*D9
  1

  0
LINE
  5
38B6
330
38B4
100
AcDbEntity
  8
寸法
 62
     4
370
    -2
100
AcDbLine
 10
837.5036996920478
 20
10.68065168097314
 30
0.0
 11
841.04622801855
 21
0.5591421766823146
 31
0.0
  0
LINE
  5
38B7
330
38B4
100
AcDbEntity
  8
寸法
 62
     4
370
    -2
100
AcDbLine
 10
871.4826949070602
 20
22.57330000622747
 30
0.0
 11
875.025223233562
 21
12.45179050193781
 31
0.0
  0
LINE
  5
38B8
330
38B4
100
AcDbEntity
  8
寸法
 62
     4
370
    -2
100
AcDbLine
 10
843.3822774505559
 20
2.96598098541574
 30
0.0
 11
871.6981225273718
 21
12.87652676230237
 31
0.0
  0
INSERT
  5
38B9
330
38B4
100
AcDbEntity
  8
寸法
 62
     4
370
    -2
100
AcDbBlockReference
  2
_Open30
 10
840.5507023814577
 20
1.974929711231311
 30
0.0
 41
3.0
 42
3.0
 43
3.0
 50
199.2900462191906
  0
INSERT
  5
38BA
330
38B4
100
AcDbEntity
  8
寸法
 62
     4
370
    -2
100
AcDbBlockReference
  2
_Open30
 10
874.5296975964697
 20
13.8675780364868
 30
0.0
 41
3.0
 42
3.0
 43
3.0
 50
19.29004621919067
  0
MTEXT
  5
38BB
330
38B4
100
AcDbEntity
  8
寸法
 62
     4
100
AcDbMText
 10
856.7143239271434
 20
10.28089976477406
 30
0.0
 40
3.0
 41
0.0
 71
     5
 72
     1
  1
\A1;36
 11
0.9438583563660062
 21
0.330350424728138
 31
0.0
 73
     1
 44
1.0
  0
POINT
  5
38BC
330
38B4
100
AcDbEntity
  8
Defpoints
 62
     0
100
AcDbPoint
 10
836.5126484178633
 20
13.51222675007116
 30
0.0
  0
POINT
  5
38BD
330
38B4
100
AcDbEntity
  8
Defpoints
 62
     0
100
AcDbPoint
 10
870.4916436328758
 20
25.40487507532549
 30
0.0
  0
POINT
  5
38BE
330
38B4
100
AcDbEntity
  8
Defpoints
 62
     0
100
AcDbPoint
 10
874.5296975964697
 20
13.8675780364868
 30
0.0
  0
ENDBLK
  5
38BF
330
38B4
100
AcDbEntity
  8
0
100
AcDbBlockEnd
  0
BLOCK
  5
38C1
330
38C0
100
AcDbEntity
  8
0
100
AcDbBlockBegin
  2
*D10
 70
     1
 10
0.0
 20
0.0
 30
0.0
  3
*D10
  1

  0
LINE
  5
38C2
330
38C0
100
AcDbEntity
  8
寸法
 62
     4
370
    -2
100
AcDbLine
 10
832.9244151395084
 20
7.872106755770488
 30
0.0
 11
838.3061779271532
 21
-7.50435835178456
 31
0.0
  0
LINE
  5
38C3
330
38C0
100
AcDbEntity
  8
寸法
 62
     4
370
    -2
100
AcDbLine
 10
876.8139230963646
 20
23.2334345406702
 30
0.0
 11
882.195685884009
 21
7.856969433116603
 31
0.0
  0
LINE
  5
38C4
330
38C0
100
AcDbEntity
  8
寸法
 62
     4
370
    -2
100
AcDbLine
 10
840.6422273591589
 20
-5.097519543051191
 30
0.0
 11
878.8685851778186
 21
8.281705693481171
 31
0.0
  0
INSERT
  5
38C5
330
38C0
100
AcDbEntity
  8
寸法
 62
     4
370
    -2
100
AcDbBlockReference
  2
_Open30
 10
837.8106522900608
 20
-6.088570817235563
 30
0.0
 41
3.0
 42
3.0
 43
3.0
 50
199.2900462191906
  0
INSERT
  5
38C6
330
38C0
100
AcDbEntity
  8
寸法
 62
     4
370
    -2
100
AcDbBlockReference
  2
_Open30
 10
881.7001602469167
 20
9.2727569676656
 30
0.0
 41
3.0
 42
3.0
 43
3.0
 50
19.29004621919067
  0
MTEXT
  5
38C7
330
38C0
100
AcDbEntity
  8
寸法
 62
     4
100
AcDbMText
 10
858.9295302066686
 20
3.951738966129994
 30
0.0
 40
3.0
 41
0.0
 71
     5
 72
     1
  1
\A1;47
 11
0.9438583563660062
 21
0.330350424728138
 31
0.0
 73
     1
 44
1.0
  0
POINT
  5
38C8
330
38C0
100
AcDbEntity
  8
Defpoints
 62
     0
100
AcDbPoint
 10
831.9333638653239
 20
10.70368182486851
 30
0.0
  0
POINT
  5
38C9
330
38C0
100
AcDbEntity
  8
Defpoints
 62
     0
100
AcDbPoint
 10
875.8228718221802
 20
26.06500960976823
 30
0.0
  0
POINT
  5
38CA
330
38C0
100
AcDbEntity
  8
Defpoints
 62
     0
100
AcDbPoint
 10
881.7001602469167
 20
9.2727569676656
 30
0.0
  0
ENDBLK
  5
38CB
330
38C0
100
AcDbEntity
  8
0
100
AcDbBlockEnd
  0
BLOCK
  5
38CD
330
38CC
100
AcDbEntity
  8
0
100
AcDbBlockBegin
  2
*D11
 70
     1
 10
0.0
 20
0.0
 30
0.0
  3
*D11
  1

  0
LINE
  5
38CE
330
38CC
100
AcDbEntity
  8
寸法
 62
     4
370
    -2
100
AcDbLine
 10
613.9999637060496
 20
112.5093626923245
 30
0.0
 11
591.4307054796474
 21
112.5093626923245
 31
0.0
  0
LINE
  5
38CF
330
38CC
100
AcDbEntity
  8
寸法
 62
     4
370
    -2
100
AcDbLine
 10
613.9999637060492
 20
84.50936269232903
 30
0.0
 11
591.4307054796474
 21
84.50936269232904
 31
0.0
  0
LINE
  5
38D0
330
38CC
100
AcDbEntity
  8
寸法
 62
     4
370
    -2
100
AcDbLine
 10
592.9307054796474
 20
109.5093626923245
 30
0.0
 11
592.9307054796474
 21
87.50936269232905
 31
0.0
  0
INSERT
  5
38D1
330
38CC
100
AcDbEntity
  8
寸法
 62
     4
370
    -2
100
AcDbBlockReference
  2
_Open30
 10
592.9307054796474
 20
112.5093626923245
 30
0.0
 41
3.0
 42
3.0
 43
3.0
 50
90.0
  0
INSERT
  5
38D2
330
38CC
100
AcDbEntity
  8
寸法
 62
     4
370
    -2
100
AcDbBlockReference
  2
_Open30
 10
592.9307054796474
 20
84.50936269232904
 30
0.0
 41
3.0
 42
3.0
 43
3.0
 50
270.0
  0
MTEXT
  5
38D3
330
38CC
100
AcDbEntity
  8
寸法
 62
     4
100
AcDbMText
 10
590.4307054796475
 20
98.50936269232686
 30
0.0
 40
3.0
 41
0.0
 71
     5
 72
     1
  1
\A1;28
 11
0.0000000000000001
 21
1.0
 31
0.0
 73
     1
 44
1.0
  0
POINT
  5
38D4
330
38CC
100
AcDbEntity
  8
Defpoints
 62
     0
100
AcDbPoint
 10
616.9999637060495
 20
112.5093626923245
 30
0.0
  0
POINT
  5
38D5
330
38CC
100
AcDbEntity
  8
Defpoints
 62
     0
100
AcDbPoint
 10
616.9999637060492
 20
84.50936269232903
 30
0.0
  0
POINT
  5
38D6
330
38CC
100
AcDbEntity
  8
Defpoints
 62
     0
100
AcDbPoint
 10
592.9307054796474
 20
84.50936269232904
 30
0.0
  0
ENDBLK
  5
38D7
330
38CC
100
AcDbEntity
  8
0
100
AcDbBlockEnd
  0
BLOCK
  5
38D9
330
38D8
100
AcDbEntity
  8
0
100
AcDbBlockBegin
  2
*D12
 70
     1
 10
0.0
 20
0.0
 30
0.0
  3
*D12
  1

  0
LINE
  5
38DA
330
38D8
100
AcDbEntity
  8
寸法
 62
     4
370
    -2
100
AcDbLine
 10
649.4729620290977
 20
108.5093626923267
 30
0.0
 11
603.3308006120871
 21
108.5093626923268
 31
0.0
  0
LINE
  5
38DB
330
38D8
100
AcDbEntity
  8
寸法
 62
     4
370
    -2
100
AcDbLine
 10
649.4729620290977
 20
88.50936269232642
 30
0.0
 11
603.3308006120871
 21
88.50936269232644
 31
0.0
  0
LINE
  5
38DC
330
38D8
100
AcDbEntity
  8
寸法
 62
     4
370
    -2
100
AcDbLine
 10
604.8308006120871
 20
105.5093626923268
 30
0.0
 11
604.8308006120871
 21
91.50936269232643
 31
0.0
  0
INSERT
  5
38DD
330
38D8
100
AcDbEntity
  8
寸法
 62
     4
370
    -2
100
AcDbBlockReference
  2
_Open30
 10
604.8308006120871
 20
108.5093626923268
 30
0.0
 41
3.0
 42
3.0
 43
3.0
 50
90.0
  0
INSERT
  5
38DE
330
38D8
100
AcDbEntity
  8
寸法
 62
     4
370
    -2
100
AcDbBlockReference
  2
_Open30
 10
604.8308006120871
 20
88.50936269232644
 30
0.0
 41
3.0
 42
3.0
 43
3.0
 50
270.0
  0
MTEXT
  5
38DF
330
38D8
100
AcDbEntity
  8
寸法
 62
     4
100
AcDbMText
 10
602.3308006120871
 20
98.50936269232668
 30
0.0
 40
3.0
 41
0.0
 71
     5
 72
     1
  1
\A1;20
 11
0.0000000000000001
 21
1.0
 31
0.0
 73
     1
 44
1.0
  0
POINT
  5
38E0
330
38D8
100
AcDbEntity
  8
Defpoints
 62
     0
100
AcDbPoint
 10
652.4729620290977
 20
108.5093626923267
 30
0.0
  0
POINT
  5
38E1
330
38D8
100
AcDbEntity
  8
Defpoints
 62
     0
100
AcDbPoint
 10
652.4729620290977
 20
88.50936269232642
 30
0.0
  0
POINT
  5
38E2
330
38D8
100
AcDbEntity
  8
Defpoints
 62
     0
100
AcDbPoint
 10
604.8308006120871
 20
88.50936269232644
 30
0.0
  0
ENDBLK
  5
38E3
330
38D8
100
AcDbEntity
  8
0
100
AcDbBlockEnd
  0
BLOCK
  5
3B34
330
38E4
100
AcDbEntity
  8
0
100
AcDbBlockBegin
  2
A$C487C5814
 70
     0
 10
0.0
 20
0.0
 30
0.0
  3
A$C487C5814
  1

  0
ARC
  5
38E5
330
38E4
100
AcDbEntity
  8
SEIHIN
  6
Continuous
 62
     3
100
AcDbCircle
 10
217.883603989965
 20
207.8226719840391
 30
0.0
 40
1.0
100
AcDbArc
 50
270.0
 51
0.0
  0
LINE
  5
38E6
330
38E4
100
AcDbEntity
  8
SEIHIN
  6
Continuous
 62
     3
100
AcDbLine
 10
216.941731921906
 20
207.8226719840392
 30
0.0
 11
213.7224401400738
 21
207.8226719840391
 31
0.0
  0
LINE
  5
38E7
330
38E4
100
AcDbEntity
  8
製品
100
AcDbLine
 10
230.5365293615358
 20
206.8226719840388
 30
0.0
 11
214.1643122081339
 21
206.822671984039
 31
0.0
  0
LINE
  5
38E8
330
38E4
100
AcDbEntity
  8
SEIHIN
  6
Continuous
 62
     3
100
AcDbLine
 10
214.1643122081339
 20
206.822671984039
 30
0.0
 11
214.1643122081337
 21
206.70520228576
 31
0.0
  0
LINE
  5
38E9
330
38E4
100
AcDbEntity
  8
SEIHIN
  6
Continuous
 62
     3
100
AcDbLine
 10
217.9417319219062
 20
219.2051529959084
 30
0.0
 11
217.941731921906
 21
208.8226719840391
 31
0.0
  0
LINE
  5
38EA
330
38E4
100
AcDbEntity
  8
SEIHIN
  6
Continuous
 62
     3
100
AcDbLine
 10
218.8836039899652
 20
219.2051668747822
 30
0.0
 11
218.883603989965
 21
207.8226719840391
 31
0.0
  0
LINE
  5
38EB
330
38E4
100
AcDbEntity
  8
SEIHIN
  6
Continuous
 62
     3
100
AcDbLine
 10
213.2224401400738
 20
207.3226719840389
 30
0.0
 11
213.2224401400741
 21
206.70520228576
 31
0.0
  0
LINE
  5
38EC
330
38E4
100
AcDbEntity
  8
CENTER L
  6
CENTER
 62
     1
 48
3.0
100
AcDbLine
 10
232.165843781836
 20
214.70520228576
 30
0.0
 11
216.940535276346
 21
214.70520228576
 31
0.0
  0
LINE
  5
38ED
330
38E4
100
AcDbEntity
  8
製品
100
AcDbLine
 10
218.9417171864934
 20
220.2051529957998
 30
0.0
 11
230.5365146261231
 21
220.205323849927
 31
0.0
  0
LINE
  5
38EE
330
38E4
100
AcDbEntity
  8
CENTER L
  6
CENTER
 62
     1
 48
3.0
100
AcDbLine
 10
229.2240763884423
 20
216.8052022857601
 30
0.0
 11
229.2240763884423
 21
212.6052022857601
 31
0.0
  0
LINE
  5
38EF
330
38E4
100
AcDbEntity
  8
CENTER L
  6
CENTER
 62
     1
 48
3.0
100
AcDbLine
 10
224.2688200175178
 20
217.955128615533
 30
0.0
 11
224.2688200175178
 21
211.455275955987
 31
0.0
  0
LINE
  5
38F0
330
38E4
100
AcDbEntity
  8
CENTER L
  6
CENTER
 62
     1
 48
3.0
100
AcDbLine
 10
222.2867174691522
 20
216.8052022857599
 30
0.0
 11
222.2867174691522
 21
212.6052022857601
 31
0.0
  0
ELLIPSE
  5
38F1
330
38E4
100
AcDbEntity
  8
製品
100
AcDbEllipse
 10
229.2240763884425
 20
214.70520228576
 30
0.0
 11
0.000000000000016
 21
2.099999999999965
 31
0.0
210
0.0
220
0.0
230
-1.0
 40
0.3303504247264808
 41
0.0
 42
6.283185307179586
  0
ELLIPSE
  5
38F2
330
38E4
100
AcDbEntity
  8
製品
100
AcDbEllipse
 10
228.3725096526227
 20
214.70520228576
 30
0.0
 11
0.000000000000016
 21
2.099999999999965
 31
0.0
210
0.0
220
0.0
230
-1.0
 40
0.2873478855649781
 41
0.7161458881436698
 42
2.425446765446644
  0
ELLIPSE
  5
38F3
330
38E4
100
AcDbEntity
  8
製品
100
AcDbEllipse
 10
223.4677009622301
 20
214.7052022857594
 30
0.0
 11
-0.0000000000000247
 21
-3.249928177440948
 31
0.0
210
0.0
220
0.0
230
-1.0
 40
0.2870481489621433
 41
-2.730885642979687
 42
-0.4107070106097233
  0
LINE
  5
38F4
330
38E4
100
AcDbEntity
  8
SEIHIN
  6
Continuous
 62
     3
100
AcDbLine
 10
223.2777726436331
 20
213.45520228576
 30
0.0
 11
221.9200369868982
 21
213.45520228576
 31
0.0
  0
LINE
  5
38F5
330
38E4
100
AcDbEntity
  8
SEIHIN
  6
Continuous
 62
     3
100
AcDbLine
 10
223.2777726436331
 20
215.95520228576
 30
0.0
 11
221.9200369868981
 21
215.95520228576
 31
0.0
  0
ARC
  5
38F6
330
38E4
100
AcDbEntity
  8
SEIHIN
  6
Continuous
 62
     3
100
AcDbCircle
 10
213.7224401400738
 20
207.3226719840391
 30
0.0
 40
0.5
100
AcDbArc
 50
90.0
 51
180.0000000000219
  0
ARC
  5
38F7
330
38E4
100
AcDbEntity
  8
SEIHIN
  6
Continuous
 62
     3
100
AcDbCircle
 10
216.941731921906
 20
208.8226719840391
 30
0.0
 40
1.0
100
AcDbArc
 50
270.0
 51
0.0
  0
ARC
  5
38F8
330
38E4
100
AcDbEntity
  8
SEIHIN
  6
Continuous
 62
     3
100
AcDbCircle
 10
219.8836039899652
 20
219.2051668747822
 30
0.0
 40
1.0
100
AcDbArc
 50
90.00084427696474
 51
179.9999999999992
  0
ARC
  5
38F9
330
38E4
100
AcDbEntity
  8
SEIHIN
  6
Continuous
 62
     3
100
AcDbCircle
 10
218.9417319219062
 20
219.2051529959084
 30
0.0
 40
1.0
100
AcDbArc
 50
90.00084427696474
 51
179.9999999999992
  0
ARC
  5
38FA
330
38E4
100
AcDbEntity
  8
製品
100
AcDbCircle
 10
230.5365293615359
 20
219.2053238500356
 30
0.0
 40
1.0
100
AcDbArc
 50
0.0
 51
90.00084427696474
  0
ARC
  5
38FB
330
38E4
100
AcDbEntity
  8
製品
100
AcDbCircle
 10
230.5365293615358
 20
207.8226719840388
 30
0.0
 40
1.0
100
AcDbArc
 50
270.0
 51
0.0
  0
ELLIPSE
  5
38FC
330
38E4
100
AcDbEntity
  8
製品
100
AcDbEllipse
 10
222.2867174691525
 20
214.70520228576
 30
0.0
 11
0.000000000000016
 21
2.099999999999965
 31
0.0
210
0.0
220
0.0
230
-1.0
 40
0.3303504247264808
 41
2.208358247414198
 42
7.216419713355265
  0
ELLIPSE
  5
38FD
330
38E4
100
AcDbEntity
  8
製品
100
AcDbEllipse
 10
224.2688200175178
 20
214.70520228576
 30
0.0
 11
0.0
 21
3.249926329773073
 31
0.0
210
0.0
220
0.0
230
-1.0
 40
0.3303579132024692
 41
5.107189545218021
 42
10.60077372273094
  0
ELLIPSE
  5
38FE
330
38E4
100
AcDbEntity
  8
製品
100
AcDbEllipse
 10
221.4351507333327
 20
214.7052022857595
 30
0.0
 11
0.000000000000016
 21
2.099999999999965
 31
0.0
210
0.0
220
0.0
230
-1.0
 40
0.2873478855649781
 41
0.7161458881436698
 42
0.9332344061753753
  0
ELLIPSE
  5
38FF
330
38E4
100
AcDbEntity
  8
製品
100
AcDbEllipse
 10
221.4351507333327
 20
214.7052022857595
 30
0.0
 11
0.000000000000016
 21
2.099999999999965
 31
0.0
210
0.0
220
0.0
230
-1.0
 40
0.2873478855649781
 41
2.208358247413801
 42
2.425446765446644
  0
LINE
  5
3900
330
38E4
100
AcDbEntity
  8
製品
100
AcDbLine
 10
231.5365293615355
 20
196.70520228576
 30
0.0
 11
231.5365293615359
 21
219.2053238500356
 31
0.0
  0
ELLIPSE
  5
3901
330
38E4
100
AcDbEntity
  8
製品
100
AcDbEllipse
 10
221.4351507333327
 20
178.7052022857605
 30
0.0
 11
0.000000000000016
 21
-2.099999999999965
 31
0.0
210
0.0
220
0.0
230
1.0
 40
0.2873478855649781
 41
2.208358247413801
 42
2.425446765446644
  0
ELLIPSE
  5
3902
330
38E4
100
AcDbEntity
  8
製品
100
AcDbEllipse
 10
221.4351507333327
 20
178.7052022857605
 30
0.0
 11
0.000000000000016
 21
-2.099999999999965
 31
0.0
210
0.0
220
0.0
230
1.0
 40
0.2873478855649781
 41
0.7161458881436698
 42
0.9332344061753753
  0
ELLIPSE
  5
3903
330
38E4
100
AcDbEntity
  8
製品
100
AcDbEllipse
 10
224.2688200175178
 20
178.70520228576
 30
0.0
 11
0.0
 21
-3.249926329773074
 31
0.0
210
0.0
220
0.0
230
1.0
 40
0.3303579132024692
 41
5.107189545218021
 42
10.60077372273094
  0
ELLIPSE
  5
3904
330
38E4
100
AcDbEntity
  8
製品
100
AcDbEllipse
 10
222.2867174691525
 20
178.70520228576
 30
0.0
 11
0.000000000000016
 21
-2.099999999999965
 31
0.0
210
0.0
220
0.0
230
1.0
 40
0.3303504247264808
 41
2.208358247414198
 42
7.216419713355265
  0
ARC
  5
3905
330
38E4
100
AcDbEntity
  8
製品
100
AcDbCircle
 10
230.5365293615358
 20
185.5877325874812
 30
0.0
 40
1.0
100
AcDbArc
 50
0.0
 51
90.0
  0
ARC
  5
3906
330
38E4
100
AcDbEntity
  8
製品
100
AcDbCircle
 10
230.5365293615359
 20
174.2050807214844
 30
0.0
 40
1.0
100
AcDbArc
 50
269.9991557230353
 51
0.0
  0
ARC
  5
3907
330
38E4
100
AcDbEntity
  8
SEIHIN
  6
Continuous
 62
     3
100
AcDbCircle
 10
218.9417319219062
 20
174.2052515756116
 30
0.0
 40
1.0
100
AcDbArc
 50
180.0000000000008
 51
269.9991557230353
  0
ARC
  5
3908
330
38E4
100
AcDbEntity
  8
SEIHIN
  6
Continuous
 62
     3
100
AcDbCircle
 10
219.8836039899652
 20
174.2052376967379
 30
0.0
 40
1.0
100
AcDbArc
 50
180.0000000000008
 51
269.9991557230353
  0
ARC
  5
3909
330
38E4
100
AcDbEntity
  8
SEIHIN
  6
Continuous
 62
     3
100
AcDbCircle
 10
216.941731921906
 20
184.5877325874809
 30
0.0
 40
1.0
100
AcDbArc
 50
0.0
 51
90.0
  0
ARC
  5
390A
330
38E4
100
AcDbEntity
  8
SEIHIN
  6
Continuous
 62
     3
100
AcDbCircle
 10
213.7224401400738
 20
186.087732587481
 30
0.0
 40
0.5
100
AcDbArc
 50
179.999999999978
 51
270.0
  0
LINE
  5
390B
330
38E4
100
AcDbEntity
  8
ﾌﾞﾗｹｯﾄ本体
100
AcDbLine
 10
100.8926767817939
 20
196.7052022857598
 30
0.0
 11
100.8926767817936
 21
188.0101371445302
 31
0.0
  0
ARC
  5
390C
330
38E4
100
AcDbEntity
  8
ﾌﾞﾗｹｯﾄ本体
100
AcDbCircle
 10
76.27461925892783
 20
191.4199057110552
 30
0.0
 40
2.0
100
AcDbArc
 50
180.0
 51
190.8440625636942
  0
LINE
  5
390D
330
38E4
100
AcDbEntity
  8
ﾌﾞﾗｹｯﾄ本体
100
AcDbLine
 10
74.27461925892794
 20
196.6877325874819
 30
0.0
 11
74.27461925892782
 21
191.4373754093341
 31
0.0
  0
ARC
  5
390E
330
38E4
100
AcDbEntity
  8
ﾌﾞﾗｹｯﾄ本体
100
AcDbCircle
 10
103.7746192589497
 20
196.705202285766
 30
0.0
 40
30.00000000002168
100
AcDbArc
 50
190.8440625636942
 51
202.8747015875651
  0
LINE
  5
390F
330
38E4
100
AcDbEntity
  8
ﾌﾞﾗｹｯﾄ本体
100
AcDbLine
 10
101.1734532674666
 20
186.8052022857511
 30
0.0
 11
112.7146192591337
 21
186.8233644038491
 31
0.0
  0
LINE
  5
3910
330
38E4
100
AcDbEntity
  8
ﾌﾞﾗｹｯﾄ本体
100
AcDbLine
 10
112.9702356511585
 20
182.7052022857597
 30
0.0
 11
159.4744467144729
 21
186.70520228576
 31
0.0
  0
LINE
  5
3911
330
38E4
100
AcDbEntity
  8
ﾌﾞﾗｹｯﾄ本体
100
AcDbLine
 10
103.3887139937907
 20
182.7052022857598
 30
0.0
 11
103.5023394262064
 21
186.8052022857598
 31
0.0
  0
ARC
  5
3912
330
38E4
100
AcDbEntity
  8
ﾌﾞﾗｹｯﾄ本体
100
AcDbCircle
 10
116.3433121197045
 20
156.3489561647487
 30
0.0
 40
34.02510169536443
100
AcDbArc
 50
116.4772965119883
 51
121.4108907541516
  0
LINE
  5
3913
330
38E4
100
AcDbEntity
  8
ﾌﾞﾗｹｯﾄ本体
100
AcDbLine
 10
94.72404589298651
 20
182.70520228576
 30
0.0
 11
98.61038641397705
 21
185.3877387028486
 31
0.0
  0
LINE
  5
3914
330
38E4
100
AcDbEntity
  8
ﾌﾞﾗｹｯﾄ本体
100
AcDbLine
 10
93.22671200034415
 20
196.70520228576
 30
0.0
 11
93.22671200034381
 21
184.0243363850909
 31
0.0
  0
LWPOLYLINE
  5
3915
330
38E4
100
AcDbEntity
  8
ﾌﾞﾗｹｯﾄ本体
100
AcDbPolyline
 90
        3
 70
     0
 43
0.0
 10
76.13390536542851
 20
185.0436871415921
 10
76.65539694635493
 20
183.8775843790282
 10
77.24162093608549
 20
182.7052022857625
  0
LINE
  5
3916
330
38E4
100
AcDbEntity
  8
ﾌﾞﾗｹｯﾄ本体
100
AcDbLine
 10
112.9702356511585
 20
182.7052022857597
 30
0.0
 11
77.24162093608549
 21
182.7052022857604
 31
0.0
  0
LINE
  5
3917
330
38E4
100
AcDbEntity
  8
ﾌﾞﾗｹｯﾄ本体
100
AcDbLine
 10
80.26960588446764
 20
196.7052022857604
 30
0.0
 11
80.2696058844673
 21
182.7052022857604
 31
0.0
  0
LINE
  5
3918
330
38E4
100
AcDbEntity
  8
製品
100
AcDbLine
 10
231.5365293615355
 20
196.70520228576
 30
0.0
 11
231.5365293615359
 21
174.2050807214844
 31
0.0
  0
LINE
  5
3919
330
38E4
100
AcDbEntity
  8
SEIHIN
  6
Continuous
 62
     3
100
AcDbLine
 10
223.2777726436331
 20
177.45520228576
 30
0.0
 11
221.9200369868981
 21
177.45520228576
 31
0.0
  0
LINE
  5
391A
330
38E4
100
AcDbEntity
  8
SEIHIN
  6
Continuous
 62
     3
100
AcDbLine
 10
223.2777726436331
 20
179.95520228576
 30
0.0
 11
221.9200369868982
 21
179.95520228576
 31
0.0
  0
ELLIPSE
  5
391B
330
38E4
100
AcDbEntity
  8
製品
100
AcDbEllipse
 10
223.4677009622301
 20
178.7052022857607
 30
0.0
 11
-0.0000000000000247
 21
3.249928177440949
 31
0.0
210
0.0
220
0.0
230
1.0
 40
0.2870481489621433
 41
-2.730885642979687
 42
-0.4107070106097233
  0
ELLIPSE
  5
391C
330
38E4
100
AcDbEntity
  8
製品
100
AcDbEllipse
 10
228.3725096526227
 20
178.70520228576
 30
0.0
 11
0.000000000000016
 21
-2.099999999999965
 31
0.0
210
0.0
220
0.0
230
1.0
 40
0.2873478855649781
 41
0.7161458881436698
 42
2.425446765446644
  0
ELLIPSE
  5
391D
330
38E4
100
AcDbEntity
  8
製品
100
AcDbEllipse
 10
229.2240763884425
 20
178.70520228576
 30
0.0
 11
0.000000000000016
 21
-2.099999999999965
 31
0.0
210
0.0
220
0.0
230
1.0
 40
0.3303504247264808
 41
0.0
 42
6.283185307179586
  0
LINE
  5
391E
330
38E4
100
AcDbEntity
  8
CENTER L
  6
CENTER
 62
     1
 48
3.0
100
AcDbLine
 10
222.2867174691522
 20
176.6052022857601
 30
0.0
 11
222.2867174691522
 21
180.8052022857599
 31
0.0
  0
LINE
  5
391F
330
38E4
100
AcDbEntity
  8
CENTER L
  6
CENTER
 62
     1
 48
3.0
100
AcDbLine
 10
224.2688200175178
 20
175.455275955987
 30
0.0
 11
224.2688200175178
 21
181.955128615533
 31
0.0
  0
LINE
  5
3920
330
38E4
100
AcDbEntity
  8
CENTER L
  6
CENTER
 62
     1
 48
3.0
100
AcDbLine
 10
229.2240763884423
 20
176.60520228576
 30
0.0
 11
229.2240763884423
 21
180.8052022857599
 31
0.0
  0
LINE
  5
3921
330
38E4
100
AcDbEntity
  8
製品
100
AcDbLine
 10
218.9417171864934
 20
173.2052515757201
 30
0.0
 11
230.5365146261231
 21
173.205080721593
 31
0.0
  0
LINE
  5
3922
330
38E4
100
AcDbEntity
  8
CENTER L
  6
CENTER
 62
     1
 48
3.0
100
AcDbLine
 10
232.165843781836
 20
178.70520228576
 30
0.0
 11
216.940535276346
 21
178.70520228576
 31
0.0
  0
LINE
  5
3923
330
38E4
100
AcDbEntity
  8
SEIHIN
  6
Continuous
 62
     3
100
AcDbLine
 10
213.2224401400738
 20
186.0877325874812
 30
0.0
 11
213.2224401400741
 21
186.7052022857601
 31
0.0
  0
LINE
  5
3924
330
38E4
100
AcDbEntity
  8
SEIHIN
  6
Continuous
 62
     3
100
AcDbLine
 10
218.8836039899652
 20
174.2052376967378
 30
0.0
 11
218.883603989965
 21
185.587732587481
 31
0.0
  0
LINE
  5
3925
330
38E4
100
AcDbEntity
  8
SEIHIN
  6
Continuous
 62
     3
100
AcDbLine
 10
217.9417319219062
 20
174.2052515756116
 30
0.0
 11
217.941731921906
 21
184.5877325874809
 31
0.0
  0
LINE
  5
3926
330
38E4
100
AcDbEntity
  8
SEIHIN
  6
Continuous
 62
     3
100
AcDbLine
 10
214.1643122081339
 20
186.587732587481
 30
0.0
 11
214.1643122081337
 21
186.7052022857601
 31
0.0
  0
LINE
  5
3927
330
38E4
100
AcDbEntity
  8
製品
100
AcDbLine
 10
230.5365293615358
 20
186.5877325874812
 30
0.0
 11
214.1643122081339
 21
186.587732587481
 31
0.0
  0
LINE
  5
3928
330
38E4
100
AcDbEntity
  8
SEIHIN
  6
Continuous
 62
     3
100
AcDbLine
 10
216.941731921906
 20
185.5877325874809
 30
0.0
 11
213.7224401400738
 21
185.587732587481
 31
0.0
  0
ARC
  5
3929
330
38E4
100
AcDbEntity
  8
SEIHIN
  6
Continuous
 62
     3
100
AcDbCircle
 10
217.883603989965
 20
185.587732587481
 30
0.0
 40
1.0
100
AcDbArc
 50
0.0
 51
90.0
  0
LINE
  5
392A
330
38E4
100
AcDbEntity
  8
製品
100
AcDbLine
 10
112.714619259134
 20
196.70520228576
 30
0.0
 11
112.714619259134
 21
186.7052022857598
 31
0.0
  0
LINE
  5
392B
330
38E4
100
AcDbEntity
  8
製品
100
AcDbLine
 10
112.714619259134
 20
186.7052022857598
 30
0.0
 11
231.5365293615357
 21
186.7052022857601
 31
0.0
  0
LINE
  5
392C
330
38E4
100
AcDbEntity
  8
製品
100
AcDbLine
 10
173.6530923594946
 20
206.60520228576
 30
0.0
 11
173.6530923594946
 21
186.8052022857602
 31
0.0
  0
LINE
  5
392D
330
38E4
100
AcDbEntity
  8
CENTER L
  6
CENTER
 62
     1
 48
3.0
100
AcDbLine
 10
73.76956211589504
 20
196.70520228576
 30
0.0
 11
233.2340419296115
 21
196.70520228576
 31
0.0
  0
ARC
  5
392E
330
38E4
100
AcDbEntity
  8
SEIHIN
  6
Continuous
 62
     3
 48
16.0
100
AcDbCircle
 10
127.7139604670888
 20
196.7051905566442
 30
0.0
 40
5.499988270900564
100
AcDbArc
 50
187.8373732426363
 51
269.9998598414471
  0
ARC
  5
392F
330
38E4
100
AcDbEntity
  8
SEIHIN
  6
Continuous
 62
     3
 48
16.0
100
AcDbCircle
 10
127.7139235846671
 20
196.7052220862284
 30
0.0
 40
4.500019800529353
100
AcDbArc
 50
189.5942812954977
 51
270.0002982957268
  0
ARC
  5
3930
330
38E4
100
AcDbEntity
  8
SEIHIN
  6
Continuous
 62
     3
 48
16.0
100
AcDbCircle
 10
127.7139604670888
 20
196.7052140148759
 30
0.0
 40
5.499988270900558
100
AcDbArc
 50
90.00014015855288
 51
172.1626267573637
  0
ARC
  5
3931
330
38E4
100
AcDbEntity
  8
SEIHIN
  6
Continuous
 62
     3
 48
16.0
100
AcDbCircle
 10
127.7139235846673
 20
196.7051824852916
 30
0.0
 40
4.500019800529408
100
AcDbArc
 50
89.99970170426673
 51
170.4057187045023
  0
ARC
  5
3932
330
38E4
100
AcDbEntity
  8
SEIHIN
  6
Continuous
 62
     3
 48
16.0
100
AcDbCircle
 10
127.7139470128622
 20
196.70520228576
 30
0.0
 40
3.25
100
AcDbArc
 50
90.0
 51
270.0
  0
ARC
  5
3933
330
38E4
100
AcDbEntity
  8
SEIHIN
  6
Continuous
 62
     3
 48
16.0
100
AcDbCircle
 10
127.7139470128622
 20
196.70520228576
 30
0.0
 40
2.499999999999943
100
AcDbArc
 50
90.0
 51
270.0
  0
LINE
  5
3934
330
38E4
100
AcDbEntity
  8
SEIHIN
  6
Continuous
 62
     3
 48
16.0
100
AcDbLine
 10
118.328947012862
 20
196.20520228576
 30
0.0
 11
118.328947012862
 21
197.20520228576
 31
0.0
  0
ARC
  5
3935
330
38E4
100
AcDbEntity
  8
SEIHIN
  6
Continuous
 62
     3
 48
16.0
100
AcDbCircle
 10
118.578947012862
 20
196.20520228576
 30
0.0
 40
0.2500000000000568
100
AcDbArc
 50
179.999999999987
 51
269.999999999987
  0
ARC
  5
3936
330
38E4
100
AcDbEntity
  8
SEIHIN
  6
Continuous
 62
     3
 48
16.0
100
AcDbCircle
 10
118.578947012862
 20
197.20520228576
 30
0.0
 40
0.25
100
AcDbArc
 50
90.0
 51
180.0
  0
LINE
  5
3937
330
38E4
100
AcDbEntity
  8
SEIHIN
  6
Continuous
 62
     3
 48
16.0
100
AcDbLine
 10
118.578947012862
 20
195.95520228576
 30
0.0
 11
124.551747012862
 21
195.95520228576
 31
0.0
  0
LINE
  5
3938
330
38E4
100
AcDbEntity
  8
SEIHIN
  6
Continuous
 62
     3
 48
16.0
100
AcDbLine
 10
118.578947012862
 20
197.45520228576
 30
0.0
 11
124.551747012862
 21
197.45520228576
 31
0.0
  0
ARC
  5
3939
330
38E4
100
AcDbEntity
  8
SEIHIN
  6
Continuous
 62
     3
 48
16.0
100
AcDbCircle
 10
127.7140470128622
 20
196.70520228576
 30
0.0
 40
3.25
100
AcDbArc
 50
270.0
 51
90.0
  0
ARC
  5
393A
330
38E4
100
AcDbEntity
  8
SEIHIN
  6
Continuous
 62
     3
 48
16.0
100
AcDbCircle
 10
127.7140470128622
 20
196.70520228576
 30
0.0
 40
2.499999999999943
100
AcDbArc
 50
270.0
 51
90.0
  0
LINE
  5
393B
330
38E4
100
AcDbEntity
  8
CENTER L
  6
CENTER
 62
     1
 48
5.0
100
AcDbLine
 10
127.7146470128621
 20
189.2578719840389
 30
0.0
 11
127.7146470128621
 21
204.1292719840389
 31
0.0
  0
ARC
  5
393C
330
38E4
100
AcDbEntity
  8
SEIHIN
  6
Continuous
 62
     3
 48
16.0
100
AcDbCircle
 10
127.7140121076843
 20
196.7051727855665
 30
0.0
 40
4.499970499941926
100
AcDbArc
 50
270.000444429438
 51
350.4062492221695
  0
ARC
  5
393D
330
38E4
100
AcDbEntity
  8
SEIHIN
  6
Continuous
 62
     3
 48
16.0
100
AcDbCircle
 10
127.7140335586355
 20
196.7051905566439
 30
0.0
 40
5.499988270900473
100
AcDbArc
 50
270.0001401585529
 51
352.1626267573637
  0
LINE
  5
393E
330
38E4
100
AcDbEntity
  8
SEIHIN
  6
Continuous
 62
     3
 48
16.0
100
AcDbLine
 10
136.8490470128622
 20
195.95520228576
 30
0.0
 11
130.8762470128622
 21
195.95520228576
 31
0.0
  0
LINE
  5
393F
330
38E4
100
AcDbEntity
  8
SEIHIN
  6
Continuous
 62
     3
 48
16.0
100
AcDbLine
 10
136.8490470128622
 20
197.45520228576
 30
0.0
 11
130.8762470128622
 21
197.45520228576
 31
0.0
  0
ARC
  5
3940
330
38E4
100
AcDbEntity
  8
SEIHIN
  6
Continuous
 62
     3
 48
16.0
100
AcDbCircle
 10
127.7140121076841
 20
196.7052317859533
 30
0.0
 40
4.499970499941989
100
AcDbArc
 50
9.593750777830473
 51
89.999555570562
  0
ARC
  5
3941
330
38E4
100
AcDbEntity
  8
SEIHIN
  6
Continuous
 62
     3
 48
16.0
100
AcDbCircle
 10
127.7140335586355
 20
196.7052140148759
 30
0.0
 40
5.499988270900469
100
AcDbArc
 50
7.83737324263628
 51
89.99985984144059
  0
LINE
  5
3942
330
38E4
100
AcDbEntity
  8
SEIHIN
  6
Continuous
 62
     3
 48
16.0
100
AcDbLine
 10
137.0990470128622
 20
196.20520228576
 30
0.0
 11
137.0990470128622
 21
197.20520228576
 31
0.0
  0
ARC
  5
3943
330
38E4
100
AcDbEntity
  8
SEIHIN
  6
Continuous
 62
     3
 48
16.0
100
AcDbCircle
 10
136.849047012862
 20
196.20520228576
 30
0.0
 40
0.2500000000000568
100
AcDbArc
 50
270.000000000013
 51
0.0000000000130276
  0
ARC
  5
3944
330
38E4
100
AcDbEntity
  8
SEIHIN
  6
Continuous
 62
     3
 48
16.0
100
AcDbCircle
 10
136.8490470128622
 20
197.20520228576
 30
0.0
 40
0.25
100
AcDbArc
 50
0.0
 51
90.0
  0
LINE
  5
3945
330
38E4
100
AcDbEntity
  8
ﾌﾞﾗｹｯﾄ本体
100
AcDbLine
 10
100.8926767817939
 20
196.70520228576
 30
0.0
 11
100.8926767817938
 21
205.4002674269897
 31
0.0
  0
LINE
  5
3946
330
38E4
100
AcDbEntity
  8
ﾌﾞﾗｹｯﾄ本体
100
AcDbLine
 10
93.22671200034415
 20
196.70520228576
 30
0.0
 11
93.22671200034415
 21
209.3860681864291
 31
0.0
  0
LINE
  5
3947
330
38E4
100
AcDbEntity
  8
ﾌﾞﾗｹｯﾄ本体
100
AcDbLine
 10
80.26960588446764
 20
196.70520228576
 30
0.0
 11
80.26960588446764
 21
210.70520228576
 31
0.0
  0
ARC
  5
3948
330
38E4
100
AcDbEntity
  8
ﾌﾞﾗｹｯﾄ本体
100
AcDbCircle
 10
116.3433121197054
 20
237.0614484067708
 30
0.0
 40
34.02510169536443
100
AcDbArc
 50
238.5891092458484
 51
243.5227034880121
  0
LINE
  5
3949
330
38E4
100
AcDbEntity
  8
ﾌﾞﾗｹｯﾄ本体
100
AcDbLine
 10
112.9702356511588
 20
210.70520228576
 30
0.0
 11
77.24162093608583
 21
210.70520228576
 31
0.0
  0
LINE
  5
394A
330
38E4
100
AcDbEntity
  8
ﾌﾞﾗｹｯﾄ本体
100
AcDbLine
 10
94.72404589298685
 20
210.70520228576
 30
0.0
 11
98.61038641397726
 21
208.0226658686714
 31
0.0
  0
LINE
  5
394B
330
38E4
100
AcDbEntity
  8
製品
100
AcDbLine
 10
112.714619259134
 20
206.7052022857602
 30
0.0
 11
231.5365293615357
 21
206.7052022857599
 31
0.0
  0
LINE
  5
394C
330
38E4
100
AcDbEntity
  8
ﾌﾞﾗｹｯﾄ本体
100
AcDbLine
 10
103.388713993791
 20
210.70520228576
 30
0.0
 11
103.5023394262066
 21
206.6052022857601
 31
0.0
  0
LINE
  5
394D
330
38E4
100
AcDbEntity
  8
ﾌﾞﾗｹｯﾄ本体
100
AcDbLine
 10
74.27461925892794
 20
196.7226719840385
 30
0.0
 11
74.27461925892794
 21
201.9730291621864
 31
0.0
  0
LWPOLYLINE
  5
394E
330
38E4
100
AcDbEntity
  8
ﾌﾞﾗｹｯﾄ本体
100
AcDbPolyline
 90
        3
 70
     0
 43
0.0
 10
76.13390536542874
 20
208.3667174299283
 10
76.65539694635526
 20
209.5328201924922
 10
77.24162093608583
 20
210.7052022857579
  0
ARC
  5
394F
330
38E4
100
AcDbEntity
  8
ﾌﾞﾗｹｯﾄ本体
100
AcDbCircle
 10
103.7746192589497
 20
196.7052022857538
 30
0.0
 40
30.00000000002168
100
AcDbArc
 50
157.1252984124349
 51
169.1559374363057
  0
ARC
  5
3950
330
38E4
100
AcDbEntity
  8
ﾌﾞﾗｹｯﾄ本体
100
AcDbCircle
 10
76.27461925892794
 20
201.9904988604652
 30
0.0
 40
2.0
100
AcDbArc
 50
169.1559374363057
 51
180.0
  0
LINE
  5
3951
330
38E4
100
AcDbEntity
  8
製品
100
AcDbLine
 10
112.714619259134
 20
196.70520228576
 30
0.0
 11
112.714619259134
 21
206.7052022857602
 31
0.0
  0
DIMENSION
  5
3952
330
38E4
100
AcDbEntity
  8
寸法
100
AcDbDimension
  2
*D11
 10
53.17236270968374
 20
182.7052022857625
 30
0.0
 11
50.67236270968374
 21
196.7052022857603
 31
0.0
 12
-539.7583427699637
 22
98.19583959343345
 32
0.0
 71
     5
 42
27.99999999999545
  3
STANDARD
100
AcDbAlignedDimension
 13
77.24162093608583
 23
210.7052022857579
 33
0.0
 14
77.24162093608549
 24
182.7052022857625
 34
0.0
 50
90.0
100
AcDbRotatedDimension
1001
ACAD
1000
DSTYLE
1002
{
1070
    41
1040
3.0
1070
    42
1040
3.0
1070
    43
1040
7.0
1070
    44
1040
1.5
1070
    73
1070
     0
1070
    74
1070
     0
1070
    77
1070
     3
1070
   140
1040
3.0
1070
   141
1040
15.0
1070
   147
1040
1.0
1070
   172
1070
     1
1070
   176
1070
     4
1070
   177
1070
     4
1070
   178
1070
     4
1070
   271
1070
     0
1070
   272
1070
     0
1070
   341
1005
166
1070
   342
1005
166
1002
}
  0
DIMENSION
  5
3953
330
38E4
100
AcDbEntity
  8
寸法
100
AcDbDimension
  2
*D12
 10
65.07245784212341
 20
186.7052022857598
 30
0.0
 11
62.57245784212341
 21
196.7052022857601
 31
0.0
 12
-539.7583427699637
 22
98.19583959343345
 32
0.0
 71
     5
 42
20.00000000000034
  3
STANDARD
100
AcDbAlignedDimension
 13
112.714619259134
 23
206.7052022857602
 33
0.0
 14
112.714619259134
 24
186.7052022857598
 34
0.0
 50
90.0
100
AcDbRotatedDimension
1001
ACAD
1000
DSTYLE
1002
{
1070
    41
1040
3.0
1070
    42
1040
3.0
1070
    43
1040
7.0
1070
    44
1040
1.5
1070
    73
1070
     0
1070
    74
1070
     0
1070
    77
1070
     3
1070
   140
1040
3.0
1070
   141
1040
15.0
1070
   147
1040
1.0
1070
   172
1070
     1
1070
   176
1070
     4
1070
   177
1070
     4
1070
   178
1070
     4
1070
   271
1070
     0
1070
   272
1070
     0
1070
   341
1005
166
1070
   342
1005
166
1002
}
  0
LINE
  5
3954
330
38E4
100
AcDbEntity
  8
ﾌﾞﾗｹｯﾄ本体
100
AcDbLine
 10
112.9702356511588
 20
210.70520228576
 30
0.0
 11
159.4744467144572
 21
206.7052022857601
 31
0.0
  0
LINE
  5
3955
330
38E4
100
AcDbEntity
  8
SEIHIN
  6
Continuous
 62
     3
100
AcDbLine
 10
140.9377340649428
 20
188.1609706529238
 30
0.0
 11
140.9377340649428
 21
205.3810722684962
 31
0.0
  0
LINE
  5
3956
330
38E4
100
AcDbEntity
  8
SEIHIN
  6
Continuous
 62
     3
100
AcDbLine
 10
151.4295724478575
 20
188.2312563529507
 30
0.0
 11
151.4295724478575
 21
205.5919309030146
 31
0.0
  0
LINE
  5
3957
330
38E4
100
AcDbEntity
  8
ﾌﾞﾗｹｯﾄ本体
100
AcDbLine
 10
101.1734532674668
 20
206.6052022857688
 30
0.0
 11
112.714619259134
 21
206.5870401676705
 31
0.0
  0
ARC
  5
3958
330
38E4
100
AcDbEntity
  8
製品
100
AcDbCircle
 10
208.7211628115475
 20
123.5000516008524
 30
0.0
 40
9.0
100
AcDbArc
 50
19.29004621918858
 51
90.0
  0
ARC
  5
3959
330
38E4
100
AcDbEntity
  8
製品
100
AcDbCircle
 10
208.7207708547865
 20
123.5011714773126
 30
0.0
 40
4.0
100
AcDbArc
 50
19.29004621918858
 51
90.0
  0
LINE
  5
395A
330
38E4
100
AcDbEntity
  8
製品
100
AcDbLine
 10
212.4962042802506
 20
124.822573176225
 30
0.0
 11
214.164312208134
 21
120.0565505251293
 31
0.0
  0
LINE
  5
395B
330
38E4
100
AcDbEntity
  8
製品
100
AcDbLine
 10
231.5365293615359
 20
85.55708730142177
 30
0.0
 11
241.6329997778363
 21
56.71002896913491
 31
0.0
  0
LWPOLYLINE
  5
395C
330
38E4
100
AcDbEntity
  8
ZUWAKU
100
AcDbPolyline
 90
        4
 70
     1
 43
0.0
 10
0.3999999162426775
 20
275.4000016159398
 10
0.3999999162426775
 20
0.400001615939857
 10
398.3999999162426
 20
0.400001615939857
 10
398.3999999162426
 20
275.4000016159398
  0
LWPOLYLINE
  5
395D
330
38E4
100
AcDbEntity
  8
ZUWAKU
100
AcDbPolyline
 90
        4
 70
     1
 43
0.0
 10
0.199999916242632
 20
275.6000016159398
 10
0.199999916242632
 20
0.2000016159398683
 10
398.5999999162427
 20
0.2000016159398683
 10
398.5999999162427
 20
275.6000016159398
  0
LWPOLYLINE
  5
395E
330
38E4
100
AcDbEntity
  8
ZUWAKU
100
AcDbPolyline
 90
        4
 70
     1
 43
0.0
 10
-0.0000000837572998
 20
275.8000016159399
 10
-0.0000000837572998
 20
0.0000016159398228
 10
398.7999999162426
 20
0.0000016159398797
 10
398.7999999162426
 20
275.8000016159399
  0
LWPOLYLINE
  5
395F
330
38E4
100
AcDbEntity
  8
ZUWAKU
100
AcDbPolyline
 90
        4
 70
     1
 43
0.0
 10
0.2999999162426547
 20
275.5000016159399
 10
0.2999999162426547
 20
0.3000016159398342
 10
398.4999999162428
 20
0.3000016159398342
 10
398.4999999162427
 20
275.5000016159399
  0
LWPOLYLINE
  5
3960
330
38E4
100
AcDbEntity
  8
ZUWAKU
100
AcDbPolyline
 90
        4
 70
     1
 43
0.0
 10
0.099999916242723
 20
275.7000016159397
 10
0.099999916242723
 20
0.1000016159398456
 10
398.6999999162426
 20
0.1000016159398456
 10
398.6999999162427
 20
275.7000016159397
  0
TEXT
  5
3961
330
38E4
100
AcDbEntity
  8
MOJI
100
AcDbText
 10
231.6232159117437
 20
5.971310476769815
 30
0.0
 40
2.799999999999999
  1
LS35T
 41
0.9
  7
ｽﾀｲﾙ1
100
AcDbText
  0
LINE
  5
3962
330
38E4
100
AcDbEntity
  8
ZUWAKU
100
AcDbLine
 10
-0.0000000837572998
 20
15.00000161593982
 30
0.0
 11
398.6999999162426
 21
15.00000161593982
 31
0.0
  0
LINE
  5
3963
330
38E4
100
AcDbEntity
  8
ZUWAKU
100
AcDbLine
 10
-0.0000000837572998
 20
15.10000161593984
 30
0.0
 11
398.6999999162426
 21
15.10000161593984
 31
0.0
  0
LINE
  5
3964
330
38E4
100
AcDbEntity
  8
ZUWAKU
100
AcDbLine
 10
-0.0000000837572998
 20
15.20000161593981
 30
0.0
 11
398.6999999162426
 21
15.20000161593981
 31
0.0
  0
LINE
  5
3965
330
38E4
100
AcDbEntity
  8
ZUWAKU
100
AcDbLine
 10
-0.0000000837572998
 20
15.30000161593983
 30
0.0
 11
398.6999999162426
 21
15.30000161593983
 31
0.0
  0
LINE
  5
3966
330
38E4
100
AcDbEntity
  8
ZUWAKU
100
AcDbLine
 10
-0.0000000837572998
 20
15.4000016159398
 30
0.0
 11
398.6999999162426
 21
15.4000016159398
 31
0.0
  0
TEXT
  5
3967
330
38E4
100
AcDbEntity
  8
ZUWAKU
100
AcDbText
 10
104.8620230723815
 20
4.827679885132624
 30
0.0
 40
2.0
  1
サイズ
 41
0.9
  7
ｽﾀｲﾙ1
100
AcDbText
  0
LINE
  5
3968
330
38E4
100
AcDbEntity
  8
ZUWAKU
100
AcDbLine
 10
104.3233005612767
 20
7.700001615939811
 30
0.0
 11
223.7121819017384
 21
7.700001615939811
 31
0.0
  0
LINE
  5
3969
330
38E4
100
AcDbEntity
  8
ZUWAKU
100
AcDbLine
 10
104.3233005612767
 20
7.800001615939834
 30
0.0
 11
223.7121819017384
 21
7.800001615939834
 31
0.0
  0
LINE
  5
396A
330
38E4
100
AcDbEntity
  8
ZUWAKU
100
AcDbLine
 10
104.3233005612767
 20
7.600001615939845
 30
0.0
 11
223.7121819017384
 21
7.600001615939845
 31
0.0
  0
LINE
  5
396B
330
38E4
100
AcDbEntity
  8
ZUWAKU
100
AcDbLine
 10
104.2233005612765
 20
15.00000161593982
 30
0.0
 11
104.2233005612767
 21
0.400001615939857
 31
0.0
  0
LINE
  5
396C
330
38E4
100
AcDbEntity
  8
ZUWAKU
100
AcDbLine
 10
104.3233005612766
 20
15.00000161593982
 30
0.0
 11
104.3233005612767
 21
0.400001615939857
 31
0.0
  0
LINE
  5
396D
330
38E4
100
AcDbEntity
  8
ZUWAKU
100
AcDbLine
 10
104.1233005612766
 20
15.00000161593982
 30
0.0
 11
104.1233005612766
 21
0.400001615939857
 31
0.0
  0
LINE
  5
396E
330
38E4
100
AcDbEntity
  8
ZUWAKU
100
AcDbLine
 10
33.12110599363325
 20
11.36250161593983
 30
0.0
 11
33.12110599363325
 21
3.8375016159398
 31
0.0
  0
LINE
  5
396F
330
38E4
100
AcDbEntity
  8
ZUWAKU
100
AcDbLine
 10
34.52110599363323
 20
3.8375016159398
 30
0.0
 11
34.52110599363323
 21
11.36250161593983
 31
0.0
  0
LINE
  5
3970
330
38E4
100
AcDbEntity
  8
ZUWAKU
100
AcDbLine
 10
30.67110599363332
 20
11.36250161593983
 30
0.0
 11
30.67110599363332
 21
5.500001615939822
 31
0.0
  0
LINE
  5
3971
330
38E4
100
AcDbEntity
  8
ZUWAKU
100
AcDbLine
 10
32.0711059936333
 20
4.975001615939845
 30
0.0
 11
32.0711059936333
 21
11.36250161593983
 31
0.0
  0
LINE
  5
3972
330
38E4
100
AcDbEntity
  8
ZUWAKU
100
AcDbLine
 10
39.5633146902369
 20
15.00000161593982
 30
0.0
 11
39.5633146902369
 21
0.400001615939857
 31
0.0
  0
LINE
  5
3973
330
38E4
100
AcDbEntity
  8
ZUWAKU
100
AcDbLine
 10
39.76331469023683
 20
15.00000161593982
 30
0.0
 11
39.76331469023694
 21
0.400001615939857
 31
0.0
  0
LINE
  5
3974
330
38E4
100
AcDbEntity
  8
ZUWAKU
100
AcDbLine
 10
39.6633146902368
 20
15.00000161593982
 30
0.0
 11
39.66331469023692
 21
0.400001615939857
 31
0.0
  0
LINE
  5
3975
330
38E4
100
AcDbEntity
  8
ZUWAKU
100
AcDbLine
 10
22.79610599363332
 20
10.22500161593984
 30
0.0
 11
22.79610599363332
 21
9.317400603262171
 31
0.0
  0
LINE
  5
3976
330
38E4
100
AcDbEntity
  8
ZUWAKU
100
AcDbLine
 10
24.1961059936333
 20
9.9625016159398
 30
0.0
 11
24.1961059936333
 21
9.317400603262171
 31
0.0
  0
LINE
  5
3977
330
38E4
100
AcDbEntity
  8
ZUWAKU
100
AcDbLine
 10
18.65742923472225
 20
9.602525212721559
 30
0.0
 11
18.02505336205434
 21
7.600001615939845
 31
0.0
  0
LINE
  5
3978
330
38E4
100
AcDbEntity
  8
ZUWAKU
100
AcDbLine
 10
17.83817346229125
 20
11.44154860002328
 30
0.0
 11
16.90403852497525
 21
8.483454631856318
 31
0.0
  0
LINE
  5
3979
330
38E4
100
AcDbEntity
  8
ZUWAKU
100
AcDbLine
 10
14.92110599363332
 20
11.36250161593983
 30
0.0
 11
14.92110599363332
 21
3.8375016159398
 31
0.0
  0
LINE
  5
397A
330
38E4
100
AcDbEntity
  8
ZUWAKU
100
AcDbLine
 10
16.32110599363329
 20
8.562501615939822
 30
0.0
 11
16.32110599363329
 21
11.36250161593983
 31
0.0
  0
LINE
  5
397B
330
38E4
100
AcDbEntity
  8
ZUWAKU
100
AcDbLine
 10
28.92110599363332
 20
5.500001615939822
 30
0.0
 11
28.92110599363332
 21
11.36250161593983
 31
0.0
  0
LINE
  5
397C
330
38E4
100
AcDbEntity
  8
ZUWAKU
100
AcDbLine
 10
27.52110599363323
 20
11.36250161593983
 30
0.0
 11
27.52110599363323
 21
4.975001615939845
 31
0.0
  0
LINE
  5
397D
330
38E4
100
AcDbEntity
  8
ZUWAKU
100
AcDbLine
 10
21.74610599363325
 20
3.8375016159398
 30
0.0
 11
21.74610599363325
 21
11.36250161593983
 31
0.0
  0
LINE
  5
397E
330
38E4
100
AcDbEntity
  8
ZUWAKU
100
AcDbLine
 10
20.34610599363327
 20
11.36250161593983
 30
0.0
 11
20.34610599363327
 21
3.8375016159398
 31
0.0
  0
LINE
  5
397F
330
38E4
100
AcDbEntity
  8
ZUWAKU
100
AcDbLine
 10
10.37110599363325
 20
5.675001615939834
 30
0.0
 11
10.37110599363325
 21
9.5250016159398
 31
0.0
  0
LINE
  5
3980
330
38E4
100
AcDbEntity
  8
ZUWAKU
100
AcDbLine
 10
11.77110599363323
 20
9.5250016159398
 30
0.0
 11
11.77110599363323
 21
5.675001615939834
 31
0.0
  0
LINE
  5
3981
330
38E4
100
AcDbEntity
  8
ZUWAKU
100
AcDbLine
 10
5.646105993633227
 20
10.22500161593984
 30
0.0
 11
5.646105993633227
 21
9.317400603262171
 31
0.0
  0
LINE
  5
3982
330
38E4
100
AcDbEntity
  8
ZUWAKU
100
AcDbLine
 10
7.046105993633318
 20
9.9625016159398
 30
0.0
 11
7.046105993633318
 21
9.317400603262171
 31
0.0
  0
HATCH
  5
3983
330
38E4
100
AcDbEntity
  8
ZUWAKU
100
AcDbHatch
 10
0.0
 20
0.0
 30
0.0
210
0.0
220
0.0
230
1.0
  2
ANSI37
 70
     0
 71
     0
 91
        8
 92
        7
 72
     1
 73
     1
 93
       24
 10
7.251131246802628
 20
8.822425856431607
 42
-0.1989123673796348
 10
7.046105993633318
 20
9.317400603262115
 42
0.0
 10
7.046105993633318
 20
9.9625016159398
 42
-0.4142135623730912
 10
7.30860599363325
 20
10.22500161593984
 42
0.0
 10
8.796105993633204
 20
10.22500161593984
 42
0.4142135623731546
 10
9.05860599363325
 20
10.48750161593983
 42
0.0
 10
9.05860599363325
 20
11.36250161593983
 42
0.4142135623731586
 10
8.796105993633204
 20
11.62500161593982
 42
0.0
 10
7.046105993633318
 20
11.62500161593982
 42
0.4142135623730928
 10
5.646105993633227
 20
10.22500161593984
 42
0.0
 10
5.646105993633227
 20
9.317400603262228
 42
0.1989123673796619
 10
6.261181753141499
 20
7.832476362770421
 42
0.0
 10
7.716080740463894
 20
6.377577375448083
 42
-0.1989123673796613
 10
7.921105993633318
 20
5.882602628617462
 42
0.0
 10
7.921105993633318
 20
5.237501615939834
 42
-0.4142135623730911
 10
7.658605993633273
 20
4.975001615939845
 42
0.0
 10
6.171105993633318
 20
4.975001615939845
 42
0.4142135623731526
 10
5.908605993633273
 20
4.712501615939856
 42
0.0
 10
5.908605993633273
 20
3.8375016159398
 42
0.4142135623731526
 10
6.171105993633318
 20
3.575001615939811
 42
0.0
 10
7.921105993633318
 20
3.575001615939811
 42
0.4142135623731045
 10
9.321105993633295
 20
4.975001615939788
 42
0.0
 10
9.321105993633295
 20
5.882602628617462
 42
0.1989123673796604
 10
8.706030234125023
 20
7.367526869109212
 42
0.0
 97
        0
 92
        7
 72
     1
 73
     1
 93
       16
 10
11.77110599363323
 20
9.5250016159398
 42
-0.4142135623730935
 10
12.47110599363327
 20
10.22500161593984
 42
0.0
 10
13.43360599363325
 20
10.22500161593984
 42
0.4142135623731546
 10
13.69610599363329
 20
10.48750161593983
 42
0.0
 10
13.69610599363329
 20
11.36250161593983
 42
0.4142135623730951
 10
13.43360599363336
 20
11.62500161593982
 42
0.0
 10
12.47110599363327
 20
11.62500161593982
 42
0.4142135623730893
 10
10.37110599363325
 20
9.5250016159398
 42
0.0
 10
10.37110599363325
 20
5.675001615939834
 42
0.4142135623730969
 10
12.47110599363327
 20
3.575001615939811
 42
0.0
 10
13.43360599363325
 20
3.575001615939811
 42
0.4142135623731526
 10
13.69610599363329
 20
3.8375016159398
 42
0.0
 10
13.69610599363329
 20
4.712501615939856
 42
0.4142135623730891
 10
13.43360599363336
 20
4.975001615939845
 42
0.0
 10
12.47110599363327
 20
4.975001615939845
 42
-0.4142135623730928
 10
11.77110599363323
 20
5.675001615939834
 42
0.0
 97
        0
 92
        7
 72
     1
 73
     1
 93
        2
 10
12.12110599363325
 20
7.600001615939845
 42
1.0
 10
13.87110599363325
 20
7.600001615939845
 42
1.0
 97
        0
 92
        7
 72
     1
 73
     1
 93
       26
 10
18.65742923472225
 20
9.602525212721559
 42
0.0
 10
19.18824905129122
 20
11.28345463185633
 42
0.5069206636600134
 10
18.93793360169343
 20
11.62500161593982
 42
0.0
 10
18.08848891188882
 20
11.62500161593982
 42
0.3272098845218764
 10
17.83817346229125
 20
11.44154860002328
 42
0.0
 10
16.90403852497525
 20
8.483454631856375
 42
-0.3272098845219541
 10
16.65372307537757
 20
8.300001615939834
 42
0.0
 10
16.58360599363334
 20
8.300001615939834
 42
-0.4142135623731526
 10
16.32110599363329
 20
8.562501615939822
 42
0.0
 10
16.32110599363329
 20
11.36250161593983
 42
0.4142135623730951
 10
16.05860599363336
 20
11.62500161593982
 42
0.0
 10
15.18360599363325
 20
11.62500161593982
 42
0.4142135623730871
 10
14.92110599363332
 20
11.36250161593983
 42
0.0
 10
14.92110599363332
 20
3.8375016159398
 42
0.4142135623730891
 10
15.18360599363325
 20
3.575001615939811
 42
0.0
 10
16.05860599363325
 20
3.575001615939811
 42
0.4142135623731526
 10
16.32110599363329
 20
3.8375016159398
 42
0.0
 10
16.32110599363329
 20
6.637501615939811
 42
-0.4142135623731526
 10
16.58360599363334
 20
6.9000016159398
 42
0.0
 10
16.65372307537768
 20
6.9000016159398
 42
-0.3272098845218915
 10
16.90403852497525
 20
6.716548600023259
 42
0.0
 10
17.83817346229125
 20
3.758454631856352
 42
0.3272098845218902
 10
18.08848891188882
 20
3.575001615939811
 42
0.0
 10
18.93793360169343
 20
3.575001615939811
 42
0.5069206636600336
 10
19.18824905129122
 20
3.916548600023304
 42
0.0
 10
18.02505336205434
 20
7.600001615939902
 42
0.0
 97
        0
 92
        7
 72
     1
 73
     1
 93
        8
 10
21.74610599363325
 20
11.36250161593983
 42
0.4142135623731546
 10
21.48360599363321
 20
11.62500161593982
 42
0.0
 10
20.60860599363332
 20
11.62500161593982
 42
0.4142135623731507
 10
20.34610599363327
 20
11.36250161593983
 42
0.0
 10
20.34610599363327
 20
3.8375016159398
 42
0.4142135623731526
 10
20.60860599363332
 20
3.575001615939811
 42
0.0
 10
21.48360599363321
 20
3.575001615939811
 42
0.4142135623731526
 10
21.74610599363325
 20
3.8375016159398
 42
0.0
 97
        0
 92
        7
 72
     1
 73
     1
 93
       24
 10
24.1961059936333
 20
9.9625016159398
 42
-0.4142135623731546
 10
24.45860599363334
 20
10.22500161593984
 42
0.0
 10
25.9461059936333
 20
10.22500161593984
 42
0.4142135623730911
 10
26.20860599363323
 20
10.48750161593983
 42
0.0
 10
26.20860599363323
 20
11.36250161593983
 42
0.4142135623730952
 10
25.9461059936333
 20
11.62500161593982
 42
0.0
 10
24.1961059936333
 20
11.62500161593982
 42
0.4142135623731048
 10
22.79610599363332
 20
10.22500161593984
 42
0.0
 10
22.79610599363332
 20
9.317400603262228
 42
0.1989123673796613
 10
23.41118175314159
 20
7.832476362770421
 42
0.0
 10
24.86608074046387
 20
6.377577375448083
 42
-0.1989123673796402
 10
25.0711059936333
 20
5.882602628617576
 42
0.0
 10
25.0711059936333
 20
5.237501615939834
 42
-0.4142135623730911
 10
24.80860599363337
 20
4.975001615939845
 42
0.0
 10
23.3211059936333
 20
4.975001615939845
 42
0.4142135623731526
 10
23.05860599363325
 20
4.712501615939856
 42
0.0
 10
23.05860599363325
 20
3.8375016159398
 42
0.4142135623730891
 10
23.32110599363318
 20
3.575001615939811
 42
0.0
 10
25.0711059936333
 20
3.575001615939811
 42
0.4142135623730925
 10
26.47110599363327
 20
4.975001615939788
 42
0.0
 10
26.47110599363327
 20
5.882602628617462
 42
0.1989123673796675
 10
25.856030234125
 20
7.367526869109269
 42
0.0
 10
24.40113124680272
 20
8.82242585643155
 42
-0.1989123673796652
 10
24.1961059936333
 20
9.317400603262115
 42
0.0
 97
        0
 92
        7
 72
     1
 73
     1
 93
       16
 10
28.92110599363332
 20
11.36250161593983
 42
0.414213562373103
 10
28.65860599363328
 20
11.62500161593982
 42
0.0
 10
27.78360599363328
 20
11.62500161593982
 42
0.4142135623730871
 10
27.52110599363323
 20
11.36250161593983
 42
0.0
 10
27.52110599363323
 20
4.975001615939788
 42
0.4142135623730927
 10
28.92110599363332
 20
3.575001615939811
 42
0.0
 10
30.67110599363332
 20
3.575001615939811
 42
0.4142135623731045
 10
32.0711059936333
 20
4.975001615939788
 42
0.0
 10
32.0711059936333
 20
11.36250161593983
 42
0.4142135623730951
 10
31.80860599363337
 20
11.62500161593982
 42
0.0
 10
30.93360599363325
 20
11.62500161593982
 42
0.4142135623730871
 10
30.67110599363332
 20
11.36250161593983
 42
0.0
 10
30.67110599363332
 20
5.500001615939822
 42
-0.4142135623730879
 10
30.14610599363323
 20
4.975001615939845
 42
0.0
 10
29.44610599363329
 20
4.975001615939845
 42
-0.4142135623731197
 10
28.92110599363332
 20
5.500001615939822
 42
0.0
 97
        0
 92
        7
 72
     1
 73
     1
 93
        8
 10
34.52110599363323
 20
11.36250161593983
 42
0.4142135623730871
 10
34.2586059936333
 20
11.62500161593982
 42
0.0
 10
33.3836059936333
 20
11.62500161593982
 42
0.4142135623731507
 10
33.12110599363325
 20
11.36250161593983
 42
0.0
 10
33.12110599363325
 20
3.8375016159398
 42
0.4142135623730891
 10
33.38360599363318
 20
3.575001615939811
 42
0.0
 10
34.2586059936333
 20
3.575001615939811
 42
0.4142135623730891
 10
34.52110599363323
 20
3.8375016159398
 42
0.0
 97
        0
 75
     0
 76
     1
 52
0.0
 41
0.1
 77
     0
 78
     2
 53
45.0
 43
-450.4711522510968
 44
-6.599998384060143
 45
-0.2245064030267288
 46
0.2245064030267288
 79
     0
 53
135.0
 43
-450.4711522510968
 44
-6.599998384060143
 45
-0.2245064030267288
 46
-0.2245064030267288
 79
     0
 47
0.057451373970553
 98
        8
 10
8.039927397754354
 20
7.5835884388826
 10
11.20225741946228
 20
9.422032707165328
 10
12.58218385907253
 20
7.755942438975182
 10
15.45702990706127
 20
8.100650439160574
 10
20.91923592572107
 20
8.330456572931382
 10
23.44910036380747
 20
9.709289774143428
 10
28.27884290244288
 20
9.36458057348733
 10
33.91353972605407
 20
9.594386707258138
  0
CIRCLE
  5
3984
330
38E4
100
AcDbEntity
  8
ZUWAKU
100
AcDbCircle
 10
12.99610599363325
 20
7.600001615939845
 30
0.0
 40
0.875
  0
LINE
  5
3985
330
38E4
100
AcDbEntity
  8
ZUWAKU
100
AcDbLine
 10
13.43360599363325
 20
3.575001615939811
 30
0.0
 11
12.47110599363327
 21
3.575001615939811
 31
0.0
  0
LINE
  5
3986
330
38E4
100
AcDbEntity
  8
ZUWAKU
100
AcDbLine
 10
12.47110599363327
 20
4.975001615939845
 30
0.0
 11
13.43360599363325
 21
4.975001615939845
 31
0.0
  0
ARC
  5
3987
330
38E4
100
AcDbEntity
  8
ZUWAKU
100
AcDbCircle
 10
12.47110599363327
 20
5.675001615939834
 30
0.0
 40
2.099999999999999
100
AcDbArc
 50
180.0
 51
270.0
  0
ARC
  5
3988
330
38E4
100
AcDbEntity
  8
ZUWAKU
100
AcDbCircle
 10
7.921105993633318
 20
4.975001615939845
 30
0.0
 40
1.399999999999999
100
AcDbArc
 50
270.0
 51
0.0
  0
ARC
  5
3989
330
38E4
100
AcDbEntity
  8
ZUWAKU
100
AcDbCircle
 10
12.47110599363327
 20
5.675001615939834
 30
0.0
 40
0.6999999999999995
100
AcDbArc
 50
180.0
 51
270.0
  0
LINE
  5
398A
330
38E4
100
AcDbEntity
  8
ZUWAKU
100
AcDbLine
 10
9.321105993633295
 20
4.975001615939845
 30
0.0
 11
9.321105993633295
 21
5.882602628617519
 31
0.0
  0
ARC
  5
398B
330
38E4
100
AcDbEntity
  8
ZUWAKU
100
AcDbCircle
 10
7.74610599363325
 20
9.317400603262171
 30
0.0
 40
2.099999999999999
100
AcDbArc
 50
180.0
 51
224.9999999999994
  0
ARC
  5
398C
330
38E4
100
AcDbEntity
  8
ZUWAKU
100
AcDbCircle
 10
7.74610599363325
 20
9.317400603262171
 30
0.0
 40
0.6999999999999995
100
AcDbArc
 50
180.0000000000016
 51
224.9999999999994
  0
LINE
  5
398D
330
38E4
100
AcDbEntity
  8
ZUWAKU
100
AcDbLine
 10
6.261181753141499
 20
7.832476362770421
 30
0.0
 11
7.716080740463894
 21
6.377577375448083
 31
0.0
  0
LINE
  5
398E
330
38E4
100
AcDbEntity
  8
ZUWAKU
100
AcDbLine
 10
6.171105993633318
 20
4.975001615939845
 30
0.0
 11
7.658605993633273
 21
4.975001615939845
 31
0.0
  0
LINE
  5
398F
330
38E4
100
AcDbEntity
  8
ZUWAKU
100
AcDbLine
 10
6.171105993633318
 20
3.575001615939811
 30
0.0
 11
7.921105993633318
 21
3.575001615939811
 31
0.0
  0
ARC
  5
3990
330
38E4
100
AcDbEntity
  8
ZUWAKU
100
AcDbCircle
 10
6.171105993633318
 20
4.7125016159398
 30
0.0
 40
0.2625
100
AcDbArc
 50
90.0
 51
180.0
  0
ARC
  5
3991
330
38E4
100
AcDbEntity
  8
ZUWAKU
100
AcDbCircle
 10
6.171105993633318
 20
3.8375016159398
 30
0.0
 40
0.2625
100
AcDbArc
 50
180.0
 51
270.0
  0
LINE
  5
3992
330
38E4
100
AcDbEntity
  8
ZUWAKU
100
AcDbLine
 10
5.908605993633273
 20
3.8375016159398
 30
0.0
 11
5.908605993633273
 21
4.7125016159398
 31
0.0
  0
ARC
  5
3993
330
38E4
100
AcDbEntity
  8
ZUWAKU
100
AcDbCircle
 10
7.221105993633273
 20
5.882602628617519
 30
0.0
 40
0.6999999999999995
100
AcDbArc
 50
0.0
 51
44.99999999999942
  0
ARC
  5
3994
330
38E4
100
AcDbEntity
  8
ZUWAKU
100
AcDbCircle
 10
7.658605993633273
 20
5.237501615939834
 30
0.0
 40
0.2625
100
AcDbArc
 50
270.0
 51
0.0
  0
LINE
  5
3995
330
38E4
100
AcDbEntity
  8
ZUWAKU
100
AcDbLine
 10
7.921105993633318
 20
5.237501615939834
 30
0.0
 11
7.921105993633318
 21
5.882602628617519
 31
0.0
  0
LINE
  5
3996
330
38E4
100
AcDbEntity
  8
ZUWAKU
100
AcDbLine
 10
8.706030234125023
 20
7.367526869109212
 30
0.0
 11
7.251131246802742
 21
8.82242585643155
 31
0.0
  0
ARC
  5
3997
330
38E4
100
AcDbEntity
  8
ZUWAKU
100
AcDbCircle
 10
7.221105993633273
 20
5.882602628617462
 30
0.0
 40
2.099999999999999
100
AcDbArc
 50
0.0
 51
44.99999999999942
  0
ARC
  5
3998
330
38E4
100
AcDbEntity
  8
ZUWAKU
100
AcDbCircle
 10
29.44610599363329
 20
5.500001615939822
 30
0.0
 40
0.5249999999999995
100
AcDbArc
 50
180.0
 51
270.0
  0
LINE
  5
3999
330
38E4
100
AcDbEntity
  8
ZUWAKU
100
AcDbLine
 10
28.92110599363332
 20
3.575001615939811
 30
0.0
 11
30.67110599363332
 21
3.575001615939811
 31
0.0
  0
ARC
  5
399A
330
38E4
100
AcDbEntity
  8
ZUWAKU
100
AcDbCircle
 10
28.92110599363332
 20
4.975001615939845
 30
0.0
 40
1.399999999999999
100
AcDbArc
 50
180.0
 51
270.0
  0
ARC
  5
399B
330
38E4
100
AcDbEntity
  8
ZUWAKU
100
AcDbCircle
 10
25.0711059936333
 20
4.975001615939845
 30
0.0
 40
1.399999999999999
100
AcDbArc
 50
270.0
 51
0.0
  0
LINE
  5
399C
330
38E4
100
AcDbEntity
  8
ZUWAKU
100
AcDbLine
 10
20.60860599363332
 20
3.575001615939811
 30
0.0
 11
21.48360599363332
 21
3.575001615939811
 31
0.0
  0
ARC
  5
399D
330
38E4
100
AcDbEntity
  8
ZUWAKU
100
AcDbCircle
 10
18.08848891188893
 20
3.8375016159398
 30
0.0
 40
0.2625
100
AcDbArc
 50
197.5255683737222
 51
270.0
  0
LINE
  5
399E
330
38E4
100
AcDbEntity
  8
ZUWAKU
100
AcDbLine
 10
19.18824905129122
 20
3.916548600023304
 30
0.0
 11
18.02505336205434
 21
7.600001615939845
 31
0.0
  0
ARC
  5
399F
330
38E4
100
AcDbEntity
  8
ZUWAKU
100
AcDbCircle
 10
18.93793360169343
 20
3.8375016159398
 30
0.0
 40
0.2625
100
AcDbArc
 50
270.0
 51
17.52556837372225
  0
LINE
  5
39A0
330
38E4
100
AcDbEntity
  8
ZUWAKU
100
AcDbLine
 10
18.08848891188893
 20
3.575001615939811
 30
0.0
 11
18.93793360169343
 21
3.575001615939811
 31
0.0
  0
ARC
  5
39A1
330
38E4
100
AcDbEntity
  8
ZUWAKU
100
AcDbCircle
 10
20.60860599363332
 20
3.8375016159398
 30
0.0
 40
0.2625
100
AcDbArc
 50
180.0
 51
270.0
  0
ARC
  5
39A2
330
38E4
100
AcDbEntity
  8
ZUWAKU
100
AcDbCircle
 10
16.58360599363323
 20
6.637501615939811
 30
0.0
 40
0.2625
100
AcDbArc
 50
90.0
 51
180.0
  0
ARC
  5
39A3
330
38E4
100
AcDbEntity
  8
ZUWAKU
100
AcDbCircle
 10
16.65372307537768
 20
6.637501615939811
 30
0.0
 40
0.2625
100
AcDbArc
 50
17.52556837372225
 51
90.0
  0
ARC
  5
39A4
330
38E4
100
AcDbEntity
  8
ZUWAKU
100
AcDbCircle
 10
15.18360599363325
 20
3.8375016159398
 30
0.0
 40
0.2625
100
AcDbArc
 50
180.0
 51
270.0
  0
ARC
  5
39A5
330
38E4
100
AcDbEntity
  8
ZUWAKU
100
AcDbCircle
 10
13.43360599363325
 20
4.7125016159398
 30
0.0
 40
0.2625
100
AcDbArc
 50
0.0
 51
90.0
  0
ARC
  5
39A6
330
38E4
100
AcDbEntity
  8
ZUWAKU
100
AcDbCircle
 10
13.43360599363325
 20
3.8375016159398
 30
0.0
 40
0.2625
100
AcDbArc
 50
270.0
 51
0.0
  0
LINE
  5
39A7
330
38E4
100
AcDbEntity
  8
ZUWAKU
100
AcDbLine
 10
13.69610599363329
 20
4.7125016159398
 30
0.0
 11
13.69610599363329
 21
3.8375016159398
 31
0.0
  0
LINE
  5
39A8
330
38E4
100
AcDbEntity
  8
ZUWAKU
100
AcDbLine
 10
16.32110599363329
 20
3.8375016159398
 30
0.0
 11
16.32110599363329
 21
6.637501615939811
 31
0.0
  0
ARC
  5
39A9
330
38E4
100
AcDbEntity
  8
ZUWAKU
100
AcDbCircle
 10
16.05860599363325
 20
3.8375016159398
 30
0.0
 40
0.2625
100
AcDbArc
 50
270.0
 51
0.0
  0
LINE
  5
39AA
330
38E4
100
AcDbEntity
  8
ZUWAKU
100
AcDbLine
 10
15.18360599363325
 20
3.575001615939811
 30
0.0
 11
16.05860599363325
 21
3.575001615939811
 31
0.0
  0
ARC
  5
39AB
330
38E4
100
AcDbEntity
  8
ZUWAKU
100
AcDbCircle
 10
16.58360599363323
 20
8.562501615939822
 30
0.0
 40
0.2625
100
AcDbArc
 50
180.0
 51
270.0
  0
LINE
  5
39AC
330
38E4
100
AcDbEntity
  8
ZUWAKU
100
AcDbLine
 10
16.58360599363323
 20
6.9000016159398
 30
0.0
 11
16.65372307537768
 21
6.9000016159398
 31
0.0
  0
LINE
  5
39AD
330
38E4
100
AcDbEntity
  8
ZUWAKU
100
AcDbLine
 10
16.65372307537768
 20
8.300001615939834
 30
0.0
 11
16.58360599363323
 21
8.300001615939834
 31
0.0
  0
ARC
  5
39AE
330
38E4
100
AcDbEntity
  8
ZUWAKU
100
AcDbCircle
 10
16.65372307537768
 20
8.562501615939822
 30
0.0
 40
0.2625
100
AcDbArc
 50
270.0
 51
342.4744316262778
  0
LINE
  5
39AF
330
38E4
100
AcDbEntity
  8
ZUWAKU
100
AcDbLine
 10
17.83817346229125
 20
3.758454631856352
 30
0.0
 11
16.90403852497525
 21
6.716548600023315
 31
0.0
  0
ARC
  5
39B0
330
38E4
100
AcDbEntity
  8
ZUWAKU
100
AcDbCircle
 10
24.37110599363325
 20
5.882602628617462
 30
0.0
 40
2.099999999999999
100
AcDbArc
 50
0.0
 51
44.99999999999942
  0
LINE
  5
39B1
330
38E4
100
AcDbEntity
  8
ZUWAKU
100
AcDbLine
 10
26.47110599363327
 20
4.975001615939845
 30
0.0
 11
26.47110599363327
 21
5.882602628617519
 31
0.0
  0
ARC
  5
39B2
330
38E4
100
AcDbEntity
  8
ZUWAKU
100
AcDbCircle
 10
24.89610599363323
 20
9.317400603262171
 30
0.0
 40
2.099999999999999
100
AcDbArc
 50
180.0
 51
224.9999999999994
  0
ARC
  5
39B3
330
38E4
100
AcDbEntity
  8
ZUWAKU
100
AcDbCircle
 10
24.89610599363323
 20
9.317400603262171
 30
0.0
 40
0.6999999999999995
100
AcDbArc
 50
180.0000000000016
 51
224.9999999999994
  0
LINE
  5
39B4
330
38E4
100
AcDbEntity
  8
ZUWAKU
100
AcDbLine
 10
23.41118175314159
 20
7.832476362770421
 30
0.0
 11
24.86608074046387
 21
6.377577375448083
 31
0.0
  0
LINE
  5
39B5
330
38E4
100
AcDbEntity
  8
ZUWAKU
100
AcDbLine
 10
23.3211059936333
 20
3.575001615939811
 30
0.0
 11
25.0711059936333
 21
3.575001615939811
 31
0.0
  0
LINE
  5
39B6
330
38E4
100
AcDbEntity
  8
ZUWAKU
100
AcDbLine
 10
23.3211059936333
 20
4.975001615939845
 30
0.0
 11
24.80860599363325
 21
4.975001615939845
 31
0.0
  0
ARC
  5
39B7
330
38E4
100
AcDbEntity
  8
ZUWAKU
100
AcDbCircle
 10
23.3211059936333
 20
4.7125016159398
 30
0.0
 40
0.2625
100
AcDbArc
 50
90.0
 51
180.0
  0
ARC
  5
39B8
330
38E4
100
AcDbEntity
  8
ZUWAKU
100
AcDbCircle
 10
21.48360599363332
 20
3.8375016159398
 30
0.0
 40
0.2625
100
AcDbArc
 50
270.0
 51
0.0
  0
ARC
  5
39B9
330
38E4
100
AcDbEntity
  8
ZUWAKU
100
AcDbCircle
 10
23.3211059936333
 20
3.8375016159398
 30
0.0
 40
0.2625
100
AcDbArc
 50
180.0
 51
270.0
  0
LINE
  5
39BA
330
38E4
100
AcDbEntity
  8
ZUWAKU
100
AcDbLine
 10
23.05860599363325
 20
3.8375016159398
 30
0.0
 11
23.05860599363325
 21
4.7125016159398
 31
0.0
  0
ARC
  5
39BB
330
38E4
100
AcDbEntity
  8
ZUWAKU
100
AcDbCircle
 10
24.80860599363325
 20
5.237501615939834
 30
0.0
 40
0.2625
100
AcDbArc
 50
270.0
 51
0.0
  0
ARC
  5
39BC
330
38E4
100
AcDbEntity
  8
ZUWAKU
100
AcDbCircle
 10
24.37110599363325
 20
5.882602628617519
 30
0.0
 40
0.6999999999999995
100
AcDbArc
 50
0.0
 51
44.99999999999942
  0
LINE
  5
39BD
330
38E4
100
AcDbEntity
  8
ZUWAKU
100
AcDbLine
 10
25.0711059936333
 20
5.237501615939834
 30
0.0
 11
25.0711059936333
 21
5.882602628617519
 31
0.0
  0
LINE
  5
39BE
330
38E4
100
AcDbEntity
  8
ZUWAKU
100
AcDbLine
 10
25.856030234125
 20
7.367526869109212
 30
0.0
 11
24.40113124680261
 21
8.82242585643155
 31
0.0
  0
ARC
  5
39BF
330
38E4
100
AcDbEntity
  8
ZUWAKU
100
AcDbCircle
 10
30.67110599363332
 20
4.975001615939845
 30
0.0
 40
1.399999999999999
100
AcDbArc
 50
270.0
 51
0.0
  0
ARC
  5
39C0
330
38E4
100
AcDbEntity
  8
ZUWAKU
100
AcDbCircle
 10
34.2586059936333
 20
3.8375016159398
 30
0.0
 40
0.2625
100
AcDbArc
 50
270.0
 51
0.0
  0
ARC
  5
39C1
330
38E4
100
AcDbEntity
  8
ZUWAKU
100
AcDbCircle
 10
30.14610599363323
 20
5.500001615939822
 30
0.0
 40
0.5249999999999995
100
AcDbArc
 50
270.0
 51
0.0
  0
ARC
  5
39C2
330
38E4
100
AcDbEntity
  8
ZUWAKU
100
AcDbCircle
 10
33.3836059936333
 20
3.8375016159398
 30
0.0
 40
0.2625
100
AcDbArc
 50
180.0
 51
270.0
  0
LINE
  5
39C3
330
38E4
100
AcDbEntity
  8
ZUWAKU
100
AcDbLine
 10
33.3836059936333
 20
3.575001615939811
 30
0.0
 11
34.2586059936333
 21
3.575001615939811
 31
0.0
  0
LINE
  5
39C4
330
38E4
100
AcDbEntity
  8
ZUWAKU
100
AcDbLine
 10
30.14610599363323
 20
4.975001615939845
 30
0.0
 11
29.44610599363329
 21
4.975001615939845
 31
0.0
  0
LINE
  5
39C5
330
38E4
100
AcDbEntity
  8
ZUWAKU
100
AcDbLine
 10
13.43360599363325
 20
10.22500161593984
 30
0.0
 11
12.47110599363327
 21
10.22500161593984
 31
0.0
  0
LINE
  5
39C6
330
38E4
100
AcDbEntity
  8
ZUWAKU
100
AcDbLine
 10
12.47110599363327
 20
11.62500161593982
 30
0.0
 11
13.43360599363325
 21
11.62500161593982
 31
0.0
  0
LINE
  5
39C7
330
38E4
100
AcDbEntity
  8
ZUWAKU
100
AcDbLine
 10
7.046105993633318
 20
11.62500161593982
 30
0.0
 11
8.796105993633318
 21
11.62500161593982
 31
0.0
  0
ARC
  5
39C8
330
38E4
100
AcDbEntity
  8
ZUWAKU
100
AcDbCircle
 10
8.796105993633318
 20
11.36250161593983
 30
0.0
 40
0.2625
100
AcDbArc
 50
0.0
 51
90.0
  0
ARC
  5
39C9
330
38E4
100
AcDbEntity
  8
ZUWAKU
100
AcDbCircle
 10
12.47110599363327
 20
9.5250016159398
 30
0.0
 40
0.6999999999999995
100
AcDbArc
 50
90.0
 51
180.0
  0
LINE
  5
39CA
330
38E4
100
AcDbEntity
  8
ZUWAKU
100
AcDbLine
 10
8.796105993633318
 20
10.22500161593984
 30
0.0
 11
7.30860599363325
 21
10.22500161593984
 31
0.0
  0
ARC
  5
39CB
330
38E4
100
AcDbEntity
  8
ZUWAKU
100
AcDbCircle
 10
7.30860599363325
 20
9.9625016159398
 30
0.0
 40
0.2625
100
AcDbArc
 50
90.0
 51
180.0
  0
ARC
  5
39CC
330
38E4
100
AcDbEntity
  8
ZUWAKU
100
AcDbCircle
 10
8.796105993633318
 20
10.48750161593983
 30
0.0
 40
0.2625
100
AcDbArc
 50
270.0
 51
0.0
  0
ARC
  5
39CD
330
38E4
100
AcDbEntity
  8
ZUWAKU
100
AcDbCircle
 10
7.046105993633318
 20
10.22500161593984
 30
0.0
 40
1.399999999999999
100
AcDbArc
 50
90.0
 51
180.0
  0
ARC
  5
39CE
330
38E4
100
AcDbEntity
  8
ZUWAKU
100
AcDbCircle
 10
12.47110599363327
 20
9.5250016159398
 30
0.0
 40
2.099999999999999
100
AcDbArc
 50
90.0
 51
180.0
  0
LINE
  5
39CF
330
38E4
100
AcDbEntity
  8
ZUWAKU
100
AcDbLine
 10
9.05860599363325
 20
11.36250161593983
 30
0.0
 11
9.05860599363325
 21
10.48750161593983
 31
0.0
  0
LINE
  5
39D0
330
38E4
100
AcDbEntity
  8
ZUWAKU
100
AcDbLine
 10
21.48360599363332
 20
11.62500161593982
 30
0.0
 11
20.60860599363332
 21
11.62500161593982
 31
0.0
  0
ARC
  5
39D1
330
38E4
100
AcDbEntity
  8
ZUWAKU
100
AcDbCircle
 10
18.08848891188893
 20
11.36250161593983
 30
0.0
 40
0.2625
100
AcDbArc
 50
90.0
 51
162.4744316262777
  0
ARC
  5
39D2
330
38E4
100
AcDbEntity
  8
ZUWAKU
100
AcDbCircle
 10
18.93793360169343
 20
11.36250161593983
 30
0.0
 40
0.2625
100
AcDbArc
 50
342.4744316262778
 51
90.0
  0
LINE
  5
39D3
330
38E4
100
AcDbEntity
  8
ZUWAKU
100
AcDbLine
 10
18.08848891188893
 20
11.62500161593982
 30
0.0
 11
18.93793360169343
 21
11.62500161593982
 31
0.0
  0
ARC
  5
39D4
330
38E4
100
AcDbEntity
  8
ZUWAKU
100
AcDbCircle
 10
20.60860599363332
 20
11.36250161593983
 30
0.0
 40
0.2625
100
AcDbArc
 50
90.0
 51
180.0
  0
ARC
  5
39D5
330
38E4
100
AcDbEntity
  8
ZUWAKU
100
AcDbCircle
 10
15.18360599363325
 20
11.36250161593983
 30
0.0
 40
0.2625
100
AcDbArc
 50
90.0
 51
180.0
  0
ARC
  5
39D6
330
38E4
100
AcDbEntity
  8
ZUWAKU
100
AcDbCircle
 10
13.43360599363325
 20
11.36250161593983
 30
0.0
 40
0.2625
100
AcDbArc
 50
0.0
 51
90.0
  0
LINE
  5
39D7
330
38E4
100
AcDbEntity
  8
ZUWAKU
100
AcDbLine
 10
16.05860599363325
 20
11.62500161593982
 30
0.0
 11
15.18360599363325
 21
11.62500161593982
 31
0.0
  0
ARC
  5
39D8
330
38E4
100
AcDbEntity
  8
ZUWAKU
100
AcDbCircle
 10
16.05860599363325
 20
11.36250161593983
 30
0.0
 40
0.2625
100
AcDbArc
 50
0.0
 51
90.0
  0
ARC
  5
39D9
330
38E4
100
AcDbEntity
  8
ZUWAKU
100
AcDbCircle
 10
13.43360599363325
 20
10.48750161593983
 30
0.0
 40
0.2625
100
AcDbArc
 50
270.0
 51
0.0
  0
LINE
  5
39DA
330
38E4
100
AcDbEntity
  8
ZUWAKU
100
AcDbLine
 10
13.69610599363329
 20
11.36250161593983
 30
0.0
 11
13.69610599363329
 21
10.48750161593983
 31
0.0
  0
LINE
  5
39DB
330
38E4
100
AcDbEntity
  8
ZUWAKU
100
AcDbLine
 10
19.18824905129122
 20
11.28345463185633
 30
0.0
 11
18.65742923472225
 21
9.602525212721559
 31
0.0
  0
ARC
  5
39DC
330
38E4
100
AcDbEntity
  8
ZUWAKU
100
AcDbCircle
 10
25.9461059936333
 20
11.36250161593983
 30
0.0
 40
0.2625
100
AcDbArc
 50
0.0
 51
90.0
  0
LINE
  5
39DD
330
38E4
100
AcDbEntity
  8
ZUWAKU
100
AcDbLine
 10
28.65860599363328
 20
11.62500161593982
 30
0.0
 11
27.78360599363328
 21
11.62500161593982
 31
0.0
  0
ARC
  5
39DE
330
38E4
100
AcDbEntity
  8
ZUWAKU
100
AcDbCircle
 10
27.78360599363328
 20
11.36250161593983
 30
0.0
 40
0.2625
100
AcDbArc
 50
90.0
 51
180.0
  0
ARC
  5
39DF
330
38E4
100
AcDbEntity
  8
ZUWAKU
100
AcDbCircle
 10
28.65860599363328
 20
11.36250161593983
 30
0.0
 40
0.2625
100
AcDbArc
 50
0.0
 51
90.0
  0
ARC
  5
39E0
330
38E4
100
AcDbEntity
  8
ZUWAKU
100
AcDbCircle
 10
21.48360599363332
 20
11.36250161593983
 30
0.0
 40
0.2625
100
AcDbArc
 50
0.0
 51
90.0
  0
LINE
  5
39E1
330
38E4
100
AcDbEntity
  8
ZUWAKU
100
AcDbLine
 10
24.1961059936333
 20
11.62500161593982
 30
0.0
 11
25.9461059936333
 21
11.62500161593982
 31
0.0
  0
ARC
  5
39E2
330
38E4
100
AcDbEntity
  8
ZUWAKU
100
AcDbCircle
 10
25.9461059936333
 20
10.48750161593983
 30
0.0
 40
0.2625
100
AcDbArc
 50
270.0
 51
0.0
  0
ARC
  5
39E3
330
38E4
100
AcDbEntity
  8
ZUWAKU
100
AcDbCircle
 10
24.45860599363323
 20
9.9625016159398
 30
0.0
 40
0.2625
100
AcDbArc
 50
90.0
 51
180.0
  0
LINE
  5
39E4
330
38E4
100
AcDbEntity
  8
ZUWAKU
100
AcDbLine
 10
25.9461059936333
 20
10.22500161593984
 30
0.0
 11
24.45860599363323
 21
10.22500161593984
 31
0.0
  0
ARC
  5
39E5
330
38E4
100
AcDbEntity
  8
ZUWAKU
100
AcDbCircle
 10
24.1961059936333
 20
10.22500161593984
 30
0.0
 40
1.399999999999999
100
AcDbArc
 50
90.0
 51
180.0
  0
LINE
  5
39E6
330
38E4
100
AcDbEntity
  8
ZUWAKU
100
AcDbLine
 10
26.20860599363323
 20
11.36250161593983
 30
0.0
 11
26.20860599363323
 21
10.48750161593983
 31
0.0
  0
ARC
  5
39E7
330
38E4
100
AcDbEntity
  8
ZUWAKU
100
AcDbCircle
 10
34.2586059936333
 20
11.36250161593983
 30
0.0
 40
0.2625
100
AcDbArc
 50
0.0
 51
90.0
  0
ARC
  5
39E8
330
38E4
100
AcDbEntity
  8
ZUWAKU
100
AcDbCircle
 10
30.93360599363325
 20
11.36250161593983
 30
0.0
 40
0.2625
100
AcDbArc
 50
90.0
 51
180.0
  0
LINE
  5
39E9
330
38E4
100
AcDbEntity
  8
ZUWAKU
100
AcDbLine
 10
31.80860599363325
 20
11.62500161593982
 30
0.0
 11
30.93360599363325
 21
11.62500161593982
 31
0.0
  0
ARC
  5
39EA
330
38E4
100
AcDbEntity
  8
ZUWAKU
100
AcDbCircle
 10
31.80860599363325
 20
11.36250161593983
 30
0.0
 40
0.2625
100
AcDbArc
 50
0.0
 51
90.0
  0
ARC
  5
39EB
330
38E4
100
AcDbEntity
  8
ZUWAKU
100
AcDbCircle
 10
33.3836059936333
 20
11.36250161593983
 30
0.0
 40
0.2625
100
AcDbArc
 50
90.0
 51
180.0
  0
LINE
  5
39EC
330
38E4
100
AcDbEntity
  8
ZUWAKU
100
AcDbLine
 10
34.2586059936333
 20
11.62500161593982
 30
0.0
 11
33.3836059936333
 21
11.62500161593982
 31
0.0
  0
TEXT
  5
39ED
330
38E4
100
AcDbEntity
  8
ZUWAKU
100
AcDbText
 10
104.8620230723813
 20
12.02767988513261
 30
0.0
 40
2.0
  1
品名
 41
0.9
  7
ｽﾀｲﾙ1
100
AcDbText
  0
LINE
  5
39EE
330
38E4
100
AcDbEntity
  8
ZUWAKU
100
AcDbLine
 10
223.7121819017384
 20
15.00000161593982
 30
0.0
 11
223.7121819017384
 21
0.400001615939857
 31
0.0
  0
LINE
  5
39EF
330
38E4
100
AcDbEntity
  8
ZUWAKU
100
AcDbLine
 10
223.9121819017384
 20
15.00000161593982
 30
0.0
 11
223.9121819017384
 21
0.400001615939857
 31
0.0
  0
LINE
  5
39F0
330
38E4
100
AcDbEntity
  8
ZUWAKU
100
AcDbLine
 10
223.8121819017383
 20
15.00000161593982
 30
0.0
 11
223.8121819017384
 21
0.400001615939857
 31
0.0
  0
TEXT
  5
39F1
330
38E4
100
AcDbEntity
  8
ZUWAKU
100
AcDbText
 10
224.6509044128432
 20
12.02767988513261
 30
0.0
 40
2.0
  1
品番
 41
0.9
  7
ｽﾀｲﾙ1
100
AcDbText
  0
TEXT
  5
39F2
330
38E4
100
AcDbEntity
  8
ZUWAKU
100
AcDbText
 10
354.2640420123645
 20
8.776921283783224
 30
0.0
 40
3.0
  1
積水化学工業株式会社
 41
0.9
  7
ｽﾀｲﾙ1
100
AcDbText
  0
LINE
  5
39F3
330
38E4
100
AcDbEntity
  8
ZUWAKU
100
AcDbLine
 10
348.9245051905133
 20
15.00000161593982
 30
0.0
 11
348.9245051905133
 21
0.400001615939857
 31
0.0
  0
LINE
  5
39F4
330
38E4
100
AcDbEntity
  8
ZUWAKU
100
AcDbLine
 10
348.8245051905133
 20
15.00000161593982
 30
0.0
 11
348.8245051905134
 21
0.400001615939857
 31
0.0
  0
LINE
  5
39F5
330
38E4
100
AcDbEntity
  8
ZUWAKU
100
AcDbLine
 10
348.7245051905134
 20
15.00000161593982
 30
0.0
 11
348.7245051905134
 21
0.400001615939857
 31
0.0
  0
LINE
  5
39F6
330
38E4
100
AcDbEntity
  8
ZUWAKU
100
AcDbLine
 10
348.6245051905133
 20
15.00000161593982
 30
0.0
 11
348.6245051905133
 21
0.400001615939857
 31
0.0
  0
LINE
  5
39F7
330
38E4
100
AcDbEntity
  8
ZUWAKU
100
AcDbLine
 10
324.208601171345
 20
15.00000161593982
 30
0.0
 11
324.208601171345
 21
0.400001615939857
 31
0.0
  0
LINE
  5
39F8
330
38E4
100
AcDbEntity
  8
ZUWAKU
100
AcDbLine
 10
324.4086011713449
 20
15.00000161593982
 30
0.0
 11
324.4086011713451
 21
0.400001615939857
 31
0.0
  0
LINE
  5
39F9
330
38E4
100
AcDbEntity
  8
ZUWAKU
100
AcDbLine
 10
324.3086011713448
 20
15.00000161593982
 30
0.0
 11
324.308601171345
 21
0.400001615939857
 31
0.0
  0
LINE
  5
39FA
330
38E4
100
AcDbEntity
  8
ZUWAKU
100
AcDbLine
 10
276.2634777992989
 20
15.00000161593982
 30
0.0
 11
276.2634777992989
 21
0.400001615939857
 31
0.0
  0
LINE
  5
39FB
330
38E4
100
AcDbEntity
  8
ZUWAKU
100
AcDbLine
 10
276.4634777992989
 20
15.00000161593982
 30
0.0
 11
276.4634777992989
 21
0.400001615939857
 31
0.0
  0
LINE
  5
39FC
330
38E4
100
AcDbEntity
  8
ZUWAKU
100
AcDbLine
 10
276.363477799299
 20
15.00000161593982
 30
0.0
 11
276.363477799299
 21
0.400001615939857
 31
0.0
  0
TEXT
  5
39FD
330
38E4
100
AcDbEntity
  8
MOJI
100
AcDbText
 10
264.0204539023991
 20
9.002462144643516
 30
0.0
 40
2.799999999999999
  1
Ａ３
 41
0.9
  7
ｽﾀｲﾙ1
100
AcDbText
  0
LINE
  5
39FE
330
38E4
100
AcDbEntity
  8
ZUWAKU
100
AcDbLine
 10
252.3995896653132
 20
15.00000161593982
 30
0.0
 11
252.3995896653132
 21
0.400001615939857
 31
0.0
  0
LINE
  5
39FF
330
38E4
100
AcDbEntity
  8
ZUWAKU
100
AcDbLine
 10
252.5995896653132
 20
15.00000161593982
 30
0.0
 11
252.5995896653133
 21
0.400001615939857
 31
0.0
  0
LINE
  5
3A00
330
38E4
100
AcDbEntity
  8
ZUWAKU
100
AcDbLine
 10
252.4995896653131
 20
15.00000161593982
 30
0.0
 11
252.4995896653132
 21
0.400001615939857
 31
0.0
  0
TEXT
  5
3A01
330
38E4
100
AcDbEntity
  8
ZUWAKU
100
AcDbText
 10
327.2560379160861
 20
9.002462144643516
 30
0.0
 40
2.799999999999999
  1
　　．　．　　
 41
0.9
  7
ｽﾀｲﾙ1
100
AcDbText
  0
LINE
  5
3A02
330
38E4
100
AcDbEntity
  8
ZUWAKU
100
AcDbLine
 10
252.5995896653132
 20
7.800001615939834
 30
0.0
 11
276.2634777992989
 21
7.800001615939834
 31
0.0
  0
LINE
  5
3A03
330
38E4
100
AcDbEntity
  8
ZUWAKU
100
AcDbLine
 10
252.5995896653132
 20
7.700001615939811
 30
0.0
 11
276.2634777992989
 21
7.700001615939811
 31
0.0
  0
LINE
  5
3A04
330
38E4
100
AcDbEntity
  8
ZUWAKU
100
AcDbLine
 10
252.5995896653132
 20
7.600001615939845
 30
0.0
 11
276.2634777992989
 21
7.600001615939845
 31
0.0
  0
TEXT
  5
3A05
330
38E4
100
AcDbEntity
  8
ZUWAKU
100
AcDbText
 10
253.3383121764181
 20
4.827679885132624
 30
0.0
 40
2.0
  1
縮尺
 41
0.9
  7
ｽﾀｲﾙ1
100
AcDbText
  0
TEXT
  5
3A06
330
38E4
100
AcDbEntity
  8
MOJI
100
AcDbText
 10
264.0204539023991
 20
1.602462144643538
 30
0.0
 40
2.799999999999999
  1
１/１
 41
0.9
  7
ｽﾀｲﾙ1
100
AcDbText
  0
LINE
  5
3A07
330
38E4
100
AcDbEntity
  8
ZUWAKU
100
AcDbLine
 10
324.4086011713448
 20
7.800001615939834
 30
0.0
 11
348.6245051905133
 21
7.800001615939834
 31
0.0
  0
LINE
  5
3A08
330
38E4
100
AcDbEntity
  8
ZUWAKU
100
AcDbLine
 10
324.4086011713449
 20
7.700001615939868
 30
0.0
 11
348.6245051905133
 21
7.700001615939811
 31
0.0
  0
LINE
  5
3A09
330
38E4
100
AcDbEntity
  8
ZUWAKU
100
AcDbLine
 10
324.4086011713448
 20
7.600001615939845
 30
0.0
 11
348.6245051905133
 21
7.600001615939845
 31
0.0
  0
TEXT
  5
3A0A
330
38E4
100
AcDbEntity
  8
ZUWAKU
100
AcDbText
 10
253.338312176418
 20
12.02767988513261
 30
0.0
 40
2.0
  1
用紙
 41
0.9
  7
ｽﾀｲﾙ1
100
AcDbText
  0
TEXT
  5
3A0B
330
38E4
100
AcDbEntity
  8
ZUWAKU
100
AcDbText
 10
325.1473236824496
 20
12.02767988513261
 30
0.0
 40
2.0
  1
DATE
 41
0.9
  7
ｽﾀｲﾙ1
100
AcDbText
  0
LINE
  5
3A0C
330
38E4
100
AcDbEntity
  8
ﾌﾞﾗｹｯﾄ本体
100
AcDbLine
 10
184.8167976773445
 20
122.5530885717131
 30
0.0
 11
198.5358057341814
 21
122.5530885717131
 31
0.0
  0
ARC
  5
3A0D
330
38E4
100
AcDbEntity
  8
ﾌﾞﾗｹｯﾄ本体
100
AcDbCircle
 10
195.2032355608462
 20
110.5367859333618
 30
0.0
 40
2.996321074338088
100
AcDbArc
 50
0.0082774037284371
 51
89.99172259631064
  0
LINE
  5
3A0E
330
38E4
100
AcDbEntity
  8
ﾌﾞﾗｹｯﾄ本体
100
AcDbLine
 10
198.1995566037185
 20
110.5372192390713
 30
0.0
 11
198.1995571251172
 21
110.5349350165749
 31
0.0
  0
LINE
  5
3A0F
330
38E4
100
AcDbEntity
  8
ﾌﾞﾗｹｯﾄ本体
100
AcDbLine
 10
195.2013846440586
 20
113.5331074976322
 30
0.0
 11
195.2036688665557
 21
113.5331069762341
 31
0.0
  0
LINE
  5
3A10
330
38E4
100
AcDbEntity
  8
ﾌﾞﾗｹｯﾄ本体
100
AcDbLine
 10
189.104667596308
 20
113.533107241837
 30
0.0
 11
189.1062669028106
 21
113.5331074976322
 31
0.0
  0
LINE
  5
3A11
330
38E4
100
AcDbEntity
  8
ﾌﾞﾗｹｯﾄ本体
100
AcDbLine
 10
186.2889063465227
 20
111.5603703982748
 30
0.0
 11
186.2894535819305
 21
111.5618731673066
 31
0.0
  0
ARC
  5
3A12
330
38E4
100
AcDbEntity
  8
ﾌﾞﾗｹｯﾄ本体
100
AcDbCircle
 10
189.1053313140637
 20
110.5362711757802
 30
0.0
 40
2.996836139569222
100
AcDbArc
 50
90.01268661124703
 51
159.9873133884466
  0
LINE
  5
3A13
330
38E4
100
AcDbEntity
  8
ﾌﾞﾗｹｯﾄ本体
100
AcDbLine
 10
189.1062669028106
 20
113.5331074976322
 30
0.0
 11
198.2060985742828
 21
113.5331074976322
 31
0.0
  0
LINE
  5
3A14
330
38E4
100
AcDbEntity
  8
ﾌﾞﾗｹｯﾄ本体
100
AcDbLine
 10
173.5307544293573
 20
112.0601964525965
 30
0.0
 11
173.5293813866119
 21
112.0559996529234
 31
0.0
  0
LINE
  5
3A15
330
38E4
100
AcDbEntity
  8
ﾌﾞﾗｹｯﾄ本体
100
AcDbLine
 10
174.2688849750484
 20
114.3176080736477
 30
0.0
 11
173.5307544293573
 21
112.0601964525965
 31
0.0
  0
LINE
  5
3A16
330
38E4
100
AcDbEntity
  8
ﾌﾞﾗｹｯﾄ本体
100
AcDbLine
 10
198.1995571251172
 20
106.0407644143819
 30
0.0
 11
198.1995571251172
 21
106.0396008125905
 31
0.0
  0
LINE
  5
3A17
330
38E4
100
AcDbEntity
  8
ﾌﾞﾗｹｯﾄ本体
100
AcDbLine
 10
175.2436590452816
 20
108.6751755798815
 30
0.0
 11
177.0166411311438
 21
114.0862248025002
 31
0.0
  0
LINE
  5
3A18
330
38E4
100
AcDbEntity
  8
ﾌﾞﾗｹｯﾄ本体
100
AcDbLine
 10
198.1995571251172
 20
110.5349350165749
 30
0.0
 11
198.1995571251172
 21
106.0407644143819
 31
0.0
  0
ARC
  5
3A19
330
38E4
100
AcDbEntity
  8
ﾌﾞﾗｹｯﾄ本体
100
AcDbCircle
 10
198.2060985742828
 20
110.5331074976322
 30
0.0
 40
3.0
100
AcDbArc
 50
0.0
 51
90.0
  0
ELLIPSE
  5
3A1A
330
38E4
100
AcDbEntity
  8
ﾌﾞﾗｹｯﾄ本体
100
AcDbEllipse
 10
185.6809446794818
 20
110.5721326342061
 30
0.0
 11
-7.054202806002763
 21
9.728323645785735
 31
0.0
210
0.0
220
0.0
230
1.0
 40
0.9986068812209275
 41
5.727175668309327
 42
6.909578808483113
  0
ELLIPSE
  5
3A1B
330
38E4
100
AcDbEntity
  8
ﾌﾞﾗｹｯﾄ本体
100
AcDbEllipse
 10
184.6244278331269
 20
111.5767197909209
 30
0.0
 11
-4.702545726026471
 21
6.492629916669272
 31
0.0
210
0.0
220
0.0
230
1.0
 40
0.9979114089306353
 41
5.656860272180487
 42
6.90951034217871
  0
LINE
  5
3A1C
330
38E4
100
AcDbEntity
  8
ﾌﾞﾗｹｯﾄ本体
100
AcDbLine
 10
184.6123304516745
 20
119.5877052209021
 30
0.0
 11
198.7267811570072
 21
119.5809902055433
 31
0.0
  0
LINE
  5
3A1D
330
38E4
100
AcDbEntity
  8
ﾌﾞﾗｹｯﾄ本体
100
AcDbLine
 10
198.7263060544301
 20
116.4791710262096
 30
0.0
 11
189.1149787046092
 21
116.4791710262096
 31
0.0
  0
ELLIPSE
  5
3A1E
330
38E4
100
AcDbEntity
  8
ﾌﾞﾗｹｯﾄ本体
100
AcDbEllipse
 10
189.12650192726
 20
110.4709369502221
 30
0.0
 11
-3.448494706694192
 21
4.924960841651683
 31
0.0
210
0.0
220
0.0
230
0.9999999999999998
 40
0.9979596637958444
 41
5.673279357049633
 42
6.893091257309555
  0
ELLIPSE
  5
3A1F
330
38E4
100
AcDbEntity
  8
ﾌﾞﾗｹｯﾄ本体
100
AcDbEllipse
 10
198.723563243187
 20
118.5796192771564
 30
0.0
 11
0.7092139681510047
 21
0.7088766365803281
 31
0.0
210
0.0
220
0.0
230
1.0
 40
0.9972659840229013
 41
5.499393898438226
 42
7.066976715920911
  0
LINE
  5
3A20
330
38E4
100
AcDbEntity
  8
ﾌﾞﾗｹｯﾄ本体
100
AcDbLine
 10
199.7249355891849
 20
118.5823607838047
 30
0.0
 11
199.7249355891849
 21
117.4778005609642
 31
0.0
  0
ELLIPSE
  5
3A21
330
38E4
100
AcDbEntity
  8
ﾌﾞﾗｹｯﾄ本体
100
AcDbEllipse
 10
198.723563243187
 20
117.4805433722075
 30
0.0
 11
0.7090462434351251
 21
-0.7090462434350683
 31
0.0
210
0.0
220
0.0
230
1.0
 40
0.9972646886341632
 41
5.499156671652487
 42
7.067213942706689
  0
ARC
  5
3A22
330
38E4
100
AcDbEntity
  8
ﾌﾞﾗｹｯﾄ本体
100
AcDbCircle
 10
198.5387094113366
 20
114.5531074976321
 30
0.0
 40
8.0
100
AcDbArc
 50
0.0
 51
90.0
  0
LINE
  5
3A23
330
38E4
100
AcDbEntity
  8
ﾌﾞﾗｹｯﾄ本体
100
AcDbLine
 10
201.2060984388027
 20
100.8022447380778
 30
0.0
 11
201.2060985742828
 21
100.801081021502
 31
0.0
  0
ARC
  5
3A24
330
38E4
100
AcDbEntity
  8
ﾌﾞﾗｹｯﾄ本体
100
AcDbCircle
 10
198.2090889754581
 20
100.8016735281171
 30
0.0
 40
2.997009517780023
100
AcDbArc
 50
0.0109190950597912
 51
53.98818296557586
  0
LINE
  5
3A25
330
38E4
100
AcDbEntity
  8
ﾌﾞﾗｹｯﾄ本体
100
AcDbLine
 10
199.9702456747691
 20
103.2266258919741
 30
0.0
 11
199.9711870509018
 21
103.2259417521738
 31
0.0
  0
LINE
  5
3A26
330
38E4
100
AcDbEntity
  8
ﾌﾞﾗｹｯﾄ本体
100
AcDbLine
 10
199.4354100246291
 20
103.6152195439101
 30
0.0
 11
199.9702456747691
 21
103.2266258919741
 31
0.0
  0
LINE
  5
3A27
330
38E4
100
AcDbEntity
  8
ﾌﾞﾗｹｯﾄ本体
100
AcDbLine
 10
199.4344686617241
 20
103.6159035066359
 30
0.0
 11
199.4354100246291
 21
103.6152195439101
 31
0.0
  0
LINE
  5
3A28
330
38E4
100
AcDbEntity
  8
ﾌﾞﾗｹｯﾄ本体
100
AcDbLine
 10
201.2060985742828
 20
95.69618152305309
 30
0.0
 11
201.2060985058651
 21
95.69535462918423
 31
0.0
  0
ARC
  5
3A29
330
38E4
100
AcDbEntity
  8
ﾌﾞﾗｹｯﾄ本体
100
AcDbCircle
 10
198.2090260038458
 20
95.69578899071775
 30
0.0
 40
2.997072533495267
100
AcDbArc
 50
326.3139580691506
 51
359.9916965964563
  0
LINE
  5
3A2A
330
38E4
100
AcDbEntity
  8
ﾌﾞﾗｹｯﾄ本体
100
AcDbLine
 10
201.2060985058651
 20
87.11033263406415
 30
0.0
 11
201.2060985742828
 21
87.10950574019552
 31
0.0
  0
ARC
  5
3A2B
330
38E4
100
AcDbEntity
  8
ﾌﾞﾗｹｯﾄ本体
100
AcDbCircle
 10
198.2090260038458
 20
87.10989827253087
 30
0.0
 40
2.997072533495495
100
AcDbArc
 50
0.0083034035437287
 51
33.68604193084939
  0
LINE
  5
3A2C
330
38E4
100
AcDbEntity
  8
ﾌﾞﾗｹｯﾄ本体
100
AcDbLine
 10
200.7028578867667
 20
88.77219978271289
 30
0.0
 11
200.7027827868842
 21
88.77231244468857
 31
0.0
  0
ARC
  5
3A2D
330
38E4
100
AcDbEntity
  8
ﾌﾞﾗｹｯﾄ本体
100
AcDbCircle
 10
203.1966405591302
 20
90.43459474245736
 30
0.0
 40
2.997083416201892
100
AcDbArc
 50
180.0051583863735
 51
213.6854618230946
  0
LINE
  5
3A2E
330
38E4
100
AcDbEntity
  8
ﾌﾞﾗｹｯﾄ本体
100
AcDbLine
 10
200.1995571251173
 20
92.37081518785515
 30
0.0
 11
200.1995571251173
 21
90.434872075393
 31
0.0
  0
LINE
  5
3A2F
330
38E4
100
AcDbEntity
  8
ﾌﾞﾗｹｯﾄ本体
100
AcDbLine
 10
200.1995571251173
 20
92.37136236153281
 30
0.0
 11
200.1995571251173
 21
92.37081518785515
 31
0.0
  0
LINE
  5
3A30
330
38E4
100
AcDbEntity
  8
ﾌﾞﾗｹｯﾄ本体
100
AcDbLine
 10
200.1995571251173
 20
90.434872075393
 30
0.0
 11
200.1995571251173
 21
90.43432490171511
 31
0.0
  0
LWPOLYLINE
  5
3A31
330
38E4
100
AcDbEntity
  8
ﾌﾞﾗｹｯﾄ本体
100
AcDbPolyline
 90
        3
 70
     0
 43
0.0
 10
200.1995571550742
 20
92.37136235068664
 10
200.2931414650284
 20
93.11419698162643
 10
200.7027827904367
 20
94.0333748172738
  0
LINE
  5
3A32
330
38E4
100
AcDbEntity
  8
ﾌﾞﾗｹｯﾄ本体
100
AcDbLine
 10
201.2060985742828
 20
84.58310749763217
 30
0.0
 11
206.5387094113376
 21
84.58310791706111
 31
0.0
  0
LINE
  5
3A33
330
38E4
100
AcDbEntity
  8
ﾌﾞﾗｹｯﾄ本体
100
AcDbLine
 10
206.5387094113366
 20
114.5531074976323
 30
0.0
 11
206.5387094113376
 21
84.58310791706111
 31
0.0
  0
LINE
  5
3A34
330
38E4
100
AcDbEntity
  8
ﾌﾞﾗｹｯﾄ本体
100
AcDbLine
 10
201.2060985742828
 20
110.5331074976322
 30
0.0
 11
201.2060985742828
 21
84.58310749763217
 31
0.0
  0
ARC
  5
3A35
330
38E4
100
AcDbEntity
  8
ﾌﾞﾗｹｯﾄ本体
100
AcDbCircle
 10
201.1965667239802
 20
106.0401719077874
 30
0.0
 40
2.997009517822447
100
AcDbArc
 50
180.0109177760722
 51
233.9881842846525
  0
ARC
  5
3A36
330
38E4
100
AcDbEntity
  8
ﾌﾞﾗｹｯﾄ本体
100
AcDbCircle
 10
79.77838281606091
 20
133.0354709687207
 30
0.0
 40
0.4993512674506938
100
AcDbArc
 50
349.7001856775152
 51
89.99496785374526
  0
LINE
  5
3A37
330
38E4
100
AcDbEntity
  8
ﾌﾞﾗｹｯﾄ本体
100
AcDbLine
 10
79.77797060289958
 20
133.5348223588743
 30
0.0
 11
79.27671200201621
 21
133.5348223588743
 31
0.0
  0
ARC
  5
3A38
330
38E4
100
AcDbEntity
  8
ﾌﾞﾗｹｯﾄ本体
100
AcDbCircle
 10
79.27671200201621
 20
129.00846914418
 30
0.0
 40
4.526353214694267
100
AcDbArc
 50
90.0
 51
127.3072112058872
  0
LINE
  5
3A39
330
38E4
100
AcDbEntity
  8
ﾌﾞﾗｹｯﾄ本体
100
AcDbLine
 10
77.24162093608447
 20
122.3340926655552
 30
0.0
 11
77.24162093608629
 21
131.5936045563509
 31
0.0
  0
ARC
  5
3A3A
330
38E4
100
AcDbEntity
  8
ﾌﾞﾗｹｯﾄ本体
100
AcDbCircle
 10
81.3154833041699
 20
127.5322279902872
 30
0.0
 40
1.997405069802443
100
AcDbArc
 50
169.7001856775216
 51
269.9949678537453
  0
ARC
  5
3A3B
330
38E4
100
AcDbEntity
  8
ﾌﾞﾗｹｯﾄ本体
100
AcDbCircle
 10
76.29274758046813
 20
129.2142966705868
 30
0.0
 40
2.018128321909043
100
AcDbArc
 50
154.1851043438459
 51
180.0010964583232
  0
LINE
  5
3A3C
330
38E4
100
AcDbEntity
  8
ﾌﾞﾗｹｯﾄ本体
100
AcDbLine
 10
74.4779343846476
 20
123.9793804095408
 30
0.0
 11
74.4760171830203
 21
123.9833354132715
 31
0.0
  0
ARC
  5
3A3D
330
38E4
100
AcDbEntity
  8
ﾌﾞﾗｹｯﾄ本体
100
AcDbCircle
 10
76.29274758309839
 20
124.8621599621653
 30
0.0
 40
2.018128324539063
100
AcDbArc
 50
179.9989035587949
 51
205.8148956390268
  0
LINE
  5
3A3E
330
38E4
100
AcDbEntity
  8
ﾌﾞﾗｹｯﾄ本体
100
AcDbLine
 10
74.27461925892749
 20
124.8621985820961
 30
0.0
 11
74.27461925892839
 21
129.214258050053
 31
0.0
  0
LINE
  5
3A3F
330
38E4
100
AcDbEntity
  8
ﾌﾞﾗｹｯﾄ本体
100
AcDbLine
 10
74.4760171830203
 20
130.0931212188781
 30
0.0
 11
74.4779343846476
 21
130.0970762226113
 31
0.0
  0
ARC
  5
3A40
330
38E4
100
AcDbEntity
  8
ﾌﾞﾗｹｯﾄ本体
100
AcDbCircle
 10
79.45178709806715
 20
122.434460299167
 30
0.0
 40
2.212443925944471
100
AcDbArc
 50
182.6001183695853
 51
254.2793732736375
  0
ARC
  5
3A41
330
38E4
100
AcDbEntity
  8
ﾌﾞﾗｹｯﾄ本体
100
AcDbCircle
 10
80.77802521533158
 20
127.0382283160747
 30
0.0
 40
7.00340595640272
100
AcDbArc
 50
205.897705088476
 51
270.0
  0
LINE
  5
3A42
330
38E4
100
AcDbEntity
  8
ﾌﾞﾗｹｯﾄ本体
100
AcDbLine
 10
79.35059103054118
 20
127.891157015759
 30
0.0
 11
80.26960588446673
 21
132.9457387123527
 31
0.0
  0
ARC
  5
3A43
330
38E4
100
AcDbEntity
  8
ﾌﾞﾗｹｯﾄ本体
100
AcDbCircle
 10
80.77802521533158
 20
127.0382283160747
 30
0.0
 40
7.003405956402789
100
AcDbArc
 50
127.3072112058872
 51
154.1022949115094
  0
ARC
  5
3A44
330
38E4
100
AcDbEntity
  8
ﾌﾞﾗｹｯﾄ本体
100
AcDbCircle
 10
79.26760219470998
 20
131.5149152114508
 30
0.0
 40
2.027508834332333
100
AcDbArc
 50
96.88946681227278
 51
177.775743364148
  0
LINE
  5
3A45
330
38E4
100
AcDbEntity
  8
ﾌﾞﾗｹｯﾄ本体
100
AcDbLine
 10
93.73175482981606
 20
124.2847975620395
 30
0.0
 11
93.73137011025574
 21
124.2857497763649
 31
0.0
  0
LINE
  5
3A46
330
38E4
100
AcDbEntity
  8
ﾌﾞﾗｹｯﾄ本体
100
AcDbLine
 10
91.87954374762194
 20
125.5348224296719
 30
0.0
 11
91.87851675138881
 21
125.5348224296719
 31
0.0
  0
ARC
  5
3A47
330
38E4
100
AcDbEntity
  8
ﾌﾞﾗｹｯﾄ本体
100
AcDbCircle
 10
91.87910514110445
 20
123.5369130992603
 30
0.0
 40
1.997909220330218
100
AcDbArc
 50
22.01257778538434
 51
89.98742221477582
  0
LINE
  5
3A48
330
38E4
100
AcDbEntity
  8
ﾌﾞﾗｹｯﾄ本体
100
AcDbLine
 10
90.79134228514522
 20
118.477543791582
 30
0.0
 11
92.23548759068762
 21
112.4006331349896
 31
0.0
  0
LINE
  5
3A49
330
38E4
100
AcDbEntity
  8
ﾌﾞﾗｹｯﾄ本体
100
AcDbLine
 10
90.84648811964052
 20
120.4748028610913
 30
0.0
 11
91.93993899109683
 21
120.7685312696346
 31
0.0
  0
LINE
  5
3A4A
330
38E4
100
AcDbEntity
  8
ﾌﾞﾗｹｯﾄ本体
100
AcDbLine
 10
88.00650945632515
 20
116.9638594844297
 30
0.0
 11
88.00706628343869
 21
116.9615182546837
 31
0.0
  0
ARC
  5
3A4B
330
38E4
100
AcDbEntity
  8
ﾌﾞﾗｹｯﾄ本体
100
AcDbCircle
 10
59.35291477551982
 20
111.073184560907
 30
0.0
 40
32.2985953238657
100
AcDbArc
 50
13.25274929193975
 51
15.65038424947191
  0
ARC
  5
3A4C
330
38E4
100
AcDbEntity
  8
ﾌﾞﾗｹｯﾄ本体
100
AcDbCircle
 10
90.93317106086761
 20
119.9693016364505
 30
0.0
 40
0.5128795379162616
100
AcDbArc
 50
99.73039603527324
 51
200.9081533542324
  0
ARC
  5
3A4D
330
38E4
100
AcDbEntity
  8
ﾌﾞﾗｹｯﾄ本体
100
AcDbCircle
 10
91.93919688002097
 20
120.2733895803855
 30
0.0
 40
0.4951422453814471
100
AcDbArc
 50
21.25949289433507
 51
89.91412599325563
  0
LINE
  5
3A4E
330
38E4
100
AcDbEntity
  8
ﾌﾞﾗｹｯﾄ本体
100
AcDbLine
 10
98.87573101660223
 20
111.5530097279233
 30
0.0
 11
93.73175482981606
 21
124.2847975620395
 31
0.0
  0
LINE
  5
3A4F
330
38E4
100
AcDbEntity
  8
ﾌﾞﾗｹｯﾄ本体
100
AcDbLine
 10
84.11781734211581
 20
120.0348223596719
 30
0.0
 11
84.12022387758588
 21
120.0348219253755
 31
0.0
  0
LINE
  5
3A50
330
38E4
100
AcDbEntity
  8
ﾌﾞﾗｹｯﾄ本体
100
AcDbLine
 10
80.77802521533158
 20
120.0348223596722
 30
0.0
 11
84.11781734211581
 21
120.0348223596722
 31
0.0
  0
LINE
  5
3A51
330
38E4
100
AcDbEntity
  8
ﾌﾞﾗｹｯﾄ本体
100
AcDbLine
 10
91.87851675138881
 20
125.5348224296719
 30
0.0
 11
81.31713215680974
 21
125.5348224296719
 31
0.0
  0
ARC
  5
3A52
330
38E4
100
AcDbEntity
  8
ﾌﾞﾗｹｯﾄ本体
100
AcDbCircle
 10
84.1194362157039
 20
116.0393077269545
 30
0.0
 40
3.995514276106281
100
AcDbArc
 50
13.3793544960827
 51
89.98870899884789
  0
ARC
  5
3A53
330
38E4
100
AcDbEntity
  8
ﾌﾞﾗｹｯﾄ本体
100
AcDbCircle
 10
105.364714825404
 20
112.6283678788174
 30
0.0
 40
9.21707065392716
100
AcDbArc
 50
201.3448157940528
 51
236.1612498573994
  0
ARC
  5
3A54
330
38E4
100
AcDbEntity
  8
ﾌﾞﾗｹｯﾄ本体
100
AcDbCircle
 10
356.9690640464528
 20
154.7153166202172
 30
0.0
 40
267.7201451965198
100
AcDbArc
 50
191.1189108525751
 51
192.4878219719492
  0
ARC
  5
3A55
330
38E4
100
AcDbEntity
  8
ﾌﾞﾗｹｯﾄ本体
100
AcDbCircle
 10
102.0378759560953
 20
96.80338535717528
 30
0.0
 40
8.989968637552207
100
AcDbArc
 50
193.379443909088
 51
268.9418407885344
  0
ARC
  5
3A56
330
38E4
100
AcDbEntity
  8
ﾌﾞﾗｹｯﾄ本体
100
AcDbCircle
 10
105.0555454686746
 20
112.5566821213012
 30
0.0
 40
8.987981646070462
100
AcDbArc
 50
237.5439299867899
 51
270.005600963048
  0
LWPOLYLINE
  5
3A57
330
38E4
100
AcDbEntity
  8
ﾌﾞﾗｹｯﾄ本体
100
AcDbPolyline
 90
        4
 70
     0
 43
0.0
 10
96.77987241682059
 20
109.2735396776576
 10
95.73568691530999
 20
111.9427001085977
 10
94.07102862254943
 20
116.1938754226027
 10
92.4006436097261
 20
120.4529244204747
  0
LINE
  5
3A58
330
38E4
100
AcDbEntity
  8
ﾌﾞﾗｹｯﾄ本体
100
AcDbLine
 10
88.00706628343869
 20
116.9615182546837
 30
0.0
 11
93.29067521624166
 21
94.72828500192822
 31
0.0
  0
ARC
  5
3A59
330
38E4
100
AcDbEntity
  8
ﾌﾞﾗｹｯﾄ本体
100
AcDbCircle
 10
-143.8132215455371
 20
55.8507737444865
 30
0.0
 40
242.7279952579918
100
AcDbArc
 50
11.22158848944854
 51
13.47235991696531
  0
ARC
  5
3A5A
330
38E4
100
AcDbEntity
  8
ﾌﾞﾗｹｯﾄ本体
100
AcDbCircle
 10
103.3933810085045
 20
98.55548406402721
 30
0.0
 40
8.0
100
AcDbArc
 50
192.4878219719492
 51
269.1521363401765
  0
ARC
  5
3A5B
330
38E4
100
AcDbEntity
  8
ﾌﾞﾗｹｯﾄ本体
100
AcDbCircle
 10
106.2932018531296
 20
114.5498624752677
 30
0.0
 40
8.0
100
AcDbArc
 50
202.000000000135
 51
270.0
  0
LINE
  5
3A5C
330
38E4
100
AcDbEntity
  8
ﾌﾞﾗｹｯﾄ本体
100
AcDbLine
 10
165.593871405923
 20
86.65063489551057
 30
0.0
 11
183.8626717216939
 21
87.69155848752138
 31
0.0
  0
ARC
  5
3A5D
330
38E4
100
AcDbEntity
  8
ﾌﾞﾗｹｯﾄ本体
100
AcDbCircle
 10
186.4979838492436
 20
90.53394143415216
 30
0.0
 40
0.4991658685565928
100
AcDbArc
 50
329.6828451623436
 51
90.0297970710587
  0
LINE
  5
3A5E
330
38E4
100
AcDbEntity
  8
ﾌﾞﾗｹｯﾄ本体
100
AcDbLine
 10
186.4977243311441
 20
91.03310749763199
 30
0.0
 11
186.4970616551836
 21
91.03310749763199
 31
0.0
  0
LINE
  5
3A5F
330
38E4
100
AcDbEntity
  8
ﾌﾞﾗｹｯﾄ本体
100
AcDbLine
 10
186.9285520691119
 20
90.28139714613251
 30
0.0
 11
186.9288862811863
 21
90.28196937136561
 31
0.0
  0
LINE
  5
3A60
330
38E4
100
AcDbEntity
  8
ﾌﾞﾗｹｯﾄ本体
100
AcDbLine
 10
183.8626717216939
 20
87.69155848752138
 30
0.0
 11
183.8638956638351
 21
87.69162822555717
 31
0.0
  0
LINE
  5
3A61
330
38E4
100
AcDbEntity
  8
ﾌﾞﾗｹｯﾄ本体
100
AcDbLine
 10
186.2804420436768
 20
89.17172775360695
 30
0.0
 11
186.2810603243033
 21
89.1727863502362
 31
0.0
  0
LINE
  5
3A62
330
38E4
100
AcDbEntity
  8
ﾌﾞﾗｹｯﾄ本体
100
AcDbLine
 10
186.2810603243033
 20
89.1727863502362
 30
0.0
 11
186.9285520691119
 21
90.28139714613251
 31
0.0
  0
ARC
  5
3A63
330
38E4
100
AcDbEntity
  8
ﾌﾞﾗｹｯﾄ本体
100
AcDbCircle
 10
183.692822377081
 20
90.68372568744615
 30
0.0
 40
2.996983882125313
100
AcDbArc
 50
273.2723254995698
 51
329.7014018457358
  0
LINE
  5
3A64
330
38E4
100
AcDbEntity
  8
ﾌﾞﾗｹｯﾄ本体
100
AcDbLine
 10
179.728584835726
 20
106.0571750816133
 30
0.0
 11
177.1425171033097
 21
106.0560279679845
 31
0.0
  0
ARC
  5
3A65
330
38E4
100
AcDbEntity
  8
ﾌﾞﾗｹｯﾄ本体
100
AcDbCircle
 10
175.9323620869163
 20
100.5750843831221
 30
0.0
 40
2.99361789425795
100
AcDbArc
 50
339.9378848441857
 51
90.06211515549468
  0
ARC
  5
3A66
330
38E4
100
AcDbEntity
  8
ﾌﾞﾗｹｯﾄ本体
100
AcDbCircle
 10
177.1396475650908
 20
108.0518487454036
 30
0.0
 40
1.995822840291047
100
AcDbArc
 50
161.8011583075805
 51
270.0823782965046
  0
ARC
  5
3A67
330
38E4
100
AcDbEntity
  8
ﾌﾞﾗｹｯﾄ本体
100
AcDbCircle
 10
179.7279937824605
 20
108.0540130213855
 30
0.0
 40
1.996838027246785
100
AcDbArc
 50
270.016959241354
 51
340.0084557018502
  0
ARC
  5
3A68
330
38E4
100
AcDbEntity
  8
ﾌﾞﾗｹｯﾄ本体
100
AcDbCircle
 10
180.2437130284197
 20
92.03168703004843
 30
0.0
 40
0.9985791812147333
100
AcDbArc
 50
159.9958977786528
 51
270.0041022210406
  0
LINE
  5
3A69
330
38E4
100
AcDbEntity
  8
ﾌﾞﾗｹｯﾄ本体
100
AcDbLine
 10
179.3053798524797
 20
92.37328801289022
 30
0.0
 11
179.30575149176
 21
92.37431011855113
 31
0.0
  0
LINE
  5
3A6A
330
38E4
100
AcDbEntity
  8
ﾌﾞﾗｹｯﾄ本体
100
AcDbLine
 10
180.2448716771887
 20
91.03310749763199
 30
0.0
 11
180.2437841039227
 21
91.03310785166645
 31
0.0
  0
ARC
  5
3A6B
330
38E4
100
AcDbEntity
  8
ﾌﾞﾗｹｯﾄ本体
100
AcDbCircle
 10
173.1989690893333
 20
93.07013921789616
 30
0.0
 40
2.995322966658246
100
AcDbArc
 50
273.2539587814215
 51
340.0071263302434
  0
LINE
  5
3A6C
330
38E4
100
AcDbEntity
  8
ﾌﾞﾗｹｯﾄ本体
100
AcDbLine
 10
178.744331078662
 20
99.54815766408017
 30
0.0
 11
176.0137793765079
 21
92.0460285198771
 31
0.0
  0
LINE
  5
3A6D
330
38E4
100
AcDbEntity
  8
ﾌﾞﾗｹｯﾄ本体
100
AcDbLine
 10
186.4970616551836
 20
91.03310749763199
 30
0.0
 11
180.2448716771887
 21
91.03310749763199
 31
0.0
  0
LINE
  5
3A6E
330
38E4
100
AcDbEntity
  8
ﾌﾞﾗｹｯﾄ本体
100
AcDbLine
 10
173.368988922859
 20
90.07964545752855
 30
0.0
 11
165.5585409790319
 21
89.63462009251424
 31
0.0
  0
ARC
  5
3A6F
330
38E4
100
AcDbEntity
  8
ﾌﾞﾗｹｯﾄ本体
100
AcDbCircle
 10
165.9343031599946
 20
114.541198541575
 30
0.0
 40
7.991334480835699
100
AcDbArc
 50
270.0119472726424
 51
341.8812952007117
  0
LINE
  5
3A70
330
38E4
100
AcDbEntity
  8
ﾌﾞﾗｹｯﾄ本体
100
AcDbLine
 10
179.30575149176
 20
92.37431011855113
 30
0.0
 11
186.2889063465227
 21
111.5603703982748
 31
0.0
  0
LINE
  5
3A71
330
38E4
100
AcDbEntity
  8
ﾌﾞﾗｹｯﾄ本体
100
AcDbLine
 10
183.4845498763716
 20
112.5367023173459
 30
0.0
 11
181.6045085120877
 21
107.3713311214125
 31
0.0
  0
LINE
  5
3A72
330
38E4
100
AcDbEntity
  8
ﾌﾞﾗｹｯﾄ本体
100
AcDbLine
 10
165.5585409790319
 20
89.63462009251424
 30
0.0
 11
103.2750012293297
 21
90.55635997273549
 31
0.0
  0
LINE
  5
3A73
330
38E4
100
AcDbEntity
  8
ﾌﾞﾗｹｯﾄ本体
100
AcDbLine
 10
101.8718553967796
 20
87.81494982711473
 30
0.0
 11
165.593871405923
 21
86.65063489551057
 31
0.0
  0
LINE
  5
3A74
330
38E4
100
AcDbEntity
  8
ﾌﾞﾗｹｯﾄ本体
100
AcDbLine
 10
167.457802683889
 20
89.74283663009822
 30
0.0
 11
167.457802683889
 21
103.5687005181757
 31
0.0
  0
MTEXT
  5
3A75
330
38E4
100
AcDbEntity
  8
ﾌﾞﾗｹｯﾄ本体
100
AcDbMText
 10
151.3943233789087
 20
101.1882853168071
 30
0.0
 40
3.174999952316284
 41
9.065584775461012
 71
     1
 72
     5
  1
{\fMS PGothic|b0|i0|c128|p50;UST}
  7
Style2
 73
     1
 44
1.0
  0
MTEXT
  5
3A76
330
38E4
100
AcDbEntity
  8
ﾌﾞﾗｹｯﾄ本体
100
AcDbMText
 10
152.1146054007649
 20
96.48489725212897
 30
0.0
 40
3.174999952316284
 41
9.065599999999999
 71
     1
 72
     5
  1
{\fMS PGothic|b0|i0|c128|p50;140}
  7
Style2
 73
     1
 44
1.0
  0
LINE
  5
3A77
330
38E4
100
AcDbEntity
  8
ﾌﾞﾗｹｯﾄ本体
100
AcDbLine
 10
160.840155625031
 20
89.7017567793793
 30
0.0
 11
160.8401556250328
 21
103.5687005181757
 31
0.0
  0
LINE
  5
3A78
330
38E4
100
AcDbEntity
  8
ﾌﾞﾗｹｯﾄ本体
100
AcDbLine
 10
142.5246192585596
 20
99.53762218341598
 30
0.0
 11
142.5246192585596
 21
101.5376221834159
 31
0.0
  0
LINE
  5
3A79
330
38E4
100
AcDbEntity
  8
ﾌﾞﾗｹｯﾄ本体
100
AcDbLine
 10
142.0246192585596
 20
99.53762218341598
 30
0.0
 11
142.0246192585596
 21
101.5376221834159
 31
0.0
  0
LINE
  5
3A7A
330
38E4
100
AcDbEntity
  8
ﾌﾞﾗｹｯﾄ本体
100
AcDbLine
 10
147.0246192585596
 20
100.037622183416
 30
0.0
 11
147.0246192585596
 21
101.5376221834159
 31
0.0
  0
LINE
  5
3A7B
330
38E4
100
AcDbEntity
  8
ﾌﾞﾗｹｯﾄ本体
100
AcDbLine
 10
147.5246192585596
 20
100.037622183416
 30
0.0
 11
147.5246192585596
 21
101.5376221834159
 31
0.0
  0
LINE
  5
3A7C
330
38E4
100
AcDbEntity
  8
ﾌﾞﾗｹｯﾄ本体
100
AcDbLine
 10
142.0246192585596
 20
99.53762218341598
 30
0.0
 11
142.5246192585596
 21
99.53762218341598
 31
0.0
  0
LINE
  5
3A7D
330
38E4
100
AcDbEntity
  8
ﾌﾞﾗｹｯﾄ本体
100
AcDbLine
 10
147.0246192585596
 20
100.037622183416
 30
0.0
 11
147.5246192585596
 21
100.037622183416
 31
0.0
  0
LINE
  5
3A7E
330
38E4
100
AcDbEntity
  8
ﾌﾞﾗｹｯﾄ本体
100
AcDbLine
 10
142.0246192585596
 20
101.5376221834159
 30
0.0
 11
142.5246192585596
 21
101.5376221834159
 31
0.0
  0
LINE
  5
3A7F
330
38E4
100
AcDbEntity
  8
ﾌﾞﾗｹｯﾄ本体
100
AcDbLine
 10
147.0246192585596
 20
101.5376221834159
 30
0.0
 11
147.5246192585596
 21
101.5376221834159
 31
0.0
  0
LINE
  5
3A80
330
38E4
100
AcDbEntity
  8
ﾌﾞﾗｹｯﾄ本体
100
AcDbLine
 10
137.0246192585596
 20
99.53762218341598
 30
0.0
 11
137.0246192585596
 21
101.5376221834159
 31
0.0
  0
LINE
  5
3A81
330
38E4
100
AcDbEntity
  8
ﾌﾞﾗｹｯﾄ本体
100
AcDbLine
 10
137.5246192585596
 20
99.53762218341598
 30
0.0
 11
137.5246192585596
 21
101.5376221834159
 31
0.0
  0
LINE
  5
3A82
330
38E4
100
AcDbEntity
  8
ﾌﾞﾗｹｯﾄ本体
100
AcDbLine
 10
137.0246192585596
 20
99.53762218341598
 30
0.0
 11
137.5246192585596
 21
99.53762218341598
 31
0.0
  0
LINE
  5
3A83
330
38E4
100
AcDbEntity
  8
ﾌﾞﾗｹｯﾄ本体
100
AcDbLine
 10
137.0246192585596
 20
101.5376221834159
 30
0.0
 11
137.5246192585596
 21
101.5376221834159
 31
0.0
  0
MTEXT
  5
3A84
330
38E4
100
AcDbEntity
  8
ﾌﾞﾗｹｯﾄ本体
100
AcDbMText
 10
145.2680258302339
 20
99.80568712170857
 30
0.0
 40
3.174999952316284
 41
7.572153550054679
 71
     1
 72
     5
  1
45
  7
Style2
 73
     1
 44
1.0
  0
LINE
  5
3A85
330
38E4
100
AcDbEntity
  8
ﾌﾞﾗｹｯﾄ本体
100
AcDbLine
 10
127.0246192585596
 20
99.53762218341598
 30
0.0
 11
127.0246192585596
 21
101.5376221834159
 31
0.0
  0
LINE
  5
3A86
330
38E4
100
AcDbEntity
  8
ﾌﾞﾗｹｯﾄ本体
100
AcDbLine
 10
132.0246192585596
 20
100.037622183416
 30
0.0
 11
132.0246192585596
 21
101.5376221834159
 31
0.0
  0
LINE
  5
3A87
330
38E4
100
AcDbEntity
  8
ﾌﾞﾗｹｯﾄ本体
100
AcDbLine
 10
132.5246192585596
 20
100.037622183416
 30
0.0
 11
132.5246192585596
 21
101.5376221834159
 31
0.0
  0
LINE
  5
3A88
330
38E4
100
AcDbEntity
  8
ﾌﾞﾗｹｯﾄ本体
100
AcDbLine
 10
127.5246192585596
 20
99.53762218341598
 30
0.0
 11
127.5246192585596
 21
101.5376221834159
 31
0.0
  0
LINE
  5
3A89
330
38E4
100
AcDbEntity
  8
ﾌﾞﾗｹｯﾄ本体
100
AcDbLine
 10
127.0246192585596
 20
99.53762218341598
 30
0.0
 11
127.5246192585596
 21
99.53762218341598
 31
0.0
  0
LINE
  5
3A8A
330
38E4
100
AcDbEntity
  8
ﾌﾞﾗｹｯﾄ本体
100
AcDbLine
 10
132.0246192585596
 20
100.037622183416
 30
0.0
 11
132.5246192585596
 21
100.037622183416
 31
0.0
  0
LINE
  5
3A8B
330
38E4
100
AcDbEntity
  8
ﾌﾞﾗｹｯﾄ本体
100
AcDbLine
 10
127.0246192585596
 20
101.5376221834159
 30
0.0
 11
127.5246192585596
 21
101.5376221834159
 31
0.0
  0
LINE
  5
3A8C
330
38E4
100
AcDbEntity
  8
ﾌﾞﾗｹｯﾄ本体
100
AcDbLine
 10
132.0246192585596
 20
101.5376221834159
 30
0.0
 11
132.5246192585596
 21
101.5376221834159
 31
0.0
  0
LINE
  5
3A8D
330
38E4
100
AcDbEntity
  8
ﾌﾞﾗｹｯﾄ本体
100
AcDbLine
 10
117.5246192585596
 20
99.53762218341598
 30
0.0
 11
117.5246192585596
 21
101.5376221834159
 31
0.0
  0
LINE
  5
3A8E
330
38E4
100
AcDbEntity
  8
ﾌﾞﾗｹｯﾄ本体
100
AcDbLine
 10
122.0246192585596
 20
100.037622183416
 30
0.0
 11
122.0246192585596
 21
101.5376221834159
 31
0.0
  0
LINE
  5
3A8F
330
38E4
100
AcDbEntity
  8
ﾌﾞﾗｹｯﾄ本体
100
AcDbLine
 10
122.5246192585596
 20
100.037622183416
 30
0.0
 11
122.5246192585596
 21
101.5376221834159
 31
0.0
  0
LINE
  5
3A90
330
38E4
100
AcDbEntity
  8
ﾌﾞﾗｹｯﾄ本体
100
AcDbLine
 10
122.0246192585596
 20
100.037622183416
 30
0.0
 11
122.5246192585596
 21
100.037622183416
 31
0.0
  0
LINE
  5
3A91
330
38E4
100
AcDbEntity
  8
ﾌﾞﾗｹｯﾄ本体
100
AcDbLine
 10
122.0246192585596
 20
101.5376221834159
 30
0.0
 11
122.5246192585596
 21
101.5376221834159
 31
0.0
  0
LINE
  5
3A92
330
38E4
100
AcDbEntity
  8
ﾌﾞﾗｹｯﾄ本体
100
AcDbLine
 10
119.5878827099422
 20
91.13878810838826
 30
0.0
 11
119.5723054957871
 21
90.28625906760607
 31
0.0
  0
MTEXT
  5
3A93
330
38E4
100
AcDbEntity
  8
ﾌﾞﾗｹｯﾄ本体
100
AcDbMText
 10
120.4603700174329
 20
99.82256641670341
 30
0.0
 40
3.174999952316284
 41
7.572153550054679
 71
     1
 72
     5
  1
20
  7
Style2
 73
     1
 44
1.0
  0
LINE
  5
3A94
330
38E4
100
AcDbEntity
  8
ﾌﾞﾗｹｯﾄ本体
100
AcDbLine
 10
119.5878827099422
 20
101.5376326250679
 30
0.0
 11
119.5878827099422
 21
91.13878810838826
 31
0.0
  0
LINE
  5
3A95
330
38E4
100
AcDbEntity
  8
ﾌﾞﾗｹｯﾄ本体
100
AcDbLine
 10
112.5246192585596
 20
100.037622183416
 30
0.0
 11
112.5246192585596
 21
101.5376221834159
 31
0.0
  0
LINE
  5
3A96
330
38E4
100
AcDbEntity
  8
ﾌﾞﾗｹｯﾄ本体
100
AcDbLine
 10
112.0246192585596
 20
100.037622183416
 30
0.0
 11
112.0246192585596
 21
101.5376221834159
 31
0.0
  0
LINE
  5
3A97
330
38E4
100
AcDbEntity
  8
ﾌﾞﾗｹｯﾄ本体
100
AcDbLine
 10
112.0246192585596
 20
100.037622183416
 30
0.0
 11
112.5246192585596
 21
100.037622183416
 31
0.0
  0
LINE
  5
3A98
330
38E4
100
AcDbEntity
  8
ﾌﾞﾗｹｯﾄ本体
100
AcDbLine
 10
112.0246192585596
 20
101.5376221834159
 30
0.0
 11
112.5246192585596
 21
101.5376221834159
 31
0.0
  0
LINE
  5
3A99
330
38E4
100
AcDbEntity
  8
ﾌﾞﾗｹｯﾄ本体
100
AcDbLine
 10
117.0246192585596
 20
99.53762218341598
 30
0.0
 11
117.0246192585596
 21
101.5376221834159
 31
0.0
  0
MTEXT
  5
3A9A
330
38E4
100
AcDbEntity
  8
ﾌﾞﾗｹｯﾄ本体
100
AcDbMText
 10
110.4670806237195
 20
99.81876654000126
 30
0.0
 40
3.174999952316284
 41
7.572153550054679
 71
     1
 72
     5
  1
10
  7
Style2
 73
     1
 44
1.0
  0
LINE
  5
3A9B
330
38E4
100
AcDbEntity
  8
ﾌﾞﾗｹｯﾄ本体
100
AcDbLine
 10
112.9702356511579
 20
90.37976829862072
 30
0.0
 11
112.9702356511588
 21
103.5687005181757
 31
0.0
  0
LINE
  5
3A9C
330
38E4
100
AcDbEntity
  8
ﾌﾞﾗｹｯﾄ本体
100
AcDbLine
 10
117.0246192585596
 20
99.53762218341598
 30
0.0
 11
117.5246192585596
 21
99.53762218341598
 31
0.0
  0
LINE
  5
3A9D
330
38E4
100
AcDbEntity
  8
ﾌﾞﾗｹｯﾄ本体
100
AcDbLine
 10
117.0246192585596
 20
101.5376221834159
 30
0.0
 11
117.5246192585596
 21
101.5376221834159
 31
0.0
  0
MTEXT
  5
3A9E
330
38E4
100
AcDbEntity
  8
ﾌﾞﾗｹｯﾄ本体
100
AcDbMText
 10
130.6740488631721
 20
99.83884846798543
 30
0.0
 40
3.174999952316284
 41
7.572153550054679
 71
     1
 72
     5
  1
30
  7
Style2
 73
     1
 44
1.0
  0
LINE
  5
3A9F
330
38E4
100
AcDbEntity
  8
ﾌﾞﾗｹｯﾄ本体
100
AcDbLine
 10
105.0564240909561
 20
103.5687005181757
 30
0.0
 11
175.9291166645434
 21
103.5687005181757
 31
0.0
  0
LINE
  5
3AA0
330
38E4
100
AcDbEntity
  8
ﾌﾞﾗｹｯﾄ本体
100
AcDbLine
 10
106.2932018531296
 20
106.5498624752677
 30
0.0
 11
165.9359695070093
 21
106.5498642344721
 31
0.0
  0
LINE
  5
3AA1
330
38E4
100
AcDbEntity
  8
CENTER L
  6
CENTER
 62
     1
 48
3.0
100
AcDbLine
 10
223.3746148485684
 20
112.365885362456
 30
0.0
 11
215.6316202735318
 21
109.6558372611949
 31
0.0
  0
LINE
  5
3AA2
330
38E4
100
AcDbEntity
  8
CENTER L
  6
CENTER
 62
     1
 48
3.0
100
AcDbLine
 10
225.3567173969361
 20
106.7027352242599
 30
0.0
 11
217.6137228218988
 21
103.9926871229983
 31
0.0
  0
LINE
  5
3AA3
330
38E4
100
AcDbEntity
  8
CENTER L
  6
CENTER
 62
     1
 48
3.0
100
AcDbLine
 10
230.3119737678549
 20
92.54485987876845
 30
0.0
 11
222.5689791928163
 21
89.83481177750659
 31
0.0
  0
ARC
  5
3AA4
330
38E4
100
AcDbEntity
  8
製品
100
AcDbCircle
 10
135.5898897373804
 20
115.5499550856192
 30
0.0
 40
9.0
100
AcDbArc
 50
269.9997582577427
 51
319.8551549048033
  0
ARC
  5
3AA5
330
38E4
100
AcDbEntity
  8
製品
100
AcDbCircle
 10
159.507928711487
 20
123.5000516008516
 30
0.0
 40
9.0
100
AcDbArc
 50
90.0
 51
139.855154904804
  0
ARC
  5
3AA6
330
38E4
100
AcDbEntity
  8
製品
100
AcDbCircle
 10
159.3025031924376
 20
123.5011714773126
 30
0.0
 40
4.0
100
AcDbArc
 50
90.0
 51
139.8551549048033
  0
ARC
  5
3AA7
330
38E4
100
AcDbEntity
  8
製品
100
AcDbCircle
 10
135.7962568399105
 20
115.5499516008516
 30
0.0
 40
4.0
100
AcDbArc
 50
270.0
 51
319.8551549048033
  0
LINE
  5
3AA8
330
38E4
100
AcDbEntity
  8
ﾚｲﾔｰ1
  6
Continuous
 62
     7
370
    15
100
AcDbLine
 10
133.2146139269291
 20
113.0499516008525
 30
0.0
 11
127.7146139269296
 21
113.0499516008525
 31
0.0
  0
LINE
  5
3AA9
330
38E4
100
AcDbEntity
  8
CENTER L
  6
CENTER
 62
     1
 48
3.0
100
AcDbLine
 10
127.7146331878964
 20
119.9088082282222
 30
0.0
 11
127.7145470128694
 21
82.51065102194969
 31
0.0
  0
LINE
  5
3AAA
330
38E4
100
AcDbEntity
  8
ﾚｲﾔｰ1
  6
Continuous
 62
     7
370
    15
100
AcDbLine
 10
123.3450139269287
 20
117.1629516008519
 30
0.0
 11
123.0832139269294
 21
116.5344516008516
 31
0.0
  0
ARC
  5
3AAB
330
38E4
100
AcDbEntity
  8
ﾚｲﾔｰ1
  6
Continuous
 62
     7
370
    15
100
AcDbCircle
 10
121.5819730758191
 20
122.2128174503017
 30
0.0
 40
0.4999850647768602
100
AcDbArc
 50
15.00338042546055
 51
105.0063462321887
  0
ARC
  5
3AAC
330
38E4
100
AcDbEntity
  8
ﾚｲﾔｰ1
  6
Continuous
 62
     7
370
    15
100
AcDbCircle
 10
121.5819139269294
 20
122.2128516008528
 30
0.0
 40
1.500003483328416
100
AcDbArc
 50
14.9988346568455
 51
104.9988346568383
  0
LINE
  5
3AAD
330
38E4
100
AcDbEntity
  8
ﾚｲﾔｰ1
  6
Continuous
 62
     7
370
    15
100
AcDbLine
 10
121.1936139269294
 20
123.6616516008529
 30
0.0
 11
119.4413139269279
 21
123.1921516008518
 31
0.0
  0
ARC
  5
3AAE
330
38E4
100
AcDbEntity
  8
ﾚｲﾔｰ1
  6
Continuous
 62
     7
370
    15
100
AcDbCircle
 10
133.8474139269285
 20
122.2128516008523
 30
0.0
 40
0.5000333588877285
100
AcDbArc
 50
75.00215381804993
 51
165.0021538180631
  0
LINE
  5
3AAF
330
38E4
100
AcDbEntity
  8
ﾚｲﾔｰ1
  6
Continuous
 62
     7
370
    15
100
AcDbLine
 10
135.729113926928
 20
122.2262516008517
 30
0.0
 11
133.9767139269281
 21
122.6958516008529
 31
0.0
  0
ARC
  5
3AB0
330
38E4
100
AcDbEntity
  8
ﾚｲﾔｰ1
  6
Continuous
 62
     7
370
    15
100
AcDbCircle
 10
133.8474139269281
 20
122.2128516008519
 30
0.0
 40
1.50000348332961
100
AcDbArc
 50
75.00116534313457
 51
165.0011653431276
  0
LINE
  5
3AB1
330
38E4
100
AcDbEntity
  8
ﾚｲﾔｰ1
  6
Continuous
 62
     7
370
    15
100
AcDbLine
 10
120.6938139269284
 20
118.7068516008525
 30
0.0
 11
119.3764139269281
 21
121.5319516008525
 31
0.0
  0
LINE
  5
3AB2
330
38E4
100
AcDbEntity
  8
ﾚｲﾔｰ1
  6
Continuous
 62
     7
370
    15
100
AcDbLine
 10
118.4701139269277
 20
121.1093516008524
 30
0.0
 11
119.7875139269285
 21
118.2842516008523
 31
0.0
  0
ARC
  5
3AB3
330
38E4
100
AcDbEntity
  8
ﾚｲﾔｰ1
  6
Continuous
 62
     7
370
    15
100
AcDbCircle
 10
135.5997168317556
 20
121.7433453710804
 30
0.0
 40
0.4999420316307203
100
AcDbArc
 50
334.9988444911289
 51
74.99969437057052
  0
LINE
  5
3AB4
330
38E4
100
AcDbEntity
  8
ﾚｲﾔｰ1
  6
Continuous
 62
     7
370
    15
100
AcDbLine
 10
122.2146139269286
 20
113.0499516008525
 30
0.0
 11
122.2146139269286
 21
111.5499516008516
 31
0.0
  0
LINE
  5
3AB5
330
38E4
100
AcDbEntity
  8
ﾚｲﾔｰ1
  6
Continuous
 62
     7
370
    15
100
AcDbLine
 10
130.9646139269282
 20
117.2499516008514
 30
0.0
 11
132.3984139269294
 21
122.6010516008526
 31
0.0
  0
LINE
  5
3AB6
330
38E4
100
AcDbEntity
  8
ﾚｲﾔｰ1
  6
Continuous
 62
     7
370
    15
100
AcDbLine
 10
132.0842139269282
 20
117.1629516008519
 30
0.0
 11
132.3461139269291
 21
116.5345516008518
 31
0.0
  0
LINE
  5
3AB7
330
38E4
100
AcDbEntity
  8
ﾚｲﾔｰ1
  6
Continuous
 62
     7
370
    15
100
AcDbLine
 10
122.214556519368
 20
86.63622223109502
 30
0.0
 11
133.2145565193675
 21
86.63632223109431
 31
0.0
  0
ARC
  5
3AB8
330
38E4
100
AcDbEntity
  8
ﾚｲﾔｰ1
  6
Continuous
 62
     7
370
    15
100
AcDbCircle
 10
127.7144833652776
 20
94.68322223088268
 30
0.0
 40
9.746968980505926
100
AcDbArc
 50
235.648352673635
 51
304.3526890678021
  0
LINE
  5
3AB9
330
38E4
100
AcDbEntity
  8
ﾚｲﾔｰ1
  6
Continuous
 62
     7
370
    15
100
AcDbLine
 10
127.7147139269279
 20
118.5499516008525
 30
0.0
 11
130.2146139269282
 21
118.5499516008525
 31
0.0
  0
LINE
  5
3ABA
330
38E4
100
AcDbEntity
  8
ﾚｲﾔｰ1
  6
Continuous
 62
     7
370
    15
100
AcDbLine
 10
127.7146139269296
 20
117.2499516008514
 30
0.0
 11
130.9646139269282
 21
117.2499516008514
 31
0.0
  0
ARC
  5
3ABB
330
38E4
100
AcDbEntity
  8
ﾚｲﾔｰ1
  6
Continuous
 62
     7
370
    15
100
AcDbCircle
 10
128.8504332671752
 20
122.51054655113
 30
0.0
 40
9.999994428420359
100
AcDbArc
 50
205.0007250444136
 51
235.6961021037266
  0
LINE
  5
3ABC
330
38E4
100
AcDbEntity
  8
ﾚｲﾔｰ1
  6
Continuous
 62
     7
370
    15
100
AcDbLine
 10
134.7355139269282
 20
118.7069516008526
 30
0.0
 11
136.052913926929
 21
121.5320516008527
 31
0.0
  0
LINE
  5
3ABD
330
38E4
100
AcDbEntity
  8
ﾚｲﾔｰ1
  6
Continuous
 62
     7
370
    15
100
AcDbLine
 10
133.3644139269279
 20
122.3422516008526
 30
0.0
 11
132.062813926929
 21
117.4846516008527
 31
0.0
  0
LINE
  5
3ABE
330
38E4
100
AcDbEntity
  8
ﾚｲﾔｰ1
  6
Continuous
 62
     7
370
    15
100
AcDbLine
 10
133.2145565193675
 20
86.63632223109431
 30
0.0
 11
133.2145565193675
 21
87.43632223109404
 31
0.0
  0
ARC
  5
3ABF
330
38E4
100
AcDbEntity
  8
ﾚｲﾔｰ1
  6
Continuous
 62
     7
370
    15
100
AcDbCircle
 10
122.6216542171767
 20
116.726758799466
 30
0.0
 40
0.5000194239284978
100
AcDbArc
 50
222.8739674882364
 51
337.3811237217841
  0
LINE
  5
3AC0
330
38E4
100
AcDbEntity
  8
ﾚｲﾔｰ1
  6
Continuous
 62
     7
370
    15
100
AcDbLine
 10
123.2146139269296
 20
114.2499516008528
 30
0.0
 11
124.4646139269282
 21
117.2499516008514
 31
0.0
  0
LINE
  5
3AC1
330
38E4
100
AcDbEntity
  8
ﾚｲﾔｰ1
  6
Continuous
 62
     7
370
    15
100
AcDbLine
 10
130.2146139269282
 20
118.5499516008525
 30
0.0
 11
130.2146139269282
 21
117.2499516008514
 31
0.0
  0
ARC
  5
3AC2
330
38E4
100
AcDbEntity
  8
ﾚｲﾔｰ1
  6
Continuous
 62
     7
370
    15
100
AcDbCircle
 10
132.5458160379801
 20
117.3552198948404
 30
0.0
 40
0.5000436038993722
100
AcDbArc
 50
164.9987072434231
 51
202.612892858945
  0
ARC
  5
3AC3
330
38E4
100
AcDbEntity
  8
ﾚｲﾔｰ1
  6
Continuous
 62
     7
370
    15
100
AcDbCircle
 10
132.80767054502
 20
116.7268414911826
 30
0.0
 40
0.500009913528724
100
AcDbArc
 50
202.6171817386803
 51
317.1277270512592
  0
LINE
  5
3AC4
330
38E4
100
AcDbEntity
  8
ﾚｲﾔｰ1
  6
Continuous
 62
     7
370
    15
100
AcDbLine
 10
132.2146139269282
 20
114.2499516008528
 30
0.0
 11
131.7146139269291
 21
113.0499516008525
 31
0.0
  0
LINE
  5
3AC5
330
38E4
100
AcDbEntity
  8
ﾚｲﾔｰ1
  6
Continuous
 62
     7
370
    15
100
AcDbLine
 10
133.2146139269291
 20
113.0499516008525
 30
0.0
 11
133.2146139269291
 21
111.5499516008516
 31
0.0
  0
ARC
  5
3AC6
330
38E4
100
AcDbEntity
  8
ﾚｲﾔｰ1
  6
Continuous
 62
     7
370
    15
100
AcDbCircle
 10
126.5788227163868
 20
122.5106132632476
 30
0.0
 40
8.999969641398571
100
AcDbArc
 50
317.1217703283109
 51
334.9992263584089
  0
LINE
  5
3AC7
330
38E4
100
AcDbEntity
  8
ﾚｲﾔｰ1
  6
Continuous
 62
     7
370
    15
100
AcDbLine
 10
125.2146139269291
 20
118.5499516008525
 30
0.0
 11
125.2146139269291
 21
117.2499516008514
 31
0.0
  0
LINE
  5
3AC8
330
38E4
100
AcDbEntity
  8
ﾚｲﾔｰ1
  6
Continuous
 62
     7
370
    15
100
AcDbLine
 10
127.7146139269296
 20
118.5499516008525
 30
0.0
 11
125.2147139269284
 21
118.5499516008525
 31
0.0
  0
LINE
  5
3AC9
330
38E4
100
AcDbEntity
  8
ﾚｲﾔｰ1
  6
Continuous
 62
     7
370
    15
100
AcDbLine
 10
127.7146139269296
 20
117.2499516008514
 30
0.0
 11
124.4646139269282
 21
117.2499516008514
 31
0.0
  0
LINE
  5
3ACA
330
38E4
100
AcDbEntity
  8
ﾚｲﾔｰ1
  6
Continuous
 62
     7
370
    15
100
AcDbLine
 10
123.2146139269296
 20
114.2499516008528
 30
0.0
 11
123.7146139269287
 21
113.0499516008525
 31
0.0
  0
LINE
  5
3ACB
330
38E4
100
AcDbEntity
  8
ﾚｲﾔｰ1
  6
Continuous
 62
     7
370
    15
100
AcDbLine
 10
123.2146139269296
 20
114.2499516008528
 30
0.0
 11
127.7146139269296
 21
114.2499516008528
 31
0.0
  0
LINE
  5
3ACC
330
38E4
100
AcDbEntity
  8
ﾚｲﾔｰ1
  6
Continuous
 62
     7
370
    15
100
AcDbLine
 10
122.2146139269286
 20
113.0499516008525
 30
0.0
 11
127.7146139269296
 21
113.0499516008525
 31
0.0
  0
LINE
  5
3ACD
330
38E4
100
AcDbEntity
  8
ﾚｲﾔｰ1
  6
Continuous
 62
     7
370
    15
100
AcDbLine
 10
132.2146139269282
 20
114.2499516008528
 30
0.0
 11
127.7146139269296
 21
114.2499516008528
 31
0.0
  0
ARC
  5
3ACE
330
38E4
100
AcDbEntity
  8
ﾚｲﾔｰ1
  6
Continuous
 62
     7
370
    15
100
AcDbCircle
 10
126.578673968436
 20
122.5104045620768
 30
0.0
 40
10.00000147691555
100
AcDbArc
 50
304.3054005718868
 51
335.0008236151493
  0
ARC
  5
3ACF
330
38E4
100
AcDbEntity
  8
ﾚｲﾔｰ1
  6
Continuous
 62
     7
370
    15
100
AcDbCircle
 10
119.8296156408314
 20
121.7432552764122
 30
0.0
 40
1.500026259768528
100
AcDbArc
 50
105.0026237458353
 51
204.9985327276496
  0
ARC
  5
3AD0
330
38E4
100
AcDbEntity
  8
ﾚｲﾔｰ1
  6
Continuous
 62
     7
370
    15
100
AcDbCircle
 10
119.8296126662733
 20
121.7432488976977
 30
0.0
 40
0.5000356437274238
100
AcDbArc
 50
104.9976264979316
 51
204.9965994016474
  0
ARC
  5
3AD1
330
38E4
100
AcDbEntity
  8
ﾚｲﾔｰ1
  6
Continuous
 62
     7
370
    15
100
AcDbCircle
 10
122.8835213305422
 20
117.35536273179
 30
0.0
 40
0.4999974598217677
100
AcDbArc
 50
337.3671721303091
 51
14.98576480150447
  0
LINE
  5
3AD2
330
38E4
100
AcDbEntity
  8
ﾚｲﾔｰ1
  6
Continuous
 62
     7
370
    15
100
AcDbLine
 10
132.2146139269282
 20
114.2499516008528
 30
0.0
 11
130.9646139269282
 21
117.2499516008514
 31
0.0
  0
LINE
  5
3AD3
330
38E4
100
AcDbEntity
  8
ﾚｲﾔｰ1
  6
Continuous
 62
     7
370
    15
100
AcDbLine
 10
124.4646139269282
 20
117.2499516008514
 30
0.0
 11
123.0308139269284
 21
122.6010516008526
 31
0.0
  0
LINE
  5
3AD4
330
38E4
100
AcDbEntity
  8
ﾚｲﾔｰ1
  6
Continuous
 62
     7
370
    15
100
AcDbLine
 10
122.0649139269296
 20
122.3422516008526
 30
0.0
 11
123.3665139269294
 21
117.4846516008527
 31
0.0
  0
LINE
  5
3AD5
330
38E4
100
AcDbEntity
  8
ﾚｲﾔｰ1
  6
Continuous
 62
     7
370
    15
100
AcDbLine
 10
133.2146139269291
 20
111.5499516008516
 30
0.0
 11
122.2146139269286
 21
111.5499516008516
 31
0.0
  0
LINE
  5
3AD6
330
38E4
100
AcDbEntity
  8
ﾚｲﾔｰ1
  6
Continuous
 62
     7
370
    15
100
AcDbLine
 10
134.2356139269293
 20
123.6617516008517
 30
0.0
 11
135.9879139269294
 21
123.1922516008529
 31
0.0
  0
LINE
  5
3AD7
330
38E4
100
AcDbEntity
  8
ﾚｲﾔｰ1
  6
Continuous
 62
     7
370
    15
100
AcDbLine
 10
119.7001139269293
 20
122.2262516008517
 30
0.0
 11
121.4525139269296
 21
122.6957516008527
 31
0.0
  0
LINE
  5
3AD8
330
38E4
100
AcDbEntity
  8
ﾚｲﾔｰ1
  6
Continuous
 62
     7
370
    15
100
AcDbLine
 10
122.214556519368
 20
86.63622223109502
 30
0.0
 11
122.214556519368
 21
87.4362222310952
 31
0.0
  0
ARC
  5
3AD9
330
38E4
100
AcDbEntity
  8
ﾚｲﾔｰ1
  6
Continuous
 62
     7
370
    15
100
AcDbCircle
 10
128.8506902082288
 20
122.510189648441
 30
0.0
 40
8.999958350741039
100
AcDbArc
 50
204.9978315563679
 51
222.8754850659335
  0
LINE
  5
3ADA
330
38E4
100
AcDbEntity
  8
ﾚｲﾔｰ1
  6
Continuous
 62
     7
370
    15
100
AcDbLine
 10
136.9592139269282
 20
121.1093516008526
 30
0.0
 11
135.6418139269292
 21
118.2843516008519
 31
0.0
  0
ARC
  5
3ADB
330
38E4
100
AcDbEntity
  8
ﾚｲﾔｰ1
  6
Continuous
 62
     7
370
    15
100
AcDbCircle
 10
135.5997060116722
 20
121.7433685760815
 30
0.0
 40
1.499989134940058
100
AcDbArc
 50
334.9960308396904
 51
75.00070549263248
  0
LINE
  5
3ADC
330
38E4
100
AcDbEntity
  8
製品
  6
DASHED
 48
2.0
100
AcDbLine
 10
130.4646192591094
 20
111.549939998056
 30
0.0
 11
130.4645981632725
 21
106.5499767101607
 31
0.0
  0
LINE
  5
3ADD
330
38E4
100
AcDbEntity
  8
製品
100
AcDbLine
 10
112.7146150399353
 20
106.5500516008604
 30
0.0
 11
135.5898517645951
 21
106.5499550856993
 31
0.0
  0
LINE
  5
3ADE
330
38E4
100
AcDbEntity
  8
製品
100
AcDbLine
 10
135.7962568399105
 20
111.5499516008516
 30
0.0
 11
112.714619259134
 21
111.5499516008516
 31
0.0
  0
LINE
  5
3ADF
330
38E4
100
AcDbEntity
  8
製品
100
AcDbLine
 10
116.214619259134
 20
106.5500262856525
 30
0.0
 11
121.214619259134
 21
106.5500262856525
 31
0.0
  0
LINE
  5
3AE0
330
38E4
100
AcDbEntity
  8
製品
  6
DASHED
 48
2.0
100
AcDbLine
 10
121.214619259134
 20
106.5500262856525
 30
0.0
 11
121.214619259134
 21
105.0038145151632
 31
0.0
  0
LINE
  5
3AE1
330
38E4
100
AcDbEntity
  8
製品
  6
DASHED
 48
2.0
100
AcDbLine
 10
121.214619259134
 20
105.0038145151632
 30
0.0
 11
116.214619259134
 21
105.0038145151632
 31
0.0
  0
LINE
  5
3AE2
330
38E4
100
AcDbEntity
  8
製品
  6
DASHED
 48
2.0
100
AcDbLine
 10
116.214619259134
 20
105.0038145151632
 30
0.0
 11
116.214619259134
 21
106.5500262856525
 31
0.0
  0
LINE
  5
3AE3
330
38E4
100
AcDbEntity
  8
製品
  6
DASHED
 48
2.0
100
AcDbLine
 10
124.9646192591585
 20
111.549963203647
 30
0.0
 11
124.9645981633216
 21
106.5499999157517
 31
0.0
  0
LINE
  5
3AE4
330
38E4
100
AcDbEntity
  8
製品
100
AcDbLine
 10
112.714619259134
 20
111.5499516008516
 30
0.0
 11
112.7146150399353
 21
106.5500516008604
 31
0.0
  0
LINE
  5
3AE5
330
38E4
100
AcDbEntity
  8
製品
100
AcDbLine
 10
116.214619259134
 20
106.5500262856525
 30
0.0
 11
118.714619259134
 21
106.5500262856525
 31
0.0
  0
LINE
  5
3AE6
330
38E4
100
AcDbEntity
  8
製品
100
AcDbLine
 10
152.6281755800289
 20
129.3025507908725
 30
0.0
 11
138.8539248983361
 21
112.9710630719534
 31
0.0
  0
LINE
  5
3AE7
330
38E4
100
AcDbEntity
  8
製品
100
AcDbLine
 10
156.2448351340117
 20
126.0800600062108
 30
0.0
 11
142.4696428688385
 21
109.7474558955982
 31
0.0
  0
LINE
  5
3AE8
330
38E4
100
AcDbEntity
  8
製品
100
AcDbLine
 10
225.875365511636
 20
83.57567995395859
 30
0.0
 11
231.5365293615359
 21
85.55708730142177
 31
0.0
  0
LINE
  5
3AE9
330
38E4
100
AcDbEntity
  8
製品
100
AcDbLine
 10
217.2158880188417
 20
126.4732054234053
 30
0.0
 11
231.5365293615359
 21
85.55708730142177
 31
0.0
  0
LINE
  5
3AEA
330
38E4
100
AcDbEntity
  8
製品
100
AcDbLine
 10
217.9417319219058
 20
121.3786474249479
 30
0.0
 11
230.5946572934674
 21
85.22743207759759
 31
0.0
  0
LINE
  5
3AEB
330
38E4
100
AcDbEntity
  8
製品
100
AcDbLine
 10
213.2224401400741
 20
119.7268953013089
 30
0.0
 11
225.875365511636
 21
83.57567995395859
 31
0.0
  0
LINE
  5
3AEC
330
38E4
100
AcDbEntity
  8
製品
100
AcDbLine
 10
213.2224401400741
 20
119.7268953013089
 30
0.0
 11
218.8836039899732
 21
121.7083026487705
 31
0.0
  0
LINE
  5
3AED
330
38E4
100
AcDbEntity
  8
製品
100
AcDbLine
 10
208.7211628115474
 20
132.5000516008524
 30
0.0
 11
159.5079287114868
 21
132.5000516008516
 31
0.0
  0
LINE
  5
3AEE
330
38E4
100
AcDbEntity
  8
製品
100
AcDbLine
 10
159.3025031924376
 20
127.5011714773126
 30
0.0
 11
208.7207708547865
 21
127.5011714773126
 31
0.0
  0
LINE
  5
3AEF
330
38E4
100
AcDbEntity
  8
ﾌﾞﾗｹｯﾄ本体
100
AcDbLine
 10
286.1507893589975
 20
166.2205358551297
 30
0.0
 11
282.3753559335332
 21
164.8991341562176
 31
0.0
  0
LINE
  5
3AF0
330
38E4
100
AcDbEntity
  8
SEIHIN
  6
Continuous
 62
     3
100
AcDbLine
 10
301.5543236028388
 20
182.7525124399197
 30
0.0
 11
282.6770620896821
 21
176.1454709103153
 31
0.0
  0
LINE
  5
3AF1
330
38E4
100
AcDbEntity
  8
SEIHIN
  6
Continuous
 62
     3
100
AcDbLine
 10
334.8375131889405
 20
121.7124316410132
 30
0.0
 11
314.7804287303268
 21
114.6924520804985
 31
0.0
  0
LINE
  5
3AF2
330
38E4
100
AcDbEntity
  8
SEIHIN
  6
Continuous
 62
     3
100
AcDbLine
 10
323.2752483234561
 20
154.7474741138237
 30
0.0
 11
315.7242870866931
 21
152.1046376809567
 31
0.0
  0
LINE
  5
3AF3
330
38E4
100
AcDbEntity
  8
CENTER L
  6
CENTER
 62
     1
 48
3.0
100
AcDbLine
 10
315.3825006446957
 20
112.9722466108746
 30
0.0
 11
282.4616877495604
 21
207.0317120255471
 31
0.0
  0
LINE
  5
3AF4
330
38E4
100
AcDbEntity
  8
CENTER L
  6
CENTER
 62
     1
 48
3.0
100
AcDbLine
 10
292.0812015747376
 20
114.1640896111884
 30
0.0
 11
298.84979861991
 21
116.5330985769986
 31
0.0
  0
LINE
  5
3AF5
330
38E4
100
AcDbEntity
  8
CENTER L
  6
CENTER
 62
     1
 48
3.0
100
AcDbLine
 10
295.0318915684095
 20
131.0890461842862
 30
0.0
 11
286.2400397505317
 21
128.0118980480289
 31
0.0
  0
LINE
  5
3AF6
330
38E4
100
AcDbEntity
  8
CENTER L
  6
CENTER
 62
     1
 48
3.0
100
AcDbLine
 10
292.153217967329
 20
136.4383964540332
 30
0.0
 11
285.3530960530541
 21
134.058353784037
 31
0.0
  0
LINE
  5
3AF7
330
38E4
100
AcDbEntity
  8
SEIHIN
  6
Continuous
 62
     3
100
AcDbLine
 10
294.7234386575488
 20
107.6725055550262
 30
0.0
 11
314.7804287303268
 21
114.6924520804985
 31
0.0
  0
LINE
  5
3AF8
330
38E4
100
AcDbEntity
  8
SEIHIN
  6
Continuous
 62
     3
100
AcDbLine
 10
283.1611737920654
 20
140.707548027837
 30
0.0
 11
290.7120406429935
 21
143.3503514256619
 31
0.0
  0
ARC
  5
3AF9
330
38E4
100
AcDbEntity
  8
SEIHIN
  6
Continuous
 62
     3
100
AcDbCircle
 10
290.5232689717204
 20
129.511028275445
 30
0.0
 40
3.249999999999853
100
AcDbArc
 50
131.9099111672265
 51
86.67018127114785
  0
LINE
  5
3AFA
330
38E4
100
AcDbEntity
  8
SEIHIN
  6
Continuous
 62
     3
100
AcDbLine
 10
281.9341579287895
 20
138.1591304656485
 30
0.0
 11
292.1750210953611
 21
108.8995214183021
 31
0.0
  0
ARC
  5
3AFB
330
38E4
100
AcDbEntity
  8
SEIHIN
  6
Continuous
 62
     3
100
AcDbCircle
 10
294.0627378080929
 20
109.5602222677584
 30
0.0
 40
1.999999999999943
100
AcDbArc
 50
199.290046219187
 51
289.2900462191865
  0
ARC
  5
3AFC
330
38E4
100
AcDbEntity
  8
SEIHIN
  6
Continuous
 62
     3
100
AcDbCircle
 10
283.8218746415214
 20
138.8198313151049
 30
0.0
 40
1.999999999999943
100
AcDbArc
 50
109.2900462191865
 51
199.290046219187
  0
LINE
  5
3AFD
330
38E4
100
AcDbEntity
  8
SEIHIN
  6
Continuous
 62
     3
100
AcDbLine
 10
282.6770620896821
 20
176.1454709103153
 30
0.0
 11
305.3418451666668
 21
111.3889478332175
 31
0.0
  0
LINE
  5
3AFE
330
38E4
100
AcDbEntity
  8
SEIHIN
  6
Continuous
 62
     3
100
AcDbLine
 10
301.5543236028388
 20
182.7525124399197
 30
0.0
 11
324.2191066798226
 21
117.9959893628221
 31
0.0
  0
LINE
  5
3AFF
330
38E4
100
AcDbEntity
  8
CENTER L
  6
CENTER
 62
     1
 48
3.0
100
AcDbLine
 10
296.7543056478996
 20
111.7080663435046
 30
0.0
 11
294.1862935862331
 21
119.0452436625516
 31
0.0
  0
ARC
  5
3B00
330
38E4
100
AcDbEntity
  8
SEIHIN
  6
Continuous
 62
     3
100
AcDbCircle
 10
295.4785253426419
 20
115.3531529299548
 30
0.0
 40
2.100000000000079
100
AcDbArc
 50
199.290046219187
 51
19.29004621918704
  0
ARC
  5
3B01
330
38E4
100
AcDbEntity
  8
SEIHIN
  6
Continuous
 62
     3
100
AcDbCircle
 10
295.4785253426419
 20
115.3531529299548
 30
0.0
 40
2.100000000000079
100
AcDbArc
 50
19.29004621918704
 51
199.290046219187
  0
LINE
  5
3B02
330
38E4
100
AcDbEntity
  8
CENTER L
  6
CENTER
 62
     1
 48
3.0
100
AcDbLine
 10
292.2342859615569
 20
124.6224083044826
 30
0.0
 11
287.3236268979733
 21
138.6528627718636
 31
0.0
  0
LINE
  5
3B03
330
38E4
100
AcDbEntity
  8
SEIHIN
  6
Continuous
 62
     3
100
AcDbLine
 10
290.7120406429935
 20
132.7555413754531
 30
0.0
 11
290.2784557105377
 21
133.9943554681834
 31
0.0
  0
LINE
  5
3B04
330
38E4
100
AcDbEntity
  8
SEIHIN
  6
Continuous
 62
     3
100
AcDbLine
 10
288.3523947520788
 20
131.9296653136329
 30
0.0
 11
287.9188098196229
 21
133.1684794063634
 31
0.0
  0
ARC
  5
3B05
330
38E4
100
AcDbEntity
  8
SEIHIN
  6
Continuous
 62
     3
100
AcDbCircle
 10
288.5411664233518
 20
135.1741784136412
 30
0.0
 40
2.100037202051333
100
AcDbArc
 50
325.8189015861713
 51
252.7611908522104
  0
LINE
  5
3B06
330
38E4
100
AcDbEntity
  8
SEIHIN
  6
Continuous
 62
     3
100
AcDbLine
 10
325.8236658856449
 20
153.5204582505478
 30
0.0
 11
336.0645290522165
 21
124.2608492032016
 31
0.0
  0
ARC
  5
3B07
330
38E4
100
AcDbEntity
  8
SEIHIN
  6
Continuous
 62
     3
100
AcDbCircle
 10
334.1768123394846
 20
123.6001483537453
 30
0.0
 40
2.000000000000056
100
AcDbArc
 50
289.2900462191865
 51
19.29004621918704
  0
LINE
  5
3B08
330
38E4
100
AcDbEntity
  8
CENTER L
  6
CENTER
 62
     1
 48
3.0
100
AcDbLine
 10
332.5250602158438
 20
128.3194401355753
 30
0.0
 11
326.086247280386
 21
126.0658556081651
 31
0.0
  0
ARC
  5
3B09
330
38E4
100
AcDbEntity
  8
SEIHIN
  6
Continuous
 62
     3
100
AcDbCircle
 10
329.4575205576541
 20
127.2458012552092
 30
0.0
 40
2.100000000000022
100
AcDbArc
 50
199.290046219187
 51
19.29004621918704
  0
ARC
  5
3B0A
330
38E4
100
AcDbEntity
  8
SEIHIN
  6
Continuous
 62
     3
100
AcDbCircle
 10
329.4575205576541
 20
127.2458012552092
 30
0.0
 40
2.100000000000022
100
AcDbArc
 50
19.29004621918704
 51
199.290046219187
  0
LINE
  5
3B0B
330
38E4
100
AcDbEntity
  8
CENTER L
  6
CENTER
 62
     1
 48
3.0
100
AcDbLine
 10
330.7333008629119
 20
123.600714668759
 30
0.0
 11
328.1652888012454
 21
130.937891987806
 31
0.0
  0
LINE
  5
3B0C
330
38E4
100
AcDbEntity
  8
CENTER L
  6
CENTER
 62
     1
 48
3.0
100
AcDbLine
 10
326.2132811765692
 20
136.515056629737
 30
0.0
 11
321.3026221129865
 21
150.5455110971179
 31
0.0
  0
LINE
  5
3B0D
330
38E4
100
AcDbEntity
  8
SEIHIN
  6
Continuous
 62
     3
100
AcDbLine
 10
322.3313899670906
 20
143.8223136388871
 30
0.0
 11
321.8978050346352
 21
145.0611277316176
 31
0.0
  0
LINE
  5
3B0E
330
38E4
100
AcDbEntity
  8
SEIHIN
  6
Continuous
 62
     3
100
AcDbLine
 10
324.6910358580059
 20
144.6481897007075
 30
0.0
 11
324.25745092555
 21
145.8870037934376
 31
0.0
  0
LINE
  5
3B0F
330
38E4
100
AcDbEntity
  8
CENTER L
  6
CENTER
 62
     1
 48
3.0
100
AcDbLine
 10
319.9936415900434
 20
139.825658691858
 30
0.0
 11
328.6637356799502
 21
142.8601916233254
 31
0.0
  0
ARC
  5
3B10
330
38E4
100
AcDbEntity
  8
SEIHIN
  6
Continuous
 62
     3
100
AcDbCircle
 10
324.5022641867329
 20
141.403676600699
 30
0.0
 40
3.250000000000153
100
AcDbArc
 50
131.9099111672265
 51
86.67018127114785
  0
LINE
  5
3B11
330
38E4
100
AcDbEntity
  8
CENTER L
  6
CENTER
 62
     1
 48
3.0
100
AcDbLine
 10
318.9081100943869
 20
145.8026086985033
 30
0.0
 11
325.5877012965533
 21
148.1404656192616
 31
0.0
  0
ARC
  5
3B12
330
38E4
100
AcDbEntity
  8
SEIHIN
  6
Continuous
 62
     3
100
AcDbCircle
 10
322.5201616383641
 20
147.0668267388955
 30
0.0
 40
2.100037202051526
100
AcDbArc
 50
325.8189015861713
 51
252.7611908522104
  0
ARC
  5
3B13
330
38E4
100
AcDbEntity
  8
SEIHIN
  6
Continuous
 62
     3
100
AcDbCircle
 10
323.935949172913
 20
152.8597574010917
 30
0.0
 40
2.000000000000056
100
AcDbArc
 50
19.29004621918704
 51
109.2900462191865
  0
DIMENSION
  5
3B14
330
38E4
100
AcDbEntity
  8
寸法
100
AcDbDimension
  2
*D5
 10
270.4633222815148
 20
99.18146482341789
 30
0.0
 11
267.0418357396903
 21
116.524862121644
 31
0.0
 12
-539.7583427699637
 22
98.19583959343345
 32
0.0
 71
     5
 42
35.00000000000017
  3
STANDARD
100
AcDbAlignedDimension
 13
281.2734570793332
 23
140.0468471783808
 33
0.0
 14
292.835721944817
 24
107.01180470557
 34
0.0
 50
109.2900462191796
100
AcDbRotatedDimension
1001
ACAD
1000
DSTYLE
1002
{
1070
    41
1040
3.0
1070
    42
1040
3.0
1070
    43
1040
7.0
1070
    44
1040
1.5
1070
    73
1070
     0
1070
    74
1070
     0
1070
    77
1070
     3
1070
   140
1040
3.0
1070
   141
1040
15.0
1070
   147
1040
1.0
1070
   172
1070
     1
1070
   176
1070
     4
1070
   177
1070
     4
1070
   178
1070
     4
1070
   271
1070
     0
1070
   272
1070
     0
1070
   341
1005
166
1070
   342
1005
166
1002
}
  0
DIMENSION
  5
3B15
330
38E4
100
AcDbEntity
  8
寸法
100
AcDbDimension
  2
*D6
 10
273.3424631292385
 20
137.2709992958489
 30
0.0
 11
276.8583355067014
 21
134.7933711103877
 31
0.0
 12
-539.7583427699637
 22
98.19583959343345
 32
0.0
 71
     5
 42
6.999999999999772
  3
STANDARD
100
AcDbAlignedDimension
 13
285.3530960530541
 23
134.058353784037
 33
0.0
 14
281.2734570793332
 24
140.0468471783808
 34
0.0
 50
109.2900462191796
100
AcDbRotatedDimension
1001
ACAD
1000
DSTYLE
1002
{
1070
    41
1040
3.0
1070
    42
1040
3.0
1070
    43
1040
7.0
1070
    44
1040
1.5
1070
    73
1070
     0
1070
    74
1070
     0
1070
    77
1070
     3
1070
   140
1040
3.0
1070
   141
1040
15.0
1070
   147
1040
1.0
1070
   172
1070
     1
1070
   176
1070
     4
1070
   177
1070
     4
1070
   178
1070
     4
1070
   271
1070
     0
1070
   272
1070
     0
1070
   341
1005
166
1070
   342
1005
166
1002
}
  0
DIMENSION
  5
3B16
330
38E4
100
AcDbEntity
  8
寸法
100
AcDbDimension
  2
*D7
 10
270.4472190301036
 20
122.4844107958817
 30
0.0
 11
270.6595871602871
 21
129.4453661740811
 31
0.0
 12
-539.7583427699637
 22
98.19583959343345
 32
0.0
 71
     5
 42
13.00000000000017
  3
STANDARD
100
AcDbAlignedDimension
 13
281.2734570793332
 23
140.0468471783808
 33
0.0
 14
286.2400397505317
 24
128.0118980480289
 34
0.0
 50
109.2900462191796
100
AcDbRotatedDimension
1001
ACAD
1000
DSTYLE
1002
{
1070
    41
1040
3.0
1070
    42
1040
3.0
1070
    43
1040
7.0
1070
    44
1040
1.5
1070
    73
1070
     0
1070
    74
1070
     0
1070
    77
1070
     3
1070
   140
1040
3.0
1070
   141
1040
15.0
1070
   147
1040
1.0
1070
   172
1070
     1
1070
   176
1070
     4
1070
   177
1070
     4
1070
   178
1070
     4
1070
   271
1070
     0
1070
   272
1070
     0
1070
   341
1005
166
1070
   342
1005
166
1002
}
  0
DIMENSION
  5
3B17
330
38E4
100
AcDbEntity
  8
寸法
100
AcDbDimension
  2
*D8
 10
284.9047279947212
 20
104.2359568230378
 30
0.0
 11
286.1081473990883
 21
108.365337132139
 31
0.0
 12
-539.7583427699637
 22
98.19583959343345
 32
0.0
 71
     5
 42
7.000000000000341
  3
STANDARD
100
AcDbAlignedDimension
 13
292.0812015747376
 23
114.1640896111884
 33
0.0
 14
292.835721944817
 24
107.01180470557
 34
0.0
 50
109.2900462191796
100
AcDbRotatedDimension
1001
ACAD
1000
DSTYLE
1002
{
1070
    41
1040
3.0
1070
    42
1040
3.0
1070
    43
1040
7.0
1070
    44
1040
1.5
1070
    73
1070
     0
1070
    74
1070
     0
1070
    77
1070
     3
1070
   140
1040
3.0
1070
   141
1040
15.0
1070
   147
1040
1.0
1070
   172
1070
     1
1070
   176
1070
     4
1070
   177
1070
     4
1070
   178
1070
     4
1070
   271
1070
     0
1070
   272
1070
     0
1070
   341
1005
166
1070
   342
1005
166
1002
}
  0
DIMENSION
  5
3B18
330
38E4
100
AcDbEntity
  8
寸法
100
AcDbDimension
  2
*D9
 10
334.771354826506
 20
112.0634176299202
 30
0.0
 11
316.9559811571797
 21
108.4767393582075
 31
0.0
 12
-539.7583427699637
 22
98.19583959343345
 32
0.0
 71
     5
 42
36.00010000000009
  3
STANDARD
100
AcDbAlignedDimension
 13
296.7543056478996
 23
111.7080663435046
 33
0.0
 14
330.7333008629119
 24
123.600714668759
 34
0.0
 50
19.29004621919012
100
AcDbRotatedDimension
1001
ACAD
1000
DSTYLE
1002
{
1070
    41
1040
3.0
1070
    42
1040
3.0
1070
    43
1040
7.0
1070
    44
1040
1.5
1070
    73
1070
     0
1070
    74
1070
     0
1070
    77
1070
     3
1070
   140
1040
3.0
1070
   141
1040
15.0
1070
   147
1040
1.0
1070
   172
1070
     1
1070
   176
1070
     4
1070
   177
1070
     4
1070
   178
1070
     4
1070
   271
1070
     0
1070
   272
1070
     0
1070
   341
1005
166
1070
   342
1005
166
1002
}
  0
DIMENSION
  5
3B19
330
38E4
100
AcDbEntity
  8
寸法
100
AcDbDimension
  2
*D10
 10
341.941817476953
 20
107.468596561099
 30
0.0
 11
319.1711874367048
 21
102.1475785595634
 31
0.0
 12
-539.7583427699637
 22
98.19583959343345
 32
0.0
 71
     5
 42
46.50010000000088
  3
STANDARD
100
AcDbAlignedDimension
 13
292.1750210953602
 23
108.8995214183019
 33
0.0
 14
336.0645290522165
 24
124.2608492032017
 34
0.0
 50
19.29004621919012
100
AcDbRotatedDimension
1001
ACAD
1000
DSTYLE
1002
{
1070
    41
1040
3.0
1070
    42
1040
3.0
1070
    43
1040
7.0
1070
    44
1040
1.5
1070
    73
1070
     0
1070
    74
1070
     0
1070
    77
1070
     3
1070
   140
1040
3.0
1070
   141
1040
15.0
1070
   147
1040
1.0
1070
   172
1070
     1
1070
   176
1070
     4
1070
   177
1070
     4
1070
   178
1070
     4
1070
   271
1070
     0
1070
   272
1070
     0
1070
   341
1005
166
1070
   342
1005
166
1002
}
  0
LINE
  5
3B1A
330
38E4
100
AcDbEntity
  8
SEIHIN
  6
Continuous
 62
     3
100
AcDbLine
 10
295.1481749179134
 20
139.6055933967793
 30
0.0
 11
305.058687659757
 21
111.289842705799
 31
0.0
  0
LINE
  5
3B1B
330
38E4
100
AcDbEntity
  8
SEIHIN
  6
Continuous
 62
     3
100
AcDbLine
 10
314.5917514448893
 20
146.4108451812209
 30
0.0
 11
324.5022641867324
 21
118.0950944902404
 31
0.0
  0
LINE
  5
3B1C
330
38E4
100
AcDbEntity
  8
ﾌﾞﾗｹｯﾄ本体
100
AcDbLine
 10
308.8033899117827
 20
174.1489460486024
 30
0.0
 11
305.0280508721539
 21
172.8275773847326
 31
0.0
  0
ARC
  5
3B1D
330
38E4
100
AcDbEntity
  8
ﾌﾞﾗｹｯﾄ本体
100
AcDbCircle
 10
316.9162312651061
 20
172.8001620448557
 30
0.0
 40
35.21893007957917
100
AcDbArc
 50
200.4428387850742
 51
226.8877291146815
  0
ARC
  5
3B1E
330
38E4
100
AcDbEntity
  8
ﾌﾞﾗｹｯﾄ本体
100
AcDbCircle
 10
276.8743586195754
 20
158.78550661892
 30
0.0
 40
35.21893007957917
100
AcDbArc
 50
351.6923633236925
 51
18.13725365330595
  0
LINE
  5
3B1F
330
38E4
100
AcDbEntity
  8
ﾌﾞﾗｹｯﾄ本体
100
AcDbLine
 10
283.9153503815613
 20
160.4991500189953
 30
0.0
 11
269.9065787246344
 21
200.5242118959301
 31
0.0
  0
LINE
  5
3B20
330
38E4
100
AcDbEntity
  8
ﾌﾞﾗｹｯﾄ本体
100
AcDbLine
 10
310.3433843598095
 20
169.7489619113827
 30
0.0
 11
296.3346127028824
 21
209.774023788317
 31
0.0
  0
LEADER
  5
3B21
330
38E4
100
AcDbEntity
  8
寸法
100
AcDbLeader
  3
STANDARD
 76
     3
 10
323.4304187570831
 20
149.0336602042464
 30
0.0
 10
332.2573761754873
 20
161.0876012673884
 30
0.0
 10
355.2961600781953
 20
161.0876012673884
 30
0.0
1001
ACAD
1000
DSTYLE
1002
{
1070
    41
1040
3.0
1070
    42
1040
3.0
1070
    43
1040
7.0
1070
    44
1040
1.5
1070
    73
1070
     0
1070
    74
1070
     0
1070
    77
1070
     0
1070
   140
1040
3.0
1070
   141
1040
15.0
1070
   147
1040
1.0
1070
   172
1070
     1
1070
   176
1070
     4
1070
   177
1070
     4
1070
   178
1070
     4
1070
   271
1070
     0
1070
   272
1070
     0
1070
   341
1005
166
1070
   342
1005
166
1002
}
  0
TEXT
  5
3B22
330
38E4
100
AcDbEntity
  8
図枠
 62
     7
 48
10.0
100
AcDbText
 10
333.1843401648273
 20
161.653105541186
 30
0.0
 40
4.0
  1
4-φ4.2
100
AcDbText
  0
LEADER
  5
3B23
330
38E4
100
AcDbEntity
  8
寸法
100
AcDbLeader
  3
STANDARD
 76
     3
 10
327.7564492951062
 20
139.9381244606815
 30
0.0
 10
341.2056461100089
 20
122.6433042955157
 30
0.0
 10
377.7363937223306
 20
122.6433042955157
 30
0.0
1001
ACAD
1000
DSTYLE
1002
{
1070
    41
1040
3.0
1070
    42
1040
3.0
1070
    43
1040
7.0
1070
    44
1040
1.5
1070
    73
1070
     0
1070
    74
1070
     0
1070
    77
1070
     0
1070
   140
1040
3.0
1070
   141
1040
15.0
1070
   147
1040
1.0
1070
   172
1070
     1
1070
   176
1070
     4
1070
   177
1070
     4
1070
   178
1070
     4
1070
   271
1070
     0
1070
   272
1070
     0
1070
   341
1005
166
1070
   342
1005
166
1002
}
  0
TEXT
  5
3B24
330
38E4
100
AcDbEntity
  8
図枠
 62
     7
 48
10.0
100
AcDbText
 10
342.1459014139316
 20
123.0045167788942
 30
0.0
 40
4.0
  1
2-φ6.5ｱﾝｶｰ用
100
AcDbText
  0
LINE
  5
3B25
330
38E4
100
AcDbEntity
  8
SEIHIN
  6
Continuous
 62
     3
100
AcDbLine
 10
290.7120406429935
 20
143.3503514256619
 30
0.0
 11
292.3637927666344
 21
138.6310596438318
 31
0.0
  0
LINE
  5
3B26
330
38E4
100
AcDbEntity
  8
SEIHIN
  6
Continuous
 62
     3
100
AcDbLine
 10
292.3637927666344
 20
138.6310596438318
 30
0.0
 11
295.4313324248235
 21
139.704698524198
 31
0.0
  0
LINE
  5
3B27
330
38E4
100
AcDbEntity
  8
SEIHIN
  6
Continuous
 62
     3
100
AcDbLine
 10
315.7242870866931
 20
152.1046376809567
 30
0.0
 11
317.3760392103337
 21
147.3853458991267
 31
0.0
  0
LINE
  5
3B28
330
38E4
100
AcDbEntity
  8
SEIHIN
  6
Continuous
 62
     3
100
AcDbLine
 10
317.3760392103337
 20
147.3853458991267
 30
0.0
 11
314.3084995521441
 21
146.3117070187603
 31
0.0
  0
LINE
  5
3B29
330
38E4
100
AcDbEntity
  8
ﾌﾞﾗｹｯﾄ本体
100
AcDbLine
 10
300.5921047690292
 20
197.6097607421848
 30
0.0
 11
274.164070790781
 21
188.3599488497978
 31
0.0
  0
LINE
  5
3B2A
330
38E4
100
AcDbEntity
  8
ﾌﾞﾗｹｯﾄ本体
100
AcDbLine
 10
298.6865887797415
 20
203.0540921401502
 30
0.0
 11
272.2585548014933
 21
193.8042802477634
 31
0.0
  0
LINE
  5
3B2B
330
38E4
100
AcDbEntity
  8
ﾌﾞﾗｹｯﾄ本体
100
AcDbLine
 10
296.3346127028824
 20
209.774023788317
 30
0.0
 11
269.9065787246344
 21
200.5242118959301
 31
0.0
  0
TEXT
  5
3B2C
330
38E4
100
AcDbEntity
  8
MOJI
100
AcDbText
 10
43.69815279395107
 20
6.440027235976344
 30
0.0
 40
2.799999999999999
  1
ユニシェイプＵＳＴ１４０
 41
0.9
  7
MSPｺﾞｼｯｸ
100
AcDbText
  0
TEXT
  5
3B2D
330
38E4
100
AcDbEntity
  8
MOJI
100
AcDbText
 10
119.139397413836
 20
3.100753970633718
 30
0.0
 40
2.799999999999999
  1
UST140-3.5-15～45
 41
0.9
  7
MSPｺﾞｼｯｸ
100
AcDbText
  0
TEXT
  5
3B2E
330
38E4
100
AcDbEntity
  8
MOJI
100
AcDbText
 10
118.9393974138361
 20
10.3007539706337
 30
0.0
 40
2.799999999999999
  1
ブラケット正面打（吊）自在式
 41
0.9
  7
MSPｺﾞｼｯｸ
100
AcDbText
  0
LINE
  5
3B2F
330
38E4
100
AcDbEntity
  8
図枠
 62
     4
100
AcDbLine
 10
234.0881597486499
 20
78.26671476681008
 30
0.0
 11
234.0881597486499
 21
56.71002896913478
 31
0.0
  0
LINE
  5
3B30
330
38E4
100
AcDbEntity
  8
図枠
 62
     4
100
AcDbLine
 10
234.0881597486499
 20
56.71002896913478
 30
0.0
 11
241.6329997778363
 21
56.71002896913491
 31
0.0
  0
TEXT
  5
3B31
330
38E4
100
AcDbEntity
  8
図枠
 62
     7
100
AcDbText
 10
227.3395984176099
 20
62.03941681557955
 30
0.0
 40
4.0
  1
10
100
AcDbText
  0
TEXT
  5
3B32
330
38E4
100
AcDbEntity
  8
図枠
 62
     7
100
AcDbText
 10
233.3519125508977
 20
50.74090381760435
 30
0.0
 40
4.0
  1
3.5
100
AcDbText
  0
TEXT
  5
3B33
330
38E4
100
AcDbEntity
  8
図枠
 62
     7
 48
10.0
100
AcDbText
 10
251.05275817044
 20
63.16043695047404
 30
0.0
 40
4.0
  1
3.5寸勾配
100
AcDbText
  0
ENDBLK
  5
3B35
330
38E4
100
AcDbEntity
  8
0
100
AcDbBlockEnd
  0
BLOCK
  5
41E2
330
41D8
100
AcDbEntity
  8
0
100
AcDbBlockBegin
  2
*D14
 70
     1
 10
0.0
 20
0.0
 30
0.0
  3
*D14
  1

  0
LINE
  5
4E4A
330
41D8
100
AcDbEntity
  8
寸法
 62
     4
370
    -2
100
AcDbLine
 10
817.2938469582307
 20
56.74739211140124
 30
0.0
 11
795.2009044014698
 21
54.53809785572605
 31
0.0
  0
LINE
  5
4E4B
330
41D8
100
AcDbEntity
  8
寸法
 62
     4
370
    -2
100
AcDbLine
 10
820.7764771239656
 20
21.92109045405174
 30
0.0
 11
798.6835345672034
 21
19.7117961983764
 31
0.0
  0
LINE
  5
4E4C
330
41D8
100
AcDbEntity
  8
寸法
 62
     4
370
    -2
100
AcDbLine
 10
796.9919713438478
 20
51.70224186362751
 30
0.0
 11
799.8775791954556
 21
22.84616334753783
 31
0.0
  0
INSERT
  5
4E4D
330
41D8
100
AcDbEntity
  8
寸法
 62
     4
370
    -2
100
AcDbBlockReference
  2
_Open30
 10
796.6934601867849
 20
54.68735343425748
 30
0.0
 41
3.0
 42
3.0
 43
3.0
 50
95.71059313749733
  0
INSERT
  5
4E4E
330
41D8
100
AcDbEntity
  8
寸法
 62
     4
370
    -2
100
AcDbBlockReference
  2
_Open30
 10
800.1760903525184
 20
19.86105177690784
 30
0.0
 41
3.0
 42
3.0
 43
3.0
 50
275.7105931374974
  0
MTEXT
  5
4E4F
330
41D8
100
AcDbEntity
  8
寸法
 62
     4
100
AcDbMText
 10
800.9223682451766
 20
37.522961903135
 30
0.0
 40
3.0
 41
0.0
 71
     5
 72
     1
  1
\A1;35
 11
0.099503719020959
 21
-0.9950371902099931
 31
0.0
 73
     1
 44
1.0
  0
POINT
  5
4E50
330
41D8
100
AcDbEntity
  8
Defpoints
 62
     0
100
AcDbPoint
 10
820.2789585288607
 20
57.04590326846411
 30
0.0
  0
POINT
  5
4E51
330
41D8
100
AcDbEntity
  8
Defpoints
 62
     0
100
AcDbPoint
 10
823.7615886945956
 20
22.21960161111461
 30
0.0
  0
POINT
  5
4E52
330
41D8
100
AcDbEntity
  8
Defpoints
 62
     0
100
AcDbPoint
 10
800.1760903525184
 20
19.86105177690784
 30
0.0
  0
ENDBLK
  5
41E3
330
41D8
100
AcDbEntity
  8
0
100
AcDbBlockEnd
  0
BLOCK
  5
41F0
330
41E4
100
AcDbEntity
  8
0
100
AcDbBlockBegin
  2
*D15
 70
     1
 10
0.0
 20
0.0
 30
0.0
  3
*D15
  1

  0
LINE
  5
4E53
330
41E4
100
AcDbEntity
  8
寸法
 62
     4
370
    -2
100
AcDbLine
 10
819.8533811226077
 20
49.9684325930543
 30
0.0
 11
811.1218925232659
 21
49.09528373312046
 31
0.0
  0
LINE
  5
4E54
330
41E4
100
AcDbEntity
  8
寸法
 62
     4
370
    -2
100
AcDbLine
 10
817.2938469582307
 20
56.74739211140124
 30
0.0
 11
810.4253664901191
 21
56.06054406459036
 31
0.0
  0
LINE
  5
4E55
330
41E4
100
AcDbEntity
  8
寸法
 62
     4
370
    -2
100
AcDbLine
 10
812.9129594656436
 20
46.25942774102192
 30
0.0
 11
813.2114706227065
 21
43.27431617039194
 31
0.0
  0
LINE
  5
4E56
330
41E4
100
AcDbEntity
  8
寸法
 62
     4
370
    -2
100
AcDbLine
 10
811.6194111183713
 20
59.19491121375178
 30
0.0
 11
811.3208999613084
 21
62.18002278438175
 31
0.0
  0
LINE
  5
4E57
330
41E4
100
AcDbEntity
  8
寸法
 62
     4
370
    -2
100
AcDbLine
 10
812.6144483085807
 20
49.2445393116519
 30
0.0
 11
811.917922275434
 21
56.2097996431218
 31
0.0
  0
INSERT
  5
4E58
330
41E4
100
AcDbEntity
  8
寸法
 62
     4
370
    -2
100
AcDbBlockReference
  2
_Open30
 10
812.6144483085807
 20
49.2445393116519
 30
0.0
 41
3.0
 42
3.0
 43
3.0
 50
95.71059313749733
  0
INSERT
  5
4E59
330
41E4
100
AcDbEntity
  8
寸法
 62
     4
370
    -2
100
AcDbBlockReference
  2
_Open30
 10
811.917922275434
 20
56.2097996431218
 30
0.0
 41
3.0
 42
3.0
 43
3.0
 50
275.7105931374974
  0
MTEXT
  5
4E5A
330
41E4
100
AcDbEntity
  8
寸法
 62
     4
100
AcDbMText
 10
814.7537782675325
 20
52.97592877493917
 30
0.0
 40
3.0
 41
0.0
 71
     5
 72
     1
  1
\A1;7
 11
0.099503719020959
 21
-0.9950371902099931
 31
0.0
 73
     1
 44
1.0
  0
POINT
  5
4E5B
330
41E4
100
AcDbEntity
  8
Defpoints
 62
     0
100
AcDbPoint
 10
822.8384926932376
 20
50.26694375011718
 30
0.0
  0
POINT
  5
4E5C
330
41E4
100
AcDbEntity
  8
Defpoints
 62
     0
100
AcDbPoint
 10
820.2789585288607
 20
57.04590326846411
 30
0.0
  0
POINT
  5
4E5D
330
41E4
100
AcDbEntity
  8
Defpoints
 62
     0
100
AcDbPoint
 10
811.917922275434
 20
56.2097996431218
 30
0.0
  0
ENDBLK
  5
41F1
330
41E4
100
AcDbEntity
  8
0
100
AcDbBlockEnd
  0
BLOCK
  5
41FC
330
41F2
100
AcDbEntity
  8
0
100
AcDbBlockBegin
  2
*D16
 70
     1
 10
0.0
 20
0.0
 30
0.0
  3
*D16
  1

  0
LINE
  5
4E5E
330
41F2
100
AcDbEntity
  8
寸法
 62
     4
370
    -2
100
AcDbLine
 10
817.2938469582307
 20
56.74739211140124
 30
0.0
 11
802.8457143480363
 21
55.30257885038238
 31
0.0
  0
LINE
  5
4E5F
330
41F2
100
AcDbEntity
  8
寸法
 62
     4
370
    -2
100
AcDbLine
 10
819.2958617849331
 20
43.88275528661424
 30
0.0
 11
804.1392626953088
 21
42.36709537765242
 31
0.0
  0
LINE
  5
4E60
330
41F2
100
AcDbEntity
  8
寸法
 62
     4
370
    -2
100
AcDbLine
 10
804.6367812904142
 20
52.46672285828385
 30
0.0
 11
805.3333073235609
 21
45.50146252681384
 31
0.0
  0
INSERT
  5
4E61
330
41F2
100
AcDbEntity
  8
寸法
 62
     4
370
    -2
100
AcDbBlockReference
  2
_Open30
 10
804.3382701333513
 20
55.45183442891382
 30
0.0
 41
3.0
 42
3.0
 43
3.0
 50
95.71059313749733
  0
INSERT
  5
4E62
330
41F2
100
AcDbEntity
  8
寸法
 62
     4
370
    -2
100
AcDbBlockReference
  2
_Open30
 10
805.6318184806238
 20
42.51635095618385
 30
0.0
 41
3.0
 42
3.0
 43
3.0
 50
275.7105931374974
  0
MTEXT
  5
4E63
330
41F2
100
AcDbEntity
  8
寸法
 62
     4
100
AcDbMText
 10
807.4726372825127
 20
49.23285199010118
 30
0.0
 40
3.0
 41
0.0
 71
     5
 72
     1
  1
\A1;13
 11
0.099503719020959
 21
-0.9950371902099931
 31
0.0
 73
     1
 44
1.0
  0
POINT
  5
4E64
330
41F2
100
AcDbEntity
  8
Defpoints
 62
     0
100
AcDbPoint
 10
820.2789585288607
 20
57.04590326846411
 30
0.0
  0
POINT
  5
4E65
330
41F2
100
AcDbEntity
  8
Defpoints
 62
     0
100
AcDbPoint
 10
822.2809733555632
 20
44.18126644367712
 30
0.0
  0
POINT
  5
4E66
330
41F2
100
AcDbEntity
  8
Defpoints
 62
     0
100
AcDbPoint
 10
805.6318184806238
 20
42.51635095618385
 30
0.0
  0
ENDBLK
  5
41FD
330
41F2
100
AcDbEntity
  8
0
100
AcDbBlockEnd
  0
BLOCK
  5
420A
330
41FE
100
AcDbEntity
  8
0
100
AcDbBlockBegin
  2
*D17
 70
     1
 10
0.0
 20
0.0
 30
0.0
  3
*D17
  1

  0
LINE
  5
4E67
330
41FE
100
AcDbEntity
  8
寸法
 62
     4
370
    -2
100
AcDbLine
 10
821.7223594769791
 20
29.05059162413758
 30
0.0
 11
813.2114706227088
 21
28.19950273871089
 31
0.0
  0
LINE
  5
4E68
330
41FE
100
AcDbEntity
  8
寸法
 62
     4
370
    -2
100
AcDbLine
 10
820.7764771239656
 20
21.92109045405174
 30
0.0
 11
813.9079966558554
 21
21.234242407241
 31
0.0
  0
LINE
  5
4E69
330
41FE
100
AcDbEntity
  8
寸法
 62
     4
370
    -2
100
AcDbLine
 10
814.4055152509608
 20
31.33386988787231
 30
0.0
 11
814.1070040938981
 21
34.3189814585023
 31
0.0
  0
LINE
  5
4E6A
330
41FE
100
AcDbEntity
  8
寸法
 62
     4
370
    -2
100
AcDbLine
 10
815.6990635982333
 20
18.39838641514245
 30
0.0
 11
815.9975747552962
 21
15.41327484451247
 31
0.0
  0
LINE
  5
4E6B
330
41FE
100
AcDbEntity
  8
寸法
 62
     4
370
    -2
100
AcDbLine
 10
814.7040264080237
 20
28.34875831724233
 30
0.0
 11
815.4005524411704
 21
21.38349798577244
 31
0.0
  0
INSERT
  5
4E6C
330
41FE
100
AcDbEntity
  8
寸法
 62
     4
370
    -2
100
AcDbBlockReference
  2
_Open30
 10
814.7040264080237
 20
28.34875831724233
 30
0.0
 41
3.0
 42
3.0
 43
3.0
 50
275.7105931374974
  0
INSERT
  5
4E6D
330
41FE
100
AcDbEntity
  8
寸法
 62
     4
370
    -2
100
AcDbBlockReference
  2
_Open30
 10
815.4005524411704
 20
21.38349798577244
 30
0.0
 41
3.0
 42
3.0
 43
3.0
 50
95.71059313749733
  0
MTEXT
  5
4E6E
330
41FE
100
AcDbEntity
  8
寸法
 62
     4
100
AcDbMText
 10
817.5398824001222
 20
25.1148874490597
 30
0.0
 40
3.0
 41
0.0
 71
     5
 72
     1
  1
\A1;7
 11
0.099503719020959
 21
-0.9950371902099931
 31
0.0
 73
     1
 44
1.0
  0
POINT
  5
4E6F
330
41FE
100
AcDbEntity
  8
Defpoints
 62
     0
100
AcDbPoint
 10
824.7074710476091
 20
29.34910278120046
 30
0.0
  0
POINT
  5
4E70
330
41FE
100
AcDbEntity
  8
Defpoints
 62
     0
100
AcDbPoint
 10
823.7615886945956
 20
22.21960161111461
 30
0.0
  0
POINT
  5
4E71
330
41FE
100
AcDbEntity
  8
Defpoints
 62
     0
100
AcDbPoint
 10
815.4005524411704
 20
21.38349798577244
 30
0.0
  0
ENDBLK
  5
420B
330
41FE
100
AcDbEntity
  8
0
100
AcDbBlockEnd
  0
BLOCK
  5
4216
330
420C
100
AcDbEntity
  8
0
100
AcDbBlockBegin
  2
*D18
 70
     1
 10
0.0
 20
0.0
 30
0.0
  3
*D18
  1

  0
LINE
  5
4E72
330
420C
100
AcDbEntity
  8
寸法
 62
     4
370
    -2
100
AcDbLine
 10
828.9717924796011
 20
22.87941077194262
 30
0.0
 11
830.0388252933597
 21
12.20908263435369
 31
0.0
  0
LINE
  5
4E73
330
420C
100
AcDbEntity
  8
寸法
 62
     4
370
    -2
100
AcDbLine
 10
864.7932308308797
 20
26.46155460707032
 30
0.0
 11
865.8602636446383
 21
15.79122646948014
 31
0.0
  0
LINE
  5
4E74
330
420C
100
AcDbEntity
  8
寸法
 62
     4
370
    -2
100
AcDbLine
 10
832.874681285458
 20
14.00014957673156
 30
0.0
 11
862.7258964954769
 21
16.98527109773223
 31
0.0
  0
INSERT
  5
4E75
330
420C
100
AcDbEntity
  8
寸法
 62
     4
370
    -2
100
AcDbBlockReference
  2
_Open30
 10
829.8895697148282
 20
13.70163841966868
 30
0.0
 41
3.0
 42
3.0
 43
3.0
 50
185.7105931374973
  0
INSERT
  5
4E76
330
420C
100
AcDbEntity
  8
寸法
 62
     4
370
    -2
100
AcDbBlockReference
  2
_Open30
 10
865.711008066107
 20
17.28378225479513
 30
0.0
 41
3.0
 42
3.0
 43
3.0
 50
5.710593137497368
  0
MTEXT
  5
4E77
330
420C
100
AcDbEntity
  8
寸法
 62
     4
100
AcDbMText
 10
847.5515295929151
 20
17.98030331275689
 30
0.0
 40
3.0
 41
0.0
 71
     5
 72
     1
  1
\A1;36
 11
0.9950371902099933
 21
0.0995037190209595
 31
0.0
 73
     1
 44
1.0
  0
POINT
  5
4E78
330
420C
100
AcDbEntity
  8
Defpoints
 62
     0
100
AcDbPoint
 10
828.6732813225382
 20
25.86452234257261
 30
0.0
  0
POINT
  5
4E79
330
420C
100
AcDbEntity
  8
Defpoints
 62
     0
100
AcDbPoint
 10
864.4947196738169
 20
29.4466661777003
 30
0.0
  0
POINT
  5
4E7A
330
420C
100
AcDbEntity
  8
Defpoints
 62
     0
100
AcDbPoint
 10
865.711008066107
 20
17.28378225479513
 30
0.0
  0
ENDBLK
  5
4217
330
420C
100
AcDbEntity
  8
0
100
AcDbBlockEnd
  0
BLOCK
  5
4222
330
4218
100
AcDbEntity
  8
0
100
AcDbBlockBegin
  2
*D19
 70
     1
 10
0.0
 20
0.0
 30
0.0
  3
*D19
  1

  0
LINE
  5
4E7B
330
4218
100
AcDbEntity
  8
寸法
 62
     4
370
    -2
100
AcDbLine
 10
823.8610924136164
 20
21.22456442090447
 30
0.0
 11
825.4821147346859
 21
5.014341210201578
 31
0.0
  0
LINE
  5
4E7C
330
4218
100
AcDbEntity
  8
寸法
 62
     4
370
    -2
100
AcDbLine
 10
870.1304212621
 20
25.85149730575267
 30
0.0
 11
871.7514435831699
 21
9.641274095048117
 31
0.0
  0
LINE
  5
4E7D
330
4218
100
AcDbEntity
  8
寸法
 62
     4
370
    -2
100
AcDbLine
 10
828.3179707267844
 20
6.805408152579445
 30
0.0
 11
868.6170764340086
 21
10.83531872330023
 31
0.0
  0
INSERT
  5
4E7E
330
4218
100
AcDbEntity
  8
寸法
 62
     4
370
    -2
100
AcDbBlockReference
  2
_Open30
 10
825.3328591561546
 20
6.506896995516569
 30
0.0
 41
3.0
 42
3.0
 43
3.0
 50
185.7105931374973
  0
INSERT
  5
4E7F
330
4218
100
AcDbEntity
  8
寸法
 62
     4
370
    -2
100
AcDbBlockReference
  2
_Open30
 10
871.6021880046385
 20
11.13382988036311
 30
0.0
 41
3.0
 42
3.0
 43
3.0
 50
5.710593137497368
  0
MTEXT
  5
4E80
330
4218
100
AcDbEntity
  8
寸法
 62
     4
100
AcDbMText
 10
848.2187642828442
 20
11.30795641346482
 30
0.0
 40
3.0
 41
0.0
 71
     5
 72
     1
  1
\A1;47
 11
0.9950371902099933
 21
0.0995037190209595
 31
0.0
 73
     1
 44
1.0
  0
POINT
  5
4E81
330
4218
100
AcDbEntity
  8
Defpoints
 62
     0
100
AcDbPoint
 10
823.5625812565535
 20
24.20967599153445
 30
0.0
  0
POINT
  5
4E82
330
4218
100
AcDbEntity
  8
Defpoints
 62
     0
100
AcDbPoint
 10
869.8319101050371
 20
28.83660887638266
 30
0.0
  0
POINT
  5
4E83
330
4218
100
AcDbEntity
  8
Defpoints
 62
     0
100
AcDbPoint
 10
871.6021880046385
 20
11.13382988036311
 30
0.0
  0
ENDBLK
  5
4223
330
4218
100
AcDbEntity
  8
0
100
AcDbBlockEnd
  0
BLOCK
  5
18
330
17
100
AcDbEntity
  8
0
100
AcDbBlockBegin
  2
*PAPER_SPACE20
 70
     0
 10
0.0
 20
0.0
 30
0.0
  3
*PAPER_SPACE20
  1

  0
VIEWPORT
  5
22
330
17
100
AcDbEntity
  8
0
100
AcDbViewport
 10
385.131448085809
 20
178.4192230867767
 30
0.0
 40
926.7972415003375
 41
404.9015390967445
 69
     0
 12
385.131448085809
 22
178.4192230867767
 13
0.0
 23
0.0
 14
1.0
 24
1.0
 15
10.0
 25
10.0
 16
0.0
 26
0.0
 36
1.0
 17
0.0
 27
0.0
 37
0.0
 42
50.0
 43
0.0
 44
0.0
 45
404.9015390967445
 50
0.0
 51
0.0
 72
   100
 90
    32768
  1

281
     0
 71
     1
 74
     0
110
0.0
120
0.0
130
0.0
111
1.0
121
0.0
131
0.0
112
0.0
122
1.0
132
0.0
 79
     0
146
0.0
170
     0
  0
VIEWPORT
  5
64
330
17
100
AcDbEntity
  8
VIEWPORT
100
AcDbViewport
 10
210.0
 20
148.5
 30
0.0
 40
420.0
 41
297.0
 69
     0
 12
739.3262239509572
 22
393.1221607969858
 13
0.0
 23
0.0
 14
5.0
 24
5.0
 15
0.0
 25
0.0
 16
0.0
 26
0.0
 36
1.0
 17
0.0
 27
0.0
 37
0.0
 42
50.0
 43
0.0
 44
0.0
 45
292.8854430495992
 50
0.0
 51
0.0
 72
   100
 90
    32768
  1

281
     0
 71
     1
 74
     0
110
0.0
120
0.0
130
0.0
111
1.0
121
0.0
131
0.0
112
0.0
122
1.0
132
0.0
 79
     0
146
0.0
170
     0
  0
ENDBLK
  5
19
330
17
100
AcDbEntity
  8
0
100
AcDbBlockEnd
  0
ENDSEC
  0
SECTION
  2
ENTITIES
  0
LINE
  5
2EE8
102
{ACAD_REACTORS
330
32AD
102
}
330
1A
100
AcDbEntity
  8
ﾌﾞﾗｹｯﾄ本体
100
AcDbLine
 10
640.6510195517577
 20
132.4339868592765
 30
0.0
 11
640.6510195517573
 21
123.7389217180469
 31
0.0
  0
ARC
  5
2EE9
102
{ACAD_REACTORS
330
32AD
102
}
330
1A
100
AcDbEntity
  8
ﾌﾞﾗｹｯﾄ本体
100
AcDbCircle
 10
616.0329620288916
 20
127.1486902845719
 30
0.0
 40
2.0
100
AcDbArc
 50
179.9999999999988
 51
190.844062563693
  0
LINE
  5
2EEA
102
{ACAD_REACTORS
330
32AC
330
32AD
102
}
330
1A
100
AcDbEntity
  8
ﾌﾞﾗｹｯﾄ本体
100
AcDbLine
 10
614.0329620288916
 20
132.4165171609986
 30
0.0
 11
614.0329620288915
 21
127.1661599828508
 31
0.0
  0
ARC
  5
2EEB
102
{ACAD_REACTORS
330
32AC
330
32AD
102
}
330
1A
100
AcDbEntity
  8
ﾌﾞﾗｹｯﾄ本体
100
AcDbCircle
 10
643.5329620289135
 20
132.4339868592827
 30
0.0
 40
30.00000000002168
100
AcDbArc
 50
190.844062563693
 51
202.8747015875638
  0
LINE
  5
2EEC
102
{ACAD_REACTORS
330
32AB
330
32AC
330
32AD
102
}
330
1A
100
AcDbEntity
  8
ﾌﾞﾗｹｯﾄ本体
100
AcDbLine
 10
640.9317960374303
 20
122.5339868592677
 30
0.0
 11
652.4729620290975
 21
122.5521489773658
 31
0.0
  0
LINE
  5
2EED
102
{ACAD_REACTORS
330
32AB
330
32AC
330
32AD
102
}
330
1A
100
AcDbEntity
  8
ﾌﾞﾗｹｯﾄ本体
100
AcDbLine
 10
652.7285784211223
 20
118.4339868592764
 30
0.0
 11
699.2327894844367
 21
122.4339868592767
 31
0.0
  0
LINE
  5
2EEE
102
{ACAD_REACTORS
330
32AB
330
32AC
330
32AD
102
}
330
1A
100
AcDbEntity
  8
ﾌﾞﾗｹｯﾄ本体
100
AcDbLine
 10
643.1470567637544
 20
118.4339868592765
 30
0.0
 11
643.2606821961701
 21
122.5339868592765
 31
0.0
  0
ARC
  5
2EEF
102
{ACAD_REACTORS
330
32AB
330
32AC
330
32AD
102
}
330
1A
100
AcDbEntity
  8
ﾌﾞﾗｹｯﾄ本体
100
AcDbCircle
 10
656.1016548896682
 20
92.07774073826545
 30
0.0
 40
34.02510169536443
100
AcDbArc
 50
116.477296511987
 51
121.4108907541508
  0
LINE
  5
2EF0
102
{ACAD_REACTORS
330
32AB
330
32AC
330
32AD
102
}
330
1A
100
AcDbEntity
  8
ﾌﾞﾗｹｯﾄ本体
100
AcDbLine
 10
634.4823886629503
 20
118.4339868592767
 30
0.0
 11
638.3687291839407
 21
121.1165232763653
 31
0.0
  0
LINE
  5
2EF1
102
{ACAD_REACTORS
330
32AB
330
32AC
330
32AD
102
}
330
1A
100
AcDbEntity
  8
ﾌﾞﾗｹｯﾄ本体
100
AcDbLine
 10
632.9850547703078
 20
132.4339868592767
 30
0.0
 11
632.9850547703075
 21
119.7531209586076
 31
0.0
  0
LWPOLYLINE
  5
2EF2
102
{ACAD_REACTORS
330
32AB
330
32AC
330
32AD
102
}
330
1A
100
AcDbEntity
  8
ﾌﾞﾗｹｯﾄ本体
100
AcDbPolyline
 90
        3
 70
     0
 43
0.0
 10
615.8922481353922
 20
120.7724717151088
 10
616.4137397163186
 20
119.6063689525448
 10
616.9999637060492
 20
118.4339868592791
  0
LINE
  5
2EF3
102
{ACAD_REACTORS
330
32AB
330
32AC
330
32AD
102
}
330
1A
100
AcDbEntity
  8
ﾌﾞﾗｹｯﾄ本体
100
AcDbLine
 10
652.7285784211223
 20
118.4339868592764
 30
0.0
 11
616.9999637060492
 21
118.4339868592771
 31
0.0
  0
LINE
  5
2EF4
102
{ACAD_REACTORS
330
32AB
330
32AC
330
32AD
102
}
330
1A
100
AcDbEntity
  8
ﾌﾞﾗｹｯﾄ本体
100
AcDbLine
 10
620.0279486544314
 20
132.433986859277
 30
0.0
 11
620.027948654431
 21
118.433986859277
 31
0.0
  0
LINE
  5
2F0F
330
1A
100
AcDbEntity
  8
製品
100
AcDbLine
 10
652.4729620290977
 20
132.4339868592767
 30
0.0
 11
652.4729620290977
 21
122.4339868592765
 31
0.0
  0
LINE
  5
2F10
330
1A
100
AcDbEntity
  8
製品
100
AcDbLine
 10
652.4729620290977
 20
122.4339868592765
 30
0.0
 11
760.6807005593982
 21
122.4339868592768
 31
0.0
  0
LINE
  5
2F11
330
1A
100
AcDbEntity
  8
製品
100
AcDbLine
 10
713.4114351294583
 20
142.3339868592767
 30
0.0
 11
713.4114351294583
 21
122.5339868592769
 31
0.0
  0
TEXT
  5
2F18
330
1A
100
AcDbEntity
  8
MOJI
100
AcDbText
 10
658.6977401837998
 20
-53.91805236101419
 30
0.0
 40
2.799999999999999
  1
ブラケット正面打（吊）自在式
 41
0.9
  7
MSPｺﾞｼｯｸ
100
AcDbText
  0
TEXT
  5
2F19
330
1A
100
AcDbEntity
  8
MOJI
100
AcDbText
 10
658.8977401837998
 20
-61.11805236101417
 30
0.0
 40
2.799999999999999
  1
UST140-1.0-15～45
 41
0.9
  7
MSPｺﾞｼｯｸ
100
AcDbText
  0
TEXT
  5
2F1A
330
1A
100
AcDbEntity
  8
MOJI
100
AcDbText
 10
583.4564955639148
 20
-57.77877909567155
 30
0.0
 40
2.799999999999999
  1
ユニシェイプＵＳＴ１４０
 41
0.9
  7
MSPｺﾞｼｯｸ
100
AcDbText
  0
LINE
  5
2F72
330
1A
100
AcDbEntity
  8
CENTER L
  6
CENTER
 62
     1
 48
3.0
100
AcDbLine
 10
613.5279048858587
 20
132.4339868592767
 30
0.0
 11
764.6938019613725
 21
132.4339868592767
 31
0.0
  0
ARC
  5
2F73
330
1A
100
AcDbEntity
  8
SEIHIN
  6
Continuous
 62
     3
 48
16.0
100
AcDbCircle
 10
667.4723032370525
 20
132.4339751301609
 30
0.0
 40
5.499988270900564
100
AcDbArc
 50
187.8373732426363
 51
269.9998598414471
  0
ARC
  5
2F74
330
1A
100
AcDbEntity
  8
SEIHIN
  6
Continuous
 62
     3
 48
16.0
100
AcDbCircle
 10
667.4722663546308
 20
132.4340066597451
 30
0.0
 40
4.500019800529353
100
AcDbArc
 50
189.5942812954976
 51
270.0002982957268
  0
ARC
  5
2F75
330
1A
100
AcDbEntity
  8
SEIHIN
  6
Continuous
 62
     3
 48
16.0
100
AcDbCircle
 10
667.4723032370525
 20
132.4339985883925
 30
0.0
 40
5.499988270900558
100
AcDbArc
 50
90.00014015855288
 51
172.1626267573637
  0
ARC
  5
2F76
330
1A
100
AcDbEntity
  8
SEIHIN
  6
Continuous
 62
     3
 48
16.0
100
AcDbCircle
 10
667.4722663546311
 20
132.4339670588083
 30
0.0
 40
4.500019800529408
100
AcDbArc
 50
89.99970170426673
 51
170.4057187045023
  0
ARC
  5
2F77
330
1A
100
AcDbEntity
  8
SEIHIN
  6
Continuous
 62
     3
 48
16.0
100
AcDbCircle
 10
667.472289782826
 20
132.4339868592767
 30
0.0
 40
3.25
100
AcDbArc
 50
90.0
 51
270.0
  0
ARC
  5
2F78
330
1A
100
AcDbEntity
  8
SEIHIN
  6
Continuous
 62
     3
 48
16.0
100
AcDbCircle
 10
667.472289782826
 20
132.4339868592767
 30
0.0
 40
2.499999999999943
100
AcDbArc
 50
90.0
 51
270.0
  0
LINE
  5
2F79
330
1A
100
AcDbEntity
  8
SEIHIN
  6
Continuous
 62
     3
 48
16.0
100
AcDbLine
 10
658.0872897828258
 20
131.9339868592767
 30
0.0
 11
658.0872897828258
 21
132.9339868592767
 31
0.0
  0
ARC
  5
2F7A
330
1A
100
AcDbEntity
  8
SEIHIN
  6
Continuous
 62
     3
 48
16.0
100
AcDbCircle
 10
658.3372897828257
 20
131.9339868592767
 30
0.0
 40
0.2500000000000568
100
AcDbArc
 50
179.999999999987
 51
269.999999999987
  0
ARC
  5
2F7B
330
1A
100
AcDbEntity
  8
SEIHIN
  6
Continuous
 62
     3
 48
16.0
100
AcDbCircle
 10
658.3372897828257
 20
132.9339868592767
 30
0.0
 40
0.25
100
AcDbArc
 50
90.0
 51
180.0
  0
LINE
  5
2F7C
330
1A
100
AcDbEntity
  8
SEIHIN
  6
Continuous
 62
     3
 48
16.0
100
AcDbLine
 10
658.3372897828257
 20
131.6839868592767
 30
0.0
 11
664.3100897828258
 21
131.6839868592767
 31
0.0
  0
LINE
  5
2F7D
330
1A
100
AcDbEntity
  8
SEIHIN
  6
Continuous
 62
     3
 48
16.0
100
AcDbLine
 10
658.3372897828257
 20
133.1839868592767
 30
0.0
 11
664.3100897828258
 21
133.1839868592767
 31
0.0
  0
ARC
  5
2F7E
330
1A
100
AcDbEntity
  8
SEIHIN
  6
Continuous
 62
     3
 48
16.0
100
AcDbCircle
 10
667.4723897828259
 20
132.4339868592767
 30
0.0
 40
3.25
100
AcDbArc
 50
270.0
 51
90.0
  0
ARC
  5
2F7F
330
1A
100
AcDbEntity
  8
SEIHIN
  6
Continuous
 62
     3
 48
16.0
100
AcDbCircle
 10
667.4723897828259
 20
132.4339868592767
 30
0.0
 40
2.499999999999943
100
AcDbArc
 50
270.0
 51
90.0
  0
LINE
  5
2F80
330
1A
100
AcDbEntity
  8
CENTER L
  6
CENTER
 62
     1
 48
5.0
100
AcDbLine
 10
667.4729897828258
 20
124.9866565575556
 30
0.0
 11
667.4729897828258
 21
139.8580565575556
 31
0.0
  0
ARC
  5
2F81
330
1A
100
AcDbEntity
  8
SEIHIN
  6
Continuous
 62
     3
 48
16.0
100
AcDbCircle
 10
667.472354877648
 20
132.4339573590832
 30
0.0
 40
4.499970499941926
100
AcDbArc
 50
270.000444429438
 51
350.4062492221695
  0
ARC
  5
2F82
330
1A
100
AcDbEntity
  8
SEIHIN
  6
Continuous
 62
     3
 48
16.0
100
AcDbCircle
 10
667.4723763285992
 20
132.4339751301606
 30
0.0
 40
5.499988270900473
100
AcDbArc
 50
270.0001401585529
 51
352.1626267573637
  0
LINE
  5
2F83
330
1A
100
AcDbEntity
  8
SEIHIN
  6
Continuous
 62
     3
 48
16.0
100
AcDbLine
 10
676.607389782826
 20
131.6839868592767
 30
0.0
 11
670.6345897828259
 21
131.6839868592767
 31
0.0
  0
LINE
  5
2F84
330
1A
100
AcDbEntity
  8
SEIHIN
  6
Continuous
 62
     3
 48
16.0
100
AcDbLine
 10
676.607389782826
 20
133.1839868592767
 30
0.0
 11
670.6345897828259
 21
133.1839868592767
 31
0.0
  0
ARC
  5
2F85
330
1A
100
AcDbEntity
  8
SEIHIN
  6
Continuous
 62
     3
 48
16.0
100
AcDbCircle
 10
667.4723548776478
 20
132.43401635947
 30
0.0
 40
4.499970499941989
100
AcDbArc
 50
9.593750777830473
 51
89.999555570562
  0
ARC
  5
2F86
330
1A
100
AcDbEntity
  8
SEIHIN
  6
Continuous
 62
     3
 48
16.0
100
AcDbCircle
 10
667.4723763285992
 20
132.4339985883925
 30
0.0
 40
5.499988270900469
100
AcDbArc
 50
7.83737324263628
 51
89.99985984144059
  0
LINE
  5
2F87
330
1A
100
AcDbEntity
  8
SEIHIN
  6
Continuous
 62
     3
 48
16.0
100
AcDbLine
 10
676.8573897828259
 20
131.9339868592767
 30
0.0
 11
676.8573897828259
 21
132.9339868592767
 31
0.0
  0
ARC
  5
2F88
330
1A
100
AcDbEntity
  8
SEIHIN
  6
Continuous
 62
     3
 48
16.0
100
AcDbCircle
 10
676.6073897828257
 20
131.9339868592767
 30
0.0
 40
0.2500000000000568
100
AcDbArc
 50
270.000000000013
 51
0.0000000000130276
  0
ARC
  5
2F89
330
1A
100
AcDbEntity
  8
SEIHIN
  6
Continuous
 62
     3
 48
16.0
100
AcDbCircle
 10
676.607389782826
 20
132.9339868592767
 30
0.0
 40
0.25
100
AcDbArc
 50
0.0
 51
90.0
  0
LINE
  5
2F8A
102
{ACAD_REACTORS
330
32AA
102
}
330
1A
100
AcDbEntity
  8
ﾌﾞﾗｹｯﾄ本体
100
AcDbLine
 10
640.6510195517577
 20
132.4339868592767
 30
0.0
 11
640.6510195517576
 21
141.1290520005063
 31
0.0
  0
LINE
  5
2F8B
102
{ACAD_REACTORS
330
32A8
330
32A9
330
32AA
102
}
330
1A
100
AcDbEntity
  8
ﾌﾞﾗｹｯﾄ本体
100
AcDbLine
 10
632.9850547703078
 20
132.4339868592767
 30
0.0
 11
632.9850547703078
 21
145.1148527599458
 31
0.0
  0
LINE
  5
2F8C
102
{ACAD_REACTORS
330
32A8
330
32A9
330
32AA
102
}
330
1A
100
AcDbEntity
  8
ﾌﾞﾗｹｯﾄ本体
100
AcDbLine
 10
620.0279486544314
 20
132.4339868592766
 30
0.0
 11
620.0279486544314
 21
146.4339868592766
 31
0.0
  0
ARC
  5
2F8D
102
{ACAD_REACTORS
330
32A8
330
32A9
330
32AA
102
}
330
1A
100
AcDbEntity
  8
ﾌﾞﾗｹｯﾄ本体
100
AcDbCircle
 10
656.1016548896691
 20
172.7902329802875
 30
0.0
 40
34.02510169536443
100
AcDbArc
 50
238.5891092458479
 51
243.5227034880117
  0
LINE
  5
2F8E
102
{ACAD_REACTORS
330
32A8
330
32A9
330
32AA
102
}
330
1A
100
AcDbEntity
  8
ﾌﾞﾗｹｯﾄ本体
100
AcDbLine
 10
652.7285784211226
 20
146.4339868592766
 30
0.0
 11
616.9999637060495
 21
146.4339868592766
 31
0.0
  0
LINE
  5
2F8F
102
{ACAD_REACTORS
330
32A8
330
32A9
330
32AA
102
}
330
1A
100
AcDbEntity
  8
ﾌﾞﾗｹｯﾄ本体
100
AcDbLine
 10
634.4823886629505
 20
146.4339868592766
 30
0.0
 11
638.368729183941
 21
143.751450442188
 31
0.0
  0
LINE
  5
2F90
330
1A
100
AcDbEntity
  8
製品
100
AcDbLine
 10
652.4729620290977
 20
142.4339868592769
 30
0.0
 11
760.6807005593983
 21
142.4339868592765
 31
0.0
  0
LINE
  5
2F91
102
{ACAD_REACTORS
330
32A8
330
32A9
330
32AA
102
}
330
1A
100
AcDbEntity
  8
ﾌﾞﾗｹｯﾄ本体
100
AcDbLine
 10
643.1470567637547
 20
146.4339868592766
 30
0.0
 11
643.2606821961703
 21
142.3339868592767
 31
0.0
  0
LINE
  5
2F92
102
{ACAD_REACTORS
330
32A9
330
32AA
102
}
330
1A
100
AcDbEntity
  8
ﾌﾞﾗｹｯﾄ本体
100
AcDbLine
 10
614.0329620288916
 20
132.4514565575552
 30
0.0
 11
614.0329620288916
 21
137.701813735703
 31
0.0
  0
LWPOLYLINE
  5
2F93
102
{ACAD_REACTORS
330
32A8
330
32A9
330
32AA
102
}
330
1A
100
AcDbEntity
  8
ﾌﾞﾗｹｯﾄ本体
100
AcDbPolyline
 90
        3
 70
     0
 43
0.0
 10
615.8922481353925
 20
144.095502003445
 10
616.413739716319
 20
145.2616047660089
 10
616.9999637060495
 20
146.4339868592746
  0
ARC
  5
2F94
102
{ACAD_REACTORS
330
32A9
330
32AA
102
}
330
1A
100
AcDbEntity
  8
ﾌﾞﾗｹｯﾄ本体
100
AcDbCircle
 10
643.5329620289135
 20
132.4339868592705
 30
0.0
 40
30.00000000002168
100
AcDbArc
 50
157.1252984124349
 51
169.1559374363057
  0
ARC
  5
2F95
102
{ACAD_REACTORS
330
32AA
102
}
330
1A
100
AcDbEntity
  8
ﾌﾞﾗｹｯﾄ本体
100
AcDbCircle
 10
616.0329620288917
 20
137.7192834339819
 30
0.0
 40
2.0
100
AcDbArc
 50
169.1559374363057
 51
180.0
  0
LINE
  5
2F96
330
1A
100
AcDbEntity
  8
製品
100
AcDbLine
 10
652.4729620290977
 20
132.4339868592767
 30
0.0
 11
652.4729620290977
 21
142.4339868592769
 31
0.0
  0
DIMENSION
  5
2F97
330
1A
100
AcDbEntity
  8
寸法
100
AcDbDimension
  2
*D4
 10
592.9307054796474
 20
118.4339868592792
 30
0.0
 11
590.4307054796475
 21
132.433986859277
 31
0.0
 70
    32
 71
     5
 42
27.99999999999545
  3
STANDARD
100
AcDbAlignedDimension
 13
616.9999637060495
 23
146.4339868592746
 33
0.0
 14
616.9999637060492
 24
118.4339868592791
 34
0.0
 50
90.0
100
AcDbRotatedDimension
1001
ACAD
1000
DSTYLE
1002
{
1070
    41
1040
3.0
1070
    42
1040
3.0
1070
    43
1040
7.0
1070
    44
1040
1.5
1070
    73
1070
     0
1070
    74
1070
     0
1070
    77
1070
     3
1070
   140
1040
3.0
1070
   141
1040
15.0
1070
   147
1040
1.0
1070
   172
1070
     1
1070
   176
1070
     4
1070
   177
1070
     4
1070
   178
1070
     4
1070
   271
1070
     0
1070
   272
1070
     0
1070
   341
1005
166
1070
   342
1005
166
1002
}
  0
DIMENSION
  5
2F98
330
1A
100
AcDbEntity
  8
寸法
100
AcDbDimension
  2
*D3
 10
604.8308006120871
 20
122.4339868592766
 30
0.0
 11
602.3308006120871
 21
132.4339868592768
 31
0.0
 70
    32
 71
     5
 42
20.00000000000034
  3
STANDARD
100
AcDbAlignedDimension
 13
652.4729620290977
 23
142.4339868592769
 33
0.0
 14
652.4729620290977
 24
122.4339868592765
 34
0.0
 50
90.0
100
AcDbRotatedDimension
1001
ACAD
1000
DSTYLE
1002
{
1070
    41
1040
3.0
1070
    42
1040
3.0
1070
    43
1040
7.0
1070
    44
1040
1.5
1070
    73
1070
     0
1070
    74
1070
     0
1070
    77
1070
     3
1070
   140
1040
3.0
1070
   141
1040
15.0
1070
   147
1040
1.0
1070
   172
1070
     1
1070
   176
1070
     4
1070
   177
1070
     4
1070
   178
1070
     4
1070
   271
1070
     0
1070
   272
1070
     0
1070
   341
1005
166
1070
   342
1005
166
1002
}
  0
LINE
  5
2F99
102
{ACAD_REACTORS
330
32A8
330
32A9
330
32AA
102
}
330
1A
100
AcDbEntity
  8
ﾌﾞﾗｹｯﾄ本体
100
AcDbLine
 10
652.7285784211226
 20
146.4339868592766
 30
0.0
 11
699.2327894844209
 21
142.4339868592768
 31
0.0
  0
LINE
  5
2F9A
330
1A
100
AcDbEntity
  8
SEIHIN
  6
Continuous
 62
     3
100
AcDbLine
 10
680.6960768349065
 20
123.8897552264405
 30
0.0
 11
680.6960768349065
 21
141.1098568420128
 31
0.0
  0
LINE
  5
2F9B
330
1A
100
AcDbEntity
  8
SEIHIN
  6
Continuous
 62
     3
100
AcDbLine
 10
691.1879152178212
 20
123.9600409264674
 30
0.0
 11
691.1879152178212
 21
141.3207154765313
 31
0.0
  0
LINE
  5
2F9C
102
{ACAD_REACTORS
330
32A8
330
32A9
330
32AA
102
}
330
1A
100
AcDbEntity
  8
ﾌﾞﾗｹｯﾄ本体
100
AcDbLine
 10
640.9317960374306
 20
142.3339868592855
 30
0.0
 11
652.4729620290977
 21
142.3158247411872
 31
0.0
  0
LINE
  5
2F9D
330
1A
100
AcDbEntity
  8
製品
100
AcDbLine
 10
699.0608459624013
 20
63.28236514566469
 30
0.0
 11
747.2987272655817
 21
63.28236514566468
 31
0.0
  0
LINE
  5
2F9E
330
1A
100
AcDbEntity
  8
製品
100
AcDbLine
 10
747.2988392532283
 20
68.28124526920444
 30
0.0
 11
699.2662714814505
 21
68.28124526920373
 31
0.0
  0
LINE
  5
2FA4
330
1A
100
AcDbEntity
  8
製品
100
AcDbLine
 10
696.0031779039755
 20
61.86125367456293
 30
0.0
 11
682.2279856388022
 21
45.52864956395035
 31
0.0
  0
LINE
  5
2FA5
330
1A
100
AcDbEntity
  8
製品
100
AcDbLine
 10
692.3865183499925
 20
65.08374445922462
 30
0.0
 11
678.6122676682999
 21
48.75225674030554
 31
0.0
  0
LINE
  5
2FA7
330
1A
100
AcDbEntity
  8
製品
100
AcDbLine
 10
655.9729620290977
 20
42.33121995400461
 30
0.0
 11
658.4729620290977
 21
42.33121995400461
 31
0.0
  0
LINE
  5
2FA8
330
1A
100
AcDbEntity
  8
製品
100
AcDbLine
 10
652.4729620290977
 20
47.33114526920371
 30
0.0
 11
652.472957809899
 21
42.33124526921256
 31
0.0
  0
LINE
  5
2FA9
330
1A
100
AcDbEntity
  8
製品
  6
DASHED
 48
2.0
100
AcDbLine
 10
664.7229620291223
 20
47.33115687199915
 30
0.0
 11
664.7229409332854
 21
42.33119358410386
 31
0.0
  0
LINE
  5
2FAA
330
1A
100
AcDbEntity
  8
製品
  6
DASHED
 48
2.0
100
AcDbLine
 10
655.9729620290977
 20
40.78500818351528
 30
0.0
 11
655.9729620290977
 21
42.33121995400461
 31
0.0
  0
LINE
  5
2FAB
330
1A
100
AcDbEntity
  8
製品
  6
DASHED
 48
2.0
100
AcDbLine
 10
660.9729620290977
 20
40.78500818351528
 30
0.0
 11
655.9729620290977
 21
40.78500818351528
 31
0.0
  0
LINE
  5
2FAC
330
1A
100
AcDbEntity
  8
製品
  6
DASHED
 48
2.0
100
AcDbLine
 10
660.9729620290977
 20
42.33121995400461
 30
0.0
 11
660.9729620290977
 21
40.78500818351528
 31
0.0
  0
LINE
  5
2FAD
330
1A
100
AcDbEntity
  8
製品
100
AcDbLine
 10
655.9729620290977
 20
42.33121995400461
 30
0.0
 11
660.9729620290977
 21
42.33121995400461
 31
0.0
  0
LINE
  5
2FAE
330
1A
100
AcDbEntity
  8
製品
100
AcDbLine
 10
675.5545996098742
 20
47.33114526920371
 30
0.0
 11
652.4729620290977
 21
47.33114526920371
 31
0.0
  0
LINE
  5
2FAF
330
1A
100
AcDbEntity
  8
製品
100
AcDbLine
 10
652.472957809899
 20
42.33124526921256
 30
0.0
 11
675.3481945345588
 21
42.33114875405141
 31
0.0
  0
LINE
  5
2FB0
330
1A
100
AcDbEntity
  8
製品
  6
DASHED
 48
2.0
100
AcDbLine
 10
670.2229620290731
 20
47.33113366640816
 30
0.0
 11
670.2229409332362
 21
42.33117037851286
 31
0.0
  0
ARC
  5
2FB1
330
1A
100
AcDbEntity
  8
ﾚｲﾔｰ1
  6
Continuous
 62
     7
370
    15
100
AcDbCircle
 10
675.3580487816359
 20
57.52456224443358
 30
0.0
 40
1.499989134940058
100
AcDbArc
 50
334.9960308396911
 51
75.00070549263248
  0
LINE
  5
2FB2
330
1A
100
AcDbEntity
  8
ﾚｲﾔｰ1
  6
Continuous
 62
     7
370
    15
100
AcDbLine
 10
676.7175566968919
 20
56.89054526920472
 30
0.0
 11
675.400156696893
 21
54.06554526920399
 31
0.0
  0
ARC
  5
2FB3
330
1A
100
AcDbEntity
  8
ﾚｲﾔｰ1
  6
Continuous
 62
     7
370
    15
100
AcDbCircle
 10
668.6090329781925
 20
58.29138331679314
 30
0.0
 40
8.999958350741039
100
AcDbArc
 50
204.9978315563672
 51
222.8754850659335
  0
LINE
  5
2FB4
330
1A
100
AcDbEntity
  8
ﾚｲﾔｰ1
  6
Continuous
 62
     7
370
    15
100
AcDbLine
 10
661.9728992893317
 20
22.41741589944712
 30
0.0
 11
661.9728992893317
 21
23.2174158994473
 31
0.0
  0
LINE
  5
2FB5
330
1A
100
AcDbEntity
  8
ﾚｲﾔｰ1
  6
Continuous
 62
     7
370
    15
100
AcDbLine
 10
659.4584566968931
 20
58.0074452692038
 30
0.0
 11
661.2108566968934
 21
58.47694526920486
 31
0.0
  0
LINE
  5
2FB6
330
1A
100
AcDbEntity
  8
ﾚｲﾔｰ1
  6
Continuous
 62
     7
370
    15
100
AcDbLine
 10
673.9939566968931
 20
59.44294526920384
 30
0.0
 11
675.7462566968931
 21
58.97344526920505
 31
0.0
  0
LINE
  5
2FB7
330
1A
100
AcDbEntity
  8
ﾚｲﾔｰ1
  6
Continuous
 62
     7
370
    15
100
AcDbLine
 10
672.9729566968928
 20
47.33114526920371
 30
0.0
 11
661.9729566968924
 21
47.33114526920371
 31
0.0
  0
LINE
  5
2FB8
330
1A
100
AcDbEntity
  8
ﾚｲﾔｰ1
  6
Continuous
 62
     7
370
    15
100
AcDbLine
 10
661.8232566968933
 20
58.12344526920469
 30
0.0
 11
663.1248566968931
 21
53.26584526920488
 31
0.0
  0
LINE
  5
2FB9
330
1A
100
AcDbEntity
  8
ﾚｲﾔｰ1
  6
Continuous
 62
     7
370
    15
100
AcDbLine
 10
664.222956696892
 20
53.03114526920353
 30
0.0
 11
662.7891566968921
 21
58.38224526920476
 31
0.0
  0
LINE
  5
2FBA
330
1A
100
AcDbEntity
  8
ﾚｲﾔｰ1
  6
Continuous
 62
     7
370
    15
100
AcDbLine
 10
671.9729566968919
 20
50.0311452692049
 30
0.0
 11
670.7229566968919
 21
53.03114526920353
 31
0.0
  0
ARC
  5
2FBB
330
1A
100
AcDbEntity
  8
ﾚｲﾔｰ1
  6
Continuous
 62
     7
370
    15
100
AcDbCircle
 10
662.6418641005059
 20
53.13655640014212
 30
0.0
 40
0.4999974598217677
100
AcDbArc
 50
337.3671721303091
 51
14.98576480150368
  0
ARC
  5
2FBC
330
1A
100
AcDbEntity
  8
ﾚｲﾔｰ1
  6
Continuous
 62
     7
370
    15
100
AcDbCircle
 10
659.587955436237
 20
57.52444256604985
 30
0.0
 40
0.5000356437274238
100
AcDbArc
 50
104.9976264979314
 51
204.9965994016466
  0
ARC
  5
2FBD
330
1A
100
AcDbEntity
  8
ﾚｲﾔｰ1
  6
Continuous
 62
     7
370
    15
100
AcDbCircle
 10
659.5879584107952
 20
57.52444894476434
 30
0.0
 40
1.500026259768528
100
AcDbArc
 50
105.0026237458353
 51
204.9985327276496
  0
ARC
  5
2FBE
330
1A
100
AcDbEntity
  8
ﾚｲﾔｰ1
  6
Continuous
 62
     7
370
    15
100
AcDbCircle
 10
666.3370167383998
 20
58.29159823042892
 30
0.0
 40
10.00000147691555
100
AcDbArc
 50
304.3054005718864
 51
335.0008236151493
  0
LINE
  5
2FBF
330
1A
100
AcDbEntity
  8
ﾚｲﾔｰ1
  6
Continuous
 62
     7
370
    15
100
AcDbLine
 10
671.9729566968919
 20
50.0311452692049
 30
0.0
 11
667.4729566968933
 21
50.0311452692049
 31
0.0
  0
LINE
  5
2FC0
330
1A
100
AcDbEntity
  8
ﾚｲﾔｰ1
  6
Continuous
 62
     7
370
    15
100
AcDbLine
 10
661.9729566968924
 20
48.83114526920462
 30
0.0
 11
667.4729566968933
 21
48.83114526920462
 31
0.0
  0
LINE
  5
2FC1
330
1A
100
AcDbEntity
  8
ﾚｲﾔｰ1
  6
Continuous
 62
     7
370
    15
100
AcDbLine
 10
662.9729566968933
 20
50.0311452692049
 30
0.0
 11
667.4729566968933
 21
50.0311452692049
 31
0.0
  0
LINE
  5
2FC2
330
1A
100
AcDbEntity
  8
ﾚｲﾔｰ1
  6
Continuous
 62
     7
370
    15
100
AcDbLine
 10
662.9729566968933
 20
50.0311452692049
 30
0.0
 11
663.4729566968924
 21
48.83114526920462
 31
0.0
  0
LINE
  5
2FC3
330
1A
100
AcDbEntity
  8
ﾚｲﾔｰ1
  6
Continuous
 62
     7
370
    15
100
AcDbLine
 10
667.4729566968933
 20
53.03114526920353
 30
0.0
 11
664.222956696892
 21
53.03114526920353
 31
0.0
  0
LINE
  5
2FC4
330
1A
100
AcDbEntity
  8
ﾚｲﾔｰ1
  6
Continuous
 62
     7
370
    15
100
AcDbLine
 10
667.4729566968933
 20
54.33114526920462
 30
0.0
 11
664.9730566968921
 21
54.33114526920462
 31
0.0
  0
LINE
  5
2FC5
330
1A
100
AcDbEntity
  8
ﾚｲﾔｰ1
  6
Continuous
 62
     7
370
    15
100
AcDbLine
 10
664.9729566968929
 20
54.33114526920462
 30
0.0
 11
664.9729566968929
 21
53.03114526920353
 31
0.0
  0
ARC
  5
2FC6
330
1A
100
AcDbEntity
  8
ﾚｲﾔｰ1
  6
Continuous
 62
     7
370
    15
100
AcDbCircle
 10
666.3371654863506
 20
58.29180693159969
 30
0.0
 40
8.999969641398571
100
AcDbArc
 50
317.1217703283115
 51
334.9992263584089
  0
LINE
  5
2FC7
330
1A
100
AcDbEntity
  8
ﾚｲﾔｰ1
  6
Continuous
 62
     7
370
    15
100
AcDbLine
 10
672.9729566968928
 20
48.83114526920462
 30
0.0
 11
672.9729566968928
 21
47.33114526920371
 31
0.0
  0
LINE
  5
2FC8
330
1A
100
AcDbEntity
  8
ﾚｲﾔｰ1
  6
Continuous
 62
     7
370
    15
100
AcDbLine
 10
671.9729566968919
 20
50.0311452692049
 30
0.0
 11
671.4729566968928
 21
48.83114526920462
 31
0.0
  0
ARC
  5
2FC9
330
1A
100
AcDbEntity
  8
ﾚｲﾔｰ1
  6
Continuous
 62
     7
370
    15
100
AcDbCircle
 10
672.5660133149838
 20
52.50803515953475
 30
0.0
 40
0.500009913528724
100
AcDbArc
 50
202.6171817386803
 51
317.1277270512598
  0
ARC
  5
2FCA
330
1A
100
AcDbEntity
  8
ﾚｲﾔｰ1
  6
Continuous
 62
     7
370
    15
100
AcDbCircle
 10
672.3041588079438
 20
53.13641356319249
 30
0.0
 40
0.5000436038993722
100
AcDbArc
 50
164.9987072434239
 51
202.612892858945
  0
LINE
  5
2FCB
330
1A
100
AcDbEntity
  8
ﾚｲﾔｰ1
  6
Continuous
 62
     7
370
    15
100
AcDbLine
 10
669.9729566968919
 20
54.33114526920462
 30
0.0
 11
669.9729566968919
 21
53.03114526920353
 31
0.0
  0
LINE
  5
2FCC
330
1A
100
AcDbEntity
  8
ﾚｲﾔｰ1
  6
Continuous
 62
     7
370
    15
100
AcDbLine
 10
662.9729566968933
 20
50.0311452692049
 30
0.0
 11
664.222956696892
 21
53.03114526920353
 31
0.0
  0
ARC
  5
2FCD
330
1A
100
AcDbEntity
  8
ﾚｲﾔｰ1
  6
Continuous
 62
     7
370
    15
100
AcDbCircle
 10
662.3799969871404
 20
52.50795246781809
 30
0.0
 40
0.5000194239284978
100
AcDbArc
 50
222.8739674882376
 51
337.3811237217849
  0
LINE
  5
2FCE
330
1A
100
AcDbEntity
  8
ﾚｲﾔｰ1
  6
Continuous
 62
     7
370
    15
100
AcDbLine
 10
672.9728992893313
 20
22.41751589944641
 30
0.0
 11
672.9728992893313
 21
23.21751589944614
 31
0.0
  0
LINE
  5
2FCF
330
1A
100
AcDbEntity
  8
ﾚｲﾔｰ1
  6
Continuous
 62
     7
370
    15
100
AcDbLine
 10
673.1227566968916
 20
58.12344526920469
 30
0.0
 11
671.8211566968927
 21
53.26584526920488
 31
0.0
  0
LINE
  5
2FD0
330
1A
100
AcDbEntity
  8
ﾚｲﾔｰ1
  6
Continuous
 62
     7
370
    15
100
AcDbLine
 10
674.4938566968919
 20
54.48814526920478
 30
0.0
 11
675.8112566968927
 21
57.3132452692048
 31
0.0
  0
ARC
  5
2FD1
330
1A
100
AcDbEntity
  8
ﾚｲﾔｰ1
  6
Continuous
 62
     7
370
    15
100
AcDbCircle
 10
668.608776037139
 20
58.29174021948211
 30
0.0
 40
9.999994428420359
100
AcDbArc
 50
205.0007250444144
 51
235.6961021037261
  0
LINE
  5
2FD2
330
1A
100
AcDbEntity
  8
ﾚｲﾔｰ1
  6
Continuous
 62
     7
370
    15
100
AcDbLine
 10
667.4729566968933
 20
53.03114526920353
 30
0.0
 11
670.7229566968919
 21
53.03114526920353
 31
0.0
  0
LINE
  5
2FD3
330
1A
100
AcDbEntity
  8
ﾚｲﾔｰ1
  6
Continuous
 62
     7
370
    15
100
AcDbLine
 10
667.4730566968917
 20
54.33114526920462
 30
0.0
 11
669.9729566968919
 21
54.33114526920462
 31
0.0
  0
ARC
  5
2FD4
330
1A
100
AcDbEntity
  8
ﾚｲﾔｰ1
  6
Continuous
 62
     7
370
    15
100
AcDbCircle
 10
667.4728261352413
 20
30.46441589923478
 30
0.0
 40
9.746968980505926
100
AcDbArc
 50
235.6483526736345
 51
304.3526890678017
  0
LINE
  5
2FD5
330
1A
100
AcDbEntity
  8
ﾚｲﾔｰ1
  6
Continuous
 62
     7
370
    15
100
AcDbLine
 10
661.9728992893317
 20
22.41741589944712
 30
0.0
 11
672.9728992893313
 21
22.41751589944641
 31
0.0
  0
LINE
  5
2FD6
330
1A
100
AcDbEntity
  8
ﾚｲﾔｰ1
  6
Continuous
 62
     7
370
    15
100
AcDbLine
 10
671.8425566968919
 20
52.944145269204
 30
0.0
 11
672.1044566968928
 21
52.31574526920394
 31
0.0
  0
LINE
  5
2FD7
330
1A
100
AcDbEntity
  8
ﾚｲﾔｰ1
  6
Continuous
 62
     7
370
    15
100
AcDbLine
 10
670.7229566968919
 20
53.03114526920353
 30
0.0
 11
672.1567566968931
 21
58.38224526920476
 31
0.0
  0
LINE
  5
2FD8
330
1A
100
AcDbEntity
  8
ﾚｲﾔｰ1
  6
Continuous
 62
     7
370
    15
100
AcDbLine
 10
661.9729566968924
 20
48.83114526920462
 30
0.0
 11
661.9729566968924
 21
47.33114526920371
 31
0.0
  0
ARC
  5
2FD9
330
1A
100
AcDbEntity
  8
ﾚｲﾔｰ1
  6
Continuous
 62
     7
370
    15
100
AcDbCircle
 10
675.3580596017193
 20
57.52453903943251
 30
0.0
 40
0.4999420316307203
100
AcDbArc
 50
334.9988444911297
 51
74.99969437057052
  0
LINE
  5
2FDA
330
1A
100
AcDbEntity
  8
ﾚｲﾔｰ1
  6
Continuous
 62
     7
370
    15
100
AcDbLine
 10
658.2284566968914
 20
56.89054526920449
 30
0.0
 11
659.5458566968923
 21
54.06544526920447
 31
0.0
  0
LINE
  5
2FDB
330
1A
100
AcDbEntity
  8
ﾚｲﾔｰ1
  6
Continuous
 62
     7
370
    15
100
AcDbLine
 10
660.4521566968921
 20
54.48804526920458
 30
0.0
 11
659.1347566968918
 21
57.3131452692046
 31
0.0
  0
ARC
  5
2FDC
330
1A
100
AcDbEntity
  8
ﾚｲﾔｰ1
  6
Continuous
 62
     7
370
    15
100
AcDbCircle
 10
673.6057566968918
 20
57.99404526920397
 30
0.0
 40
1.50000348332961
100
AcDbArc
 50
75.00116534313434
 51
165.0011653431276
  0
LINE
  5
2FDD
330
1A
100
AcDbEntity
  8
ﾚｲﾔｰ1
  6
Continuous
 62
     7
370
    15
100
AcDbLine
 10
675.4874566968917
 20
58.0074452692038
 30
0.0
 11
673.7350566968919
 21
58.47704526920506
 31
0.0
  0
ARC
  5
2FDE
330
1A
100
AcDbEntity
  8
ﾚｲﾔｰ1
  6
Continuous
 62
     7
370
    15
100
AcDbCircle
 10
673.6057566968923
 20
57.99404526920444
 30
0.0
 40
0.5000333588877285
100
AcDbArc
 50
75.00215381804972
 51
165.0021538180631
  0
LINE
  5
2FDF
330
1A
100
AcDbEntity
  8
ﾚｲﾔｰ1
  6
Continuous
 62
     7
370
    15
100
AcDbLine
 10
660.9519566968931
 20
59.44284526920501
 30
0.0
 11
659.1996566968917
 21
58.97334526920395
 31
0.0
  0
ARC
  5
2FE0
330
1A
100
AcDbEntity
  8
ﾚｲﾔｰ1
  6
Continuous
 62
     7
370
    15
100
AcDbCircle
 10
661.3402566968932
 20
57.99404526920489
 30
0.0
 40
1.500003483328416
100
AcDbArc
 50
14.9988346568455
 51
104.9988346568383
  0
ARC
  5
2FE1
330
1A
100
AcDbEntity
  8
ﾚｲﾔｰ1
  6
Continuous
 62
     7
370
    15
100
AcDbCircle
 10
661.3403158457829
 20
57.99401111865382
 30
0.0
 40
0.4999850647768602
100
AcDbArc
 50
15.00338042546055
 51
105.0063462321884
  0
LINE
  5
2FE2
330
1A
100
AcDbEntity
  8
ﾚｲﾔｰ1
  6
Continuous
 62
     7
370
    15
100
AcDbLine
 10
663.1033566968924
 20
52.944145269204
 30
0.0
 11
662.8415566968931
 21
52.31564526920374
 31
0.0
  0
LINE
  5
2FE3
330
1A
100
AcDbEntity
  8
CENTER L
  6
CENTER
 62
     1
 48
3.0
100
AcDbLine
 10
667.4729759578601
 20
55.6900018965743
 30
0.0
 11
667.4728897828331
 21
18.29184469030179
 31
0.0
  0
LINE
  5
2FE4
330
1A
100
AcDbEntity
  8
ﾚｲﾔｰ1
  6
Continuous
 62
     7
370
    15
100
AcDbLine
 10
672.9729566968928
 20
48.83114526920462
 30
0.0
 11
667.4729566968933
 21
48.83114526920462
 31
0.0
  0
ARC
  5
2FE5
330
1A
100
AcDbEntity
  8
製品
100
AcDbCircle
 10
675.5545996098742
 20
51.33114526920372
 30
0.0
 40
4.0
100
AcDbArc
 50
270.0
 51
319.8551549048028
  0
ARC
  5
2FE6
330
1A
100
AcDbEntity
  8
製品
100
AcDbCircle
 10
699.0608459624013
 20
59.2823651456647
 30
0.0
 40
4.0
100
AcDbArc
 50
90.0
 51
139.8551549048027
  0
ARC
  5
2FEA
330
1A
100
AcDbEntity
  8
製品
100
AcDbCircle
 10
675.3482325073441
 20
51.33114875397132
 30
0.0
 40
9.0
100
AcDbArc
 50
269.9997582577427
 51
319.8551549048028
  0
LINE
  5
2FEE
330
1A
100
AcDbEntity
  8
ﾌﾞﾗｹｯﾄ本体
100
AcDbLine
 10
646.0515446230933
 20
42.33105614361983
 30
0.0
 11
705.694312276973
 21
42.33105790282417
 31
0.0
  0
LINE
  5
2FEF
330
1A
100
AcDbEntity
  8
ﾌﾞﾗｹｯﾄ本体
100
AcDbLine
 10
644.8147668609199
 20
39.34989418652782
 30
0.0
 11
715.6874594345072
 21
39.34989418652782
 31
0.0
  0
MTEXT
  5
2FF0
330
1A
100
AcDbEntity
  8
ﾌﾞﾗｹｯﾄ本体
100
AcDbMText
 10
670.4323916331359
 20
35.62004213633753
 30
0.0
 40
3.174999952316284
 41
7.572153550054679
 71
     1
 72
     5
  1
30
  7
Style2
 73
     1
 44
1.0
  0
LINE
  5
2FF1
330
1A
100
AcDbEntity
  8
ﾌﾞﾗｹｯﾄ本体
100
AcDbLine
 10
656.7829620285233
 20
37.31881585176808
 30
0.0
 11
657.2829620285233
 21
37.31881585176808
 31
0.0
  0
LINE
  5
2FF2
330
1A
100
AcDbEntity
  8
ﾌﾞﾗｹｯﾄ本体
100
AcDbLine
 10
656.7829620285233
 20
35.31881585176808
 30
0.0
 11
657.2829620285233
 21
35.31881585176808
 31
0.0
  0
LINE
  5
2FF3
330
1A
100
AcDbEntity
  8
ﾌﾞﾗｹｯﾄ本体
100
AcDbLine
 10
652.7285784211216
 20
26.16096196697282
 30
0.0
 11
652.7285784211226
 21
39.34989418652782
 31
0.0
  0
MTEXT
  5
2FF4
330
1A
100
AcDbEntity
  8
ﾌﾞﾗｹｯﾄ本体
100
AcDbMText
 10
650.2254233936833
 20
35.59996020835337
 30
0.0
 40
3.174999952316284
 41
7.572153550054679
 71
     1
 72
     5
  1
10
  7
Style2
 73
     1
 44
1.0
  0
LINE
  5
2FF5
330
1A
100
AcDbEntity
  8
ﾌﾞﾗｹｯﾄ本体
100
AcDbLine
 10
656.7829620285233
 20
35.31881585176808
 30
0.0
 11
656.7829620285233
 21
37.31881585176808
 31
0.0
  0
LINE
  5
2FF6
330
1A
100
AcDbEntity
  8
ﾌﾞﾗｹｯﾄ本体
100
AcDbLine
 10
651.7829620285233
 20
37.31881585176808
 30
0.0
 11
652.2829620285233
 21
37.31881585176808
 31
0.0
  0
LINE
  5
2FF7
330
1A
100
AcDbEntity
  8
ﾌﾞﾗｹｯﾄ本体
100
AcDbLine
 10
651.7829620285233
 20
35.81881585176808
 30
0.0
 11
652.2829620285233
 21
35.81881585176808
 31
0.0
  0
LINE
  5
2FF8
330
1A
100
AcDbEntity
  8
ﾌﾞﾗｹｯﾄ本体
100
AcDbLine
 10
651.7829620285233
 20
35.81881585176808
 30
0.0
 11
651.7829620285233
 21
37.31881585176808
 31
0.0
  0
LINE
  5
2FF9
330
1A
100
AcDbEntity
  8
ﾌﾞﾗｹｯﾄ本体
100
AcDbLine
 10
652.2829620285233
 20
35.81881585176808
 30
0.0
 11
652.2829620285233
 21
37.31881585176808
 31
0.0
  0
LINE
  5
2FFA
330
1A
100
AcDbEntity
  8
ﾌﾞﾗｹｯﾄ本体
100
AcDbLine
 10
659.346225479906
 20
39.34989418652782
 30
0.0
 11
659.346225479906
 21
26.91998177674037
 31
0.0
  0
MTEXT
  5
2FFB
330
1A
100
AcDbEntity
  8
ﾌﾞﾗｹｯﾄ本体
100
AcDbMText
 10
660.2187127873967
 20
35.60376008505552
 30
0.0
 40
3.174999952316284
 41
7.572153550054679
 71
     1
 72
     5
  1
20
  7
Style2
 73
     1
 44
1.0
  0
LINE
  5
2FFC
330
1A
100
AcDbEntity
  8
ﾌﾞﾗｹｯﾄ本体
100
AcDbLine
 10
659.346225479906
 20
26.91998177674037
 30
0.0
 11
659.3306482657508
 21
26.06745273595817
 31
0.0
  0
LINE
  5
2FFD
330
1A
100
AcDbEntity
  8
ﾌﾞﾗｹｯﾄ本体
100
AcDbLine
 10
661.7829620285233
 20
37.31881585176808
 30
0.0
 11
662.2829620285233
 21
37.31881585176808
 31
0.0
  0
LINE
  5
2FFE
330
1A
100
AcDbEntity
  8
ﾌﾞﾗｹｯﾄ本体
100
AcDbLine
 10
661.7829620285233
 20
35.81881585176808
 30
0.0
 11
662.2829620285233
 21
35.81881585176808
 31
0.0
  0
LINE
  5
2FFF
330
1A
100
AcDbEntity
  8
ﾌﾞﾗｹｯﾄ本体
100
AcDbLine
 10
662.2829620285233
 20
35.81881585176808
 30
0.0
 11
662.2829620285233
 21
37.31881585176808
 31
0.0
  0
LINE
  5
3000
330
1A
100
AcDbEntity
  8
ﾌﾞﾗｹｯﾄ本体
100
AcDbLine
 10
661.7829620285233
 20
35.81881585176808
 30
0.0
 11
661.7829620285233
 21
37.31881585176808
 31
0.0
  0
LINE
  5
3001
330
1A
100
AcDbEntity
  8
ﾌﾞﾗｹｯﾄ本体
100
AcDbLine
 10
657.2829620285233
 20
35.31881585176808
 30
0.0
 11
657.2829620285233
 21
37.31881585176808
 31
0.0
  0
LINE
  5
3002
330
1A
100
AcDbEntity
  8
ﾌﾞﾗｹｯﾄ本体
100
AcDbLine
 10
671.7829620285233
 20
37.31881585176808
 30
0.0
 11
672.2829620285233
 21
37.31881585176808
 31
0.0
  0
LINE
  5
3003
330
1A
100
AcDbEntity
  8
ﾌﾞﾗｹｯﾄ本体
100
AcDbLine
 10
666.7829620285233
 20
37.31881585176808
 30
0.0
 11
667.2829620285233
 21
37.31881585176808
 31
0.0
  0
LINE
  5
3004
330
1A
100
AcDbEntity
  8
ﾌﾞﾗｹｯﾄ本体
100
AcDbLine
 10
671.7829620285233
 20
35.81881585176808
 30
0.0
 11
672.2829620285233
 21
35.81881585176808
 31
0.0
  0
LINE
  5
3005
330
1A
100
AcDbEntity
  8
ﾌﾞﾗｹｯﾄ本体
100
AcDbLine
 10
666.7829620285233
 20
35.31881585176808
 30
0.0
 11
667.2829620285233
 21
35.31881585176808
 31
0.0
  0
LINE
  5
3006
330
1A
100
AcDbEntity
  8
ﾌﾞﾗｹｯﾄ本体
100
AcDbLine
 10
667.2829620285233
 20
35.31881585176808
 30
0.0
 11
667.2829620285233
 21
37.31881585176808
 31
0.0
  0
LINE
  5
3007
330
1A
100
AcDbEntity
  8
ﾌﾞﾗｹｯﾄ本体
100
AcDbLine
 10
672.2829620285233
 20
35.81881585176808
 30
0.0
 11
672.2829620285233
 21
37.31881585176808
 31
0.0
  0
LINE
  5
3008
330
1A
100
AcDbEntity
  8
ﾌﾞﾗｹｯﾄ本体
100
AcDbLine
 10
671.7829620285233
 20
35.81881585176808
 30
0.0
 11
671.7829620285233
 21
37.31881585176808
 31
0.0
  0
LINE
  5
3009
330
1A
100
AcDbEntity
  8
ﾌﾞﾗｹｯﾄ本体
100
AcDbLine
 10
666.7829620285233
 20
35.31881585176808
 30
0.0
 11
666.7829620285233
 21
37.31881585176808
 31
0.0
  0
MTEXT
  5
300A
330
1A
100
AcDbEntity
  8
ﾌﾞﾗｹｯﾄ本体
100
AcDbMText
 10
685.0263686001976
 20
35.58688079006066
 30
0.0
 40
3.174999952316284
 41
7.572153550054679
 71
     1
 72
     5
  1
45
  7
Style2
 73
     1
 44
1.0
  0
LINE
  5
300B
330
1A
100
AcDbEntity
  8
ﾌﾞﾗｹｯﾄ本体
100
AcDbLine
 10
676.7829620285233
 20
37.31881585176808
 30
0.0
 11
677.2829620285233
 21
37.31881585176808
 31
0.0
  0
LINE
  5
300C
330
1A
100
AcDbEntity
  8
ﾌﾞﾗｹｯﾄ本体
100
AcDbLine
 10
676.7829620285233
 20
35.31881585176808
 30
0.0
 11
677.2829620285233
 21
35.31881585176808
 31
0.0
  0
LINE
  5
300D
330
1A
100
AcDbEntity
  8
ﾌﾞﾗｹｯﾄ本体
100
AcDbLine
 10
677.2829620285233
 20
35.31881585176808
 30
0.0
 11
677.2829620285233
 21
37.31881585176808
 31
0.0
  0
LINE
  5
300E
330
1A
100
AcDbEntity
  8
ﾌﾞﾗｹｯﾄ本体
100
AcDbLine
 10
676.7829620285233
 20
35.31881585176808
 30
0.0
 11
676.7829620285233
 21
37.31881585176808
 31
0.0
  0
LINE
  5
300F
330
1A
100
AcDbEntity
  8
ﾌﾞﾗｹｯﾄ本体
100
AcDbLine
 10
686.7829620285233
 20
37.31881585176808
 30
0.0
 11
687.2829620285233
 21
37.31881585176808
 31
0.0
  0
LINE
  5
3010
330
1A
100
AcDbEntity
  8
ﾌﾞﾗｹｯﾄ本体
100
AcDbLine
 10
681.7829620285233
 20
37.31881585176808
 30
0.0
 11
682.2829620285233
 21
37.31881585176808
 31
0.0
  0
LINE
  5
3011
330
1A
100
AcDbEntity
  8
ﾌﾞﾗｹｯﾄ本体
100
AcDbLine
 10
686.7829620285233
 20
35.81881585176808
 30
0.0
 11
687.2829620285233
 21
35.81881585176808
 31
0.0
  0
LINE
  5
3012
330
1A
100
AcDbEntity
  8
ﾌﾞﾗｹｯﾄ本体
100
AcDbLine
 10
681.7829620285233
 20
35.31881585176808
 30
0.0
 11
682.2829620285233
 21
35.31881585176808
 31
0.0
  0
LINE
  5
3013
330
1A
100
AcDbEntity
  8
ﾌﾞﾗｹｯﾄ本体
100
AcDbLine
 10
687.2829620285233
 20
35.81881585176808
 30
0.0
 11
687.2829620285233
 21
37.31881585176808
 31
0.0
  0
LINE
  5
3014
330
1A
100
AcDbEntity
  8
ﾌﾞﾗｹｯﾄ本体
100
AcDbLine
 10
686.7829620285233
 20
35.81881585176808
 30
0.0
 11
686.7829620285233
 21
37.31881585176808
 31
0.0
  0
LINE
  5
3015
330
1A
100
AcDbEntity
  8
ﾌﾞﾗｹｯﾄ本体
100
AcDbLine
 10
681.7829620285233
 20
35.31881585176808
 30
0.0
 11
681.7829620285233
 21
37.31881585176808
 31
0.0
  0
LINE
  5
3016
330
1A
100
AcDbEntity
  8
ﾌﾞﾗｹｯﾄ本体
100
AcDbLine
 10
682.2829620285233
 20
35.31881585176808
 30
0.0
 11
682.2829620285233
 21
37.31881585176808
 31
0.0
  0
LINE
  5
3017
330
1A
100
AcDbEntity
  8
ﾌﾞﾗｹｯﾄ本体
100
AcDbLine
 10
700.5984983949947
 20
25.48295044773141
 30
0.0
 11
700.5984983949965
 21
39.34989418652782
 31
0.0
  0
MTEXT
  5
3018
330
1A
100
AcDbEntity
  8
ﾌﾞﾗｹｯﾄ本体
100
AcDbMText
 10
691.8729481707287
 20
32.26609092048108
 30
0.0
 40
3.174999952316284
 41
9.065599999999999
 71
     1
 72
     5
  1
{\fMS PGothic|b0|i0|c128|p50;140}
  7
Style2
 73
     1
 44
1.0
  0
MTEXT
  5
3019
330
1A
100
AcDbEntity
  8
ﾌﾞﾗｹｯﾄ本体
100
AcDbMText
 10
691.1526661488724
 20
36.96947898515924
 30
0.0
 40
3.174999952316284
 41
9.065584775461012
 71
     1
 72
     5
  1
{\fMS PGothic|b0|i0|c128|p50;UST}
  7
Style2
 73
     1
 44
1.0
  0
LINE
  5
301A
330
1A
100
AcDbEntity
  8
ﾌﾞﾗｹｯﾄ本体
100
AcDbLine
 10
707.2161454538527
 20
25.52403029845033
 30
0.0
 11
707.2161454538527
 21
39.34989418652782
 31
0.0
  0
LINE
  5
301B
330
1A
100
AcDbEntity
  8
ﾌﾞﾗｹｯﾄ本体
100
AcDbLine
 10
641.6301981667434
 20
23.59614349546683
 30
0.0
 11
705.3522141758867
 21
22.43182856386267
 31
0.0
  0
LINE
  5
301C
330
1A
100
AcDbEntity
  8
ﾌﾞﾗｹｯﾄ本体
100
AcDbLine
 10
705.3168837489956
 20
25.41581376086635
 30
0.0
 11
643.0333439992935
 21
26.3375536410876
 31
0.0
  0
LINE
  5
301D
330
1A
100
AcDbEntity
  8
ﾌﾞﾗｹｯﾄ本体
100
AcDbLine
 10
723.2428926463353
 20
48.31789598569804
 30
0.0
 11
721.3628512820514
 21
43.15252478976463
 31
0.0
  0
LINE
  5
301E
330
1A
100
AcDbEntity
  8
ﾌﾞﾗｹｯﾄ本体
100
AcDbLine
 10
719.0640942617237
 20
28.15550378690324
 30
0.0
 11
726.0472491164864
 21
47.34156406662697
 31
0.0
  0
ARC
  5
301F
330
1A
100
AcDbEntity
  8
ﾌﾞﾗｹｯﾄ本体
100
AcDbCircle
 10
705.6926459299583
 20
50.32239220992716
 30
0.0
 40
7.991334480835699
100
AcDbArc
 50
270.0119472726424
 51
341.8812952007117
  0
LINE
  5
3020
330
1A
100
AcDbEntity
  8
ﾌﾞﾗｹｯﾄ本体
100
AcDbLine
 10
713.1273316928227
 20
25.86083912588066
 30
0.0
 11
705.3168837489956
 21
25.41581376086635
 31
0.0
  0
LINE
  5
3021
330
1A
100
AcDbEntity
  8
ﾌﾞﾗｹｯﾄ本体
100
AcDbLine
 10
726.2554044251474
 20
26.81430116598409
 30
0.0
 11
720.0032144471524
 21
26.81430116598409
 31
0.0
  0
LINE
  5
3022
330
1A
100
AcDbEntity
  8
ﾌﾞﾗｹｯﾄ本体
100
AcDbLine
 10
718.5026738486258
 20
35.32935133243228
 30
0.0
 11
715.7721221464717
 21
27.8272221882292
 31
0.0
  0
ARC
  5
3023
330
1A
100
AcDbEntity
  8
ﾌﾞﾗｹｯﾄ本体
100
AcDbCircle
 10
712.957311859297
 20
28.85133288624826
 30
0.0
 40
2.995322966658246
100
AcDbArc
 50
273.2539587814215
 51
340.0071263302427
  0
LINE
  5
3024
330
1A
100
AcDbEntity
  8
ﾌﾞﾗｹｯﾄ本体
100
AcDbLine
 10
720.0032144471524
 20
26.81430116598409
 30
0.0
 11
720.0021268738865
 21
26.81430152001855
 31
0.0
  0
LINE
  5
3025
330
1A
100
AcDbEntity
  8
ﾌﾞﾗｹｯﾄ本体
100
AcDbLine
 10
719.0637226224435
 20
28.15448168124232
 30
0.0
 11
719.0640942617237
 21
28.15550378690324
 31
0.0
  0
ARC
  5
3026
330
1A
100
AcDbEntity
  8
ﾌﾞﾗｹｯﾄ本体
100
AcDbCircle
 10
720.0020557983834
 20
27.81288069840054
 30
0.0
 40
0.9985791812147333
100
AcDbArc
 50
159.9958977786536
 51
270.0041022210406
  0
ARC
  5
3027
330
1A
100
AcDbEntity
  8
ﾌﾞﾗｹｯﾄ本体
100
AcDbCircle
 10
719.4863365524242
 20
43.83520668973761
 30
0.0
 40
1.996838027246785
100
AcDbArc
 50
270.016959241354
 51
340.0084557018509
  0
ARC
  5
3028
330
1A
100
AcDbEntity
  8
ﾌﾞﾗｹｯﾄ本体
100
AcDbCircle
 10
716.8979903350546
 20
43.83304241375578
 30
0.0
 40
1.995822840291047
100
AcDbArc
 50
161.8011583075797
 51
270.0823782965046
  0
ARC
  5
3029
330
1A
100
AcDbEntity
  8
ﾌﾞﾗｹｯﾄ本体
100
AcDbCircle
 10
715.69070485688
 20
36.35627805147425
 30
0.0
 40
2.99361789425795
100
AcDbArc
 50
339.9378848441857
 51
90.06211515549468
  0
LINE
  5
302A
330
1A
100
AcDbEntity
  8
ﾌﾞﾗｹｯﾄ本体
100
AcDbLine
 10
719.4869276056897
 20
41.83836874996546
 30
0.0
 11
716.9008598732735
 21
41.83722163633667
 31
0.0
  0
ARC
  5
302B
330
1A
100
AcDbEntity
  8
ﾌﾞﾗｹｯﾄ本体
100
AcDbCircle
 10
723.4511651470447
 20
26.46491935579826
 30
0.0
 40
2.996983882125313
100
AcDbArc
 50
273.2723254995698
 51
329.7014018457365
  0
LINE
  5
302C
330
1A
100
AcDbEntity
  8
ﾌﾞﾗｹｯﾄ本体
100
AcDbLine
 10
726.039403094267
 20
24.95398001858831
 30
0.0
 11
726.6868948390756
 21
26.06259081448462
 31
0.0
  0
LINE
  5
302D
330
1A
100
AcDbEntity
  8
ﾌﾞﾗｹｯﾄ本体
100
AcDbLine
 10
726.0387848136406
 20
24.95292142195905
 30
0.0
 11
726.039403094267
 21
24.95398001858831
 31
0.0
  0
LINE
  5
302E
330
1A
100
AcDbEntity
  8
ﾌﾞﾗｹｯﾄ本体
100
AcDbLine
 10
723.6210144916576
 20
23.47275215587348
 30
0.0
 11
723.6222384337988
 21
23.47282189390927
 31
0.0
  0
LINE
  5
302F
330
1A
100
AcDbEntity
  8
ﾌﾞﾗｹｯﾄ本体
100
AcDbLine
 10
726.6868948390756
 20
26.06259081448462
 30
0.0
 11
726.6872290511501
 21
26.06316303971772
 31
0.0
  0
LINE
  5
3030
330
1A
100
AcDbEntity
  8
ﾌﾞﾗｹｯﾄ本体
100
AcDbLine
 10
726.2560671011079
 20
26.81430116598409
 30
0.0
 11
726.2554044251474
 21
26.81430116598409
 31
0.0
  0
ARC
  5
3031
330
1A
100
AcDbEntity
  8
ﾌﾞﾗｹｯﾄ本体
100
AcDbCircle
 10
726.2563266192073
 20
26.31513510250426
 30
0.0
 40
0.4991658685565928
100
AcDbArc
 50
329.6828451623436
 51
90.0297970710587
  0
LINE
  5
3032
330
1A
100
AcDbEntity
  8
ﾌﾞﾗｹｯﾄ本体
100
AcDbLine
 10
705.3522141758867
 20
22.43182856386267
 30
0.0
 11
723.6210144916576
 21
23.47275215587348
 31
0.0
  0
ARC
  5
3033
330
1A
100
AcDbEntity
  8
ﾌﾞﾗｹｯﾄ本体
100
AcDbCircle
 10
646.0515446230933
 20
50.33105614361983
 30
0.0
 40
8.0
100
AcDbArc
 50
202.000000000135
 51
270.0
  0
ARC
  5
3034
330
1A
100
AcDbEntity
  8
ﾌﾞﾗｹｯﾄ本体
100
AcDbCircle
 10
643.1517237784682
 20
34.33667773237932
 30
0.0
 40
8.0
100
AcDbArc
 50
192.48782197195
 51
269.1521363401765
  0
ARC
  5
3035
330
1A
100
AcDbEntity
  8
ﾌﾞﾗｹｯﾄ本体
100
AcDbCircle
 10
395.9451212244267
 20
-8.368032587161394
 30
0.0
 40
242.7279952579918
100
AcDbArc
 50
11.22158848944854
 51
13.47235991696452
  0
LINE
  5
3036
330
1A
100
AcDbEntity
  8
ﾌﾞﾗｹｯﾄ本体
100
AcDbLine
 10
627.7654090534024
 20
52.74271192303586
 30
0.0
 11
633.0490179862054
 21
30.50947867028032
 31
0.0
  0
LWPOLYLINE
  5
3037
330
1A
100
AcDbEntity
  8
ﾌﾞﾗｹｯﾄ本体
100
AcDbPolyline
 90
        4
 70
     0
 43
0.0
 10
636.5382151867843
 20
45.05473334600975
 10
635.4940296852737
 20
47.72389377694986
 10
633.8293713925131
 20
51.97506909095483
 10
632.1589863796898
 20
56.23411808882685
  0
ARC
  5
3038
330
1A
100
AcDbEntity
  8
ﾌﾞﾗｹｯﾄ本体
100
AcDbCircle
 10
644.8138882386383
 20
48.33787578965331
 30
0.0
 40
8.987981646070462
100
AcDbArc
 50
237.5439299867899
 51
270.005600963048
  0
ARC
  5
3039
330
1A
100
AcDbEntity
  8
ﾌﾞﾗｹｯﾄ本体
100
AcDbCircle
 10
641.7962187260591
 20
32.58457902552738
 30
0.0
 40
8.989968637552207
100
AcDbArc
 50
193.379443909088
 51
268.9418407885344
  0
ARC
  5
303A
330
1A
100
AcDbEntity
  8
ﾌﾞﾗｹｯﾄ本体
100
AcDbCircle
 10
896.7274068164165
 20
90.49651028856931
 30
0.0
 40
267.7201451965198
100
AcDbArc
 50
191.1189108525751
 51
192.48782197195
  0
ARC
  5
303B
330
1A
100
AcDbEntity
  8
ﾌﾞﾗｹｯﾄ本体
100
AcDbCircle
 10
645.1230575953677
 20
48.40956154716952
 30
0.0
 40
9.21707065392716
100
AcDbArc
 50
201.3448157940536
 51
236.1612498573994
  0
ARC
  5
303C
330
1A
100
AcDbEntity
  8
ﾌﾞﾗｹｯﾄ本体
100
AcDbCircle
 10
623.8777789856676
 20
51.82050139530662
 30
0.0
 40
3.995514276106281
100
AcDbArc
 50
13.37935449608191
 51
89.98870899884789
  0
LINE
  5
303D
330
1A
100
AcDbEntity
  8
ﾌﾞﾗｹｯﾄ本体
100
AcDbLine
 10
631.6368595213525
 20
61.31601609802402
 30
0.0
 11
621.0754749267735
 21
61.31601609802402
 31
0.0
  0
LINE
  5
303E
330
1A
100
AcDbEntity
  8
ﾌﾞﾗｹｯﾄ本体
100
AcDbLine
 10
620.5363679852953
 20
55.81601602802431
 30
0.0
 11
623.8761601120796
 21
55.81601602802431
 31
0.0
  0
LINE
  5
303F
330
1A
100
AcDbEntity
  8
ﾌﾞﾗｹｯﾄ本体
100
AcDbLine
 10
623.8761601120796
 20
55.81601602802408
 30
0.0
 11
623.8785666475496
 21
55.81601559372763
 31
0.0
  0
LINE
  5
3040
330
1A
100
AcDbEntity
  8
ﾌﾞﾗｹｯﾄ本体
100
AcDbLine
 10
638.6340737865659
 20
47.33420339627542
 30
0.0
 11
633.4900975997798
 21
60.0659912303916
 31
0.0
  0
ARC
  5
3041
330
1A
100
AcDbEntity
  8
ﾌﾞﾗｹｯﾄ本体
100
AcDbCircle
 10
631.6975396499847
 20
56.05458324873763
 30
0.0
 40
0.4951422453814471
100
AcDbArc
 50
21.25949289433431
 51
89.91412599325563
  0
ARC
  5
3042
330
1A
100
AcDbEntity
  8
ﾌﾞﾗｹｯﾄ本体
100
AcDbCircle
 10
630.6915138308313
 20
55.75049530480265
 30
0.0
 40
0.5128795379162616
100
AcDbArc
 50
99.73039603527324
 51
200.9081533542324
  0
ARC
  5
3043
330
1A
100
AcDbEntity
  8
ﾌﾞﾗｹｯﾄ本体
100
AcDbCircle
 10
599.1112575454835
 20
46.85437822925911
 30
0.0
 40
32.2985953238657
100
AcDbArc
 50
13.25274929193975
 51
15.65038424947113
  0
LINE
  5
3044
330
1A
100
AcDbEntity
  8
ﾌﾞﾗｹｯﾄ本体
100
AcDbLine
 10
627.7648522262889
 20
52.74505315278185
 30
0.0
 11
627.7654090534024
 21
52.74271192303586
 31
0.0
  0
LINE
  5
3045
330
1A
100
AcDbEntity
  8
ﾌﾞﾗｹｯﾄ本体
100
AcDbLine
 10
630.6048308896042
 20
56.25599652944339
 30
0.0
 11
631.6982817610606
 21
56.5497249379867
 31
0.0
  0
LINE
  5
3046
330
1A
100
AcDbEntity
  8
ﾌﾞﾗｹｯﾄ本体
100
AcDbLine
 10
630.5496850551089
 20
54.25873745993413
 30
0.0
 11
631.9938303606513
 21
48.18182680334172
 31
0.0
  0
ARC
  5
3047
330
1A
100
AcDbEntity
  8
ﾌﾞﾗｹｯﾄ本体
100
AcDbCircle
 10
631.6374479110682
 20
59.31810676761239
 30
0.0
 40
1.997909220330218
100
AcDbArc
 50
22.01257778538509
 51
89.98742221477582
  0
LINE
  5
3048
330
1A
100
AcDbEntity
  8
ﾌﾞﾗｹｯﾄ本体
100
AcDbLine
 10
631.6378865175856
 20
61.31601609802402
 30
0.0
 11
631.6368595213525
 21
61.31601609802402
 31
0.0
  0
LINE
  5
3049
330
1A
100
AcDbEntity
  8
ﾌﾞﾗｹｯﾄ本体
100
AcDbLine
 10
633.4900975997798
 20
60.0659912303916
 30
0.0
 11
633.4897128802195
 21
60.06694344471708
 31
0.0
  0
ARC
  5
304A
330
1A
100
AcDbEntity
  8
ﾌﾞﾗｹｯﾄ本体
100
AcDbCircle
 10
619.0259449646737
 20
67.29610887980294
 30
0.0
 40
2.027508834332333
100
AcDbArc
 50
96.88946681227289
 51
177.775743364148
  0
ARC
  5
304B
330
1A
100
AcDbEntity
  8
ﾌﾞﾗｹｯﾄ本体
100
AcDbCircle
 10
620.5363679852953
 20
62.81942198442681
 30
0.0
 40
7.003405956402789
100
AcDbArc
 50
127.3072112058872
 51
154.1022949115101
  0
LINE
  5
304C
330
1A
100
AcDbEntity
  8
ﾌﾞﾗｹｯﾄ本体
100
AcDbLine
 10
619.1089338005049
 20
63.67235068411111
 30
0.0
 11
620.0279486544304
 21
68.72693238070479
 31
0.0
  0
ARC
  5
304D
330
1A
100
AcDbEntity
  8
ﾌﾞﾗｹｯﾄ本体
100
AcDbCircle
 10
620.5363679852953
 20
62.81942198442681
 30
0.0
 40
7.00340595640272
100
AcDbArc
 50
205.8977050884753
 51
270.0
  0
ARC
  5
304E
330
1A
100
AcDbEntity
  8
ﾌﾞﾗｹｯﾄ本体
100
AcDbCircle
 10
619.2101298680309
 20
58.21565396751913
 30
0.0
 40
2.212443925944471
100
AcDbArc
 50
182.6001183695853
 51
254.2793732736375
  0
LINE
  5
304F
330
1A
100
AcDbEntity
  8
ﾌﾞﾗｹｯﾄ本体
100
AcDbLine
 10
614.234359952984
 20
65.87431488723024
 30
0.0
 11
614.2362771546113
 21
65.87826989096339
 31
0.0
  0
LINE
  5
3050
330
1A
100
AcDbEntity
  8
ﾌﾞﾗｹｯﾄ本体
100
AcDbLine
 10
614.0329620288912
 20
60.64339225044824
 30
0.0
 11
614.0329620288921
 21
64.99545171840515
 31
0.0
  0
ARC
  5
3051
330
1A
100
AcDbEntity
  8
ﾌﾞﾗｹｯﾄ本体
100
AcDbCircle
 10
616.0510903530621
 20
60.64335363051743
 30
0.0
 40
2.018128324539063
100
AcDbArc
 50
179.9989035587949
 51
205.8148956390268
  0
LINE
  5
3052
330
1A
100
AcDbEntity
  8
ﾌﾞﾗｹｯﾄ本体
100
AcDbLine
 10
614.2362771546113
 20
59.76057407789295
 30
0.0
 11
614.234359952984
 21
59.76452908162361
 31
0.0
  0
ARC
  5
3053
330
1A
100
AcDbEntity
  8
ﾌﾞﾗｹｯﾄ本体
100
AcDbCircle
 10
616.0510903504318
 20
64.99549033893896
 30
0.0
 40
2.018128321909043
100
AcDbArc
 50
154.1851043438459
 51
180.0010964583232
  0
ARC
  5
3054
330
1A
100
AcDbEntity
  8
ﾌﾞﾗｹｯﾄ本体
100
AcDbCircle
 10
621.0738260741337
 20
63.31342165863936
 30
0.0
 40
1.997405069802443
100
AcDbArc
 50
169.7001856775216
 51
269.9949678537453
  0
LINE
  5
3055
330
1A
100
AcDbEntity
  8
ﾌﾞﾗｹｯﾄ本体
100
AcDbLine
 10
616.9999637060482
 20
58.11528633390736
 30
0.0
 11
616.99996370605
 21
67.37479822470305
 31
0.0
  0
ARC
  5
3056
330
1A
100
AcDbEntity
  8
ﾌﾞﾗｹｯﾄ本体
100
AcDbCircle
 10
619.0350547719799
 20
64.78966281253207
 30
0.0
 40
4.526353214694267
100
AcDbArc
 50
90.0
 51
127.3072112058872
  0
LINE
  5
3057
330
1A
100
AcDbEntity
  8
ﾌﾞﾗｹｯﾄ本体
100
AcDbLine
 10
619.5363133728633
 20
69.31601602722645
 30
0.0
 11
619.0350547719799
 21
69.31601602722645
 31
0.0
  0
ARC
  5
3058
330
1A
100
AcDbEntity
  8
ﾌﾞﾗｹｯﾄ本体
100
AcDbCircle
 10
619.5367255860246
 20
68.81666463707285
 30
0.0
 40
0.4993512674506938
100
AcDbArc
 50
349.7001856775152
 51
89.99496785374526
  0
ARC
  5
3059
330
1A
100
AcDbEntity
  8
ﾌﾞﾗｹｯﾄ本体
100
AcDbCircle
 10
740.9549094939438
 20
41.8213655761395
 30
0.0
 40
2.997009517822447
100
AcDbArc
 50
180.0109177760722
 51
233.9881842846525
  0
LINE
  5
305A
330
1A
100
AcDbEntity
  8
ﾌﾞﾗｹｯﾄ本体
100
AcDbLine
 10
740.9644413442465
 20
46.31430116598432
 30
0.0
 11
740.9644413442465
 21
20.36430116598427
 31
0.0
  0
LINE
  5
305B
330
1A
100
AcDbEntity
  8
ﾌﾞﾗｹｯﾄ本体
100
AcDbLine
 10
746.2970521813003
 20
50.33430116598442
 30
0.0
 11
746.2970521813012
 21
20.36430158541322
 31
0.0
  0
LINE
  5
305C
330
1A
100
AcDbEntity
  8
ﾌﾞﾗｹｯﾄ本体
100
AcDbLine
 10
740.9644413442465
 20
20.36430116598427
 30
0.0
 11
746.2970521813012
 21
20.36430158541322
 31
0.0
  0
LWPOLYLINE
  5
305D
330
1A
100
AcDbEntity
  8
ﾌﾞﾗｹｯﾄ本体
100
AcDbPolyline
 90
        3
 70
     0
 43
0.0
 10
739.957899925038
 20
28.15255601903874
 10
740.0514842349921
 20
28.89539064997854
 10
740.4611255604004
 20
29.8145684856259
  0
LINE
  5
305E
330
1A
100
AcDbEntity
  8
ﾌﾞﾗｹｯﾄ本体
100
AcDbLine
 10
739.957899895081
 20
26.2160657437451
 30
0.0
 11
739.957899895081
 21
26.21551857006722
 31
0.0
  0
LINE
  5
305F
330
1A
100
AcDbEntity
  8
ﾌﾞﾗｹｯﾄ本体
100
AcDbLine
 10
739.957899895081
 20
28.15255602988492
 30
0.0
 11
739.957899895081
 21
28.15200885620726
 31
0.0
  0
LINE
  5
3060
330
1A
100
AcDbEntity
  8
ﾌﾞﾗｹｯﾄ本体
100
AcDbLine
 10
739.957899895081
 20
28.15200885620726
 30
0.0
 11
739.957899895081
 21
26.2160657437451
 31
0.0
  0
ARC
  5
3061
330
1A
100
AcDbEntity
  8
ﾌﾞﾗｹｯﾄ本体
100
AcDbCircle
 10
742.9549833290939
 20
26.21578841080947
 30
0.0
 40
2.997083416201892
100
AcDbArc
 50
180.0051583863735
 51
213.6854618230946
  0
LINE
  5
3062
330
1A
100
AcDbEntity
  8
ﾌﾞﾗｹｯﾄ本体
100
AcDbLine
 10
740.4612006567304
 20
24.55339345106501
 30
0.0
 11
740.4611255568479
 21
24.55350611304067
 31
0.0
  0
ARC
  5
3063
330
1A
100
AcDbEntity
  8
ﾌﾞﾗｹｯﾄ本体
100
AcDbCircle
 10
737.9673687738095
 20
22.89109194088297
 30
0.0
 40
2.997072533495495
100
AcDbArc
 50
0.0083034035437287
 51
33.68604193084871
  0
LINE
  5
3064
330
1A
100
AcDbEntity
  8
ﾌﾞﾗｹｯﾄ本体
100
AcDbLine
 10
740.9644412758289
 20
22.89152630241625
 30
0.0
 11
740.9644413442465
 21
22.89069940854762
 31
0.0
  0
ARC
  5
3065
330
1A
100
AcDbEntity
  8
ﾌﾞﾗｹｯﾄ本体
100
AcDbCircle
 10
737.9673687738095
 20
31.47698265906985
 30
0.0
 40
2.997072533495267
100
AcDbArc
 50
326.3139580691513
 51
359.9916965964563
  0
LINE
  5
3066
330
1A
100
AcDbEntity
  8
ﾌﾞﾗｹｯﾄ本体
100
AcDbLine
 10
740.9644413442465
 20
31.4773751914052
 30
0.0
 11
740.9644412758289
 21
31.47654829753634
 31
0.0
  0
LINE
  5
3067
330
1A
100
AcDbEntity
  8
ﾌﾞﾗｹｯﾄ本体
100
AcDbLine
 10
739.1928114316879
 20
39.397097174988
 30
0.0
 11
739.1937527945929
 21
39.39641321226219
 31
0.0
  0
LINE
  5
3068
330
1A
100
AcDbEntity
  8
ﾌﾞﾗｹｯﾄ本体
100
AcDbLine
 10
739.1937527945929
 20
39.39641321226219
 30
0.0
 11
739.7285884447328
 21
39.00781956032626
 31
0.0
  0
LINE
  5
3069
330
1A
100
AcDbEntity
  8
ﾌﾞﾗｹｯﾄ本体
100
AcDbLine
 10
739.7285884447328
 20
39.00781956032626
 30
0.0
 11
739.7295298208655
 21
39.00713542052591
 31
0.0
  0
ARC
  5
306A
330
1A
100
AcDbEntity
  8
ﾌﾞﾗｹｯﾄ本体
100
AcDbCircle
 10
737.9674317454218
 20
36.58286719646918
 30
0.0
 40
2.997009517780023
100
AcDbArc
 50
0.0109190950597912
 51
53.98818296557539
  0
LINE
  5
306B
330
1A
100
AcDbEntity
  8
ﾌﾞﾗｹｯﾄ本体
100
AcDbLine
 10
740.9644412087664
 20
36.58343840642994
 30
0.0
 11
740.9644413442465
 21
36.58227468985416
 31
0.0
  0
ARC
  5
306C
330
1A
100
AcDbEntity
  8
ﾌﾞﾗｹｯﾄ本体
100
AcDbCircle
 10
738.2970521813003
 20
50.33430116598418
 30
0.0
 40
8.0
100
AcDbArc
 50
0.0
 51
90.0
  0
ELLIPSE
  5
306D
330
1A
100
AcDbEntity
  8
ﾌﾞﾗｹｯﾄ本体
100
AcDbEllipse
 10
738.4819060131508
 20
53.26173704055958
 30
0.0
 11
0.7090462434351251
 21
-0.7090462434350683
 31
0.0
210
0.0
220
0.0
230
1.0
 40
0.9972646886341632
 41
5.499156671652487
 42
7.067213942706689
  0
LINE
  5
306E
330
1A
100
AcDbEntity
  8
ﾌﾞﾗｹｯﾄ本体
100
AcDbLine
 10
739.4832783591486
 20
54.36355445215685
 30
0.0
 11
739.4832783591486
 21
53.25899422931633
 31
0.0
  0
ELLIPSE
  5
306F
330
1A
100
AcDbEntity
  8
ﾌﾞﾗｹｯﾄ本体
100
AcDbEllipse
 10
738.4819060131508
 20
54.36081294550849
 30
0.0
 11
0.7092139681510047
 21
0.7088766365803281
 31
0.0
210
0.0
220
0.0
230
1.0
 40
0.9972659840229013
 41
5.499393898438226
 42
7.066976715920911
  0
ELLIPSE
  5
3070
330
1A
100
AcDbEntity
  8
ﾌﾞﾗｹｯﾄ本体
100
AcDbEllipse
 10
728.8848446972238
 20
46.2521306185742
 30
0.0
 11
-3.448494706694192
 21
4.924960841651683
 31
0.0
210
0.0
220
0.0
230
0.9999999999999998
 40
0.9979596637958444
 41
5.673279357049633
 42
6.893091257309555
  0
LINE
  5
3071
330
1A
100
AcDbEntity
  8
ﾌﾞﾗｹｯﾄ本体
100
AcDbLine
 10
738.4846488243938
 20
52.2603646945617
 30
0.0
 11
728.873321474573
 21
52.2603646945617
 31
0.0
  0
LINE
  5
3072
330
1A
100
AcDbEntity
  8
ﾌﾞﾗｹｯﾄ本体
100
AcDbLine
 10
724.3706732216383
 20
55.36889888925424
 30
0.0
 11
738.485123926971
 21
55.36218387389538
 31
0.0
  0
ELLIPSE
  5
3073
330
1A
100
AcDbEntity
  8
ﾌﾞﾗｹｯﾄ本体
100
AcDbEllipse
 10
724.3827706030906
 20
47.35791345927299
 30
0.0
 11
-4.702545726026471
 21
6.492629916669272
 31
0.0
210
0.0
220
0.0
230
1.0
 40
0.9979114089306353
 41
5.656860272180487
 42
6.90951034217871
  0
ELLIPSE
  5
3074
330
1A
100
AcDbEntity
  8
ﾌﾞﾗｹｯﾄ本体
100
AcDbEllipse
 10
725.4392874494456
 20
46.35332630255828
 30
0.0
 11
-7.054202806002763
 21
9.728323645785735
 31
0.0
210
0.0
220
0.0
230
1.0
 40
0.9986068812209275
 41
5.727175668309327
 42
6.909578808483113
  0
ARC
  5
3075
330
1A
100
AcDbEntity
  8
ﾌﾞﾗｹｯﾄ本体
100
AcDbCircle
 10
737.9644413442465
 20
46.31430116598432
 30
0.0
 40
3.0
100
AcDbArc
 50
0.0
 51
90.0
  0
LINE
  5
3076
330
1A
100
AcDbEntity
  8
ﾌﾞﾗｹｯﾄ本体
100
AcDbLine
 10
737.957899895081
 20
46.31612868492704
 30
0.0
 11
737.957899895081
 21
41.82195808273405
 31
0.0
  0
LINE
  5
3077
330
1A
100
AcDbEntity
  8
ﾌﾞﾗｹｯﾄ本体
100
AcDbLine
 10
715.0020018152454
 20
44.45636924823367
 30
0.0
 11
716.7749839011076
 21
49.86741847085233
 31
0.0
  0
LINE
  5
3078
330
1A
100
AcDbEntity
  8
ﾌﾞﾗｹｯﾄ本体
100
AcDbLine
 10
737.957899895081
 20
41.82195808273405
 30
0.0
 11
737.957899895081
 21
41.82079448094265
 31
0.0
  0
LINE
  5
3079
330
1A
100
AcDbEntity
  8
ﾌﾞﾗｹｯﾄ本体
100
AcDbLine
 10
714.0272277450121
 20
50.09880174199981
 30
0.0
 11
713.289097199321
 21
47.84139012094857
 31
0.0
  0
LINE
  5
307A
330
1A
100
AcDbEntity
  8
ﾌﾞﾗｹｯﾄ本体
100
AcDbLine
 10
713.289097199321
 20
47.84139012094857
 30
0.0
 11
713.2877241565757
 21
47.83719332127549
 31
0.0
  0
LINE
  5
307B
330
1A
100
AcDbEntity
  8
ﾌﾞﾗｹｯﾄ本体
100
AcDbLine
 10
728.8646096727743
 20
49.31430116598432
 30
0.0
 11
737.9644413442465
 21
49.31430116598432
 31
0.0
  0
ARC
  5
307C
330
1A
100
AcDbEntity
  8
ﾌﾞﾗｹｯﾄ本体
100
AcDbCircle
 10
728.8636740840274
 20
46.3174648441323
 30
0.0
 40
2.996836139569222
100
AcDbArc
 50
90.01268661124703
 51
159.9873133884466
  0
LINE
  5
307D
330
1A
100
AcDbEntity
  8
ﾌﾞﾗｹｯﾄ本体
100
AcDbLine
 10
726.0472491164864
 20
47.34156406662697
 30
0.0
 11
726.0477963518942
 21
47.3430668356587
 31
0.0
  0
LINE
  5
307E
330
1A
100
AcDbEntity
  8
ﾌﾞﾗｹｯﾄ本体
100
AcDbLine
 10
728.8630103662717
 20
49.31430091018916
 30
0.0
 11
728.8646096727743
 21
49.31430116598432
 31
0.0
  0
LINE
  5
307F
330
1A
100
AcDbEntity
  8
ﾌﾞﾗｹｯﾄ本体
100
AcDbLine
 10
734.9597274140223
 20
49.31430116598432
 30
0.0
 11
734.9620116365194
 21
49.31430064458623
 31
0.0
  0
LINE
  5
3080
330
1A
100
AcDbEntity
  8
ﾌﾞﾗｹｯﾄ本体
100
AcDbLine
 10
737.9578993736823
 20
46.31841290742346
 30
0.0
 11
737.957899895081
 21
46.31612868492704
 31
0.0
  0
ARC
  5
3081
330
1A
100
AcDbEntity
  8
ﾌﾞﾗｹｯﾄ本体
100
AcDbCircle
 10
734.96157833081
 20
46.31797960171394
 30
0.0
 40
2.996321074338088
100
AcDbArc
 50
0.0082774037284371
 51
89.99172259631064
  0
LINE
  5
3082
330
1A
100
AcDbEntity
  8
ﾌﾞﾗｹｯﾄ本体
100
AcDbLine
 10
724.5751404473082
 20
58.33428224006519
 30
0.0
 11
738.2941485041451
 21
58.33428224006519
 31
0.0
  0
TEXT
  5
3083
330
1A
100
AcDbEntity
  8
ZUWAKU
100
AcDbText
 10
864.9056664524133
 20
-52.19112644651528
 30
0.0
 40
2.0
  1
DATE
 41
0.9
  7
ｽﾀｲﾙ1
100
AcDbText
  0
TEXT
  5
3084
330
1A
100
AcDbEntity
  8
ZUWAKU
100
AcDbText
 10
793.0966549463817
 20
-52.19112644651528
 30
0.0
 40
2.0
  1
用紙
 41
0.9
  7
ｽﾀｲﾙ1
100
AcDbText
  0
LINE
  5
3085
330
1A
100
AcDbEntity
  8
ZUWAKU
100
AcDbLine
 10
864.1669439413085
 20
-56.61880471570805
 30
0.0
 11
888.3828479604771
 21
-56.61880471570805
 31
0.0
  0
LINE
  5
3086
330
1A
100
AcDbEntity
  8
ZUWAKU
100
AcDbLine
 10
864.1669439413087
 20
-56.51880471570803
 30
0.0
 11
888.3828479604771
 21
-56.51880471570809
 31
0.0
  0
LINE
  5
3087
330
1A
100
AcDbEntity
  8
ZUWAKU
100
AcDbLine
 10
864.1669439413085
 20
-56.41880471570806
 30
0.0
 11
888.3828479604771
 21
-56.41880471570806
 31
0.0
  0
TEXT
  5
3088
330
1A
100
AcDbEntity
  8
MOJI
100
AcDbText
 10
803.7787966723628
 20
-62.61634418700436
 30
0.0
 40
2.799999999999999
  1
１/１
 41
0.9
  7
ｽﾀｲﾙ1
100
AcDbText
  0
TEXT
  5
3089
330
1A
100
AcDbEntity
  8
ZUWAKU
100
AcDbText
 10
793.0966549463818
 20
-59.39112644651527
 30
0.0
 40
2.0
  1
縮尺
 41
0.9
  7
ｽﾀｲﾙ1
100
AcDbText
  0
LINE
  5
308A
330
1A
100
AcDbEntity
  8
ZUWAKU
100
AcDbLine
 10
792.3579324352768
 20
-56.61880471570805
 30
0.0
 11
816.0218205692626
 21
-56.61880471570805
 31
0.0
  0
LINE
  5
308B
330
1A
100
AcDbEntity
  8
ZUWAKU
100
AcDbLine
 10
792.3579324352768
 20
-56.51880471570809
 30
0.0
 11
816.0218205692626
 21
-56.51880471570809
 31
0.0
  0
LINE
  5
308C
330
1A
100
AcDbEntity
  8
ZUWAKU
100
AcDbLine
 10
792.3579324352768
 20
-56.41880471570806
 30
0.0
 11
816.0218205692626
 21
-56.41880471570806
 31
0.0
  0
TEXT
  5
308D
330
1A
100
AcDbEntity
  8
ZUWAKU
100
AcDbText
 10
867.0143806860499
 20
-55.21634418700438
 30
0.0
 40
2.799999999999999
  1
　　．　．　　
 41
0.9
  7
ｽﾀｲﾙ1
100
AcDbText
  0
LINE
  5
308E
330
1A
100
AcDbEntity
  8
ZUWAKU
100
AcDbLine
 10
792.2579324352768
 20
-49.21880471570807
 30
0.0
 11
792.257932435277
 21
-63.81880471570804
 31
0.0
  0
LINE
  5
308F
330
1A
100
AcDbEntity
  8
ZUWAKU
100
AcDbLine
 10
792.3579324352768
 20
-49.21880471570807
 30
0.0
 11
792.357932435277
 21
-63.81880471570804
 31
0.0
  0
LINE
  5
3090
330
1A
100
AcDbEntity
  8
ZUWAKU
100
AcDbLine
 10
792.1579324352769
 20
-49.21880471570807
 30
0.0
 11
792.1579324352769
 21
-63.81880471570804
 31
0.0
  0
TEXT
  5
3091
330
1A
100
AcDbEntity
  8
MOJI
100
AcDbText
 10
803.7787966723628
 20
-55.21634418700438
 30
0.0
 40
2.799999999999999
  1
Ａ３
 41
0.9
  7
ｽﾀｲﾙ1
100
AcDbText
  0
LINE
  5
3092
330
1A
100
AcDbEntity
  8
ZUWAKU
100
AcDbLine
 10
816.1218205692627
 20
-49.21880471570807
 30
0.0
 11
816.1218205692627
 21
-63.81880471570804
 31
0.0
  0
LINE
  5
3093
330
1A
100
AcDbEntity
  8
ZUWAKU
100
AcDbLine
 10
816.2218205692626
 20
-49.21880471570807
 30
0.0
 11
816.2218205692626
 21
-63.81880471570804
 31
0.0
  0
LINE
  5
3094
330
1A
100
AcDbEntity
  8
ZUWAKU
100
AcDbLine
 10
816.0218205692626
 20
-49.21880471570807
 30
0.0
 11
816.0218205692626
 21
-63.81880471570804
 31
0.0
  0
LINE
  5
3095
330
1A
100
AcDbEntity
  8
ZUWAKU
100
AcDbLine
 10
864.0669439413086
 20
-49.21880471570807
 30
0.0
 11
864.0669439413088
 21
-63.81880471570804
 31
0.0
  0
LINE
  5
3096
330
1A
100
AcDbEntity
  8
ZUWAKU
100
AcDbLine
 10
864.1669439413087
 20
-49.21880471570807
 30
0.0
 11
864.1669439413089
 21
-63.81880471570804
 31
0.0
  0
LINE
  5
3097
330
1A
100
AcDbEntity
  8
ZUWAKU
100
AcDbLine
 10
863.9669439413086
 20
-49.21880471570807
 30
0.0
 11
863.9669439413086
 21
-63.81880471570804
 31
0.0
  0
LINE
  5
3098
330
1A
100
AcDbEntity
  8
ZUWAKU
100
AcDbLine
 10
888.3828479604771
 20
-49.21880471570807
 30
0.0
 11
888.3828479604771
 21
-63.81880471570804
 31
0.0
  0
LINE
  5
3099
330
1A
100
AcDbEntity
  8
ZUWAKU
100
AcDbLine
 10
888.482847960477
 20
-49.21880471570807
 30
0.0
 11
888.482847960477
 21
-63.81880471570804
 31
0.0
  0
LINE
  5
309A
330
1A
100
AcDbEntity
  8
ZUWAKU
100
AcDbLine
 10
888.582847960477
 20
-49.21880471570807
 30
0.0
 11
888.5828479604771
 21
-63.81880471570804
 31
0.0
  0
LINE
  5
309B
330
1A
100
AcDbEntity
  8
ZUWAKU
100
AcDbLine
 10
888.6828479604771
 20
-49.21880471570807
 30
0.0
 11
888.6828479604771
 21
-63.81880471570804
 31
0.0
  0
TEXT
  5
309C
330
1A
100
AcDbEntity
  8
ZUWAKU
100
AcDbText
 10
894.0223847823283
 20
-55.44188504786467
 30
0.0
 40
3.0
  1
積水化学工業株式会社
 41
0.9
  7
ｽﾀｲﾙ1
100
AcDbText
  0
TEXT
  5
309D
330
1A
100
AcDbEntity
  8
ZUWAKU
100
AcDbText
 10
764.4092471828068
 20
-52.19112644651528
 30
0.0
 40
2.0
  1
品番
 41
0.9
  7
ｽﾀｲﾙ1
100
AcDbText
  0
LINE
  5
309E
330
1A
100
AcDbEntity
  8
ZUWAKU
100
AcDbLine
 10
763.570524671702
 20
-49.21880471570807
 30
0.0
 11
763.5705246717021
 21
-63.81880471570804
 31
0.0
  0
LINE
  5
309F
330
1A
100
AcDbEntity
  8
ZUWAKU
100
AcDbLine
 10
763.6705246717021
 20
-49.21880471570807
 30
0.0
 11
763.6705246717021
 21
-63.81880471570804
 31
0.0
  0
LINE
  5
30A0
330
1A
100
AcDbEntity
  8
ZUWAKU
100
AcDbLine
 10
763.4705246717021
 20
-49.21880471570807
 30
0.0
 11
763.4705246717021
 21
-63.81880471570804
 31
0.0
  0
TEXT
  5
30A1
330
1A
100
AcDbEntity
  8
ZUWAKU
100
AcDbText
 10
644.6203658423451
 20
-52.19112644651528
 30
0.0
 40
2.0
  1
品名
 41
0.9
  7
ｽﾀｲﾙ1
100
AcDbText
  0
LINE
  5
30A2
330
1A
100
AcDbEntity
  8
ZUWAKU
100
AcDbLine
 10
574.016948763597
 20
-52.59380471570807
 30
0.0
 11
573.141948763597
 21
-52.59380471570807
 31
0.0
  0
ARC
  5
30A3
330
1A
100
AcDbEntity
  8
ZUWAKU
100
AcDbCircle
 10
573.141948763597
 20
-52.85630471570806
 30
0.0
 40
0.2625
100
AcDbArc
 50
90.0
 51
180.0
  0
ARC
  5
30A4
330
1A
100
AcDbEntity
  8
ZUWAKU
100
AcDbCircle
 10
571.5669487635969
 20
-52.85630471570806
 30
0.0
 40
0.2625
100
AcDbArc
 50
0.0
 51
90.0
  0
LINE
  5
30A5
330
1A
100
AcDbEntity
  8
ZUWAKU
100
AcDbLine
 10
571.5669487635969
 20
-52.59380471570807
 30
0.0
 11
570.6919487635969
 21
-52.59380471570807
 31
0.0
  0
ARC
  5
30A6
330
1A
100
AcDbEntity
  8
ZUWAKU
100
AcDbCircle
 10
570.6919487635969
 20
-52.85630471570806
 30
0.0
 40
0.2625
100
AcDbArc
 50
90.0
 51
180.0
  0
ARC
  5
30A7
330
1A
100
AcDbEntity
  8
ZUWAKU
100
AcDbCircle
 10
574.016948763597
 20
-52.85630471570806
 30
0.0
 40
0.2625
100
AcDbArc
 50
0.0
 51
90.0
  0
LINE
  5
30A8
330
1A
100
AcDbEntity
  8
ZUWAKU
100
AcDbLine
 10
565.9669487635969
 20
-52.85630471570806
 30
0.0
 11
565.9669487635969
 21
-53.73130471570807
 31
0.0
  0
ARC
  5
30A9
330
1A
100
AcDbEntity
  8
ZUWAKU
100
AcDbCircle
 10
563.954448763597
 20
-53.99380471570805
 30
0.0
 40
1.399999999999999
100
AcDbArc
 50
90.0
 51
180.0
  0
LINE
  5
30AA
330
1A
100
AcDbEntity
  8
ZUWAKU
100
AcDbLine
 10
565.704448763597
 20
-53.99380471570805
 30
0.0
 11
564.2169487635969
 21
-53.99380471570805
 31
0.0
  0
ARC
  5
30AB
330
1A
100
AcDbEntity
  8
ZUWAKU
100
AcDbCircle
 10
564.2169487635969
 20
-54.25630471570809
 30
0.0
 40
0.2625
100
AcDbArc
 50
90.0
 51
180.0
  0
ARC
  5
30AC
330
1A
100
AcDbEntity
  8
ZUWAKU
100
AcDbCircle
 10
565.704448763597
 20
-53.73130471570807
 30
0.0
 40
0.2625
100
AcDbArc
 50
270.0
 51
0.0
  0
LINE
  5
30AD
330
1A
100
AcDbEntity
  8
ZUWAKU
100
AcDbLine
 10
563.954448763597
 20
-52.59380471570807
 30
0.0
 11
565.704448763597
 21
-52.59380471570807
 31
0.0
  0
ARC
  5
30AE
330
1A
100
AcDbEntity
  8
ZUWAKU
100
AcDbCircle
 10
561.241948763597
 20
-52.85630471570806
 30
0.0
 40
0.2625
100
AcDbArc
 50
0.0
 51
90.0
  0
ARC
  5
30AF
330
1A
100
AcDbEntity
  8
ZUWAKU
100
AcDbCircle
 10
568.416948763597
 20
-52.85630471570806
 30
0.0
 40
0.2625
100
AcDbArc
 50
0.0
 51
90.0
  0
ARC
  5
30B0
330
1A
100
AcDbEntity
  8
ZUWAKU
100
AcDbCircle
 10
567.541948763597
 20
-52.85630471570806
 30
0.0
 40
0.2625
100
AcDbArc
 50
90.0
 51
180.0
  0
LINE
  5
30B1
330
1A
100
AcDbEntity
  8
ZUWAKU
100
AcDbLine
 10
568.416948763597
 20
-52.59380471570807
 30
0.0
 11
567.541948763597
 21
-52.59380471570807
 31
0.0
  0
ARC
  5
30B2
330
1A
100
AcDbEntity
  8
ZUWAKU
100
AcDbCircle
 10
565.704448763597
 20
-52.85630471570806
 30
0.0
 40
0.2625
100
AcDbArc
 50
0.0
 51
90.0
  0
LINE
  5
30B3
330
1A
100
AcDbEntity
  8
ZUWAKU
100
AcDbLine
 10
558.946591821255
 20
-52.93535169979157
 30
0.0
 11
558.4157720046859
 21
-54.61628111892633
 31
0.0
  0
LINE
  5
30B4
330
1A
100
AcDbEntity
  8
ZUWAKU
100
AcDbLine
 10
553.454448763597
 20
-52.85630471570806
 30
0.0
 11
553.454448763597
 21
-53.73130471570807
 31
0.0
  0
ARC
  5
30B5
330
1A
100
AcDbEntity
  8
ZUWAKU
100
AcDbCircle
 10
553.191948763597
 20
-53.73130471570807
 30
0.0
 40
0.2625
100
AcDbArc
 50
270.0
 51
0.0
  0
ARC
  5
30B6
330
1A
100
AcDbEntity
  8
ZUWAKU
100
AcDbCircle
 10
555.816948763597
 20
-52.85630471570806
 30
0.0
 40
0.2625
100
AcDbArc
 50
0.0
 51
90.0
  0
LINE
  5
30B7
330
1A
100
AcDbEntity
  8
ZUWAKU
100
AcDbLine
 10
555.816948763597
 20
-52.59380471570807
 30
0.0
 11
554.941948763597
 21
-52.59380471570807
 31
0.0
  0
ARC
  5
30B8
330
1A
100
AcDbEntity
  8
ZUWAKU
100
AcDbCircle
 10
553.191948763597
 20
-52.85630471570806
 30
0.0
 40
0.2625
100
AcDbArc
 50
0.0
 51
90.0
  0
ARC
  5
30B9
330
1A
100
AcDbEntity
  8
ZUWAKU
100
AcDbCircle
 10
554.941948763597
 20
-52.85630471570806
 30
0.0
 40
0.2625
100
AcDbArc
 50
90.0
 51
180.0
  0
ARC
  5
30BA
330
1A
100
AcDbEntity
  8
ZUWAKU
100
AcDbCircle
 10
560.366948763597
 20
-52.85630471570806
 30
0.0
 40
0.2625
100
AcDbArc
 50
90.0
 51
180.0
  0
LINE
  5
30BB
330
1A
100
AcDbEntity
  8
ZUWAKU
100
AcDbLine
 10
557.8468316818526
 20
-52.59380471570807
 30
0.0
 11
558.6962763716571
 21
-52.59380471570807
 31
0.0
  0
ARC
  5
30BC
330
1A
100
AcDbEntity
  8
ZUWAKU
100
AcDbCircle
 10
558.6962763716571
 20
-52.85630471570806
 30
0.0
 40
0.2625
100
AcDbArc
 50
342.4744316262774
 51
90.0
  0
ARC
  5
30BD
330
1A
100
AcDbEntity
  8
ZUWAKU
100
AcDbCircle
 10
557.8468316818526
 20
-52.85630471570806
 30
0.0
 40
0.2625
100
AcDbArc
 50
90.0
 51
162.4744316262773
  0
LINE
  5
30BE
330
1A
100
AcDbEntity
  8
ZUWAKU
100
AcDbLine
 10
561.241948763597
 20
-52.59380471570807
 30
0.0
 11
560.366948763597
 21
-52.59380471570807
 31
0.0
  0
LINE
  5
30BF
330
1A
100
AcDbEntity
  8
ZUWAKU
100
AcDbLine
 10
548.8169487635969
 20
-52.85630471570806
 30
0.0
 11
548.8169487635969
 21
-53.73130471570807
 31
0.0
  0
ARC
  5
30C0
330
1A
100
AcDbEntity
  8
ZUWAKU
100
AcDbCircle
 10
552.229448763597
 20
-54.6938047157081
 30
0.0
 40
2.099999999999999
100
AcDbArc
 50
90.0
 51
180.0
  0
ARC
  5
30C1
330
1A
100
AcDbEntity
  8
ZUWAKU
100
AcDbCircle
 10
546.804448763597
 20
-53.99380471570805
 30
0.0
 40
1.399999999999999
100
AcDbArc
 50
90.0
 51
180.0
  0
ARC
  5
30C2
330
1A
100
AcDbEntity
  8
ZUWAKU
100
AcDbCircle
 10
548.554448763597
 20
-53.73130471570807
 30
0.0
 40
0.2625
100
AcDbArc
 50
270.0
 51
0.0
  0
ARC
  5
30C3
330
1A
100
AcDbEntity
  8
ZUWAKU
100
AcDbCircle
 10
547.0669487635969
 20
-54.25630471570809
 30
0.0
 40
0.2625
100
AcDbArc
 50
90.0
 51
180.0
  0
LINE
  5
30C4
330
1A
100
AcDbEntity
  8
ZUWAKU
100
AcDbLine
 10
548.554448763597
 20
-53.99380471570805
 30
0.0
 11
547.0669487635969
 21
-53.99380471570805
 31
0.0
  0
ARC
  5
30C5
330
1A
100
AcDbEntity
  8
ZUWAKU
100
AcDbCircle
 10
552.229448763597
 20
-54.6938047157081
 30
0.0
 40
0.6999999999999995
100
AcDbArc
 50
90.0
 51
180.0
  0
ARC
  5
30C6
330
1A
100
AcDbEntity
  8
ZUWAKU
100
AcDbCircle
 10
548.554448763597
 20
-52.85630471570806
 30
0.0
 40
0.2625
100
AcDbArc
 50
0.0
 51
90.0
  0
LINE
  5
30C7
330
1A
100
AcDbEntity
  8
ZUWAKU
100
AcDbLine
 10
546.804448763597
 20
-52.59380471570807
 30
0.0
 11
548.554448763597
 21
-52.59380471570807
 31
0.0
  0
LINE
  5
30C8
330
1A
100
AcDbEntity
  8
ZUWAKU
100
AcDbLine
 10
552.229448763597
 20
-52.59380471570807
 30
0.0
 11
553.191948763597
 21
-52.59380471570807
 31
0.0
  0
LINE
  5
30C9
330
1A
100
AcDbEntity
  8
ZUWAKU
100
AcDbLine
 10
553.191948763597
 20
-53.99380471570805
 30
0.0
 11
552.229448763597
 21
-53.99380471570805
 31
0.0
  0
LINE
  5
30CA
330
1A
100
AcDbEntity
  8
ZUWAKU
100
AcDbLine
 10
569.9044487635969
 20
-59.24380471570805
 30
0.0
 11
569.204448763597
 21
-59.24380471570805
 31
0.0
  0
LINE
  5
30CB
330
1A
100
AcDbEntity
  8
ZUWAKU
100
AcDbLine
 10
573.141948763597
 20
-60.64380471570808
 30
0.0
 11
574.016948763597
 21
-60.64380471570808
 31
0.0
  0
ARC
  5
30CC
330
1A
100
AcDbEntity
  8
ZUWAKU
100
AcDbCircle
 10
573.141948763597
 20
-60.38130471570809
 30
0.0
 40
0.2625
100
AcDbArc
 50
180.0
 51
270.0
  0
ARC
  5
30CD
330
1A
100
AcDbEntity
  8
ZUWAKU
100
AcDbCircle
 10
569.9044487635969
 20
-58.71880471570808
 30
0.0
 40
0.5249999999999995
100
AcDbArc
 50
270.0
 51
0.0
  0
ARC
  5
30CE
330
1A
100
AcDbEntity
  8
ZUWAKU
100
AcDbCircle
 10
574.016948763597
 20
-60.38130471570809
 30
0.0
 40
0.2625
100
AcDbArc
 50
270.0
 51
0.0
  0
ARC
  5
30CF
330
1A
100
AcDbEntity
  8
ZUWAKU
100
AcDbCircle
 10
570.429448763597
 20
-59.24380471570805
 30
0.0
 40
1.399999999999999
100
AcDbArc
 50
270.0
 51
0.0
  0
LINE
  5
30D0
330
1A
100
AcDbEntity
  8
ZUWAKU
100
AcDbLine
 10
565.6143730040887
 20
-56.85127946253868
 30
0.0
 11
564.1594740167663
 21
-55.39638047521634
 31
0.0
  0
LINE
  5
30D1
330
1A
100
AcDbEntity
  8
ZUWAKU
100
AcDbLine
 10
564.829448763597
 20
-58.98130471570806
 30
0.0
 11
564.829448763597
 21
-58.33620370303037
 31
0.0
  0
ARC
  5
30D2
330
1A
100
AcDbEntity
  8
ZUWAKU
100
AcDbCircle
 10
564.129448763597
 20
-58.33620370303037
 30
0.0
 40
0.6999999999999995
100
AcDbArc
 50
0.0
 51
44.99999999999956
  0
ARC
  5
30D3
330
1A
100
AcDbEntity
  8
ZUWAKU
100
AcDbCircle
 10
564.5669487635969
 20
-58.98130471570806
 30
0.0
 40
0.2625
100
AcDbArc
 50
270.0
 51
0.0
  0
LINE
  5
30D4
330
1A
100
AcDbEntity
  8
ZUWAKU
100
AcDbLine
 10
562.816948763597
 20
-60.38130471570809
 30
0.0
 11
562.816948763597
 21
-59.5063047157081
 31
0.0
  0
ARC
  5
30D5
330
1A
100
AcDbEntity
  8
ZUWAKU
100
AcDbCircle
 10
563.079448763597
 20
-60.38130471570809
 30
0.0
 40
0.2625
100
AcDbArc
 50
180.0
 51
270.0
  0
ARC
  5
30D6
330
1A
100
AcDbEntity
  8
ZUWAKU
100
AcDbCircle
 10
561.241948763597
 20
-60.38130471570809
 30
0.0
 40
0.2625
100
AcDbArc
 50
270.0
 51
0.0
  0
ARC
  5
30D7
330
1A
100
AcDbEntity
  8
ZUWAKU
100
AcDbCircle
 10
563.079448763597
 20
-59.5063047157081
 30
0.0
 40
0.2625
100
AcDbArc
 50
90.0
 51
180.0
  0
LINE
  5
30D8
330
1A
100
AcDbEntity
  8
ZUWAKU
100
AcDbLine
 10
563.079448763597
 20
-59.24380471570805
 30
0.0
 11
564.5669487635969
 21
-59.24380471570805
 31
0.0
  0
LINE
  5
30D9
330
1A
100
AcDbEntity
  8
ZUWAKU
100
AcDbLine
 10
563.079448763597
 20
-60.64380471570808
 30
0.0
 11
564.829448763597
 21
-60.64380471570808
 31
0.0
  0
LINE
  5
30DA
330
1A
100
AcDbEntity
  8
ZUWAKU
100
AcDbLine
 10
563.1695245231053
 20
-56.38632996887747
 30
0.0
 11
564.6244235104275
 21
-57.84122895619981
 31
0.0
  0
ARC
  5
30DB
330
1A
100
AcDbEntity
  8
ZUWAKU
100
AcDbCircle
 10
564.654448763597
 20
-54.90140572838573
 30
0.0
 40
0.6999999999999995
100
AcDbArc
 50
180.0000000000016
 51
224.9999999999994
  0
ARC
  5
30DC
330
1A
100
AcDbEntity
  8
ZUWAKU
100
AcDbCircle
 10
564.654448763597
 20
-54.90140572838573
 30
0.0
 40
2.099999999999999
100
AcDbArc
 50
180.0
 51
224.9999999999996
  0
LINE
  5
30DD
330
1A
100
AcDbEntity
  8
ZUWAKU
100
AcDbLine
 10
566.2294487635969
 20
-59.24380471570805
 30
0.0
 11
566.2294487635969
 21
-58.33620370303037
 31
0.0
  0
ARC
  5
30DE
330
1A
100
AcDbEntity
  8
ZUWAKU
100
AcDbCircle
 10
564.129448763597
 20
-58.33620370303044
 30
0.0
 40
2.099999999999999
100
AcDbArc
 50
0.0
 51
44.99999999999956
  0
LINE
  5
30DF
330
1A
100
AcDbEntity
  8
ZUWAKU
100
AcDbLine
 10
557.596516232255
 20
-60.46035169979155
 30
0.0
 11
556.662381294939
 21
-57.50225773162458
 31
0.0
  0
ARC
  5
30E0
330
1A
100
AcDbEntity
  8
ZUWAKU
100
AcDbCircle
 10
556.4120658453414
 20
-55.65630471570807
 30
0.0
 40
0.2625
100
AcDbArc
 50
270.0
 51
342.4744316262774
  0
LINE
  5
30E1
330
1A
100
AcDbEntity
  8
ZUWAKU
100
AcDbLine
 10
556.4120658453414
 20
-55.91880471570807
 30
0.0
 11
556.3419487635969
 21
-55.91880471570807
 31
0.0
  0
LINE
  5
30E2
330
1A
100
AcDbEntity
  8
ZUWAKU
100
AcDbLine
 10
556.3419487635969
 20
-57.3188047157081
 30
0.0
 11
556.4120658453414
 21
-57.3188047157081
 31
0.0
  0
ARC
  5
30E3
330
1A
100
AcDbEntity
  8
ZUWAKU
100
AcDbCircle
 10
556.3419487635969
 20
-55.65630471570807
 30
0.0
 40
0.2625
100
AcDbArc
 50
180.0
 51
270.0
  0
LINE
  5
30E4
330
1A
100
AcDbEntity
  8
ZUWAKU
100
AcDbLine
 10
554.941948763597
 20
-60.64380471570808
 30
0.0
 11
555.816948763597
 21
-60.64380471570808
 31
0.0
  0
ARC
  5
30E5
330
1A
100
AcDbEntity
  8
ZUWAKU
100
AcDbCircle
 10
555.816948763597
 20
-60.38130471570809
 30
0.0
 40
0.2625
100
AcDbArc
 50
270.0
 51
0.0
  0
LINE
  5
30E6
330
1A
100
AcDbEntity
  8
ZUWAKU
100
AcDbLine
 10
556.079448763597
 20
-60.38130471570809
 30
0.0
 11
556.079448763597
 21
-57.58130471570808
 31
0.0
  0
LINE
  5
30E7
330
1A
100
AcDbEntity
  8
ZUWAKU
100
AcDbLine
 10
553.454448763597
 20
-59.5063047157081
 30
0.0
 11
553.454448763597
 21
-60.38130471570809
 31
0.0
  0
ARC
  5
30E8
330
1A
100
AcDbEntity
  8
ZUWAKU
100
AcDbCircle
 10
553.191948763597
 20
-60.38130471570809
 30
0.0
 40
0.2625
100
AcDbArc
 50
270.0
 51
0.0
  0
ARC
  5
30E9
330
1A
100
AcDbEntity
  8
ZUWAKU
100
AcDbCircle
 10
553.191948763597
 20
-59.5063047157081
 30
0.0
 40
0.2625
100
AcDbArc
 50
0.0
 51
90.0
  0
ARC
  5
30EA
330
1A
100
AcDbEntity
  8
ZUWAKU
100
AcDbCircle
 10
554.941948763597
 20
-60.38130471570809
 30
0.0
 40
0.2625
100
AcDbArc
 50
180.0
 51
270.0
  0
ARC
  5
30EB
330
1A
100
AcDbEntity
  8
ZUWAKU
100
AcDbCircle
 10
556.4120658453414
 20
-57.58130471570808
 30
0.0
 40
0.2625
100
AcDbArc
 50
17.52556837372265
 51
90.0
  0
ARC
  5
30EC
330
1A
100
AcDbEntity
  8
ZUWAKU
100
AcDbCircle
 10
556.3419487635969
 20
-57.58130471570808
 30
0.0
 40
0.2625
100
AcDbArc
 50
90.0
 51
180.0
  0
ARC
  5
30ED
330
1A
100
AcDbEntity
  8
ZUWAKU
100
AcDbCircle
 10
560.366948763597
 20
-60.38130471570809
 30
0.0
 40
0.2625
100
AcDbArc
 50
180.0
 51
270.0
  0
LINE
  5
30EE
330
1A
100
AcDbEntity
  8
ZUWAKU
100
AcDbLine
 10
557.8468316818526
 20
-60.64380471570808
 30
0.0
 11
558.6962763716571
 21
-60.64380471570808
 31
0.0
  0
ARC
  5
30EF
330
1A
100
AcDbEntity
  8
ZUWAKU
100
AcDbCircle
 10
558.6962763716571
 20
-60.38130471570809
 30
0.0
 40
0.2625
100
AcDbArc
 50
270.0
 51
17.52556837372265
  0
LINE
  5
30F0
330
1A
100
AcDbEntity
  8
ZUWAKU
100
AcDbLine
 10
558.946591821255
 20
-60.3022577316246
 30
0.0
 11
557.783396132018
 21
-56.61880471570805
 31
0.0
  0
ARC
  5
30F1
330
1A
100
AcDbEntity
  8
ZUWAKU
100
AcDbCircle
 10
557.8468316818526
 20
-60.38130471570809
 30
0.0
 40
0.2625
100
AcDbArc
 50
197.5255683737226
 51
270.0
  0
LINE
  5
30F2
330
1A
100
AcDbEntity
  8
ZUWAKU
100
AcDbLine
 10
560.366948763597
 20
-60.64380471570808
 30
0.0
 11
561.241948763597
 21
-60.64380471570808
 31
0.0
  0
ARC
  5
30F3
330
1A
100
AcDbEntity
  8
ZUWAKU
100
AcDbCircle
 10
564.829448763597
 20
-59.24380471570805
 30
0.0
 40
1.399999999999999
100
AcDbArc
 50
270.0
 51
0.0
  0
ARC
  5
30F4
330
1A
100
AcDbEntity
  8
ZUWAKU
100
AcDbCircle
 10
568.679448763597
 20
-59.24380471570805
 30
0.0
 40
1.399999999999999
100
AcDbArc
 50
180.0
 51
270.0
  0
LINE
  5
30F5
330
1A
100
AcDbEntity
  8
ZUWAKU
100
AcDbLine
 10
568.679448763597
 20
-60.64380471570808
 30
0.0
 11
570.429448763597
 21
-60.64380471570808
 31
0.0
  0
ARC
  5
30F6
330
1A
100
AcDbEntity
  8
ZUWAKU
100
AcDbCircle
 10
569.204448763597
 20
-58.71880471570808
 30
0.0
 40
0.5249999999999995
100
AcDbArc
 50
180.0
 51
270.0
  0
ARC
  5
30F7
330
1A
100
AcDbEntity
  8
ZUWAKU
100
AcDbCircle
 10
546.979448763597
 20
-58.33620370303044
 30
0.0
 40
2.099999999999999
100
AcDbArc
 50
0.0
 51
44.99999999999956
  0
LINE
  5
30F8
330
1A
100
AcDbEntity
  8
ZUWAKU
100
AcDbLine
 10
548.4643730040887
 20
-56.85127946253868
 30
0.0
 11
547.0094740167665
 21
-55.39638047521634
 31
0.0
  0
LINE
  5
30F9
330
1A
100
AcDbEntity
  8
ZUWAKU
100
AcDbLine
 10
547.679448763597
 20
-58.98130471570806
 30
0.0
 11
547.679448763597
 21
-58.33620370303037
 31
0.0
  0
ARC
  5
30FA
330
1A
100
AcDbEntity
  8
ZUWAKU
100
AcDbCircle
 10
547.416948763597
 20
-58.98130471570806
 30
0.0
 40
0.2625
100
AcDbArc
 50
270.0
 51
0.0
  0
ARC
  5
30FB
330
1A
100
AcDbEntity
  8
ZUWAKU
100
AcDbCircle
 10
546.979448763597
 20
-58.33620370303037
 30
0.0
 40
0.6999999999999995
100
AcDbArc
 50
0.0
 51
44.99999999999956
  0
LINE
  5
30FC
330
1A
100
AcDbEntity
  8
ZUWAKU
100
AcDbLine
 10
545.666948763597
 20
-60.38130471570809
 30
0.0
 11
545.666948763597
 21
-59.5063047157081
 31
0.0
  0
ARC
  5
30FD
330
1A
100
AcDbEntity
  8
ZUWAKU
100
AcDbCircle
 10
545.929448763597
 20
-60.38130471570809
 30
0.0
 40
0.2625
100
AcDbArc
 50
180.0
 51
270.0
  0
ARC
  5
30FE
330
1A
100
AcDbEntity
  8
ZUWAKU
100
AcDbCircle
 10
545.929448763597
 20
-59.5063047157081
 30
0.0
 40
0.2625
100
AcDbArc
 50
90.0
 51
180.0
  0
LINE
  5
30FF
330
1A
100
AcDbEntity
  8
ZUWAKU
100
AcDbLine
 10
545.929448763597
 20
-60.64380471570808
 30
0.0
 11
547.679448763597
 21
-60.64380471570808
 31
0.0
  0
LINE
  5
3100
330
1A
100
AcDbEntity
  8
ZUWAKU
100
AcDbLine
 10
545.929448763597
 20
-59.24380471570805
 30
0.0
 11
547.416948763597
 21
-59.24380471570805
 31
0.0
  0
LINE
  5
3101
330
1A
100
AcDbEntity
  8
ZUWAKU
100
AcDbLine
 10
546.0195245231052
 20
-56.38632996887747
 30
0.0
 11
547.4744235104276
 21
-57.84122895619981
 31
0.0
  0
ARC
  5
3102
330
1A
100
AcDbEntity
  8
ZUWAKU
100
AcDbCircle
 10
547.504448763597
 20
-54.90140572838573
 30
0.0
 40
0.6999999999999995
100
AcDbArc
 50
180.0000000000016
 51
224.9999999999994
  0
ARC
  5
3103
330
1A
100
AcDbEntity
  8
ZUWAKU
100
AcDbCircle
 10
547.504448763597
 20
-54.90140572838573
 30
0.0
 40
2.099999999999999
100
AcDbArc
 50
180.0
 51
224.9999999999996
  0
LINE
  5
3104
330
1A
100
AcDbEntity
  8
ZUWAKU
100
AcDbLine
 10
549.079448763597
 20
-59.24380471570805
 30
0.0
 11
549.079448763597
 21
-58.33620370303037
 31
0.0
  0
ARC
  5
3105
330
1A
100
AcDbEntity
  8
ZUWAKU
100
AcDbCircle
 10
552.229448763597
 20
-58.54380471570806
 30
0.0
 40
0.6999999999999995
100
AcDbArc
 50
180.0
 51
270.0
  0
ARC
  5
3106
330
1A
100
AcDbEntity
  8
ZUWAKU
100
AcDbCircle
 10
547.679448763597
 20
-59.24380471570805
 30
0.0
 40
1.399999999999999
100
AcDbArc
 50
270.0
 51
0.0
  0
ARC
  5
3107
330
1A
100
AcDbEntity
  8
ZUWAKU
100
AcDbCircle
 10
552.229448763597
 20
-58.54380471570806
 30
0.0
 40
2.099999999999999
100
AcDbArc
 50
180.0
 51
270.0
  0
LINE
  5
3108
330
1A
100
AcDbEntity
  8
ZUWAKU
100
AcDbLine
 10
552.229448763597
 20
-59.24380471570805
 30
0.0
 11
553.191948763597
 21
-59.24380471570805
 31
0.0
  0
LINE
  5
3109
330
1A
100
AcDbEntity
  8
ZUWAKU
100
AcDbLine
 10
553.191948763597
 20
-60.64380471570808
 30
0.0
 11
552.229448763597
 21
-60.64380471570808
 31
0.0
  0
CIRCLE
  5
310A
330
1A
100
AcDbEntity
  8
ZUWAKU
100
AcDbCircle
 10
552.754448763597
 20
-56.61880471570805
 30
0.0
 40
0.875
  0
HATCH
  5
310B
330
1A
100
AcDbEntity
  8
ZUWAKU
100
AcDbHatch
 10
0.0
 20
0.0
 30
0.0
210
0.0
220
0.0
230
1.0
  2
ANSI37
 70
     0
 71
     0
 91
        8
 92
        7
 72
     1
 73
     1
 93
       24
 10
547.0094740167663
 20
-55.39638047521629
 42
-0.1989123673796348
 10
546.804448763597
 20
-54.90140572838578
 42
0.0
 10
546.804448763597
 20
-54.25630471570809
 42
-0.4142135623730912
 10
547.0669487635969
 20
-53.99380471570805
 42
0.0
 10
548.5544487635969
 20
-53.99380471570805
 42
0.4142135623731546
 10
548.8169487635969
 20
-53.73130471570807
 42
0.0
 10
548.8169487635969
 20
-52.85630471570806
 42
0.4142135623731586
 10
548.5544487635969
 20
-52.59380471570807
 42
0.0
 10
546.804448763597
 20
-52.59380471570807
 42
0.4142135623730928
 10
545.4044487635969
 20
-53.99380471570805
 42
0.0
 10
545.4044487635969
 20
-54.90140572838567
 42
0.1989123673796619
 10
546.0195245231052
 20
-56.38632996887747
 42
0.0
 10
547.4744235104276
 20
-57.84122895619981
 42
-0.1989123673796613
 10
547.679448763597
 20
-58.33620370303044
 42
0.0
 10
547.679448763597
 20
-58.98130471570806
 42
-0.4142135623730911
 10
547.416948763597
 20
-59.24380471570805
 42
0.0
 10
545.929448763597
 20
-59.24380471570805
 42
0.4142135623731526
 10
545.666948763597
 20
-59.50630471570804
 42
0.0
 10
545.666948763597
 20
-60.38130471570809
 42
0.4142135623731526
 10
545.929448763597
 20
-60.64380471570808
 42
0.0
 10
547.679448763597
 20
-60.64380471570808
 42
0.4142135623731045
 10
549.079448763597
 20
-59.24380471570811
 42
0.0
 10
549.079448763597
 20
-58.33620370303044
 42
0.1989123673796604
 10
548.4643730040887
 20
-56.85127946253868
 42
0.0
 97
        0
 92
        7
 72
     1
 73
     1
 93
       16
 10
551.5294487635969
 20
-54.6938047157081
 42
-0.4142135623730935
 10
552.229448763597
 20
-53.99380471570805
 42
0.0
 10
553.191948763597
 20
-53.99380471570805
 42
0.4142135623731546
 10
553.454448763597
 20
-53.73130471570807
 42
0.0
 10
553.454448763597
 20
-52.85630471570806
 42
0.4142135623730951
 10
553.191948763597
 20
-52.59380471570807
 42
0.0
 10
552.229448763597
 20
-52.59380471570807
 42
0.4142135623730893
 10
550.129448763597
 20
-54.6938047157081
 42
0.0
 10
550.129448763597
 20
-58.54380471570806
 42
0.4142135623730969
 10
552.229448763597
 20
-60.64380471570808
 42
0.0
 10
553.191948763597
 20
-60.64380471570808
 42
0.4142135623731526
 10
553.454448763597
 20
-60.38130471570809
 42
0.0
 10
553.454448763597
 20
-59.50630471570804
 42
0.4142135623730891
 10
553.191948763597
 20
-59.24380471570805
 42
0.0
 10
552.229448763597
 20
-59.24380471570805
 42
-0.4142135623730928
 10
551.5294487635969
 20
-58.54380471570806
 42
0.0
 97
        0
 92
        7
 72
     1
 73
     1
 93
        2
 10
551.879448763597
 20
-56.61880471570805
 42
1.0
 10
553.6294487635969
 20
-56.61880471570805
 42
1.0
 97
        0
 92
        7
 72
     1
 73
     1
 93
       26
 10
558.4157720046859
 20
-54.61628111892633
 42
0.0
 10
558.946591821255
 20
-52.93535169979157
 42
0.5069206636600134
 10
558.6962763716571
 20
-52.59380471570807
 42
0.0
 10
557.8468316818526
 20
-52.59380471570807
 42
0.3272098845218764
 10
557.596516232255
 20
-52.77725773162462
 42
0.0
 10
556.662381294939
 20
-55.73535169979152
 42
-0.3272098845219541
 10
556.4120658453413
 20
-55.91880471570807
 42
0.0
 10
556.3419487635971
 20
-55.91880471570807
 42
-0.4142135623731526
 10
556.079448763597
 20
-55.65630471570807
 42
0.0
 10
556.079448763597
 20
-52.85630471570806
 42
0.4142135623730951
 10
555.8169487635971
 20
-52.59380471570807
 42
0.0
 10
554.941948763597
 20
-52.59380471570807
 42
0.4142135623730871
 10
554.679448763597
 20
-52.85630471570806
 42
0.0
 10
554.679448763597
 20
-60.38130471570809
 42
0.4142135623730891
 10
554.941948763597
 20
-60.64380471570808
 42
0.0
 10
555.816948763597
 20
-60.64380471570808
 42
0.4142135623731526
 10
556.079448763597
 20
-60.38130471570809
 42
0.0
 10
556.079448763597
 20
-57.58130471570808
 42
-0.4142135623731526
 10
556.3419487635971
 20
-57.3188047157081
 42
0.0
 10
556.4120658453414
 20
-57.3188047157081
 42
-0.3272098845218915
 10
556.662381294939
 20
-57.50225773162464
 42
0.0
 10
557.596516232255
 20
-60.46035169979155
 42
0.3272098845218902
 10
557.8468316818526
 20
-60.64380471570808
 42
0.0
 10
558.6962763716571
 20
-60.64380471570808
 42
0.5069206636600336
 10
558.946591821255
 20
-60.3022577316246
 42
0.0
 10
557.783396132018
 20
-56.618804715708
 42
0.0
 97
        0
 92
        7
 72
     1
 73
     1
 93
        8
 10
561.5044487635969
 20
-52.85630471570806
 42
0.4142135623731546
 10
561.2419487635969
 20
-52.59380471570807
 42
0.0
 10
560.366948763597
 20
-52.59380471570807
 42
0.4142135623731507
 10
560.104448763597
 20
-52.85630471570806
 42
0.0
 10
560.104448763597
 20
-60.38130471570809
 42
0.4142135623731526
 10
560.366948763597
 20
-60.64380471570808
 42
0.0
 10
561.2419487635969
 20
-60.64380471570808
 42
0.4142135623731526
 10
561.5044487635969
 20
-60.38130471570809
 42
0.0
 97
        0
 92
        7
 72
     1
 73
     1
 93
       24
 10
563.954448763597
 20
-54.25630471570809
 42
-0.4142135623731546
 10
564.216948763597
 20
-53.99380471570805
 42
0.0
 10
565.704448763597
 20
-53.99380471570805
 42
0.4142135623730911
 10
565.9669487635969
 20
-53.73130471570807
 42
0.0
 10
565.9669487635969
 20
-52.85630471570806
 42
0.4142135623730952
 10
565.704448763597
 20
-52.59380471570807
 42
0.0
 10
563.954448763597
 20
-52.59380471570807
 42
0.4142135623731048
 10
562.554448763597
 20
-53.99380471570805
 42
0.0
 10
562.554448763597
 20
-54.90140572838567
 42
0.1989123673796613
 10
563.1695245231053
 20
-56.38632996887747
 42
0.0
 10
564.6244235104275
 20
-57.84122895619981
 42
-0.1989123673796402
 10
564.829448763597
 20
-58.33620370303032
 42
0.0
 10
564.829448763597
 20
-58.98130471570806
 42
-0.4142135623730911
 10
564.5669487635971
 20
-59.24380471570805
 42
0.0
 10
563.079448763597
 20
-59.24380471570805
 42
0.4142135623731526
 10
562.816948763597
 20
-59.50630471570804
 42
0.0
 10
562.816948763597
 20
-60.38130471570809
 42
0.4142135623730891
 10
563.0794487635969
 20
-60.64380471570808
 42
0.0
 10
564.829448763597
 20
-60.64380471570808
 42
0.4142135623730925
 10
566.2294487635969
 20
-59.24380471570811
 42
0.0
 10
566.2294487635969
 20
-58.33620370303044
 42
0.1989123673796675
 10
565.6143730040887
 20
-56.85127946253863
 42
0.0
 10
564.1594740167664
 20
-55.39638047521634
 42
-0.1989123673796652
 10
563.954448763597
 20
-54.90140572838578
 42
0.0
 97
        0
 92
        7
 72
     1
 73
     1
 93
       16
 10
568.679448763597
 20
-52.85630471570806
 42
0.414213562373103
 10
568.416948763597
 20
-52.59380471570807
 42
0.0
 10
567.541948763597
 20
-52.59380471570807
 42
0.4142135623730871
 10
567.2794487635969
 20
-52.85630471570806
 42
0.0
 10
567.2794487635969
 20
-59.24380471570811
 42
0.4142135623730927
 10
568.679448763597
 20
-60.64380471570808
 42
0.0
 10
570.429448763597
 20
-60.64380471570808
 42
0.4142135623731045
 10
571.829448763597
 20
-59.24380471570811
 42
0.0
 10
571.829448763597
 20
-52.85630471570806
 42
0.4142135623730951
 10
571.566948763597
 20
-52.59380471570807
 42
0.0
 10
570.6919487635969
 20
-52.59380471570807
 42
0.4142135623730871
 10
570.429448763597
 20
-52.85630471570806
 42
0.0
 10
570.429448763597
 20
-58.71880471570808
 42
-0.4142135623730879
 10
569.9044487635969
 20
-59.24380471570805
 42
0.0
 10
569.204448763597
 20
-59.24380471570805
 42
-0.4142135623731197
 10
568.679448763597
 20
-58.71880471570808
 42
0.0
 97
        0
 92
        7
 72
     1
 73
     1
 93
        8
 10
574.2794487635969
 20
-52.85630471570806
 42
0.4142135623730871
 10
574.016948763597
 20
-52.59380471570807
 42
0.0
 10
573.141948763597
 20
-52.59380471570807
 42
0.4142135623731507
 10
572.879448763597
 20
-52.85630471570806
 42
0.0
 10
572.879448763597
 20
-60.38130471570809
 42
0.4142135623730891
 10
573.1419487635969
 20
-60.64380471570808
 42
0.0
 10
574.016948763597
 20
-60.64380471570808
 42
0.4142135623730891
 10
574.2794487635969
 20
-60.38130471570809
 42
0.0
 97
        0
 75
     0
 76
     1
 52
0.0
 41
0.1
 77
     0
 78
     2
 53
45.0
 43
89.28719051886691
 44
-70.81880471570804
 45
-0.2245064030267288
 46
0.2245064030267288
 79
     0
 53
135.0
 43
89.28719051886691
 44
-70.81880471570804
 45
-0.2245064030267288
 46
-0.2245064030267288
 79
     0
 47
0.057451373970553
 98
        8
 10
547.7982701677181
 20
-56.63521789276529
 10
550.960600189426
 20
-54.79677362448256
 10
552.3405266290362
 20
-56.46286389267271
 10
555.2153726770249
 20
-56.11815589248732
 10
560.6775786956847
 20
-55.88834975871652
 10
563.2074431337712
 20
-54.50951655750447
 10
568.0371856724065
 20
-54.85422575816056
 10
573.6718824960178
 20
-54.62441962438976
  0
LINE
  5
310C
330
1A
100
AcDbEntity
  8
ZUWAKU
100
AcDbLine
 10
546.804448763597
 20
-54.25630471570809
 30
0.0
 11
546.804448763597
 21
-54.90140572838573
 31
0.0
  0
LINE
  5
310D
330
1A
100
AcDbEntity
  8
ZUWAKU
100
AcDbLine
 10
545.4044487635969
 20
-53.99380471570805
 30
0.0
 11
545.4044487635969
 21
-54.90140572838573
 31
0.0
  0
LINE
  5
310E
330
1A
100
AcDbEntity
  8
ZUWAKU
100
AcDbLine
 10
551.5294487635969
 20
-54.6938047157081
 30
0.0
 11
551.5294487635969
 21
-58.54380471570806
 31
0.0
  0
LINE
  5
310F
330
1A
100
AcDbEntity
  8
ZUWAKU
100
AcDbLine
 10
550.129448763597
 20
-58.54380471570806
 30
0.0
 11
550.129448763597
 21
-54.6938047157081
 31
0.0
  0
LINE
  5
3110
330
1A
100
AcDbEntity
  8
ZUWAKU
100
AcDbLine
 10
560.104448763597
 20
-52.85630471570806
 30
0.0
 11
560.104448763597
 21
-60.38130471570809
 31
0.0
  0
LINE
  5
3111
330
1A
100
AcDbEntity
  8
ZUWAKU
100
AcDbLine
 10
561.5044487635969
 20
-60.38130471570809
 30
0.0
 11
561.5044487635969
 21
-52.85630471570806
 31
0.0
  0
LINE
  5
3112
330
1A
100
AcDbEntity
  8
ZUWAKU
100
AcDbLine
 10
567.2794487635969
 20
-52.85630471570806
 30
0.0
 11
567.2794487635969
 21
-59.24380471570805
 31
0.0
  0
LINE
  5
3113
330
1A
100
AcDbEntity
  8
ZUWAKU
100
AcDbLine
 10
568.679448763597
 20
-58.71880471570808
 30
0.0
 11
568.679448763597
 21
-52.85630471570806
 31
0.0
  0
LINE
  5
3114
330
1A
100
AcDbEntity
  8
ZUWAKU
100
AcDbLine
 10
556.079448763597
 20
-55.65630471570807
 30
0.0
 11
556.079448763597
 21
-52.85630471570806
 31
0.0
  0
LINE
  5
3115
330
1A
100
AcDbEntity
  8
ZUWAKU
100
AcDbLine
 10
554.679448763597
 20
-52.85630471570806
 30
0.0
 11
554.679448763597
 21
-60.38130471570809
 31
0.0
  0
LINE
  5
3116
330
1A
100
AcDbEntity
  8
ZUWAKU
100
AcDbLine
 10
557.596516232255
 20
-52.77725773162462
 30
0.0
 11
556.662381294939
 21
-55.73535169979158
 31
0.0
  0
LINE
  5
3117
330
1A
100
AcDbEntity
  8
ZUWAKU
100
AcDbLine
 10
558.4157720046859
 20
-54.61628111892633
 30
0.0
 11
557.783396132018
 21
-56.61880471570805
 31
0.0
  0
LINE
  5
3118
330
1A
100
AcDbEntity
  8
ZUWAKU
100
AcDbLine
 10
563.954448763597
 20
-54.25630471570809
 30
0.0
 11
563.954448763597
 21
-54.90140572838573
 31
0.0
  0
LINE
  5
3119
330
1A
100
AcDbEntity
  8
ZUWAKU
100
AcDbLine
 10
562.554448763597
 20
-53.99380471570805
 30
0.0
 11
562.554448763597
 21
-54.90140572838573
 31
0.0
  0
LINE
  5
311A
330
1A
100
AcDbEntity
  8
ZUWAKU
100
AcDbLine
 10
579.4216574602005
 20
-49.21880471570807
 30
0.0
 11
579.4216574602006
 21
-63.81880471570804
 31
0.0
  0
LINE
  5
311B
330
1A
100
AcDbEntity
  8
ZUWAKU
100
AcDbLine
 10
579.5216574602005
 20
-49.21880471570807
 30
0.0
 11
579.5216574602006
 21
-63.81880471570804
 31
0.0
  0
LINE
  5
311C
330
1A
100
AcDbEntity
  8
ZUWAKU
100
AcDbLine
 10
579.3216574602006
 20
-49.21880471570807
 30
0.0
 11
579.3216574602006
 21
-63.81880471570804
 31
0.0
  0
LINE
  5
311D
330
1A
100
AcDbEntity
  8
ZUWAKU
100
AcDbLine
 10
571.829448763597
 20
-59.24380471570805
 30
0.0
 11
571.829448763597
 21
-52.85630471570806
 31
0.0
  0
LINE
  5
311E
330
1A
100
AcDbEntity
  8
ZUWAKU
100
AcDbLine
 10
570.429448763597
 20
-52.85630471570806
 30
0.0
 11
570.429448763597
 21
-58.71880471570808
 31
0.0
  0
LINE
  5
311F
330
1A
100
AcDbEntity
  8
ZUWAKU
100
AcDbLine
 10
574.2794487635969
 20
-60.38130471570809
 30
0.0
 11
574.2794487635969
 21
-52.85630471570806
 31
0.0
  0
LINE
  5
3120
330
1A
100
AcDbEntity
  8
ZUWAKU
100
AcDbLine
 10
572.879448763597
 20
-52.85630471570806
 30
0.0
 11
572.879448763597
 21
-60.38130471570809
 31
0.0
  0
LINE
  5
3121
330
1A
100
AcDbEntity
  8
ZUWAKU
100
AcDbLine
 10
643.8816433312403
 20
-49.21880471570807
 30
0.0
 11
643.8816433312403
 21
-63.81880471570804
 31
0.0
  0
LINE
  5
3122
330
1A
100
AcDbEntity
  8
ZUWAKU
100
AcDbLine
 10
644.0816433312403
 20
-49.21880471570807
 30
0.0
 11
644.0816433312404
 21
-63.81880471570804
 31
0.0
  0
LINE
  5
3123
330
1A
100
AcDbEntity
  8
ZUWAKU
100
AcDbLine
 10
643.9816433312403
 20
-49.21880471570807
 30
0.0
 11
643.9816433312404
 21
-63.81880471570804
 31
0.0
  0
LINE
  5
3124
330
1A
100
AcDbEntity
  8
ZUWAKU
100
AcDbLine
 10
644.0816433312404
 20
-56.61880471570805
 30
0.0
 11
763.4705246717021
 21
-56.61880471570805
 31
0.0
  0
LINE
  5
3125
330
1A
100
AcDbEntity
  8
ZUWAKU
100
AcDbLine
 10
644.0816433312404
 20
-56.41880471570806
 30
0.0
 11
763.4705246717021
 21
-56.41880471570806
 31
0.0
  0
LINE
  5
3126
330
1A
100
AcDbEntity
  8
ZUWAKU
100
AcDbLine
 10
644.0816433312404
 20
-56.51880471570809
 30
0.0
 11
763.4705246717021
 21
-56.51880471570809
 31
0.0
  0
TEXT
  5
3127
330
1A
100
AcDbEntity
  8
ZUWAKU
100
AcDbText
 10
644.6203658423452
 20
-59.39112644651527
 30
0.0
 40
2.0
  1
サイズ
 41
0.9
  7
ｽﾀｲﾙ1
100
AcDbText
  0
LINE
  5
3128
330
1A
100
AcDbEntity
  8
ZUWAKU
100
AcDbLine
 10
539.7583426862064
 20
-48.81880471570809
 30
0.0
 11
938.4583426862063
 21
-48.81880471570809
 31
0.0
  0
LINE
  5
3129
330
1A
100
AcDbEntity
  8
ZUWAKU
100
AcDbLine
 10
539.7583426862064
 20
-48.91880471570806
 30
0.0
 11
938.4583426862063
 21
-48.91880471570806
 31
0.0
  0
LINE
  5
312A
330
1A
100
AcDbEntity
  8
ZUWAKU
100
AcDbLine
 10
539.7583426862064
 20
-49.01880471570809
 30
0.0
 11
938.4583426862063
 21
-49.01880471570809
 31
0.0
  0
LINE
  5
312B
330
1A
100
AcDbEntity
  8
ZUWAKU
100
AcDbLine
 10
539.7583426862064
 20
-49.11880471570805
 30
0.0
 11
938.4583426862063
 21
-49.11880471570805
 31
0.0
  0
LINE
  5
312C
330
1A
100
AcDbEntity
  8
ZUWAKU
100
AcDbLine
 10
539.7583426862064
 20
-49.21880471570807
 30
0.0
 11
938.4583426862063
 21
-49.21880471570807
 31
0.0
  0
TEXT
  5
312D
330
1A
100
AcDbEntity
  8
MOJI
100
AcDbText
 10
771.3815586817075
 20
-58.24749585487808
 30
0.0
 40
2.799999999999999
  1
LS12T
 41
0.9
  7
ｽﾀｲﾙ1
100
AcDbText
  0
LWPOLYLINE
  5
312E
330
1A
100
AcDbEntity
  8
ZUWAKU
100
AcDbPolyline
 90
        4
 70
     1
 43
0.0
 10
539.8583426862065
 20
211.4811952842919
 10
539.8583426862065
 20
-64.11880471570805
 10
938.4583426862063
 20
-64.11880471570805
 10
938.4583426862064
 20
211.4811952842919
  0
LWPOLYLINE
  5
312F
330
1A
100
AcDbEntity
  8
ZUWAKU
100
AcDbPolyline
 90
        4
 70
     1
 43
0.0
 10
540.0583426862064
 20
211.281195284292
 10
540.0583426862064
 20
-63.91880471570806
 10
938.2583426862066
 20
-63.91880471570806
 10
938.2583426862064
 20
211.281195284292
  0
LWPOLYLINE
  5
3130
330
1A
100
AcDbEntity
  8
ZUWAKU
100
AcDbPolyline
 90
        4
 70
     1
 43
0.0
 10
539.7583426862064
 20
211.581195284292
 10
539.7583426862064
 20
-64.21880471570807
 10
938.5583426862064
 20
-64.21880471570801
 10
938.5583426862064
 20
211.581195284292
  0
LWPOLYLINE
  5
3131
330
1A
100
AcDbEntity
  8
ZUWAKU
100
AcDbPolyline
 90
        4
 70
     1
 43
0.0
 10
539.9583426862063
 20
211.3811952842919
 10
539.9583426862063
 20
-64.01880471570803
 10
938.3583426862065
 20
-64.01880471570803
 10
938.3583426862065
 20
211.3811952842919
  0
LWPOLYLINE
  5
3132
330
1A
100
AcDbEntity
  8
ZUWAKU
100
AcDbPolyline
 90
        4
 70
     1
 43
0.0
 10
540.1583426862064
 20
211.1811952842919
 10
540.1583426862064
 20
-63.81880471570804
 10
938.1583426862063
 20
-63.81880471570804
 10
938.1583426862063
 20
211.1811952842919
  0
LINE
  5
3868
330
1A
100
AcDbEntity
  8
SEIHIN
  6
Continuous
 62
     3
100
AcDbLine
 10
751.2788760264217
 20
59.68038002174832
 30
0.0
 11
752.222884442613
 21
50.24029585982948
 31
0.0
  0
ARC
  5
412B
330
1A
100
AcDbEntity
  8
製品
100
AcDbCircle
 10
747.2987272655817
 20
59.28236514566467
 30
0.0
 40
4.0
100
AcDbArc
 50
5.710593137494594
 51
90.0
  0
ARC
  5
412C
330
1A
100
AcDbEntity
  8
製品
100
AcDbCircle
 10
699.2662714814506
 20
59.28124526920374
 30
0.0
 40
9.0
100
AcDbArc
 50
90.00000000000083
 51
139.8551549048029
  0
ARC
  5
412D
330
1A
100
AcDbEntity
  8
製品
100
AcDbCircle
 10
747.2988392532284
 20
59.28124526920445
 30
0.0
 40
9.0
100
AcDbArc
 50
5.710593137499734
 51
90.00000000000081
  0
LINE
  5
412F
330
1A
100
AcDbEntity
  8
製品
100
AcDbLine
 10
760.6807005593982
 20
154.766517160998
 30
0.0
 11
760.6807005593982
 21
132.4339868592767
 31
0.0
  0
LINE
  5
4130
330
1A
100
AcDbEntity
  8
SEIHIN
  6
Continuous
 62
     3
100
AcDbLine
 10
757.203033203454
 20
155.7665171609979
 30
0.0
 11
759.6807005593982
 21
155.766517160998
 31
0.0
  0
ARC
  5
4131
330
1A
100
AcDbEntity
  8
製品
100
AcDbCircle
 10
759.6807005593982
 20
143.5165171609981
 30
0.0
 40
1.0
100
AcDbArc
 50
270.0
 51
0.0
  0
LINE
  5
4132
330
1A
100
AcDbEntity
  8
中心線
100
AcDbLine
 10
760.973810358622
 20
150.4339868592767
 30
0.0
 11
756.673444655246
 21
150.4339868592767
 31
0.0
  0
ELLIPSE
  5
4133
330
1A
100
AcDbEntity
  8
製品
100
AcDbEllipse
 10
757.894596426811
 20
150.4339868592767
 30
0.0
 11
0.0
 21
2.099999999999965
 31
0.0
210
0.0
220
0.0
230
-1.0
 40
0.099508457293389
 41
2.208358247414127
 42
7.216419713355285
  0
ELLIPSE
  5
4134
330
1A
100
AcDbEntity
  8
製品
100
AcDbEllipse
 10
758.4916187409373
 20
150.4339868592767
 30
0.0
 11
0.0000000000002856
 21
3.250000000000056
 31
0.0
210
0.0
220
0.0
230
-1.0
 40
0.0995037190209919
 41
5.107180100084434
 42
10.60078316786451
  0
LINE
  5
4135
330
1A
100
AcDbEntity
  8
CENTER L
  6
CENTER
 62
     1
 48
5.0
100
AcDbLine
 10
758.4916187409373
 20
146.7808581081179
 30
0.0
 11
758.4916187409373
 21
153.9947688954564
 31
0.0
  0
LINE
  5
4136
330
1A
100
AcDbEntity
  8
CENTER L
  6
CENTER
 62
     1
 48
5.0
100
AcDbLine
 10
757.894596426811
 20
147.8789589302044
 30
0.0
 11
757.894596426811
 21
152.9424214852959
 31
0.0
  0
LINE
  5
4137
330
1A
100
AcDbEntity
  8
CENTER L
  6
CENTER
 62
     1
 48
5.0
100
AcDbLine
 10
759.9841745262521
 20
147.939964450509
 30
0.0
 11
759.9841745262521
 21
152.8814159649915
 31
0.0
  0
ELLIPSE
  5
4138
330
1A
100
AcDbEntity
  8
製品
100
AcDbEllipse
 10
759.9841745262523
 20
150.4339868592767
 30
0.0
 11
0.0
 21
2.099999999999965
 31
0.0
210
0.0
220
0.0
230
-1.0
 40
0.099508457293389
 41
0.0
 42
6.283185307179586
  0
LINE
  5
4139
330
1A
100
AcDbEntity
  8
SEIHIN
  6
Continuous
 62
     3
100
AcDbLine
 10
751.2278472524017
 20
143.016517160998
 30
0.0
 11
751.2278472524017
 21
142.4339868592765
 31
0.0
  0
LINE
  5
413A
330
1A
100
AcDbEntity
  8
SEIHIN
  6
Continuous
 62
     3
100
AcDbLine
 10
757.1980703936642
 20
154.7665171609979
 30
0.0
 11
757.1980703936642
 21
143.516517160998
 31
0.0
  0
LINE
  5
413B
330
1A
100
AcDbEntity
  8
SEIHIN
  6
Continuous
 62
     3
100
AcDbLine
 10
756.2030332034539
 20
154.7665171609979
 30
0.0
 11
756.2030332034539
 21
144.5165171609981
 31
0.0
  0
LINE
  5
413C
330
1A
100
AcDbEntity
  8
SEIHIN
  6
Continuous
 62
     3
100
AcDbLine
 10
752.222884442612
 20
142.516517160998
 30
0.0
 11
752.2228844426117
 21
142.4339868592765
 31
0.0
  0
LINE
  5
413D
330
1A
100
AcDbEntity
  8
SEIHIN
  6
Continuous
 62
     3
100
AcDbLine
 10
759.6807005593982
 20
142.516517160998
 30
0.0
 11
752.2228844426117
 21
142.516517160998
 31
0.0
  0
LINE
  5
413E
330
1A
100
AcDbEntity
  8
SEIHIN
  6
Continuous
 62
     3
100
AcDbLine
 10
755.2030332034539
 20
143.5165171609981
 30
0.0
 11
751.7278472524017
 21
143.516517160998
 31
0.0
  0
ARC
  5
413F
330
1A
100
AcDbEntity
  8
SEIHIN
  6
Continuous
 62
     3
100
AcDbCircle
 10
755.2030332034539
 20
144.5165171609981
 30
0.0
 40
1.0
100
AcDbArc
 50
270.0
 51
0.0
  0
ARC
  5
4140
330
1A
100
AcDbEntity
  8
SEIHIN
  6
Continuous
 62
     3
100
AcDbCircle
 10
756.1980703936642
 20
143.516517160998
 30
0.0
 40
1.0
100
AcDbArc
 50
270.0
 51
0.0
  0
ARC
  5
4141
330
1A
100
AcDbEntity
  8
SEIHIN
  6
Continuous
 62
     3
100
AcDbCircle
 10
751.7278472524017
 20
143.016517160998
 30
0.0
 40
0.5
100
AcDbArc
 50
90.0
 51
180.0
  0
LINE
  5
4142
330
1A
100
AcDbEntity
  8
ﾌﾞﾗｹｯﾄ本体
 62
     1
100
AcDbLine
 10
759.9841745262523
 20
153.5780404761323
 30
0.0
 11
759.9841745262521
 21
147.939964450509
 31
0.0
  0
LINE
  5
4143
330
1A
100
AcDbEntity
  8
ﾌﾞﾗｹｯﾄ本体
 62
     1
100
AcDbLine
 10
757.8945964268113
 20
154.0579531450054
 30
0.0
 11
757.8945964268113
 21
146.7440677947431
 31
0.0
  0
LINE
  5
4144
330
1A
100
AcDbEntity
  8
ﾌﾞﾗｹｯﾄ本体
 62
     1
100
AcDbLine
 10
758.4916187409371
 20
154.3804429601934
 30
0.0
 11
758.4916187409371
 21
146.3715200069502
 31
0.0
  0
LINE
  5
4145
330
1A
100
AcDbEntity
  8
SEIHIN
  6
Continuous
 62
     3
100
AcDbLine
 10
758.1931075838739
 20
149.1839868592767
 30
0.0
 11
758.0625123415576
 21
149.1839868592767
 31
0.0
  0
LINE
  5
4146
330
1A
100
AcDbEntity
  8
SEIHIN
  6
Continuous
 62
     3
100
AcDbLine
 10
758.1931075838744
 20
151.6839868592767
 30
0.0
 11
758.0625123415576
 21
151.6839868592767
 31
0.0
  0
ARC
  5
4147
330
1A
100
AcDbEntity
  8
製品
100
AcDbCircle
 10
759.6807005593982
 20
154.766517160998
 30
0.0
 40
1.0
100
AcDbArc
 50
0.0
 51
90.0
  0
ARC
  5
4148
330
1A
100
AcDbEntity
  8
SEIHIN
  6
Continuous
 62
     3
100
AcDbCircle
 10
758.1980703936642
 20
154.7665171609979
 30
0.0
 40
1.0
100
AcDbArc
 50
90.0
 51
180.0
  0
ARC
  5
4149
330
1A
100
AcDbEntity
  8
SEIHIN
  6
Continuous
 62
     3
100
AcDbCircle
 10
757.203033203454
 20
154.7665171609979
 30
0.0
 40
1.0
100
AcDbArc
 50
90.0
 51
180.0
  0
ARC
  5
414A
330
1A
100
AcDbEntity
  8
SEIHIN
  6
Continuous
 62
     3
100
AcDbCircle
 10
757.2030332034538
 20
110.1014565575554
 30
0.0
 40
1.0
100
AcDbArc
 50
180.0
 51
270.0
  0
ARC
  5
414B
330
1A
100
AcDbEntity
  8
SEIHIN
  6
Continuous
 62
     3
100
AcDbCircle
 10
758.1980703936641
 20
110.1014565575554
 30
0.0
 40
1.0
100
AcDbArc
 50
180.0
 51
270.0
  0
ARC
  5
414C
330
1A
100
AcDbEntity
  8
製品
100
AcDbCircle
 10
759.6807005593981
 20
110.1014565575554
 30
0.0
 40
1.0
100
AcDbArc
 50
270.0
 51
0.0
  0
LINE
  5
414D
330
1A
100
AcDbEntity
  8
SEIHIN
  6
Continuous
 62
     3
100
AcDbLine
 10
758.1931075838743
 20
113.1839868592768
 30
0.0
 11
758.0625123415575
 21
113.1839868592768
 31
0.0
  0
LINE
  5
414E
330
1A
100
AcDbEntity
  8
SEIHIN
  6
Continuous
 62
     3
100
AcDbLine
 10
758.1931075838738
 20
115.6839868592768
 30
0.0
 11
758.0625123415575
 21
115.6839868592768
 31
0.0
  0
LINE
  5
414F
330
1A
100
AcDbEntity
  8
CENTER L
  6
CENTER
 62
     1
 48
3.0
100
AcDbLine
 10
758.4916187409371
 20
110.5700610600814
 30
0.0
 11
758.4916187409371
 21
118.5789840133246
 31
0.0
  0
LINE
  5
4150
330
1A
100
AcDbEntity
  8
CENTER L
  6
CENTER
 62
     1
 48
3.0
100
AcDbLine
 10
757.8945964268111
 20
110.810020573548
 30
0.0
 11
757.8945964268111
 21
118.1239059238104
 31
0.0
  0
LINE
  5
4151
330
1A
100
AcDbEntity
  8
CENTER L
  6
CENTER
 62
     1
 48
3.0
100
AcDbLine
 10
759.9841745262522
 20
111.2899332424211
 30
0.0
 11
759.9841745262519
 21
116.9280092680444
 31
0.0
  0
ARC
  5
4152
330
1A
100
AcDbEntity
  8
SEIHIN
  6
Continuous
 62
     3
100
AcDbCircle
 10
751.7278472524016
 20
121.8514565575553
 30
0.0
 40
0.5
100
AcDbArc
 50
180.0
 51
270.0
  0
ARC
  5
4153
330
1A
100
AcDbEntity
  8
SEIHIN
  6
Continuous
 62
     3
100
AcDbCircle
 10
756.1980703936641
 20
121.3514565575553
 30
0.0
 40
1.0
100
AcDbArc
 50
0.0
 51
90.0
  0
ARC
  5
4154
330
1A
100
AcDbEntity
  8
SEIHIN
  6
Continuous
 62
     3
100
AcDbCircle
 10
755.2030332034538
 20
120.3514565575553
 30
0.0
 40
1.0
100
AcDbArc
 50
0.0
 51
90.0
  0
LINE
  5
4155
330
1A
100
AcDbEntity
  8
SEIHIN
  6
Continuous
 62
     3
100
AcDbLine
 10
755.2030332034538
 20
121.3514565575553
 30
0.0
 11
751.7278472524016
 21
121.3514565575553
 31
0.0
  0
LINE
  5
4156
330
1A
100
AcDbEntity
  8
SEIHIN
  6
Continuous
 62
     3
100
AcDbLine
 10
759.6807005593981
 20
122.3514565575553
 30
0.0
 11
752.2228844426116
 21
122.3514565575553
 31
0.0
  0
LINE
  5
4157
330
1A
100
AcDbEntity
  8
SEIHIN
  6
Continuous
 62
     3
100
AcDbLine
 10
752.2228844426118
 20
122.3514565575553
 30
0.0
 11
752.2228844426116
 21
122.4339868592768
 31
0.0
  0
LINE
  5
4158
330
1A
100
AcDbEntity
  8
SEIHIN
  6
Continuous
 62
     3
100
AcDbLine
 10
756.2030332034538
 20
110.1014565575554
 30
0.0
 11
756.2030332034538
 21
120.3514565575553
 31
0.0
  0
LINE
  5
4159
330
1A
100
AcDbEntity
  8
SEIHIN
  6
Continuous
 62
     3
100
AcDbLine
 10
757.1980703936641
 20
110.1014565575554
 30
0.0
 11
757.1980703936641
 21
121.3514565575553
 31
0.0
  0
LINE
  5
415A
330
1A
100
AcDbEntity
  8
SEIHIN
  6
Continuous
 62
     3
100
AcDbLine
 10
751.2278472524016
 20
121.8514565575553
 30
0.0
 11
751.2278472524016
 21
122.4339868592768
 31
0.0
  0
ELLIPSE
  5
415B
330
1A
100
AcDbEntity
  8
製品
100
AcDbEllipse
 10
759.9841745262522
 20
114.4339868592767
 30
0.0
 11
0.0
 21
-2.099999999999965
 31
0.0
210
0.0
220
0.0
230
1.0
 40
0.099508457293389
 41
0.0
 42
6.283185307179586
  0
LINE
  5
415C
330
1A
100
AcDbEntity
  8
CENTER L
  6
CENTER
 62
     1
 48
5.0
100
AcDbLine
 10
759.9841745262519
 20
116.9280092680444
 30
0.0
 11
759.9841745262519
 21
111.986557753562
 31
0.0
  0
LINE
  5
415D
330
1A
100
AcDbEntity
  8
CENTER L
  6
CENTER
 62
     1
 48
5.0
100
AcDbLine
 10
757.8945964268109
 20
116.9890147883491
 30
0.0
 11
757.8945964268109
 21
111.9255522332576
 31
0.0
  0
LINE
  5
415E
330
1A
100
AcDbEntity
  8
CENTER L
  6
CENTER
 62
     1
 48
5.0
100
AcDbLine
 10
758.4916187409371
 20
118.0871156104356
 30
0.0
 11
758.4916187409371
 21
110.873204823097
 31
0.0
  0
ELLIPSE
  5
415F
330
1A
100
AcDbEntity
  8
SEIHIN
  6
Continuous
 62
     3
100
AcDbEllipse
 10
758.4916187409371
 20
114.4339868592768
 30
0.0
 11
0.0000000000002856
 21
-3.250000000000056
 31
0.0
210
0.0
220
0.0
230
1.0
 40
0.0995037190209919
 41
5.107180100084434
 42
10.60078316786451
  0
ELLIPSE
  5
4160
330
1A
100
AcDbEntity
  8
製品
100
AcDbEllipse
 10
757.8945964268109
 20
114.4339868592767
 30
0.0
 11
0.0
 21
-2.099999999999965
 31
0.0
210
0.0
220
0.0
230
1.0
 40
0.099508457293389
 41
2.208358247414127
 42
7.216419713355285
  0
LINE
  5
4161
330
1A
100
AcDbEntity
  8
CENTER L
  6
CENTER
 62
     1
 48
3.0
100
AcDbLine
 10
760.9738103586218
 20
114.4339868592767
 30
0.0
 11
756.6734446552459
 21
114.4339868592767
 31
0.0
  0
ARC
  5
4162
330
1A
100
AcDbEntity
  8
SEIHIN
  6
Continuous
 62
     3
100
AcDbCircle
 10
759.6807005593981
 20
121.3514565575553
 30
0.0
 40
1.0
100
AcDbArc
 50
0.0
 51
90.0
  0
LINE
  5
4163
330
1A
100
AcDbEntity
  8
製品
100
AcDbLine
 10
757.2030332034538
 20
109.1014565575554
 30
0.0
 11
759.6807005593981
 21
109.1014565575554
 31
0.0
  0
LINE
  5
4164
330
1A
100
AcDbEntity
  8
製品
100
AcDbLine
 10
760.6807005593981
 20
110.1014565575554
 30
0.0
 11
760.6807005593981
 21
132.4339868592767
 31
0.0
  0
ARC
  5
4196
330
1A
100
AcDbEntity
  8
SEIHIN
  6
Continuous
 62
     3
100
AcDbCircle
 10
850.8242640402411
 20
80.72727973393526
 30
0.0
 40
0.5
100
AcDbArc
 50
5.71059313750029
 51
95.71059313749739
  0
ARC
  5
4197
330
1A
100
AcDbEntity
  8
SEIHIN
  6
Continuous
 62
     3
100
AcDbCircle
 10
831.9184579225318
 20
78.83669912216615
 30
0.0
 40
0.5
100
AcDbArc
 50
95.71059313749739
 51
185.7105931375003
  0
ARC
  5
4198
330
1A
100
AcDbEntity
  8
ﾌﾞﾗｹｯﾄ本体
100
AcDbCircle
 10
853.6205551331612
 20
92.96286630165795
 30
0.0
 40
0.5
100
AcDbArc
 50
5.710593137497048
 51
95.71059313749739
  0
ARC
  5
4199
330
1A
100
AcDbEntity
  8
ﾌﾞﾗｹｯﾄ本体
100
AcDbCircle
 10
826.7545509974912
 20
90.27626588809344
 30
0.0
 40
0.5
100
AcDbArc
 50
95.71059313749739
 51
185.710593137497
  0
LINE
  5
419A
330
1A
100
AcDbEntity
  8
SEIHIN
  6
Continuous
 62
     3
100
AcDbLine
 10
857.0953345666305
 20
55.70260306168073
 30
0.0
 11
853.8614636984481
 21
55.37921597486249
 31
0.0
  0
LINE
  5
419B
330
1A
100
AcDbEntity
  8
SEIHIN
  6
Continuous
 62
     3
100
AcDbLine
 10
856.5978159715255
 20
60.67778901273047
 30
0.0
 11
857.0953345666305
 21
55.70260306168073
 31
0.0
  0
LINE
  5
419C
330
1A
100
AcDbEntity
  8
SEIHIN
  6
Continuous
 62
     3
100
AcDbLine
 10
830.7268490260657
 20
53.06575450762418
 30
0.0
 11
833.9607198942481
 21
53.38914159444241
 31
0.0
  0
LINE
  5
419D
330
1A
100
AcDbEntity
  8
SEIHIN
  6
Continuous
 62
     3
100
AcDbLine
 10
830.2293304309607
 20
58.04094045867416
 30
0.0
 11
830.7268490260657
 21
53.06575450762418
 31
0.0
  0
TEXT
  5
419E
330
1A
100
AcDbEntity
  8
図枠
 62
     7
 48
10.0
100
AcDbText
 10
879.3674563154583
 20
29.0469907836093
 30
0.0
 40
4.0
  1
2-φ6.5ｱﾝｶｰ用
100
AcDbText
  0
LEADER
  5
419F
330
1A
100
AcDbEntity
  8
寸法
100
AcDbLeader
  3
STANDARD
 76
     3
 10
864.978004196633
 20
45.98059846539665
 30
0.0
 10
878.4272010115362
 20
28.6857783002308
 30
0.0
 10
914.9579486238579
 20
28.6857783002308
 30
0.0
1001
ACAD
1000
DSTYLE
1002
{
1070
    41
1040
3.0
1070
    42
1040
3.0
1070
    43
1040
7.0
1070
    44
1040
1.5
1070
    73
1070
     0
1070
    74
1070
     0
1070
    77
1070
     0
1070
   140
1040
3.0
1070
   141
1040
15.0
1070
   147
1040
1.0
1070
   172
1070
     1
1070
   176
1070
     4
1070
   177
1070
     4
1070
   178
1070
     4
1070
   271
1070
     0
1070
   272
1070
     0
1070
   341
1005
166
1070
   342
1005
166
1002
}
  0
TEXT
  5
41A0
330
1A
100
AcDbEntity
  8
図枠
 62
     7
 48
10.0
100
AcDbText
 10
873.2203627837145
 20
68.3279369544841
 30
0.0
 40
4.0
  1
4-φ4.2
100
AcDbText
  0
LEADER
  5
41A1
330
1A
100
AcDbEntity
  8
寸法
100
AcDbLeader
  3
STANDARD
 76
     3
 10
863.4664413759701
 20
55.70849161754453
 30
0.0
 10
872.293398794374
 20
67.76243268068649
 30
0.0
 10
895.3321826970821
 20
67.76243268068649
 30
0.0
1001
ACAD
1000
DSTYLE
1002
{
1070
    41
1040
3.0
1070
    42
1040
3.0
1070
    43
1040
7.0
1070
    44
1040
1.5
1070
    73
1070
     0
1070
    74
1070
     0
1070
    77
1070
     0
1070
   140
1040
3.0
1070
   141
1040
15.0
1070
   147
1040
1.0
1070
   172
1070
     1
1070
   176
1070
     4
1070
   177
1070
     4
1070
   178
1070
     4
1070
   271
1070
     0
1070
   272
1070
     0
1070
   341
1005
166
1070
   342
1005
166
1002
}
  0
LINE
  5
41A2
330
1A
100
AcDbEntity
  8
ﾌﾞﾗｹｯﾄ本体
100
AcDbLine
 10
855.5101083440211
 20
79.09227200361724
 30
0.0
 11
854.1180737282658
 21
93.01261816116843
 31
0.0
  0
ARC
  5
41A3
330
1A
100
AcDbEntity
  8
ﾌﾞﾗｹｯﾄ本体
100
AcDbCircle
 10
823.7768557069527
 20
44.52260413635335
 30
0.0
 40
35.07581796915522
100
AcDbArc
 50
18.57460289887488
 51
32.86708200793239
  0
LINE
  5
41A4
330
1A
100
AcDbEntity
  8
ﾌﾞﾗｹｯﾄ本体
100
AcDbLine
 10
827.6490670181413
 20
76.30616787102875
 30
0.0
 11
826.2570324023862
 21
90.22651402858295
 31
0.0
  0
ARC
  5
41A5
330
1A
100
AcDbEntity
  8
ﾌﾞﾗｹｯﾄ本体
100
AcDbCircle
 10
865.5994172004682
 20
48.70486028570494
 30
0.0
 40
35.07581796915522
100
AcDbArc
 50
158.5541042670673
 51
172.8465833761279
  0
ARC
  5
41A6
330
1A
100
AcDbEntity
  8
ﾌﾞﾗｹｯﾄ本体
100
AcDbCircle
 10
820.4025519279396
 20
76.29360831501085
 30
0.0
 40
35.21893007957917
100
AcDbArc
 50
338.1129102420071
 51
4.557800571617101
  0
ARC
  5
41A7
330
1A
100
AcDbEntity
  8
ﾌﾞﾗｹｯﾄ本体
100
AcDbCircle
 10
862.6156151266981
 20
80.51491463488654
 30
0.0
 40
35.21893007957917
100
AcDbArc
 50
186.8633857033841
 51
213.3082760329938
  0
LINE
  5
41A8
330
1A
100
AcDbEntity
  8
SEIHIN
  6
Continuous
 62
     3
100
AcDbLine
 10
852.0536333626061
 20
73.45852432084516
 30
0.0
 11
832.1527900546868
 21
71.46843999005509
 31
0.0
  0
LINE
  5
41A9
330
1A
100
AcDbEntity
  8
SEIHIN
  6
Continuous
 62
     3
100
AcDbLine
 10
850.7745121807307
 20
81.22479832904023
 30
0.0
 11
831.8687060630214
 21
79.33421771727111
 31
0.0
  0
LINE
  5
41AA
330
1A
100
AcDbEntity
  8
ﾌﾞﾗｹｯﾄ本体
100
AcDbLine
 10
855.0462518952926
 20
83.73083649090304
 30
0.0
 11
827.1852105694126
 21
80.94473235831774
 31
0.0
  0
LINE
  5
41AB
330
1A
100
AcDbEntity
  8
ﾌﾞﾗｹｯﾄ本体
100
AcDbLine
 10
854.7893938195
 20
86.29941724882948
 30
0.0
 11
826.9283524936199
 21
83.51331311624411
 31
0.0
  0
LINE
  5
41AC
330
1A
100
AcDbEntity
  8
ﾌﾞﾗｹｯﾄ本体
100
AcDbLine
 10
853.5708032736504
 20
93.46038489676292
 30
0.0
 11
826.7047991379806
 21
90.77378448319846
 31
0.0
  0
LINE
  5
41AD
330
1A
100
AcDbEntity
  8
SEIHIN
  6
Continuous
 62
     3
100
AcDbLine
 10
854.1600743592301
 20
55.40907704094062
 30
0.0
 11
857.1451859298599
 21
25.5579613346408
 31
0.0
  0
LINE
  5
41AE
330
1A
100
AcDbEntity
  8
SEIHIN
  6
Continuous
 62
     3
100
AcDbLine
 10
833.662208737185
 20
53.35929047873615
 30
0.0
 11
836.6473203078149
 21
23.50817477243638
 31
0.0
  0
DIMENSION
  5
41AF
330
1A
100
AcDbEntity
  8
寸法
100
AcDbDimension
  2
*D19
 10
871.6021880046385
 20
11.13382988036311
 30
0.0
 11
848.2187642828442
 21
11.30795641346482
 31
0.0
 70
    32
 71
     5
 42
46.50010000000031
  3
STANDARD
100
AcDbAlignedDimension
 13
823.5625812565535
 23
24.20967599153446
 33
0.0
 14
869.8319101050374
 24
28.83660887638266
 34
0.0
 50
5.710593137497373
100
AcDbRotatedDimension
1001
ACAD
1000
DSTYLE
1002
{
1070
    41
1040
3.0
1070
    42
1040
3.0
1070
    43
1040
7.0
1070
    44
1040
1.5
1070
    73
1070
     0
1070
    74
1070
     0
1070
    77
1070
     3
1070
   140
1040
3.0
1070
   141
1040
15.0
1070
   147
1040
1.0
1070
   172
1070
     1
1070
   176
1070
     4
1070
   177
1070
     4
1070
   178
1070
     4
1070
   271
1070
     0
1070
   272
1070
     0
1070
   341
1005
166
1070
   342
1005
166
1002
}
  0
DIMENSION
  5
41B0
330
1A
100
AcDbEntity
  8
寸法
100
AcDbDimension
  2
*D18
 10
865.711008066107
 20
17.28378225479513
 30
0.0
 11
847.5515295929151
 21
17.98030331275689
 31
0.0
 70
    32
 71
     5
 42
36.00009999999997
  3
STANDARD
100
AcDbAlignedDimension
 13
828.6732813225382
 23
25.86452234257261
 33
0.0
 14
864.4947196738169
 24
29.44666617770029
 34
0.0
 50
5.710593137497373
100
AcDbRotatedDimension
1001
ACAD
1000
DSTYLE
1002
{
1070
    41
1040
3.0
1070
    42
1040
3.0
1070
    43
1040
7.0
1070
    44
1040
1.5
1070
    73
1070
     0
1070
    74
1070
     0
1070
    77
1070
     3
1070
   140
1040
3.0
1070
   141
1040
15.0
1070
   147
1040
1.0
1070
   172
1070
     1
1070
   176
1070
     4
1070
   177
1070
     4
1070
   178
1070
     4
1070
   271
1070
     0
1070
   272
1070
     0
1070
   341
1005
166
1070
   342
1005
166
1002
}
  0
DIMENSION
  5
41B1
330
1A
100
AcDbEntity
  8
寸法
100
AcDbDimension
  2
*D17
 10
815.4005524411704
 20
21.38349798577244
 30
0.0
 11
817.5398824001222
 21
25.1148874490597
 31
0.0
 70
    32
 71
     5
 42
6.999999999999943
  3
STANDARD
100
AcDbAlignedDimension
 13
824.7074710476093
 23
29.34910278120046
 33
0.0
 14
823.7615886945956
 24
22.21960161111461
 34
0.0
 50
95.71059313749731
100
AcDbRotatedDimension
1001
ACAD
1000
DSTYLE
1002
{
1070
    41
1040
3.0
1070
    42
1040
3.0
1070
    43
1040
7.0
1070
    44
1040
1.5
1070
    73
1070
     0
1070
    74
1070
     0
1070
    77
1070
     3
1070
   140
1040
3.0
1070
   141
1040
15.0
1070
   147
1040
1.0
1070
   172
1070
     1
1070
   176
1070
     4
1070
   177
1070
     4
1070
   178
1070
     4
1070
   271
1070
     0
1070
   272
1070
     0
1070
   341
1005
166
1070
   342
1005
166
1002
}
  0
DIMENSION
  5
41B2
330
1A
100
AcDbEntity
  8
寸法
100
AcDbDimension
  2
*D16
 10
805.6318184806238
 20
42.51635095618385
 30
0.0
 11
807.4726372825127
 21
49.23285199010118
 31
0.0
 70
    32
 71
     5
 42
13.00000000000006
  3
STANDARD
100
AcDbAlignedDimension
 13
820.2789585288607
 23
57.04590326846412
 33
0.0
 14
822.2809733555632
 24
44.18126644367712
 34
0.0
 50
95.71059313749731
100
AcDbRotatedDimension
1001
ACAD
1000
DSTYLE
1002
{
1070
    41
1040
3.0
1070
    42
1040
3.0
1070
    43
1040
7.0
1070
    44
1040
1.5
1070
    73
1070
     0
1070
    74
1070
     0
1070
    77
1070
     3
1070
   140
1040
3.0
1070
   141
1040
15.0
1070
   147
1040
1.0
1070
   172
1070
     1
1070
   176
1070
     4
1070
   177
1070
     4
1070
   178
1070
     4
1070
   271
1070
     0
1070
   272
1070
     0
1070
   341
1005
166
1070
   342
1005
166
1002
}
  0
DIMENSION
  5
41B3
330
1A
100
AcDbEntity
  8
寸法
100
AcDbDimension
  2
*D15
 10
811.917922275434
 20
56.2097996431218
 30
0.0
 11
814.7537782675325
 21
52.97592877493917
 31
0.0
 70
    32
 71
     5
 42
6.999999999999943
  3
STANDARD
100
AcDbAlignedDimension
 13
822.8384926932378
 23
50.26694375011718
 33
0.0
 14
820.2789585288607
 24
57.04590326846412
 34
0.0
 50
95.71059313749731
100
AcDbRotatedDimension
1001
ACAD
1000
DSTYLE
1002
{
1070
    41
1040
3.0
1070
    42
1040
3.0
1070
    43
1040
7.0
1070
    44
1040
1.5
1070
    73
1070
     0
1070
    74
1070
     0
1070
    77
1070
     3
1070
   140
1040
3.0
1070
   141
1040
15.0
1070
   147
1040
1.0
1070
   172
1070
     1
1070
   176
1070
     4
1070
   177
1070
     4
1070
   178
1070
     4
1070
   271
1070
     0
1070
   272
1070
     0
1070
   341
1005
166
1070
   342
1005
166
1002
}
  0
DIMENSION
  5
41B4
330
1A
100
AcDbEntity
  8
寸法
100
AcDbDimension
  2
*D14
 10
800.1760903525184
 20
19.86105177690784
 30
0.0
 11
800.9223682451766
 21
37.522961903135
 31
0.0
 70
    32
 71
     5
 42
34.99999999999989
  3
STANDARD
100
AcDbAlignedDimension
 13
820.2789585288607
 23
57.04590326846412
 33
0.0
 14
823.7615886945956
 24
22.21960161111461
 34
0.0
 50
95.71059313749731
100
AcDbRotatedDimension
1001
ACAD
1000
DSTYLE
1002
{
1070
    41
1040
3.0
1070
    42
1040
3.0
1070
    43
1040
7.0
1070
    44
1040
1.5
1070
    73
1070
     0
1070
    74
1070
     0
1070
    77
1070
     3
1070
   140
1040
3.0
1070
   141
1040
15.0
1070
   147
1040
1.0
1070
   172
1070
     1
1070
   176
1070
     4
1070
   177
1070
     4
1070
   178
1070
     4
1070
   271
1070
     0
1070
   272
1070
     0
1070
   341
1005
166
1070
   342
1005
166
1002
}
  0
ARC
  5
41B5
330
1A
100
AcDbEntity
  8
SEIHIN
  6
Continuous
 62
     3
100
AcDbCircle
 10
864.7572204349664
 20
59.48375433485021
 30
0.0
 40
2.000000000000056
100
AcDbArc
 50
5.71059313750029
 51
95.71059313749739
  0
ARC
  5
41B6
330
1A
100
AcDbEntity
  8
SEIHIN
  6
Continuous
 62
     3
100
AcDbCircle
 10
862.0208681618889
 20
54.18518129698223
 30
0.0
 40
2.100037202051526
100
AcDbArc
 50
312.2394485044803
 51
239.1817377705118
  0
LINE
  5
41B7
330
1A
100
AcDbEntity
  8
CENTER L
  6
CENTER
 62
     1
 48
3.0
100
AcDbLine
 10
858.2129603386745
 20
53.80439051466076
 30
0.0
 11
865.2547390300712
 21
54.50856838380034
 31
0.0
  0
ARC
  5
41B8
330
1A
100
AcDbEntity
  8
SEIHIN
  6
Continuous
 62
     3
100
AcDbCircle
 10
862.617890476015
 20
48.21495815572209
 30
0.0
 40
3.250000000000153
100
AcDbArc
 50
118.3304580855415
 51
73.09072818945729
  0
LINE
  5
41B9
330
1A
100
AcDbEntity
  8
CENTER L
  6
CENTER
 62
     1
 48
3.0
100
AcDbLine
 10
857.8647968258199
 20
47.73964879070261
 30
0.0
 11
867.0050094476508
 21
48.65367005288565
 31
0.0
  0
LINE
  5
41BA
330
1A
100
AcDbEntity
  8
SEIHIN
  6
Continuous
 62
     3
100
AcDbLine
 10
863.5631758067145
 20
51.32444937512842
 30
0.0
 11
863.4325771754996
 21
52.63043568727901
 31
0.0
  0
LINE
  5
41BB
330
1A
100
AcDbEntity
  8
SEIHIN
  6
Continuous
 62
     3
100
AcDbLine
 10
861.0755828311893
 20
51.0756900775759
 30
0.0
 11
860.9449841999742
 21
52.3816763897265
 31
0.0
  0
LINE
  5
41BC
330
1A
100
AcDbEntity
  8
CENTER L
  6
CENTER
 62
     1
 48
3.0
100
AcDbLine
 10
863.1332600383123
 20
43.06126253274849
 30
0.0
 11
861.6541372550653
 21
57.85249036522007
 31
0.0
  0
LINE
  5
41BD
330
1A
100
AcDbEntity
  8
CENTER L
  6
CENTER
 62
     1
 48
3.0
100
AcDbLine
 10
864.4947196738169
 20
29.44666617770029
 30
0.0
 11
863.7212175636355
 21
37.18168727951681
 31
0.0
  0
ARC
  5
41BE
330
1A
100
AcDbEntity
  8
SEIHIN
  6
Continuous
 62
     3
100
AcDbCircle
 10
864.11044626133
 20
33.28940030257238
 30
0.0
 40
2.100000000000022
100
AcDbArc
 50
5.71059313750029
 51
185.7105931375003
  0
ARC
  5
41BF
330
1A
100
AcDbEntity
  8
SEIHIN
  6
Continuous
 62
     3
100
AcDbCircle
 10
864.11044626133
 20
33.28940030257238
 30
0.0
 40
2.100000000000022
100
AcDbArc
 50
185.7105931375003
 51
5.71059313750029
  0
LINE
  5
41C0
330
1A
100
AcDbEntity
  8
CENTER L
  6
CENTER
 62
     1
 48
3.0
100
AcDbLine
 10
867.3443171295122
 20
33.61278738939061
 30
0.0
 11
860.5563724253377
 21
32.9339929189732
 31
0.0
  0
ARC
  5
41C1
330
1A
100
AcDbEntity
  8
SEIHIN
  6
Continuous
 62
     3
100
AcDbCircle
 10
867.8418357246172
 20
28.63760143834074
 30
0.0
 40
2.000000000000056
100
AcDbArc
 50
275.7105931374974
 51
5.71059313750029
  0
LINE
  5
41C2
330
1A
100
AcDbEntity
  8
SEIHIN
  6
Continuous
 62
     3
100
AcDbLine
 10
866.7472948153866
 20
59.68276177289236
 30
0.0
 11
869.8319101050371
 21
28.83660887638266
 31
0.0
  0
ARC
  5
41C3
330
1A
100
AcDbEntity
  8
SEIHIN
  6
Continuous
 62
     3
100
AcDbCircle
 10
826.1994298106102
 20
50.60303746185432
 30
0.0
 40
2.100037202051333
100
AcDbArc
 50
312.2394485044803
 51
239.1817377705118
  0
LINE
  5
41C4
330
1A
100
AcDbEntity
  8
SEIHIN
  6
Continuous
 62
     3
100
AcDbLine
 10
825.254144479911
 20
47.49354624244822
 30
0.0
 11
825.1235458486958
 21
48.79953255459882
 31
0.0
  0
LINE
  5
41C5
330
1A
100
AcDbEntity
  8
SEIHIN
  6
Continuous
 62
     3
100
AcDbLine
 10
827.7417374554357
 20
47.74230554000073
 30
0.0
 11
827.6111388242204
 21
49.04829185215133
 31
0.0
  0
LINE
  5
41C6
330
1A
100
AcDbEntity
  8
CENTER L
  6
CENTER
 62
     1
 48
3.0
100
AcDbLine
 10
827.3118216870335
 20
39.47911869762081
 30
0.0
 11
825.8326989037865
 21
54.27034653009227
 31
0.0
  0
ARC
  5
41C7
330
1A
100
AcDbEntity
  8
SEIHIN
  6
Continuous
 62
     3
100
AcDbCircle
 10
828.2890079100509
 20
29.7072564674447
 30
0.0
 40
2.100000000000079
100
AcDbArc
 50
5.71059313750029
 51
185.7105931375003
  0
ARC
  5
41C8
330
1A
100
AcDbEntity
  8
SEIHIN
  6
Continuous
 62
     3
100
AcDbCircle
 10
828.2890079100509
 20
29.7072564674447
 30
0.0
 40
2.100000000000079
100
AcDbArc
 50
185.7105931375003
 51
5.71059313750029
  0
LINE
  5
41C9
330
1A
100
AcDbEntity
  8
CENTER L
  6
CENTER
 62
     1
 48
3.0
100
AcDbLine
 10
828.6732813225382
 20
25.86452234257261
 30
0.0
 11
827.8997792123567
 21
33.59954344438902
 31
0.0
  0
LINE
  5
41CA
330
1A
100
AcDbEntity
  8
SEIHIN
  6
Continuous
 62
     3
100
AcDbLine
 10
851.3217826353461
 20
80.77703159344579
 30
0.0
 11
856.8466747727971
 21
25.52811021893465
 31
0.0
  0
LINE
  5
41CB
330
1A
100
AcDbEntity
  8
SEIHIN
  6
Continuous
 62
     3
100
AcDbLine
 10
831.4209393274268
 20
78.78694726265561
 30
0.0
 11
836.9458314648781
 21
23.53802588814271
 31
0.0
  0
ARC
  5
41CC
330
1A
100
AcDbEntity
  8
SEIHIN
  6
Continuous
 62
     3
100
AcDbCircle
 10
822.4680403473227
 20
55.25483632608619
 30
0.0
 40
1.999999999999943
100
AcDbArc
 50
95.71059313749739
 51
185.7105931375003
  0
ARC
  5
41CD
330
1A
100
AcDbEntity
  8
SEIHIN
  6
Continuous
 62
     3
100
AcDbCircle
 10
825.5526556369733
 20
24.40868342957638
 30
0.0
 40
1.999999999999943
100
AcDbArc
 50
185.7105931375003
 51
275.7105931374974
  0
LINE
  5
41CE
330
1A
100
AcDbEntity
  8
SEIHIN
  6
Continuous
 62
     3
100
AcDbLine
 10
820.4779659669029
 20
55.05582888804415
 30
0.0
 11
823.5625812565539
 21
24.20967599153458
 31
0.0
  0
ARC
  5
41CF
330
1A
100
AcDbEntity
  8
SEIHIN
  6
Continuous
 62
     3
100
AcDbCircle
 10
826.796452124736
 20
44.63281432059464
 30
0.0
 40
3.249999999999853
100
AcDbArc
 50
118.3304580855415
 51
73.09072818945729
  0
LINE
  5
41D0
330
1A
100
AcDbEntity
  8
SEIHIN
  6
Continuous
 62
     3
100
AcDbLine
 10
822.2690329092809
 20
57.24491070650615
 30
0.0
 11
830.2293304309607
 21
58.04094045867416
 31
0.0
  0
LINE
  5
41D1
330
1A
100
AcDbEntity
  8
SEIHIN
  6
Continuous
 62
     3
100
AcDbLine
 10
825.7516630750156
 20
22.41860904915652
 30
0.0
 11
846.8962033669779
 21
24.53306307835269
 31
0.0
  0
LINE
  5
41D2
330
1A
100
AcDbEntity
  8
CENTER L
  6
CENTER
 62
     1
 48
3.0
100
AcDbLine
 10
830.007337633825
 20
50.98382824417591
 30
0.0
 11
822.8384926932378
 21
50.26694375011718
 31
0.0
  0
LINE
  5
41D3
330
1A
100
AcDbEntity
  8
CENTER L
  6
CENTER
 62
     1
 48
3.0
100
AcDbLine
 10
831.5495457749314
 20
45.10812368561389
 30
0.0
 11
822.2809733555632
 21
44.18126644367712
 31
0.0
  0
LINE
  5
41D4
330
1A
100
AcDbEntity
  8
CENTER L
  6
CENTER
 62
     1
 48
3.0
100
AcDbLine
 10
824.7074710476093
 20
29.34910278120046
 30
0.0
 11
831.8430817460431
 21
30.06266385104377
 31
0.0
  0
LINE
  5
41D5
330
1A
100
AcDbEntity
  8
CENTER L
  6
CENTER
 62
     1
 48
3.0
100
AcDbLine
 10
847.0775513844571
 20
22.71958290356392
 30
0.0
 11
839.7849226443993
 21
95.64587030414399
 31
0.0
  0
LINE
  5
41D6
330
1A
100
AcDbEntity
  8
SEIHIN
  6
Continuous
 62
     3
100
AcDbLine
 10
864.5582129969241
 20
61.47382871527029
 30
0.0
 11
856.5978159715255
 21
60.67778901273047
 31
0.0
  0
LINE
  5
41D7
330
1A
100
AcDbEntity
  8
SEIHIN
  6
Continuous
 62
     3
100
AcDbLine
 10
868.040843162659
 20
26.64752705792078
 30
0.0
 11
846.8962033669779
 21
24.53306307835269
 31
0.0
  0
LINE
  5
4E21
102
{ACAD_REACTORS
330
4E46
102
}
330
1A
100
AcDbEntity
  8
ﾚｲﾔｰ1
  6
Continuous
 62
     4
370
    50
100
AcDbLine
 10
760.6807005593981
 20
15.91151279759477
 30
0.0
 11
763.4259929995836
 21
-11.54141160425497
 31
0.0
  0
LINE
  5
4E22
102
{ACAD_REACTORS
330
4E46
102
}
330
1A
100
AcDbEntity
  8
図枠
 62
     4
100
AcDbLine
 10
761.2703244198159
 20
10.01527419342041
 30
0.0
 11
761.2703244198159
 21
-11.54141160425497
 31
0.0
  0
LINE
  5
4E23
102
{ACAD_REACTORS
330
4E46
102
}
330
1A
100
AcDbEntity
  8
図枠
 62
     4
100
AcDbLine
 10
761.2703244198159
 20
-11.54141160425497
 30
0.0
 11
763.4259929995836
 21
-11.54141160425497
 31
0.0
  0
TEXT
  5
4E24
102
{ACAD_REACTORS
330
4E46
102
}
330
1A
100
AcDbEntity
  8
図枠
 62
     7
100
AcDbText
 10
754.4555413438803
 20
-6.253016579281464
 30
0.0
 40
4.0
  1
10
100
AcDbText
  0
TEXT
  5
4E25
102
{ACAD_REACTORS
330
4E46
102
}
330
1A
100
AcDbEntity
  8
図枠
 62
     7
100
AcDbText
 10
762.1162147266185
 20
-16.91794358061209
 30
0.0
 40
4.0
  1
1
100
AcDbText
  0
TEXT
  5
4E26
102
{ACAD_REACTORS
330
4E46
102
}
330
1A
100
AcDbEntity
  8
図枠
 62
     7
 48
10.0
100
AcDbText
 10
767.427597097249
 20
-7.241222088095767
 30
0.0
 40
4.0
  1
1.0寸勾配
100
AcDbText
  0
LINE
  5
4E27
102
{ACAD_REACTORS
330
4E46
102
}
330
1A
100
AcDbEntity
  8
SEIHIN
  6
Continuous
 62
     3
100
AcDbLine
 10
760.6807005593981
 20
15.91151279759477
 30
0.0
 11
754.7104774181337
 21
15.3144904834689
 31
0.0
  0
LINE
  5
4E28
102
{ACAD_REACTORS
330
4E46
102
}
330
1A
100
AcDbEntity
  8
SEIHIN
  6
Continuous
 62
     3
100
AcDbLine
 10
757.198070393665
 20
50.73781445493468
 30
0.0
 11
751.2278472524029
 21
50.14079214080847
 31
0.0
  0
LINE
  5
4E29
102
{ACAD_REACTORS
330
4E46
102
}
330
1A
100
AcDbEntity
  8
SEIHIN
  6
Continuous
 62
     3
100
AcDbLine
 10
756.203033203455
 20
50.63831073591372
 30
0.0
 11
759.6856633691889
 21
15.81200907857398
 31
0.0
  0
LINE
  5
4E2A
102
{ACAD_REACTORS
330
4E46
102
}
330
1A
100
AcDbEntity
  8
CENTER L
  6
CENTER
 62
     1
 48
3.0
100
AcDbLine
 10
759.0414828683468
 20
43.88724276761822
 30
0.0
 11
750.8786398805295
 21
43.07095846883654
 31
0.0
  0
LINE
  5
4E2B
102
{ACAD_REACTORS
330
4E46
102
}
330
1A
100
AcDbEntity
  8
CENTER L
  6
CENTER
 62
     1
 48
3.0
100
AcDbLine
 10
759.638505182473
 20
37.91701962635831
 30
0.0
 11
751.4756621946552
 21
37.10073532757646
 31
0.0
  0
LINE
  5
4E2C
102
{ACAD_REACTORS
330
4E46
102
}
330
1A
100
AcDbEntity
  8
CENTER L
  6
CENTER
 62
     1
 48
3.0
100
AcDbLine
 10
761.1310609677879
 20
22.99146177320849
 30
0.0
 11
752.9682179799687
 21
22.17517747442652
 31
0.0
  0
LINE
  5
4E2D
102
{ACAD_REACTORS
330
4E46
102
}
330
1A
100
AcDbEntity
  8
SEIHIN
  6
Continuous
 62
     3
100
AcDbLine
 10
756.2541739651183
 20
60.17677874039342
 30
0.0
 11
760.6807005593981
 21
15.91151279759477
 31
0.0
  0
LINE
  5
4E2E
102
{ACAD_REACTORS
330
4E46
102
}
330
1A
100
AcDbEntity
  8
SEIHIN
  6
Continuous
 62
     3
100
AcDbLine
 10
751.2278472524029
 20
50.14079214080847
 30
0.0
 11
754.7104774181337
 21
15.3144904834689
 31
0.0
  0
VIEWPORT
  5
4EB7
330
4EB0
100
AcDbEntity
 67
     1
  8
0
100
AcDbViewport
 10
206.8195037841797
 20
145.3303253650665
 30
0.0
 40
719.2717374032946
 41
314.237268371582
 68
     2
 69
     1
 12
206.8195037841797
 22
145.3303253650665
 13
0.0
 23
0.0
 14
10.0
 24
10.0
 15
10.0
 25
10.0
 16
0.0
 26
0.0
 36
1.0
 17
0.0
 27
0.0
 37
0.0
 42
50.0
 43
0.0
 44
0.0
 45
314.237268371582
 50
0.0
 51
0.0
 72
   100
 90
    32800
  1

281
     0
 71
     1
 74
     0
110
0.0
120
0.0
130
0.0
111
1.0
121
0.0
131
0.0
112
0.0
122
1.0
132
0.0
 79
     0
146
0.0
170
     0
  0
VIEWPORT
  5
4EB9
330
4EB0
100
AcDbEntity
 67
     1
  8
製品
100
AcDbViewport
 10
202.9162540093361
 20
142.3921661736819
 30
0.0
 40
414.1635013656729
 41
292.0745896009977
 68
     1
 69
     2
 12
737.702760578888
 22
73.43876910055718
 13
0.0
 23
0.0
 14
5.0
 24
5.0
 15
0.0
 25
0.0
 16
0.0
 26
0.0
 36
1.0
 17
0.0
 27
0.0
 37
0.0
 42
50.0
 43
0.0
 44
0.0
 45
292.0745896009977
 50
0.0
 51
0.0
 72
   100
 90
    32768
  1

281
     0
 71
     1
 74
     0
110
0.0
120
0.0
130
0.0
111
1.0
121
0.0
131
0.0
112
0.0
122
1.0
132
0.0
 79
     0
146
0.0
170
     0
  0
ENDSEC
  0
SECTION
  2
OBJECTS
  0
DICTIONARY
  5
C
330
0
100
AcDbDictionary
281
     1
  3
ACAD_COLOR
350
309
  3
ACAD_GROUP
350
D
  3
ACAD_LAYOUT
350
15A
  3
ACAD_MATERIAL
350
308
  3
ACAD_MLINESTYLE
350
E
  3
ACAD_PLOTSETTINGS
350
15B
  3
ACAD_PLOTSTYLENAME
350
158
  0
DICTIONARY
  5
499
330
2
100
AcDbDictionary
280
     1
281
     1
  3
ACAD_LAYERSTATES
360
49A
  0
DICTIONARY
  5
309
102
{ACAD_REACTORS
330
C
102
}
330
C
100
AcDbDictionary
281
     1
  0
DICTIONARY
  5
D
102
{ACAD_REACTORS
330
C
102
}
330
C
100
AcDbDictionary
281
     1
  3
*A1
350
2F2
  3
*A10
350
4CC8
  3
*A11
350
281D
  3
*A12
350
32A9
  3
*A13
350
32AA
  3
*A14
350
2843
  3
*A15
350
2851
  3
*A16
350
2852
  3
*A17
350
2853
  3
*A18
350
32A8
  3
*A19
350
32AB
  3
*A2
350
4E46
  3
*A20
350
4CC2
  3
*A21
350
32AC
  3
*A22
350
32AD
  3
*A23
350
3866
  3
*A24
350
49B0
  3
*A25
350
49BF
  3
*A3
350
4CC3
  3
*A4
350
4CC9
  3
*A5
350
281C
  3
*A6
350
4CC4
  3
*A7
350
4CC5
  3
*A8
350
4CC6
  3
*A9
350
4CC7
  0
DICTIONARY
  5
15A
102
{ACAD_REACTORS
330
C
102
}
330
C
100
AcDbDictionary
281
     1
  3
Model
350
15C
  3
ﾚｲｱｳﾄ1
350
15D
  3
レイアウト1
350
4EB1
  0
DICTIONARY
  5
308
102
{ACAD_REACTORS
330
C
102
}
330
C
100
AcDbDictionary
281
     1
  0
DICTIONARY
  5
E
102
{ACAD_REACTORS
330
C
102
}
330
C
100
AcDbDictionary
281
     1
  3
STANDARD
350
13
  0
DICTIONARY
  5
15B
102
{ACAD_REACTORS
330
C
102
}
330
C
100
AcDbDictionary
281
     1
  0
ACDBDICTIONARYWDFLT
  5
158
102
{ACAD_REACTORS
330
C
102
}
330
C
100
AcDbDictionary
281
     1
  3
Normal
350
159
100
AcDbDictionaryWithDefault
340
159
  0
DICTIONARY
  5
49A
102
{ACAD_REACTORS
330
499
102
}
330
499
100
AcDbDictionary
281
     1
  0
GROUP
  5
2F2
102
{ACAD_REACTORS
330
D
102
}
330
D
100
AcDbGroup
300

 70
     1
 71
     1
  0
GROUP
  5
4CC8
102
{ACAD_REACTORS
330
D
102
}
330
D
100
AcDbGroup
300

 70
     1
 71
     1
  0
GROUP
  5
281D
102
{ACAD_REACTORS
330
D
102
}
330
D
100
AcDbGroup
300

 70
     1
 71
     1
  0
GROUP
  5
32A9
102
{ACAD_REACTORS
330
D
102
}
330
D
100
AcDbGroup
300

 70
     1
 71
     1
340
2F93
340
2F8E
340
2F8C
340
2F8B
340
2F8F
340
2F8D
340
2F91
340
2F99
340
2F9C
340
2F94
340
2F92
  0
GROUP
  5
32AA
102
{ACAD_REACTORS
330
D
102
}
330
D
100
AcDbGroup
300

 70
     1
 71
     1
340
2F92
340
2F93
340
2F8E
340
2F8C
340
2F8B
340
2F8F
340
2F8D
340
2F91
340
2F99
340
2F9C
340
2F94
340
2F95
340
2F8A
  0
GROUP
  5
2843
102
{ACAD_REACTORS
330
D
102
}
330
D
100
AcDbGroup
300

 70
     1
 71
     1
  0
GROUP
  5
2851
102
{ACAD_REACTORS
330
D
102
}
330
D
100
AcDbGroup
300

 70
     1
 71
     1
  0
GROUP
  5
2852
102
{ACAD_REACTORS
330
D
102
}
330
D
100
AcDbGroup
300

 70
     1
 71
     1
  0
GROUP
  5
2853
102
{ACAD_REACTORS
330
D
102
}
330
D
100
AcDbGroup
300

 70
     1
 71
     1
  0
GROUP
  5
32A8
102
{ACAD_REACTORS
330
D
102
}
330
D
100
AcDbGroup
300

 70
     1
 71
     1
340
2F8E
340
2F93
340
2F8C
340
2F8B
340
2F8F
340
2F8D
340
2F91
340
2F99
340
2F9C
  0
GROUP
  5
32AB
102
{ACAD_REACTORS
330
D
102
}
330
D
100
AcDbGroup
300

 70
     1
 71
     1
340
2EF3
340
2EF2
340
2EF4
340
2EF1
340
2EF0
340
2EEF
340
2EEE
340
2EED
340
2EEC
  0
GROUP
  5
4E46
102
{ACAD_REACTORS
330
D
102
}
330
D
100
AcDbGroup
300

 70
     1
 71
     1
340
4E2E
340
4E2D
340
4E2C
340
4E2B
340
4E2A
340
4E29
340
4E28
340
4E27
340
4E26
340
4E25
340
4E24
340
4E23
340
4E22
340
4E21
  0
GROUP
  5
4CC2
102
{ACAD_REACTORS
330
D
102
}
330
D
100
AcDbGroup
300

 70
     1
 71
     1
  0
GROUP
  5
32AC
102
{ACAD_REACTORS
330
D
102
}
330
D
100
AcDbGroup
300

 70
     1
 71
     1
340
2EF2
340
2EF3
340
2EF4
340
2EF1
340
2EF0
340
2EEF
340
2EEE
340
2EED
340
2EEC
340
2EEB
340
2EEA
  0
GROUP
  5
32AD
102
{ACAD_REACTORS
330
D
102
}
330
D
100
AcDbGroup
300

 70
     1
 71
     1
340
2EEA
340
2EF2
340
2EF3
340
2EF4
340
2EF1
340
2EF0
340
2EEF
340
2EEE
340
2EED
340
2EEC
340
2EEB
340
2EE9
340
2EE8
  0
GROUP
  5
3866
102
{ACAD_REACTORS
330
D
102
}
330
D
100
AcDbGroup
300

 70
     1
 71
     1
  0
GROUP
  5
49B0
102
{ACAD_REACTORS
330
D
102
}
330
D
100
AcDbGroup
300

 70
     1
 71
     1
  0
GROUP
  5
49BF
102
{ACAD_REACTORS
330
D
102
}
330
D
100
AcDbGroup
300

 70
     1
 71
     1
  0
GROUP
  5
4CC3
102
{ACAD_REACTORS
330
D
102
}
330
D
100
AcDbGroup
300

 70
     1
 71
     1
  0
GROUP
  5
4CC9
102
{ACAD_REACTORS
330
D
102
}
330
D
100
AcDbGroup
300

 70
     1
 71
     1
  0
GROUP
  5
281C
102
{ACAD_REACTORS
330
D
102
}
330
D
100
AcDbGroup
300

 70
     1
 71
     1
  0
GROUP
  5
4CC4
102
{ACAD_REACTORS
330
D
102
}
330
D
100
AcDbGroup
300

 70
     1
 71
     1
  0
GROUP
  5
4CC5
102
{ACAD_REACTORS
330
D
102
}
330
D
100
AcDbGroup
300

 70
     1
 71
     1
  0
GROUP
  5
4CC6
102
{ACAD_REACTORS
330
D
102
}
330
D
100
AcDbGroup
300

 70
     1
 71
     1
  0
GROUP
  5
4CC7
102
{ACAD_REACTORS
330
D
102
}
330
D
100
AcDbGroup
300

 70
     1
 71
     1
  0
LAYOUT
  5
15C
102
{ACAD_REACTORS
330
15A
102
}
330
15A
100
AcDbPlotSettings
  1

  2
Canon LBP-730 LIPS4
  4

  6

 40
0.0
 41
0.0
 42
0.0
 43
0.0
 44
0.0
 45
0.0
 46
0.0
 47
0.0
 48
0.0
 49
0.0
140
0.0
141
0.0
142
1.0
143
1.0
 70
 11952
 72
     0
 73
     1
 74
     0
  7
systemprinter.ctb
 75
     0
147
1.0
 76
     0
 77
     2
 78
   300
148
-14452.54986808889
149
-4383.920283410088
100
AcDbLayout
  1
Model
 70
     1
 71
     0
 10
0.0
 20
0.0
 11
12.0
 21
9.0
 12
0.0
 22
0.0
 32
0.0
 14
0.0
 24
0.0
 34
0.0
 15
0.0
 25
0.0
 35
0.0
146
0.0
 13
0.0
 23
0.0
 33
0.0
 16
1.0
 26
0.0
 36
0.0
 17
0.0
 27
1.0
 37
0.0
 76
     0
330
1A
  0
LAYOUT
  5
15D
102
{ACAD_REACTORS
330
15A
102
}
330
15A
100
AcDbPlotSettings
  1

  2
LP-9200C(CC9E34)
  4
A3
  6

 40
5.873749732971191
 41
5.873747825622558
 42
5.873748779296875
 43
5.873748779296875
 44
297.0106506347656
 45
419.9466552734374
 46
-5.879999999999999
 47
-5.91
 48
0.0
 49
0.0
140
0.0
141
0.0
142
1.0
143
1.0
 70
   692
 72
     1
 73
     1
 74
     1
  7
monochrome.ctb
 75
    16
147
1.0
 76
     0
 77
     2
 78
   300
148
0.0128164049386896
149
0.0090630292066862
100
AcDbLayout
  1
ﾚｲｱｳﾄ1
 70
     1
 71
     1
 10
0.0234348157644355
 20
-0.0028127621778777
 11
419.9700900892019
 21
297.0078378725877
 12
0.0
 22
0.0
 32
0.0
 14
0.0
 24
0.0
 34
0.0
 15
420.0
 25
297.0
 35
0.0
146
0.0
 13
0.0
 23
0.0
 33
0.0
 16
1.0
 26
0.0
 36
0.0
 17
0.0
 27
1.0
 37
0.0
 76
     0
330
17
331
22
  0
LAYOUT
  5
4EB1
102
{ACAD_REACTORS
330
15A
102
}
330
15A
100
AcDbPlotSettings
  1

  2
Microsoft Print to PDF
  4
A3
  6

 40
3.174999952316284
 41
3.174999952316284
 42
3.17498779296875
 43
3.17498779296875
 44
297.0106506347656
 45
419.9889831542968
 46
0.0
 47
0.0
 48
0.0
 49
0.0
140
0.0
141
0.0
142
1.0
143
1.0
 70
   688
 72
     1
 73
     1
 74
     5
  7
monochrome.ctb
 75
    16
147
1.0
 76
     1
 77
     2
 78
   300
148
0.0
149
0.0
100
AcDbLayout
  1
レイアウト1
 70
     1
 71
     2
 10
-3.17498779296875
 20
-3.174999952316284
 11
416.8139953613281
 21
293.8356506824494
 12
0.0
 22
0.0
 32
0.0
 14
-4.165496673500456
 24
-3.645128626816926
 34
0.0
 15
411.9702118584461
 25
288.4294609741808
 35
0.0
146
0.0
 13
0.0
 23
0.0
 33
0.0
 16
1.0
 26
0.0
 36
0.0
 17
0.0
 27
1.0
 37
0.0
 76
     0
330
4EB0
331
4EB9
  0
MLINESTYLE
  5
13
102
{ACAD_REACTORS
330
E
102
}
330
E
100
AcDbMlineStyle
  2
STANDARD
 70
     0
  3

 62
     0
 51
90.0
 52
90.0
 71
     2
 49
0.5
 62
   256
  6
BYLAYER
 49
-0.5
 62
   256
  6
BYLAYER
  0
ACDBPLACEHOLDER
  5
159
102
{ACAD_REACTORS
330
158
102
}
330
158
  0
ENDSEC
  0
EOF
