  0
SECTION
  2
HEADER
  9
$ACADVER
  1
AC1024
  9
$ACADMAINTVER
 70
    37
  9
$DWGCODEPAGE
  3
ANSI_932
  9
$LASTSAVEDBY
  1
kogure009
  9
$INSBASE
 10
0.0
 20
0.0
 30
0.0
  9
$EXTMIN
 10
5.819092781538074
 20
-11.64036865557591
 30
-0.0000000000000053
  9
$EXTMAX
 10
404.6319589678105
 20
283.964562599905
 30
0.0000000000000099
  9
$LIMMIN
 10
0.0
 20
0.0
  9
$LIMMAX
 10
420.0
 20
297.0
  9
$ORTHOMODE
 70
     0
  9
$REGENMODE
 70
     1
  9
$FILLMODE
 70
     1
  9
$QTEXTMODE
 70
     0
  9
$MIRRTEXT
 70
     1
  9
$LTSCALE
 40
1.0
  9
$ATTMODE
 70
     1
  9
$TEXTSIZE
 40
2.5
  9
$TRACEWID
 40
1.0
  9
$TEXTSTYLE
  7
ＭＳゴシック
  9
$CLAYER
  8
SUNPOU
  9
$CELTYPE
  6
BYLAYER
  9
$CECOLOR
 62
   256
  9
$CELTSCALE
 40
1.0
  9
$DISPSILH
 70
     0
  9
$DIMSCALE
 40
1.0
  9
$DIMASZ
 40
3.0
  9
$DIMEXO
 40
1.5
  9
$DIMDLI
 40
7.0
  9
$DIMRND
 40
0.0
  9
$DIMDLE
 40
0.0
  9
$DIMEXE
 40
1.5
  9
$DIMTP
 40
0.0
  9
$DIMTM
 40
0.0
  9
$DIMTXT
 40
4.0
  9
$DIMCEN
 40
3.0
  9
$DIMTSZ
 40
0.0
  9
$DIMTOL
 70
     0
  9
$DIMLIM
 70
     0
  9
$DIMTIH
 70
     0
  9
$DIMTOH
 70
     0
  9
$DIMSE1
 70
     0
  9
$DIMSE2
 70
     0
  9
$DIMTAD
 70
     1
  9
$DIMZIN
 70
     0
  9
$DIMBLK
  1
OPEN
  9
$DIMASO
 70
     1
  9
$DIMSHO
 70
     1
  9
$DIMPOST
  1

  9
$DIMAPOST
  1

  9
$DIMALT
 70
     0
  9
$DIMALTD
 70
     2
  9
$DIMALTF
 40
25.4
  9
$DIMLFAC
 40
1.0
  9
$DIMTOFL
 70
     0
  9
$DIMTVP
 40
0.0
  9
$DIMTIX
 70
     0
  9
$DIMSOXD
 70
     0
  9
$DIMSAH
 70
     0
  9
$DIMBLK1
  1

  9
$DIMBLK2
  1

  9
$DIMSTYLE
  2
STANDARD
  9
$DIMCLRD
 70
   256
  9
$DIMCLRE
 70
   256
  9
$DIMCLRT
 70
   256
  9
$DIMTFAC
 40
1.0
  9
$DIMGAP
 40
2.0
  9
$DIMJUST
 70
     0
  9
$DIMSD1
 70
     0
  9
$DIMSD2
 70
     0
  9
$DIMTOLJ
 70
     1
  9
$DIMTZIN
 70
     0
  9
$DIMALTZ
 70
     0
  9
$DIMALTTZ
 70
     0
  9
$DIMUPT
 70
     0
  9
$DIMDEC
 70
     0
  9
$DIMTDEC
 70
     0
  9
$DIMALTU
 70
     2
  9
$DIMALTTD
 70
     2
  9
$DIMTXSTY
  7
STANDARD
  9
$DIMAUNIT
 70
     0
  9
$DIMADEC
 70
     0
  9
$DIMALTRND
 40
0.0
  9
$DIMAZIN
 70
     0
  9
$DIMDSEP
 70
    46
  9
$DIMATFIT
 70
     3
  9
$DIMFRAC
 70
     0
  9
$DIMLDRBLK
  1
OPEN
  9
$DIMLUNIT
 70
     2
  9
$DIMLWD
 70
    -1
  9
$DIMLWE
 70
    -1
  9
$DIMTMOVE
 70
     0
  9
$DIMFXL
 40
1.0
  9
$DIMFXLON
 70
     0
  9
$DIMJOGANG
 40
0.7853981633974483
  9
$DIMTFILL
 70
     0
  9
$DIMTFILLCLR
 70
     0
  9
$DIMARCSYM
 70
     0
  9
$DIMLTYPE
  6

  9
$DIMLTEX1
  6

  9
$DIMLTEX2
  6

  9
$DIMTXTDIRECTION
 70
     0
  9
$LUNITS
 70
     2
  9
$LUPREC
 70
     4
  9
$SKETCHINC
 40
1.0
  9
$FILLETRAD
 40
0.2
  9
$AUNITS
 70
     0
  9
$AUPREC
 70
     0
  9
$MENU
  1
.
  9
$ELEVATION
 40
0.0
  9
$PELEVATION
 40
0.0
  9
$THICKNESS
 40
0.0
  9
$LIMCHECK
 70
     0
  9
$CHAMFERA
 40
10.0
  9
$CHAMFERB
 40
10.0
  9
$CHAMFERC
 40
20.0
  9
$CHAMFERD
 40
0.0
  9
$SKPOLY
 70
     0
  9
$TDCREATE
 40
2450994.350997107
  9
$TDUCREATE
 40
2450993.975997107
  9
$TDUPDATE
 40
2459412.479645776
  9
$TDUUPDATE
 40
2459412.104645776
  9
$TDINDWG
 40
0.1091620949
  9
$TDUSRTIMER
 40
0.1091620949
  9
$USRTIMER
 70
     1
  9
$ANGBASE
 50
0.0
  9
$ANGDIR
 70
     0
  9
$PDMODE
 70
     0
  9
$PDSIZE
 40
0.0
  9
$PLINEWID
 40
0.0
  9
$SPLFRAME
 70
     0
  9
$SPLINETYPE
 70
     6
  9
$SPLINESEGS
 70
     8
  9
$HANDSEED
  5
3A1D
  9
$SURFTAB1
 70
     6
  9
$SURFTAB2
 70
     6
  9
$SURFTYPE
 70
     6
  9
$SURFU
 70
     6
  9
$SURFV
 70
     6
  9
$UCSBASE
  2

  9
$UCSNAME
  2

  9
$UCSORG
 10
0.0
 20
0.0
 30
0.0
  9
$UCSXDIR
 10
1.0
 20
0.0
 30
0.0
  9
$UCSYDIR
 10
0.0
 20
1.0
 30
0.0
  9
$UCSORTHOREF
  2

  9
$UCSORTHOVIEW
 70
     0
  9
$UCSORGTOP
 10
0.0
 20
0.0
 30
0.0
  9
$UCSORGBOTTOM
 10
0.0
 20
0.0
 30
0.0
  9
$UCSORGLEFT
 10
0.0
 20
0.0
 30
0.0
  9
$UCSORGRIGHT
 10
0.0
 20
0.0
 30
0.0
  9
$UCSORGFRONT
 10
0.0
 20
0.0
 30
0.0
  9
$UCSORGBACK
 10
0.0
 20
0.0
 30
0.0
  9
$PUCSBASE
  2

  9
$PUCSNAME
  2

  9
$PUCSORG
 10
0.0
 20
0.0
 30
0.0
  9
$PUCSXDIR
 10
1.0
 20
0.0
 30
0.0
  9
$PUCSYDIR
 10
0.0
 20
1.0
 30
0.0
  9
$PUCSORTHOREF
  2

  9
$PUCSORTHOVIEW
 70
     0
  9
$PUCSORGTOP
 10
0.0
 20
0.0
 30
0.0
  9
$PUCSORGBOTTOM
 10
0.0
 20
0.0
 30
0.0
  9
$PUCSORGLEFT
 10
0.0
 20
0.0
 30
0.0
  9
$PUCSORGRIGHT
 10
0.0
 20
0.0
 30
0.0
  9
$PUCSORGFRONT
 10
0.0
 20
0.0
 30
0.0
  9
$PUCSORGBACK
 10
0.0
 20
0.0
 30
0.0
  9
$USERI1
 70
     0
  9
$USERI2
 70
     0
  9
$USERI3
 70
     0
  9
$USERI4
 70
     0
  9
$USERI5
 70
     0
  9
$USERR1
 40
0.0
  9
$USERR2
 40
0.0
  9
$USERR3
 40
0.0
  9
$USERR4
 40
0.0
  9
$USERR5
 40
0.0
  9
$WORLDVIEW
 70
     1
  9
$SHADEDGE
 70
     3
  9
$SHADEDIF
 70
    70
  9
$TILEMODE
 70
     1
  9
$MAXACTVP
 70
    16
  9
$PINSBASE
 10
0.0
 20
0.0
 30
0.0
  9
$PLIMCHECK
 70
     0
  9
$PEXTMIN
 10
0.0
 20
0.0
 30
0.0
  9
$PEXTMAX
 10
420.0
 20
297.0
 30
0.0
  9
$PLIMMIN
 10
0.0
 20
0.0
  9
$PLIMMAX
 10
420.0
 20
297.0
  9
$UNITMODE
 70
     0
  9
$VISRETAIN
 70
     0
  9
$PLINEGEN
 70
     0
  9
$PSLTSCALE
 70
     1
  9
$TREEDEPTH
 70
  3020
  9
$CMLSTYLE
  2
STANDARD
  9
$CMLJUST
 70
     0
  9
$CMLSCALE
 40
1.0
  9
$PROXYGRAPHICS
 70
     1
  9
$MEASUREMENT
 70
     1
  9
$CELWEIGHT
370
    -1
  9
$ENDCAPS
280
     0
  9
$JOINSTYLE
280
     0
  9
$LWDISPLAY
290
     0
  9
$INSUNITS
 70
     0
  9
$HYPERLINKBASE
  1

  9
$STYLESHEET
  1
print.ctb
  9
$XEDIT
290
     1
  9
$CEPSNTYPE
380
     0
  9
$PSTYLEMODE
290
     1
  9
$FINGERPRINTGUID
  2
{B4565D9B-6A16-43F4-BC10-4AF2DFFDD405}
  9
$VERSIONGUID
  2
{681389B5-F010-43F3-B2B8-84AF87F7B6F6}
  9
$EXTNAMES
290
     1
  9
$PSVPSCALE
 40
0.0
  9
$OLESTARTUP
290
     0
  9
$SORTENTS
280
    96
  9
$INDEXCTL
280
     0
  9
$HIDETEXT
280
     0
  9
$XCLIPFRAME
280
     2
  9
$HALOGAP
280
     0
  9
$OBSCOLOR
 70
   257
  9
$OBSLTYPE
280
     0
  9
$INTERSECTIONDISPLAY
280
     0
  9
$INTERSECTIONCOLOR
 70
   257
  9
$DIMASSOC
280
     1
  9
$PROJECTNAME
  1

  9
$CAMERADISPLAY
290
     0
  9
$LENSLENGTH
 40
50.0
  9
$CAMERAHEIGHT
 40
0.0
  9
$STEPSPERSEC
 40
2.0
  9
$STEPSIZE
 40
6.0
  9
$3DDWFPREC
 40
2.0
  9
$PSOLWIDTH
 40
0.25
  9
$PSOLHEIGHT
 40
4.0
  9
$LOFTANG1
 40
1.570796326794896
  9
$LOFTANG2
 40
1.570796326794896
  9
$LOFTMAG1
 40
0.0
  9
$LOFTMAG2
 40
0.0
  9
$LOFTPARAM
 70
     7
  9
$LOFTNORMALS
280
     1
  9
$LATITUDE
 40
37.795
  9
$LONGITUDE
 40
-122.394
  9
$NORTHDIRECTION
 40
0.0
  9
$TIMEZONE
 70
 -8000
  9
$LIGHTGLYPHDISPLAY
280
     1
  9
$TILEMODELIGHTSYNCH
280
     1
  9
$CMATERIAL
347
3900
  9
$SOLIDHIST
280
     1
  9
$SHOWHIST
280
     1
  9
$DWFFRAME
280
     2
  9
$DGNFRAME
280
     0
  9
$REALWORLDSCALE
290
     1
  9
$INTERFERECOLOR
 62
     1
  9
$INTERFEREOBJVS
345
3922
  9
$INTERFEREVPVS
346
391F
  9
$CSHADOW
280
     0
  9
$SHADOWPLANELOCATION
 40
0.0
  0
ENDSEC
  0
SECTION
  2
CLASSES
  0
CLASS
  1
ACDBDICTIONARYWDFLT
  2
AcDbDictionaryWithDefault
  3
ObjectDBX Classes
 90
        0
 91
        1
280
     0
281
     0
  0
CLASS
  1
DICTIONARYVAR
  2
AcDbDictionaryVar
  3
ObjectDBX Classes
 90
        0
 91
        8
280
     0
281
     0
  0
CLASS
  1
MATERIAL
  2
AcDbMaterial
  3
ObjectDBX Classes
 90
     1153
 91
        3
280
     0
281
     0
  0
CLASS
  1
VISUALSTYLE
  2
AcDbVisualStyle
  3
ObjectDBX Classes
 90
     4095
 91
       24
280
     0
281
     0
  0
CLASS
  1
TABLESTYLE
  2
AcDbTableStyle
  3
ObjectDBX Classes
 90
     4095
 91
        1
280
     0
281
     0
  0
CLASS
  1
SCALE
  2
AcDbScale
  3
ObjectDBX Classes
 90
     1153
 91
       17
280
     0
281
     0
  0
CLASS
  1
MLEADERSTYLE
  2
AcDbMLeaderStyle
  3
ACDB_MLEADERSTYLE_CLASS
 90
     4095
 91
        1
280
     0
281
     0
  0
CLASS
  1
CELLSTYLEMAP
  2
AcDbCellStyleMap
  3
ObjectDBX Classes
 90
     1152
 91
        1
280
     0
281
     0
  0
ENDSEC
  0
SECTION
  2
TABLES
  0
TABLE
  2
VPORT
  5
8
330
0
100
AcDbSymbolTable
 70
     1
  0
VPORT
  5
38AD
330
8
100
AcDbSymbolTableRecord
100
AcDbViewportTableRecord
  2
*Active
 70
     0
 10
0.0
 20
0.0
 11
1.0
 21
1.0
 12
205.2255258746743
 22
136.1620969721645
 13
0.0
 23
0.0
 14
5.0
 24
5.0
 15
0.0
 25
0.0
 16
0.0
 26
0.0
 36
1.0
 17
0.0
 27
0.0
 37
0.0
 40
297.4877652125222
 41
2.017003188097768
 42
50.0
 43
0.0
 44
0.0
 50
0.0
 51
0.0
 71
     0
 72
   100
 73
     1
 74
     0
 75
     0
 76
     0
 77
     0
 78
     0
281
     0
 65
     1
110
0.0
120
0.0
130
0.0
111
1.0
121
0.0
131
0.0
112
0.0
122
1.0
132
0.0
 79
     0
146
0.0
348
391E
 60
     3
 61
     5
292
     1
282
     1
141
0.0
142
0.0
 63
   250
421
  3355443
  0
ENDTAB
  0
TABLE
  2
LTYPE
  5
5
330
0
100
AcDbSymbolTable
 70
     3
  0
LTYPE
  5
14
330
5
100
AcDbSymbolTableRecord
100
AcDbLinetypeTableRecord
  2
BYBLOCK
 70
     0
  3

 72
    65
 73
     0
 40
0.0
  0
LTYPE
  5
15
330
5
100
AcDbSymbolTableRecord
100
AcDbLinetypeTableRecord
  2
BYLAYER
 70
     0
  3

 72
    65
 73
     0
 40
0.0
  0
LTYPE
  5
16
330
5
100
AcDbSymbolTableRecord
100
AcDbLinetypeTableRecord
  2
CONTINUOUS
 70
     0
  3
Solid line
 72
    65
 73
     0
 40
0.0
  0
LTYPE
  5
120
330
5
100
AcDbSymbolTableRecord
100
AcDbLinetypeTableRecord
  2
CENTER
 70
     0
  3
____ _ ____ _ ____ _ ____ _ ____ _ ____ _ ____ 
 72
    65
 73
     4
 40
2.0
 49
1.25
 74
     0
 49
-0.25
 74
     0
 49
0.25
 74
     0
 49
-0.25
 74
     0
  0
ENDTAB
  0
TABLE
  2
LAYER
  5
2
102
{ACAD_XDICTIONARY
360
394F
102
}
330
0
100
AcDbSymbolTable
 70
    10
  0
LAYER
  5
F
102
{ACAD_XDICTIONARY
360
3958
102
}
330
2
100
AcDbSymbolTableRecord
100
AcDbLayerTableRecord
  2
0
 70
     0
 62
     7
  6
CONTINUOUS
370
    -3
390
290
347
3910
  0
LAYER
  5
62
102
{ACAD_XDICTIONARY
360
395A
102
}
330
2
100
AcDbSymbolTableRecord
100
AcDbLayerTableRecord
  2
VIEWPORT
 70
     0
 62
     7
  6
CONTINUOUS
370
    -3
390
290
347
3910
  0
LAYER
  5
6B
102
{ACAD_XDICTIONARY
360
395C
102
}
330
2
100
AcDbSymbolTableRecord
100
AcDbLayerTableRecord
  2
ZUWAKU
 70
     0
 62
     7
  6
CONTINUOUS
370
    -3
390
290
347
3910
  0
LAYER
  5
141
102
{ACAD_XDICTIONARY
360
395E
102
}
330
2
100
AcDbSymbolTableRecord
100
AcDbLayerTableRecord
  2
SUNPOU
 70
     0
 62
     4
  6
CONTINUOUS
370
    -3
390
290
347
3910
  0
LAYER
  5
142
102
{ACAD_XDICTIONARY
360
3960
102
}
330
2
100
AcDbSymbolTableRecord
100
AcDbLayerTableRecord
  2
CENTER L
 70
     0
 62
     1
  6
CENTER
370
    -3
390
290
347
3910
  0
LAYER
  5
1F5
330
2
100
AcDbSymbolTableRecord
100
AcDbLayerTableRecord
  2
DEFPOINTS
 70
     0
 62
     7
  6
CONTINUOUS
290
     0
370
    -3
390
290
347
3910
  0
LAYER
  5
4EF
102
{ACAD_XDICTIONARY
360
3962
102
}
330
2
100
AcDbSymbolTableRecord
100
AcDbLayerTableRecord
  2
moji
 70
     0
 62
     2
  6
CONTINUOUS
370
    -3
390
290
347
3910
  0
LAYER
  5
2E31
102
{ACAD_XDICTIONARY
360
3964
102
}
330
2
100
AcDbSymbolTableRecord
100
AcDbLayerTableRecord
  2
ﾎﾝﾀｲ
 70
     0
 62
     3
  6
CONTINUOUS
370
    -3
390
290
347
3910
  0
LAYER
  5
2E32
102
{ACAD_XDICTIONARY
360
3966
102
}
330
2
100
AcDbSymbolTableRecord
100
AcDbLayerTableRecord
  2
ﾌﾀ
 70
     0
 62
     3
  6
CONTINUOUS
370
    -3
390
290
347
3910
  0
LAYER
  5
2E33
102
{ACAD_XDICTIONARY
360
3968
102
}
330
2
100
AcDbSymbolTableRecord
100
AcDbLayerTableRecord
  2
Ｏﾘﾝｸﾞ
 70
     0
 62
     7
  6
CONTINUOUS
370
    -3
390
290
347
3910
  0
ENDTAB
  0
TABLE
  2
STYLE
  5
3
330
0
100
AcDbSymbolTable
 70
     3
  0
STYLE
  5
10
330
3
100
AcDbSymbolTableRecord
100
AcDbTextStyleTableRecord
  2
STANDARD
 70
     0
 40
0.0
 41
1.0
 50
0.0
 71
     0
 42
2.5
  3
TXT
  4
bigfont.shx
  0
STYLE
  5
4F0
330
3
100
AcDbSymbolTableRecord
100
AcDbTextStyleTableRecord
  2
ｽﾀｲﾙ1
 70
     0
 40
0.0
 41
1.0
 50
0.0
 71
     0
 42
2.5
  3

  4

1001
ACAD
1000
MS PGothic
1071
    32818
  0
STYLE
  5
2E34
330
3
100
AcDbSymbolTableRecord
100
AcDbTextStyleTableRecord
  2
ＭＳゴシック
 70
     0
 40
0.0
 41
1.0
 50
0.0
 71
     0
 42
2.5
  3

  4

1001
ACAD
1000
MS Gothic
1071
    32817
  0
ENDTAB
  0
TABLE
  2
VIEW
  5
6
330
0
100
AcDbSymbolTable
 70
     1
  0
ENDTAB
  0
TABLE
  2
UCS
  5
7
330
0
100
AcDbSymbolTable
 70
     0
  0
ENDTAB
  0
TABLE
  2
APPID
  5
9
330
0
100
AcDbSymbolTable
 70
     2
  0
APPID
  5
11
330
9
100
AcDbSymbolTableRecord
100
AcDbRegAppTableRecord
  2
ACAD
 70
     0
  0
APPID
  5
39F3
330
9
100
AcDbSymbolTableRecord
100
AcDbRegAppTableRecord
  2
ACAD_EXEMPT_FROM_CAD_STANDARDS
 70
     0
  0
ENDTAB
  0
TABLE
  2
DIMSTYLE
  5
A
330
0
100
AcDbSymbolTable
 70
     1
100
AcDbDimStyleTable
 71
     0
  0
DIMSTYLE
105
1D
102
{ACAD_REACTORS
330
340A
330
2EFB
330
3418
330
2F48
330
2F49
330
2EF9
330
2EF8
330
2F29
330
2F06
330
36E8
102
}
330
A
100
AcDbSymbolTableRecord
100
AcDbDimStyleTableRecord
  2
STANDARD
 70
     0
 41
3.0
 42
1.5
 43
7.0
 44
1.5
 73
     0
 74
     0
 77
     1
140
4.0
141
3.0
147
2.0
176
   256
177
   256
178
   256
271
     0
272
     0
340
10
341
B2
342
B2
371
    -1
372
    -1
  0
ENDTAB
  0
TABLE
  2
BLOCK_RECORD
  5
1
330
0
100
AcDbSymbolTable
 70
    16
  0
BLOCK_RECORD
  5
1A
102
{ACAD_XDICTIONARY
360
2D8
102
}
330
1
100
AcDbSymbolTableRecord
100
AcDbBlockTableRecord
  2
*MODEL_SPACE
340
293
 70
     0
280
     1
281
     0
  0
BLOCK_RECORD
  5
17
102
{ACAD_XDICTIONARY
360
2D6
102
}
330
1
100
AcDbSymbolTableRecord
100
AcDbBlockTableRecord
  2
*PAPER_SPACE
340
294
 70
     0
280
     1
281
     0
  0
BLOCK_RECORD
  5
B2
330
1
100
AcDbSymbolTableRecord
100
AcDbBlockTableRecord
  2
_OPEN
340
0
102
{BLKREFS
331
36E2
331
36E3
331
36D9
331
36DA
331
361D
331
361E
331
3667
331
3668
331
365E
331
365F
331
3630
331
3631
331
363A
331
363B
331
3614
331
3615
331
3626
331
3627
331
36ED
331
36EE
102
}
 70
     0
280
     1
281
     0
  0
BLOCK_RECORD
  5
1B01
330
1
100
AcDbSymbolTableRecord
100
AcDbBlockTableRecord
  2
*X1
340
0
102
{BLKREFS
331
1E05
102
}
 70
     0
280
     1
281
     0
  0
BLOCK_RECORD
  5
2D8E
330
1
100
AcDbSymbolTableRecord
100
AcDbBlockTableRecord
  2
*X2
340
0
102
{BLKREFS
331
2F25
102
}
 70
     0
280
     1
281
     0
  0
BLOCK_RECORD
  5
2E13
330
1
100
AcDbSymbolTableRecord
100
AcDbBlockTableRecord
  2
*X3
340
0
102
{BLKREFS
331
2F04
102
}
 70
     0
280
     1
281
     0
  0
BLOCK_RECORD
  5
2E24
330
1
100
AcDbSymbolTableRecord
100
AcDbBlockTableRecord
  2
*X4
340
0
102
{BLKREFS
331
2F03
102
}
 70
     0
280
     1
281
     0
  0
BLOCK_RECORD
  5
2FB6
330
1
100
AcDbSymbolTableRecord
100
AcDbBlockTableRecord
  2
*D5
340
0
 70
     0
280
     1
281
     0
  0
BLOCK_RECORD
  5
2FC2
330
1
100
AcDbSymbolTableRecord
100
AcDbBlockTableRecord
  2
*D6
340
0
 70
     0
280
     1
281
     0
  0
BLOCK_RECORD
  5
2FDA
330
1
100
AcDbSymbolTableRecord
100
AcDbBlockTableRecord
  2
*D7
340
0
 70
     0
280
     1
281
     0
  0
BLOCK_RECORD
  5
2FFE
330
1
100
AcDbSymbolTableRecord
100
AcDbBlockTableRecord
  2
*D8
340
0
 70
     0
280
     1
281
     0
  0
BLOCK_RECORD
  5
300A
330
1
100
AcDbSymbolTableRecord
100
AcDbBlockTableRecord
  2
*D9
340
0
 70
     0
280
     1
281
     0
  0
BLOCK_RECORD
  5
3016
330
1
100
AcDbSymbolTableRecord
100
AcDbBlockTableRecord
  2
*D10
340
0
 70
     0
280
     1
281
     0
  0
BLOCK_RECORD
  5
3024
330
1
100
AcDbSymbolTableRecord
100
AcDbBlockTableRecord
  2
*D11
340
0
 70
     0
280
     1
281
     0
  0
BLOCK_RECORD
  5
340B
330
1
100
AcDbSymbolTableRecord
100
AcDbBlockTableRecord
  2
*D12
340
0
 70
     0
280
     1
281
     0
  0
BLOCK_RECORD
  5
3419
330
1
100
AcDbSymbolTableRecord
100
AcDbBlockTableRecord
  2
*D13
340
0
 70
     0
280
     1
281
     0
  0
BLOCK_RECORD
  5
36E9
330
1
100
AcDbSymbolTableRecord
100
AcDbBlockTableRecord
  2
*D14
340
0
 70
     0
280
     1
281
     0
  0
ENDTAB
  0
ENDSEC
  0
SECTION
  2
BLOCKS
  0
BLOCK
  5
1B
330
1A
100
AcDbEntity
  8
0
100
AcDbBlockBegin
  2
*MODEL_SPACE
 70
     0
 10
0.0
 20
0.0
 30
0.0
  3
*MODEL_SPACE
  1

  0
ENDBLK
  5
1C
330
1A
100
AcDbEntity
  8
0
100
AcDbBlockEnd
  0
BLOCK
  5
18
330
17
100
AcDbEntity
 67
     1
  8
0
100
AcDbBlockBegin
  2
*PAPER_SPACE
 70
     0
 10
0.0
 20
0.0
 30
0.0
  3
*PAPER_SPACE
  1

  0
ENDBLK
  5
19
330
17
100
AcDbEntity
 67
     1
  8
0
100
AcDbBlockEnd
  0
BLOCK
  5
B3
330
B2
100
AcDbEntity
  8
0
100
AcDbBlockBegin
  2
_OPEN
 70
     0
 10
0.0
 20
0.0
 30
0.0
  3
_OPEN
  1

  0
LINE
  5
B4
330
B2
100
AcDbEntity
  8
0
  6
ByBlock
 62
     0
100
AcDbLine
 10
-1.0
 20
0.1666666666666666
 30
0.0
 11
0.0
 21
0.0
 31
0.0
  0
LINE
  5
B5
330
B2
100
AcDbEntity
  8
0
  6
ByBlock
 62
     0
100
AcDbLine
 10
0.0
 20
0.0
 30
0.0
 11
-1.0
 21
-0.1666666666666666
 31
0.0
  0
LINE
  5
B6
330
B2
100
AcDbEntity
  8
0
  6
ByBlock
 62
     0
100
AcDbLine
 10
0.0
 20
0.0
 30
0.0
 11
-1.0
 21
0.0
 31
0.0
  0
ENDBLK
  5
B7
330
B2
100
AcDbEntity
  8
0
100
AcDbBlockEnd
  0
BLOCK
  5
1C95
330
1B01
100
AcDbEntity
  8
0
100
AcDbBlockBegin
  2
*X1
 70
     1
 10
0.0
 20
0.0
 30
0.0
  3
*X1
  1

  0
LINE
  5
1B02
330
1B01
100
AcDbEntity
  8
0
 62
     0
100
AcDbLine
 10
66.75047808566091
 20
28.71175535310772
 30
0.0
 11
66.10464715594599
 21
29.3575862828227
 31
0.0
  0
LINE
  5
1B03
330
1B01
100
AcDbEntity
  8
0
 62
     0
100
AcDbLine
 10
66.75047808566091
 20
27.81372974100083
 30
0.0
 11
65.20662154383905
 21
29.3575862828227
 31
0.0
  0
LINE
  5
1B04
330
1B01
100
AcDbEntity
  8
0
 62
     0
100
AcDbLine
 10
66.75047808566086
 20
26.91570412889388
 30
0.0
 11
64.32934413964591
 21
29.33683807490883
 31
0.0
  0
LINE
  5
1B05
330
1B01
100
AcDbEntity
  8
0
 62
     0
100
AcDbLine
 10
66.75047808566091
 20
26.01767851678705
 30
0.0
 11
63.95047808566085
 21
28.81767851678706
 31
0.0
  0
LINE
  5
1B06
330
1B01
100
AcDbEntity
  8
0
 62
     0
100
AcDbLine
 10
66.75047808566091
 20
25.1196529046801
 30
0.0
 11
63.95047808566085
 21
27.91965290468017
 31
0.0
  0
LINE
  5
1B07
330
1B01
100
AcDbEntity
  8
0
 62
     0
100
AcDbLine
 10
66.75047808566086
 20
24.22162729257315
 30
0.0
 11
63.95047808566079
 21
27.02162729257322
 31
0.0
  0
LINE
  5
1B08
330
1B01
100
AcDbEntity
  8
0
 62
     0
100
AcDbLine
 10
61.85047808566082
 20
28.22360168046635
 30
0.0
 11
60.71649348330453
 21
29.3575862828227
 31
0.0
  0
LINE
  5
1B09
330
1B01
100
AcDbEntity
  8
0
 62
     0
100
AcDbLine
 10
66.75047808566091
 20
23.32360168046631
 30
0.0
 11
63.95047808566085
 21
26.12360168046638
 31
0.0
  0
LINE
  5
1B0A
330
1B01
100
AcDbEntity
  8
0
 62
     0
100
AcDbLine
 10
61.85047808566082
 20
27.32557606835945
 30
0.0
 11
59.81846787119758
 21
29.35758628282264
 31
0.0
  0
LINE
  5
1B0B
330
1B01
100
AcDbEntity
  8
0
 62
     0
100
AcDbLine
 10
66.75047808566086
 20
22.42557606835936
 30
0.0
 11
63.95047808566085
 21
25.22557606835943
 31
0.0
  0
LINE
  5
1B0C
330
1B01
100
AcDbEntity
  8
0
 62
     0
100
AcDbLine
 10
61.85047808566082
 20
26.4275504562525
 30
0.0
 11
59.14496712052375
 21
29.13306142138959
 31
0.0
  0
LINE
  5
1B0D
330
1B01
100
AcDbEntity
  8
0
 62
     0
100
AcDbLine
 10
66.75047808566086
 20
21.52755045625247
 30
0.0
 11
63.95047808566079
 21
24.32755045625248
 31
0.0
  0
LINE
  5
1B0E
330
1B01
100
AcDbEntity
  8
0
 62
     0
100
AcDbLine
 10
61.85047808566094
 20
25.5295248441455
 30
0.0
 11
59.05047808566076
 21
28.32952484414562
 31
0.0
  0
LINE
  5
1B0F
330
1B01
100
AcDbEntity
  8
0
 62
     0
100
AcDbLine
 10
66.75047808566091
 20
20.62952484414552
 30
0.0
 11
63.95047808566085
 21
23.42952484414559
 31
0.0
  0
LINE
  5
1B10
330
1B01
100
AcDbEntity
  8
0
 62
     0
100
AcDbLine
 10
61.85047808566088
 20
24.63149923203861
 30
0.0
 11
59.05047808566076
 21
27.43149923203879
 31
0.0
  0
LINE
  5
1B11
330
1B01
100
AcDbEntity
  8
0
 62
     0
100
AcDbLine
 10
66.75047808566086
 20
19.73149923203863
 30
0.0
 11
63.95047808566079
 21
22.5314992320387
 31
0.0
  0
LINE
  5
1B12
330
1B01
100
AcDbEntity
  8
0
 62
     0
100
AcDbLine
 10
61.85047808566088
 20
23.73347361993172
 30
0.0
 11
59.05047808566076
 21
26.53347361993184
 31
0.0
  0
LINE
  5
1B13
330
1B01
100
AcDbEntity
  8
0
 62
     0
100
AcDbLine
 10
66.75047808566086
 20
18.83347361993173
 30
0.0
 11
63.95047808566079
 21
21.63347361993181
 31
0.0
  0
LINE
  5
1B14
330
1B01
100
AcDbEntity
  8
0
 62
     0
100
AcDbLine
 10
61.85047808566082
 20
22.83544800782477
 30
0.0
 11
59.0504780856607
 21
25.63544800782489
 31
0.0
  0
LINE
  5
1B15
330
1B01
100
AcDbEntity
  8
0
 62
     0
100
AcDbLine
 10
66.7504780856608
 20
17.93544800782479
 30
0.0
 11
63.95047808566079
 21
20.73544800782486
 31
0.0
  0
LINE
  5
1B16
330
1B01
100
AcDbEntity
  8
0
 62
     0
100
AcDbLine
 10
61.85047808566088
 20
21.93742239571793
 30
0.0
 11
59.05047808566076
 21
24.73742239571806
 31
0.0
  0
LINE
  5
1B17
330
1B01
100
AcDbEntity
  8
0
 62
     0
100
AcDbLine
 10
55.55047808566081
 20
28.237422395718
 30
0.0
 11
54.43031419855618
 21
29.35758628282264
 31
0.0
  0
LINE
  5
1B18
330
1B01
100
AcDbEntity
  8
0
 62
     0
100
AcDbLine
 10
66.75047808566086
 20
17.03742239571795
 30
0.0
 11
63.95047808566079
 21
19.83742239571796
 31
0.0
  0
LINE
  5
1B19
330
1B01
100
AcDbEntity
  8
0
 62
     0
100
AcDbLine
 10
61.85047808566088
 20
21.03939678361098
 30
0.0
 11
59.0504780856607
 21
23.83939678361111
 31
0.0
  0
LINE
  5
1B1A
330
1B01
100
AcDbEntity
  8
0
 62
     0
100
AcDbLine
 10
55.55047808566076
 20
27.33939678361105
 30
0.0
 11
53.53228858644922
 21
29.35758628282264
 31
0.0
  0
LINE
  5
1B1B
330
1B01
100
AcDbEntity
  8
0
 62
     0
100
AcDbLine
 10
66.75047808566086
 20
16.139396783611
 30
0.0
 11
63.95047808566079
 21
18.93939678361107
 31
0.0
  0
LINE
  5
1B1C
330
1B01
100
AcDbEntity
  8
0
 62
     0
100
AcDbLine
 10
61.85047808566082
 20
20.14137117150409
 30
0.0
 11
59.05047808566076
 21
22.9413711715041
 31
0.0
  0
LINE
  5
1B1D
330
1B01
100
AcDbEntity
  8
0
 62
     0
100
AcDbLine
 10
55.55047808566076
 20
26.44137117150416
 30
0.0
 11
52.85071536233676
 21
29.14113389482816
 31
0.0
  0
LINE
  5
1B1E
330
1B01
100
AcDbEntity
  8
0
 62
     0
100
AcDbLine
 10
66.7504780856608
 20
15.24137117150411
 30
0.0
 11
63.95047808566073
 21
18.04137117150412
 31
0.0
  0
LINE
  5
1B1F
330
1B01
100
AcDbEntity
  8
0
 62
     0
100
AcDbLine
 10
61.85047808566088
 20
19.24334555939714
 30
0.0
 11
59.05047808566081
 21
22.04334555939721
 31
0.0
  0
LINE
  5
1B20
330
1B01
100
AcDbEntity
  8
0
 62
     0
100
AcDbLine
 10
55.55047808566081
 20
25.54334555939721
 30
0.0
 11
52.7504780856608
 21
28.34334555939722
 31
0.0
  0
LINE
  5
1B21
330
1B01
100
AcDbEntity
  8
0
 62
     0
100
AcDbLine
 10
66.75047808566086
 20
14.34334555939716
 30
0.0
 11
63.95047808566079
 21
17.14334555939723
 31
0.0
  0
LINE
  5
1B22
330
1B01
100
AcDbEntity
  8
0
 62
     0
100
AcDbLine
 10
61.85047808566082
 20
18.34531994729025
 30
0.0
 11
59.05047808566081
 21
21.14531994729032
 31
0.0
  0
LINE
  5
1B23
330
1B01
100
AcDbEntity
  8
0
 62
     0
100
AcDbLine
 10
55.55047808566087
 20
24.64531994729026
 30
0.0
 11
52.7504780856608
 21
27.44531994729033
 31
0.0
  0
LINE
  5
1B24
330
1B01
100
AcDbEntity
  8
0
 62
     0
100
AcDbLine
 10
66.67851273077104
 20
13.51728530218008
 30
0.0
 11
63.95047808566079
 21
16.24531994729034
 31
0.0
  0
LINE
  5
1B25
330
1B01
100
AcDbEntity
  8
0
 62
     0
100
AcDbLine
 10
61.85047808566088
 20
17.44729433518324
 30
0.0
 11
59.05047808566076
 21
20.24729433518337
 31
0.0
  0
LINE
  5
1B26
330
1B01
100
AcDbEntity
  8
0
 62
     0
100
AcDbLine
 10
55.55047808566081
 20
23.74729433518337
 30
0.0
 11
52.75047808566075
 21
26.54729433518338
 31
0.0
  0
LINE
  5
1B27
330
1B01
100
AcDbEntity
  8
0
 62
     0
100
AcDbLine
 10
66.04018613802157
 20
13.25758628282261
 30
0.0
 11
63.95047808566073
 21
15.34729433518345
 31
0.0
  0
LINE
  5
1B28
330
1B01
100
AcDbEntity
  8
0
 62
     0
100
AcDbLine
 10
55.55047808566081
 20
22.84926872307642
 30
0.0
 11
52.75047808566075
 21
25.64926872307649
 31
0.0
  0
LINE
  5
1B29
330
1B01
100
AcDbEntity
  8
0
 62
     0
100
AcDbLine
 10
61.85047808566088
 20
16.54926872307635
 30
0.0
 11
59.05047808566076
 21
19.34926872307648
 31
0.0
  0
LINE
  5
1B2A
330
1B01
100
AcDbEntity
  8
0
 62
     0
100
AcDbLine
 10
50.1254780856608
 20
28.27426872307643
 30
0.0
 11
49.04216052591465
 21
29.35758628282253
 31
0.0
  0
LINE
  5
1B2B
330
1B01
100
AcDbEntity
  8
0
 62
     0
100
AcDbLine
 10
65.14216052591468
 20
13.2575862828225
 30
0.0
 11
63.95047808566073
 21
14.4492687230765
 31
0.0
  0
LINE
  5
1B2C
330
1B01
100
AcDbEntity
  8
0
 62
     0
100
AcDbLine
 10
55.55047808566081
 20
21.95124311096953
 30
0.0
 11
52.75047808566085
 21
24.75124311096954
 31
0.0
  0
LINE
  5
1B2D
330
1B01
100
AcDbEntity
  8
0
 62
     0
100
AcDbLine
 10
50.1254780856608
 20
27.37624311096954
 30
0.0
 11
48.14413491380782
 21
29.35758628282258
 31
0.0
  0
LINE
  5
1B2E
330
1B01
100
AcDbEntity
  8
0
 62
     0
100
AcDbLine
 10
61.82451978501529
 20
15.6772014116151
 30
0.0
 11
59.05047808566076
 21
18.45124311096958
 31
0.0
  0
LINE
  5
1B2F
330
1B01
100
AcDbEntity
  8
0
 62
     0
100
AcDbLine
 10
55.55047808566081
 20
21.05321749886264
 30
0.0
 11
52.75047808566085
 21
23.85321749886259
 31
0.0
  0
LINE
  5
1B30
330
1B01
100
AcDbEntity
  8
0
 62
     0
100
AcDbLine
 10
49.92989753954697
 20
26.67379804497648
 30
0.0
 11
47.24610930170081
 21
29.35758628282264
 31
0.0
  0
LINE
  5
1B31
330
1B01
100
AcDbEntity
  8
0
 62
     0
100
AcDbLine
 10
61.63153448975805
 20
14.97216109476534
 30
0.0
 11
59.05047808566076
 21
17.55321749886269
 31
0.0
  0
LINE
  5
1B32
330
1B01
100
AcDbEntity
  8
0
 62
     0
100
AcDbLine
 10
55.55047808566081
 20
20.15519188675569
 30
0.0
 11
52.7504780856608
 21
22.9551918867557
 31
0.0
  0
LINE
  5
1B33
330
1B01
100
AcDbEntity
  8
0
 62
     0
100
AcDbLine
 10
49.14808368959382
 20
26.55758628282263
 30
0.0
 11
46.34808368959392
 21
29.35758628282253
 31
0.0
  0
LINE
  5
1B34
330
1B01
100
AcDbEntity
  8
0
 62
     0
100
AcDbLine
 10
61.30650261383448
 20
14.39916735858196
 30
0.0
 11
58.97896234650125
 21
16.72670762591525
 31
0.0
  0
LINE
  5
1B35
330
1B01
100
AcDbEntity
  8
0
 62
     0
100
AcDbLine
 10
55.55047808566081
 20
19.25716627464885
 30
0.0
 11
52.75047808566085
 21
22.05716627464881
 31
0.0
  0
LINE
  5
1B36
330
1B01
100
AcDbEntity
  8
0
 62
     0
100
AcDbLine
 10
48.25005807748704
 20
26.55758628282257
 30
0.0
 11
45.5124913483096
 21
29.29515301200007
 31
0.0
  0
LINE
  5
1B37
330
1B01
100
AcDbEntity
  8
0
 62
     0
100
AcDbLine
 10
60.87446081650944
 20
13.93318354380017
 30
0.0
 11
58.57737670803373
 21
16.23026765227587
 31
0.0
  0
LINE
  5
1B38
330
1B01
100
AcDbEntity
  8
0
 62
     0
100
AcDbLine
 10
55.55047808566081
 20
18.3591406625419
 30
0.0
 11
52.7504780856608
 21
21.15914066254186
 31
0.0
  0
LINE
  5
1B39
330
1B01
100
AcDbEntity
  8
0
 62
     0
100
AcDbLine
 10
47.35203246538015
 20
26.55758628282257
 30
0.0
 11
44.8478509237762
 21
29.06176782442646
 31
0.0
  0
LINE
  5
1B3A
330
1B01
100
AcDbEntity
  8
0
 62
     0
100
AcDbLine
 10
60.33829847158341
 20
13.5713202766193
 30
0.0
 11
57.85203246538014
 21
16.05758628282257
 31
0.0
  0
LINE
  5
1B3B
330
1B01
100
AcDbEntity
  8
0
 62
     0
100
AcDbLine
 10
55.55047808566076
 20
17.46111505043495
 30
0.0
 11
52.7504780856608
 21
20.26111505043497
 31
0.0
  0
LINE
  5
1B3C
330
1B01
100
AcDbEntity
  8
0
 62
     0
100
AcDbLine
 10
46.47579668129123
 20
26.53579645480448
 30
0.0
 11
44.30524998656602
 21
28.70634314952969
 31
0.0
  0
LINE
  5
1B3D
330
1B01
100
AcDbEntity
  8
0
 62
     0
100
AcDbLine
 10
59.68188591167211
 20
13.32970722442366
 30
0.0
 11
56.95400685327314
 21
16.05758628282262
 31
0.0
  0
LINE
  5
1B3E
330
1B01
100
AcDbEntity
  8
0
 62
     0
100
AcDbLine
 10
46.10047808566088
 20
26.01308943832788
 30
0.0
 11
43.86713792752146
 21
28.24642959646729
 31
0.0
  0
LINE
  5
1B3F
330
1B01
100
AcDbEntity
  8
0
 62
     0
100
AcDbLine
 10
58.85598124116626
 20
13.25758628282256
 30
0.0
 11
52.7504780856608
 21
19.36308943832802
 31
0.0
  0
LINE
  5
1B40
330
1B01
100
AcDbEntity
  8
0
 62
     0
100
AcDbLine
 10
46.10047808566088
 20
25.11506382622111
 30
0.0
 11
43.53536701516844
 21
27.68017489671354
 31
0.0
  0
LINE
  5
1B41
330
1B01
100
AcDbEntity
  8
0
 62
     0
100
AcDbLine
 10
57.95795562905937
 20
13.25758628282256
 30
0.0
 11
52.7504780856608
 21
18.46506382622118
 31
0.0
  0
LINE
  5
1B42
330
1B01
100
AcDbEntity
  8
0
 62
     0
100
AcDbLine
 10
46.30702236676467
 20
24.01049393301037
 30
0.0
 11
43.33318849580433
 21
26.98432780397065
 31
0.0
  0
LINE
  5
1B43
330
1B01
100
AcDbEntity
  8
0
 62
     0
100
AcDbLine
 10
57.05993001695247
 20
13.25758628282256
 30
0.0
 11
52.7504780856608
 21
17.56703821411423
 31
0.0
  0
LINE
  5
1B44
330
1B01
100
AcDbEntity
  8
0
 62
     0
100
AcDbLine
 10
50.52408178835225
 20
18.89540889931584
 30
0.0
 11
43.30047808566075
 21
26.11901260200733
 31
0.0
  0
LINE
  5
1B45
330
1B01
100
AcDbEntity
  8
0
 62
     0
100
AcDbLine
 10
41.20047808566073
 20
28.2190126020073
 30
0.0
 11
40.06190440484544
 21
29.35758628282264
 31
0.0
  0
LINE
  5
1B46
330
1B01
100
AcDbEntity
  8
0
 62
     0
100
AcDbLine
 10
56.16190440484553
 20
13.25758628282256
 30
0.0
 11
52.75047808566075
 21
16.66901260200728
 31
0.0
  0
LINE
  5
1B47
330
1B01
100
AcDbEntity
  8
0
 62
     0
100
AcDbLine
 10
50.65047808566089
 20
17.87098698990036
 30
0.0
 11
43.30047808566081
 21
25.22098698990044
 31
0.0
  0
LINE
  5
1B48
330
1B01
100
AcDbEntity
  8
0
 62
     0
100
AcDbLine
 10
41.20047808566084
 20
27.32098698990035
 30
0.0
 11
39.16387879273856
 21
29.3575862828227
 31
0.0
  0
LINE
  5
1B49
330
1B01
100
AcDbEntity
  8
0
 62
     0
100
AcDbLine
 10
55.24743091399376
 20
13.2740341615675
 30
0.0
 11
52.76692596440574
 21
15.75453911115551
 31
0.0
  0
LINE
  5
1B4A
330
1B01
100
AcDbEntity
  8
0
 62
     0
100
AcDbLine
 10
41.20047808566084
 20
26.42296137779346
 30
0.0
 11
38.49308819788553
 21
29.13035126556872
 31
0.0
  0
LINE
  5
1B4B
330
1B01
100
AcDbEntity
  8
0
 62
     0
100
AcDbLine
 10
50.65047808566084
 20
16.97296137779341
 30
0.0
 11
43.3238887535432
 21
24.2995507099111
 31
0.0
  0
LINE
  5
1B4C
330
1B01
100
AcDbEntity
  8
0
 62
     0
100
AcDbLine
 10
41.20047808566084
 20
25.52493576568651
 30
0.0
 11
38.40047808566078
 21
28.32493576568658
 31
0.0
  0
LINE
  5
1B4D
330
1B01
100
AcDbEntity
  8
0
 62
     0
100
AcDbLine
 10
50.65047808566072
 20
16.07493576568657
 30
0.0
 11
43.64200817138322
 21
23.08340567996413
 31
0.0
  0
LINE
  5
1B4E
330
1B01
100
AcDbEntity
  8
0
 62
     0
100
AcDbLine
 10
41.20047808566084
 20
24.62691015357961
 30
0.0
 11
38.40047808566078
 21
27.42691015357963
 31
0.0
  0
LINE
  5
1B4F
330
1B01
100
AcDbEntity
  8
0
 62
     0
100
AcDbLine
 10
50.54191626807176
 20
15.2854719711687
 30
0.0
 11
47.84628147903345
 21
17.98110676020701
 31
0.0
  0
LINE
  5
1B50
330
1B01
100
AcDbEntity
  8
0
 62
     0
100
AcDbLine
 10
41.20047808566084
 20
23.72888454147272
 30
0.0
 11
38.40047808566078
 21
26.52888454147279
 31
0.0
  0
LINE
  5
1B51
330
1B01
100
AcDbEntity
  8
0
 62
     0
100
AcDbLine
 10
36.10899118508382
 20
28.82037144204969
 30
0.0
 11
35.57177634431094
 21
29.35758628282264
 31
0.0
  0
LINE
  5
1B52
330
1B01
100
AcDbEntity
  8
0
 62
     0
100
AcDbLine
 10
50.2740405603102
 20
14.65532206682337
 30
0.0
 11
47.85047808566088
 21
17.07888454147269
 31
0.0
  0
LINE
  5
1B53
330
1B01
100
AcDbEntity
  8
0
 62
     0
100
AcDbLine
 10
41.20047808566079
 20
22.83085892936577
 30
0.0
 11
38.40047808566078
 21
25.63085892936584
 31
0.0
  0
LINE
  5
1B54
330
1B01
100
AcDbEntity
  8
0
 62
     0
100
AcDbLine
 10
35.91006352083122
 20
28.12127349419535
 30
0.0
 11
34.67375073220399
 21
29.35758628282264
 31
0.0
  0
LINE
  5
1B55
330
1B01
100
AcDbEntity
  8
0
 62
     0
100
AcDbLine
 10
49.8910537621349
 20
14.14028325289172
 30
0.0
 11
47.75319290277439
 21
16.27814411225222
 31
0.0
  0
LINE
  5
1B56
330
1B01
100
AcDbEntity
  8
0
 62
     0
100
AcDbLine
 10
41.20047808566079
 20
21.93283331725888
 30
0.0
 11
38.40047808566072
 21
24.7328333172589
 31
0.0
  0
LINE
  5
1B57
330
1B01
100
AcDbEntity
  8
0
 62
     0
100
AcDbLine
 10
35.69453737392553
 20
27.43877402899409
 30
0.0
 11
33.78532181045495
 21
29.34798959246473
 31
0.0
  0
LINE
  5
1B58
330
1B01
100
AcDbEntity
  8
0
 62
     0
100
AcDbLine
 10
49.40473479701927
 20
13.72857660590034
 30
0.0
 11
47.07572512009704
 21
16.05758628282262
 31
0.0
  0
LINE
  5
1B59
330
1B01
100
AcDbEntity
  8
0
 62
     0
100
AcDbLine
 10
41.20047808566084
 20
21.03480770515199
 30
0.0
 11
38.40047808566078
 21
23.83480770515206
 31
0.0
  0
LINE
  5
1B5A
330
1B01
100
AcDbEntity
  8
0
 62
     0
100
AcDbLine
 10
35.47901122702001
 20
26.75627456379283
 30
0.0
 11
33.35101122701997
 21
28.88427456379287
 31
0.0
  0
LINE
  5
1B5B
330
1B01
100
AcDbEntity
  8
0
 62
     0
100
AcDbLine
 10
48.8086508485589
 20
13.42663494225388
 30
0.0
 11
46.17769950799015
 21
16.05758628282268
 31
0.0
  0
LINE
  5
1B5C
330
1B01
100
AcDbEntity
  8
0
 62
     0
100
AcDbLine
 10
41.20047808566079
 20
20.1367820930451
 30
0.0
 11
38.40047808566072
 21
22.93678209304511
 31
0.0
  0
LINE
  5
1B5D
330
1B01
100
AcDbEntity
  8
0
 62
     0
100
AcDbLine
 10
35.26348508011415
 20
26.07377509859174
 30
0.0
 11
33.13548508011417
 21
28.20177509859173
 31
0.0
  0
LINE
  5
1B5E
330
1B01
100
AcDbEntity
  8
0
 62
     0
100
AcDbLine
 10
48.07097819691143
 20
13.26628198179446
 30
0.0
 11
45.27967389588326
 21
16.05758628282262
 31
0.0
  0
LINE
  5
1B5F
330
1B01
100
AcDbEntity
  8
0
 62
     0
100
AcDbLine
 10
41.20047808566079
 20
19.23875648093815
 30
0.0
 11
38.40047808566078
 21
22.03875648093811
 31
0.0
  0
LINE
  5
1B60
330
1B01
100
AcDbEntity
  8
0
 62
     0
100
AcDbLine
 10
35.04795893320858
 20
25.39127563339036
 30
0.0
 11
32.91995893320848
 21
27.51927563339041
 31
0.0
  0
LINE
  5
1B61
330
1B01
100
AcDbEntity
  8
0
 62
     0
100
AcDbLine
 10
47.18164828377638
 20
13.25758628282256
 30
0.0
 11
44.38164828377631
 21
16.05758628282262
 31
0.0
  0
LINE
  5
1B62
330
1B01
100
AcDbEntity
  8
0
 62
     0
100
AcDbLine
 10
41.20047808566079
 20
18.34073086883126
 30
0.0
 11
38.40047808566083
 21
21.14073086883127
 31
0.0
  0
LINE
  5
1B63
330
1B01
100
AcDbEntity
  8
0
 62
     0
100
AcDbLine
 10
34.83243278630295
 20
24.70877616818916
 30
0.0
 11
32.70443278630285
 21
26.83677616818921
 31
0.0
  0
LINE
  5
1B64
330
1B01
100
AcDbEntity
  8
0
 62
     0
100
AcDbLine
 10
46.28362267166949
 20
13.25758628282261
 30
0.0
 11
43.8500109743731
 21
15.691197980119
 31
0.0
  0
LINE
  5
1B65
330
1B01
100
AcDbEntity
  8
0
 62
     0
100
AcDbLine
 10
34.61690663939732
 20
24.02627670298779
 30
0.0
 11
32.48890663939722
 21
26.15427670298795
 31
0.0
  0
LINE
  5
1B66
330
1B01
100
AcDbEntity
  8
0
 62
     0
100
AcDbLine
 10
41.20047808566079
 20
17.44270525672436
 30
0.0
 11
38.40047808566083
 21
20.24270525672432
 31
0.0
  0
LINE
  5
1B67
330
1B01
100
AcDbEntity
  8
0
 62
     0
100
AcDbLine
 10
30.35047808566083
 20
28.29270525672433
 30
0.0
 11
29.28559705956252
 21
29.35758628282258
 31
0.0
  0
LINE
  5
1B68
330
1B01
100
AcDbEntity
  8
0
 62
     0
100
AcDbLine
 10
45.38559705956259
 20
13.25758628282256
 30
0.0
 11
43.82547808566084
 21
14.81770525672431
 31
0.0
  0
LINE
  5
1B69
330
1B01
100
AcDbEntity
  8
0
 62
     0
100
AcDbLine
 10
34.40138049249152
 20
23.3437772377867
 30
0.0
 11
32.27338049249159
 21
25.47177723778663
 31
0.0
  0
LINE
  5
1B6A
330
1B01
100
AcDbEntity
  8
0
 62
     0
100
AcDbLine
 10
41.20047808566079
 20
16.54467964461742
 30
0.0
 11
38.40047808566078
 21
19.34467964461743
 31
0.0
  0
LINE
  5
1B6B
330
1B01
100
AcDbEntity
  8
0
 62
     0
100
AcDbLine
 10
30.35047808566083
 20
27.39467964461738
 30
0.0
 11
28.38757144745563
 21
29.35758628282258
 31
0.0
  0
LINE
  5
1B6C
330
1B01
100
AcDbEntity
  8
0
 62
     0
100
AcDbLine
 10
44.48757144745559
 20
13.25758628282261
 30
0.0
 11
43.82547808566079
 21
13.91967964461736
 31
0.0
  0
LINE
  5
1B6D
330
1B01
100
AcDbEntity
  8
0
 62
     0
100
AcDbLine
 10
34.18585434558588
 20
22.66127777258538
 30
0.0
 11
32.05785434558584
 21
24.78927777258542
 31
0.0
  0
LINE
  5
1B6E
330
1B01
100
AcDbEntity
  8
0
 62
     0
100
AcDbLine
 10
30.35047808566077
 20
26.49665403251044
 30
0.0
 11
27.67503315676317
 21
29.1720989614081
 31
0.0
  0
LINE
  5
1B6F
330
1B01
100
AcDbEntity
  8
0
 62
     0
100
AcDbLine
 10
41.20047808566073
 20
15.64665403251052
 30
0.0
 11
38.40047808566078
 21
18.44665403251048
 31
0.0
  0
LINE
  5
1B70
330
1B01
100
AcDbEntity
  8
0
 62
     0
100
AcDbLine
 10
33.97032819868025
 20
21.97877830738418
 30
0.0
 11
31.84232819868026
 21
24.10677830738416
 31
0.0
  0
LINE
  5
1B71
330
1B01
100
AcDbEntity
  8
0
 62
     0
100
AcDbLine
 10
30.35047808566083
 20
25.5986284204036
 30
0.0
 11
27.55047808566076
 21
28.39862842040361
 31
0.0
  0
LINE
  5
1B72
330
1B01
100
AcDbEntity
  8
0
 62
     0
100
AcDbLine
 10
41.20047808566079
 20
14.74862842040363
 30
0.0
 11
38.40047808566078
 21
17.54862842040359
 31
0.0
  0
LINE
  5
1B73
330
1B01
100
AcDbEntity
  8
0
 62
     0
100
AcDbLine
 10
33.7652396892882
 20
21.28584120466928
 30
0.0
 11
31.62680205177452
 21
23.42427884218296
 31
0.0
  0
LINE
  5
1B74
330
1B01
100
AcDbEntity
  8
0
 62
     0
100
AcDbLine
 10
30.35047808566083
 20
24.70060280829665
 30
0.0
 11
27.55047808566076
 21
27.50060280829672
 31
0.0
  0
LINE
  5
1B75
330
1B01
100
AcDbEntity
  8
0
 62
     0
100
AcDbLine
 10
41.20047808566073
 20
13.85060280829668
 30
0.0
 11
38.40047808566078
 21
16.65060280829669
 31
0.0
  0
LINE
  5
1B76
330
1B01
100
AcDbEntity
  8
0
 62
     0
100
AcDbLine
 10
34.1797130487222
 20
19.97334223312833
 30
0.0
 11
31.3362545560899
 21
22.81680072576063
 31
0.0
  0
LINE
  5
1B77
330
1B01
100
AcDbEntity
  8
0
 62
     0
100
AcDbLine
 10
30.35047808566088
 20
23.80257719618965
 30
0.0
 11
27.5504780856607
 21
26.60257719618977
 31
0.0
  0
LINE
  5
1B78
330
1B01
100
AcDbEntity
  8
0
 62
     0
100
AcDbLine
 10
40.8614330883284
 20
13.29162219352207
 30
0.0
 11
38.40047808566078
 21
15.75257719618974
 31
0.0
  0
LINE
  5
1B79
330
1B01
100
AcDbEntity
  8
0
 62
     0
100
AcDbLine
 10
34.59418640815619
 20
18.6608432615875
 30
0.0
 11
27.55047808566076
 21
25.70455158408293
 31
0.0
  0
LINE
  5
1B7A
330
1B01
100
AcDbEntity
  8
0
 62
     0
100
AcDbLine
 10
25.10047808566088
 20
28.15455158408281
 30
0.0
 11
23.89744338692111
 21
29.35758628282258
 31
0.0
  0
LINE
  5
1B7B
330
1B01
100
AcDbEntity
  8
0
 62
     0
100
AcDbLine
 10
39.99744338692114
 20
13.25758628282256
 30
0.0
 11
38.40047808566089
 21
14.8545515840828
 31
0.0
  0
LINE
  5
1B7C
330
1B01
100
AcDbEntity
  8
0
 62
     0
100
AcDbLine
 10
35.00865976759025
 20
17.34834429004649
 30
0.0
 11
27.55047808566076
 21
24.80652597197599
 31
0.0
  0
LINE
  5
1B7D
330
1B01
100
AcDbEntity
  8
0
 62
     0
100
AcDbLine
 10
25.10047808566088
 20
27.25652597197586
 30
0.0
 11
22.99941777481411
 21
29.35758628282264
 31
0.0
  0
LINE
  5
1B7E
330
1B01
100
AcDbEntity
  8
0
 62
     0
100
AcDbLine
 10
39.09941777481419
 20
13.2575862828225
 30
0.0
 11
38.40047808566083
 21
13.95652597197591
 31
0.0
  0
LINE
  5
1B7F
330
1B01
100
AcDbEntity
  8
0
 62
     0
100
AcDbLine
 10
24.83357139027078
 20
26.62540705525902
 30
0.0
 11
22.13334967205935
 21
29.32562877347038
 31
0.0
  0
LINE
  5
1B80
330
1B01
100
AcDbEntity
  8
0
 62
     0
100
AcDbLine
 10
35.42313312702419
 20
16.03584531850561
 30
0.0
 11
27.55047808566081
 21
23.90850035986898
 31
0.0
  0
LINE
  5
1B81
330
1B01
100
AcDbEntity
  8
0
 62
     0
100
AcDbLine
 10
30.68798700800244
 20
19.87296582542046
 30
0.0
 11
27.55047808566081
 21
23.01047474776209
 31
0.0
  0
LINE
  5
1B82
330
1B01
100
AcDbEntity
  8
0
 62
     0
100
AcDbLine
 10
24.00336655060034
 20
26.55758628282252
 30
0.0
 11
21.39530660247209
 21
29.16564623095081
 31
0.0
  0
LINE
  5
1B83
330
1B01
100
AcDbEntity
  8
0
 62
     0
100
AcDbLine
 10
35.83760648645824
 20
14.72334634696466
 30
0.0
 11
31.74529879415013
 21
18.81565403927277
 31
0.0
  0
LINE
  5
1B84
330
1B01
100
AcDbEntity
  8
0
 62
     0
100
AcDbLine
 10
30.35047808566088
 20
19.31244913565513
 30
0.0
 11
27.55047808566081
 21
22.1124491356552
 31
0.0
  0
LINE
  5
1B85
330
1B01
100
AcDbEntity
  8
0
 62
     0
100
AcDbLine
 10
23.10534093849333
 20
26.55758628282263
 30
0.0
 11
20.75658518664136
 21
28.9063420346746
 31
0.0
  0
LINE
  5
1B86
330
1B01
100
AcDbEntity
  8
0
 62
     0
100
AcDbLine
 10
36.07264534416885
 20
13.59028187714711
 30
0.0
 11
32.15977215358407
 21
17.50315506773194
 31
0.0
  0
LINE
  5
1B87
330
1B01
100
AcDbEntity
  8
0
 62
     0
100
AcDbLine
 10
30.35047808566083
 20
18.41442352354824
 30
0.0
 11
27.55047808566076
 21
21.21442352354825
 31
0.0
  0
LINE
  5
1B88
330
1B01
100
AcDbEntity
  8
0
 62
     0
100
AcDbLine
 10
22.2622274359498
 20
26.50267417325927
 30
0.0
 11
20.19783621130682
 21
28.56706539790224
 31
0.0
  0
LINE
  5
1B89
330
1B01
100
AcDbEntity
  8
0
 62
     0
100
AcDbLine
 10
35.5073153263865
 20
13.25758628282256
 30
0.0
 11
32.57424551301813
 21
16.19065609619088
 31
0.0
  0
LINE
  5
1B8A
330
1B01
100
AcDbEntity
  8
0
 62
     0
100
AcDbLine
 10
30.35047808566083
 20
17.51639791144128
 30
0.0
 11
27.55047808566076
 21
20.31639791144136
 31
0.0
  0
LINE
  5
1B8B
330
1B01
100
AcDbEntity
  8
0
 62
     0
100
AcDbLine
 10
21.6903712431108
 20
26.17650475399131
 30
0.0
 11
19.71018100269503
 21
28.15669499440708
 31
0.0
  0
LINE
  5
1B8C
330
1B01
100
AcDbEntity
  8
0
 62
     0
100
AcDbLine
 10
34.60928971427956
 20
13.25758628282256
 30
0.0
 11
32.98871887245207
 21
14.87815712465004
 31
0.0
  0
LINE
  5
1B8D
330
1B01
100
AcDbEntity
  8
0
 62
     0
100
AcDbLine
 10
25.43590721845857
 20
21.53294316653671
 30
0.0
 11
23.92583496937482
 21
23.04301541562046
 31
0.0
  0
LINE
  5
1B8E
330
1B01
100
AcDbEntity
  8
0
 62
     0
100
AcDbLine
 10
30.35047808566094
 20
16.61837229933434
 30
0.0
 11
27.55047808566081
 21
19.41837229933446
 31
0.0
  0
LINE
  5
1B8F
330
1B01
100
AcDbEntity
  8
0
 62
     0
100
AcDbLine
 10
21.33424967298186
 20
25.63460071201343
 30
0.0
 11
19.2908149766838
 21
27.67803540831148
 31
0.0
  0
LINE
  5
1B90
330
1B01
100
AcDbEntity
  8
0
 62
     0
100
AcDbLine
 10
33.66093109796805
 20
13.30791928702723
 30
0.0
 11
33.41057692637674
 21
13.55827345861854
 31
0.0
  0
LINE
  5
1B91
330
1B01
100
AcDbEntity
  8
0
 62
     0
100
AcDbLine
 10
25.34939355831665
 20
20.72143121457168
 30
0.0
 11
23.11432301740979
 21
22.95650175547854
 31
0.0
  0
LINE
  5
1B92
330
1B01
100
AcDbEntity
  8
0
 62
     0
100
AcDbLine
 10
21.25047808566092
 20
24.82034668722742
 30
0.0
 11
18.94187595572214
 21
27.12894881716619
 31
0.0
  0
LINE
  5
1B93
330
1B01
100
AcDbEntity
  8
0
 62
     0
100
AcDbLine
 10
30.35047808566088
 20
15.72034668722739
 30
0.0
 11
27.55047808566076
 21
18.52034668722757
 31
0.0
  0
LINE
  5
1B94
330
1B01
100
AcDbEntity
  8
0
 62
     0
100
AcDbLine
 10
25.0175379990186
 20
20.15526116176272
 30
0.0
 11
22.54815296460083
 21
22.62464619618049
 31
0.0
  0
LINE
  5
1B95
330
1B01
100
AcDbEntity
  8
0
 62
     0
100
AcDbLine
 10
21.25047808566092
 20
23.92232107512047
 30
0.0
 11
18.67129624851196
 21
26.50150291226942
 31
0.0
  0
LINE
  5
1B96
330
1B01
100
AcDbEntity
  8
0
 62
     0
100
AcDbLine
 10
30.35047808566088
 20
14.8223210751205
 30
0.0
 11
27.55047808566081
 21
17.62232107512057
 31
0.0
  0
LINE
  5
1B97
330
1B01
100
AcDbEntity
  8
0
 62
     0
100
AcDbLine
 10
21.25047808566092
 20
23.02429546301357
 30
0.0
 11
18.49658237558611
 21
25.77819117308843
 31
0.0
  0
LINE
  5
1B98
330
1B01
100
AcDbEntity
  8
0
 62
     0
100
AcDbLine
 10
24.51570455688216
 20
19.75906899179239
 30
0.0
 11
22.1519607946305
 21
22.12281275404405
 31
0.0
  0
LINE
  5
1B99
330
1B01
100
AcDbEntity
  8
0
 62
     0
100
AcDbLine
 10
15.82547808566073
 20
28.44929546301376
 30
0.0
 11
14.91718726585185
 21
29.3575862828227
 31
0.0
  0
LINE
  5
1B9A
330
1B01
100
AcDbEntity
  8
0
 62
     0
100
AcDbLine
 10
30.35047808566094
 20
13.9242954630136
 30
0.0
 11
27.55047808566087
 21
16.72429546301367
 31
0.0
  0
LINE
  5
1B9B
330
1B01
100
AcDbEntity
  8
0
 62
     0
100
AcDbLine
 10
21.25047808566092
 20
22.12626985090668
 30
0.0
 11
18.45047808566085
 21
24.92626985090675
 31
0.0
  0
LINE
  5
1B9C
330
1B01
100
AcDbEntity
  8
0
 62
     0
100
AcDbLine
 10
23.81538511445473
 20
19.56136282211287
 30
0.0
 11
21.95425462495098
 21
21.42249331161662
 31
0.0
  0
LINE
  5
1B9D
330
1B01
100
AcDbEntity
  8
0
 62
     0
100
AcDbLine
 10
15.82547808566073
 20
27.55126985090686
 30
0.0
 11
14.0191616537449
 21
29.35758628282264
 31
0.0
  0
LINE
  5
1B9E
330
1B01
100
AcDbEntity
  8
0
 62
     0
100
AcDbLine
 10
30.06257428439023
 20
13.31417365217737
 30
0.0
 11
27.55047808566081
 21
15.82626985090672
 31
0.0
  0
LINE
  5
1B9F
330
1B01
100
AcDbEntity
  8
0
 62
     0
100
AcDbLine
 10
21.25047808566092
 20
21.22824423879973
 30
0.0
 11
18.45047808566085
 21
24.0282442387998
 31
0.0
  0
LINE
  5
1BA0
330
1B01
100
AcDbEntity
  8
0
 62
     0
100
AcDbLine
 10
15.71644411539046
 20
26.76227820907019
 30
0.0
 11
13.12113604163789
 21
29.3575862828227
 31
0.0
  0
LINE
  5
1BA1
330
1B01
100
AcDbEntity
  8
0
 62
     0
100
AcDbLine
 10
29.22113604163809
 20
13.2575862828225
 30
0.0
 11
27.55047808566081
 21
14.92824423879983
 31
0.0
  0
LINE
  5
1BA2
330
1B01
100
AcDbEntity
  8
0
 62
     0
100
AcDbLine
 10
21.25047808566086
 20
20.33021862669284
 30
0.0
 11
18.45047808566079
 21
23.13021862669285
 31
0.0
  0
LINE
  5
1BA3
330
1B01
100
AcDbEntity
  8
0
 62
     0
100
AcDbLine
 10
15.02311042953113
 20
26.55758628282257
 30
0.0
 11
12.223110429531
 21
29.3575862828227
 31
0.0
  0
LINE
  5
1BA4
330
1B01
100
AcDbEntity
  8
0
 62
     0
100
AcDbLine
 10
28.32311042953108
 20
13.25758628282256
 30
0.0
 11
27.55047808566081
 21
14.03021862669288
 31
0.0
  0
LINE
  5
1BA5
330
1B01
100
AcDbEntity
  8
0
 62
     0
100
AcDbLine
 10
21.25047808566092
 20
19.43219301458595
 30
0.0
 11
18.45047808566085
 21
22.23219301458602
 31
0.0
  0
LINE
  5
1BA6
330
1B01
100
AcDbEntity
  8
0
 62
     0
100
AcDbLine
 10
14.12508481742424
 20
26.55758628282257
 30
0.0
 11
11.35995554531934
 21
29.32271555492753
 31
0.0
  0
LINE
  5
1BA7
330
1B01
100
AcDbEntity
  8
0
 62
     0
100
AcDbLine
 10
25.09787563682392
 20
15.58479546342289
 30
0.0
 11
24.62768726626121
 21
16.05498383398566
 31
0.0
  0
LINE
  5
1BA8
330
1B01
100
AcDbEntity
  8
0
 62
     0
100
AcDbLine
 10
21.25047808566086
 20
18.534167402479
 30
0.0
 11
18.45047808566085
 21
21.33416740247907
 31
0.0
  0
LINE
  5
1BA9
330
1B01
100
AcDbEntity
  8
0
 62
     0
100
AcDbLine
 10
13.22705920531734
 20
26.55758628282257
 30
0.0
 11
10.66682073684086
 21
29.11782475129906
 31
0.0
  0
LINE
  5
1BAA
330
1B01
100
AcDbEntity
  8
0
 62
     0
100
AcDbLine
 10
25.10047808566083
 20
14.68416740247903
 30
0.0
 11
23.72705920531729
 21
16.05758628282262
 31
0.0
  0
LINE
  5
1BAB
330
1B01
100
AcDbEntity
  8
0
 62
     0
100
AcDbLine
 10
21.25047808566086
 20
17.63614179037211
 30
0.0
 11
18.4504780856609
 21
20.43614179037206
 31
0.0
  0
LINE
  5
1BAC
330
1B01
100
AcDbEntity
  8
0
 62
     0
100
AcDbLine
 10
12.3290335932104
 20
26.55758628282252
 30
0.0
 11
10.10257407699362
 21
28.78404579903929
 31
0.0
  0
LINE
  5
1BAD
330
1B01
100
AcDbEntity
  8
0
 62
     0
100
AcDbLine
 10
25.10047808566083
 20
13.78614179037214
 30
0.0
 11
22.8290335932104
 21
16.05758628282251
 31
0.0
  0
LINE
  5
1BAE
330
1B01
100
AcDbEntity
  8
0
 62
     0
100
AcDbLine
 10
11.8187407655958
 20
26.16985349833033
 30
0.0
 11
9.644481264752869
 21
28.34411299917326
 31
0.0
  0
LINE
  5
1BAF
330
1B01
100
AcDbEntity
  8
0
 62
     0
100
AcDbLine
 10
24.71274530116853
 20
13.27584896275761
 30
0.0
 11
18.4504780856609
 21
19.53811617826523
 31
0.0
  0
LINE
  5
1BB0
330
1B01
100
AcDbEntity
  8
0
 62
     0
100
AcDbLine
 10
11.80047808566087
 20
25.29009056615831
 30
0.0
 11
9.291000062283785
 21
27.7995685895354
 31
0.0
  0
LINE
  5
1BB1
330
1B01
100
AcDbEntity
  8
0
 62
     0
100
AcDbLine
 10
23.83298236899662
 20
13.25758628282256
 30
0.0
 11
18.4504780856609
 21
18.64009056615828
 31
0.0
  0
LINE
  5
1BB2
330
1B01
100
AcDbEntity
  8
0
 62
     0
100
AcDbLine
 10
11.8626137937963
 20
24.32992924591588
 30
0.0
 11
9.060119959990061
 21
27.13242307972218
 31
0.0
  0
LINE
  5
1BB3
330
1B01
100
AcDbEntity
  8
0
 62
     0
100
AcDbLine
 10
22.93495675688962
 20
13.25758628282261
 30
0.0
 11
18.45047808566085
 21
17.74206495405133
 31
0.0
  0
LINE
  5
1BB4
330
1B01
100
AcDbEntity
  8
0
 62
     0
100
AcDbLine
 10
16.15485417688353
 20
19.13966325072181
 30
0.0
 11
9.000478085660915
 21
26.29403934194443
 31
0.0
  0
LINE
  5
1BB5
330
1B01
100
AcDbEntity
  8
0
 62
     0
100
AcDbLine
 10
21.98365905772607
 20
13.31085836987927
 30
0.0
 11
18.5037501727175
 21
16.79076725488784
 31
0.0
  0
LINE
  5
1BB6
330
1B01
100
AcDbEntity
  8
0
 62
     0
100
AcDbLine
 10
16.34674869096875
 20
18.04974312452969
 30
0.0
 11
9.000478085660802
 21
25.39601372983765
 31
0.0
  0
LINE
  5
1BB7
330
1B01
100
AcDbEntity
  8
0
 62
     0
100
AcDbLine
 10
20.60985114512448
 20
13.78664067037391
 30
0.0
 11
18.97953247321209
 21
15.41695934228636
 31
0.0
  0
LINE
  5
1BB8
330
1B01
100
AcDbEntity
  8
0
 62
     0
100
AcDbLine
 10
16.35047808566088
 20
17.14798811773062
 30
0.0
 11
9.008042533083198
 21
24.49042367030825
 31
0.0
  0
LINE
  5
1BB9
330
1B01
100
AcDbEntity
  8
0
 62
     0
100
AcDbLine
 10
16.35047808566082
 20
16.24996250562373
 30
0.0
 11
9.231333291407054
 21
23.36910729987744
 31
0.0
  0
LINE
  5
1BBA
330
1B01
100
AcDbEntity
  8
0
 62
     0
100
AcDbLine
 10
16.27795808952891
 20
15.42445688964881
 30
0.0
 11
13.51456644590985
 21
18.18784853326787
 31
0.0
  0
LINE
  5
1BBB
330
1B01
100
AcDbEntity
  8
0
 62
     0
100
AcDbLine
 10
16.03602015050006
 20
14.7683692165707
 30
0.0
 11
13.55047808566081
 21
17.25391128140995
 31
0.0
  0
LINE
  5
1BBC
330
1B01
100
AcDbEntity
  8
0
 62
     0
100
AcDbLine
 10
15.67390090311829
 20
14.23246285184552
 30
0.0
 11
13.51457905336014
 21
16.39178470160368
 31
0.0
  0
LINE
  5
1BBD
330
1B01
100
AcDbEntity
  8
0
 62
     0
100
AcDbLine
 10
15.20767453085142
 20
13.80066361200551
 30
0.0
 11
12.9507518600343
 21
16.05758628282268
 31
0.0
  0
LINE
  5
1BBE
330
1B01
100
AcDbEntity
  8
0
 62
     0
100
AcDbLine
 10
14.63441008311861
 20
13.47590244763142
 30
0.0
 11
12.05272624792735
 21
16.05758628282262
 31
0.0
  0
LINE
  5
1BBF
330
1B01
100
AcDbEntity
  8
0
 62
     0
100
AcDbLine
 10
13.92899749403267
 20
13.28328942461041
 30
0.0
 11
11.15470063582046
 21
16.05758628282262
 31
0.0
  0
LINE
  5
1BC0
330
1B01
100
AcDbEntity
  8
0
 62
     0
100
AcDbLine
 10
13.05667502371363
 20
13.25758628282244
 30
0.0
 11
10.25667502371351
 21
16.05758628282262
 31
0.0
  0
LINE
  5
1BC1
330
1B01
100
AcDbEntity
  8
0
 62
     0
100
AcDbLine
 10
12.15864941160669
 20
13.25758628282256
 30
0.0
 11
9.605325516788809
 21
15.81091017764049
 31
0.0
  0
LINE
  5
1BC2
330
1B01
100
AcDbEntity
  8
0
 62
     0
100
AcDbLine
 10
11.2606237994998
 20
13.25758628282256
 30
0.0
 11
9.525478085660836
 21
14.99273199666152
 31
0.0
  0
LINE
  5
1BC3
330
1B01
100
AcDbEntity
  8
0
 62
     0
100
AcDbLine
 10
10.36259818739285
 20
13.25758628282256
 30
0.0
 11
9.525478085660836
 21
14.09470638455457
 31
0.0
  0
LINE
  5
1BC4
330
1B01
100
AcDbEntity
  8
0
 62
     0
100
AcDbLine
 10
66.34216537032779
 20
13.27071805994012
 30
0.0
 11
66.73734630854358
 21
13.66589899815591
 31
0.0
  0
LINE
  5
1BC5
330
1B01
100
AcDbEntity
  8
0
 62
     0
100
AcDbLine
 10
65.43100798110334
 20
13.2575862828225
 30
0.0
 11
66.75047808566103
 21
14.57705638738019
 31
0.0
  0
LINE
  5
1BC6
330
1B01
100
AcDbEntity
  8
0
 62
     0
100
AcDbLine
 10
64.53298236899644
 20
13.2575862828225
 30
0.0
 11
66.75047808566103
 21
15.47508199948708
 31
0.0
  0
LINE
  5
1BC7
330
1B01
100
AcDbEntity
  8
0
 62
     0
100
AcDbLine
 10
63.9816756489127
 20
13.60430517484571
 30
0.0
 11
66.75047808566097
 21
16.37310761159404
 31
0.0
  0
LINE
  5
1BC8
330
1B01
100
AcDbEntity
  8
0
 62
     0
100
AcDbLine
 10
63.9504780856609
 20
14.47113322370086
 30
0.0
 11
66.75047808566097
 21
17.27113322370087
 31
0.0
  0
LINE
  5
1BC9
330
1B01
100
AcDbEntity
  8
0
 62
     0
100
AcDbLine
 10
63.95047808566096
 20
15.36915883580775
 30
0.0
 11
66.75047808566097
 21
18.16915883580782
 31
0.0
  0
LINE
  5
1BCA
330
1B01
100
AcDbEntity
  8
0
 62
     0
100
AcDbLine
 10
63.9504780856609
 20
16.2671844479147
 30
0.0
 11
66.75047808566097
 21
19.06718444791477
 31
0.0
  0
LINE
  5
1BCB
330
1B01
100
AcDbEntity
  8
0
 62
     0
100
AcDbLine
 10
63.9504780856609
 20
17.16521006002159
 30
0.0
 11
66.75047808566097
 21
19.96521006002166
 31
0.0
  0
LINE
  5
1BCC
330
1B01
100
AcDbEntity
  8
0
 62
     0
100
AcDbLine
 10
60.37704294772618
 20
13.59177492208687
 30
0.0
 11
61.51628944639674
 21
14.73102142075748
 31
0.0
  0
LINE
  5
1BCD
330
1B01
100
AcDbEntity
  8
0
 62
     0
100
AcDbLine
 10
63.9504780856609
 20
18.06323567212848
 30
0.0
 11
66.75047808566097
 21
20.86323567212855
 31
0.0
  0
LINE
  5
1BCE
330
1B01
100
AcDbEntity
  8
0
 62
     0
100
AcDbLine
 10
59.14647478120338
 20
13.25923236767096
 30
0.0
 11
61.8488320008127
 21
15.96158958728023
 31
0.0
  0
LINE
  5
1BCF
330
1B01
100
AcDbEntity
  8
0
 62
     0
100
AcDbLine
 10
63.9504780856609
 20
18.96126128423543
 30
0.0
 11
66.75047808566097
 21
21.76126128423545
 31
0.0
  0
LINE
  5
1BD0
330
1B01
100
AcDbEntity
  8
0
 62
     0
100
AcDbLine
 10
58.24680308424797
 20
13.2575862828225
 30
0.0
 11
61.850478085661
 21
16.86126128423547
 31
0.0
  0
LINE
  5
1BD1
330
1B01
100
AcDbEntity
  8
0
 62
     0
100
AcDbLine
 10
63.9504780856609
 20
19.85928689634232
 30
0.0
 11
66.75047808566091
 21
22.6592868963424
 31
0.0
  0
LINE
  5
1BD2
330
1B01
100
AcDbEntity
  8
0
 62
     0
100
AcDbLine
 10
57.34877747214108
 20
13.2575862828225
 30
0.0
 11
61.85047808566094
 21
17.75928689634241
 31
0.0
  0
LINE
  5
1BD3
330
1B01
100
AcDbEntity
  8
0
 62
     0
100
AcDbLine
 10
63.9504780856609
 20
20.75731250844922
 30
0.0
 11
66.75047808566097
 21
23.55731250844929
 31
0.0
  0
LINE
  5
1BD4
330
1B01
100
AcDbEntity
  8
0
 62
     0
100
AcDbLine
 10
56.45075186003424
 20
13.25758628282256
 30
0.0
 11
61.850478085661
 21
18.65731250844931
 31
0.0
  0
LINE
  5
1BD5
330
1B01
100
AcDbEntity
  8
0
 62
     0
100
AcDbLine
 10
58.94588688357988
 20
16.65074691847513
 30
0.0
 11
61.850478085661
 21
19.5553381205562
 31
0.0
  0
LINE
  5
1BD6
330
1B01
100
AcDbEntity
  8
0
 62
     0
100
AcDbLine
 10
63.9504780856609
 20
21.65533812055611
 30
0.0
 11
66.75047808566097
 21
24.45533812055618
 31
0.0
  0
LINE
  5
1BD7
330
1B01
100
AcDbEntity
  8
0
 62
     0
100
AcDbLine
 10
55.55272624792724
 20
13.2575862828225
 30
0.0
 11
58.45731745000836
 21
16.16217748490356
 31
0.0
  0
LINE
  5
1BD8
330
1B01
100
AcDbEntity
  8
0
 62
     0
100
AcDbLine
 10
59.05047808566087
 20
17.65336373266308
 30
0.0
 11
61.85047808566094
 21
20.45336373266315
 31
0.0
  0
LINE
  5
1BD9
330
1B01
100
AcDbEntity
  8
0
 62
     0
100
AcDbLine
 10
63.95047808566085
 20
22.55336373266306
 30
0.0
 11
66.75047808566091
 21
25.35336373266313
 31
0.0
  0
LINE
  5
1BDA
330
1B01
100
AcDbEntity
  8
0
 62
     0
100
AcDbLine
 10
54.76665038719755
 20
13.36953603419971
 30
0.0
 11
57.45470063582041
 21
16.05758628282257
 31
0.0
  0
LINE
  5
1BDB
330
1B01
100
AcDbEntity
  8
0
 62
     0
100
AcDbLine
 10
59.05047808566092
 20
18.55138934477009
 30
0.0
 11
61.85047808566094
 21
21.35138934477004
 31
0.0
  0
LINE
  5
1BDC
330
1B01
100
AcDbEntity
  8
0
 62
     0
100
AcDbLine
 10
63.95047808566085
 20
23.45138934477001
 30
0.0
 11
66.75047808566091
 21
26.25138934477002
 31
0.0
  0
LINE
  5
1BDD
330
1B01
100
AcDbEntity
  8
0
 62
     0
100
AcDbLine
 10
54.1386635199874
 20
13.63957477909656
 30
0.0
 11
56.55755280935784
 21
16.058464068467
 31
0.0
  0
LINE
  5
1BDE
330
1B01
100
AcDbEntity
  8
0
 62
     0
100
AcDbLine
 10
59.05047808566099
 20
19.44941495687698
 30
0.0
 11
61.85047808566094
 21
22.24941495687693
 31
0.0
  0
LINE
  5
1BDF
330
1B01
100
AcDbEntity
  8
0
 62
     0
100
AcDbLine
 10
63.9504780856609
 20
24.34941495687684
 30
0.0
 11
66.75047808566091
 21
27.14941495687691
 31
0.0
  0
LINE
  5
1BE0
330
1B01
100
AcDbEntity
  8
0
 62
     0
100
AcDbLine
 10
53.62540363862234
 20
14.02434050983828
 30
0.0
 11
55.91407422064515
 21
16.31301109186114
 31
0.0
  0
LINE
  5
1BE1
330
1B01
100
AcDbEntity
  8
0
 62
     0
100
AcDbLine
 10
59.05047808566099
 20
20.34744056898387
 30
0.0
 11
61.85047808566094
 21
23.14744056898388
 31
0.0
  0
LINE
  5
1BE2
330
1B01
100
AcDbEntity
  8
0
 62
     0
100
AcDbLine
 10
63.95047808566085
 20
25.24744056898379
 30
0.0
 11
66.75047808566091
 21
28.04744056898386
 31
0.0
  0
LINE
  5
1BE3
330
1B01
100
AcDbEntity
  8
0
 62
     0
100
AcDbLine
 10
53.21543946339722
 20
14.5124019467201
 30
0.0
 11
55.57683594223573
 21
16.87379842555867
 31
0.0
  0
LINE
  5
1BE4
330
1B01
100
AcDbEntity
  8
0
 62
     0
100
AcDbLine
 10
59.05047808566092
 20
21.24546618109082
 30
0.0
 11
61.850478085661
 21
24.04546618109089
 31
0.0
  0
LINE
  5
1BE5
330
1B01
100
AcDbEntity
  8
0
 62
     0
100
AcDbLine
 10
63.95047808566085
 20
26.14546618109069
 30
0.0
 11
66.74032893211045
 21
28.93531702754035
 31
0.0
  0
LINE
  5
1BE6
330
1B01
100
AcDbEntity
  8
0
 62
     0
100
AcDbLine
 10
52.91551458496321
 20
15.1105026803931
 30
0.0
 11
55.55047808566093
 21
17.74546618109076
 31
0.0
  0
LINE
  5
1BE7
330
1B01
100
AcDbEntity
  8
0
 62
     0
100
AcDbLine
 10
59.05047808566099
 20
22.14349179319766
 30
0.0
 11
61.85047808566105
 21
24.94349179319772
 31
0.0
  0
LINE
  5
1BE8
330
1B01
100
AcDbEntity
  8
0
 62
     0
100
AcDbLine
 10
63.95047808566085
 20
27.04349179319758
 30
0.0
 11
66.26321458703097
 21
29.3562282945677
 31
0.0
  0
LINE
  5
1BE9
330
1B01
100
AcDbEntity
  8
0
 62
     0
100
AcDbLine
 10
52.75810105000676
 20
15.85111475754348
 30
0.0
 11
55.55047808566093
 21
18.64349179319765
 31
0.0
  0
LINE
  5
1BEA
330
1B01
100
AcDbEntity
  8
0
 62
     0
100
AcDbLine
 10
59.05047808566092
 20
23.04151740530461
 30
0.0
 11
61.850478085661
 21
25.84151740530467
 31
0.0
  0
LINE
  5
1BEB
330
1B01
100
AcDbEntity
  8
0
 62
     0
100
AcDbLine
 10
63.9504780856609
 20
27.94151740530458
 30
0.0
 11
65.3665469631789
 21
29.35758628282258
 31
0.0
  0
LINE
  5
1BEC
330
1B01
100
AcDbEntity
  8
0
 62
     0
100
AcDbLine
 10
52.75047808566097
 20
16.74151740530459
 30
0.0
 11
55.55047808566098
 21
19.54151740530466
 31
0.0
  0
LINE
  5
1BED
330
1B01
100
AcDbEntity
  8
0
 62
     0
100
AcDbLine
 10
59.05047808566092
 20
23.93954301741155
 30
0.0
 11
61.850478085661
 21
26.73954301741157
 31
0.0
  0
LINE
  5
1BEE
330
1B01
100
AcDbEntity
  8
0
 62
     0
100
AcDbLine
 10
52.75047808566092
 20
17.63954301741154
 30
0.0
 11
55.55047808566098
 21
20.43954301741161
 31
0.0
  0
LINE
  5
1BEF
330
1B01
100
AcDbEntity
  8
0
 62
     0
100
AcDbLine
 10
63.95052480040835
 20
28.83958973215897
 30
0.0
 11
64.46847463632463
 21
29.3575395680752
 31
0.0
  0
LINE
  5
1BF0
330
1B01
100
AcDbEntity
  8
0
 62
     0
100
AcDbLine
 10
48.42892245494891
 20
13.31798738669948
 30
0.0
 11
50.59007698178408
 21
15.4791419135347
 31
0.0
  0
LINE
  5
1BF1
330
1B01
100
AcDbEntity
  8
0
 62
     0
100
AcDbLine
 10
52.75047808566092
 20
18.53756862951843
 30
0.0
 11
55.55047808566098
 21
21.3375686295185
 31
0.0
  0
LINE
  5
1BF2
330
1B01
100
AcDbEntity
  8
0
 62
     0
100
AcDbLine
 10
59.05047808566092
 20
24.83756862951845
 30
0.0
 11
61.85047808566094
 21
27.63756862951851
 31
0.0
  0
LINE
  5
1BF3
330
1B01
100
AcDbEntity
  8
0
 62
     0
100
AcDbLine
 10
47.47049573896504
 20
13.25758628282261
 30
0.0
 11
50.65047808566089
 21
16.43756862951846
 31
0.0
  0
LINE
  5
1BF4
330
1B01
100
AcDbEntity
  8
0
 62
     0
100
AcDbLine
 10
52.75047808566092
 20
19.43559424162532
 30
0.0
 11
55.55047808566098
 21
22.23559424162539
 31
0.0
  0
LINE
  5
1BF5
330
1B01
100
AcDbEntity
  8
0
 62
     0
100
AcDbLine
 10
59.05047808566092
 20
25.73559424162534
 30
0.0
 11
61.850478085661
 21
28.5355942416254
 31
0.0
  0
LINE
  5
1BF6
330
1B01
100
AcDbEntity
  8
0
 62
     0
100
AcDbLine
 10
46.57247012685814
 20
13.25758628282256
 30
0.0
 11
50.65047808566095
 21
17.3355942416253
 31
0.0
  0
LINE
  5
1BF7
330
1B01
100
AcDbEntity
  8
0
 62
     0
100
AcDbLine
 10
52.75047808566092
 20
20.33361985373227
 30
0.0
 11
55.55047808566098
 21
23.13361985373228
 31
0.0
  0
LINE
  5
1BF8
330
1B01
100
AcDbEntity
  8
0
 62
     0
100
AcDbLine
 10
59.05047808566092
 20
26.63361985373223
 30
0.0
 11
61.65674063082684
 21
29.23988239889821
 31
0.0
  0
LINE
  5
1BF9
330
1B01
100
AcDbEntity
  8
0
 62
     0
100
AcDbLine
 10
45.67444451475125
 20
13.25758628282261
 30
0.0
 11
50.63615948524807
 21
18.21930125331937
 31
0.0
  0
LINE
  5
1BFA
330
1B01
100
AcDbEntity
  8
0
 62
     0
100
AcDbLine
 10
52.75047808566092
 20
21.23164546583916
 30
0.0
 11
55.55047808566093
 21
24.03164546583923
 31
0.0
  0
LINE
  5
1BFB
330
1B01
100
AcDbEntity
  8
0
 62
     0
100
AcDbLine
 10
59.05047808566087
 20
27.53164546583918
 30
0.0
 11
60.87641890264433
 21
29.35758628282264
 31
0.0
  0
LINE
  5
1BFC
330
1B01
100
AcDbEntity
  8
0
 62
     0
100
AcDbLine
 10
44.77641890264431
 20
13.25758628282261
 30
0.0
 11
50.50124711461927
 21
18.98241449479758
 31
0.0
  0
LINE
  5
1BFD
330
1B01
100
AcDbEntity
  8
0
 62
     0
100
AcDbLine
 10
52.75047808566092
 20
22.12967107794606
 30
0.0
 11
55.55047808566098
 21
24.92967107794612
 31
0.0
  0
LINE
  5
1BFE
330
1B01
100
AcDbEntity
  8
0
 62
     0
100
AcDbLine
 10
47.85047808566105
 20
17.22967107794613
 30
0.0
 11
50.26065965770072
 21
19.63985264998587
 31
0.0
  0
LINE
  5
1BFF
330
1B01
100
AcDbEntity
  8
0
 62
     0
100
AcDbLine
 10
59.05047808566092
 20
28.42967107794607
 30
0.0
 11
59.9783932905375
 21
29.35758628282264
 31
0.0
  0
LINE
  5
1C00
330
1B01
100
AcDbEntity
  8
0
 62
     0
100
AcDbLine
 10
44.00664864366854
 20
13.38584163595368
 30
0.0
 11
46.67839329053743
 21
16.05758628282257
 31
0.0
  0
LINE
  5
1C01
330
1B01
100
AcDbEntity
  8
0
 62
     0
100
AcDbLine
 10
47.83060751053364
 20
18.10782611492567
 30
0.0
 11
49.93716035284013
 21
20.21437895723216
 31
0.0
  0
LINE
  5
1C02
330
1B01
100
AcDbEntity
  8
0
 62
     0
100
AcDbLine
 10
52.75047808566092
 20
23.02769669005295
 30
0.0
 11
55.55047808566093
 21
25.82769669005302
 31
0.0
  0
LINE
  5
1C03
330
1B01
100
AcDbEntity
  8
0
 62
     0
100
AcDbLine
 10
43.82547808566096
 20
14.10269669005299
 30
0.0
 11
45.78036767843047
 21
16.05758628282257
 31
0.0
  0
LINE
  5
1C04
330
1B01
100
AcDbEntity
  8
0
 62
     0
100
AcDbLine
 10
47.55622267339475
 20
18.73146688989379
 30
0.0
 11
49.54128923491231
 21
20.71653345141135
 31
0.0
  0
LINE
  5
1C05
330
1B01
100
AcDbEntity
  8
0
 62
     0
100
AcDbLine
 10
52.75047808566085
 20
23.9257223021599
 30
0.0
 11
55.55047808566093
 21
26.72572230215997
 31
0.0
  0
LINE
  5
1C06
330
1B01
100
AcDbEntity
  8
0
 62
     0
100
AcDbLine
 10
43.8254780856609
 20
15.00072230215994
 30
0.0
 11
44.88234206632358
 21
16.05758628282262
 31
0.0
  0
LINE
  5
1C07
330
1B01
100
AcDbEntity
  8
0
 62
     0
100
AcDbLine
 10
52.75047808566092
 20
24.82374791426679
 30
0.0
 11
55.55047808566098
 21
27.6237479142668
 31
0.0
  0
LINE
  5
1C08
330
1B01
100
AcDbEntity
  8
0
 62
     0
100
AcDbLine
 10
47.11494777627769
 20
19.1882176048835
 30
0.0
 11
49.09484676360006
 21
21.16811659220593
 31
0.0
  0
LINE
  5
1C09
330
1B01
100
AcDbEntity
  8
0
 62
     0
100
AcDbLine
 10
46.66593497022421
 20
19.63723041093698
 30
0.0
 11
48.64583395754658
 21
21.61712939825941
 31
0.0
  0
LINE
  5
1C0A
330
1B01
100
AcDbEntity
  8
0
 62
     0
100
AcDbLine
 10
52.75047808566085
 20
25.72177352637368
 30
0.0
 11
55.55047808566093
 21
28.52177352637375
 31
0.0
  0
LINE
  5
1C0B
330
1B01
100
AcDbEntity
  8
0
 62
     0
100
AcDbLine
 10
40.28629084210973
 20
13.25758628282256
 30
0.0
 11
41.2004780856609
 21
14.17177352637367
 31
0.0
  0
LINE
  5
1C0C
330
1B01
100
AcDbEntity
  8
0
 62
     0
100
AcDbLine
 10
46.21692216417073
 20
20.08624321699045
 30
0.0
 11
48.19682115149311
 21
22.06614220431288
 31
0.0
  0
LINE
  5
1C0D
330
1B01
100
AcDbEntity
  8
0
 62
     0
100
AcDbLine
 10
52.75047808566085
 20
26.61979913848063
 30
0.0
 11
55.36429717756226
 21
29.23361823038198
 31
0.0
  0
LINE
  5
1C0E
330
1B01
100
AcDbEntity
  8
0
 62
     0
100
AcDbLine
 10
39.38826523000279
 20
13.25758628282256
 30
0.0
 11
41.20047808566096
 21
15.06979913848067
 31
0.0
  0
LINE
  5
1C0F
330
1B01
100
AcDbEntity
  8
0
 62
     0
100
AcDbLine
 10
45.76790935811726
 20
20.53525602304393
 30
0.0
 11
47.74780834543963
 21
22.51515501036636
 31
0.0
  0
LINE
  5
1C10
330
1B01
100
AcDbEntity
  8
0
 62
     0
100
AcDbLine
 10
52.75047808566085
 20
27.51782475058752
 30
0.0
 11
54.59023961789597
 21
29.3575862828227
 31
0.0
  0
LINE
  5
1C11
330
1B01
100
AcDbEntity
  8
0
 62
     0
100
AcDbLine
 10
38.60185075575788
 20
13.36919742068454
 30
0.0
 11
41.2004780856609
 21
15.96782475058762
 31
0.0
  0
LINE
  5
1C12
330
1B01
100
AcDbEntity
  8
0
 62
     0
100
AcDbLine
 10
45.31889655206384
 20
20.98426882909735
 30
0.0
 11
47.29879553938622
 21
22.96416781641978
 31
0.0
  0
LINE
  5
1C13
330
1B01
100
AcDbEntity
  8
0
 62
     0
100
AcDbLine
 10
52.75047808566085
 20
28.41585036269441
 30
0.0
 11
53.69221400578914
 21
29.35758628282264
 31
0.0
  0
LINE
  5
1C14
330
1B01
100
AcDbEntity
  8
0
 62
     0
100
AcDbLine
 10
38.40047808566095
 20
14.0658503626945
 30
0.0
 11
41.20047808566096
 21
16.86585036269446
 31
0.0
  0
LINE
  5
1C15
330
1B01
100
AcDbEntity
  8
0
 62
     0
100
AcDbLine
 10
44.86988374601037
 20
21.43328163515082
 30
0.0
 11
46.84978273333274
 21
23.41318062247325
 31
0.0
  0
LINE
  5
1C16
330
1B01
100
AcDbEntity
  8
0
 62
     0
100
AcDbLine
 10
38.40047808566095
 20
14.96387597480145
 30
0.0
 11
41.2004780856609
 21
17.76387597480141
 31
0.0
  0
LINE
  5
1C17
330
1B01
100
AcDbEntity
  8
0
 62
     0
100
AcDbLine
 10
44.42289984496904
 20
21.88432334621649
 30
0.0
 11
46.40687337835106
 21
23.86829687959846
 31
0.0
  0
LINE
  5
1C18
330
1B01
100
AcDbEntity
  8
0
 62
     0
100
AcDbLine
 10
38.40047808566095
 20
15.86190158690834
 30
0.0
 11
41.2004780856609
 21
18.66190158690836
 31
0.0
  0
LINE
  5
1C19
330
1B01
100
AcDbEntity
  8
0
 62
     0
100
AcDbLine
 10
49.09616278157511
 20
26.55758628282257
 30
0.0
 11
50.12547808566097
 21
27.58690158690837
 31
0.0
  0
LINE
  5
1C1A
330
1B01
100
AcDbEntity
  8
0
 62
     0
100
AcDbLine
 10
35.90782186095072
 20
13.36924536219811
 30
0.0
 11
35.99747422240574
 21
13.45889772365319
 31
0.0
  0
LINE
  5
1C1B
330
1B01
100
AcDbEntity
  8
0
 62
     0
100
AcDbLine
 10
44.02489766614706
 20
22.38434677950136
 30
0.0
 11
46.12453194356567
 21
24.48398105691996
 31
0.0
  0
LINE
  5
1C1C
330
1B01
100
AcDbEntity
  8
0
 62
     0
100
AcDbLine
 10
38.40047808566095
 20
16.75992719901524
 30
0.0
 11
41.20047808566096
 21
19.55992719901519
 31
0.0
  0
LINE
  5
1C1D
330
1B01
100
AcDbEntity
  8
0
 62
     0
100
AcDbLine
 10
48.19813716946834
 20
26.55758628282263
 30
0.0
 11
50.12547808566097
 21
28.48492719901526
 31
0.0
  0
LINE
  5
1C1E
330
1B01
100
AcDbEntity
  8
0
 62
     0
100
AcDbLine
 10
34.89813716946827
 20
13.25758628282256
 30
0.0
 11
35.9639162657748
 21
14.32336537912908
 31
0.0
  0
LINE
  5
1C1F
330
1B01
100
AcDbEntity
  8
0
 62
     0
100
AcDbLine
 10
43.69906340175037
 20
22.95653812721162
 30
0.0
 11
46.10047808566105
 21
25.35795281112229
 31
0.0
  0
LINE
  5
1C20
330
1B01
100
AcDbEntity
  8
0
 62
     0
100
AcDbLine
 10
38.40047808566095
 20
17.65795281112213
 30
0.0
 11
41.2004780856609
 21
20.45795281112214
 31
0.0
  0
LINE
  5
1C21
330
1B01
100
AcDbEntity
  8
0
 62
     0
100
AcDbLine
 10
47.30011155736133
 20
26.55758628282257
 30
0.0
 11
49.95880915386305
 21
29.21628387932429
 31
0.0
  0
LINE
  5
1C22
330
1B01
100
AcDbEntity
  8
0
 62
     0
100
AcDbLine
 10
34.00011155736127
 20
13.2575862828225
 30
0.0
 11
35.74839011886911
 21
15.00586484433035
 31
0.0
  0
LINE
  5
1C23
330
1B01
100
AcDbEntity
  8
0
 62
     0
100
AcDbLine
 10
38.40047808566089
 20
18.55597842322907
 30
0.0
 11
41.2004780856609
 21
21.35597842322903
 31
0.0
  0
LINE
  5
1C24
330
1B01
100
AcDbEntity
  8
0
 62
     0
100
AcDbLine
 10
43.45568133908028
 20
23.61118167664847
 30
0.0
 11
49.20208594525445
 21
29.35758628282264
 31
0.0
  0
LINE
  5
1C25
330
1B01
100
AcDbEntity
  8
0
 62
     0
100
AcDbLine
 10
33.40809724670629
 20
13.56359758427447
 30
0.0
 11
35.53286397196342
 21
15.68836430953161
 31
0.0
  0
LINE
  5
1C26
330
1B01
100
AcDbEntity
  8
0
 62
     0
100
AcDbLine
 10
38.40047808566089
 20
19.45400403533603
 30
0.0
 11
41.20047808566084
 21
22.25400403533598
 31
0.0
  0
LINE
  5
1C27
330
1B01
100
AcDbEntity
  8
0
 62
     0
100
AcDbLine
 10
43.31697447999459
 20
24.37050042966973
 30
0.0
 11
48.30406033314756
 21
29.35758628282264
 31
0.0
  0
LINE
  5
1C28
330
1B01
100
AcDbEntity
  8
0
 62
     0
100
AcDbLine
 10
33.18933782505769
 20
14.24286377473282
 30
0.0
 11
35.31733782505773
 21
16.37086377473287
 31
0.0
  0
LINE
  5
1C29
330
1B01
100
AcDbEntity
  8
0
 62
     0
100
AcDbLine
 10
38.40047808566095
 20
20.35202964744286
 30
0.0
 11
41.2004780856609
 21
23.15202964744287
 31
0.0
  0
LINE
  5
1C2A
330
1B01
100
AcDbEntity
  8
0
 62
     0
100
AcDbLine
 10
43.30047808566092
 20
25.25202964744284
 30
0.0
 11
47.40603472104067
 21
29.35758628282264
 31
0.0
  0
LINE
  5
1C2B
330
1B01
100
AcDbEntity
  8
0
 62
     0
100
AcDbLine
 10
32.97381167815206
 20
14.92536323993403
 30
0.0
 11
35.10181167815216
 21
17.05336323993407
 31
0.0
  0
LINE
  5
1C2C
330
1B01
100
AcDbEntity
  8
0
 62
     0
100
AcDbLine
 10
38.40047808566089
 20
21.25005525954981
 30
0.0
 11
41.2004780856609
 21
24.05005525954976
 31
0.0
  0
LINE
  5
1C2D
330
1B01
100
AcDbEntity
  8
0
 62
     0
100
AcDbLine
 10
43.30047808566098
 20
26.15005525954984
 30
0.0
 11
46.50800910893377
 21
29.35758628282264
 31
0.0
  0
LINE
  5
1C2E
330
1B01
100
AcDbEntity
  8
0
 62
     0
100
AcDbLine
 10
32.75828553124632
 20
15.60786270513523
 30
0.0
 11
34.88628553124653
 21
17.73586270513544
 31
0.0
  0
LINE
  5
1C2F
330
1B01
100
AcDbEntity
  8
0
 62
     0
100
AcDbLine
 10
38.40047808566089
 20
22.1480808716567
 30
0.0
 11
41.20047808566096
 21
24.94808087165677
 31
0.0
  0
LINE
  5
1C30
330
1B01
100
AcDbEntity
  8
0
 62
     0
100
AcDbLine
 10
32.54275938434068
 20
16.29036217033655
 30
0.0
 11
34.67075938434078
 21
18.41836217033659
 31
0.0
  0
LINE
  5
1C31
330
1B01
100
AcDbEntity
  8
0
 62
     0
100
AcDbLine
 10
43.35379475578213
 20
27.101397541778
 30
0.0
 11
45.55666682670545
 21
29.30426961270132
 31
0.0
  0
LINE
  5
1C32
330
1B01
100
AcDbEntity
  8
0
 62
     0
100
AcDbLine
 10
29.50998349682669
 20
13.25758628282256
 30
0.0
 11
30.35047808566088
 21
14.09808087165675
 31
0.0
  0
LINE
  5
1C33
330
1B01
100
AcDbEntity
  8
0
 62
     0
100
AcDbLine
 10
32.32723323743511
 20
16.97286163553775
 30
0.0
 11
34.45523323743515
 21
19.10086163553785
 31
0.0
  0
LINE
  5
1C34
330
1B01
100
AcDbEntity
  8
0
 62
     0
100
AcDbLine
 10
38.40047808566089
 20
23.04610648376359
 30
0.0
 11
41.20047808566096
 21
25.84610648376366
 31
0.0
  0
LINE
  5
1C35
330
1B01
100
AcDbEntity
  8
0
 62
     0
100
AcDbLine
 10
28.61195788471986
 20
13.2575862828225
 30
0.0
 11
30.35047808566094
 21
14.99610648376364
 31
0.0
  0
LINE
  5
1C36
330
1B01
100
AcDbEntity
  8
0
 62
     0
100
AcDbLine
 10
32.11170709052942
 20
17.65536110073901
 30
0.0
 11
34.23970709052947
 21
19.78336110073911
 31
0.0
  0
LINE
  5
1C37
330
1B01
100
AcDbEntity
  8
0
 62
     0
100
AcDbLine
 10
38.40047808566089
 20
23.94413209587054
 30
0.0
 11
41.20047808566096
 21
26.74413209587056
 31
0.0
  0
LINE
  5
1C38
330
1B01
100
AcDbEntity
  8
0
 62
     0
100
AcDbLine
 10
27.7950820202642
 20
13.33873603047385
 30
0.0
 11
30.35047808566094
 21
15.89413209587053
 31
0.0
  0
LINE
  5
1C39
330
1B01
100
AcDbEntity
  8
0
 62
     0
100
AcDbLine
 10
31.89618094362373
 20
18.33786056594027
 30
0.0
 11
34.02418094362378
 21
20.46586056594037
 31
0.0
  0
LINE
  5
1C3A
330
1B01
100
AcDbEntity
  8
0
 62
     0
100
AcDbLine
 10
38.40047808566089
 20
24.84215770797744
 30
0.0
 11
41.2004780856609
 21
27.64215770797751
 31
0.0
  0
LINE
  5
1C3B
330
1B01
100
AcDbEntity
  8
0
 62
     0
100
AcDbLine
 10
27.55047808566093
 20
13.99215770797747
 30
0.0
 11
30.350478085661
 21
16.79215770797753
 31
0.0
  0
LINE
  5
1C3C
330
1B01
100
AcDbEntity
  8
0
 62
     0
100
AcDbLine
 10
31.6806547967181
 20
19.02036003114148
 30
0.0
 11
33.80865479671826
 21
21.14836003114163
 31
0.0
  0
LINE
  5
1C3D
330
1B01
100
AcDbEntity
  8
0
 62
     0
100
AcDbLine
 10
38.40047808566089
 20
25.74018332008433
 30
0.0
 11
41.20047808566096
 21
28.5401833200844
 31
0.0
  0
LINE
  5
1C3E
330
1B01
100
AcDbEntity
  8
0
 62
     0
100
AcDbLine
 10
27.55047808566093
 20
14.89018332008436
 30
0.0
 11
30.350478085661
 21
17.69018332008443
 31
0.0
  0
LINE
  5
1C3F
330
1B01
100
AcDbEntity
  8
0
 62
     0
100
AcDbLine
 10
31.44585600974636
 20
19.68358685627675
 30
0.0
 11
34.07615007767737
 21
22.3138809242077
 31
0.0
  0
LINE
  5
1C40
330
1B01
100
AcDbEntity
  8
0
 62
     0
100
AcDbLine
 10
38.40047808566095
 20
26.63820893219134
 30
0.0
 11
41.00420266316251
 21
29.24193350969284
 31
0.0
  0
LINE
  5
1C41
330
1B01
100
AcDbEntity
  8
0
 62
     0
100
AcDbLine
 10
27.55047808566093
 20
15.78820893219131
 30
0.0
 11
30.350478085661
 21
18.58820893219132
 31
0.0
  0
LINE
  5
1C42
330
1B01
100
AcDbEntity
  8
0
 62
     0
100
AcDbLine
 10
30.75867063987897
 20
19.8944270985163
 30
0.0
 11
34.49062343711125
 21
23.62637989574858
 31
0.0
  0
LINE
  5
1C43
330
1B01
100
AcDbEntity
  8
0
 62
     0
100
AcDbLine
 10
27.55047808566093
 20
16.6862345442982
 30
0.0
 11
30.36363726996723
 21
19.4993937286045
 31
0.0
  0
LINE
  5
1C44
330
1B01
100
AcDbEntity
  8
0
 62
     0
100
AcDbLine
 10
38.40047808566095
 20
27.53623454429823
 30
0.0
 11
40.2218298241853
 21
29.35758628282264
 31
0.0
  0
LINE
  5
1C45
330
1B01
100
AcDbEntity
  8
0
 62
     0
100
AcDbLine
 10
24.12182982418528
 20
13.25758628282256
 30
0.0
 11
25.10047808566094
 21
14.23623454429827
 31
0.0
  0
LINE
  5
1C46
330
1B01
100
AcDbEntity
  8
0
 62
     0
100
AcDbLine
 10
27.55047808566087
 20
17.58426015640515
 30
0.0
 11
34.9050967965452
 21
24.93887886728948
 31
0.0
  0
LINE
  5
1C47
330
1B01
100
AcDbEntity
  8
0
 62
     0
100
AcDbLine
 10
38.40047808566089
 20
28.43426015640517
 30
0.0
 11
39.3238042120783
 21
29.35758628282258
 31
0.0
  0
LINE
  5
1C48
330
1B01
100
AcDbEntity
  8
0
 62
     0
100
AcDbLine
 10
23.22380421207833
 20
13.25758628282261
 30
0.0
 11
25.10047808566099
 21
15.13426015640527
 31
0.0
  0
LINE
  5
1C49
330
1B01
100
AcDbEntity
  8
0
 62
     0
100
AcDbLine
 10
27.55047808566093
 20
18.48228576851198
 30
0.0
 11
35.31957015597931
 21
26.25137783883042
 31
0.0
  0
LINE
  5
1C4A
330
1B01
100
AcDbEntity
  8
0
 62
     0
100
AcDbLine
 10
22.33745922432155
 20
13.26926690717266
 30
0.0
 11
24.95914380205477
 21
15.89095148490583
 31
0.0
  0
LINE
  5
1C4B
330
1B01
100
AcDbEntity
  8
0
 62
     0
100
AcDbLine
 10
27.55047808566087
 20
19.38031138061893
 30
0.0
 11
30.87775298786454
 21
22.7075862828226
 31
0.0
  0
LINE
  5
1C4C
330
1B01
100
AcDbEntity
  8
0
 62
     0
100
AcDbLine
 10
31.64173582310542
 20
23.47156911806349
 30
0.0
 11
35.73404351541325
 21
27.56387681037131
 31
0.0
  0
LINE
  5
1C4D
330
1B01
100
AcDbEntity
  8
0
 62
     0
100
AcDbLine
 10
21.56929870687458
 20
13.39913200183258
 30
0.0
 11
24.22775298786451
 21
16.05758628282257
 31
0.0
  0
LINE
  5
1C4E
330
1B01
100
AcDbEntity
  8
0
 62
     0
100
AcDbLine
 10
27.55047808566087
 20
20.27833699272588
 30
0.0
 11
30.3684686563692
 21
23.09632756343416
 31
0.0
  0
LINE
  5
1C4F
330
1B01
100
AcDbEntity
  8
0
 62
     0
100
AcDbLine
 10
32.05620918253937
 20
24.78406808960432
 30
0.0
 11
36.10911496721457
 21
28.83697387427958
 31
0.0
  0
LINE
  5
1C50
330
1B01
100
AcDbEntity
  8
0
 62
     0
100
AcDbLine
 10
20.90816445004816
 20
13.63602335711317
 30
0.0
 11
23.32972737575762
 21
16.05758628282257
 31
0.0
  0
LINE
  5
1C51
330
1B01
100
AcDbEntity
  8
0
 62
     0
100
AcDbLine
 10
27.55047808566093
 20
21.17636260483272
 30
0.0
 11
30.35047808566094
 21
23.97636260483279
 31
0.0
  0
LINE
  5
1C52
330
1B01
100
AcDbEntity
  8
0
 62
     0
100
AcDbLine
 10
32.4706825419733
 20
26.09656706114515
 30
0.0
 11
35.71510309464537
 21
29.34098761381722
 31
0.0
  0
LINE
  5
1C53
330
1B01
100
AcDbEntity
  8
0
 62
     0
100
AcDbLine
 10
20.33056116588387
 20
13.95644568505565
 30
0.0
 11
22.44662302437672
 21
16.07250754354857
 31
0.0
  0
LINE
  5
1C54
330
1B01
100
AcDbEntity
  8
0
 62
     0
100
AcDbLine
 10
27.55047808566087
 20
22.07438821693967
 30
0.0
 11
30.35047808566094
 21
24.87438821693974
 31
0.0
  0
LINE
  5
1C55
330
1B01
100
AcDbEntity
  8
0
 62
     0
100
AcDbLine
 10
32.88515590140725
 20
27.40906603268598
 30
0.0
 11
34.83367615154378
 21
29.35758628282258
 31
0.0
  0
LINE
  5
1C56
330
1B01
100
AcDbEntity
  8
0
 62
     0
100
AcDbLine
 10
19.8256061995018
 20
14.34951633078054
 30
0.0
 11
21.81230688335842
 21
16.33621701463716
 31
0.0
  0
LINE
  5
1C57
330
1B01
100
AcDbEntity
  8
0
 62
     0
100
AcDbLine
 10
27.55047808566087
 20
22.97241382904656
 30
0.0
 11
30.35047808566094
 21
25.77241382904663
 31
0.0
  0
LINE
  5
1C58
330
1B01
100
AcDbEntity
  8
0
 62
     0
100
AcDbLine
 10
24.21211221743738
 20
19.63404796082312
 30
0.0
 11
25.37401640766046
 21
20.79595215104621
 31
0.0
  0
LINE
  5
1C59
330
1B01
100
AcDbEntity
  8
0
 62
     0
100
AcDbLine
 10
33.29962926084113
 20
28.72156500422688
 30
0.0
 11
33.93565053943684
 21
29.35758628282258
 31
0.0
  0
LINE
  5
1C5A
330
1B01
100
AcDbEntity
  8
0
 62
     0
100
AcDbLine
 10
19.38916912617196
 20
14.81110486955771
 30
0.0
 11
21.40205593208623
 21
16.82399167547197
 31
0.0
  0
LINE
  5
1C5B
330
1B01
100
AcDbEntity
  8
0
 62
     0
100
AcDbLine
 10
23.28713937580756
 20
19.60710073130025
 30
0.0
 11
25.40096363718334
 21
21.72092499267598
 31
0.0
  0
LINE
  5
1C5C
330
1B01
100
AcDbEntity
  8
0
 62
     0
100
AcDbLine
 10
27.55047808566093
 20
23.87043944115356
 30
0.0
 11
30.350478085661
 21
26.67043944115363
 31
0.0
  0
LINE
  5
1C5D
330
1B01
100
AcDbEntity
  8
0
 62
     0
100
AcDbLine
 10
19.022149901229
 20
15.34211125672164
 30
0.0
 11
21.25047808566092
 21
17.57043944115361
 31
0.0
  0
LINE
  5
1C5E
330
1B01
100
AcDbEntity
  8
0
 62
     0
100
AcDbLine
 10
22.67299280638736
 20
19.89097977398683
 30
0.0
 11
25.1170845944967
 21
22.33507156209623
 31
0.0
  0
LINE
  5
1C5F
330
1B01
100
AcDbEntity
  8
0
 62
     0
100
AcDbLine
 10
27.55047808566093
 20
24.76846505326046
 30
0.0
 11
30.350478085661
 21
27.56846505326052
 31
0.0
  0
LINE
  5
1C60
330
1B01
100
AcDbEntity
  8
0
 62
     0
100
AcDbLine
 10
18.73083239130426
 20
15.94881935890379
 30
0.0
 11
21.25047808566092
 21
18.46846505326044
 31
0.0
  0
LINE
  5
1C61
330
1B01
100
AcDbEntity
  8
0
 62
     0
100
AcDbLine
 10
22.23503287939764
 20
20.35104545910412
 30
0.0
 11
24.65701890937948
 21
22.7730314890859
 31
0.0
  0
LINE
  5
1C62
330
1B01
100
AcDbEntity
  8
0
 62
     0
100
AcDbLine
 10
27.55047808566093
 20
25.6664906653674
 30
0.0
 11
30.350478085661
 21
28.46649066536742
 31
0.0
  0
LINE
  5
1C63
330
1B01
100
AcDbEntity
  8
0
 62
     0
100
AcDbLine
 10
18.5296950271296
 20
16.64570760683608
 30
0.0
 11
21.25047808566092
 21
19.36649066536739
 31
0.0
  0
LINE
  5
1C64
330
1B01
100
AcDbEntity
  8
0
 62
     0
100
AcDbLine
 10
21.97898214698927
 20
20.99302033880264
 30
0.0
 11
24.0150440296809
 21
23.02908222149432
 31
0.0
  0
LINE
  5
1C65
330
1B01
100
AcDbEntity
  8
0
 62
     0
100
AcDbLine
 10
18.45047808566085
 20
17.46451627747427
 30
0.0
 11
21.25047808566092
 21
20.26451627747428
 31
0.0
  0
LINE
  5
1C66
330
1B01
100
AcDbEntity
  8
0
 62
     0
100
AcDbLine
 10
27.55047808566093
 20
26.5645162774743
 30
0.0
 11
30.19322797730581
 21
29.20726616911924
 31
0.0
  0
LINE
  5
1C67
330
1B01
100
AcDbEntity
  8
0
 62
     0
100
AcDbLine
 10
14.36448132778525
 20
13.37851951959868
 30
0.0
 11
16.22954484888498
 21
15.24358304069841
 31
0.0
  0
LINE
  5
1C68
330
1B01
100
AcDbEntity
  8
0
 62
     0
100
AcDbLine
 10
22.09739523047006
 20
22.00945903439032
 30
0.0
 11
22.99860533409327
 21
22.91066913801353
 31
0.0
  0
LINE
  5
1C69
330
1B01
100
AcDbEntity
  8
0
 62
     0
100
AcDbLine
 10
18.45047808566085
 20
18.36254188958111
 30
0.0
 11
21.25047808566092
 21
21.16254188958118
 31
0.0
  0
LINE
  5
1C6A
330
1B01
100
AcDbEntity
  8
0
 62
     0
100
AcDbLine
 10
27.55047808566093
 20
27.46254188958119
 30
0.0
 11
29.44552247890232
 21
29.35758628282258
 31
0.0
  0
LINE
  5
1C6B
330
1B01
100
AcDbEntity
  8
0
 62
     0
100
AcDbLine
 10
13.34552247890229
 20
13.25758628282256
 30
0.0
 11
16.35047808566105
 21
16.26254188958126
 31
0.0
  0
LINE
  5
1C6C
330
1B01
100
AcDbEntity
  8
0
 62
     0
100
AcDbLine
 10
18.45047808566085
 20
19.26056750168806
 30
0.0
 11
21.25047808566092
 21
22.06056750168813
 31
0.0
  0
LINE
  5
1C6D
330
1B01
100
AcDbEntity
  8
0
 62
     0
100
AcDbLine
 10
27.55047808566093
 20
28.36056750168808
 30
0.0
 11
28.54749686679543
 21
29.35758628282264
 31
0.0
  0
LINE
  5
1C6E
330
1B01
100
AcDbEntity
  8
0
 62
     0
100
AcDbLine
 10
12.44749686679529
 20
13.2575862828225
 30
0.0
 11
16.35047808566099
 21
17.1605675016882
 31
0.0
  0
LINE
  5
1C6F
330
1B01
100
AcDbEntity
  8
0
 62
     0
100
AcDbLine
 10
18.45047808566085
 20
20.15859311379495
 30
0.0
 11
21.25047808566086
 21
22.95859311379502
 31
0.0
  0
LINE
  5
1C70
330
1B01
100
AcDbEntity
  8
0
 62
     0
100
AcDbLine
 10
11.54947125468845
 20
13.25758628282261
 30
0.0
 11
16.34653873309975
 21
18.05465376123391
 31
0.0
  0
LINE
  5
1C71
330
1B01
100
AcDbEntity
  8
0
 62
     0
100
AcDbLine
 10
18.45047808566085
 20
21.0566187259019
 30
0.0
 11
21.25047808566092
 21
23.85661872590197
 31
0.0
  0
LINE
  5
1C72
330
1B01
100
AcDbEntity
  8
0
 62
     0
100
AcDbLine
 10
23.95144564258163
 20
26.55758628282268
 30
0.0
 11
25.10047808566105
 21
27.7066187259021
 31
0.0
  0
LINE
  5
1C73
330
1B01
100
AcDbEntity
  8
0
 62
     0
100
AcDbLine
 10
10.6514456425815
 20
13.25758628282256
 30
0.0
 11
16.23687689677842
 21
18.84301753701947
 31
0.0
  0
LINE
  5
1C74
330
1B01
100
AcDbEntity
  8
0
 62
     0
100
AcDbLine
 10
18.45047808566085
 20
21.95464433800879
 30
0.0
 11
21.25047808566092
 21
24.7546443380088
 31
0.0
  0
LINE
  5
1C75
330
1B01
100
AcDbEntity
  8
0
 62
     0
100
AcDbLine
 10
13.55047808566093
 20
17.05464433800887
 30
0.0
 11
16.0145381527343
 21
19.51870440508225
 31
0.0
  0
LINE
  5
1C76
330
1B01
100
AcDbEntity
  8
0
 62
     0
100
AcDbLine
 10
23.05342003047463
 20
26.55758628282257
 30
0.0
 11
25.10047808566105
 21
28.60464433800894
 31
0.0
  0
LINE
  5
1C77
330
1B01
100
AcDbEntity
  8
0
 62
     0
100
AcDbLine
 10
9.811145905734576
 20
13.31531215808252
 30
0.0
 11
12.55342003047462
 21
16.05758628282257
 31
0.0
  0
LINE
  5
1C78
330
1B01
100
AcDbEntity
  8
0
 62
     0
100
AcDbLine
 10
18.45047808566079
 20
22.85266995011568
 30
0.0
 11
21.41629279144058
 21
25.81848465589548
 31
0.0
  0
LINE
  5
1C79
330
1B01
100
AcDbEntity
  8
0
 62
     0
100
AcDbLine
 10
13.54831899405167
 20
17.9505108585065
 30
0.0
 11
15.70610661806228
 21
20.10829848251717
 31
0.0
  0
LINE
  5
1C7A
330
1B01
100
AcDbEntity
  8
0
 62
     0
100
AcDbLine
 10
21.98957971258812
 20
26.39177157704302
 30
0.0
 11
24.86701067074114
 21
29.26920253519597
 31
0.0
  0
LINE
  5
1C7B
330
1B01
100
AcDbEntity
  8
0
 62
     0
100
AcDbLine
 10
9.52547808566095
 20
13.92766995011578
 30
0.0
 11
11.65539441836773
 21
16.05758628282257
 31
0.0
  0
LINE
  5
1C7C
330
1B01
100
AcDbEntity
  8
0
 62
     0
100
AcDbLine
 10
13.32871597455096
 20
18.6289334511128
 30
0.0
 11
15.32386465322338
 21
20.62408212978522
 31
0.0
  0
LINE
  5
1C7D
330
1B01
100
AcDbEntity
  8
0
 62
     0
100
AcDbLine
 10
18.45047808566079
 20
23.75069556222263
 30
0.0
 11
24.05736880626085
 21
29.3575862828227
 31
0.0
  0
LINE
  5
1C7E
330
1B01
100
AcDbEntity
  8
0
 62
     0
100
AcDbLine
 10
9.525478085660893
 20
14.82569556222273
 30
0.0
 11
10.75736880626078
 21
16.05758628282262
 31
0.0
  0
LINE
  5
1C7F
330
1B01
100
AcDbEntity
  8
0
 62
     0
100
AcDbLine
 10
12.90246114624625
 20
19.10070423491493
 30
0.0
 11
14.88236013356862
 21
21.0806032222373
 31
0.0
  0
LINE
  5
1C80
330
1B01
100
AcDbEntity
  8
0
 62
     0
100
AcDbLine
 10
18.45047808566085
 20
24.64872117432947
 30
0.0
 11
23.15934319415379
 21
29.35758628282247
 31
0.0
  0
LINE
  5
1C81
330
1B01
100
AcDbEntity
  8
0
 62
     0
100
AcDbLine
 10
9.594430007680671
 20
15.79267309634935
 30
0.0
 11
9.790391272134286
 21
15.98863436080296
 31
0.0
  0
LINE
  5
1C82
330
1B01
100
AcDbEntity
  8
0
 62
     0
100
AcDbLine
 10
18.47045319981743
 20
25.566721900593
 30
0.0
 11
22.24134246789043
 21
29.33761116866606
 31
0.0
  0
LINE
  5
1C83
330
1B01
100
AcDbEntity
  8
0
 62
     0
100
AcDbLine
 10
12.45344834019278
 20
19.5497170409684
 30
0.0
 11
14.43334732751515
 21
21.52961602829078
 31
0.0
  0
LINE
  5
1C84
330
1B01
100
AcDbEntity
  8
0
 62
     0
100
AcDbLine
 10
18.76991663208321
 20
26.76421094496578
 30
0.0
 11
21.0438534235177
 21
29.03814773640028
 31
0.0
  0
LINE
  5
1C85
330
1B01
100
AcDbEntity
  8
0
 62
     0
100
AcDbLine
 10
12.0044355341393
 20
19.99872984702188
 30
0.0
 11
13.98433452146167
 21
21.97862883434425
 31
0.0
  0
LINE
  5
1C86
330
1B01
100
AcDbEntity
  8
0
 62
     0
100
AcDbLine
 10
11.55542272808588
 20
20.4477426530753
 30
0.0
 11
13.5353217154082
 21
22.42764164039755
 31
0.0
  0
LINE
  5
1C87
330
1B01
100
AcDbEntity
  8
0
 62
     0
100
AcDbLine
 10
11.10640992203241
 20
20.89675545912877
 30
0.0
 11
13.08630890935473
 21
22.87665444645103
 31
0.0
  0
LINE
  5
1C88
330
1B01
100
AcDbEntity
  8
0
 62
     0
100
AcDbLine
 10
10.65739711597894
 20
21.34576826518225
 30
0.0
 11
12.63729610330125
 21
23.3256672525045
 31
0.0
  0
LINE
  5
1C89
330
1B01
100
AcDbEntity
  8
0
 62
     0
100
AcDbLine
 10
14.97118952151237
 20
26.55758628282257
 30
0.0
 11
15.82547808566085
 21
27.4118748469711
 31
0.0
  0
LINE
  5
1C8A
330
1B01
100
AcDbEntity
  8
0
 62
     0
100
AcDbLine
 10
10.20846762395359
 20
21.79486438526385
 30
0.0
 11
12.18853326738605
 21
23.77493002869631
 31
0.0
  0
LINE
  5
1C8B
330
1B01
100
AcDbEntity
  8
0
 62
     0
100
AcDbLine
 10
14.07316390940548
 20
26.55758628282257
 30
0.0
 11
15.8254780856609
 21
28.309900459078
 31
0.0
  0
LINE
  5
1C8C
330
1B01
100
AcDbEntity
  8
0
 62
     0
100
AcDbLine
 10
9.796999699402022
 20
22.28142207281905
 30
0.0
 11
11.85863638609811
 21
24.3430587595152
 31
0.0
  0
LINE
  5
1C8D
330
1B01
100
AcDbEntity
  8
0
 62
     0
100
AcDbLine
 10
13.17513829729853
 20
26.55758628282257
 30
0.0
 11
15.73891918589976
 21
29.1213671714238
 31
0.0
  0
LINE
  5
1C8E
330
1B01
100
AcDbEntity
  8
0
 62
     0
100
AcDbLine
 10
9.456539093139554
 20
22.83898707866354
 30
0.0
 11
11.80047808566098
 21
25.18292607118497
 31
0.0
  0
LINE
  5
1C8F
330
1B01
100
AcDbEntity
  8
0
 62
     0
100
AcDbLine
 10
12.27464603602152
 20
26.55511963365245
 30
0.0
 11
15.07711268519171
 21
29.35758628282264
 31
0.0
  0
LINE
  5
1C90
330
1B01
100
AcDbEntity
  8
0
 62
     0
100
AcDbLine
 10
9.195845797407457
 20
23.47631939503839
 30
0.0
 11
11.80294473483104
 21
26.08341833246203
 31
0.0
  0
LINE
  5
1C91
330
1B01
100
AcDbEntity
  8
0
 62
     0
100
AcDbLine
 10
9.034033835159391
 20
24.21253304489721
 30
0.0
 11
14.17908707308481
 21
29.35758628282264
 31
0.0
  0
LINE
  5
1C92
330
1B01
100
AcDbEntity
  8
0
 62
     0
100
AcDbLine
 10
9.000478085660972
 20
25.07700290750574
 30
0.0
 11
13.28106146097781
 21
29.35758628282258
 31
0.0
  0
LINE
  5
1C93
330
1B01
100
AcDbEntity
  8
0
 62
     0
100
AcDbLine
 10
9.000478085660972
 20
25.97502851961264
 30
0.0
 11
12.38303584887086
 21
29.35758628282258
 31
0.0
  0
LINE
  5
1C94
330
1B01
100
AcDbEntity
  8
0
 62
     0
100
AcDbLine
 10
9.020670096099195
 20
26.89324614215781
 30
0.0
 11
11.4648182263258
 21
29.33739427238442
 31
0.0
  0
ENDBLK
  5
1C96
330
1B01
100
AcDbEntity
  8
0
100
AcDbBlockEnd
  0
BLOCK
  5
2D95
330
2D8E
100
AcDbEntity
  8
0
100
AcDbBlockBegin
  2
*X2
 70
     1
 10
0.0
 20
0.0
 30
0.0
  3
*X2
  1

  0
LINE
  5
2D8F
330
2D8E
100
AcDbEntity
  8
0
 62
     0
100
AcDbLine
 10
164.0452579782403
 20
115.1422276104085
 30
0.0
 11
164.0452579782403
 21
116.1662477786437
 31
0.0
  0
LINE
  5
2D90
330
2D8E
100
AcDbEntity
  8
0
 62
     0
100
AcDbLine
 10
163.5452579782403
 20
114.4617343877196
 30
0.0
 11
163.5452579782403
 21
116.8467410013326
 31
0.0
  0
LINE
  5
2D91
330
2D8E
100
AcDbEntity
  8
0
 62
     0
100
AcDbLine
 10
163.0452579782403
 20
114.2113330035466
 30
0.0
 11
163.0452579782403
 21
117.0971423855056
 31
0.0
  0
LINE
  5
2D92
330
2D8E
100
AcDbEntity
  8
0
 62
     0
100
AcDbLine
 10
162.5452579782403
 20
114.1569455527726
 30
0.0
 11
162.5452579782403
 21
117.1515298362797
 31
0.0
  0
LINE
  5
2D93
330
2D8E
100
AcDbEntity
  8
0
 62
     0
100
AcDbLine
 10
162.0452579782403
 20
114.2751823771935
 30
0.0
 11
162.0452579782403
 21
117.0332930118587
 31
0.0
  0
LINE
  5
2D94
330
2D8E
100
AcDbEntity
  8
0
 62
     0
100
AcDbLine
 10
161.5452579782403
 20
114.6238477786353
 30
0.0
 11
161.5452579782403
 21
116.684627610417
 31
0.0
  0
ENDBLK
  5
2D96
330
2D8E
100
AcDbEntity
  8
0
100
AcDbBlockEnd
  0
BLOCK
  5
2E22
330
2E13
100
AcDbEntity
  8
0
100
AcDbBlockBegin
  2
*X3
 70
     1
 10
0.0
 20
0.0
 30
0.0
  3
*X3
  1

  0
LINE
  5
2E14
330
2E13
100
AcDbEntity
  8
0
 62
     0
100
AcDbLine
 10
130.3665599137498
 20
106.0666092063067
 30
0.0
 11
125.3665599137498
 21
111.0666092063067
 31
0.0
  0
LINE
  5
2E15
330
2E13
100
AcDbEntity
  8
0
 62
     0
100
AcDbLine
 10
123.2954921018843
 20
106.0666092063067
 30
0.0
 11
118.2954921018843
 21
111.0666092063067
 31
0.0
  0
LINE
  5
2E16
330
2E13
100
AcDbEntity
  8
0
 62
     0
100
AcDbLine
 10
116.2244242900189
 20
106.0666092063067
 30
0.0
 11
111.2244242900189
 21
111.0666092063067
 31
0.0
  0
LINE
  5
2E17
330
2E13
100
AcDbEntity
  8
0
 62
     0
100
AcDbLine
 10
90.90166528783091
 20
124.3183003966291
 30
0.0
 11
90.15335647815339
 21
125.0666092063067
 31
0.0
  0
LINE
  5
2E18
330
2E13
100
AcDbEntity
  8
0
 62
     0
100
AcDbLine
 10
109.1533564781534
 20
106.0666092063067
 30
0.0
 11
104.1533564781534
 21
111.0666092063067
 31
0.0
  0
LINE
  5
2E19
330
2E13
100
AcDbEntity
  8
0
 62
     0
100
AcDbLine
 10
90.90166528783093
 20
117.2472325847637
 30
0.0
 11
85.40166528783087
 21
122.7472325847637
 31
0.0
  0
LINE
  5
2E1A
330
2E13
100
AcDbEntity
  8
0
 62
     0
100
AcDbLine
 10
102.0822886662879
 20
106.0666092063067
 30
0.0
 11
97.08228866628795
 21
111.0666092063066
 31
0.0
  0
LINE
  5
2E1B
330
2E13
100
AcDbEntity
  8
0
 62
     0
100
AcDbLine
 10
95.01122085442245
 20
106.0666092063067
 30
0.0
 11
85.40166528783084
 21
115.6761647728983
 31
0.0
  0
LINE
  5
2E1C
330
2E13
100
AcDbEntity
  8
0
 62
     0
100
AcDbLine
 10
87.94015304255699
 20
106.0666092063067
 30
0.0
 11
82.94015304255696
 21
111.0666092063067
 31
0.0
  0
LINE
  5
2E1D
330
2E13
100
AcDbEntity
  8
0
 62
     0
100
AcDbLine
 10
85.40147914531299
 20
101.5342152916852
 30
0.0
 11
75.86908523069148
 21
111.0666092063067
 31
0.0
  0
LINE
  5
2E1E
330
2E13
100
AcDbEntity
  8
0
 62
     0
100
AcDbLine
 10
73.79801741879866
 20
106.066609206334
 30
0.0
 11
69.00000616154899
 21
110.8646204635837
 31
0.0
  0
LINE
  5
2E1F
330
2E13
100
AcDbEntity
  8
0
 62
     0
100
AcDbLine
 10
85.40147063010634
 20
94.46315599502637
 30
0.0
 11
78.6514273003977
 21
101.213199324735
 31
0.0
  0
LINE
  5
2E20
330
2E13
100
AcDbEntity
  8
0
 62
     0
100
AcDbLine
 10
85.40146211489966
 20
87.39209669836759
 30
0.0
 11
79.90146873817207
 21
92.89209007509517
 31
0.0
  0
LINE
  5
2E21
330
2E13
100
AcDbEntity
  8
0
 62
     0
100
AcDbLine
 10
84.65588179509506
 20
81.0666092063067
 30
0.0
 11
79.90146022296539
 21
85.82103077843637
 31
0.0
  0
ENDBLK
  5
2E23
330
2E13
100
AcDbEntity
  8
0
100
AcDbBlockEnd
  0
BLOCK
  5
2E2F
330
2E24
100
AcDbEntity
  8
0
100
AcDbBlockBegin
  2
*X4
 70
     1
 10
0.0
 20
0.0
 30
0.0
  3
*X4
  1

  0
LINE
  5
2E25
330
2E24
100
AcDbEntity
  8
0
 62
     0
100
AcDbLine
 10
77.10140171529158
 20
49.06660653356497
 30
0.0
 11
79.4014508848326
 21
51.36665570310597
 31
0.0
  0
LINE
  5
2E26
330
2E24
100
AcDbEntity
  8
0
 62
     0
100
AcDbLine
 10
74.40142122586355
 20
53.43769385600242
 30
0.0
 11
79.40145088483259
 21
58.43772351497143
 31
0.0
  0
LINE
  5
2E27
330
2E24
100
AcDbEntity
  8
0
 62
     0
100
AcDbLine
 10
74.40142974109075
 20
60.50877018309508
 30
0.0
 11
79.40145088483259
 21
65.50879132683691
 31
0.0
  0
LINE
  5
2E28
330
2E24
100
AcDbEntity
  8
0
 62
     0
100
AcDbLine
 10
74.40143825631793
 20
67.57984651018773
 30
0.0
 11
79.40145088483255
 21
72.57985913870237
 31
0.0
  0
LINE
  5
2E29
330
2E24
100
AcDbEntity
  8
0
 62
     0
100
AcDbLine
 10
74.40144677154511
 20
74.65092283728039
 30
0.0
 11
81.40145520119281
 21
81.65093126692811
 31
0.0
  0
LINE
  5
2E2A
330
2E24
100
AcDbEntity
  8
0
 62
     0
100
AcDbLine
 10
74.40145528677229
 20
81.72199916437305
 30
0.0
 11
81.40146371642002
 21
88.72200759402076
 31
0.0
  0
LINE
  5
2E2B
330
2E24
100
AcDbEntity
  8
0
 62
     0
100
AcDbLine
 10
74.40146380199948
 20
88.79307549146572
 30
0.0
 11
81.17499751684041
 21
95.56660920630665
 31
0.0
  0
LINE
  5
2E2C
330
2E24
100
AcDbEntity
  8
0
 62
     0
100
AcDbLine
 10
74.40147231722666
 20
95.86415181855837
 30
0.0
 11
78.4014846033712
 21
99.8641641047029
 31
0.0
  0
LINE
  5
2E2D
330
2E24
100
AcDbEntity
  8
0
 62
     0
100
AcDbLine
 10
71.5328618931095
 20
100.0666092063067
 30
0.0
 11
76.40148460337122
 21
104.9352319165684
 31
0.0
  0
LINE
  5
2E2E
330
2E24
100
AcDbEntity
  8
0
 62
     0
100
AcDbLine
 10
68.90148272438489
 20
104.5062978494475
 30
0.0
 11
70.46179408124404
 21
106.0666092063067
 31
0.0
  0
ENDBLK
  5
2E30
330
2E24
100
AcDbEntity
  8
0
100
AcDbBlockEnd
  0
BLOCK
  5
2FC0
330
2FB6
100
AcDbEntity
  8
0
100
AcDbBlockBegin
  2
*D5
 70
     1
 10
0.0
 20
0.0
 30
0.0
  3
*D5
  1

  0
LINE
  5
36DF
330
2FB6
100
AcDbEntity
  8
SUNPOU
440
 16777216
100
AcDbLine
 10
191.0775112658535
 20
105.4864460657508
 30
0.0
 11
225.4379604400675
 21
105.4864460657507
 31
0.0
  0
LINE
  5
36E0
330
2FB6
100
AcDbEntity
  8
SUNPOU
440
 16777216
100
AcDbLine
 10
185.0774426243735
 20
48.48630878312872
 30
0.0
 11
225.4379604400675
 21
48.48630878312871
 31
0.0
  0
LINE
  5
36E1
330
2FB6
100
AcDbEntity
  8
SUNPOU
440
 16777216
100
AcDbLine
 10
223.9379604400675
 20
102.4864460657508
 30
0.0
 11
223.9379604400675
 21
51.48630878312872
 31
0.0
  0
INSERT
  5
36E2
330
2FB6
100
AcDbEntity
  8
SUNPOU
440
 16777216
100
AcDbBlockReference
  2
_OPEN
 10
223.9379604400675
 20
105.4864460657508
 30
0.0
 41
3.0
 42
3.0
 43
3.0
 50
90.0
  0
INSERT
  5
36E3
330
2FB6
100
AcDbEntity
  8
SUNPOU
440
 16777216
100
AcDbBlockReference
  2
_OPEN
 10
223.9379604400675
 20
48.48630878312871
 30
0.0
 41
3.0
 42
3.0
 43
3.0
 50
270.0
  0
MTEXT
  5
36E4
330
2FB6
100
AcDbEntity
  8
SUNPOU
440
 16777216
100
AcDbMText
 10
219.9379604400675
 20
76.98637742443978
 30
0.0
 40
4.0
 41
0.0
 46
0.0
 71
     5
 72
     5
  1
\A1;57
 11
0.0000000000000001
 21
1.0
 31
0.0
 73
     1
 44
1.0
  0
POINT
  5
36E5
330
2FB6
100
AcDbEntity
  8
DEFPOINTS
 62
     0
440
 16777216
100
AcDbPoint
 10
189.5775112658535
 20
105.4864460657508
 30
0.0
  0
POINT
  5
36E6
330
2FB6
100
AcDbEntity
  8
DEFPOINTS
 62
     0
440
 16777216
100
AcDbPoint
 10
183.5774426243735
 20
48.48630878312872
 30
0.0
  0
POINT
  5
36E7
330
2FB6
100
AcDbEntity
  8
DEFPOINTS
 62
     0
440
 16777216
100
AcDbPoint
 10
223.9379604400675
 20
48.48630878312871
 30
0.0
  0
ENDBLK
  5
2FC1
330
2FB6
100
AcDbEntity
  8
0
100
AcDbBlockEnd
  0
BLOCK
  5
2FCC
330
2FC2
100
AcDbEntity
  8
0
100
AcDbBlockBegin
  2
*D6
 70
     1
 10
0.0
 20
0.0
 30
0.0
  3
*D6
  1

  0
LINE
  5
36D6
330
2FC2
100
AcDbEntity
  8
SUNPOU
440
 16777216
100
AcDbLine
 10
191.0775112658535
 20
105.4864460657508
 30
0.0
 11
225.4379604400675
 21
105.4864460657507
 31
0.0
  0
LINE
  5
36D7
330
2FC2
100
AcDbEntity
  8
SUNPOU
440
 16777216
100
AcDbLine
 10
174.077376342129
 20
124.4863364808796
 30
0.0
 11
225.4379604400675
 21
124.4863364808796
 31
0.0
  0
LINE
  5
36D8
330
2FC2
100
AcDbEntity
  8
SUNPOU
440
 16777216
100
AcDbLine
 10
223.9379604400675
 20
108.4864460657508
 30
0.0
 11
223.9379604400675
 21
121.4863364808796
 31
0.0
  0
INSERT
  5
36D9
330
2FC2
100
AcDbEntity
  8
SUNPOU
440
 16777216
100
AcDbBlockReference
  2
_OPEN
 10
223.9379604400675
 20
105.4864460657508
 30
0.0
 41
3.0
 42
3.0
 43
3.0
 50
270.0
  0
INSERT
  5
36DA
330
2FC2
100
AcDbEntity
  8
SUNPOU
440
 16777216
100
AcDbBlockReference
  2
_OPEN
 10
223.9379604400675
 20
124.4863364808796
 30
0.0
 41
3.0
 42
3.0
 43
3.0
 50
90.0
  0
MTEXT
  5
36DB
330
2FC2
100
AcDbEntity
  8
SUNPOU
440
 16777216
100
AcDbMText
 10
219.9379604400675
 20
114.9863912733152
 30
0.0
 40
4.0
 41
0.0
 46
0.0
 71
     5
 72
     5
  1
\A1;19
 11
0.0000000000000001
 21
1.0
 31
0.0
 73
     1
 44
1.0
  0
POINT
  5
36DC
330
2FC2
100
AcDbEntity
  8
DEFPOINTS
 62
     0
440
 16777216
100
AcDbPoint
 10
189.5775112658535
 20
105.4864460657508
 30
0.0
  0
POINT
  5
36DD
330
2FC2
100
AcDbEntity
  8
DEFPOINTS
 62
     0
440
 16777216
100
AcDbPoint
 10
172.577376342129
 20
124.4863364808796
 30
0.0
  0
POINT
  5
36DE
330
2FC2
100
AcDbEntity
  8
DEFPOINTS
 62
     0
440
 16777216
100
AcDbPoint
 10
223.9379604400675
 20
124.4863364808796
 30
0.0
  0
ENDBLK
  5
2FCD
330
2FC2
100
AcDbEntity
  8
0
100
AcDbBlockEnd
  0
BLOCK
  5
2FE4
330
2FDA
100
AcDbEntity
  8
0
100
AcDbBlockBegin
  2
*D7
 70
     1
 10
0.0
 20
0.0
 30
0.0
  3
*D7
  1

  0
LINE
  5
361A
330
2FDA
100
AcDbEntity
  8
SUNPOU
440
 16777216
100
AcDbLine
 10
128.5776919502345
 20
259.136703816329
 30
0.0
 11
229.2138044561629
 21
259.136703816329
 31
0.0
  0
LINE
  5
361B
330
2FDA
100
AcDbEntity
  8
SUNPOU
440
 16777216
100
AcDbLine
 10
128.5776498999296
 20
167.1367038163482
 30
0.0
 11
229.2138044561629
 21
167.1367038163481
 31
0.0
  0
LINE
  5
361C
330
2FDA
100
AcDbEntity
  8
SUNPOU
440
 16777216
100
AcDbLine
 10
227.7138044561629
 20
256.136703816329
 30
0.0
 11
227.7138044561628
 21
170.1367038163481
 31
0.0
  0
INSERT
  5
361D
330
2FDA
100
AcDbEntity
  8
SUNPOU
440
 16777216
100
AcDbBlockReference
  2
_OPEN
 10
227.7138044561629
 20
259.136703816329
 30
0.0
 41
3.0
 42
3.0
 43
3.0
 50
90.0
  0
INSERT
  5
361E
330
2FDA
100
AcDbEntity
  8
SUNPOU
440
 16777216
100
AcDbBlockReference
  2
_OPEN
 10
227.7138044561628
 20
167.1367038163481
 30
0.0
 41
3.0
 42
3.0
 43
3.0
 50
270.0
  0
MTEXT
  5
361F
330
2FDA
100
AcDbEntity
  8
SUNPOU
440
 16777216
100
AcDbMText
 10
223.7138044561628
 20
213.1367038163386
 30
0.0
 40
4.0
 41
0.0
 46
0.0
 71
     5
 72
     5
  1
\A1;92
 11
0.0000000000000001
 21
1.0
 31
0.0
 73
     1
 44
1.0
  0
POINT
  5
3620
330
2FDA
100
AcDbEntity
  8
DEFPOINTS
 62
     0
440
 16777216
100
AcDbPoint
 10
127.0776919502345
 20
259.136703816329
 30
0.0
  0
POINT
  5
3621
330
2FDA
100
AcDbEntity
  8
DEFPOINTS
 62
     0
440
 16777216
100
AcDbPoint
 10
127.0776498999296
 20
167.1367038163482
 30
0.0
  0
POINT
  5
3622
330
2FDA
100
AcDbEntity
  8
DEFPOINTS
 62
     0
440
 16777216
100
AcDbPoint
 10
227.7138044561628
 20
167.1367038163481
 30
0.0
  0
ENDBLK
  5
2FE5
330
2FDA
100
AcDbEntity
  8
0
100
AcDbBlockEnd
  0
BLOCK
  5
3008
330
2FFE
100
AcDbEntity
  8
0
100
AcDbBlockBegin
  2
*D8
 70
     1
 10
0.0
 20
0.0
 30
0.0
  3
*D8
  1

  0
LINE
  5
3664
330
2FFE
100
AcDbEntity
  8
SUNPOU
440
 16777216
100
AcDbLine
 10
70.07744322657726
 20
47.48644606575041
 30
0.0
 11
70.07744322657726
 21
28.61096188424415
 31
0.0
  0
LINE
  5
3665
330
2FFE
100
AcDbEntity
  8
SUNPOU
440
 16777216
100
AcDbLine
 10
184.0774432264902
 20
47.48630878312835
 30
0.0
 11
184.0774432264902
 21
28.61096188424415
 31
0.0
  0
LINE
  5
3666
330
2FFE
100
AcDbEntity
  8
SUNPOU
440
 16777216
100
AcDbLine
 10
73.07744322657725
 20
30.11096188424415
 30
0.0
 11
181.0774432264902
 21
30.11096188424415
 31
0.0
  0
INSERT
  5
3667
330
2FFE
100
AcDbEntity
  8
SUNPOU
440
 16777216
100
AcDbBlockReference
  2
_OPEN
 10
70.07744322657726
 20
30.11096188424415
 30
0.0
 41
3.0
 42
3.0
 43
3.0
 50
180.0
  0
INSERT
  5
3668
330
2FFE
100
AcDbEntity
  8
SUNPOU
440
 16777216
100
AcDbBlockReference
  2
_OPEN
 10
184.0774432264902
 20
30.11096188424415
 30
0.0
 41
3.0
 42
3.0
 43
3.0
  0
MTEXT
  5
3669
330
2FFE
100
AcDbEntity
  8
SUNPOU
440
 16777216
100
AcDbMText
 10
127.0774432265337
 20
34.11096188424415
 30
0.0
 40
4.0
 41
0.0
 46
0.0
 71
     5
 72
     5
  1
\A1;φ114
 73
     1
 44
1.0
  0
POINT
  5
366A
330
2FFE
100
AcDbEntity
  8
DEFPOINTS
 62
     0
440
 16777216
100
AcDbPoint
 10
70.07744322657726
 20
48.98644606575041
 30
0.0
  0
POINT
  5
366B
330
2FFE
100
AcDbEntity
  8
DEFPOINTS
 62
     0
440
 16777216
100
AcDbPoint
 10
184.0774432264902
 20
48.98630878312835
 30
0.0
  0
POINT
  5
366C
330
2FFE
100
AcDbEntity
  8
DEFPOINTS
 62
     0
440
 16777216
100
AcDbPoint
 10
184.0774432264902
 20
30.11096188424415
 30
0.0
  0
ENDBLK
  5
3009
330
2FFE
100
AcDbEntity
  8
0
100
AcDbBlockEnd
  0
BLOCK
  5
3014
330
300A
100
AcDbEntity
  8
0
100
AcDbBlockBegin
  2
*D9
 70
     1
 10
0.0
 20
0.0
 30
0.0
  3
*D9
  1

  0
LINE
  5
365B
330
300A
100
AcDbEntity
  8
SUNPOU
440
 16777216
100
AcDbLine
 10
75.07747754723618
 20
46.98644059870128
 30
0.0
 11
75.07747754723618
 21
37.57085097086383
 31
0.0
  0
LINE
  5
365C
330
300A
100
AcDbEntity
  8
SUNPOU
440
 16777216
100
AcDbLine
 10
179.0774077015963
 20
46.98631425017821
 30
0.0
 11
179.0774077015963
 21
37.57085097086383
 31
0.0
  0
LINE
  5
365D
330
300A
100
AcDbEntity
  8
SUNPOU
440
 16777216
100
AcDbLine
 10
78.07747754723618
 20
39.07085097086383
 30
0.0
 11
176.0774077015963
 21
39.07085097086383
 31
0.0
  0
INSERT
  5
365E
330
300A
100
AcDbEntity
  8
SUNPOU
440
 16777216
100
AcDbBlockReference
  2
_OPEN
 10
75.07747754723618
 20
39.07085097086383
 30
0.0
 41
3.0
 42
3.0
 43
3.0
 50
180.0
  0
INSERT
  5
365F
330
300A
100
AcDbEntity
  8
SUNPOU
440
 16777216
100
AcDbBlockReference
  2
_OPEN
 10
179.0774077015963
 20
39.07085097086383
 30
0.0
 41
3.0
 42
3.0
 43
3.0
  0
MTEXT
  5
3660
330
300A
100
AcDbEntity
  8
SUNPOU
440
 16777216
100
AcDbMText
 10
127.0774426244162
 20
43.07085097086383
 30
0.0
 40
4.0
 41
0.0
 46
0.0
 71
     5
 72
     5
  1
\A1;φ104
 73
     1
 44
1.0
  0
POINT
  5
3661
330
300A
100
AcDbEntity
  8
DEFPOINTS
 62
     0
440
 16777216
100
AcDbPoint
 10
75.07747754723618
 20
48.48644059870128
 30
0.0
  0
POINT
  5
3662
330
300A
100
AcDbEntity
  8
DEFPOINTS
 62
     0
440
 16777216
100
AcDbPoint
 10
179.0774077015963
 20
48.48631425017821
 30
0.0
  0
POINT
  5
3663
330
300A
100
AcDbEntity
  8
DEFPOINTS
 62
     0
440
 16777216
100
AcDbPoint
 10
179.0774077015963
 20
39.07085097086383
 30
0.0
  0
ENDBLK
  5
3015
330
300A
100
AcDbEntity
  8
0
100
AcDbBlockEnd
  0
BLOCK
  5
3022
330
3016
100
AcDbEntity
  8
0
100
AcDbBlockBegin
  2
*D10
 70
     1
 10
0.0
 20
0.0
 30
0.0
  3
*D10
  1

  0
LINE
  5
362C
330
3016
100
AcDbEntity
  8
SUNPOU
440
 16777216
100
AcDbLine
 10
191.0775112658535
 20
105.4864460657508
 30
0.0
 11
214.6801403012325
 21
105.4864460657508
 31
0.0
  0
LINE
  5
362D
330
3016
100
AcDbEntity
  8
SUNPOU
440
 16777216
100
AcDbLine
 10
190.5775178889577
 20
110.4862967407923
 30
0.0
 11
214.6801403012325
 21
110.4862967407923
 31
0.0
  0
LINE
  5
362E
330
3016
100
AcDbEntity
  8
SUNPOU
440
 16777216
100
AcDbLine
 10
213.1801403012325
 20
102.4864460657508
 30
0.0
 11
213.1801403012325
 21
99.48644606575079
 31
0.0
  0
LINE
  5
362F
330
3016
100
AcDbEntity
  8
SUNPOU
440
 16777216
100
AcDbLine
 10
213.1801403012325
 20
113.4862967407923
 30
0.0
 11
213.1801403012325
 21
123.152963407459
 31
0.0
  0
INSERT
  5
3630
330
3016
100
AcDbEntity
  8
SUNPOU
440
 16777216
100
AcDbBlockReference
  2
_OPEN
 10
213.1801403012325
 20
105.4864460657508
 30
0.0
 41
3.0
 42
3.0
 43
3.0
 50
90.0
  0
INSERT
  5
3631
330
3016
100
AcDbEntity
  8
SUNPOU
440
 16777216
100
AcDbBlockReference
  2
_OPEN
 10
213.1801403012325
 20
110.4862967407923
 30
0.0
 41
3.0
 42
3.0
 43
3.0
 50
270.0
  0
MTEXT
  5
3632
330
3016
100
AcDbEntity
  8
SUNPOU
440
 16777216
100
AcDbMText
 10
209.1801403012324
 20
119.8196300741257
 30
0.0
 40
4.0
 41
0.0
 46
0.0
 71
     5
 72
     5
  1
\A1;5
 11
0.0000000000000001
 21
1.0
 31
0.0
 73
     1
 44
1.0
  0
POINT
  5
3633
330
3016
100
AcDbEntity
  8
DEFPOINTS
 62
     0
440
 16777216
100
AcDbPoint
 10
189.5775112658535
 20
105.4864460657508
 30
0.0
  0
POINT
  5
3634
330
3016
100
AcDbEntity
  8
DEFPOINTS
 62
     0
440
 16777216
100
AcDbPoint
 10
189.0775178889576
 20
110.4862967407923
 30
0.0
  0
POINT
  5
3635
330
3016
100
AcDbEntity
  8
DEFPOINTS
 62
     0
440
 16777216
100
AcDbPoint
 10
213.1801403012325
 20
110.4862967407923
 30
0.0
  0
ENDBLK
  5
3023
330
3016
100
AcDbEntity
  8
0
100
AcDbBlockEnd
  0
BLOCK
  5
3030
330
3024
100
AcDbEntity
  8
0
100
AcDbBlockBegin
  2
*D11
 70
     1
 10
0.0
 20
0.0
 30
0.0
  3
*D11
  1

  0
LINE
  5
3636
330
3024
100
AcDbEntity
  8
SUNPOU
440
 16777216
100
AcDbLine
 10
191.0775112658535
 20
105.4864460657508
 30
0.0
 11
214.6801403012325
 21
105.4864460657508
 31
0.0
  0
LINE
  5
3637
330
3024
100
AcDbEntity
  8
SUNPOU
440
 16777216
100
AcDbLine
 10
190.577504642389
 20
99.48629674079377
 30
0.0
 11
214.6801403012325
 21
99.48629674079377
 31
0.0
  0
LINE
  5
3638
330
3024
100
AcDbEntity
  8
SUNPOU
440
 16777216
100
AcDbLine
 10
213.1801403012325
 20
108.4864460657508
 30
0.0
 11
213.1801403012325
 21
111.4864460657507
 31
0.0
  0
LINE
  5
3639
330
3024
100
AcDbEntity
  8
SUNPOU
440
 16777216
100
AcDbLine
 10
213.1801403012325
 20
96.48629674079376
 30
0.0
 11
213.1801403012325
 21
86.8196300741271
 31
0.0
  0
INSERT
  5
363A
330
3024
100
AcDbEntity
  8
SUNPOU
440
 16777216
100
AcDbBlockReference
  2
_OPEN
 10
213.1801403012325
 20
105.4864460657508
 30
0.0
 41
3.0
 42
3.0
 43
3.0
 50
270.0
  0
INSERT
  5
363B
330
3024
100
AcDbEntity
  8
SUNPOU
440
 16777216
100
AcDbBlockReference
  2
_OPEN
 10
213.1801403012325
 20
99.48629674079377
 30
0.0
 41
3.0
 42
3.0
 43
3.0
 50
90.0
  0
MTEXT
  5
363C
330
3024
100
AcDbEntity
  8
SUNPOU
440
 16777216
100
AcDbMText
 10
209.1801403012324
 20
90.15296340746045
 30
0.0
 40
4.0
 41
0.0
 46
0.0
 71
     5
 72
     5
  1
\A1;6
 11
0.0000000000000001
 21
1.0
 31
0.0
 73
     1
 44
1.0
  0
POINT
  5
363D
330
3024
100
AcDbEntity
  8
DEFPOINTS
 62
     0
440
 16777216
100
AcDbPoint
 10
189.5775112658535
 20
105.4864460657508
 30
0.0
  0
POINT
  5
363E
330
3024
100
AcDbEntity
  8
DEFPOINTS
 62
     0
440
 16777216
100
AcDbPoint
 10
189.077504642389
 20
99.48629674079377
 30
0.0
  0
POINT
  5
363F
330
3024
100
AcDbEntity
  8
DEFPOINTS
 62
     0
440
 16777216
100
AcDbPoint
 10
213.1801403012325
 20
99.48629674079377
 30
0.0
  0
ENDBLK
  5
3031
330
3024
100
AcDbEntity
  8
0
100
AcDbBlockEnd
  0
BLOCK
  5
3415
330
340B
100
AcDbEntity
  8
0
100
AcDbBlockBegin
  2
*D12
 70
     1
 10
0.0
 20
0.0
 30
0.0
  3
*D12
  1

  0
LINE
  5
3611
330
340B
100
AcDbEntity
  8
SUNPOU
440
 16777216
100
AcDbLine
 10
166.1175080399563
 20
181.5214428684542
 30
0.0
 11
172.8889036864608
 21
174.7500366930256
 31
0.0
  0
LINE
  5
3612
330
340B
100
AcDbEntity
  8
SUNPOU
440
 16777216
100
AcDbLine
 10
158.6928871486353
 20
174.096833521747
 30
0.0
 11
165.4642827951399
 21
167.3254273463184
 31
0.0
  0
LINE
  5
3613
330
340B
100
AcDbEntity
  8
SUNPOU
440
 16777216
100
AcDbLine
 10
169.7069223465064
 20
173.6893789950939
 30
0.0
 11
166.5249454407672
 21
170.507407037041
 31
0.0
  0
INSERT
  5
3614
330
340B
100
AcDbEntity
  8
SUNPOU
440
 16777216
100
AcDbBlockReference
  2
_OPEN
 10
171.8282443392972
 20
175.810697689421
 30
0.0
 41
3.0
 42
3.0
 43
3.0
 50
44.9999554550884
  0
INSERT
  5
3615
330
340B
100
AcDbEntity
  8
SUNPOU
440
 16777216
100
AcDbBlockReference
  2
_OPEN
 10
164.4036234479763
 20
168.3860883427139
 30
0.0
 41
3.0
 42
3.0
 43
3.0
 50
224.9999554550885
  0
MTEXT
  5
3616
330
340B
100
AcDbEntity
  8
SUNPOU
440
 16777216
100
AcDbMText
 10
165.2875089678673
 20
174.9268223397886
 30
0.0
 40
4.0
 41
0.0
 46
0.0
 71
     5
 72
     5
  1
\A1;10
 11
0.7071073309302994
 21
0.7071062314423685
 31
0.0
 73
     1
 44
1.0
  0
POINT
  5
3617
330
340B
100
AcDbEntity
  8
DEFPOINTS
 62
     0
440
 16777216
100
AcDbPoint
 10
165.0568486927927
 20
182.5821038648496
 30
0.0
  0
POINT
  5
3618
330
340B
100
AcDbEntity
  8
DEFPOINTS
 62
     0
440
 16777216
100
AcDbPoint
 10
157.6322278014718
 20
175.1574945181424
 30
0.0
  0
POINT
  5
3619
330
340B
100
AcDbEntity
  8
DEFPOINTS
 62
     0
440
 16777216
100
AcDbPoint
 10
164.4036234479763
 20
168.3860883427139
 30
0.0
  0
ENDBLK
  5
3416
330
340B
100
AcDbEntity
  8
0
100
AcDbBlockEnd
  0
BLOCK
  5
3423
330
3419
100
AcDbEntity
  8
0
100
AcDbBlockBegin
  2
*D13
 70
     1
 10
0.0
 20
0.0
 30
0.0
  3
*D13
  1

  0
LINE
  5
3623
330
3419
100
AcDbEntity
  8
SUNPOU
440
 16777216
100
AcDbLine
 10
64.57751668481932
 20
111.4864466678675
 30
0.0
 11
64.57751668481932
 21
138.222260573752
 31
0.0
  0
LINE
  5
3624
330
3419
100
AcDbEntity
  8
SUNPOU
440
 16777216
100
AcDbLine
 10
189.5775166847238
 20
111.486296138677
 30
0.0
 11
189.5775166847238
 21
138.222260573752
 31
0.0
  0
LINE
  5
3625
330
3419
100
AcDbEntity
  8
SUNPOU
440
 16777216
100
AcDbLine
 10
67.57751668481933
 20
136.722260573752
 30
0.0
 11
186.5775166847238
 21
136.722260573752
 31
0.0
  0
INSERT
  5
3626
330
3419
100
AcDbEntity
  8
SUNPOU
440
 16777216
100
AcDbBlockReference
  2
_OPEN
 10
64.57751668481932
 20
136.722260573752
 30
0.0
 41
3.0
 42
3.0
 43
3.0
 50
180.0
  0
INSERT
  5
3627
330
3419
100
AcDbEntity
  8
SUNPOU
440
 16777216
100
AcDbBlockReference
  2
_OPEN
 10
189.5775166847238
 20
136.722260573752
 30
0.0
 41
3.0
 42
3.0
 43
3.0
  0
MTEXT
  5
3628
330
3419
100
AcDbEntity
  8
SUNPOU
440
 16777216
100
AcDbMText
 10
127.0775166847716
 20
140.722260573752
 30
0.0
 40
4.0
 41
0.0
 46
0.0
 71
     5
 72
     5
  1
\A1;φ125
 73
     1
 44
1.0
  0
POINT
  5
3629
330
3419
100
AcDbEntity
  8
DEFPOINTS
 62
     0
440
 16777216
100
AcDbPoint
 10
64.57751668481932
 20
109.9864466678675
 30
0.0
  0
POINT
  5
362A
330
3419
100
AcDbEntity
  8
DEFPOINTS
 62
     0
440
 16777216
100
AcDbPoint
 10
189.5775166847238
 20
109.986296138677
 30
0.0
  0
POINT
  5
362B
330
3419
100
AcDbEntity
  8
DEFPOINTS
 62
     0
440
 16777216
100
AcDbPoint
 10
189.5775166847238
 20
136.722260573752
 30
0.0
  0
ENDBLK
  5
3424
330
3419
100
AcDbEntity
  8
0
100
AcDbBlockEnd
  0
BLOCK
  5
36F3
330
36E9
100
AcDbEntity
  8
0
100
AcDbBlockBegin
  2
*D14
 70
     1
 10
0.0
 20
0.0
 30
0.0
  3
*D14
  1

  0
LINE
  5
36EA
330
36E9
100
AcDbEntity
  8
SUNPOU
440
 16777216
100
AcDbLine
 10
174.077376342129
 20
124.4863364808796
 30
0.0
 11
235.3840738840615
 21
124.4863364808796
 31
0.0
  0
LINE
  5
36EB
330
36E9
100
AcDbEntity
  8
SUNPOU
440
 16777216
100
AcDbLine
 10
185.0774426243735
 20
48.48630878312872
 30
0.0
 11
235.3840738840615
 21
48.48630878312871
 31
0.0
  0
LINE
  5
36EC
330
36E9
100
AcDbEntity
  8
SUNPOU
440
 16777216
100
AcDbLine
 10
233.8840738840616
 20
121.4863364808796
 30
0.0
 11
233.8840738840615
 21
51.48630878312872
 31
0.0
  0
INSERT
  5
36ED
330
36E9
100
AcDbEntity
  8
SUNPOU
440
 16777216
100
AcDbBlockReference
  2
_OPEN
 10
233.8840738840616
 20
124.4863364808796
 30
0.0
 41
3.0
 42
3.0
 43
3.0
 50
90.0
  0
INSERT
  5
36EE
330
36E9
100
AcDbEntity
  8
SUNPOU
440
 16777216
100
AcDbBlockReference
  2
_OPEN
 10
233.8840738840615
 20
48.48630878312871
 30
0.0
 41
3.0
 42
3.0
 43
3.0
 50
270.0
  0
MTEXT
  5
36EF
330
36E9
100
AcDbEntity
  8
SUNPOU
440
 16777216
100
AcDbMText
 10
229.8840738840615
 20
86.4863226320042
 30
0.0
 40
4.0
 41
0.0
 46
0.0
 71
     5
 72
     5
  1
\A1;76
 11
0.0000000000000001
 21
1.0
 31
0.0
 73
     1
 44
1.0
  0
POINT
  5
36F0
330
36E9
100
AcDbEntity
  8
DEFPOINTS
 62
     0
440
 16777216
100
AcDbPoint
 10
172.577376342129
 20
124.4863364808796
 30
0.0
  0
POINT
  5
36F1
330
36E9
100
AcDbEntity
  8
DEFPOINTS
 62
     0
440
 16777216
100
AcDbPoint
 10
183.5774426243735
 20
48.48630878312872
 30
0.0
  0
POINT
  5
36F2
330
36E9
100
AcDbEntity
  8
DEFPOINTS
 62
     0
440
 16777216
100
AcDbPoint
 10
233.8840738840615
 20
48.48630878312871
 30
0.0
  0
ENDBLK
  5
36F4
330
36E9
100
AcDbEntity
  8
0
100
AcDbBlockEnd
  0
ENDSEC
  0
SECTION
  2
ENTITIES
  0
LWPOLYLINE
  5
5EF
330
1A
100
AcDbEntity
  8
ZUWAKU
100
AcDbPolyline
 90
        4
 70
     1
 43
0.0
 10
5.928893922609404
 20
283.8625000000001
 10
5.928893922609404
 20
8.26250000000002
 10
404.5288939226093
 20
8.262500000000031
 10
404.5288939226096
 20
283.8625000000001
  0
LWPOLYLINE
  5
5F0
330
1A
100
AcDbEntity
  8
ZUWAKU
100
AcDbPolyline
 90
        4
 70
     1
 43
0.0
 10
6.128893922609393
 20
283.6625000000001
 10
6.128893922609393
 20
8.462500000000009
 10
404.3288939226095
 20
8.462500000000032
 10
404.3288939226095
 20
283.6625000000001
  0
LWPOLYLINE
  5
5F1
330
1A
100
AcDbEntity
  8
ZUWAKU
100
AcDbPolyline
 90
        4
 70
     1
 43
0.0
 10
5.828893922609438
 20
283.9625
 10
5.828893922609438
 20
8.162499999999997
 10
404.6288939226094
 20
8.162500000000031
 10
404.6288939226094
 20
283.9625000000001
  0
LWPOLYLINE
  5
5F2
330
1A
100
AcDbEntity
  8
ZUWAKU
100
AcDbPolyline
 90
        4
 70
     1
 43
0.0
 10
6.028893922609427
 20
283.7625
 10
6.028893922609427
 20
8.362500000000043
 10
404.4288939226095
 20
8.362500000000032
 10
404.4288939226095
 20
283.7625
  0
LWPOLYLINE
  5
5F3
330
1A
100
AcDbEntity
  8
ZUWAKU
100
AcDbPolyline
 90
        4
 70
     1
 43
0.0
 10
6.228893922609415
 20
283.5625000000001
 10
6.228893922609415
 20
8.562500000000031
 10
404.2288939226094
 20
8.562500000000031
 10
404.2288939226094
 20
283.5625000000001
  0
LINE
  5
1DF4
330
1A
100
AcDbEntity
  8
ZUWAKU
100
AcDbLine
 10
110.1521945676434
 20
15.76250000000001
 30
0.0
 11
229.5410759081051
 21
15.76250000000001
 31
0.0
  0
LINE
  5
1DF5
330
1A
100
AcDbEntity
  8
ZUWAKU
100
AcDbLine
 10
110.1521945676434
 20
15.96250000000001
 30
0.0
 11
229.5410759081051
 21
15.96250000000001
 31
0.0
  0
LINE
  5
1DF6
330
1A
100
AcDbEntity
  8
ZUWAKU
100
AcDbLine
 10
110.1521945676434
 20
15.86250000000001
 30
0.0
 11
229.5410759081051
 21
15.86250000000001
 31
0.0
  0
LINE
  5
1DF7
330
1A
100
AcDbEntity
  8
ZUWAKU
100
AcDbLine
 10
5.828893922609552
 20
23.5625
 30
0.0
 11
404.5288939226093
 21
23.5625
 31
0.0
  0
LINE
  5
1DF8
330
1A
100
AcDbEntity
  8
ZUWAKU
100
AcDbLine
 10
5.828893922609552
 20
23.4625
 30
0.0
 11
404.5288939226093
 21
23.4625
 31
0.0
  0
LINE
  5
1DF9
330
1A
100
AcDbEntity
  8
ZUWAKU
100
AcDbLine
 10
5.828893922609552
 20
23.3625
 30
0.0
 11
404.5288939226093
 21
23.3625
 31
0.0
  0
LINE
  5
1DFA
330
1A
100
AcDbEntity
  8
ZUWAKU
100
AcDbLine
 10
5.828893922609552
 20
23.26249999999999
 30
0.0
 11
404.5288939226093
 21
23.26249999999999
 31
0.0
  0
LINE
  5
1DFB
330
1A
100
AcDbEntity
  8
ZUWAKU
100
AcDbLine
 10
5.828893922609552
 20
23.1625
 30
0.0
 11
404.5288939226093
 21
23.1625
 31
0.0
  0
LINE
  5
1E03
330
1A
100
AcDbEntity
  8
ZUWAKU
100
AcDbLine
 10
14.62500000000005
 20
18.38749999999999
 30
0.0
 11
13.1375000000001
 21
18.38749999999999
 31
0.0
  0
ARC
  5
1E04
330
1A
100
AcDbEntity
  8
ZUWAKU
100
AcDbCircle
 10
13.75000000000005
 20
13.13749999999999
 30
0.0
 40
1.399999999999999
100
AcDbArc
 50
270.0
 51
0.0
  0
INSERT
  5
1E05
330
1A
100
AcDbEntity
  8
ZUWAKU
  6
Continuous
100
AcDbBlockReference
  2
*X1
 10
6.974760957169621
 20
5.108706858588671
 30
0.0
 41
0.5
 42
0.5
 43
0.5
1001
ACAD
1000
HATCH
1002
{
1070
    19
1000
ANSI37
1040
0.2
1040
0.0
1000
R14_HATCH_DATA
1000
4E4
1011
7.474760957169621
1021
5.108706858588671
1031
0.0
1011
6.974760957169621
1021
5.608706858588671
1031
0.0
1011
6.974760957169621
1021
5.108706858588671
1031
0.5
1040
0.0
1010
0.0
1020
0.0
1030
1.0
1000
ANSI37
1070
     0
1070
     0
1071
        8
1071
        7
1070
     1
1070
     1
1071
       24
1040
12.2105285919996
1040
23.75243476380623
1040
-0.1989123673796348
1040
11.80047808566087
1040
24.74238425746728
1040
0.0
1040
11.80047808566087
1040
26.03258628282266
1040
-0.4142135623730912
1040
12.32547808566085
1040
26.55758628282265
1040
0.0
1040
15.30047808566076
1040
26.55758628282265
1040
0.4142135623731546
1040
15.82547808566085
1040
27.08258628282264
1040
0.0
1040
15.82547808566085
1040
28.83258628282265
1040
0.4142135623731586
1040
15.30047808566076
1040
29.35758628282265
1040
0.0
1040
11.80047808566087
1040
29.35758628282265
1040
0.4142135623730928
1040
9.000478085660915
1040
26.55758628282268
1040
0.0
1040
9.000478085660915
1040
24.74238425746741
1040
0.1989123673796619
1040
10.23062960467735
1040
21.7725357764838
1040
0.0
1040
13.14042757932202
1040
18.86273780183914
1040
-0.1989123673796613
1040
13.55047808566087
1040
17.87278830817795
1040
0.0
1040
13.55047808566087
1040
16.58258628282264
1040
-0.4142135623730911
1040
13.02547808566089
1040
16.05758628282265
1040
0.0
1040
10.05047808566098
1040
16.05758628282265
1040
0.4142135623731526
1040
9.525478085660893
1040
15.53258628282266
1040
0.0
1040
9.525478085660893
1040
13.78258628282264
1040
0.4142135623731526
1040
10.05047808566098
1040
13.25758628282265
1040
0.0
1040
13.55047808566087
1040
13.25758628282265
1040
0.4142135623731044
1040
16.35047808566094
1040
16.05758628282262
1040
0.0
1040
16.35047808566094
1040
17.87278830817789
1040
0.1989123673796604
1040
15.12032656664439
1040
20.84263678916144
1040
0.0
1071
        0
1071
        7
1070
     1
1070
     1
1071
       16
1040
21.25047808566092
1040
25.15758628282266
1040
-0.4142135623730935
1040
22.65047808566089
1040
26.55758628282265
1040
0.0
1040
24.57547808566085
1040
26.55758628282265
1040
0.4142135623731546
1040
25.10047808566094
1040
27.08258628282264
1040
0.0
1040
25.10047808566094
1040
28.83258628282265
1040
0.4142135623730951
1040
24.57547808566096
1040
29.35758628282265
1040
0.0
1040
22.65047808566078
1040
29.35758628282261
1040
0.4142135623730892
1040
18.45047808566085
1040
25.15758628282259
1040
0.0
1040
18.45047808566085
1040
17.45758628282267
1040
0.4142135623730969
1040
22.65047808566089
1040
13.25758628282265
1040
0.0
1040
24.57547808566085
1040
13.25758628282265
1040
0.4142135623731526
1040
25.10047808566094
1040
13.78258628282264
1040
0.0
1040
25.10047808566094
1040
15.53258628282266
1040
0.4142135623730891
1040
24.57547808566096
1040
16.05758628282265
1040
0.0
1040
22.65047808566089
1040
16.05758628282265
1040
-0.4142135623730928
1040
21.25047808566092
1040
17.45758628282264
1040
0.0
1071
        0
1071
        7
1070
     1
1070
     1
1071
        2
1040
21.95047808566085
1040
21.30758628282265
1040
1.0
1040
25.45047808566085
1040
21.30758628282265
1040
1.0
1071
        0
1071
        7
1070
     1
1070
     1
1071
       26
1040
35.02312456783887
1040
25.31263347638608
1040
0.0
1040
36.08476420097668
1040
28.67449231465567
1040
0.5069206636600134
1040
35.58413330178132
1040
29.35758628282265
1040
0.0
1040
33.8852439221721
1040
29.35758628282265
1040
0.3272098845218764
1040
33.38461302297674
1040
28.99068025098962
1040
0.0
1040
31.51634314834496
1040
23.07449231465573
1040
-0.3272098845219541
1040
31.01571224914949
1040
22.70758628282265
1040
0.0
1040
30.87547808566103
1040
22.70758628282265
1040
-0.4142135623731526
1040
30.35047808566094
1040
23.23258628282263
1040
0.0
1040
30.35047808566094
1040
28.83258628282265
1040
0.4142135623730951
1040
29.82547808566096
1040
29.35758628282265
1040
0.0
1040
28.07547808566085
1040
29.35758628282265
1040
0.4142135623730871
1040
27.55047808566087
1040
28.83258628282267
1040
0.0
1040
27.55047808566087
1040
13.78258628282264
1040
0.4142135623730891
1040
28.07547808566085
1040
13.25758628282265
1040
0.0
1040
29.82547808566085
1040
13.25758628282265
1040
0.4142135623731526
1040
30.35047808566094
1040
13.78258628282264
1040
0.0
1040
30.35047808566094
1040
19.38258628282266
1040
-0.4142135623731526
1040
30.87547808566103
1040
19.90758628282265
1040
0.0
1040
31.0157122491496
1040
19.90758628282265
1040
-0.3272098845218915
1040
31.51634314834496
1040
19.54068025098957
1040
0.0
1040
33.38461302297674
1040
13.62449231465572
1040
0.3272098845218902
1040
33.8852439221721
1040
13.25758628282265
1040
0.0
1040
35.58413330178132
1040
13.25758628282265
1040
0.5069206636600335
1040
36.08476420097668
1040
13.94068025098966
1040
0.0
1040
33.75837282250302
1040
21.30758628282279
1040
0.0
1071
        0
1071
        7
1070
     1
1070
     1
1071
        8
1040
41.20047808566084
1040
28.83258628282266
1040
0.4142135623731546
1040
40.67547808566075
1040
29.35758628282265
1040
0.0
1040
38.92547808566098
1040
29.35758628282265
1040
0.4142135623731507
1040
38.40047808566089
1040
28.83258628282267
1040
0.0
1040
38.40047808566089
1040
13.78258628282264
1040
0.4142135623731526
1040
38.92547808566098
1040
13.25758628282265
1040
0.0
1040
40.67547808566075
1040
13.25758628282265
1040
0.4142135623731526
1040
41.20047808566084
1040
13.78258628282264
1040
0.0
1071
        0
1071
        7
1070
     1
1070
     1
1071
       24
1040
46.10047808566093
1040
26.03258628282266
1040
-0.4142135623731546
1040
46.62547808566102
1040
26.55758628282265
1040
0.0
1040
49.60047808566094
1040
26.55758628282265
1040
0.4142135623730911
1040
50.12547808566091
1040
27.08258628282264
1040
0.0
1040
50.12547808566091
1040
28.83258628282265
1040
0.4142135623730952
1040
49.60047808566094
1040
29.35758628282265
1040
0.0
1040
46.10047808566093
1040
29.35758628282265
1040
0.4142135623731048
1040
43.30047808566087
1040
26.55758628282268
1040
0.0
1040
43.30047808566087
1040
24.74238425746741
1040
0.1989123673796613
1040
44.53062960467741
1040
21.77253577648386
1040
0.0
1040
47.44042757932208
1040
18.86273780183919
1040
-0.1989123673796402
1040
47.85047808566093
1040
17.87278830817811
1040
0.0
1040
47.85047808566093
1040
16.58258628282264
1040
-0.4142135623730911
1040
47.32547808566096
1040
16.05758628282265
1040
0.0
1040
44.35047808566094
1040
16.05758628282265
1040
0.4142135623731526
1040
43.82547808566084
1040
15.53258628282266
1040
0.0
1040
43.82547808566084
1040
13.78258628282264
1040
0.4142135623730891
1040
44.35047808566082
1040
13.25758628282265
1040
0.0
1040
47.85047808566093
1040
13.25758628282265
1040
0.4142135623730925
1040
50.65047808566089
1040
16.05758628282262
1040
0.0
1040
50.65047808566089
1040
17.87278830817789
1040
0.1989123673796675
1040
49.42032656664435
1040
20.84263678916155
1040
0.0
1040
46.51052859199978
1040
23.75243476380607
1040
-0.1989123673796652
1040
46.10047808566093
1040
24.74238425746724
1040
0.0
1071
        0
1071
        7
1070
     1
1070
     1
1071
       16
1040
55.55047808566087
1040
28.83258628282264
1040
0.414213562373103
1040
55.02547808566089
1040
29.35758628282265
1040
0.0
1040
53.27547808566089
1040
29.35758628282265
1040
0.4142135623730871
1040
52.75047808566092
1040
28.83258628282267
1040
0.0
1040
52.75047808566092
1040
16.05758628282262
1040
0.4142135623730926
1040
55.55047808566087
1040
13.25758628282265
1040
0.0
1040
59.05047808566087
1040
13.25758628282265
1040
0.4142135623731044
1040
61.85047808566094
1040
16.05758628282262
1040
0.0
1040
61.85047808566094
1040
28.83258628282265
1040
0.4142135623730951
1040
61.32547808566096
1040
29.35758628282265
1040
0.0
1040
59.57547808566085
1040
29.35758628282265
1040
0.4142135623730871
1040
59.05047808566087
1040
28.83258628282267
1040
0.0
1040
59.05047808566087
1040
17.10758628282262
1040
-0.414213562373088
1040
58.00047808566091
1040
16.05758628282265
1040
0.0
1040
56.60047808566094
1040
16.05758628282265
1040
-0.4142135623731197
1040
55.55047808566087
1040
17.10758628282262
1040
0.0
1071
        0
1071
        7
1070
     1
1070
     1
1071
        8
1040
66.75047808566091
1040
28.83258628282267
1040
0.4142135623730871
1040
66.22547808566094
1040
29.35758628282265
1040
0.0
1040
64.47547808566094
1040
29.35758628282265
1040
0.4142135623731507
1040
63.95047808566085
1040
28.83258628282267
1040
0.0
1040
63.95047808566085
1040
13.78258628282264
1040
0.4142135623730891
1040
64.47547808566082
1040
13.25758628282265
1040
0.0
1040
66.22547808566094
1040
13.25758628282265
1040
0.4142135623730891
1040
66.75047808566091
1040
13.78258628282264
1040
0.0
1071
        0
1070
     0
1070
     1
1040
0.0
1040
0.2
1070
     0
1070
     2
1040
0.7853981633974483
1040
-903.2340384037992
1040
-7.092413717177286
1040
-0.4490128060534576
1040
0.4490128060534577
1070
     0
1040
2.356194490192344
1040
-903.2340384037992
1040
-7.092413717177286
1040
-0.4490128060534577
1040
-0.4490128060534576
1070
     0
1040
0.057451373970553
1071
        8
1040
13.78812089390305
1040
21.2747599287082
1040
0.0
1040
20.11278093731892
1040
24.95164846527366
1040
0.0
1040
22.87263381653941
1040
21.61946792889336
1040
0.0
1040
28.62232591251689
1040
22.30888392926415
1040
0.0
1040
39.54673794983648
1040
22.76849619680576
1040
0.0
1040
44.6064668260093
1040
25.52616259922986
1040
0.0
1040
54.2659519032801
1040
24.83674419791766
1040
0.0
1040
65.53534555050248
1040
25.29635646545928
1040
0.0
1002
}
  0
LINE
  5
1E06
330
1A
100
AcDbEntity
  8
ZUWAKU
100
AcDbLine
 10
12.87500000000006
 20
19.78749999999999
 30
0.0
 11
14.62500000000005
 21
19.78749999999999
 31
0.0
  0
LINE
  5
1E07
330
1A
100
AcDbEntity
  8
ZUWAKU
100
AcDbLine
 10
14.53492424049187
 20
15.53002525316941
 30
0.0
 11
13.08002525316948
 21
16.98492424049175
 31
0.0
  0
ARC
  5
1E08
330
1A
100
AcDbEntity
  8
ZUWAKU
100
AcDbCircle
 10
13.5750000000001
 20
17.47989898732235
 30
0.0
 40
2.099999999999999
100
AcDbArc
 50
180.0
 51
224.9999999999996
  0
ARC
  5
1E09
330
1A
100
AcDbEntity
  8
ZUWAKU
100
AcDbCircle
 10
13.05000000000001
 20
14.04510101267767
 30
0.0
 40
0.7
100
AcDbArc
 50
0.0
 51
44.99999999999956
  0
LINE
  5
1E0A
330
1A
100
AcDbEntity
  8
ZUWAKU
100
AcDbLine
 10
13.75000000000005
 20
13.4
 30
0.0
 11
13.75000000000005
 21
14.04510101267767
 31
0.0
  0
ARC
  5
1E0B
330
1A
100
AcDbEntity
  8
ZUWAKU
100
AcDbCircle
 10
13.48750000000001
 20
13.4
 30
0.0
 40
0.2625
100
AcDbArc
 50
270.0
 51
0.0
  0
LINE
  5
1E0C
330
1A
100
AcDbEntity
  8
ZUWAKU
100
AcDbLine
 10
11.73750000000001
 20
11.99999999999999
 30
0.0
 11
11.73750000000001
 21
12.87499999999999
 31
0.0
  0
ARC
  5
1E0D
330
1A
100
AcDbEntity
  8
ZUWAKU
100
AcDbCircle
 10
12.00000000000005
 20
11.99999999999999
 30
0.0
 40
0.2625
100
AcDbArc
 50
180.0
 51
270.0
  0
ARC
  5
1E0E
330
1A
100
AcDbEntity
  8
ZUWAKU
100
AcDbCircle
 10
12.00000000000005
 20
12.87499999999999
 30
0.0
 40
0.2625
100
AcDbArc
 50
90.0
 51
180.0
  0
LINE
  5
1E0F
330
1A
100
AcDbEntity
  8
ZUWAKU
100
AcDbLine
 10
12.00000000000005
 20
11.7375
 30
0.0
 11
13.75000000000005
 21
11.7375
 31
0.0
  0
LINE
  5
1E10
330
1A
100
AcDbEntity
  8
ZUWAKU
100
AcDbLine
 10
12.00000000000005
 20
13.13749999999999
 30
0.0
 11
13.48750000000001
 21
13.13749999999999
 31
0.0
  0
LINE
  5
1E11
330
1A
100
AcDbEntity
  8
ZUWAKU
100
AcDbLine
 10
12.09007575950824
 20
15.99497474683058
 30
0.0
 11
13.54497474683063
 21
14.54007575950825
 31
0.0
  0
LINE
  5
1E12
330
1A
100
AcDbEntity
  8
ZUWAKU
100
AcDbLine
 10
12.87500000000006
 20
18.125
 30
0.0
 11
12.87500000000006
 21
17.47989898732232
 31
0.0
  0
LINE
  5
1E13
330
1A
100
AcDbEntity
  8
ZUWAKU
100
AcDbLine
 10
11.47500000000008
 20
18.38749999999999
 30
0.0
 11
11.47500000000008
 21
17.47989898732232
 31
0.0
  0
ARC
  5
1E14
330
1A
100
AcDbEntity
  8
ZUWAKU
100
AcDbCircle
 10
12.87500000000006
 20
18.38749999999999
 30
0.0
 40
1.399999999999999
100
AcDbArc
 50
90.0
 51
180.0
  0
ARC
  5
1E15
330
1A
100
AcDbEntity
  8
ZUWAKU
100
AcDbCircle
 10
13.5750000000001
 20
17.47989898732235
 30
0.0
 40
0.7
100
AcDbArc
 50
180.0000000000016
 51
224.9999999999994
  0
ARC
  5
1E16
330
1A
100
AcDbEntity
  8
ZUWAKU
100
AcDbCircle
 10
13.1375000000001
 20
18.125
 30
0.0
 40
0.2625
100
AcDbArc
 50
90.0
 51
180.0
  0
LINE
  5
1E17
330
1A
100
AcDbEntity
  8
ZUWAKU
100
AcDbLine
 10
45.49220869660354
 20
23.1625
 30
0.0
 11
45.49220869660376
 21
8.562500000000028
 31
0.0
  0
LINE
  5
1E18
330
1A
100
AcDbEntity
  8
ZUWAKU
100
AcDbLine
 10
45.59220869660367
 20
23.1625
 30
0.0
 11
45.59220869660367
 21
8.562500000000028
 31
0.0
  0
LINE
  5
1E19
330
1A
100
AcDbEntity
  8
ZUWAKU
100
AcDbLine
 10
45.39220869660363
 20
23.1625
 30
0.0
 11
45.39220869660363
 21
8.562500000000028
 31
0.0
  0
LINE
  5
1E1A
330
1A
100
AcDbEntity
  8
ZUWAKU
100
AcDbLine
 10
30.02500000000015
 20
19.78749999999999
 30
0.0
 11
31.77500000000015
 21
19.78749999999999
 31
0.0
  0
LINE
  5
1E1B
330
1A
100
AcDbEntity
  8
ZUWAKU
100
AcDbLine
 10
31.77500000000015
 20
18.38749999999999
 30
0.0
 11
30.2875000000002
 21
18.38749999999999
 31
0.0
  0
LINE
  5
1E1C
330
1A
100
AcDbEntity
  8
ZUWAKU
100
AcDbLine
 10
31.68492424049174
 20
15.53002525316941
 30
0.0
 11
30.23002525316935
 21
16.98492424049175
 31
0.0
  0
LINE
  5
1E1D
330
1A
100
AcDbEntity
  8
ZUWAKU
100
AcDbLine
 10
29.15000000000015
 20
13.13749999999999
 30
0.0
 11
30.6375000000001
 21
13.13749999999999
 31
0.0
  0
LINE
  5
1E1E
330
1A
100
AcDbEntity
  8
ZUWAKU
100
AcDbLine
 10
29.15000000000015
 20
11.7375
 30
0.0
 11
30.90000000000015
 21
11.7375
 31
0.0
  0
LINE
  5
1E1F
330
1A
100
AcDbEntity
  8
ZUWAKU
100
AcDbLine
 10
29.24007575950833
 20
15.99497474683058
 30
0.0
 11
30.69497474683072
 21
14.54007575950825
 31
0.0
  0
ARC
  5
1E20
330
1A
100
AcDbEntity
  8
ZUWAKU
100
AcDbCircle
 10
21.8875000000001
 20
19.52499999999999
 30
0.0
 40
0.2625
100
AcDbArc
 50
0.0
 51
90.0
  0
ARC
  5
1E21
330
1A
100
AcDbEntity
  8
ZUWAKU
100
AcDbCircle
 10
22.41250000000019
 20
16.725
 30
0.0
 40
0.2625
100
AcDbArc
 50
180.0
 51
270.0
  0
ARC
  5
1E22
330
1A
100
AcDbEntity
  8
ZUWAKU
100
AcDbCircle
 10
21.8875000000001
 20
11.99999999999999
 30
0.0
 40
0.2625
100
AcDbArc
 50
270.0
 51
0.0
  0
ARC
  5
1E23
330
1A
100
AcDbEntity
  8
ZUWAKU
100
AcDbCircle
 10
22.41250000000019
 20
14.79999999999999
 30
0.0
 40
0.2625
100
AcDbArc
 50
90.0
 51
180.0
  0
CIRCLE
  5
1E24
330
1A
100
AcDbEntity
  8
ZUWAKU
100
AcDbCircle
 10
18.8250000000001
 20
15.76249999999999
 30
0.0
 40
0.875
  0
LINE
  5
1E25
330
1A
100
AcDbEntity
  8
ZUWAKU
100
AcDbLine
 10
17.60000000000008
 20
17.6875
 30
0.0
 11
17.60000000000008
 21
13.8375
 31
0.0
  0
LINE
  5
1E26
330
1A
100
AcDbEntity
  8
ZUWAKU
100
AcDbLine
 10
16.2000000000001
 20
13.8375
 30
0.0
 11
16.2000000000001
 21
17.68749999999997
 31
0.0
  0
LINE
  5
1E27
330
1A
100
AcDbEntity
  8
ZUWAKU
100
AcDbLine
 10
20.75000000000006
 20
19.52499999999999
 30
0.0
 11
20.75000000000006
 21
11.99999999999999
 31
0.0
  0
ARC
  5
1E28
330
1A
100
AcDbEntity
  8
ZUWAKU
100
AcDbCircle
 10
18.30000000000001
 20
13.8375
 30
0.0
 40
0.7
100
AcDbArc
 50
180.0
 51
270.0
  0
ARC
  5
1E29
330
1A
100
AcDbEntity
  8
ZUWAKU
100
AcDbCircle
 10
18.30000000000001
 20
13.8375
 30
0.0
 40
2.099999999999999
100
AcDbArc
 50
180.0
 51
270.0
  0
LINE
  5
1E2A
330
1A
100
AcDbEntity
  8
ZUWAKU
100
AcDbLine
 10
15.15000000000014
 20
13.13749999999999
 30
0.0
 11
15.15000000000014
 21
14.04510101267767
 31
0.0
  0
ARC
  5
1E2B
330
1A
100
AcDbEntity
  8
ZUWAKU
100
AcDbCircle
 10
13.05000000000001
 20
14.04510101267765
 30
0.0
 40
2.099999999999999
100
AcDbArc
 50
0.0
 51
44.99999999999956
  0
LINE
  5
1E2C
330
1A
100
AcDbEntity
  8
ZUWAKU
100
AcDbLine
 10
18.30000000000001
 20
13.13749999999999
 30
0.0
 11
19.2625000000001
 21
13.13749999999999
 31
0.0
  0
LINE
  5
1E2D
330
1A
100
AcDbEntity
  8
ZUWAKU
100
AcDbLine
 10
19.2625000000001
 20
11.7375
 30
0.0
 11
18.30000000000001
 21
11.7375
 31
0.0
  0
LINE
  5
1E2E
330
1A
100
AcDbEntity
  8
ZUWAKU
100
AcDbLine
 10
19.52500000000014
 20
12.87499999999999
 30
0.0
 11
19.52500000000014
 21
11.99999999999999
 31
0.0
  0
ARC
  5
1E2F
330
1A
100
AcDbEntity
  8
ZUWAKU
100
AcDbCircle
 10
19.2625000000001
 20
11.99999999999999
 30
0.0
 40
0.2625
100
AcDbArc
 50
270.0
 51
0.0
  0
ARC
  5
1E30
330
1A
100
AcDbEntity
  8
ZUWAKU
100
AcDbCircle
 10
19.2625000000001
 20
12.87499999999999
 30
0.0
 40
0.2625
100
AcDbArc
 50
0.0
 51
90.0
  0
ARC
  5
1E31
330
1A
100
AcDbEntity
  8
ZUWAKU
100
AcDbCircle
 10
21.0125000000001
 20
11.99999999999999
 30
0.0
 40
0.2625
100
AcDbArc
 50
180.0
 51
270.0
  0
LINE
  5
1E32
330
1A
100
AcDbEntity
  8
ZUWAKU
100
AcDbLine
 10
21.0125000000001
 20
11.7375
 30
0.0
 11
21.8875000000001
 21
11.7375
 31
0.0
  0
ARC
  5
1E33
330
1A
100
AcDbEntity
  8
ZUWAKU
100
AcDbCircle
 10
18.30000000000001
 20
17.6875
 30
0.0
 40
0.7
100
AcDbArc
 50
90.0
 51
180.0
  0
ARC
  5
1E34
330
1A
100
AcDbEntity
  8
ZUWAKU
100
AcDbCircle
 10
18.30000000000001
 20
17.68749999999997
 30
0.0
 40
2.099999999999999
100
AcDbArc
 50
90.0
 51
180.0
  0
ARC
  5
1E35
330
1A
100
AcDbEntity
  8
ZUWAKU
100
AcDbCircle
 10
14.62500000000005
 20
19.52499999999999
 30
0.0
 40
0.2625
100
AcDbArc
 50
0.0
 51
90.0
  0
ARC
  5
1E36
330
1A
100
AcDbEntity
  8
ZUWAKU
100
AcDbCircle
 10
14.62500000000005
 20
18.64999999999999
 30
0.0
 40
0.2625
100
AcDbArc
 50
270.0
 51
0.0
  0
LINE
  5
1E37
330
1A
100
AcDbEntity
  8
ZUWAKU
100
AcDbLine
 10
14.8875000000001
 20
19.52499999999999
 30
0.0
 11
14.8875000000001
 21
18.64999999999999
 31
0.0
  0
LINE
  5
1E38
330
1A
100
AcDbEntity
  8
ZUWAKU
100
AcDbLine
 10
18.30000000000001
 20
19.78749999999998
 30
0.0
 11
19.2625000000001
 21
19.78749999999999
 31
0.0
  0
LINE
  5
1E39
330
1A
100
AcDbEntity
  8
ZUWAKU
100
AcDbLine
 10
19.2625000000001
 20
18.38749999999999
 30
0.0
 11
18.30000000000001
 21
18.38749999999999
 31
0.0
  0
ARC
  5
1E3A
330
1A
100
AcDbEntity
  8
ZUWAKU
100
AcDbCircle
 10
19.2625000000001
 20
19.52499999999999
 30
0.0
 40
0.2625
100
AcDbArc
 50
0.0
 51
90.0
  0
ARC
  5
1E3B
330
1A
100
AcDbEntity
  8
ZUWAKU
100
AcDbCircle
 10
21.0125000000001
 20
19.52499999999999
 30
0.0
 40
0.2625
100
AcDbArc
 50
90.0
 51
180.0
  0
ARC
  5
1E3C
330
1A
100
AcDbEntity
  8
ZUWAKU
100
AcDbCircle
 10
19.2625000000001
 20
18.64999999999999
 30
0.0
 40
0.2625
100
AcDbArc
 50
270.0
 51
0.0
  0
LINE
  5
1E3D
330
1A
100
AcDbEntity
  8
ZUWAKU
100
AcDbLine
 10
19.52500000000014
 20
19.52499999999999
 30
0.0
 11
19.52500000000014
 21
18.64999999999999
 31
0.0
  0
LINE
  5
1E3E
330
1A
100
AcDbEntity
  8
ZUWAKU
100
AcDbLine
 10
21.8875000000001
 20
19.78749999999999
 30
0.0
 11
21.0125000000001
 21
19.78749999999999
 31
0.0
  0
ARC
  5
1E3F
330
1A
100
AcDbEntity
  8
ZUWAKU
100
AcDbCircle
 10
30.72500000000019
 20
17.47989898732235
 30
0.0
 40
2.099999999999999
100
AcDbArc
 50
180.0
 51
224.9999999999996
  0
LINE
  5
1E40
330
1A
100
AcDbEntity
  8
ZUWAKU
100
AcDbLine
 10
24.486323241089
 20
17.76502359678171
 30
0.0
 11
23.85394736842119
 21
15.7625
 31
0.0
  0
LINE
  5
1E41
330
1A
100
AcDbEntity
  8
ZUWAKU
100
AcDbLine
 10
26.17500000000001
 20
19.52499999999999
 30
0.0
 11
26.17500000000001
 21
11.99999999999999
 31
0.0
  0
LINE
  5
1E42
330
1A
100
AcDbEntity
  8
ZUWAKU
100
AcDbLine
 10
27.5750000000001
 20
11.99999999999999
 30
0.0
 11
27.5750000000001
 21
19.52499999999999
 31
0.0
  0
ARC
  5
1E43
330
1A
100
AcDbEntity
  8
ZUWAKU
100
AcDbCircle
 10
26.43750000000006
 20
11.99999999999999
 30
0.0
 40
0.2625
100
AcDbArc
 50
180.0
 51
270.0
  0
LINE
  5
1E44
330
1A
100
AcDbEntity
  8
ZUWAKU
100
AcDbLine
 10
22.15000000000015
 20
11.99999999999999
 30
0.0
 11
22.15000000000015
 21
14.79999999999999
 31
0.0
  0
LINE
  5
1E45
330
1A
100
AcDbEntity
  8
ZUWAKU
100
AcDbLine
 10
23.66706746865799
 20
11.92095301591651
 30
0.0
 11
22.73293253134199
 21
14.87904698408348
 31
0.0
  0
LINE
  5
1E46
330
1A
100
AcDbEntity
  8
ZUWAKU
100
AcDbLine
 10
23.91738291825578
 20
11.7375
 30
0.0
 11
24.76682760806017
 21
11.7375
 31
0.0
  0
ARC
  5
1E47
330
1A
100
AcDbEntity
  8
ZUWAKU
100
AcDbCircle
 10
24.76682760806017
 20
11.99999999999999
 30
0.0
 40
0.2625
100
AcDbArc
 50
270.0
 51
17.52556837372245
  0
ARC
  5
1E48
330
1A
100
AcDbEntity
  8
ZUWAKU
100
AcDbCircle
 10
23.91738291825578
 20
11.99999999999999
 30
0.0
 40
0.2625
100
AcDbArc
 50
197.5255683737224
 51
270.0
  0
LINE
  5
1E49
330
1A
100
AcDbEntity
  8
ZUWAKU
100
AcDbLine
 10
22.41250000000019
 20
15.06249999999999
 30
0.0
 11
22.48261708174442
 21
15.06249999999999
 31
0.0
  0
LINE
  5
1E4A
330
1A
100
AcDbEntity
  8
ZUWAKU
100
AcDbLine
 10
25.01714305765796
 20
12.07904698408348
 30
0.0
 11
23.85394736842119
 21
15.7625
 31
0.0
  0
ARC
  5
1E4B
330
1A
100
AcDbEntity
  8
ZUWAKU
100
AcDbCircle
 10
22.48261708174442
 20
14.79999999999999
 30
0.0
 40
0.2625
100
AcDbArc
 50
17.52556837372245
 51
90.0
  0
LINE
  5
1E4C
330
1A
100
AcDbEntity
  8
ZUWAKU
100
AcDbLine
 10
26.43750000000006
 20
11.7375
 30
0.0
 11
27.31250000000006
 21
11.7375
 31
0.0
  0
LINE
  5
1E4D
330
1A
100
AcDbEntity
  8
ZUWAKU
100
AcDbLine
 10
28.8875000000001
 20
11.99999999999999
 30
0.0
 11
28.8875000000001
 21
12.87499999999999
 31
0.0
  0
ARC
  5
1E4E
330
1A
100
AcDbEntity
  8
ZUWAKU
100
AcDbCircle
 10
29.15000000000015
 20
11.99999999999999
 30
0.0
 40
0.2625
100
AcDbArc
 50
180.0
 51
270.0
  0
ARC
  5
1E4F
330
1A
100
AcDbEntity
  8
ZUWAKU
100
AcDbCircle
 10
27.31250000000006
 20
11.99999999999999
 30
0.0
 40
0.2625
100
AcDbArc
 50
270.0
 51
0.0
  0
ARC
  5
1E50
330
1A
100
AcDbEntity
  8
ZUWAKU
100
AcDbCircle
 10
29.15000000000015
 20
12.87499999999999
 30
0.0
 40
0.2625
100
AcDbArc
 50
90.0
 51
180.0
  0
ARC
  5
1E51
330
1A
100
AcDbEntity
  8
ZUWAKU
100
AcDbCircle
 10
26.43750000000006
 20
19.52499999999999
 30
0.0
 40
0.2625
100
AcDbArc
 50
90.0
 51
180.0
  0
LINE
  5
1E52
330
1A
100
AcDbEntity
  8
ZUWAKU
100
AcDbLine
 10
23.66706746865799
 20
19.60404698408348
 30
0.0
 11
22.73293253134199
 21
16.64595301591651
 31
0.0
  0
ARC
  5
1E53
330
1A
100
AcDbEntity
  8
ZUWAKU
100
AcDbCircle
 10
22.48261708174442
 20
16.725
 30
0.0
 40
0.2625
100
AcDbArc
 50
270.0
 51
342.4744316262775
  0
LINE
  5
1E54
330
1A
100
AcDbEntity
  8
ZUWAKU
100
AcDbLine
 10
22.48261708174442
 20
16.46249999999999
 30
0.0
 11
22.41250000000019
 21
16.46249999999999
 31
0.0
  0
LINE
  5
1E55
330
1A
100
AcDbEntity
  8
ZUWAKU
100
AcDbLine
 10
22.15000000000015
 20
16.725
 30
0.0
 11
22.15000000000015
 21
19.52499999999999
 31
0.0
  0
LINE
  5
1E56
330
1A
100
AcDbEntity
  8
ZUWAKU
100
AcDbLine
 10
23.91738291825578
 20
19.78749999999999
 30
0.0
 11
24.76682760806017
 21
19.78749999999999
 31
0.0
  0
ARC
  5
1E57
330
1A
100
AcDbEntity
  8
ZUWAKU
100
AcDbCircle
 10
24.76682760806017
 20
19.52499999999999
 30
0.0
 40
0.2625
100
AcDbArc
 50
342.4744316262775
 51
90.0
  0
LINE
  5
1E58
330
1A
100
AcDbEntity
  8
ZUWAKU
100
AcDbLine
 10
25.01714305765796
 20
19.44595301591651
 30
0.0
 11
24.486323241089
 21
17.76502359678171
 31
0.0
  0
ARC
  5
1E59
330
1A
100
AcDbEntity
  8
ZUWAKU
100
AcDbCircle
 10
23.91738291825578
 20
19.52499999999999
 30
0.0
 40
0.2625
100
AcDbArc
 50
90.0
 51
162.4744316262773
  0
ARC
  5
1E5A
330
1A
100
AcDbEntity
  8
ZUWAKU
100
AcDbCircle
 10
30.2875000000002
 20
18.125
 30
0.0
 40
0.2625
100
AcDbArc
 50
90.0
 51
180.0
  0
LINE
  5
1E5B
330
1A
100
AcDbEntity
  8
ZUWAKU
100
AcDbLine
 10
30.02500000000015
 20
18.125
 30
0.0
 11
30.02500000000015
 21
17.47989898732232
 31
0.0
  0
ARC
  5
1E5C
330
1A
100
AcDbEntity
  8
ZUWAKU
100
AcDbCircle
 10
30.72500000000019
 20
17.47989898732235
 30
0.0
 40
0.7
100
AcDbArc
 50
180.0000000000016
 51
224.9999999999994
  0
LINE
  5
1E5D
330
1A
100
AcDbEntity
  8
ZUWAKU
100
AcDbLine
 10
27.31250000000006
 20
19.78749999999999
 30
0.0
 11
26.43750000000006
 21
19.78749999999999
 31
0.0
  0
ARC
  5
1E5E
330
1A
100
AcDbEntity
  8
ZUWAKU
100
AcDbCircle
 10
27.31250000000006
 20
19.52499999999999
 30
0.0
 40
0.2625
100
AcDbArc
 50
0.0
 51
90.0
  0
LINE
  5
1E5F
330
1A
100
AcDbEntity
  8
ZUWAKU
100
AcDbLine
 10
28.62500000000006
 20
18.38749999999999
 30
0.0
 11
28.62500000000006
 21
17.47989898732232
 31
0.0
  0
ARC
  5
1E60
330
1A
100
AcDbEntity
  8
ZUWAKU
100
AcDbCircle
 10
30.02500000000015
 20
18.38749999999999
 30
0.0
 40
1.399999999999999
100
AcDbArc
 50
90.0
 51
180.0
  0
LINE
  5
1E61
330
1A
100
AcDbEntity
  8
ZUWAKU
100
AcDbLine
 10
37.90000000000015
 20
13.13749999999999
 30
0.0
 11
37.90000000000015
 21
19.52499999999999
 31
0.0
  0
LINE
  5
1E62
330
1A
100
AcDbEntity
  8
ZUWAKU
100
AcDbLine
 10
36.50000000000006
 20
19.52499999999999
 30
0.0
 11
36.50000000000006
 21
13.66249999999999
 31
0.0
  0
LINE
  5
1E63
330
1A
100
AcDbEntity
  8
ZUWAKU
100
AcDbLine
 10
33.35000000000019
 20
19.52499999999999
 30
0.0
 11
33.35000000000019
 21
13.13749999999999
 31
0.0
  0
LINE
  5
1E64
330
1A
100
AcDbEntity
  8
ZUWAKU
100
AcDbLine
 10
34.75000000000006
 20
13.66249999999999
 30
0.0
 11
34.75000000000006
 21
19.52499999999999
 31
0.0
  0
ARC
  5
1E65
330
1A
100
AcDbEntity
  8
ZUWAKU
100
AcDbCircle
 10
34.75000000000006
 20
13.13749999999999
 30
0.0
 40
1.399999999999999
100
AcDbArc
 50
180.0
 51
270.0
  0
ARC
  5
1E66
330
1A
100
AcDbEntity
  8
ZUWAKU
100
AcDbCircle
 10
30.2000000000001
 20
14.04510101267767
 30
0.0
 40
0.7
100
AcDbArc
 50
0.0
 51
44.99999999999956
  0
ARC
  5
1E67
330
1A
100
AcDbEntity
  8
ZUWAKU
100
AcDbCircle
 10
30.90000000000015
 20
13.13749999999999
 30
0.0
 40
1.399999999999999
100
AcDbArc
 50
270.0
 51
0.0
  0
LINE
  5
1E68
330
1A
100
AcDbEntity
  8
ZUWAKU
100
AcDbLine
 10
30.90000000000015
 20
13.4
 30
0.0
 11
30.90000000000015
 21
14.04510101267767
 31
0.0
  0
ARC
  5
1E69
330
1A
100
AcDbEntity
  8
ZUWAKU
100
AcDbCircle
 10
30.6375000000001
 20
13.4
 30
0.0
 40
0.2625
100
AcDbArc
 50
270.0
 51
0.0
  0
LINE
  5
1E6A
330
1A
100
AcDbEntity
  8
ZUWAKU
100
AcDbLine
 10
32.30000000000001
 20
13.13749999999999
 30
0.0
 11
32.30000000000001
 21
14.04510101267767
 31
0.0
  0
ARC
  5
1E6B
330
1A
100
AcDbEntity
  8
ZUWAKU
100
AcDbCircle
 10
30.2000000000001
 20
14.04510101267765
 30
0.0
 40
2.099999999999999
100
AcDbArc
 50
0.0
 51
44.99999999999956
  0
LINE
  5
1E6C
330
1A
100
AcDbEntity
  8
ZUWAKU
100
AcDbLine
 10
35.9750000000002
 20
13.13749999999999
 30
0.0
 11
35.27500000000015
 21
13.13749999999999
 31
0.0
  0
LINE
  5
1E6D
330
1A
100
AcDbEntity
  8
ZUWAKU
100
AcDbLine
 10
34.75000000000006
 20
11.7375
 30
0.0
 11
36.50000000000006
 21
11.7375
 31
0.0
  0
ARC
  5
1E6E
330
1A
100
AcDbEntity
  8
ZUWAKU
100
AcDbCircle
 10
35.27500000000015
 20
13.66249999999999
 30
0.0
 40
0.525
100
AcDbArc
 50
180.0
 51
270.0
  0
ARC
  5
1E6F
330
1A
100
AcDbEntity
  8
ZUWAKU
100
AcDbCircle
 10
35.9750000000002
 20
13.66249999999999
 30
0.0
 40
0.525
100
AcDbArc
 50
270.0
 51
0.0
  0
ARC
  5
1E70
330
1A
100
AcDbEntity
  8
ZUWAKU
100
AcDbCircle
 10
36.50000000000006
 20
13.13749999999999
 30
0.0
 40
1.399999999999999
100
AcDbArc
 50
270.0
 51
0.0
  0
LINE
  5
1E71
330
1A
100
AcDbEntity
  8
ZUWAKU
100
AcDbLine
 10
34.48750000000001
 20
19.78749999999999
 30
0.0
 11
33.61250000000001
 21
19.78749999999999
 31
0.0
  0
ARC
  5
1E72
330
1A
100
AcDbEntity
  8
ZUWAKU
100
AcDbCircle
 10
33.61250000000001
 20
19.52499999999999
 30
0.0
 40
0.2625
100
AcDbArc
 50
90.0
 51
180.0
  0
ARC
  5
1E73
330
1A
100
AcDbEntity
  8
ZUWAKU
100
AcDbCircle
 10
31.77500000000015
 20
19.52499999999999
 30
0.0
 40
0.2625
100
AcDbArc
 50
0.0
 51
90.0
  0
ARC
  5
1E74
330
1A
100
AcDbEntity
  8
ZUWAKU
100
AcDbCircle
 10
31.77500000000015
 20
18.64999999999999
 30
0.0
 40
0.2625
100
AcDbArc
 50
270.0
 51
0.0
  0
LINE
  5
1E75
330
1A
100
AcDbEntity
  8
ZUWAKU
100
AcDbLine
 10
32.03750000000019
 20
19.52499999999999
 30
0.0
 11
32.03750000000019
 21
18.64999999999999
 31
0.0
  0
ARC
  5
1E76
330
1A
100
AcDbEntity
  8
ZUWAKU
100
AcDbCircle
 10
34.48750000000001
 20
19.52499999999999
 30
0.0
 40
0.2625
100
AcDbArc
 50
0.0
 51
90.0
  0
LINE
  5
1E77
330
1A
100
AcDbEntity
  8
ZUWAKU
100
AcDbLine
 10
37.63750000000011
 20
19.78749999999999
 30
0.0
 11
36.7625000000001
 21
19.78749999999999
 31
0.0
  0
ARC
  5
1E78
330
1A
100
AcDbEntity
  8
ZUWAKU
100
AcDbCircle
 10
36.7625000000001
 20
19.52499999999999
 30
0.0
 40
0.2625
100
AcDbArc
 50
90.0
 51
180.0
  0
ARC
  5
1E79
330
1A
100
AcDbEntity
  8
ZUWAKU
100
AcDbCircle
 10
37.63750000000011
 20
19.52499999999999
 30
0.0
 40
0.2625
100
AcDbArc
 50
0.0
 51
90.0
  0
LINE
  5
1E7A
330
1A
100
AcDbEntity
  8
ZUWAKU
100
AcDbLine
 10
40.35000000000019
 20
11.99999999999999
 30
0.0
 11
40.35000000000019
 21
19.52499999999999
 31
0.0
  0
LINE
  5
1E7B
330
1A
100
AcDbEntity
  8
ZUWAKU
100
AcDbLine
 10
38.9500000000001
 20
19.52499999999999
 30
0.0
 11
38.9500000000001
 21
11.99999999999999
 31
0.0
  0
LINE
  5
1E7C
330
1A
100
AcDbEntity
  8
ZUWAKU
100
AcDbLine
 10
39.21250000000015
 20
11.7375
 30
0.0
 11
40.08750000000015
 21
11.7375
 31
0.0
  0
ARC
  5
1E7D
330
1A
100
AcDbEntity
  8
ZUWAKU
100
AcDbCircle
 10
39.21250000000015
 20
11.99999999999999
 30
0.0
 40
0.2625
100
AcDbArc
 50
180.0
 51
270.0
  0
ARC
  5
1E7E
330
1A
100
AcDbEntity
  8
ZUWAKU
100
AcDbCircle
 10
40.08750000000015
 20
11.99999999999999
 30
0.0
 40
0.2625
100
AcDbArc
 50
270.0
 51
0.0
  0
LINE
  5
1E7F
330
1A
100
AcDbEntity
  8
ZUWAKU
100
AcDbLine
 10
40.08750000000015
 20
19.78749999999999
 30
0.0
 11
39.21250000000015
 21
19.78749999999999
 31
0.0
  0
ARC
  5
1E80
330
1A
100
AcDbEntity
  8
ZUWAKU
100
AcDbCircle
 10
39.21250000000015
 20
19.52499999999999
 30
0.0
 40
0.2625
100
AcDbArc
 50
90.0
 51
180.0
  0
ARC
  5
1E81
330
1A
100
AcDbEntity
  8
ZUWAKU
100
AcDbCircle
 10
40.08750000000015
 20
19.52499999999999
 30
0.0
 40
0.2625
100
AcDbArc
 50
0.0
 51
90.0
  0
TEXT
  5
1E82
330
1A
100
AcDbEntity
  8
moji
100
AcDbText
 10
52.307788716694
 20
14.53308906513737
 30
0.0
 40
3.0
  1
大型　たてとい
 41
0.9
  7
ｽﾀｲﾙ1
100
AcDbText
  0
TEXT
  5
1E83
330
1A
100
AcDbEntity
  8
moji
100
AcDbText
 10
125.742495263035
 20
17.16496052870368
 30
0.0
 40
2.799999999999999
  1
ネジ式掃除口
 41
0.9
  7
ｽﾀｲﾙ1
100
AcDbText
  0
LINE
  5
1E84
330
1A
100
AcDbEntity
  8
ZUWAKU
100
AcDbLine
 10
109.9521945676434
 20
23.1625
 30
0.0
 11
109.9521945676434
 21
8.562500000000028
 31
0.0
  0
LINE
  5
1E85
330
1A
100
AcDbEntity
  8
ZUWAKU
100
AcDbLine
 10
110.1521945676434
 20
23.1625
 30
0.0
 11
110.1521945676434
 21
8.562500000000028
 31
0.0
  0
LINE
  5
1E86
330
1A
100
AcDbEntity
  8
ZUWAKU
100
AcDbLine
 10
110.0521945676433
 20
23.1625
 30
0.0
 11
110.0521945676435
 21
8.562500000000028
 31
0.0
  0
TEXT
  5
1E87
330
1A
100
AcDbEntity
  8
moji
100
AcDbText
 10
125.742495263035
 20
9.764960528703703
 30
0.0
 40
2.799999999999999
  1
ＮＣＯ１００
 41
0.9
  7
ｽﾀｲﾙ1
100
AcDbText
  0
TEXT
  5
1E88
330
1A
100
AcDbEntity
  8
ZUWAKU
100
AcDbText
 10
110.6909170787483
 20
12.9901782691928
 30
0.0
 40
2.0
  1
サイズ
 41
0.9
  7
ｽﾀｲﾙ1
100
AcDbText
  0
TEXT
  5
1E89
330
1A
100
AcDbEntity
  8
ZUWAKU
100
AcDbText
 10
110.6909170787481
 20
20.19017826919279
 30
0.0
 40
2.0
  1
品名
 41
0.9
  7
ｽﾀｲﾙ1
100
AcDbText
  0
LINE
  5
1EA3
330
1A
100
AcDbEntity
  8
ZUWAKU
100
AcDbLine
 10
330.2374951777115
 20
15.76250000000001
 30
0.0
 11
354.4533991968802
 21
15.76250000000001
 31
0.0
  0
LINE
  5
1EA4
330
1A
100
AcDbEntity
  8
ZUWAKU
100
AcDbLine
 10
330.2374951777118
 20
15.86250000000001
 30
0.0
 11
354.4533991968802
 21
15.86250000000001
 31
0.0
  0
LINE
  5
1EA5
330
1A
100
AcDbEntity
  8
ZUWAKU
100
AcDbLine
 10
330.2374951777115
 20
15.96250000000001
 30
0.0
 11
354.4533991968802
 21
15.96250000000001
 31
0.0
  0
TEXT
  5
1EA6
330
1A
100
AcDbEntity
  8
ZUWAKU
100
AcDbText
 10
334.9308627662606
 20
17.16496052870368
 30
0.0
 40
2.799999999999999
  1
　　．　　．　　
 41
0.9
  7
ｽﾀｲﾙ1
100
AcDbText
  0
TEXT
  5
1EBC
330
1A
100
AcDbEntity
  8
moji
100
AcDbText
 10
269.8493479087659
 20
9.764960528703703
 30
0.0
 40
2.799999999999999
  1
１/１
 41
0.9
  7
ｽﾀｲﾙ1
100
AcDbText
  0
LINE
  5
1EBD
330
1A
100
AcDbEntity
  8
ZUWAKU
100
AcDbLine
 10
258.42848367168
 20
15.76250000000001
 30
0.0
 11
282.0923718056657
 21
15.76250000000001
 31
0.0
  0
LINE
  5
1EBE
330
1A
100
AcDbEntity
  8
ZUWAKU
100
AcDbLine
 10
258.42848367168
 20
15.86250000000001
 30
0.0
 11
282.0923718056657
 21
15.86250000000001
 31
0.0
  0
LINE
  5
1EBF
330
1A
100
AcDbEntity
  8
ZUWAKU
100
AcDbLine
 10
258.42848367168
 20
15.96250000000001
 30
0.0
 11
282.0923718056657
 21
15.96250000000001
 31
0.0
  0
LINE
  5
1EC0
330
1A
100
AcDbEntity
  8
ZUWAKU
100
AcDbLine
 10
229.6410759081051
 20
23.1625
 30
0.0
 11
229.6410759081053
 21
8.562500000000028
 31
0.0
  0
LINE
  5
1EC1
330
1A
100
AcDbEntity
  8
ZUWAKU
100
AcDbLine
 10
229.7410759081052
 20
23.1625
 30
0.0
 11
229.7410759081052
 21
8.562500000000028
 31
0.0
  0
LINE
  5
1EC2
330
1A
100
AcDbEntity
  8
ZUWAKU
100
AcDbLine
 10
229.5410759081051
 20
23.1625
 30
0.0
 11
229.5410759081051
 21
8.562500000000028
 31
0.0
  0
LINE
  5
1EC3
330
1A
100
AcDbEntity
  8
ZUWAKU
100
AcDbLine
 10
258.3284836716799
 20
23.1625
 30
0.0
 11
258.3284836716801
 21
8.562500000000028
 31
0.0
  0
LINE
  5
1EC4
330
1A
100
AcDbEntity
  8
ZUWAKU
100
AcDbLine
 10
258.42848367168
 20
23.1625
 30
0.0
 11
258.42848367168
 21
8.562500000000028
 31
0.0
  0
LINE
  5
1EC5
330
1A
100
AcDbEntity
  8
ZUWAKU
100
AcDbLine
 10
258.2284836716799
 20
23.1625
 30
0.0
 11
258.2284836716799
 21
8.562500000000028
 31
0.0
  0
TEXT
  5
1EC7
330
1A
100
AcDbEntity
  8
ZUWAKU
100
AcDbText
 10
230.4797984192099
 20
20.19017826919279
 30
0.0
 40
2.0
  1
品番
 41
0.9
  7
ｽﾀｲﾙ1
100
AcDbText
  0
TEXT
  5
1EC8
330
1A
100
AcDbEntity
  8
ZUWAKU
100
AcDbText
 10
259.1672061827849
 20
12.9901782691928
 30
0.0
 40
2.0
  1
縮尺
 41
0.9
  7
ｽﾀｲﾙ1
100
AcDbText
  0
TEXT
  5
1EC9
330
1A
100
AcDbEntity
  8
ZUWAKU
100
AcDbText
 10
259.1672061827847
 20
20.19017826919279
 30
0.0
 40
2.0
  1
用紙
 41
0.9
  7
ｽﾀｲﾙ1
100
AcDbText
  0
TEXT
  5
1ECA
330
1A
100
AcDbEntity
  8
moji
100
AcDbText
 10
269.8493479087659
 20
17.16496052870368
 30
0.0
 40
2.799999999999999
  1
Ａ３
 41
0.9
  7
ｽﾀｲﾙ1
100
AcDbText
  0
LINE
  5
1ECB
330
1A
100
AcDbEntity
  8
ZUWAKU
100
AcDbLine
 10
282.1923718056656
 20
23.1625
 30
0.0
 11
282.1923718056658
 21
8.562500000000028
 31
0.0
  0
LINE
  5
1ECC
330
1A
100
AcDbEntity
  8
ZUWAKU
100
AcDbLine
 10
282.0923718056657
 20
23.1625
 30
0.0
 11
282.0923718056657
 21
8.562500000000028
 31
0.0
  0
LINE
  5
1ECD
330
1A
100
AcDbEntity
  8
ZUWAKU
100
AcDbLine
 10
330.1374951777116
 20
23.1625
 30
0.0
 11
330.1374951777118
 21
8.562500000000028
 31
0.0
  0
LINE
  5
1ECE
330
1A
100
AcDbEntity
  8
ZUWAKU
100
AcDbLine
 10
330.2374951777118
 20
23.1625
 30
0.0
 11
330.2374951777118
 21
8.562500000000028
 31
0.0
  0
LINE
  5
1ECF
330
1A
100
AcDbEntity
  8
ZUWAKU
100
AcDbLine
 10
330.0374951777117
 20
23.1625
 30
0.0
 11
330.0374951777117
 21
8.562500000000028
 31
0.0
  0
LINE
  5
1ED0
330
1A
100
AcDbEntity
  8
ZUWAKU
100
AcDbLine
 10
282.2923718056657
 20
23.1625
 30
0.0
 11
282.2923718056657
 21
8.562500000000028
 31
0.0
  0
TEXT
  5
1ED1
330
1A
100
AcDbEntity
  8
ZUWAKU
100
AcDbText
 10
330.9762176888165
 20
20.19017826919279
 30
0.0
 40
2.0
  1
DATE
 41
0.9
  7
ｽﾀｲﾙ1
100
AcDbText
  0
LINE
  5
1EDD
330
1A
100
AcDbEntity
  8
ZUWAKU
100
AcDbLine
 10
354.4533991968802
 20
23.1625
 30
0.0
 11
354.4533991968802
 21
8.562500000000028
 31
0.0
  0
LINE
  5
1EDE
330
1A
100
AcDbEntity
  8
ZUWAKU
100
AcDbLine
 10
354.5533991968801
 20
23.1625
 30
0.0
 11
354.5533991968801
 21
8.562500000000028
 31
0.0
  0
LINE
  5
1EDF
330
1A
100
AcDbEntity
  8
ZUWAKU
100
AcDbLine
 10
354.65339919688
 20
23.1625
 30
0.0
 11
354.6533991968802
 21
8.562500000000028
 31
0.0
  0
LINE
  5
1EE0
330
1A
100
AcDbEntity
  8
ZUWAKU
100
AcDbLine
 10
354.7533991968801
 20
23.1625
 30
0.0
 11
354.7533991968801
 21
8.562500000000028
 31
0.0
  0
TEXT
  5
1EE2
330
1A
100
AcDbEntity
  8
ZUWAKU
100
AcDbText
 10
358.8534517433771
 20
14.15181748184719
 30
0.0
 40
3.0
  1
積水化学工業株式会社
 41
0.9
  7
ｽﾀｲﾙ1
100
AcDbText
  0
DIMENSION
  5
2EF8
330
1A
100
AcDbEntity
  8
SUNPOU
100
AcDbDimension
280
     0
  2
*D5
 10
223.9379604400675
 20
48.48630878312871
 30
0.0
 11
219.9379604400675
 21
76.98637742443978
 31
0.0
 70
    32
 71
     5
 42
-1.0
 73
     0
 74
     0
 75
     0
  3
STANDARD
100
AcDbAlignedDimension
 13
189.5775112658535
 23
105.4864460657508
 33
0.0
 14
183.5774426243735
 24
48.48630878312872
 34
0.0
 50
90.0
100
AcDbRotatedDimension
  0
DIMENSION
  5
2EF9
330
1A
100
AcDbEntity
  8
SUNPOU
100
AcDbDimension
280
     0
  2
*D6
 10
223.9379604400675
 20
124.4863364808796
 30
0.0
 11
219.9379604400675
 21
114.9863912733152
 31
0.0
 70
    32
 71
     5
 42
-1.0
 73
     0
 74
     0
 75
     0
  3
STANDARD
100
AcDbAlignedDimension
 13
189.5775112658535
 23
105.4864460657508
 33
0.0
 14
172.577376342129
 24
124.4863364808796
 34
0.0
 50
90.0
100
AcDbRotatedDimension
  0
DIMENSION
  5
2EFB
330
1A
100
AcDbEntity
  8
SUNPOU
100
AcDbDimension
280
     0
  2
*D7
 10
227.7138044561628
 20
167.1367038163481
 30
0.0
 11
223.7138044561628
 21
213.1367038163386
 31
0.0
 70
    32
 71
     5
 42
-1.0
 73
     0
 74
     0
 75
     0
  3
STANDARD
100
AcDbAlignedDimension
 13
127.0776919502345
 23
259.136703816329
 33
0.0
 14
127.0776498999296
 24
167.1367038163482
 34
0.0
 50
90.0
100
AcDbRotatedDimension
  0
LINE
  5
2F01
330
1A
100
AcDbEntity
  8
CENTER L
 48
5.0
100
AcDbLine
 10
127.0777562863723
 20
281.8434173726268
 30
0.0
 11
127.0776281043424
 21
143.6365273247701
 31
0.0
  0
CIRCLE
  5
2F02
330
1A
100
AcDbEntity
  8
ﾎﾝﾀｲ
100
AcDbCircle
 10
127.0776925633121
 20
213.1367040702734
 30
0.0
 40
62.5001758785109
  0
INSERT
  5
2F03
330
1A
100
AcDbEntity
  8
SUNPOU
  6
Continuous
 62
     2
100
AcDbBlockReference
  2
*X4
 10
-4.323973337596385
 20
-0.5801631405558965
 30
0.0
1001
ACAD
1000
HATCH
1002
{
1070
    19
1000
_USER
1040
5.0
1040
0.7853981633974483
1000
R14_HATCH_DATA
1000
EA4
1011
-3.323973337596385
1021
-0.5801631405558965
1031
0.0
1011
-4.323973337596385
1021
0.4198368594441036
1031
0.0
1011
-4.323973337596385
1021
-0.5801631405558965
1031
1.0
1040
0.0
1010
0.0
1020
0.0
1030
1.0
1000
_USER
1070
     0
1070
     0
1071
        2
1071
        1
1071
       18
1070
     1
1040
76.40148460337123
1040
102.3666092063066
1040
76.40148460337123
1040
106.0666092063067
1070
     1
1040
76.40148460337123
1040
106.0666092063067
1040
68.90148460336414
1040
106.0666092063067
1070
     1
1040
68.90148460336412
1040
106.0666092063067
1040
68.90147798008044
1040
100.5666098084234
1070
     2
1040
69.40147798008007
1040
100.5666092063067
1040
0.5
1040
3.141591449356265
1040
4.712388980384689
1070
     1
1070
     1
1040
69.40147798008007
1040
100.0666092063067
1040
73.90147677584963
1040
100.0666092063067
1070
     2
1040
73.90147677584963
1040
99.56660920630667
1040
0.5
1040
4.712388980384689
1040
6.283186511413113
1070
     0
1070
     1
1040
74.40147677584926
1040
99.56660860418992
1040
74.40141656417364
1040
49.56660920630629
1070
     1
1040
74.40141656417364
1040
49.5666092063063
1040
74.90141596205688
1040
49.06660920630667
1070
     1
1040
74.90141596205688
1040
49.06660920630667
1040
79.4014508848326
1040
49.06660373925717
1070
     1
1040
79.4014508848326
1040
49.06660373925717
1040
79.40145088483257
1040
78.06660920630668
1070
     1
1040
79.40145088483257
1040
78.06660920630668
1040
81.40145088483199
1040
78.06660920630668
1070
     1
1040
81.40145088483203
1040
78.06660920630668
1040
81.40147195891875
1040
95.56660920630667
1070
     1
1040
81.40147195891879
1040
95.56660920630665
1040
78.70148460337123
1040
95.56660920630665
1070
     2
1040
78.70148460337123
1040
95.86660920630666
1040
0.3
1040
1.570796326794896
1040
3.141592653589793
1070
     0
1070
     1
1040
78.40148460337122
1040
95.86660920630666
1040
78.40148460337122
1040
101.7666092063066
1070
     2
1040
78.10148460337126
1040
101.7666092063066
1040
0.3
1040
0.0
1040
1.570796326794896
1070
     1
1070
     1
1040
78.10148460337126
1040
102.0666092063066
1040
76.70148460337123
1040
102.0666092063066
1070
     2
1040
76.70148460337123
1040
102.3666092063066
1040
0.3
1040
1.570796326794896
1040
3.141592653589793
1070
     0
1071
        0
1071
       48
1071
        1
1070
     1
1040
69.40147798008007
1040
100.0666092063067
1040
73.90147677584963
1040
100.0666092063067
1071
        0
1070
     0
1070
     0
1040
0.7853981633974483
1040
5.0
1070
     0
1070
     1
1040
0.7853981633974483
1040
147.3423534451417
1040
48.59688014476034
1040
-3.535533905932737
1040
3.535533905932737
1070
     0
1071
        1
1040
147.3423534451417
1040
48.59688014476034
1040
0.0
1002
}
  0
INSERT
  5
2F04
330
1A
100
AcDbEntity
  8
ﾎﾝﾀｲ
  6
Continuous
 62
     2
100
AcDbBlockReference
  2
*X3
 10
-4.323973337596385
 20
-0.5801631405558965
 30
0.0
1001
ACAD
1000
HATCH
1002
{
1070
    19
1000
_USER
1040
5.0
1040
2.356194490192344
1000
R14_HATCH_DATA
1000
EA3
1011
-3.323973337596385
1021
-0.5801631405558965
1031
0.0
1011
-4.323973337596385
1021
0.4198368594441036
1031
0.0
1011
-4.323973337596385
1021
-0.5801631405558965
1031
1.0
1040
0.0
1010
0.0
1020
0.0
1030
1.0
1000
_USER
1070
     0
1070
     0
1071
        1
1071
       33
1071
       23
1070
     1
1040
68.90149002241575
1040
110.5666098084234
1040
68.90149002241575
1040
106.066609206334
1070
     1
1040
77.60140508990116
1040
106.066609206334
1040
68.90149002241575
1040
106.066609206334
1070
     2
1040
77.60140508990116
1040
105.766609206334
1040
0.3
1040
0.0
1040
1.570796326794896
1070
     1
1070
     1
1040
77.90140508990112
1040
103.0666092063341
1040
77.90140508990112
1040
105.766609206334
1070
     1
1040
78.65142730039764
1040
103.0666092063341
1040
77.90140508990112
1040
103.0666092063341
1070
     1
1040
78.6514273003977
1040
96.06660920633403
1040
78.6514273003977
1040
103.066609206334
1070
     1
1040
79.90147256103444
1040
96.06660920633409
1040
78.6514273003977
1040
96.06660920633409
1070
     1
1040
79.90147256103444
1040
96.06660920633409
1040
79.90145449753152
1040
81.06660920630666
1070
     1
1040
79.90145449753152
1040
81.06660920630668
1040
85.40145449753552
1040
81.0666092063067
1070
     1
1040
85.40148339914162
1040
105.0666104105402
1040
85.40145449753552
1040
81.0666092063067
1070
     2
1040
86.40148339914089
1040
105.0666092063067
1040
1.0
1040
1.570796326794896
1040
3.141591449356265
1070
     1
1070
     1
1040
86.40148339914089
1040
106.0666092063067
1040
131.4014891881913
1040
106.0666092063066
1070
     1
1040
131.4014955484625
1040
111.0666092063067
1040
131.4014955484625
1040
106.0666092063066
1070
     1
1040
91.40166528783092
1040
111.0666092063066
1040
131.4014955484625
1040
111.0666092063067
1070
     2
1040
91.40166528783092
1040
111.5666092063066
1040
0.5
1040
3.141592653589793
1040
4.712388980384689
1070
     1
1070
     1
1040
90.90166528783091
1040
124.5666092063067
1040
90.90166528783091
1040
111.5666092063066
1070
     2
1040
90.40166528783093
1040
124.5666092063067
1040
0.5
1040
0.0
1040
1.570796326794895
1070
     1
1070
     1
1040
85.90166528783084
1040
125.0666092063067
1040
90.40166528783093
1040
125.0666092063067
1070
     2
1040
85.90166528783084
1040
124.5666092063067
1040
0.5
1040
1.570796326794896
1040
3.141592653589793
1070
     1
1070
     1
1040
85.40166528783084
1040
124.5666092063067
1040
85.4016652878308
1040
111.5666092063066
1070
     2
1040
84.90166528783081
1040
111.5666092063066
1040
0.5
1040
4.712388980384689
1040
6.283185307179586
1070
     1
1070
     1
1040
69.40149002241537
1040
111.0666092063067
1040
84.90166528783081
1040
111.0666092063067
1070
     2
1040
69.40149002241537
1040
110.5666092063066
1040
0.5
1040
1.570796326794896
1040
3.141591449356265
1070
     1
1071
        0
1070
     0
1070
     0
1040
2.356194490192344
1040
5.0
1070
     0
1070
     1
1040
2.356194490192344
1040
147.3423534451417
1040
4.238001932529073
1040
-3.535533905932737
1040
-3.535533905932737
1070
     0
1071
        1
1040
147.3423534451417
1040
4.238001932529073
1040
0.0
1002
}
  0
DIMENSION
  5
2F06
330
1A
100
AcDbEntity
  8
SUNPOU
100
AcDbDimension
280
     0
  2
*D8
 10
184.0774432264902
 20
30.11096188424415
 30
0.0
 11
127.0774432265337
 21
34.11096188424415
 31
0.0
 70
    32
  1
φ<>
 71
     5
 42
-1.0
 73
     0
 74
     0
 75
     0
  3
STANDARD
100
AcDbAlignedDimension
 13
70.07744322657726
 23
48.98644606575041
 33
0.0
 14
184.0774432264902
 24
48.98630878312835
 34
0.0
100
AcDbRotatedDimension
  0
LINE
  5
2F07
330
1A
100
AcDbEntity
  8
ﾌﾀ
  6
Continuous
 62
     3
 48
8.0
100
AcDbLine
 10
75.57749922343806
 20
95.48644606577818
 30
0.0
 11
74.32745396280131
 21
95.48644606577818
 31
0.0
  0
LINE
  5
2F08
330
1A
100
AcDbEntity
  8
ﾎﾝﾀｲ
  6
Continuous
 62
     3
 48
8.0
100
AcDbLine
 10
77.07749862132243
 20
94.98644606575078
 30
0.0
 11
74.37751126577484
 21
94.98644606575078
 31
0.0
  0
LINE
  5
2F09
330
1A
100
AcDbEntity
  8
ﾎﾝﾀｲ
100
AcDbLine
 10
70.5774426244605
 20
48.48644606575078
 30
0.0
 11
183.5774426243735
 21
48.48630878312872
 31
0.0
  0
LINE
  5
2F0A
330
1A
100
AcDbEntity
  8
ﾎﾝﾀｲ
100
AcDbLine
 10
65.07751668481899
 20
110.4864460657507
 30
0.0
 11
80.57769195023444
 21
110.4864460657507
 31
0.0
  0
LINE
  5
2F0B
330
1A
100
AcDbEntity
  8
ﾎﾝﾀｲ
100
AcDbLine
 10
70.07750343825285
 20
98.98644546363403
 30
0.0
 11
70.07744322657726
 21
48.98644606575041
 31
0.0
  0
LINE
  5
2F0F
330
1A
100
AcDbEntity
  8
ﾎﾝﾀｲ
100
AcDbLine
 10
70.07744322657726
 20
48.98644606575041
 30
0.0
 11
70.5774426244605
 21
48.48644606575078
 31
0.0
  0
ARC
  5
2F10
330
1A
100
AcDbEntity
  8
ﾎﾝﾀｲ
100
AcDbCircle
 10
73.77751126577493
 20
101.1864460657508
 30
0.0
 40
0.3
100
AcDbArc
 50
0.0
 51
90.0
  0
ARC
  5
2F11
330
1A
100
AcDbEntity
  8
ﾎﾝﾀｲ
 48
8.0
100
AcDbCircle
 10
72.37751126577484
 20
101.7864460657507
 30
0.0
 40
0.3
100
AcDbArc
 50
180.0
 51
270.0
  0
LINE
  5
2F12
330
1A
100
AcDbEntity
  8
ﾌﾀ
100
AcDbLine
 10
74.32745396280131
 20
95.48644606577813
 30
0.0
 11
74.32745396280131
 21
102.4864460657782
 31
0.0
  0
LINE
  5
2F13
330
1A
100
AcDbEntity
  8
ﾎﾝﾀｲ
100
AcDbLine
 10
64.57751668481932
 20
109.9864466678675
 30
0.0
 11
64.57750464248409
 21
99.98644666786754
 31
0.0
  0
LINE
  5
2F14
330
1A
100
AcDbEntity
  8
ﾎﾝﾀｲ
100
AcDbLine
 10
65.07750464248369
 20
99.48644606575079
 30
0.0
 11
69.57750343825324
 21
99.48644606575079
 31
0.0
  0
LINE
  5
2F15
330
1A
100
AcDbEntity
  8
ﾎﾝﾀｲ
100
AcDbLine
 10
65.07750464248369
 20
99.48644606575079
 30
0.0
 11
69.57750343825324
 21
99.48644606575079
 31
0.0
  0
ARC
  5
2F16
330
1A
100
AcDbEntity
  8
ﾎﾝﾀｲ
100
AcDbCircle
 10
65.07750464248369
 20
99.98644606575078
 30
0.0
 40
0.5
100
AcDbArc
 50
179.9999310025013
 51
270.0
  0
LINE
  5
2F17
330
1A
100
AcDbEntity
  8
ﾎﾝﾀｲ
100
AcDbLine
 10
74.07751126577489
 20
101.1864460657508
 30
0.0
 11
74.07751126577489
 21
95.28644606575076
 31
0.0
  0
ARC
  5
2F18
330
1A
100
AcDbEntity
  8
ﾎﾝﾀｲ
 48
8.0
100
AcDbCircle
 10
74.37751126577484
 20
95.28644606575076
 30
0.0
 40
0.3
100
AcDbArc
 50
180.0
 51
270.0
  0
ARC
  5
2F19
330
1A
100
AcDbEntity
  8
ﾎﾝﾀｲ
 48
5.0
100
AcDbCircle
 10
69.57750343825324
 20
98.98644606575079
 30
0.0
 40
0.5
100
AcDbArc
 50
359.9999310025012
 51
90.0
  0
LINE
  5
2F1A
330
1A
100
AcDbEntity
  8
ﾎﾝﾀｲ
  6
Continuous
 62
     3
 48
8.0
100
AcDbLine
 10
73.77751126577493
 20
101.4864460657508
 30
0.0
 11
72.37751126577484
 21
101.4864460657508
 31
0.0
  0
LINE
  5
2F1B
330
1A
100
AcDbEntity
  8
ﾎﾝﾀｲ
100
AcDbLine
 10
64.57751126576773
 20
105.4864460657508
 30
0.0
 11
73.27743175230478
 21
105.4864460657508
 31
0.0
  0
ARC
  5
2F1C
330
1A
100
AcDbEntity
  8
ﾎﾝﾀｲ
100
AcDbCircle
 10
65.07751668481899
 20
109.9864460657508
 30
0.0
 40
0.5
100
AcDbArc
 50
90.0
 51
179.9999310025013
  0
ARC
  5
2F1D
330
1A
100
AcDbEntity
  8
ﾎﾝﾀｲ
 48
8.0
100
AcDbCircle
 10
70.37751126577489
 20
103.7864460657507
 30
0.0
 40
0.3
100
AcDbArc
 50
179.9999999999992
 51
270.0
  0
LINE
  5
2F1E
330
1A
100
AcDbEntity
  8
ﾎﾝﾀｲ
100
AcDbLine
 10
70.07751126577494
 20
105.4864460657508
 30
0.0
 11
70.07751126577488
 21
103.7864460657507
 31
0.0
  0
LINE
  5
2F1F
330
1A
100
AcDbEntity
  8
ﾎﾝﾀｲ
100
AcDbLine
 10
70.37751126577489
 20
103.4864460657508
 30
0.0
 11
72.07751126577488
 21
103.4864460657508
 31
0.0
  0
LINE
  5
2F20
330
1A
100
AcDbEntity
  8
ﾌﾀ
100
AcDbLine
 10
73.57743175230473
 20
102.4864460657782
 30
0.0
 11
73.57743175230473
 21
105.1864460657781
 31
0.0
  0
LINE
  5
2F21
330
1A
100
AcDbEntity
  8
ﾌﾀ
  6
Continuous
 62
     3
 48
8.0
100
AcDbLine
 10
74.32745396280131
 20
102.4864460657782
 30
0.0
 11
73.57743175230473
 21
102.4864460657782
 31
0.0
  0
ARC
  5
2F22
330
1A
100
AcDbEntity
  8
ﾌﾀ
100
AcDbCircle
 10
73.27743175230478
 20
105.1864460657782
 30
0.0
 40
0.3
100
AcDbArc
 50
0.0
 51
90.0
  0
LINE
  5
2F23
330
1A
100
AcDbEntity
  8
ﾎﾝﾀｲ
100
AcDbLine
 10
72.07751126577488
 20
103.4864460657508
 30
0.0
 11
72.07751126577488
 21
101.7864460657507
 31
0.0
  0
CIRCLE
  5
2F24
330
1A
100
AcDbEntity
  8
Ｏﾘﾝｸﾞ
100
AcDbCircle
 10
71.95243175227449
 20
104.4560953892635
 30
0.0
 40
1.5
  0
INSERT
  5
2F25
330
1A
100
AcDbEntity
  8
Ｏﾘﾝｸﾞ
  6
Continuous
 62
     2
100
AcDbBlockReference
  2
*X2
 10
-90.68291641545959
 20
-11.21111711534052
 30
0.0
1001
ACAD
1000
HATCH
1002
{
1070
    19
1000
_USER
1040
0.5
1040
1.570796326794896
1000
R14_HATCH_DATA
1000
757
1011
-89.6829164154596
1021
-11.21111711534052
1031
0.0
1011
-90.68291641545959
1021
-10.21111711534053
1031
0.0
1011
-90.68291641545959
1021
-11.21111711534052
1031
1.0
1040
0.0
1010
0.0
1020
0.0
1030
1.0
1000
_USER
1070
     0
1070
     0
1071
        1
1071
        1
1071
        1
1070
     2
1040
162.635348167734
1040
115.6542376945261
1040
1.5
1040
1.570796326794896
1040
7.853981633974482
1070
     1
1071
        0
1070
     0
1070
     0
1040
1.570796326794896
1040
0.5
1070
     0
1070
     1
1040
1.570796326794896
1040
534.0452579782403
1040
-117.7535362435636
1040
-0.5
1040
0.0
1070
     0
1071
        1
1040
534.0452579782403
1040
-117.7535362435636
1040
0.0
1002
}
  0
LINE
  5
2F26
330
1A
100
AcDbEntity
  8
ﾎﾝﾀｲ
100
AcDbLine
 10
75.07747754723618
 20
77.48644606575078
 30
0.0
 11
75.07747754723618
 21
48.48644059870128
 31
0.0
  0
LINE
  5
2F27
330
1A
100
AcDbEntity
  8
ﾎﾝﾀｲ
100
AcDbLine
 10
184.0775034381657
 20
98.98630818101196
 30
0.0
 11
184.0774432264902
 21
48.98630878312835
 31
0.0
  0
LINE
  5
2F28
330
1A
100
AcDbEntity
  8
CENTER L
 48
5.0
100
AcDbLine
 10
127.0775508309594
 20
132.9855598860089
 30
0.0
 11
127.0774298577885
 21
37.88492168876434
 31
0.0
  0
DIMENSION
  5
2F29
330
1A
100
AcDbEntity
  8
SUNPOU
100
AcDbDimension
280
     0
  2
*D9
 10
179.0774077015963
 20
39.07085097086383
 30
0.0
 11
127.0774426244162
 21
43.07085097086383
 31
0.0
 70
    32
  1
φ<>
 71
     5
 42
-1.0
 73
     0
 74
     0
 75
     0
  3
STANDARD
100
AcDbAlignedDimension
 13
75.07747754723618
 23
48.48644059870128
 33
0.0
 14
179.0774077015963
 24
48.48631425017821
 34
0.0
100
AcDbRotatedDimension
  0
LINE
  5
2F2A
330
1A
100
AcDbEntity
  8
ﾎﾝﾀｲ
100
AcDbLine
 10
127.0774432265344
 20
48.98637803188461
 30
0.0
 11
184.0774432264902
 21
48.98630878312835
 31
0.0
  0
LINE
  5
2F2F
330
1A
100
AcDbEntity
  8
ﾎﾝﾀｲ
100
AcDbLine
 10
184.0774432264902
 20
48.98630878312835
 30
0.0
 11
183.5774426243735
 21
48.48630878312872
 31
0.0
  0
LINE
  5
2F30
330
1A
100
AcDbEntity
  8
ﾎﾝﾀｲ
100
AcDbLine
 10
127.0775222108661
 20
110.4864460657368
 30
0.0
 11
189.0775178889576
 21
110.4862967407923
 31
0.0
  0
LINE
  5
2F31
330
1A
100
AcDbEntity
  8
ﾎﾝﾀｲ
100
AcDbLine
 10
189.0775034381554
 20
99.48629674079521
 30
0.0
 11
127.0775040404095
 21
99.48644606575113
 31
0.0
  0
LINE
  5
2F32
330
1A
100
AcDbEntity
  8
ﾎﾝﾀｲ
100
AcDbLine
 10
96.44281492291554
 20
124.4864460657508
 30
0.0
 11
157.7122533694911
 21
124.4863722830387
 31
0.0
  0
LINE
  5
2F33
330
1A
100
AcDbEntity
  8
ﾎﾝﾀｲ
100
AcDbLine
 10
82.07751006154456
 20
105.4864460657508
 30
0.0
 11
189.5775112658535
 21
105.4864460657508
 31
0.0
  0
LINE
  5
2F34
330
1A
100
AcDbEntity
  8
ﾎﾝﾀｲ
100
AcDbLine
 10
81.07751006154524
 20
104.4864472699843
 30
0.0
 11
81.07748115993912
 21
80.48644606575079
 31
0.0
  0
LINE
  5
2F35
330
1A
100
AcDbEntity
  8
ﾎﾝﾀｲ
100
AcDbLine
 10
77.07749862132243
 20
94.98644606575078
 30
0.0
 11
77.07747754723562
 21
77.48644606575078
 31
0.0
  0
LINE
  5
2F36
330
1A
100
AcDbEntity
  8
ﾎﾝﾀｲ
100
AcDbLine
 10
75.07747754723618
 20
77.48644606575078
 30
0.0
 11
127.0774802330759
 21
77.48644606575076
 31
0.0
  0
LINE
  5
2F37
330
1A
100
AcDbEntity
  8
ﾎﾝﾀｲ
100
AcDbLine
 10
75.57749922343806
 20
95.48644606577818
 30
0.0
 11
75.57747754723455
 21
77.48644606575078
 31
0.0
  0
LINE
  5
2F38
330
1A
100
AcDbEntity
  8
ﾎﾝﾀｲ
100
AcDbLine
 10
75.57748115993513
 20
80.48644606575079
 30
0.0
 11
127.0774840492386
 21
80.48644606575079
 31
0.0
  0
LINE
  5
2F39
330
1A
100
AcDbEntity
  8
ﾎﾝﾀｲ
100
AcDbLine
 10
87.07769195023457
 20
110.4864460657507
 30
0.0
 11
127.0775172869782
 21
110.4864460657508
 31
0.0
  0
LINE
  5
2F3A
330
1A
100
AcDbEntity
  8
ﾎﾝﾀｲ
100
AcDbLine
 10
81.57769195023446
 20
124.4864460657508
 30
0.0
 11
93.83225913711465
 21
124.4864460657508
 31
0.0
  0
LINE
  5
2F3B
330
1A
100
AcDbEntity
  8
ﾎﾝﾀｲ
100
AcDbLine
 10
86.57769195023456
 20
123.9864460657507
 30
0.0
 11
86.57769195023456
 21
110.9864460657508
 31
0.0
  0
LINE
  5
2F3C
330
1A
100
AcDbEntity
  8
ﾎﾝﾀｲ
100
AcDbLine
 10
81.07769195023445
 20
123.9864460657507
 30
0.0
 11
81.07769195023445
 21
110.9864460657508
 31
0.0
  0
ARC
  5
2F3D
330
1A
100
AcDbEntity
  8
ﾎﾝﾀｲ
 48
5.0
100
AcDbCircle
 10
82.07751006154456
 20
104.4864460657508
 30
0.0
 40
1.0
100
AcDbArc
 50
90.0
 51
179.9999310025013
  0
ARC
  5
2F3E
330
1A
100
AcDbEntity
  8
ﾎﾝﾀｲ
100
AcDbCircle
 10
80.57769195023444
 20
110.9864460657508
 30
0.0
 40
0.5
100
AcDbArc
 50
270.0
 51
0.0
  0
ARC
  5
2F3F
330
1A
100
AcDbEntity
  8
ﾎﾝﾀｲ
100
AcDbCircle
 10
87.07769195023457
 20
110.9864460657508
 30
0.0
 40
0.5
100
AcDbArc
 50
180.0
 51
270.0
  0
ARC
  5
2F40
330
1A
100
AcDbEntity
  8
ﾎﾝﾀｲ
100
AcDbCircle
 10
81.57769195023446
 20
123.9864460657507
 30
0.0
 40
0.5
100
AcDbArc
 50
90.0
 51
180.0
  0
ARC
  5
2F41
330
1A
100
AcDbEntity
  8
ﾎﾝﾀｲ
100
AcDbCircle
 10
86.07769195023456
 20
123.9864460657507
 30
0.0
 40
0.5
100
AcDbArc
 50
0.0
 51
90.0
  0
LINE
  5
2F42
330
1A
100
AcDbEntity
  8
ﾎﾝﾀｲ
100
AcDbLine
 10
95.94281492291555
 20
123.9864460657508
 30
0.0
 11
95.94281492291555
 21
110.9864460657508
 31
0.0
  0
LINE
  5
2F43
330
1A
100
AcDbEntity
  8
ﾎﾝﾀｲ
100
AcDbLine
 10
94.33225913711465
 20
123.9864460657507
 30
0.0
 11
94.33225913711465
 21
110.9864460657508
 31
0.0
  0
ARC
  5
2F44
330
1A
100
AcDbEntity
  8
ﾎﾝﾀｲ
100
AcDbCircle
 10
94.83225913711464
 20
110.9864460657508
 30
0.0
 40
0.5
100
AcDbArc
 50
180.0
 51
270.0
  0
ARC
  5
2F45
330
1A
100
AcDbEntity
  8
ﾎﾝﾀｲ
100
AcDbCircle
 10
95.44281492291554
 20
110.9864460657508
 30
0.0
 40
0.5
100
AcDbArc
 50
270.0
 51
0.0
  0
ARC
  5
2F46
330
1A
100
AcDbEntity
  8
ﾎﾝﾀｲ
100
AcDbCircle
 10
93.83225913711465
 20
123.9864460657507
 30
0.0
 40
0.5
100
AcDbArc
 50
0.0
 51
90.0
  0
ARC
  5
2F47
330
1A
100
AcDbEntity
  8
ﾎﾝﾀｲ
100
AcDbCircle
 10
96.44281492291554
 20
123.9864460657508
 30
0.0
 40
0.5
100
AcDbArc
 50
90.0
 51
180.0
  0
DIMENSION
  5
2F48
330
1A
100
AcDbEntity
  8
SUNPOU
100
AcDbDimension
280
     0
  2
*D10
 10
213.1801403012325
 20
110.4862967407923
 30
0.0
 11
213.1801403012324
 21
119.8196300741257
 31
0.0
 70
   160
 71
     5
 42
-1.0
 73
     0
 74
     0
 75
     0
  3
STANDARD
100
AcDbAlignedDimension
 13
189.5775112658535
 23
105.4864460657508
 33
0.0
 14
189.0775178889576
 24
110.4862967407923
 34
0.0
 50
90.0
100
AcDbRotatedDimension
  0
DIMENSION
  5
2F49
330
1A
100
AcDbEntity
  8
SUNPOU
100
AcDbDimension
280
     0
  2
*D11
 10
213.1801403012325
 20
99.48629674079377
 30
0.0
 11
213.1801403012324
 21
90.15296340746045
 31
0.0
 70
   160
 71
     5
 42
-1.0
 73
     0
 74
     0
 75
     0
  3
STANDARD
100
AcDbAlignedDimension
 13
189.5775112658535
 23
105.4864460657508
 33
0.0
 14
189.077504642389
 24
99.48629674079377
 34
0.0
 50
90.0
100
AcDbRotatedDimension
  0
LINE
  5
2F4A
330
1A
100
AcDbEntity
  8
ﾎﾝﾀｲ
100
AcDbLine
 10
189.5775166847238
 20
109.986296138677
 30
0.0
 11
189.5775046423885
 21
99.986296138677
 31
0.0
  0
ARC
  5
2F4B
330
1A
100
AcDbEntity
  8
ﾎﾝﾀｲ
100
AcDbCircle
 10
189.077504642389
 20
99.98629674079376
 30
0.0
 40
0.5
100
AcDbArc
 50
269.9998620050043
 51
359.9999310025016
  0
LINE
  5
2F4C
330
1A
100
AcDbEntity
  8
ﾎﾝﾀｲ
100
AcDbLine
 10
189.0775034381554
 20
99.48629674079521
 30
0.0
 11
184.5775046423989
 21
99.48630757889404
 31
0.0
  0
ARC
  5
2F4D
330
1A
100
AcDbEntity
  8
ﾎﾝﾀｲ
 48
5.0
100
AcDbCircle
 10
184.5775034381654
 20
98.98630757889549
 30
0.0
 40
0.5
100
AcDbArc
 50
89.99986200500432
 51
179.9999310025016
  0
ARC
  5
2F4E
330
1A
100
AcDbEntity
  8
ﾎﾝﾀｲ
100
AcDbCircle
 10
172.5773751378955
 20
123.9863364808811
 30
0.0
 40
0.5
100
AcDbArc
 50
359.9998620050023
 51
89.99986200500107
  0
LINE
  5
2F4F
330
1A
100
AcDbEntity
  8
ﾎﾝﾀｲ
100
AcDbLine
 10
154.8025116046757
 20
123.9863710788066
 30
0.0
 11
154.8025116046757
 21
110.9863780867823
 31
0.0
  0
LINE
  5
2F50
330
1A
100
AcDbEntity
  8
ﾎﾝﾀｲ
100
AcDbLine
 10
150.7838877104612
 20
123.9863710788066
 30
0.0
 11
150.7838877104611
 21
110.9863877655054
 31
0.0
  0
ARC
  5
2F51
330
1A
100
AcDbEntity
  8
ﾎﾝﾀｲ
100
AcDbCircle
 10
151.2838877104611
 20
110.9863877655054
 30
0.0
 40
0.5
100
AcDbArc
 50
179.9999999999999
 51
269.9998620050043
  0
ARC
  5
2F52
330
1A
100
AcDbEntity
  8
ﾎﾝﾀｲ
100
AcDbCircle
 10
155.3025116046757
 20
110.9863780867823
 30
0.0
 40
0.5
100
AcDbArc
 50
180.0000000000001
 51
269.9998620050043
  0
ARC
  5
2F53
330
1A
100
AcDbEntity
  8
ﾎﾝﾀｲ
100
AcDbCircle
 10
150.2838877104626
 20
123.9863710788066
 30
0.0
 40
0.5
100
AcDbArc
 50
359.9998620050023
 51
89.99986200500107
  0
ARC
  5
2F54
330
1A
100
AcDbEntity
  8
ﾎﾝﾀｲ
100
AcDbCircle
 10
154.302511604677
 20
123.9863722830401
 30
0.0
 40
0.5
100
AcDbArc
 50
359.9998620050023
 51
89.99986200500107
  0
LINE
  5
2F55
330
1A
100
AcDbEntity
  8
ﾎﾝﾀｲ
100
AcDbLine
 10
166.4710624053809
 20
123.9863511877341
 30
0.0
 11
166.4710310953092
 21
110.9863511877718
 31
0.0
  0
LINE
  5
2F56
330
1A
100
AcDbEntity
  8
ﾎﾝﾀｲ
100
AcDbLine
 10
159.8228079510522
 20
123.986367199836
 30
0.0
 11
159.8227766409804
 21
110.9863671998737
 31
0.0
  0
LINE
  5
2F57
330
1A
100
AcDbEntity
  8
ﾎﾝﾀｲ
100
AcDbLine
 10
158.2122521652561
 20
123.9863710788066
 30
0.0
 11
158.2122208551843
 21
110.9863710788442
 31
0.0
  0
ARC
  5
2F58
330
1A
100
AcDbEntity
  8
ﾎﾝﾀｲ
100
AcDbCircle
 10
159.3227766409819
 20
110.9863684041072
 30
0.0
 40
0.5
100
AcDbArc
 50
269.9998620050011
 51
359.9998620050023
  0
ARC
  5
2F59
330
1A
100
AcDbEntity
  8
ﾎﾝﾀｲ
100
AcDbCircle
 10
158.7122208551828
 20
110.9863698746107
 30
0.0
 40
0.5
100
AcDbArc
 50
179.9998620050024
 51
269.9998620050011
  0
ARC
  5
2F5A
330
1A
100
AcDbEntity
  8
ﾎﾝﾀｲ
100
AcDbCircle
 10
165.9710310953106
 20
110.9863523920054
 30
0.0
 40
0.5
100
AcDbArc
 50
269.9998620050011
 51
359.9998620050023
  0
LINE
  5
2F5B
330
1A
100
AcDbEntity
  8
ﾎﾝﾀｲ
100
AcDbLine
 10
172.577376342129
 20
124.4863364808796
 30
0.0
 11
160.3228091552843
 21
124.486365995601
 31
0.0
  0
ARC
  5
2F5C
330
1A
100
AcDbEntity
  8
ﾎﾝﾀｲ
100
AcDbCircle
 10
160.3228079510508
 20
123.9863659956024
 30
0.0
 40
0.5
100
AcDbArc
 50
89.99986200500107
 51
179.9998620050024
  0
ARC
  5
2F5D
330
1A
100
AcDbEntity
  8
ﾎﾝﾀｲ
100
AcDbCircle
 10
157.7122521652576
 20
123.9863722830401
 30
0.0
 40
0.5
100
AcDbArc
 50
359.9998620050023
 51
89.99986200500107
  0
ARC
  5
2F5E
330
1A
100
AcDbEntity
  8
ﾎﾝﾀｲ
100
AcDbCircle
 10
166.9710624053795
 20
123.9863499835006
 30
0.0
 40
0.5
100
AcDbArc
 50
89.99986200500107
 51
179.9998620050024
  0
ARC
  5
2F5F
330
1A
100
AcDbEntity
  8
ﾎﾝﾀｲ
100
AcDbCircle
 10
189.0775166847241
 20
109.9862967407937
 30
0.0
 40
0.5
100
AcDbArc
 50
359.9999310025016
 51
89.99986200500432
  0
LINE
  5
2F60
330
1A
100
AcDbEntity
  8
ﾎﾝﾀｲ
100
AcDbLine
 10
173.077375137894
 20
123.9863352766475
 30
0.0
 11
173.0773438278222
 21
110.9863352766852
 31
0.0
  0
ARC
  5
2F61
330
1A
100
AcDbEntity
  8
ﾎﾝﾀｲ
100
AcDbCircle
 10
173.5773438278207
 20
110.9863340724517
 30
0.0
 40
0.5
100
AcDbArc
 50
179.9998620050024
 51
269.9998620050011
  0
LINE
  5
2F62
330
1A
100
AcDbEntity
  8
CENTER L
 48
5.0
100
AcDbLine
 10
196.5778684418028
 20
213.1366510890578
 30
0.0
 11
57.57751668482137
 21
213.1367570514891
 31
0.0
  0
ARC
  5
2F63
330
1A
100
AcDbEntity
  8
ﾎﾝﾀｲ
100
AcDbCircle
 10
166.4711137327136
 20
242.2770250271135
 30
0.0
 40
2.0
100
AcDbArc
 50
36.49127958414012
 51
134.9999563224122
  0
ARC
  5
2F64
330
1A
100
AcDbEntity
  8
ﾎﾝﾀｲ
100
AcDbCircle
 10
87.68432029085454
 20
242.2770915598852
 30
0.0
 40
2.0
100
AcDbArc
 50
44.99994512552528
 51
143.5086218637976
  0
ARC
  5
2F65
330
1A
100
AcDbEntity
  8
ﾎﾝﾀｲ
100
AcDbCircle
 10
127.0776919502344
 20
213.136703816329
 30
0.0
 40
46.0
100
AcDbArc
 50
240.4040405589063
 51
299.595862623687
  0
ARC
  5
2F66
330
1A
100
AcDbEntity
  8
ﾎﾝﾀｲ
100
AcDbCircle
 10
127.0776919502345
 20
213.136703816329
 30
0.0
 40
40.49999999999999
100
AcDbArc
 50
234.8219689107549
 51
305.1779342718367
  0
TEXT
  5
2F67
330
1A
100
AcDbEntity
  8
SUNPOU
100
AcDbText
 10
138.9205630755967
 20
181.5437392495221
 30
0.0
 40
8.0
  1
0
 50
29.99999999999993
  7
ＭＳゴシック
100
AcDbText
  0
ARC
  5
2F68
330
1A
100
AcDbEntity
  8
ﾎﾝﾀｲ
100
AcDbCircle
 10
127.0776919502345
 20
213.136703816329
 30
0.0
 40
40.49999999999999
100
AcDbArc
 50
144.8219689107554
 51
215.1779342718357
  0
ARC
  5
2F69
330
1A
100
AcDbEntity
  8
ﾎﾝﾀｲ
100
AcDbCircle
 10
127.0776919502344
 20
213.136703816329
 30
0.0
 40
46.0
100
AcDbArc
 50
150.4040405589049
 51
209.5958626236864
  0
ARC
  5
2F6A
330
1A
100
AcDbEntity
  8
ﾎﾝﾀｲ
100
AcDbCircle
 10
97.93730420667827
 20
173.743332156949
 30
0.0
 40
2.0
100
AcDbArc
 50
134.9999451255266
 51
233.5086218637964
  0
ARC
  5
2F6B
330
1A
100
AcDbEntity
  8
ﾎﾝﾀｲ
100
AcDbCircle
 10
99.17350939256824
 20
172.8582166630256
 30
0.0
 40
2.0
100
AcDbArc
 50
235.2865057369994
 51
314.999945125524
  0
ARC
  5
2F6C
330
1A
100
AcDbEntity
  8
ﾎﾝﾀｲ
100
AcDbCircle
 10
127.0776931763891
 20
213.136703816328
 30
0.0
 40
51.0
100
AcDbArc
 50
233.5086218637963
 51
235.2865057369993
  0
ARC
  5
2F6D
330
1A
100
AcDbEntity
  8
ﾎﾝﾀｲ
100
AcDbCircle
 10
103.3714256253316
 20
171.3992760230668
 30
0.0
 40
2.0
100
AcDbArc
 50
60.40403882424948
 51
134.9999451255266
  0
LINE
  5
2F6E
330
1A
100
AcDbEntity
  8
ﾎﾝﾀｲ
100
AcDbLine
 10
101.9572134174085
 20
172.8134909398885
 30
0.0
 11
100.5877216004913
 21
171.4440017462038
 31
0.0
  0
LINE
  5
2F6F
330
1A
100
AcDbEntity
  8
ﾎﾝﾀｲ
100
AcDbLine
 10
93.75381402696223
 20
187.2374922423283
 30
0.0
 11
89.09848265204789
 21
182.5821679650917
 31
0.0
  0
ARC
  5
2F70
330
1A
100
AcDbEntity
  8
ﾎﾝﾀｲ
100
AcDbCircle
 10
86.7991568001778
 20
185.2325893138825
 30
0.0
 40
2.0
100
AcDbArc
 50
134.9999563224127
 51
214.7133957109362
  0
ARC
  5
2F71
330
1A
100
AcDbEntity
  8
ﾎﾝﾀｲ
100
AcDbCircle
 10
87.68427016775536
 20
183.9963826055445
 30
0.0
 40
2.0
100
AcDbArc
 50
216.4912795841401
 51
314.9999563224122
  0
ARC
  5
2F72
330
1A
100
AcDbEntity
  8
ﾎﾝﾀｲ
100
AcDbCircle
 10
127.0776919502345
 20
213.136703816329
 30
0.0
 40
51.0
100
AcDbArc
 50
214.7133957109363
 51
216.4912795841402
  0
LINE
  5
2F73
330
1A
100
AcDbEntity
  8
ﾎﾝﾀｲ
100
AcDbLine
 10
86.75443586517316
 20
188.0162934156495
 30
0.0
 11
85.38494431588503
 21
186.6468039543353
 31
0.0
  0
ARC
  5
2F74
330
1A
100
AcDbEntity
  8
ﾎﾝﾀｲ
100
AcDbCircle
 10
85.3402233808805
 20
189.4305080561023
 30
0.0
 40
2.0
100
AcDbArc
 50
314.9999563224122
 51
29.59586262368643
  0
LINE
  5
2F75
330
1A
100
AcDbEntity
  8
ﾎﾝﾀｲ
100
AcDbLine
 10
101.1784242834246
 20
179.8128704412505
 30
0.0
 11
96.52309199875515
 21
175.1575470737708
 31
0.0
  0
ARC
  5
2F76
330
1A
100
AcDbEntity
  8
ﾎﾝﾀｲ
100
AcDbCircle
 10
102.5926364913479
 20
178.3986555244288
 30
0.0
 40
2.0
100
AcDbArc
 50
54.82196717610051
 51
134.9999451255266
  0
ARC
  5
2F77
330
1A
100
AcDbEntity
  8
ﾎﾝﾀｲ
100
AcDbCircle
 10
92.33960154266958
 20
188.6517068827811
 30
0.0
 40
2.0
100
AcDbArc
 50
314.9999563224122
 51
35.17793427183609
  0
TEXT
  5
2F78
330
1A
100
AcDbEntity
  8
SUNPOU
100
AcDbText
 10
117.522708594358
 20
180.7782226778649
 30
0.0
 40
8.0
  1
O
 50
352.9999999999998
  7
ＭＳゴシック
100
AcDbText
  0
TEXT
  5
2F79
330
1A
100
AcDbEntity
  8
SUNPOU
100
AcDbText
 10
107.9910421825899
 20
185.3146117101145
 30
0.0
 40
8.0
  1
C
 50
335.0000000000008
  7
ＭＳゴシック
100
AcDbText
  0
TEXT
  5
2F7A
330
1A
100
AcDbEntity
  8
SUNPOU
100
AcDbText
 10
131.5101603009133
 20
179.689398501257
 30
0.0
 40
8.0
  1
1
 50
16.99999999999927
  7
ＭＳゴシック
100
AcDbText
  0
LINE
  5
2F7B
330
1A
100
AcDbEntity
  8
ﾎﾝﾀｲ
100
AcDbLine
 10
93.75385857515595
 20
239.0359714831388
 30
0.0
 11
89.09853520767626
 21
243.6913037678083
 31
0.0
  0
LINE
  5
2F7C
330
1A
100
AcDbEntity
  8
ﾎﾝﾀｲ
100
AcDbLine
 10
86.75447907379407
 20
238.257182349155
 30
0.0
 11
85.38498988010941
 21
239.6266741660721
 31
0.0
  0
ARC
  5
2F7D
330
1A
100
AcDbEntity
  8
ﾎﾝﾀｲ
100
AcDbCircle
 10
85.34026415697235
 20
236.8429701412318
 30
0.0
 40
2.0
100
AcDbArc
 50
330.404038824251
 51
44.99994512552528
  0
ARC
  5
2F7E
330
1A
100
AcDbEntity
  8
ﾎﾝﾀｲ
100
AcDbCircle
 10
127.0776919502335
 20
213.1367025901744
 30
0.0
 40
51.0
100
AcDbArc
 50
143.5086218637975
 51
145.2865057370001
  0
ARC
  5
2F7F
330
1A
100
AcDbEntity
  8
ﾎﾝﾀｲ
100
AcDbCircle
 10
86.79920479693112
 20
241.0408863739953
 30
0.0
 40
2.0
100
AcDbArc
 50
145.2865057370003
 51
224.9999451255248
  0
ARC
  5
2F80
330
1A
100
AcDbEntity
  8
ﾎﾝﾀｲ
100
AcDbCircle
 10
92.33964365833424
 20
237.6217592752156
 30
0.0
 40
2.0
100
AcDbArc
 50
324.8219671760995
 51
44.99994512552528
  0
ARC
  5
2F81
330
1A
100
AcDbEntity
  8
ﾎﾝﾀｲ
100
AcDbCircle
 10
127.0776919502345
 20
213.136703816329
 30
0.0
 40
46.0
100
AcDbArc
 50
330.4040405589049
 51
29.59586262368643
  0
ARC
  5
2F82
330
1A
100
AcDbEntity
  8
ﾎﾝﾀｲ
100
AcDbCircle
 10
127.0776919502345
 20
213.136703816329
 30
0.0
 40
40.49999999999999
100
AcDbArc
 50
324.8219689107555
 51
35.17793427183568
  0
ARC
  5
2F83
330
1A
100
AcDbEntity
  8
ﾎﾝﾀｲ
100
AcDbCircle
 10
156.218013161019
 20
173.7432820338498
 30
0.0
 40
2.0
100
AcDbArc
 50
306.49127958414
 51
44.99995632241126
  0
ARC
  5
2F84
330
1A
100
AcDbEntity
  8
ﾎﾝﾀｲ
100
AcDbCircle
 10
127.0776919502345
 20
213.136703816329
 30
0.0
 40
51.0
100
AcDbArc
 50
304.7133957109364
 51
306.4912795841401
  0
LINE
  5
2F85
330
1A
100
AcDbEntity
  8
ﾎﾝﾀｲ
100
AcDbLine
 10
152.1981023509139
 20
172.8134477312676
 30
0.0
 11
153.5675918122282
 21
171.4439561819795
 31
0.0
  0
ARC
  5
2F86
330
1A
100
AcDbEntity
  8
ﾎﾝﾀｲ
100
AcDbCircle
 10
150.7838877104611
 20
171.399235246975
 30
0.0
 40
2.0
100
AcDbArc
 50
44.99995632241126
 51
119.595862623687
  0
ARC
  5
2F87
330
1A
100
AcDbEntity
  8
ﾎﾝﾀｲ
100
AcDbCircle
 10
154.9818064526809
 20
172.8581686662723
 30
0.0
 40
2.0
100
AcDbArc
 50
224.9999563224117
 51
304.7133957109362
  0
LINE
  5
2F88
330
1A
100
AcDbEntity
  8
ﾎﾝﾀｲ
100
AcDbLine
 10
152.9769035242351
 20
179.8128258930567
 30
0.0
 11
157.6322278014717
 21
175.1574945181424
 31
0.0
  0
TEXT
  5
2F89
330
1A
100
AcDbEntity
  8
SUNPOU
100
AcDbText
 10
148.1036944697788
 20
186.7496572169855
 30
0.0
 40
8.0
  1
0
 50
47.99999999999946
  7
ＭＳゴシック
100
AcDbText
  0
ARC
  5
2F8A
330
1A
100
AcDbEntity
  8
ﾎﾝﾀｲ
100
AcDbCircle
 10
151.5626888837824
 20
178.3986134087641
 30
0.0
 40
2.0
100
AcDbArc
 50
44.99995632241126
 51
125.1779342718369
  0
LINE
  5
2F8B
330
1A
100
AcDbEntity
  8
ﾎﾝﾀｲ
100
AcDbLine
 10
160.4015253253129
 20
187.2374361495191
 30
0.0
 11
165.0568486927927
 21
182.5821038648497
 31
0.0
  0
ARC
  5
2F8C
330
1A
100
AcDbEntity
  8
ﾎﾝﾀｲ
100
AcDbCircle
 10
167.3561791035379
 20
185.2325212586627
 30
0.0
 40
2.0
100
AcDbArc
 50
325.2865057370003
 51
44.99994512552484
  0
ARC
  5
2F8D
330
1A
100
AcDbEntity
  8
ﾎﾝﾀｲ
100
AcDbCircle
 10
127.0776919502356
 20
213.1367050424837
 30
0.0
 40
51.0
100
AcDbArc
 50
323.5086218637974
 51
325.2865057370002
  0
ARC
  5
2F8E
330
1A
100
AcDbEntity
  8
ﾎﾝﾀｲ
100
AcDbCircle
 10
166.4710636096145
 20
183.9963160727728
 30
0.0
 40
2.0
100
AcDbArc
 50
224.9999451255253
 51
323.5086218637976
  0
ARC
  5
2F8F
330
1A
100
AcDbEntity
  8
ﾎﾝﾀｲ
100
AcDbCircle
 10
161.8157402421346
 20
188.6516483574424
 30
0.0
 40
2.0
100
AcDbArc
 50
144.8219671760995
 51
224.9999451255253
  0
LINE
  5
2F90
330
1A
100
AcDbEntity
  8
ﾎﾝﾀｲ
100
AcDbLine
 10
167.4009048266749
 20
188.016225283503
 30
0.0
 11
168.7703940203596
 21
186.6467334665859
 31
0.0
  0
ARC
  5
2F91
330
1A
100
AcDbEntity
  8
ﾎﾝﾀｲ
100
AcDbCircle
 10
168.8151197434966
 20
189.4304374914262
 30
0.0
 40
2.0
100
AcDbArc
 50
150.404038824251
 51
224.9999451255253
  0
LINE
  5
2F92
330
1A
100
AcDbEntity
  8
ﾎﾝﾀｲ
100
AcDbLine
 10
160.4015698735066
 20
239.0359153903296
 30
0.0
 11
165.056901248421
 21
243.6912396675662
 31
0.0
  0
ARC
  5
2F93
330
1A
100
AcDbEntity
  8
ﾎﾝﾀｲ
100
AcDbCircle
 10
161.8157823577993
 20
237.6217007498769
 30
0.0
 40
2.0
100
AcDbArc
 50
134.9999563224122
 51
215.1779342718361
  0
LINE
  5
2F94
330
1A
100
AcDbEntity
  8
ﾎﾝﾀｲ
100
AcDbLine
 10
167.4009480352959
 20
238.2571142170085
 30
0.0
 11
168.7704395845838
 21
239.6266036783227
 31
0.0
  0
ARC
  5
2F95
330
1A
100
AcDbEntity
  8
ﾎﾝﾀｲ
100
AcDbCircle
 10
168.8151605195885
 20
236.8428995765557
 30
0.0
 40
2.0
100
AcDbArc
 50
134.9999563224122
 51
209.5958626236864
  0
ARC
  5
2F96
330
1A
100
AcDbEntity
  8
ﾎﾝﾀｲ
100
AcDbCircle
 10
127.0776919502345
 20
213.136703816329
 30
0.0
 40
51.0
100
AcDbArc
 50
34.71339571093632
 51
36.49127958414019
  0
ARC
  5
2F97
330
1A
100
AcDbEntity
  8
ﾎﾝﾀｲ
100
AcDbCircle
 10
167.3562271002912
 20
241.0408183187755
 30
0.0
 40
2.0
100
AcDbArc
 50
314.9999563224126
 51
34.71339571093615
  0
ARC
  5
2F98
330
1A
100
AcDbEntity
  8
ﾎﾝﾀｲ
100
AcDbCircle
 10
127.0776919502345
 20
213.136703816329
 30
0.0
 40
46.0
100
AcDbArc
 50
60.40404055890633
 51
119.595862623687
  0
ARC
  5
2F99
330
1A
100
AcDbEntity
  8
ﾎﾝﾀｲ
100
AcDbCircle
 10
127.0776919502344
 20
213.136703816329
 30
0.0
 40
40.49999999999999
100
AcDbArc
 50
54.82196891075485
 51
125.1779342718367
  0
ARC
  5
2F9A
330
1A
100
AcDbEntity
  8
ﾎﾝﾀｲ
100
AcDbCircle
 10
99.17357744778804
 20
253.4152389663857
 30
0.0
 40
2.0
100
AcDbArc
 50
44.99995632241168
 51
124.7133957109363
  0
LINE
  5
2F9B
330
1A
100
AcDbEntity
  8
ﾎﾝﾀｲ
100
AcDbLine
 10
101.1784803762339
 20
246.4605817396012
 30
0.0
 11
96.52315609899734
 21
251.1159131145156
 31
0.0
  0
ARC
  5
2F9C
330
1A
100
AcDbEntity
  8
ﾎﾝﾀｲ
100
AcDbCircle
 10
127.0776919502344
 20
213.136703816329
 30
0.0
 40
51.0
100
AcDbArc
 50
124.7133957109363
 51
126.49127958414
  0
ARC
  5
2F9D
330
1A
100
AcDbEntity
  8
ﾎﾝﾀｲ
100
AcDbCircle
 10
97.9373707394501
 20
252.5301255988082
 30
0.0
 40
2.0
100
AcDbArc
 50
126.4912795841399
 51
224.9999563224113
  0
ARC
  5
2F9E
330
1A
100
AcDbEntity
  8
ﾎﾝﾀｲ
100
AcDbCircle
 10
102.5926950166866
 20
247.8747942238939
 30
0.0
 40
2.0
100
AcDbArc
 50
224.9999563224113
 51
305.1779342718369
  0
ARC
  5
2F9F
330
1A
100
AcDbEntity
  8
ﾎﾝﾀｲ
100
AcDbCircle
 10
103.3714961900078
 20
254.874172385683
 30
0.0
 40
2.0
100
AcDbArc
 50
224.9999563224113
 51
299.595862623687
  0
LINE
  5
2FA0
330
1A
100
AcDbEntity
  8
ﾎﾝﾀｲ
100
AcDbLine
 10
101.9572815495551
 20
253.4599599013904
 30
0.0
 11
100.5877920882409
 21
254.8294514506784
 31
0.0
  0
LINE
  5
2FA1
330
1A
100
AcDbEntity
  8
ﾎﾝﾀｲ
100
AcDbLine
 10
152.9769596170444
 20
246.4605371914075
 30
0.0
 11
157.6322919017139
 21
251.1158605588871
 31
0.0
  0
ARC
  5
2FA2
330
1A
100
AcDbEntity
  8
ﾎﾝﾀｲ
100
AcDbCircle
 10
127.0776907240798
 20
213.13670381633
 30
0.0
 40
51.0
100
AcDbArc
 50
53.50862186379632
 51
55.2865057369993
  0
ARC
  5
2FA3
330
1A
100
AcDbEntity
  8
ﾎﾝﾀｲ
100
AcDbCircle
 10
151.5627474091212
 20
247.8747521082292
 30
0.0
 40
2.0
100
AcDbArc
 50
234.8219671761006
 51
314.9999451255266
  0
LINE
  5
2FA4
330
1A
100
AcDbEntity
  8
ﾎﾝﾀｲ
100
AcDbLine
 10
152.1981704830606
 20
253.4599166927695
 30
0.0
 11
153.5676622999776
 21
254.8294058864541
 31
0.0
  0
ARC
  5
2FA5
330
1A
100
AcDbEntity
  8
ﾎﾝﾀｲ
100
AcDbCircle
 10
150.7839582751373
 20
254.8741316095911
 30
0.0
 40
2.0
100
AcDbArc
 50
240.4040388242495
 51
314.9999451255266
  0
ARC
  5
2FA6
330
1A
100
AcDbEntity
  8
ﾎﾝﾀｲ
100
AcDbCircle
 10
154.9818745079009
 20
253.4151909696323
 30
0.0
 40
2.0
100
AcDbArc
 50
55.28650573699938
 51
134.9999451255239
  0
ARC
  5
2FA7
330
1A
100
AcDbEntity
  8
ﾎﾝﾀｲ
100
AcDbCircle
 10
156.2180796937907
 20
252.5300754757089
 30
0.0
 40
2.0
100
AcDbArc
 50
314.9999451255266
 51
53.50862186379639
  0
TEXT
  5
31A8
330
1A
100
AcDbEntity
  8
SUNPOU
100
AcDbText
 10
252.799011460908
 20
250.8474552347085
 30
0.0
 40
4.0
  1
１．ねじ部はＪＩＳ　Ｂ　０２０２（管用平行ネジ）とする
100
AcDbText
  0
DIMENSION
  5
340A
330
1A
100
AcDbEntity
  8
SUNPOU
100
AcDbDimension
280
     0
  2
*D12
 10
164.4036234479763
 20
168.3860883427139
 30
0.0
 11
165.2875089678673
 21
174.9268223397886
 31
0.0
 70
    33
 71
     5
 42
-1.0
 73
     0
 74
     0
 75
     0
  3
STANDARD
100
AcDbAlignedDimension
 13
165.0568486927927
 23
182.5821038648496
 33
0.0
 14
157.6322278014718
 24
175.1574945181424
 34
0.0
  0
LINE
  5
3417
330
1A
100
AcDbEntity
  8
ﾌﾀ
100
AcDbLine
 10
102.3938345018882
 20
123.6852711349942
 30
0.0
 11
102.3938345018882
 21
111.2656308431714
 31
0.0
  0
DIMENSION
  5
3418
330
1A
100
AcDbEntity
  8
SUNPOU
100
AcDbDimension
280
     0
  2
*D13
 10
189.5775166847238
 20
136.722260573752
 30
0.0
 11
127.0775166847716
 21
140.722260573752
 31
0.0
 70
    32
  1
φ<>
 71
     5
 42
-1.0
 73
     0
 74
     0
 75
     0
  3
STANDARD
100
AcDbAlignedDimension
 13
64.57751668481932
 23
109.9864466678675
 33
0.0
 14
189.5775166847238
 24
109.986296138677
 34
0.0
100
AcDbRotatedDimension
  0
DIMENSION
  5
36E8
330
1A
100
AcDbEntity
  8
SUNPOU
100
AcDbDimension
280
     0
  2
*D14
 10
233.8840738840615
 20
48.48630878312871
 30
0.0
 11
229.8840738840615
 21
86.4863226320042
 31
0.0
 70
    32
 71
     5
 42
-1.0
 73
     0
 74
     0
 75
     0
  3
STANDARD
100
AcDbAlignedDimension
 13
172.577376342129
 23
124.4863364808796
 33
0.0
 14
183.5774426243735
 24
48.48630878312872
 34
0.0
 50
90.0
100
AcDbRotatedDimension
  0
MTEXT
  5
37E1
330
1A
100
AcDbEntity
  8
SUNPOU
  6
Continuous
100
AcDbMText
 10
61.92412772444299
 20
122.7784624385066
 30
0.0
 40
3.3
 41
0.0
 46
0.0
 71
     9
 72
     5
  1
\A1;０リング
 73
     1
 44
1.0
  0
LEADER
  5
37E2
330
1A
100
AcDbEntity
  8
SUNPOU
100
AcDbLeader
  3
STANDARD
 76
     3
 10
71.50678050492365
 20
105.3977236437678
 30
0.0
 10
62.85213358292344
 20
121.6020001441742
 30
0.0
 10
46.92753106113423
 20
121.6020001441742
 30
0.0
213
0.0
223
1.5
233
0.0
1001
ACAD
1000
DSTYLE
1002
{
1070
     6
1000
OPEN
1070
    41
1040
3.0
1070
    42
1040
3.0
1070
    43
1040
7.0
1070
    44
1040
1.5
1070
    73
1070
     0
1070
    74
1070
     0
1070
    77
1070
     0
1070
   140
1040
3.0
1070
   141
1040
150.0
1070
   147
1040
1.0
1070
   172
1070
     1
1070
   173
1070
     1
1070
   176
1070
   256
1070
   177
1070
   256
1070
   178
1070
   256
1070
   271
1070
     0
1070
   272
1070
     0
1070
   341
1005
B2
1070
   343
1005
B2
1070
   344
1005
B2
1070
   371
1070
    -1
1070
   372
1070
    -1
1002
}
  0
TEXT
  5
398C
330
1A
100
AcDbEntity
  8
ZUWAKU
100
AcDbText
 10
258.5239696606507
 20
-4.422918451760892
 30
0.0
 40
4.0
  1
2021.07.16  注記「２．Ｏリングの材質はＳＢＲとする」を削除
100
AcDbText
  0
TEXT
  5
398D
330
1A
100
AcDbEntity
  8
ZUWAKU
100
AcDbText
 10
258.62599695329
 20
-11.62291845176087
 30
0.0
 40
4.0
  1
               色品番：「タフグレー」を追加
100
AcDbText
  0
TEXT
  5
39C3
330
1A
100
AcDbEntity
  8
moji
100
AcDbText
 10
327.4094708886027
 20
44.85297984531209
 30
0.0
 40
2.799999999999999
  1
タフグレー
 41
0.9
  7
ｽﾀｲﾙ1
100
AcDbText
  0
TEXT
  5
39C4
330
1A
100
AcDbEntity
  8
moji
100
AcDbText
 10
331.3721301936261
 20
85.06322154176363
 30
0.0
 40
2.799999999999999
  1
色
 41
0.9
  7
ｽﾀｲﾙ1
100
AcDbText
  0
TEXT
  5
39C5
330
1A
100
AcDbEntity
  8
moji
100
AcDbText
 10
358.0100079287894
 20
85.06322154176363
 30
0.0
 40
2.799999999999999
  1
品 番
 41
0.9
  7
ｽﾀｲﾙ1
100
AcDbText
  0
LINE
  5
39C6
330
1A
100
AcDbEntity
  8
ZUWAKU
100
AcDbLine
 10
321.7451031717878
 20
82.72784322650004
 30
0.0
 11
381.2478399266661
 21
82.72784322650004
 31
0.0
  0
LINE
  5
39C7
330
1A
100
AcDbEntity
  8
ZUWAKU
100
AcDbLine
 10
321.7451031717878
 20
82.62784322650004
 30
0.0
 11
381.2478399266661
 21
82.62784322650004
 31
0.0
  0
LINE
  5
39C8
330
1A
100
AcDbEntity
  8
ZUWAKU
100
AcDbLine
 10
321.7451031717878
 20
82.52784322650004
 30
0.0
 11
381.2478399266661
 21
82.52784322650004
 31
0.0
  0
LINE
  5
39C9
330
1A
100
AcDbEntity
  8
ZUWAKU
100
AcDbLine
 10
321.7451031717878
 20
41.92858505627977
 30
0.0
 11
321.7451031717878
 21
90.8476948605441
 31
0.0
  0
LINE
  5
39CA
330
1A
100
AcDbEntity
  8
ZUWAKU
100
AcDbLine
 10
321.7451031717878
 20
90.64769486054409
 30
0.0
 11
381.2478399266661
 21
90.64769486054409
 31
0.0
  0
LINE
  5
39CB
330
1A
100
AcDbEntity
  8
ZUWAKU
100
AcDbLine
 10
321.7451031717878
 20
90.74769486054409
 30
0.0
 11
381.2478399266661
 21
90.74769486054409
 31
0.0
  0
LINE
  5
39CC
330
1A
100
AcDbEntity
  8
ZUWAKU
100
AcDbLine
 10
321.7451031717878
 20
90.8476948605441
 30
0.0
 11
381.2478399266661
 21
90.8476948605441
 31
0.0
  0
LINE
  5
39CD
330
1A
100
AcDbEntity
  8
ZUWAKU
100
AcDbLine
 10
321.7451031717878
 20
74.40799159245599
 30
0.0
 11
381.2478399266661
 21
74.40799159245599
 31
0.0
  0
LINE
  5
39CE
330
1A
100
AcDbEntity
  8
ZUWAKU
100
AcDbLine
 10
321.7451031717878
 20
74.50799159245597
 30
0.0
 11
381.2478399266661
 21
74.50799159245597
 31
0.0
  0
LINE
  5
39CF
330
1A
100
AcDbEntity
  8
ZUWAKU
100
AcDbLine
 10
321.7451031717878
 20
74.60799159245599
 30
0.0
 11
381.2478399266661
 21
74.60799159245599
 31
0.0
  0
LINE
  5
39D0
330
1A
100
AcDbEntity
  8
ZUWAKU
100
AcDbLine
 10
321.7451031717878
 20
58.36828832436788
 30
0.0
 11
381.2478399266661
 21
58.36828832436788
 31
0.0
  0
LINE
  5
39D1
330
1A
100
AcDbEntity
  8
ZUWAKU
100
AcDbLine
 10
321.7451031717878
 20
58.26828832436787
 30
0.0
 11
381.2478399266661
 21
58.26828832436787
 31
0.0
  0
LINE
  5
39D2
330
1A
100
AcDbEntity
  8
ZUWAKU
100
AcDbLine
 10
321.7451031717878
 20
58.16828832436788
 30
0.0
 11
381.2478399266661
 21
58.16828832436788
 31
0.0
  0
LINE
  5
39D3
330
1A
100
AcDbEntity
  8
ZUWAKU
100
AcDbLine
 10
321.7451031717878
 20
66.28813995841193
 30
0.0
 11
381.2478399266661
 21
66.28813995841193
 31
0.0
  0
LINE
  5
39D4
330
1A
100
AcDbEntity
  8
ZUWAKU
100
AcDbLine
 10
321.7451031717878
 20
66.38813995841193
 30
0.0
 11
381.2478399266661
 21
66.38813995841193
 31
0.0
  0
LINE
  5
39D5
330
1A
100
AcDbEntity
  8
ZUWAKU
100
AcDbLine
 10
321.7451031717878
 20
66.48813995841194
 30
0.0
 11
381.2478399266661
 21
66.48813995841194
 31
0.0
  0
LINE
  5
39D6
330
1A
100
AcDbEntity
  8
ZUWAKU
100
AcDbLine
 10
321.7451031717878
 20
41.92858505627977
 30
0.0
 11
381.2478399266661
 21
41.92858505627977
 31
0.0
  0
LINE
  5
39D7
330
1A
100
AcDbEntity
  8
ZUWAKU
100
AcDbLine
 10
321.7451031717878
 20
42.02858505627976
 30
0.0
 11
381.2478399266661
 21
42.02858505627976
 31
0.0
  0
LINE
  5
39D8
330
1A
100
AcDbEntity
  8
ZUWAKU
100
AcDbLine
 10
321.7451031717878
 20
42.12858505627977
 30
0.0
 11
381.2478399266661
 21
42.12858505627977
 31
0.0
  0
TEXT
  5
39D9
330
1A
100
AcDbEntity
  8
moji
100
AcDbText
 10
327.4094708886027
 20
61.0926831134002
 30
0.0
 40
2.799999999999999
  1
ココア
 41
0.9
  7
ｽﾀｲﾙ1
100
AcDbText
  0
TEXT
  5
39DA
330
1A
100
AcDbEntity
  8
moji
100
AcDbText
 10
327.4094708886027
 20
69.21253474744425
 30
0.0
 40
2.799999999999999
  1
ホワイト
 41
0.9
  7
ｽﾀｲﾙ1
100
AcDbText
  0
TEXT
  5
39DB
330
1A
100
AcDbEntity
  8
moji
100
AcDbText
 10
327.4094708886027
 20
52.97283147935615
 30
0.0
 40
2.799999999999999
  1
クリーム
 41
0.9
  7
ｽﾀｲﾙ1
100
AcDbText
  0
TEXT
  5
39E5
330
1A
100
AcDbEntity
  8
moji
100
AcDbText
 10
355.4078995118606
 20
44.85297984531209
 30
0.0
 40
2.799999999999999
  1
ＧＮＣＯ１ＨＮ
 41
0.9
  7
ｽﾀｲﾙ1
100
AcDbText
  0
LINE
  5
39E6
330
1A
100
AcDbEntity
  8
ZUWAKU
100
AcDbLine
 10
321.7451031717878
 20
50.24843669032382
 30
0.0
 11
381.2478399266661
 21
50.24843669032382
 31
0.0
  0
LINE
  5
39E7
330
1A
100
AcDbEntity
  8
ZUWAKU
100
AcDbLine
 10
321.7451031717878
 20
50.14843669032382
 30
0.0
 11
381.2478399266661
 21
50.14843669032382
 31
0.0
  0
LINE
  5
39E8
330
1A
100
AcDbEntity
  8
ZUWAKU
100
AcDbLine
 10
321.7451031717878
 20
50.04843669032382
 30
0.0
 11
381.2478399266661
 21
50.04843669032382
 31
0.0
  0
LINE
  5
39E9
330
1A
100
AcDbEntity
  8
ZUWAKU
100
AcDbLine
 10
321.8451031717878
 20
41.92858505627977
 30
0.0
 11
321.8451031717878
 21
90.8476948605441
 31
0.0
  0
LINE
  5
39EA
330
1A
100
AcDbEntity
  8
ZUWAKU
100
AcDbLine
 10
321.9451031717878
 20
41.92858505627976
 30
0.0
 11
321.9451031717878
 21
90.84769486054408
 31
0.0
  0
LINE
  5
39EB
330
1A
100
AcDbEntity
  8
ZUWAKU
100
AcDbLine
 10
347.6571010835686
 20
41.92858505627977
 30
0.0
 11
347.6571010835686
 21
90.8476948605441
 31
0.0
  0
LINE
  5
39EC
330
1A
100
AcDbEntity
  8
ZUWAKU
100
AcDbLine
 10
347.7571010835686
 20
41.92858505627977
 30
0.0
 11
347.7571010835686
 21
90.8476948605441
 31
0.0
  0
LINE
  5
39ED
330
1A
100
AcDbEntity
  8
ZUWAKU
100
AcDbLine
 10
347.8571010835687
 20
41.92858505627976
 30
0.0
 11
347.8571010835687
 21
90.84769486054408
 31
0.0
  0
LINE
  5
39EE
330
1A
100
AcDbEntity
  8
ZUWAKU
100
AcDbLine
 10
381.0478399266662
 20
41.92858505627977
 30
0.0
 11
381.0478399266662
 21
90.8476948605441
 31
0.0
  0
LINE
  5
39EF
330
1A
100
AcDbEntity
  8
ZUWAKU
100
AcDbLine
 10
381.1478399266662
 20
41.92858505627977
 30
0.0
 11
381.1478399266662
 21
90.8476948605441
 31
0.0
  0
LINE
  5
39F0
330
1A
100
AcDbEntity
  8
ZUWAKU
100
AcDbLine
 10
381.2478399266662
 20
41.92858505627976
 30
0.0
 11
381.2478399266662
 21
90.84769486054408
 31
0.0
  0
TEXT
  5
39F1
330
1A
100
AcDbEntity
  8
moji
100
AcDbText
 10
327.4094708886027
 20
77.3323863814883
 30
0.0
 40
2.799999999999999
  1
シルバー
 41
0.9
  7
ｽﾀｲﾙ1
100
AcDbText
  0
TEXT
  5
39F2
330
1A
100
AcDbEntity
  8
moji
100
AcDbText
 10
355.4078995118607
 20
77.3323863814883
 30
0.0
 40
2.799999999999999
  1
ＪＮＣＯ１ＨＮ
 41
0.9
  7
ｽﾀｲﾙ1
100
AcDbText
  0
TEXT
  5
39F6
330
1A
100
AcDbEntity
  8
moji
100
AcDbText
 10
355.4078995118607
 20
69.21253474744425
 30
0.0
 40
2.799999999999999
  1
ＮＣＯ1ＨＷＮ
 41
0.9
  7
ｽﾀｲﾙ1
100
AcDbText
  0
TEXT
  5
39F7
330
1A
100
AcDbEntity
  8
moji
100
AcDbText
 10
355.4078995118607
 20
61.0926831134002
 30
0.0
 40
2.799999999999999
  1
ＮＣＯ１ＨＥＮ
 41
0.9
  7
ｽﾀｲﾙ1
100
AcDbText
  0
TEXT
  5
39F8
330
1A
100
AcDbEntity
  8
moji
100
AcDbText
 10
355.4078995118607
 20
52.97283147935615
 30
0.0
 40
2.799999999999999
  1
ＣＮＣＯ１ＨＮ
 41
0.9
  7
ｽﾀｲﾙ1
100
AcDbText
  0
TEXT
  5
3A10
330
1A
100
AcDbEntity
  8
moji
100
AcDbText
 10
236.9159363153958
 20
14.1865558005459
 30
0.0
 40
2.799999999999999
  1
ＮＣＯ１Ｈ
 41
0.9
  7
ｽﾀｲﾙ1
100
AcDbText
  0
VIEWPORT
  5
22
330
17
100
AcDbEntity
 67
     1
  8
0
100
AcDbViewport
 10
313.6808219178083
 20
148.5
 30
0.0
 40
627.3616438356165
 41
297.0
 68
     2
 69
     1
 12
313.6808219178083
 22
148.5
 13
0.0
 23
0.0
 14
1.0
 24
1.0
 15
10.0
 25
10.0
 16
0.0
 26
0.0
 36
1.0
 17
0.0
 27
0.0
 37
0.0
 42
50.0
 43
0.0
 44
0.0
 45
297.0
 50
0.0
 51
0.0
 72
   100
 90
    32768
  1

281
     0
 71
     1
 74
     0
110
0.0
120
0.0
130
0.0
111
1.0
121
0.0
131
0.0
112
0.0
122
1.0
132
0.0
 79
     0
146
0.0
170
     0
 61
     5
348
391E
292
     1
282
     1
141
0.0
142
0.0
 63
   250
421
  3355443
  0
VIEWPORT
  5
64
330
17
100
AcDbEntity
 67
     1
  8
VIEWPORT
100
AcDbViewport
 10
210.0
 20
148.5
 30
0.0
 40
420.0
 41
297.0
 68
     1
 69
     2
 12
210.0
 22
148.5
 13
0.0
 23
0.0
 14
5.0
 24
5.0
 15
0.0
 25
0.0
 16
0.0
 26
0.0
 36
1.0
 17
0.0
 27
0.0
 37
0.0
 42
50.0
 43
0.0
 44
0.0
 45
302.9399999999999
 50
0.0
 51
0.0
 72
   100
 90
    32768
  1

281
     0
 71
     1
 74
     0
110
0.0
120
0.0
130
0.0
111
1.0
121
0.0
131
0.0
112
0.0
122
1.0
132
0.0
 79
     0
146
0.0
170
     0
 61
     5
348
391E
292
     1
282
     1
141
0.0
142
0.0
 63
   250
421
  3355443
  0
ENDSEC
  0
SECTION
  2
OBJECTS
  0
DICTIONARY
  5
C
330
0
100
AcDbDictionary
281
     1
  3
ACAD_COLOR
350
3931
  3
ACAD_GROUP
350
D
  3
ACAD_LAYOUT
350
291
  3
ACAD_MATERIAL
350
38FF
  3
ACAD_MLEADERSTYLE
350
3946
  3
ACAD_MLINESTYLE
350
E
  3
ACAD_PLOTSETTINGS
350
292
  3
ACAD_PLOTSTYLENAME
350
28F
  3
ACAD_SCALELIST
350
3934
  3
ACAD_TABLESTYLE
350
3932
  3
ACAD_VISUALSTYLE
350
3918
  3
ACDB_RECOMPOSE_DATA
350
3A1C
  3
AcDbVariableDictionary
350
2CA2
  0
DICTIONARY
  5
394F
330
2
100
AcDbDictionary
280
     1
281
     1
  3
ACAD_LAYERSTATES
360
3950
  0
DICTIONARY
  5
3958
330
F
100
AcDbDictionary
280
     1
281
     1
  3
ADSK_XREC_LAYER_RECONCILED
360
3959
  0
DICTIONARY
  5
395A
330
62
100
AcDbDictionary
280
     1
281
     1
  3
ADSK_XREC_LAYER_RECONCILED
360
395B
  0
DICTIONARY
  5
395C
330
6B
100
AcDbDictionary
280
     1
281
     1
  3
ADSK_XREC_LAYER_RECONCILED
360
395D
  0
DICTIONARY
  5
395E
330
141
100
AcDbDictionary
280
     1
281
     1
  3
ADSK_XREC_LAYER_RECONCILED
360
395F
  0
DICTIONARY
  5
3960
330
142
100
AcDbDictionary
280
     1
281
     1
  3
ADSK_XREC_LAYER_RECONCILED
360
3961
  0
DICTIONARY
  5
3962
330
4EF
100
AcDbDictionary
280
     1
281
     1
  3
ADSK_XREC_LAYER_RECONCILED
360
3963
  0
DICTIONARY
  5
3964
330
2E31
100
AcDbDictionary
280
     1
281
     1
  3
ADSK_XREC_LAYER_RECONCILED
360
3965
  0
DICTIONARY
  5
3966
330
2E32
100
AcDbDictionary
280
     1
281
     1
  3
ADSK_XREC_LAYER_RECONCILED
360
3967
  0
DICTIONARY
  5
3968
330
2E33
100
AcDbDictionary
280
     1
281
     1
  3
ADSK_XREC_LAYER_RECONCILED
360
3969
  0
DICTIONARY
  5
2D8
330
1A
100
AcDbDictionary
280
     1
281
     1
  3
ACAD_LAYOUTSELFREF
360
38DA
  0
DICTIONARY
  5
2D6
330
17
100
AcDbDictionary
280
     1
281
     1
  3
ACAD_LAYOUTSELFREF
360
38D9
  0
DICTIONARY
  5
3931
102
{ACAD_REACTORS
330
C
102
}
330
C
100
AcDbDictionary
281
     1
  0
DICTIONARY
  5
D
102
{ACAD_REACTORS
330
C
102
}
330
C
100
AcDbDictionary
281
     1
  0
DICTIONARY
  5
291
102
{ACAD_REACTORS
330
C
102
}
330
C
100
AcDbDictionary
281
     1
  3
Model
350
293
  3
ﾚｲｱｳﾄ1
350
294
  0
DICTIONARY
  5
38FF
102
{ACAD_REACTORS
330
C
102
}
330
C
100
AcDbDictionary
281
     1
  3
ByBlock
350
3908
  3
ByLayer
350
3900
  3
Global
350
3910
  0
DICTIONARY
  5
3946
102
{ACAD_REACTORS
330
C
102
}
330
C
100
AcDbDictionary
281
     1
  3
Standard
350
3947
  0
DICTIONARY
  5
E
102
{ACAD_REACTORS
330
C
102
}
330
C
100
AcDbDictionary
281
     1
  3
STANDARD
350
13
  0
DICTIONARY
  5
292
102
{ACAD_REACTORS
330
C
102
}
330
C
100
AcDbDictionary
281
     1
  0
ACDBDICTIONARYWDFLT
  5
28F
102
{ACAD_REACTORS
330
C
102
}
330
C
100
AcDbDictionary
281
     1
  3
Normal
350
290
100
AcDbDictionaryWithDefault
340
290
1001
ACAD
1000
TREAT_AS_HARD
1070
     0
1000
TREAT_AS_HARD
1070
     0
1000
TREAT_AS_HARD
1070
     0
1000
TREAT_AS_HARD
1070
     0
1000
TREAT_AS_HARD
1070
     0
1000
TREAT_AS_HARD
1070
     0
1000
TREAT_AS_HARD
1070
     0
1000
TREAT_AS_HARD
1070
     0
1000
TREAT_AS_HARD
1070
     0
1000
TREAT_AS_HARD
1070
     0
1000
TREAT_AS_HARD
1070
     0
1000
TREAT_AS_HARD
1070
     0
1000
TREAT_AS_HARD
1070
     0
1000
TREAT_AS_HARD
1070
     0
1000
TREAT_AS_HARD
1070
     0
1000
TREAT_AS_HARD
1070
     0
1000
TREAT_AS_HARD
1070
     0
1000
TREAT_AS_HARD
1070
     0
1000
TREAT_AS_HARD
1070
     0
1000
TREAT_AS_HARD
1070
     0
1000
TREAT_AS_HARD
1070
     0
1000
TREAT_AS_HARD
1070
     0
  0
DICTIONARY
  5
3934
102
{ACAD_REACTORS
330
C
102
}
330
C
100
AcDbDictionary
281
     1
  3
A0
350
3935
  3
A1
350
3936
  3
A2
350
3937
  3
A3
350
3938
  3
A4
350
3939
  3
A5
350
393A
  3
A6
350
393B
  3
A7
350
393C
  3
A8
350
393D
  3
A9
350
393E
  3
B0
350
393F
  3
B1
350
3940
  3
B2
350
3941
  3
B3
350
3942
  3
B4
350
3943
  3
B5
350
3944
  3
B6
350
3945
  0
DICTIONARY
  5
3932
102
{ACAD_REACTORS
330
C
102
}
330
C
100
AcDbDictionary
281
     1
  3
Standard
350
3933
  0
DICTIONARY
  5
3918
102
{ACAD_REACTORS
330
C
102
}
330
C
100
AcDbDictionary
281
     1
  3
2dWireframe
350
391E
  3
Basic
350
391D
  3
Brighten
350
3924
  3
ColorChange
350
3928
  3
Conceptual
350
3921
  3
Dim
350
3923
  3
EdgeColorOff
350
3930
  3
Facepattern
350
3927
  3
Flat
350
3919
  3
FlatWithEdges
350
391A
  3
Gouraud
350
391B
  3
GouraudWithEdges
350
391C
  3
Hidden
350
3920
  3
JitterOff
350
392E
  3
Linepattern
350
3926
  3
OverhangOff
350
392F
  3
Realistic
350
3922
  3
Shaded
350
392D
  3
Shaded with edges
350
392C
  3
Shades of Gray
350
3929
  3
Sketchy
350
392A
  3
Thicken
350
3925
  3
Wireframe
350
391F
  3
X-Ray
350
392B
  0
XRECORD
  5
3A1C
102
{ACAD_REACTORS
330
C
102
}
330
C
100
AcDbXrecord
280
     1
 90
        1
330
3933
  0
DICTIONARY
  5
2CA2
102
{ACAD_REACTORS
330
C
102
}
330
C
100
AcDbDictionary
281
     1
  3
CANNOSCALE
350
3976
  3
CMLEADERSTYLE
350
3974
  3
CTABLESTYLE
350
3973
  3
LAYEREVAL
350
3978
  3
LAYERNOTIFY
350
3979
  3
LIGHTINGUNITS
350
3977
  3
MSLTSCALE
350
3975
  3
SORTENTS
350
2CA3
  0
DICTIONARY
  5
3950
102
{ACAD_REACTORS
330
394F
102
}
330
394F
100
AcDbDictionary
281
     1
  0
XRECORD
  5
3959
102
{ACAD_REACTORS
330
3958
102
}
330
3958
100
AcDbXrecord
280
     1
290
     1
  0
XRECORD
  5
395B
102
{ACAD_REACTORS
330
395A
102
}
330
395A
100
AcDbXrecord
280
     1
290
     1
  0
XRECORD
  5
395D
102
{ACAD_REACTORS
330
395C
102
}
330
395C
100
AcDbXrecord
280
     1
290
     1
  0
XRECORD
  5
395F
102
{ACAD_REACTORS
330
395E
102
}
330
395E
100
AcDbXrecord
280
     1
290
     1
  0
XRECORD
  5
3961
102
{ACAD_REACTORS
330
3960
102
}
330
3960
100
AcDbXrecord
280
     1
290
     1
  0
XRECORD
  5
3963
102
{ACAD_REACTORS
330
3962
102
}
330
3962
100
AcDbXrecord
280
     1
290
     1
  0
XRECORD
  5
3965
102
{ACAD_REACTORS
330
3964
102
}
330
3964
100
AcDbXrecord
280
     1
290
     1
  0
XRECORD
  5
3967
102
{ACAD_REACTORS
330
3966
102
}
330
3966
100
AcDbXrecord
280
     1
290
     1
  0
XRECORD
  5
3969
102
{ACAD_REACTORS
330
3968
102
}
330
3968
100
AcDbXrecord
280
     1
290
     1
  0
XRECORD
  5
38DA
102
{ACAD_REACTORS
330
2D8
102
}
330
2D8
100
AcDbXrecord
280
     1
340
1A
  0
XRECORD
  5
38D9
102
{ACAD_REACTORS
330
2D6
102
}
330
2D6
100
AcDbXrecord
280
     1
340
17
  0
LAYOUT
  5
293
102
{ACAD_XDICTIONARY
360
3971
102
}
102
{ACAD_REACTORS
330
291
102
}
330
291
100
AcDbPlotSettings
  1

  2
Acrobat Distiller
  4
A3
  6

 40
3.174999952316284
 41
3.174999952316284
 42
3.17498779296875
 43
3.17498779296875
 44
297.0318298339844
 45
420.1583251953125
 46
0.0
 47
0.0
 48
0.0
 49
0.0
140
0.0
141
0.0
142
1.0
143
1.0
 70
 11952
 72
     1
 73
     1
 74
     2
  7
print.ctb
 75
    16
147
1.0
 76
     0
 77
     2
 78
   300
148
0.0
149
0.0
100
AcDbLayout
  1
Model
 70
     1
 71
     0
 10
0.0
 20
0.0
 11
12.0
 21
9.0
 12
0.0
 22
0.0
 32
0.0
 14
0.0
 24
0.0
 34
0.0
 15
0.0
 25
0.0
 35
0.0
146
0.0
 13
0.0
 23
0.0
 33
0.0
 16
1.0
 26
0.0
 36
0.0
 17
0.0
 27
1.0
 37
0.0
 76
     0
330
1A
331
38AD
  0
LAYOUT
  5
294
102
{ACAD_REACTORS
330
291
102
}
330
291
100
AcDbPlotSettings
  1

  2
Acrobat Distiller
  4

  6

 40
0.0
 41
0.0
 42
0.0
 43
0.0
 44
0.0
 45
0.0
 46
0.0
 47
0.0
 48
0.0
 49
0.0
140
0.0
141
0.0
142
1.0
143
1.0
 70
   688
 72
     0
 73
     0
 74
     5
  7
print.ctb
 75
    16
147
1.0
 76
     0
 77
     2
 78
   300
148
0.0
149
0.0
100
AcDbLayout
  1
ﾚｲｱｳﾄ1
 70
     1
 71
     1
 10
0.0
 20
0.0
 11
420.0
 21
297.0
 12
0.0
 22
0.0
 32
0.0
 14
0.0
 24
0.0
 34
0.0
 15
420.0
 25
297.0
 35
0.0
146
0.0
 13
0.0
 23
0.0
 33
0.0
 16
1.0
 26
0.0
 36
0.0
 17
0.0
 27
1.0
 37
0.0
 76
     0
330
17
331
64
  0
MATERIAL
  5
3908
102
{ACAD_XDICTIONARY
360
3909
102
}
102
{ACAD_REACTORS
330
38FF
102
}
330
38FF
100
AcDbMaterial
  1
ByBlock
 72
     0
 43
0.0208333333333333
 43
0.0
 43
0.0
 43
0.0
 43
0.0
 43
0.0208333333333333
 43
0.0
 43
0.0
 43
0.0
 43
0.0
 43
1.0
 43
0.0
 43
0.0
 43
0.0
 43
0.0
 43
1.0
 77
     0
 47
0.0208333333333333
 47
0.0
 47
0.0
 47
0.0
 47
0.0
 47
0.0208333333333333
 47
0.0
 47
0.0
 47
0.0
 47
0.0
 47
1.0
 47
0.0
 47
0.0
 47
0.0
 47
0.0
 47
1.0
171
     0
 49
0.0208333333333333
 49
0.0
 49
0.0
 49
0.0
 49
0.0
 49
0.0208333333333333
 49
0.0
 49
0.0
 49
0.0
 49
0.0
 49
1.0
 49
0.0
 49
0.0
 49
0.0
 49
0.0
 49
1.0
175
     0
142
0.0208333333333333
142
0.0
142
0.0
142
0.0
142
0.0
142
0.0208333333333333
142
0.0
142
0.0
142
0.0
142
0.0
142
1.0
142
0.0
142
0.0
142
0.0
142
0.0
142
1.0
179
     0
144
0.0208333333333333
144
0.0
144
0.0
144
0.0
144
0.0
144
0.0208333333333333
144
0.0
144
0.0
144
0.0
144
0.0
144
1.0
144
0.0
144
0.0
144
0.0
144
0.0
144
1.0
147
0.0208333333333333
147
0.0
147
0.0
147
0.0
147
0.0
147
0.0208333333333333
147
0.0
147
0.0
147
0.0
147
0.0
147
1.0
147
0.0
147
0.0
147
0.0
147
0.0
147
1.0
  0
MATERIAL
  5
3900
102
{ACAD_XDICTIONARY
360
3901
102
}
102
{ACAD_REACTORS
330
38FF
102
}
330
38FF
100
AcDbMaterial
  1
ByLayer
 72
     0
 43
0.0208333333333333
 43
0.0
 43
0.0
 43
0.0
 43
0.0
 43
0.0208333333333333
 43
0.0
 43
0.0
 43
0.0
 43
0.0
 43
1.0
 43
0.0
 43
0.0
 43
0.0
 43
0.0
 43
1.0
 77
     0
 47
0.0208333333333333
 47
0.0
 47
0.0
 47
0.0
 47
0.0
 47
0.0208333333333333
 47
0.0
 47
0.0
 47
0.0
 47
0.0
 47
1.0
 47
0.0
 47
0.0
 47
0.0
 47
0.0
 47
1.0
171
     0
 49
0.0208333333333333
 49
0.0
 49
0.0
 49
0.0
 49
0.0
 49
0.0208333333333333
 49
0.0
 49
0.0
 49
0.0
 49
0.0
 49
1.0
 49
0.0
 49
0.0
 49
0.0
 49
0.0
 49
1.0
175
     0
142
0.0208333333333333
142
0.0
142
0.0
142
0.0
142
0.0
142
0.0208333333333333
142
0.0
142
0.0
142
0.0
142
0.0
142
1.0
142
0.0
142
0.0
142
0.0
142
0.0
142
1.0
179
     0
144
0.0208333333333333
144
0.0
144
0.0
144
0.0
144
0.0
144
0.0208333333333333
144
0.0
144
0.0
144
0.0
144
0.0
144
1.0
144
0.0
144
0.0
144
0.0
144
0.0
144
1.0
147
0.0208333333333333
147
0.0
147
0.0
147
0.0
147
0.0
147
0.0208333333333333
147
0.0
147
0.0
147
0.0
147
0.0
147
1.0
147
0.0
147
0.0
147
0.0
147
0.0
147
1.0
  0
MATERIAL
  5
3910
102
{ACAD_XDICTIONARY
360
3911
102
}
102
{ACAD_REACTORS
330
38FF
102
}
330
38FF
100
AcDbMaterial
  1
Global
 72
     0
 43
0.0208333333333333
 43
0.0
 43
0.0
 43
0.0
 43
0.0
 43
0.0208333333333333
 43
0.0
 43
0.0
 43
0.0
 43
0.0
 43
1.0
 43
0.0
 43
0.0
 43
0.0
 43
0.0
 43
1.0
 77
     0
 47
0.0208333333333333
 47
0.0
 47
0.0
 47
0.0
 47
0.0
 47
0.0208333333333333
 47
0.0
 47
0.0
 47
0.0
 47
0.0
 47
1.0
 47
0.0
 47
0.0
 47
0.0
 47
0.0
 47
1.0
171
     0
 49
0.0208333333333333
 49
0.0
 49
0.0
 49
0.0
 49
0.0
 49
0.0208333333333333
 49
0.0
 49
0.0
 49
0.0
 49
0.0
 49
1.0
 49
0.0
 49
0.0
 49
0.0
 49
0.0
 49
1.0
175
     0
142
0.0208333333333333
142
0.0
142
0.0
142
0.0
142
0.0
142
0.0208333333333333
142
0.0
142
0.0
142
0.0
142
0.0
142
1.0
142
0.0
142
0.0
142
0.0
142
0.0
142
1.0
179
     0
144
0.0208333333333333
144
0.0
144
0.0
144
0.0
144
0.0
144
0.0208333333333333
144
0.0
144
0.0
144
0.0
144
0.0
144
1.0
144
0.0
144
0.0
144
0.0
144
0.0
144
1.0
147
0.0208333333333333
147
0.0
147
0.0
147
0.0
147
0.0
147
0.0208333333333333
147
0.0
147
0.0
147
0.0
147
0.0
147
1.0
147
0.0
147
0.0
147
0.0
147
0.0
147
1.0
  0
MLEADERSTYLE
  5
3947
102
{ACAD_REACTORS
330
3946
102
}
330
3946
100
AcDbMLeaderStyle
179
     2
170
     2
171
     1
172
     0
 90
        2
 40
0.0
 41
0.0
173
     1
 91
-1056964608
340
14
 92
       -2
290
     1
 42
2.0
291
     1
 43
0.36
  3
Standard
 44
4.0
300

342
10
174
     1
178
     6
175
     1
176
     0
 93
-1056964608
 45
4.0
292
     0
297
     0
 46
4.0
 94
-1056964608
 47
1.0
 49
1.0
140
1.0
293
     1
141
0.0
294
     1
177
     0
142
1.0
295
     1
296
     0
143
0.125
271
     0
272
     9
273
     9
  0
MLINESTYLE
  5
13
102
{ACAD_REACTORS
330
E
102
}
330
E
100
AcDbMlineStyle
  2
STANDARD
 70
     0
  3

 62
     0
 51
90.0
 52
90.0
 71
     2
 49
0.5
 62
   256
  6
BYLAYER
 49
-0.5
 62
   256
  6
BYLAYER
  0
ACDBPLACEHOLDER
  5
290
102
{ACAD_REACTORS
330
28F
102
}
330
28F
  0
SCALE
  5
3935
102
{ACAD_REACTORS
330
3934
102
}
330
3934
100
AcDbScale
 70
     0
300
1:1
140
1.0
141
1.0
290
     1
  0
SCALE
  5
3936
102
{ACAD_REACTORS
330
3934
102
}
330
3934
100
AcDbScale
 70
     0
300
1:2
140
1.0
141
2.0
290
     0
  0
SCALE
  5
3937
102
{ACAD_REACTORS
330
3934
102
}
330
3934
100
AcDbScale
 70
     0
300
1:4
140
1.0
141
4.0
290
     0
  0
SCALE
  5
3938
102
{ACAD_REACTORS
330
3934
102
}
330
3934
100
AcDbScale
 70
     0
300
1:5
140
1.0
141
5.0
290
     0
  0
SCALE
  5
3939
102
{ACAD_REACTORS
330
3934
102
}
330
3934
100
AcDbScale
 70
     0
300
1:8
140
1.0
141
8.0
290
     0
  0
SCALE
  5
393A
102
{ACAD_REACTORS
330
3934
102
}
330
3934
100
AcDbScale
 70
     0
300
1:10
140
1.0
141
10.0
290
     0
  0
SCALE
  5
393B
102
{ACAD_REACTORS
330
3934
102
}
330
3934
100
AcDbScale
 70
     0
300
1:16
140
1.0
141
16.0
290
     0
  0
SCALE
  5
393C
102
{ACAD_REACTORS
330
3934
102
}
330
3934
100
AcDbScale
 70
     0
300
1:20
140
1.0
141
20.0
290
     0
  0
SCALE
  5
393D
102
{ACAD_REACTORS
330
3934
102
}
330
3934
100
AcDbScale
 70
     0
300
1:30
140
1.0
141
30.0
290
     0
  0
SCALE
  5
393E
102
{ACAD_REACTORS
330
3934
102
}
330
3934
100
AcDbScale
 70
     0
300
1:40
140
1.0
141
40.0
290
     0
  0
SCALE
  5
393F
102
{ACAD_REACTORS
330
3934
102
}
330
3934
100
AcDbScale
 70
     0
300
1:50
140
1.0
141
50.0
290
     0
  0
SCALE
  5
3940
102
{ACAD_REACTORS
330
3934
102
}
330
3934
100
AcDbScale
 70
     0
300
1:100
140
1.0
141
100.0
290
     0
  0
SCALE
  5
3941
102
{ACAD_REACTORS
330
3934
102
}
330
3934
100
AcDbScale
 70
     0
300
2:1
140
2.0
141
1.0
290
     0
  0
SCALE
  5
3942
102
{ACAD_REACTORS
330
3934
102
}
330
3934
100
AcDbScale
 70
     0
300
4:1
140
4.0
141
1.0
290
     0
  0
SCALE
  5
3943
102
{ACAD_REACTORS
330
3934
102
}
330
3934
100
AcDbScale
 70
     0
300
8:1
140
8.0
141
1.0
290
     0
  0
SCALE
  5
3944
102
{ACAD_REACTORS
330
3934
102
}
330
3934
100
AcDbScale
 70
     0
300
10:1
140
10.0
141
1.0
290
     0
  0
SCALE
  5
3945
102
{ACAD_REACTORS
330
3934
102
}
330
3934
100
AcDbScale
 70
     0
300
100:1
140
100.0
141
1.0
290
     0
  0
TABLESTYLE
  5
3933
102
{ACAD_XDICTIONARY
360
3A1A
102
}
102
{ACAD_REACTORS
330
3932
102
}
330
3932
100
AcDbTableStyle
280
     0
  3
Standard
 70
     0
 71
     0
 40
1.5
 41
1.5
280
     0
281
     0
  7
STANDARD
140
4.5
170
     2
 62
     0
 63
     7
283
     0
 90
      512
 91
        0
  1

274
    -2
284
     1
 64
     0
275
    -2
285
     1
 65
     0
276
    -2
286
     1
 66
     0
277
    -2
287
     1
 67
     0
278
    -2
288
     1
 68
     0
279
    -2
289
     1
 69
     0
  7
STANDARD
140
6.0
170
     5
 62
     0
 63
     7
283
     0
 90
      512
 91
        0
  1

274
    -2
284
     1
 64
     0
275
    -2
285
     1
 65
     0
276
    -2
286
     1
 66
     0
277
    -2
287
     1
 67
     0
278
    -2
288
     1
 68
     0
279
    -2
289
     1
 69
     0
  7
STANDARD
140
4.5
170
     5
 62
     0
 63
     7
283
     0
 90
      512
 91
        0
  1

274
    -2
284
     1
 64
     0
275
    -2
285
     1
 65
     0
276
    -2
286
     1
 66
     0
277
    -2
287
     1
 67
     0
278
    -2
288
     1
 68
     0
279
    -2
289
     1
 69
     0
  0
VISUALSTYLE
  5
391E
102
{ACAD_REACTORS
330
3918
102
}
330
3918
100
AcDbVisualStyle
  2
2dWireframe
 70
     4
177
     2
291
     0
 71
     0
176
     1
 72
     2
176
     1
 73
     0
176
     1
 90
        0
176
     1
 40
0.6
176
     1
 41
30.0
176
     1
 63
     7
421
 16777215
176
     1
 74
     1
176
     1
 91
        4
176
     1
 64
     7
176
     1
 65
   257
176
     1
 75
     1
176
     1
175
     1
176
     1
 42
1.0
176
     1
 92
        0
176
     1
 66
   257
176
     1
 43
1.0
176
     1
 76
     1
176
     1
 77
     6
176
     1
 78
     2
176
     1
 67
     7
176
     1
 79
     5
176
     1
170
     0
176
     1
171
     0
176
     1
290
     0
176
     1
 93
        1
176
     1
 44
0.0
176
     1
173
     0
176
     1
  0
VISUALSTYLE
  5
391D
102
{ACAD_REACTORS
330
3918
102
}
330
3918
100
AcDbVisualStyle
  2
Basic
 70
     7
177
     2
291
     1
 71
     1
176
     1
 72
     0
176
     1
 73
     1
176
     1
 90
        0
176
     1
 40
0.6
176
     1
 41
30.0
176
     1
 63
     7
421
 16777215
176
     1
 74
     0
176
     1
 91
        4
176
     1
 64
     7
176
     1
 65
   257
176
     1
 75
     1
176
     1
175
     1
176
     1
 42
1.0
176
     1
 92
        8
176
     1
 66
     7
176
     1
 43
1.0
176
     1
 76
     1
176
     1
 77
     6
176
     1
 78
     2
176
     1
 67
     7
176
     1
 79
     5
176
     1
170
     0
176
     1
171
     0
176
     1
290
     0
176
     1
 93
        1
176
     1
 44
0.0
176
     1
173
     0
176
     1
  0
VISUALSTYLE
  5
3924
102
{ACAD_REACTORS
330
3918
102
}
330
3918
100
AcDbVisualStyle
  2
Brighten
 70
    12
177
     2
291
     1
 71
     2
176
     1
 72
     2
176
     1
 73
     0
176
     1
 90
        0
176
     1
 40
0.6
176
     1
 41
30.0
176
     1
 63
     7
421
 16777215
176
     1
 74
     1
176
     1
 91
        4
176
     1
 64
     7
176
     1
 65
   257
176
     1
 75
     1
176
     1
175
     1
176
     1
 42
1.0
176
     1
 92
        8
176
     1
 66
     7
176
     1
 43
1.0
176
     1
 76
     1
176
     1
 77
     6
176
     1
 78
     2
176
     1
 67
     7
176
     1
 79
     5
176
     1
170
     0
176
     1
171
     0
176
     1
290
     0
176
     1
 93
        1
176
     1
 44
50.0
176
     1
173
     0
176
     1
  0
VISUALSTYLE
  5
3928
102
{ACAD_REACTORS
330
3918
102
}
330
3918
100
AcDbVisualStyle
  2
ColorChange
 70
    16
177
     2
291
     1
 71
     2
176
     1
 72
     2
176
     1
 73
     3
176
     1
 90
        0
176
     1
 40
0.6
176
     1
 41
30.0
176
     1
 63
     8
421
  8421504
176
     1
 74
     1
176
     1
 91
        4
176
     1
 64
     7
176
     1
 65
   257
176
     1
 75
     1
176
     1
175
     1
176
     1
 42
1.0
176
     1
 92
        8
176
     1
 66
     8
424
  8421504
176
     1
 43
1.0
176
     1
 76
     1
176
     1
 77
     6
176
     1
 78
     2
176
     1
 67
     7
176
     1
 79
     5
176
     1
170
     0
176
     1
171
     0
176
     1
290
     0
176
     1
 93
        1
176
     1
 44
0.0
176
     1
173
     0
176
     1
  0
VISUALSTYLE
  5
3921
102
{ACAD_REACTORS
330
3918
102
}
330
3918
100
AcDbVisualStyle
  2
Conceptual
 70
     9
177
     2
291
     0
 71
     3
176
     1
 72
     2
176
     1
 73
     0
176
     1
 90
        0
176
     1
 40
0.6
176
     1
 41
30.0
176
     1
 63
     7
421
 16777215
176
     1
 74
     2
176
     1
 91
        2
176
     1
 64
     7
176
     1
 65
   257
176
     1
 75
     1
176
     1
175
     1
176
     1
 42
179.0
176
     1
 92
        8
176
     1
 66
     7
176
     1
 43
1.0
176
     1
 76
     1
176
     1
 77
     6
176
     1
 78
     2
176
     1
 67
     7
176
     1
 79
     3
176
     1
170
     0
176
     1
171
     0
176
     1
290
     0
176
     1
 93
        1
176
     1
 44
0.0
176
     1
173
     0
176
     1
  0
VISUALSTYLE
  5
3923
102
{ACAD_REACTORS
330
3918
102
}
330
3918
100
AcDbVisualStyle
  2
Dim
 70
    11
177
     2
291
     1
 71
     2
176
     1
 72
     2
176
     1
 73
     0
176
     1
 90
        0
176
     1
 40
0.6
176
     1
 41
30.0
176
     1
 63
     7
421
 16777215
176
     1
 74
     1
176
     1
 91
        4
176
     1
 64
     7
176
     1
 65
   257
176
     1
 75
     1
176
     1
175
     1
176
     1
 42
1.0
176
     1
 92
        8
176
     1
 66
     7
176
     1
 43
1.0
176
     1
 76
     1
176
     1
 77
     6
176
     1
 78
     2
176
     1
 67
     7
176
     1
 79
     5
176
     1
170
     0
176
     1
171
     0
176
     1
290
     0
176
     1
 93
        1
176
     1
 44
-50.0
176
     1
173
     0
176
     1
  0
VISUALSTYLE
  5
3930
102
{ACAD_REACTORS
330
3918
102
}
330
3918
100
AcDbVisualStyle
  2
EdgeColorOff
 70
    22
177
     2
291
     1
 71
     2
176
     0
 72
     2
176
     0
 73
     0
176
     0
 90
        0
176
     0
 40
0.6
176
     0
 41
30.0
176
     0
 63
     7
421
 16777215
176
     0
 74
     1
176
     0
 91
        4
176
     0
 64
     7
176
     0
 65
   257
176
     0
 75
     1
176
     0
175
     1
176
     0
 42
1.0
176
     0
 92
        8
176
     2
 66
     7
176
     0
 43
1.0
176
     0
 76
     1
176
     0
 77
     6
176
     0
 78
     2
176
     0
 67
     7
176
     0
 79
     5
176
     0
170
     0
176
     0
171
     0
176
     0
290
     0
176
     0
 93
        1
176
     0
 44
0.0
176
     0
173
     0
176
     0
  0
VISUALSTYLE
  5
3927
102
{ACAD_REACTORS
330
3918
102
}
330
3918
100
AcDbVisualStyle
  2
Facepattern
 70
    15
177
     2
291
     1
 71
     2
176
     1
 72
     2
176
     1
 73
     0
176
     1
 90
        0
176
     1
 40
0.6
176
     1
 41
30.0
176
     1
 63
     7
421
 16777215
176
     1
 74
     1
176
     1
 91
        4
176
     1
 64
     7
176
     1
 65
   257
176
     1
 75
     1
176
     1
175
     1
176
     1
 42
1.0
176
     1
 92
        8
176
     1
 66
     7
176
     1
 43
1.0
176
     1
 76
     1
176
     1
 77
     6
176
     1
 78
     2
176
     1
 67
     7
176
     1
 79
     5
176
     1
170
     0
176
     1
171
     0
176
     1
290
     0
176
     1
 93
        1
176
     1
 44
0.0
176
     1
173
     0
176
     1
  0
VISUALSTYLE
  5
3919
102
{ACAD_REACTORS
330
3918
102
}
330
3918
100
AcDbVisualStyle
  2
Flat
 70
     0
177
     2
291
     1
 71
     2
176
     1
 72
     1
176
     1
 73
     1
176
     1
 90
        2
176
     1
 40
0.6
176
     1
 41
30.0
176
     1
 63
     7
421
 16777215
176
     1
 74
     0
176
     1
 91
        0
176
     1
 64
     7
176
     1
 65
   257
176
     1
 75
     1
176
     1
175
     1
176
     1
 42
1.0
176
     1
 92
        8
176
     1
 66
     7
176
     1
 43
1.0
176
     1
 76
     1
176
     1
 77
     6
176
     1
 78
     2
176
     1
 67
     7
176
     1
 79
     5
176
     1
170
     0
176
     1
171
     0
176
     1
290
     0
176
     1
 93
       13
176
     1
 44
0.0
176
     1
173
     0
176
     1
  0
VISUALSTYLE
  5
391A
102
{ACAD_REACTORS
330
3918
102
}
330
3918
100
AcDbVisualStyle
  2
FlatWithEdges
 70
     1
177
     2
291
     1
 71
     2
176
     1
 72
     1
176
     1
 73
     1
176
     1
 90
        2
176
     1
 40
0.6
176
     1
 41
30.0
176
     1
 63
     7
421
 16777215
176
     1
 74
     1
176
     1
 91
        0
176
     1
 64
     7
176
     1
 65
   257
176
     1
 75
     1
176
     1
175
     1
176
     1
 42
1.0
176
     1
 92
        0
176
     1
 66
   257
176
     1
 43
1.0
176
     1
 76
     1
176
     1
 77
     6
176
     1
 78
     2
176
     1
 67
     7
176
     1
 79
     5
176
     1
170
     0
176
     1
171
     0
176
     1
290
     0
176
     1
 93
       13
176
     1
 44
0.0
176
     1
173
     0
176
     1
  0
VISUALSTYLE
  5
391B
102
{ACAD_REACTORS
330
3918
102
}
330
3918
100
AcDbVisualStyle
  2
Gouraud
 70
     2
177
     2
291
     1
 71
     2
176
     1
 72
     2
176
     1
 73
     1
176
     1
 90
        2
176
     1
 40
0.6
176
     1
 41
30.0
176
     1
 63
     7
421
 16777215
176
     1
 74
     0
176
     1
 91
        0
176
     1
 64
     7
176
     1
 65
   257
176
     1
 75
     1
176
     1
175
     1
176
     1
 42
1.0
176
     1
 92
        0
176
     1
 66
     7
176
     1
 43
1.0
176
     1
 76
     1
176
     1
 77
     6
176
     1
 78
     2
176
     1
 67
     7
176
     1
 79
     5
176
     1
170
     0
176
     1
171
     0
176
     1
290
     0
176
     1
 93
       13
176
     1
 44
0.0
176
     1
173
     0
176
     1
  0
VISUALSTYLE
  5
391C
102
{ACAD_REACTORS
330
3918
102
}
330
3918
100
AcDbVisualStyle
  2
GouraudWithEdges
 70
     3
177
     2
291
     1
 71
     2
176
     1
 72
     2
176
     1
 73
     1
176
     1
 90
        2
176
     1
 40
0.6
176
     1
 41
30.0
176
     1
 63
     7
421
 16777215
176
     1
 74
     1
176
     1
 91
        0
176
     1
 64
     7
176
     1
 65
   257
176
     1
 75
     1
176
     1
175
     1
176
     1
 42
1.0
176
     1
 92
        0
176
     1
 66
   257
176
     1
 43
1.0
176
     1
 76
     1
176
     1
 77
     6
176
     1
 78
     2
176
     1
 67
     7
176
     1
 79
     5
176
     1
170
     0
176
     1
171
     0
176
     1
290
     0
176
     1
 93
       13
176
     1
 44
0.0
176
     1
173
     0
176
     1
  0
VISUALSTYLE
  5
3920
102
{ACAD_REACTORS
330
3918
102
}
330
3918
100
AcDbVisualStyle
  2
Hidden
 70
     6
177
     2
291
     0
 71
     1
176
     1
 72
     2
176
     1
 73
     2
176
     1
 90
        0
176
     1
 40
0.6
176
     1
 41
30.0
176
     1
 63
     7
421
 16777215
176
     1
 74
     2
176
     1
 91
        2
176
     1
 64
     7
176
     1
 65
   257
176
     1
 75
     2
176
     1
175
     1
176
     1
 42
40.0
176
     1
 92
        0
176
     1
 66
   257
176
     1
 43
1.0
176
     1
 76
     1
176
     1
 77
     6
176
     1
 78
     2
176
     1
 67
     7
176
     1
 79
     3
176
     1
170
     0
176
     1
171
     0
176
     1
290
     0
176
     1
 93
        1
176
     1
 44
0.0
176
     1
173
     0
176
     1
  0
VISUALSTYLE
  5
392E
102
{ACAD_REACTORS
330
3918
102
}
330
3918
100
AcDbVisualStyle
  2
JitterOff
 70
    20
177
     2
291
     1
 71
     2
176
     0
 72
     2
176
     0
 73
     0
176
     0
 90
        0
176
     0
 40
0.6
176
     0
 41
30.0
176
     0
 63
     7
421
 16777215
176
     0
 74
     1
176
     0
 91
        4
176
     0
 64
     7
176
     0
 65
   257
176
     0
 75
     1
176
     0
175
     1
176
     0
 42
1.0
176
     0
 92
       10
176
     2
 66
     7
176
     0
 43
1.0
176
     0
 76
     1
176
     0
 77
     6
176
     0
 78
     2
176
     0
 67
     7
176
     0
 79
     5
176
     0
170
     0
176
     0
171
     0
176
     0
290
     0
176
     0
 93
        1
176
     0
 44
0.0
176
     0
173
     0
176
     0
  0
VISUALSTYLE
  5
3926
102
{ACAD_REACTORS
330
3918
102
}
330
3918
100
AcDbVisualStyle
  2
Linepattern
 70
    14
177
     2
291
     1
 71
     2
176
     1
 72
     2
176
     1
 73
     0
176
     1
 90
        0
176
     1
 40
0.6
176
     1
 41
30.0
176
     1
 63
     7
421
 16777215
176
     1
 74
     1
176
     1
 91
        4
176
     1
 64
     7
176
     1
 65
   257
176
     1
 75
     7
176
     1
175
     7
176
     1
 42
1.0
176
     1
 92
        8
176
     1
 66
     7
176
     1
 43
1.0
176
     1
 76
     1
176
     1
 77
     6
176
     1
 78
     2
176
     1
 67
     7
176
     1
 79
     5
176
     1
170
     0
176
     1
171
     0
176
     1
290
     0
176
     1
 93
        1
176
     1
 44
0.0
176
     1
173
     0
176
     1
  0
VISUALSTYLE
  5
392F
102
{ACAD_REACTORS
330
3918
102
}
330
3918
100
AcDbVisualStyle
  2
OverhangOff
 70
    21
177
     2
291
     1
 71
     2
176
     0
 72
     2
176
     0
 73
     0
176
     0
 90
        0
176
     0
 40
0.6
176
     0
 41
30.0
176
     0
 63
     7
421
 16777215
176
     0
 74
     1
176
     0
 91
        4
176
     0
 64
     7
176
     0
 65
   257
176
     0
 75
     1
176
     0
175
     1
176
     0
 42
1.0
176
     0
 92
        9
176
     2
 66
     7
176
     0
 43
1.0
176
     0
 76
     1
176
     0
 77
     6
176
     0
 78
     2
176
     0
 67
     7
176
     0
 79
     5
176
     0
170
     0
176
     0
171
     0
176
     0
290
     0
176
     0
 93
        1
176
     0
 44
0.0
176
     0
173
     0
176
     0
  0
VISUALSTYLE
  5
3922
102
{ACAD_REACTORS
330
3918
102
}
330
3918
100
AcDbVisualStyle
  2
Realistic
 70
     8
177
     2
291
     0
 71
     2
176
     1
 72
     3
176
     1
 73
     0
176
     1
 90
        2
176
     1
 40
0.6
176
     1
 41
30.0
176
     1
 63
     7
421
 16777215
176
     1
 74
     0
176
     1
 91
        0
176
     1
 64
     7
176
     1
 65
   257
176
     1
 75
     1
176
     1
175
     1
176
     1
 42
1.0
176
     1
 92
        8
176
     1
 66
   257
176
     1
 43
1.0
176
     1
 76
     1
176
     1
 77
     6
176
     1
 78
     2
176
     1
 67
     7
176
     1
 79
     3
176
     1
170
     0
176
     1
171
     0
176
     1
290
     0
176
     1
 93
       13
176
     1
 44
0.0
176
     1
173
     0
176
     1
  0
VISUALSTYLE
  5
392D
102
{ACAD_REACTORS
330
3918
102
}
330
3918
100
AcDbVisualStyle
  2
Shaded
 70
    27
177
     2
291
     0
 71
     2
176
     1
 72
     2
176
     1
 73
     1
176
     1
 90
        2
176
     1
 40
0.6
176
     1
 41
30.0
176
     1
 63
     7
421
 16777215
176
     1
 74
     0
176
     1
 91
        4
176
     1
 64
     7
176
     1
 65
   257
176
     1
 75
     1
176
     1
175
     1
176
     1
 42
1.0
176
     1
 92
        8
176
     1
 66
   257
176
     1
 43
1.0
176
     1
 76
     1
176
     1
 77
     6
176
     1
 78
     2
176
     1
 67
     8
425
  7895160
176
     1
 79
     3
176
     1
170
     0
176
     1
171
     0
176
     1
290
     0
176
     1
 93
        5
176
     1
 44
0.0
176
     1
173
     0
176
     1
  0
VISUALSTYLE
  5
392C
102
{ACAD_REACTORS
330
3918
102
}
330
3918
100
AcDbVisualStyle
  2
Shaded with edges
 70
    26
177
     2
291
     0
 71
     2
176
     1
 72
     2
176
     1
 73
     1
176
     1
 90
        2
176
     1
 40
0.6
176
     1
 41
30.0
176
     1
 63
     7
421
 16777215
176
     1
 74
     1
176
     1
 91
       10
176
     1
 64
     7
176
     1
 65
   257
176
     1
 75
     2
176
     1
175
     1
176
     1
 42
1.0
176
     1
 92
        8
176
     1
 66
   257
176
     1
 43
1.0
176
     1
 76
     1
176
     1
 77
     6
176
     1
 78
     2
176
     1
 67
     7
176
     1
 79
     3
176
     1
170
     0
176
     1
171
     0
176
     1
290
     0
176
     1
 93
        5
176
     1
 44
0.0
176
     1
173
     0
176
     1
  0
VISUALSTYLE
  5
3929
102
{ACAD_REACTORS
330
3918
102
}
330
3918
100
AcDbVisualStyle
  2
Shades of Gray
 70
    23
177
     2
291
     0
 71
     2
176
     1
 72
     2
176
     1
 73
     3
176
     1
 90
        0
176
     1
 40
0.6
176
     1
 41
30.0
176
     1
 63
     7
421
 16777215
176
     1
 74
     2
176
     1
 91
        2
176
     1
 64
     7
176
     1
 65
     7
176
     1
 75
     1
176
     1
175
     1
176
     1
 42
40.0
176
     1
 92
        8
176
     1
 66
     7
176
     1
 43
1.0
176
     1
 76
     1
176
     1
 77
     6
176
     1
 78
     2
176
     1
 67
     7
176
     1
 79
     3
176
     1
170
     0
176
     1
171
     0
176
     1
290
     0
176
     1
 93
        1
176
     1
 44
0.0
176
     1
173
     0
176
     1
  0
VISUALSTYLE
  5
392A
102
{ACAD_REACTORS
330
3918
102
}
330
3918
100
AcDbVisualStyle
  2
Sketchy
 70
    24
177
     2
291
     0
 71
     1
176
     1
 72
     2
176
     1
 73
     2
176
     1
 90
        0
176
     1
 40
0.6
176
     1
 41
30.0
176
     1
 63
     7
421
 16777215
176
     1
 74
     2
176
     1
 91
        2
176
     1
 64
     7
176
     1
 65
     7
176
     1
 75
     1
176
     1
175
     1
176
     1
 42
40.0
176
     1
 92
       11
176
     1
 66
     7
176
     1
 43
1.0
176
     1
 76
     1
176
     1
 77
     6
176
     1
 78
     2
176
     1
 67
     7
176
     1
 79
     6
176
     1
170
     0
176
     1
171
     0
176
     1
290
     0
176
     1
 93
        1
176
     1
 44
0.0
176
     1
173
     0
176
     1
  0
VISUALSTYLE
  5
3925
102
{ACAD_REACTORS
330
3918
102
}
330
3918
100
AcDbVisualStyle
  2
Thicken
 70
    13
177
     2
291
     1
 71
     2
176
     1
 72
     2
176
     1
 73
     0
176
     1
 90
        0
176
     1
 40
0.6
176
     1
 41
30.0
176
     1
 63
     7
421
 16777215
176
     1
 74
     1
176
     1
 91
        4
176
     1
 64
     7
176
     1
 65
   257
176
     1
 75
     1
176
     1
175
     1
176
     1
 42
1.0
176
     1
 92
       12
176
     1
 66
     7
176
     1
 43
1.0
176
     1
 76
     1
176
     1
 77
     6
176
     1
 78
     2
176
     1
 67
     7
176
     1
 79
     5
176
     1
170
     0
176
     1
171
     0
176
     1
290
     0
176
     1
 93
        1
176
     1
 44
0.0
176
     1
173
     0
176
     1
  0
VISUALSTYLE
  5
391F
102
{ACAD_REACTORS
330
3918
102
}
330
3918
100
AcDbVisualStyle
  2
Wireframe
 70
     5
177
     2
291
     0
 71
     0
176
     1
 72
     2
176
     1
 73
     0
176
     1
 90
        0
176
     1
 40
0.6
176
     1
 41
30.0
176
     1
 63
     7
421
 16777215
176
     1
 74
     1
176
     1
 91
        4
176
     1
 64
     7
176
     1
 65
   257
176
     1
 75
     1
176
     1
175
     1
176
     1
 42
1.0
176
     1
 92
        0
176
     1
 66
   257
176
     1
 43
1.0
176
     1
 76
     1
176
     1
 77
     6
176
     1
 78
     2
176
     1
 67
     7
176
     1
 79
     3
176
     1
170
     0
176
     1
171
     0
176
     1
290
     0
176
     1
 93
        1
176
     1
 44
0.0
176
     1
173
     0
176
     1
  0
VISUALSTYLE
  5
392B
102
{ACAD_REACTORS
330
3918
102
}
330
3918
100
AcDbVisualStyle
  2
X-Ray
 70
    25
177
     2
291
     0
 71
     2
176
     1
 72
     2
176
     1
 73
     1
176
     1
 90
        1
176
     1
 40
0.5
176
     1
 41
30.0
176
     1
 63
     7
421
 16777215
176
     1
 74
     1
176
     1
 91
        0
176
     1
 64
     7
176
     1
 65
   257
176
     1
 75
     1
176
     1
175
     1
176
     1
 42
1.0
176
     1
 92
        8
176
     1
 66
     7
176
     1
 43
1.0
176
     1
 76
     1
176
     1
 77
     6
176
     1
 78
     2
176
     1
 67
     7
176
     1
 79
     3
176
     1
170
     0
176
     1
171
     0
176
     1
290
     0
176
     1
 93
       13
176
     1
 44
0.0
176
     1
173
     0
176
     1
  0
DICTIONARYVAR
  5
3976
102
{ACAD_REACTORS
330
2CA2
102
}
330
2CA2
100
DictionaryVariables
280
     0
  1
1:1
  0
DICTIONARYVAR
  5
3974
102
{ACAD_REACTORS
330
2CA2
102
}
330
2CA2
100
DictionaryVariables
280
     0
  1
STANDARD
  0
DICTIONARYVAR
  5
3973
102
{ACAD_REACTORS
330
2CA2
102
}
330
2CA2
100
DictionaryVariables
280
     0
  1
STANDARD
  0
DICTIONARYVAR
  5
3978
102
{ACAD_REACTORS
330
2CA2
102
}
330
2CA2
100
DictionaryVariables
280
     0
  1
1
  0
DICTIONARYVAR
  5
3979
102
{ACAD_REACTORS
330
2CA2
102
}
330
2CA2
100
DictionaryVariables
280
     0
  1
15
  0
DICTIONARYVAR
  5
3977
102
{ACAD_REACTORS
330
2CA2
102
}
330
2CA2
100
DictionaryVariables
280
     0
  1
0
  0
DICTIONARYVAR
  5
3975
102
{ACAD_REACTORS
330
2CA2
102
}
330
2CA2
100
DictionaryVariables
280
     0
  1
0
  0
DICTIONARYVAR
  5
2CA3
102
{ACAD_REACTORS
330
2CA2
102
}
330
2CA2
100
DictionaryVariables
280
     0
  1
96
  0
DICTIONARY
  5
3971
330
293
100
AcDbDictionary
280
     1
281
     1
  3
ADSK_XREC_LAYOUTTHUMBNAIL
360
3972
  0
DICTIONARY
  5
3909
330
3908
100
AcDbDictionary
280
     1
281
     1
  3
BUMPTILE
360
390B
  3
DIFFUSETILE
360
390A
  3
OPACITYTILE
360
390E
  3
REFLECTIONTILE
360
390D
  3
REFRACTIONTILE
360
390F
  3
SPECULARTILE
360
390C
  0
DICTIONARY
  5
3901
330
3900
100
AcDbDictionary
280
     1
281
     1
  3
BUMPTILE
360
3903
  3
DIFFUSETILE
360
3902
  3
OPACITYTILE
360
3906
  3
REFLECTIONTILE
360
3905
  3
REFRACTIONTILE
360
3907
  3
SPECULARTILE
360
3904
  0
DICTIONARY
  5
3911
330
3910
100
AcDbDictionary
280
     1
281
     1
  3
BUMPTILE
360
3913
  3
DIFFUSETILE
360
3912
  3
OPACITYTILE
360
3916
  3
REFLECTIONTILE
360
3915
  3
REFRACTIONTILE
360
3917
  3
SPECULARTILE
360
3914
  0
DICTIONARY
  5
3A1A
330
3933
100
AcDbDictionary
280
     1
281
     1
  3
ACAD_ROUNDTRIP_2008_TABLESTYLE_CELLSTYLEMAP
360
3A1B
  0
XRECORD
  5
3972
102
{ACAD_REACTORS
330
3971
102
}
330
3971
100
AcDbXrecord
280
     1
310
28000000000100007E0000000100080000000000007E0000000000000000000000010000000000000000000000000000FFFFFF000000000000000000000000000000000000000000000000000000000000000000330000006600000099000000CC000000FF00000000330000333300006633000099330000CC330000FF3300
310
0000660000336600006666000099660000CC660000FF66000000990000339900006699000099990000CC990000FF99000000CC000033CC000066CC000099CC0000CCCC0000FFCC000000FF000033FF000066FF000099FF0000CCFF0000FFFF000000003300330033006600330099003300CC003300FF003300003333003333
310
33006633330099333300CC333300FF33330000663300336633006666330099663300CC663300FF66330000993300339933006699330099993300CC993300FF99330000CC330033CC330066CC330099CC3300CCCC3300FFCC330000FF330033FF330066FF330099FF3300CCFF3300FFFF330000006600330066006600660099
310
006600CC006600FF00660000336600333366006633660099336600CC336600FF33660000666600336666006666660099666600CC666600FF66660000996600339966006699660099996600CC996600FF99660000CC660033CC660066CC660099CC6600CCCC6600FFCC660000FF660033FF660066FF660099FF6600CCFF6600
310
FFFF660000009900330099006600990099009900CC009900FF00990000339900333399006633990099339900CC339900FF33990000669900336699006666990099669900CC669900FF66990000999900339999006699990099999900CC999900FF99990000CC990033CC990066CC990099CC9900CCCC9900FFCC990000FF99
310
0033FF990066FF990099FF9900CCFF9900FFFF99000000CC003300CC006600CC009900CC00CC00CC00FF00CC000033CC003333CC006633CC009933CC00CC33CC00FF33CC000066CC003366CC006666CC009966CC00CC66CC00FF66CC000099CC003399CC006699CC009999CC00CC99CC00FF99CC0000CCCC0033CCCC0066CC
310
CC0099CCCC00CCCCCC00FFCCCC0000FFCC0033FFCC0066FFCC0099FFCC00CCFFCC00FFFFCC000000FF003300FF006600FF009900FF00CC00FF00FF00FF000033FF003333FF006633FF009933FF00CC33FF00FF33FF000066FF003366FF006666FF009966FF00CC66FF00FF66FF000099FF003399FF006699FF009999FF00CC
310
99FF00FF99FF0000CCFF0033CCFF0066CCFF0099CCFF00CCCCFF00FFCCFF0000FFFF0033FFFF0066FFFF0099FFFF00CCFFFF00FFFFFF00000000000D0D0D001A1A1A00282828003535350043434300505050005D5D5D006B6B6B00787878008686860093939300A1A1A100AEAEAE00BBBBBB00C9C9C900D6D6D600E4E4E400
310
F1F1F100FFFFFF000000000000000000000000000000000000000000000000000000000000000000000000000000000000000000000000000000000000000000000000000000000000000000000000000000000000000000000000000000000000000000000000000000000000000000000000000000000000000000000000
310
000000000000000000000000000000000000000000000000000000000000000000000000000000000000000000000000000000000000000000000000000000000000000000000000000000000000000000000000000000F5F5F5F5F5F50000F50000000000000000000000F5F50000F5F5F5F5000000000000000000000000
310
00000000000000000000000000000000000000000000000000000000000000000000000000000000000000000000000000000000000000000000000000000000000000000000000000000000000000000000000000000000000000000000000000000000000000000000000000000000000000000000000000000000000000
310
00000000000000000000000000000000000000000000000000000000000000000000000000000000000000000000000000000000000000000000000000000000000000000000000000000000000000000000000000000000F5F5F5F5F5F5F5F5F5F500F5F5F5F5F5F5F5F5F5F500F5F5F5F5F5F5F500000000000000000000
310
00000000000000000000000000000000000000000000000000000000000000000000000000000000000000000000000000000000000000000000000000000000000000000000000000000000000000000000000000000000000000000000000000000000000000000000000000000000000000000000000000000000000000
310
00000000000000000000000000000000000000000000000000000000000000000000000000000000000000000000000000000000000000000000000000000000000000000000000000000000000000000000000000000000000000F5F5F5F5F5F5F5F5F5F5F5F5F5F5F5F5F500000000F5F5F5F5F5F5F50000000000000000
310
00000000000000000000000000000000000000000000000000000000000000000000000000000000000000000000000000000000000000000000000000000000000000000000000000000000000000000000000000000000000000000000000000000000000000000000000000000000000000000000000000000000000000
310
0000000000000000000000000000000000000000000000000000000000000000000000000000000000000000000000000000000000000000000000000000000000000000000000000000000000F5F5F5F5F5F5F5F5F500F5F5F50000F5F5F5F5F5F5000000F50000000000000000000000F5F5F5F500000000000000000000
310
00000000F5F50000F5F5F5F500000000000000000000000000000000000000000000000000000000000000000000000000000000000000000000000000000000000000000000000000000000000000000000000000000000000000000000000000000000000000000000000000000000000000000000000000000000000000
310
00000000000000000000000000000000000000000000000000000000000000000000000000000000000000000000000000000000000000000000000000000000000000000000000000000000000000F5F5F5F5F5F5F5F5F5F5F5F5F5F500F5F5F5F5F5F500F5F5F500F5F5F5F5F5F5F5F5F5F5F5F5F5F5F5F5F5F5F5F5F5F5
310
F5F5F5F5F5F500F5F5F5F5F5F5F5F500000000000000000000000000000000000000000000000000000000000000000000000000000000000000000000000000000000000000000000000000000000000000000000000000000000000000000000000000000000000000000000000000000000000000000000000000000000
310
000000000000000000000000000000000000000000000000000000000000000000000000000000000000000000000000000000000000000000000000000000000000000000000000000000000000000000F5F5F5F5F5F500F5F5F5F5F5F50000F5F5F5F5F5F5F5F5F50000F5F5F5F5F5F5F5F5F5F5F5F5F5F5F5F5F5F5F5F5
310
F5F5F5F5F5F5F5F500F5F5F5F5F5F5F5F50000000000000000000000000000000000000000000000000000000000000000000000000000000000000000000000000000000000000000000000000000000000000000000000000000000000000000000000000000000000000000000000000000000000000000000000000000
310
00000000000000000000000000000000000000000000000000000000000000000000000000000000000000000000000000000000000000000000000000000000000000000000000000000000000000000000000000000000000000000000000000000000000000000000000000000000000000000000000000000000000000
310
00000000000000000000000000000000000000000000000000000000000000000000000000000000000000000000000000000000000000000000000000000000000000000000000000000000000000000000000000000000000000000000000000000000000000000000000000000000000000000000000000000000000000
310
00000000000000000000000000000000000000000000000000000000000000000000000000000000000000000000000000000000000000000000000000000000000000000000000000000000000000000000000000000000000000000000000000000000000000000000000000000000000000000000000000000000000000
310
00000000000000000000000000000000000000000000000000000000000000000000000000000000000000000000000000000000000000000000000000000000000000000000000000000000000000000000000000000000000000000000000000000000000000000000000000000000000000000000000000000000000000
310
00000000000000000000000000000000000000000000000000000000000000000000000000000000000000000000000000000000000000000000000000000000000000000000000000000000000000000000000000000000000000000000000000000000000000000000000000000000000000000000000000000000000000
310
00000000000000000000000000000000000000000000000000000000000000000000000000000000000000000000000000000000000000000000000000000000000000000000000000000000000000000000000000000000000000000000000000000000000000000000000000F5F5F5F5F5F5F5F5F5F5F5F5F5F5F5F5F5F5
310
F5F5F5F5F5F5F5F5F5F5F5F5F5F5F5F5F5F5F5F5F5F5F5F5F5F5F5F5F5F5F5F5F5DCDCDCDCDCDCDCF5F5F5F5F5F5F5F5F5F5F5F5F5F5F5F5F5F5F5F5F5F5F5F5F5F5F5F5F5F5F5F5F5F5F5F5F5F5F5F5F5F5F5F5F5F5F5F5F5F5F5F5F5F5DCDCDCF5F5F5F5F5F5F5F5F5F5F5F5F5F5F5F5F5F5F5F5F5F5F5F5F5F5F5F5F5F5
310
F5F5F5F5F5F5F5F5F5F5F5F5F5F5F5F5F5F5F5F5F5F5F5F5F50000000000000000000000000000000000000000000000000000000000000000000000000000000000000000000000000000000000000000000000000000000000000000000000000000000000000000000000000000F500F5F5F5F5F5F5F5F5F5F5F5F5F500
310
00F50000000000000000000000000000000000000000000000000000F5000000000000DCDCDCDCDCDCDC00000000000000000000000000000000000000000000000000000000000000000000000000F50000000000000000000000F500000000DCDCDC0000F50000000000000000000000000000000000000000F500000000
310
0000000000F50000000000000000000000000000000000000000F50000000000000000000000000000000000000000000000000000000000000000000000000000000000000000000000000000000000000000000000000000000000000000000000000000000000000000000000000000F500F5F5F5F5F5F5F5F5F5F5F5F5
310
F50000F50000DCDCDCDCDCDCDCDCDCDC0000000000000000000000000000F5F5F5000000000000000000000000000000000000000000000000000000000000000000000000000000000000000000000000F50000DCDCDCDCDCDC000000F5F5F500000000000000F50000000000000000000000000000000000000000F50000
310
00000000000000F500F5F5F5F5F5F5F5F5F5F5F5F5F5F5F5F5000000F50000000000000000000000000000000000000000000000000000000000000000000000000000000000000000000000000000000000000000000000000000000000000000000000000000000000000000000000000000F500F5F5F5F5F5F5F5F5F5F5
310
F5F5F50000F50000DCDCDCDCDCDCDCDCDCDC0000000000000000000000000000F5F5F5F5F5F5F5DCDCDCDCDCDCDCDCDCF5F5F5F5F5F5F5F5F5F5F5F5F5F5F5F5F5F5F5F5F5F5F5F5F5F5F5F5F5F5F5F5F5F5F5F50000DCDCDCDCDCDC000000F5F5F5F5F5DCDCF5F5F5F50000000000000000000000000000000000000000F5
310
F5F5F5F5F5F5F5F5F5F500F5F5F5F5F5F5F5F5F5F5F5F5F5F5F5F5000000F50000000000000000000000000000000000000000000000000000000000000000000000000000000000000000000000000000000000000000000000000000000000000000000000000000000000000000000000000000F500F5F5F5F5F5F5F5F5
310
F5F5F5F5F50000F50000000000000000000000000000000000000000000000000000F5000000000000DCDCDCDCDCDCDCDCDC0000000000000000000000000000000000000000000000000000000000000000000000F50000000000000000000000F500000000DCDC000000F500000000000000000000000000000000000000
310
00F500F5F5F5F5F5F5F5F5F50000000000000000000000000000000000000000F50000000000000000000000000000000000000000000000000000000000000000000000000000000000000000000000000000000000000000000000000000000000000000000000000000000000000000000000000000F50000F5F5F5F5F5
310
F5F5F5F5F5F5F50000F50000000000000000000000000000000000000000000000000000F5F5F5000000000000000000000000000000000000000000000000000000000000000000000000000000000000000000000000F5F500000000000000000000F5F5F500000000000000F50000000000000000000000000000000000
310
000000F5F5F500000000000000F50000000000000000000000000000000000000000F50000000000000000000000000000000000000000000000000000000000000000000000000000000000000000000000000000000000000000000000000000000000000000000000000000000000000000000000000000F5F5F5F5F5F5
310
F5F5F5F5F5F5F5F5F5F5F5F5F5F5F5F5F5F5F5F5F5F5F5F5F5F5F5F5F5F5F5F5F5F5F5F5F5F5F5F5F5F5F5F5F5F5F5F5F5F5F5F5F5F5F5F5F5F5F5F5F5F5F5F5F5F5F5F5F5F5F5F5F5F5F5F5F5F5F5F5F5F5F5F5F5F5F5F5F5F5F5F5F5F5F5F5F5F5F5F5F5F5F5F5F5F5F5F5F5F5F5F5F5F5F5F5F5F5F5F5F5F5F5F5F5F5F5
310
F5F5F5F5F5F5F5F5F5F5F5F5F5F5F5F5F5F5F5F5F5F5F5F5F5F5F5F5F5F5F5F5F5F5F5F5F50000000000000000000000000000000000000000000000000000000000000000000000000000000000000000000000000000000000000000000000000000000000000000000000000000000000000000000000000000F5000000
310
00000000000000000000000000000000000000000000000000000000000000000000000000000000000000000000000000000000000000000000000000000000000000000000000000000000000000000000000000000000000000000000000000000000000000000000000000000000000000000000000000000000000000
310
0000000000000000000000000000000000000000000000000000000000000000000000000000F50000000000000000000000000000000000000000000000000000000000000000000000000000000000000000000000000000000000000000000000000000000000000000000000000000000000000000000000000000F500
310
000000000000000000000000000000000000000000000000002D0000000000000000000000000000000000000000000000000000000000000000000000000000000000000000000000002D00000000000000000000000000000000000000000000000000000000000000000000000000000000000000000000000000000000
310
00000000000000000000000000000000000000000000000000000000000000000000000000000000F50000000000000000000000000000000000000000000000000000000000000000000000000000000000000000000000000000000000000000000000000000000000000000000000000000000000000000000000000000
310
F500000000000000000000000000000000000000000000000000002D2D2D2D2D2D2D2D2D2D2D2D2D2D2D2D2D2D2D2D2D2D2D2D2D2D2D2D2D2D2D2D2D2D2D2D2D2D2D2D2D2D2D2D2D2D2D2D2D2D0000000000000000000000000000000000000000000000000000000000000000000000000000000000000000000000000000
310
000000000000000000000000000000000000000000000000000000000000000000000000000000000000F5000000000000000000000000000000000000000000000000000000000000000000000000000000000000000000000000000000000000000000000000000000000000000000000000000000000000000000000000
310
0000F500000000000000000000000000000000000000000000000000002D0000000000000000000000000000000000000000002D2D2D2D2D2D0000000000000000000000000000000000000000002D000000000000000000000000000000000000000000000000000000000000000000000000000000000000000000000000
310
0000000000000000000000000000000000000000000000000000000000000000000000000000000000000000F500000000000000000000000000000000000000000000000000000000000000000000000000000000000000000000000000000000000000000000000000000000000000000000000000000000000000000000
310
00000000F500000000000000000000000000000000000000000000000000002D0000000000000000000000000000000000000000002D2D2D2D002D0000000000000000000000000000000000000000002D00000000000000000000000000000000000000000000000000000000000000000000000000000000000000000000
310
00000000000000000000000000000000000000000000000000000000000000000000000000000000000000000000F50000000000000000000000000000000000000000000000000000000000000000000000000000000000000000000000000000000000000000000000000000000000000000000000000000000000000000
310
000000000000F500000000000000000000000000000000000000000000000000002D002D2D0000000000000000000000000000000000000000BE00000000000000000000000000000000000000002D2D00002D0000000000000000000000000000000000000000000000000000000000000000000000000000000000000000
310
000000000000000000000000000000000000000000000000000000000000000000000000000000000000000000000000F5000000000000000000000000000000000000000000000000000000000000000000000000000000000000000000000000000000000000000000000000000000000000000000000000000000000000
310
0000000000000000F500000000000000000000000000000000000000000000000000002D002D2D2D2D2D2D2D2D2D2D2D2D2D2D2D2D2D2D2D2D2D2D2D2D2D2D2D2D2D2D2D2D2D2D2D2D2D2D2D2D2D2D2D2D2D00002D000000000000000000000000000000000000000000000000000000000000000000000000000000000000
310
0000000000000000000000000000000000000000000000000000000000000000000000000000000000000000000000000000F500000000000000000000000000000000000000000000000000000000000000000000000000000000000000000000000000000000000000000000000000000000000000000000000000000000
310
00000000000000000000F500000000000000000000000000000000000000000000000000002D002D000000000000000000000000000000000000002D2D2D2D2D2D0000000000000000000000000000000000002D00002D00000000000000000000000000000000000000000000000000000000000000000000000000000000
310
0000000000000000000000000000000000F5F5F5F5F5F5F5F5F5F5F5F5F5F5F5F5F5F5F5F5F5F5F5F5F5F5000000000000000000F50000000000000000000000000000000000000000000000000000000000000000000000000000000000000000000000000000000000000000000000000000000000000000000000000000
310
000000000000000000000000F500000000000000000000000000000000000000000000000000002D002D000000000000000000000000000000000000002D2D2D2D002D0000000000000000000000000000000000002D00002D0000000000000000000000000000000000000000000000000000000000000000000000000000
310
00000000000000000000000000000000000000F500DCDCDCDCDCDCDC0000F50000DCDCDCDCDCDCDCDCDC0000F5000000000000000000F5000000000000000000000000000000000000000000000000000000000000000000000000000000000000000000000000000000000000000000000000000000000000000000000000
310
0000000000000000000000000000F500000000000000000000000000000000000000000000000000002D002D000000000000000000000000000000000000000000BE0000000000000000000000000000000000000000002D00002D000000000000000000000000000000000000000000000000000000000000000000000000
310
000000000000000000000000000000000000000000F500DCDCDCDCDCDCDC0000F50000DCDCDCDCDCDCDCDCDC0000F5000000000000000000F500000000000000000000000000000000000000000000000000000000000000000000000000000000000000000000000000000000000000000000000000000000000000000000
310
00000000000000000000000000000000F5000000000000000000000000000000000000000000000000000028282D2828282828282828282828282828282828282828282828282828282828282828282828282828282828282828282D2D2D2D2D2D2D2D2D2D2D2D2D2D2D2D2D2D2D2D2D2D2D00000000000000000000000000
310
0000000000000000000000000000000000000000000000F5F5F5F5F5F5F5F5F5F5F5F5F5F5F5F5F5F5F5F5F5F5F5F5F5F5000000000000000000F50000000000000000000000000000000000000000000000000000000000000000000000000000000000000000000000000000000000000000000000000000000000000000
310
000000000000000000000000000000000000F50000000000000000000000000000000000000000000000000000280028000000000000000000000000000000000000000000BE000000000000000000000000000000000000000000000000280000000000000000000000000000002D2D00002D2D0000000000000000000000
310
00000000000000000000000000000000000000000000000000F500DCDCDCDCDCDC000000F50000DCDCDCDCDCDCDCDCDC0000F5000000000000000000F5000000000000000000000000000000000000000000000000000000000000000000000000000000000000000000000000000000000000000000000000000000000000
310
0000000000000000000000000000000000000000F5000000000000000000000000000000000000000000000000000028DC28000000000000000000000000000000000000000000BE000000000000000000000000000000000000000000000000280000000000000000000000000000002D000000002D000000000000000000
310
000000000000000000000000000000000000000000000000000000F500DCDCDCDCDCDC000000F50000DCDCDCDCDCDCDCDCDC0000F5000000000000000000F500000000000000000000000000000000000000000000000000000000000000000000000000000000000000000000000000000000000000000000000000000000
310
00000000000000000000000000000000000000000000F5000000000000000000000000000000000000000000000000000028DC28000000000000000000000000000000000000000000BE000000000000000000000000000000000000000000000000280000000000000000000000000000002D000000002D00000000000000
310
0000000000000000000000000000000000000000000000000000000000F500000000000000000000F500000000000000000000000000F5000000000000000000F50000000000000000000000000000000000000000000000000000000000000000000000000000000000000000000000000000000000000000000000000000
310
000000000000000000000000000000000000000000000000F50000000000000000000000000000000000000000000000000000280028000000000000000000000000000000000000000000BE000000000000000000000000000000000000000000000000280000000000000000000000000000002D000000002D0000000000
310
00000000000000000000000000000000000000000000000000000000000000F5F5F5F5F5F5F5F5F5F5F5F5F5F5F5F5F5F5F5F5F5F5F5F5F5F5000000000000000000F5000000000000000000000000000000000000000000000000000000000000000000000000000000000000000000000000000000000000000000000000
310
0000000000000000000000000000000000000000000000000000F5000000000000000000000000000000000000000000000000000028DC28000000000000000000000000000000000000000000BE000000000000000000000000000000000000000000000000280000000000000000000000000000002D000000002D000000
310
000000000000000000000000000000000000000000000000000000000000000000F500DCDCDCDC0000000000F50000DCDCDCDCDCDCDCDCDC0000F5000000000000000000F500000000000000000000000000000000000000000000000000000000000000000000000000000000000000000000000000000000000000000000
310
00000000000000000000000000000000000000000000000000000000F5000000000000000000000000000000000000000000000000000028DC28000000000000000000000000000000000000000000BE000000000000000000000000000000000000000000000000280000000000000000000000000000002D000000002D00
310
0000000000000000000000000000000000000000000000000000000000000000000000F500000000000000000000F500000000000000000000000000F5000000000000000000F50000000000000000000000000000000000000000000000000000000000000000000000000000000000000000000000000000000000000000
310
000000000000000000000000000000000000000000000000000000000000F50000000000000000000000000000000000000000000000000000280028000000000000000000000000000000000000000000BE000000000000000000000000000000000000000000000000280000000000000000000000000000002D00000000
310
2D000000000000000000000000000000000000000000000000000000000000000000000000F5F5F5F5F5F5F5F5F5F5F5F5F5F5F5F5F5F5F5F5F5F5F5F5F5F5000000000000000000F5000000000000000000000000000000000000000000000000000000000000000000000000000000000000000000000000000000000000
310
0000000000000000000000000000000000000000000000000000000000000000F5000000000000000000000000000000000000000000000000000028DC28000000000000000000000000000000000000000000BE000000000000000000000000000000000000000000000000280000000000000000000000000000002D0000
310
00002D000000000000000000000000000000000000000000000000000000000000000000000000F500DCDCDCDCDCDC000000F50000DCDCDCDCDCDCDCDCDC0000F5000000000000000000F500000000000000000000000000000000000000000000000000000000000000000000000000000000000000000000000000000000
310
00000000000000000000000000000000000000000000000000000000000000000000F5000000000000000000000000000000000000000000000000000028DC28000000000000000000000000000000000000000000BE000000000000000000000000000000000000000000000000280000000000000000000000000000002D
310
000000002D000000000000000000000000000000000000000000000000000000000000000000000000F500DCDCDCDCDCDC000000F50000DCDCDCDCDCDCDCDCDC0000F5000000000000000000F50000000000000000000000000000000000000000000000000000000000000000000000000000000000000000000000000000
310
000000000000000000000000000000000000000000000000000000000000000000000000F50000000000000000000000000000000000000000000000000000280028000000000000000000000000000000000000000000BE00000000000000000000000000000000000000000000000028000000000000000000000000002D
310
2D2D000000002D000000000000000000000000000000000000000000000000000000000000000000000000F500000000000000000000F500000000000000000000000000F5000000000000000000F5000000000000000000000000000000000000000000000000000000000000000000000000000000000000000000000000
310
0000000000000000000000000000000000000000000000000000000000000000000000000000F5000000000000000000000000000000000000000000000000000028DC28000000000000000000000000000000000000000000BE00000000000000000000000000000000000000000000000028000000000000000000000000
310
002D2D2D000000002D000000000000000000000000000000000000000000000000000000000000000000000000F5F5F5F5F5F5F5F5F5F5F5F5F5F5F5F5F5F5F5F5F5F5F5F5F5F5000000000000000000F500000000000000000000000000000000000000000000000000000000000000000000000000000000000000000000
310
00000000000000000000000000000000000000000000000000000000000000000000000000000000F50000000000000000000000000000000000000000000000000000280028282828282828282828282828282828282828282828280000000000000000000000000000000000000000000000002800000000000000000000
310
0000002D002D000000002D000000000000000000000000000000000000000000000000000000000000000000000000F500DCDCDCDCDCDC000000F50000DCDCDCDCDCDCDCDC000000F5000000000000000000F50000000000000000000000000000000000000000000000000000000000000000000000000000000000000000
310
000000000000000000000000000000000000000000000000000000000000000000000000000000000000F5000000000000000000000000000000000000000000000000000028002828282828282828282828282828282828282828282828000000000000000000000000000000000000000000000000280000000000000000
310
00000000002D2D2D000000002D000000000000000000000000000000000000000000000000000000000000000000000000F500000000000000000000F500000000000000000000000000F5000000000000000000F5000000000000000000000000000000000000000000000000000000000000000000000000000000000000
310
0000000000000000000000000000000000000000000000000000000000000000000000000000000000000000F5000000000000000000000000000000000000000000000000000028DC28280028000000000000000000000000000000000000BE00000000000000000000000000000000000000000000000028000000000000
310
0000000000000000002D002D00002D000000000000000000000000000000000000000000000000000000000000000000000000F5F5F5F5F5F5F5F5F5F5F5F5F5F5F5F5F5F5F5F5F5F5F5F5F5F5000000000000000000F500000000000000000000000000000000000000000000000000000000000000000000000000000000
310
00000000000000000000000000000000000000000000000000000000000000000000000000000000000000000000F50000000000000000000000000000000000000000000000000000280028280028000000000000000000000000000000000000BE0000000000000000000000000000000000000000000000002800000000
310
00000000000000000000002D002D2D2D2D000000000000000000000000000000000000000000000000000000000000000000000000F5000000DCDCDC00000000F5000000DCDCDCDC000000000000F5000000000000000000F50000000000000000000000000000000000000000000000000000000000000000000000000000
310
000000000000000000000000000000000000000000000000000000000000000000000000000000000000000000000000F50000000000000000000000000000000000000000000000000000280028280028000000000000000000000000000000000000BE000000000000000000000000000000000000000000000000280000
310
0000000000000000002D0000002D002D2D2D2D000000000000000000000000000000000000000000000000000000000000000000000000F500000000000000000000F500000000000000000000000000F5000000000000000000F5000000000000000000000000000000000000000000000000000000000000000000000000
310
0000000000000000000000000000000000000000000000000000000000000000000000000000000000000000000000000000F5000000000000000000000000000000000000000000000000000028DC2828DC28000000000000000000000000000000000000BE00000000000000000000000000000000000000000000000028
310
00000000000000002D2D2D2D0000002D002D2D2D2D000000000000000000000000000000000000000000000000000000000000000000000000F5F5F5F5F5F5F5F5F5F5F5F5F5F5F5F5F5F5F5F5F5F5F5F5F5F5000000000000000000F500000000000000000000000000000000000000000000000000000000000000000000
310
00000000000000000000000000000000000000000000000000000000000000000000000000000000000000000000000000000000F50000000000000000000000000000000000000000000000000000280028280028000000000000000000000000000000000000BE0000000000000000000000000000000000000000000000
310
00280000000000000000002D2D2D0000002D000000002D0000000000000000000000000000000000000000000000000000000000000000000000000000000000000000000000000000000000000000000000000000000000000000000000F50000000000000000000000000000000000000000000000000000000000000000
310
000000000000000000000000000000000000000000000000000000000000000000000000000000000000000000000000000000000000F50000000000000000000000000000000000000000000000000000280028280028000000000000000000000000000000000000BE000000000000000000000000000000000000000000
310
0000002800000000000000000000002D0000002D000000002D0000000000000000000000000000000000000000000000000000000000000000000000000000000000000000000000000000000000000000000000000000000000000000000000F5000000000000000000000000000000000000000000000000000000000000
310
0000000000000000000000000000000000000000000000000000000000000000000000000000000000000000000000000000000000000000F5000000000000000000000000000000000000000000000000000028DC2800DC28000000000000000000000000000000000000BE00000000000000000000000000000000000000
310
00000000002800000000000000000000002D0000002D000000002D0000000000000000000000000000000000000000000000000000000000000000000000000000000000000000000000000000000000000000000000000000000000000000000000F500000000000000000000000000000000000000000000000000000000
310
00000000000000000000000000000000000000000000000000000000000000000000000000000000000000000000000000000000000000000000F50000000000000000000000000000000000000000000000002828280028DC0028000000000000000000000000000000000000282828282828282828282828282828282828
310
282828282828282828282D2D2D2D2D2D2D2D2D2D2D00002D000000002D0000000000000000000000000000000000000000000000000000000000000000000000000000000000000000000000000000000000000000000000000000000000000000000000F50000000000000000000000000000000000000000000000000000
310
000000000000000000000000000000000000000000000000000000000000000000000000000000000000000000000000000000000000000000000000F50000000000000000000000000000000000000000000000002800DC2828000028000000000000000000000000000000000000BE000000000000000000000000000000
310
0000000000000000000000280000000000000000002D0000002D2D0000002D0000000000000000000000000000000000000000000000000000000000000000000000000000000000000000000000000000000000000000000000000000000000000000000000F5000000000000000000000000000000000000000000000000
310
0000000000000000000000000000000000000000000000000000000000000000000000000000000000000000000000000000000000000000000000000000F50000000000000000000000000000000000000000000000002800DCDC2800DC28000000000000000000000000000000000000BE00000000000000000000000000
310
00000000000000000000000000280000000000000000002D0000002D2D0000002D0000000000000000000000000000000000000000000000000000000000000000000000000000000000000000000000000000000000000000000000000000000000000000000000F500000000000000000000000000000000000000000000
310
00000000000000000000000000000000000000000000000000000000000000000000000000000000000000000000000000000000000000000000000000000000F50000000000000000000000000000000000000000000000002828DC2D28DC0028282828282828282828282828282828282828282828282828282828282828
310
282828282828282828282828282828282D2D2D2D2D2D2D2D2D2D2D2D2D2D2D0000002D0000000000000000000000000000000000000000000000000000000000000000000000000000000000000000000000000000000000000000000000000000000000000000000000F50000000000000000000000000000000000000000
310
000000000000000000000000000000000000000000000000000000000000000000000000000000000000000000000000000000000000000000000000000000000000F500000000000000000000000000000000000000000000000028DC2D00DC0000DC0000DC0000DC0000DC0000DC0000DC0000DCBE000000000000000000
310
0000000000000000000000000000000000280000000000000000002D0000002D2D0000002D0000000000000000000000000000000000000000000000000000000000000000000000000000000000000000000000000000000000000000000000000000000000000000000000F5000000000000000000000000000000000000
310
0000000000000000000000000000000000000000000000000000000000000000000000000000000000000000000000000000000000000000000000000000000000000000F50000000000000000000000000000000000000000000000002D2D2828282828280028282828282828282828282828282828282828282828282828
310
282828282828282828282828282828282828282D2D2D2D2D2D2D2D2D2D2D2D2D002D000000002D0000000000000000000000000000000000000000000000000000000000000000000000000000000000000000000000000000000000000000000000000000000000000000000000F500000000000000000000000000000000
310
00000000000000000000000000000000000000000000000000000000000000000000000000000000000000000000000000000000000000000000000000000000000000000000F50000000000000000000000000000000000000000000000002D2D000000000028DC2800002828000028000000000000000000BE0000000000
310
0000000028002800280000280000280000000000002D0000000000000000002D002D2D2D000000002D0000000000000000000000000000000000000000000000000000000000000000000000000000000000000000000000000000000000000000000000000000000000000000000000F50000000000000000000000000000
310
000000000000000000000000000000000000000000000000000000000000000000000000000000000000000000000000000000000000000000000000000000000000000000000000F50000000000000000000000000000000000000000000000002D00000000000028002800002828000028000000000000000000BE000000
310
00000000000028002800280000280000280000000000002D0000000000000000002D002D2D2D000000002D0000000000000000000000000000000000000000000000000000000000000000000000000000000000000000000000000000000000000000000000000000000000000000000000F5000000000000000000000000
310
0000000000000000000000000000000000000000000000000000000000000000000000000000000000000000000000000000000000000000000000000000000000000000000000000000F50000000000000000000000000000000000000000000000002D00000000000028DC2800002828000028000000000000000000BE00
310
000000000000000028002800280000280000280000000000002D0000000000002D2D2D2D002D2D2D000000002D0000000000000000000000000000000000000000000000000000000000000000000000000000000000000000000000000000000000000000000000000000000000000000000000F500000000000000000000
310
00000000000000000000000000000000000000000000000000000000000000000000000000000000000000000000000000000000000000000000000000000000000000000000000000000000F5000000000000000000000000000000002D2D2D2D2D2D2D2D2D00000000000028DC2800002828000028000000000000000000
310
BE00000000000000000028002800280000280000280000000000002D0000000000002D2D2D2D0000002D2D00002D2D0000000000000000000000000000000000000000000000000000000000000000000000000000000000000000000000000000000000000000000000000000000000000000000000F50000000000000000
310
000000000000000000000000000000000000000000000000000000000000000000000000000000000000000000000000000000000000000000000000000000000000000000000000000000000000F5000000000000000000000000000000002D2D2D2D2D2D2D002D0000000000002800280000282800002800000000000000
310
0000BE00000000000000000028002800280000280000280000000000002D0000000000000000002D0000002D2D0000002D0000000000000000000000000000000000000000000000000000000000000000000000000000000000000000000000000000000000000000000000000000000000000000000000F5000000000000
310
0000000000000000000000000000000000000000000000000000000000000000000000000000000000000000000000000000000000000000000000000000000000000000000000000000000000000000F5000000000000000000000000000000002D2D2D2D2D2D2D2D2D000000000000282828282828282828282828282828
310
2828282828282828282828282828282828282828282828282D2D2D2D2D2D2D2D2D2D2D2D2D2D2D2D2D2D2D2D2D2D2D2D2D2D2D0000000000000000000000000000000000000000000000000000000000000000000000000000000000000000000000000000000000000000000000000000000000000000000000F500000000
310
00000000000000000000000000000000000000000000000000000000000000000000000000000000000000000000000000000000000000000000000000000000000000000000000000000000000000000000F50000000000000000000000000000000000000000000000002D00000000000000000000000000000000000000
310
000000000000BE00000000000000000000000000000000000000000000000000002D000000000000000000000000000000000000000000000000000000000000000000000000000000000000000000000000000000000000000000000000000000000000000000000000000000000000000000000000000000000000F50000
310
000000000000000000000000000000000000000000000000000000000000000000000000000000000000000000000000000000000000000000000000000000000000000000000000000000000000000000000000F50000000000000000000000000000000000000000000000002D0000000000000000000000000000000000
310
0000000000000000BE00000000000000000000000000000000000000000000000000002D000000000000000000000000000000000000000000000000000000000000000000000000000000000000000000000000000000000000000000000000000000000000000000000000000000000000000000000000000000000000F5
310
0000000000000000000000000000000000000000000000000000000000000000000000000000000000000000000000000000000000000000000000000000000000000000000000000000000000000000000000000000F50000000000000000000000000000000000000000000000002D000000000000000000000000000000
310
00000000000000000000BE00000000000000000000000000000000000000000000000000002D0000000000000000000000000000000000000000000000000000000000000000000000000000000000000000000000000000000000000000000000000000000000000000000000000000000000000000000000000000000000
310
00F50000000000000000000000000000000000000000000000000000000000000000000000000000000000000000000000000000000000000000000000000000000000000000000000000000000000000000000000000000F50000000000000000000000000000000000000000000000002D00000000000000000000000000
310
0000000000000000000000000000000000000000000000000000000000000000000000000000002D000000000000000000000000000000000000000000000000000000000000000000000000000000000000000000000000000000000000000000000000000000000000000000000000000000000000000000000000000000
310
000000F50000000000000000000000000000000000000000000000000000000000000000000000000000000000000000000000000000000000000000000000000000000000000000000000000000000000000000000000000000F50000000000000000000000000000000000000000000000002D2D2D2D2D2D2D2D2D2D2D2D
310
2D2D2D2D2D2D2D2D2D2D2D2D2D2D2D2D2D2D2D2D2D2D2D2D2D2D2D2D2D2D2D2D2D2D2D2D2D2D2D2D2D2D00000000000000000000000000000000000000000000000000000000000000000000000000000000000000000000000000000000000000000000000000000000000000000000000000000000000000000000000000
310
0000000000F50000000000000000000000000000000000000000000000000000000000000000000000000000000000000000000000000000000000000000000000000000000000000000000000000000000000000000000000000000F500000000000000000000000000000000000000000000000000000000000000000000
310
000000000000000000000000002D2D2D2D2D2D2D0000000000000000000000000000000000000000000000000000000000000000000000000000000000000000000000000000000000000000000000000000000000000000000000000000000000000000000000000000000000000000000000000000000000000000000000
310
00000000000000F50000000000000000000000000000000000000000000000000000000000000000000000000000000000000000000000000000000000000000000000000000000000000000000000000000000000000000000000000000F50000000000000000000000000000000000000000000000000000000000000000
310
000000000000000000000000000000002D2D2D2D2D2D000000000000000000000000000000000000000000000000000000000000000000000000000000000000000000000000000000000000000000000000000000000000000000000000000000000000000000000000000000000000000000000000000000000000000000
310
000000000000000000F50000000000000000000000000000000000000000000000000000000000000000000000000000000000000000000000000000000000000000000000000000000000000000000000000000000000000000000000000000F5000000000000000000000000000000000000000000000000000000000000
310
0000000000000000000000000000000000000000BE00000000000000000000000000000000000000000000000000000000000000000000000000000000000000000000000000000000000000000000000000000000000000000000000000000000000000000000000000000000000000000000000000000000000000000000
310
0000000000000000000000F50000000000000000000000000000000000000000000000000000000000000000000000000000000000000000000000000000000000000000000000000000000000000000000000000000000000000000000000000000F500000000000000000000000000000000000000000000000000000000
310
00000000000000000000000000000000000000000000BE0000000000000000000000000000000000000000000000000000000000000000000000000000000000000000000000000000000000000000000000000000000000000000000000000000000000000000000000000000000000000000000000000000000000000000
310
00000000000000000000000000F50000000000000000000000000000000000000000000000000000000000000000000000000000000000000000000000000000000000000000000000000000000000000000000000000000000000000000000000000000F50000000000000000000000000000000000000000000000000000
310
000000000000000000000000000000000000000000000000BE000000000000000000000000000000000000000000000000000000000000000000000000000000000000000000000000000000000000000000000000000000000000000000000000000000000000000000000000000000000000000000000000000000000000
310
000000000000000000000000000000F50000000000000000000000000000000000000000000000000000000000000000000000000000000000000000000000000000000000000000000000000000000000000000000000000000000000000000000000000000F5000000000000000000000000000000000000000000000000
310
00000000000000000000000000000000000000000028282828282828282828280000000000000000000000000000000000000000000000000000000000000000000000000000000000000000000000000000000000000000000000000000000000000000000000000000000000000000000000000000000000000000000000
310
0000000000000000000000000000000000F50000000000000000000000000000000000000000000000000000000000000000000000000000000000000000000000000000000000000000000000000000000000000000000000000000000000000000000000000000F500000000000000000000000000000000000000000000
310
00000000000000000000000000000000000000282828280000000000BE0000000000282828280000000000000000000000000000000000000000000000000000000000000000000000000000000000000000000000000000000000000000000000000000000000000000000000000000000000000000000000000000000000
310
00000000000000000000000000000000000000F50000000000000000000000000000000000000000000000000000000000000000000000000000000000000000000000000000000000000000000000000000000000000000000000000000000000000000000000000000F50000000000000000000000000000000000000000
310
000000000000000000000000000000000000282828000000000000000000BE000000000000000000282828000000000000000000000000000000000000000000000000000000000000000000000000000000000000000000000000000000000000000000000000000000000000000000000000000000000000000000000000
310
000000000000000000000000000000000000000000F50000000000000000000000000000000000000000000000000000000000000000000000000000000000000000000000000000000000000000000000000000000000000000000000000000000000000000000000000000F5000000000000000000000000000000000000
310
0000000000000000000000000000000000000028000000000000000000000000BE00000000000000000000000028000000000000000000000000000000000000000000000000000000000000000000000000000000000000000000000000000000000000000000000000000000000000000000000000000000000000000000
310
0000000000000000000000000000000000000000000000F50000000000000000000000000000000000000000000000000000000000000000000000000000000000000000000000000000000000000000000000000000000000000000000000000000000000000000000000000000F500000000000000000000000000000000
310
00000000000000000000000000000000000000002800000000000000000000000000BE0000000000000000000000000028280000000000000000000000000000000000000000000000000000000000000000000000000000000000000000000000000000000000000000000000000000000000000000000000000000000000
310
00000000000000000000000000000000000000000000000000F50000000000000000000000000000000000000000000000000000000000000000000000000000000000000000000000000000000000000000000000000000000000000000000000000000000000000000000000000000F50000000000000000000000000000
310
000000000000000000000000000000000000000000280000000000000000000000000000BE000000000000000000000000000000280000000000000000000000000000000000000000000000000000000000000000000000000000000000000000000000000000000000000000000000000000000000000000000000000000
310
000000000000000000000000000000000000000000000000000000F50000000000000000000000000000000000000000000000000000000000000000000000000000000000000000000000000000000000000000000000000000000000000000000000000000000000000000000000000000F5000000000000000000000000
310
0000000000000000000000000000000000000000002828000000000000000000000000000000BE00000000000000000000000000000000282800000000000000000000000000000000000000000000000000000000000000000000000000000000000000000000000000000000000000000000000000000000000000000000
310
0000000000000000000000000000000000000000000000000000000000F50000000000000000000000000000000000000000000000000000000000000000000000000000000000000000000000000000000000000000000000000000000000000000000000000000000000000000000000000000F500000000000000000000
310
000000000000000000000000000000000000000000002800000000000000000000000000282828282828282828282D2D2D2D2D2D2D2D2D2D2D2D2D282D2D2D2D2D2D2D2D2D2D2D2D2D2D2D2D2D2D2D2D2D2D2D2D2D000000000000000000000000000000000000000000000000000000000000000000000000000000000000
310
00000000000000000000000000000000000000000000000000000000000000F50000000000000000000000000000000000000000000000000000000000000000000000000000000000000000000000000000000000000000000000000000000000000000000000000000000000000000000000000000F50000000000000000
310
000000000000000000000000000000000000000000000028000000000000282800000028282800000000BE00000000002828280000002828002D2D2D000028000000000000000000000000000000000000000000002D0000000000000000000000000000000000000000000000000000000000000000000000000000000000
310
000000000000000000000000000000000000000000000000000000000000000000F50000000000000000000000000000000000000000000000000000000000000000000000000000000000000000000000000000000000000000000000000000000000000000000000000000000000000000000000000000F5000000000000
310
000000000000000000000000000000000000000000000000280000000000002800002828280000002828282828282828282800000028282800282D2D2D2D2D2D00280000000000000000000000000000000000000000002D000000000000000000000000000000000000000000000000000000000000000000000000000000
310
0000000000000000000000000000000000000000000000000000000000000000000000F50000000000000000000000000000000000000000000000000000000000000000000000000000000000000000000000000000000000000000000000000000000000000000000000000000000000000000000000000000F500000000
310
00000000000000000000000000000000000000000000000000280000000000000028000000000028282800000000BE0000000000282800000000002D002D2D002D2D2D002800000000000000000000000000000000000000002D00000000000000000000000000000000000000000000000000000000000000000000000000
310
00000000000000000000000000000000000000000000000000000000000000000000000000F50000000000000000000000000000000000000000000000000000000000000000000000000000000000000000000000000000000000000000000000000000000000000000000000000000000000000000000000000000F50000
310
00000000000000000000000000000000000000000000000000000028000000000000000028000028280000002D2D2D00BE002D2D2D00000028280000280000002D2D002D00000028000000000000000000000000000000000000002D0000000000000000000000000000000000000000000000000000000000000000000000
310
000000000000000000000000000000000000000000000000000000000000000000000000000000F50000000000000000000000000000000000000000000000000000000000000000000000000000000000000000000000000000000000000000000000000000000000000000000000000000000000000000000000000000F5
310
00000000000000000000000000000000000000000000000000000000280000000000000000000028280000002D002D2D2D00BE002D2D2D002D00000028280000000000002D0000000028000000000000000000000000000000000000002D000000000000000000000000000000000000000000000000000000000000000000
310
0000000000000000000000000000000000000000000000000000000000000000000000000000000000F500000000000000000000000000000000000000000000000000000000000000000000000000000000000000000000000000000000000000000000000000000000000000000000000000000000000000000000000000
310
00F50000000000000000000000000000000000000000000000000000000028000000002828000000000000002D2D2D2D2D2D2D2DBE2D2D2D002D2D2D2D000000000000002D2D280000000000280000000000000000000000000000000000002D00000000000000000000000000000000000000000000000000000000000000
310
00000000000000000000000000000000000000000000000000000000000000000000000000000000000000F50000000000000000000000000000000000000000000000000000000000000000000000000000000000000000000000000000000000000000000000000000000000000000000000000000000000000000000000
310
000000F5000000000000000000000000000000000000000000000000000000280000000028000028000000000000002D2D2D002D2D2DBE2D2D2D2D2D2D2D00002D00000000280000280000000000280000000000000000000000000000000000002D0000000000000000000000000000000000000000000000000000000000
310
000000000000000000000000000000000000000000000000000000000000000000000000000000000000000000F5000000000000000000000000000000000000000000000000000000000000000000000000000000000000000000000000000000000000000000000000000000000000000000000000000000000000000000
310
0000000000F5000000000000000000000000000000000000000000000000000000280000000000280000280000000000002D2D2D2D2D2D00BE002D2D2D2D2D002D2D2D2D000028000028280000000000002800000000000000000000000000000000002D000000000000000000000000000000000000000000000000000000
310
0000000000000000000000000000000000000000000000000000000000000000000000000000000000000000000000F500000000000000000000000000000000000000000000000000000000000000000000000000000000000000000000000000000000000000000000000000000000000000000000000000000000000000
310
00000000000000F500000000000000000000000000000000000000000000000000002800000000000028000028000000000000002D2D00000000BE0000002D2D2D2D2D2D2D00000028000028000000000000002800000000000000000000000000000000002D00000000000000000000000000000000000000000000000000
310
00000000000000000000000000000000000000000000000000000000000000000000000000000000000000000000000000F50000000000000000000000000000000000000000000000000000000000000000000000000000000000000000000000000000000000000000000000000000000000000000000000000000000000
310
000000000000000000F50000000000000000000000000000000000000000000000000000280000000000002800280000000000000000000000000000BE0000000000002D2D2D0000000000280000280000000000000028000000000000000000000000000000002D0000000000000000000000000000000000000000000000
310
000000000000000000000000000000000000000000000000000000000000000000000000000000000000000000000000000000F5000000000000000000000000000000000000000000000000000000000000000000000000000000000000000000000000000000000000000000000000000000000000000000000000000000
310
0000000000000000000000F50000000000000000000000000000000000000000000000000028000000000000280000280000000000000000000000000000BE000000000000002D000000000000280000280000000000000028000000000000000000000000000000002D000000000000000000000000000000000000000000
310
0000000000000000000000000000000000000000000000000000000000000000000000000000000000000000000000000000000000F500000000000000000000000000000000000000000000000000000000000000000000000000000000000000000000000000000000000000000000000000000000000000000000000000
310
00000000000000000000000000F50000000000000000000000000000000000000000000000000028000000000000280028000000000000000000000000000000BE0000000000000000000000000000002800002800000000000028000000000000000000000000000000002D00000000000000000000000000000000000000
310
00000000000000000000000000000000000000000000000000000000000000000000000000000000000000000000000000000000000000F50000000000000000000000000000000000000000000000000000000000000000000000000000000000000000000000000000000000000000000000000000000000000000000000
310
000000000000000000000000000000F50000000000000000000000000000000000000000000000000028000000000000280028000000000000000000000000000000BE0000000000000000000000000000002800002800000000000000280000000000000000000000000000002D0000000000000000000000000000000000
310
000000000000000000000000000000000000000000000000000000000000000000000000000000000000000000000000000000000000000000F5000000000000000000000000000000000000000000000000000000000000000000000000000000000000000000000000000000000000000000000000000000000000000000
310
0000000000000000000000000000000000F50000000000000000000000000000000000000000000000002800000000000000282800000000000000000000000000000000BE0000000000000000000000000000000028000028000000000000280000000000000000000000000000002D000000000000000000000000000000
310
0000000000000000000000000000000000000000000000000000000000000000000000000000000000000000000000000000000000000000000000F500000000000000000000000000000000000000000000000000000000000000000000000000000000000000000000000000000000000000000000000000000000000000
310
00000000000000000000000000000000000000F50000000000000000000000000000000000000000000000002800000000000028002800000000000000000000000000000000BE0000000000000000000000000000000028000028000000000000280000000000000000000000000000002D00000000000000000000000000
310
00000000000000000000000000000000000000000000000000000000000000000000000000000000000000000000000000000000000000000000000000F50000000000000000000000000000000000000000000000000000000000000000000000000000000000000000000000000000000000000000000000000000000000
310
000000000000000000000000000000000000000000F50000000000000000000000000000000000000000000000002800000000000028002800000000000000000000000000000000BE0000000000000000000000000000000028000028000000000000280000000000000000000000000000002D0000000000000000000000
310
000000000000000000000000000000000000000000000000000000000000000000000000000000000000000000000000000000000000000000000000000000F5000000000000000000000000000000000000000000000000000000000000000000000000000000000000000000000000000000000000000000000000000000
310
0000000000000000000000000000000000000000000000F50000000000000000000000000000000000000000000000002800000000000028002800000000000000000000000000000000BE000000000000000000000000000000000028002800000000000028000000000000000000000000002D002D000000000000000000
310
0000000000000000000000000000000000000000000000000000000000000000000000000000000000000000000000000000000000000000000000000000000000F500000000000000000000000000000000000000000000000000000000000000000000000000000000000000000000000000000000000000000000000000
310
00000000000000000000000000000000000000000000000000F50000000000000000000000000000000000000000000000002800000000000028002800000000000000000000000000000000BE000000000000000000000000000000000028002800000000000028000000000000000000000000002D2D2D00000000000000
310
00000000000000000000000000000000000000000000000000000000000000000000000000000000000000000000000000000000000000000000000000000000000000F50000000000000000000000000000000000000000000000000000000000000000000000000000000000000000000000000000000000000000000000
310
000000000000000000000000000000000000000000000000000000F5000000000000000000000000000000000000000000BEBEBEBEBEBEBEBEBEBE28BE28BEBEBEBEBEBEBEBEBEBEBEBEBEBEBEBEBEBEBEBEBEBEBEBEBEBEBEBEBEBEBEBEBEBE28BE28BEBEBEBEBEBEBEBEBEBE000000000000000000002D2D2D0000000000
310
000000000000000000000000000000000000000000000000000000000000000000000000000000000000000000000000000000000000000000000000000000000000000000F5000000000000000000000000000000000000000000000000000000000000000000000000000000000000000000000000000000000000000000
310
0000000000000000000000000000000000000000000000000000000000F50000000000000000000000000000000000000000000000002800000000000028002800000000000000000000000000000000BE000000000000000000000000000000000028002800000000000028000000000000000000000000002D2D2D000000
310
0000000000000000000000000000000000000000000000000000000000000000000000000000000000000000000000000000000000000000000000000000000000000000000000F500000000000000000000000000000000000000000000000000000000000000000000000000000000000000000000000000000000000000
310
00000000000000000000000000000000000000000000000000000000000000F50000000000000000000000000000000000000000000000002800000000000028002800000000000000000000000000000000BE0000000000000000000000000000000028000028000000000000280000000000000000000000000000002D00
310
00000000000000000000000000000000000000000000000000000000000000000000000000000000000000000000000000000000000000000000000000000000000000000000000000F50000000000000000000000000000000000000000000000000000000000000000000000000000000000000000000000000000000000
310
000000000000000000000000000000000000000000000000000000000000000000F50000000000000000000000000000000000000000000000002800000000000028002800000000000000000000000000000000BE000000000000000000000000000000002800002800000000000028000000000000000000000000000000
310
2D0000000000000000000000000000000000000000000000000000000000000000000000000000000000000000000000000000000000000000000000000000000000000000000000000000F5000000000000000000000000000000000000000000000000000000000000000000000000000000000000000000000000000000
310
0000000000000000000000000000000000000000000000000000000000000000000000F50000000000000000000000000000000000000000000000002800000000000028002800000000000000000000000000000000BE00000000000000000000000000000000280000280000000000002800000000000000000000000000
310
00002D0000000000000000000000000000000000000000000000000000000000000000000000000000000000000000000000000000000000000000000000000000000000000000000000000000F500000000000000000000000000000000000000000000000000000000000000000000000000000000000000000000000000
310
00000000000000000000000000000000000000000000000000000000000000000000000000F50000000000000000000000000000000000000000000000002800000000000000280028000000000000000000000000000000BE0000000000000000000000000000000028002800000000000000280000000000000000000000
310
000000002D0000000000000000000000000000000000000000000000000000000000000000000000000000000000000000000000000000000000000000000000000000000000000000000000000000F50000000000000000000000000000000000000000000000000000000000000000000000000000000000000000000000
310
000000000000000000000000000000000000000000000000000000000000000000000000000000F50000000000000000000000000000000000000000000000000028000000000000280028000000000000000000000000000000BE000000000000000000000000000000280000280000000000000028000000000000000000
310
0000000000002D0000000000000000000000000000000000000000000000000000000000000000000000000000000000000000000000000000000000000000000000000000000000000000000000000000F5000000000000000000000000000000000000000000000000000000000000000000000000000000000000000000
310
0000000000000000000000000000000000000000000000000000000000000000000000000000000000F50000000000000000000000000000000000000000000000000028000000000000280028000000000000000000000000000000BE00000000000000000000000000000028002800000000000000280000000000000000
310
00000000000000002D0000000000000000000000000000000000000000000000000000000000000000000000000000000000000000000000000000000000000000000000000000000000000000000000000000F500000000000000000000000000000000000000000000000000000000000000000000000000000000000000
310
00000000000000000000000000000000000000000000000000000000000000000000000000000000000000F50000000000000000000000000000000000000000000000000028000000000000002800280000000000000000000000000000BE0000000000000000000000000000280000280000000000000028000000000000
310
000000000000000000002D0000000000000000000000000000000000000000000000000000000000000000000000000000000000000000000000000000000000000000000000000000000000000000000000000000F50000000000000000000000000000000000000000000000000000000000000000000000000000000000
310
000000000000000000000000000000000000000000000000000000000000000000000000000000000000000000F50000000000000000000000000000000000000000000000000000280000000000002800280000000000000000000000000000BE000000000000000000000000000028002800000000000000002800000000
310
0000000000000000000000002D0000000000000000000000000000000000000000000000000000000000000000000000000000000000000000000000000000000000000000000000000000000000000000000000000000F5000000000000000000000000000000000000000000000000000000000000000000000000000000
310
0000000000000000000000000000000000000000000000000000000000000000000000000000000000000000000000F50000000000000000000000000000000000000000000000000000280000000000002800002800000000000000000000000000BE00000000000000000000000000280000280000000000000028000000
310
00000000000000000000000000002D0000000000000000000000000000000000000000000000000000000000000000000000000000000000000000000000000000000000000000000000000000000000000000000000000000F500000000000000000000000000000000000000000000000000000000000000000000000000
310
00000000000000000000000000000000000000000000000000000000000000000000000000000000000000000000000000F50000000000000000000000000000000000000000000000000000002800000000282800002800000000000000000000000000BE0000000000000000000000000028000000280000000000002800
310
000000000000000000000000000000002D0000000000000000000000000000000000000000000000000000000000000000000000000000000000000000000000000000000000000000000000000000000000000000000000000000F50000000000000000000000000000000000000000000000000000000000000000000000
310
000000000000000000000000000000000000000000000000000000000000000000000000000000000000000000000000000000F50000000000000000000000000000000000000000000000000000002800000000280000280000000000000000000000000000BE000000000000000000000000000028000028000000000028
310
0000000000000000000000000000000000002D0000000000000000000000000000000000000000000000000000000000000000000000000000000000000000000000000000000000000000000000000000000000000000000000000000F5000000000000000000000000000000000000000000000000000000000000000000
310
0000000000000000000000000000000000000000000000000000000000000000000000000000000000000000000000000000000000F50000000000000000000000000000000000000000000000000000000028000000002828000000000000000000000000000000BE00000000000000000000000000000028282800000000
310
28000000000000000000000000000000000000002D0000000000000000000000000000000000000000000000000000000000000000000000000000000000000000000000000000000000000000000000000000000000000000000000000000F500000000000000000000000000000000000000000000000000000000000000
310
00000000000000000000000000000000000000000000000000000000000000000000000000000000000000000000000000000000000000F50000000000000000000000000000000000000000000000000000000028000000000000000000002828280000000000000000BE0000000000000000282828000000000000000000
310
000028000000000000000000000000000000000000002D0000000000000000000000000000000000000000000000000000000000000000000000000000000000000000000000000000000000000000000000000000000000000000000000000000F50000000000000000000000000000000000000000000000000000000000
310
000000000000000000000000000000000000000000000000000000000000000000000000000000000000000000000000000000000000000000F50000000000000000000000000000000000000000000000000000000000280000000000000000280000002828000000000000BE000000000000282800000028000000000000
310
0000002800000000000000000000000000000000000000002D0000000000000000000000000000000000000000000000000000000000000000000000000000000000000000000000000000000000000000000000000000000000000000000000000000F5000000000000000000000000000000000000000000000000000000
310
0000000000000000000000000000000000000000000000000000000000000000000000000000000000000000000000000000000000000000000000F50000000000000000000000000000000000000000000000000000000000002800000000000028000000000000282800000000BE00000000282800000000000028280000
310
00000000280000000000000000000000000000000000000000002D000000000000000000002D2D2D002D2D2D2D2D2D2D2D2D2D002D2D2D00002D2D00002D2D2D2D2D2D2D2D2D2D2D2D2D2D2D2D2D2D2D2D2D2D2D2D002D2D2D2D2D2D000000000000000000F500000000000000000000000000000000000000000000000000
310
00000000000000000000000000000000000000000000000000000000000000000000000000000000000000000000000000000000000000000000000000F50000000000000000000000000000000000000000000000000000000000000028000000000028282828282800000028282828282828282800000000282828282800
310
000000000028000000000000000000000000000000000000000000002D000000000000000000002D2D00002D2D2D2D2D2D2D2D002D002D2D2D00002D2D00002D2D2D2D2D2D2D2D2D2D2D2D2D2D2D2D2D2D2D2D2D2D2D2D002D2D2D2D2D2D000000000000000000F50000000000000000000000000000000000000000000000
310
000000000000000000000000000000000000000000000000000000000000000000000000000000000000000000000000000000000000000000000000000000F50000000000000000000000000000000000000000000000000000000000000000280000000000002800000028282800000000BE000000000028282800000028
310
0000000000002800000000000000000000000000000000000000000000002D0000000000000000000000000000000000000000000000000000000000000000000000000000000000000000000000000000000000000000000000000000000000000000000000000000F5000000000000000000000000000000000000000000
310
0000000000000000000000000000000000000000000000000000000000000000000000000000000000000000000000000000000000000000000000000000000000F500000000000000000000000000000000000000000000000000000000000000000028000000000000000000000000282828282828282828282D2D2D2D2D
310
2D2D2D2D2D2D2D282D2D2D2D2D2D2D2D2D2D2D2D2D2D2D2D2D2D2D2D2D2D2D2D2D2D00000000000000000000000000000000000000000000000000000000000000000000000000000000000000000000000000000000000000000000000000000000000000000000000000F500000000000000000000000000000000000000
310
00000000000000000000000000000000000000000000000000000000000000000000000000000000000000000000000000000000000000000000000000000000000000F50000000000000000000000000000000000000000000000000000000000000000000028000000000000000000000000000000BE0000000000000000
310
00000000000000002800000000000000000000000000000000000000000000000000000000000000000000000000000000000000000000000000000000000000000000000000000000000000000000000000000000000000000000000000000000000000000000000000000000F50000000000000000000000000000000000
310
000000000000000000000000000000000000000000000000000000000000000000000000000000000000000000000000000000000000000000000000000000000000000000F50000000000000000000000000000000000000000000000000000000000000000000000280000000000000000000000000000BE000000000000
310
000000000000000000280000000000000000000000000000000000000000000000000000000000000000000000000000000000000000000000000000000000000000000000000000000000000000000000000000000000000000000000000000000000000000000000000000000000F5000000000000000000000000000000
310
0000000000000000000000000000000000000000000000000000000000000000000000000000000000000000000000000000000000000000000000000000000000000000000000F50000000000000000000000000000000000000000000000000000000000000000000000002828000000000000000000000000BE00000000
310
0000000000000000002828000000000000000000000000000000000000000000000000000000000000000000000000000000000000000000000000000000000000000000000000000000000000000000000000000000000000000000000000000000000000000000000000000000000000F500000000000000000000000000
310
00000000000000000000000000000000000000000000000000000000000000000000000000000000000000000000000000000000000000000000000000000000000000000000000000F50000000000000000000000000000000000000000000000000000000000000000000000000000280000000000000000000000BE0000
310
00000000000000000028280000000000000000000000000000000000000000000000000000000000000000000000000000000000000000000000000000000000000000000000000000000000000000000000000000000000000000000000000000000000000000000000000000000000000000F50000000000000000000000
310
000000000000000000000000000000000000000000000000000000000000000000000000000000000000000000000000000000000000000000000000000000000000000000000000000000F50000000000000000000000000000000000000000000000000000000000000000000000000000002828000000000000000000BE
310
000000000000000000282800000000000000000000000000000000000000000000000000000000000000000000000000000000000000000000000000000000000000000000000000000000000000000000000000000000000000000000000000000000000000000000000000000000000000000000F5000000000000000000
310
0000000000000000000000000000000000000000000000000000000000000000000000000000000000000000000000000000000000000000000000000000000000000000000000000000000000F500000000000000000000000000000000000000000000000000000000000000000000000000000000002828280000000000
310
00BE000000000000282828000000000000000000000000000000000000000000000000000000000000000000000000000000000000000000000000000000000000000000000000000000000000000000000000000000000000000000000000000000000000000000000000000000000000000000000000F500000000000000
310
00000000000000000000000000000000000000000000000000000000000000000000000000000000000000000000000000000000000000000000000000000000000000000000000000000000000000F50000000000000000000000000000000000000000000000000000000000000000000000000000000000000000282828
310
28282828282828282828000000000000000000000000000000000000000000000000000000000000000000000000000000000000000000000000000000000000000000000000000000000000000000000000000000000000000000000000000000000000000000000000000000000000000000000000000000F50000000000
310
000000000000000000000000000000000000000000000000000000000000000000000000000000000000000000000000000000000000000000000000000000000000000000000000000000000000000000F5000000000000000000000000000000000000000000000000000000000000000000000000000000000000000000
310
0000000000BE000000000000000000000000000000000000000000000000000000000000000000000000000000000000000000000000000000000000000000000000000000000000000000000000000000000000000000000000000000000000000000000000000000000000000000000000000000000000000000F5000000
310
0000000000000000000000000000000000000000000000000000000000000000000000000000000000000000000000000000000000000000000000000000000000000000000000000000000000000000000000F500000000000000000000000000000000000000000000000000000000000000000000000000000000000000
310
00000000000000BE000000000000000000000000000000000000000000000000000000000000000000000000000000000000000000000000000000000000000000000000000000000000000000000000000000000000000000000000000000000000000000000000000000000000000000000000000000000000000000F500
310
00000000000000000000000000000000000000000000000000000000000000000000000000000000000000000000000000000000000000000000000000000000000000000000000000000000000000000000000000F5F5F5F5F5F5F5F5F5F5F5F5F5F5F5F5F5F5F5F5F5F5F5F5F5F5F5F5F5F5F5F5F5F5F5F5F5F5F5F5F5F5
310
F5F5F5F5F5F5F5F5F5BEF5F5F5F5F5F5F5F5F5F5F5F5F5F5F5F5F5F5F5F5F5F5F5F5F5F5F5F5F5F5F5F5F5F5F5F5F5F5F5F5F5F5F5F5F5F5F5F5F5F5F5F5F5F5F5F5F5F5F5F5F5F5F5F5F5F5F5F5F5F5F5F5F5F5F5F5F5F5F5F5F5F5F5F5F5F5F5F5F5F5F5F5F5F5F5F5F5F5F5F5F5F5F5F5F5F5F5F5F5F5F5F5F5F5F5F5F5
310
F50000000000000000000000000000000000000000000000000000000000000000000000000000000000000000000000000000000000000000000000000000000000000000000000000000000000000000000000000000F5F5F5F5F5F5F5F5F5F5F5F5F5F5F5F5F5F5F5F5F5F5F5F5F5F5F5F5F5F5F5F5F5F5F5F5F5F5F5F5
310
F5F5F5F5F5F5F5F5F5F5F5F5F5F5F5F5F5F5F5F5F5F5F5F5F5F5F5F5F5F5F5F5F5F5F5F5F5F5F5F5F5F5F5F5F5F5F5F5F5F5F5F5F5F5F5F5F5F5F5F5F5F5F5F5F5F5F5F5F5F5F5F5F5F5F5F5F5F5F5F5F5F5F5F5F5F5F5F5F5F5F5F5F5F5F5F5F5F5F5F5F5F5F5F5F5F5F5F5F5F5F5F5F5F5F5F5F5F5F5F5F5F5F5F5F5F5F5
310
F5F5F500000000000000000000000000000000000000000000000000000000000000000000000000000000000000
  0
XRECORD
  5
390B
102
{ACAD_REACTORS
330
3909
102
}
330
3909
100
AcDbXrecord
280
     1
270
     1
271
     1
  0
XRECORD
  5
390A
102
{ACAD_REACTORS
330
3909
102
}
330
3909
100
AcDbXrecord
280
     1
270
     1
271
     1
  0
XRECORD
  5
390E
102
{ACAD_REACTORS
330
3909
102
}
330
3909
100
AcDbXrecord
280
     1
270
     1
271
     1
  0
XRECORD
  5
390D
102
{ACAD_REACTORS
330
3909
102
}
330
3909
100
AcDbXrecord
280
     1
270
     1
271
     1
  0
XRECORD
  5
390F
102
{ACAD_REACTORS
330
3909
102
}
330
3909
100
AcDbXrecord
280
     1
270
     1
271
     1
  0
XRECORD
  5
390C
102
{ACAD_REACTORS
330
3909
102
}
330
3909
100
AcDbXrecord
280
     1
270
     1
271
     1
  0
XRECORD
  5
3903
102
{ACAD_REACTORS
330
3901
102
}
330
3901
100
AcDbXrecord
280
     1
270
     1
271
     1
  0
XRECORD
  5
3902
102
{ACAD_REACTORS
330
3901
102
}
330
3901
100
AcDbXrecord
280
     1
270
     1
271
     1
  0
XRECORD
  5
3906
102
{ACAD_REACTORS
330
3901
102
}
330
3901
100
AcDbXrecord
280
     1
270
     1
271
     1
  0
XRECORD
  5
3905
102
{ACAD_REACTORS
330
3901
102
}
330
3901
100
AcDbXrecord
280
     1
270
     1
271
     1
  0
XRECORD
  5
3907
102
{ACAD_REACTORS
330
3901
102
}
330
3901
100
AcDbXrecord
280
     1
270
     1
271
     1
  0
XRECORD
  5
3904
102
{ACAD_REACTORS
330
3901
102
}
330
3901
100
AcDbXrecord
280
     1
270
     1
271
     1
  0
XRECORD
  5
3913
102
{ACAD_REACTORS
330
3911
102
}
330
3911
100
AcDbXrecord
280
     1
270
     1
271
     1
  0
XRECORD
  5
3912
102
{ACAD_REACTORS
330
3911
102
}
330
3911
100
AcDbXrecord
280
     1
270
     1
271
     1
  0
XRECORD
  5
3916
102
{ACAD_REACTORS
330
3911
102
}
330
3911
100
AcDbXrecord
280
     1
270
     1
271
     1
  0
XRECORD
  5
3915
102
{ACAD_REACTORS
330
3911
102
}
330
3911
100
AcDbXrecord
280
     1
270
     1
271
     1
  0
XRECORD
  5
3917
102
{ACAD_REACTORS
330
3911
102
}
330
3911
100
AcDbXrecord
280
     1
270
     1
271
     1
  0
XRECORD
  5
3914
102
{ACAD_REACTORS
330
3911
102
}
330
3911
100
AcDbXrecord
280
     1
270
     1
271
     1
  0
CELLSTYLEMAP
  5
3A1B
102
{ACAD_REACTORS
330
3A1A
102
}
330
3A1A
100
AcDbCellStyleMap
 90
        3
300
CELLSTYLE
  1
TABLEFORMAT_BEGIN
 90
        5
170
     1
 91
        0
 92
    32768
 62
   257
 93
        1
300
CONTENTFORMAT
  1
CONTENTFORMAT_BEGIN
 90
        0
 91
        0
 92
      512
 93
        0
300

 40
0.0
140
1.0
 94
        5
 62
     0
340
10
144
6.0
309
CONTENTFORMAT_END
171
     1
301
MARGIN
  1
CELLMARGIN_BEGIN
 40
1.5
 40
1.5
 40
1.5
 40
1.5
 40
4.5
 40
4.5
309
CELLMARGIN_END
 94
        6
 95
        1
302
GRIDFORMAT
  1
GRIDFORMAT_BEGIN
 90
        0
 91
        1
 62
     0
 92
       -2
340
0
 93
        0
 40
1.125
309
GRIDFORMAT_END
 95
        2
302
GRIDFORMAT
  1
GRIDFORMAT_BEGIN
 90
        0
 91
        1
 62
     0
 92
       -2
340
0
 93
        0
 40
1.125
309
GRIDFORMAT_END
 95
        4
302
GRIDFORMAT
  1
GRIDFORMAT_BEGIN
 90
        0
 91
        1
 62
     0
 92
       -2
340
0
 93
        0
 40
1.125
309
GRIDFORMAT_END
 95
        8
302
GRIDFORMAT
  1
GRIDFORMAT_BEGIN
 90
        0
 91
        1
 62
     0
 92
       -2
340
0
 93
        0
 40
1.125
309
GRIDFORMAT_END
 95
       16
302
GRIDFORMAT
  1
GRIDFORMAT_BEGIN
 90
        0
 91
        1
 62
     0
 92
       -2
340
0
 93
        0
 40
1.125
309
GRIDFORMAT_END
 95
       32
302
GRIDFORMAT
  1
GRIDFORMAT_BEGIN
 90
        0
 91
        1
 62
     0
 92
       -2
340
0
 93
        0
 40
1.125
309
GRIDFORMAT_END
309
TABLEFORMAT_END
  1
CELLSTYLE_BEGIN
 90
        1
 91
        1
300
_TITLE
309
CELLSTYLE_END
300
CELLSTYLE
  1
TABLEFORMAT_BEGIN
 90
        5
170
     1
 91
        0
 92
        0
 62
   257
 93
        1
300
CONTENTFORMAT
  1
CONTENTFORMAT_BEGIN
 90
        0
 91
        0
 92
      512
 93
        0
300

 40
0.0
140
1.0
 94
        5
 62
     0
340
10
144
4.5
309
CONTENTFORMAT_END
171
     1
301
MARGIN
  1
CELLMARGIN_BEGIN
 40
1.5
 40
1.5
 40
1.5
 40
1.5
 40
4.5
 40
4.5
309
CELLMARGIN_END
 94
        6
 95
        1
302
GRIDFORMAT
  1
GRIDFORMAT_BEGIN
 90
        0
 91
        1
 62
     0
 92
       -2
340
0
 93
        0
 40
1.125
309
GRIDFORMAT_END
 95
        2
302
GRIDFORMAT
  1
GRIDFORMAT_BEGIN
 90
        0
 91
        1
 62
     0
 92
       -2
340
0
 93
        0
 40
1.125
309
GRIDFORMAT_END
 95
        4
302
GRIDFORMAT
  1
GRIDFORMAT_BEGIN
 90
        0
 91
        1
 62
     0
 92
       -2
340
0
 93
        0
 40
1.125
309
GRIDFORMAT_END
 95
        8
302
GRIDFORMAT
  1
GRIDFORMAT_BEGIN
 90
        0
 91
        1
 62
     0
 92
       -2
340
0
 93
        0
 40
1.125
309
GRIDFORMAT_END
 95
       16
302
GRIDFORMAT
  1
GRIDFORMAT_BEGIN
 90
        0
 91
        1
 62
     0
 92
       -2
340
0
 93
        0
 40
1.125
309
GRIDFORMAT_END
 95
       32
302
GRIDFORMAT
  1
GRIDFORMAT_BEGIN
 90
        0
 91
        1
 62
     0
 92
       -2
340
0
 93
        0
 40
1.125
309
GRIDFORMAT_END
309
TABLEFORMAT_END
  1
CELLSTYLE_BEGIN
 90
        2
 91
        1
300
_HEADER
309
CELLSTYLE_END
300
CELLSTYLE
  1
TABLEFORMAT_BEGIN
 90
        5
170
     1
 91
        0
 92
        0
 62
   257
 93
        1
300
CONTENTFORMAT
  1
CONTENTFORMAT_BEGIN
 90
        0
 91
        0
 92
      512
 93
        0
300

 40
0.0
140
1.0
 94
        2
 62
     0
340
10
144
4.5
309
CONTENTFORMAT_END
171
     1
301
MARGIN
  1
CELLMARGIN_BEGIN
 40
1.5
 40
1.5
 40
1.5
 40
1.5
 40
4.5
 40
4.5
309
CELLMARGIN_END
 94
        6
 95
        1
302
GRIDFORMAT
  1
GRIDFORMAT_BEGIN
 90
        0
 91
        1
 62
     0
 92
       -2
340
0
 93
        0
 40
1.125
309
GRIDFORMAT_END
 95
        2
302
GRIDFORMAT
  1
GRIDFORMAT_BEGIN
 90
        0
 91
        1
 62
     0
 92
       -2
340
0
 93
        0
 40
1.125
309
GRIDFORMAT_END
 95
        4
302
GRIDFORMAT
  1
GRIDFORMAT_BEGIN
 90
        0
 91
        1
 62
     0
 92
       -2
340
0
 93
        0
 40
1.125
309
GRIDFORMAT_END
 95
        8
302
GRIDFORMAT
  1
GRIDFORMAT_BEGIN
 90
        0
 91
        1
 62
     0
 92
       -2
340
0
 93
        0
 40
1.125
309
GRIDFORMAT_END
 95
       16
302
GRIDFORMAT
  1
GRIDFORMAT_BEGIN
 90
        0
 91
        1
 62
     0
 92
       -2
340
0
 93
        0
 40
1.125
309
GRIDFORMAT_END
 95
       32
302
GRIDFORMAT
  1
GRIDFORMAT_BEGIN
 90
        0
 91
        1
 62
     0
 92
       -2
340
0
 93
        0
 40
1.125
309
GRIDFORMAT_END
309
TABLEFORMAT_END
  1
CELLSTYLE_BEGIN
 90
        3
 91
        2
300
_DATA
309
CELLSTYLE_END
  0
ENDSEC
  0
EOF
