  0
SECTION
  2
HEADER
  9
$ACADVER
  1
AC1024
  9
$ACADMAINTVER
 70
    37
  9
$DWGCODEPAGE
  3
ANSI_932
  9
$LASTSAVEDBY
  1
kogure009
  9
$INSBASE
 10
0.0
 20
0.0
 30
0.0
  9
$EXTMIN
 10
5.819092781538074
 20
-11.6262395021057
 30
-0.000000000000013
  9
$EXTMAX
 10
404.6319589678105
 20
283.9641648202757
 30
0.0000000000000023
  9
$LIMMIN
 10
0.0
 20
0.0
  9
$LIMMAX
 10
420.0
 20
297.0
  9
$ORTHOMODE
 70
     1
  9
$REGENMODE
 70
     1
  9
$FILLMODE
 70
     1
  9
$QTEXTMODE
 70
     0
  9
$MIRRTEXT
 70
     1
  9
$LTSCALE
 40
1.0
  9
$ATTMODE
 70
     1
  9
$TEXTSIZE
 40
2.5
  9
$TRACEWID
 40
1.0
  9
$TEXTSTYLE
  7
STANDARD
  9
$CLAYER
  8
SUNPOU
  9
$CELTYPE
  6
BYLAYER
  9
$CECOLOR
 62
   256
  9
$CELTSCALE
 40
1.0
  9
$DISPSILH
 70
     0
  9
$DIMSCALE
 40
1.0
  9
$DIMASZ
 40
3.0
  9
$DIMEXO
 40
3.0
  9
$DIMDLI
 40
7.0
  9
$DIMRND
 40
0.0
  9
$DIMDLE
 40
0.0
  9
$DIMEXE
 40
1.5
  9
$DIMTP
 40
0.0
  9
$DIMTM
 40
0.0
  9
$DIMTXT
 40
3.0
  9
$DIMCEN
 40
150.0
  9
$DIMTSZ
 40
0.0
  9
$DIMTOL
 70
     0
  9
$DIMLIM
 70
     0
  9
$DIMTIH
 70
     0
  9
$DIMTOH
 70
     0
  9
$DIMSE1
 70
     0
  9
$DIMSE2
 70
     0
  9
$DIMTAD
 70
     3
  9
$DIMZIN
 70
     0
  9
$DIMBLK
  1

  9
$DIMASO
 70
     1
  9
$DIMSHO
 70
     1
  9
$DIMPOST
  1

  9
$DIMAPOST
  1

  9
$DIMALT
 70
     0
  9
$DIMALTD
 70
     2
  9
$DIMALTF
 40
25.4
  9
$DIMLFAC
 40
1.0
  9
$DIMTOFL
 70
     1
  9
$DIMTVP
 40
0.0
  9
$DIMTIX
 70
     0
  9
$DIMSOXD
 70
     0
  9
$DIMSAH
 70
     1
  9
$DIMBLK1
  1
OPEN
  9
$DIMBLK2
  1
OPEN
  9
$DIMSTYLE
  2
STANDARD
  9
$DIMCLRD
 70
   256
  9
$DIMCLRE
 70
   256
  9
$DIMCLRT
 70
   256
  9
$DIMTFAC
 40
1.0
  9
$DIMGAP
 40
1.0
  9
$DIMJUST
 70
     0
  9
$DIMSD1
 70
     0
  9
$DIMSD2
 70
     0
  9
$DIMTOLJ
 70
     1
  9
$DIMTZIN
 70
     0
  9
$DIMALTZ
 70
     0
  9
$DIMALTTZ
 70
     0
  9
$DIMUPT
 70
     0
  9
$DIMDEC
 70
     0
  9
$DIMTDEC
 70
     0
  9
$DIMALTU
 70
     2
  9
$DIMALTTD
 70
     2
  9
$DIMTXSTY
  7
STANDARD
  9
$DIMAUNIT
 70
     0
  9
$DIMADEC
 70
     0
  9
$DIMALTRND
 40
0.0
  9
$DIMAZIN
 70
     0
  9
$DIMDSEP
 70
    46
  9
$DIMATFIT
 70
     3
  9
$DIMFRAC
 70
     0
  9
$DIMLDRBLK
  1
OPEN
  9
$DIMLUNIT
 70
     2
  9
$DIMLWD
 70
    -1
  9
$DIMLWE
 70
    -1
  9
$DIMTMOVE
 70
     0
  9
$DIMFXL
 40
1.0
  9
$DIMFXLON
 70
     0
  9
$DIMJOGANG
 40
0.7853981633974483
  9
$DIMTFILL
 70
     0
  9
$DIMTFILLCLR
 70
     0
  9
$DIMARCSYM
 70
     0
  9
$DIMLTYPE
  6

  9
$DIMLTEX1
  6

  9
$DIMLTEX2
  6

  9
$DIMTXTDIRECTION
 70
     0
  9
$LUNITS
 70
     2
  9
$LUPREC
 70
     4
  9
$SKETCHINC
 40
1.0
  9
$FILLETRAD
 40
10.0
  9
$AUNITS
 70
     0
  9
$AUPREC
 70
     0
  9
$MENU
  1
.
  9
$ELEVATION
 40
0.0
  9
$PELEVATION
 40
0.0
  9
$THICKNESS
 40
0.0
  9
$LIMCHECK
 70
     0
  9
$CHAMFERA
 40
10.0
  9
$CHAMFERB
 40
10.0
  9
$CHAMFERC
 40
20.0
  9
$CHAMFERD
 40
0.0
  9
$SKPOLY
 70
     0
  9
$TDCREATE
 40
2450994.350997107
  9
$TDUCREATE
 40
2450993.975997107
  9
$TDUPDATE
 40
2459412.478146331
  9
$TDUUPDATE
 40
2459412.103146331
  9
$TDINDWG
 40
0.0717914583
  9
$TDUSRTIMER
 40
0.0717914583
  9
$USRTIMER
 70
     1
  9
$ANGBASE
 50
0.0
  9
$ANGDIR
 70
     0
  9
$PDMODE
 70
     0
  9
$PDSIZE
 40
0.0
  9
$PLINEWID
 40
0.0
  9
$SPLFRAME
 70
     0
  9
$SPLINETYPE
 70
     6
  9
$SPLINESEGS
 70
     8
  9
$HANDSEED
  5
245E
  9
$SURFTAB1
 70
     6
  9
$SURFTAB2
 70
     6
  9
$SURFTYPE
 70
     6
  9
$SURFU
 70
     6
  9
$SURFV
 70
     6
  9
$UCSBASE
  2

  9
$UCSNAME
  2

  9
$UCSORG
 10
0.0
 20
0.0
 30
0.0
  9
$UCSXDIR
 10
1.0
 20
0.0
 30
0.0
  9
$UCSYDIR
 10
0.0
 20
1.0
 30
0.0
  9
$UCSORTHOREF
  2

  9
$UCSORTHOVIEW
 70
     0
  9
$UCSORGTOP
 10
0.0
 20
0.0
 30
0.0
  9
$UCSORGBOTTOM
 10
0.0
 20
0.0
 30
0.0
  9
$UCSORGLEFT
 10
0.0
 20
0.0
 30
0.0
  9
$UCSORGRIGHT
 10
0.0
 20
0.0
 30
0.0
  9
$UCSORGFRONT
 10
0.0
 20
0.0
 30
0.0
  9
$UCSORGBACK
 10
0.0
 20
0.0
 30
0.0
  9
$PUCSBASE
  2

  9
$PUCSNAME
  2

  9
$PUCSORG
 10
0.0
 20
0.0
 30
0.0
  9
$PUCSXDIR
 10
1.0
 20
0.0
 30
0.0
  9
$PUCSYDIR
 10
0.0
 20
1.0
 30
0.0
  9
$PUCSORTHOREF
  2

  9
$PUCSORTHOVIEW
 70
     0
  9
$PUCSORGTOP
 10
0.0
 20
0.0
 30
0.0
  9
$PUCSORGBOTTOM
 10
0.0
 20
0.0
 30
0.0
  9
$PUCSORGLEFT
 10
0.0
 20
0.0
 30
0.0
  9
$PUCSORGRIGHT
 10
0.0
 20
0.0
 30
0.0
  9
$PUCSORGFRONT
 10
0.0
 20
0.0
 30
0.0
  9
$PUCSORGBACK
 10
0.0
 20
0.0
 30
0.0
  9
$USERI1
 70
     0
  9
$USERI2
 70
     0
  9
$USERI3
 70
     0
  9
$USERI4
 70
     0
  9
$USERI5
 70
     0
  9
$USERR1
 40
0.0
  9
$USERR2
 40
0.0
  9
$USERR3
 40
0.0
  9
$USERR4
 40
0.0
  9
$USERR5
 40
0.0
  9
$WORLDVIEW
 70
     1
  9
$SHADEDGE
 70
     3
  9
$SHADEDIF
 70
    70
  9
$TILEMODE
 70
     1
  9
$MAXACTVP
 70
    16
  9
$PINSBASE
 10
0.0
 20
0.0
 30
0.0
  9
$PLIMCHECK
 70
     0
  9
$PEXTMIN
 10
0.0
 20
0.0
 30
0.0
  9
$PEXTMAX
 10
420.0
 20
297.0
 30
0.0
  9
$PLIMMIN
 10
0.0
 20
0.0
  9
$PLIMMAX
 10
420.0
 20
297.0
  9
$UNITMODE
 70
     0
  9
$VISRETAIN
 70
     0
  9
$PLINEGEN
 70
     0
  9
$PSLTSCALE
 70
     1
  9
$TREEDEPTH
 70
  3020
  9
$CMLSTYLE
  2
STANDARD
  9
$CMLJUST
 70
     0
  9
$CMLSCALE
 40
1.0
  9
$PROXYGRAPHICS
 70
     1
  9
$MEASUREMENT
 70
     1
  9
$CELWEIGHT
370
    -1
  9
$ENDCAPS
280
     0
  9
$JOINSTYLE
280
     0
  9
$LWDISPLAY
290
     0
  9
$INSUNITS
 70
     0
  9
$HYPERLINKBASE
  1

  9
$STYLESHEET
  1
monochrome.ctb
  9
$XEDIT
290
     1
  9
$CEPSNTYPE
380
     0
  9
$PSTYLEMODE
290
     1
  9
$FINGERPRINTGUID
  2
{B4565D9B-6A16-43F4-BC10-4AF2DFFDD405}
  9
$VERSIONGUID
  2
{2CFD7A22-5FE5-4249-ABA9-DAB00A5872C2}
  9
$EXTNAMES
290
     1
  9
$PSVPSCALE
 40
0.0
  9
$OLESTARTUP
290
     0
  9
$SORTENTS
280
   127
  9
$INDEXCTL
280
     0
  9
$HIDETEXT
280
     0
  9
$XCLIPFRAME
280
     2
  9
$HALOGAP
280
     0
  9
$OBSCOLOR
 70
   257
  9
$OBSLTYPE
280
     0
  9
$INTERSECTIONDISPLAY
280
     0
  9
$INTERSECTIONCOLOR
 70
   257
  9
$DIMASSOC
280
     1
  9
$PROJECTNAME
  1

  9
$CAMERADISPLAY
290
     0
  9
$LENSLENGTH
 40
50.0
  9
$CAMERAHEIGHT
 40
0.0
  9
$STEPSPERSEC
 40
2.0
  9
$STEPSIZE
 40
6.0
  9
$3DDWFPREC
 40
2.0
  9
$PSOLWIDTH
 40
0.25
  9
$PSOLHEIGHT
 40
4.0
  9
$LOFTANG1
 40
1.570796326794896
  9
$LOFTANG2
 40
1.570796326794896
  9
$LOFTMAG1
 40
0.0
  9
$LOFTMAG2
 40
0.0
  9
$LOFTPARAM
 70
     7
  9
$LOFTNORMALS
280
     1
  9
$LATITUDE
 40
37.795
  9
$LONGITUDE
 40
-122.394
  9
$NORTHDIRECTION
 40
0.0
  9
$TIMEZONE
 70
 -8000
  9
$LIGHTGLYPHDISPLAY
280
     1
  9
$TILEMODELIGHTSYNCH
280
     1
  9
$CMATERIAL
347
2309
  9
$SOLIDHIST
280
     1
  9
$SHOWHIST
280
     1
  9
$DWFFRAME
280
     2
  9
$DGNFRAME
280
     0
  9
$REALWORLDSCALE
290
     1
  9
$INTERFERECOLOR
 62
     1
  9
$INTERFEREOBJVS
345
232B
  9
$INTERFEREVPVS
346
2328
  9
$CSHADOW
280
     0
  9
$SHADOWPLANELOCATION
 40
0.0
  0
ENDSEC
  0
SECTION
  2
CLASSES
  0
CLASS
  1
ACDBDICTIONARYWDFLT
  2
AcDbDictionaryWithDefault
  3
ObjectDBX Classes
 90
        0
 91
        1
280
     0
281
     0
  0
CLASS
  1
MATERIAL
  2
AcDbMaterial
  3
ObjectDBX Classes
 90
     1153
 91
        3
280
     0
281
     0
  0
CLASS
  1
VISUALSTYLE
  2
AcDbVisualStyle
  3
ObjectDBX Classes
 90
     4095
 91
       24
280
     0
281
     0
  0
CLASS
  1
TABLESTYLE
  2
AcDbTableStyle
  3
ObjectDBX Classes
 90
     4095
 91
        1
280
     0
281
     0
  0
CLASS
  1
SCALE
  2
AcDbScale
  3
ObjectDBX Classes
 90
     1153
 91
       17
280
     0
281
     0
  0
CLASS
  1
MLEADERSTYLE
  2
AcDbMLeaderStyle
  3
ACDB_MLEADERSTYLE_CLASS
 90
     4095
 91
        1
280
     0
281
     0
  0
CLASS
  1
DICTIONARYVAR
  2
AcDbDictionaryVar
  3
ObjectDBX Classes
 90
        0
 91
        7
280
     0
281
     0
  0
CLASS
  1
CELLSTYLEMAP
  2
AcDbCellStyleMap
  3
ObjectDBX Classes
 90
     1152
 91
        1
280
     0
281
     0
  0
ENDSEC
  0
SECTION
  2
TABLES
  0
TABLE
  2
VPORT
  5
8
330
0
100
AcDbSymbolTable
 70
     1
  0
VPORT
  5
22AF
330
8
100
AcDbSymbolTableRecord
100
AcDbViewportTableRecord
  2
*Active
 70
     0
 10
0.0
 20
0.0
 11
1.0
 21
1.0
 12
205.2255258746743
 22
136.168962659085
 13
0.0
 23
0.0
 14
5.0
 24
5.0
 15
0.0
 25
0.0
 16
0.0
 26
0.0
 36
1.0
 17
0.0
 27
0.0
 37
0.0
 40
297.4731457511864
 41
2.017003188097768
 42
50.0
 43
0.0
 44
0.0
 50
0.0
 51
0.0
 71
     0
 72
   100
 73
     1
 74
     0
 75
     0
 76
     0
 77
     0
 78
     0
281
     0
 65
     1
110
0.0
120
0.0
130
0.0
111
1.0
121
0.0
131
0.0
112
0.0
122
1.0
132
0.0
 79
     0
146
0.0
348
2327
 60
     3
 61
     5
292
     1
282
     1
141
0.0
142
0.0
 63
   250
421
  3355443
  0
ENDTAB
  0
TABLE
  2
LTYPE
  5
5
330
0
100
AcDbSymbolTable
 70
     3
  0
LTYPE
  5
14
330
5
100
AcDbSymbolTableRecord
100
AcDbLinetypeTableRecord
  2
BYBLOCK
 70
     0
  3

 72
    65
 73
     0
 40
0.0
  0
LTYPE
  5
15
330
5
100
AcDbSymbolTableRecord
100
AcDbLinetypeTableRecord
  2
BYLAYER
 70
     0
  3

 72
    65
 73
     0
 40
0.0
  0
LTYPE
  5
16
330
5
100
AcDbSymbolTableRecord
100
AcDbLinetypeTableRecord
  2
CONTINUOUS
 70
     0
  3
Solid line
 72
    65
 73
     0
 40
0.0
  0
LTYPE
  5
120
330
5
100
AcDbSymbolTableRecord
100
AcDbLinetypeTableRecord
  2
CENTER
 70
     0
  3
____ _ ____ _ ____ _ ____ _ ____ _ ____ _ ____ 
 72
    65
 73
     4
 40
2.0
 49
1.25
 74
     0
 49
-0.25
 74
     0
 49
0.25
 74
     0
 49
-0.25
 74
     0
  0
ENDTAB
  0
TABLE
  2
LAYER
  5
2
102
{ACAD_XDICTIONARY
360
2359
102
}
330
0
100
AcDbSymbolTable
 70
    10
  0
LAYER
  5
F
102
{ACAD_XDICTIONARY
360
2362
102
}
330
2
100
AcDbSymbolTableRecord
100
AcDbLayerTableRecord
  2
0
 70
     0
 62
     7
  6
CONTINUOUS
370
    -3
390
290
347
2319
  0
LAYER
  5
62
102
{ACAD_XDICTIONARY
360
2364
102
}
330
2
100
AcDbSymbolTableRecord
100
AcDbLayerTableRecord
  2
VIEWPORT
 70
     0
 62
     7
  6
CONTINUOUS
370
    -3
390
290
347
2319
  0
LAYER
  5
6B
102
{ACAD_XDICTIONARY
360
2366
102
}
330
2
100
AcDbSymbolTableRecord
100
AcDbLayerTableRecord
  2
ZUWAKU
 70
     0
 62
     7
  6
CONTINUOUS
370
    -3
390
290
347
2319
  0
LAYER
  5
141
102
{ACAD_XDICTIONARY
360
2368
102
}
330
2
100
AcDbSymbolTableRecord
100
AcDbLayerTableRecord
  2
SUNPOU
 70
     0
 62
     4
  6
CONTINUOUS
370
    -3
390
290
347
2319
  0
LAYER
  5
142
102
{ACAD_XDICTIONARY
360
236A
102
}
330
2
100
AcDbSymbolTableRecord
100
AcDbLayerTableRecord
  2
CENTER L
 70
     0
 62
     1
  6
CENTER
370
    -3
390
290
347
2319
  0
LAYER
  5
1F5
330
2
100
AcDbSymbolTableRecord
100
AcDbLayerTableRecord
  2
DEFPOINTS
 70
     0
 62
     7
  6
CONTINUOUS
290
     0
370
    -3
390
290
347
2319
  0
LAYER
  5
4EF
102
{ACAD_XDICTIONARY
360
236C
102
}
330
2
100
AcDbSymbolTableRecord
100
AcDbLayerTableRecord
  2
moji
 70
     0
 62
     2
  6
CONTINUOUS
370
    -3
390
290
347
2319
  0
LAYER
  5
18FA
102
{ACAD_XDICTIONARY
360
236E
102
}
330
2
100
AcDbSymbolTableRecord
100
AcDbLayerTableRecord
  2
ﾎﾝﾀｲ
 70
     0
 62
     3
  6
CONTINUOUS
370
    -3
390
290
347
2319
  0
LAYER
  5
18FB
102
{ACAD_XDICTIONARY
360
2370
102
}
330
2
100
AcDbSymbolTableRecord
100
AcDbLayerTableRecord
  2
ﾌﾀ
 70
     0
 62
     3
  6
CONTINUOUS
370
    -3
390
290
347
2319
  0
LAYER
  5
18FC
102
{ACAD_XDICTIONARY
360
2372
102
}
330
2
100
AcDbSymbolTableRecord
100
AcDbLayerTableRecord
  2
Oﾘﾝｸﾞ
 70
     0
 62
     7
  6
CONTINUOUS
370
    -3
390
290
347
2319
  0
ENDTAB
  0
TABLE
  2
STYLE
  5
3
330
0
100
AcDbSymbolTable
 70
     4
  0
STYLE
  5
10
330
3
100
AcDbSymbolTableRecord
100
AcDbTextStyleTableRecord
  2
STANDARD
 70
     0
 40
0.0
 41
1.0
 50
0.0
 71
     0
 42
2.5
  3
TXT
  4
bigfont.shx
  0
STYLE
  5
4F0
330
3
100
AcDbSymbolTableRecord
100
AcDbTextStyleTableRecord
  2
ｽﾀｲﾙ1
 70
     0
 40
0.0
 41
1.0
 50
0.0
 71
     0
 42
2.5
  3

  4

1001
ACAD
1000
MS PGothic
1071
    32818
  0
STYLE
  5
18FD
330
3
100
AcDbSymbolTableRecord
100
AcDbTextStyleTableRecord
  2
ＭＳゴシック
 70
     0
 40
0.0
 41
1.0
 50
0.0
 71
     0
 42
2.5
  3

  4

1001
ACAD
1000
MS Gothic
1071
    32817
  0
ENDTAB
  0
TABLE
  2
VIEW
  5
6
330
0
100
AcDbSymbolTable
 70
     3
  0
ENDTAB
  0
TABLE
  2
UCS
  5
7
330
0
100
AcDbSymbolTable
 70
     0
  0
ENDTAB
  0
TABLE
  2
APPID
  5
9
330
0
100
AcDbSymbolTable
 70
     2
  0
APPID
  5
11
330
9
100
AcDbSymbolTableRecord
100
AcDbRegAppTableRecord
  2
ACAD
 70
     0
  0
APPID
  5
2402
330
9
100
AcDbSymbolTableRecord
100
AcDbRegAppTableRecord
  2
ACAD_EXEMPT_FROM_CAD_STANDARDS
 70
     0
  0
ENDTAB
  0
TABLE
  2
DIMSTYLE
  5
A
330
0
100
AcDbSymbolTable
 70
     2
100
AcDbDimStyleTable
 71
     1
340
1D
  0
DIMSTYLE
105
1D
102
{ACAD_REACTORS
330
19C7
330
19CC
330
19CF
330
19CE
330
19CD
330
19C6
330
19C8
330
19C5
330
19CA
330
1A7C
330
19CB
102
}
330
A
100
AcDbSymbolTableRecord
100
AcDbDimStyleTableRecord
  2
STANDARD
 70
     0
340
10
  0
ENDTAB
  0
TABLE
  2
BLOCK_RECORD
  5
1
330
0
100
AcDbSymbolTable
 70
    19
  0
BLOCK_RECORD
  5
1A
102
{ACAD_XDICTIONARY
360
2D8
102
}
330
1
100
AcDbSymbolTableRecord
100
AcDbBlockTableRecord
  2
*MODEL_SPACE
340
293
 70
     0
280
     1
281
     0
  0
BLOCK_RECORD
  5
17
102
{ACAD_XDICTIONARY
360
2D6
102
}
330
1
100
AcDbSymbolTableRecord
100
AcDbBlockTableRecord
  2
*PAPER_SPACE
340
294
 70
     0
280
     1
281
     0
  0
BLOCK_RECORD
  5
B2
330
1
100
AcDbSymbolTableRecord
100
AcDbBlockTableRecord
  2
_OPEN
340
0
102
{BLKREFS
331
2191
331
2192
331
2188
331
2189
331
1E7E
331
1E7F
331
217F
331
2180
331
1F00
331
1F01
331
2302
331
2303
331
1EB0
331
1EB1
331
1EB9
331
1EBA
331
1EC2
331
1EC3
331
1ECB
331
1ECC
331
1ED4
331
1ED5
102
}
 70
     0
280
     1
281
     0
  0
BLOCK_RECORD
  5
359
330
1
100
AcDbSymbolTableRecord
100
AcDbBlockTableRecord
  2
*X1
340
0
102
{BLKREFS
331
602
102
}
 70
     0
280
     1
281
     0
  0
BLOCK_RECORD
  5
1837
330
1
100
AcDbSymbolTableRecord
100
AcDbBlockTableRecord
  2
*X2
340
0
102
{BLKREFS
331
19E0
102
}
 70
     0
280
     1
281
     0
  0
BLOCK_RECORD
  5
18CD
330
1
100
AcDbSymbolTableRecord
100
AcDbBlockTableRecord
  2
*X3
340
0
102
{BLKREFS
331
19FF
102
}
 70
     0
280
     1
281
     0
  0
BLOCK_RECORD
  5
18D6
330
1
100
AcDbSymbolTableRecord
100
AcDbBlockTableRecord
  2
*X4
340
0
102
{BLKREFS
331
19DB
102
}
 70
     0
280
     1
281
     0
  0
BLOCK_RECORD
  5
18E4
330
1
100
AcDbSymbolTableRecord
100
AcDbBlockTableRecord
  2
*X5
340
0
102
{BLKREFS
331
19D6
102
}
 70
     0
280
     1
281
     0
  0
BLOCK_RECORD
  5
1A87
330
1
100
AcDbSymbolTableRecord
100
AcDbBlockTableRecord
  2
*D6
340
0
 70
     0
280
     1
281
     0
  0
BLOCK_RECORD
  5
1A93
330
1
100
AcDbSymbolTableRecord
100
AcDbBlockTableRecord
  2
*D7
340
0
 70
     0
280
     1
281
     0
  0
BLOCK_RECORD
  5
1A9F
330
1
100
AcDbSymbolTableRecord
100
AcDbBlockTableRecord
  2
*D8
340
0
 70
     0
280
     1
281
     0
  0
BLOCK_RECORD
  5
1AAB
330
1
100
AcDbSymbolTableRecord
100
AcDbBlockTableRecord
  2
*D9
340
0
 70
     0
280
     1
281
     0
  0
BLOCK_RECORD
  5
1AC3
330
1
100
AcDbSymbolTableRecord
100
AcDbBlockTableRecord
  2
*D10
340
0
 70
     0
280
     1
281
     0
  0
BLOCK_RECORD
  5
1AD1
330
1
100
AcDbSymbolTableRecord
100
AcDbBlockTableRecord
  2
*D11
340
0
 70
     0
280
     1
281
     0
  0
BLOCK_RECORD
  5
1ADF
330
1
100
AcDbSymbolTableRecord
100
AcDbBlockTableRecord
  2
*D12
340
0
 70
     0
280
     1
281
     0
  0
BLOCK_RECORD
  5
1AEB
330
1
100
AcDbSymbolTableRecord
100
AcDbBlockTableRecord
  2
*D13
340
0
 70
     0
280
     1
281
     0
  0
BLOCK_RECORD
  5
1AF7
330
1
100
AcDbSymbolTableRecord
100
AcDbBlockTableRecord
  2
*D14
340
0
 70
     0
280
     1
281
     0
  0
BLOCK_RECORD
  5
1B03
330
1
100
AcDbSymbolTableRecord
100
AcDbBlockTableRecord
  2
*D15
340
0
 70
     0
280
     1
281
     0
  0
BLOCK_RECORD
  5
1B0F
330
1
100
AcDbSymbolTableRecord
100
AcDbBlockTableRecord
  2
*D16
340
0
 70
     0
280
     1
281
     0
  0
ENDTAB
  0
ENDSEC
  0
SECTION
  2
BLOCKS
  0
BLOCK
  5
1B
330
1A
100
AcDbEntity
  8
0
100
AcDbBlockBegin
  2
*MODEL_SPACE
 70
     0
 10
0.0
 20
0.0
 30
0.0
  3
*MODEL_SPACE
  1

  0
ENDBLK
  5
1C
330
1A
100
AcDbEntity
  8
0
100
AcDbBlockEnd
  0
BLOCK
  5
18
330
17
100
AcDbEntity
 67
     1
  8
0
100
AcDbBlockBegin
  2
*PAPER_SPACE
 70
     0
 10
0.0
 20
0.0
 30
0.0
  3
*PAPER_SPACE
  1

  0
ENDBLK
  5
19
330
17
100
AcDbEntity
 67
     1
  8
0
100
AcDbBlockEnd
  0
BLOCK
  5
B3
330
B2
100
AcDbEntity
  8
0
100
AcDbBlockBegin
  2
_OPEN
 70
     0
 10
0.0
 20
0.0
 30
0.0
  3
_OPEN
  1

  0
LINE
  5
B4
330
B2
100
AcDbEntity
  8
0
  6
ByBlock
 62
     0
100
AcDbLine
 10
-1.0
 20
0.1666666666666666
 30
0.0
 11
0.0
 21
0.0
 31
0.0
  0
LINE
  5
B5
330
B2
100
AcDbEntity
  8
0
  6
ByBlock
 62
     0
100
AcDbLine
 10
0.0
 20
0.0
 30
0.0
 11
-1.0
 21
-0.1666666666666666
 31
0.0
  0
LINE
  5
B6
330
B2
100
AcDbEntity
  8
0
  6
ByBlock
 62
     0
100
AcDbLine
 10
0.0
 20
0.0
 30
0.0
 11
-1.0
 21
0.0
 31
0.0
  0
ENDBLK
  5
B7
330
B2
100
AcDbEntity
  8
0
100
AcDbBlockEnd
  0
BLOCK
  5
4ED
330
359
100
AcDbEntity
  8
0
100
AcDbBlockBegin
  2
*X1
 70
     1
 10
0.0
 20
0.0
 30
0.0
  3
*X1
  1

  0
LINE
  5
35A
330
359
100
AcDbEntity
  8
0
 62
     0
100
AcDbLine
 10
66.75047808566091
 20
28.71175535310772
 30
0.0
 11
66.10464715594599
 21
29.3575862828227
 31
0.0
  0
LINE
  5
35B
330
359
100
AcDbEntity
  8
0
 62
     0
100
AcDbLine
 10
66.75047808566091
 20
27.81372974100083
 30
0.0
 11
65.20662154383905
 21
29.3575862828227
 31
0.0
  0
LINE
  5
35C
330
359
100
AcDbEntity
  8
0
 62
     0
100
AcDbLine
 10
66.75047808566086
 20
26.91570412889388
 30
0.0
 11
64.32934413964591
 21
29.33683807490883
 31
0.0
  0
LINE
  5
35D
330
359
100
AcDbEntity
  8
0
 62
     0
100
AcDbLine
 10
66.75047808566091
 20
26.01767851678705
 30
0.0
 11
63.95047808566085
 21
28.81767851678706
 31
0.0
  0
LINE
  5
35E
330
359
100
AcDbEntity
  8
0
 62
     0
100
AcDbLine
 10
66.75047808566091
 20
25.1196529046801
 30
0.0
 11
63.95047808566085
 21
27.91965290468017
 31
0.0
  0
LINE
  5
35F
330
359
100
AcDbEntity
  8
0
 62
     0
100
AcDbLine
 10
66.75047808566086
 20
24.22162729257315
 30
0.0
 11
63.95047808566079
 21
27.02162729257322
 31
0.0
  0
LINE
  5
360
330
359
100
AcDbEntity
  8
0
 62
     0
100
AcDbLine
 10
61.85047808566082
 20
28.22360168046635
 30
0.0
 11
60.71649348330453
 21
29.3575862828227
 31
0.0
  0
LINE
  5
361
330
359
100
AcDbEntity
  8
0
 62
     0
100
AcDbLine
 10
66.75047808566091
 20
23.32360168046631
 30
0.0
 11
63.95047808566085
 21
26.12360168046638
 31
0.0
  0
LINE
  5
362
330
359
100
AcDbEntity
  8
0
 62
     0
100
AcDbLine
 10
61.85047808566082
 20
27.32557606835945
 30
0.0
 11
59.81846787119758
 21
29.35758628282264
 31
0.0
  0
LINE
  5
363
330
359
100
AcDbEntity
  8
0
 62
     0
100
AcDbLine
 10
66.75047808566086
 20
22.42557606835936
 30
0.0
 11
63.95047808566085
 21
25.22557606835943
 31
0.0
  0
LINE
  5
364
330
359
100
AcDbEntity
  8
0
 62
     0
100
AcDbLine
 10
61.85047808566082
 20
26.4275504562525
 30
0.0
 11
59.14496712052375
 21
29.13306142138959
 31
0.0
  0
LINE
  5
365
330
359
100
AcDbEntity
  8
0
 62
     0
100
AcDbLine
 10
66.75047808566086
 20
21.52755045625247
 30
0.0
 11
63.95047808566079
 21
24.32755045625248
 31
0.0
  0
LINE
  5
366
330
359
100
AcDbEntity
  8
0
 62
     0
100
AcDbLine
 10
61.85047808566094
 20
25.5295248441455
 30
0.0
 11
59.05047808566076
 21
28.32952484414562
 31
0.0
  0
LINE
  5
367
330
359
100
AcDbEntity
  8
0
 62
     0
100
AcDbLine
 10
66.75047808566091
 20
20.62952484414552
 30
0.0
 11
63.95047808566085
 21
23.42952484414559
 31
0.0
  0
LINE
  5
368
330
359
100
AcDbEntity
  8
0
 62
     0
100
AcDbLine
 10
61.85047808566088
 20
24.63149923203861
 30
0.0
 11
59.05047808566076
 21
27.43149923203879
 31
0.0
  0
LINE
  5
369
330
359
100
AcDbEntity
  8
0
 62
     0
100
AcDbLine
 10
66.75047808566086
 20
19.73149923203863
 30
0.0
 11
63.95047808566079
 21
22.5314992320387
 31
0.0
  0
LINE
  5
36A
330
359
100
AcDbEntity
  8
0
 62
     0
100
AcDbLine
 10
61.85047808566088
 20
23.73347361993172
 30
0.0
 11
59.05047808566076
 21
26.53347361993184
 31
0.0
  0
LINE
  5
36B
330
359
100
AcDbEntity
  8
0
 62
     0
100
AcDbLine
 10
66.75047808566086
 20
18.83347361993173
 30
0.0
 11
63.95047808566079
 21
21.63347361993181
 31
0.0
  0
LINE
  5
36C
330
359
100
AcDbEntity
  8
0
 62
     0
100
AcDbLine
 10
61.85047808566082
 20
22.83544800782477
 30
0.0
 11
59.0504780856607
 21
25.63544800782489
 31
0.0
  0
LINE
  5
36D
330
359
100
AcDbEntity
  8
0
 62
     0
100
AcDbLine
 10
66.7504780856608
 20
17.93544800782479
 30
0.0
 11
63.95047808566079
 21
20.73544800782486
 31
0.0
  0
LINE
  5
36E
330
359
100
AcDbEntity
  8
0
 62
     0
100
AcDbLine
 10
61.85047808566088
 20
21.93742239571793
 30
0.0
 11
59.05047808566076
 21
24.73742239571806
 31
0.0
  0
LINE
  5
36F
330
359
100
AcDbEntity
  8
0
 62
     0
100
AcDbLine
 10
55.55047808566081
 20
28.237422395718
 30
0.0
 11
54.43031419855618
 21
29.35758628282264
 31
0.0
  0
LINE
  5
370
330
359
100
AcDbEntity
  8
0
 62
     0
100
AcDbLine
 10
66.75047808566086
 20
17.03742239571795
 30
0.0
 11
63.95047808566079
 21
19.83742239571796
 31
0.0
  0
LINE
  5
371
330
359
100
AcDbEntity
  8
0
 62
     0
100
AcDbLine
 10
61.85047808566088
 20
21.03939678361098
 30
0.0
 11
59.0504780856607
 21
23.83939678361111
 31
0.0
  0
LINE
  5
372
330
359
100
AcDbEntity
  8
0
 62
     0
100
AcDbLine
 10
55.55047808566076
 20
27.33939678361105
 30
0.0
 11
53.53228858644922
 21
29.35758628282264
 31
0.0
  0
LINE
  5
373
330
359
100
AcDbEntity
  8
0
 62
     0
100
AcDbLine
 10
66.75047808566086
 20
16.139396783611
 30
0.0
 11
63.95047808566079
 21
18.93939678361107
 31
0.0
  0
LINE
  5
374
330
359
100
AcDbEntity
  8
0
 62
     0
100
AcDbLine
 10
61.85047808566082
 20
20.14137117150409
 30
0.0
 11
59.05047808566076
 21
22.9413711715041
 31
0.0
  0
LINE
  5
375
330
359
100
AcDbEntity
  8
0
 62
     0
100
AcDbLine
 10
55.55047808566076
 20
26.44137117150416
 30
0.0
 11
52.85071536233676
 21
29.14113389482816
 31
0.0
  0
LINE
  5
376
330
359
100
AcDbEntity
  8
0
 62
     0
100
AcDbLine
 10
66.7504780856608
 20
15.24137117150411
 30
0.0
 11
63.95047808566073
 21
18.04137117150412
 31
0.0
  0
LINE
  5
377
330
359
100
AcDbEntity
  8
0
 62
     0
100
AcDbLine
 10
61.85047808566088
 20
19.24334555939714
 30
0.0
 11
59.05047808566081
 21
22.04334555939721
 31
0.0
  0
LINE
  5
378
330
359
100
AcDbEntity
  8
0
 62
     0
100
AcDbLine
 10
55.55047808566081
 20
25.54334555939721
 30
0.0
 11
52.7504780856608
 21
28.34334555939722
 31
0.0
  0
LINE
  5
379
330
359
100
AcDbEntity
  8
0
 62
     0
100
AcDbLine
 10
66.75047808566086
 20
14.34334555939716
 30
0.0
 11
63.95047808566079
 21
17.14334555939723
 31
0.0
  0
LINE
  5
37A
330
359
100
AcDbEntity
  8
0
 62
     0
100
AcDbLine
 10
61.85047808566082
 20
18.34531994729025
 30
0.0
 11
59.05047808566081
 21
21.14531994729032
 31
0.0
  0
LINE
  5
37B
330
359
100
AcDbEntity
  8
0
 62
     0
100
AcDbLine
 10
55.55047808566087
 20
24.64531994729026
 30
0.0
 11
52.7504780856608
 21
27.44531994729033
 31
0.0
  0
LINE
  5
37C
330
359
100
AcDbEntity
  8
0
 62
     0
100
AcDbLine
 10
66.67851273077104
 20
13.51728530218008
 30
0.0
 11
63.95047808566079
 21
16.24531994729034
 31
0.0
  0
LINE
  5
37D
330
359
100
AcDbEntity
  8
0
 62
     0
100
AcDbLine
 10
61.85047808566088
 20
17.44729433518324
 30
0.0
 11
59.05047808566076
 21
20.24729433518337
 31
0.0
  0
LINE
  5
37E
330
359
100
AcDbEntity
  8
0
 62
     0
100
AcDbLine
 10
55.55047808566081
 20
23.74729433518337
 30
0.0
 11
52.75047808566075
 21
26.54729433518338
 31
0.0
  0
LINE
  5
37F
330
359
100
AcDbEntity
  8
0
 62
     0
100
AcDbLine
 10
66.04018613802157
 20
13.25758628282261
 30
0.0
 11
63.95047808566073
 21
15.34729433518345
 31
0.0
  0
LINE
  5
380
330
359
100
AcDbEntity
  8
0
 62
     0
100
AcDbLine
 10
55.55047808566081
 20
22.84926872307642
 30
0.0
 11
52.75047808566075
 21
25.64926872307649
 31
0.0
  0
LINE
  5
381
330
359
100
AcDbEntity
  8
0
 62
     0
100
AcDbLine
 10
61.85047808566088
 20
16.54926872307635
 30
0.0
 11
59.05047808566076
 21
19.34926872307648
 31
0.0
  0
LINE
  5
382
330
359
100
AcDbEntity
  8
0
 62
     0
100
AcDbLine
 10
50.1254780856608
 20
28.27426872307643
 30
0.0
 11
49.04216052591465
 21
29.35758628282253
 31
0.0
  0
LINE
  5
383
330
359
100
AcDbEntity
  8
0
 62
     0
100
AcDbLine
 10
65.14216052591468
 20
13.2575862828225
 30
0.0
 11
63.95047808566073
 21
14.4492687230765
 31
0.0
  0
LINE
  5
384
330
359
100
AcDbEntity
  8
0
 62
     0
100
AcDbLine
 10
55.55047808566081
 20
21.95124311096953
 30
0.0
 11
52.75047808566085
 21
24.75124311096954
 31
0.0
  0
LINE
  5
385
330
359
100
AcDbEntity
  8
0
 62
     0
100
AcDbLine
 10
50.1254780856608
 20
27.37624311096954
 30
0.0
 11
48.14413491380782
 21
29.35758628282258
 31
0.0
  0
LINE
  5
386
330
359
100
AcDbEntity
  8
0
 62
     0
100
AcDbLine
 10
61.82451978501529
 20
15.6772014116151
 30
0.0
 11
59.05047808566076
 21
18.45124311096958
 31
0.0
  0
LINE
  5
387
330
359
100
AcDbEntity
  8
0
 62
     0
100
AcDbLine
 10
55.55047808566081
 20
21.05321749886264
 30
0.0
 11
52.75047808566085
 21
23.85321749886259
 31
0.0
  0
LINE
  5
388
330
359
100
AcDbEntity
  8
0
 62
     0
100
AcDbLine
 10
49.92989753954697
 20
26.67379804497648
 30
0.0
 11
47.24610930170081
 21
29.35758628282264
 31
0.0
  0
LINE
  5
389
330
359
100
AcDbEntity
  8
0
 62
     0
100
AcDbLine
 10
61.63153448975805
 20
14.97216109476534
 30
0.0
 11
59.05047808566076
 21
17.55321749886269
 31
0.0
  0
LINE
  5
38A
330
359
100
AcDbEntity
  8
0
 62
     0
100
AcDbLine
 10
55.55047808566081
 20
20.15519188675569
 30
0.0
 11
52.7504780856608
 21
22.9551918867557
 31
0.0
  0
LINE
  5
38B
330
359
100
AcDbEntity
  8
0
 62
     0
100
AcDbLine
 10
49.14808368959382
 20
26.55758628282263
 30
0.0
 11
46.34808368959392
 21
29.35758628282253
 31
0.0
  0
LINE
  5
38C
330
359
100
AcDbEntity
  8
0
 62
     0
100
AcDbLine
 10
61.30650261383448
 20
14.39916735858196
 30
0.0
 11
58.97896234650125
 21
16.72670762591525
 31
0.0
  0
LINE
  5
38D
330
359
100
AcDbEntity
  8
0
 62
     0
100
AcDbLine
 10
55.55047808566081
 20
19.25716627464885
 30
0.0
 11
52.75047808566085
 21
22.05716627464881
 31
0.0
  0
LINE
  5
38E
330
359
100
AcDbEntity
  8
0
 62
     0
100
AcDbLine
 10
48.25005807748704
 20
26.55758628282257
 30
0.0
 11
45.5124913483096
 21
29.29515301200007
 31
0.0
  0
LINE
  5
38F
330
359
100
AcDbEntity
  8
0
 62
     0
100
AcDbLine
 10
60.87446081650944
 20
13.93318354380017
 30
0.0
 11
58.57737670803373
 21
16.23026765227587
 31
0.0
  0
LINE
  5
390
330
359
100
AcDbEntity
  8
0
 62
     0
100
AcDbLine
 10
55.55047808566081
 20
18.3591406625419
 30
0.0
 11
52.7504780856608
 21
21.15914066254186
 31
0.0
  0
LINE
  5
391
330
359
100
AcDbEntity
  8
0
 62
     0
100
AcDbLine
 10
47.35203246538015
 20
26.55758628282257
 30
0.0
 11
44.8478509237762
 21
29.06176782442646
 31
0.0
  0
LINE
  5
392
330
359
100
AcDbEntity
  8
0
 62
     0
100
AcDbLine
 10
60.33829847158341
 20
13.5713202766193
 30
0.0
 11
57.85203246538014
 21
16.05758628282257
 31
0.0
  0
LINE
  5
393
330
359
100
AcDbEntity
  8
0
 62
     0
100
AcDbLine
 10
55.55047808566076
 20
17.46111505043495
 30
0.0
 11
52.7504780856608
 21
20.26111505043497
 31
0.0
  0
LINE
  5
394
330
359
100
AcDbEntity
  8
0
 62
     0
100
AcDbLine
 10
46.47579668129123
 20
26.53579645480448
 30
0.0
 11
44.30524998656602
 21
28.70634314952969
 31
0.0
  0
LINE
  5
395
330
359
100
AcDbEntity
  8
0
 62
     0
100
AcDbLine
 10
59.68188591167211
 20
13.32970722442366
 30
0.0
 11
56.95400685327314
 21
16.05758628282262
 31
0.0
  0
LINE
  5
396
330
359
100
AcDbEntity
  8
0
 62
     0
100
AcDbLine
 10
46.10047808566088
 20
26.01308943832788
 30
0.0
 11
43.86713792752146
 21
28.24642959646729
 31
0.0
  0
LINE
  5
397
330
359
100
AcDbEntity
  8
0
 62
     0
100
AcDbLine
 10
58.85598124116626
 20
13.25758628282256
 30
0.0
 11
52.7504780856608
 21
19.36308943832802
 31
0.0
  0
LINE
  5
398
330
359
100
AcDbEntity
  8
0
 62
     0
100
AcDbLine
 10
46.10047808566088
 20
25.11506382622111
 30
0.0
 11
43.53536701516844
 21
27.68017489671354
 31
0.0
  0
LINE
  5
399
330
359
100
AcDbEntity
  8
0
 62
     0
100
AcDbLine
 10
57.95795562905937
 20
13.25758628282256
 30
0.0
 11
52.7504780856608
 21
18.46506382622118
 31
0.0
  0
LINE
  5
39A
330
359
100
AcDbEntity
  8
0
 62
     0
100
AcDbLine
 10
46.30702236676467
 20
24.01049393301037
 30
0.0
 11
43.33318849580433
 21
26.98432780397065
 31
0.0
  0
LINE
  5
39B
330
359
100
AcDbEntity
  8
0
 62
     0
100
AcDbLine
 10
57.05993001695247
 20
13.25758628282256
 30
0.0
 11
52.7504780856608
 21
17.56703821411423
 31
0.0
  0
LINE
  5
39C
330
359
100
AcDbEntity
  8
0
 62
     0
100
AcDbLine
 10
50.52408178835225
 20
18.89540889931584
 30
0.0
 11
43.30047808566075
 21
26.11901260200733
 31
0.0
  0
LINE
  5
39D
330
359
100
AcDbEntity
  8
0
 62
     0
100
AcDbLine
 10
41.20047808566073
 20
28.2190126020073
 30
0.0
 11
40.06190440484544
 21
29.35758628282264
 31
0.0
  0
LINE
  5
39E
330
359
100
AcDbEntity
  8
0
 62
     0
100
AcDbLine
 10
56.16190440484553
 20
13.25758628282256
 30
0.0
 11
52.75047808566075
 21
16.66901260200728
 31
0.0
  0
LINE
  5
39F
330
359
100
AcDbEntity
  8
0
 62
     0
100
AcDbLine
 10
50.65047808566089
 20
17.87098698990036
 30
0.0
 11
43.30047808566081
 21
25.22098698990044
 31
0.0
  0
LINE
  5
3A0
330
359
100
AcDbEntity
  8
0
 62
     0
100
AcDbLine
 10
41.20047808566084
 20
27.32098698990035
 30
0.0
 11
39.16387879273856
 21
29.3575862828227
 31
0.0
  0
LINE
  5
3A1
330
359
100
AcDbEntity
  8
0
 62
     0
100
AcDbLine
 10
55.24743091399376
 20
13.2740341615675
 30
0.0
 11
52.76692596440574
 21
15.75453911115551
 31
0.0
  0
LINE
  5
3A2
330
359
100
AcDbEntity
  8
0
 62
     0
100
AcDbLine
 10
41.20047808566084
 20
26.42296137779346
 30
0.0
 11
38.49308819788553
 21
29.13035126556872
 31
0.0
  0
LINE
  5
3A3
330
359
100
AcDbEntity
  8
0
 62
     0
100
AcDbLine
 10
50.65047808566084
 20
16.97296137779341
 30
0.0
 11
43.3238887535432
 21
24.2995507099111
 31
0.0
  0
LINE
  5
3A4
330
359
100
AcDbEntity
  8
0
 62
     0
100
AcDbLine
 10
41.20047808566084
 20
25.52493576568651
 30
0.0
 11
38.40047808566078
 21
28.32493576568658
 31
0.0
  0
LINE
  5
3A5
330
359
100
AcDbEntity
  8
0
 62
     0
100
AcDbLine
 10
50.65047808566072
 20
16.07493576568657
 30
0.0
 11
43.64200817138322
 21
23.08340567996413
 31
0.0
  0
LINE
  5
3A6
330
359
100
AcDbEntity
  8
0
 62
     0
100
AcDbLine
 10
41.20047808566084
 20
24.62691015357961
 30
0.0
 11
38.40047808566078
 21
27.42691015357963
 31
0.0
  0
LINE
  5
3A7
330
359
100
AcDbEntity
  8
0
 62
     0
100
AcDbLine
 10
50.54191626807176
 20
15.2854719711687
 30
0.0
 11
47.84628147903345
 21
17.98110676020701
 31
0.0
  0
LINE
  5
3A8
330
359
100
AcDbEntity
  8
0
 62
     0
100
AcDbLine
 10
41.20047808566084
 20
23.72888454147272
 30
0.0
 11
38.40047808566078
 21
26.52888454147279
 31
0.0
  0
LINE
  5
3A9
330
359
100
AcDbEntity
  8
0
 62
     0
100
AcDbLine
 10
36.10899118508382
 20
28.82037144204969
 30
0.0
 11
35.57177634431094
 21
29.35758628282264
 31
0.0
  0
LINE
  5
3AA
330
359
100
AcDbEntity
  8
0
 62
     0
100
AcDbLine
 10
50.2740405603102
 20
14.65532206682337
 30
0.0
 11
47.85047808566088
 21
17.07888454147269
 31
0.0
  0
LINE
  5
3AB
330
359
100
AcDbEntity
  8
0
 62
     0
100
AcDbLine
 10
41.20047808566079
 20
22.83085892936577
 30
0.0
 11
38.40047808566078
 21
25.63085892936584
 31
0.0
  0
LINE
  5
3AC
330
359
100
AcDbEntity
  8
0
 62
     0
100
AcDbLine
 10
35.91006352083122
 20
28.12127349419535
 30
0.0
 11
34.67375073220399
 21
29.35758628282264
 31
0.0
  0
LINE
  5
3AD
330
359
100
AcDbEntity
  8
0
 62
     0
100
AcDbLine
 10
49.8910537621349
 20
14.14028325289172
 30
0.0
 11
47.75319290277439
 21
16.27814411225222
 31
0.0
  0
LINE
  5
3AE
330
359
100
AcDbEntity
  8
0
 62
     0
100
AcDbLine
 10
41.20047808566079
 20
21.93283331725888
 30
0.0
 11
38.40047808566072
 21
24.7328333172589
 31
0.0
  0
LINE
  5
3AF
330
359
100
AcDbEntity
  8
0
 62
     0
100
AcDbLine
 10
35.69453737392553
 20
27.43877402899409
 30
0.0
 11
33.78532181045495
 21
29.34798959246473
 31
0.0
  0
LINE
  5
3B0
330
359
100
AcDbEntity
  8
0
 62
     0
100
AcDbLine
 10
49.40473479701927
 20
13.72857660590034
 30
0.0
 11
47.07572512009704
 21
16.05758628282262
 31
0.0
  0
LINE
  5
3B1
330
359
100
AcDbEntity
  8
0
 62
     0
100
AcDbLine
 10
41.20047808566084
 20
21.03480770515199
 30
0.0
 11
38.40047808566078
 21
23.83480770515206
 31
0.0
  0
LINE
  5
3B2
330
359
100
AcDbEntity
  8
0
 62
     0
100
AcDbLine
 10
35.47901122702001
 20
26.75627456379283
 30
0.0
 11
33.35101122701997
 21
28.88427456379287
 31
0.0
  0
LINE
  5
3B3
330
359
100
AcDbEntity
  8
0
 62
     0
100
AcDbLine
 10
48.8086508485589
 20
13.42663494225388
 30
0.0
 11
46.17769950799015
 21
16.05758628282268
 31
0.0
  0
LINE
  5
3B4
330
359
100
AcDbEntity
  8
0
 62
     0
100
AcDbLine
 10
41.20047808566079
 20
20.1367820930451
 30
0.0
 11
38.40047808566072
 21
22.93678209304511
 31
0.0
  0
LINE
  5
3B5
330
359
100
AcDbEntity
  8
0
 62
     0
100
AcDbLine
 10
35.26348508011415
 20
26.07377509859174
 30
0.0
 11
33.13548508011417
 21
28.20177509859173
 31
0.0
  0
LINE
  5
3B6
330
359
100
AcDbEntity
  8
0
 62
     0
100
AcDbLine
 10
48.07097819691143
 20
13.26628198179446
 30
0.0
 11
45.27967389588326
 21
16.05758628282262
 31
0.0
  0
LINE
  5
3B7
330
359
100
AcDbEntity
  8
0
 62
     0
100
AcDbLine
 10
41.20047808566079
 20
19.23875648093815
 30
0.0
 11
38.40047808566078
 21
22.03875648093811
 31
0.0
  0
LINE
  5
3B8
330
359
100
AcDbEntity
  8
0
 62
     0
100
AcDbLine
 10
35.04795893320858
 20
25.39127563339036
 30
0.0
 11
32.91995893320848
 21
27.51927563339041
 31
0.0
  0
LINE
  5
3B9
330
359
100
AcDbEntity
  8
0
 62
     0
100
AcDbLine
 10
47.18164828377638
 20
13.25758628282256
 30
0.0
 11
44.38164828377631
 21
16.05758628282262
 31
0.0
  0
LINE
  5
3BA
330
359
100
AcDbEntity
  8
0
 62
     0
100
AcDbLine
 10
41.20047808566079
 20
18.34073086883126
 30
0.0
 11
38.40047808566083
 21
21.14073086883127
 31
0.0
  0
LINE
  5
3BB
330
359
100
AcDbEntity
  8
0
 62
     0
100
AcDbLine
 10
34.83243278630295
 20
24.70877616818916
 30
0.0
 11
32.70443278630285
 21
26.83677616818921
 31
0.0
  0
LINE
  5
3BC
330
359
100
AcDbEntity
  8
0
 62
     0
100
AcDbLine
 10
46.28362267166949
 20
13.25758628282261
 30
0.0
 11
43.8500109743731
 21
15.691197980119
 31
0.0
  0
LINE
  5
3BD
330
359
100
AcDbEntity
  8
0
 62
     0
100
AcDbLine
 10
34.61690663939732
 20
24.02627670298779
 30
0.0
 11
32.48890663939722
 21
26.15427670298795
 31
0.0
  0
LINE
  5
3BE
330
359
100
AcDbEntity
  8
0
 62
     0
100
AcDbLine
 10
41.20047808566079
 20
17.44270525672436
 30
0.0
 11
38.40047808566083
 21
20.24270525672432
 31
0.0
  0
LINE
  5
3BF
330
359
100
AcDbEntity
  8
0
 62
     0
100
AcDbLine
 10
30.35047808566083
 20
28.29270525672433
 30
0.0
 11
29.28559705956252
 21
29.35758628282258
 31
0.0
  0
LINE
  5
3C0
330
359
100
AcDbEntity
  8
0
 62
     0
100
AcDbLine
 10
45.38559705956259
 20
13.25758628282256
 30
0.0
 11
43.82547808566084
 21
14.81770525672431
 31
0.0
  0
LINE
  5
3C1
330
359
100
AcDbEntity
  8
0
 62
     0
100
AcDbLine
 10
34.40138049249152
 20
23.3437772377867
 30
0.0
 11
32.27338049249159
 21
25.47177723778663
 31
0.0
  0
LINE
  5
3C2
330
359
100
AcDbEntity
  8
0
 62
     0
100
AcDbLine
 10
41.20047808566079
 20
16.54467964461742
 30
0.0
 11
38.40047808566078
 21
19.34467964461743
 31
0.0
  0
LINE
  5
3C3
330
359
100
AcDbEntity
  8
0
 62
     0
100
AcDbLine
 10
30.35047808566083
 20
27.39467964461738
 30
0.0
 11
28.38757144745563
 21
29.35758628282258
 31
0.0
  0
LINE
  5
3C4
330
359
100
AcDbEntity
  8
0
 62
     0
100
AcDbLine
 10
44.48757144745559
 20
13.25758628282261
 30
0.0
 11
43.82547808566079
 21
13.91967964461736
 31
0.0
  0
LINE
  5
3C5
330
359
100
AcDbEntity
  8
0
 62
     0
100
AcDbLine
 10
34.18585434558588
 20
22.66127777258538
 30
0.0
 11
32.05785434558584
 21
24.78927777258542
 31
0.0
  0
LINE
  5
3C6
330
359
100
AcDbEntity
  8
0
 62
     0
100
AcDbLine
 10
30.35047808566077
 20
26.49665403251044
 30
0.0
 11
27.67503315676317
 21
29.1720989614081
 31
0.0
  0
LINE
  5
3C7
330
359
100
AcDbEntity
  8
0
 62
     0
100
AcDbLine
 10
41.20047808566073
 20
15.64665403251052
 30
0.0
 11
38.40047808566078
 21
18.44665403251048
 31
0.0
  0
LINE
  5
3C8
330
359
100
AcDbEntity
  8
0
 62
     0
100
AcDbLine
 10
33.97032819868025
 20
21.97877830738418
 30
0.0
 11
31.84232819868026
 21
24.10677830738416
 31
0.0
  0
LINE
  5
3C9
330
359
100
AcDbEntity
  8
0
 62
     0
100
AcDbLine
 10
30.35047808566083
 20
25.5986284204036
 30
0.0
 11
27.55047808566076
 21
28.39862842040361
 31
0.0
  0
LINE
  5
3CA
330
359
100
AcDbEntity
  8
0
 62
     0
100
AcDbLine
 10
41.20047808566079
 20
14.74862842040363
 30
0.0
 11
38.40047808566078
 21
17.54862842040359
 31
0.0
  0
LINE
  5
3CB
330
359
100
AcDbEntity
  8
0
 62
     0
100
AcDbLine
 10
33.7652396892882
 20
21.28584120466928
 30
0.0
 11
31.62680205177452
 21
23.42427884218296
 31
0.0
  0
LINE
  5
3CC
330
359
100
AcDbEntity
  8
0
 62
     0
100
AcDbLine
 10
30.35047808566083
 20
24.70060280829665
 30
0.0
 11
27.55047808566076
 21
27.50060280829672
 31
0.0
  0
LINE
  5
3CD
330
359
100
AcDbEntity
  8
0
 62
     0
100
AcDbLine
 10
41.20047808566073
 20
13.85060280829668
 30
0.0
 11
38.40047808566078
 21
16.65060280829669
 31
0.0
  0
LINE
  5
3CE
330
359
100
AcDbEntity
  8
0
 62
     0
100
AcDbLine
 10
34.1797130487222
 20
19.97334223312833
 30
0.0
 11
31.3362545560899
 21
22.81680072576063
 31
0.0
  0
LINE
  5
3CF
330
359
100
AcDbEntity
  8
0
 62
     0
100
AcDbLine
 10
30.35047808566088
 20
23.80257719618965
 30
0.0
 11
27.5504780856607
 21
26.60257719618977
 31
0.0
  0
LINE
  5
3D0
330
359
100
AcDbEntity
  8
0
 62
     0
100
AcDbLine
 10
40.8614330883284
 20
13.29162219352207
 30
0.0
 11
38.40047808566078
 21
15.75257719618974
 31
0.0
  0
LINE
  5
3D1
330
359
100
AcDbEntity
  8
0
 62
     0
100
AcDbLine
 10
34.59418640815619
 20
18.6608432615875
 30
0.0
 11
27.55047808566076
 21
25.70455158408293
 31
0.0
  0
LINE
  5
3D2
330
359
100
AcDbEntity
  8
0
 62
     0
100
AcDbLine
 10
25.10047808566088
 20
28.15455158408281
 30
0.0
 11
23.89744338692111
 21
29.35758628282258
 31
0.0
  0
LINE
  5
3D3
330
359
100
AcDbEntity
  8
0
 62
     0
100
AcDbLine
 10
39.99744338692114
 20
13.25758628282256
 30
0.0
 11
38.40047808566089
 21
14.8545515840828
 31
0.0
  0
LINE
  5
3D4
330
359
100
AcDbEntity
  8
0
 62
     0
100
AcDbLine
 10
35.00865976759025
 20
17.34834429004649
 30
0.0
 11
27.55047808566076
 21
24.80652597197599
 31
0.0
  0
LINE
  5
3D5
330
359
100
AcDbEntity
  8
0
 62
     0
100
AcDbLine
 10
25.10047808566088
 20
27.25652597197586
 30
0.0
 11
22.99941777481411
 21
29.35758628282264
 31
0.0
  0
LINE
  5
3D6
330
359
100
AcDbEntity
  8
0
 62
     0
100
AcDbLine
 10
39.09941777481419
 20
13.2575862828225
 30
0.0
 11
38.40047808566083
 21
13.95652597197591
 31
0.0
  0
LINE
  5
3D7
330
359
100
AcDbEntity
  8
0
 62
     0
100
AcDbLine
 10
24.83357139027078
 20
26.62540705525902
 30
0.0
 11
22.13334967205935
 21
29.32562877347038
 31
0.0
  0
LINE
  5
3D8
330
359
100
AcDbEntity
  8
0
 62
     0
100
AcDbLine
 10
35.42313312702419
 20
16.03584531850561
 30
0.0
 11
27.55047808566081
 21
23.90850035986898
 31
0.0
  0
LINE
  5
3D9
330
359
100
AcDbEntity
  8
0
 62
     0
100
AcDbLine
 10
30.68798700800244
 20
19.87296582542046
 30
0.0
 11
27.55047808566081
 21
23.01047474776209
 31
0.0
  0
LINE
  5
3DA
330
359
100
AcDbEntity
  8
0
 62
     0
100
AcDbLine
 10
24.00336655060034
 20
26.55758628282252
 30
0.0
 11
21.39530660247209
 21
29.16564623095081
 31
0.0
  0
LINE
  5
3DB
330
359
100
AcDbEntity
  8
0
 62
     0
100
AcDbLine
 10
35.83760648645824
 20
14.72334634696466
 30
0.0
 11
31.74529879415013
 21
18.81565403927277
 31
0.0
  0
LINE
  5
3DC
330
359
100
AcDbEntity
  8
0
 62
     0
100
AcDbLine
 10
30.35047808566088
 20
19.31244913565513
 30
0.0
 11
27.55047808566081
 21
22.1124491356552
 31
0.0
  0
LINE
  5
3DD
330
359
100
AcDbEntity
  8
0
 62
     0
100
AcDbLine
 10
23.10534093849333
 20
26.55758628282263
 30
0.0
 11
20.75658518664136
 21
28.9063420346746
 31
0.0
  0
LINE
  5
3DE
330
359
100
AcDbEntity
  8
0
 62
     0
100
AcDbLine
 10
36.07264534416885
 20
13.59028187714711
 30
0.0
 11
32.15977215358407
 21
17.50315506773194
 31
0.0
  0
LINE
  5
3DF
330
359
100
AcDbEntity
  8
0
 62
     0
100
AcDbLine
 10
30.35047808566083
 20
18.41442352354824
 30
0.0
 11
27.55047808566076
 21
21.21442352354825
 31
0.0
  0
LINE
  5
3E0
330
359
100
AcDbEntity
  8
0
 62
     0
100
AcDbLine
 10
22.2622274359498
 20
26.50267417325927
 30
0.0
 11
20.19783621130682
 21
28.56706539790224
 31
0.0
  0
LINE
  5
3E1
330
359
100
AcDbEntity
  8
0
 62
     0
100
AcDbLine
 10
35.5073153263865
 20
13.25758628282256
 30
0.0
 11
32.57424551301813
 21
16.19065609619088
 31
0.0
  0
LINE
  5
3E2
330
359
100
AcDbEntity
  8
0
 62
     0
100
AcDbLine
 10
30.35047808566083
 20
17.51639791144128
 30
0.0
 11
27.55047808566076
 21
20.31639791144136
 31
0.0
  0
LINE
  5
3E3
330
359
100
AcDbEntity
  8
0
 62
     0
100
AcDbLine
 10
21.6903712431108
 20
26.17650475399131
 30
0.0
 11
19.71018100269503
 21
28.15669499440708
 31
0.0
  0
LINE
  5
3E4
330
359
100
AcDbEntity
  8
0
 62
     0
100
AcDbLine
 10
34.60928971427956
 20
13.25758628282256
 30
0.0
 11
32.98871887245207
 21
14.87815712465004
 31
0.0
  0
LINE
  5
3E5
330
359
100
AcDbEntity
  8
0
 62
     0
100
AcDbLine
 10
25.43590721845857
 20
21.53294316653671
 30
0.0
 11
23.92583496937482
 21
23.04301541562046
 31
0.0
  0
LINE
  5
3E6
330
359
100
AcDbEntity
  8
0
 62
     0
100
AcDbLine
 10
30.35047808566094
 20
16.61837229933434
 30
0.0
 11
27.55047808566081
 21
19.41837229933446
 31
0.0
  0
LINE
  5
3E7
330
359
100
AcDbEntity
  8
0
 62
     0
100
AcDbLine
 10
21.33424967298186
 20
25.63460071201343
 30
0.0
 11
19.2908149766838
 21
27.67803540831148
 31
0.0
  0
LINE
  5
3E8
330
359
100
AcDbEntity
  8
0
 62
     0
100
AcDbLine
 10
33.66093109796805
 20
13.30791928702723
 30
0.0
 11
33.41057692637674
 21
13.55827345861854
 31
0.0
  0
LINE
  5
3E9
330
359
100
AcDbEntity
  8
0
 62
     0
100
AcDbLine
 10
25.34939355831665
 20
20.72143121457168
 30
0.0
 11
23.11432301740979
 21
22.95650175547854
 31
0.0
  0
LINE
  5
3EA
330
359
100
AcDbEntity
  8
0
 62
     0
100
AcDbLine
 10
21.25047808566092
 20
24.82034668722742
 30
0.0
 11
18.94187595572214
 21
27.12894881716619
 31
0.0
  0
LINE
  5
3EB
330
359
100
AcDbEntity
  8
0
 62
     0
100
AcDbLine
 10
30.35047808566088
 20
15.72034668722739
 30
0.0
 11
27.55047808566076
 21
18.52034668722757
 31
0.0
  0
LINE
  5
3EC
330
359
100
AcDbEntity
  8
0
 62
     0
100
AcDbLine
 10
25.0175379990186
 20
20.15526116176272
 30
0.0
 11
22.54815296460083
 21
22.62464619618049
 31
0.0
  0
LINE
  5
3ED
330
359
100
AcDbEntity
  8
0
 62
     0
100
AcDbLine
 10
21.25047808566092
 20
23.92232107512047
 30
0.0
 11
18.67129624851196
 21
26.50150291226942
 31
0.0
  0
LINE
  5
3EE
330
359
100
AcDbEntity
  8
0
 62
     0
100
AcDbLine
 10
30.35047808566088
 20
14.8223210751205
 30
0.0
 11
27.55047808566081
 21
17.62232107512057
 31
0.0
  0
LINE
  5
3EF
330
359
100
AcDbEntity
  8
0
 62
     0
100
AcDbLine
 10
21.25047808566092
 20
23.02429546301357
 30
0.0
 11
18.49658237558611
 21
25.77819117308843
 31
0.0
  0
LINE
  5
3F0
330
359
100
AcDbEntity
  8
0
 62
     0
100
AcDbLine
 10
24.51570455688216
 20
19.75906899179239
 30
0.0
 11
22.1519607946305
 21
22.12281275404405
 31
0.0
  0
LINE
  5
3F1
330
359
100
AcDbEntity
  8
0
 62
     0
100
AcDbLine
 10
15.82547808566073
 20
28.44929546301376
 30
0.0
 11
14.91718726585185
 21
29.3575862828227
 31
0.0
  0
LINE
  5
3F2
330
359
100
AcDbEntity
  8
0
 62
     0
100
AcDbLine
 10
30.35047808566094
 20
13.9242954630136
 30
0.0
 11
27.55047808566087
 21
16.72429546301367
 31
0.0
  0
LINE
  5
3F3
330
359
100
AcDbEntity
  8
0
 62
     0
100
AcDbLine
 10
21.25047808566092
 20
22.12626985090668
 30
0.0
 11
18.45047808566085
 21
24.92626985090675
 31
0.0
  0
LINE
  5
3F4
330
359
100
AcDbEntity
  8
0
 62
     0
100
AcDbLine
 10
23.81538511445473
 20
19.56136282211287
 30
0.0
 11
21.95425462495098
 21
21.42249331161662
 31
0.0
  0
LINE
  5
3F5
330
359
100
AcDbEntity
  8
0
 62
     0
100
AcDbLine
 10
15.82547808566073
 20
27.55126985090686
 30
0.0
 11
14.0191616537449
 21
29.35758628282264
 31
0.0
  0
LINE
  5
3F6
330
359
100
AcDbEntity
  8
0
 62
     0
100
AcDbLine
 10
30.06257428439023
 20
13.31417365217737
 30
0.0
 11
27.55047808566081
 21
15.82626985090672
 31
0.0
  0
LINE
  5
3F7
330
359
100
AcDbEntity
  8
0
 62
     0
100
AcDbLine
 10
21.25047808566092
 20
21.22824423879973
 30
0.0
 11
18.45047808566085
 21
24.0282442387998
 31
0.0
  0
LINE
  5
3F8
330
359
100
AcDbEntity
  8
0
 62
     0
100
AcDbLine
 10
15.71644411539046
 20
26.76227820907019
 30
0.0
 11
13.12113604163789
 21
29.3575862828227
 31
0.0
  0
LINE
  5
3F9
330
359
100
AcDbEntity
  8
0
 62
     0
100
AcDbLine
 10
29.22113604163809
 20
13.2575862828225
 30
0.0
 11
27.55047808566081
 21
14.92824423879983
 31
0.0
  0
LINE
  5
3FA
330
359
100
AcDbEntity
  8
0
 62
     0
100
AcDbLine
 10
21.25047808566086
 20
20.33021862669284
 30
0.0
 11
18.45047808566079
 21
23.13021862669285
 31
0.0
  0
LINE
  5
3FB
330
359
100
AcDbEntity
  8
0
 62
     0
100
AcDbLine
 10
15.02311042953113
 20
26.55758628282257
 30
0.0
 11
12.223110429531
 21
29.3575862828227
 31
0.0
  0
LINE
  5
3FC
330
359
100
AcDbEntity
  8
0
 62
     0
100
AcDbLine
 10
28.32311042953108
 20
13.25758628282256
 30
0.0
 11
27.55047808566081
 21
14.03021862669288
 31
0.0
  0
LINE
  5
3FD
330
359
100
AcDbEntity
  8
0
 62
     0
100
AcDbLine
 10
21.25047808566092
 20
19.43219301458595
 30
0.0
 11
18.45047808566085
 21
22.23219301458602
 31
0.0
  0
LINE
  5
3FE
330
359
100
AcDbEntity
  8
0
 62
     0
100
AcDbLine
 10
14.12508481742424
 20
26.55758628282257
 30
0.0
 11
11.35995554531934
 21
29.32271555492753
 31
0.0
  0
LINE
  5
3FF
330
359
100
AcDbEntity
  8
0
 62
     0
100
AcDbLine
 10
25.09787563682392
 20
15.58479546342289
 30
0.0
 11
24.62768726626121
 21
16.05498383398566
 31
0.0
  0
LINE
  5
400
330
359
100
AcDbEntity
  8
0
 62
     0
100
AcDbLine
 10
21.25047808566086
 20
18.534167402479
 30
0.0
 11
18.45047808566085
 21
21.33416740247907
 31
0.0
  0
LINE
  5
401
330
359
100
AcDbEntity
  8
0
 62
     0
100
AcDbLine
 10
13.22705920531734
 20
26.55758628282257
 30
0.0
 11
10.66682073684086
 21
29.11782475129906
 31
0.0
  0
LINE
  5
402
330
359
100
AcDbEntity
  8
0
 62
     0
100
AcDbLine
 10
25.10047808566083
 20
14.68416740247903
 30
0.0
 11
23.72705920531729
 21
16.05758628282262
 31
0.0
  0
LINE
  5
403
330
359
100
AcDbEntity
  8
0
 62
     0
100
AcDbLine
 10
21.25047808566086
 20
17.63614179037211
 30
0.0
 11
18.4504780856609
 21
20.43614179037206
 31
0.0
  0
LINE
  5
404
330
359
100
AcDbEntity
  8
0
 62
     0
100
AcDbLine
 10
12.3290335932104
 20
26.55758628282252
 30
0.0
 11
10.10257407699362
 21
28.78404579903929
 31
0.0
  0
LINE
  5
405
330
359
100
AcDbEntity
  8
0
 62
     0
100
AcDbLine
 10
25.10047808566083
 20
13.78614179037214
 30
0.0
 11
22.8290335932104
 21
16.05758628282251
 31
0.0
  0
LINE
  5
406
330
359
100
AcDbEntity
  8
0
 62
     0
100
AcDbLine
 10
11.8187407655958
 20
26.16985349833033
 30
0.0
 11
9.644481264752869
 21
28.34411299917326
 31
0.0
  0
LINE
  5
407
330
359
100
AcDbEntity
  8
0
 62
     0
100
AcDbLine
 10
24.71274530116853
 20
13.27584896275761
 30
0.0
 11
18.4504780856609
 21
19.53811617826523
 31
0.0
  0
LINE
  5
408
330
359
100
AcDbEntity
  8
0
 62
     0
100
AcDbLine
 10
11.80047808566087
 20
25.29009056615831
 30
0.0
 11
9.291000062283785
 21
27.7995685895354
 31
0.0
  0
LINE
  5
409
330
359
100
AcDbEntity
  8
0
 62
     0
100
AcDbLine
 10
23.83298236899662
 20
13.25758628282256
 30
0.0
 11
18.4504780856609
 21
18.64009056615828
 31
0.0
  0
LINE
  5
40A
330
359
100
AcDbEntity
  8
0
 62
     0
100
AcDbLine
 10
11.8626137937963
 20
24.32992924591588
 30
0.0
 11
9.060119959990061
 21
27.13242307972218
 31
0.0
  0
LINE
  5
40B
330
359
100
AcDbEntity
  8
0
 62
     0
100
AcDbLine
 10
22.93495675688962
 20
13.25758628282261
 30
0.0
 11
18.45047808566085
 21
17.74206495405133
 31
0.0
  0
LINE
  5
40C
330
359
100
AcDbEntity
  8
0
 62
     0
100
AcDbLine
 10
16.15485417688353
 20
19.13966325072181
 30
0.0
 11
9.000478085660915
 21
26.29403934194443
 31
0.0
  0
LINE
  5
40D
330
359
100
AcDbEntity
  8
0
 62
     0
100
AcDbLine
 10
21.98365905772607
 20
13.31085836987927
 30
0.0
 11
18.5037501727175
 21
16.79076725488784
 31
0.0
  0
LINE
  5
40E
330
359
100
AcDbEntity
  8
0
 62
     0
100
AcDbLine
 10
16.34674869096875
 20
18.04974312452969
 30
0.0
 11
9.000478085660802
 21
25.39601372983765
 31
0.0
  0
LINE
  5
40F
330
359
100
AcDbEntity
  8
0
 62
     0
100
AcDbLine
 10
20.60985114512448
 20
13.78664067037391
 30
0.0
 11
18.97953247321209
 21
15.41695934228636
 31
0.0
  0
LINE
  5
410
330
359
100
AcDbEntity
  8
0
 62
     0
100
AcDbLine
 10
16.35047808566088
 20
17.14798811773062
 30
0.0
 11
9.008042533083198
 21
24.49042367030825
 31
0.0
  0
LINE
  5
411
330
359
100
AcDbEntity
  8
0
 62
     0
100
AcDbLine
 10
16.35047808566082
 20
16.24996250562373
 30
0.0
 11
9.231333291407054
 21
23.36910729987744
 31
0.0
  0
LINE
  5
412
330
359
100
AcDbEntity
  8
0
 62
     0
100
AcDbLine
 10
16.27795808952891
 20
15.42445688964881
 30
0.0
 11
13.51456644590985
 21
18.18784853326787
 31
0.0
  0
LINE
  5
413
330
359
100
AcDbEntity
  8
0
 62
     0
100
AcDbLine
 10
16.03602015050006
 20
14.7683692165707
 30
0.0
 11
13.55047808566081
 21
17.25391128140995
 31
0.0
  0
LINE
  5
414
330
359
100
AcDbEntity
  8
0
 62
     0
100
AcDbLine
 10
15.67390090311829
 20
14.23246285184552
 30
0.0
 11
13.51457905336014
 21
16.39178470160368
 31
0.0
  0
LINE
  5
415
330
359
100
AcDbEntity
  8
0
 62
     0
100
AcDbLine
 10
15.20767453085142
 20
13.80066361200551
 30
0.0
 11
12.9507518600343
 21
16.05758628282268
 31
0.0
  0
LINE
  5
416
330
359
100
AcDbEntity
  8
0
 62
     0
100
AcDbLine
 10
14.63441008311861
 20
13.47590244763142
 30
0.0
 11
12.05272624792735
 21
16.05758628282262
 31
0.0
  0
LINE
  5
417
330
359
100
AcDbEntity
  8
0
 62
     0
100
AcDbLine
 10
13.92899749403267
 20
13.28328942461041
 30
0.0
 11
11.15470063582046
 21
16.05758628282262
 31
0.0
  0
LINE
  5
418
330
359
100
AcDbEntity
  8
0
 62
     0
100
AcDbLine
 10
13.05667502371363
 20
13.25758628282244
 30
0.0
 11
10.25667502371351
 21
16.05758628282262
 31
0.0
  0
LINE
  5
419
330
359
100
AcDbEntity
  8
0
 62
     0
100
AcDbLine
 10
12.15864941160669
 20
13.25758628282256
 30
0.0
 11
9.605325516788809
 21
15.81091017764049
 31
0.0
  0
LINE
  5
41A
330
359
100
AcDbEntity
  8
0
 62
     0
100
AcDbLine
 10
11.2606237994998
 20
13.25758628282256
 30
0.0
 11
9.525478085660836
 21
14.99273199666152
 31
0.0
  0
LINE
  5
41B
330
359
100
AcDbEntity
  8
0
 62
     0
100
AcDbLine
 10
10.36259818739285
 20
13.25758628282256
 30
0.0
 11
9.525478085660836
 21
14.09470638455457
 31
0.0
  0
LINE
  5
41C
330
359
100
AcDbEntity
  8
0
 62
     0
100
AcDbLine
 10
66.34216537032779
 20
13.27071805994012
 30
0.0
 11
66.73734630854358
 21
13.66589899815591
 31
0.0
  0
LINE
  5
41D
330
359
100
AcDbEntity
  8
0
 62
     0
100
AcDbLine
 10
65.43100798110334
 20
13.2575862828225
 30
0.0
 11
66.75047808566103
 21
14.57705638738019
 31
0.0
  0
LINE
  5
41E
330
359
100
AcDbEntity
  8
0
 62
     0
100
AcDbLine
 10
64.53298236899644
 20
13.2575862828225
 30
0.0
 11
66.75047808566103
 21
15.47508199948708
 31
0.0
  0
LINE
  5
41F
330
359
100
AcDbEntity
  8
0
 62
     0
100
AcDbLine
 10
63.9816756489127
 20
13.60430517484571
 30
0.0
 11
66.75047808566097
 21
16.37310761159404
 31
0.0
  0
LINE
  5
420
330
359
100
AcDbEntity
  8
0
 62
     0
100
AcDbLine
 10
63.9504780856609
 20
14.47113322370086
 30
0.0
 11
66.75047808566097
 21
17.27113322370087
 31
0.0
  0
LINE
  5
421
330
359
100
AcDbEntity
  8
0
 62
     0
100
AcDbLine
 10
63.95047808566096
 20
15.36915883580775
 30
0.0
 11
66.75047808566097
 21
18.16915883580782
 31
0.0
  0
LINE
  5
422
330
359
100
AcDbEntity
  8
0
 62
     0
100
AcDbLine
 10
63.9504780856609
 20
16.2671844479147
 30
0.0
 11
66.75047808566097
 21
19.06718444791477
 31
0.0
  0
LINE
  5
423
330
359
100
AcDbEntity
  8
0
 62
     0
100
AcDbLine
 10
63.9504780856609
 20
17.16521006002159
 30
0.0
 11
66.75047808566097
 21
19.96521006002166
 31
0.0
  0
LINE
  5
424
330
359
100
AcDbEntity
  8
0
 62
     0
100
AcDbLine
 10
60.37704294772618
 20
13.59177492208687
 30
0.0
 11
61.51628944639674
 21
14.73102142075748
 31
0.0
  0
LINE
  5
425
330
359
100
AcDbEntity
  8
0
 62
     0
100
AcDbLine
 10
63.9504780856609
 20
18.06323567212848
 30
0.0
 11
66.75047808566097
 21
20.86323567212855
 31
0.0
  0
LINE
  5
426
330
359
100
AcDbEntity
  8
0
 62
     0
100
AcDbLine
 10
59.14647478120338
 20
13.25923236767096
 30
0.0
 11
61.8488320008127
 21
15.96158958728023
 31
0.0
  0
LINE
  5
427
330
359
100
AcDbEntity
  8
0
 62
     0
100
AcDbLine
 10
63.9504780856609
 20
18.96126128423543
 30
0.0
 11
66.75047808566097
 21
21.76126128423545
 31
0.0
  0
LINE
  5
428
330
359
100
AcDbEntity
  8
0
 62
     0
100
AcDbLine
 10
58.24680308424797
 20
13.2575862828225
 30
0.0
 11
61.850478085661
 21
16.86126128423547
 31
0.0
  0
LINE
  5
429
330
359
100
AcDbEntity
  8
0
 62
     0
100
AcDbLine
 10
63.9504780856609
 20
19.85928689634232
 30
0.0
 11
66.75047808566091
 21
22.6592868963424
 31
0.0
  0
LINE
  5
42A
330
359
100
AcDbEntity
  8
0
 62
     0
100
AcDbLine
 10
57.34877747214108
 20
13.2575862828225
 30
0.0
 11
61.85047808566094
 21
17.75928689634241
 31
0.0
  0
LINE
  5
42B
330
359
100
AcDbEntity
  8
0
 62
     0
100
AcDbLine
 10
63.9504780856609
 20
20.75731250844922
 30
0.0
 11
66.75047808566097
 21
23.55731250844929
 31
0.0
  0
LINE
  5
42C
330
359
100
AcDbEntity
  8
0
 62
     0
100
AcDbLine
 10
56.45075186003424
 20
13.25758628282256
 30
0.0
 11
61.850478085661
 21
18.65731250844931
 31
0.0
  0
LINE
  5
42D
330
359
100
AcDbEntity
  8
0
 62
     0
100
AcDbLine
 10
58.94588688357988
 20
16.65074691847513
 30
0.0
 11
61.850478085661
 21
19.5553381205562
 31
0.0
  0
LINE
  5
42E
330
359
100
AcDbEntity
  8
0
 62
     0
100
AcDbLine
 10
63.9504780856609
 20
21.65533812055611
 30
0.0
 11
66.75047808566097
 21
24.45533812055618
 31
0.0
  0
LINE
  5
42F
330
359
100
AcDbEntity
  8
0
 62
     0
100
AcDbLine
 10
55.55272624792724
 20
13.2575862828225
 30
0.0
 11
58.45731745000836
 21
16.16217748490356
 31
0.0
  0
LINE
  5
430
330
359
100
AcDbEntity
  8
0
 62
     0
100
AcDbLine
 10
59.05047808566087
 20
17.65336373266308
 30
0.0
 11
61.85047808566094
 21
20.45336373266315
 31
0.0
  0
LINE
  5
431
330
359
100
AcDbEntity
  8
0
 62
     0
100
AcDbLine
 10
63.95047808566085
 20
22.55336373266306
 30
0.0
 11
66.75047808566091
 21
25.35336373266313
 31
0.0
  0
LINE
  5
432
330
359
100
AcDbEntity
  8
0
 62
     0
100
AcDbLine
 10
54.76665038719755
 20
13.36953603419971
 30
0.0
 11
57.45470063582041
 21
16.05758628282257
 31
0.0
  0
LINE
  5
433
330
359
100
AcDbEntity
  8
0
 62
     0
100
AcDbLine
 10
59.05047808566092
 20
18.55138934477009
 30
0.0
 11
61.85047808566094
 21
21.35138934477004
 31
0.0
  0
LINE
  5
434
330
359
100
AcDbEntity
  8
0
 62
     0
100
AcDbLine
 10
63.95047808566085
 20
23.45138934477001
 30
0.0
 11
66.75047808566091
 21
26.25138934477002
 31
0.0
  0
LINE
  5
435
330
359
100
AcDbEntity
  8
0
 62
     0
100
AcDbLine
 10
54.1386635199874
 20
13.63957477909656
 30
0.0
 11
56.55755280935784
 21
16.058464068467
 31
0.0
  0
LINE
  5
436
330
359
100
AcDbEntity
  8
0
 62
     0
100
AcDbLine
 10
59.05047808566099
 20
19.44941495687698
 30
0.0
 11
61.85047808566094
 21
22.24941495687693
 31
0.0
  0
LINE
  5
437
330
359
100
AcDbEntity
  8
0
 62
     0
100
AcDbLine
 10
63.9504780856609
 20
24.34941495687684
 30
0.0
 11
66.75047808566091
 21
27.14941495687691
 31
0.0
  0
LINE
  5
438
330
359
100
AcDbEntity
  8
0
 62
     0
100
AcDbLine
 10
53.62540363862234
 20
14.02434050983828
 30
0.0
 11
55.91407422064515
 21
16.31301109186114
 31
0.0
  0
LINE
  5
439
330
359
100
AcDbEntity
  8
0
 62
     0
100
AcDbLine
 10
59.05047808566099
 20
20.34744056898387
 30
0.0
 11
61.85047808566094
 21
23.14744056898388
 31
0.0
  0
LINE
  5
43A
330
359
100
AcDbEntity
  8
0
 62
     0
100
AcDbLine
 10
63.95047808566085
 20
25.24744056898379
 30
0.0
 11
66.75047808566091
 21
28.04744056898386
 31
0.0
  0
LINE
  5
43B
330
359
100
AcDbEntity
  8
0
 62
     0
100
AcDbLine
 10
53.21543946339722
 20
14.5124019467201
 30
0.0
 11
55.57683594223573
 21
16.87379842555867
 31
0.0
  0
LINE
  5
43C
330
359
100
AcDbEntity
  8
0
 62
     0
100
AcDbLine
 10
59.05047808566092
 20
21.24546618109082
 30
0.0
 11
61.850478085661
 21
24.04546618109089
 31
0.0
  0
LINE
  5
43D
330
359
100
AcDbEntity
  8
0
 62
     0
100
AcDbLine
 10
63.95047808566085
 20
26.14546618109069
 30
0.0
 11
66.74032893211045
 21
28.93531702754035
 31
0.0
  0
LINE
  5
43E
330
359
100
AcDbEntity
  8
0
 62
     0
100
AcDbLine
 10
52.91551458496321
 20
15.1105026803931
 30
0.0
 11
55.55047808566093
 21
17.74546618109076
 31
0.0
  0
LINE
  5
43F
330
359
100
AcDbEntity
  8
0
 62
     0
100
AcDbLine
 10
59.05047808566099
 20
22.14349179319766
 30
0.0
 11
61.85047808566105
 21
24.94349179319772
 31
0.0
  0
LINE
  5
440
330
359
100
AcDbEntity
  8
0
 62
     0
100
AcDbLine
 10
63.95047808566085
 20
27.04349179319758
 30
0.0
 11
66.26321458703097
 21
29.3562282945677
 31
0.0
  0
LINE
  5
441
330
359
100
AcDbEntity
  8
0
 62
     0
100
AcDbLine
 10
52.75810105000676
 20
15.85111475754348
 30
0.0
 11
55.55047808566093
 21
18.64349179319765
 31
0.0
  0
LINE
  5
442
330
359
100
AcDbEntity
  8
0
 62
     0
100
AcDbLine
 10
59.05047808566092
 20
23.04151740530461
 30
0.0
 11
61.850478085661
 21
25.84151740530467
 31
0.0
  0
LINE
  5
443
330
359
100
AcDbEntity
  8
0
 62
     0
100
AcDbLine
 10
63.9504780856609
 20
27.94151740530458
 30
0.0
 11
65.3665469631789
 21
29.35758628282258
 31
0.0
  0
LINE
  5
444
330
359
100
AcDbEntity
  8
0
 62
     0
100
AcDbLine
 10
52.75047808566097
 20
16.74151740530459
 30
0.0
 11
55.55047808566098
 21
19.54151740530466
 31
0.0
  0
LINE
  5
445
330
359
100
AcDbEntity
  8
0
 62
     0
100
AcDbLine
 10
59.05047808566092
 20
23.93954301741155
 30
0.0
 11
61.850478085661
 21
26.73954301741157
 31
0.0
  0
LINE
  5
446
330
359
100
AcDbEntity
  8
0
 62
     0
100
AcDbLine
 10
52.75047808566092
 20
17.63954301741154
 30
0.0
 11
55.55047808566098
 21
20.43954301741161
 31
0.0
  0
LINE
  5
447
330
359
100
AcDbEntity
  8
0
 62
     0
100
AcDbLine
 10
63.95052480040835
 20
28.83958973215897
 30
0.0
 11
64.46847463632463
 21
29.3575395680752
 31
0.0
  0
LINE
  5
448
330
359
100
AcDbEntity
  8
0
 62
     0
100
AcDbLine
 10
48.42892245494891
 20
13.31798738669948
 30
0.0
 11
50.59007698178408
 21
15.4791419135347
 31
0.0
  0
LINE
  5
449
330
359
100
AcDbEntity
  8
0
 62
     0
100
AcDbLine
 10
52.75047808566092
 20
18.53756862951843
 30
0.0
 11
55.55047808566098
 21
21.3375686295185
 31
0.0
  0
LINE
  5
44A
330
359
100
AcDbEntity
  8
0
 62
     0
100
AcDbLine
 10
59.05047808566092
 20
24.83756862951845
 30
0.0
 11
61.85047808566094
 21
27.63756862951851
 31
0.0
  0
LINE
  5
44B
330
359
100
AcDbEntity
  8
0
 62
     0
100
AcDbLine
 10
47.47049573896504
 20
13.25758628282261
 30
0.0
 11
50.65047808566089
 21
16.43756862951846
 31
0.0
  0
LINE
  5
44C
330
359
100
AcDbEntity
  8
0
 62
     0
100
AcDbLine
 10
52.75047808566092
 20
19.43559424162532
 30
0.0
 11
55.55047808566098
 21
22.23559424162539
 31
0.0
  0
LINE
  5
44D
330
359
100
AcDbEntity
  8
0
 62
     0
100
AcDbLine
 10
59.05047808566092
 20
25.73559424162534
 30
0.0
 11
61.850478085661
 21
28.5355942416254
 31
0.0
  0
LINE
  5
44E
330
359
100
AcDbEntity
  8
0
 62
     0
100
AcDbLine
 10
46.57247012685814
 20
13.25758628282256
 30
0.0
 11
50.65047808566095
 21
17.3355942416253
 31
0.0
  0
LINE
  5
44F
330
359
100
AcDbEntity
  8
0
 62
     0
100
AcDbLine
 10
52.75047808566092
 20
20.33361985373227
 30
0.0
 11
55.55047808566098
 21
23.13361985373228
 31
0.0
  0
LINE
  5
450
330
359
100
AcDbEntity
  8
0
 62
     0
100
AcDbLine
 10
59.05047808566092
 20
26.63361985373223
 30
0.0
 11
61.65674063082684
 21
29.23988239889821
 31
0.0
  0
LINE
  5
451
330
359
100
AcDbEntity
  8
0
 62
     0
100
AcDbLine
 10
45.67444451475125
 20
13.25758628282261
 30
0.0
 11
50.63615948524807
 21
18.21930125331937
 31
0.0
  0
LINE
  5
452
330
359
100
AcDbEntity
  8
0
 62
     0
100
AcDbLine
 10
52.75047808566092
 20
21.23164546583916
 30
0.0
 11
55.55047808566093
 21
24.03164546583923
 31
0.0
  0
LINE
  5
453
330
359
100
AcDbEntity
  8
0
 62
     0
100
AcDbLine
 10
59.05047808566087
 20
27.53164546583918
 30
0.0
 11
60.87641890264433
 21
29.35758628282264
 31
0.0
  0
LINE
  5
454
330
359
100
AcDbEntity
  8
0
 62
     0
100
AcDbLine
 10
44.77641890264431
 20
13.25758628282261
 30
0.0
 11
50.50124711461927
 21
18.98241449479758
 31
0.0
  0
LINE
  5
455
330
359
100
AcDbEntity
  8
0
 62
     0
100
AcDbLine
 10
52.75047808566092
 20
22.12967107794606
 30
0.0
 11
55.55047808566098
 21
24.92967107794612
 31
0.0
  0
LINE
  5
456
330
359
100
AcDbEntity
  8
0
 62
     0
100
AcDbLine
 10
47.85047808566105
 20
17.22967107794613
 30
0.0
 11
50.26065965770072
 21
19.63985264998587
 31
0.0
  0
LINE
  5
457
330
359
100
AcDbEntity
  8
0
 62
     0
100
AcDbLine
 10
59.05047808566092
 20
28.42967107794607
 30
0.0
 11
59.9783932905375
 21
29.35758628282264
 31
0.0
  0
LINE
  5
458
330
359
100
AcDbEntity
  8
0
 62
     0
100
AcDbLine
 10
44.00664864366854
 20
13.38584163595368
 30
0.0
 11
46.67839329053743
 21
16.05758628282257
 31
0.0
  0
LINE
  5
459
330
359
100
AcDbEntity
  8
0
 62
     0
100
AcDbLine
 10
47.83060751053364
 20
18.10782611492567
 30
0.0
 11
49.93716035284013
 21
20.21437895723216
 31
0.0
  0
LINE
  5
45A
330
359
100
AcDbEntity
  8
0
 62
     0
100
AcDbLine
 10
52.75047808566092
 20
23.02769669005295
 30
0.0
 11
55.55047808566093
 21
25.82769669005302
 31
0.0
  0
LINE
  5
45B
330
359
100
AcDbEntity
  8
0
 62
     0
100
AcDbLine
 10
43.82547808566096
 20
14.10269669005299
 30
0.0
 11
45.78036767843047
 21
16.05758628282257
 31
0.0
  0
LINE
  5
45C
330
359
100
AcDbEntity
  8
0
 62
     0
100
AcDbLine
 10
47.55622267339475
 20
18.73146688989379
 30
0.0
 11
49.54128923491231
 21
20.71653345141135
 31
0.0
  0
LINE
  5
45D
330
359
100
AcDbEntity
  8
0
 62
     0
100
AcDbLine
 10
52.75047808566085
 20
23.9257223021599
 30
0.0
 11
55.55047808566093
 21
26.72572230215997
 31
0.0
  0
LINE
  5
45E
330
359
100
AcDbEntity
  8
0
 62
     0
100
AcDbLine
 10
43.8254780856609
 20
15.00072230215994
 30
0.0
 11
44.88234206632358
 21
16.05758628282262
 31
0.0
  0
LINE
  5
45F
330
359
100
AcDbEntity
  8
0
 62
     0
100
AcDbLine
 10
52.75047808566092
 20
24.82374791426679
 30
0.0
 11
55.55047808566098
 21
27.6237479142668
 31
0.0
  0
LINE
  5
460
330
359
100
AcDbEntity
  8
0
 62
     0
100
AcDbLine
 10
47.11494777627769
 20
19.1882176048835
 30
0.0
 11
49.09484676360006
 21
21.16811659220593
 31
0.0
  0
LINE
  5
461
330
359
100
AcDbEntity
  8
0
 62
     0
100
AcDbLine
 10
46.66593497022421
 20
19.63723041093698
 30
0.0
 11
48.64583395754658
 21
21.61712939825941
 31
0.0
  0
LINE
  5
462
330
359
100
AcDbEntity
  8
0
 62
     0
100
AcDbLine
 10
52.75047808566085
 20
25.72177352637368
 30
0.0
 11
55.55047808566093
 21
28.52177352637375
 31
0.0
  0
LINE
  5
463
330
359
100
AcDbEntity
  8
0
 62
     0
100
AcDbLine
 10
40.28629084210973
 20
13.25758628282256
 30
0.0
 11
41.2004780856609
 21
14.17177352637367
 31
0.0
  0
LINE
  5
464
330
359
100
AcDbEntity
  8
0
 62
     0
100
AcDbLine
 10
46.21692216417073
 20
20.08624321699045
 30
0.0
 11
48.19682115149311
 21
22.06614220431288
 31
0.0
  0
LINE
  5
465
330
359
100
AcDbEntity
  8
0
 62
     0
100
AcDbLine
 10
52.75047808566085
 20
26.61979913848063
 30
0.0
 11
55.36429717756226
 21
29.23361823038198
 31
0.0
  0
LINE
  5
466
330
359
100
AcDbEntity
  8
0
 62
     0
100
AcDbLine
 10
39.38826523000279
 20
13.25758628282256
 30
0.0
 11
41.20047808566096
 21
15.06979913848067
 31
0.0
  0
LINE
  5
467
330
359
100
AcDbEntity
  8
0
 62
     0
100
AcDbLine
 10
45.76790935811726
 20
20.53525602304393
 30
0.0
 11
47.74780834543963
 21
22.51515501036636
 31
0.0
  0
LINE
  5
468
330
359
100
AcDbEntity
  8
0
 62
     0
100
AcDbLine
 10
52.75047808566085
 20
27.51782475058752
 30
0.0
 11
54.59023961789597
 21
29.3575862828227
 31
0.0
  0
LINE
  5
469
330
359
100
AcDbEntity
  8
0
 62
     0
100
AcDbLine
 10
38.60185075575788
 20
13.36919742068454
 30
0.0
 11
41.2004780856609
 21
15.96782475058762
 31
0.0
  0
LINE
  5
46A
330
359
100
AcDbEntity
  8
0
 62
     0
100
AcDbLine
 10
45.31889655206384
 20
20.98426882909735
 30
0.0
 11
47.29879553938622
 21
22.96416781641978
 31
0.0
  0
LINE
  5
46B
330
359
100
AcDbEntity
  8
0
 62
     0
100
AcDbLine
 10
52.75047808566085
 20
28.41585036269441
 30
0.0
 11
53.69221400578914
 21
29.35758628282264
 31
0.0
  0
LINE
  5
46C
330
359
100
AcDbEntity
  8
0
 62
     0
100
AcDbLine
 10
38.40047808566095
 20
14.0658503626945
 30
0.0
 11
41.20047808566096
 21
16.86585036269446
 31
0.0
  0
LINE
  5
46D
330
359
100
AcDbEntity
  8
0
 62
     0
100
AcDbLine
 10
44.86988374601037
 20
21.43328163515082
 30
0.0
 11
46.84978273333274
 21
23.41318062247325
 31
0.0
  0
LINE
  5
46E
330
359
100
AcDbEntity
  8
0
 62
     0
100
AcDbLine
 10
38.40047808566095
 20
14.96387597480145
 30
0.0
 11
41.2004780856609
 21
17.76387597480141
 31
0.0
  0
LINE
  5
46F
330
359
100
AcDbEntity
  8
0
 62
     0
100
AcDbLine
 10
44.42289984496904
 20
21.88432334621649
 30
0.0
 11
46.40687337835106
 21
23.86829687959846
 31
0.0
  0
LINE
  5
470
330
359
100
AcDbEntity
  8
0
 62
     0
100
AcDbLine
 10
38.40047808566095
 20
15.86190158690834
 30
0.0
 11
41.2004780856609
 21
18.66190158690836
 31
0.0
  0
LINE
  5
471
330
359
100
AcDbEntity
  8
0
 62
     0
100
AcDbLine
 10
49.09616278157511
 20
26.55758628282257
 30
0.0
 11
50.12547808566097
 21
27.58690158690837
 31
0.0
  0
LINE
  5
472
330
359
100
AcDbEntity
  8
0
 62
     0
100
AcDbLine
 10
35.90782186095072
 20
13.36924536219811
 30
0.0
 11
35.99747422240574
 21
13.45889772365319
 31
0.0
  0
LINE
  5
473
330
359
100
AcDbEntity
  8
0
 62
     0
100
AcDbLine
 10
44.02489766614706
 20
22.38434677950136
 30
0.0
 11
46.12453194356567
 21
24.48398105691996
 31
0.0
  0
LINE
  5
474
330
359
100
AcDbEntity
  8
0
 62
     0
100
AcDbLine
 10
38.40047808566095
 20
16.75992719901524
 30
0.0
 11
41.20047808566096
 21
19.55992719901519
 31
0.0
  0
LINE
  5
475
330
359
100
AcDbEntity
  8
0
 62
     0
100
AcDbLine
 10
48.19813716946834
 20
26.55758628282263
 30
0.0
 11
50.12547808566097
 21
28.48492719901526
 31
0.0
  0
LINE
  5
476
330
359
100
AcDbEntity
  8
0
 62
     0
100
AcDbLine
 10
34.89813716946827
 20
13.25758628282256
 30
0.0
 11
35.9639162657748
 21
14.32336537912908
 31
0.0
  0
LINE
  5
477
330
359
100
AcDbEntity
  8
0
 62
     0
100
AcDbLine
 10
43.69906340175037
 20
22.95653812721162
 30
0.0
 11
46.10047808566105
 21
25.35795281112229
 31
0.0
  0
LINE
  5
478
330
359
100
AcDbEntity
  8
0
 62
     0
100
AcDbLine
 10
38.40047808566095
 20
17.65795281112213
 30
0.0
 11
41.2004780856609
 21
20.45795281112214
 31
0.0
  0
LINE
  5
479
330
359
100
AcDbEntity
  8
0
 62
     0
100
AcDbLine
 10
47.30011155736133
 20
26.55758628282257
 30
0.0
 11
49.95880915386305
 21
29.21628387932429
 31
0.0
  0
LINE
  5
47A
330
359
100
AcDbEntity
  8
0
 62
     0
100
AcDbLine
 10
34.00011155736127
 20
13.2575862828225
 30
0.0
 11
35.74839011886911
 21
15.00586484433035
 31
0.0
  0
LINE
  5
47B
330
359
100
AcDbEntity
  8
0
 62
     0
100
AcDbLine
 10
38.40047808566089
 20
18.55597842322907
 30
0.0
 11
41.2004780856609
 21
21.35597842322903
 31
0.0
  0
LINE
  5
47C
330
359
100
AcDbEntity
  8
0
 62
     0
100
AcDbLine
 10
43.45568133908028
 20
23.61118167664847
 30
0.0
 11
49.20208594525445
 21
29.35758628282264
 31
0.0
  0
LINE
  5
47D
330
359
100
AcDbEntity
  8
0
 62
     0
100
AcDbLine
 10
33.40809724670629
 20
13.56359758427447
 30
0.0
 11
35.53286397196342
 21
15.68836430953161
 31
0.0
  0
LINE
  5
47E
330
359
100
AcDbEntity
  8
0
 62
     0
100
AcDbLine
 10
38.40047808566089
 20
19.45400403533603
 30
0.0
 11
41.20047808566084
 21
22.25400403533598
 31
0.0
  0
LINE
  5
47F
330
359
100
AcDbEntity
  8
0
 62
     0
100
AcDbLine
 10
43.31697447999459
 20
24.37050042966973
 30
0.0
 11
48.30406033314756
 21
29.35758628282264
 31
0.0
  0
LINE
  5
480
330
359
100
AcDbEntity
  8
0
 62
     0
100
AcDbLine
 10
33.18933782505769
 20
14.24286377473282
 30
0.0
 11
35.31733782505773
 21
16.37086377473287
 31
0.0
  0
LINE
  5
481
330
359
100
AcDbEntity
  8
0
 62
     0
100
AcDbLine
 10
38.40047808566095
 20
20.35202964744286
 30
0.0
 11
41.2004780856609
 21
23.15202964744287
 31
0.0
  0
LINE
  5
482
330
359
100
AcDbEntity
  8
0
 62
     0
100
AcDbLine
 10
43.30047808566092
 20
25.25202964744284
 30
0.0
 11
47.40603472104067
 21
29.35758628282264
 31
0.0
  0
LINE
  5
483
330
359
100
AcDbEntity
  8
0
 62
     0
100
AcDbLine
 10
32.97381167815206
 20
14.92536323993403
 30
0.0
 11
35.10181167815216
 21
17.05336323993407
 31
0.0
  0
LINE
  5
484
330
359
100
AcDbEntity
  8
0
 62
     0
100
AcDbLine
 10
38.40047808566089
 20
21.25005525954981
 30
0.0
 11
41.2004780856609
 21
24.05005525954976
 31
0.0
  0
LINE
  5
485
330
359
100
AcDbEntity
  8
0
 62
     0
100
AcDbLine
 10
43.30047808566098
 20
26.15005525954984
 30
0.0
 11
46.50800910893377
 21
29.35758628282264
 31
0.0
  0
LINE
  5
486
330
359
100
AcDbEntity
  8
0
 62
     0
100
AcDbLine
 10
32.75828553124632
 20
15.60786270513523
 30
0.0
 11
34.88628553124653
 21
17.73586270513544
 31
0.0
  0
LINE
  5
487
330
359
100
AcDbEntity
  8
0
 62
     0
100
AcDbLine
 10
38.40047808566089
 20
22.1480808716567
 30
0.0
 11
41.20047808566096
 21
24.94808087165677
 31
0.0
  0
LINE
  5
488
330
359
100
AcDbEntity
  8
0
 62
     0
100
AcDbLine
 10
32.54275938434068
 20
16.29036217033655
 30
0.0
 11
34.67075938434078
 21
18.41836217033659
 31
0.0
  0
LINE
  5
489
330
359
100
AcDbEntity
  8
0
 62
     0
100
AcDbLine
 10
43.35379475578213
 20
27.101397541778
 30
0.0
 11
45.55666682670545
 21
29.30426961270132
 31
0.0
  0
LINE
  5
48A
330
359
100
AcDbEntity
  8
0
 62
     0
100
AcDbLine
 10
29.50998349682669
 20
13.25758628282256
 30
0.0
 11
30.35047808566088
 21
14.09808087165675
 31
0.0
  0
LINE
  5
48B
330
359
100
AcDbEntity
  8
0
 62
     0
100
AcDbLine
 10
32.32723323743511
 20
16.97286163553775
 30
0.0
 11
34.45523323743515
 21
19.10086163553785
 31
0.0
  0
LINE
  5
48C
330
359
100
AcDbEntity
  8
0
 62
     0
100
AcDbLine
 10
38.40047808566089
 20
23.04610648376359
 30
0.0
 11
41.20047808566096
 21
25.84610648376366
 31
0.0
  0
LINE
  5
48D
330
359
100
AcDbEntity
  8
0
 62
     0
100
AcDbLine
 10
28.61195788471986
 20
13.2575862828225
 30
0.0
 11
30.35047808566094
 21
14.99610648376364
 31
0.0
  0
LINE
  5
48E
330
359
100
AcDbEntity
  8
0
 62
     0
100
AcDbLine
 10
32.11170709052942
 20
17.65536110073901
 30
0.0
 11
34.23970709052947
 21
19.78336110073911
 31
0.0
  0
LINE
  5
48F
330
359
100
AcDbEntity
  8
0
 62
     0
100
AcDbLine
 10
38.40047808566089
 20
23.94413209587054
 30
0.0
 11
41.20047808566096
 21
26.74413209587056
 31
0.0
  0
LINE
  5
490
330
359
100
AcDbEntity
  8
0
 62
     0
100
AcDbLine
 10
27.7950820202642
 20
13.33873603047385
 30
0.0
 11
30.35047808566094
 21
15.89413209587053
 31
0.0
  0
LINE
  5
491
330
359
100
AcDbEntity
  8
0
 62
     0
100
AcDbLine
 10
31.89618094362373
 20
18.33786056594027
 30
0.0
 11
34.02418094362378
 21
20.46586056594037
 31
0.0
  0
LINE
  5
492
330
359
100
AcDbEntity
  8
0
 62
     0
100
AcDbLine
 10
38.40047808566089
 20
24.84215770797744
 30
0.0
 11
41.2004780856609
 21
27.64215770797751
 31
0.0
  0
LINE
  5
493
330
359
100
AcDbEntity
  8
0
 62
     0
100
AcDbLine
 10
27.55047808566093
 20
13.99215770797747
 30
0.0
 11
30.350478085661
 21
16.79215770797753
 31
0.0
  0
LINE
  5
494
330
359
100
AcDbEntity
  8
0
 62
     0
100
AcDbLine
 10
31.6806547967181
 20
19.02036003114148
 30
0.0
 11
33.80865479671826
 21
21.14836003114163
 31
0.0
  0
LINE
  5
495
330
359
100
AcDbEntity
  8
0
 62
     0
100
AcDbLine
 10
38.40047808566089
 20
25.74018332008433
 30
0.0
 11
41.20047808566096
 21
28.5401833200844
 31
0.0
  0
LINE
  5
496
330
359
100
AcDbEntity
  8
0
 62
     0
100
AcDbLine
 10
27.55047808566093
 20
14.89018332008436
 30
0.0
 11
30.350478085661
 21
17.69018332008443
 31
0.0
  0
LINE
  5
497
330
359
100
AcDbEntity
  8
0
 62
     0
100
AcDbLine
 10
31.44585600974636
 20
19.68358685627675
 30
0.0
 11
34.07615007767737
 21
22.3138809242077
 31
0.0
  0
LINE
  5
498
330
359
100
AcDbEntity
  8
0
 62
     0
100
AcDbLine
 10
38.40047808566095
 20
26.63820893219134
 30
0.0
 11
41.00420266316251
 21
29.24193350969284
 31
0.0
  0
LINE
  5
499
330
359
100
AcDbEntity
  8
0
 62
     0
100
AcDbLine
 10
27.55047808566093
 20
15.78820893219131
 30
0.0
 11
30.350478085661
 21
18.58820893219132
 31
0.0
  0
LINE
  5
49A
330
359
100
AcDbEntity
  8
0
 62
     0
100
AcDbLine
 10
30.75867063987897
 20
19.8944270985163
 30
0.0
 11
34.49062343711125
 21
23.62637989574858
 31
0.0
  0
LINE
  5
49B
330
359
100
AcDbEntity
  8
0
 62
     0
100
AcDbLine
 10
27.55047808566093
 20
16.6862345442982
 30
0.0
 11
30.36363726996723
 21
19.4993937286045
 31
0.0
  0
LINE
  5
49C
330
359
100
AcDbEntity
  8
0
 62
     0
100
AcDbLine
 10
38.40047808566095
 20
27.53623454429823
 30
0.0
 11
40.2218298241853
 21
29.35758628282264
 31
0.0
  0
LINE
  5
49D
330
359
100
AcDbEntity
  8
0
 62
     0
100
AcDbLine
 10
24.12182982418528
 20
13.25758628282256
 30
0.0
 11
25.10047808566094
 21
14.23623454429827
 31
0.0
  0
LINE
  5
49E
330
359
100
AcDbEntity
  8
0
 62
     0
100
AcDbLine
 10
27.55047808566087
 20
17.58426015640515
 30
0.0
 11
34.9050967965452
 21
24.93887886728948
 31
0.0
  0
LINE
  5
49F
330
359
100
AcDbEntity
  8
0
 62
     0
100
AcDbLine
 10
38.40047808566089
 20
28.43426015640517
 30
0.0
 11
39.3238042120783
 21
29.35758628282258
 31
0.0
  0
LINE
  5
4A0
330
359
100
AcDbEntity
  8
0
 62
     0
100
AcDbLine
 10
23.22380421207833
 20
13.25758628282261
 30
0.0
 11
25.10047808566099
 21
15.13426015640527
 31
0.0
  0
LINE
  5
4A1
330
359
100
AcDbEntity
  8
0
 62
     0
100
AcDbLine
 10
27.55047808566093
 20
18.48228576851198
 30
0.0
 11
35.31957015597931
 21
26.25137783883042
 31
0.0
  0
LINE
  5
4A2
330
359
100
AcDbEntity
  8
0
 62
     0
100
AcDbLine
 10
22.33745922432155
 20
13.26926690717266
 30
0.0
 11
24.95914380205477
 21
15.89095148490583
 31
0.0
  0
LINE
  5
4A3
330
359
100
AcDbEntity
  8
0
 62
     0
100
AcDbLine
 10
27.55047808566087
 20
19.38031138061893
 30
0.0
 11
30.87775298786454
 21
22.7075862828226
 31
0.0
  0
LINE
  5
4A4
330
359
100
AcDbEntity
  8
0
 62
     0
100
AcDbLine
 10
31.64173582310542
 20
23.47156911806349
 30
0.0
 11
35.73404351541325
 21
27.56387681037131
 31
0.0
  0
LINE
  5
4A5
330
359
100
AcDbEntity
  8
0
 62
     0
100
AcDbLine
 10
21.56929870687458
 20
13.39913200183258
 30
0.0
 11
24.22775298786451
 21
16.05758628282257
 31
0.0
  0
LINE
  5
4A6
330
359
100
AcDbEntity
  8
0
 62
     0
100
AcDbLine
 10
27.55047808566087
 20
20.27833699272588
 30
0.0
 11
30.3684686563692
 21
23.09632756343416
 31
0.0
  0
LINE
  5
4A7
330
359
100
AcDbEntity
  8
0
 62
     0
100
AcDbLine
 10
32.05620918253937
 20
24.78406808960432
 30
0.0
 11
36.10911496721457
 21
28.83697387427958
 31
0.0
  0
LINE
  5
4A8
330
359
100
AcDbEntity
  8
0
 62
     0
100
AcDbLine
 10
20.90816445004816
 20
13.63602335711317
 30
0.0
 11
23.32972737575762
 21
16.05758628282257
 31
0.0
  0
LINE
  5
4A9
330
359
100
AcDbEntity
  8
0
 62
     0
100
AcDbLine
 10
27.55047808566093
 20
21.17636260483272
 30
0.0
 11
30.35047808566094
 21
23.97636260483279
 31
0.0
  0
LINE
  5
4AA
330
359
100
AcDbEntity
  8
0
 62
     0
100
AcDbLine
 10
32.4706825419733
 20
26.09656706114515
 30
0.0
 11
35.71510309464537
 21
29.34098761381722
 31
0.0
  0
LINE
  5
4AB
330
359
100
AcDbEntity
  8
0
 62
     0
100
AcDbLine
 10
20.33056116588387
 20
13.95644568505565
 30
0.0
 11
22.44662302437672
 21
16.07250754354857
 31
0.0
  0
LINE
  5
4AC
330
359
100
AcDbEntity
  8
0
 62
     0
100
AcDbLine
 10
27.55047808566087
 20
22.07438821693967
 30
0.0
 11
30.35047808566094
 21
24.87438821693974
 31
0.0
  0
LINE
  5
4AD
330
359
100
AcDbEntity
  8
0
 62
     0
100
AcDbLine
 10
32.88515590140725
 20
27.40906603268598
 30
0.0
 11
34.83367615154378
 21
29.35758628282258
 31
0.0
  0
LINE
  5
4AE
330
359
100
AcDbEntity
  8
0
 62
     0
100
AcDbLine
 10
19.8256061995018
 20
14.34951633078054
 30
0.0
 11
21.81230688335842
 21
16.33621701463716
 31
0.0
  0
LINE
  5
4AF
330
359
100
AcDbEntity
  8
0
 62
     0
100
AcDbLine
 10
27.55047808566087
 20
22.97241382904656
 30
0.0
 11
30.35047808566094
 21
25.77241382904663
 31
0.0
  0
LINE
  5
4B0
330
359
100
AcDbEntity
  8
0
 62
     0
100
AcDbLine
 10
24.21211221743738
 20
19.63404796082312
 30
0.0
 11
25.37401640766046
 21
20.79595215104621
 31
0.0
  0
LINE
  5
4B1
330
359
100
AcDbEntity
  8
0
 62
     0
100
AcDbLine
 10
33.29962926084113
 20
28.72156500422688
 30
0.0
 11
33.93565053943684
 21
29.35758628282258
 31
0.0
  0
LINE
  5
4B2
330
359
100
AcDbEntity
  8
0
 62
     0
100
AcDbLine
 10
19.38916912617196
 20
14.81110486955771
 30
0.0
 11
21.40205593208623
 21
16.82399167547197
 31
0.0
  0
LINE
  5
4B3
330
359
100
AcDbEntity
  8
0
 62
     0
100
AcDbLine
 10
23.28713937580756
 20
19.60710073130025
 30
0.0
 11
25.40096363718334
 21
21.72092499267598
 31
0.0
  0
LINE
  5
4B4
330
359
100
AcDbEntity
  8
0
 62
     0
100
AcDbLine
 10
27.55047808566093
 20
23.87043944115356
 30
0.0
 11
30.350478085661
 21
26.67043944115363
 31
0.0
  0
LINE
  5
4B5
330
359
100
AcDbEntity
  8
0
 62
     0
100
AcDbLine
 10
19.022149901229
 20
15.34211125672164
 30
0.0
 11
21.25047808566092
 21
17.57043944115361
 31
0.0
  0
LINE
  5
4B6
330
359
100
AcDbEntity
  8
0
 62
     0
100
AcDbLine
 10
22.67299280638736
 20
19.89097977398683
 30
0.0
 11
25.1170845944967
 21
22.33507156209623
 31
0.0
  0
LINE
  5
4B7
330
359
100
AcDbEntity
  8
0
 62
     0
100
AcDbLine
 10
27.55047808566093
 20
24.76846505326046
 30
0.0
 11
30.350478085661
 21
27.56846505326052
 31
0.0
  0
LINE
  5
4B8
330
359
100
AcDbEntity
  8
0
 62
     0
100
AcDbLine
 10
18.73083239130426
 20
15.94881935890379
 30
0.0
 11
21.25047808566092
 21
18.46846505326044
 31
0.0
  0
LINE
  5
4B9
330
359
100
AcDbEntity
  8
0
 62
     0
100
AcDbLine
 10
22.23503287939764
 20
20.35104545910412
 30
0.0
 11
24.65701890937948
 21
22.7730314890859
 31
0.0
  0
LINE
  5
4BA
330
359
100
AcDbEntity
  8
0
 62
     0
100
AcDbLine
 10
27.55047808566093
 20
25.6664906653674
 30
0.0
 11
30.350478085661
 21
28.46649066536742
 31
0.0
  0
LINE
  5
4BB
330
359
100
AcDbEntity
  8
0
 62
     0
100
AcDbLine
 10
18.5296950271296
 20
16.64570760683608
 30
0.0
 11
21.25047808566092
 21
19.36649066536739
 31
0.0
  0
LINE
  5
4BC
330
359
100
AcDbEntity
  8
0
 62
     0
100
AcDbLine
 10
21.97898214698927
 20
20.99302033880264
 30
0.0
 11
24.0150440296809
 21
23.02908222149432
 31
0.0
  0
LINE
  5
4BD
330
359
100
AcDbEntity
  8
0
 62
     0
100
AcDbLine
 10
18.45047808566085
 20
17.46451627747427
 30
0.0
 11
21.25047808566092
 21
20.26451627747428
 31
0.0
  0
LINE
  5
4BE
330
359
100
AcDbEntity
  8
0
 62
     0
100
AcDbLine
 10
27.55047808566093
 20
26.5645162774743
 30
0.0
 11
30.19322797730581
 21
29.20726616911924
 31
0.0
  0
LINE
  5
4BF
330
359
100
AcDbEntity
  8
0
 62
     0
100
AcDbLine
 10
14.36448132778525
 20
13.37851951959868
 30
0.0
 11
16.22954484888498
 21
15.24358304069841
 31
0.0
  0
LINE
  5
4C0
330
359
100
AcDbEntity
  8
0
 62
     0
100
AcDbLine
 10
22.09739523047006
 20
22.00945903439032
 30
0.0
 11
22.99860533409327
 21
22.91066913801353
 31
0.0
  0
LINE
  5
4C1
330
359
100
AcDbEntity
  8
0
 62
     0
100
AcDbLine
 10
18.45047808566085
 20
18.36254188958111
 30
0.0
 11
21.25047808566092
 21
21.16254188958118
 31
0.0
  0
LINE
  5
4C2
330
359
100
AcDbEntity
  8
0
 62
     0
100
AcDbLine
 10
27.55047808566093
 20
27.46254188958119
 30
0.0
 11
29.44552247890232
 21
29.35758628282258
 31
0.0
  0
LINE
  5
4C3
330
359
100
AcDbEntity
  8
0
 62
     0
100
AcDbLine
 10
13.34552247890229
 20
13.25758628282256
 30
0.0
 11
16.35047808566105
 21
16.26254188958126
 31
0.0
  0
LINE
  5
4C4
330
359
100
AcDbEntity
  8
0
 62
     0
100
AcDbLine
 10
18.45047808566085
 20
19.26056750168806
 30
0.0
 11
21.25047808566092
 21
22.06056750168813
 31
0.0
  0
LINE
  5
4C5
330
359
100
AcDbEntity
  8
0
 62
     0
100
AcDbLine
 10
27.55047808566093
 20
28.36056750168808
 30
0.0
 11
28.54749686679543
 21
29.35758628282264
 31
0.0
  0
LINE
  5
4C6
330
359
100
AcDbEntity
  8
0
 62
     0
100
AcDbLine
 10
12.44749686679529
 20
13.2575862828225
 30
0.0
 11
16.35047808566099
 21
17.1605675016882
 31
0.0
  0
LINE
  5
4C7
330
359
100
AcDbEntity
  8
0
 62
     0
100
AcDbLine
 10
18.45047808566085
 20
20.15859311379495
 30
0.0
 11
21.25047808566086
 21
22.95859311379502
 31
0.0
  0
LINE
  5
4C8
330
359
100
AcDbEntity
  8
0
 62
     0
100
AcDbLine
 10
11.54947125468845
 20
13.25758628282261
 30
0.0
 11
16.34653873309975
 21
18.05465376123391
 31
0.0
  0
LINE
  5
4C9
330
359
100
AcDbEntity
  8
0
 62
     0
100
AcDbLine
 10
18.45047808566085
 20
21.0566187259019
 30
0.0
 11
21.25047808566092
 21
23.85661872590197
 31
0.0
  0
LINE
  5
4CA
330
359
100
AcDbEntity
  8
0
 62
     0
100
AcDbLine
 10
23.95144564258163
 20
26.55758628282268
 30
0.0
 11
25.10047808566105
 21
27.7066187259021
 31
0.0
  0
LINE
  5
4CB
330
359
100
AcDbEntity
  8
0
 62
     0
100
AcDbLine
 10
10.6514456425815
 20
13.25758628282256
 30
0.0
 11
16.23687689677842
 21
18.84301753701947
 31
0.0
  0
LINE
  5
4CC
330
359
100
AcDbEntity
  8
0
 62
     0
100
AcDbLine
 10
18.45047808566085
 20
21.95464433800879
 30
0.0
 11
21.25047808566092
 21
24.7546443380088
 31
0.0
  0
LINE
  5
4CD
330
359
100
AcDbEntity
  8
0
 62
     0
100
AcDbLine
 10
13.55047808566093
 20
17.05464433800887
 30
0.0
 11
16.0145381527343
 21
19.51870440508225
 31
0.0
  0
LINE
  5
4CE
330
359
100
AcDbEntity
  8
0
 62
     0
100
AcDbLine
 10
23.05342003047463
 20
26.55758628282257
 30
0.0
 11
25.10047808566105
 21
28.60464433800894
 31
0.0
  0
LINE
  5
4CF
330
359
100
AcDbEntity
  8
0
 62
     0
100
AcDbLine
 10
9.811145905734576
 20
13.31531215808252
 30
0.0
 11
12.55342003047462
 21
16.05758628282257
 31
0.0
  0
LINE
  5
4D0
330
359
100
AcDbEntity
  8
0
 62
     0
100
AcDbLine
 10
18.45047808566079
 20
22.85266995011568
 30
0.0
 11
21.41629279144058
 21
25.81848465589548
 31
0.0
  0
LINE
  5
4D1
330
359
100
AcDbEntity
  8
0
 62
     0
100
AcDbLine
 10
13.54831899405167
 20
17.9505108585065
 30
0.0
 11
15.70610661806228
 21
20.10829848251717
 31
0.0
  0
LINE
  5
4D2
330
359
100
AcDbEntity
  8
0
 62
     0
100
AcDbLine
 10
21.98957971258812
 20
26.39177157704302
 30
0.0
 11
24.86701067074114
 21
29.26920253519597
 31
0.0
  0
LINE
  5
4D3
330
359
100
AcDbEntity
  8
0
 62
     0
100
AcDbLine
 10
9.52547808566095
 20
13.92766995011578
 30
0.0
 11
11.65539441836773
 21
16.05758628282257
 31
0.0
  0
LINE
  5
4D4
330
359
100
AcDbEntity
  8
0
 62
     0
100
AcDbLine
 10
13.32871597455096
 20
18.6289334511128
 30
0.0
 11
15.32386465322338
 21
20.62408212978522
 31
0.0
  0
LINE
  5
4D5
330
359
100
AcDbEntity
  8
0
 62
     0
100
AcDbLine
 10
18.45047808566079
 20
23.75069556222263
 30
0.0
 11
24.05736880626085
 21
29.3575862828227
 31
0.0
  0
LINE
  5
4D6
330
359
100
AcDbEntity
  8
0
 62
     0
100
AcDbLine
 10
9.525478085660893
 20
14.82569556222273
 30
0.0
 11
10.75736880626078
 21
16.05758628282262
 31
0.0
  0
LINE
  5
4D7
330
359
100
AcDbEntity
  8
0
 62
     0
100
AcDbLine
 10
12.90246114624625
 20
19.10070423491493
 30
0.0
 11
14.88236013356862
 21
21.0806032222373
 31
0.0
  0
LINE
  5
4D8
330
359
100
AcDbEntity
  8
0
 62
     0
100
AcDbLine
 10
18.45047808566085
 20
24.64872117432947
 30
0.0
 11
23.15934319415379
 21
29.35758628282247
 31
0.0
  0
LINE
  5
4D9
330
359
100
AcDbEntity
  8
0
 62
     0
100
AcDbLine
 10
9.594430007680671
 20
15.79267309634935
 30
0.0
 11
9.790391272134286
 21
15.98863436080296
 31
0.0
  0
LINE
  5
4DA
330
359
100
AcDbEntity
  8
0
 62
     0
100
AcDbLine
 10
18.47045319981743
 20
25.566721900593
 30
0.0
 11
22.24134246789043
 21
29.33761116866606
 31
0.0
  0
LINE
  5
4DB
330
359
100
AcDbEntity
  8
0
 62
     0
100
AcDbLine
 10
12.45344834019278
 20
19.5497170409684
 30
0.0
 11
14.43334732751515
 21
21.52961602829078
 31
0.0
  0
LINE
  5
4DC
330
359
100
AcDbEntity
  8
0
 62
     0
100
AcDbLine
 10
18.76991663208321
 20
26.76421094496578
 30
0.0
 11
21.0438534235177
 21
29.03814773640028
 31
0.0
  0
LINE
  5
4DD
330
359
100
AcDbEntity
  8
0
 62
     0
100
AcDbLine
 10
12.0044355341393
 20
19.99872984702188
 30
0.0
 11
13.98433452146167
 21
21.97862883434425
 31
0.0
  0
LINE
  5
4DE
330
359
100
AcDbEntity
  8
0
 62
     0
100
AcDbLine
 10
11.55542272808588
 20
20.4477426530753
 30
0.0
 11
13.5353217154082
 21
22.42764164039755
 31
0.0
  0
LINE
  5
4DF
330
359
100
AcDbEntity
  8
0
 62
     0
100
AcDbLine
 10
11.10640992203241
 20
20.89675545912877
 30
0.0
 11
13.08630890935473
 21
22.87665444645103
 31
0.0
  0
LINE
  5
4E0
330
359
100
AcDbEntity
  8
0
 62
     0
100
AcDbLine
 10
10.65739711597894
 20
21.34576826518225
 30
0.0
 11
12.63729610330125
 21
23.3256672525045
 31
0.0
  0
LINE
  5
4E1
330
359
100
AcDbEntity
  8
0
 62
     0
100
AcDbLine
 10
14.97118952151237
 20
26.55758628282257
 30
0.0
 11
15.82547808566085
 21
27.4118748469711
 31
0.0
  0
LINE
  5
4E2
330
359
100
AcDbEntity
  8
0
 62
     0
100
AcDbLine
 10
10.20846762395359
 20
21.79486438526385
 30
0.0
 11
12.18853326738605
 21
23.77493002869631
 31
0.0
  0
LINE
  5
4E3
330
359
100
AcDbEntity
  8
0
 62
     0
100
AcDbLine
 10
14.07316390940548
 20
26.55758628282257
 30
0.0
 11
15.8254780856609
 21
28.309900459078
 31
0.0
  0
LINE
  5
4E4
330
359
100
AcDbEntity
  8
0
 62
     0
100
AcDbLine
 10
9.796999699402022
 20
22.28142207281905
 30
0.0
 11
11.85863638609811
 21
24.3430587595152
 31
0.0
  0
LINE
  5
4E5
330
359
100
AcDbEntity
  8
0
 62
     0
100
AcDbLine
 10
13.17513829729853
 20
26.55758628282257
 30
0.0
 11
15.73891918589976
 21
29.1213671714238
 31
0.0
  0
LINE
  5
4E6
330
359
100
AcDbEntity
  8
0
 62
     0
100
AcDbLine
 10
9.456539093139554
 20
22.83898707866354
 30
0.0
 11
11.80047808566098
 21
25.18292607118497
 31
0.0
  0
LINE
  5
4E7
330
359
100
AcDbEntity
  8
0
 62
     0
100
AcDbLine
 10
12.27464603602152
 20
26.55511963365245
 30
0.0
 11
15.07711268519171
 21
29.35758628282264
 31
0.0
  0
LINE
  5
4E8
330
359
100
AcDbEntity
  8
0
 62
     0
100
AcDbLine
 10
9.195845797407457
 20
23.47631939503839
 30
0.0
 11
11.80294473483104
 21
26.08341833246203
 31
0.0
  0
LINE
  5
4E9
330
359
100
AcDbEntity
  8
0
 62
     0
100
AcDbLine
 10
9.034033835159391
 20
24.21253304489721
 30
0.0
 11
14.17908707308481
 21
29.35758628282264
 31
0.0
  0
LINE
  5
4EA
330
359
100
AcDbEntity
  8
0
 62
     0
100
AcDbLine
 10
9.000478085660972
 20
25.07700290750574
 30
0.0
 11
13.28106146097781
 21
29.35758628282258
 31
0.0
  0
LINE
  5
4EB
330
359
100
AcDbEntity
  8
0
 62
     0
100
AcDbLine
 10
9.000478085660972
 20
25.97502851961264
 30
0.0
 11
12.38303584887086
 21
29.35758628282258
 31
0.0
  0
LINE
  5
4EC
330
359
100
AcDbEntity
  8
0
 62
     0
100
AcDbLine
 10
9.020670096099195
 20
26.89324614215781
 30
0.0
 11
11.4648182263258
 21
29.33739427238442
 31
0.0
  0
ENDBLK
  5
4EE
330
359
100
AcDbEntity
  8
0
100
AcDbBlockEnd
  0
BLOCK
  5
1843
330
1837
100
AcDbEntity
  8
0
100
AcDbBlockBegin
  2
*X2
 70
     1
 10
0.0
 20
0.0
 30
0.0
  3
*X2
  1

  0
LINE
  5
1838
330
1837
100
AcDbEntity
  8
0
 62
     0
100
AcDbLine
 10
301.0029896081622
 20
76.65423769452612
 30
0.0
 11
303.4449837144063
 21
79.09623180077028
 31
0.0
  0
LINE
  5
1839
330
1837
100
AcDbEntity
  8
0
 62
     0
100
AcDbLine
 10
299.9449910784639
 20
79.83887985194717
 30
0.0
 11
303.4449899964927
 21
83.33887876997593
 31
0.0
  0
LINE
  5
183A
330
1837
100
AcDbEntity
  8
0
 62
     0
100
AcDbLine
 10
299.9449972767891
 20
84.08152673739158
 30
0.0
 11
303.4449962785791
 21
87.58152573918161
 31
0.0
  0
LINE
  5
183B
330
1837
100
AcDbEntity
  8
0
 62
     0
100
AcDbLine
 10
299.9450034751142
 20
88.32417362283596
 30
0.0
 11
304.944982571189
 21
93.32415271891083
 31
0.0
  0
LINE
  5
183C
330
1837
100
AcDbEntity
  8
0
 62
     0
100
AcDbLine
 10
299.9450096734392
 20
92.56682050828038
 30
0.0
 11
304.9449888532754
 21
97.56679968811653
 31
0.0
  0
LINE
  5
183D
330
1837
100
AcDbEntity
  8
0
 62
     0
100
AcDbLine
 10
299.9450158717644
 20
96.80946739372476
 30
0.0
 11
304.9449951353618
 21
101.8094466573221
 31
0.0
  0
LINE
  5
183E
330
1837
100
AcDbEntity
  8
0
 62
     0
100
AcDbLine
 10
299.9450220700895
 20
101.0521142791692
 30
0.0
 11
303.44502773423
 21
104.5521199433096
 31
0.0
  0
LINE
  5
183F
330
1837
100
AcDbEntity
  8
0
 62
     0
100
AcDbLine
 10
299.9450282684146
 20
105.2947611646135
 30
0.0
 11
302.9450332759649
 21
108.2947661721638
 31
0.0
  0
LINE
  5
1840
330
1837
100
AcDbEntity
  8
0
 62
     0
100
AcDbLine
 10
299.9450344667398
 20
109.537408050058
 30
0.0
 11
302.9450395580512
 21
112.5374131413694
 31
0.0
  0
LINE
  5
1841
330
1837
100
AcDbEntity
  8
0
 62
     0
100
AcDbLine
 10
298.8192234240886
 20
112.6542376945261
 30
0.0
 11
300.8192234240886
 21
114.6542376945261
 31
0.0
  0
LINE
  5
1842
330
1837
100
AcDbEntity
  8
0
 62
     0
100
AcDbLine
 10
296.1949758886423
 20
114.272630846199
 30
0.0
 11
298.6949797268776
 21
116.7726346844344
 31
0.0
  0
ENDBLK
  5
1844
330
1837
100
AcDbEntity
  8
0
100
AcDbBlockEnd
  0
BLOCK
  5
18D4
330
18CD
100
AcDbEntity
  8
0
100
AcDbBlockBegin
  2
*X3
 70
     1
 10
0.0
 20
0.0
 30
0.0
  3
*X3
  1

  0
LINE
  5
18CE
330
18CD
100
AcDbEntity
  8
0
 62
     0
100
AcDbLine
 10
164.0452579782403
 20
115.1422276104085
 30
0.0
 11
164.0452579782403
 21
116.1662477786437
 31
0.0
  0
LINE
  5
18CF
330
18CD
100
AcDbEntity
  8
0
 62
     0
100
AcDbLine
 10
163.5452579782403
 20
114.4617343877196
 30
0.0
 11
163.5452579782403
 21
116.8467410013326
 31
0.0
  0
LINE
  5
18D0
330
18CD
100
AcDbEntity
  8
0
 62
     0
100
AcDbLine
 10
163.0452579782403
 20
114.2113330035466
 30
0.0
 11
163.0452579782403
 21
117.0971423855056
 31
0.0
  0
LINE
  5
18D1
330
18CD
100
AcDbEntity
  8
0
 62
     0
100
AcDbLine
 10
162.5452579782403
 20
114.1569455527726
 30
0.0
 11
162.5452579782403
 21
117.1515298362797
 31
0.0
  0
LINE
  5
18D2
330
18CD
100
AcDbEntity
  8
0
 62
     0
100
AcDbLine
 10
162.0452579782403
 20
114.2751823771935
 30
0.0
 11
162.0452579782403
 21
117.0332930118587
 31
0.0
  0
LINE
  5
18D3
330
18CD
100
AcDbEntity
  8
0
 62
     0
100
AcDbLine
 10
161.5452579782403
 20
114.6238477786353
 30
0.0
 11
161.5452579782403
 21
116.684627610417
 31
0.0
  0
ENDBLK
  5
18D5
330
18CD
100
AcDbEntity
  8
0
100
AcDbBlockEnd
  0
BLOCK
  5
18E2
330
18D6
100
AcDbEntity
  8
0
100
AcDbBlockBegin
  2
*X4
 70
     1
 10
0.0
 20
0.0
 30
0.0
  3
*X4
  1

  0
LINE
  5
18D7
330
18D6
100
AcDbEntity
  8
0
 62
     0
100
AcDbLine
 10
301.0029896081622
 20
76.65423769452612
 30
0.0
 11
303.4449837144063
 21
79.09623180077028
 31
0.0
  0
LINE
  5
18D8
330
18D6
100
AcDbEntity
  8
0
 62
     0
100
AcDbLine
 10
299.9449910784639
 20
79.83887985194717
 30
0.0
 11
303.4449899964927
 21
83.33887876997593
 31
0.0
  0
LINE
  5
18D9
330
18D6
100
AcDbEntity
  8
0
 62
     0
100
AcDbLine
 10
299.9449972767891
 20
84.08152673739158
 30
0.0
 11
303.4449962785791
 21
87.58152573918161
 31
0.0
  0
LINE
  5
18DA
330
18D6
100
AcDbEntity
  8
0
 62
     0
100
AcDbLine
 10
299.9450034751142
 20
88.32417362283596
 30
0.0
 11
304.944982571189
 21
93.32415271891083
 31
0.0
  0
LINE
  5
18DB
330
18D6
100
AcDbEntity
  8
0
 62
     0
100
AcDbLine
 10
299.9450096734392
 20
92.56682050828038
 30
0.0
 11
304.9449888532754
 21
97.56679968811653
 31
0.0
  0
LINE
  5
18DC
330
18D6
100
AcDbEntity
  8
0
 62
     0
100
AcDbLine
 10
299.9450158717644
 20
96.80946739372476
 30
0.0
 11
304.9449951353618
 21
101.8094466573221
 31
0.0
  0
LINE
  5
18DD
330
18D6
100
AcDbEntity
  8
0
 62
     0
100
AcDbLine
 10
299.9450220700895
 20
101.0521142791692
 30
0.0
 11
303.44502773423
 21
104.5521199433096
 31
0.0
  0
LINE
  5
18DE
330
18D6
100
AcDbEntity
  8
0
 62
     0
100
AcDbLine
 10
299.9450282684146
 20
105.2947611646135
 30
0.0
 11
302.9450332759649
 21
108.2947661721638
 31
0.0
  0
LINE
  5
18DF
330
18D6
100
AcDbEntity
  8
0
 62
     0
100
AcDbLine
 10
299.9450344667398
 20
109.537408050058
 30
0.0
 11
302.9450395580512
 21
112.5374131413694
 31
0.0
  0
LINE
  5
18E0
330
18D6
100
AcDbEntity
  8
0
 62
     0
100
AcDbLine
 10
298.8192234240886
 20
112.6542376945261
 30
0.0
 11
300.8192234240886
 21
114.6542376945261
 31
0.0
  0
LINE
  5
18E1
330
18D6
100
AcDbEntity
  8
0
 62
     0
100
AcDbLine
 10
296.1949758886423
 20
114.272630846199
 30
0.0
 11
298.6949797268776
 21
116.7726346844344
 31
0.0
  0
ENDBLK
  5
18E3
330
18D6
100
AcDbEntity
  8
0
100
AcDbBlockEnd
  0
BLOCK
  5
18F8
330
18E4
100
AcDbEntity
  8
0
100
AcDbBlockBegin
  2
*X5
 70
     1
 10
0.0
 20
0.0
 30
0.0
  3
*X5
  1

  0
LINE
  5
18E5
330
18E4
100
AcDbEntity
  8
0
 62
     0
100
AcDbLine
 10
155.1654628867189
 20
108.7300054567321
 30
0.0
 11
151.50758803984
 21
112.3878803036109
 31
0.0
  0
LINE
  5
18E6
330
18E4
100
AcDbEntity
  8
0
 62
     0
100
AcDbLine
 10
151.7649473527205
 20
107.8878803036111
 30
0.0
 11
147.2649473527207
 21
112.3878803036109
 31
0.0
  0
LINE
  5
18E7
330
18E4
100
AcDbEntity
  8
0
 62
     0
100
AcDbLine
 10
147.5223066656012
 20
107.8878803036111
 30
0.0
 11
143.0223066656014
 21
112.3878803036109
 31
0.0
  0
LINE
  5
18E8
330
18E4
100
AcDbEntity
  8
0
 62
     0
100
AcDbLine
 10
143.279665978482
 20
107.8878803036111
 30
0.0
 11
138.7796659784821
 21
112.3878803036109
 31
0.0
  0
LINE
  5
18E9
330
18E4
100
AcDbEntity
  8
0
 62
     0
100
AcDbLine
 10
123.9155405328524
 20
123.0093650621214
 30
0.0
 11
122.0370252913627
 21
124.8878803036111
 31
0.0
  0
LINE
  5
18EA
330
18E4
100
AcDbEntity
  8
0
 62
     0
100
AcDbLine
 10
139.0370252913627
 20
107.8878803036111
 30
0.0
 11
134.5370252913628
 21
112.387880303611
 31
0.0
  0
LINE
  5
18EB
330
18E4
100
AcDbEntity
  8
0
 62
     0
100
AcDbLine
 10
123.9155405328524
 20
118.7667243750021
 30
0.0
 11
118.6655449494563
 21
124.0167199583982
 31
0.0
  0
LINE
  5
18EC
330
18E4
100
AcDbEntity
  8
0
 62
     0
100
AcDbLine
 10
134.7943846042434
 20
107.8878803036111
 30
0.0
 11
130.2943846042434
 21
112.387880303611
 31
0.0
  0
LINE
  5
18ED
330
18E4
100
AcDbEntity
  8
0
 62
     0
100
AcDbLine
 10
123.9155405328524
 20
114.5240836878828
 30
0.0
 11
118.6655449494563
 21
119.7740792712789
 31
0.0
  0
LINE
  5
18EE
330
18E4
100
AcDbEntity
  8
0
 62
     0
100
AcDbLine
 10
130.5517439171241
 20
107.8878803036111
 30
0.0
 11
126.0517439171242
 21
112.387880303611
 31
0.0
  0
LINE
  5
18EF
330
18E4
100
AcDbEntity
  8
0
 62
     0
100
AcDbLine
 10
126.3576759654667
 20
107.8393075681492
 30
0.0
 11
118.6655449494564
 21
115.5314385841596
 31
0.0
  0
LINE
  5
18F0
330
18E4
100
AcDbEntity
  8
0
 62
     0
100
AcDbLine
 10
125.6655495763749
 20
104.2887932701218
 30
0.0
 11
117.5664625428855
 21
112.3878803036111
 31
0.0
  0
LINE
  5
18F1
330
18E4
100
AcDbEntity
  8
0
 62
     0
100
AcDbLine
 10
117.8238218557662
 20
107.887880303611
 30
0.0
 11
113.4001026761598
 21
112.3115994832175
 31
0.0
  0
LINE
  5
18F2
330
18E4
100
AcDbEntity
  8
0
 62
     0
100
AcDbLine
 10
125.6655495763748
 20
100.0461525830025
 30
0.0
 11
119.6655495763748
 21
106.0461525830025
 31
0.0
  0
LINE
  5
18F3
330
18E4
100
AcDbEntity
  8
0
 62
     0
100
AcDbLine
 10
113.5724341822537
 20
107.8966272900043
 30
0.0
 11
113.1742965627681
 21
108.2947649094899
 31
0.0
  0
LINE
  5
18F4
330
18E4
100
AcDbEntity
  8
0
 62
     0
100
AcDbLine
 10
125.6655495763748
 20
95.80351189588325
 30
0.0
 11
120.6655495763748
 21
100.8035118958833
 31
0.0
  0
LINE
  5
18F5
330
18E4
100
AcDbEntity
  8
0
 62
     0
100
AcDbLine
 10
125.6655495763748
 20
91.56087120876398
 30
0.0
 11
121.1654628867188
 21
96.06095789841996
 31
0.0
  0
LINE
  5
18F6
330
18E4
100
AcDbEntity
  8
0
 62
     0
100
AcDbLine
 10
125.6655495763748
 20
87.3182305216447
 30
0.0
 11
121.1654628867188
 21
91.81831721130066
 31
0.0
  0
LINE
  5
18F7
330
18E4
100
AcDbEntity
  8
0
 62
     0
100
AcDbLine
 10
125.6655495763748
 20
83.07558983452542
 30
0.0
 11
121.1654628867189
 21
87.57567652418135
 31
0.0
  0
ENDBLK
  5
18F9
330
18E4
100
AcDbEntity
  8
0
100
AcDbBlockEnd
  0
BLOCK
  5
1A91
330
1A87
100
AcDbEntity
  8
0
100
AcDbBlockBegin
  2
*D6
 70
     1
 10
0.0
 20
0.0
 30
0.0
  3
*D6
  1

  0
LINE
  5
218E
330
1A87
100
AcDbEntity
  8
SUNPOU
  6
Continuous
440
 16777216
100
AcDbLine
 10
184.2986126799488
 20
115.3978304109011
 30
0.0
 11
209.5849257530511
 21
115.3978304109011
 31
0.0
  0
LINE
  5
218F
330
1A87
100
AcDbEntity
  8
SUNPOU
  6
Continuous
440
 16777216
100
AcDbLine
 10
178.2984691673219
 20
132.3971599009954
 30
0.0
 11
209.5849257530511
 21
132.3971599009954
 31
0.0
  0
LINE
  5
2190
330
1A87
100
AcDbEntity
  8
SUNPOU
  6
Continuous
440
 16777216
100
AcDbLine
 10
208.0849257530512
 20
118.3978304109011
 30
0.0
 11
208.0849257530512
 21
129.3971599009954
 31
0.0
  0
INSERT
  5
2191
330
1A87
100
AcDbEntity
  8
SUNPOU
  6
Continuous
440
 16777216
100
AcDbBlockReference
  2
_OPEN
 10
208.0849257530512
 20
115.3978304109011
 30
0.0
 41
3.0
 42
3.0
 43
3.0
 50
270.0
  0
INSERT
  5
2192
330
1A87
100
AcDbEntity
  8
SUNPOU
  6
Continuous
440
 16777216
100
AcDbBlockReference
  2
_OPEN
 10
208.0849257530512
 20
132.3971599009954
 30
0.0
 41
3.0
 42
3.0
 43
3.0
 50
90.0
  0
MTEXT
  5
2193
330
1A87
100
AcDbEntity
  8
SUNPOU
  6
Continuous
440
 16777216
100
AcDbMText
 10
205.0849257530511
 20
123.8974951559483
 30
0.0
 40
4.0
 41
0.0
 46
0.0
 71
     5
 72
     5
  1
\A1;17
 11
0.0000000000000001
 21
1.0
 31
0.0
 73
     1
 44
1.0
  0
POINT
  5
2194
330
1A87
100
AcDbEntity
  8
DEFPOINTS
  6
Continuous
 62
     0
440
 16777216
100
AcDbPoint
 10
181.2986126799488
 20
115.3978304109011
 30
0.0
  0
POINT
  5
2195
330
1A87
100
AcDbEntity
  8
DEFPOINTS
  6
Continuous
 62
     0
440
 16777216
100
AcDbPoint
 10
175.2984691673219
 20
132.3971599009954
 30
0.0
  0
POINT
  5
2196
330
1A87
100
AcDbEntity
  8
DEFPOINTS
  6
Continuous
 62
     0
440
 16777216
100
AcDbPoint
 10
208.0849257530512
 20
132.3971599009954
 30
0.0
  0
ENDBLK
  5
1A92
330
1A87
100
AcDbEntity
  8
0
100
AcDbBlockEnd
  0
BLOCK
  5
1A9D
330
1A93
100
AcDbEntity
  8
0
100
AcDbBlockBegin
  2
*D7
 70
     1
 10
0.0
 20
0.0
 30
0.0
  3
*D7
  1

  0
LINE
  5
2185
330
1A93
100
AcDbEntity
  8
SUNPOU
  6
Continuous
440
 16777216
100
AcDbLine
 10
180.2984864159469
 20
74.8978437454981
 30
0.0
 11
209.5849257530511
 21
74.8978437454981
 31
0.0
  0
LINE
  5
2186
330
1A93
100
AcDbEntity
  8
SUNPOU
  6
Continuous
440
 16777216
100
AcDbLine
 10
184.2986126799488
 20
115.3978304109011
 30
0.0
 11
209.5849257530511
 21
115.3978304109011
 31
0.0
  0
LINE
  5
2187
330
1A93
100
AcDbEntity
  8
SUNPOU
  6
Continuous
440
 16777216
100
AcDbLine
 10
208.0849257530512
 20
77.8978437454981
 30
0.0
 11
208.0849257530512
 21
112.3978304109011
 31
0.0
  0
INSERT
  5
2188
330
1A93
100
AcDbEntity
  8
SUNPOU
  6
Continuous
440
 16777216
100
AcDbBlockReference
  2
_OPEN
 10
208.0849257530512
 20
74.8978437454981
 30
0.0
 41
3.0
 42
3.0
 43
3.0
 50
270.0
  0
INSERT
  5
2189
330
1A93
100
AcDbEntity
  8
SUNPOU
  6
Continuous
440
 16777216
100
AcDbBlockReference
  2
_OPEN
 10
208.0849257530512
 20
115.3978304109011
 30
0.0
 41
3.0
 42
3.0
 43
3.0
 50
90.0
  0
MTEXT
  5
218A
330
1A93
100
AcDbEntity
  8
SUNPOU
  6
Continuous
440
 16777216
100
AcDbMText
 10
205.0849257530511
 20
95.14783707819963
 30
0.0
 40
4.0
 41
0.0
 46
0.0
 71
     5
 72
     5
  1
\A1;40
 11
0.0000000000000001
 21
1.0
 31
0.0
 73
     1
 44
1.0
  0
POINT
  5
218B
330
1A93
100
AcDbEntity
  8
DEFPOINTS
  6
Continuous
 62
     0
440
 16777216
100
AcDbPoint
 10
177.2984864159469
 20
74.8978437454981
 30
0.0
  0
POINT
  5
218C
330
1A93
100
AcDbEntity
  8
DEFPOINTS
  6
Continuous
 62
     0
440
 16777216
100
AcDbPoint
 10
181.2986126799488
 20
115.3978304109011
 30
0.0
  0
POINT
  5
218D
330
1A93
100
AcDbEntity
  8
DEFPOINTS
  6
Continuous
 62
     0
440
 16777216
100
AcDbPoint
 10
208.0849257530512
 20
115.3978304109011
 30
0.0
  0
ENDBLK
  5
1A9E
330
1A93
100
AcDbEntity
  8
0
100
AcDbBlockEnd
  0
BLOCK
  5
1AA9
330
1A9F
100
AcDbEntity
  8
0
100
AcDbBlockBegin
  2
*D8
 70
     1
 10
0.0
 20
0.0
 30
0.0
  3
*D8
  1

  0
LINE
  5
1E7B
330
1A9F
100
AcDbEntity
  8
SUNPOU
  6
Continuous
440
 16777216
100
AcDbLine
 10
142.2984304255644
 20
252.3340757457444
 30
0.0
 11
205.2111118986828
 21
252.3340757457444
 31
0.0
  0
LINE
  5
1E7C
330
1A9F
100
AcDbEntity
  8
SUNPOU
  6
Continuous
440
 16777216
100
AcDbLine
 10
142.3450932848631
 20
180.3341060310446
 30
0.0
 11
205.2111118986828
 21
180.3341060310446
 31
0.0
  0
LINE
  5
1E7D
330
1A9F
100
AcDbEntity
  8
SUNPOU
  6
Continuous
440
 16777216
100
AcDbLine
 10
203.7111118986828
 20
249.3340757457444
 30
0.0
 11
203.7111118986828
 21
183.3341060310446
 31
0.0
  0
INSERT
  5
1E7E
330
1A9F
100
AcDbEntity
  8
SUNPOU
  6
Continuous
440
 16777216
100
AcDbBlockReference
  2
_OPEN
 10
203.7111118986828
 20
252.3340757457444
 30
0.0
 41
3.0
 42
3.0
 43
3.0
 50
90.0
  0
INSERT
  5
1E7F
330
1A9F
100
AcDbEntity
  8
SUNPOU
  6
Continuous
440
 16777216
100
AcDbBlockReference
  2
_OPEN
 10
203.7111118986828
 20
180.3341060310446
 30
0.0
 41
3.0
 42
3.0
 43
3.0
 50
270.0
  0
MTEXT
  5
1E80
330
1A9F
100
AcDbEntity
  8
SUNPOU
  6
Continuous
440
 16777216
100
AcDbMText
 10
200.7111118986828
 20
216.3340908883945
 30
0.0
 40
4.0
 41
0.0
 46
0.0
 71
     5
 72
     5
  1
\A1;72
 11
0.0000000000000001
 21
1.0
 31
0.0
 73
     1
 44
1.0
  0
POINT
  5
1E81
330
1A9F
100
AcDbEntity
  8
DEFPOINTS
  6
Continuous
 62
     0
440
 16777216
100
AcDbPoint
 10
139.2984304255644
 20
252.3340757457444
 30
0.0
  0
POINT
  5
1E82
330
1A9F
100
AcDbEntity
  8
DEFPOINTS
  6
Continuous
 62
     0
440
 16777216
100
AcDbPoint
 10
139.3450932848631
 20
180.3341060310446
 30
0.0
  0
POINT
  5
1E83
330
1A9F
100
AcDbEntity
  8
DEFPOINTS
  6
Continuous
 62
     0
440
 16777216
100
AcDbPoint
 10
203.7111118986828
 20
180.3341060310446
 30
0.0
  0
ENDBLK
  5
1AAA
330
1A9F
100
AcDbEntity
  8
0
100
AcDbBlockEnd
  0
BLOCK
  5
1AB5
330
1AAB
100
AcDbEntity
  8
0
100
AcDbBlockBegin
  2
*D9
 70
     1
 10
0.0
 20
0.0
 30
0.0
  3
*D9
  1

  0
LINE
  5
217C
330
1AAB
100
AcDbEntity
  8
SUNPOU
  6
Continuous
440
 16777216
100
AcDbLine
 10
180.2984864159469
 20
74.8978437454981
 30
0.0
 11
218.1262954835351
 21
74.8978437454981
 31
0.0
  0
LINE
  5
217D
330
1AAB
100
AcDbEntity
  8
SUNPOU
  6
Continuous
440
 16777216
100
AcDbLine
 10
178.2984691673219
 20
132.3971599009954
 30
0.0
 11
218.1262954835351
 21
132.3971599009954
 31
0.0
  0
LINE
  5
217E
330
1AAB
100
AcDbEntity
  8
SUNPOU
  6
Continuous
440
 16777216
100
AcDbLine
 10
216.626295483535
 20
77.8978437454981
 30
0.0
 11
216.626295483535
 21
129.3971599009954
 31
0.0
  0
INSERT
  5
217F
330
1AAB
100
AcDbEntity
  8
SUNPOU
  6
Continuous
440
 16777216
100
AcDbBlockReference
  2
_OPEN
 10
216.626295483535
 20
74.8978437454981
 30
0.0
 41
3.0
 42
3.0
 43
3.0
 50
270.0
  0
INSERT
  5
2180
330
1AAB
100
AcDbEntity
  8
SUNPOU
  6
Continuous
440
 16777216
100
AcDbBlockReference
  2
_OPEN
 10
216.626295483535
 20
132.3971599009954
 30
0.0
 41
3.0
 42
3.0
 43
3.0
 50
90.0
  0
MTEXT
  5
2181
330
1AAB
100
AcDbEntity
  8
SUNPOU
  6
Continuous
440
 16777216
100
AcDbMText
 10
213.626295483535
 20
103.6475018232468
 30
0.0
 40
4.0
 41
0.0
 46
0.0
 71
     5
 72
     5
  1
\A1;57
 11
0.0000000000000001
 21
1.0
 31
0.0
 73
     1
 44
1.0
  0
POINT
  5
2182
330
1AAB
100
AcDbEntity
  8
DEFPOINTS
  6
Continuous
 62
     0
440
 16777216
100
AcDbPoint
 10
177.2984864159469
 20
74.8978437454981
 30
0.0
  0
POINT
  5
2183
330
1AAB
100
AcDbEntity
  8
DEFPOINTS
  6
Continuous
 62
     0
440
 16777216
100
AcDbPoint
 10
175.2984691673219
 20
132.3971599009954
 30
0.0
  0
POINT
  5
2184
330
1AAB
100
AcDbEntity
  8
DEFPOINTS
  6
Continuous
 62
     0
440
 16777216
100
AcDbPoint
 10
216.626295483535
 20
132.3971599009954
 30
0.0
  0
ENDBLK
  5
1AB6
330
1AAB
100
AcDbEntity
  8
0
100
AcDbBlockEnd
  0
BLOCK
  5
1ACF
330
1AC3
100
AcDbEntity
  8
0
100
AcDbBlockBegin
  2
*D10
 70
     1
 10
0.0
 20
0.0
 30
0.0
  3
*D10
  1

  0
LINE
  5
1EFB
330
1AC3
100
AcDbEntity
  8
SUNPOU
  6
Continuous
440
 16777216
100
AcDbLine
 10
183.7985874314675
 20
115.3978333804784
 30
0.0
 11
200.2763840467575
 21
115.3978333804784
 31
0.0
  0
LINE
  5
1EFC
330
1AC3
100
AcDbEntity
  8
SUNPOU
  6
Continuous
440
 16777216
100
AcDbLine
 10
183.0486044306207
 20
110.897834120758
 30
0.0
 11
200.2763840467575
 21
110.897834120758
 31
0.0
  0
LINE
  5
1EFD
330
1AC3
100
AcDbEntity
  8
SUNPOU
  6
Continuous
440
 16777216
100
AcDbLine
 10
198.7763840467575
 20
118.3978333804784
 30
0.0
 11
198.7763840467575
 21
121.3978333804784
 31
0.0
  0
LINE
  5
1EFE
330
1AC3
100
AcDbEntity
  8
SUNPOU
  6
Continuous
440
 16777216
100
AcDbLine
 10
198.7763840467575
 20
107.897834120758
 30
0.0
 11
198.7763840467575
 21
94.89783412075802
 31
0.0
  0
LINE
  5
1EFF
330
1AC3
100
AcDbEntity
  8
SUNPOU
  6
Continuous
440
 16777216
100
AcDbLine
 10
198.7763840467575
 20
115.3978333804784
 30
0.0
 11
198.7763840467575
 21
110.897834120758
 31
0.0
  0
INSERT
  5
1F00
330
1AC3
100
AcDbEntity
  8
SUNPOU
  6
Continuous
440
 16777216
100
AcDbBlockReference
  2
_OPEN
 10
198.7763840467575
 20
115.3978333804784
 30
0.0
 41
3.0
 42
3.0
 43
3.0
 50
270.0
  0
INSERT
  5
1F01
330
1AC3
100
AcDbEntity
  8
SUNPOU
  6
Continuous
440
 16777216
100
AcDbBlockReference
  2
_OPEN
 10
198.7763840467575
 20
110.897834120758
 30
0.0
 41
3.0
 42
3.0
 43
3.0
 50
90.0
  0
MTEXT
  5
1F02
330
1AC3
100
AcDbEntity
  8
SUNPOU
  6
Continuous
440
 16777216
100
AcDbMText
 10
195.7763840467574
 20
99.89783412075805
 30
0.0
 40
4.0
 41
0.0
 46
0.0
 71
     5
 72
     5
  1
\A1;4.5
 11
0.0000000000000001
 21
1.0
 31
0.0
 73
     1
 44
1.0
  0
POINT
  5
1F03
330
1AC3
100
AcDbEntity
  8
DEFPOINTS
  6
Continuous
 62
     0
440
 16777216
100
AcDbPoint
 10
180.7985874314676
 20
115.3978333804784
 30
0.0
  0
POINT
  5
1F04
330
1AC3
100
AcDbEntity
  8
DEFPOINTS
  6
Continuous
 62
     0
440
 16777216
100
AcDbPoint
 10
180.0486044306207
 20
110.897834120758
 30
0.0
  0
POINT
  5
1F05
330
1AC3
100
AcDbEntity
  8
DEFPOINTS
  6
Continuous
 62
     0
440
 16777216
100
AcDbPoint
 10
198.7763840467575
 20
110.897834120758
 30
0.0
  0
ENDBLK
  5
1AD0
330
1AC3
100
AcDbEntity
  8
0
100
AcDbBlockEnd
  0
BLOCK
  5
1ADD
330
1AD1
100
AcDbEntity
  8
0
100
AcDbBlockBegin
  2
*D11
 70
     1
 10
0.0
 20
0.0
 30
0.0
  3
*D11
  1

  0
LINE
  5
22FC
330
1AD1
100
AcDbEntity
  8
SUNPOU
  6
Continuous
440
 16777216
100
AcDbLine
 10
183.7985874314675
 20
115.3978333804784
 30
0.0
 11
200.2763840467575
 21
115.3978333804784
 31
0.0
  0
LINE
  5
22FD
330
1AD1
100
AcDbEntity
  8
SUNPOU
  6
Continuous
440
 16777216
100
AcDbLine
 10
183.7986022384654
 20
119.8978333804566
 30
0.0
 11
200.2763840467575
 21
119.8978333804566
 31
0.0
  0
LINE
  5
22FE
330
1AD1
100
AcDbEntity
  8
SUNPOU
  6
Continuous
440
 16777216
100
AcDbLine
 10
198.7763840467575
 20
112.3978333804784
 30
0.0
 11
198.7763840467575
 21
109.3978333804784
 31
0.0
  0
LINE
  5
22FF
330
1AD1
100
AcDbEntity
  8
SUNPOU
  6
Continuous
440
 16777216
100
AcDbLine
 10
198.7763840467575
 20
122.8978333804565
 30
0.0
 11
198.7763840467575
 21
125.8978333804565
 31
0.0
  0
MTEXT
  5
2300
330
1AD1
100
AcDbEntity
  8
SUNPOU
  6
Continuous
440
 16777216
100
AcDbMText
 10
196.0893152285946
 20
125.8379494553212
 30
0.0
 40
4.0
 41
0.0
 46
0.0
 71
     5
 72
     5
  1
\A1;4.5
 11
0.0000000000000001
 21
1.0
 31
0.0
 73
     1
 44
1.0
  0
LINE
  5
2301
330
1AD1
100
AcDbEntity
  8
SUNPOU
  6
Continuous
440
 16777216
100
AcDbLine
 10
198.7763840467575
 20
115.3978333804784
 30
0.0
 11
198.7763840467575
 21
119.8978333804566
 31
0.0
  0
INSERT
  5
2302
330
1AD1
100
AcDbEntity
  8
SUNPOU
  6
Continuous
440
 16777216
100
AcDbBlockReference
  2
_OPEN
 10
198.7763840467575
 20
115.3978333804784
 30
0.0
 41
3.0
 42
3.0
 43
3.0
 50
90.0
  0
INSERT
  5
2303
330
1AD1
100
AcDbEntity
  8
SUNPOU
  6
Continuous
440
 16777216
100
AcDbBlockReference
  2
_OPEN
 10
198.7763840467575
 20
119.8978333804566
 30
0.0
 41
3.0
 42
3.0
 43
3.0
 50
270.0
  0
POINT
  5
2304
330
1AD1
100
AcDbEntity
  8
DEFPOINTS
  6
Continuous
 62
     0
440
 16777216
100
AcDbPoint
 10
180.7985874314676
 20
115.3978333804784
 30
0.0
  0
POINT
  5
2305
330
1AD1
100
AcDbEntity
  8
DEFPOINTS
  6
Continuous
 62
     0
440
 16777216
100
AcDbPoint
 10
180.7986022384653
 20
119.8978333804566
 30
0.0
  0
POINT
  5
2306
330
1AD1
100
AcDbEntity
  8
DEFPOINTS
  6
Continuous
 62
     0
440
 16777216
100
AcDbPoint
 10
198.7763840467575
 20
119.8978333804566
 30
0.0
  0
ENDBLK
  5
1ADE
330
1AD1
100
AcDbEntity
  8
0
100
AcDbBlockEnd
  0
BLOCK
  5
1AE9
330
1ADF
100
AcDbEntity
  8
0
100
AcDbBlockBegin
  2
*D12
 70
     1
 10
0.0
 20
0.0
 30
0.0
  3
*D12
  1

  0
LINE
  5
1EAD
330
1ADF
100
AcDbEntity
  8
SUNPOU
  6
Continuous
440
 16777216
100
AcDbLine
 10
97.29839703683053
 20
213.3340757457599
 30
0.0
 11
97.29839703683053
 21
155.0168530817361
 31
0.0
  0
LINE
  5
1EAE
330
1ADF
100
AcDbEntity
  8
SUNPOU
  6
Continuous
440
 16777216
100
AcDbLine
 10
181.2983970368183
 20
213.3340437284156
 30
0.0
 11
181.2983970368183
 21
155.0168530817361
 31
0.0
  0
LINE
  5
1EAF
330
1ADF
100
AcDbEntity
  8
SUNPOU
  6
Continuous
440
 16777216
100
AcDbLine
 10
100.2983970368305
 20
156.5168530817361
 30
0.0
 11
178.2983970368183
 21
156.5168530817361
 31
0.0
  0
INSERT
  5
1EB0
330
1ADF
100
AcDbEntity
  8
SUNPOU
  6
Continuous
440
 16777216
100
AcDbBlockReference
  2
_OPEN
 10
97.29839703683053
 20
156.5168530817361
 30
0.0
 41
3.0
 42
3.0
 43
3.0
 50
180.0
  0
INSERT
  5
1EB1
330
1ADF
100
AcDbEntity
  8
SUNPOU
  6
Continuous
440
 16777216
100
AcDbBlockReference
  2
_OPEN
 10
181.2983970368183
 20
156.5168530817361
 30
0.0
 41
3.0
 42
3.0
 43
3.0
  0
MTEXT
  5
1EB2
330
1ADF
100
AcDbEntity
  8
SUNPOU
  6
Continuous
440
 16777216
100
AcDbMText
 10
139.2983970368244
 20
159.5168530817361
 30
0.0
 40
4.0
 41
0.0
 46
0.0
 71
     5
 72
     5
  1
\A1;φ84
 73
     1
 44
1.0
  0
POINT
  5
1EB3
330
1ADF
100
AcDbEntity
  8
DEFPOINTS
  6
Continuous
 62
     0
440
 16777216
100
AcDbPoint
 10
97.29839703683053
 20
216.33407574576
 30
0.0
  0
POINT
  5
1EB4
330
1ADF
100
AcDbEntity
  8
DEFPOINTS
  6
Continuous
 62
     0
440
 16777216
100
AcDbPoint
 10
181.2983970368183
 20
216.3340437284157
 30
0.0
  0
POINT
  5
1EB5
330
1ADF
100
AcDbEntity
  8
DEFPOINTS
  6
Continuous
 62
     0
440
 16777216
100
AcDbPoint
 10
181.2983970368183
 20
156.5168530817361
 30
0.0
  0
ENDBLK
  5
1AEA
330
1ADF
100
AcDbEntity
  8
0
100
AcDbBlockEnd
  0
BLOCK
  5
1AF5
330
1AEB
100
AcDbEntity
  8
0
100
AcDbBlockBegin
  2
*D13
 70
     1
 10
0.0
 20
0.0
 30
0.0
  3
*D13
  1

  0
LINE
  5
1EB6
330
1AEB
100
AcDbEntity
  8
SUNPOU
  6
Continuous
440
 16777216
100
AcDbLine
 10
97.5484749753893
 20
108.8979562786805
 30
0.0
 11
97.5484749753893
 21
42.05354108531174
 31
0.0
  0
LINE
  5
1EB7
330
1AEB
100
AcDbEntity
  8
SUNPOU
  6
Continuous
440
 16777216
100
AcDbLine
 10
181.0486074283552
 20
108.8978326203111
 30
0.0
 11
181.0486074283552
 21
42.05354108531174
 31
0.0
  0
LINE
  5
1EB8
330
1AEB
100
AcDbEntity
  8
SUNPOU
  6
Continuous
440
 16777216
100
AcDbLine
 10
100.5484749753893
 20
43.55354108531173
 30
0.0
 11
178.0486074283552
 21
43.55354108531173
 31
0.0
  0
INSERT
  5
1EB9
330
1AEB
100
AcDbEntity
  8
SUNPOU
  6
Continuous
440
 16777216
100
AcDbBlockReference
  2
_OPEN
 10
97.5484749753893
 20
43.55354108531173
 30
0.0
 41
3.0
 42
3.0
 43
3.0
 50
180.0
  0
INSERT
  5
1EBA
330
1AEB
100
AcDbEntity
  8
SUNPOU
  6
Continuous
440
 16777216
100
AcDbBlockReference
  2
_OPEN
 10
181.0486074283552
 20
43.55354108531173
 30
0.0
 41
3.0
 42
3.0
 43
3.0
  0
MTEXT
  5
1EBB
330
1AEB
100
AcDbEntity
  8
SUNPOU
  6
Continuous
440
 16777216
100
AcDbMText
 10
139.2985412018722
 20
46.55354108531173
 30
0.0
 40
4.0
 41
0.0
 46
0.0
 71
     5
 72
     5
  1
\A1;φ84
 73
     1
 44
1.0
  0
POINT
  5
1EBC
330
1AEB
100
AcDbEntity
  8
DEFPOINTS
  6
Continuous
 62
     0
440
 16777216
100
AcDbPoint
 10
97.5484749753893
 20
111.8979562786805
 30
0.0
  0
POINT
  5
1EBD
330
1AEB
100
AcDbEntity
  8
DEFPOINTS
  6
Continuous
 62
     0
440
 16777216
100
AcDbPoint
 10
181.0486074283552
 20
111.8978326203111
 30
0.0
  0
POINT
  5
1EBE
330
1AEB
100
AcDbEntity
  8
DEFPOINTS
  6
Continuous
 62
     0
440
 16777216
100
AcDbPoint
 10
181.0486074283552
 20
43.55354108531173
 30
0.0
  0
ENDBLK
  5
1AF6
330
1AEB
100
AcDbEntity
  8
0
100
AcDbBlockEnd
  0
BLOCK
  5
1B01
330
1AF7
100
AcDbEntity
  8
0
100
AcDbBlockBegin
  2
*D14
 70
     1
 10
0.0
 20
0.0
 30
0.0
  3
*D14
  1

  0
LINE
  5
1EBF
330
1AF7
100
AcDbEntity
  8
SUNPOU
  6
Continuous
440
 16777216
100
AcDbLine
 10
101.2984864160302
 20
71.89795627868051
 30
0.0
 11
101.2984864160302
 21
50.39227303050006
 31
0.0
  0
LINE
  5
1EC0
330
1AF7
100
AcDbEntity
  8
SUNPOU
  6
Continuous
440
 16777216
100
AcDbLine
 10
177.2984864159468
 20
71.89784374549811
 30
0.0
 11
177.2984864159468
 21
50.39227303050006
 31
0.0
  0
LINE
  5
1EC1
330
1AF7
100
AcDbEntity
  8
SUNPOU
  6
Continuous
440
 16777216
100
AcDbLine
 10
104.2984864160302
 20
51.89227303050007
 30
0.0
 11
174.2984864159468
 21
51.89227303050007
 31
0.0
  0
INSERT
  5
1EC2
330
1AF7
100
AcDbEntity
  8
SUNPOU
  6
Continuous
440
 16777216
100
AcDbBlockReference
  2
_OPEN
 10
101.2984864160302
 20
51.89227303050007
 30
0.0
 41
3.0
 42
3.0
 43
3.0
 50
180.0
  0
INSERT
  5
1EC3
330
1AF7
100
AcDbEntity
  8
SUNPOU
  6
Continuous
440
 16777216
100
AcDbBlockReference
  2
_OPEN
 10
177.2984864159468
 20
51.89227303050007
 30
0.0
 41
3.0
 42
3.0
 43
3.0
  0
MTEXT
  5
1EC4
330
1AF7
100
AcDbEntity
  8
SUNPOU
  6
Continuous
440
 16777216
100
AcDbMText
 10
139.2984864159885
 20
54.89227303050006
 30
0.0
 40
4.0
 41
0.0
 46
0.0
 71
     5
 72
     5
  1
\A1;φ76
 73
     1
 44
1.0
  0
POINT
  5
1EC5
330
1AF7
100
AcDbEntity
  8
DEFPOINTS
  6
Continuous
 62
     0
440
 16777216
100
AcDbPoint
 10
101.2984864160302
 20
74.89795627868051
 30
0.0
  0
POINT
  5
1EC6
330
1AF7
100
AcDbEntity
  8
DEFPOINTS
  6
Continuous
 62
     0
440
 16777216
100
AcDbPoint
 10
177.2984864159468
 20
74.8978437454981
 30
0.0
  0
POINT
  5
1EC7
330
1AF7
100
AcDbEntity
  8
DEFPOINTS
  6
Continuous
 62
     0
440
 16777216
100
AcDbPoint
 10
177.2984864159468
 20
51.89227303050007
 30
0.0
  0
ENDBLK
  5
1B02
330
1AF7
100
AcDbEntity
  8
0
100
AcDbBlockEnd
  0
BLOCK
  5
1B0D
330
1B03
100
AcDbEntity
  8
0
100
AcDbBlockBegin
  2
*D15
 70
     1
 10
0.0
 20
0.0
 30
0.0
  3
*D15
  1

  0
LINE
  5
1EC8
330
1B03
100
AcDbEntity
  8
SUNPOU
  6
Continuous
440
 16777216
100
AcDbLine
 10
104.798480088738
 20
71.89795627868045
 30
0.0
 11
104.798480088738
 21
58.11431002470204
 31
0.0
  0
LINE
  5
1EC9
330
1B03
100
AcDbEntity
  8
SUNPOU
  6
Continuous
440
 16777216
100
AcDbLine
 10
173.798505397468
 20
71.89775194203687
 30
0.0
 11
173.798505397468
 21
58.11431002470204
 31
0.0
  0
LINE
  5
1ECA
330
1B03
100
AcDbEntity
  8
SUNPOU
  6
Continuous
440
 16777216
100
AcDbLine
 10
107.798480088738
 20
59.61431002470203
 30
0.0
 11
170.798505397468
 21
59.61431002470203
 31
0.0
  0
INSERT
  5
1ECB
330
1B03
100
AcDbEntity
  8
SUNPOU
  6
Continuous
440
 16777216
100
AcDbBlockReference
  2
_OPEN
 10
104.798480088738
 20
59.61431002470203
 30
0.0
 41
3.0
 42
3.0
 43
3.0
 50
180.0
  0
INSERT
  5
1ECC
330
1B03
100
AcDbEntity
  8
SUNPOU
  6
Continuous
440
 16777216
100
AcDbBlockReference
  2
_OPEN
 10
173.798505397468
 20
59.61431002470203
 30
0.0
 41
3.0
 42
3.0
 43
3.0
  0
MTEXT
  5
1ECD
330
1B03
100
AcDbEntity
  8
SUNPOU
  6
Continuous
440
 16777216
100
AcDbMText
 10
139.298492743103
 20
62.61431002470203
 30
0.0
 40
4.0
 41
0.0
 46
0.0
 71
     5
 72
     5
  1
\A1;φ69
 73
     1
 44
1.0
  0
POINT
  5
1ECE
330
1B03
100
AcDbEntity
  8
DEFPOINTS
  6
Continuous
 62
     0
440
 16777216
100
AcDbPoint
 10
104.798480088738
 20
74.89795627868045
 30
0.0
  0
POINT
  5
1ECF
330
1B03
100
AcDbEntity
  8
DEFPOINTS
  6
Continuous
 62
     0
440
 16777216
100
AcDbPoint
 10
173.798505397468
 20
74.89775194203687
 30
0.0
  0
POINT
  5
1ED0
330
1B03
100
AcDbEntity
  8
DEFPOINTS
  6
Continuous
 62
     0
440
 16777216
100
AcDbPoint
 10
173.798505397468
 20
59.61431002470203
 30
0.0
  0
ENDBLK
  5
1B0E
330
1B03
100
AcDbEntity
  8
0
100
AcDbBlockEnd
  0
BLOCK
  5
1B19
330
1B0F
100
AcDbEntity
  8
0
100
AcDbBlockBegin
  2
*D16
 70
     1
 10
0.0
 20
0.0
 30
0.0
  3
*D16
  1

  0
LINE
  5
1ED1
330
1B0F
100
AcDbEntity
  8
SUNPOU
  6
Continuous
440
 16777216
100
AcDbLine
 10
157.4471434681152
 20
241.6392129297516
 30
0.0
 11
148.96617882345
 21
233.1362180669497
 31
0.0
  0
LINE
  5
1ED2
330
1B0F
100
AcDbEntity
  8
SUNPOU
  6
Continuous
440
 16777216
100
AcDbLine
 10
164.5563669764993
 20
234.5484085486515
 30
0.0
 11
156.0754023318341
 21
226.0454136858496
 31
0.0
  0
LINE
  5
1ED3
330
1B0F
100
AcDbEntity
  8
SUNPOU
  6
Continuous
440
 16777216
100
AcDbLine
 10
152.1495324633249
 20
232.0796861916637
 30
0.0
 11
155.0106156481381
 21
229.2260157229212
 31
0.0
  0
INSERT
  5
1ED4
330
1B0F
100
AcDbEntity
  8
SUNPOU
  6
Continuous
440
 16777216
100
AcDbBlockReference
  2
_OPEN
 10
150.0254623015394
 20
234.1982531478425
 30
0.0
 41
3.0
 42
3.0
 43
3.0
 50
135.0743194078223
  0
INSERT
  5
1ED5
330
1B0F
100
AcDbEntity
  8
SUNPOU
  6
Continuous
440
 16777216
100
AcDbBlockReference
  2
_OPEN
 10
157.1346858099235
 20
227.1074487667423
 30
0.0
 41
3.0
 42
3.0
 43
3.0
 50
315.0743194078223
  0
MTEXT
  5
1ED6
330
1B0F
100
AcDbEntity
  8
SUNPOU
  6
Continuous
440
 16777216
100
AcDbMText
 10
155.6986410119103
 20
232.7769211190778
 30
0.0
 40
4.0
 41
0.0
 46
0.0
 71
     5
 72
     5
  1
\A1;10
 11
0.7080233872618082
 21
-0.7061889853929442
 31
0.0
 73
     1
 44
1.0
  0
POINT
  5
1ED7
330
1B0F
100
AcDbEntity
  8
DEFPOINTS
  6
Continuous
 62
     0
440
 16777216
100
AcDbPoint
 10
159.565710424294
 20
243.763283091537
 30
0.0
  0
POINT
  5
1ED8
330
1B0F
100
AcDbEntity
  8
DEFPOINTS
  6
Continuous
 62
     0
440
 16777216
100
AcDbPoint
 10
166.6749339326781
 20
236.6724787104369
 30
0.0
  0
POINT
  5
1ED9
330
1B0F
100
AcDbEntity
  8
DEFPOINTS
  6
Continuous
 62
     0
440
 16777216
100
AcDbPoint
 10
157.1346858099235
 20
227.1074487667423
 30
0.0
  0
ENDBLK
  5
1B1A
330
1B0F
100
AcDbEntity
  8
0
100
AcDbBlockEnd
  0
ENDSEC
  0
SECTION
  2
ENTITIES
  0
LINE
  5
5E7
330
1A
100
AcDbEntity
  8
ZUWAKU
100
AcDbLine
 10
110.1521945676434
 20
15.76250000000001
 30
0.0
 11
229.5410759081051
 21
15.76250000000001
 31
0.0
  0
LINE
  5
5E8
330
1A
100
AcDbEntity
  8
ZUWAKU
100
AcDbLine
 10
110.1521945676434
 20
15.96250000000001
 30
0.0
 11
229.5410759081051
 21
15.96250000000001
 31
0.0
  0
LINE
  5
5E9
330
1A
100
AcDbEntity
  8
ZUWAKU
100
AcDbLine
 10
110.1521945676434
 20
15.86250000000001
 30
0.0
 11
229.5410759081051
 21
15.86250000000001
 31
0.0
  0
LINE
  5
5EA
330
1A
100
AcDbEntity
  8
ZUWAKU
100
AcDbLine
 10
5.828893922609438
 20
23.56250000000001
 30
0.0
 11
404.5288939226093
 21
23.56250000000001
 31
0.0
  0
LINE
  5
5EB
330
1A
100
AcDbEntity
  8
ZUWAKU
100
AcDbLine
 10
5.828893922609438
 20
23.4625
 30
0.0
 11
404.5288939226093
 21
23.4625
 31
0.0
  0
LINE
  5
5EC
330
1A
100
AcDbEntity
  8
ZUWAKU
100
AcDbLine
 10
5.828893922609438
 20
23.3625
 30
0.0
 11
404.5288939226093
 21
23.3625
 31
0.0
  0
LINE
  5
5ED
330
1A
100
AcDbEntity
  8
ZUWAKU
100
AcDbLine
 10
5.828893922609438
 20
23.2625
 30
0.0
 11
404.5288939226093
 21
23.2625
 31
0.0
  0
LINE
  5
5EE
330
1A
100
AcDbEntity
  8
ZUWAKU
100
AcDbLine
 10
5.828893922609438
 20
23.1625
 30
0.0
 11
404.5288939226093
 21
23.1625
 31
0.0
  0
LWPOLYLINE
  5
5EF
330
1A
100
AcDbEntity
  8
ZUWAKU
100
AcDbPolyline
 90
        4
 70
     1
 43
0.0
 10
5.928893922609404
 20
283.8625000000001
 10
5.928893922609404
 20
8.26250000000002
 10
404.5288939226093
 20
8.262500000000031
 10
404.5288939226096
 20
283.8625000000001
  0
LWPOLYLINE
  5
5F0
330
1A
100
AcDbEntity
  8
ZUWAKU
100
AcDbPolyline
 90
        4
 70
     1
 43
0.0
 10
6.128893922609393
 20
283.6625000000001
 10
6.128893922609393
 20
8.462500000000009
 10
404.3288939226095
 20
8.462500000000032
 10
404.3288939226095
 20
283.6625000000001
  0
LWPOLYLINE
  5
5F1
330
1A
100
AcDbEntity
  8
ZUWAKU
100
AcDbPolyline
 90
        4
 70
     1
 43
0.0
 10
5.828893922609438
 20
283.9625
 10
5.828893922609438
 20
8.162499999999997
 10
404.6288939226094
 20
8.162500000000031
 10
404.6288939226094
 20
283.9625000000001
  0
LWPOLYLINE
  5
5F2
330
1A
100
AcDbEntity
  8
ZUWAKU
100
AcDbPolyline
 90
        4
 70
     1
 43
0.0
 10
6.028893922609427
 20
283.7625
 10
6.028893922609427
 20
8.362500000000043
 10
404.4288939226095
 20
8.362500000000032
 10
404.4288939226095
 20
283.7625
  0
LWPOLYLINE
  5
5F3
330
1A
100
AcDbEntity
  8
ZUWAKU
100
AcDbPolyline
 90
        4
 70
     1
 43
0.0
 10
6.228893922609415
 20
283.5625000000001
 10
6.228893922609415
 20
8.562500000000031
 10
404.2288939226094
 20
8.562500000000031
 10
404.2288939226094
 20
283.5625000000001
  0
INSERT
  5
602
330
1A
100
AcDbEntity
  8
ZUWAKU
  6
Continuous
100
AcDbBlockReference
  2
*X1
 10
6.974760957169564
 20
5.108706858588675
 30
0.0
 41
0.5
 42
0.5
 43
0.5
1001
ACAD
1000
HATCH
1002
{
1070
    19
1000
ANSI37
1040
0.2
1040
0.0
1000
R14_HATCH_DATA
1000
4E4
1011
7.474760957169564
1021
5.108706858588675
1031
0.0
1011
6.974760957169564
1021
5.608706858588675
1031
0.0
1011
6.974760957169564
1021
5.108706858588675
1031
0.5
1040
0.0
1010
0.0
1020
0.0
1030
1.0
1000
ANSI37
1070
     0
1070
     0
1071
        8
1071
        7
1070
     1
1070
     1
1071
       24
1040
12.2105285919996
1040
23.75243476380623
1040
-0.1989123673796348
1040
11.80047808566087
1040
24.74238425746728
1040
0.0
1040
11.80047808566087
1040
26.03258628282266
1040
-0.4142135623730912
1040
12.32547808566085
1040
26.55758628282265
1040
0.0
1040
15.30047808566076
1040
26.55758628282265
1040
0.4142135623731546
1040
15.82547808566085
1040
27.08258628282264
1040
0.0
1040
15.82547808566085
1040
28.83258628282265
1040
0.4142135623731586
1040
15.30047808566076
1040
29.35758628282265
1040
0.0
1040
11.80047808566087
1040
29.35758628282265
1040
0.4142135623730928
1040
9.000478085660915
1040
26.55758628282268
1040
0.0
1040
9.000478085660915
1040
24.74238425746741
1040
0.1989123673796619
1040
10.23062960467735
1040
21.7725357764838
1040
0.0
1040
13.14042757932202
1040
18.86273780183914
1040
-0.1989123673796613
1040
13.55047808566087
1040
17.87278830817795
1040
0.0
1040
13.55047808566087
1040
16.58258628282264
1040
-0.4142135623730911
1040
13.02547808566089
1040
16.05758628282265
1040
0.0
1040
10.05047808566098
1040
16.05758628282265
1040
0.4142135623731526
1040
9.525478085660893
1040
15.53258628282266
1040
0.0
1040
9.525478085660893
1040
13.78258628282264
1040
0.4142135623731526
1040
10.05047808566098
1040
13.25758628282265
1040
0.0
1040
13.55047808566087
1040
13.25758628282265
1040
0.4142135623731044
1040
16.35047808566094
1040
16.05758628282262
1040
0.0
1040
16.35047808566094
1040
17.87278830817789
1040
0.1989123673796604
1040
15.12032656664439
1040
20.84263678916144
1040
0.0
1071
        0
1071
        7
1070
     1
1070
     1
1071
       16
1040
21.25047808566092
1040
25.15758628282266
1040
-0.4142135623730935
1040
22.65047808566089
1040
26.55758628282265
1040
0.0
1040
24.57547808566085
1040
26.55758628282265
1040
0.4142135623731546
1040
25.10047808566094
1040
27.08258628282264
1040
0.0
1040
25.10047808566094
1040
28.83258628282265
1040
0.4142135623730951
1040
24.57547808566096
1040
29.35758628282265
1040
0.0
1040
22.65047808566078
1040
29.35758628282261
1040
0.4142135623730892
1040
18.45047808566085
1040
25.15758628282259
1040
0.0
1040
18.45047808566085
1040
17.45758628282267
1040
0.4142135623730969
1040
22.65047808566089
1040
13.25758628282265
1040
0.0
1040
24.57547808566085
1040
13.25758628282265
1040
0.4142135623731526
1040
25.10047808566094
1040
13.78258628282264
1040
0.0
1040
25.10047808566094
1040
15.53258628282266
1040
0.4142135623730891
1040
24.57547808566096
1040
16.05758628282265
1040
0.0
1040
22.65047808566089
1040
16.05758628282265
1040
-0.4142135623730928
1040
21.25047808566092
1040
17.45758628282264
1040
0.0
1071
        0
1071
        7
1070
     1
1070
     1
1071
        2
1040
21.95047808566085
1040
21.30758628282265
1040
1.0
1040
25.45047808566085
1040
21.30758628282265
1040
1.0
1071
        0
1071
        7
1070
     1
1070
     1
1071
       26
1040
35.02312456783887
1040
25.31263347638608
1040
0.0
1040
36.08476420097668
1040
28.67449231465567
1040
0.5069206636600134
1040
35.58413330178132
1040
29.35758628282265
1040
0.0
1040
33.8852439221721
1040
29.35758628282265
1040
0.3272098845218764
1040
33.38461302297674
1040
28.99068025098962
1040
0.0
1040
31.51634314834496
1040
23.07449231465573
1040
-0.3272098845219541
1040
31.01571224914949
1040
22.70758628282265
1040
0.0
1040
30.87547808566103
1040
22.70758628282265
1040
-0.4142135623731526
1040
30.35047808566094
1040
23.23258628282263
1040
0.0
1040
30.35047808566094
1040
28.83258628282265
1040
0.4142135623730951
1040
29.82547808566096
1040
29.35758628282265
1040
0.0
1040
28.07547808566085
1040
29.35758628282265
1040
0.4142135623730871
1040
27.55047808566087
1040
28.83258628282267
1040
0.0
1040
27.55047808566087
1040
13.78258628282264
1040
0.4142135623730891
1040
28.07547808566085
1040
13.25758628282265
1040
0.0
1040
29.82547808566085
1040
13.25758628282265
1040
0.4142135623731526
1040
30.35047808566094
1040
13.78258628282264
1040
0.0
1040
30.35047808566094
1040
19.38258628282266
1040
-0.4142135623731526
1040
30.87547808566103
1040
19.90758628282265
1040
0.0
1040
31.0157122491496
1040
19.90758628282265
1040
-0.3272098845218915
1040
31.51634314834496
1040
19.54068025098957
1040
0.0
1040
33.38461302297674
1040
13.62449231465572
1040
0.3272098845218902
1040
33.8852439221721
1040
13.25758628282265
1040
0.0
1040
35.58413330178132
1040
13.25758628282265
1040
0.5069206636600335
1040
36.08476420097668
1040
13.94068025098966
1040
0.0
1040
33.75837282250302
1040
21.30758628282279
1040
0.0
1071
        0
1071
        7
1070
     1
1070
     1
1071
        8
1040
41.20047808566084
1040
28.83258628282266
1040
0.4142135623731546
1040
40.67547808566075
1040
29.35758628282265
1040
0.0
1040
38.92547808566098
1040
29.35758628282265
1040
0.4142135623731507
1040
38.40047808566089
1040
28.83258628282267
1040
0.0
1040
38.40047808566089
1040
13.78258628282264
1040
0.4142135623731526
1040
38.92547808566098
1040
13.25758628282265
1040
0.0
1040
40.67547808566075
1040
13.25758628282265
1040
0.4142135623731526
1040
41.20047808566084
1040
13.78258628282264
1040
0.0
1071
        0
1071
        7
1070
     1
1070
     1
1071
       24
1040
46.10047808566093
1040
26.03258628282266
1040
-0.4142135623731546
1040
46.62547808566102
1040
26.55758628282265
1040
0.0
1040
49.60047808566094
1040
26.55758628282265
1040
0.4142135623730911
1040
50.12547808566091
1040
27.08258628282264
1040
0.0
1040
50.12547808566091
1040
28.83258628282265
1040
0.4142135623730952
1040
49.60047808566094
1040
29.35758628282265
1040
0.0
1040
46.10047808566093
1040
29.35758628282265
1040
0.4142135623731048
1040
43.30047808566087
1040
26.55758628282268
1040
0.0
1040
43.30047808566087
1040
24.74238425746741
1040
0.1989123673796613
1040
44.53062960467741
1040
21.77253577648386
1040
0.0
1040
47.44042757932208
1040
18.86273780183919
1040
-0.1989123673796402
1040
47.85047808566093
1040
17.87278830817811
1040
0.0
1040
47.85047808566093
1040
16.58258628282264
1040
-0.4142135623730911
1040
47.32547808566096
1040
16.05758628282265
1040
0.0
1040
44.35047808566094
1040
16.05758628282265
1040
0.4142135623731526
1040
43.82547808566084
1040
15.53258628282266
1040
0.0
1040
43.82547808566084
1040
13.78258628282264
1040
0.4142135623730891
1040
44.35047808566082
1040
13.25758628282265
1040
0.0
1040
47.85047808566093
1040
13.25758628282265
1040
0.4142135623730925
1040
50.65047808566089
1040
16.05758628282262
1040
0.0
1040
50.65047808566089
1040
17.87278830817789
1040
0.1989123673796675
1040
49.42032656664435
1040
20.84263678916155
1040
0.0
1040
46.51052859199978
1040
23.75243476380607
1040
-0.1989123673796652
1040
46.10047808566093
1040
24.74238425746724
1040
0.0
1071
        0
1071
        7
1070
     1
1070
     1
1071
       16
1040
55.55047808566087
1040
28.83258628282264
1040
0.414213562373103
1040
55.02547808566089
1040
29.35758628282265
1040
0.0
1040
53.27547808566089
1040
29.35758628282265
1040
0.4142135623730871
1040
52.75047808566092
1040
28.83258628282267
1040
0.0
1040
52.75047808566092
1040
16.05758628282262
1040
0.4142135623730926
1040
55.55047808566087
1040
13.25758628282265
1040
0.0
1040
59.05047808566087
1040
13.25758628282265
1040
0.4142135623731044
1040
61.85047808566094
1040
16.05758628282262
1040
0.0
1040
61.85047808566094
1040
28.83258628282265
1040
0.4142135623730951
1040
61.32547808566096
1040
29.35758628282265
1040
0.0
1040
59.57547808566085
1040
29.35758628282265
1040
0.4142135623730871
1040
59.05047808566087
1040
28.83258628282267
1040
0.0
1040
59.05047808566087
1040
17.10758628282262
1040
-0.414213562373088
1040
58.00047808566091
1040
16.05758628282265
1040
0.0
1040
56.60047808566094
1040
16.05758628282265
1040
-0.4142135623731197
1040
55.55047808566087
1040
17.10758628282262
1040
0.0
1071
        0
1071
        7
1070
     1
1070
     1
1071
        8
1040
66.75047808566091
1040
28.83258628282267
1040
0.4142135623730871
1040
66.22547808566094
1040
29.35758628282265
1040
0.0
1040
64.47547808566094
1040
29.35758628282265
1040
0.4142135623731507
1040
63.95047808566085
1040
28.83258628282267
1040
0.0
1040
63.95047808566085
1040
13.78258628282264
1040
0.4142135623730891
1040
64.47547808566082
1040
13.25758628282265
1040
0.0
1040
66.22547808566094
1040
13.25758628282265
1040
0.4142135623730891
1040
66.75047808566091
1040
13.78258628282264
1040
0.0
1071
        0
1070
     0
1070
     1
1040
0.0
1040
0.2
1070
     0
1070
     2
1040
0.7853981633974483
1040
-903.2340384037992
1040
-7.092413717177286
1040
-0.4490128060534576
1040
0.4490128060534577
1070
     0
1040
2.356194490192344
1040
-903.2340384037992
1040
-7.092413717177286
1040
-0.4490128060534577
1040
-0.4490128060534576
1070
     0
1040
0.057451373970553
1071
        8
1040
13.78812089390305
1040
21.2747599287082
1040
0.0
1040
20.11278093731892
1040
24.95164846527366
1040
0.0
1040
22.87263381653941
1040
21.61946792889336
1040
0.0
1040
28.62232591251689
1040
22.30888392926415
1040
0.0
1040
39.54673794983648
1040
22.76849619680576
1040
0.0
1040
44.6064668260093
1040
25.52616259922986
1040
0.0
1040
54.2659519032801
1040
24.83674419791766
1040
0.0
1040
65.53534555050248
1040
25.29635646545928
1040
0.0
1002
}
  0
LINE
  5
603
330
1A
100
AcDbEntity
  8
ZUWAKU
100
AcDbLine
 10
18.30000000000001
 20
19.78749999999998
 30
0.0
 11
19.26249999999999
 21
19.7875
 31
0.0
  0
LINE
  5
604
330
1A
100
AcDbEntity
  8
ZUWAKU
100
AcDbLine
 10
19.26249999999999
 20
18.3875
 30
0.0
 11
18.30000000000001
 21
18.3875
 31
0.0
  0
LINE
  5
605
330
1A
100
AcDbEntity
  8
ZUWAKU
100
AcDbLine
 10
18.30000000000001
 20
13.1375
 30
0.0
 11
19.26249999999999
 21
13.1375
 31
0.0
  0
LINE
  5
606
330
1A
100
AcDbEntity
  8
ZUWAKU
100
AcDbLine
 10
19.26249999999999
 20
11.7375
 30
0.0
 11
18.30000000000001
 21
11.7375
 31
0.0
  0
CIRCLE
  5
607
330
1A
100
AcDbEntity
  8
ZUWAKU
100
AcDbCircle
 10
18.82499999999999
 20
15.7625
 30
0.0
 40
0.875
  0
ARC
  5
608
330
1A
100
AcDbEntity
  8
ZUWAKU
100
AcDbCircle
 10
13.05000000000001
 20
14.04510101267767
 30
0.0
 40
0.7
100
AcDbArc
 50
0.0
 51
44.99999999999964
  0
ARC
  5
609
330
1A
100
AcDbEntity
  8
ZUWAKU
100
AcDbCircle
 10
13.05000000000001
 20
14.04510101267765
 30
0.0
 40
2.099999999999999
100
AcDbArc
 50
0.0
 51
44.99999999999964
  0
LINE
  5
60A
330
1A
100
AcDbEntity
  8
ZUWAKU
100
AcDbLine
 10
17.60000000000002
 20
17.6875
 30
0.0
 11
17.60000000000002
 21
13.8375
 31
0.0
  0
LINE
  5
60B
330
1A
100
AcDbEntity
  8
ZUWAKU
100
AcDbLine
 10
16.19999999999999
 20
13.8375
 30
0.0
 11
16.19999999999999
 21
17.68749999999998
 31
0.0
  0
ARC
  5
60C
330
1A
100
AcDbEntity
  8
ZUWAKU
100
AcDbCircle
 10
13.75
 20
13.1375
 30
0.0
 40
1.399999999999999
100
AcDbArc
 50
270.0
 51
0.0
  0
LINE
  5
60D
330
1A
100
AcDbEntity
  8
ZUWAKU
100
AcDbLine
 10
13.75
 20
13.4
 30
0.0
 11
13.75
 21
14.04510101267767
 31
0.0
  0
ARC
  5
60E
330
1A
100
AcDbEntity
  8
ZUWAKU
100
AcDbCircle
 10
13.48750000000001
 20
13.4
 30
0.0
 40
0.2625
100
AcDbArc
 50
270.0
 51
0.0
  0
LINE
  5
60F
330
1A
100
AcDbEntity
  8
ZUWAKU
100
AcDbLine
 10
11.73750000000001
 20
12.0
 30
0.0
 11
11.73750000000001
 21
12.875
 31
0.0
  0
ARC
  5
610
330
1A
100
AcDbEntity
  8
ZUWAKU
100
AcDbCircle
 10
12.0
 20
12.0
 30
0.0
 40
0.2625
100
AcDbArc
 50
180.0
 51
270.0
  0
ARC
  5
611
330
1A
100
AcDbEntity
  8
ZUWAKU
100
AcDbCircle
 10
12.0
 20
12.875
 30
0.0
 40
0.2625
100
AcDbArc
 50
90.0
 51
180.0
  0
LINE
  5
612
330
1A
100
AcDbEntity
  8
ZUWAKU
100
AcDbLine
 10
12.0
 20
11.7375
 30
0.0
 11
13.75
 21
11.7375
 31
0.0
  0
LINE
  5
613
330
1A
100
AcDbEntity
  8
ZUWAKU
100
AcDbLine
 10
12.0
 20
13.1375
 30
0.0
 11
13.48750000000001
 21
13.1375
 31
0.0
  0
LINE
  5
614
330
1A
100
AcDbEntity
  8
ZUWAKU
100
AcDbLine
 10
15.15000000000003
 20
13.1375
 30
0.0
 11
15.15000000000003
 21
14.04510101267767
 31
0.0
  0
ARC
  5
615
330
1A
100
AcDbEntity
  8
ZUWAKU
100
AcDbCircle
 10
18.30000000000001
 20
13.8375
 30
0.0
 40
0.7
100
AcDbArc
 50
180.0
 51
270.0
  0
ARC
  5
616
330
1A
100
AcDbEntity
  8
ZUWAKU
100
AcDbCircle
 10
18.30000000000001
 20
13.8375
 30
0.0
 40
2.099999999999999
100
AcDbArc
 50
180.0
 51
270.0
  0
ARC
  5
617
330
1A
100
AcDbEntity
  8
ZUWAKU
100
AcDbCircle
 10
18.30000000000001
 20
17.68749999999998
 30
0.0
 40
2.099999999999999
100
AcDbArc
 50
90.0
 51
180.0
  0
ARC
  5
618
330
1A
100
AcDbEntity
  8
ZUWAKU
100
AcDbCircle
 10
14.625
 20
19.525
 30
0.0
 40
0.2625
100
AcDbArc
 50
0.0
 51
90.0
  0
ARC
  5
619
330
1A
100
AcDbEntity
  8
ZUWAKU
100
AcDbCircle
 10
14.625
 20
18.65
 30
0.0
 40
0.2625
100
AcDbArc
 50
270.0
 51
0.0
  0
LINE
  5
61A
330
1A
100
AcDbEntity
  8
ZUWAKU
100
AcDbLine
 10
12.875
 20
19.7875
 30
0.0
 11
14.625
 21
19.7875
 31
0.0
  0
ARC
  5
61B
330
1A
100
AcDbEntity
  8
ZUWAKU
100
AcDbCircle
 10
13.13749999999999
 20
18.125
 30
0.0
 40
0.2625
100
AcDbArc
 50
90.0
 51
180.0
  0
LINE
  5
61C
330
1A
100
AcDbEntity
  8
ZUWAKU
100
AcDbLine
 10
12.875
 20
18.125
 30
0.0
 11
12.875
 21
17.47989898732233
 31
0.0
  0
LINE
  5
61D
330
1A
100
AcDbEntity
  8
ZUWAKU
100
AcDbLine
 10
14.625
 20
18.3875
 30
0.0
 11
13.13749999999999
 21
18.3875
 31
0.0
  0
LINE
  5
61E
330
1A
100
AcDbEntity
  8
ZUWAKU
100
AcDbLine
 10
11.47500000000002
 20
18.3875
 30
0.0
 11
11.47500000000002
 21
17.47989898732233
 31
0.0
  0
ARC
  5
61F
330
1A
100
AcDbEntity
  8
ZUWAKU
100
AcDbCircle
 10
12.875
 20
18.3875
 30
0.0
 40
1.399999999999999
100
AcDbArc
 50
90.0
 51
180.0
  0
LINE
  5
620
330
1A
100
AcDbEntity
  8
ZUWAKU
100
AcDbLine
 10
14.53492424049176
 20
15.53002525316941
 30
0.0
 11
13.08002525316942
 21
16.98492424049175
 31
0.0
  0
LINE
  5
621
330
1A
100
AcDbEntity
  8
ZUWAKU
100
AcDbLine
 10
12.09007575950824
 20
15.99497474683059
 30
0.0
 11
13.54497474683057
 21
14.54007575950826
 31
0.0
  0
ARC
  5
622
330
1A
100
AcDbEntity
  8
ZUWAKU
100
AcDbCircle
 10
13.57499999999999
 20
17.47989898732235
 30
0.0
 40
0.7
100
AcDbArc
 50
180.0000000000016
 51
224.9999999999993
  0
ARC
  5
623
330
1A
100
AcDbEntity
  8
ZUWAKU
100
AcDbCircle
 10
13.57499999999999
 20
17.47989898732235
 30
0.0
 40
2.099999999999999
100
AcDbArc
 50
180.0
 51
224.9999999999996
  0
LINE
  5
624
330
1A
100
AcDbEntity
  8
ZUWAKU
100
AcDbLine
 10
14.88749999999999
 20
19.525
 30
0.0
 11
14.88749999999999
 21
18.65
 31
0.0
  0
ARC
  5
625
330
1A
100
AcDbEntity
  8
ZUWAKU
100
AcDbCircle
 10
18.30000000000001
 20
17.6875
 30
0.0
 40
0.7
100
AcDbArc
 50
90.0
 51
180.0
  0
ARC
  5
626
330
1A
100
AcDbEntity
  8
ZUWAKU
100
AcDbCircle
 10
30.19999999999999
 20
14.04510101267765
 30
0.0
 40
2.099999999999999
100
AcDbArc
 50
0.0
 51
44.99999999999964
  0
ARC
  5
627
330
1A
100
AcDbEntity
  8
ZUWAKU
100
AcDbCircle
 10
30.19999999999999
 20
14.04510101267767
 30
0.0
 40
0.7
100
AcDbArc
 50
0.0
 51
44.99999999999964
  0
LINE
  5
628
330
1A
100
AcDbEntity
  8
ZUWAKU
100
AcDbLine
 10
25.01714305765791
 20
12.07904698408349
 30
0.0
 11
23.85394736842108
 21
15.76250000000001
 31
0.0
  0
LINE
  5
629
330
1A
100
AcDbEntity
  8
ZUWAKU
100
AcDbLine
 10
22.15000000000003
 20
12.0
 30
0.0
 11
22.15000000000003
 21
14.8
 31
0.0
  0
LINE
  5
62A
330
1A
100
AcDbEntity
  8
ZUWAKU
100
AcDbLine
 10
23.66706746865793
 20
11.92095301591651
 30
0.0
 11
22.73293253134204
 21
14.87904698408348
 31
0.0
  0
TEXT
  5
62B
330
1A
100
AcDbEntity
  8
moji
100
AcDbText
 10
52.307788716694
 20
14.53308906513738
 30
0.0
 40
3.0
  1
大型　たてとい
 41
0.9
  7
ｽﾀｲﾙ1
100
AcDbText
  0
LINE
  5
62C
330
1A
100
AcDbEntity
  8
ZUWAKU
100
AcDbLine
 10
45.49220869660354
 20
23.1625
 30
0.0
 11
45.49220869660365
 21
8.562500000000031
 31
0.0
  0
LINE
  5
62D
330
1A
100
AcDbEntity
  8
ZUWAKU
100
AcDbLine
 10
45.59220869660356
 20
23.1625
 30
0.0
 11
45.59220869660367
 21
8.562500000000031
 31
0.0
  0
LINE
  5
62E
330
1A
100
AcDbEntity
  8
ZUWAKU
100
AcDbLine
 10
45.39220869660363
 20
23.1625
 30
0.0
 11
45.39220869660363
 21
8.562500000000031
 31
0.0
  0
LINE
  5
62F
330
1A
100
AcDbEntity
  8
ZUWAKU
100
AcDbLine
 10
37.90000000000004
 20
13.1375
 30
0.0
 11
37.90000000000004
 21
19.525
 31
0.0
  0
LINE
  5
630
330
1A
100
AcDbEntity
  8
ZUWAKU
100
AcDbLine
 10
36.5
 20
19.525
 30
0.0
 11
36.5
 21
13.6625
 31
0.0
  0
LINE
  5
631
330
1A
100
AcDbEntity
  8
ZUWAKU
100
AcDbLine
 10
40.35000000000002
 20
12.0
 30
0.0
 11
40.35000000000002
 21
19.525
 31
0.0
  0
LINE
  5
632
330
1A
100
AcDbEntity
  8
ZUWAKU
100
AcDbLine
 10
38.94999999999999
 20
19.525
 30
0.0
 11
38.94999999999999
 21
12.0
 31
0.0
  0
LINE
  5
633
330
1A
100
AcDbEntity
  8
ZUWAKU
100
AcDbLine
 10
26.17500000000001
 20
19.525
 30
0.0
 11
26.17500000000001
 21
12.0
 31
0.0
  0
LINE
  5
634
330
1A
100
AcDbEntity
  8
ZUWAKU
100
AcDbLine
 10
27.57499999999999
 20
12.0
 30
0.0
 11
27.57499999999999
 21
19.525
 31
0.0
  0
LINE
  5
635
330
1A
100
AcDbEntity
  8
ZUWAKU
100
AcDbLine
 10
33.35000000000003
 20
19.525
 30
0.0
 11
33.35000000000003
 21
13.1375
 31
0.0
  0
LINE
  5
636
330
1A
100
AcDbEntity
  8
ZUWAKU
100
AcDbLine
 10
34.75
 20
13.6625
 30
0.0
 11
34.75
 21
19.525
 31
0.0
  0
LINE
  5
637
330
1A
100
AcDbEntity
  8
ZUWAKU
100
AcDbLine
 10
20.75
 20
19.525
 30
0.0
 11
20.75
 21
12.0
 31
0.0
  0
LINE
  5
638
330
1A
100
AcDbEntity
  8
ZUWAKU
100
AcDbLine
 10
35.97500000000002
 20
13.1375
 30
0.0
 11
35.27500000000003
 21
13.1375
 31
0.0
  0
LINE
  5
639
330
1A
100
AcDbEntity
  8
ZUWAKU
100
AcDbLine
 10
34.75
 20
11.7375
 30
0.0
 11
36.5
 21
11.7375
 31
0.0
  0
LINE
  5
63A
330
1A
100
AcDbEntity
  8
ZUWAKU
100
AcDbLine
 10
26.4375
 20
11.7375
 30
0.0
 11
27.3125
 21
11.7375
 31
0.0
  0
LINE
  5
63B
330
1A
100
AcDbEntity
  8
ZUWAKU
100
AcDbLine
 10
21.01249999999999
 20
11.7375
 30
0.0
 11
21.88749999999999
 21
11.7375
 31
0.0
  0
ARC
  5
63C
330
1A
100
AcDbEntity
  8
ZUWAKU
100
AcDbCircle
 10
21.88749999999999
 20
12.0
 30
0.0
 40
0.2625
100
AcDbArc
 50
270.0
 51
0.0
  0
LINE
  5
63D
330
1A
100
AcDbEntity
  8
ZUWAKU
100
AcDbLine
 10
19.52500000000003
 20
12.875
 30
0.0
 11
19.52500000000003
 21
12.0
 31
0.0
  0
ARC
  5
63E
330
1A
100
AcDbEntity
  8
ZUWAKU
100
AcDbCircle
 10
19.26249999999999
 20
12.0
 30
0.0
 40
0.2625
100
AcDbArc
 50
270.0
 51
0.0
  0
ARC
  5
63F
330
1A
100
AcDbEntity
  8
ZUWAKU
100
AcDbCircle
 10
19.26249999999999
 20
12.875
 30
0.0
 40
0.2625
100
AcDbArc
 50
0.0
 51
90.0
  0
ARC
  5
640
330
1A
100
AcDbEntity
  8
ZUWAKU
100
AcDbCircle
 10
21.01249999999999
 20
12.0
 30
0.0
 40
0.2625
100
AcDbArc
 50
180.0
 51
270.0
  0
ARC
  5
641
330
1A
100
AcDbEntity
  8
ZUWAKU
100
AcDbCircle
 10
26.4375
 20
12.0
 30
0.0
 40
0.2625
100
AcDbArc
 50
180.0
 51
270.0
  0
LINE
  5
642
330
1A
100
AcDbEntity
  8
ZUWAKU
100
AcDbLine
 10
23.91738291825567
 20
11.7375
 30
0.0
 11
24.76682760806017
 21
11.7375
 31
0.0
  0
ARC
  5
643
330
1A
100
AcDbEntity
  8
ZUWAKU
100
AcDbCircle
 10
24.76682760806017
 20
12.0
 30
0.0
 40
0.2625
100
AcDbArc
 50
270.0
 51
17.52556837372269
  0
ARC
  5
644
330
1A
100
AcDbEntity
  8
ZUWAKU
100
AcDbCircle
 10
23.91738291825567
 20
12.0
 30
0.0
 40
0.2625
100
AcDbArc
 50
197.5255683737227
 51
270.0
  0
ARC
  5
645
330
1A
100
AcDbEntity
  8
ZUWAKU
100
AcDbCircle
 10
30.90000000000003
 20
13.1375
 30
0.0
 40
1.399999999999999
100
AcDbArc
 50
270.0
 51
0.0
  0
LINE
  5
646
330
1A
100
AcDbEntity
  8
ZUWAKU
100
AcDbLine
 10
30.90000000000003
 20
13.4
 30
0.0
 11
30.90000000000003
 21
14.04510101267767
 31
0.0
  0
ARC
  5
647
330
1A
100
AcDbEntity
  8
ZUWAKU
100
AcDbCircle
 10
30.63749999999999
 20
13.4
 30
0.0
 40
0.2625
100
AcDbArc
 50
270.0
 51
0.0
  0
LINE
  5
648
330
1A
100
AcDbEntity
  8
ZUWAKU
100
AcDbLine
 10
28.88749999999999
 20
12.0
 30
0.0
 11
28.88749999999999
 21
12.875
 31
0.0
  0
ARC
  5
649
330
1A
100
AcDbEntity
  8
ZUWAKU
100
AcDbCircle
 10
29.15000000000004
 20
12.0
 30
0.0
 40
0.2625
100
AcDbArc
 50
180.0
 51
270.0
  0
ARC
  5
64A
330
1A
100
AcDbEntity
  8
ZUWAKU
100
AcDbCircle
 10
27.3125
 20
12.0
 30
0.0
 40
0.2625
100
AcDbArc
 50
270.0
 51
0.0
  0
ARC
  5
64B
330
1A
100
AcDbEntity
  8
ZUWAKU
100
AcDbCircle
 10
29.15000000000004
 20
12.875
 30
0.0
 40
0.2625
100
AcDbArc
 50
90.0
 51
180.0
  0
LINE
  5
64C
330
1A
100
AcDbEntity
  8
ZUWAKU
100
AcDbLine
 10
29.15000000000004
 20
13.1375
 30
0.0
 11
30.63749999999999
 21
13.1375
 31
0.0
  0
LINE
  5
64D
330
1A
100
AcDbEntity
  8
ZUWAKU
100
AcDbLine
 10
29.15000000000004
 20
11.7375
 30
0.0
 11
30.90000000000003
 21
11.7375
 31
0.0
  0
LINE
  5
64E
330
1A
100
AcDbEntity
  8
ZUWAKU
100
AcDbLine
 10
32.30000000000001
 20
13.1375
 30
0.0
 11
32.30000000000001
 21
14.04510101267767
 31
0.0
  0
ARC
  5
64F
330
1A
100
AcDbEntity
  8
ZUWAKU
100
AcDbCircle
 10
35.27500000000003
 20
13.6625
 30
0.0
 40
0.525
100
AcDbArc
 50
180.0
 51
270.0
  0
ARC
  5
650
330
1A
100
AcDbEntity
  8
ZUWAKU
100
AcDbCircle
 10
34.75
 20
13.1375
 30
0.0
 40
1.399999999999999
100
AcDbArc
 50
180.0
 51
270.0
  0
LINE
  5
651
330
1A
100
AcDbEntity
  8
ZUWAKU
100
AcDbLine
 10
39.21250000000004
 20
11.7375
 30
0.0
 11
40.08750000000003
 21
11.7375
 31
0.0
  0
ARC
  5
652
330
1A
100
AcDbEntity
  8
ZUWAKU
100
AcDbCircle
 10
39.21250000000004
 20
12.0
 30
0.0
 40
0.2625
100
AcDbArc
 50
180.0
 51
270.0
  0
ARC
  5
653
330
1A
100
AcDbEntity
  8
ZUWAKU
100
AcDbCircle
 10
35.97500000000002
 20
13.6625
 30
0.0
 40
0.525
100
AcDbArc
 50
270.0
 51
0.0
  0
ARC
  5
654
330
1A
100
AcDbEntity
  8
ZUWAKU
100
AcDbCircle
 10
36.5
 20
13.1375
 30
0.0
 40
1.399999999999999
100
AcDbArc
 50
270.0
 51
0.0
  0
ARC
  5
655
330
1A
100
AcDbEntity
  8
ZUWAKU
100
AcDbCircle
 10
40.08750000000003
 20
12.0
 30
0.0
 40
0.2625
100
AcDbArc
 50
270.0
 51
0.0
  0
LINE
  5
656
330
1A
100
AcDbEntity
  8
ZUWAKU
100
AcDbLine
 10
27.3125
 20
19.7875
 30
0.0
 11
26.4375
 21
19.7875
 31
0.0
  0
LINE
  5
657
330
1A
100
AcDbEntity
  8
ZUWAKU
100
AcDbLine
 10
23.66706746865793
 20
19.60404698408348
 30
0.0
 11
22.73293253134204
 21
16.64595301591651
 31
0.0
  0
ARC
  5
658
330
1A
100
AcDbEntity
  8
ZUWAKU
100
AcDbCircle
 10
21.88749999999999
 20
19.525
 30
0.0
 40
0.2625
100
AcDbArc
 50
0.0
 51
90.0
  0
LINE
  5
659
330
1A
100
AcDbEntity
  8
ZUWAKU
100
AcDbLine
 10
21.88749999999999
 20
19.7875
 30
0.0
 11
21.01249999999999
 21
19.7875
 31
0.0
  0
ARC
  5
65A
330
1A
100
AcDbEntity
  8
ZUWAKU
100
AcDbCircle
 10
19.26249999999999
 20
19.525
 30
0.0
 40
0.2625
100
AcDbArc
 50
0.0
 51
90.0
  0
ARC
  5
65B
330
1A
100
AcDbEntity
  8
ZUWAKU
100
AcDbCircle
 10
21.01249999999999
 20
19.525
 30
0.0
 40
0.2625
100
AcDbArc
 50
90.0
 51
180.0
  0
ARC
  5
65C
330
1A
100
AcDbEntity
  8
ZUWAKU
100
AcDbCircle
 10
19.26249999999999
 20
18.65
 30
0.0
 40
0.2625
100
AcDbArc
 50
270.0
 51
0.0
  0
LINE
  5
65D
330
1A
100
AcDbEntity
  8
ZUWAKU
100
AcDbLine
 10
19.52500000000003
 20
19.525
 30
0.0
 11
19.52500000000003
 21
18.65
 31
0.0
  0
ARC
  5
65E
330
1A
100
AcDbEntity
  8
ZUWAKU
100
AcDbCircle
 10
22.48261708174437
 20
16.725
 30
0.0
 40
0.2625
100
AcDbArc
 50
270.0
 51
342.4744316262774
  0
LINE
  5
65F
330
1A
100
AcDbEntity
  8
ZUWAKU
100
AcDbLine
 10
22.48261708174437
 20
16.4625
 30
0.0
 11
22.41250000000002
 21
16.4625
 31
0.0
  0
LINE
  5
660
330
1A
100
AcDbEntity
  8
ZUWAKU
100
AcDbLine
 10
22.41250000000002
 20
15.0625
 30
0.0
 11
22.48261708174437
 21
15.0625
 31
0.0
  0
ARC
  5
661
330
1A
100
AcDbEntity
  8
ZUWAKU
100
AcDbCircle
 10
22.41250000000002
 20
16.725
 30
0.0
 40
0.2625
100
AcDbArc
 50
180.0
 51
270.0
  0
ARC
  5
662
330
1A
100
AcDbEntity
  8
ZUWAKU
100
AcDbCircle
 10
22.48261708174437
 20
14.8
 30
0.0
 40
0.2625
100
AcDbArc
 50
17.52556837372269
 51
90.0
  0
ARC
  5
663
330
1A
100
AcDbEntity
  8
ZUWAKU
100
AcDbCircle
 10
22.41250000000002
 20
14.8
 30
0.0
 40
0.2625
100
AcDbArc
 50
90.0
 51
180.0
  0
LINE
  5
664
330
1A
100
AcDbEntity
  8
ZUWAKU
100
AcDbLine
 10
22.15000000000003
 20
16.725
 30
0.0
 11
22.15000000000003
 21
19.525
 31
0.0
  0
ARC
  5
665
330
1A
100
AcDbEntity
  8
ZUWAKU
100
AcDbCircle
 10
26.4375
 20
19.525
 30
0.0
 40
0.2625
100
AcDbArc
 50
90.0
 51
180.0
  0
LINE
  5
666
330
1A
100
AcDbEntity
  8
ZUWAKU
100
AcDbLine
 10
23.91738291825567
 20
19.7875
 30
0.0
 11
24.76682760806017
 21
19.7875
 31
0.0
  0
ARC
  5
667
330
1A
100
AcDbEntity
  8
ZUWAKU
100
AcDbCircle
 10
24.76682760806017
 20
19.525
 30
0.0
 40
0.2625
100
AcDbArc
 50
342.4744316262774
 51
90.0
  0
LINE
  5
668
330
1A
100
AcDbEntity
  8
ZUWAKU
100
AcDbLine
 10
25.01714305765791
 20
19.44595301591651
 30
0.0
 11
24.486323241089
 21
17.76502359678171
 31
0.0
  0
ARC
  5
669
330
1A
100
AcDbEntity
  8
ZUWAKU
100
AcDbCircle
 10
23.91738291825567
 20
19.525
 30
0.0
 40
0.2625
100
AcDbArc
 50
90.0
 51
162.4744316262772
  0
LINE
  5
66A
330
1A
100
AcDbEntity
  8
ZUWAKU
100
AcDbLine
 10
24.486323241089
 20
17.76502359678171
 30
0.0
 11
23.85394736842108
 21
15.76250000000001
 31
0.0
  0
LINE
  5
66B
330
1A
100
AcDbEntity
  8
ZUWAKU
100
AcDbLine
 10
30.02500000000003
 20
19.7875
 30
0.0
 11
31.77500000000004
 21
19.7875
 31
0.0
  0
LINE
  5
66C
330
1A
100
AcDbEntity
  8
ZUWAKU
100
AcDbLine
 10
31.77500000000004
 20
18.3875
 30
0.0
 11
30.28750000000002
 21
18.3875
 31
0.0
  0
LINE
  5
66D
330
1A
100
AcDbEntity
  8
ZUWAKU
100
AcDbLine
 10
31.6849242404918
 20
15.53002525316941
 30
0.0
 11
30.2300252531694
 21
16.98492424049175
 31
0.0
  0
ARC
  5
66E
330
1A
100
AcDbEntity
  8
ZUWAKU
100
AcDbCircle
 10
30.28750000000002
 20
18.125
 30
0.0
 40
0.2625
100
AcDbArc
 50
90.0
 51
180.0
  0
LINE
  5
66F
330
1A
100
AcDbEntity
  8
ZUWAKU
100
AcDbLine
 10
30.02500000000003
 20
18.125
 30
0.0
 11
30.02500000000003
 21
17.47989898732233
 31
0.0
  0
ARC
  5
670
330
1A
100
AcDbEntity
  8
ZUWAKU
100
AcDbCircle
 10
27.3125
 20
19.525
 30
0.0
 40
0.2625
100
AcDbArc
 50
0.0
 51
90.0
  0
LINE
  5
671
330
1A
100
AcDbEntity
  8
ZUWAKU
100
AcDbLine
 10
28.625
 20
18.3875
 30
0.0
 11
28.625
 21
17.47989898732233
 31
0.0
  0
ARC
  5
672
330
1A
100
AcDbEntity
  8
ZUWAKU
100
AcDbCircle
 10
30.02500000000003
 20
18.3875
 30
0.0
 40
1.399999999999999
100
AcDbArc
 50
90.0
 51
180.0
  0
LINE
  5
673
330
1A
100
AcDbEntity
  8
ZUWAKU
100
AcDbLine
 10
29.24007575950827
 20
15.99497474683059
 30
0.0
 11
30.69497474683061
 21
14.54007575950826
 31
0.0
  0
ARC
  5
674
330
1A
100
AcDbEntity
  8
ZUWAKU
100
AcDbCircle
 10
30.72500000000002
 20
17.47989898732235
 30
0.0
 40
0.7
100
AcDbArc
 50
180.0000000000016
 51
224.9999999999993
  0
ARC
  5
675
330
1A
100
AcDbEntity
  8
ZUWAKU
100
AcDbCircle
 10
30.72500000000002
 20
17.47989898732235
 30
0.0
 40
2.099999999999999
100
AcDbArc
 50
180.0
 51
224.9999999999996
  0
ARC
  5
676
330
1A
100
AcDbEntity
  8
ZUWAKU
100
AcDbCircle
 10
34.48750000000001
 20
19.525
 30
0.0
 40
0.2625
100
AcDbArc
 50
0.0
 51
90.0
  0
ARC
  5
677
330
1A
100
AcDbEntity
  8
ZUWAKU
100
AcDbCircle
 10
33.61250000000001
 20
19.525
 30
0.0
 40
0.2625
100
AcDbArc
 50
90.0
 51
180.0
  0
LINE
  5
678
330
1A
100
AcDbEntity
  8
ZUWAKU
100
AcDbLine
 10
34.48750000000001
 20
19.7875
 30
0.0
 11
33.61250000000001
 21
19.7875
 31
0.0
  0
ARC
  5
679
330
1A
100
AcDbEntity
  8
ZUWAKU
100
AcDbCircle
 10
31.77500000000004
 20
19.525
 30
0.0
 40
0.2625
100
AcDbArc
 50
0.0
 51
90.0
  0
ARC
  5
67A
330
1A
100
AcDbEntity
  8
ZUWAKU
100
AcDbCircle
 10
31.77500000000004
 20
18.65
 30
0.0
 40
0.2625
100
AcDbArc
 50
270.0
 51
0.0
  0
LINE
  5
67B
330
1A
100
AcDbEntity
  8
ZUWAKU
100
AcDbLine
 10
32.03750000000002
 20
19.525
 30
0.0
 11
32.03750000000002
 21
18.65
 31
0.0
  0
LINE
  5
67C
330
1A
100
AcDbEntity
  8
ZUWAKU
100
AcDbLine
 10
40.08750000000003
 20
19.7875
 30
0.0
 11
39.21250000000004
 21
19.7875
 31
0.0
  0
ARC
  5
67D
330
1A
100
AcDbEntity
  8
ZUWAKU
100
AcDbCircle
 10
39.21250000000004
 20
19.525
 30
0.0
 40
0.2625
100
AcDbArc
 50
90.0
 51
180.0
  0
ARC
  5
67E
330
1A
100
AcDbEntity
  8
ZUWAKU
100
AcDbCircle
 10
37.63749999999999
 20
19.525
 30
0.0
 40
0.2625
100
AcDbArc
 50
0.0
 51
90.0
  0
LINE
  5
67F
330
1A
100
AcDbEntity
  8
ZUWAKU
100
AcDbLine
 10
37.63749999999999
 20
19.7875
 30
0.0
 11
36.76249999999999
 21
19.7875
 31
0.0
  0
ARC
  5
680
330
1A
100
AcDbEntity
  8
ZUWAKU
100
AcDbCircle
 10
36.76249999999999
 20
19.525
 30
0.0
 40
0.2625
100
AcDbArc
 50
90.0
 51
180.0
  0
ARC
  5
681
330
1A
100
AcDbEntity
  8
ZUWAKU
100
AcDbCircle
 10
40.08750000000003
 20
19.525
 30
0.0
 40
0.2625
100
AcDbArc
 50
0.0
 51
90.0
  0
TEXT
  5
682
330
1A
100
AcDbEntity
  8
ZUWAKU
100
AcDbText
 10
110.6909170787482
 20
12.9901782691928
 30
0.0
 40
2.0
  1
サイズ
 41
0.9
  7
ｽﾀｲﾙ1
100
AcDbText
  0
LINE
  5
683
330
1A
100
AcDbEntity
  8
ZUWAKU
100
AcDbLine
 10
109.9521945676434
 20
23.1625
 30
0.0
 11
109.9521945676434
 21
8.562500000000031
 31
0.0
  0
LINE
  5
684
330
1A
100
AcDbEntity
  8
ZUWAKU
100
AcDbLine
 10
110.1521945676433
 20
23.1625
 30
0.0
 11
110.1521945676434
 21
8.562500000000031
 31
0.0
  0
LINE
  5
685
330
1A
100
AcDbEntity
  8
ZUWAKU
100
AcDbLine
 10
110.0521945676433
 20
23.1625
 30
0.0
 11
110.0521945676434
 21
8.562500000000031
 31
0.0
  0
TEXT
  5
686
330
1A
100
AcDbEntity
  8
moji
100
AcDbText
 10
125.742495263035
 20
9.764960528703708
 30
0.0
 40
2.799999999999999
  1
ＮＣＯ６５
 41
0.9
  7
ｽﾀｲﾙ1
100
AcDbText
  0
TEXT
  5
687
330
1A
100
AcDbEntity
  8
ZUWAKU
100
AcDbText
 10
110.6909170787481
 20
20.19017826919279
 30
0.0
 40
2.0
  1
品名
 41
0.9
  7
ｽﾀｲﾙ1
100
AcDbText
  0
TEXT
  5
688
330
1A
100
AcDbEntity
  8
moji
100
AcDbText
 10
125.742495263035
 20
17.16496052870369
 30
0.0
 40
2.799999999999999
  1
ネジ式掃除口
 41
0.9
  7
ｽﾀｲﾙ1
100
AcDbText
  0
LINE
  5
697
330
1A
100
AcDbEntity
  8
ZUWAKU
100
AcDbLine
 10
330.2374951777115
 20
15.76250000000001
 30
0.0
 11
354.4533991968802
 21
15.76250000000001
 31
0.0
  0
LINE
  5
698
330
1A
100
AcDbEntity
  8
ZUWAKU
100
AcDbLine
 10
330.2374951777118
 20
15.86250000000001
 30
0.0
 11
354.4533991968802
 21
15.86250000000001
 31
0.0
  0
LINE
  5
699
330
1A
100
AcDbEntity
  8
ZUWAKU
100
AcDbLine
 10
330.2374951777115
 20
15.96250000000001
 30
0.0
 11
354.4533991968802
 21
15.96250000000001
 31
0.0
  0
TEXT
  5
69A
330
1A
100
AcDbEntity
  8
ZUWAKU
100
AcDbText
 10
334.9308627662606
 20
17.16496052870369
 30
0.0
 40
2.799999999999999
  1
　　．　　．　　
 41
0.9
  7
ｽﾀｲﾙ1
100
AcDbText
  0
LINE
  5
69B
330
1A
100
AcDbEntity
  8
ZUWAKU
100
AcDbLine
 10
282.1923718056656
 20
23.1625
 30
0.0
 11
282.1923718056657
 21
8.562500000000031
 31
0.0
  0
LINE
  5
69C
330
1A
100
AcDbEntity
  8
ZUWAKU
100
AcDbLine
 10
282.0923718056657
 20
23.1625
 30
0.0
 11
282.0923718056657
 21
8.562500000000031
 31
0.0
  0
TEXT
  5
69D
330
1A
100
AcDbEntity
  8
ZUWAKU
100
AcDbText
 10
259.1672061827848
 20
12.9901782691928
 30
0.0
 40
2.0
  1
縮尺
 41
0.9
  7
ｽﾀｲﾙ1
100
AcDbText
  0
LINE
  5
69F
330
1A
100
AcDbEntity
  8
ZUWAKU
100
AcDbLine
 10
229.6410759081051
 20
23.1625
 30
0.0
 11
229.6410759081052
 21
8.562500000000031
 31
0.0
  0
LINE
  5
6A0
330
1A
100
AcDbEntity
  8
ZUWAKU
100
AcDbLine
 10
229.7410759081051
 20
23.1625
 30
0.0
 11
229.7410759081052
 21
8.562500000000031
 31
0.0
  0
LINE
  5
6A1
330
1A
100
AcDbEntity
  8
ZUWAKU
100
AcDbLine
 10
229.5410759081051
 20
23.1625
 30
0.0
 11
229.5410759081051
 21
8.562500000000031
 31
0.0
  0
LINE
  5
6A2
330
1A
100
AcDbEntity
  8
ZUWAKU
100
AcDbLine
 10
258.3284836716799
 20
23.1625
 30
0.0
 11
258.32848367168
 21
8.562500000000031
 31
0.0
  0
LINE
  5
6A3
330
1A
100
AcDbEntity
  8
ZUWAKU
100
AcDbLine
 10
258.4284836716799
 20
23.1625
 30
0.0
 11
258.42848367168
 21
8.562500000000031
 31
0.0
  0
LINE
  5
6A4
330
1A
100
AcDbEntity
  8
ZUWAKU
100
AcDbLine
 10
258.2284836716799
 20
23.1625
 30
0.0
 11
258.2284836716799
 21
8.562500000000031
 31
0.0
  0
TEXT
  5
6A6
330
1A
100
AcDbEntity
  8
moji
100
AcDbText
 10
269.8493479087659
 20
9.764960528703708
 30
0.0
 40
2.799999999999999
  1
１/１
 41
0.9
  7
ｽﾀｲﾙ1
100
AcDbText
  0
TEXT
  5
6A7
330
1A
100
AcDbEntity
  8
ZUWAKU
100
AcDbText
 10
230.4797984192099
 20
20.19017826919279
 30
0.0
 40
2.0
  1
品番
 41
0.9
  7
ｽﾀｲﾙ1
100
AcDbText
  0
LINE
  5
6A8
330
1A
100
AcDbEntity
  8
ZUWAKU
100
AcDbLine
 10
258.4284836716799
 20
15.76250000000001
 30
0.0
 11
282.0923718056657
 21
15.76250000000001
 31
0.0
  0
LINE
  5
6A9
330
1A
100
AcDbEntity
  8
ZUWAKU
100
AcDbLine
 10
258.4284836716799
 20
15.86250000000001
 30
0.0
 11
282.0923718056657
 21
15.86250000000001
 31
0.0
  0
LINE
  5
6AA
330
1A
100
AcDbEntity
  8
ZUWAKU
100
AcDbLine
 10
258.4284836716799
 20
15.96250000000001
 30
0.0
 11
282.0923718056657
 21
15.96250000000001
 31
0.0
  0
TEXT
  5
6AB
330
1A
100
AcDbEntity
  8
ZUWAKU
100
AcDbText
 10
259.1672061827847
 20
20.19017826919279
 30
0.0
 40
2.0
  1
用紙
 41
0.9
  7
ｽﾀｲﾙ1
100
AcDbText
  0
TEXT
  5
6AC
330
1A
100
AcDbEntity
  8
moji
100
AcDbText
 10
269.8493479087659
 20
17.16496052870369
 30
0.0
 40
2.799999999999999
  1
Ａ３
 41
0.9
  7
ｽﾀｲﾙ1
100
AcDbText
  0
LINE
  5
6AD
330
1A
100
AcDbEntity
  8
ZUWAKU
100
AcDbLine
 10
330.1374951777116
 20
23.1625
 30
0.0
 11
330.1374951777118
 21
8.562500000000031
 31
0.0
  0
LINE
  5
6AE
330
1A
100
AcDbEntity
  8
ZUWAKU
100
AcDbLine
 10
330.2374951777118
 20
23.1625
 30
0.0
 11
330.2374951777118
 21
8.562500000000031
 31
0.0
  0
LINE
  5
6AF
330
1A
100
AcDbEntity
  8
ZUWAKU
100
AcDbLine
 10
330.0374951777117
 20
23.1625
 30
0.0
 11
330.0374951777117
 21
8.562500000000031
 31
0.0
  0
LINE
  5
6B0
330
1A
100
AcDbEntity
  8
ZUWAKU
100
AcDbLine
 10
282.2923718056656
 20
23.1625
 30
0.0
 11
282.2923718056657
 21
8.562500000000031
 31
0.0
  0
TEXT
  5
6B1
330
1A
100
AcDbEntity
  8
ZUWAKU
100
AcDbText
 10
330.9762176888165
 20
20.19017826919279
 30
0.0
 40
2.0
  1
DATE
 41
0.9
  7
ｽﾀｲﾙ1
100
AcDbText
  0
LINE
  5
6C8
330
1A
100
AcDbEntity
  8
ZUWAKU
100
AcDbLine
 10
354.4533991968802
 20
23.1625
 30
0.0
 11
354.4533991968802
 21
8.562500000000031
 31
0.0
  0
LINE
  5
6C9
330
1A
100
AcDbEntity
  8
ZUWAKU
100
AcDbLine
 10
354.5533991968801
 20
23.1625
 30
0.0
 11
354.5533991968801
 21
8.562500000000031
 31
0.0
  0
LINE
  5
6CA
330
1A
100
AcDbEntity
  8
ZUWAKU
100
AcDbLine
 10
354.65339919688
 20
23.1625
 30
0.0
 11
354.6533991968802
 21
8.562500000000031
 31
0.0
  0
LINE
  5
6CB
330
1A
100
AcDbEntity
  8
ZUWAKU
100
AcDbLine
 10
354.7533991968801
 20
23.1625
 30
0.0
 11
354.7533991968801
 21
8.562500000000031
 31
0.0
  0
TEXT
  5
6CC
330
1A
100
AcDbEntity
  8
ZUWAKU
100
AcDbText
 10
358.9661711789559
 20
14.4991807550156
 30
0.0
 40
3.0
  1
積水化学工業株式会社
 41
0.9
  7
ｽﾀｲﾙ1
100
AcDbText
  0
DIMENSION
  5
19C5
330
1A
100
AcDbEntity
  8
SUNPOU
  6
Continuous
100
AcDbDimension
280
     0
  2
*D6
 10
208.0849257530512
 20
132.3971599009954
 30
0.0
 11
205.0849257530511
 21
123.8974951559483
 31
0.0
 70
    32
 71
     5
 42
-1.0
 73
     0
 74
     0
 75
     0
  3
STANDARD
100
AcDbAlignedDimension
 13
181.2986126799488
 23
115.3978304109011
 33
0.0
 14
175.2984691673219
 24
132.3971599009954
 34
0.0
 50
90.0
100
AcDbRotatedDimension
1001
ACAD
1000
DSTYLE
1002
{
1070
    41
1040
3.0
1070
    42
1040
3.0
1070
    43
1040
7.0
1070
    44
1040
1.5
1070
    73
1070
     0
1070
    74
1070
     0
1070
    77
1070
     3
1070
   140
1040
4.0
1070
   141
1040
150.0
1070
   147
1040
1.0
1070
   172
1070
     1
1070
   173
1070
     1
1070
   176
1070
   256
1070
   177
1070
   256
1070
   178
1070
   256
1070
   271
1070
     0
1070
   272
1070
     2
1070
     6
1000
OPEN
1070
     7
1000
OPEN
1070
   371
1070
    -1
1070
   372
1070
    -1
1002
}
  0
DIMENSION
  5
19C6
330
1A
100
AcDbEntity
  8
SUNPOU
  6
Continuous
100
AcDbDimension
280
     0
  2
*D7
 10
208.0849257530512
 20
115.3978304109011
 30
0.0
 11
205.0849257530511
 21
95.14783707819963
 31
0.0
 70
    32
 71
     5
 42
-1.0
 73
     0
 74
     0
 75
     0
  3
STANDARD
100
AcDbAlignedDimension
 13
177.2984864159469
 23
74.8978437454981
 33
0.0
 14
181.2986126799488
 24
115.3978304109011
 34
0.0
 50
90.0
100
AcDbRotatedDimension
1001
ACAD
1000
DSTYLE
1002
{
1070
    41
1040
3.0
1070
    42
1040
3.0
1070
    43
1040
7.0
1070
    44
1040
1.5
1070
    73
1070
     0
1070
    74
1070
     0
1070
    77
1070
     3
1070
   140
1040
4.0
1070
   141
1040
150.0
1070
   147
1040
1.0
1070
   172
1070
     1
1070
   173
1070
     1
1070
   176
1070
   256
1070
   177
1070
   256
1070
   178
1070
   256
1070
   271
1070
     0
1070
   272
1070
     2
1070
     6
1000
OPEN
1070
     7
1000
OPEN
1070
   371
1070
    -1
1070
   372
1070
    -1
1002
}
  0
DIMENSION
  5
19C7
330
1A
100
AcDbEntity
  8
SUNPOU
  6
Continuous
100
AcDbDimension
280
     0
  2
*D8
 10
203.7111118986828
 20
180.3341060310446
 30
0.0
 11
200.7111118986828
 21
216.3340908883945
 31
0.0
 70
    32
 71
     5
 42
-1.0
 73
     0
 74
     0
 75
     0
  3
STANDARD
100
AcDbAlignedDimension
 13
139.2984304255644
 23
252.3340757457444
 33
0.0
 14
139.3450932848631
 24
180.3341060310446
 34
0.0
 50
90.0
100
AcDbRotatedDimension
1001
ACAD
1000
DSTYLE
1002
{
1070
    41
1040
3.0
1070
    42
1040
3.0
1070
    43
1040
7.0
1070
    44
1040
1.5
1070
    73
1070
     0
1070
    74
1070
     0
1070
    77
1070
     3
1070
   140
1040
4.0
1070
   141
1040
150.0
1070
   147
1040
1.0
1070
   172
1070
     1
1070
   173
1070
     1
1070
   176
1070
   256
1070
   177
1070
   256
1070
   178
1070
   256
1070
   271
1070
     0
1070
   272
1070
     2
1070
     6
1000
OPEN
1070
     7
1000
OPEN
1070
   371
1070
    -1
1070
   372
1070
    -1
1002
}
  0
DIMENSION
  5
19C8
330
1A
100
AcDbEntity
  8
SUNPOU
  6
Continuous
100
AcDbDimension
280
     0
  2
*D9
 10
216.626295483535
 20
132.3971599009954
 30
0.0
 11
213.626295483535
 21
103.6475018232468
 31
0.0
 70
    32
 71
     5
 42
-1.0
 73
     0
 74
     0
 75
     0
  3
STANDARD
100
AcDbAlignedDimension
 13
177.2984864159469
 23
74.8978437454981
 33
0.0
 14
175.2984691673219
 24
132.3971599009954
 34
0.0
 50
90.0
100
AcDbRotatedDimension
1001
ACAD
1000
DSTYLE
1002
{
1070
    41
1040
3.0
1070
    42
1040
3.0
1070
    43
1040
7.0
1070
    44
1040
1.5
1070
    73
1070
     0
1070
    74
1070
     0
1070
    77
1070
     3
1070
   140
1040
4.0
1070
   141
1040
150.0
1070
   147
1040
1.0
1070
   172
1070
     1
1070
   173
1070
     1
1070
   176
1070
   256
1070
   177
1070
   256
1070
   178
1070
   256
1070
   271
1070
     0
1070
   272
1070
     2
1070
     6
1000
OPEN
1070
     7
1000
OPEN
1070
   371
1070
    -1
1070
   372
1070
    -1
1002
}
  0
DIMENSION
  5
19CA
330
1A
100
AcDbEntity
  8
SUNPOU
  6
Continuous
100
AcDbDimension
280
     0
  2
*D10
 10
198.7763840467575
 20
110.897834120758
 30
0.0
 11
198.7763840467574
 21
99.89783412075805
 31
0.0
 70
   160
 71
     5
 42
-1.0
 73
     0
 74
     0
 75
     0
  3
STANDARD
100
AcDbAlignedDimension
 13
180.7985874314676
 23
115.3978333804784
 33
0.0
 14
180.0486044306207
 24
110.897834120758
 34
0.0
 50
90.0
100
AcDbRotatedDimension
1001
ACAD
1000
DSTYLE
1002
{
1070
    41
1040
3.0
1070
    42
1040
3.0
1070
    43
1040
7.0
1070
    44
1040
1.5
1070
    73
1070
     0
1070
    74
1070
     0
1070
    77
1070
     3
1070
   140
1040
4.0
1070
   141
1040
150.0
1070
   147
1040
1.0
1070
   172
1070
     1
1070
   173
1070
     1
1070
   176
1070
   256
1070
   177
1070
   256
1070
   178
1070
   256
1070
   271
1070
     1
1070
   272
1070
     2
1070
     6
1000
OPEN
1070
     7
1000
OPEN
1070
   371
1070
    -1
1070
   372
1070
    -1
1002
}
  0
DIMENSION
  5
19CB
330
1A
100
AcDbEntity
  8
SUNPOU
  6
Continuous
100
AcDbDimension
280
     0
  2
*D11
 10
198.7763840467575
 20
119.8978333804566
 30
0.0
 11
196.0893152285946
 21
125.8379494553212
 31
0.0
 70
   160
 71
     5
 42
-1.0
 73
     0
 74
     0
 75
     0
  3
STANDARD
100
AcDbAlignedDimension
 13
180.7985874314676
 23
115.3978333804784
 33
0.0
 14
180.7986022384653
 24
119.8978333804566
 34
0.0
 50
90.0
100
AcDbRotatedDimension
1001
ACAD
1000
DSTYLE
1002
{
1070
   287
1070
     5
1070
   287
1070
     5
1070
   287
1070
     5
1070
   287
1070
     5
1070
   287
1070
     5
1070
   287
1070
     5
1070
   287
1070
     5
1070
   287
1070
     5
1070
    41
1040
3.0
1070
    42
1040
3.0
1070
    43
1040
7.0
1070
    44
1040
1.5
1070
    73
1070
     0
1070
    74
1070
     0
1070
    77
1070
     3
1070
   140
1040
4.0
1070
   141
1040
150.0
1070
   147
1040
1.0
1070
   172
1070
     1
1070
   173
1070
     1
1070
   176
1070
   256
1070
   177
1070
   256
1070
   178
1070
   256
1070
   271
1070
     1
1070
   272
1070
     2
1070
   279
1070
     2
1070
     6
1000
OPEN
1070
     7
1000
OPEN
1070
   371
1070
    -1
1070
   372
1070
    -1
1002
}
  0
DIMENSION
  5
19CC
330
1A
100
AcDbEntity
  8
SUNPOU
  6
Continuous
100
AcDbDimension
280
     0
  2
*D12
 10
181.2983970368183
 20
156.5168530817361
 30
0.0
 11
139.2983970368244
 21
159.5168530817361
 31
0.0
 70
    32
  1
φ<>
 71
     5
 42
-1.0
 73
     0
 74
     0
 75
     0
  3
STANDARD
100
AcDbAlignedDimension
 13
97.29839703683053
 23
216.33407574576
 33
0.0
 14
181.2983970368183
 24
216.3340437284157
 34
0.0
100
AcDbRotatedDimension
1001
ACAD
1000
DSTYLE
1002
{
1070
    41
1040
3.0
1070
    42
1040
3.0
1070
    43
1040
7.0
1070
    44
1040
1.5
1070
    73
1070
     0
1070
    74
1070
     0
1070
    77
1070
     3
1070
   140
1040
4.0
1070
   141
1040
150.0
1070
   147
1040
1.0
1070
   172
1070
     1
1070
   173
1070
     1
1070
   176
1070
   256
1070
   177
1070
   256
1070
   178
1070
   256
1070
   271
1070
     0
1070
   272
1070
     2
1070
     6
1000
OPEN
1070
     7
1000
OPEN
1070
   371
1070
    -1
1070
   372
1070
    -1
1002
}
  0
DIMENSION
  5
19CD
330
1A
100
AcDbEntity
  8
SUNPOU
  6
Continuous
100
AcDbDimension
280
     0
  2
*D13
 10
181.0486074283552
 20
43.55354108531173
 30
0.0
 11
139.2985412018722
 21
46.55354108531173
 31
0.0
 70
    32
  1
φ<>
 71
     5
 42
-1.0
 73
     0
 74
     0
 75
     0
  3
STANDARD
100
AcDbAlignedDimension
 13
97.5484749753893
 23
111.8979562786805
 33
0.0
 14
181.0486074283552
 24
111.8978326203111
 34
0.0
100
AcDbRotatedDimension
1001
ACAD
1000
DSTYLE
1002
{
1070
    41
1040
3.0
1070
    42
1040
3.0
1070
    43
1040
7.0
1070
    44
1040
1.5
1070
    73
1070
     0
1070
    74
1070
     0
1070
    77
1070
     3
1070
   140
1040
4.0
1070
   141
1040
150.0
1070
   147
1040
1.0
1070
   172
1070
     1
1070
   173
1070
     1
1070
   176
1070
   256
1070
   177
1070
   256
1070
   178
1070
   256
1070
   271
1070
     0
1070
   272
1070
     2
1070
     6
1000
OPEN
1070
     7
1000
OPEN
1070
   371
1070
    -1
1070
   372
1070
    -1
1002
}
  0
DIMENSION
  5
19CE
330
1A
100
AcDbEntity
  8
SUNPOU
  6
Continuous
100
AcDbDimension
280
     0
  2
*D14
 10
177.2984864159468
 20
51.89227303050007
 30
0.0
 11
139.2984864159885
 21
54.89227303050006
 31
0.0
 70
    32
  1
φ<>
 71
     5
 42
-1.0
 73
     0
 74
     0
 75
     0
  3
STANDARD
100
AcDbAlignedDimension
 13
101.2984864160302
 23
74.89795627868051
 33
0.0
 14
177.2984864159468
 24
74.8978437454981
 34
0.0
100
AcDbRotatedDimension
1001
ACAD
1000
DSTYLE
1002
{
1070
    41
1040
3.0
1070
    42
1040
3.0
1070
    43
1040
7.0
1070
    44
1040
1.5
1070
    73
1070
     0
1070
    74
1070
     0
1070
    77
1070
     3
1070
   140
1040
4.0
1070
   141
1040
150.0
1070
   147
1040
1.0
1070
   172
1070
     1
1070
   173
1070
     1
1070
   176
1070
   256
1070
   177
1070
   256
1070
   178
1070
   256
1070
   271
1070
     0
1070
   272
1070
     2
1070
     6
1000
OPEN
1070
     7
1000
OPEN
1070
   371
1070
    -1
1070
   372
1070
    -1
1002
}
  0
DIMENSION
  5
19CF
330
1A
100
AcDbEntity
  8
SUNPOU
  6
Continuous
100
AcDbDimension
280
     0
  2
*D15
 10
173.798505397468
 20
59.61431002470203
 30
0.0
 11
139.298492743103
 21
62.61431002470203
 31
0.0
 70
    32
  1
φ<>
 71
     5
 42
-1.0
 73
     0
 74
     0
 75
     0
  3
STANDARD
100
AcDbAlignedDimension
 13
104.798480088738
 23
74.89795627868045
 33
0.0
 14
173.798505397468
 24
74.89775194203687
 34
0.0
100
AcDbRotatedDimension
1001
ACAD
1000
DSTYLE
1002
{
1070
    41
1040
3.0
1070
    42
1040
3.0
1070
    43
1040
7.0
1070
    44
1040
1.5
1070
    73
1070
     0
1070
    74
1070
     0
1070
    77
1070
     3
1070
   140
1040
4.0
1070
   141
1040
150.0
1070
   147
1040
1.0
1070
   172
1070
     1
1070
   173
1070
     1
1070
   176
1070
   256
1070
   177
1070
   256
1070
   178
1070
   256
1070
   271
1070
     0
1070
   272
1070
     2
1070
     6
1000
OPEN
1070
     7
1000
OPEN
1070
   371
1070
    -1
1070
   372
1070
    -1
1002
}
  0
LINE
  5
19D0
330
1A
100
AcDbEntity
  8
ﾌﾀ
  6
Continuous
 62
     3
 48
8.0
100
AcDbLine
 10
139.2986839069959
 20
132.3979562782879
 30
0.0
 11
117.9021848495476
 21
132.3979562782878
 31
0.0
  0
LINE
  5
19D1
330
1A
100
AcDbEntity
  8
ﾎﾝﾀｲ
  6
Continuous
 62
     3
 48
8.0
100
AcDbLine
 10
139.2987453482147
 20
115.3979562782876
 30
0.0
 11
97.29855761670444
 21
115.3979562782876
 31
0.0
  0
LINE
  5
19D2
330
1A
100
AcDbEntity
  8
ﾌﾀ
  6
Continuous
 62
     3
 48
8.0
100
AcDbLine
 10
139.2987527517135
 20
119.8979562782877
 30
0.0
 11
109.0487615531294
 21
119.8979562782878
 31
0.0
  0
LINE
  5
19D3
330
1A
100
AcDbEntity
  8
ﾌﾀ
  6
Continuous
 62
     3
 48
8.0
100
AcDbLine
 10
139.2987453482147
 20
115.3979562782879
 30
0.0
 11
110.7987705966519
 21
115.3979562782879
 31
0.0
  0
LINE
  5
19D4
330
1A
100
AcDbEntity
  8
ﾎﾝﾀｲ
  6
Continuous
 62
     3
 48
8.0
100
AcDbLine
 10
139.2987453482147
 20
74.89795627828766
 30
0.0
 11
101.7987516755068
 21
74.89795627828766
 31
0.0
  0
LINE
  5
19D5
330
1A
100
AcDbEntity
  8
ﾌﾀ
  6
Continuous
 62
     3
 48
8.0
100
AcDbLine
 10
139.2986839069959
 20
90.39795627828793
 30
0.0
 11
106.7987705966518
 21
90.39795627828793
 31
0.0
  0
INSERT
  5
19D6
330
1A
100
AcDbEntity
  8
ﾌﾀ
  6
Continuous
 62
     2
100
AcDbBlockReference
  2
*X5
 10
-15.8666412902877
 20
7.510075974473124
 30
0.0
1001
ACAD
1000
HATCH
1002
{
1070
    19
1000
_USER
1040
3.0
1040
2.356194490192344
1000
R14_HATCH_DATA
1000
175B
1011
-14.8666412902877
1021
7.510075974473124
1031
0.0
1011
-15.8666412902877
1021
8.510075974473124
1031
0.0
1011
-15.8666412902877
1021
7.510075974473124
1031
1.0
1040
0.0
1010
0.0
1020
0.0
1030
1.0
1000
_USER
1070
     0
1070
     0
1071
        1
1071
       33
1071
       26
1070
     1
1040
155.1654628867188
1040
112.3878803036109
1040
155.1654628867188
1040
107.8878803036111
1070
     2
1040
123.4155405328524
1040
124.3878803036111
1040
0.5
1040
0.0
1040
1.570796326794899
1070
     1
1070
     2
1040
119.1655449494563
1040
124.3878803036111
1040
0.5
1040
1.5707963267949
1040
3.14159265358979
1070
     1
1070
     1
1040
123.4155405328524
1040
124.887880303611
1040
119.1655449494563
1040
124.8878803036111
1070
     2
1040
126.6655495763748
1040
106.8878803036111
1040
1.0
1040
1.570796326794897
1040
3.141592653589793
1070
     1
1070
     2
1040
117.6655449494563
1040
113.3878803036111
1040
1.0
1040
4.71238898038469
1040
6.283185307179584
1070
     1
1070
     1
1040
119.6655495763748
1040
104.8878803036111
1040
119.6655495763748
1040
107.587880303611
1070
     2
1040
119.3655495763748
1040
107.587880303611
1040
0.3
1040
0.0
1040
1.570796326794897
1070
     1
1070
     1
1040
120.6655495763748
1040
104.887880303611
1040
119.6655495763748
1040
104.8878803036111
1070
     2
1040
124.9155405328523
1040
113.387880303611
1040
1.0
1040
3.141592653589793
1040
4.712388980384686
1070
     1
1070
     1
1040
121.1654628867188
1040
98.89065821918672
1040
120.6655495763748
1040
98.89065821918675
1070
     1
1040
120.6655495763748
1040
98.89065821918675
1040
120.6655495763748
1040
104.8878803036111
1070
     2
1040
113.6655495763748
1040
111.8878803036111
1040
0.5
1040
1.570796326794895
1040
3.141592653589793
1070
     1
1070
     2
1040
113.6655495763748
1040
108.3878803036111
1040
0.5
1040
3.141592653589793
1040
4.71238898038469
1070
     1
1070
     1
1040
113.1655495763749
1040
108.387880303611
1040
113.1655495763748
1040
111.8878803036111
1070
     1
1040
119.3655495763748
1040
107.887880303611
1040
113.6655495763749
1040
107.887880303611
1070
     1
1040
113.6655495763748
1040
112.3878803036111
1040
117.6655449494563
1040
112.3878803036111
1070
     1
1040
123.9155405328524
1040
124.3878803036111
1040
123.9155405328524
1040
113.387880303611
1070
     1
1040
118.6655449494563
1040
124.3878803036111
1040
118.6655449494563
1040
113.3878803036111
1070
     1
1040
155.1655243279377
1040
107.8878803036111
1040
126.6655495763748
1040
107.8878803036111
1070
     1
1040
155.1655317314365
1040
112.3878803036109
1040
124.9155405328524
1040
112.387880303611
1070
     1
1040
122.6655495763748
1040
84.88788030361112
1040
121.1654628867189
1040
84.88788030361112
1070
     1
1040
122.6655495763748
1040
84.88788030361112
1040
122.6655495763748
1040
82.88788030361113
1070
     1
1040
125.6655495763747
1040
82.88788030361113
1040
122.6655495763748
1040
82.88788030361113
1070
     1
1040
121.1654628867188
1040
84.88788030361112
1040
121.1654628867188
1040
98.89065821918675
1070
     1
1040
125.6655495763748
1040
82.88788030335442
1040
125.6655495763748
1040
106.8878803036111
1071
        0
1070
     0
1070
     0
1040
2.356194490192344
1040
3.0
1070
     0
1070
     1
1040
2.356194490192344
1040
0.0002703575631529
1040
285.1084014214842
1040
-2.121320343559642
1040
-2.121320343559642
1070
     0
1071
        1
1040
0.0002703575631529
1040
285.1084014214842
1040
0.0
1002
}
  0
LINE
  5
19D7
330
1A
100
AcDbEntity
  8
ﾎﾝﾀｲ
  6
Continuous
 62
     3
 48
8.0
100
AcDbLine
 10
139.2986126800868
 20
115.3979562784842
 30
0.0
 11
97.29842494857649
 21
115.3979562784842
 31
0.0
  0
LINE
  5
19D8
330
1A
100
AcDbEntity
  8
ﾎﾝﾀｲ
  6
Continuous
 62
     3
 48
8.0
100
AcDbLine
 10
139.2986126800868
 20
74.8979562784842
 30
0.0
 11
101.798619007379
 21
74.8979562784842
 31
0.0
  0
LINE
  5
19D9
330
1A
100
AcDbEntity
  8
ﾎﾝﾀｲ
 48
5.0
100
AcDbLine
 10
104.2988052768411
 20
111.0979558340777
 30
0.0
 11
104.2987953561534
 21
104.3979562782876
 31
0.0
  0
LINE
  5
19DA
330
1A
100
AcDbEntity
  8
ﾌﾀ
100
AcDbLine
 10
104.7987705966518
 20
106.4007341938635
 30
0.0
 11
104.7987705966518
 21
112.3979562782879
 31
0.0
  0
INSERT
  5
19DB
330
1A
100
AcDbEntity
  8
ﾎﾝﾀｲ
  6
Continuous
 62
     2
100
AcDbBlockReference
  2
*X4
 10
-198.6462347503314
 20
-1.756281416238465
 30
0.0
1001
ACAD
1000
HATCH
1002
{
1070
    19
1000
_USER
1040
3.0
1040
0.7853981633974483
1000
R14_HATCH_DATA
1000
8F9
1011
-197.6462347503314
1021
-1.756281416238465
1031
0.0
1011
-198.6462347503314
1021
-0.7562814162384655
1031
0.0
1011
-198.6462347503314
1021
-1.756281416238465
1031
1.0
1040
0.0
1010
0.0
1020
0.0
1030
1.0
1000
_USER
1070
     0
1070
     0
1071
        1
1071
       33
1071
       23
1070
     1
1040
298.6949800985473
1040
117.1542376945261
1040
296.1949800985463
1040
117.1542376945261
1070
     1
1040
301.7005785873234
1040
114.6542376945261
1040
299.6949786375934
1040
114.6542376945261
1070
     1
1040
303.4449864258419
1040
76.6542376945261
1040
299.9449864258384
1040
76.6542376945261
1070
     1
1040
304.9449986072934
1040
104.1542376945261
1040
303.4450208177899
1040
104.1542376945261
1070
     1
1040
303.4450301064854
1040
106.1542376945261
1040
302.9450301064847
1040
106.1542376945261
1070
     1
1040
302.645040027173
1040
113.1542376945261
1040
302.3005785873234
1040
113.1542376945261
1070
     1
1040
304.9449800985462
1040
91.6542376945261
1040
303.4450023090428
1040
91.6542376945261
1070
     1
1040
298.694980098543
1040
117.1542333116548
1040
298.6949786375945
1040
115.6542391554832
1070
     2
1040
299.6949786375934
1040
115.6542376945261
1040
1.0
1040
3.14159119263269
1040
4.712388980384689
1070
     1
1070
     2
1040
301.7005785873234
1040
114.3542376945261
1040
0.3
1040
6.283185307179569
1040
7.853981633974482
1070
     1
1070
     2
1040
299.4450382898151
1040
112.1542376945261
1040
0.5
1040
6.283183846222481
1040
7.853981633974482
1070
     1
1070
     2
1040
302.645040027173
1040
112.8542376945261
1040
0.3
1040
6.283183826479818
1040
7.853981633974482
1070
     1
1070
     2
1040
302.3005785873234
1040
113.4542376945261
1040
0.3
1040
3.141592653589793
1040
4.712388980384693
1070
     1
1070
     1
1040
303.4450301064843
1040
106.1542369541762
1040
303.4450271450847
1040
104.1542369541762
1070
     1
1040
302.9450400271726
1040
112.8542372503162
1040
302.9450301064849
1040
106.1542376945261
1070
     1
1040
302.0005785873234
1040
114.3542376945261
1040
302.0005785873234
1040
113.4542376945261
1070
     2
1040
297.1949749851975
1040
113.6542376945261
1040
1.0
1040
3.141591192632688
1040
4.712388980384693
1070
     1
1070
     1
1040
296.1949800985463
1040
117.1542376945261
1040
296.1949749851985
1040
113.6542391554832
1070
     1
1040
299.4450382898151
1040
112.6542376945261
1040
297.1949749851975
1040
112.6542376945261
1070
     1
1040
303.4450023090428
1040
91.6542376945261
1040
303.4449800985462
1040
76.65423769452605
1070
     1
1040
299.9450382898146
1040
112.1542369640476
1040
299.9449864258384
1040
76.6542376945261
1070
     1
1040
304.9449986072934
1040
104.1542376945261
1040
304.9449800985462
1040
91.6542376945261
1070
     1
1040
303.4450144904943
1040
104.1542376945261
1040
303.4449957711471
1040
91.51200759942756
1071
        0
1070
     0
1070
     0
1040
0.7853981633974483
1040
3.0
1070
     0
1070
     1
1040
0.7853981633974483
1040
351.6279725270183
1040
-0.0000000001963087
1040
-2.121320343559642
1040
2.121320343559642
1070
     0
1071
        1
1040
351.6279725270183
1040
-0.0000000001963087
1040
0.0
1002
}
  0
LINE
  5
19DC
330
1A
100
AcDbEntity
  8
ﾎﾝﾀｲ
 48
5.0
100
AcDbLine
 10
101.298803539483
 20
110.3979555478091
 30
0.0
 11
101.2987524059855
 21
75.39795627828713
 31
0.0
  0
LINE
  5
19DD
330
1A
100
AcDbEntity
  8
ﾌﾀ
100
AcDbLine
 10
109.7987705966518
 20
90.39795627803121
 30
0.0
 11
109.7987705966519
 21
114.3979562782879
 31
0.0
  0
LINE
  5
19DE
330
1A
100
AcDbEntity
  8
ﾎﾝﾀｲ
 48
5.0
100
AcDbLine
 10
104.2986726087132
 20
111.0979558342743
 30
0.0
 11
104.2986626880255
 21
104.3979562784842
 31
0.0
  0
LINE
  5
19DF
330
1A
100
AcDbEntity
  8
ﾎﾝﾀｲ
 48
5.0
100
AcDbLine
 10
101.2986708713552
 20
110.3979555480057
 30
0.0
 11
101.2986197378575
 21
75.39795627848366
 31
0.0
  0
INSERT
  5
19E0
330
1A
100
AcDbEntity
  8
ﾎﾝﾀｲ
 62
     2
100
AcDbBlockReference
  2
*X2
 10
-198.6463674184593
 20
-1.7562814160419
 30
0.0
1001
ACAD
1000
HATCH
1002
{
1070
    19
1000
_USER
1040
3.0
1040
0.7853981633974483
1000
R14_HATCH_DATA
1000
8F9
1011
-197.6463674184593
1021
-1.7562814160419
1031
0.0
1011
-198.6463674184593
1021
-0.756281416041901
1031
0.0
1011
-198.6463674184593
1021
-1.7562814160419
1031
1.0
1040
0.0
1010
0.0
1020
0.0
1030
1.0
1000
_USER
1070
     0
1070
     0
1071
        1
1071
       33
1071
       23
1070
     1
1040
298.6949800985473
1040
117.1542376945261
1040
296.1949800985463
1040
117.1542376945261
1070
     1
1040
301.7005785873234
1040
114.6542376945261
1040
299.6949786375934
1040
114.6542376945261
1070
     1
1040
303.4449864258419
1040
76.6542376945261
1040
299.9449864258384
1040
76.6542376945261
1070
     1
1040
304.9449986072934
1040
104.1542376945261
1040
303.4450208177899
1040
104.1542376945261
1070
     1
1040
303.4450301064854
1040
106.1542376945261
1040
302.9450301064847
1040
106.1542376945261
1070
     1
1040
302.645040027173
1040
113.1542376945261
1040
302.3005785873234
1040
113.1542376945261
1070
     1
1040
304.9449800985462
1040
91.6542376945261
1040
303.4450023090428
1040
91.6542376945261
1070
     1
1040
298.694980098543
1040
117.1542333116548
1040
298.6949786375945
1040
115.6542391554832
1070
     2
1040
299.6949786375934
1040
115.6542376945261
1040
1.0
1040
3.14159119263269
1040
4.712388980384689
1070
     1
1070
     2
1040
301.7005785873234
1040
114.3542376945261
1040
0.3
1040
6.283185307179569
1040
7.853981633974482
1070
     1
1070
     2
1040
299.4450382898151
1040
112.1542376945261
1040
0.5
1040
6.283183846222481
1040
7.853981633974482
1070
     1
1070
     2
1040
302.645040027173
1040
112.8542376945261
1040
0.3
1040
6.283183826479818
1040
7.853981633974482
1070
     1
1070
     2
1040
302.3005785873234
1040
113.4542376945261
1040
0.3
1040
3.141592653589793
1040
4.712388980384693
1070
     1
1070
     1
1040
303.4450301064843
1040
106.1542369541762
1040
303.4450271450847
1040
104.1542369541762
1070
     1
1040
302.9450400271726
1040
112.8542372503162
1040
302.9450301064849
1040
106.1542376945261
1070
     1
1040
302.0005785873234
1040
114.3542376945261
1040
302.0005785873234
1040
113.4542376945261
1070
     2
1040
297.1949749851975
1040
113.6542376945261
1040
1.0
1040
3.141591192632688
1040
4.712388980384693
1070
     1
1070
     1
1040
296.1949800985463
1040
117.1542376945261
1040
296.1949749851985
1040
113.6542391554832
1070
     1
1040
299.4450382898151
1040
112.6542376945261
1040
297.1949749851975
1040
112.6542376945261
1070
     1
1040
303.4450023090428
1040
91.6542376945261
1040
303.4449800985462
1040
76.65423769452605
1070
     1
1040
299.9450382898146
1040
112.1542369640476
1040
299.9449864258384
1040
76.6542376945261
1070
     1
1040
304.9449986072934
1040
104.1542376945261
1040
304.9449800985462
1040
91.6542376945261
1070
     1
1040
303.4450144904943
1040
104.1542376945261
1040
303.4449957711471
1040
91.51200759942756
1071
        0
1070
     0
1070
     0
1040
0.7853981633974483
1040
3.0
1070
     0
1070
     1
1040
0.7853981633974483
1040
351.6279725270183
1040
-0.0000000001963087
1040
-2.121320343559642
1040
2.121320343559642
1070
     0
1071
        1
1040
351.6279725270183
1040
-0.0000000001963087
1040
0.0
1002
}
  0
LINE
  5
19E1
330
1A
100
AcDbEntity
  8
ﾎﾝﾀｲ
 48
5.0
100
AcDbLine
 10
104.7987675587113
 20
89.89795627828767
 30
0.0
 11
104.7987453482147
 21
74.89795627828761
 31
0.0
  0
LINE
  5
19E2
330
1A
100
AcDbEntity
  8
ﾎﾝﾀｲ
 48
5.0
100
AcDbLine
 10
104.7986348905834
 20
89.89795627848421
 30
0.0
 11
104.7986126800869
 21
74.89795627848415
 31
0.0
  0
LINE
  5
19E3
330
1A
100
AcDbEntity
  8
ﾎﾝﾀｲ
 48
8.0
100
AcDbLine
 10
101.2987524059855
 20
75.39795627828713
 30
0.0
 11
101.7987516755068
 21
74.89795627828766
 31
0.0
  0
LINE
  5
19E4
330
1A
100
AcDbEntity
  8
ﾎﾝﾀｲ
 48
8.0
100
AcDbLine
 10
101.2986197378575
 20
75.39795627848366
 30
0.0
 11
101.798619007379
 21
74.8979562784842
 31
0.0
  0
LINE
  5
19E5
330
1A
100
AcDbEntity
  8
ﾎﾝﾀｲ
 62
     4
 48
5.0
100
AcDbLine
 10
104.7987797401629
 20
102.3979562782877
 30
0.0
 11
104.7987610208157
 21
89.75572618318912
 31
0.0
  0
LINE
  5
19E6
330
1A
100
AcDbEntity
  8
ﾎﾝﾀｲ
  6
Continuous
 62
     3
 48
8.0
100
AcDbLine
 10
106.2987638569619
 20
102.3979562782877
 30
0.0
 11
106.2987453482147
 21
89.89795627828767
 31
0.0
  0
LINE
  5
19E7
330
1A
100
AcDbEntity
  8
ﾌﾀ
100
AcDbLine
 10
105.2986839069959
 20
92.39795627828792
 30
0.0
 11
105.2986839069958
 21
106.4007341938635
 31
0.0
  0
LINE
  5
19E8
330
1A
100
AcDbEntity
  8
ﾌﾀ
 62
     4
 48
5.0
100
AcDbLine
 10
106.7987705966519
 20
92.39795627828792
 30
0.0
 11
106.798770596652
 21
106.4007341938635
 31
0.0
  0
LINE
  5
19E9
330
1A
100
AcDbEntity
  8
ﾎﾝﾀｲ
  6
Continuous
 62
     3
 48
8.0
100
AcDbLine
 10
106.298631188834
 20
102.3979562784842
 30
0.0
 11
106.2986126800868
 21
89.89795627848421
 31
0.0
  0
LINE
  5
19EA
330
1A
100
AcDbEntity
  8
ﾎﾝﾀｲ
 62
     4
 48
5.0
100
AcDbLine
 10
104.7986470720349
 20
102.3979562784842
 30
0.0
 11
104.7986283526878
 21
89.75572618338565
 31
0.0
  0
LINE
  5
19EB
330
1A
100
AcDbEntity
  8
ﾌﾀ
100
AcDbLine
 10
106.7987705966519
 20
92.39795627828792
 30
0.0
 11
106.7987705966518
 21
90.39795627828793
 31
0.0
  0
LINE
  5
19EC
330
1A
100
AcDbEntity
  8
ﾎﾝﾀｲ
  6
Continuous
 62
     3
 48
8.0
100
AcDbLine
 10
106.2987453482149
 20
89.89795627828767
 30
0.0
 11
104.7987675587113
 21
89.89795627828767
 31
0.0
  0
LINE
  5
19ED
330
1A
100
AcDbEntity
  8
ﾎﾝﾀｲ
  6
Continuous
 62
     3
 48
8.0
100
AcDbLine
 10
106.2986126800869
 20
89.89795627848421
 30
0.0
 11
104.7986348905834
 21
89.89795627848421
 31
0.0
  0
LINE
  5
19EE
330
1A
100
AcDbEntity
  8
ﾌﾀ
  6
Continuous
 62
     3
 48
8.0
100
AcDbLine
 10
106.7987705966519
 20
92.39795627828792
 30
0.0
 11
105.2986839069959
 21
92.39795627828792
 31
0.0
  0
LINE
  5
19EF
330
1A
100
AcDbEntity
  8
ﾎﾝﾀｲ
 48
5.0
100
AcDbLine
 10
104.7987953561528
 20
104.3979555379378
 30
0.0
 11
104.7987923947532
 21
102.3979555379378
 31
0.0
  0
LINE
  5
19F0
330
1A
100
AcDbEntity
  8
ﾎﾝﾀｲ
 48
5.0
100
AcDbLine
 10
104.7986626880249
 20
104.3979555381343
 30
0.0
 11
104.7986597266253
 21
102.3979555381343
 31
0.0
  0
LINE
  5
19F1
330
1A
100
AcDbEntity
  8
ﾎﾝﾀｲ
  6
Continuous
 62
     3
 48
8.0
100
AcDbLine
 10
106.2987638569619
 20
102.3979562782877
 30
0.0
 11
104.7987860674584
 21
102.3979562782877
 31
0.0
  0
LINE
  5
19F2
330
1A
100
AcDbEntity
  8
ﾎﾝﾀｲ
  6
Continuous
 62
     3
 48
8.0
100
AcDbLine
 10
106.298631188834
 20
102.3979562784842
 30
0.0
 11
104.7986533993304
 21
102.3979562784842
 31
0.0
  0
LINE
  5
19F3
330
1A
100
AcDbEntity
  8
ﾎﾝﾀｲ
  6
Continuous
 62
     3
 48
8.0
100
AcDbLine
 10
104.7987953561539
 20
104.3979562782876
 30
0.0
 11
104.2987953561532
 21
104.3979562782876
 31
0.0
  0
LINE
  5
19F4
330
1A
100
AcDbEntity
  8
ﾌﾀ
  6
Continuous
 62
     3
 48
8.0
100
AcDbLine
 10
106.798770596652
 20
106.4007341938635
 30
0.0
 11
104.7987705966518
 21
106.4007341938635
 31
0.0
  0
LINE
  5
19F5
330
1A
100
AcDbEntity
  8
ﾎﾝﾀｲ
  6
Continuous
 62
     3
 48
8.0
100
AcDbLine
 10
104.798662688026
 20
104.3979562784842
 30
0.0
 11
104.2986626880254
 21
104.3979562784842
 31
0.0
  0
LEADER
  5
19F6
330
1A
100
AcDbEntity
  8
SUNPOU
100
AcDbLeader
  3
STANDARD
 76
     3
 10
101.083547739
 20
114.9283461943753
 30
0.0
 10
92.42890081699977
 20
131.1326226947817
 30
0.0
 10
72.24129496422927
 20
131.1326226947817
 30
0.0
213
0.0
223
1.5
233
0.0
1001
ACAD
1000
DSTYLE
1002
{
1070
     6
1000
OPEN
1070
    41
1040
3.0
1070
    42
1040
3.0
1070
    43
1040
7.0
1070
    44
1040
1.5
1070
    73
1070
     0
1070
    74
1070
     0
1070
    77
1070
     0
1070
   140
1040
3.0
1070
   141
1040
150.0
1070
   147
1040
1.0
1070
   172
1070
     1
1070
   173
1070
     1
1070
   176
1070
   256
1070
   177
1070
   256
1070
   178
1070
   256
1070
   271
1070
     0
1070
   272
1070
     0
1070
   341
1005
B2
1070
   343
1005
B2
1070
   344
1005
B2
1070
   371
1070
    -1
1070
   372
1070
    -1
1002
}
  0
MTEXT
  5
19F7
330
1A
100
AcDbEntity
  8
SUNPOU
100
AcDbMText
 10
88.90832066144673
 20
132.4160361067807
 30
0.0
 40
3.599999999999999
 41
0.0
 46
0.0
 71
     9
 72
     5
  1
\A1;０リング
 73
     1
 44
1.0
  0
LINE
  5
19F8
330
1A
100
AcDbEntity
  8
ﾌﾀ
  6
Continuous
 62
     3
 48
8.0
100
AcDbLine
 10
112.8719957688792
 20
132.3979562782878
 30
0.0
 11
103.2987659697333
 21
132.3979562782879
 31
0.0
  0
LINE
  5
19F9
330
1A
100
AcDbEntity
  8
ﾌﾀ
100
AcDbLine
 10
102.7987659697334
 20
131.8979562782879
 30
0.0
 11
102.7987659697334
 21
120.8979562782879
 31
0.0
  0
LINE
  5
19FA
330
1A
100
AcDbEntity
  8
ﾌﾀ
100
AcDbLine
 10
108.0487615531294
 20
131.8979562782879
 30
0.0
 11
108.0487615531294
 21
120.8979562782878
 31
0.0
  0
LINE
  5
19FB
330
1A
100
AcDbEntity
  8
ﾌﾀ
  6
Continuous
 62
     3
 48
8.0
100
AcDbLine
 10
104.7987705966518
 20
112.3979562782878
 30
0.0
 11
103.7987705966518
 21
112.3979562782879
 31
0.0
  0
LINE
  5
19FC
330
1A
100
AcDbEntity
  8
ﾎﾝﾀｲ
  6
Continuous
 62
     3
 48
8.0
100
AcDbLine
 10
103.9988052768415
 20
111.3979562782877
 30
0.0
 11
103.654343836992
 21
111.3979562782877
 31
0.0
  0
LINE
  5
19FD
330
1A
100
AcDbEntity
  8
ﾎﾝﾀｲ
  6
Continuous
 62
     3
 48
8.0
100
AcDbLine
 10
103.9986726087136
 20
111.3979562784842
 30
0.0
 11
103.654211168864
 21
111.3979562784842
 31
0.0
  0
ARC
  5
19FE
330
1A
100
AcDbEntity
  8
ﾌﾀ
100
AcDbCircle
 10
103.4987705966518
 20
115.0979562782878
 30
0.0
 40
0.3
100
AcDbArc
 50
0.0
 51
90.0
  0
INSERT
  5
19FF
330
1A
100
AcDbEntity
  8
Oﾘﾝｸﾞ
 62
     2
100
AcDbBlockReference
  2
*X3
 10
-60.46157757111245
 20
-1.44772241052064
 30
0.0
1001
ACAD
1000
HATCH
1002
{
1070
    19
1000
_USER
1040
0.5
1040
1.570796326794896
1000
R14_HATCH_DATA
1000
757
1011
-59.46157757111246
1021
-1.44772241052064
1031
0.0
1011
-60.46157757111245
1021
-0.4477224105206404
1031
0.0
1011
-60.46157757111245
1021
-1.44772241052064
1031
1.0
1040
0.0
1010
0.0
1020
0.0
1030
1.0
1000
_USER
1070
     0
1070
     0
1071
        1
1071
        1
1071
        1
1070
     2
1040
162.635348167734
1040
115.6542376945261
1040
1.5
1040
1.570796326794896
1040
7.853981633974482
1070
     1
1071
        0
1070
     0
1070
     0
1040
1.570796326794896
1040
0.5
1070
     0
1070
     1
1040
1.570796326794896
1040
534.0452579782403
1040
-117.7535362435636
1040
-0.5
1040
0.0
1070
     0
1071
        1
1040
534.0452579782403
1040
-117.7535362435636
1040
0.0
1002
}
  0
CIRCLE
  5
1A00
330
1A
100
AcDbEntity
  8
Oﾘﾝｸﾞ
100
AcDbCircle
 10
102.1737705966216
 20
114.2065152840055
 30
0.0
 40
1.5
  0
ARC
  5
1A01
330
1A
100
AcDbEntity
  8
ﾌﾀ
100
AcDbCircle
 10
97.79877059665194
 20
115.8979562782879
 30
0.0
 40
0.5
100
AcDbArc
 50
180.0
 51
270.0
  0
LINE
  5
1A02
330
1A
100
AcDbEntity
  8
ﾎﾝﾀｲ
  6
Continuous
 62
     3
 48
8.0
100
AcDbLine
 10
100.7988035394836
 20
110.8979562782877
 30
0.0
 11
98.29855250335572
 21
110.8979562782876
 31
0.0
  0
LINE
  5
1A03
330
1A
100
AcDbEntity
  8
ﾌﾀ
  6
Continuous
 62
     3
 48
8.0
100
AcDbLine
 10
103.4987705966518
 20
115.3979562782878
 30
0.0
 11
97.79877059665194
 21
115.3979562782878
 31
0.0
  0
LINE
  5
1A04
330
1A
100
AcDbEntity
  8
ﾎﾝﾀｲ
  6
Continuous
 62
     3
 48
8.0
100
AcDbLine
 10
100.7986708713557
 20
110.8979562784842
 30
0.0
 11
98.29841983522777
 21
110.8979562784842
 31
0.0
  0
ARC
  5
1A05
330
1A
100
AcDbEntity
  8
ﾎﾝﾀｲ
 48
5.0
100
AcDbCircle
 10
98.29855250335572
 20
111.8979562782876
 30
0.0
 40
1.0
100
AcDbArc
 50
179.9999162933245
 51
270.0
  0
LINE
  5
1A06
330
1A
100
AcDbEntity
  8
ﾎﾝﾀｲ
 48
5.0
100
AcDbLine
 10
97.29855761670444
 20
115.3979562782876
 30
0.0
 11
97.29855250335674
 21
111.8979577392448
 31
0.0
  0
ARC
  5
1A07
330
1A
100
AcDbEntity
  8
ﾎﾝﾀｲ
 48
5.0
100
AcDbCircle
 10
98.29841983522777
 20
111.8979562784842
 30
0.0
 40
1.0
100
AcDbArc
 50
179.9999162933236
 51
270.0
  0
LINE
  5
1A08
330
1A
100
AcDbEntity
  8
ﾎﾝﾀｲ
 48
5.0
100
AcDbLine
 10
97.29842494857656
 20
115.3979562784842
 30
0.0
 11
97.29841983522886
 21
111.8979577394413
 31
0.0
  0
LINE
  5
1A09
330
1A
100
AcDbEntity
  8
ﾎﾝﾀｲ
  6
Continuous
 62
     3
 48
8.0
100
AcDbLine
 10
103.354343836992
 20
112.5979562782877
 30
0.0
 11
103.3543438369919
 21
111.6979562782876
 31
0.0
  0
ARC
  5
1A0A
330
1A
100
AcDbEntity
  8
ﾎﾝﾀｲ
  6
Continuous
 62
     3
 48
8.0
100
AcDbCircle
 10
103.654343836992
 20
111.6979562782876
 30
0.0
 40
0.3
100
AcDbArc
 50
180.0
 51
270.0
  0
ARC
  5
1A0B
330
1A
100
AcDbEntity
  8
ﾎﾝﾀｲ
  6
Continuous
 62
     3
 48
8.0
100
AcDbCircle
 10
103.0543438369919
 20
112.5979562782877
 30
0.0
 40
0.3
100
AcDbArc
 50
0.0
 51
90.0
  0
ARC
  5
1A0C
330
1A
100
AcDbEntity
  8
ﾎﾝﾀｲ
 48
5.0
100
AcDbCircle
 10
100.7988035394836
 20
110.3979562782877
 30
0.0
 40
0.5
100
AcDbArc
 50
359.9999162933245
 51
90.0
  0
ARC
  5
1A0D
330
1A
100
AcDbEntity
  8
ﾎﾝﾀｲ
 48
8.0
100
AcDbCircle
 10
101.0487438872619
 20
113.8979562782877
 30
0.0
 40
1.0
100
AcDbArc
 50
179.9999162933245
 51
270.0
  0
LINE
  5
1A0E
330
1A
100
AcDbEntity
  8
ﾎﾝﾀｲ
  6
Continuous
 62
     3
 48
8.0
100
AcDbLine
 10
103.0543438369919
 20
112.8979562782877
 30
0.0
 11
101.0487438872619
 21
112.8979562782877
 31
0.0
  0
LINE
  5
1A0F
330
1A
100
AcDbEntity
  8
ﾎﾝﾀｲ
 48
5.0
100
AcDbLine
 10
100.0487453482115
 20
115.3979518954164
 30
0.0
 11
100.0487438872631
 21
113.8979577392448
 31
0.0
  0
LINE
  5
1A10
330
1A
100
AcDbEntity
  8
ﾌﾀ
100
AcDbLine
 10
103.7987705966518
 20
112.3979562782879
 30
0.0
 11
103.7987705966519
 21
115.0979562782878
 31
0.0
  0
LINE
  5
1A11
330
1A
100
AcDbEntity
  8
ﾎﾝﾀｲ
 48
5.0
100
AcDbLine
 10
100.0486126800837
 20
115.3979518956129
 30
0.0
 11
100.0486112191351
 21
113.8979577394413
 31
0.0
  0
ARC
  5
1A12
330
1A
100
AcDbEntity
  8
ﾎﾝﾀｲ
 48
8.0
100
AcDbCircle
 10
101.048611219134
 20
113.8979562784842
 30
0.0
 40
1.0
100
AcDbArc
 50
179.999916293324
 51
270.0
  0
ARC
  5
1A13
330
1A
100
AcDbEntity
  8
ﾎﾝﾀｲ
  6
Continuous
 62
     3
 48
8.0
100
AcDbCircle
 10
103.054211168864
 20
112.5979562784842
 30
0.0
 40
0.3
100
AcDbArc
 50
359.9999999999992
 51
90.0
  0
ARC
  5
1A14
330
1A
100
AcDbEntity
  8
ﾎﾝﾀｲ
 48
5.0
100
AcDbCircle
 10
100.7986708713557
 20
110.3979562784842
 30
0.0
 40
0.5
100
AcDbArc
 50
359.9999162933236
 51
90.0
  0
ARC
  5
1A15
330
1A
100
AcDbEntity
  8
ﾎﾝﾀｲ
  6
Continuous
 62
     3
 48
8.0
100
AcDbCircle
 10
103.654211168864
 20
111.6979562784842
 30
0.0
 40
0.3
100
AcDbArc
 50
180.0
 51
270.0
  0
LINE
  5
1A16
330
1A
100
AcDbEntity
  8
ﾎﾝﾀｲ
  6
Continuous
 62
     3
 48
8.0
100
AcDbLine
 10
103.354211168864
 20
112.5979562784842
 30
0.0
 11
103.354211168864
 21
111.6979562784842
 31
0.0
  0
LINE
  5
1A17
330
1A
100
AcDbEntity
  8
ﾎﾝﾀｲ
  6
Continuous
 62
     3
 48
8.0
100
AcDbLine
 10
103.054211168864
 20
112.8979562784842
 30
0.0
 11
101.048611219134
 21
112.8979562784842
 31
0.0
  0
LINE
  5
1A18
330
1A
100
AcDbEntity
  8
ﾌﾀ
100
AcDbLine
 10
97.79877059665194
 20
119.8979562782879
 30
0.0
 11
101.7987659697334
 21
119.8979562782879
 31
0.0
  0
LINE
  5
1A19
330
1A
100
AcDbEntity
  8
ﾌﾀ
100
AcDbLine
 10
97.29877059665193
 20
115.8979562782878
 30
0.0
 11
97.29877059665193
 21
119.3979562782879
 31
0.0
  0
ARC
  5
1A1A
330
1A
100
AcDbEntity
  8
ﾌﾀ
 48
8.0
100
AcDbCircle
 10
97.79877059665182
 20
119.3979562782879
 30
0.0
 40
0.5
100
AcDbArc
 50
90.0
 51
180.0
  0
ARC
  5
1A1B
330
1A
100
AcDbEntity
  8
ﾌﾀ
100
AcDbCircle
 10
101.7987659697334
 20
120.8979562782879
 30
0.0
 40
1.0
100
AcDbArc
 50
270.0
 51
0.0
  0
ARC
  5
1A1C
330
1A
100
AcDbEntity
  8
ﾌﾀ
 48
8.0
100
AcDbCircle
 10
110.7987705966518
 20
114.3979562782879
 30
0.0
 40
1.0
100
AcDbArc
 50
90.0
 51
180.0
  0
ARC
  5
1A1D
330
1A
100
AcDbEntity
  8
ﾎﾝﾀｲ
  6
Continuous
 62
     3
 48
8.0
100
AcDbCircle
 10
103.9988052768415
 20
111.0979562782877
 30
0.0
 40
0.3
100
AcDbArc
 50
359.9999151621519
 51
90.0
  0
ARC
  5
1A1E
330
1A
100
AcDbEntity
  8
ﾎﾝﾀｲ
  6
Continuous
 62
     3
 48
8.0
100
AcDbCircle
 10
103.9986726087136
 20
111.0979562784842
 30
0.0
 40
0.3
100
AcDbArc
 50
359.9999151621527
 51
90.0
  0
ARC
  5
1A1F
330
1A
100
AcDbEntity
  8
ﾌﾀ
 48
8.0
100
AcDbCircle
 10
109.0487615531294
 20
120.8979562782878
 30
0.0
 40
1.0
100
AcDbArc
 50
180.0
 51
270.0
  0
ARC
  5
1A20
330
1A
100
AcDbEntity
  8
ﾌﾀ
100
AcDbCircle
 10
103.2987659697333
 20
131.8979562782879
 30
0.0
 40
0.5
100
AcDbArc
 50
90.0
 51
180.0
  0
ARC
  5
1A21
330
1A
100
AcDbEntity
  8
ﾌﾀ
 48
8.0
100
AcDbCircle
 10
107.5487615531294
 20
131.8979562782879
 30
0.0
 40
0.5
100
AcDbArc
 50
0.0
 51
90.0
  0
LINE
  5
1A22
330
1A
100
AcDbEntity
  8
ﾌﾀ
100
AcDbLine
 10
117.4021848495476
 20
131.8979562782878
 30
0.0
 11
117.4021848495475
 21
120.8979562782879
 31
0.0
  0
LINE
  5
1A23
330
1A
100
AcDbEntity
  8
ﾌﾀ
100
AcDbLine
 10
121.5982948697566
 20
131.8979562782879
 30
0.0
 11
121.5982948697566
 21
120.8979562782878
 31
0.0
  0
LINE
  5
1A24
330
1A
100
AcDbEntity
  8
ﾌﾀ
100
AcDbLine
 10
113.3719957688791
 20
131.8979562782878
 30
0.0
 11
113.3719957688791
 21
120.8979562782879
 31
0.0
  0
ARC
  5
1A25
330
1A
100
AcDbEntity
  8
ﾌﾀ
 48
8.0
100
AcDbCircle
 10
114.3719957688791
 20
120.8979562782879
 30
0.0
 40
1.0
100
AcDbArc
 50
180.0
 51
270.0
  0
ARC
  5
1A26
330
1A
100
AcDbEntity
  8
ﾌﾀ
 48
8.0
100
AcDbCircle
 10
116.4021848495475
 20
120.8979562782879
 30
0.0
 40
1.0
100
AcDbArc
 50
270.0
 51
0.0
  0
ARC
  5
1A27
330
1A
100
AcDbEntity
  8
ﾌﾀ
100
AcDbCircle
 10
120.5982948697566
 20
120.8979562782878
 30
0.0
 40
1.0
100
AcDbArc
 50
270.0
 51
0.0
  0
ARC
  5
1A28
330
1A
100
AcDbEntity
  8
ﾌﾀ
100
AcDbCircle
 10
112.8719957688792
 20
131.8979562782878
 30
0.0
 40
0.5
100
AcDbArc
 50
0.0
 51
90.0
  0
ARC
  5
1A29
330
1A
100
AcDbEntity
  8
ﾌﾀ
100
AcDbCircle
 10
117.9021848495475
 20
131.8979562782879
 30
0.0
 40
0.5
100
AcDbArc
 50
90.0
 51
180.0
  0
ARC
  5
1A2A
330
1A
100
AcDbEntity
  8
ﾌﾀ
100
AcDbCircle
 10
122.0982948697566
 20
131.8979562782879
 30
0.0
 40
0.5
100
AcDbArc
 50
90.0
 51
180.0
  0
LINE
  5
1A2B
330
1A
100
AcDbEntity
  8
ﾎﾝﾀｲ
 48
5.0
100
AcDbLine
 10
177.2988049411288
 20
110.3978430146247
 30
0.0
 11
177.2987524256447
 21
75.39784374510469
 31
0.0
  0
LINE
  5
1A2C
330
1A
100
AcDbEntity
  8
ﾎﾝﾀｲ
 48
5.0
100
AcDbLine
 10
177.2986722730008
 20
110.3978430148212
 30
0.0
 11
177.2986197575168
 21
75.39784374530123
 31
0.0
  0
LINE
  5
1A2D
330
1A
100
AcDbEntity
  8
CENTER L
 48
5.0
100
AcDbLine
 10
139.2984474973893
 20
139.794291543752
 30
0.0
 11
139.2983474973892
 21
70.62475120671351
 31
0.0
  0
LINE
  5
1A2E
330
1A
100
AcDbEntity
  8
ﾎﾝﾀｲ
  6
Continuous
 62
     3
 48
8.0
100
AcDbLine
 10
139.2987580028823
 20
74.8979562782689
 30
0.0
 11
176.7987516754257
 21
74.89784522580501
 31
0.0
  0
LINE
  5
1A2F
330
1A
100
AcDbEntity
  8
ﾎﾝﾀｲ
  6
Continuous
 62
     3
 48
8.0
100
AcDbLine
 10
139.2988779395635
 20
75.39795627791537
 30
0.0
 11
177.2987524256447
 21
75.39784374510469
 31
0.0
  0
LINE
  5
1A30
330
1A
100
AcDbEntity
  8
ﾎﾝﾀｲ
  6
Continuous
 62
     3
 48
8.0
100
AcDbLine
 10
139.2987452714357
 20
75.39795627811191
 30
0.0
 11
177.2986197575168
 21
75.39784374530123
 31
0.0
  0
LINE
  5
1A31
330
1A
100
AcDbEntity
  8
ﾎﾝﾀｲ
  6
Continuous
 62
     3
 48
8.0
100
AcDbLine
 10
139.2986253347544
 20
74.89795627846544
 30
0.0
 11
176.7986190072978
 21
74.89784522600155
 31
0.0
  0
LINE
  5
1A32
330
1A
100
AcDbEntity
  8
ﾎﾝﾀｲ
 48
8.0
100
AcDbLine
 10
177.2987524256447
 20
75.39784374510469
 30
0.0
 11
176.7987516754257
 21
74.89784522580501
 31
0.0
  0
LINE
  5
1A33
330
1A
100
AcDbEntity
  8
ﾎﾝﾀｲ
 48
8.0
100
AcDbLine
 10
177.2986197575168
 20
75.39784374530123
 30
0.0
 11
176.7986190072978
 21
74.89784522600155
 31
0.0
  0
ARC
  5
1A34
330
1A
100
AcDbEntity
  8
ﾌﾀ
 48
8.0
100
AcDbCircle
 10
162.194939620721
 20
120.8974497727019
 30
0.0
 40
1.0
100
AcDbArc
 50
179.9987325229702
 51
269.9987325229701
  0
LINE
  5
1A35
330
1A
100
AcDbEntity
  8
ﾎﾝﾀｲ
  6
Continuous
 62
     3
 48
8.0
100
AcDbLine
 10
139.2988049807402
 20
110.8979562782882
 30
0.0
 11
180.2985494036655
 21
110.8978333721087
 31
0.0
  0
LINE
  5
1A36
330
1A
100
AcDbEntity
  8
ﾎﾝﾀｲ
  6
Continuous
 62
     3
 48
8.0
100
AcDbLine
 10
139.2988779395635
 20
115.3979562780913
 30
0.0
 11
181.2985576166103
 21
115.3978304107046
 31
0.0
  0
LINE
  5
1A37
330
1A
100
AcDbEntity
  8
ﾌﾀ
  6
Continuous
 62
     3
 48
8.0
100
AcDbLine
 10
139.2988215964311
 20
119.897956278084
 30
0.0
 11
180.7987349065932
 21
119.89783338026
 31
0.0
  0
LINE
  5
1A38
330
1A
100
AcDbEntity
  8
ﾌﾀ
  6
Continuous
 62
     3
 48
8.0
100
AcDbLine
 10
139.2987453482147
 20
115.3979562782876
 30
0.0
 11
180.7987200995954
 21
115.3978333802819
 31
0.0
  0
LINE
  5
1A39
330
1A
100
AcDbEntity
  8
ﾎﾝﾀｲ
  6
Continuous
 62
     3
 48
8.0
100
AcDbLine
 10
139.2987452714357
 20
115.3979562782879
 30
0.0
 11
181.2984249484824
 21
115.3978304109011
 31
0.0
  0
LINE
  5
1A3A
330
1A
100
AcDbEntity
  8
ﾎﾝﾀｲ
  6
Continuous
 62
     3
 48
8.0
100
AcDbLine
 10
139.2986723126123
 20
110.8979562784847
 30
0.0
 11
180.2984167355377
 21
110.8978333723052
 31
0.0
  0
LINE
  5
1A3B
330
1A
100
AcDbEntity
  8
ﾌﾀ
  6
Continuous
 62
     3
 48
8.0
100
AcDbLine
 10
139.2986839069959
 20
132.3979562782879
 30
0.0
 11
160.6951829592088
 21
132.3974829524813
 31
0.0
  0
LINE
  5
1A3C
330
1A
100
AcDbEntity
  8
ﾌﾀ
100
AcDbLine
 10
156.9990618790806
 20
131.8975647166461
 30
0.0
 11
156.9988296017834
 21
120.8975647192152
 31
0.0
  0
LINE
  5
1A3D
330
1A
100
AcDbEntity
  8
ﾌﾀ
100
AcDbLine
 10
161.1951718982628
 20
131.8974718917799
 30
0.0
 11
161.1949396209658
 21
120.8974718943492
 31
0.0
  0
ARC
  5
1A3E
330
1A
100
AcDbEntity
  8
ﾌﾀ
100
AcDbCircle
 10
157.9988296015387
 20
120.8975425975678
 30
0.0
 40
1.0
100
AcDbArc
 50
179.9987325229702
 51
269.9987325229701
  0
ARC
  5
1A3F
330
1A
100
AcDbEntity
  8
ﾌﾀ
100
AcDbCircle
 10
156.4990618792029
 20
131.8975757774698
 30
0.0
 40
0.5
100
AcDbArc
 50
359.9987325229701
 51
89.99873252297019
  0
ARC
  5
1A40
330
1A
100
AcDbEntity
  8
ﾌﾀ
100
AcDbCircle
 10
160.6951718983852
 20
131.8974829526036
 30
0.0
 40
0.5
100
AcDbArc
 50
359.9987325229701
 51
89.99873252297019
  0
ARC
  5
1A41
330
1A
100
AcDbEntity
  8
ﾎﾝﾀｲ
 48
5.0
100
AcDbCircle
 10
177.7988049411283
 20
110.3978422644035
 30
0.0
 40
0.5
100
AcDbArc
 50
89.9998303243038
 51
179.9999140309826
  0
ARC
  5
1A42
330
1A
100
AcDbEntity
  8
ﾎﾝﾀｲ
 48
5.0
100
AcDbCircle
 10
177.7986722730003
 20
110.3978422646
 30
0.0
 40
0.5
100
AcDbArc
 50
89.9998303243038
 51
179.9999140309813
  0
LINE
  5
1A43
330
1A
100
AcDbEntity
  8
ﾌﾀ
100
AcDbLine
 10
165.2253609779452
 20
131.8973827373583
 30
0.0
 11
165.225128700648
 21
120.8973827399276
 31
0.0
  0
LINE
  5
1A44
330
1A
100
AcDbEntity
  8
ﾌﾀ
100
AcDbLine
 10
171.8830025819621
 20
131.8972354593586
 30
0.0
 11
171.8827703046649
 21
120.8972354619278
 31
0.0
  0
LINE
  5
1A45
330
1A
100
AcDbEntity
  8
ﾌﾀ
100
AcDbLine
 10
175.7985907745039
 20
131.8971488400975
 30
0.0
 11
175.7983584972067
 21
120.8971488426667
 31
0.0
  0
ARC
  5
1A46
330
1A
100
AcDbEntity
  8
ﾌﾀ
 48
8.0
100
AcDbCircle
 10
164.2251287008927
 20
120.897404861575
 30
0.0
 40
1.0
100
AcDbArc
 50
269.9987325229701
 51
359.9987325229701
  0
ARC
  5
1A47
330
1A
100
AcDbEntity
  8
ﾌﾀ
100
AcDbCircle
 10
172.8827703044203
 20
120.8972133402805
 30
0.0
 40
1.0
100
AcDbArc
 50
179.9987325229702
 51
269.9987325229701
  0
ARC
  5
1A48
330
1A
100
AcDbEntity
  8
ﾌﾀ
100
AcDbCircle
 10
176.798358496962
 20
120.8971267210193
 30
0.0
 40
1.0
100
AcDbArc
 50
179.9987325229702
 51
269.9987325229701
  0
LINE
  5
1A49
330
1A
100
AcDbEntity
  8
ﾌﾀ
  6
Continuous
 62
     3
 48
8.0
100
AcDbLine
 10
165.7253720386465
 20
132.3973716764123
 30
0.0
 11
175.29860183545
 21
132.3971599007988
 31
0.0
  0
ARC
  5
1A4A
330
1A
100
AcDbEntity
  8
ﾌﾀ
100
AcDbCircle
 10
165.7253609778228
 20
131.8973716765347
 30
0.0
 40
0.5
100
AcDbArc
 50
89.99873252297019
 51
179.9987325229702
  0
ARC
  5
1A4B
330
1A
100
AcDbEntity
  8
ﾌﾀ
100
AcDbCircle
 10
171.3830025820845
 20
131.8972465201823
 30
0.0
 40
0.5
100
AcDbArc
 50
359.9987325229701
 51
89.99873252297019
  0
ARC
  5
1A4C
330
1A
100
AcDbEntity
  8
ﾌﾀ
100
AcDbCircle
 10
175.2985907746263
 20
131.8971599009212
 30
0.0
 40
0.5
100
AcDbArc
 50
359.9987325229701
 51
89.99873252297019
  0
ARC
  5
1A4D
330
1A
100
AcDbEntity
  8
ﾌﾀ
100
AcDbCircle
 10
180.7987215802952
 20
115.8978333802797
 30
0.0
 40
0.5
100
AcDbArc
 50
269.9998303243038
 51
359.9998303243038
  0
LINE
  5
1A4E
330
1A
100
AcDbEntity
  8
ﾎﾝﾀｲ
 48
5.0
100
AcDbLine
 10
181.2985576166103
 20
115.3978304107046
 30
0.0
 11
181.298552365064
 21
111.8978318716619
 31
0.0
  0
ARC
  5
1A4F
330
1A
100
AcDbEntity
  8
ﾎﾝﾀｲ
 48
5.0
100
AcDbCircle
 10
180.2985523650651
 20
111.8978333721043
 30
0.0
 40
1.0
100
AcDbArc
 50
269.9998303243038
 51
359.9999140309826
  0
LINE
  5
1A50
330
1A
100
AcDbEntity
  8
ﾎﾝﾀｲ
 48
5.0
100
AcDbLine
 10
181.2984249484824
 20
115.3978304109011
 30
0.0
 11
181.2984196969361
 21
111.8978318718584
 31
0.0
  0
ARC
  5
1A51
330
1A
100
AcDbEntity
  8
ﾎﾝﾀｲ
 48
5.0
100
AcDbCircle
 10
180.2984196969372
 20
111.8978333723008
 30
0.0
 40
1.0
100
AcDbArc
 50
269.9998303243038
 51
359.9999140309813
  0
LINE
  5
1A52
330
1A
100
AcDbEntity
  8
ﾌﾀ
100
AcDbLine
 10
181.2987215802931
 20
115.8978318995799
 30
0.0
 11
181.2987334258913
 21
119.3978318995625
 31
0.0
  0
ARC
  5
1A53
330
1A
100
AcDbEntity
  8
ﾌﾀ
 48
8.0
100
AcDbCircle
 10
180.7987334258935
 20
119.3978333802622
 30
0.0
 40
0.5
100
AcDbArc
 50
359.9998303243038
 51
89.9998303243038
  0
ARC
  5
1A54
330
1A
100
AcDbEntity
  8
ﾎﾝﾀｲ
100
AcDbCircle
 10
139.2983970368305
 20
216.3340757457599
 30
0.0
 40
36.0
100
AcDbArc
 50
61.81199641599586
 51
118.3366423996495
  0
ARC
  5
1A55
330
1A
100
AcDbEntity
  8
ﾎﾝﾀｲ
100
AcDbCircle
 10
119.8238662401341
 20
246.367933703156
 30
0.0
 40
2.5
100
AcDbArc
 50
44.22656591433816
 51
225.4618042719966
  0
ARC
  5
1A56
330
1A
100
AcDbEntity
  8
ﾎﾝﾀｲ
100
AcDbCircle
 10
158.6949474511026
 20
246.418354124726
 30
0.0
 40
2.5
100
AcDbArc
 50
314.6868345436496
 51
135.9220729013079
  0
CIRCLE
  5
1A57
330
1A
100
AcDbEntity
  8
ﾎﾝﾀｲ
100
AcDbCircle
 10
139.2983970368305
 20
216.33407574576
 30
0.0
 40
42.0
  0
LINE
  5
1A58
330
1A
100
AcDbEntity
  8
CENTER L
 48
5.0
100
AcDbLine
 10
139.2984438738045
 20
266.8340757457382
 30
0.0
 11
139.2983501998566
 21
165.8340757457816
 31
0.0
  0
TEXT
  5
1A59
330
1A
100
AcDbEntity
  8
SUNPOU
100
AcDbText
 10
124.7717926277269
 20
192.1319643175895
 30
0.0
 40
8.0
  1
C
 50
335.0000000000006
  7
ＭＳゴシック
100
AcDbText
  0
ARC
  5
1A5A
330
1A
100
AcDbEntity
  8
ﾎﾝﾀｲ
100
AcDbCircle
 10
139.2983970368305
 20
216.33407574576
 30
0.0
 40
36.0
100
AcDbArc
 50
241.8119964159959
 51
298.3366423996495
  0
ARC
  5
1A5B
330
1A
100
AcDbEntity
  8
ﾎﾝﾀｲ
100
AcDbCircle
 10
139.2983970368305
 20
216.3340757457599
 30
0.0
 40
31.25
100
AcDbArc
 50
57.2784049598873
 51
122.8702338557579
  0
ARC
  5
1A5C
330
1A
100
AcDbEntity
  8
ﾎﾝﾀｲ
100
AcDbCircle
 10
139.2983970368305
 20
216.33407574576
 30
0.0
 40
31.25
100
AcDbArc
 50
237.2784049598903
 51
302.8702338557581
  0
LINE
  5
1A5D
330
1A
100
AcDbEntity
  8
CENTER L
 48
5.0
100
AcDbLine
 10
189.7983970368158
 20
216.3340372487151
 30
0.0
 11
88.79839703684519
 21
216.3341142428048
 31
0.0
  0
ARC
  5
1A5E
330
1A
100
AcDbEntity
  8
ﾎﾝﾀｲ
100
AcDbCircle
 10
139.2983970368305
 20
216.33407574576
 30
0.0
 40
36.0
100
AcDbArc
 50
151.8119964159967
 51
208.3366423996498
  0
ARC
  5
1A5F
330
1A
100
AcDbEntity
  8
ﾎﾝﾀｲ
100
AcDbCircle
 10
139.2983970368305
 20
216.33407574576
 30
0.0
 40
31.25
100
AcDbArc
 50
147.2784049598884
 51
212.8702338557562
  0
LINE
  5
1A60
330
1A
100
AcDbEntity
  8
ﾎﾝﾀｲ
100
AcDbLine
 10
112.7972236132862
 20
196.8852620897628
 30
0.0
 11
111.0464966686796
 21
195.1060834724033
 31
0.0
  0
ARC
  5
1A61
330
1A
100
AcDbEntity
  8
ﾎﾝﾀｲ
100
AcDbCircle
 10
109.2645390794344
 20
196.8595449490635
 30
0.0
 40
2.5
100
AcDbArc
 50
134.226565914339
 51
315.4618042719977
  0
ARC
  5
1A62
330
1A
100
AcDbEntity
  8
ﾎﾝﾀｲ
100
AcDbCircle
 10
107.1720467816563
 20
199.0093067925567
 30
0.0
 40
0.5
100
AcDbArc
 50
314.2265659143387
 51
28.33664239965051
  0
ARC
  5
1A63
330
1A
100
AcDbEntity
  8
ﾎﾝﾀｲ
100
AcDbCircle
 10
121.3248617797096
 20
188.3606145662592
 30
0.0
 40
2.0
100
AcDbArc
 50
57.27840495989026
 51
134.6868345436467
  0
ARC
  5
1A64
330
1A
100
AcDbEntity
  8
ﾎﾝﾀｲ
100
AcDbCircle
 10
119.9018466225583
 20
186.2497973667938
 30
0.0
 40
2.5
100
AcDbArc
 50
134.6868345436496
 51
315.9220729013073
  0
LINE
  5
1A65
330
1A
100
AcDbEntity
  8
ﾎﾝﾀｲ
100
AcDbLine
 10
119.9183990670278
 20
189.7825367293315
 30
0.0
 11
118.1437682317063
 21
188.0272000706342
 31
0.0
  0
ARC
  5
1A66
330
1A
100
AcDbEntity
  8
ﾎﾝﾀｲ
100
AcDbCircle
 10
122.0570296463238
 20
184.1628890951937
 30
0.0
 40
0.5
100
AcDbArc
 50
61.8119964159993
 51
135.9220729013076
  0
ARC
  5
1A67
330
1A
100
AcDbEntity
  8
ﾎﾝﾀｲ
100
AcDbCircle
 10
111.37165754189
 20
198.2880312710911
 30
0.0
 40
2.0
100
AcDbArc
 50
315.4618042719983
 51
32.8702338557562
  0
LINE
  5
1A68
330
1A
100
AcDbEntity
  8
ﾎﾝﾀｲ
100
AcDbLine
 10
112.7468580204021
 20
235.7140737155626
 30
0.0
 11
110.9915213617048
 21
237.4887045508842
 31
0.0
  0
ARC
  5
1A69
330
1A
100
AcDbEntity
  8
ﾎﾝﾀｲ
100
AcDbCircle
 10
109.2141186578644
 20
235.7306261600321
 30
0.0
 40
2.5
100
AcDbArc
 50
44.68683454364929
 51
225.922072901307
  0
ARC
  5
1A6A
330
1A
100
AcDbEntity
  8
ﾎﾝﾀｲ
100
AcDbCircle
 10
107.1272103862642
 20
233.5754431362667
 30
0.0
 40
0.5
100
AcDbArc
 50
331.8119964159964
 51
45.9220729013073
  0
ARC
  5
1A6B
330
1A
100
AcDbEntity
  8
ﾎﾝﾀｲ
100
AcDbCircle
 10
111.3249358573298
 20
234.3076110028808
 30
0.0
 40
2.0
100
AcDbArc
 50
327.2784049598888
 51
44.68683454364871
  0
ARC
  5
1A6C
330
1A
100
AcDbEntity
  8
ﾎﾝﾀｲ
100
AcDbCircle
 10
121.2523525621616
 20
244.2608152407005
 30
0.0
 40
2.0
100
AcDbArc
 50
225.4618042719994
 51
302.8702338557579
  0
LINE
  5
1A6D
330
1A
100
AcDbEntity
  8
ﾎﾝﾀｲ
100
AcDbLine
 10
119.8495833808334
 20
242.8352491693043
 30
0.0
 11
118.0704047634739
 21
244.5859761139109
 31
0.0
  0
ARC
  5
1A6E
330
1A
100
AcDbEntity
  8
ﾎﾝﾀｲ
100
AcDbCircle
 10
121.9736280836274
 20
248.4604260009341
 30
0.0
 40
0.5
100
AcDbArc
 50
224.2265659143381
 51
298.3366423996498
  0
ARC
  5
1A6F
330
1A
100
AcDbEntity
  8
ﾎﾝﾀｲ
100
AcDbCircle
 10
139.2983970368305
 20
216.33407574576
 30
0.0
 40
36.0
100
AcDbArc
 50
331.8119964159968
 51
28.33664239964944
  0
ARC
  5
1A70
330
1A
100
AcDbEntity
  8
ﾎﾝﾀｲ
100
AcDbCircle
 10
139.2983970368305
 20
216.33407574576
 30
0.0
 40
31.25
100
AcDbArc
 50
327.2784049598885
 51
32.8702338557562
  0
TEXT
  5
1A71
330
1A
100
AcDbEntity
  8
SUNPOU
100
AcDbText
 10
141.2806601636766
 20
188.176748704009
 30
0.0
 40
8.0
  1
6
 50
10.00000000000021
  7
ＭＳゴシック
100
AcDbText
  0
TEXT
  5
1A72
330
1A
100
AcDbEntity
  8
SUNPOU
100
AcDbText
 10
147.7990875321604
 20
189.417488028466
 30
0.0
 40
8.0
  1
5
 50
23.5000000000002
  7
ＭＳゴシック
100
AcDbText
  0
TEXT
  5
1A73
330
1A
100
AcDbEntity
  8
SUNPOU
100
AcDbText
 10
130.8230345723323
 20
189.4095021310201
 30
0.0
 40
8.0
  1
O
 50
348.5
  7
ＭＳゴシック
100
AcDbText
  0
ARC
  5
1A74
330
1A
100
AcDbEntity
  8
ﾎﾝﾀｲ
100
AcDbCircle
 10
158.772927833527
 20
186.3002177883638
 30
0.0
 40
2.5
100
AcDbArc
 50
224.2265659143385
 51
45.46180427199658
  0
ARC
  5
1A75
330
1A
100
AcDbEntity
  8
ﾎﾝﾀｲ
100
AcDbCircle
 10
156.6231659900337
 20
184.2077254905858
 30
0.0
 40
0.5
100
AcDbArc
 50
44.22656591433816
 51
118.3366423996498
  0
ARC
  5
1A76
330
1A
100
AcDbEntity
  8
ﾎﾝﾀｲ
100
AcDbCircle
 10
157.3444415114994
 20
188.4073362508194
 30
0.0
 40
2.0
100
AcDbArc
 50
45.46180427199948
 51
122.8702338557579
  0
LINE
  5
1A77
330
1A
100
AcDbEntity
  8
ﾎﾝﾀｲ
100
AcDbLine
 10
158.7472106928277
 20
189.8329023222155
 30
0.0
 11
160.5263893101872
 21
188.082175377609
 31
0.0
  0
ARC
  5
1A78
330
1A
100
AcDbEntity
  8
ﾎﾝﾀｲ
100
AcDbCircle
 10
169.3826754157966
 20
196.9375253314877
 30
0.0
 40
2.5
100
AcDbArc
 50
224.6868345436493
 51
45.9220729013073
  0
LINE
  5
1A79
330
1A
100
AcDbEntity
  8
ﾎﾝﾀｲ
100
AcDbLine
 10
165.8499360532588
 20
196.9540777759572
 30
0.0
 11
167.6052727119562
 21
195.1794469406357
 31
0.0
  0
ARC
  5
1A7A
330
1A
100
AcDbEntity
  8
ﾎﾝﾀｲ
100
AcDbCircle
 10
167.2718582163312
 20
198.360540488639
 30
0.0
 40
2.0
100
AcDbArc
 50
147.2784049598888
 51
224.6868345436487
  0
ARC
  5
1A7B
330
1A
100
AcDbEntity
  8
ﾎﾝﾀｲ
100
AcDbCircle
 10
171.4695836873967
 20
199.0927083552532
 30
0.0
 40
0.5
100
AcDbArc
 50
151.8119964159986
 51
225.9220729013099
  0
DIMENSION
  5
1A7C
330
1A
100
AcDbEntity
  8
SUNPOU
  6
Continuous
100
AcDbDimension
280
     0
  2
*D16
 10
157.1346858099235
 20
227.1074487667423
 30
0.0
 11
155.6986410119103
 21
232.7769211190778
 31
0.0
 70
    33
 71
     5
 42
-1.0
 73
     0
 74
     0
 75
     0
  3
STANDARD
100
AcDbAlignedDimension
 13
159.565710424294
 23
243.763283091537
 33
0.0
 14
166.674933932678
 24
236.6724787104368
 34
0.0
1001
ACAD
1000
DSTYLE
1002
{
1070
    41
1040
3.0
1070
    42
1040
3.0
1070
    43
1040
7.0
1070
    44
1040
1.5
1070
    73
1070
     0
1070
    74
1070
     0
1070
    77
1070
     3
1070
   140
1040
4.0
1070
   141
1040
150.0
1070
   147
1040
1.0
1070
   172
1070
     1
1070
   173
1070
     1
1070
   176
1070
   256
1070
   177
1070
   256
1070
   178
1070
   256
1070
   271
1070
     0
1070
   272
1070
     2
1070
     6
1000
OPEN
1070
     7
1000
OPEN
1070
   371
1070
    -1
1070
   372
1070
    -1
1002
}
  0
LINE
  5
1A7D
330
1A
100
AcDbEntity
  8
ﾎﾝﾀｲ
100
AcDbLine
 10
158.6783950066332
 20
242.8856147621883
 30
0.0
 11
160.4530258419548
 21
244.6409514208857
 31
0.0
  0
ARC
  5
1A7E
330
1A
100
AcDbEntity
  8
ﾎﾝﾀｲ
100
AcDbCircle
 10
157.2719322939514
 20
244.3075369252606
 30
0.0
 40
2.0
100
AcDbArc
 50
237.2784049598903
 51
314.6868345436467
  0
ARC
  5
1A7F
330
1A
100
AcDbEntity
  8
ﾎﾝﾀｲ
100
AcDbCircle
 10
156.5397644273372
 20
248.5052623963261
 30
0.0
 40
0.5
100
AcDbArc
 50
241.8119964159993
 51
315.9220729013076
  0
LINE
  5
1A80
330
1A
100
AcDbEntity
  8
ﾎﾝﾀｲ
100
AcDbLine
 10
165.7995704603749
 20
235.7828894017571
 30
0.0
 11
167.5502974049815
 21
237.5620680191166
 31
0.0
  0
ARC
  5
1A81
330
1A
100
AcDbEntity
  8
ﾎﾝﾀｲ
100
AcDbCircle
 10
169.3322549942267
 20
235.8086065424564
 30
0.0
 40
2.5
100
AcDbArc
 50
314.2265659143394
 51
135.4618042719977
  0
ARC
  5
1A82
330
1A
100
AcDbEntity
  8
ﾎﾝﾀｲ
100
AcDbCircle
 10
167.225136531771
 20
234.3801202204288
 30
0.0
 40
2.0
100
AcDbArc
 50
135.4618042719983
 51
212.8702338557558
  0
ARC
  5
1A83
330
1A
100
AcDbEntity
  8
ﾎﾝﾀｲ
100
AcDbCircle
 10
171.4247472920046
 20
233.6588446989631
 30
0.0
 40
0.5
100
AcDbArc
 50
134.2265659143387
 51
208.3366423996505
  0
TEXT
  5
1A84
330
1A
100
AcDbEntity
  8
SUNPOU
100
AcDbText
 10
236.9367294442999
 20
256.8971496522788
 30
0.0
 40
4.0
  1
１．ねじ部はＪＩＳ　Ｂ　０２０２（管用平行ネジ）とする
100
AcDbText
  0
TEXT
  5
23C6
330
1A
100
AcDbEntity
  8
moji
100
AcDbText
 10
327.4094708886025
 20
44.8529798453121
 30
0.0
 40
2.799999999999999
  1
タフグレー
 41
0.9
  7
ｽﾀｲﾙ1
100
AcDbText
  0
TEXT
  5
23C7
330
1A
100
AcDbEntity
  8
moji
100
AcDbText
 10
331.3721301936259
 20
85.06322154176364
 30
0.0
 40
2.799999999999999
  1
色
 41
0.9
  7
ｽﾀｲﾙ1
100
AcDbText
  0
TEXT
  5
23C8
330
1A
100
AcDbEntity
  8
moji
100
AcDbText
 10
358.0100079287892
 20
85.06322154176364
 30
0.0
 40
2.799999999999999
  1
品 番
 41
0.9
  7
ｽﾀｲﾙ1
100
AcDbText
  0
LINE
  5
23C9
330
1A
100
AcDbEntity
  8
ZUWAKU
100
AcDbLine
 10
321.7451031717876
 20
82.72784322650005
 30
0.0
 11
381.247839926666
 21
82.72784322650005
 31
0.0
  0
LINE
  5
23CA
330
1A
100
AcDbEntity
  8
ZUWAKU
100
AcDbLine
 10
321.7451031717876
 20
82.62784322650004
 30
0.0
 11
381.247839926666
 21
82.62784322650004
 31
0.0
  0
LINE
  5
23CB
330
1A
100
AcDbEntity
  8
ZUWAKU
100
AcDbLine
 10
321.7451031717876
 20
82.52784322650006
 30
0.0
 11
381.247839926666
 21
82.52784322650006
 31
0.0
  0
LINE
  5
23CC
330
1A
100
AcDbEntity
  8
ZUWAKU
100
AcDbLine
 10
321.7451031717876
 20
41.92858505627978
 30
0.0
 11
321.7451031717876
 21
90.8476948605441
 31
0.0
  0
LINE
  5
23CD
330
1A
100
AcDbEntity
  8
ZUWAKU
100
AcDbLine
 10
321.7451031717876
 20
90.64769486054411
 30
0.0
 11
381.247839926666
 21
90.64769486054411
 31
0.0
  0
LINE
  5
23CE
330
1A
100
AcDbEntity
  8
ZUWAKU
100
AcDbLine
 10
321.7451031717876
 20
90.7476948605441
 30
0.0
 11
381.247839926666
 21
90.7476948605441
 31
0.0
  0
LINE
  5
23CF
330
1A
100
AcDbEntity
  8
ZUWAKU
100
AcDbLine
 10
321.7451031717876
 20
90.8476948605441
 30
0.0
 11
381.247839926666
 21
90.8476948605441
 31
0.0
  0
LINE
  5
23D0
330
1A
100
AcDbEntity
  8
ZUWAKU
100
AcDbLine
 10
321.7451031717876
 20
74.40799159245599
 30
0.0
 11
381.247839926666
 21
74.40799159245599
 31
0.0
  0
LINE
  5
23D1
330
1A
100
AcDbEntity
  8
ZUWAKU
100
AcDbLine
 10
321.7451031717876
 20
74.50799159245599
 30
0.0
 11
381.247839926666
 21
74.50799159245599
 31
0.0
  0
LINE
  5
23D2
330
1A
100
AcDbEntity
  8
ZUWAKU
100
AcDbLine
 10
321.7451031717876
 20
74.607991592456
 30
0.0
 11
381.247839926666
 21
74.607991592456
 31
0.0
  0
LINE
  5
23D3
330
1A
100
AcDbEntity
  8
ZUWAKU
100
AcDbLine
 10
321.7451031717876
 20
58.3682883243679
 30
0.0
 11
381.247839926666
 21
58.3682883243679
 31
0.0
  0
LINE
  5
23D4
330
1A
100
AcDbEntity
  8
ZUWAKU
100
AcDbLine
 10
321.7451031717876
 20
58.26828832436788
 30
0.0
 11
381.247839926666
 21
58.26828832436788
 31
0.0
  0
LINE
  5
23D5
330
1A
100
AcDbEntity
  8
ZUWAKU
100
AcDbLine
 10
321.7451031717876
 20
58.16828832436789
 30
0.0
 11
381.247839926666
 21
58.16828832436789
 31
0.0
  0
LINE
  5
23D6
330
1A
100
AcDbEntity
  8
ZUWAKU
100
AcDbLine
 10
321.7451031717876
 20
66.28813995841195
 30
0.0
 11
381.247839926666
 21
66.28813995841195
 31
0.0
  0
LINE
  5
23D7
330
1A
100
AcDbEntity
  8
ZUWAKU
100
AcDbLine
 10
321.7451031717876
 20
66.38813995841194
 30
0.0
 11
381.247839926666
 21
66.38813995841194
 31
0.0
  0
LINE
  5
23D8
330
1A
100
AcDbEntity
  8
ZUWAKU
100
AcDbLine
 10
321.7451031717876
 20
66.48813995841194
 30
0.0
 11
381.247839926666
 21
66.48813995841194
 31
0.0
  0
LINE
  5
23D9
330
1A
100
AcDbEntity
  8
ZUWAKU
100
AcDbLine
 10
321.7451031717876
 20
41.92858505627978
 30
0.0
 11
381.247839926666
 21
41.92858505627978
 31
0.0
  0
LINE
  5
23DA
330
1A
100
AcDbEntity
  8
ZUWAKU
100
AcDbLine
 10
321.7451031717876
 20
42.02858505627978
 30
0.0
 11
381.247839926666
 21
42.02858505627978
 31
0.0
  0
LINE
  5
23DB
330
1A
100
AcDbEntity
  8
ZUWAKU
100
AcDbLine
 10
321.7451031717876
 20
42.12858505627979
 30
0.0
 11
381.247839926666
 21
42.12858505627979
 31
0.0
  0
TEXT
  5
23DC
330
1A
100
AcDbEntity
  8
moji
100
AcDbText
 10
327.4094708886025
 20
61.09268311340021
 30
0.0
 40
2.799999999999999
  1
ココア
 41
0.9
  7
ｽﾀｲﾙ1
100
AcDbText
  0
TEXT
  5
23DD
330
1A
100
AcDbEntity
  8
moji
100
AcDbText
 10
327.4094708886025
 20
69.21253474744426
 30
0.0
 40
2.799999999999999
  1
ホワイト
 41
0.9
  7
ｽﾀｲﾙ1
100
AcDbText
  0
TEXT
  5
23DE
330
1A
100
AcDbEntity
  8
moji
100
AcDbText
 10
327.4094708886025
 20
52.97283147935615
 30
0.0
 40
2.799999999999999
  1
クリーム
 41
0.9
  7
ｽﾀｲﾙ1
100
AcDbText
  0
LINE
  5
23DF
330
1A
100
AcDbEntity
  8
ZUWAKU
100
AcDbLine
 10
354.7701582628829
 20
53.87022669717118
 30
0.0
 11
368.9263092338316
 21
53.87022669717118
 31
0.0
  0
LINE
  5
23E0
330
1A
100
AcDbEntity
  8
ZUWAKU
100
AcDbLine
 10
354.7701582628829
 20
53.97022669717117
 30
0.0
 11
368.9263092338316
 21
53.97022669717117
 31
0.0
  0
LINE
  5
23E1
330
1A
100
AcDbEntity
  8
ZUWAKU
100
AcDbLine
 10
354.7701582628829
 20
54.07022669717118
 30
0.0
 11
368.9263092338316
 21
54.07022669717118
 31
0.0
  0
LINE
  5
23E2
330
1A
100
AcDbEntity
  8
ZUWAKU
100
AcDbLine
 10
354.7701582628829
 20
70.30992996525928
 30
0.0
 11
368.9263092338316
 21
70.30992996525928
 31
0.0
  0
LINE
  5
23E3
330
1A
100
AcDbEntity
  8
ZUWAKU
100
AcDbLine
 10
354.7701582628829
 20
70.20992996525928
 30
0.0
 11
368.9263092338316
 21
70.20992996525928
 31
0.0
  0
LINE
  5
23E4
330
1A
100
AcDbEntity
  8
ZUWAKU
100
AcDbLine
 10
354.7701582628829
 20
70.10992996525928
 30
0.0
 11
368.9263092338316
 21
70.10992996525928
 31
0.0
  0
TEXT
  5
23E8
330
1A
100
AcDbEntity
  8
moji
100
AcDbText
 10
354.2284359874929
 20
44.8529798453121
 30
0.0
 40
2.799999999999999
  1
ＧＮＣＯ６５Ｎ
 41
0.9
  7
ｽﾀｲﾙ1
100
AcDbText
  0
LINE
  5
23E9
330
1A
100
AcDbEntity
  8
ZUWAKU
100
AcDbLine
 10
321.7451031717876
 20
50.24843669032384
 30
0.0
 11
381.247839926666
 21
50.24843669032384
 31
0.0
  0
LINE
  5
23EA
330
1A
100
AcDbEntity
  8
ZUWAKU
100
AcDbLine
 10
321.7451031717876
 20
50.14843669032384
 30
0.0
 11
381.247839926666
 21
50.14843669032384
 31
0.0
  0
LINE
  5
23EB
330
1A
100
AcDbEntity
  8
ZUWAKU
100
AcDbLine
 10
321.7451031717876
 20
50.04843669032384
 30
0.0
 11
381.247839926666
 21
50.04843669032384
 31
0.0
  0
LINE
  5
23EC
330
1A
100
AcDbEntity
  8
ZUWAKU
100
AcDbLine
 10
321.8451031717876
 20
41.92858505627978
 30
0.0
 11
321.8451031717876
 21
90.8476948605441
 31
0.0
  0
LINE
  5
23ED
330
1A
100
AcDbEntity
  8
ZUWAKU
100
AcDbLine
 10
321.9451031717877
 20
41.92858505627977
 30
0.0
 11
321.9451031717877
 21
90.8476948605441
 31
0.0
  0
LINE
  5
23EE
330
1A
100
AcDbEntity
  8
ZUWAKU
100
AcDbLine
 10
347.6571010835685
 20
41.92858505627978
 30
0.0
 11
347.6571010835685
 21
90.8476948605441
 31
0.0
  0
LINE
  5
23EF
330
1A
100
AcDbEntity
  8
ZUWAKU
100
AcDbLine
 10
347.7571010835684
 20
41.92858505627978
 30
0.0
 11
347.7571010835684
 21
90.8476948605441
 31
0.0
  0
LINE
  5
23F0
330
1A
100
AcDbEntity
  8
ZUWAKU
100
AcDbLine
 10
347.8571010835685
 20
41.92858505627977
 30
0.0
 11
347.8571010835685
 21
90.8476948605441
 31
0.0
  0
LINE
  5
23F1
330
1A
100
AcDbEntity
  8
ZUWAKU
100
AcDbLine
 10
381.047839926666
 20
41.92858505627978
 30
0.0
 11
381.047839926666
 21
90.8476948605441
 31
0.0
  0
LINE
  5
23F2
330
1A
100
AcDbEntity
  8
ZUWAKU
100
AcDbLine
 10
381.147839926666
 20
41.92858505627978
 30
0.0
 11
381.147839926666
 21
90.8476948605441
 31
0.0
  0
LINE
  5
23F3
330
1A
100
AcDbEntity
  8
ZUWAKU
100
AcDbLine
 10
381.2478399266661
 20
41.92858505627977
 30
0.0
 11
381.2478399266661
 21
90.8476948605441
 31
0.0
  0
TEXT
  5
23F4
330
1A
100
AcDbEntity
  8
moji
100
AcDbText
 10
327.4094708886025
 20
77.33238638148832
 30
0.0
 40
2.799999999999999
  1
シルバー
 41
0.9
  7
ｽﾀｲﾙ1
100
AcDbText
  0
TEXT
  5
23F5
330
1A
100
AcDbEntity
  8
moji
100
AcDbText
 10
353.3626935197051
 20
77.33238638148832
 30
0.0
 40
2.799999999999999
  1
ＪＮＣＯ６５N
 41
0.9
  7
ｽﾀｲﾙ1
100
AcDbText
  0
TEXT
  5
23FD
330
1A
100
AcDbEntity
  8
ZUWAKU
100
AcDbText
 10
258.5239696606507
 20
-4.422918451760892
 30
0.0
 40
4.0
  1
2021.07.16  注記「２．Ｏリングの材質はＳＢＲとする」を削除
100
AcDbText
  0
TEXT
  5
23FE
330
1A
100
AcDbEntity
  8
ZUWAKU
100
AcDbText
 10
258.62599695329
 20
-11.62291845176087
 30
0.0
 40
4.0
  1
               色品番：「シルバー」「タフグレー」を追加
100
AcDbText
  0
TEXT
  5
23FF
330
1A
100
AcDbEntity
  8
moji
100
AcDbText
 10
354.2473486237659
 20
61.29268311340021
 30
0.0
 40
2.799999999999999
  1
ＮＣＯ６５ＥＮ
 41
0.9
  7
ｽﾀｲﾙ1
100
AcDbText
  0
TEXT
  5
2438
330
1A
100
AcDbEntity
  8
moji
100
AcDbText
 10
236.9159363153958
 20
14.1865558005459
 30
0.0
 40
2.799999999999999
  1
ＮＣＯ６５
 41
0.9
  7
ｽﾀｲﾙ1
100
AcDbText
  0
VIEWPORT
  5
22
330
17
100
AcDbEntity
 67
     1
  8
0
100
AcDbViewport
 10
313.6808219178083
 20
148.5
 30
0.0
 40
627.3616438356165
 41
297.0
 68
     2
 69
     1
 12
313.6808219178083
 22
148.5
 13
0.0
 23
0.0
 14
1.0
 24
1.0
 15
10.0
 25
10.0
 16
0.0
 26
0.0
 36
1.0
 17
0.0
 27
0.0
 37
0.0
 42
50.0
 43
0.0
 44
0.0
 45
297.0
 50
0.0
 51
0.0
 72
   100
 90
    32768
  1

281
     0
 71
     1
 74
     0
110
0.0
120
0.0
130
0.0
111
1.0
121
0.0
131
0.0
112
0.0
122
1.0
132
0.0
 79
     0
146
0.0
170
     0
 61
     5
348
2327
292
     1
282
     1
141
0.0
142
0.0
 63
   250
421
  3355443
  0
VIEWPORT
  5
64
330
17
100
AcDbEntity
 67
     1
  8
VIEWPORT
100
AcDbViewport
 10
210.0
 20
148.5
 30
0.0
 40
420.0
 41
297.0
 68
     1
 69
     2
 12
210.0
 22
148.5
 13
0.0
 23
0.0
 14
5.0
 24
5.0
 15
0.0
 25
0.0
 16
0.0
 26
0.0
 36
1.0
 17
0.0
 27
0.0
 37
0.0
 42
50.0
 43
0.0
 44
0.0
 45
302.9399999999999
 50
0.0
 51
0.0
 72
   100
 90
    32768
  1

281
     0
 71
     1
 74
     0
110
0.0
120
0.0
130
0.0
111
1.0
121
0.0
131
0.0
112
0.0
122
1.0
132
0.0
 79
     0
146
0.0
170
     0
 61
     5
348
2327
292
     1
282
     1
141
0.0
142
0.0
 63
   250
421
  3355443
  0
ENDSEC
  0
SECTION
  2
OBJECTS
  0
DICTIONARY
  5
C
330
0
100
AcDbDictionary
281
     1
  3
ACAD_COLOR
350
233A
  3
ACAD_GROUP
350
D
  3
ACAD_LAYOUT
350
291
  3
ACAD_MATERIAL
350
2308
  3
ACAD_MLEADERSTYLE
350
234F
  3
ACAD_MLINESTYLE
350
E
  3
ACAD_PLOTSETTINGS
350
292
  3
ACAD_PLOTSTYLENAME
350
28F
  3
ACAD_SCALELIST
350
233D
  3
ACAD_TABLESTYLE
350
233B
  3
ACAD_VISUALSTYLE
350
2321
  3
ACDB_RECOMPOSE_DATA
350
245D
  3
AcDbVariableDictionary
350
237E
  0
DICTIONARY
  5
2359
330
2
100
AcDbDictionary
280
     1
281
     1
  3
ACAD_LAYERSTATES
360
235A
  0
DICTIONARY
  5
2362
330
F
100
AcDbDictionary
280
     1
281
     1
  3
ADSK_XREC_LAYER_RECONCILED
360
2363
  0
DICTIONARY
  5
2364
330
62
100
AcDbDictionary
280
     1
281
     1
  3
ADSK_XREC_LAYER_RECONCILED
360
2365
  0
DICTIONARY
  5
2366
330
6B
100
AcDbDictionary
280
     1
281
     1
  3
ADSK_XREC_LAYER_RECONCILED
360
2367
  0
DICTIONARY
  5
2368
330
141
100
AcDbDictionary
280
     1
281
     1
  3
ADSK_XREC_LAYER_RECONCILED
360
2369
  0
DICTIONARY
  5
236A
330
142
100
AcDbDictionary
280
     1
281
     1
  3
ADSK_XREC_LAYER_RECONCILED
360
236B
  0
DICTIONARY
  5
236C
330
4EF
100
AcDbDictionary
280
     1
281
     1
  3
ADSK_XREC_LAYER_RECONCILED
360
236D
  0
DICTIONARY
  5
236E
330
18FA
100
AcDbDictionary
280
     1
281
     1
  3
ADSK_XREC_LAYER_RECONCILED
360
236F
  0
DICTIONARY
  5
2370
330
18FB
100
AcDbDictionary
280
     1
281
     1
  3
ADSK_XREC_LAYER_RECONCILED
360
2371
  0
DICTIONARY
  5
2372
330
18FC
100
AcDbDictionary
280
     1
281
     1
  3
ADSK_XREC_LAYER_RECONCILED
360
2373
  0
DICTIONARY
  5
2D8
330
1A
100
AcDbDictionary
280
     1
281
     1
  3
ACAD_LAYOUTSELFREF
360
22DA
  0
DICTIONARY
  5
2D6
330
17
100
AcDbDictionary
280
     1
281
     1
  3
ACAD_LAYOUTSELFREF
360
22D9
  0
DICTIONARY
  5
233A
102
{ACAD_REACTORS
330
C
102
}
330
C
100
AcDbDictionary
281
     1
  0
DICTIONARY
  5
D
102
{ACAD_REACTORS
330
C
102
}
330
C
100
AcDbDictionary
281
     1
  0
DICTIONARY
  5
291
102
{ACAD_REACTORS
330
C
102
}
330
C
100
AcDbDictionary
281
     1
  3
Model
350
293
  3
ﾚｲｱｳﾄ1
350
294
  0
DICTIONARY
  5
2308
102
{ACAD_REACTORS
330
C
102
}
330
C
100
AcDbDictionary
281
     1
  3
ByBlock
350
2311
  3
ByLayer
350
2309
  3
Global
350
2319
  0
DICTIONARY
  5
234F
102
{ACAD_REACTORS
330
C
102
}
330
C
100
AcDbDictionary
281
     1
  3
Standard
350
2350
  0
DICTIONARY
  5
E
102
{ACAD_REACTORS
330
C
102
}
330
C
100
AcDbDictionary
281
     1
  3
STANDARD
350
13
  0
DICTIONARY
  5
292
102
{ACAD_REACTORS
330
C
102
}
330
C
100
AcDbDictionary
281
     1
  0
ACDBDICTIONARYWDFLT
  5
28F
102
{ACAD_REACTORS
330
C
102
}
330
C
100
AcDbDictionary
281
     1
  3
Normal
350
290
100
AcDbDictionaryWithDefault
340
290
1001
ACAD
1000
TREAT_AS_HARD
1070
     0
1000
TREAT_AS_HARD
1070
     0
1000
TREAT_AS_HARD
1070
     0
1000
TREAT_AS_HARD
1070
     0
1000
TREAT_AS_HARD
1070
     0
1000
TREAT_AS_HARD
1070
     0
1000
TREAT_AS_HARD
1070
     0
1000
TREAT_AS_HARD
1070
     0
1000
TREAT_AS_HARD
1070
     0
1000
TREAT_AS_HARD
1070
     0
1000
TREAT_AS_HARD
1070
     0
1000
TREAT_AS_HARD
1070
     0
1000
TREAT_AS_HARD
1070
     0
1000
TREAT_AS_HARD
1070
     0
  0
DICTIONARY
  5
233D
102
{ACAD_REACTORS
330
C
102
}
330
C
100
AcDbDictionary
281
     1
  3
A0
350
233E
  3
A1
350
233F
  3
A2
350
2340
  3
A3
350
2341
  3
A4
350
2342
  3
A5
350
2343
  3
A6
350
2344
  3
A7
350
2345
  3
A8
350
2346
  3
A9
350
2347
  3
B0
350
2348
  3
B1
350
2349
  3
B2
350
234A
  3
B3
350
234B
  3
B4
350
234C
  3
B5
350
234D
  3
B6
350
234E
  0
DICTIONARY
  5
233B
102
{ACAD_REACTORS
330
C
102
}
330
C
100
AcDbDictionary
281
     1
  3
Standard
350
233C
  0
DICTIONARY
  5
2321
102
{ACAD_REACTORS
330
C
102
}
330
C
100
AcDbDictionary
281
     1
  3
2dWireframe
350
2327
  3
Basic
350
2326
  3
Brighten
350
232D
  3
ColorChange
350
2331
  3
Conceptual
350
232A
  3
Dim
350
232C
  3
EdgeColorOff
350
2339
  3
Facepattern
350
2330
  3
Flat
350
2322
  3
FlatWithEdges
350
2323
  3
Gouraud
350
2324
  3
GouraudWithEdges
350
2325
  3
Hidden
350
2329
  3
JitterOff
350
2337
  3
Linepattern
350
232F
  3
OverhangOff
350
2338
  3
Realistic
350
232B
  3
Shaded
350
2336
  3
Shaded with edges
350
2335
  3
Shades of Gray
350
2332
  3
Sketchy
350
2333
  3
Thicken
350
232E
  3
Wireframe
350
2328
  3
X-Ray
350
2334
  0
XRECORD
  5
245D
102
{ACAD_REACTORS
330
C
102
}
330
C
100
AcDbXrecord
280
     1
 90
        1
330
19CB
330
233C
  0
DICTIONARY
  5
237E
102
{ACAD_REACTORS
330
C
102
}
330
C
100
AcDbDictionary
281
     1
  3
CANNOSCALE
350
2382
  3
CMLEADERSTYLE
350
2380
  3
CTABLESTYLE
350
237F
  3
LAYEREVAL
350
2384
  3
LAYERNOTIFY
350
2385
  3
LIGHTINGUNITS
350
2383
  3
MSLTSCALE
350
2381
  0
DICTIONARY
  5
235A
102
{ACAD_REACTORS
330
2359
102
}
330
2359
100
AcDbDictionary
281
     1
  0
XRECORD
  5
2363
102
{ACAD_REACTORS
330
2362
102
}
330
2362
100
AcDbXrecord
280
     1
290
     1
  0
XRECORD
  5
2365
102
{ACAD_REACTORS
330
2364
102
}
330
2364
100
AcDbXrecord
280
     1
290
     1
  0
XRECORD
  5
2367
102
{ACAD_REACTORS
330
2366
102
}
330
2366
100
AcDbXrecord
280
     1
290
     1
  0
XRECORD
  5
2369
102
{ACAD_REACTORS
330
2368
102
}
330
2368
100
AcDbXrecord
280
     1
290
     1
  0
XRECORD
  5
236B
102
{ACAD_REACTORS
330
236A
102
}
330
236A
100
AcDbXrecord
280
     1
290
     1
  0
XRECORD
  5
236D
102
{ACAD_REACTORS
330
236C
102
}
330
236C
100
AcDbXrecord
280
     1
290
     1
  0
XRECORD
  5
236F
102
{ACAD_REACTORS
330
236E
102
}
330
236E
100
AcDbXrecord
280
     1
290
     1
  0
XRECORD
  5
2371
102
{ACAD_REACTORS
330
2370
102
}
330
2370
100
AcDbXrecord
280
     1
290
     1
  0
XRECORD
  5
2373
102
{ACAD_REACTORS
330
2372
102
}
330
2372
100
AcDbXrecord
280
     1
290
     1
  0
XRECORD
  5
22DA
102
{ACAD_REACTORS
330
2D8
102
}
330
2D8
100
AcDbXrecord
280
     1
340
1A
  0
XRECORD
  5
22D9
102
{ACAD_REACTORS
330
2D6
102
}
330
2D6
100
AcDbXrecord
280
     1
340
17
  0
LAYOUT
  5
293
102
{ACAD_XDICTIONARY
360
237B
102
}
102
{ACAD_REACTORS
330
291
102
}
330
291
100
AcDbPlotSettings
  1

  2
Acrobat Distiller
  4
A3
  6

 40
3.174999952316284
 41
3.174999952316284
 42
3.17498779296875
 43
3.17498779296875
 44
297.0318298339844
 45
420.1583251953125
 46
0.0
 47
0.0
 48
0.0
 49
0.0
140
0.0
141
0.0
142
1.0
143
1.0
 70
 11952
 72
     1
 73
     1
 74
     2
  7
print.ctb
 75
    16
147
1.0
 76
     0
 77
     2
 78
   300
148
0.0
149
0.0
100
AcDbLayout
  1
Model
 70
     1
 71
     0
 10
0.0
 20
0.0
 11
12.0
 21
9.0
 12
0.0
 22
0.0
 32
0.0
 14
0.0
 24
0.0
 34
0.0
 15
0.0
 25
0.0
 35
0.0
146
0.0
 13
0.0
 23
0.0
 33
0.0
 16
1.0
 26
0.0
 36
0.0
 17
0.0
 27
1.0
 37
0.0
 76
     0
330
1A
331
22AF
  0
LAYOUT
  5
294
102
{ACAD_REACTORS
330
291
102
}
330
291
100
AcDbPlotSettings
  1

  2
Acrobat Distiller
  4

  6

 40
0.0
 41
0.0
 42
0.0
 43
0.0
 44
0.0
 45
0.0
 46
0.0
 47
0.0
 48
0.0
 49
0.0
140
0.0
141
0.0
142
1.0
143
1.0
 70
   688
 72
     0
 73
     0
 74
     5
  7
print.ctb
 75
    16
147
1.0
 76
     0
 77
     2
 78
   300
148
0.0
149
0.0
100
AcDbLayout
  1
ﾚｲｱｳﾄ1
 70
     1
 71
     1
 10
0.0
 20
0.0
 11
420.0
 21
297.0
 12
0.0
 22
0.0
 32
0.0
 14
0.0
 24
0.0
 34
0.0
 15
420.0
 25
297.0
 35
0.0
146
0.0
 13
0.0
 23
0.0
 33
0.0
 16
1.0
 26
0.0
 36
0.0
 17
0.0
 27
1.0
 37
0.0
 76
     0
330
17
331
64
  0
MATERIAL
  5
2311
102
{ACAD_XDICTIONARY
360
2312
102
}
102
{ACAD_REACTORS
330
2308
102
}
330
2308
100
AcDbMaterial
  1
ByBlock
 72
     0
 43
0.0208333333333333
 43
0.0
 43
0.0
 43
0.0
 43
0.0
 43
0.0208333333333333
 43
0.0
 43
0.0
 43
0.0
 43
0.0
 43
1.0
 43
0.0
 43
0.0
 43
0.0
 43
0.0
 43
1.0
 77
     0
 47
0.0208333333333333
 47
0.0
 47
0.0
 47
0.0
 47
0.0
 47
0.0208333333333333
 47
0.0
 47
0.0
 47
0.0
 47
0.0
 47
1.0
 47
0.0
 47
0.0
 47
0.0
 47
0.0
 47
1.0
171
     0
 49
0.0208333333333333
 49
0.0
 49
0.0
 49
0.0
 49
0.0
 49
0.0208333333333333
 49
0.0
 49
0.0
 49
0.0
 49
0.0
 49
1.0
 49
0.0
 49
0.0
 49
0.0
 49
0.0
 49
1.0
175
     0
142
0.0208333333333333
142
0.0
142
0.0
142
0.0
142
0.0
142
0.0208333333333333
142
0.0
142
0.0
142
0.0
142
0.0
142
1.0
142
0.0
142
0.0
142
0.0
142
0.0
142
1.0
179
     0
144
0.0208333333333333
144
0.0
144
0.0
144
0.0
144
0.0
144
0.0208333333333333
144
0.0
144
0.0
144
0.0
144
0.0
144
1.0
144
0.0
144
0.0
144
0.0
144
0.0
144
1.0
147
0.0208333333333333
147
0.0
147
0.0
147
0.0
147
0.0
147
0.0208333333333333
147
0.0
147
0.0
147
0.0
147
0.0
147
1.0
147
0.0
147
0.0
147
0.0
147
0.0
147
1.0
  0
MATERIAL
  5
2309
102
{ACAD_XDICTIONARY
360
230A
102
}
102
{ACAD_REACTORS
330
2308
102
}
330
2308
100
AcDbMaterial
  1
ByLayer
 72
     0
 43
0.0208333333333333
 43
0.0
 43
0.0
 43
0.0
 43
0.0
 43
0.0208333333333333
 43
0.0
 43
0.0
 43
0.0
 43
0.0
 43
1.0
 43
0.0
 43
0.0
 43
0.0
 43
0.0
 43
1.0
 77
     0
 47
0.0208333333333333
 47
0.0
 47
0.0
 47
0.0
 47
0.0
 47
0.0208333333333333
 47
0.0
 47
0.0
 47
0.0
 47
0.0
 47
1.0
 47
0.0
 47
0.0
 47
0.0
 47
0.0
 47
1.0
171
     0
 49
0.0208333333333333
 49
0.0
 49
0.0
 49
0.0
 49
0.0
 49
0.0208333333333333
 49
0.0
 49
0.0
 49
0.0
 49
0.0
 49
1.0
 49
0.0
 49
0.0
 49
0.0
 49
0.0
 49
1.0
175
     0
142
0.0208333333333333
142
0.0
142
0.0
142
0.0
142
0.0
142
0.0208333333333333
142
0.0
142
0.0
142
0.0
142
0.0
142
1.0
142
0.0
142
0.0
142
0.0
142
0.0
142
1.0
179
     0
144
0.0208333333333333
144
0.0
144
0.0
144
0.0
144
0.0
144
0.0208333333333333
144
0.0
144
0.0
144
0.0
144
0.0
144
1.0
144
0.0
144
0.0
144
0.0
144
0.0
144
1.0
147
0.0208333333333333
147
0.0
147
0.0
147
0.0
147
0.0
147
0.0208333333333333
147
0.0
147
0.0
147
0.0
147
0.0
147
1.0
147
0.0
147
0.0
147
0.0
147
0.0
147
1.0
  0
MATERIAL
  5
2319
102
{ACAD_XDICTIONARY
360
231A
102
}
102
{ACAD_REACTORS
330
2308
102
}
330
2308
100
AcDbMaterial
  1
Global
 72
     0
 43
0.0208333333333333
 43
0.0
 43
0.0
 43
0.0
 43
0.0
 43
0.0208333333333333
 43
0.0
 43
0.0
 43
0.0
 43
0.0
 43
1.0
 43
0.0
 43
0.0
 43
0.0
 43
0.0
 43
1.0
 77
     0
 47
0.0208333333333333
 47
0.0
 47
0.0
 47
0.0
 47
0.0
 47
0.0208333333333333
 47
0.0
 47
0.0
 47
0.0
 47
0.0
 47
1.0
 47
0.0
 47
0.0
 47
0.0
 47
0.0
 47
1.0
171
     0
 49
0.0208333333333333
 49
0.0
 49
0.0
 49
0.0
 49
0.0
 49
0.0208333333333333
 49
0.0
 49
0.0
 49
0.0
 49
0.0
 49
1.0
 49
0.0
 49
0.0
 49
0.0
 49
0.0
 49
1.0
175
     0
142
0.0208333333333333
142
0.0
142
0.0
142
0.0
142
0.0
142
0.0208333333333333
142
0.0
142
0.0
142
0.0
142
0.0
142
1.0
142
0.0
142
0.0
142
0.0
142
0.0
142
1.0
179
     0
144
0.0208333333333333
144
0.0
144
0.0
144
0.0
144
0.0
144
0.0208333333333333
144
0.0
144
0.0
144
0.0
144
0.0
144
1.0
144
0.0
144
0.0
144
0.0
144
0.0
144
1.0
147
0.0208333333333333
147
0.0
147
0.0
147
0.0
147
0.0
147
0.0208333333333333
147
0.0
147
0.0
147
0.0
147
0.0
147
1.0
147
0.0
147
0.0
147
0.0
147
0.0
147
1.0
  0
MLEADERSTYLE
  5
2350
102
{ACAD_REACTORS
330
234F
102
}
330
234F
100
AcDbMLeaderStyle
179
     2
170
     2
171
     1
172
     0
 90
        2
 40
0.0
 41
0.0
173
     1
 91
-1056964608
340
14
 92
       -2
290
     1
 42
2.0
291
     1
 43
0.36
  3
Standard
 44
4.0
300

342
10
174
     1
178
     6
175
     1
176
     0
 93
-1056964608
 45
4.0
292
     0
297
     0
 46
4.0
 94
-1056964608
 47
1.0
 49
1.0
140
1.0
293
     1
141
0.0
294
     1
177
     0
142
1.0
295
     1
296
     0
143
0.125
271
     0
272
     9
273
     9
  0
MLINESTYLE
  5
13
102
{ACAD_REACTORS
330
E
102
}
330
E
100
AcDbMlineStyle
  2
STANDARD
 70
     0
  3

 62
     0
 51
90.0
 52
90.0
 71
     2
 49
0.5
 62
   256
  6
BYLAYER
 49
-0.5
 62
   256
  6
BYLAYER
  0
ACDBPLACEHOLDER
  5
290
102
{ACAD_REACTORS
330
28F
102
}
330
28F
  0
SCALE
  5
233E
102
{ACAD_REACTORS
330
233D
102
}
330
233D
100
AcDbScale
 70
     0
300
1:1
140
1.0
141
1.0
290
     1
  0
SCALE
  5
233F
102
{ACAD_REACTORS
330
233D
102
}
330
233D
100
AcDbScale
 70
     0
300
1:2
140
1.0
141
2.0
290
     0
  0
SCALE
  5
2340
102
{ACAD_REACTORS
330
233D
102
}
330
233D
100
AcDbScale
 70
     0
300
1:4
140
1.0
141
4.0
290
     0
  0
SCALE
  5
2341
102
{ACAD_REACTORS
330
233D
102
}
330
233D
100
AcDbScale
 70
     0
300
1:5
140
1.0
141
5.0
290
     0
  0
SCALE
  5
2342
102
{ACAD_REACTORS
330
233D
102
}
330
233D
100
AcDbScale
 70
     0
300
1:8
140
1.0
141
8.0
290
     0
  0
SCALE
  5
2343
102
{ACAD_REACTORS
330
233D
102
}
330
233D
100
AcDbScale
 70
     0
300
1:10
140
1.0
141
10.0
290
     0
  0
SCALE
  5
2344
102
{ACAD_REACTORS
330
233D
102
}
330
233D
100
AcDbScale
 70
     0
300
1:16
140
1.0
141
16.0
290
     0
  0
SCALE
  5
2345
102
{ACAD_REACTORS
330
233D
102
}
330
233D
100
AcDbScale
 70
     0
300
1:20
140
1.0
141
20.0
290
     0
  0
SCALE
  5
2346
102
{ACAD_REACTORS
330
233D
102
}
330
233D
100
AcDbScale
 70
     0
300
1:30
140
1.0
141
30.0
290
     0
  0
SCALE
  5
2347
102
{ACAD_REACTORS
330
233D
102
}
330
233D
100
AcDbScale
 70
     0
300
1:40
140
1.0
141
40.0
290
     0
  0
SCALE
  5
2348
102
{ACAD_REACTORS
330
233D
102
}
330
233D
100
AcDbScale
 70
     0
300
1:50
140
1.0
141
50.0
290
     0
  0
SCALE
  5
2349
102
{ACAD_REACTORS
330
233D
102
}
330
233D
100
AcDbScale
 70
     0
300
1:100
140
1.0
141
100.0
290
     0
  0
SCALE
  5
234A
102
{ACAD_REACTORS
330
233D
102
}
330
233D
100
AcDbScale
 70
     0
300
2:1
140
2.0
141
1.0
290
     0
  0
SCALE
  5
234B
102
{ACAD_REACTORS
330
233D
102
}
330
233D
100
AcDbScale
 70
     0
300
4:1
140
4.0
141
1.0
290
     0
  0
SCALE
  5
234C
102
{ACAD_REACTORS
330
233D
102
}
330
233D
100
AcDbScale
 70
     0
300
8:1
140
8.0
141
1.0
290
     0
  0
SCALE
  5
234D
102
{ACAD_REACTORS
330
233D
102
}
330
233D
100
AcDbScale
 70
     0
300
10:1
140
10.0
141
1.0
290
     0
  0
SCALE
  5
234E
102
{ACAD_REACTORS
330
233D
102
}
330
233D
100
AcDbScale
 70
     0
300
100:1
140
100.0
141
1.0
290
     0
  0
TABLESTYLE
  5
233C
102
{ACAD_XDICTIONARY
360
245B
102
}
102
{ACAD_REACTORS
330
233B
102
}
330
233B
100
AcDbTableStyle
280
     0
  3
Standard
 70
     0
 71
     0
 40
1.5
 41
1.5
280
     0
281
     0
  7
STANDARD
140
4.5
170
     2
 62
     0
 63
     7
283
     0
 90
      512
 91
        0
  1

274
    -2
284
     1
 64
     0
275
    -2
285
     1
 65
     0
276
    -2
286
     1
 66
     0
277
    -2
287
     1
 67
     0
278
    -2
288
     1
 68
     0
279
    -2
289
     1
 69
     0
  7
STANDARD
140
6.0
170
     5
 62
     0
 63
     7
283
     0
 90
      512
 91
        0
  1

274
    -2
284
     1
 64
     0
275
    -2
285
     1
 65
     0
276
    -2
286
     1
 66
     0
277
    -2
287
     1
 67
     0
278
    -2
288
     1
 68
     0
279
    -2
289
     1
 69
     0
  7
STANDARD
140
4.5
170
     5
 62
     0
 63
     7
283
     0
 90
      512
 91
        0
  1

274
    -2
284
     1
 64
     0
275
    -2
285
     1
 65
     0
276
    -2
286
     1
 66
     0
277
    -2
287
     1
 67
     0
278
    -2
288
     1
 68
     0
279
    -2
289
     1
 69
     0
  0
VISUALSTYLE
  5
2327
102
{ACAD_REACTORS
330
2321
102
}
330
2321
100
AcDbVisualStyle
  2
2dWireframe
 70
     4
177
     2
291
     0
 71
     0
176
     1
 72
     2
176
     1
 73
     0
176
     1
 90
        0
176
     1
 40
0.6
176
     1
 41
30.0
176
     1
 63
     7
421
 16777215
176
     1
 74
     1
176
     1
 91
        4
176
     1
 64
     7
176
     1
 65
   257
176
     1
 75
     1
176
     1
175
     1
176
     1
 42
1.0
176
     1
 92
        0
176
     1
 66
   257
176
     1
 43
1.0
176
     1
 76
     1
176
     1
 77
     6
176
     1
 78
     2
176
     1
 67
     7
176
     1
 79
     5
176
     1
170
     0
176
     1
171
     0
176
     1
290
     0
176
     1
 93
        1
176
     1
 44
0.0
176
     1
173
     0
176
     1
  0
VISUALSTYLE
  5
2326
102
{ACAD_REACTORS
330
2321
102
}
330
2321
100
AcDbVisualStyle
  2
Basic
 70
     7
177
     2
291
     1
 71
     1
176
     1
 72
     0
176
     1
 73
     1
176
     1
 90
        0
176
     1
 40
0.6
176
     1
 41
30.0
176
     1
 63
     7
421
 16777215
176
     1
 74
     0
176
     1
 91
        4
176
     1
 64
     7
176
     1
 65
   257
176
     1
 75
     1
176
     1
175
     1
176
     1
 42
1.0
176
     1
 92
        8
176
     1
 66
     7
176
     1
 43
1.0
176
     1
 76
     1
176
     1
 77
     6
176
     1
 78
     2
176
     1
 67
     7
176
     1
 79
     5
176
     1
170
     0
176
     1
171
     0
176
     1
290
     0
176
     1
 93
        1
176
     1
 44
0.0
176
     1
173
     0
176
     1
  0
VISUALSTYLE
  5
232D
102
{ACAD_REACTORS
330
2321
102
}
330
2321
100
AcDbVisualStyle
  2
Brighten
 70
    12
177
     2
291
     1
 71
     2
176
     1
 72
     2
176
     1
 73
     0
176
     1
 90
        0
176
     1
 40
0.6
176
     1
 41
30.0
176
     1
 63
     7
421
 16777215
176
     1
 74
     1
176
     1
 91
        4
176
     1
 64
     7
176
     1
 65
   257
176
     1
 75
     1
176
     1
175
     1
176
     1
 42
1.0
176
     1
 92
        8
176
     1
 66
     7
176
     1
 43
1.0
176
     1
 76
     1
176
     1
 77
     6
176
     1
 78
     2
176
     1
 67
     7
176
     1
 79
     5
176
     1
170
     0
176
     1
171
     0
176
     1
290
     0
176
     1
 93
        1
176
     1
 44
50.0
176
     1
173
     0
176
     1
  0
VISUALSTYLE
  5
2331
102
{ACAD_REACTORS
330
2321
102
}
330
2321
100
AcDbVisualStyle
  2
ColorChange
 70
    16
177
     2
291
     1
 71
     2
176
     1
 72
     2
176
     1
 73
     3
176
     1
 90
        0
176
     1
 40
0.6
176
     1
 41
30.0
176
     1
 63
     8
421
  8421504
176
     1
 74
     1
176
     1
 91
        4
176
     1
 64
     7
176
     1
 65
   257
176
     1
 75
     1
176
     1
175
     1
176
     1
 42
1.0
176
     1
 92
        8
176
     1
 66
     8
424
  8421504
176
     1
 43
1.0
176
     1
 76
     1
176
     1
 77
     6
176
     1
 78
     2
176
     1
 67
     7
176
     1
 79
     5
176
     1
170
     0
176
     1
171
     0
176
     1
290
     0
176
     1
 93
        1
176
     1
 44
0.0
176
     1
173
     0
176
     1
  0
VISUALSTYLE
  5
232A
102
{ACAD_REACTORS
330
2321
102
}
330
2321
100
AcDbVisualStyle
  2
Conceptual
 70
     9
177
     2
291
     0
 71
     3
176
     1
 72
     2
176
     1
 73
     0
176
     1
 90
        0
176
     1
 40
0.6
176
     1
 41
30.0
176
     1
 63
     7
421
 16777215
176
     1
 74
     2
176
     1
 91
        2
176
     1
 64
     7
176
     1
 65
   257
176
     1
 75
     1
176
     1
175
     1
176
     1
 42
179.0
176
     1
 92
        8
176
     1
 66
     7
176
     1
 43
1.0
176
     1
 76
     1
176
     1
 77
     6
176
     1
 78
     2
176
     1
 67
     7
176
     1
 79
     3
176
     1
170
     0
176
     1
171
     0
176
     1
290
     0
176
     1
 93
        1
176
     1
 44
0.0
176
     1
173
     0
176
     1
  0
VISUALSTYLE
  5
232C
102
{ACAD_REACTORS
330
2321
102
}
330
2321
100
AcDbVisualStyle
  2
Dim
 70
    11
177
     2
291
     1
 71
     2
176
     1
 72
     2
176
     1
 73
     0
176
     1
 90
        0
176
     1
 40
0.6
176
     1
 41
30.0
176
     1
 63
     7
421
 16777215
176
     1
 74
     1
176
     1
 91
        4
176
     1
 64
     7
176
     1
 65
   257
176
     1
 75
     1
176
     1
175
     1
176
     1
 42
1.0
176
     1
 92
        8
176
     1
 66
     7
176
     1
 43
1.0
176
     1
 76
     1
176
     1
 77
     6
176
     1
 78
     2
176
     1
 67
     7
176
     1
 79
     5
176
     1
170
     0
176
     1
171
     0
176
     1
290
     0
176
     1
 93
        1
176
     1
 44
-50.0
176
     1
173
     0
176
     1
  0
VISUALSTYLE
  5
2339
102
{ACAD_REACTORS
330
2321
102
}
330
2321
100
AcDbVisualStyle
  2
EdgeColorOff
 70
    22
177
     2
291
     1
 71
     2
176
     0
 72
     2
176
     0
 73
     0
176
     0
 90
        0
176
     0
 40
0.6
176
     0
 41
30.0
176
     0
 63
     7
421
 16777215
176
     0
 74
     1
176
     0
 91
        4
176
     0
 64
     7
176
     0
 65
   257
176
     0
 75
     1
176
     0
175
     1
176
     0
 42
1.0
176
     0
 92
        8
176
     2
 66
     7
176
     0
 43
1.0
176
     0
 76
     1
176
     0
 77
     6
176
     0
 78
     2
176
     0
 67
     7
176
     0
 79
     5
176
     0
170
     0
176
     0
171
     0
176
     0
290
     0
176
     0
 93
        1
176
     0
 44
0.0
176
     0
173
     0
176
     0
  0
VISUALSTYLE
  5
2330
102
{ACAD_REACTORS
330
2321
102
}
330
2321
100
AcDbVisualStyle
  2
Facepattern
 70
    15
177
     2
291
     1
 71
     2
176
     1
 72
     2
176
     1
 73
     0
176
     1
 90
        0
176
     1
 40
0.6
176
     1
 41
30.0
176
     1
 63
     7
421
 16777215
176
     1
 74
     1
176
     1
 91
        4
176
     1
 64
     7
176
     1
 65
   257
176
     1
 75
     1
176
     1
175
     1
176
     1
 42
1.0
176
     1
 92
        8
176
     1
 66
     7
176
     1
 43
1.0
176
     1
 76
     1
176
     1
 77
     6
176
     1
 78
     2
176
     1
 67
     7
176
     1
 79
     5
176
     1
170
     0
176
     1
171
     0
176
     1
290
     0
176
     1
 93
        1
176
     1
 44
0.0
176
     1
173
     0
176
     1
  0
VISUALSTYLE
  5
2322
102
{ACAD_REACTORS
330
2321
102
}
330
2321
100
AcDbVisualStyle
  2
Flat
 70
     0
177
     2
291
     1
 71
     2
176
     1
 72
     1
176
     1
 73
     1
176
     1
 90
        2
176
     1
 40
0.6
176
     1
 41
30.0
176
     1
 63
     7
421
 16777215
176
     1
 74
     0
176
     1
 91
        0
176
     1
 64
     7
176
     1
 65
   257
176
     1
 75
     1
176
     1
175
     1
176
     1
 42
1.0
176
     1
 92
        8
176
     1
 66
     7
176
     1
 43
1.0
176
     1
 76
     1
176
     1
 77
     6
176
     1
 78
     2
176
     1
 67
     7
176
     1
 79
     5
176
     1
170
     0
176
     1
171
     0
176
     1
290
     0
176
     1
 93
       13
176
     1
 44
0.0
176
     1
173
     0
176
     1
  0
VISUALSTYLE
  5
2323
102
{ACAD_REACTORS
330
2321
102
}
330
2321
100
AcDbVisualStyle
  2
FlatWithEdges
 70
     1
177
     2
291
     1
 71
     2
176
     1
 72
     1
176
     1
 73
     1
176
     1
 90
        2
176
     1
 40
0.6
176
     1
 41
30.0
176
     1
 63
     7
421
 16777215
176
     1
 74
     1
176
     1
 91
        0
176
     1
 64
     7
176
     1
 65
   257
176
     1
 75
     1
176
     1
175
     1
176
     1
 42
1.0
176
     1
 92
        0
176
     1
 66
   257
176
     1
 43
1.0
176
     1
 76
     1
176
     1
 77
     6
176
     1
 78
     2
176
     1
 67
     7
176
     1
 79
     5
176
     1
170
     0
176
     1
171
     0
176
     1
290
     0
176
     1
 93
       13
176
     1
 44
0.0
176
     1
173
     0
176
     1
  0
VISUALSTYLE
  5
2324
102
{ACAD_REACTORS
330
2321
102
}
330
2321
100
AcDbVisualStyle
  2
Gouraud
 70
     2
177
     2
291
     1
 71
     2
176
     1
 72
     2
176
     1
 73
     1
176
     1
 90
        2
176
     1
 40
0.6
176
     1
 41
30.0
176
     1
 63
     7
421
 16777215
176
     1
 74
     0
176
     1
 91
        0
176
     1
 64
     7
176
     1
 65
   257
176
     1
 75
     1
176
     1
175
     1
176
     1
 42
1.0
176
     1
 92
        0
176
     1
 66
     7
176
     1
 43
1.0
176
     1
 76
     1
176
     1
 77
     6
176
     1
 78
     2
176
     1
 67
     7
176
     1
 79
     5
176
     1
170
     0
176
     1
171
     0
176
     1
290
     0
176
     1
 93
       13
176
     1
 44
0.0
176
     1
173
     0
176
     1
  0
VISUALSTYLE
  5
2325
102
{ACAD_REACTORS
330
2321
102
}
330
2321
100
AcDbVisualStyle
  2
GouraudWithEdges
 70
     3
177
     2
291
     1
 71
     2
176
     1
 72
     2
176
     1
 73
     1
176
     1
 90
        2
176
     1
 40
0.6
176
     1
 41
30.0
176
     1
 63
     7
421
 16777215
176
     1
 74
     1
176
     1
 91
        0
176
     1
 64
     7
176
     1
 65
   257
176
     1
 75
     1
176
     1
175
     1
176
     1
 42
1.0
176
     1
 92
        0
176
     1
 66
   257
176
     1
 43
1.0
176
     1
 76
     1
176
     1
 77
     6
176
     1
 78
     2
176
     1
 67
     7
176
     1
 79
     5
176
     1
170
     0
176
     1
171
     0
176
     1
290
     0
176
     1
 93
       13
176
     1
 44
0.0
176
     1
173
     0
176
     1
  0
VISUALSTYLE
  5
2329
102
{ACAD_REACTORS
330
2321
102
}
330
2321
100
AcDbVisualStyle
  2
Hidden
 70
     6
177
     2
291
     0
 71
     1
176
     1
 72
     2
176
     1
 73
     2
176
     1
 90
        0
176
     1
 40
0.6
176
     1
 41
30.0
176
     1
 63
     7
421
 16777215
176
     1
 74
     2
176
     1
 91
        2
176
     1
 64
     7
176
     1
 65
   257
176
     1
 75
     2
176
     1
175
     1
176
     1
 42
40.0
176
     1
 92
        0
176
     1
 66
   257
176
     1
 43
1.0
176
     1
 76
     1
176
     1
 77
     6
176
     1
 78
     2
176
     1
 67
     7
176
     1
 79
     3
176
     1
170
     0
176
     1
171
     0
176
     1
290
     0
176
     1
 93
        1
176
     1
 44
0.0
176
     1
173
     0
176
     1
  0
VISUALSTYLE
  5
2337
102
{ACAD_REACTORS
330
2321
102
}
330
2321
100
AcDbVisualStyle
  2
JitterOff
 70
    20
177
     2
291
     1
 71
     2
176
     0
 72
     2
176
     0
 73
     0
176
     0
 90
        0
176
     0
 40
0.6
176
     0
 41
30.0
176
     0
 63
     7
421
 16777215
176
     0
 74
     1
176
     0
 91
        4
176
     0
 64
     7
176
     0
 65
   257
176
     0
 75
     1
176
     0
175
     1
176
     0
 42
1.0
176
     0
 92
       10
176
     2
 66
     7
176
     0
 43
1.0
176
     0
 76
     1
176
     0
 77
     6
176
     0
 78
     2
176
     0
 67
     7
176
     0
 79
     5
176
     0
170
     0
176
     0
171
     0
176
     0
290
     0
176
     0
 93
        1
176
     0
 44
0.0
176
     0
173
     0
176
     0
  0
VISUALSTYLE
  5
232F
102
{ACAD_REACTORS
330
2321
102
}
330
2321
100
AcDbVisualStyle
  2
Linepattern
 70
    14
177
     2
291
     1
 71
     2
176
     1
 72
     2
176
     1
 73
     0
176
     1
 90
        0
176
     1
 40
0.6
176
     1
 41
30.0
176
     1
 63
     7
421
 16777215
176
     1
 74
     1
176
     1
 91
        4
176
     1
 64
     7
176
     1
 65
   257
176
     1
 75
     7
176
     1
175
     7
176
     1
 42
1.0
176
     1
 92
        8
176
     1
 66
     7
176
     1
 43
1.0
176
     1
 76
     1
176
     1
 77
     6
176
     1
 78
     2
176
     1
 67
     7
176
     1
 79
     5
176
     1
170
     0
176
     1
171
     0
176
     1
290
     0
176
     1
 93
        1
176
     1
 44
0.0
176
     1
173
     0
176
     1
  0
VISUALSTYLE
  5
2338
102
{ACAD_REACTORS
330
2321
102
}
330
2321
100
AcDbVisualStyle
  2
OverhangOff
 70
    21
177
     2
291
     1
 71
     2
176
     0
 72
     2
176
     0
 73
     0
176
     0
 90
        0
176
     0
 40
0.6
176
     0
 41
30.0
176
     0
 63
     7
421
 16777215
176
     0
 74
     1
176
     0
 91
        4
176
     0
 64
     7
176
     0
 65
   257
176
     0
 75
     1
176
     0
175
     1
176
     0
 42
1.0
176
     0
 92
        9
176
     2
 66
     7
176
     0
 43
1.0
176
     0
 76
     1
176
     0
 77
     6
176
     0
 78
     2
176
     0
 67
     7
176
     0
 79
     5
176
     0
170
     0
176
     0
171
     0
176
     0
290
     0
176
     0
 93
        1
176
     0
 44
0.0
176
     0
173
     0
176
     0
  0
VISUALSTYLE
  5
232B
102
{ACAD_REACTORS
330
2321
102
}
330
2321
100
AcDbVisualStyle
  2
Realistic
 70
     8
177
     2
291
     0
 71
     2
176
     1
 72
     3
176
     1
 73
     0
176
     1
 90
        2
176
     1
 40
0.6
176
     1
 41
30.0
176
     1
 63
     7
421
 16777215
176
     1
 74
     0
176
     1
 91
        0
176
     1
 64
     7
176
     1
 65
   257
176
     1
 75
     1
176
     1
175
     1
176
     1
 42
1.0
176
     1
 92
        8
176
     1
 66
   257
176
     1
 43
1.0
176
     1
 76
     1
176
     1
 77
     6
176
     1
 78
     2
176
     1
 67
     7
176
     1
 79
     3
176
     1
170
     0
176
     1
171
     0
176
     1
290
     0
176
     1
 93
       13
176
     1
 44
0.0
176
     1
173
     0
176
     1
  0
VISUALSTYLE
  5
2336
102
{ACAD_REACTORS
330
2321
102
}
330
2321
100
AcDbVisualStyle
  2
Shaded
 70
    27
177
     2
291
     0
 71
     2
176
     1
 72
     2
176
     1
 73
     1
176
     1
 90
        2
176
     1
 40
0.6
176
     1
 41
30.0
176
     1
 63
     7
421
 16777215
176
     1
 74
     0
176
     1
 91
        4
176
     1
 64
     7
176
     1
 65
   257
176
     1
 75
     1
176
     1
175
     1
176
     1
 42
1.0
176
     1
 92
        8
176
     1
 66
   257
176
     1
 43
1.0
176
     1
 76
     1
176
     1
 77
     6
176
     1
 78
     2
176
     1
 67
     8
425
  7895160
176
     1
 79
     3
176
     1
170
     0
176
     1
171
     0
176
     1
290
     0
176
     1
 93
        5
176
     1
 44
0.0
176
     1
173
     0
176
     1
  0
VISUALSTYLE
  5
2335
102
{ACAD_REACTORS
330
2321
102
}
330
2321
100
AcDbVisualStyle
  2
Shaded with edges
 70
    26
177
     2
291
     0
 71
     2
176
     1
 72
     2
176
     1
 73
     1
176
     1
 90
        2
176
     1
 40
0.6
176
     1
 41
30.0
176
     1
 63
     7
421
 16777215
176
     1
 74
     1
176
     1
 91
       10
176
     1
 64
     7
176
     1
 65
   257
176
     1
 75
     2
176
     1
175
     1
176
     1
 42
1.0
176
     1
 92
        8
176
     1
 66
   257
176
     1
 43
1.0
176
     1
 76
     1
176
     1
 77
     6
176
     1
 78
     2
176
     1
 67
     7
176
     1
 79
     3
176
     1
170
     0
176
     1
171
     0
176
     1
290
     0
176
     1
 93
        5
176
     1
 44
0.0
176
     1
173
     0
176
     1
  0
VISUALSTYLE
  5
2332
102
{ACAD_REACTORS
330
2321
102
}
330
2321
100
AcDbVisualStyle
  2
Shades of Gray
 70
    23
177
     2
291
     0
 71
     2
176
     1
 72
     2
176
     1
 73
     3
176
     1
 90
        0
176
     1
 40
0.6
176
     1
 41
30.0
176
     1
 63
     7
421
 16777215
176
     1
 74
     2
176
     1
 91
        2
176
     1
 64
     7
176
     1
 65
     7
176
     1
 75
     1
176
     1
175
     1
176
     1
 42
40.0
176
     1
 92
        8
176
     1
 66
     7
176
     1
 43
1.0
176
     1
 76
     1
176
     1
 77
     6
176
     1
 78
     2
176
     1
 67
     7
176
     1
 79
     3
176
     1
170
     0
176
     1
171
     0
176
     1
290
     0
176
     1
 93
        1
176
     1
 44
0.0
176
     1
173
     0
176
     1
  0
VISUALSTYLE
  5
2333
102
{ACAD_REACTORS
330
2321
102
}
330
2321
100
AcDbVisualStyle
  2
Sketchy
 70
    24
177
     2
291
     0
 71
     1
176
     1
 72
     2
176
     1
 73
     2
176
     1
 90
        0
176
     1
 40
0.6
176
     1
 41
30.0
176
     1
 63
     7
421
 16777215
176
     1
 74
     2
176
     1
 91
        2
176
     1
 64
     7
176
     1
 65
     7
176
     1
 75
     1
176
     1
175
     1
176
     1
 42
40.0
176
     1
 92
       11
176
     1
 66
     7
176
     1
 43
1.0
176
     1
 76
     1
176
     1
 77
     6
176
     1
 78
     2
176
     1
 67
     7
176
     1
 79
     6
176
     1
170
     0
176
     1
171
     0
176
     1
290
     0
176
     1
 93
        1
176
     1
 44
0.0
176
     1
173
     0
176
     1
  0
VISUALSTYLE
  5
232E
102
{ACAD_REACTORS
330
2321
102
}
330
2321
100
AcDbVisualStyle
  2
Thicken
 70
    13
177
     2
291
     1
 71
     2
176
     1
 72
     2
176
     1
 73
     0
176
     1
 90
        0
176
     1
 40
0.6
176
     1
 41
30.0
176
     1
 63
     7
421
 16777215
176
     1
 74
     1
176
     1
 91
        4
176
     1
 64
     7
176
     1
 65
   257
176
     1
 75
     1
176
     1
175
     1
176
     1
 42
1.0
176
     1
 92
       12
176
     1
 66
     7
176
     1
 43
1.0
176
     1
 76
     1
176
     1
 77
     6
176
     1
 78
     2
176
     1
 67
     7
176
     1
 79
     5
176
     1
170
     0
176
     1
171
     0
176
     1
290
     0
176
     1
 93
        1
176
     1
 44
0.0
176
     1
173
     0
176
     1
  0
VISUALSTYLE
  5
2328
102
{ACAD_REACTORS
330
2321
102
}
330
2321
100
AcDbVisualStyle
  2
Wireframe
 70
     5
177
     2
291
     0
 71
     0
176
     1
 72
     2
176
     1
 73
     0
176
     1
 90
        0
176
     1
 40
0.6
176
     1
 41
30.0
176
     1
 63
     7
421
 16777215
176
     1
 74
     1
176
     1
 91
        4
176
     1
 64
     7
176
     1
 65
   257
176
     1
 75
     1
176
     1
175
     1
176
     1
 42
1.0
176
     1
 92
        0
176
     1
 66
   257
176
     1
 43
1.0
176
     1
 76
     1
176
     1
 77
     6
176
     1
 78
     2
176
     1
 67
     7
176
     1
 79
     3
176
     1
170
     0
176
     1
171
     0
176
     1
290
     0
176
     1
 93
        1
176
     1
 44
0.0
176
     1
173
     0
176
     1
  0
VISUALSTYLE
  5
2334
102
{ACAD_REACTORS
330
2321
102
}
330
2321
100
AcDbVisualStyle
  2
X-Ray
 70
    25
177
     2
291
     0
 71
     2
176
     1
 72
     2
176
     1
 73
     1
176
     1
 90
        1
176
     1
 40
0.5
176
     1
 41
30.0
176
     1
 63
     7
421
 16777215
176
     1
 74
     1
176
     1
 91
        0
176
     1
 64
     7
176
     1
 65
   257
176
     1
 75
     1
176
     1
175
     1
176
     1
 42
1.0
176
     1
 92
        8
176
     1
 66
     7
176
     1
 43
1.0
176
     1
 76
     1
176
     1
 77
     6
176
     1
 78
     2
176
     1
 67
     7
176
     1
 79
     3
176
     1
170
     0
176
     1
171
     0
176
     1
290
     0
176
     1
 93
       13
176
     1
 44
0.0
176
     1
173
     0
176
     1
  0
DICTIONARYVAR
  5
2382
102
{ACAD_REACTORS
330
237E
102
}
330
237E
100
DictionaryVariables
280
     0
  1
1:1
  0
DICTIONARYVAR
  5
2380
102
{ACAD_REACTORS
330
237E
102
}
330
237E
100
DictionaryVariables
280
     0
  1
STANDARD
  0
DICTIONARYVAR
  5
237F
102
{ACAD_REACTORS
330
237E
102
}
330
237E
100
DictionaryVariables
280
     0
  1
STANDARD
  0
DICTIONARYVAR
  5
2384
102
{ACAD_REACTORS
330
237E
102
}
330
237E
100
DictionaryVariables
280
     0
  1
1
  0
DICTIONARYVAR
  5
2385
102
{ACAD_REACTORS
330
237E
102
}
330
237E
100
DictionaryVariables
280
     0
  1
15
  0
DICTIONARYVAR
  5
2383
102
{ACAD_REACTORS
330
237E
102
}
330
237E
100
DictionaryVariables
280
     0
  1
0
  0
DICTIONARYVAR
  5
2381
102
{ACAD_REACTORS
330
237E
102
}
330
237E
100
DictionaryVariables
280
     0
  1
0
  0
DICTIONARY
  5
237B
330
293
100
AcDbDictionary
280
     1
281
     1
  3
ADSK_XREC_LAYOUTTHUMBNAIL
360
237C
  0
DICTIONARY
  5
2312
330
2311
100
AcDbDictionary
280
     1
281
     1
  3
BUMPTILE
360
2314
  3
DIFFUSETILE
360
2313
  3
OPACITYTILE
360
2317
  3
REFLECTIONTILE
360
2316
  3
REFRACTIONTILE
360
2318
  3
SPECULARTILE
360
2315
  0
DICTIONARY
  5
230A
330
2309
100
AcDbDictionary
280
     1
281
     1
  3
BUMPTILE
360
230C
  3
DIFFUSETILE
360
230B
  3
OPACITYTILE
360
230F
  3
REFLECTIONTILE
360
230E
  3
REFRACTIONTILE
360
2310
  3
SPECULARTILE
360
230D
  0
DICTIONARY
  5
231A
330
2319
100
AcDbDictionary
280
     1
281
     1
  3
BUMPTILE
360
231C
  3
DIFFUSETILE
360
231B
  3
OPACITYTILE
360
231F
  3
REFLECTIONTILE
360
231E
  3
REFRACTIONTILE
360
2320
  3
SPECULARTILE
360
231D
  0
DICTIONARY
  5
245B
330
233C
100
AcDbDictionary
280
     1
281
     1
  3
ACAD_ROUNDTRIP_2008_TABLESTYLE_CELLSTYLEMAP
360
245C
  0
XRECORD
  5
237C
102
{ACAD_REACTORS
330
237B
102
}
330
237B
100
AcDbXrecord
280
     1
310
28000000000100007E0000000100080000000000007E0000000000000000000000010000000000000000000000000000FFFFFF000000000000000000000000000000000000000000000000000000000000000000330000006600000099000000CC000000FF00000000330000333300006633000099330000CC330000FF3300
310
0000660000336600006666000099660000CC660000FF66000000990000339900006699000099990000CC990000FF99000000CC000033CC000066CC000099CC0000CCCC0000FFCC000000FF000033FF000066FF000099FF0000CCFF0000FFFF000000003300330033006600330099003300CC003300FF003300003333003333
310
33006633330099333300CC333300FF33330000663300336633006666330099663300CC663300FF66330000993300339933006699330099993300CC993300FF99330000CC330033CC330066CC330099CC3300CCCC3300FFCC330000FF330033FF330066FF330099FF3300CCFF3300FFFF330000006600330066006600660099
310
006600CC006600FF00660000336600333366006633660099336600CC336600FF33660000666600336666006666660099666600CC666600FF66660000996600339966006699660099996600CC996600FF99660000CC660033CC660066CC660099CC6600CCCC6600FFCC660000FF660033FF660066FF660099FF6600CCFF6600
310
FFFF660000009900330099006600990099009900CC009900FF00990000339900333399006633990099339900CC339900FF33990000669900336699006666990099669900CC669900FF66990000999900339999006699990099999900CC999900FF99990000CC990033CC990066CC990099CC9900CCCC9900FFCC990000FF99
310
0033FF990066FF990099FF9900CCFF9900FFFF99000000CC003300CC006600CC009900CC00CC00CC00FF00CC000033CC003333CC006633CC009933CC00CC33CC00FF33CC000066CC003366CC006666CC009966CC00CC66CC00FF66CC000099CC003399CC006699CC009999CC00CC99CC00FF99CC0000CCCC0033CCCC0066CC
310
CC0099CCCC00CCCCCC00FFCCCC0000FFCC0033FFCC0066FFCC0099FFCC00CCFFCC00FFFFCC000000FF003300FF006600FF009900FF00CC00FF00FF00FF000033FF003333FF006633FF009933FF00CC33FF00FF33FF000066FF003366FF006666FF009966FF00CC66FF00FF66FF000099FF003399FF006699FF009999FF00CC
310
99FF00FF99FF0000CCFF0033CCFF0066CCFF0099CCFF00CCCCFF00FFCCFF0000FFFF0033FFFF0066FFFF0099FFFF00CCFFFF00FFFFFF00000000000D0D0D001A1A1A00282828003535350043434300505050005D5D5D006B6B6B00787878008686860093939300A1A1A100AEAEAE00BBBBBB00C9C9C900D6D6D600E4E4E400
310
F1F1F100FFFFFF000000000000000000000000000000000000000000000000000000000000000000000000000000000000000000000000000000000000000000000000000000000000000000000000000000000000000000000000000000000000000000000000000000000000000000000000000000000000000000000000
310
000000000000000000000000000000000000000000000000000000000000000000000000000000000000000000000000000000000000000000000000000000000000000000000000000000000000000000000000000000F5F5F5F5F5F50000F5000000000000000000F5F500F500000000000000000000F5F50000F5F5F5F5
310
F5000000000000000000000000000000000000000000000000000000000000000000000000000000000000000000000000000000000000000000000000000000000000000000000000000000000000000000000000000000000000000000000000000000000000000000000000000000000000000000000000000000000000
310
00000000000000000000000000000000000000000000000000000000000000000000000000000000000000000000000000000000000000000000000000000000000000000000000000000000000000000000000000000000F5F5F5F5F5F5F5F5F5F500F5F5F5F5F5F5F5F500F500F5F5F5F5F5F5F5F5F5F5F5F5F5F5F5F5F5
310
F5F5F500000000000000000000000000000000000000000000000000000000000000000000000000000000000000000000000000000000000000000000000000000000000000000000000000000000000000000000000000000000000000000000000000000000000000000000000000000000000000000000000000000000
310
00000000000000000000000000000000000000000000000000000000000000000000000000000000000000000000000000000000000000000000000000000000000000000000000000000000000000000000000000000000000000F5F5F5F5F5F5F5F5F5F5F500F5F5F5F5000000F500F500F5F5F500F5F500000000F5F5F5
310
F5F5F5F5F50000000000000000000000000000000000000000000000000000000000000000000000000000000000000000000000000000000000000000000000000000000000000000000000000000000000000000000000000000000000000000000000000000000000000000000000000000000000000000000000000000
310
0000000000000000000000000000000000000000000000000000000000000000000000000000000000000000000000000000000000000000000000000000000000000000000000000000000000F5F5F5F5F5F5F5F5F500F5F5F50000F5F5F5F5F5F5000000F50000000000000000000000F5F5F5F500000000000000000000
310
00000000F5F50000F5F5F5F500000000000000000000000000000000000000000000000000000000000000000000000000000000000000000000000000000000000000000000000000000000000000000000000000000000000000000000000000000000000000000000000000000000000000000000000000000000000000
310
00000000000000000000000000000000000000000000000000000000000000000000000000000000000000000000000000000000000000000000000000000000000000000000000000000000000000F5F5F5F5F5F5F5F5F5F5F5F5F5F500F5F5F5F5F5F500F5F5F500F5F5F5F5F5F5F5F5F5F5F5F5F5F5F5F5F5F5F5F5F5F5
310
F5F5F5F5F5F500F5F5F5F5F5F5F5F500000000000000000000000000000000000000000000000000000000000000000000000000000000000000000000000000000000000000000000000000000000000000000000000000000000000000000000000000000000000000000000000000000000000000000000000000000000
310
000000000000000000000000000000000000000000000000000000000000000000000000000000000000000000000000000000000000000000000000000000000000000000000000000000000000000000F5F5F5F5F5F500F5F5F5F5F5F50000F5F5F5F5F5F5F5F5F50000F5F5F5F5F5F5F5F5F5F5F5F5F5F5F5F5F5F5F5F5
310
F5F5F5F5F5F5F5F500F5F5F5F5F5F5F5F50000000000000000000000000000000000000000000000000000000000000000000000000000000000000000000000000000000000000000000000000000000000000000000000000000000000000000000000000000000000000000000000000000000000000000000000000000
310
00000000000000000000000000000000000000000000000000000000000000000000000000000000000000000000000000000000000000000000000000000000000000000000000000000000000000000000000000000000000000000000000000000000000000000000000000000000000000000000000000000000000000
310
00000000000000000000000000000000000000000000000000000000000000000000000000000000000000000000000000000000000000000000000000000000000000000000000000000000000000000000000000000000000000000000000000000000000000000000000000000000000000000000000000000000000000
310
00000000000000000000000000000000000000000000000000000000000000000000000000000000000000000000000000000000000000000000000000000000000000000000000000000000000000000000000000000000000000000000000000000000000000000000000000000000000000000000000000000000000000
310
00000000000000000000000000000000000000000000000000000000000000000000000000000000000000000000000000000000000000000000000000000000000000000000000000000000000000000000000000000000000000000000000000000000000000000000000000000000000000000000000000000000000000
310
00000000000000000000000000000000000000000000000000000000000000000000000000000000000000000000000000000000000000000000000000000000000000000000000000000000000000000000000000000000000000000000000000000000000000000000000000000000000000000000000000000000000000
310
00000000000000000000000000000000000000000000000000000000000000000000000000000000000000000000000000000000000000000000000000000000000000000000000000000000000000000000000000000000000000000000000000000000000000000000000000F5F5F5F5F5F5F5F5F5F5F5F5F5F5F5F5F5F5
310
F5F5F5F5F5F5F5F5F5F5F5F5F5F5F5F5F5F5F5F5F5F5F5F5F5F5F5F5F5F5F5F5F5DCDCDCDCDCF5F5F5F5F5F5F5F5F5F5F5F5F5F5F5F5F5F5F5F5F5F5F5F5F5F5F5F5F5F5F5F5F5F5F5F5F5F5F5F5F5F5F5F5F5F5F5F5F5F5F5F5F5F5F5F5DCDCDCF5F5F5F5F5F5F5F5F5F5F5F5F5F5F5F5F5F5F5F5F5F5F5F5F5F5F5F5F5F5
310
F5F5F5F5F5F5F5F5F5F5F5F5F5F5F5F5F5F5F5F5F5F5F5F5F50000000000000000000000000000000000000000000000000000000000000000000000000000000000000000000000000000000000000000000000000000000000000000000000000000000000000000000000000000F500F5F5F5F5F5F5F5F5F5F5F5F5F500
310
00F50000000000000000000000000000000000000000000000000000F5000000000000DCDCDCDCDC000000000000000000000000000000000000000000000000000000000000000000000000000000F50000000000000000000000F500000000DCDCDC0000F50000000000000000000000000000000000000000F500000000
310
0000000000F50000000000000000000000000000000000000000F50000000000000000000000000000000000000000000000000000000000000000000000000000000000000000000000000000000000000000000000000000000000000000000000000000000000000000000000000000F500F5F5F5F5F5F5F5F5F5F5F5F5
310
F50000F50000DCDCDCDCDCDCDCDCDCDC0000000000000000000000000000F5F5F5000000000000000000000000000000000000000000000000000000000000000000000000000000000000000000000000F50000DCDCDCDCDCDC000000F5F5F500000000000000F50000000000000000000000000000000000000000F50000
310
00000000000000F500F5F5F5F5F5F5F5F5F5F5F5F5F5F5F5F5F50000F50000000000000000000000000000000000000000000000000000000000000000000000000000000000000000000000000000000000000000000000000000000000000000000000000000000000000000000000000000F500F5F5F5F5F5F5F5F5F5F5
310
F5F5F50000F50000DCDCDCDCDCDCDCDCDCDC0000000000000000000000000000F5F5F5F5F5F5F5DCDCDCDCDCDCDCDCDCF5F5F5F5F5F5F5F5F5F5F5F5F5F5F5F5F5F5F5F5F5F5F5F5F5F5F5F5F5F5F5F5F5F5F5F50000DCDCDCDCDCDC000000F5F5F5F5F5DCDCF5F5F5F50000000000000000000000000000000000000000F5
310
F5F5F5F5F5F5F5F5F5F500F5F5F5F5F5F5F5F5F5F5F5F5F5F5F5F5F50000F50000000000000000000000000000000000000000000000000000000000000000000000000000000000000000000000000000000000000000000000000000000000000000000000000000000000000000000000000000F500F5F5F5F5F5F5F5F5
310
F5F5F5F5F50000F50000000000000000000000000000000000000000000000000000F5000000000000DCDCDCDCDCDCDCDCDC0000000000000000000000000000000000000000000000000000000000000000000000F50000000000000000000000F500000000DCDC000000F500000000000000000000000000000000000000
310
00F500F5F5F5F5F5F5F5F5F50000000000000000000000000000000000000000F50000000000000000000000000000000000000000000000000000000000000000000000000000000000000000000000000000000000000000000000000000000000000000000000000000000000000000000000000000F50000F5F5F5F5F5
310
F5F5F5F5F5F5F50000F50000000000000000000000000000000000000000000000000000F5F5F5000000000000000000000000000000000000000000000000000000000000000000000000000000000000000000000000F5F500000000000000000000F5F5F500000000000000F50000000000000000000000000000000000
310
000000F5F5F500000000000000F50000000000000000000000000000000000000000F50000000000000000000000000000000000000000000000000000000000000000000000000000000000000000000000000000000000000000000000000000000000000000000000000000000000000000000000000000F5F5F5F5F5F5
310
F5F5F5F5F5F5F5F5F5F5F5F5F5F5F5F5F5F5F5F5F5F5F5F5F5F5F5F5F5F5F5F5F5F5F5F5F5F5F5F5F5F5F5F5F5F5F5F5F5F5F5F5F5F5F5F5F5F5F5F5F5F5F5F5F5F5F5F5F5F5F5F5F5F5F5F5F5F5F5F5F5F5F5F5F5F5F5F5F5F5F5F5F5F5F5F5F5F5F5F5F5F5F5F5F5F5F5F5F5F5F5F5F5F5F5F5F5F5F5F5F5F5F5F5F5F5F5
310
F5F5F5F5F5F5F5F5F5F5F5F5F5F5F5F5F5F5F5F5F5F5F5F5F5F5F5F5F5F5F5F5F5F5F5F5F50000000000000000000000000000000000000000000000000000000000000000000000000000000000000000000000000000000000000000000000000000000000000000000000000000000000000000000000000000F5000000
310
00000000000000000000000000000000000000000000000000000000000000000000000000000000000000000000000000000000000000000000000000000000000000000000000000000000000000000000000000000000000000000000000000000000000000000000000000000000000000000000000000000000000000
310
0000000000000000000000000000000000000000000000000000000000000000000000000000F50000000000000000000000000000000000000000000000000000000000000000000000000000000000000000000000000000000000000000000000000000000000000000000000000000000000000000000000000000F500
310
00000000000000000000000000000000000000000000000000000000000000000000000000000000000000000000000000000000000000000000000000000000000000000000000000000000000000000000000000000000000000000000000000000000000000000000000000000000000000000000000000000000000000
310
00000000000000000000000000000000000000000000000000000000000000000000000000000000F50000000000000000000000000000000000000000000000000000000000000000000000000000000000000000000000000000000000000000000000000000000000000000000000000000000000000000000000000000
310
F5000000000000000000000000000000000000000000000000000000000000000000000000000000000000000000000000000000000000000000000000000000000000000000000000000000000000000000000000000000000000000000000000000000000000000000000000000000000000000000000000000000000000
310
000000000000000000000000000000000000000000000000000000000000000000000000000000000000F5000000000000000000000000000000000000000000000000000000000000000000000000000000000000000000000000000000000000000000000000000000000000000000000000000000000000000000000000
310
0000F500000000000000000000000000000000000000000000000000000000000000000000000000000000000000000000000000000000000000000000000000000000000000000000000000000000000000000000000000000000000000000000000000000000000000000000000000000000000000000000000000000000
310
0000000000000000000000000000000000000000000000000000000000000000000000000000000000000000F500000000000000000000000000000000000000000000000000000000000000000000000000000000000000000000000000000000000000000000000000000000000000000000000000000000000000000000
310
00000000F50000000000000000000000000000000000000000000000000000000000000000000000000000000000000000000000000000000000000000000000000000000000000000000000000000000000000000000000000000000000000000000000000000000000000000000000000000000000000000000000000000
310
00000000000000000000000000000000000000000000000000000000000000000000000000000000000000000000F50000000000000000000000000000000000000000000000000000000000000000000000000000000000000000000000000000000000000000000000000000000000000000000000000000000000000000
310
000000000000F5000000000000000000000000000000000000000000000000000000000000000000000000000000000000000000000000000000000000000000000000000000000000000000000000000000000000000000000000000000000000000000000000000000000000000000000000000000000000000000000000
310
000000000000000000000000000000000000000000000000000000000000000000000000000000000000000000000000F5000000000000000000000000000000000000000000000000000000000000000000000000000000000000000000000000000000000000000000000000000000000000000000000000000000000000
310
0000000000000000F500000000000000000000000000000000000000000000000000000000000000000000000000000000000000000000000000000000000000000000000000000000000000000000000000000000000000000000000000000000000000000000000000000000000000000000000000000000000000000000
310
0000000000000000000000000000000000000000000000000000000000000000000000000000000000000000000000000000F500000000000000000000000000000000000000000000000000000000000000000000000000000000000000000000000000000000000000000000000000000000000000000000000000000000
310
00000000000000000000F500000000000000000000000000000000000000000000000000000000000000000000000000002D2D00000000000000000000000000000000000000000000000000000000000000002D2D000000000000000000000000000000000000000000000000000000000000000000000000000000000000
310
0000000000000000000000000000000000F5F5F5F5F5F5F5F5F5F5F5F5F5F5F5F5F5F5F5F5F5F5F5F5F5F5000000000000000000F50000000000000000000000000000000000000000000000000000000000000000000000000000000000000000000000000000000000000000000000000000000000000000000000000000
310
000000000000000000000000F500000000000000000000000000000000000000000000000000000000000000000000000000002D2D2D2D2D2D2D2D2D2D2D2D2D2D2D2D2D2D2D2D2D2D2D2D2D2D2D2D2D2D2D2D2D2D2D2D00000000000000000000000000000000000000000000000000000000000000000000000000000000
310
00000000000000000000000000000000000000F500DCDCDCDCDCDCDC0000F50000DCDCDCDCDCDCDCDC000000F5000000000000000000F5000000000000000000000000000000000000000000000000000000000000000000000000000000000000000000000000000000000000000000000000000000000000000000000000
310
0000000000000000000000000000F500000000000000000000000000000000000000000000000000000000000000000000000000002D00000000000000000000000000002D2D2D2D2D2D00000000000000000000000000002D0000000000000000000000000000000000000000000000000000000000000000000000000000
310
000000000000000000000000000000000000000000F500DCDCDCDCDCDCDC0000F50000DCDCDCDCDCDCDCDC000000F5000000000000000000F500000000000000000000000000000000000000000000000000000000000000000000000000000000000000000000000000000000000000000000000000000000000000000000
310
00000000000000000000000000000000F500000000000000000000000000000000000000000000000000000000000000000000000000002D2D00000000000000000000000000002D2D2D2D00000000000000000000000000002D2D000000000000000000000000000000000000000000000000000000000000000000000000
310
0000000000000000000000000000000000000000000000F5F5F5F5F5F5F5F5F5F5F5F5F5F5F5F5F5F5F5F5F5F5F5F5F5F5000000000000000000F50000000000000000000000000000000000000000000000000000000000000000000000000000000000000000000000000000000000000000000000000000000000000000
310
000000000000000000000000000000000000F500000000000000000000000000000000000000000000000000000000000000000000000000002D2D2D2D2D2D2D2D2D2D2D2D2D2D2D2D2D2D2D2D2D2D2D2D2D2D2D2D2D2D2D2D2D2D2D2D00000000000000000000000000000000000000000000000000000000000000000000
310
00000000000000000000000000000000000000000000000000F500DCDCDCDCDCDC000000F500000000000000000000000000F5000000000000000000F5000000000000000000000000000000000000000000000000000000000000000000000000000000000000000000000000000000000000000000000000000000000000
310
0000000000000000000000000000000000000000F500000000000000000000000000000000000000000000000000000000000000000000000000002D2D000000000000000000000000002D2D2D002D2D000000000000000000000000002D2D0000000000000000000000000000000000000000000000000000000000000000
310
000000000000000000000000000000000000000000000000000000F500DCDCDCDCDCDC000000F50000F5F5F5F5F5F5F500000000F5000000000000000000F500000000000000000000000000000000000000000000000000000000000000000000000000000000000000000000000000000000000000000000000000000000
310
00000000000000000000000000000000000000000000F500000000000000000000000000000000000000000000000000000000000000000000000000002D2D000000000000000000000000002D2D2D2D2D00000000000000000000000000002D2D000000000000000000000000000000000000000000000000000000000000
310
0000000000000000000000000000000000000000000000000000000000F500000000000000000000F500000000000000000000000000F5000000000000000000F50000000000000000000000000000000000000000000000000000000000000000000000000000000000000000000000000000000000000000000000000000
310
000000000000000000000000000000000000000000000000F500000000000000000000000000000000000000000000000000000000000000000000000000002D2D002D2D2D2D2D2D2D2D2D2D2D2D2D2D2D2D2D2D2D2D2D2D2D2D2D2D2D2D2D2D002D2D00000000000000000000000000000000000000000000000000000000
310
00000000000000000000000000000000000000000000000000000000000000F5F5F5F5F5F5F5F5F5F5F5F5F5F5F5F5F5F5F5F5F5F5F5F5F5F5000000000000000000F5000000000000000000000000000000000000000000000000000000000000000000000000000000000000000000000000000000000000000000000000
310
0000000000000000000000000000000000000000000000000000F500000000000000000000000000000000000000000000000000000000000000000000000000002D2D002D2D000000000000000000002D2D2D2D2D2D000000000000000000002D2D002D2D0000000000000000000000000000000000000000000000000000
310
000000000000000000000000000000000000000000000000000000000000000000F500DCDCDCDC0000000000F50000DCDCDCDCDCDCDCDC000000F5000000000000000000F500000000000000000000000000000000000000000000000000000000000000000000000000000000000000000000000000000000000000000000
310
00000000000000000000000000000000000000000000000000000000F500000000000000000000000000000000000000000000000000000000000000000000000000002D2D002D00000000000000000000002D2D2D2D2D2D00000000000000000000002D002D2D000000000000000000000000000000000000000000000000
310
0000000000000000000000000000000000000000000000000000000000000000000000F500000000000000000000F50000DCDCDCDCDCDCDCDC000000F5000000000000000000F50000000000000000000000000000000000000000000000000000000000000000000000000000000000000000000000000000000000000000
310
000000000000000000000000000000000000000000000000000000000000F500000000000000000000000000000000000000000000000000000000000000000000000000002D2D002D000000000000000000000000000000000000000000000000000000002D002D2D00000000000000000000000000000000000000000000
310
00000000000000000000000000000000000000000000000000000000000000000000000000F5F5F5F5F5F5F5F5F5F5F5F5F5F5F5F5F5F5F5F5F5F5F5F5F5F5000000000000000000F5000000000000000000000000000000000000000000000000000000000000000000000000000000000000000000000000000000000000
310
0000000000000000000000000000000000000000000000000000000000000000F500000000000000000000000000000000000000000000000000000000000000000000000000002D2D002D000000000000000000000000000000000000000000000000000000002D002D2D0000000000000000000000000000000000000000
310
000000000000000000000000000000000000000000000000000000000000000000000000000000F500DCDCDCDCDCDC000000F500000000000000000000000000F5000000000000000000F500000000000000000000000000000000000000000000000000000000000000000000000000000000000000000000000000000000
310
00000000000000000000000000000000000000000000000000000000000000000000F500000000000000000000000000000000000000000000000000000000000000000000000000002D2D002D00000000000000000000000000BE00000000000000000000000000002D002D2D000000000000000000000000000000000000
310
0000000000000000000000000000000000000000000000000000000000000000000000000000000000F500DCDCDCDCDCDC000000F50000F5F5F5F5F5F5F500000000F5000000000000000000F50000000000000000000000000000000000000000000000000000000000000000000000000000000000000000000000000000
310
000000000000000000000000000000000000000000000000000000000000000000000000F500000000000000000000000000000000000000000000000000000000000000000000000000002D00000000000000000000000000000000BE00000000000000000000000000000000002D00000000000000000000000000000000
310
00000000000000000000000000000000000000000000000000000000000000000000000000000000000000F500000000000000000000F500000000000000000000000000F5000000000000000000F5000000000000000000000000000000000000000000000000000000000000000000000000000000000000000000000000
310
0000000000000000000000000000000000000000000000000000000000000000000000000000F500000000000000000000000000000000000000000000000000000000000000000000000000002D282828282828282828282828282828282828282828282828282828282828282828282D2D2D2D2D2D2D2D2D2D2D2D2D2D2D
310
2D2D00000000000000000000000000000000000000000000000000000000000000000000000000000000000000F5F5F5F5F5F5F5F5F5F5F5F5F5F5F5F5F5F5F5F5F5F5F5F5F5F5000000000000000000F500000000000000000000000000000000000000000000000000000000000000000000000000000000000000000000
310
00000000000000000000000000000000000000000000000000000000000000000000000000000000F500000000000000000000000000000000000000000000000000000000000000000000000000002DDC002800000000000000000000000000BE00000000000000000000000000000000282D00000000000000000000002D
310
00002D2D00000000000000000000000000000000000000000000000000000000000000000000000000000000000000F500DCDCDCDCDCDC000000F500DCDCDCDCDCDCDCDC00000000F5000000000000000000F50000000000000000000000000000000000000000000000000000000000000000000000000000000000000000
310
000000000000000000000000000000000000000000000000000000000000000000000000000000000000F500000000000000000000000000000000000000000000000000000000000000000000000000002D28DC2800000000000000000000000000BE00000000000000000000000000000000282D00000000000000000000
310
002D00002D0000000000000000000000000000000000000000000000000000000000000000000000000000000000000000F500000000000000000000F500000000000000000000000000F5000000000000000000F5000000000000000000000000000000000000000000000000000000000000000000000000000000000000
310
0000000000000000000000000000000000000000000000000000000000000000000000000000000000000000F500000000000000000000000000000000000000000000000000000000000000000000000000002DDC002800000000000000000000000000BE00000000000000000000000000000000282D0000000000000000
310
0000002D00002D0000000000000000000000000000000000000000000000000000000000000000000000000000000000000000F5F5F5F5F5F5F5F5F5F5F5F5F5F5F5F5F5F5F5F5F5F5F5F5F5F5000000000000000000F500000000000000000000000000000000000000000000000000000000000000000000000000000000
310
00000000000000000000000000000000000000000000000000000000000000000000000000000000000000000000F500000000000000000000000000000000000000000000000000000000000000000000000000002D28DC2800000000000000000000000000BE00000000000000000000000000000000282D000000000000
310
00000000002D00002D0000000000000000000000000000000000000000000000000000000000000000000000000000000000000000F5000000DCDCDC00000000F5000000DCDCDCDC000000000000F5000000000000000000F50000000000000000000000000000000000000000000000000000000000000000000000000000
310
000000000000000000000000000000000000000000000000000000000000000000000000000000000000000000000000F500000000000000000000000000000000000000000000000000000000000000000000000000002DDC002800000000000000000000000000BE00000000000000000000000000000000282D00000000
310
000000000000002D00002D0000000000000000000000000000000000000000000000000000000000000000000000000000000000000000F500000000000000000000F500000000000000000000000000F5000000000000000000F5000000000000000000000000000000000000000000000000000000000000000000000000
310
0000000000000000000000000000000000000000000000000000000000000000000000000000000000000000000000000000F500000000000000000000000000000000000000000000000000000000000000000000000000002DDCDC2828282828282828282828282828BE00000000000000000000000000000000282D0000
310
0000000000000000002D00002D0000000000000000000000000000000000000000000000000000000000000000000000000000000000000000F5F5F5F5F5F5F5F5F5F5F5F5F5F5F5F5F5F5F5F5F5F5F5F5F5F5000000000000000000F500000000000000000000000000000000000000000000000000000000000000000000
310
00000000000000000000000000000000000000000000000000000000000000000000000000000000000000000000000000000000F500000000000000000000000000000000000000000000000000000000000000000000000000002D28DC2828280000000000000000000000BE00000000000000000000000000000000282D
310
000000000000000000002D2D00002D00000000000000000000000000000000000000000000000000000000000000000000000000000000000000000000000000000000000000000000000000000000000000000000000000000000000000F50000000000000000000000000000000000000000000000000000000000000000
310
000000000000000000000000000000000000000000000000000000000000000000000000000000000000000000000000000000000000F500000000000000000000000000000000000000000000000000000000000000000000000000002DDCDC2D2D280000000000000000000000BE00000000000000000000000000000000
310
282D000000000000002D002D2D2D00002D00000000000000000000000000000000000000000000000000000000000000000000000000000000000000000000000000000000000000000000000000000000000000000000000000000000000000F5000000000000000000000000000000000000000000000000000000000000
310
0000000000000000000000000000000000000000000000000000000000000000000000000000000000000000000000000000000000000000F500000000000000000000000000000000000000000000000000000000000000000000000000002D28DC2D2D280000000000000000000000BE0000000000000000000000000000
310
0000282D00000000002D2D2D002D2D2D00002D00000000000000000000000000000000000000000000000000000000000000000000000000000000000000000000000000000000000000000000000000000000000000000000000000000000000000F500000000000000000000000000000000000000000000000000000000
310
00000000000000000000000000000000000000000000000000000000000000000000000000000000000000000000000000000000000000000000F500000000000000000000000000000000000000000000000000000000000000000000000000002DDC002D2D280000000000000000000000BE000000000000000000000000
310
00000000282D0000000000002D2D002D2D2D2D2D2D00000000000000000000000000000000000000000000000000000000000000000000000000000000000000000000000000000000000000000000000000000000000000000000000000000000000000F50000000000000000000000000000000000000000000000000000
310
000000000000000000000000000000000000000000000000000000000000000000000000000000000000000000000000000000000000000000000000F500000000000000000000000000000000000000000000000000000000000000000000000000002D28DC282D280000000000000000000000BE00000000000000000000
310
000000000000282D00000000002D2D2D0000002D2D2D2D00000000000000000000000000000000000000000000000000000000000000000000000000000000000000000000000000000000000000000000000000000000000000000000000000000000000000F5000000000000000000000000000000000000000000000000
310
0000000000000000000000000000000000000000000000000000000000000000000000000000000000000000000000000000000000000000000000000000F500000000000000000000000000000000000000000000000000000000000000000000000000002DDC00282D280000000000000000000000BE0000000000000000
310
0000000000000000282D00000000002D2D2D0000002D2D2D2D00000000000000000000000000000000000000000000000000000000000000000000000000000000000000000000000000000000000000000000000000000000000000000000000000000000000000F500000000000000000000000000000000000000000000
310
00000000000000000000000000000000000000000000000000000000000000000000000000000000000000000000000000000000000000000000000000000000F500000000000000000000000000000000000000000000000000000000000000000000000000002D28DC2828280000000000000000000000BE000000000000
310
00000000000000000000282D000000000000002D0000002D2D2D2D00000000000000000000000000000000000000000000000000000000000000000000000000000000000000000000000000000000000000000000000000000000000000000000000000000000000000F50000000000000000000000000000000000000000
310
000000000000000000000000000000000000000000000000000000000000000000000000000000000000000000000000000000000000000000000000000000000000F500000000000000000000000000000000000000000000000000000000000000000000000000002DDC0028DC280000000000000000000000BE00000000
310
000000000000000000000000282D000000000000002D0000002D00002D00000000000000000000000000000000000000000000000000000000000000000000000000000000000000000000000000000000000000000000000000000000000000000000000000000000000000F5000000000000000000000000000000000000
310
0000000000000000000000000000000000000000000000000000000000000000000000000000000000000000000000000000000000000000000000000000000000000000F500000000000000000000000000000000000000000000000000000000000000000000000000002828282800280000000000000000000000282828
310
282828282828282828282828282828282D2D2D2D2D2D2D2D0000002D00002D00000000000000000000000000000000000000000000000000000000000000000000000000000000000000000000000000000000000000000000000000000000000000000000000000000000000000F500000000000000000000000000000000
310
00000000000000000000000000000000000000000000000000000000000000000000000000000000000000000000000000000000000000000000000000000000000000000000F5000000000000000000000000000000000000000000000000000000000000000000000000000028282828DC280000000000000000000000BE
310
000000000000000000000000000000000028000000000000002D0000002D00002D00000000000000000000000000000000000000000000000000000000000000000000000000000000000000000000000000000000000000000000000000000000000000000000000000000000000000F50000000000000000000000000000
310
000000000000000000000000000000000000000000000000000000000000000000000000000000000000000000000000000000000000000000000000000000000000000000000000F5000000000000000000000000000000000000000000000000000000000000000000000000000028282828282828282828282828282828
310
28282828282828282828282828282828282828282D2D2D2D2D2D2D2D2D2D2D2D00002D00000000000000000000000000000000000000000000000000000000000000000000000000000000000000000000000000000000000000000000000000000000000000000000000000000000000000F5000000000000000000000000
310
0000000000000000000000000000000000000000000000000000000000000000000000000000000000000000000000000000000000000000000000000000000000000000000000000000F50000000000000000000000000000000000000000000000000000000000000000000000000000282D00DCDC00DC00DC00DC00DCDC
310
00DC00BE000000000000000000000000000000000028000000000000002D0000002D00002D00000000000000000000000000000000000000000000000000000000000000000000000000000000000000000000000000000000000000000000000000000000000000000000000000000000000000F500000000000000000000
310
00000000000000000000000000000000000000000000000000000000000000000000000000000000000000000000000000000000000000000000000000000000000000000000000000000000F50000000000000000000000000000000000000000000000000000000000000000000000000000282828DC2828282828DC28DC
310
DC28DC28DC282828282828282828282828282828282828282D2D2D2D2D2D2D2D002D2D2D00002D00000000000000000000000000000000000000000000000000000000000000000000000000000000000000000000000000000000000000000000000000000000000000000000000000000000000000F50000000000000000
310
000000000000000000000000000000000000000000000000000000000000000000000000000000000000000000000000000000000000000000000000000000000000000000000000000000000000F500000000000000000000000000000000000000000000000000000000000000000000000000002D002800280028002800
310
28000000000000BE00000000000000280028280000280028000000000000002D2D2D002D2D2D00002D00000000000000000000000000000000000000000000000000000000000000000000000000000000000000000000000000000000000000000000000000000000000000000000000000000000000000F5000000000000
310
0000000000000000000000000000000000000000000000000000000000000000000000000000000000000000000000000000000000000000000000000000000000000000000000000000000000000000F5000000000000000000000000000000000000000000000000000000000000000000000000002D000028DC28002800
310
280028000000000000BE0000000000000028002828000028002800000000000000002D2D002D2D2D00002D00000000000000000000000000000000000000000000000000000000000000000000000000000000000000000000000000000000000000000000000000000000000000000000000000000000000000F500000000
310
00000000000000000000000000000000000000000000000000000000000000000000000000000000000000000000000000000000000000000000000000000000000000000000000000000000000000000000F5000000000000000000000000000000000000000000000000000000000000000000000000002D000028DC2800
310
2800280028000000000000BE00000000000000280028002800280028000000000000002D2D000000002D00002D00000000000000000000000000000000000000000000000000000000000000000000000000000000000000000000000000000000000000000000000000000000000000000000000000000000000000F50000
310
000000000000000000000000000000000000000000000000000000000000000000000000000000000000000000000000000000000000000000000000000000000000000000000000000000000000000000000000F50000000000000000000000000000000000000000000000000000002D2D2D2D2D2D2D2D2D2D00000028DC
310
28002800280028000000000000BE00000000000000280028002800280028000000000000002D2D000000002D00002D2D000000000000000000000000000000000000000000000000000000000000000000000000000000000000000000000000000000000000000000000000000000000000000000000000000000000000F5
310
0000000000000000000000000000000000000000000000000000000000000000000000000000000000000000000000000000000000000000000000000000000000000000000000000000000000000000000000000000F50000000000000000000000000000000000000000000000000000002D2D2D2D2D2D2D2D0000000000
310
28282828280028282828282828282828282828282828282828280028282828282D2D2D2D2D2D2D2D2D2D2D2D2D2D2D2D2D2D0000000000000000000000000000000000000000000000000000000000000000000000000000000000000000000000000000000000000000000000000000000000000000000000000000000000
310
00F50000000000000000000000000000000000000000000000000000000000000000000000000000000000000000000000000000000000000000000000000000000000000000000000000000000000000000000000000000F50000000000000000000000000000000000000000000000000000002D2D2D2D2D2D2D2D000000
310
0000000000000000000000000000000000BE00000000000000000000000000000000000000000000000000000000000000000000000000000000000000000000000000000000000000000000000000000000000000000000000000000000000000000000000000000000000000000000000000000000000000000000000000
310
000000F50000000000000000000000000000000000000000000000000000000000000000000000000000000000000000000000000000000000000000000000000000000000000000000000000000000000000000000000000000F5000000000000000000000000000000000000000000000000000000000000000000000000
310
00000000000000000000000000000000000000BE0000000000000000000000000000000000000000000000000000000000000000000000000000000000000000000000000000000000000000000000000000000000000000000000000000000000000000000000000000000000000000000000000000000000000000000000
310
0000000000F50000000000000000000000000000000000000000000000000000000000000000000000000000000000000000000000000000000000000000000000000000000000000000000000000000000000000000000000000000F500000000000000000000000000000000000000000000000000000000000000000000
310
000000000000000000000000000000000000000000BE000000000000000000000000000000000000000000000000000000000000000000000000000000000000000000000000000000000000000000000000000000000000000000000000000000000000000000000000000000000000000000000000000000000000000000
310
00000000000000F50000000000000000000000000000000000000000000000000000000000000000000000000000000000000000000000000000000000000000000000000000000000000000000000000000000000000000000000000000F50000000000000000000000000000000000000000000000000000000000000000
310
00000000000000000000000000000000000000000000000000000000000000000000000000000000000000000000000000000000000000000000000000000000000000000000000000000000000000000000000000000000000000000000000000000000000000000000000000000000000000000000000000000000000000
310
000000000000000000F50000000000000000000000000000000000000000000000000000000000000000000000000000000000000000000000000000000000000000000000000000000000000000000000000000000000000000000000000000F5000000000000000000000000000000000000000000000000000000000000
310
00000000000000000000000000000000000000000000000000000000000000000000000000000000000000000000000000000000000000000000000000000000000000000000000000000000000000000000000000000000000000000000000000000000000000000000000000000000000000000000000000000000000000
310
0000000000000000000000F50000000000000000000000000000000000000000000000000000000000000000000000000000000000000000000000000000000000000000000000000000000000000000000000000000000000000000000000000000F500000000000000000000000000000000000000000000000000000000
310
00000000000000000000000000000000000000000000000000000000000000000000000000000000000000000000000000000000000000000000000000000000000000000000000000000000000000000000000000000000000000000000000000000000000000000000000000000000000000000000000000000000000000
310
00000000000000000000000000F50000000000000000000000000000000000000000000000000000000000000000000000000000000000000000000000000000000000000000000000000000000000000000000000000000000000000000000000000000F50000000000000000000000000000000000000000000000000000
310
00000000000000000000000000000000000000000000000000000000000000000000000000000000000000000000000000000000000000000000000000000000000000000000000000000000000000000000000000000000000000000000000000000000000000000000000000000000000000000000000000000000000000
310
000000000000000000000000000000F50000000000000000000000000000000000000000000000000000000000000000000000000000000000000000000000000000000000000000000000000000000000000000000000000000000000000000000000000000F5000000000000000000000000000000000000000000000000
310
00000000000000000000000000000000000000000000000000000000000000000000000000000000000000000000000000000000000000000000000000000000000000000000000000000000000000000000000000000000000000000000000000000000000000000000000000000000000000000000000000000000000000
310
0000000000000000000000000000000000F50000000000000000000000000000000000000000000000000000000000000000000000000000000000000000000000000000000000000000000000000000000000000000000000000000000000000000000000000000F500000000000000000000000000000000000000000000
310
000000000000000000000000000000002D000000000000000000000000000000000000000000000000000000000000000000002D000000000000000000000000000000000000000000000000000000000000000000000000000000000000000000000000000000000000000000000000000000000000000000000000000000
310
00000000000000000000000000000000000000F50000000000000000000000000000000000000000000000000000000000000000000000000000000000000000000000000000000000000000000000000000000000000000000000000000000000000000000000000000F50000000000000000000000000000000000000000
310
0000000000000000000000000000000000002D2D2D2D2D2D2D2D2D2D2D2D2D2D2D2D2D2D2D2D2D2D2D2D2D2D2D2D2D2D2D2D2D2D2D2D00000000000000000000000000000000000000000000000000000000000000000000000000000000000000000000000000000000000000000000000000000000000000000000000000
310
000000000000000000000000000000000000000000F50000000000000000000000000000000000000000000000000000000000000000000000000000000000000000000000000000000000000000000000000000000000000000000000000000000000000000000000000000F5000000000000000000000000000000000000
310
00000000000000000000000000000000000000002D00000000000000000000000000002D2D2D2D2D2D00000000000000000000000000002D0000000000000000000000000000000000000000000000000000000000000000000000000000000000000000000000000000000000000000000000000000000000000000000000
310
0000000000000000000000000000000000000000000000F50000000000000000000000000000000000000000000000000000000000000000000000000000000000000000000000000000000000000000000000000000000000000000000000000000000000000000000000000000F500000000000000000000000000000000
310
000000000000000000000000000000000000000000002D0000000000000000000000000000002D2D2D2D0000000000000000000000000000002D000000000000000000000000000000000000000000000000000000000000000000000000000000000000000000000000000000000000000000000000000000000000000000
310
00000000000000000000000000000000000000000000000000F50000000000000000000000000000000000000000000000000000000000000000000000000000000000000000000000000000000000000000000000000000000000000000000000000000000000000000000000000000F50000000000000000000000000000
310
0000000000000000000000000000000000000000000000002D000000000000000000000000000000000000000000000000000000000000000000002D00000000000000000000000000000000000000000000000000000000000000000000000000000000000000000000000000000000000000000000000000000000000000
310
000000000000000000000000000000000000000000000000000000F50000000000000000000000000000000000000000000000000000000000000000000000000000000000000000000000000000000000000000000000000000000000000000000000000000000000000000000000000000F5000000000000000000000000
310
00000000000000000000000000000000000000000000000000002D00000000000000000000000000000000BE00000000000000000000000000000000002D0000000000000000000000000000000000000000000000000000000000000000000000000000000000000000000000000000000000000000000000000000000000
310
0000000000000000000000000000000000000000000000000000000000F50000000000000000000000000000000000000000000000000000000000000000000000000000000000000000000000000000000000000000000000000000000000000000000000000000000000000000000000000000F500000000000000000000
310
000000000000000000000000000000000000000000000000000000002D00000000000000000000000000000000BE00000000000000000000000000000000002D000000000000000000000000000000000000000000000000000000000000000000000000000000000000000000000000000000000000000000000000000000
310
00000000000000000000000000000000000000000000000000000000000000F50000000000000000000000000000000000000000000000000000000000000000000000000000000000000000000000000000000000000000000000000000000000000000000000000000000000000000000000000000F50000000000000000
310
0000000000000000000000000000000000000000000000000000000000002D00000000000000000000000000000000BE00000000000000000000000000000000002D00000000000000000000000000000000000000000000000000000000000000000000000000000000000000000000000000000000000000000000000000
310
000000000000000000000000000000000000000000000000000000000000000000F50000000000000000000000000000000000000000000000000000000000000000000000000000000000000000000000000000000000000000000000000000000000000000000000000000000000000000000000000000F5000000000000
310
00000000000000000000000000000000000000000000000000000000000000002D00000000000000000000000000000000BE00000000000000000000000000000000002D0000000000000000000000000000000000000000000000000000000000000000000000000000000000000000000000000000000000000000000000
310
0000000000000000000000000000000000000000000000000000000000000000000000F50000000000000000000000000000000000000000000000000000000000000000000000000000000000000000000000000000000000000000000000000000000000000000000000000000000000000000000000000000F500000000
310
000000000000000000000000000000000000000000000000000000000000000000002D00000000000000000000000028282828BE28282828280000000000000000000000002D000000000000000000000000000000000000000000000000000000000000000000000000000000000000000000000000000000000000000000
310
00000000000000000000000000000000000000000000000000000000000000000000000000F50000000000000000000000000000000000000000000000000000000000000000000000000000000000000000000000000000000000000000000000000000000000000000000000000000000000000000000000000000F50000
310
0000000000000000000000000000000000000000000000000000000000000000000000002D00000000000000000000282800000000BE00000000002828000000000000000000002D00000000000000000000000000000000000000000000000000000000000000000000000000000000000000000000000000000000000000
310
000000000000000000000000000000000000000000000000000000000000000000000000000000F50000000000000000000000000000000000000000000000000000000000000000000000000000000000000000000000000000000000000000000000000000000000000000000000000000000000000000000000000000F5
310
00000000000000000000000000000000000000000000000000000000000000000000000000002D00000000000000002828000000002828282828282D2D2D2D28282D2D2D2D2D2D2D2D2D2D2D2D2D2D2D2D2D2D2D00000000000000000000000000000000000000000000000000000000000000000000000000000000000000
310
0000000000000000000000000000000000000000000000000000000000000000000000000000000000F500000000000000000000000000000000000000000000000000000000000000000000000000000000000000000000000000000000000000000000000000000000000000000000000000000000000000000000000000
310
00F500000000000000000000000000000000000000000000000000000000000000000000000000002D00000000000028282800002828280000BE00000028282800000028280000000000002D0000000000000000002D0000000000000000000000000000000000000000000000000000000000000000000000000000000000
310
00000000000000000000000000000000000000000000000000000000000000000000000000000000000000F50000000000000000000000000000000000000000000000000000000000000000000000000000000000000000000000000000000000000000000000000000000000000000000000000000000000000000000000
310
000000F500000000000000000000000000000000000000000000000000000000000000000000000000002D0000000000280028002828000000282D282D2D2800000028282828002800000000002D0000000000000000002D000000000000000000000000000000000000000000000000000000000000000000000000000000
310
000000000000000000000000000000000000000000000000000000000000000000000000000000000000000000F5000000000000000000000000000000000000000000000000000000000000000000000000000000000000000000000000000000000000000000000000000000000000000000000000000000000000000000
310
0000000000F500000000000000000000000000000000000000000000000000000000000000000000000000002D000000002800002800000028282D2D2DBE2D2D2D2D282800000028000028000000002D0000000000000000002D00000000000000000000000000000000000000000000000000000000000000000000000000
310
0000000000000000000000000000000000000000000000000000000000000000000000000000000000000000000000F500000000000000000000000000000000000000000000000000000000000000000000000000000000000000000000000000000000000000000000000000000000000000000000000000000000000000
310
00000000000000F500000000000000000000000000000000000000000000000000000000000000000000000000002D00000028000000002828282D2D2D2D2DBE2D2D2D2D2D2D28282800000000280000002D0000000000000000002D0000000000000000000000000000000000000000000000000000000000000000000000
310
00000000000000000000000000000000000000000000000000000000000000000000000000000000000000000000000000F50000000000000000000000000000000000000000000000000000000000000000000000000000000000000000000000000000000000000000000000000000000000000000000000000000000000
310
000000000000000000F500000000000000000000000000000000000000000000000000000000000000000000000000002D00002800000000000000002D2D2D2D2D2D2D2D2D2D2D2D00000000000000002800002D0000000000000000002D000000000000000000000000000000000000000000000000000000000000000000
310
000000000000000000000000000000000000000000000000000000000000000000000000000000000000000000000000000000F5000000000000000000000000000000000000000000000000000000000000000000000000000000000000000000000000000000000000000000000000000000000000000000000000000000
310
0000000000000000000000F500000000000000000000000000000000000000000000000000000000000000000000000000002D00280028280000000000002D2D2D2D2D2D2D2D2D2D2D0000000000000028280028002D0000000000000000002D00000000000000000000000000000000000000000000000000000000000000
310
0000000000000000000000000000000000000000000000000000000000000000000000000000000000000000000000000000000000F500000000000000000000000000000000000000000000000000000000000000000000000000000000000000000000000000000000000000000000000000000000000000000000000000
310
00000000000000000000000000F500000000000000000000000000000000000000000000000000000000000000000000000000002D0028002800280000000000002D2D0000BE0000002D2D0000000000002800280028002D0000000000000000002D0000000000000000000000000000000000000000000000000000000000
310
00000000000000000000000000000000000000000000000000000000000000000000000000000000000000000000000000000000000000F50000000000000000000000000000000000000000000000000000000000000000000000000000000000000000000000000000000000000000000000000000000000000000000000
310
000000000000000000000000000000F500000000000000000000000000000000000000000000000000000000000000000000000000002D28000028002800000000000000000000BE00000000000000000000002800280000282D0000000000000000002D000000000000000000000000000000000000000000000000000000
310
000000000000000000000000000000000000000000000000000000000000000000000000000000000000000000000000000000000000000000F5000000000000000000000000000000000000000000000000000000000000000000000000000000000000000000000000000000000000000000000000000000000000000000
310
0000000000000000000000000000000000F500000000000000000000000000000000000000000000000000000000000000000000000000002D28000028002800000000000000000000BE00000000000000000000002800280000282D0000000000000000002D00000000000000000000000000000000000000000000000000
310
0000000000000000000000000000000000000000000000000000000000000000000000000000000000000000000000000000000000000000000000F500000000000000000000000000000000000000000000000000000000000000000000000000000000000000000000000000000000000000000000000000000000000000
310
00000000000000000000000000000000000000F500000000000000000000000000000000000000000000000000000000000000000000000000002D28002800280000000000000000000000BE00000000000000000000000028002800282D0000000000000000002D0000000000000000000000000000000000000000000000
310
00000000000000000000000000000000000000000000000000000000000000000000000000000000000000000000000000000000000000000000000000F50000000000000000000000000000000000000000000000000000000000000000000000000000000000000000000000000000000000000000000000000000000000
310
000000000000000000000000000000000000000000F500000000000000000000000000000000000000000000000000000000000000000000000000002800002800280000000000000000000000BE0000000000000000000000002800280000280000000000000000002D000000000000000000000000000000000000000000
310
000000000000000000000000000000000000000000000000000000000000000000000000000000000000000000000000000000000000000000000000000000F5000000000000000000000000000000000000000000000000000000000000000000000000000000000000000000000000000000000000000000000000000000
310
0000000000000000000000000000000000000000000000F500000000000000000000000000000000000000000000000000000000000000000000000000002800002800280000000000000000000000BE0000000000000000000000002800280000280000000000000000002D00000000000000000000000000000000000000
310
0000000000000000000000000000000000000000000000000000000000000000000000000000000000000000000000000000000000000000000000000000000000F500000000000000000000000000000000000000000000000000000000000000000000000000000000000000000000000000000000000000000000000000
310
00000000000000000000000000000000000000000000000000F500000000000000000000000000000000000000000000000000000000000000000000000000002800280028000000000000000000000000BE0000000000000000000000000028002800280000000000000000002D0000000000000000000000000000000000
310
00000000000000000000000000000000000000000000000000000000000000000000000000000000000000000000000000000000000000000000000000000000000000F50000000000000000000000000000000000000000000000000000000000000000000000000000000000000000000000000000000000000000000000
310
000000000000000000000000000000000000000000000000000000F500000000000000000000000000000000000000000000000000000000000000000000000000002800280028000000000000000000000000BE000000000000000000000000002800280028000000000000002D2D2D000000000000000000000000000000
310
000000000000000000000000000000000000000000000000000000000000000000000000000000000000000000000000000000000000000000000000000000000000000000F5000000000000000000000000000000000000000000000000000000000000000000000000000000000000000000000000000000000000000000
310
0000000000000000000000000000000000000000000000000000000000F500000000000000000000000000000000000000000000000000000000000000000000BEBEBEBEBEBE28BE28BEBEBEBEBEBEBEBEBEBEBEBEBEBEBEBEBEBEBEBEBEBEBEBEBEBE28BE28BEBEBEBEBEBE0000002D2D2D00000000000000000000000000
310
0000000000000000000000000000000000000000000000000000000000000000000000000000000000000000000000000000000000000000000000000000000000000000000000F500000000000000000000000000000000000000000000000000000000000000000000000000000000000000000000000000000000000000
310
00000000000000000000000000000000000000000000000000000000000000F500000000000000000000000000000000000000000000000000000000000000000000000000002800280028000000000000000000000000BE000000000000000000000000002800280028000000000000002D2D2D0000000000000000000000
310
00000000000000000000000000000000000000000000000000000000000000000000000000000000000000000000000000000000000000000000000000000000000000000000000000F50000000000000000000000000000000000000000000000000000000000000000000000000000000000000000000000000000000000
310
000000000000000000000000000000000000000000000000000000000000000000F500000000000000000000000000000000000000000000000000000000000000000000000000002800280028000000000000000000000000BE000000000000000000000000002800280028000000000000002D2D2D000000000000000000
310
000000000000000000000000000000000000000000000000000000000000000000000000000000000000000000000000000000000000000000000000000000000000000000000000000000F5000000000000000000000000000000000000000000000000000000000000000000000000000000000000000000000000000000
310
0000000000000000000000000000000000000000000000000000000000000000000000F500000000000000000000000000000000000000000000000000000000000000000000000000002800280028000000000000000000000000BE0000000000000000000000000028002800280000000000000000002D00000000000000
310
0000000000000000000000000000000000000000000000000000000000000000000000000000000000000000000000000000000000000000000000000000000000000000000000000000000000F500000000000000000000000000000000000000000000000000000000000000000000000000000000000000000000000000
310
00000000000000000000000000000000000000000000000000000000000000000000000000F500000000000000000000000000000000000000000000000000000000000000000000000000002800002800280000000000000000000000BE000000000000002D000000002800280000280000000000000000002D0000000000
310
00000000000000000000000000000000000000000000000000000000000000000000000000000000000000000000000000000000000000000000000000000000000000000000000000000000000000F50000000000000000000000000000000000000000000000000000000000000000000000000000000000000000000000
310
000000000000000000000000000000000000000000000000000000000000000000000000000000F500000000000000000000000000000000000000000000000000000000000000000000000000000028002800280000000000000000000000BE0000000000002D2D2D0000002800280028000000000000000000002D000000
310
000000000000000000000000000000000000000000000000000000000000000000000000000000000000000000000000000000000000000000000000000000000000000000000000000000000000000000F5000000000000000000000000000000000000000000000000000000000000000000000000000000000000000000
310
0000000000000000000000000000000000000000000000000000000000000000000000000000000000F500000000000000000000000000000000000000000000000000000000000000000000000000000028000028002800000000000000000000BE0000000000002D2D002D00002800280028000000000000000000002D00
310
0000000000000000000000000000000000000000000000000000000000000000000000000000000000000000000000000000000000000000000000000000000000000000000000000000000000000000000000F500000000000000000000000000000000000000000000000000000000000000000000000000000000000000
310
00000000000000000000000000000000000000000000000000000000000000000000000000000000000000F500000000000000000000000000000000000000000000000000000000000000000000000000000028000028002800000000000000000000BE000000002D2D2D2D2D2D0028002800002800000000000000000000
310
2D000000000000000000000000000000000000000000000000000000000000000000000000000000000000000000000000000000000000000000000000000000000000000000000000000000000000000000000000F50000000000000000000000000000000000000000000000000000000000000000000000000000000000
310
000000000000000000000000000000000000000000000000000000000000000000000000000000000000000000F500000000000000000000000000000000000000000000000000000000000000000000000000000000280028002800000000000000000000BE000000002D2D2D2D00002D2800280028000000000000000000
310
00002D000000000000000000000000000000000000000000000000000000000000000000000000000000000000000000000000000000000000000000000000000000000000000000000000000000000000000000000000F5000000000000000000000000000000000000000000000000000000000000000000000000000000
310
0000000000000000000000000000000000000000000000000000000000000000000000000000000000000000000000F500000000000000000000000000000000000000000000000000000000000000000000000000000000280028280000000000000000000000BE0000000000002D00000000282828002800000000000000
310
000000002D000000000000000000000000000000000000000000000000000000000000000000000000000000000000000000000000000000000000000000000000000000000000000000000000000000000000000000000000F500000000000000000000000000000000000000000000000000000000000000000000000000
310
00000000000000000000000000000000000000000000000000000000000000000000000000000000000000000000000000F500000000000000000000000000000000000000000000000000000000000000000000000000000000002800000000000000000000000000BE0000000000002D0000000000000028000000000000
310
0000000000002D000000000000000000000000000000000000000000000000000000000000000000000000000000000000000000000000000000000000000000000000000000000000000000000000000000000000000000000000F50000000000000000000000000000000000000000000000000000000000000000000000
310
000000000000000000000000000000000000000000000000000000000000000000000000000000000000000000000000000000F500000000000000000000000000000000000000000000000000000000000000000000000000000000002800000000002828000000000000BE00000000000000282800000000002800000000
310
00000000000000002D000000000000000000000000000000000000000000000000000000000000000000000000000000000000000000000000000000000000000000000000000000000000000000000000000000000000000000000000F5000000000000000000000000000000000000000000000000000000000000000000
310
0000000000000000000000000000000000000000000000000000000000000000000000000000000000000000000000000000000000F500000000000000000000000000000000000000000000000000000000000000000000000000000000000028000000280000282800000000BE0000000000282800280000000028000000
310
000000000000000000002D000000000000000000000000000000000000000000000000000000000000000000000000000000000000000000000000000000000000000000000000000000000000000000000000000000000000000000000000F500000000000000000000000000000000000000000000000000000000000000
310
00000000000000000000000000000000000000000000000000000000000000000000000000000000000000000000000000000000000000F50000000000000000000000000000000000000000000000000000000000000000000000000000000000000028000028002800002828282828282828282800002800280000280000
310
0000000000000000000000002D000000000000000000000000000000000000000000000000000000000000000000000000000000000000000000000000000000000000000000000000000000000000000000000000000000000000000000000000F50000000000000000000000000000000000000000000000000000000000
310
000000000000000000000000000000000000000000000000000000000000000000000000000000000000000000000000000000000000000000F500000000000000000000000000000000000000000000000000000000000000000000000000000000000000002828282828280000000000BE00000000000028282800282800
310
00000000000000000000000000002D000000000000000000000000000000000000000000000000000000000000000000000000000000000000000000000000000000000000000000000000000000000000000000000000000000000000000000000000F5000000000000000000000000000000000000000000000000000000
310
0000000000000000000000000000000000000000000000000000000000000000000000000000000000000000000000000000000000000000000000F500000000000000000000000000000000000000000000000000000000000000000000000000000000000000000000282800002828282828BE2828282828282D2D28282D
310
2D2D2D2D2D2D2D2D2D2D2D2D2D2D2D2D2D000000000000000000000000000000000000000000000000000000000000000000000000000000000000000000000000000000000000000000000000000000000000000000000000000000000000000000000000F500000000000000000000000000000000000000000000000000
310
00000000000000000000000000000000000000000000000000000000000000000000000000000000000000000000000000000000000000000000000000F500000000000000000000000000000000000000000000000000000000000000000000000000000000000000000000000028000000000000BE000000000000002800
310
00000000000000000000000000000000000000000000000000000000000000000000000000000000000000000000000000000000000000000000000000000000000000000000000000000000000000000000000000000000000000000000000000000000000000F50000000000000000000000000000000000000000000000
310
000000000000000000000000000000000000000000000000000000000000000000000000000000000000000000000000000000000000000000000000000000F500000000000000000000000000000000000000000000000000000000000000000000000000000000000000000000000000282800000000BE00000000002828
310
00000000000000000000000000000000000000000000000000000000000000000000002D2D002D2D002D2D2D2D2D2D2D002D002D0000002D0000002D002D2D2D2D2D2D002D2D2D2D2D002D2D2D002D2D002D002D2D2D2D002D00000000000000000000000000000000F5000000000000000000000000000000000000000000
310
0000000000000000000000000000000000000000000000000000000000000000000000000000000000000000000000000000000000000000000000000000000000F500000000000000000000000000000000000000000000000000000000000000000000000000000000000000000000000000000028282828BE2828282828
310
000000000000000000000000000000000000000000000000000000000000000000000000002D2D002D2D2D2D2D2D2D2D2D2D002D002D2D00002D2D00002D2D2D2D2D2D2D2D2D002D2D2D2D2D2D2D2D2D2D2D2D002D2D2D2D2D2D2D00000000000000000000000000000000F500000000000000000000000000000000000000
310
00000000000000000000000000000000000000000000000000000000000000000000000000000000000000000000000000000000000000000000000000000000000000F500000000000000000000000000000000000000000000000000000000000000000000000000000000000000000000000000000000000000BE000000
310
0000000000000000000000000000000000000000000000000000000000000000000000000000002D00002D2D2D2D2D2D2D2D2D2D002D002D2D00002D2D00002D2D2D2D2D2D2D2D002D2D2D2D2D2D2D2D2D2D2D2D2D2D002D2D2D2D2D2D00000000000000000000000000000000F50000000000000000000000000000000000
310
000000000000000000000000000000000000000000000000000000000000000000000000000000000000000000000000000000000000000000000000000000000000000000F500000000000000000000000000000000000000000000000000000000000000000000000000000000000000000000000000000000000000BE00
310
000000000000000000000000000000000000000000000000000000000000000000000000000000000000000000000000000000000000000000000000000000000000000000000000000000000000000000000000000000000000000000000000000000000000000000000000000000F5000000000000000000000000000000
310
0000000000000000000000000000000000000000000000000000000000000000000000000000000000000000000000000000000000000000000000000000000000000000000000F500000000000000000000000000000000000000000000000000000000000000000000000000000000000000000000000000000000000000
310
BE00000000000000000000000000000000000000000000000000000000000000000000000000000000000000000000000000000000000000000000000000000000000000000000000000000000000000000000000000000000000000000000000000000000000000000000000000000000F500000000000000000000000000
310
00000000000000000000000000000000000000000000000000000000000000000000000000000000000000000000000000000000000000000000000000000000000000000000000000F50000000000000000000000000000000000000000000000000000000000000000000000000000000000000000000000000000000000
310
00000000000000000000000000000000000000000000000000000000000000000000000000000000000000000000000000000000000000000000000000000000000000000000000000000000000000000000000000000000000000000000000000000000000000000000000000000000000000F50000000000000000000000
310
000000000000000000000000000000000000000000000000000000000000000000000000000000000000000000000000000000000000000000000000000000000000000000000000000000F5000000000000000000000000000000000000000000000000000000000000000000000000000000000000000000000000000000
310
000000000000000000000000000000000000000000000000000000000000000000000000000000000000000000000000000000000000000000000000000000000000000000000000000000000000000000000000000000000000000000000000000000000000000000000000000000000000000000F5000000000000000000
310
0000000000000000000000000000000000000000000000000000000000000000000000000000000000000000000000000000000000000000000000000000000000000000000000000000000000F500000000000000000000000000000000000000000000000000000000000000000000000000000000000000000000000000
310
0000000000000000000000000000000000000000000000000000000000000000000000000000000000000000000000000000000000000000000000000000000000000000000000000000000000000000000000000000000000000000000000000000000000000000000000000000000000000000000000F500000000000000
310
00000000000000000000000000000000000000000000000000000000000000000000000000000000000000000000000000000000000000000000000000000000000000000000000000000000000000F50000000000000000000000000000000000000000000000000000000000000000000000000000000000000000000000
310
00000000000000000000000000000000000000000000000000000000000000000000000000000000000000000000000000000000000000000000000000000000000000000000000000000000000000000000000000000000000000000000000000000000000000000000000000000000000000000000000000F50000000000
310
000000000000000000000000000000000000000000000000000000000000000000000000000000000000000000000000000000000000000000000000000000000000000000000000000000000000000000F5000000000000000000000000000000000000000000000000000000000000000000000000000000000000000000
310
000000000000000000000000000000000000000000000000000000000000000000000000000000000000000000000000000000000000000000000000000000000000000000000000000000000000000000000000000000000000000000000000000000000000000000000000000000000000000000000000000000F5000000
310
0000000000000000000000000000000000000000000000000000000000000000000000000000000000000000000000000000000000000000000000000000000000000000000000000000000000000000000000F500000000000000000000000000000000000000000000000000000000000000000000000000000000000000
310
0000000000000000000000000000000000000000000000000000000000000000000000000000000000000000000000000000000000000000000000000000000000000000000000000000000000000000000000000000000000000000000000000000000000000000000000000000000000000000000000000000000000F500
310
00000000000000000000000000000000000000000000000000000000000000000000000000000000000000000000000000000000000000000000000000000000000000000000000000000000000000000000000000F5F5F5F5F5F5F5F5F5F5F5F5F5F5F5F5F5F5F5F5F5F5F5F5F5F5F5F5F5F5F5F5F5F5F5F5F5F5F5F5F5F5
310
F5F5F5F5F5F5F5F5F5F5F5F5F5F5F5F5F5F5F5F5F5F5F5F5F5F5F5F5F5F5F5F5F5F5F5F5F5F5F5F5F5F5F5F5F5F5F5F5F5F5F5F5F5F5F5F5F5F5F5F5F5F5F5F5F5F5F5F5F5F5F5F5F5F5F5F5F5F5F5F5F5F5F5F5F5F5F5F5F5F5F5F5F5F5F5F5F5F5F5F5F5F5F5F5F5F5F5F5F5F5F5F5F5F5F5F5F5F5F5F5F5F5F5F5F5F5F5
310
F50000000000000000000000000000000000000000000000000000000000000000000000000000000000000000000000000000000000000000000000000000000000000000000000000000000000000000000000000000F5F5F5F5F5F5F5F5F5F5F5F5F5F5F5F5F5F5F5F5F5F5F5F5F5F5F5F5F5F5F5F5F5F5F5F5F5F5F5F5
310
F5F5F5F5F5F5F5F5F5F5F5F5F5F5F5F5F5F5F5F5F5F5F5F5F5F5F5F5F5F5F5F5F5F5F5F5F5F5F5F5F5F5F5F5F5F5F5F5F5F5F5F5F5F5F5F5F5F5F5F5F5F5F5F5F5F5F5F5F5F5F5F5F5F5F5F5F5F5F5F5F5F5F5F5F5F5F5F5F5F5F5F5F5F5F5F5F5F5F5F5F5F5F5F5F5F5F5F5F5F5F5F5F5F5F5F5F5F5F5F5F5F5F5F5F5F5F5
310
F5F5F500000000000000000000000000000000000000000000000000000000000000000000000000000000000000
  0
XRECORD
  5
2314
102
{ACAD_REACTORS
330
2312
102
}
330
2312
100
AcDbXrecord
280
     1
270
     1
271
     1
  0
XRECORD
  5
2313
102
{ACAD_REACTORS
330
2312
102
}
330
2312
100
AcDbXrecord
280
     1
270
     1
271
     1
  0
XRECORD
  5
2317
102
{ACAD_REACTORS
330
2312
102
}
330
2312
100
AcDbXrecord
280
     1
270
     1
271
     1
  0
XRECORD
  5
2316
102
{ACAD_REACTORS
330
2312
102
}
330
2312
100
AcDbXrecord
280
     1
270
     1
271
     1
  0
XRECORD
  5
2318
102
{ACAD_REACTORS
330
2312
102
}
330
2312
100
AcDbXrecord
280
     1
270
     1
271
     1
  0
XRECORD
  5
2315
102
{ACAD_REACTORS
330
2312
102
}
330
2312
100
AcDbXrecord
280
     1
270
     1
271
     1
  0
XRECORD
  5
230C
102
{ACAD_REACTORS
330
230A
102
}
330
230A
100
AcDbXrecord
280
     1
270
     1
271
     1
  0
XRECORD
  5
230B
102
{ACAD_REACTORS
330
230A
102
}
330
230A
100
AcDbXrecord
280
     1
270
     1
271
     1
  0
XRECORD
  5
230F
102
{ACAD_REACTORS
330
230A
102
}
330
230A
100
AcDbXrecord
280
     1
270
     1
271
     1
  0
XRECORD
  5
230E
102
{ACAD_REACTORS
330
230A
102
}
330
230A
100
AcDbXrecord
280
     1
270
     1
271
     1
  0
XRECORD
  5
2310
102
{ACAD_REACTORS
330
230A
102
}
330
230A
100
AcDbXrecord
280
     1
270
     1
271
     1
  0
XRECORD
  5
230D
102
{ACAD_REACTORS
330
230A
102
}
330
230A
100
AcDbXrecord
280
     1
270
     1
271
     1
  0
XRECORD
  5
231C
102
{ACAD_REACTORS
330
231A
102
}
330
231A
100
AcDbXrecord
280
     1
270
     1
271
     1
  0
XRECORD
  5
231B
102
{ACAD_REACTORS
330
231A
102
}
330
231A
100
AcDbXrecord
280
     1
270
     1
271
     1
  0
XRECORD
  5
231F
102
{ACAD_REACTORS
330
231A
102
}
330
231A
100
AcDbXrecord
280
     1
270
     1
271
     1
  0
XRECORD
  5
231E
102
{ACAD_REACTORS
330
231A
102
}
330
231A
100
AcDbXrecord
280
     1
270
     1
271
     1
  0
XRECORD
  5
2320
102
{ACAD_REACTORS
330
231A
102
}
330
231A
100
AcDbXrecord
280
     1
270
     1
271
     1
  0
XRECORD
  5
231D
102
{ACAD_REACTORS
330
231A
102
}
330
231A
100
AcDbXrecord
280
     1
270
     1
271
     1
  0
CELLSTYLEMAP
  5
245C
102
{ACAD_REACTORS
330
245B
102
}
330
245B
100
AcDbCellStyleMap
 90
        3
300
CELLSTYLE
  1
TABLEFORMAT_BEGIN
 90
        5
170
     1
 91
        0
 92
    32768
 62
   257
 93
        1
300
CONTENTFORMAT
  1
CONTENTFORMAT_BEGIN
 90
        0
 91
        0
 92
      512
 93
        0
300

 40
0.0
140
1.0
 94
        5
 62
     0
340
10
144
6.0
309
CONTENTFORMAT_END
171
     1
301
MARGIN
  1
CELLMARGIN_BEGIN
 40
1.5
 40
1.5
 40
1.5
 40
1.5
 40
4.5
 40
4.5
309
CELLMARGIN_END
 94
        6
 95
        1
302
GRIDFORMAT
  1
GRIDFORMAT_BEGIN
 90
        0
 91
        1
 62
     0
 92
       -2
340
0
 93
        0
 40
1.125
309
GRIDFORMAT_END
 95
        2
302
GRIDFORMAT
  1
GRIDFORMAT_BEGIN
 90
        0
 91
        1
 62
     0
 92
       -2
340
0
 93
        0
 40
1.125
309
GRIDFORMAT_END
 95
        4
302
GRIDFORMAT
  1
GRIDFORMAT_BEGIN
 90
        0
 91
        1
 62
     0
 92
       -2
340
0
 93
        0
 40
1.125
309
GRIDFORMAT_END
 95
        8
302
GRIDFORMAT
  1
GRIDFORMAT_BEGIN
 90
        0
 91
        1
 62
     0
 92
       -2
340
0
 93
        0
 40
1.125
309
GRIDFORMAT_END
 95
       16
302
GRIDFORMAT
  1
GRIDFORMAT_BEGIN
 90
        0
 91
        1
 62
     0
 92
       -2
340
0
 93
        0
 40
1.125
309
GRIDFORMAT_END
 95
       32
302
GRIDFORMAT
  1
GRIDFORMAT_BEGIN
 90
        0
 91
        1
 62
     0
 92
       -2
340
0
 93
        0
 40
1.125
309
GRIDFORMAT_END
309
TABLEFORMAT_END
  1
CELLSTYLE_BEGIN
 90
        1
 91
        1
300
_TITLE
309
CELLSTYLE_END
300
CELLSTYLE
  1
TABLEFORMAT_BEGIN
 90
        5
170
     1
 91
        0
 92
        0
 62
   257
 93
        1
300
CONTENTFORMAT
  1
CONTENTFORMAT_BEGIN
 90
        0
 91
        0
 92
      512
 93
        0
300

 40
0.0
140
1.0
 94
        5
 62
     0
340
10
144
4.5
309
CONTENTFORMAT_END
171
     1
301
MARGIN
  1
CELLMARGIN_BEGIN
 40
1.5
 40
1.5
 40
1.5
 40
1.5
 40
4.5
 40
4.5
309
CELLMARGIN_END
 94
        6
 95
        1
302
GRIDFORMAT
  1
GRIDFORMAT_BEGIN
 90
        0
 91
        1
 62
     0
 92
       -2
340
0
 93
        0
 40
1.125
309
GRIDFORMAT_END
 95
        2
302
GRIDFORMAT
  1
GRIDFORMAT_BEGIN
 90
        0
 91
        1
 62
     0
 92
       -2
340
0
 93
        0
 40
1.125
309
GRIDFORMAT_END
 95
        4
302
GRIDFORMAT
  1
GRIDFORMAT_BEGIN
 90
        0
 91
        1
 62
     0
 92
       -2
340
0
 93
        0
 40
1.125
309
GRIDFORMAT_END
 95
        8
302
GRIDFORMAT
  1
GRIDFORMAT_BEGIN
 90
        0
 91
        1
 62
     0
 92
       -2
340
0
 93
        0
 40
1.125
309
GRIDFORMAT_END
 95
       16
302
GRIDFORMAT
  1
GRIDFORMAT_BEGIN
 90
        0
 91
        1
 62
     0
 92
       -2
340
0
 93
        0
 40
1.125
309
GRIDFORMAT_END
 95
       32
302
GRIDFORMAT
  1
GRIDFORMAT_BEGIN
 90
        0
 91
        1
 62
     0
 92
       -2
340
0
 93
        0
 40
1.125
309
GRIDFORMAT_END
309
TABLEFORMAT_END
  1
CELLSTYLE_BEGIN
 90
        2
 91
        1
300
_HEADER
309
CELLSTYLE_END
300
CELLSTYLE
  1
TABLEFORMAT_BEGIN
 90
        5
170
     1
 91
        0
 92
        0
 62
   257
 93
        1
300
CONTENTFORMAT
  1
CONTENTFORMAT_BEGIN
 90
        0
 91
        0
 92
      512
 93
        0
300

 40
0.0
140
1.0
 94
        2
 62
     0
340
10
144
4.5
309
CONTENTFORMAT_END
171
     1
301
MARGIN
  1
CELLMARGIN_BEGIN
 40
1.5
 40
1.5
 40
1.5
 40
1.5
 40
4.5
 40
4.5
309
CELLMARGIN_END
 94
        6
 95
        1
302
GRIDFORMAT
  1
GRIDFORMAT_BEGIN
 90
        0
 91
        1
 62
     0
 92
       -2
340
0
 93
        0
 40
1.125
309
GRIDFORMAT_END
 95
        2
302
GRIDFORMAT
  1
GRIDFORMAT_BEGIN
 90
        0
 91
        1
 62
     0
 92
       -2
340
0
 93
        0
 40
1.125
309
GRIDFORMAT_END
 95
        4
302
GRIDFORMAT
  1
GRIDFORMAT_BEGIN
 90
        0
 91
        1
 62
     0
 92
       -2
340
0
 93
        0
 40
1.125
309
GRIDFORMAT_END
 95
        8
302
GRIDFORMAT
  1
GRIDFORMAT_BEGIN
 90
        0
 91
        1
 62
     0
 92
       -2
340
0
 93
        0
 40
1.125
309
GRIDFORMAT_END
 95
       16
302
GRIDFORMAT
  1
GRIDFORMAT_BEGIN
 90
        0
 91
        1
 62
     0
 92
       -2
340
0
 93
        0
 40
1.125
309
GRIDFORMAT_END
 95
       32
302
GRIDFORMAT
  1
GRIDFORMAT_BEGIN
 90
        0
 91
        1
 62
     0
 92
       -2
340
0
 93
        0
 40
1.125
309
GRIDFORMAT_END
309
TABLEFORMAT_END
  1
CELLSTYLE_BEGIN
 90
        3
 91
        2
300
_DATA
309
CELLSTYLE_END
  0
ENDSEC
  0
EOF
