  0
SECTION
  2
HEADER
  9
$ACADVER
  1
AC1012
  9
$DWGCODEPAGE
  3
dos932
  9
$INSBASE
 10
0.0
 20
0.0
 30
0.0
  9
$EXTMIN
 10
5.0
 20
2.449000558492456
 30
0.0
  9
$EXTMAX
 10
403.0
 20
282.0
 30
0.0
  9
$LIMMIN
 10
0.0
 20
0.0
  9
$LIMMAX
 10
420.0
 20
297.0
  9
$ORTHOMODE
 70
     0
  9
$REGENMODE
 70
     1
  9
$FILLMODE
 70
     1
  9
$QTEXTMODE
 70
     0
  9
$MIRRTEXT
 70
     1
  9
$DRAGMODE
 70
     2
  9
$LTSCALE
 40
1.0
  9
$OSMODE
 70
    37
  9
$ATTMODE
 70
     1
  9
$TEXTSIZE
 40
2.5
  9
$TRACEWID
 40
1.0
  9
$TEXTSTYLE
  7
STANDARD
  9
$CLAYER
  8
ZUWAKU
  9
$CELTYPE
  6
BYLAYER
  9
$CECOLOR
 62
   256
  9
$CELTSCALE
 40
1.0
  9
$DELOBJ
 70
     1
  9
$DISPSILH
 70
     0
  9
$DIMSCALE
 40
1.0
  9
$DIMASZ
 40
3.0
  9
$DIMEXO
 40
3.0
  9
$DIMDLI
 40
7.0
  9
$DIMRND
 40
0.0
  9
$DIMDLE
 40
0.0
  9
$DIMEXE
 40
1.5
  9
$DIMTP
 40
0.0
  9
$DIMTM
 40
0.0
  9
$DIMTXT
 40
3.0
  9
$DIMCEN
 40
150.0
  9
$DIMTSZ
 40
0.0
  9
$DIMTOL
 70
     0
  9
$DIMLIM
 70
     0
  9
$DIMTIH
 70
     0
  9
$DIMTOH
 70
     0
  9
$DIMSE1
 70
     0
  9
$DIMSE2
 70
     0
  9
$DIMTAD
 70
     3
  9
$DIMZIN
 70
     0
  9
$DIMBLK
  1

  9
$DIMASO
 70
     1
  9
$DIMSHO
 70
     1
  9
$DIMPOST
  1

  9
$DIMAPOST
  1

  9
$DIMALT
 70
     0
  9
$DIMALTD
 70
     2
  9
$DIMALTF
 40
25.4
  9
$DIMLFAC
 40
1.0
  9
$DIMTOFL
 70
     1
  9
$DIMTVP
 40
0.0
  9
$DIMTIX
 70
     0
  9
$DIMSOXD
 70
     0
  9
$DIMSAH
 70
     1
  9
$DIMBLK1
  1
OPEN
  9
$DIMBLK2
  1
OPEN
  9
$DIMSTYLE
  2
STANDARD
  9
$DIMCLRD
 70
   256
  9
$DIMCLRE
 70
   256
  9
$DIMCLRT
 70
   256
  9
$DIMTFAC
 40
1.0
  9
$DIMGAP
 40
1.0
  9
$DIMJUST
 70
     0
  9
$DIMSD1
 70
     0
  9
$DIMSD2
 70
     0
  9
$DIMTOLJ
 70
     1
  9
$DIMTZIN
 70
     0
  9
$DIMALTZ
 70
     0
  9
$DIMALTTZ
 70
     0
  9
$DIMFIT
 70
     3
  9
$DIMUPT
 70
     0
  9
$DIMUNIT
 70
     2
  9
$DIMDEC
 70
     0
  9
$DIMTDEC
 70
     0
  9
$DIMALTU
 70
     2
  9
$DIMALTTD
 70
     2
  9
$DIMTXSTY
  7
STANDARD
  9
$DIMAUNIT
 70
     0
  9
$LUNITS
 70
     2
  9
$LUPREC
 70
     4
  9
$SKETCHINC
 40
1.0
  9
$FILLETRAD
 40
10.0
  9
$AUNITS
 70
     0
  9
$AUPREC
 70
     0
  9
$MENU
  1
.
  9
$ELEVATION
 40
0.0
  9
$PELEVATION
 40
0.0
  9
$THICKNESS
 40
0.0
  9
$LIMCHECK
 70
     0
  9
$BLIPMODE
 70
     0
  9
$CHAMFERA
 40
10.0
  9
$CHAMFERB
 40
10.0
  9
$CHAMFERC
 40
20.0
  9
$CHAMFERD
 40
0.0
  9
$SKPOLY
 70
     0
  9
$TDCREATE
 40
2451043.441092940
  9
$TDUPDATE
 40
2452393.846238414
  9
$TDINDWG
 40
0.0077398148
  9
$TDUSRTIMER
 40
0.0077398148
  9
$USRTIMER
 70
     1
  9
$ANGBASE
 50
0.0
  9
$ANGDIR
 70
     0
  9
$PDMODE
 70
     0
  9
$PDSIZE
 40
0.0
  9
$PLINEWID
 40
0.0
  9
$COORDS
 70
     1
  9
$SPLFRAME
 70
     0
  9
$SPLINETYPE
 70
     6
  9
$SPLINESEGS
 70
     8
  9
$ATTDIA
 70
     0
  9
$ATTREQ
 70
     1
  9
$HANDLING
 70
 10241
  9
$HANDSEED
  5
547
  9
$SURFTAB1
 70
     6
  9
$SURFTAB2
 70
     6
  9
$SURFTYPE
 70
     6
  9
$SURFU
 70
     6
  9
$SURFV
 70
     6
  9
$UCSNAME
  2

  9
$UCSORG
 10
0.0
 20
0.0
 30
0.0
  9
$UCSXDIR
 10
1.0
 20
0.0
 30
0.0
  9
$UCSYDIR
 10
0.0
 20
1.0
 30
0.0
  9
$PUCSNAME
  2

  9
$PUCSORG
 10
0.0
 20
0.0
 30
0.0
  9
$PUCSXDIR
 10
1.0
 20
0.0
 30
0.0
  9
$PUCSYDIR
 10
0.0
 20
1.0
 30
0.0
  9
$USERI1
 70
     0
  9
$USERI2
 70
     0
  9
$USERI3
 70
     0
  9
$USERI4
 70
     0
  9
$USERI5
 70
     0
  9
$USERR1
 40
0.0
  9
$USERR2
 40
0.0
  9
$USERR3
 40
0.0
  9
$USERR4
 40
0.0
  9
$USERR5
 40
0.0
  9
$WORLDVIEW
 70
     1
  9
$SHADEDGE
 70
     3
  9
$SHADEDIF
 70
    70
  9
$TILEMODE
 70
     1
  9
$MAXACTVP
 70
    16
  9
$PINSBASE
 10
0.0
 20
0.0
 30
0.0
  9
$PLIMCHECK
 70
     0
  9
$PEXTMIN
 10
0.0
 20
0.0
 30
0.0
  9
$PEXTMAX
 10
420.0
 20
297.0
 30
0.0
  9
$PLIMMIN
 10
0.0
 20
0.0
  9
$PLIMMAX
 10
420.0
 20
297.0
  9
$UNITMODE
 70
     0
  9
$VISRETAIN
 70
     0
  9
$PLINEGEN
 70
     0
  9
$PSLTSCALE
 70
     1
  9
$TREEDEPTH
 70
  3020
  9
$PICKSTYLE
 70
     1
  9
$CMLSTYLE
  2
STANDARD
  9
$CMLJUST
 70
     0
  9
$CMLSCALE
 40
1.0
  9
$SAVEIMAGES
 70
     1
  0
ENDSEC
  0
SECTION
  2
CLASSES
  0
CLASS
  1
ACDBDICTIONARYWDFLT
  2
AcDbDictionaryWithDefault
  3
AutoCAD 2000
 90
    32768
280
     0
281
     0
  0
CLASS
  1
ACDBPLACEHOLDER
  2
AcDbPlaceHolder
  3
AutoCAD 2000
 90
    32768
280
     0
281
     0
  0
CLASS
  1
LAYOUT
  2
AcDbLayout
  3
AutoCAD 2000
 90
    32768
280
     0
281
     0
  0
CLASS
  1
LONG_TRANSACTION
  2
AcDbLongTransaction
  3
AutoCAD 2000
 90
    32768
280
     0
281
     0
  0
CLASS
  1
LWPOLYLINE
  2
AcDbPolyline
  3
AutoCAD 2000
 90
    32768
280
     0
281
     1
  0
CLASS
  1
HATCH
  2
AcDbHatch
  3
AutoCAD 2000
 90
    32768
280
     0
281
     1
  0
CLASS
  1
XRECORD
  2
AcDbXrecord
  3
AutoCAD 2000
 90
    32768
280
     0
281
     0
  0
CLASS
  1
LONG_TRANSACTION
  2
AcDbLongTransaction
  3
AutoCAD 2000
 90
    32768
280
     0
281
     0
  0
CLASS
  1
LWPOLYLINE
  2
AcDbPolyline
  3
AutoCAD 2000
 90
    32768
280
     0
281
     1
  0
CLASS
  1
HATCH
  2
AcDbHatch
  3
AutoCAD 2000
 90
    32768
280
     0
281
     1
  0
CLASS
  1
XRECORD
  2
AcDbXrecord
  3
AutoCAD 2000
 90
    32768
280
     0
281
     0
  0
CLASS
  1
LONG_TRANSACTION
  2
AcDbLongTransaction
  3
AutoCAD 2000
 90
    32768
280
     0
281
     0
  0
CLASS
  1
LWPOLYLINE
  2
AcDbPolyline
  3
AutoCAD 2000
 90
    32768
280
     0
281
     1
  0
CLASS
  1
HATCH
  2
AcDbHatch
  3
AutoCAD 2000
 90
    32768
280
     0
281
     1
  0
CLASS
  1
XRECORD
  2
AcDbXrecord
  3
AutoCAD 2000
 90
    32768
280
     0
281
     0
  0
ENDSEC
  0
SECTION
  2
TABLES
  0
TABLE
  2
VPORT
  5
8
330
0
100
AcDbSymbolTable
 70
     2
  0
VPORT
  5
544
330
8
100
AcDbSymbolTableRecord
100
AcDbViewportTableRecord
  2
*ACTIVE
 70
     0
 10
0.0
 20
0.0
 11
1.0
 21
1.0
 12
263.9558851753035
 22
143.2375970870787
 13
0.0
 23
0.0
 14
5.0
 24
5.0
 15
0.0
 25
0.0
 16
0.0
 26
0.0
 36
1.0
 17
0.0
 27
0.0
 37
0.0
 40
287.4910380225622
 41
2.169459962756052
 42
50.0
 43
0.0
 44
0.0
 50
0.0
 51
0.0
 71
     0
 72
   100
 73
     1
 74
     0
 75
     0
 76
     0
 77
     0
 78
     0
  0
ENDTAB
  0
TABLE
  2
LTYPE
  5
5
330
0
100
AcDbSymbolTable
 70
     2
  0
LTYPE
  5
14
330
5
100
AcDbSymbolTableRecord
100
AcDbLinetypeTableRecord
  2
BYBLOCK
 70
     0
  3

 72
    65
 73
     0
 40
0.0
  0
LTYPE
  5
15
330
5
100
AcDbSymbolTableRecord
100
AcDbLinetypeTableRecord
  2
BYLAYER
 70
     0
  3

 72
    65
 73
     0
 40
0.0
  0
LTYPE
  5
16
330
5
100
AcDbSymbolTableRecord
100
AcDbLinetypeTableRecord
  2
CONTINUOUS
 70
     0
  3
Solid line
 72
    65
 73
     0
 40
0.0
  0
LTYPE
  5
120
330
5
100
AcDbSymbolTableRecord
100
AcDbLinetypeTableRecord
  2
CENTER
 70
     0
  3
____ _ ____ _ ____ _ ____ _ ____ _ ____ _ ____ 
 72
    65
 73
     4
 40
2.0
 49
1.25
 74
     0
 49
-0.25
 74
     0
 49
0.25
 74
     0
 49
-0.25
 74
     0
  0
ENDTAB
  0
TABLE
  2
LAYER
  5
2
330
0
100
AcDbSymbolTable
 70
     7
  0
LAYER
  5
F
330
2
100
AcDbSymbolTableRecord
100
AcDbLayerTableRecord
  2
0
 70
     0
 62
     7
  6
CONTINUOUS
  0
LAYER
  5
62
330
2
100
AcDbSymbolTableRecord
100
AcDbLayerTableRecord
  2
VIEWPORT
 70
     0
 62
     7
  6
CONTINUOUS
  0
LAYER
  5
6B
330
2
100
AcDbSymbolTableRecord
100
AcDbLayerTableRecord
  2
ZUWAKU
 70
     0
 62
     7
  6
CONTINUOUS
  0
LAYER
  5
190
330
2
100
AcDbSymbolTableRecord
100
AcDbLayerTableRecord
  2
SEIHIN
 70
     0
 62
     3
  6
CONTINUOUS
  0
LAYER
  5
191
330
2
100
AcDbSymbolTableRecord
100
AcDbLayerTableRecord
  2
SUNPOU
 70
     0
 62
     4
  6
CONTINUOUS
  0
LAYER
  5
192
330
2
100
AcDbSymbolTableRecord
100
AcDbLayerTableRecord
  2
CENTER_L
 70
     0
 62
     1
  6
CENTER
  0
LAYER
  5
193
330
2
100
AcDbSymbolTableRecord
100
AcDbLayerTableRecord
  2
DEFPOINTS
 70
     0
 62
     7
  6
CONTINUOUS
  0
ENDTAB
  0
TABLE
  2
STYLE
  5
3
330
0
100
AcDbSymbolTable
 70
     1
  0
STYLE
  5
10
330
3
100
AcDbSymbolTableRecord
100
AcDbTextStyleTableRecord
  2
STANDARD
 70
     0
 40
0.0
 41
1.0
 50
0.0
 71
     0
 42
2.5
  3
TXT
  4
bigfont.shx
  0
ENDTAB
  0
TABLE
  2
VIEW
  5
6
330
0
100
AcDbSymbolTable
 70
     0
  0
ENDTAB
  0
TABLE
  2
UCS
  5
7
330
0
100
AcDbSymbolTable
 70
     0
  0
ENDTAB
  0
TABLE
  2
APPID
  5
9
330
0
100
AcDbSymbolTable
 70
     1
  0
APPID
  5
11
330
9
100
AcDbSymbolTableRecord
100
AcDbRegAppTableRecord
  2
ACAD
 70
     0
  0
ENDTAB
  0
TABLE
  2
DIMSTYLE
  5
A
330
0
100
AcDbSymbolTable
 70
     1
  0
DIMSTYLE
105
1D
102
{ACAD_REACTORS
330
2C2
330
2E5
330
2F2
330
2FF
330
30C
330
319
330
322
102
}
330
A
100
AcDbSymbolTableRecord
100
AcDbDimStyleTableRecord
  2
STANDARD
 70
     0
  3

  4

  5

  6

  7

 40
1.0
 41
0.18
 42
0.0625
 43
0.38
 44
0.18
 45
0.0
 46
0.0
 47
0.0
 48
0.0
140
0.18
141
0.09
142
0.0
143
25.4
144
1.0
145
0.0
146
1.0
147
0.09
 71
     0
 72
     0
 73
     1
 74
     1
 75
     0
 76
     0
 77
     0
 78
     0
170
     0
171
     2
172
     0
173
     0
174
     0
175
     0
176
     0
177
     0
178
     0
270
     2
271
     4
272
     4
273
     2
274
     2
340
10
275
     0
280
     0
281
     0
282
     0
283
     1
284
     0
285
     0
286
     0
287
     3
288
     0
  0
ENDTAB
  0
TABLE
  2
BLOCK_RECORD
  5
1
330
0
100
AcDbSymbolTable
 70
     8
  0
BLOCK_RECORD
  5
1A
102
{ACAD_XDICTIONARY
360
4CC
102
}
330
1
100
AcDbSymbolTableRecord
100
AcDbBlockTableRecord
  2
*MODEL_SPACE
  0
BLOCK_RECORD
  5
17
102
{ACAD_XDICTIONARY
360
4CA
102
}
330
1
100
AcDbSymbolTableRecord
100
AcDbBlockTableRecord
  2
*PAPER_SPACE
  0
BLOCK_RECORD
  5
B2
330
1
100
AcDbSymbolTableRecord
100
AcDbBlockTableRecord
  2
_OPEN
  0
BLOCK_RECORD
  5
2B6
330
1
100
AcDbSymbolTableRecord
100
AcDbBlockTableRecord
  2
*D1
  0
BLOCK_RECORD
  5
2D9
330
1
100
AcDbSymbolTableRecord
100
AcDbBlockTableRecord
  2
*D2
  0
BLOCK_RECORD
  5
2E6
330
1
100
AcDbSymbolTableRecord
100
AcDbBlockTableRecord
  2
*D3
  0
BLOCK_RECORD
  5
2F3
330
1
100
AcDbSymbolTableRecord
100
AcDbBlockTableRecord
  2
*D4
  0
BLOCK_RECORD
  5
300
330
1
100
AcDbSymbolTableRecord
100
AcDbBlockTableRecord
  2
*D5
  0
BLOCK_RECORD
  5
30D
330
1
100
AcDbSymbolTableRecord
100
AcDbBlockTableRecord
  2
*D6
  0
BLOCK_RECORD
  5
31A
330
1
100
AcDbSymbolTableRecord
100
AcDbBlockTableRecord
  2
*D7
  0
ENDTAB
  0
ENDSEC
  0
SECTION
  2
BLOCKS
  0
BLOCK
  5
1B
330
1A
100
AcDbEntity
  8
0
100
AcDbBlockBegin
  2
*MODEL_SPACE
 70
     0
 10
0.0
 20
0.0
 30
0.0
  3
*MODEL_SPACE
  1

  0
ENDBLK
  5
1C
330
1A
100
AcDbEntity
  8
0
100
AcDbBlockEnd
  0
BLOCK
  5
18
330
17
100
AcDbEntity
 67
     1
  8
0
100
AcDbBlockBegin
  2
*PAPER_SPACE
 70
     0
 10
0.0
 20
0.0
 30
0.0
  3
*PAPER_SPACE
  1

  0
ENDBLK
  5
19
330
17
100
AcDbEntity
 67
     1
  8
0
100
AcDbBlockEnd
  0
BLOCK
  5
B3
330
B2
100
AcDbEntity
  8
0
100
AcDbBlockBegin
  2
_OPEN
 70
     0
 10
0.0
 20
0.0
 30
0.0
  3
_OPEN
  1

  0
LINE
  5
B4
330
B2
100
AcDbEntity
  8
0
  6
BYBLOCK
 62
     0
100
AcDbLine
 10
-1.0
 20
0.1666666666666666
 30
0.0
 11
0.0
 21
0.0
 31
0.0
  0
LINE
  5
B5
330
B2
100
AcDbEntity
  8
0
  6
BYBLOCK
 62
     0
100
AcDbLine
 10
0.0
 20
0.0
 30
0.0
 11
-1.0
 21
-0.1666666666666666
 31
0.0
  0
LINE
  5
B6
330
B2
100
AcDbEntity
  8
0
  6
BYBLOCK
 62
     0
100
AcDbLine
 10
0.0
 20
0.0
 30
0.0
 11
-1.0
 21
0.0
 31
0.0
  0
ENDBLK
  5
B7
330
B2
100
AcDbEntity
  8
0
100
AcDbBlockEnd
  0
BLOCK
  5
2B7
330
2B6
100
AcDbEntity
  8
0
100
AcDbBlockBegin
  2
*D1
 70
     1
 10
0.0
 20
0.0
 30
0.0
  3
*D1
  1

  0
LINE
  5
4D4
330
2B6
100
AcDbEntity
  8
SUNPOU
100
AcDbLine
 10
196.6061374756324
 20
134.0841409949032
 30
0.0
 11
219.9278031857775
 21
134.0841409949032
 31
0.0
  0
LINE
  5
4D5
330
2B6
100
AcDbEntity
  8
SUNPOU
100
AcDbLine
 10
196.6061374756324
 20
87.0841409949034
 30
0.0
 11
219.9278031857775
 21
87.0841409949034
 31
0.0
  0
LINE
  5
4D6
330
2B6
100
AcDbEntity
  8
SUNPOU
100
AcDbLine
 10
218.4278031857775
 20
131.0841409949032
 30
0.0
 11
218.4278031857775
 21
90.08414099490341
 31
0.0
  0
INSERT
  5
4D7
330
2B6
100
AcDbEntity
  8
SUNPOU
100
AcDbBlockReference
  2
_OPEN
 10
218.4278031857775
 20
134.0841409949032
 30
0.0
 41
3.0
 42
3.0
 43
3.0
 50
90.0
  0
INSERT
  5
4D8
330
2B6
100
AcDbEntity
  8
SUNPOU
100
AcDbBlockReference
  2
_OPEN
 10
218.4278031857775
 20
87.0841409949034
 30
0.0
 41
3.0
 42
3.0
 43
3.0
 50
270.0
  0
MTEXT
  5
4D9
330
2B6
100
AcDbEntity
  8
SUNPOU
100
AcDbMText
 10
215.9278031857775
 20
110.5841409949033
 30
0.0
 40
3.0
 41
0.0
 71
     5
 72
     1
  1
\A1;47
 11
0.0000000000000001
 21
1.0
 31
0.0
1001
ACAD
1000
MTEXTBEGIN
1070
    73
1070
     1
1070
    44
1040
1.0
1070
    74
1070
     0
1000
MTEXTEND
1000
MTEXTBEGIN
1070
    73
1070
     1
1070
    44
1040
1.0
1070
    74
1070
     0
1000
MTEXTEND
  0
POINT
  5
4DA
330
2B6
100
AcDbEntity
  8
DEFPOINTS
 62
     0
100
AcDbPoint
 10
193.6061374756324
 20
134.0841409949032
 30
0.0
  0
POINT
  5
4DB
330
2B6
100
AcDbEntity
  8
DEFPOINTS
 62
     0
100
AcDbPoint
 10
193.6061374756324
 20
87.0841409949034
 30
0.0
  0
POINT
  5
4DC
330
2B6
100
AcDbEntity
  8
DEFPOINTS
 62
     0
100
AcDbPoint
 10
218.4278031857775
 20
87.0841409949034
 30
0.0
  0
ENDBLK
  5
2C1
330
2B6
100
AcDbEntity
  8
0
100
AcDbBlockEnd
  0
BLOCK
  5
2DA
330
2D9
100
AcDbEntity
  8
0
100
AcDbBlockBegin
  2
*D2
 70
     1
 10
0.0
 20
0.0
 30
0.0
  3
*D2
  1

  0
LINE
  5
4DD
330
2D9
100
AcDbEntity
  8
SUNPOU
100
AcDbLine
 10
191.6062374756326
 20
187.0841409949032
 30
0.0
 11
231.1124566128601
 21
187.0841409949031
 31
0.0
  0
LINE
  5
4DE
330
2D9
100
AcDbEntity
  8
SUNPOU
100
AcDbLine
 10
196.6061374756324
 20
87.0841409949034
 30
0.0
 11
231.1124566128601
 21
87.08414099490338
 31
0.0
  0
LINE
  5
4DF
330
2D9
100
AcDbEntity
  8
SUNPOU
100
AcDbLine
 10
229.6124566128601
 20
184.0841409949032
 30
0.0
 11
229.6124566128601
 21
90.08414099490339
 31
0.0
  0
INSERT
  5
4E0
330
2D9
100
AcDbEntity
  8
SUNPOU
100
AcDbBlockReference
  2
_OPEN
 10
229.6124566128601
 20
187.0841409949031
 30
0.0
 41
3.0
 42
3.0
 43
3.0
 50
90.0
  0
INSERT
  5
4E1
330
2D9
100
AcDbEntity
  8
SUNPOU
100
AcDbBlockReference
  2
_OPEN
 10
229.6124566128601
 20
87.08414099490338
 30
0.0
 41
3.0
 42
3.0
 43
3.0
 50
270.0
  0
MTEXT
  5
4E2
330
2D9
100
AcDbEntity
  8
SUNPOU
100
AcDbMText
 10
227.11245661286
 20
137.0841409949033
 30
0.0
 40
3.0
 41
0.0
 71
     5
 72
     1
  1
\A1;100
 11
0.0000000000000001
 21
1.0
 31
0.0
1001
ACAD
1000
MTEXTBEGIN
1070
    73
1070
     1
1070
    44
1040
1.0
1070
    74
1070
     0
1000
MTEXTEND
1000
MTEXTBEGIN
1070
    73
1070
     1
1070
    44
1040
1.0
1070
    74
1070
     0
1000
MTEXTEND
  0
POINT
  5
4E3
330
2D9
100
AcDbEntity
  8
DEFPOINTS
 62
     0
100
AcDbPoint
 10
188.6062374756326
 20
187.0841409949032
 30
0.0
  0
POINT
  5
4E4
330
2D9
100
AcDbEntity
  8
DEFPOINTS
 62
     0
100
AcDbPoint
 10
193.6061374756324
 20
87.0841409949034
 30
0.0
  0
POINT
  5
4E5
330
2D9
100
AcDbEntity
  8
DEFPOINTS
 62
     0
100
AcDbPoint
 10
229.6124566128601
 20
87.08414099490338
 30
0.0
  0
ENDBLK
  5
2E4
330
2D9
100
AcDbEntity
  8
0
100
AcDbBlockEnd
  0
BLOCK
  5
2E7
330
2E6
100
AcDbEntity
  8
0
100
AcDbBlockBegin
  2
*D3
 70
     1
 10
0.0
 20
0.0
 30
0.0
  3
*D3
  1

  0
LINE
  5
4E6
330
2E6
100
AcDbEntity
  8
SUNPOU
100
AcDbLine
 10
318.6062374756326
 20
190.0841409949032
 30
0.0
 11
318.6062374756326
 21
215.9114443640289
 31
0.0
  0
LINE
  5
4E7
330
2E6
100
AcDbEntity
  8
SUNPOU
100
AcDbLine
 10
278.6062374756326
 20
190.0842409949033
 30
0.0
 11
278.6062374756326
 21
215.9114443640289
 31
0.0
  0
LINE
  5
4E8
330
2E6
100
AcDbEntity
  8
SUNPOU
100
AcDbLine
 10
315.6062374756326
 20
214.4114443640289
 30
0.0
 11
281.6062374756326
 21
214.4114443640289
 31
0.0
  0
INSERT
  5
4E9
330
2E6
100
AcDbEntity
  8
SUNPOU
100
AcDbBlockReference
  2
_OPEN
 10
318.6062374756326
 20
214.4114443640289
 30
0.0
 41
3.0
 42
3.0
 43
3.0
  0
INSERT
  5
4EA
330
2E6
100
AcDbEntity
  8
SUNPOU
100
AcDbBlockReference
  2
_OPEN
 10
278.6062374756326
 20
214.4114443640289
 30
0.0
 41
3.0
 42
3.0
 43
3.0
 50
180.0
  0
MTEXT
  5
4EB
330
2E6
100
AcDbEntity
  8
SUNPOU
100
AcDbMText
 10
298.6062374756326
 20
216.9114443640289
 30
0.0
 40
3.0
 41
0.0
 71
     5
 72
     1
  1
\A1;40
1001
ACAD
1000
MTEXTBEGIN
1070
    73
1070
     1
1070
    44
1040
1.0
1070
    74
1070
     0
1000
MTEXTEND
1000
MTEXTBEGIN
1070
    73
1070
     1
1070
    44
1040
1.0
1070
    74
1070
     0
1000
MTEXTEND
  0
POINT
  5
4EC
330
2E6
100
AcDbEntity
  8
DEFPOINTS
 62
     0
100
AcDbPoint
 10
318.6062374756326
 20
187.0841409949032
 30
0.0
  0
POINT
  5
4ED
330
2E6
100
AcDbEntity
  8
DEFPOINTS
 62
     0
100
AcDbPoint
 10
278.6062374756326
 20
187.0842409949034
 30
0.0
  0
POINT
  5
4EE
330
2E6
100
AcDbEntity
  8
DEFPOINTS
 62
     0
100
AcDbPoint
 10
278.6062374756326
 20
214.4114443640289
 30
0.0
  0
ENDBLK
  5
2F1
330
2E6
100
AcDbEntity
  8
0
100
AcDbBlockEnd
  0
BLOCK
  5
2F4
330
2F3
100
AcDbEntity
  8
0
100
AcDbBlockBegin
  2
*D4
 70
     1
 10
0.0
 20
0.0
 30
0.0
  3
*D4
  1

  0
LINE
  5
4EF
330
2F3
100
AcDbEntity
  8
SUNPOU
100
AcDbLine
 10
188.6062374756326
 20
190.0841409949032
 30
0.0
 11
188.6062374756326
 21
215.9114443640289
 31
0.0
  0
LINE
  5
4F0
330
2F3
100
AcDbEntity
  8
SUNPOU
100
AcDbLine
 10
123.6062374756326
 20
190.0841409949032
 30
0.0
 11
123.6062374756326
 21
215.9114443640289
 31
0.0
  0
LINE
  5
4F1
330
2F3
100
AcDbEntity
  8
SUNPOU
100
AcDbLine
 10
185.6062374756326
 20
214.4114443640289
 30
0.0
 11
126.6062374756326
 21
214.4114443640289
 31
0.0
  0
INSERT
  5
4F2
330
2F3
100
AcDbEntity
  8
SUNPOU
100
AcDbBlockReference
  2
_OPEN
 10
188.6062374756326
 20
214.4114443640289
 30
0.0
 41
3.0
 42
3.0
 43
3.0
  0
INSERT
  5
4F3
330
2F3
100
AcDbEntity
  8
SUNPOU
100
AcDbBlockReference
  2
_OPEN
 10
123.6062374756326
 20
214.4114443640289
 30
0.0
 41
3.0
 42
3.0
 43
3.0
 50
180.0
  0
MTEXT
  5
4F4
330
2F3
100
AcDbEntity
  8
SUNPOU
100
AcDbMText
 10
156.1062374756326
 20
216.9114443640289
 30
0.0
 40
3.0
 41
0.0
 71
     5
 72
     1
  1
\A1;65
1001
ACAD
1000
MTEXTBEGIN
1070
    73
1070
     1
1070
    44
1040
1.0
1070
    74
1070
     0
1000
MTEXTEND
1000
MTEXTBEGIN
1070
    73
1070
     1
1070
    44
1040
1.0
1070
    74
1070
     0
1000
MTEXTEND
  0
POINT
  5
4F5
330
2F3
100
AcDbEntity
  8
DEFPOINTS
 62
     0
100
AcDbPoint
 10
188.6062374756326
 20
187.0841409949032
 30
0.0
  0
POINT
  5
4F6
330
2F3
100
AcDbEntity
  8
DEFPOINTS
 62
     0
100
AcDbPoint
 10
123.6062374756326
 20
187.0841409949032
 30
0.0
  0
POINT
  5
4F7
330
2F3
100
AcDbEntity
  8
DEFPOINTS
 62
     0
100
AcDbPoint
 10
123.6062374756326
 20
214.4114443640289
 30
0.0
  0
ENDBLK
  5
2FE
330
2F3
100
AcDbEntity
  8
0
100
AcDbBlockEnd
  0
BLOCK
  5
301
330
300
100
AcDbEntity
  8
0
100
AcDbBlockBegin
  2
*D5
 70
     1
 10
0.0
 20
0.0
 30
0.0
  3
*D5
  1

  0
LINE
  5
4F8
330
300
100
AcDbEntity
  8
SUNPOU
100
AcDbLine
 10
120.6062374756326
 20
187.0841409949032
 30
0.0
 11
100.0176556194776
 21
187.0841409949032
 31
0.0
  0
LINE
  5
4F9
330
300
100
AcDbEntity
  8
SUNPOU
100
AcDbLine
 10
120.6061319983456
 20
106.0841242834527
 30
0.0
 11
100.0176556194776
 21
106.0841242834527
 31
0.0
  0
LINE
  5
4FA
330
300
100
AcDbEntity
  8
SUNPOU
100
AcDbLine
 10
101.5176556194776
 20
184.0841409949032
 30
0.0
 11
101.5176556194776
 21
109.0841242834527
 31
0.0
  0
INSERT
  5
4FB
330
300
100
AcDbEntity
  8
SUNPOU
100
AcDbBlockReference
  2
_OPEN
 10
101.5176556194776
 20
187.0841409949032
 30
0.0
 41
3.0
 42
3.0
 43
3.0
 50
90.0
  0
INSERT
  5
4FC
330
300
100
AcDbEntity
  8
SUNPOU
100
AcDbBlockReference
  2
_OPEN
 10
101.5176556194776
 20
106.0841242834527
 30
0.0
 41
3.0
 42
3.0
 43
3.0
 50
270.0
  0
MTEXT
  5
4FD
330
300
100
AcDbEntity
  8
SUNPOU
100
AcDbMText
 10
99.01765561947762
 20
146.584132639178
 30
0.0
 40
3.0
 41
0.0
 71
     5
 72
     1
  1
\A1;81
 11
0.0000000000000001
 21
1.0
 31
0.0
1001
ACAD
1000
MTEXTBEGIN
1070
    73
1070
     1
1070
    44
1040
1.0
1070
    74
1070
     0
1000
MTEXTEND
1000
MTEXTBEGIN
1070
    73
1070
     1
1070
    44
1040
1.0
1070
    74
1070
     0
1000
MTEXTEND
  0
POINT
  5
4FE
330
300
100
AcDbEntity
  8
DEFPOINTS
 62
     0
100
AcDbPoint
 10
123.6062374756326
 20
187.0841409949032
 30
0.0
  0
POINT
  5
4FF
330
300
100
AcDbEntity
  8
DEFPOINTS
 62
     0
100
AcDbPoint
 10
123.6061319983456
 20
106.0841242834527
 30
0.0
  0
POINT
  5
500
330
300
100
AcDbEntity
  8
DEFPOINTS
 62
     0
100
AcDbPoint
 10
101.5176556194776
 20
106.0841242834527
 30
0.0
  0
ENDBLK
  5
30B
330
300
100
AcDbEntity
  8
0
100
AcDbBlockEnd
  0
BLOCK
  5
30E
330
30D
100
AcDbEntity
  8
0
100
AcDbBlockBegin
  2
*D6
 70
     1
 10
0.0
 20
0.0
 30
0.0
  3
*D6
  1

  0
LINE
  5
501
330
30D
100
AcDbEntity
  8
SUNPOU
100
AcDbLine
 10
193.6061374756324
 20
84.08414099490341
 30
0.0
 11
193.6061374756324
 21
68.20394251719142
 31
0.0
  0
LINE
  5
502
330
30D
100
AcDbEntity
  8
SUNPOU
100
AcDbLine
 10
123.6061319983456
 20
103.0841242834527
 30
0.0
 11
123.6061319983456
 21
68.20394251719142
 31
0.0
  0
LINE
  5
503
330
30D
100
AcDbEntity
  8
SUNPOU
100
AcDbLine
 10
190.6061374756324
 20
69.70394251719142
 30
0.0
 11
126.6061319983456
 21
69.70394251719142
 31
0.0
  0
INSERT
  5
504
330
30D
100
AcDbEntity
  8
SUNPOU
100
AcDbBlockReference
  2
_OPEN
 10
193.6061374756324
 20
69.70394251719142
 30
0.0
 41
3.0
 42
3.0
 43
3.0
  0
INSERT
  5
505
330
30D
100
AcDbEntity
  8
SUNPOU
100
AcDbBlockReference
  2
_OPEN
 10
123.6061319983456
 20
69.70394251719142
 30
0.0
 41
3.0
 42
3.0
 43
3.0
 50
180.0
  0
MTEXT
  5
506
330
30D
100
AcDbEntity
  8
SUNPOU
100
AcDbMText
 10
158.606134736989
 20
72.20394251719142
 30
0.0
 40
3.0
 41
0.0
 71
     5
 72
     1
  1
\A1;70
1001
ACAD
1000
MTEXTBEGIN
1070
    73
1070
     1
1070
    44
1040
1.0
1070
    74
1070
     0
1000
MTEXTEND
1000
MTEXTBEGIN
1070
    73
1070
     1
1070
    44
1040
1.0
1070
    74
1070
     0
1000
MTEXTEND
  0
POINT
  5
507
330
30D
100
AcDbEntity
  8
DEFPOINTS
 62
     0
100
AcDbPoint
 10
193.6061374756324
 20
87.0841409949034
 30
0.0
  0
POINT
  5
508
330
30D
100
AcDbEntity
  8
DEFPOINTS
 62
     0
100
AcDbPoint
 10
123.6061319983456
 20
106.0841242834527
 30
0.0
  0
POINT
  5
509
330
30D
100
AcDbEntity
  8
DEFPOINTS
 62
     0
100
AcDbPoint
 10
123.6061319983456
 20
69.70394251719142
 30
0.0
  0
ENDBLK
  5
318
330
30D
100
AcDbEntity
  8
0
100
AcDbBlockEnd
  0
BLOCK
  5
31B
330
31A
100
AcDbEntity
  8
0
100
AcDbBlockBegin
  2
*D7
 70
     1
 10
0.0
 20
0.0
 30
0.0
  3
*D7
  1

  0
LINE
  5
49E
330
31A
100
AcDbEntity
  8
SUNPOU
100
AcDbLine
 10
273.50384674351
 20
81.98185026278089
 30
0.0
 11
282.3426815083418
 21
90.82068502761275
 31
0.0
  0
MTEXT
  5
49F
330
31A
100
AcDbEntity
  8
SUNPOU
100
AcDbMText
 10
275.0948370011797
 20
87.10837442638334
 30
0.0
 40
3.0
 41
0.0
 71
     5
 72
     1
  1
\A1;R20
 11
0.7071067811865466
 21
0.7071067811865487
 31
0.0
1001
ACAD
1000
MTEXTBEGIN
1070
    73
1070
     1
1070
    44
1040
1.0
1070
    74
1070
     0
1000
MTEXTEND
1000
MTEXTBEGIN
1070
    73
1070
     1
1070
    44
1040
1.0
1070
    74
1070
     0
1000
MTEXTEND
1000
MTEXTBEGIN
1070
    73
1070
     1
1070
    44
1040
1.0
1070
    74
1070
     0
1000
MTEXTEND
  0
LINE
  5
4A0
330
31A
100
AcDbEntity
  8
SUNPOU
100
AcDbLine
 10
298.6061374756324
 20
107.0841409949033
 30
0.0
 11
284.4640018519015
 21
92.94200537117241
 31
0.0
  0
INSERT
  5
4A1
330
31A
100
AcDbEntity
  8
SUNPOU
100
AcDbBlockReference
  2
_OPEN
 10
284.4640018519015
 20
92.94200537117241
 30
0.0
 41
3.0
 42
3.0
 43
3.0
 50
45.00000000000008
  0
POINT
  5
4A2
330
31A
100
AcDbEntity
  8
DEFPOINTS
 62
     0
100
AcDbPoint
 10
284.4640018519015
 20
92.94200537117241
 30
0.0
  0
POINT
  5
4A3
330
31A
100
AcDbEntity
  8
DEFPOINTS
 62
     0
100
AcDbPoint
 10
298.6061374756324
 20
107.0841409949033
 30
0.0
  0
ENDBLK
  5
321
330
31A
100
AcDbEntity
  8
0
100
AcDbBlockEnd
  0
ENDSEC
  0
SECTION
  2
ENTITIES
  0
LINE
  5
6C
330
1A
100
AcDbEntity
  8
ZUWAKU
  6
CONTINUOUS
 62
     7
100
AcDbLine
 10
403.0
 20
7.0
 30
0.0
 11
5.0
 21
7.0
 31
0.0
  0
LINE
  5
6D
330
1A
100
AcDbEntity
  8
ZUWAKU
  6
CONTINUOUS
 62
     7
100
AcDbLine
 10
5.0
 20
282.0
 30
0.0
 11
5.0
 21
7.0
 31
0.0
  0
LINE
  5
6E
330
1A
100
AcDbEntity
  8
ZUWAKU
  6
CONTINUOUS
 62
     7
100
AcDbLine
 10
403.0
 20
282.0
 30
0.0
 11
403.0
 21
7.0
 31
0.0
  0
LINE
  5
6F
330
1A
100
AcDbEntity
  8
ZUWAKU
  6
CONTINUOUS
 62
     7
100
AcDbLine
 10
403.0
 20
282.0
 30
0.0
 11
5.0
 21
282.0
 31
0.0
  0
LINE
  5
8E
330
1A
100
AcDbEntity
  8
ZUWAKU
 62
     7
 48
10.0
100
AcDbLine
 10
5.0
 20
13.0
 30
0.0
 11
403.0
 21
12.99999999999994
 31
0.0
  0
TEXT
  5
93
330
1A
100
AcDbEntity
  8
ZUWAKU
 62
     7
100
AcDbText
 10
8.003143713074223
 20
7.870178177610682
 30
0.0
 40
4.0
  1
品 種
100
AcDbText
  0
TEXT
  5
97
330
1A
100
AcDbEntity
  8
ZUWAKU
 62
     7
100
AcDbText
 10
107.7028028167073
 20
8.200497435100942
 30
0.0
 40
4.0
  1
品名・ｻ ｲ ｽﾞ
100
AcDbText
  0
TEXT
  5
99
330
1A
100
AcDbEntity
  8
ZUWAKU
 62
     7
100
AcDbText
 10
141.1313324528735
 20
7.9299153608506
 30
0.0
 40
4.0
  1
はいとい用落し口　Ｓ－Ｒ６０－Ｌ１００
100
AcDbText
  0
LINE
  5
9A
330
1A
100
AcDbEntity
  8
ZUWAKU
 62
     7
 48
10.0
100
AcDbLine
 10
324.3551403257206
 20
6.999999999999836
 30
0.0
 11
324.3551403257206
 21
12.99999999999995
 31
0.0
  0
LINE
  5
9B
330
1A
100
AcDbEntity
  8
ZUWAKU
 62
     7
 48
10.0
100
AcDbLine
 10
307.142312366876
 20
6.999999999999836
 30
0.0
 11
307.142312366876
 21
12.99999999999995
 31
0.0
  0
TEXT
  5
9C
330
1A
100
AcDbEntity
  8
ZUWAKU
 62
     7
100
AcDbText
 10
310.1429253763237
 20
7.934661405801826
 30
0.0
 40
4.0
  1
品 番
100
AcDbText
  0
TEXT
  5
9D
330
1A
100
AcDbEntity
  8
ZUWAKU
 62
     7
100
AcDbText
 10
327.1013476411085
 20
8.060146781246267
 30
0.0
 40
4.0
  1
ＰＢ４５
100
AcDbText
  0
TEXT
  5
9E
330
1A
100
AcDbEntity
  8
ZUWAKU
 62
     7
 48
10.0
100
AcDbText
 10
322.9513761015196
 20
2.449000558492457
 30
0.0
 40
4.0
  1
積水化学工業株式会社  建材
100
AcDbText
  0
TEXT
  5
A1
330
1A
100
AcDbEntity
  8
ZUWAKU
 62
     7
100
AcDbText
 10
389.843492473331
 20
7.886151458996323
 30
0.0
 40
4.0
  1
1/1
100
AcDbText
  0
TEXT
  5
A2
330
1A
100
AcDbEntity
  8
ZUWAKU
 62
     7
100
AcDbText
 10
369.8225424558458
 20
7.729845637642938
 30
0.0
 40
4.0
  1
尺 度
100
AcDbText
  0
LINE
  5
A3
330
1A
100
AcDbEntity
  8
ZUWAKU
 62
     7
 48
10.0
100
AcDbLine
 10
366.8807110760169
 20
6.999999999999886
 30
0.0
 11
366.8807110760169
 21
12.99999999999994
 31
0.0
  0
TEXT
  5
A6
330
1A
100
AcDbEntity
  8
ZUWAKU
 62
     7
 48
10.0
100
AcDbText
 10
396.1622424237184
 20
2.480970960763784
 30
0.0
 40
4.0
  1
A3
100
AcDbText
  0
LINE
  5
F5
330
1A
100
AcDbEntity
  8
ZUWAKU
 62
     7
 48
10.0
100
AcDbLine
 10
22.25374857290876
 20
7.0
 30
0.0
 11
22.25374857290876
 21
13.0
 31
0.0
  0
LINE
  5
F6
330
1A
100
AcDbEntity
  8
ZUWAKU
 62
     7
 48
10.0
100
AcDbLine
 10
104.7316872784438
 20
7.0
 30
0.0
 11
104.7316872784438
 21
12.99999999999998
 31
0.0
  0
LINE
  5
F8
330
1A
100
AcDbEntity
  8
ZUWAKU
 62
     7
 48
10.0
100
AcDbLine
 10
138.0261803105822
 20
7.0
 30
0.0
 11
138.0261803105822
 21
12.99999999999998
 31
0.0
  0
LINE
  5
100
330
1A
100
AcDbEntity
  8
ZUWAKU
 62
     7
 48
10.0
100
AcDbLine
 10
384.3363149538092
 20
6.999999999999862
 30
0.0
 11
384.3363149538092
 21
12.99999999999994
 31
0.0
  0
LINE
  5
1C5
330
1A
100
AcDbEntity
  8
CENTER_L
  6
CENTER
 62
     1
 48
5.0
100
AcDbLine
 10
156.1061374756325
 20
195.4175409949034
 30
0.0
 11
156.1060374756326
 21
86.20554099490332
 31
0.0
  0
LINE
  5
1C6
330
1A
100
AcDbEntity
  8
SEIHIN
  6
CONTINUOUS
 62
     3
 48
5.0
100
AcDbLine
 10
188.6061374756326
 20
136.0841409949032
 30
0.0
 11
188.6062374756326
 21
187.0841409949032
 31
0.0
  0
LINE
  5
1C7
330
1A
100
AcDbEntity
  8
SEIHIN
  6
CONTINUOUS
 62
     3
 48
5.0
100
AcDbLine
 10
123.6062374756326
 20
187.0841409949032
 30
0.0
 11
123.6061374756325
 21
110.2903409949034
 31
0.0
  0
LINE
  5
1C9
330
1A
100
AcDbEntity
  8
SEIHIN
  6
CONTINUOUS
 62
     3
 48
5.0
100
AcDbLine
 10
127.6653374756324
 20
104.9823409949034
 30
0.0
 11
193.6061374756324
 21
87.0841409949034
 31
0.0
  0
ARC
  5
1CA
330
1A
100
AcDbEntity
  8
SEIHIN
  6
CONTINUOUS
 62
     3
 48
5.0
100
AcDbCircle
 10
129.1061724135923
 20
110.2902953091774
 30
0.0
 40
5.50003493814961
100
AcDbArc
 50
179.9995240758814
 51
254.8131123266002
  0
LINE
  5
1CC
330
1A
100
AcDbEntity
  8
SEIHIN
  6
CONTINUOUS
 62
     3
 48
5.0
100
AcDbLine
 10
193.6061374756324
 20
87.0841409949034
 30
0.0
 11
193.6061374756324
 21
134.0841409949032
 31
0.0
  0
LINE
  5
1CD
330
1A
100
AcDbEntity
  8
SEIHIN
  6
CONTINUOUS
 62
     3
 48
5.0
100
AcDbLine
 10
193.6061374756324
 20
134.0841409949032
 30
0.0
 11
188.6061374756326
 21
136.0841409949032
 31
0.0
  0
LINE
  5
1CE
330
1A
100
AcDbEntity
  8
SEIHIN
  6
CONTINUOUS
 62
     3
 48
5.0
100
AcDbLine
 10
188.6061374756326
 20
136.0841409949032
 30
0.0
 11
183.8633374756326
 21
133.1734409949033
 31
0.0
  0
LINE
  5
1D0
330
1A
100
AcDbEntity
  8
SEIHIN
  6
CONTINUOUS
 62
     3
 48
5.0
100
AcDbLine
 10
123.6062374756326
 20
187.0841409949032
 30
0.0
 11
188.6062374756326
 21
187.0841409949032
 31
0.0
  0
LINE
  5
1D1
330
1A
100
AcDbEntity
  8
CENTER_L
  6
CENTER
 62
     1
 48
5.0
100
AcDbLine
 10
298.6062374756325
 20
195.0054409949033
 30
0.0
 11
298.6061374756324
 21
79.3475409949034
 31
0.0
  0
LINE
  5
1D2
330
1A
100
AcDbEntity
  8
SEIHIN
  6
CONTINUOUS
 62
     3
 48
5.0
100
AcDbLine
 10
318.6062374756326
 20
187.0841409949032
 30
0.0
 11
318.6061374756324
 21
107.0841409949033
 31
0.0
  0
LINE
  5
1D3
330
1A
100
AcDbEntity
  8
SEIHIN
  6
CONTINUOUS
 62
     3
 48
5.0
100
AcDbLine
 10
278.6062374756326
 20
187.0842409949034
 30
0.0
 11
278.6061374756324
 21
107.0842409949034
 31
0.0
  0
LINE
  5
1D5
330
1A
100
AcDbEntity
  8
SEIHIN
  6
CONTINUOUS
 62
     3
 48
5.0
100
AcDbLine
 10
298.6061374756324
 20
132.0841409949032
 30
0.0
 11
284.6061374756326
 21
132.0841409949032
 31
0.0
  0
LINE
  5
1D6
330
1A
100
AcDbEntity
  8
SEIHIN
  6
CONTINUOUS
 62
     3
 48
5.0
100
AcDbLine
 10
298.6061374756324
 20
134.0841409949032
 30
0.0
 11
284.1061374756326
 21
134.0841409949032
 31
0.0
  0
LINE
  5
1D7
330
1A
100
AcDbEntity
  8
SEIHIN
  6
CONTINUOUS
 62
     3
 48
5.0
100
AcDbLine
 10
298.6061374756324
 20
136.0841409949032
 30
0.0
 11
284.1061374756326
 21
136.0841409949032
 31
0.0
  0
ARC
  5
1D8
330
1A
100
AcDbEntity
  8
SEIHIN
  6
CONTINUOUS
 62
     3
 48
5.0
100
AcDbCircle
 10
298.6061374756325
 20
125.6134409949033
 30
0.0
 40
17.99999999999991
100
AcDbArc
 50
179.9999999999997
 51
269.9999999999997
  0
ARC
  5
1D9
330
1A
100
AcDbEntity
  8
SEIHIN
  6
CONTINUOUS
 62
     3
 48
5.0
100
AcDbCircle
 10
298.6061374756324
 20
107.0841409949033
 30
0.0
 40
19.99999999999995
100
AcDbArc
 50
180.0000000000001
 51
270.0000000000001
  0
ARC
  5
1DA
330
1A
100
AcDbEntity
  8
SEIHIN
  6
CONTINUOUS
 62
     3
 48
5.0
100
AcDbCircle
 10
298.6061374756325
 20
107.0841409949032
 30
0.0
 40
17.99999999999987
100
AcDbArc
 50
179.9999999999998
 51
269.9999999999998
  0
LINE
  5
1DB
330
1A
100
AcDbEntity
  8
SEIHIN
  6
CONTINUOUS
 62
     3
 48
5.0
100
AcDbLine
 10
280.6061374756326
 20
107.0842409949034
 30
0.0
 11
280.6061374756326
 21
128.5842409949033
 31
0.0
  0
ARC
  5
1DC
330
1A
100
AcDbEntity
  8
SEIHIN
  6
CONTINUOUS
 62
     3
 48
5.0
100
AcDbCircle
 10
284.6061374756326
 20
128.0841409949032
 30
0.0
 40
4.0
100
AcDbArc
 50
90.0
 51
180.0
  0
ARC
  5
1DD
330
1A
100
AcDbEntity
  8
SEIHIN
  6
CONTINUOUS
 62
     3
 48
5.0
100
AcDbCircle
 10
284.1061374756325
 20
128.5841409949031
 30
0.0
 40
5.500000000000085
100
AcDbArc
 50
89.99999999999911
 51
179.9999999999991
  0
ARC
  5
1DE
330
1A
100
AcDbEntity
  8
SEIHIN
  6
CONTINUOUS
 62
     3
 48
5.0
100
AcDbCircle
 10
284.1061374756325
 20
130.5841409949031
 30
0.0
 40
5.500000000000085
100
AcDbArc
 50
89.99999999999911
 51
179.9999999999991
  0
ARC
  5
1DF
330
1A
100
AcDbEntity
  8
SEIHIN
  6
CONTINUOUS
 62
     3
 48
5.0
100
AcDbCircle
 10
298.6061374756325
 20
107.0841409949033
 30
0.0
 40
19.99999999999995
100
AcDbArc
 50
269.9999999999998
 51
359.9999999999998
  0
ARC
  5
1E0
330
1A
100
AcDbEntity
  8
SEIHIN
  6
CONTINUOUS
 62
     3
 48
5.0
100
AcDbCircle
 10
298.6061374756325
 20
107.0841409949034
 30
0.0
 40
18.00000000000004
100
AcDbArc
 50
269.9999999999996
 51
359.9999999999996
  0
LINE
  5
1E1
330
1A
100
AcDbEntity
  8
SEIHIN
  6
CONTINUOUS
 62
     3
 48
5.0
100
AcDbLine
 10
316.6061374756326
 20
107.0841409949033
 30
0.0
 11
316.6062374756326
 21
128.5841409949032
 31
0.0
  0
ARC
  5
1E2
330
1A
100
AcDbEntity
  8
SEIHIN
  6
CONTINUOUS
 62
     3
 48
5.0
100
AcDbCircle
 10
298.6061374757714
 20
125.6134409950423
 30
0.0
 40
18.00000000013891
100
AcDbArc
 50
269.9999999995574
 51
359.9996816896712
  0
ARC
  5
1E3
330
1A
100
AcDbEntity
  8
SEIHIN
  6
CONTINUOUS
 62
     3
 48
5.0
100
AcDbCircle
 10
312.6062374756326
 20
128.0841409949032
 30
0.0
 40
4.0
100
AcDbArc
 50
0.0
 51
90.0
  0
ARC
  5
1E4
330
1A
100
AcDbEntity
  8
SEIHIN
  6
CONTINUOUS
 62
     3
 48
5.0
100
AcDbCircle
 10
313.1062374756326
 20
128.5841409949032
 30
0.0
 40
5.5
100
AcDbArc
 50
0.0
 51
90.0
  0
ARC
  5
1E5
330
1A
100
AcDbEntity
  8
SEIHIN
  6
CONTINUOUS
 62
     3
 48
5.0
100
AcDbCircle
 10
313.1062374756326
 20
130.5841409949032
 30
0.0
 40
5.5
100
AcDbArc
 50
0.0
 51
90.0
  0
LINE
  5
1E6
330
1A
100
AcDbEntity
  8
SEIHIN
  6
CONTINUOUS
 62
     3
 48
5.0
100
AcDbLine
 10
298.6062374756325
 20
136.0841409949032
 30
0.0
 11
313.1062374756326
 21
136.0841409949032
 31
0.0
  0
LINE
  5
1E7
330
1A
100
AcDbEntity
  8
SEIHIN
  6
CONTINUOUS
 62
     3
 48
5.0
100
AcDbLine
 10
298.6062374756325
 20
134.0841409949032
 30
0.0
 11
313.1062374756326
 21
134.0841409949032
 31
0.0
  0
LINE
  5
1E8
330
1A
100
AcDbEntity
  8
SEIHIN
  6
CONTINUOUS
 62
     3
 48
5.0
100
AcDbLine
 10
298.6062374756325
 20
132.0841409949032
 30
0.0
 11
312.6062374756326
 21
132.0841409949032
 31
0.0
  0
LINE
  5
1EA
330
1A
100
AcDbEntity
  8
SEIHIN
  6
CONTINUOUS
 62
     3
 48
5.0
100
AcDbLine
 10
298.6062374756325
 20
187.0842409949034
 30
0.0
 11
278.6062374756326
 21
187.0842409949034
 31
0.0
  0
LINE
  5
1EB
330
1A
100
AcDbEntity
  8
SEIHIN
  6
CONTINUOUS
 62
     3
 48
5.0
100
AcDbLine
 10
298.6062374756325
 20
187.0841409949032
 30
0.0
 11
318.6062374756326
 21
187.0841409949032
 31
0.0
  0
LINE
  5
2A1
330
1A
100
AcDbEntity
  8
0
  6
BYBLOCK
 62
     4
100
AcDbLine
 10
191.6062374756326
 20
187.0841409949032
 30
0.0
 11
221.3126019612612
 21
187.0841409949032
 31
0.0
  0
POINT
  5
2A7
330
1A
100
AcDbEntity
  8
DEFPOINTS
  6
BYBLOCK
 62
     0
100
AcDbPoint
 10
188.6062374756326
 20
187.0841409949032
 30
0.0
  0
POINT
  5
2A8
330
1A
100
AcDbEntity
  8
DEFPOINTS
  6
BYBLOCK
 62
     0
100
AcDbPoint
 10
193.6061374756324
 20
134.0841409949032
 30
0.0
  0
DIMENSION
  5
2C2
330
1A
100
AcDbEntity
  8
SUNPOU
100
AcDbDimension
  2
*D1
 10
218.4278031857775
 20
87.0841409949034
 30
0.0
 11
215.9278031857775
 21
110.5841409949033
 31
0.0
 70
    32
  3
STANDARD
100
AcDbAlignedDimension
 13
193.6061374756324
 23
134.0841409949032
 33
0.0
 14
193.6061374756324
 24
87.0841409949034
 34
0.0
 50
90.0
100
AcDbRotatedDimension
1001
ACAD
1000
DSTYLE
1002
{
1070
   372
1070
    -1
1070
   371
1070
    -1
1070
    41
1040
3.0
1070
    42
1040
3.0
1070
    43
1040
7.0
1070
    44
1040
1.5
1070
    73
1070
     0
1070
    74
1070
     0
1070
    77
1070
     3
1070
   140
1040
3.0
1070
   141
1040
150.0
1070
   147
1040
1.0
1070
   172
1070
     1
1070
   173
1070
     1
1070
   176
1070
   256
1070
   177
1070
   256
1070
   178
1070
   256
1070
   271
1070
     0
1070
   272
1070
     2
1070
     6
1000
OPEN
1070
     7
1000
OPEN
1002
}
  0
DIMENSION
  5
2E5
330
1A
100
AcDbEntity
  8
SUNPOU
100
AcDbDimension
  2
*D2
 10
229.6124566128601
 20
87.08414099490338
 30
0.0
 11
227.11245661286
 21
137.0841409949033
 31
0.0
 70
    32
  3
STANDARD
100
AcDbAlignedDimension
 13
188.6062374756326
 23
187.0841409949032
 33
0.0
 14
193.6061374756324
 24
87.0841409949034
 34
0.0
 50
90.0
100
AcDbRotatedDimension
1001
ACAD
1000
DSTYLE
1002
{
1070
   372
1070
    -1
1070
   371
1070
    -1
1070
    41
1040
3.0
1070
    42
1040
3.0
1070
    43
1040
7.0
1070
    44
1040
1.5
1070
    73
1070
     0
1070
    74
1070
     0
1070
    77
1070
     3
1070
   140
1040
3.0
1070
   141
1040
150.0
1070
   147
1040
1.0
1070
   172
1070
     1
1070
   173
1070
     1
1070
   176
1070
   256
1070
   177
1070
   256
1070
   178
1070
   256
1070
   271
1070
     0
1070
   272
1070
     2
1070
     6
1000
OPEN
1070
     7
1000
OPEN
1002
}
  0
DIMENSION
  5
2F2
330
1A
100
AcDbEntity
  8
SUNPOU
100
AcDbDimension
  2
*D3
 10
278.6062374756326
 20
214.4114443640289
 30
0.0
 11
298.6062374756326
 21
216.9114443640289
 31
0.0
 70
    32
  3
STANDARD
100
AcDbAlignedDimension
 13
318.6062374756326
 23
187.0841409949032
 33
0.0
 14
278.6062374756326
 24
187.0842409949034
 34
0.0
100
AcDbRotatedDimension
1001
ACAD
1000
DSTYLE
1002
{
1070
   372
1070
    -1
1070
   371
1070
    -1
1070
    41
1040
3.0
1070
    42
1040
3.0
1070
    43
1040
7.0
1070
    44
1040
1.5
1070
    73
1070
     0
1070
    74
1070
     0
1070
    77
1070
     3
1070
   140
1040
3.0
1070
   141
1040
150.0
1070
   147
1040
1.0
1070
   172
1070
     1
1070
   173
1070
     1
1070
   176
1070
   256
1070
   177
1070
   256
1070
   178
1070
   256
1070
   271
1070
     0
1070
   272
1070
     2
1070
     6
1000
OPEN
1070
     7
1000
OPEN
1002
}
  0
DIMENSION
  5
2FF
330
1A
100
AcDbEntity
  8
SUNPOU
100
AcDbDimension
  2
*D4
 10
123.6062374756326
 20
214.4114443640289
 30
0.0
 11
156.1062374756326
 21
216.9114443640289
 31
0.0
 70
    32
  3
STANDARD
100
AcDbAlignedDimension
 13
188.6062374756326
 23
187.0841409949032
 33
0.0
 14
123.6062374756326
 24
187.0841409949032
 34
0.0
100
AcDbRotatedDimension
1001
ACAD
1000
DSTYLE
1002
{
1070
   372
1070
    -1
1070
   371
1070
    -1
1070
    41
1040
3.0
1070
    42
1040
3.0
1070
    43
1040
7.0
1070
    44
1040
1.5
1070
    73
1070
     0
1070
    74
1070
     0
1070
    77
1070
     3
1070
   140
1040
3.0
1070
   141
1040
150.0
1070
   147
1040
1.0
1070
   172
1070
     1
1070
   173
1070
     1
1070
   176
1070
   256
1070
   177
1070
   256
1070
   178
1070
   256
1070
   271
1070
     0
1070
   272
1070
     2
1070
     6
1000
OPEN
1070
     7
1000
OPEN
1002
}
  0
DIMENSION
  5
30C
330
1A
100
AcDbEntity
  8
SUNPOU
100
AcDbDimension
  2
*D5
 10
101.5176556194776
 20
106.0841242834527
 30
0.0
 11
99.01765561947762
 21
146.584132639178
 31
0.0
 70
    32
  3
STANDARD
100
AcDbAlignedDimension
 13
123.6062374756326
 23
187.0841409949032
 33
0.0
 14
123.6061319983456
 24
106.0841242834527
 34
0.0
 50
90.0
100
AcDbRotatedDimension
1001
ACAD
1000
DSTYLE
1002
{
1070
   372
1070
    -1
1070
   371
1070
    -1
1070
    41
1040
3.0
1070
    42
1040
3.0
1070
    43
1040
7.0
1070
    44
1040
1.5
1070
    73
1070
     0
1070
    74
1070
     0
1070
    77
1070
     3
1070
   140
1040
3.0
1070
   141
1040
150.0
1070
   147
1040
1.0
1070
   172
1070
     1
1070
   173
1070
     1
1070
   176
1070
   256
1070
   177
1070
   256
1070
   178
1070
   256
1070
   271
1070
     0
1070
   272
1070
     2
1070
     6
1000
OPEN
1070
     7
1000
OPEN
1002
}
  0
DIMENSION
  5
319
330
1A
100
AcDbEntity
  8
SUNPOU
100
AcDbDimension
  2
*D6
 10
123.6061319983456
 20
69.70394251719142
 30
0.0
 11
158.606134736989
 21
72.20394251719142
 31
0.0
 70
    32
  3
STANDARD
100
AcDbAlignedDimension
 13
193.6061374756324
 23
87.0841409949034
 33
0.0
 14
123.6061319983456
 24
106.0841242834527
 34
0.0
100
AcDbRotatedDimension
1001
ACAD
1000
DSTYLE
1002
{
1070
   372
1070
    -1
1070
   371
1070
    -1
1070
    41
1040
3.0
1070
    42
1040
3.0
1070
    43
1040
7.0
1070
    44
1040
1.5
1070
    73
1070
     0
1070
    74
1070
     0
1070
    77
1070
     3
1070
   140
1040
3.0
1070
   141
1040
150.0
1070
   147
1040
1.0
1070
   172
1070
     1
1070
   173
1070
     1
1070
   176
1070
   256
1070
   177
1070
   256
1070
   178
1070
   256
1070
   271
1070
     0
1070
   272
1070
     2
1070
     6
1000
OPEN
1070
     7
1000
OPEN
1002
}
  0
DIMENSION
  5
322
330
1A
100
AcDbEntity
  8
SUNPOU
100
AcDbDimension
  2
*D7
 10
298.6061374756324
 20
107.0841409949033
 30
0.0
 11
275.0948370011797
 21
87.10837442638334
 31
0.0
 70
    36
  3
STANDARD
100
AcDbRadialDimension
 15
284.4640018519015
 25
92.94200537117241
 35
0.0
 40
0.0
1001
ACAD
1000
DSTYLE
1002
{
1070
   140
1040
3.0
1070
    74
1070
     0
1070
   172
1070
     1
1070
    73
1070
     0
1070
   272
1070
     2
1070
    77
1070
     3
1070
   173
1070
     1
1070
   147
1040
1.0
1070
    42
1040
3.0
1070
    44
1040
1.5
1070
    43
1040
7.0
1070
   271
1070
     0
1070
   178
1070
   256
1070
   177
1070
     4
1070
   176
1070
   256
1070
   141
1040
150.0
1070
     7
1000
_OPEN
1070
     6
1000
_OPEN
1070
    41
1040
3.0
1002
}
  0
TEXT
  5
327
330
1A
100
AcDbEntity
  8
ZUWAKU
 62
     7
100
AcDbText
 10
25.35890071519998
 20
7.929915360850618
 30
0.0
 40
4.0
  1
アートフェイス　たてとい
100
AcDbText
  0
VIEWPORT
  5
22
330
17
100
AcDbEntity
 67
     1
  8
0
100
AcDbViewport
 10
313.6808219178082
 20
148.5
 30
0.0
 40
627.3616438356165
 41
297.0
 68
     2
 69
     1
1001
ACAD
1000
MVIEW
1002
{
1070
    16
1010
0.0
1020
0.0
1030
0.0
1010
0.0
1020
0.0
1030
1.0
1040
0.0
1040
297.0
1040
313.6808219178082
1040
148.5
1040
50.0
1040
0.0
1040
0.0
1070
     0
1070
   100
1070
     1
1070
     0
1070
     0
1070
     0
1070
     0
1070
     0
1040
0.0
1040
0.0
1040
0.0
1040
1.0
1040
1.0
1040
10.0
1040
10.0
1070
     0
1002
{
1002
}
1002
}
  0
VIEWPORT
  5
64
330
17
100
AcDbEntity
 67
     1
  8
VIEWPORT
100
AcDbViewport
 10
210.0
 20
148.5
 30
0.0
 40
420.0
 41
297.0
 68
     1
 69
     2
1001
ACAD
1000
MVIEW
1002
{
1070
    16
1010
0.0
1020
0.0
1030
0.0
1010
0.0
1020
0.0
1030
1.0
1040
0.0
1040
302.9399999999998
1040
210.0
1040
148.5
1040
50.0
1040
0.0
1040
0.0
1070
     0
1070
   100
1070
     1
1070
     0
1070
     0
1070
     0
1070
     0
1070
     0
1040
0.0
1040
0.0
1040
0.0
1040
5.0
1040
5.0
1040
0.0
1040
0.0
1070
     0
1002
{
1002
}
1002
}
  0
ENDSEC
  0
SECTION
  2
OBJECTS
  0
DICTIONARY
  5
C
330
0
100
AcDbDictionary
  3
ACAD_GROUP
350
D
  3
ACAD_LAYOUT
350
32C
  3
ACAD_MLINESTYLE
350
E
  3
ACAD_PLOTSETTINGS
350
32D
1001
ACAD
1000
TREAT_AS_HARD
1070
     0
  0
DICTIONARY
  5
4CC
330
1A
100
AcDbDictionary
  3
ACAD_LAYOUTSELFREF
350
546
1001
ACAD
1000
TREAT_AS_HARD
1070
     1
  0
DICTIONARY
  5
4CA
330
17
100
AcDbDictionary
  3
ACAD_LAYOUTSELFREF
350
545
1001
ACAD
1000
TREAT_AS_HARD
1070
     1
  0
DICTIONARY
  5
D
102
{ACAD_REACTORS
330
C
102
}
330
C
100
AcDbDictionary
1001
ACAD
1000
TREAT_AS_HARD
1070
     0
  0
DICTIONARY
  5
32C
102
{ACAD_REACTORS
330
C
102
}
330
C
100
AcDbDictionary
1001
ACAD
1000
TREAT_AS_HARD
1070
     0
  0
DICTIONARY
  5
E
102
{ACAD_REACTORS
330
C
102
}
330
C
100
AcDbDictionary
  3
STANDARD
350
13
1001
ACAD
1000
TREAT_AS_HARD
1070
     0
  0
DICTIONARY
  5
32D
102
{ACAD_REACTORS
330
C
102
}
330
C
100
AcDbDictionary
1001
ACAD
1000
TREAT_AS_HARD
1070
     0
  0
XRECORD
  5
546
102
{ACAD_REACTORS
330
4CC
102
}
330
4CC
100
AcDbXrecord
340
1A
  0
XRECORD
  5
545
102
{ACAD_REACTORS
330
4CA
102
}
330
4CA
100
AcDbXrecord
340
17
  0
MLINESTYLE
  5
13
102
{ACAD_REACTORS
330
E
102
}
330
E
100
AcDbMlineStyle
  2
STANDARD
 70
     0
  3

 62
     0
 51
90.0
 52
90.0
 71
     2
 49
0.5
 62
   256
  6
BYLAYER
 49
-0.5
 62
   256
  6
BYLAYER
  0
ENDSEC
  0
EOF
