  0
SECTION
  2
HEADER
  9
$ACADVER
  1
AC1014
  9
$ACADMAINTVER
 70
     9
  9
$DWGCODEPAGE
  3
ANSI_932
  9
$INSBASE
 10
0.0
 20
0.0
 30
0.0
  9
$EXTMIN
 10
-0.05126640194635
 20
-0.0362526699479986
 30
-0.000000000000013
  9
$EXTMAX
 10
797.6628945888771
 20
551.6439420217511
 30
0.0000000000000023
  9
$LIMMIN
 10
0.0
 20
0.0
  9
$LIMMAX
 10
840.0
 20
594.0
  9
$ORTHOMODE
 70
     0
  9
$REGENMODE
 70
     1
  9
$FILLMODE
 70
     1
  9
$QTEXTMODE
 70
     0
  9
$MIRRTEXT
 70
     1
  9
$DRAGMODE
 70
     2
  9
$LTSCALE
 40
10.0
  9
$OSMODE
 70
    35
  9
$ATTMODE
 70
     1
  9
$TEXTSIZE
 40
5.0
  9
$TRACEWID
 40
1.0
  9
$TEXTSTYLE
  7
STANDARD
  9
$CLAYER
  8
SUNPOU
  9
$CELTYPE
  6
BYLAYER
  9
$CECOLOR
 62
   256
  9
$CELTSCALE
 40
1.0
  9
$DELOBJ
 70
     1
  9
$DISPSILH
 70
     0
  9
$DIMSCALE
 40
1.0
  9
$DIMASZ
 40
7.0
  9
$DIMEXO
 40
6.0
  9
$DIMDLI
 40
14.0
  9
$DIMRND
 40
0.0
  9
$DIMDLE
 40
0.0
  9
$DIMEXE
 40
3.0
  9
$DIMTP
 40
0.0
  9
$DIMTM
 40
0.0
  9
$DIMTXT
 40
6.0
  9
$DIMCEN
 40
150.0
  9
$DIMTSZ
 40
0.0
  9
$DIMTOL
 70
     0
  9
$DIMLIM
 70
     0
  9
$DIMTIH
 70
     0
  9
$DIMTOH
 70
     0
  9
$DIMSE1
 70
     0
  9
$DIMSE2
 70
     0
  9
$DIMTAD
 70
     3
  9
$DIMZIN
 70
     0
  9
$DIMBLK
  1

  9
$DIMASO
 70
     1
  9
$DIMSHO
 70
     1
  9
$DIMPOST
  1

  9
$DIMAPOST
  1

  9
$DIMALT
 70
     0
  9
$DIMALTD
 70
     2
  9
$DIMALTF
 40
25.4
  9
$DIMLFAC
 40
1.0
  9
$DIMTOFL
 70
     1
  9
$DIMTVP
 40
0.0
  9
$DIMTIX
 70
     0
  9
$DIMSOXD
 70
     0
  9
$DIMSAH
 70
     1
  9
$DIMBLK1
  1
OPEN
  9
$DIMBLK2
  1
OPEN
  9
$DIMSTYLE
  2
STANDARD
  9
$DIMCLRD
 70
   256
  9
$DIMCLRE
 70
   256
  9
$DIMCLRT
 70
   256
  9
$DIMTFAC
 40
1.0
  9
$DIMGAP
 40
2.0
  9
$DIMJUST
 70
     0
  9
$DIMSD1
 70
     0
  9
$DIMSD2
 70
     0
  9
$DIMTOLJ
 70
     1
  9
$DIMTZIN
 70
     0
  9
$DIMALTZ
 70
     0
  9
$DIMALTTZ
 70
     0
  9
$DIMFIT
 70
     3
  9
$DIMUPT
 70
     0
  9
$DIMUNIT
 70
     2
  9
$DIMDEC
 70
     0
  9
$DIMTDEC
 70
     0
  9
$DIMALTU
 70
     2
  9
$DIMALTTD
 70
     2
  9
$DIMTXSTY
  7
STANDARD
  9
$DIMAUNIT
 70
     0
  9
$LUNITS
 70
     2
  9
$LUPREC
 70
     4
  9
$SKETCHINC
 40
1.0
  9
$FILLETRAD
 40
20.0
  9
$AUNITS
 70
     0
  9
$AUPREC
 70
     0
  9
$MENU
  1
.
  9
$ELEVATION
 40
0.0
  9
$PELEVATION
 40
0.0
  9
$THICKNESS
 40
0.0
  9
$LIMCHECK
 70
     0
  9
$BLIPMODE
 70
     0
  9
$CHAMFERA
 40
20.0
  9
$CHAMFERB
 40
20.0
  9
$CHAMFERC
 40
40.0
  9
$CHAMFERD
 40
0.0
  9
$SKPOLY
 70
     0
  9
$TDCREATE
 40
2451095.411345023
  9
$TDUPDATE
 40
2453507.429868877
  9
$TDINDWG
 40
0.0460867130
  9
$TDUSRTIMER
 40
0.0460867130
  9
$USRTIMER
 70
     1
  9
$ANGBASE
 50
0.0
  9
$ANGDIR
 70
     0
  9
$PDMODE
 70
     0
  9
$PDSIZE
 40
0.0
  9
$PLINEWID
 40
0.0
  9
$COORDS
 70
     1
  9
$SPLFRAME
 70
     0
  9
$SPLINETYPE
 70
     6
  9
$SPLINESEGS
 70
     8
  9
$ATTDIA
 70
     0
  9
$ATTREQ
 70
     1
  9
$HANDLING
 70
 10241
  9
$HANDSEED
  5
1B1A
  9
$SURFTAB1
 70
     6
  9
$SURFTAB2
 70
     6
  9
$SURFTYPE
 70
     6
  9
$SURFU
 70
     6
  9
$SURFV
 70
     6
  9
$UCSNAME
  2

  9
$UCSORG
 10
0.0
 20
0.0
 30
0.0
  9
$UCSXDIR
 10
1.0
 20
0.0
 30
0.0
  9
$UCSYDIR
 10
0.0
 20
1.0
 30
0.0
  9
$PUCSNAME
  2

  9
$PUCSORG
 10
0.0
 20
0.0
 30
0.0
  9
$PUCSXDIR
 10
1.0
 20
0.0
 30
0.0
  9
$PUCSYDIR
 10
0.0
 20
1.0
 30
0.0
  9
$USERI1
 70
     0
  9
$USERI2
 70
     0
  9
$USERI3
 70
     0
  9
$USERI4
 70
     0
  9
$USERI5
 70
     0
  9
$USERR1
 40
0.0
  9
$USERR2
 40
0.0
  9
$USERR3
 40
0.0
  9
$USERR4
 40
0.0
  9
$USERR5
 40
0.0
  9
$WORLDVIEW
 70
     1
  9
$SHADEDGE
 70
     3
  9
$SHADEDIF
 70
    70
  9
$TILEMODE
 70
     1
  9
$MAXACTVP
 70
    16
  9
$PINSBASE
 10
0.0
 20
0.0
 30
0.0
  9
$PLIMCHECK
 70
     0
  9
$PEXTMIN
 10
0.0
 20
0.0
 30
0.0
  9
$PEXTMAX
 10
420.0
 20
297.0
 30
0.0
  9
$PLIMMIN
 10
0.0
 20
0.0
  9
$PLIMMAX
 10
420.0
 20
297.0
  9
$UNITMODE
 70
     0
  9
$VISRETAIN
 70
     0
  9
$PLINEGEN
 70
     0
  9
$PSLTSCALE
 70
     1
  9
$TREEDEPTH
 70
  3020
  9
$PICKSTYLE
 70
     1
  9
$CMLSTYLE
  2
STANDARD
  9
$CMLJUST
 70
     0
  9
$CMLSCALE
 40
1.0
  9
$PROXYGRAPHICS
 70
     1
  9
$MEASUREMENT
 70
     1
  0
ENDSEC
  0
SECTION
  2
CLASSES
  0
CLASS
  1
ACDBDICTIONARYWDFLT
  2
AcDbDictionaryWithDefault
  3
AutoCAD 2000
 90
        0
280
     0
281
     0
  0
CLASS
  1
ACDBPLACEHOLDER
  2
AcDbPlaceHolder
  3
AutoCAD 2000
 90
        0
280
     0
281
     0
  0
CLASS
  1
LAYOUT
  2
AcDbLayout
  3
AutoCAD 2000
 90
        0
280
     0
281
     0
  0
CLASS
  1
LONG_TRANSACTION
  2
AcDbLongTransaction
  3
AutoCAD 2000
 90
        0
280
     0
281
     0
  0
CLASS
  1
LWPOLYLINE
  2
AcDbPolyline
  3
AutoCAD 2000
 90
        0
280
     0
281
     1
  0
CLASS
  1
HATCH
  2
AcDbHatch
  3
AutoCAD 2000
 90
        0
280
     0
281
     1
  0
CLASS
  1
XRECORD
  2
AcDbXrecord
  3
AutoCAD 2000
 90
        0
280
     0
281
     0
  0
CLASS
  1
LONG_TRANSACTION
  2
AcDbLongTransaction
  3
AutoCAD 2000
 90
        0
280
     0
281
     0
  0
CLASS
  1
LWPOLYLINE
  2
AcDbPolyline
  3
AutoCAD 2000
 90
        0
280
     0
281
     1
  0
CLASS
  1
HATCH
  2
AcDbHatch
  3
AutoCAD 2000
 90
        0
280
     0
281
     1
  0
CLASS
  1
XRECORD
  2
AcDbXrecord
  3
AutoCAD 2000
 90
        0
280
     0
281
     0
  0
CLASS
  1
LONG_TRANSACTION
  2
AcDbLongTransaction
  3
AutoCAD 2000
 90
        0
280
     0
281
     0
  0
CLASS
  1
LWPOLYLINE
  2
AcDbPolyline
  3
AutoCAD 2000
 90
        0
280
     0
281
     1
  0
CLASS
  1
HATCH
  2
AcDbHatch
  3
AutoCAD 2000
 90
        0
280
     0
281
     1
  0
CLASS
  1
XRECORD
  2
AcDbXrecord
  3
AutoCAD 2000
 90
        0
280
     0
281
     0
  0
CLASS
  1
LONG_TRANSACTION
  2
AcDbLongTransaction
  3
AutoCAD 2000
 90
        0
280
     0
281
     0
  0
CLASS
  1
LWPOLYLINE
  2
AcDbPolyline
  3
AutoCAD 2000
 90
        0
280
     0
281
     1
  0
CLASS
  1
HATCH
  2
AcDbHatch
  3
AutoCAD 2000
 90
        0
280
     0
281
     1
  0
CLASS
  1
XRECORD
  2
AcDbXrecord
  3
AutoCAD 2000
 90
        0
280
     0
281
     0
  0
CLASS
  1
LONG_TRANSACTION
  2
AcDbLongTransaction
  3
AutoCAD 2000
 90
        0
280
     0
281
     0
  0
CLASS
  1
LWPOLYLINE
  2
AcDbPolyline
  3
AutoCAD 2000
 90
        0
280
     0
281
     1
  0
CLASS
  1
HATCH
  2
AcDbHatch
  3
AutoCAD 2000
 90
        0
280
     0
281
     1
  0
CLASS
  1
XRECORD
  2
AcDbXrecord
  3
AutoCAD 2000
 90
        0
280
     0
281
     0
  0
ENDSEC
  0
SECTION
  2
TABLES
  0
TABLE
  2
VPORT
  5
8
330
0
100
AcDbSymbolTable
 70
     2
  0
VPORT
  5
1AAB
330
8
100
AcDbSymbolTableRecord
100
AcDbViewportTableRecord
  2
*ACTIVE
 70
     0
 10
0.0
 20
0.0
 11
1.0
 21
1.0
 12
413.3262512098854
 22
281.4487642657583
 13
0.0
 23
0.0
 14
5.0
 24
5.0
 15
0.0
 25
0.0
 16
0.0
 26
0.0
 36
1.0
 17
0.0
 27
0.0
 37
0.0
 40
600.5939727771062
 41
1.752310536044362
 42
50.0
 43
0.0
 44
0.0
 50
0.0
 51
0.0
 71
     0
 72
   100
 73
     1
 74
     0
 75
     0
 76
     0
 77
     0
 78
     0
  0
ENDTAB
  0
TABLE
  2
LTYPE
  5
5
330
0
100
AcDbSymbolTable
 70
     4
  0
LTYPE
  5
14
330
5
100
AcDbSymbolTableRecord
100
AcDbLinetypeTableRecord
  2
BYBLOCK
 70
     0
  3

 72
    65
 73
     0
 40
0.0
  0
LTYPE
  5
15
330
5
100
AcDbSymbolTableRecord
100
AcDbLinetypeTableRecord
  2
BYLAYER
 70
     0
  3

 72
    65
 73
     0
 40
0.0
  0
LTYPE
  5
16
330
5
100
AcDbSymbolTableRecord
100
AcDbLinetypeTableRecord
  2
CONTINUOUS
 70
     0
  3
Solid line
 72
    65
 73
     0
 40
0.0
  0
LTYPE
  5
115
330
5
100
AcDbSymbolTableRecord
100
AcDbLinetypeTableRecord
  2
PHANTOM
 70
     0
  3
______  __  __  ______  __  __  ______  __  __ 
 72
    65
 73
     6
 40
2.5
 49
1.25
 74
     0
 49
-0.25
 74
     0
 49
0.25
 74
     0
 49
-0.25
 74
     0
 49
0.25
 74
     0
 49
-0.25
 74
     0
  0
LTYPE
  5
135
330
5
100
AcDbSymbolTableRecord
100
AcDbLinetypeTableRecord
  2
CENTER
 70
     0
  3
____ _ ____ _ ____ _ ____ _ ____ _ ____ _ ____ 
 72
    65
 73
     4
 40
2.0
 49
1.25
 74
     0
 49
-0.25
 74
     0
 49
0.25
 74
     0
 49
-0.25
 74
     0
  0
LTYPE
  5
887
330
5
100
AcDbSymbolTableRecord
100
AcDbLinetypeTableRecord
  2
HIDDEN
 70
     0
  3
__ __ __ __ __ __ __ __ __ __ __ __ __ __ __ __
 72
    65
 73
     2
 40
0.375
 49
0.25
 74
     0
 49
-0.125
 74
     0
  0
ENDTAB
  0
TABLE
  2
LAYER
  5
2
330
0
100
AcDbSymbolTable
 70
     9
  0
LAYER
  5
F
330
2
100
AcDbSymbolTableRecord
100
AcDbLayerTableRecord
  2
0
 70
     0
 62
     7
  6
CONTINUOUS
  0
LAYER
  5
62
330
2
100
AcDbSymbolTableRecord
100
AcDbLayerTableRecord
  2
VIEWPORT
 70
     0
 62
     7
  6
CONTINUOUS
  0
LAYER
  5
65
330
2
100
AcDbSymbolTableRecord
100
AcDbLayerTableRecord
  2
ZUWAKU
 70
     0
 62
     7
  6
CONTINUOUS
  0
LAYER
  5
1CD
330
2
100
AcDbSymbolTableRecord
100
AcDbLayerTableRecord
  2
DEFPOINTS
 70
     0
 62
     7
  6
CONTINUOUS
  0
LAYER
  5
1CE
330
2
100
AcDbSymbolTableRecord
100
AcDbLayerTableRecord
  2
SEIHIN
 70
     0
 62
     3
  6
CONTINUOUS
  0
LAYER
  5
1CF
330
2
100
AcDbSymbolTableRecord
100
AcDbLayerTableRecord
  2
CENTER_L
 70
     0
 62
     1
  6
CENTER
  0
LAYER
  5
1D0
330
2
100
AcDbSymbolTableRecord
100
AcDbLayerTableRecord
  2
SUNPOU
 70
     0
 62
     4
  6
CONTINUOUS
  0
LAYER
  5
1D1
330
2
100
AcDbSymbolTableRecord
100
AcDbLayerTableRecord
  2
NOKITOI
 70
     0
 62
     9
  6
PHANTOM
  0
LAYER
  5
F60
330
2
100
AcDbSymbolTableRecord
100
AcDbLayerTableRecord
  2
MOJI
 70
     0
 62
     2
  6
CONTINUOUS
  0
ENDTAB
  0
TABLE
  2
STYLE
  5
3
330
0
100
AcDbSymbolTable
 70
     2
  0
STYLE
  5
10
330
3
100
AcDbSymbolTableRecord
100
AcDbTextStyleTableRecord
  2
STANDARD
 70
     0
 40
0.0
 41
1.0
 50
0.0
 71
     0
 42
5.0
  3
TXT
  4
a:\program files\autocad lt\ms\bigfont.shx
  0
STYLE
  5
F61
330
3
100
AcDbSymbolTableRecord
100
AcDbTextStyleTableRecord
  2
ｽﾀｲﾙ1
 70
     0
 40
0.0
 41
1.0
 50
0.0
 71
     0
 42
2.5
  3
MS PGothic.ttf
  4

1001
ACAD
1000
MS PGothic
1071
    32818
  0
ENDTAB
  0
TABLE
  2
VIEW
  5
6
330
0
100
AcDbSymbolTable
 70
     0
  0
ENDTAB
  0
TABLE
  2
UCS
  5
7
330
0
100
AcDbSymbolTable
 70
     0
  0
ENDTAB
  0
TABLE
  2
APPID
  5
9
330
0
100
AcDbSymbolTable
 70
     1
  0
APPID
  5
11
330
9
100
AcDbSymbolTableRecord
100
AcDbRegAppTableRecord
  2
ACAD
 70
     0
  0
ENDTAB
  0
TABLE
  2
DIMSTYLE
  5
A
330
0
100
AcDbSymbolTable
 70
     1
  0
DIMSTYLE
105
1D
102
{ACAD_REACTORS
330
5ED
330
5FA
330
607
330
616
330
63D
330
65E
330
678
330
687
330
77D
330
78A
330
797
330
7BC
330
829
330
17FD
330
17DB
330
17DA
330
17D6
330
17D9
330
17D8
330
17D4
102
}
330
A
100
AcDbSymbolTableRecord
100
AcDbDimStyleTableRecord
  2
STANDARD
 70
     0
  3

  4

  5

  6

  7

 40
1.0
 41
0.18
 42
0.0625
 43
0.38
 44
0.18
 45
0.0
 46
0.0
 47
0.0
 48
0.0
140
0.18
141
0.09
142
0.0
143
25.4
144
1.0
145
0.0
146
1.0
147
0.09
 71
     0
 72
     0
 73
     1
 74
     1
 75
     0
 76
     0
 77
     0
 78
     0
170
     0
171
     2
172
     0
173
     0
174
     0
175
     0
176
     0
177
     0
178
     0
270
     2
271
     4
272
     4
273
     2
274
     2
340
10
275
     0
280
     0
281
     0
282
     0
283
     1
284
     0
285
     0
286
     0
287
     3
288
     0
  0
ENDTAB
  0
TABLE
  2
BLOCK_RECORD
  5
1
330
0
100
AcDbSymbolTable
 70
    69
  0
BLOCK_RECORD
  5
1A
102
{ACAD_XDICTIONARY
360
9AE
102
}
330
1
100
AcDbSymbolTableRecord
100
AcDbBlockTableRecord
  2
*MODEL_SPACE
  0
BLOCK_RECORD
  5
17
102
{ACAD_XDICTIONARY
360
9AC
102
}
330
1
100
AcDbSymbolTableRecord
100
AcDbBlockTableRecord
  2
*PAPER_SPACE
  0
BLOCK_RECORD
  5
6D
330
1
100
AcDbSymbolTableRecord
100
AcDbBlockTableRecord
  2
_OPEN
  0
BLOCK_RECORD
  5
5E1
330
1
100
AcDbSymbolTableRecord
100
AcDbBlockTableRecord
  2
*D1
  0
BLOCK_RECORD
  5
5EE
330
1
100
AcDbSymbolTableRecord
100
AcDbBlockTableRecord
  2
*D2
  0
BLOCK_RECORD
  5
5FB
330
1
100
AcDbSymbolTableRecord
100
AcDbBlockTableRecord
  2
*D3
  0
BLOCK_RECORD
  5
60A
330
1
100
AcDbSymbolTableRecord
100
AcDbBlockTableRecord
  2
*D4
  0
BLOCK_RECORD
  5
631
330
1
100
AcDbSymbolTableRecord
100
AcDbBlockTableRecord
  2
*D5
  0
BLOCK_RECORD
  5
650
330
1
100
AcDbSymbolTableRecord
100
AcDbBlockTableRecord
  2
*D6
  0
BLOCK_RECORD
  5
66C
330
1
100
AcDbSymbolTableRecord
100
AcDbBlockTableRecord
  2
*D7
  0
BLOCK_RECORD
  5
679
330
1
100
AcDbSymbolTableRecord
100
AcDbBlockTableRecord
  2
*D8
  0
BLOCK_RECORD
  5
771
330
1
100
AcDbSymbolTableRecord
100
AcDbBlockTableRecord
  2
*D9
  0
BLOCK_RECORD
  5
77E
330
1
100
AcDbSymbolTableRecord
100
AcDbBlockTableRecord
  2
*D10
  0
BLOCK_RECORD
  5
78B
330
1
100
AcDbSymbolTableRecord
100
AcDbBlockTableRecord
  2
*D11
  0
BLOCK_RECORD
  5
7AE
330
1
100
AcDbSymbolTableRecord
100
AcDbBlockTableRecord
  2
*D12
  0
BLOCK_RECORD
  5
82A
330
1
100
AcDbSymbolTableRecord
100
AcDbBlockTableRecord
  2
*D13
  0
BLOCK_RECORD
  5
F62
330
1
100
AcDbSymbolTableRecord
100
AcDbBlockTableRecord
  2
A$C70EF10DA
  0
BLOCK_RECORD
  5
1805
330
1
100
AcDbSymbolTableRecord
100
AcDbBlockTableRecord
  2
*D62
  0
BLOCK_RECORD
  5
1813
330
1
100
AcDbSymbolTableRecord
100
AcDbBlockTableRecord
  2
*D63
  0
BLOCK_RECORD
  5
1821
330
1
100
AcDbSymbolTableRecord
100
AcDbBlockTableRecord
  2
*D64
  0
BLOCK_RECORD
  5
182D
330
1
100
AcDbSymbolTableRecord
100
AcDbBlockTableRecord
  2
*D65
  0
BLOCK_RECORD
  5
183B
330
1
100
AcDbSymbolTableRecord
100
AcDbBlockTableRecord
  2
*D66
  0
BLOCK_RECORD
  5
1849
330
1
100
AcDbSymbolTableRecord
100
AcDbBlockTableRecord
  2
*D67
  0
BLOCK_RECORD
  5
1857
330
1
100
AcDbSymbolTableRecord
100
AcDbBlockTableRecord
  2
*D68
  0
ENDTAB
  0
ENDSEC
  0
SECTION
  2
BLOCKS
  0
BLOCK
  5
1B
330
1A
100
AcDbEntity
  8
0
100
AcDbBlockBegin
  2
*MODEL_SPACE
 70
     0
 10
0.0
 20
0.0
 30
0.0
  3
*MODEL_SPACE
  1

  0
ENDBLK
  5
1C
330
1A
100
AcDbEntity
  8
0
100
AcDbBlockEnd
  0
BLOCK
  5
18
330
17
100
AcDbEntity
 67
     1
  8
0
100
AcDbBlockBegin
  2
*PAPER_SPACE
 70
     0
 10
0.0
 20
0.0
 30
0.0
  3
*PAPER_SPACE
  1

  0
ENDBLK
  5
19
330
17
100
AcDbEntity
 67
     1
  8
0
100
AcDbBlockEnd
  0
BLOCK
  5
6E
330
6D
100
AcDbEntity
  8
0
100
AcDbBlockBegin
  2
_OPEN
 70
     0
 10
0.0
 20
0.0
 30
0.0
  3
_OPEN
  1

  0
LINE
  5
6F
330
6D
100
AcDbEntity
  8
0
  6
BYBLOCK
 62
     0
100
AcDbLine
 10
-1.0
 20
0.1666666666666666
 30
0.0
 11
0.0
 21
0.0
 31
0.0
  0
LINE
  5
70
330
6D
100
AcDbEntity
  8
0
  6
BYBLOCK
 62
     0
100
AcDbLine
 10
0.0
 20
0.0
 30
0.0
 11
-1.0
 21
-0.1666666666666666
 31
0.0
  0
LINE
  5
71
330
6D
100
AcDbEntity
  8
0
  6
BYBLOCK
 62
     0
100
AcDbLine
 10
0.0
 20
0.0
 30
0.0
 11
-1.0
 21
0.0
 31
0.0
  0
ENDBLK
  5
72
330
6D
100
AcDbEntity
  8
0
100
AcDbBlockEnd
  0
BLOCK
  5
5E2
330
5E1
100
AcDbEntity
  8
0
100
AcDbBlockBegin
  2
*D1
 70
     1
 10
0.0
 20
0.0
 30
0.0
  3
*D1
  1

  0
LINE
  5
19A3
330
5E1
100
AcDbEntity
  8
SUNPOU
100
AcDbLine
 10
316.2927786954842
 20
428.8059626356353
 30
0.0
 11
316.2927786954842
 21
345.2692968301453
 31
0.0
  0
LINE
  5
19A4
330
5E1
100
AcDbEntity
  8
SUNPOU
100
AcDbLine
 10
346.2927786954842
 20
363.8059626356354
 30
0.0
 11
346.2927786954842
 21
345.2692968301453
 31
0.0
  0
LINE
  5
19A5
330
5E1
100
AcDbEntity
  8
SUNPOU
100
AcDbLine
 10
323.2927786954842
 20
348.2692968301453
 30
0.0
 11
339.2927786954842
 21
348.2692968301453
 31
0.0
  0
INSERT
  5
19A6
330
5E1
100
AcDbEntity
  8
SUNPOU
100
AcDbBlockReference
  2
_OPEN
 10
316.2927786954842
 20
348.2692968301453
 30
0.0
 41
7.0
 42
7.0
 43
7.0
 50
180.0
  0
INSERT
  5
19A7
330
5E1
100
AcDbEntity
  8
SUNPOU
100
AcDbBlockReference
  2
_OPEN
 10
346.2927786954842
 20
348.2692968301453
 30
0.0
 41
7.0
 42
7.0
 43
7.0
  0
MTEXT
  5
19A8
330
5E1
100
AcDbEntity
  8
SUNPOU
100
AcDbMText
 10
331.2927786954842
 20
353.2692968301453
 30
0.0
 40
6.0
 41
0.0
 71
     5
 72
     1
  1
\A1;30
1001
ACAD
1000
MTEXTBEGIN
1070
    73
1070
     1
1070
    44
1040
1.0
1070
    74
1070
     0
1000
MTEXTEND
  0
POINT
  5
19A9
330
5E1
100
AcDbEntity
  8
DEFPOINTS
 62
     0
100
AcDbPoint
 10
316.2927786954842
 20
434.8059626356354
 30
0.0
  0
POINT
  5
19AA
330
5E1
100
AcDbEntity
  8
DEFPOINTS
 62
     0
100
AcDbPoint
 10
346.2927786954842
 20
369.8059626356354
 30
0.0
  0
POINT
  5
19AB
330
5E1
100
AcDbEntity
  8
DEFPOINTS
 62
     0
100
AcDbPoint
 10
346.2927786954842
 20
348.2692968301453
 30
0.0
  0
ENDBLK
  5
5EC
330
5E1
100
AcDbEntity
  8
0
100
AcDbBlockEnd
  0
BLOCK
  5
6C3
330
5EE
100
AcDbEntity
  8
0
100
AcDbBlockBegin
  2
*D2
 70
     1
 10
0.0
 20
0.0
 30
0.0
  3
*D2
  1

  0
LINE
  5
1991
330
5EE
100
AcDbEntity
  8
SUNPOU
100
AcDbLine
 10
346.2927786954842
 20
363.8059626356354
 30
0.0
 11
346.2927786954842
 21
330.8195282530571
 31
0.0
  0
LINE
  5
1992
330
5EE
100
AcDbEntity
  8
SUNPOU
100
AcDbLine
 10
273.6069732765381
 20
365.3059626356354
 30
0.0
 11
273.6069732765381
 21
330.8195282530571
 31
0.0
  0
LINE
  5
1993
330
5EE
100
AcDbEntity
  8
SUNPOU
100
AcDbLine
 10
339.2927786954842
 20
333.8195282530571
 30
0.0
 11
280.6069732765381
 21
333.8195282530571
 31
0.0
  0
INSERT
  5
1994
330
5EE
100
AcDbEntity
  8
SUNPOU
100
AcDbBlockReference
  2
_OPEN
 10
346.2927786954842
 20
333.8195282530571
 30
0.0
 41
7.0
 42
7.0
 43
7.0
  0
INSERT
  5
1995
330
5EE
100
AcDbEntity
  8
SUNPOU
100
AcDbBlockReference
  2
_OPEN
 10
273.6069732765381
 20
333.8195282530571
 30
0.0
 41
7.0
 42
7.0
 43
7.0
 50
180.0
  0
MTEXT
  5
1996
330
5EE
100
AcDbEntity
  8
SUNPOU
100
AcDbMText
 10
309.9498759860111
 20
338.8195282530571
 30
0.0
 40
6.0
 41
0.0
 71
     5
 72
     1
  1
\A1;※a73
1001
ACAD
1000
MTEXTBEGIN
1070
    73
1070
     1
1070
    44
1040
1.0
1070
    74
1070
     0
1000
MTEXTEND
  0
POINT
  5
1997
330
5EE
100
AcDbEntity
  8
DEFPOINTS
 62
     0
100
AcDbPoint
 10
346.2927786954842
 20
369.8059626356354
 30
0.0
  0
POINT
  5
1998
330
5EE
100
AcDbEntity
  8
DEFPOINTS
 62
     0
100
AcDbPoint
 10
273.6069732765381
 20
371.3059626356354
 30
0.0
  0
POINT
  5
1999
330
5EE
100
AcDbEntity
  8
DEFPOINTS
 62
     0
100
AcDbPoint
 10
273.6069732765381
 20
333.8195282530571
 30
0.0
  0
ENDBLK
  5
6CD
330
5EE
100
AcDbEntity
  8
0
100
AcDbBlockEnd
  0
BLOCK
  5
5FC
330
5FB
100
AcDbEntity
  8
0
100
AcDbBlockBegin
  2
*D3
 70
     1
 10
0.0
 20
0.0
 30
0.0
  3
*D3
  1

  0
LINE
  5
199A
330
5FB
100
AcDbEntity
  8
SUNPOU
100
AcDbLine
 10
273.6069732765381
 20
365.3059626356354
 30
0.0
 11
273.6069732765381
 21
330.8195282530571
 31
0.0
  0
LINE
  5
199B
330
5FB
100
AcDbEntity
  8
SUNPOU
100
AcDbLine
 10
188.9785841144305
 20
365.3059626356354
 30
0.0
 11
188.9785841144305
 21
330.8195282530571
 31
0.0
  0
LINE
  5
199C
330
5FB
100
AcDbEntity
  8
SUNPOU
100
AcDbLine
 10
266.6069732765381
 20
333.8195282530571
 30
0.0
 11
195.9785841144305
 21
333.8195282530571
 31
0.0
  0
INSERT
  5
199D
330
5FB
100
AcDbEntity
  8
SUNPOU
100
AcDbBlockReference
  2
_OPEN
 10
273.6069732765381
 20
333.8195282530571
 30
0.0
 41
7.0
 42
7.0
 43
7.0
  0
INSERT
  5
199E
330
5FB
100
AcDbEntity
  8
SUNPOU
100
AcDbBlockReference
  2
_OPEN
 10
188.9785841144305
 20
333.8195282530571
 30
0.0
 41
7.0
 42
7.0
 43
7.0
 50
180.0
  0
MTEXT
  5
199F
330
5FB
100
AcDbEntity
  8
SUNPOU
100
AcDbMText
 10
231.2927786954843
 20
338.8195282530571
 30
0.0
 40
6.0
 41
0.0
 71
     5
 72
     1
  1
\A1;85
1001
ACAD
1000
MTEXTBEGIN
1070
    73
1070
     1
1070
    44
1040
1.0
1070
    74
1070
     0
1000
MTEXTEND
  0
POINT
  5
19A0
330
5FB
100
AcDbEntity
  8
DEFPOINTS
 62
     0
100
AcDbPoint
 10
273.6069732765381
 20
371.3059626356354
 30
0.0
  0
POINT
  5
19A1
330
5FB
100
AcDbEntity
  8
DEFPOINTS
 62
     0
100
AcDbPoint
 10
188.9785841144305
 20
371.3059626356354
 30
0.0
  0
POINT
  5
19A2
330
5FB
100
AcDbEntity
  8
DEFPOINTS
 62
     0
100
AcDbPoint
 10
188.9785841144305
 20
333.8195282530571
 30
0.0
  0
ENDBLK
  5
606
330
5FB
100
AcDbEntity
  8
0
100
AcDbBlockEnd
  0
BLOCK
  5
60B
330
60A
100
AcDbEntity
  8
0
100
AcDbBlockBegin
  2
*D4
 70
     1
 10
0.0
 20
0.0
 30
0.0
  3
*D4
  1

  0
LINE
  5
1988
330
60A
100
AcDbEntity
  8
SUNPOU
100
AcDbLine
 10
346.2927786954842
 20
296.7139421640122
 30
0.0
 11
346.2927786954842
 21
312.4079132583121
 31
0.0
  0
LINE
  5
1989
330
60A
100
AcDbEntity
  8
SUNPOU
100
AcDbLine
 10
116.2927786954842
 20
296.7139421640122
 30
0.0
 11
116.2927786954842
 21
312.4079132583121
 31
0.0
  0
LINE
  5
198A
330
60A
100
AcDbEntity
  8
SUNPOU
100
AcDbLine
 10
339.2927786954842
 20
309.4079132583122
 30
0.0
 11
123.2927786954842
 21
309.4079132583122
 31
0.0
  0
INSERT
  5
198B
330
60A
100
AcDbEntity
  8
SUNPOU
100
AcDbBlockReference
  2
_OPEN
 10
346.2927786954842
 20
309.4079132583122
 30
0.0
 41
7.0
 42
7.0
 43
7.0
  0
INSERT
  5
198C
330
60A
100
AcDbEntity
  8
SUNPOU
100
AcDbBlockReference
  2
_OPEN
 10
116.2927786954842
 20
309.4079132583122
 30
0.0
 41
7.0
 42
7.0
 43
7.0
 50
180.0
  0
MTEXT
  5
198D
330
60A
100
AcDbEntity
  8
SUNPOU
100
AcDbMText
 10
231.2927786954842
 20
314.4079132583121
 30
0.0
 40
6.0
 41
0.0
 71
     5
 72
     1
  1
\A1;230
1001
ACAD
1000
MTEXTBEGIN
1070
    73
1070
     1
1070
    44
1040
1.0
1070
    74
1070
     0
1000
MTEXTEND
  0
POINT
  5
198E
330
60A
100
AcDbEntity
  8
DEFPOINTS
 62
     0
100
AcDbPoint
 10
346.2927786954842
 20
290.7139421640122
 30
0.0
  0
POINT
  5
198F
330
60A
100
AcDbEntity
  8
DEFPOINTS
 62
     0
100
AcDbPoint
 10
116.2927786954842
 20
290.7139421640122
 30
0.0
  0
POINT
  5
1990
330
60A
100
AcDbEntity
  8
DEFPOINTS
 62
     0
100
AcDbPoint
 10
116.2927786954842
 20
309.4079132583122
 30
0.0
  0
ENDBLK
  5
615
330
60A
100
AcDbEntity
  8
0
100
AcDbBlockEnd
  0
BLOCK
  5
632
330
631
100
AcDbEntity
  8
0
100
AcDbBlockBegin
  2
*D5
 70
     1
 10
0.0
 20
0.0
 30
0.0
  3
*D5
  1

  0
LINE
  5
19BE
330
631
100
AcDbEntity
  8
SUNPOU
100
AcDbLine
 10
662.8309780229894
 20
241.0048200619222
 30
0.0
 11
717.8478719511653
 21
241.0048200619222
 31
0.0
  0
LINE
  5
19BF
330
631
100
AcDbEntity
  8
SUNPOU
100
AcDbLine
 10
616.5754180249893
 20
151.0048200619221
 30
0.0
 11
717.8478719511653
 21
151.0048200619221
 31
0.0
  0
LINE
  5
19C0
330
631
100
AcDbEntity
  8
SUNPOU
100
AcDbLine
 10
714.8478719511654
 20
234.0048200619222
 30
0.0
 11
714.8478719511654
 21
158.0048200619221
 31
0.0
  0
INSERT
  5
19C1
330
631
100
AcDbEntity
  8
SUNPOU
100
AcDbBlockReference
  2
_OPEN
 10
714.8478719511654
 20
241.0048200619222
 30
0.0
 41
7.0
 42
7.0
 43
7.0
 50
90.0
  0
INSERT
  5
19C2
330
631
100
AcDbEntity
  8
SUNPOU
100
AcDbBlockReference
  2
_OPEN
 10
714.8478719511654
 20
151.0048200619221
 30
0.0
 41
7.0
 42
7.0
 43
7.0
 50
270.0
  0
MTEXT
  5
19C3
330
631
100
AcDbEntity
  8
SUNPOU
100
AcDbMText
 10
709.8478719511653
 20
196.0048200619223
 30
0.0
 40
6.0
 41
0.0
 71
     5
 72
     1
  1
\A1;90
 11
0.0000000000000001
 21
1.0
 31
0.0
1001
ACAD
1000
MTEXTBEGIN
1070
    73
1070
     1
1070
    44
1040
1.0
1070
    74
1070
     0
1000
MTEXTEND
  0
POINT
  5
19C4
330
631
100
AcDbEntity
  8
DEFPOINTS
 62
     0
100
AcDbPoint
 10
656.8309780229895
 20
241.0048200619222
 30
0.0
  0
POINT
  5
19C5
330
631
100
AcDbEntity
  8
DEFPOINTS
 62
     0
100
AcDbPoint
 10
610.5754180249894
 20
151.0048200619221
 30
0.0
  0
POINT
  5
19C6
330
631
100
AcDbEntity
  8
DEFPOINTS
 62
     0
100
AcDbPoint
 10
714.8478719511654
 20
151.0048200619221
 30
0.0
  0
ENDBLK
  5
63C
330
631
100
AcDbEntity
  8
0
100
AcDbBlockEnd
  0
BLOCK
  5
651
330
650
100
AcDbEntity
  8
0
100
AcDbBlockBegin
  2
*D6
 70
     1
 10
0.0
 20
0.0
 30
0.0
  3
*D6
  1

  0
LINE
  5
19E4
330
650
100
AcDbEntity
  8
SUNPOU
100
AcDbLine
 10
610.5754180249894
 20
167.9548200619221
 30
0.0
 11
610.5754180249894
 21
181.920065163403
 31
0.0
  0
LINE
  5
19E5
330
650
100
AcDbEntity
  8
SUNPOU
100
AcDbLine
 10
612.9406700778893
 20
144.0048200619222
 30
0.0
 11
612.9406700778893
 21
181.920065163403
 31
0.0
  0
LINE
  5
19E6
330
650
100
AcDbEntity
  8
SUNPOU
100
AcDbLine
 10
603.5754180249893
 20
178.920065163403
 30
0.0
 11
596.5754180249894
 21
178.920065163403
 31
0.0
  0
LINE
  5
19E7
330
650
100
AcDbEntity
  8
SUNPOU
100
AcDbLine
 10
619.9406700778893
 20
178.920065163403
 30
0.0
 11
634.9406700778892
 21
178.920065163403
 31
0.0
  0
LINE
  5
19E8
330
650
100
AcDbEntity
  8
SUNPOU
100
AcDbLine
 10
610.5754180249894
 20
178.920065163403
 30
0.0
 11
612.9406700778893
 21
178.920065163403
 31
0.0
  0
INSERT
  5
19E9
330
650
100
AcDbEntity
  8
SUNPOU
100
AcDbBlockReference
  2
_OPEN
 10
610.5754180249894
 20
178.920065163403
 30
0.0
 41
7.0
 42
7.0
 43
7.0
  0
INSERT
  5
19EA
330
650
100
AcDbEntity
  8
SUNPOU
100
AcDbBlockReference
  2
_OPEN
 10
612.9406700778893
 20
178.920065163403
 30
0.0
 41
7.0
 42
7.0
 43
7.0
 50
180.0
  0
MTEXT
  5
19EB
330
650
100
AcDbEntity
  8
SUNPOU
100
AcDbMText
 10
630.9406700778893
 20
183.920065163403
 30
0.0
 40
6.0
 41
0.0
 71
     5
 72
     1
  1
\A1;2
1001
ACAD
1000
MTEXTBEGIN
1070
    73
1070
     1
1070
    44
1040
1.0
1070
    74
1070
     0
1000
MTEXTEND
  0
POINT
  5
19EC
330
650
100
AcDbEntity
  8
DEFPOINTS
 62
     0
100
AcDbPoint
 10
610.5754180249894
 20
161.9548200619221
 30
0.0
  0
POINT
  5
19ED
330
650
100
AcDbEntity
  8
DEFPOINTS
 62
     0
100
AcDbPoint
 10
612.9406700778893
 20
138.0048200619222
 30
0.0
  0
POINT
  5
19EE
330
650
100
AcDbEntity
  8
DEFPOINTS
 62
     0
100
AcDbPoint
 10
612.9406700778893
 20
178.920065163403
 30
0.0
  0
ENDBLK
  5
65D
330
650
100
AcDbEntity
  8
0
100
AcDbBlockEnd
  0
BLOCK
  5
66D
330
66C
100
AcDbEntity
  8
0
100
AcDbBlockBegin
  2
*D7
 70
     1
 10
0.0
 20
0.0
 30
0.0
  3
*D7
  1

  0
LINE
  5
19B5
330
66C
100
AcDbEntity
  8
SUNPOU
100
AcDbLine
 10
506.1506892997892
 20
292.4085561960223
 30
0.0
 11
453.5460504587772
 21
292.4085561960223
 31
0.0
  0
LINE
  5
19B6
330
66C
100
AcDbEntity
  8
SUNPOU
100
AcDbLine
 10
604.5754180249893
 20
151.0048200619221
 30
0.0
 11
453.5460504587772
 21
151.0048200619221
 31
0.0
  0
LINE
  5
19B7
330
66C
100
AcDbEntity
  8
SUNPOU
100
AcDbLine
 10
456.5460504587772
 20
285.4085561960222
 30
0.0
 11
456.5460504587772
 21
158.0048200619221
 31
0.0
  0
INSERT
  5
19B8
330
66C
100
AcDbEntity
  8
SUNPOU
100
AcDbBlockReference
  2
_OPEN
 10
456.5460504587772
 20
292.4085561960223
 30
0.0
 41
7.0
 42
7.0
 43
7.0
 50
90.0
  0
INSERT
  5
19B9
330
66C
100
AcDbEntity
  8
SUNPOU
100
AcDbBlockReference
  2
_OPEN
 10
456.5460504587772
 20
151.0048200619221
 30
0.0
 41
7.0
 42
7.0
 43
7.0
 50
270.0
  0
MTEXT
  5
19BA
330
66C
100
AcDbEntity
  8
SUNPOU
100
AcDbMText
 10
451.5460504587771
 20
221.7066881289723
 30
0.0
 40
6.0
 41
0.0
 71
     5
 72
     1
  1
\A1;141
 11
0.0000000000000001
 21
1.0
 31
0.0
1001
ACAD
1000
MTEXTBEGIN
1070
    73
1070
     1
1070
    44
1040
1.0
1070
    74
1070
     0
1000
MTEXTEND
  0
POINT
  5
19BB
330
66C
100
AcDbEntity
  8
DEFPOINTS
 62
     0
100
AcDbPoint
 10
512.1506892997892
 20
292.4085561960223
 30
0.0
  0
POINT
  5
19BC
330
66C
100
AcDbEntity
  8
DEFPOINTS
 62
     0
100
AcDbPoint
 10
610.5754180249894
 20
151.0048200619221
 30
0.0
  0
POINT
  5
19BD
330
66C
100
AcDbEntity
  8
DEFPOINTS
 62
     0
100
AcDbPoint
 10
456.5460504587772
 20
151.0048200619221
 30
0.0
  0
ENDBLK
  5
677
330
66C
100
AcDbEntity
  8
0
100
AcDbBlockEnd
  0
BLOCK
  5
67A
330
679
100
AcDbEntity
  8
0
100
AcDbBlockBegin
  2
*D8
 70
     1
 10
0.0
 20
0.0
 30
0.0
  3
*D8
  1

  0
LINE
  5
19DB
330
679
100
AcDbEntity
  8
SUNPOU
100
AcDbLine
 10
604.5754180249893
 20
151.0048200619221
 30
0.0
 11
453.5460504587772
 21
151.0048200619221
 31
0.0
  0
LINE
  5
19DC
330
679
100
AcDbEntity
  8
SUNPOU
100
AcDbLine
 10
562.7759782827895
 20
131.0048200619222
 30
0.0
 11
453.5460504587772
 21
131.0048200619222
 31
0.0
  0
LINE
  5
19DD
330
679
100
AcDbEntity
  8
SUNPOU
100
AcDbLine
 10
456.5460504587772
 20
144.0048200619221
 30
0.0
 11
456.5460504587772
 21
138.0048200619222
 31
0.0
  0
INSERT
  5
19DE
330
679
100
AcDbEntity
  8
SUNPOU
100
AcDbBlockReference
  2
_OPEN
 10
456.5460504587772
 20
151.0048200619221
 30
0.0
 41
7.0
 42
7.0
 43
7.0
 50
90.0
  0
INSERT
  5
19DF
330
679
100
AcDbEntity
  8
SUNPOU
100
AcDbBlockReference
  2
_OPEN
 10
456.5460504587772
 20
131.0048200619222
 30
0.0
 41
7.0
 42
7.0
 43
7.0
 50
270.0
  0
MTEXT
  5
19E0
330
679
100
AcDbEntity
  8
SUNPOU
100
AcDbMText
 10
451.5460504587771
 20
141.0048200619223
 30
0.0
 40
6.0
 41
0.0
 71
     5
 72
     1
  1
\A1;20
 11
0.0000000000000001
 21
1.0
 31
0.0
1001
ACAD
1000
MTEXTBEGIN
1070
    73
1070
     1
1070
    44
1040
1.0
1070
    74
1070
     0
1000
MTEXTEND
  0
POINT
  5
19E1
330
679
100
AcDbEntity
  8
DEFPOINTS
 62
     0
100
AcDbPoint
 10
610.5754180249894
 20
151.0048200619221
 30
0.0
  0
POINT
  5
19E2
330
679
100
AcDbEntity
  8
DEFPOINTS
 62
     0
100
AcDbPoint
 10
568.7759782827895
 20
131.0048200619222
 30
0.0
  0
POINT
  5
19E3
330
679
100
AcDbEntity
  8
DEFPOINTS
 62
     0
100
AcDbPoint
 10
456.5460504587772
 20
131.0048200619222
 30
0.0
  0
ENDBLK
  5
686
330
679
100
AcDbEntity
  8
0
100
AcDbBlockEnd
  0
BLOCK
  5
772
330
771
100
AcDbEntity
  8
0
100
AcDbBlockBegin
  2
*D9
 70
     1
 10
0.0
 20
0.0
 30
0.0
  3
*D9
  1

  0
LINE
  5
197F
330
771
100
AcDbEntity
  8
SUNPOU
100
AcDbLine
 10
196.2927437134976
 20
68.81033967016088
 30
0.0
 11
196.2927437134976
 21
40.08408733808482
 31
0.0
  0
LINE
  5
1980
330
771
100
AcDbEntity
  8
SUNPOU
100
AcDbLine
 10
266.2928490622415
 20
68.81003781872376
 30
0.0
 11
266.2928490622415
 21
40.08408733808482
 31
0.0
  0
LINE
  5
1981
330
771
100
AcDbEntity
  8
SUNPOU
100
AcDbLine
 10
203.2927437134976
 20
43.08408733808483
 30
0.0
 11
259.2928490622415
 21
43.08408733808483
 31
0.0
  0
INSERT
  5
1982
330
771
100
AcDbEntity
  8
SUNPOU
100
AcDbBlockReference
  2
_OPEN
 10
196.2927437134976
 20
43.08408733808483
 30
0.0
 41
7.0
 42
7.0
 43
7.0
 50
180.0
  0
INSERT
  5
1983
330
771
100
AcDbEntity
  8
SUNPOU
100
AcDbBlockReference
  2
_OPEN
 10
266.2928490622415
 20
43.08408733808483
 30
0.0
 41
7.0
 42
7.0
 43
7.0
  0
MTEXT
  5
1984
330
771
100
AcDbEntity
  8
SUNPOU
100
AcDbMText
 10
231.2927963878696
 20
48.08408733808483
 30
0.0
 40
6.0
 41
0.0
 71
     5
 72
     1
  1
\A1;70
1001
ACAD
1000
MTEXTBEGIN
1070
    73
1070
     1
1070
    44
1040
1.0
1070
    74
1070
     0
1000
MTEXTEND
  0
POINT
  5
1985
330
771
100
AcDbEntity
  8
DEFPOINTS
 62
     0
100
AcDbPoint
 10
196.2927437134976
 20
74.81033967016088
 30
0.0
  0
POINT
  5
1986
330
771
100
AcDbEntity
  8
DEFPOINTS
 62
     0
100
AcDbPoint
 10
266.2928490622415
 20
74.81003781872376
 30
0.0
  0
POINT
  5
1987
330
771
100
AcDbEntity
  8
DEFPOINTS
 62
     0
100
AcDbPoint
 10
266.2928490622415
 20
43.08408733808483
 30
0.0
  0
ENDBLK
  5
77C
330
771
100
AcDbEntity
  8
0
100
AcDbBlockEnd
  0
BLOCK
  5
77F
330
77E
100
AcDbEntity
  8
0
100
AcDbBlockBegin
  2
*D10
 70
     1
 10
0.0
 20
0.0
 30
0.0
  3
*D10
  1

  0
LINE
  5
19D2
330
77E
100
AcDbEntity
  8
SUNPOU
100
AcDbLine
 10
562.7759782828467
 20
131.0048200619222
 30
0.0
 11
453.5460504587772
 21
131.0048200619222
 31
0.0
  0
LINE
  5
19D3
330
77E
100
AcDbEntity
  8
SUNPOU
100
AcDbLine
 10
571.9406350959027
 20
76.50492006197101
 30
0.0
 11
453.5460504587772
 21
76.50492006197104
 31
0.0
  0
LINE
  5
19D4
330
77E
100
AcDbEntity
  8
SUNPOU
100
AcDbLine
 10
456.5460504587772
 20
124.0048200619223
 30
0.0
 11
456.5460504587772
 21
83.50492006197105
 31
0.0
  0
INSERT
  5
19D5
330
77E
100
AcDbEntity
  8
SUNPOU
100
AcDbBlockReference
  2
_OPEN
 10
456.5460504587773
 20
131.0048200619222
 30
0.0
 41
7.0
 42
7.0
 43
7.0
 50
90.0
  0
INSERT
  5
19D6
330
77E
100
AcDbEntity
  8
SUNPOU
100
AcDbBlockReference
  2
_OPEN
 10
456.5460504587772
 20
76.50492006197104
 30
0.0
 41
7.0
 42
7.0
 43
7.0
 50
270.0
  0
MTEXT
  5
19D7
330
77E
100
AcDbEntity
  8
SUNPOU
100
AcDbMText
 10
451.5460504587772
 20
103.7548700619467
 30
0.0
 40
6.0
 41
0.0
 71
     5
 72
     1
  1
\A1;54
 11
0.0000000000000001
 21
1.0
 31
0.0
1001
ACAD
1000
MTEXTBEGIN
1070
    73
1070
     1
1070
    44
1040
1.0
1070
    74
1070
     0
1000
MTEXTEND
  0
POINT
  5
19D8
330
77E
100
AcDbEntity
  8
DEFPOINTS
 62
     0
100
AcDbPoint
 10
568.7759782828467
 20
131.0048200619222
 30
0.0
  0
POINT
  5
19D9
330
77E
100
AcDbEntity
  8
DEFPOINTS
 62
     0
100
AcDbPoint
 10
577.9406350959027
 20
76.50492006197101
 30
0.0
  0
POINT
  5
19DA
330
77E
100
AcDbEntity
  8
DEFPOINTS
 62
     0
100
AcDbPoint
 10
456.5460504587772
 20
76.50492006197104
 30
0.0
  0
ENDBLK
  5
789
330
77E
100
AcDbEntity
  8
0
100
AcDbBlockEnd
  0
BLOCK
  5
78C
330
78B
100
AcDbEntity
  8
0
100
AcDbBlockBegin
  2
*D11
 70
     1
 10
0.0
 20
0.0
 30
0.0
  3
*D11
  1

  0
LINE
  5
1976
330
78B
100
AcDbEntity
  8
SUNPOU
100
AcDbLine
 10
352.2927786954842
 20
290.7139421640122
 30
0.0
 11
408.917819417155
 21
290.7139421640121
 31
0.0
  0
LINE
  5
1977
330
78B
100
AcDbEntity
  8
SUNPOU
100
AcDbLine
 10
266.4929437134976
 20
68.81013966947586
 30
0.0
 11
408.917819417155
 21
68.81013966947581
 31
0.0
  0
LINE
  5
1978
330
78B
100
AcDbEntity
  8
SUNPOU
100
AcDbLine
 10
405.917819417155
 20
283.7139421640121
 30
0.0
 11
405.917819417155
 21
75.81013966947582
 31
0.0
  0
INSERT
  5
1979
330
78B
100
AcDbEntity
  8
SUNPOU
100
AcDbBlockReference
  2
_OPEN
 10
405.917819417155
 20
290.7139421640121
 30
0.0
 41
7.0
 42
7.0
 43
7.0
 50
90.0
  0
INSERT
  5
197A
330
78B
100
AcDbEntity
  8
SUNPOU
100
AcDbBlockReference
  2
_OPEN
 10
405.917819417155
 20
68.81013966947581
 30
0.0
 41
7.0
 42
7.0
 43
7.0
 50
270.0
  0
MTEXT
  5
197B
330
78B
100
AcDbEntity
  8
SUNPOU
100
AcDbMText
 10
400.917819417155
 20
179.762040916744
 30
0.0
 40
6.0
 41
0.0
 71
     5
 72
     1
  1
\A1;222
 11
0.0000000000000001
 21
1.0
 31
0.0
1001
ACAD
1000
MTEXTBEGIN
1070
    73
1070
     1
1070
    44
1040
1.0
1070
    74
1070
     0
1000
MTEXTEND
  0
POINT
  5
197C
330
78B
100
AcDbEntity
  8
DEFPOINTS
 62
     0
100
AcDbPoint
 10
346.2927786954842
 20
290.7139421640122
 30
0.0
  0
POINT
  5
197D
330
78B
100
AcDbEntity
  8
DEFPOINTS
 62
     0
100
AcDbPoint
 10
260.4929437134976
 20
68.81013966947586
 30
0.0
  0
POINT
  5
197E
330
78B
100
AcDbEntity
  8
DEFPOINTS
 62
     0
100
AcDbPoint
 10
405.917819417155
 20
68.81013966947581
 30
0.0
  0
ENDBLK
  5
796
330
78B
100
AcDbEntity
  8
0
100
AcDbBlockEnd
  0
BLOCK
  5
7D7
330
7AE
100
AcDbEntity
  8
0
100
AcDbBlockBegin
  2
*D12
 70
     1
 10
0.0
 20
0.0
 30
0.0
  3
*D12
  1

  0
LINE
  5
19C7
330
7AE
100
AcDbEntity
  8
SUNPOU
100
AcDbLine
 10
571.9406350959027
 20
76.50492006197101
 30
0.0
 11
524.436966264976
 21
76.50492006197102
 31
0.0
  0
LINE
  5
19C8
330
7AE
100
AcDbEntity
  8
SUNPOU
100
AcDbLine
 10
570.0231510761279
 20
86.5049255405376
 30
0.0
 11
524.436966264976
 21
86.5049255405376
 31
0.0
  0
LINE
  5
19C9
330
7AE
100
AcDbEntity
  8
SUNPOU
100
AcDbLine
 10
527.436966264976
 20
69.50492006197102
 30
0.0
 11
527.436966264976
 21
62.50492006197102
 31
0.0
  0
LINE
  5
19CA
330
7AE
100
AcDbEntity
  8
SUNPOU
100
AcDbLine
 10
527.436966264976
 20
93.50492554053762
 30
0.0
 11
527.436966264976
 21
125.5049255405376
 31
0.0
  0
LINE
  5
19CB
330
7AE
100
AcDbEntity
  8
SUNPOU
100
AcDbLine
 10
527.436966264976
 20
76.50492006197102
 30
0.0
 11
527.436966264976
 21
86.5049255405376
 31
0.0
  0
INSERT
  5
19CC
330
7AE
100
AcDbEntity
  8
SUNPOU
100
AcDbBlockReference
  2
_OPEN
 10
527.436966264976
 20
76.50492006197102
 30
0.0
 41
7.0
 42
7.0
 43
7.0
 50
90.0
  0
INSERT
  5
19CD
330
7AE
100
AcDbEntity
  8
SUNPOU
100
AcDbBlockReference
  2
_OPEN
 10
527.436966264976
 20
86.5049255405376
 30
0.0
 41
7.0
 42
7.0
 43
7.0
 50
270.0
  0
MTEXT
  5
19CE
330
7AE
100
AcDbEntity
  8
SUNPOU
100
AcDbMText
 10
522.436966264976
 20
113.0049255405376
 30
0.0
 40
6.0
 41
0.0
 71
     5
 72
     1
  1
\A1;※ｂ10
 11
0.0000000000000001
 21
1.0
 31
0.0
1001
ACAD
1000
MTEXTBEGIN
1070
    73
1070
     1
1070
    44
1040
1.0
1070
    74
1070
     0
1000
MTEXTEND
  0
POINT
  5
19CF
330
7AE
100
AcDbEntity
  8
DEFPOINTS
 62
     0
100
AcDbPoint
 10
577.9406350959027
 20
76.50492006197101
 30
0.0
  0
POINT
  5
19D0
330
7AE
100
AcDbEntity
  8
DEFPOINTS
 62
     0
100
AcDbPoint
 10
576.0231510761278
 20
86.5049255405376
 30
0.0
  0
POINT
  5
19D1
330
7AE
100
AcDbEntity
  8
DEFPOINTS
 62
     0
100
AcDbPoint
 10
527.436966264976
 20
86.5049255405376
 30
0.0
  0
ENDBLK
  5
7E3
330
7AE
100
AcDbEntity
  8
0
100
AcDbBlockEnd
  0
BLOCK
  5
834
330
82A
100
AcDbEntity
  8
0
100
AcDbBlockBegin
  2
*D13
 70
     1
 10
0.0
 20
0.0
 30
0.0
  3
*D13
  1

  0
LINE
  5
19AC
330
82A
100
AcDbEntity
  8
SUNPOU
100
AcDbLine
 10
506.1506892997892
 20
292.4085561960223
 30
0.0
 11
436.8373905084054
 21
292.4085561960223
 31
0.0
  0
LINE
  5
19AD
330
82A
100
AcDbEntity
  8
SUNPOU
100
AcDbLine
 10
571.9406350959027
 20
76.50492006197101
 30
0.0
 11
436.8373905084053
 21
76.50492006197104
 31
0.0
  0
LINE
  5
19AE
330
82A
100
AcDbEntity
  8
SUNPOU
100
AcDbLine
 10
439.8373905084055
 20
285.4085561960222
 30
0.0
 11
439.8373905084054
 21
83.50492006197105
 31
0.0
  0
INSERT
  5
19AF
330
82A
100
AcDbEntity
  8
SUNPOU
100
AcDbBlockReference
  2
_OPEN
 10
439.8373905084055
 20
292.4085561960223
 30
0.0
 41
7.0
 42
7.0
 43
7.0
 50
90.0
  0
INSERT
  5
19B0
330
82A
100
AcDbEntity
  8
SUNPOU
100
AcDbBlockReference
  2
_OPEN
 10
439.8373905084054
 20
76.50492006197104
 30
0.0
 41
7.0
 42
7.0
 43
7.0
 50
270.0
  0
MTEXT
  5
19B1
330
82A
100
AcDbEntity
  8
SUNPOU
100
AcDbMText
 10
434.8373905084054
 20
184.4567381289967
 30
0.0
 40
6.0
 41
0.0
 71
     5
 72
     1
  1
\A1;216
 11
0.0000000000000001
 21
1.0
 31
0.0
1001
ACAD
1000
MTEXTBEGIN
1070
    73
1070
     1
1070
    44
1040
1.0
1070
    74
1070
     0
1000
MTEXTEND
  0
POINT
  5
19B2
330
82A
100
AcDbEntity
  8
DEFPOINTS
 62
     0
100
AcDbPoint
 10
512.1506892997892
 20
292.4085561960223
 30
0.0
  0
POINT
  5
19B3
330
82A
100
AcDbEntity
  8
DEFPOINTS
 62
     0
100
AcDbPoint
 10
577.9406350959027
 20
76.50492006197101
 30
0.0
  0
POINT
  5
19B4
330
82A
100
AcDbEntity
  8
DEFPOINTS
 62
     0
100
AcDbPoint
 10
439.8373905084054
 20
76.50492006197104
 30
0.0
  0
ENDBLK
  5
835
330
82A
100
AcDbEntity
  8
0
100
AcDbBlockEnd
  0
BLOCK
  5
1018
330
F62
100
AcDbEntity
  8
0
100
AcDbBlockBegin
  2
A$C70EF10DA
 70
     0
 10
0.0
 20
0.0
 30
0.0
  3
A$C70EF10DA
  1

  0
LWPOLYLINE
  5
F63
330
F62
100
AcDbEntity
  8
ZUWAKU
100
AcDbPolyline
 90
        4
 70
     1
 43
0.0
 10
0.4000004316886816
 20
275.4000000752883
 10
0.4000004316886816
 20
0.4000000752883466
 10
398.4000004316886
 20
0.4000000752883466
 10
398.4000004316886
 20
275.4000000752883
  0
LWPOLYLINE
  5
F64
330
F62
100
AcDbEntity
  8
ZUWAKU
100
AcDbPolyline
 90
        4
 70
     1
 43
0.0
 10
0.200000431688693
 20
275.6000000752883
 10
0.200000431688693
 20
0.2000000752883579
 10
398.6000004316887
 20
0.2000000752883464
 10
398.6000004316887
 20
275.6000000752883
  0
LWPOLYLINE
  5
F65
330
F62
100
AcDbEntity
  8
ZUWAKU
100
AcDbPolyline
 90
        4
 70
     1
 43
0.0
 10
0.0000004316887043
 20
275.8000000752883
 10
0.0000004316887043
 20
0.0000000752883125
 10
398.8000004316887
 20
0.0000000752883462
 10
398.8000004316887
 20
275.8000000752883
  0
LWPOLYLINE
  5
F66
330
F62
100
AcDbEntity
  8
ZUWAKU
100
AcDbPolyline
 90
        4
 70
     1
 43
0.0
 10
0.3000004316886589
 20
275.5000000752883
 10
0.3000004316886589
 20
0.3000000752883238
 10
398.5000004316887
 20
0.3000000752883469
 10
398.5000004316887
 20
275.5000000752883
  0
LWPOLYLINE
  5
F67
330
F62
100
AcDbEntity
  8
ZUWAKU
100
AcDbPolyline
 90
        4
 70
     1
 43
0.0
 10
0.1000004316886702
 20
275.7000000752883
 10
0.1000004316886702
 20
0.1000000752883352
 10
398.7000004316886
 20
0.1000000752883468
 10
398.7000004316887
 20
275.7000000752883
  0
LINE
  5
F68
330
F62
100
AcDbEntity
  8
ZUWAKU
100
AcDbLine
 10
0.0000004316887043
 20
15.00000007528831
 30
0.0
 11
398.7000004316886
 21
15.00000007528831
 31
0.0
  0
LINE
  5
F69
330
F62
100
AcDbEntity
  8
ZUWAKU
100
AcDbLine
 10
0.0000004316887043
 20
15.10000007528831
 30
0.0
 11
398.7000004316886
 21
15.10000007528831
 31
0.0
  0
LINE
  5
F6A
330
F62
100
AcDbEntity
  8
ZUWAKU
100
AcDbLine
 10
0.0000004316887043
 20
15.20000007528831
 30
0.0
 11
398.7000004316886
 21
15.20000007528831
 31
0.0
  0
LINE
  5
F6B
330
F62
100
AcDbEntity
  8
ZUWAKU
100
AcDbLine
 10
0.0000004316887043
 20
15.30000007528831
 30
0.0
 11
398.7000004316886
 21
15.30000007528831
 31
0.0
  0
LINE
  5
F6C
330
F62
100
AcDbEntity
  8
ZUWAKU
100
AcDbLine
 10
0.0000004316887043
 20
15.40000007528831
 30
0.0
 11
398.7000004316886
 21
15.40000007528831
 31
0.0
  0
LINE
  5
F6D
330
F62
100
AcDbEntity
  8
ZUWAKU
100
AcDbLine
 10
104.3233010767227
 20
7.700000075288329
 30
0.0
 11
223.7121824171844
 21
7.700000075288329
 31
0.0
  0
LINE
  5
F6E
330
F62
100
AcDbEntity
  8
ZUWAKU
100
AcDbLine
 10
104.3233010767227
 20
7.800000075288329
 30
0.0
 11
223.7121824171844
 21
7.800000075288332
 31
0.0
  0
LINE
  5
F6F
330
F62
100
AcDbEntity
  8
ZUWAKU
100
AcDbLine
 10
104.3233010767227
 20
7.600000075288331
 30
0.0
 11
223.7121824171844
 21
7.600000075288328
 31
0.0
  0
TEXT
  5
F70
330
F62
100
AcDbEntity
  8
MOJI
100
AcDbText
 10
46.47889522577327
 20
6.370589140425693
 30
0.0
 40
3.0
  1
アートフェイスＴ１６０
 41
0.9
  7
ｽﾀｲﾙ1
100
AcDbText
  0
CIRCLE
  5
F71
330
F62
100
AcDbEntity
  8
ZUWAKU
100
AcDbCircle
 10
12.99610650907925
 20
7.600000075288313
 30
0.0
 40
0.875
  0
LINE
  5
F72
330
F62
100
AcDbEntity
  8
ZUWAKU
100
AcDbLine
 10
13.43360650907925
 20
3.575000075288315
 30
0.0
 11
12.47110650907927
 21
3.575000075288315
 31
0.0
  0
LINE
  5
F73
330
F62
100
AcDbEntity
  8
ZUWAKU
100
AcDbLine
 10
12.47110650907927
 20
4.975000075288313
 30
0.0
 11
13.43360650907925
 21
4.975000075288313
 31
0.0
  0
LINE
  5
F74
330
F62
100
AcDbEntity
  8
ZUWAKU
100
AcDbLine
 10
13.43360650907925
 20
10.22500007528831
 30
0.0
 11
12.47110650907927
 21
10.22500007528831
 31
0.0
  0
LINE
  5
F75
330
F62
100
AcDbEntity
  8
ZUWAKU
100
AcDbLine
 10
12.47110650907927
 20
11.62500007528829
 30
0.0
 11
13.43360650907925
 21
11.62500007528831
 31
0.0
  0
HATCH
  5
F76
330
F62
100
AcDbEntity
  8
ZUWAKU
100
AcDbHatch
 10
0.0
 20
0.0
 30
0.0
210
0.0
220
0.0
230
1.0
  2
ANSI37
 70
     0
 71
     0
 91
        8
 92
        7
 72
     1
 73
     1
 93
       24
 10
7.251131762248633
 20
8.822424315780104
 42
-0.1989123673796348
 10
7.046106509079265
 20
9.317399062610629
 42
0.0
 10
7.046106509079265
 20
9.962500075288318
 42
-0.4142135623730912
 10
7.308606509079254
 20
10.22500007528831
 42
0.0
 10
8.796106509079208
 20
10.22500007528831
 42
0.4142135623731546
 10
9.058606509079254
 20
10.4875000752883
 42
0.0
 10
9.058606509079254
 20
11.36250007528831
 42
0.4142135623731586
 10
8.796106509079208
 20
11.62500007528831
 42
0.0
 10
7.046106509079265
 20
11.62500007528831
 42
0.4142135623730928
 10
5.646106509079288
 20
10.22500007528832
 42
0.0
 10
5.646106509079288
 20
9.317399062610693
 42
0.1989123673796619
 10
6.261182268587504
 20
7.832474822118889
 42
0.0
 10
7.716081255909841
 20
6.37757583479656
 42
-0.1989123673796613
 10
7.921106509079265
 20
5.882601087965968
 42
0.0
 10
7.921106509079265
 20
5.237500075288309
 42
-0.4142135623730911
 10
7.658606509079277
 20
4.975000075288313
 42
0.0
 10
6.171106509079322
 20
4.975000075288313
 42
0.4142135623731526
 10
5.908606509079277
 20
4.712500075288319
 42
0.0
 10
5.908606509079277
 20
3.837500075288309
 42
0.4142135623731526
 10
6.171106509079322
 20
3.575000075288315
 42
0.0
 10
7.921106509079265
 20
3.575000075288315
 42
0.4142135623731044
 10
9.321106509079299
 20
4.975000075288303
 42
0.0
 10
9.321106509079299
 20
5.882601087965939
 42
0.1989123673796604
 10
8.706030749571027
 20
7.367525328457709
 42
0.0
 97
        0
 92
        7
 72
     1
 73
     1
 93
       16
 10
11.77110650907928
 20
9.525000075288318
 42
-0.4142135623730935
 10
12.47110650907927
 20
10.22500007528831
 42
0.0
 10
13.43360650907925
 20
10.22500007528831
 42
0.4142135623731546
 10
13.69610650907929
 20
10.4875000752883
 42
0.0
 10
13.69610650907929
 20
11.36250007528831
 42
0.4142135623730951
 10
13.43360650907931
 20
11.62500007528831
 42
0.0
 10
12.47110650907922
 20
11.62500007528829
 42
0.4142135623730892
 10
10.37110650907925
 20
9.525000075288282
 42
0.0
 10
10.37110650907925
 20
5.675000075288327
 42
0.4142135623730969
 10
12.47110650907927
 20
3.575000075288315
 42
0.0
 10
13.43360650907925
 20
3.575000075288315
 42
0.4142135623731526
 10
13.69610650907929
 20
3.837500075288309
 42
0.0
 10
13.69610650907929
 20
4.712500075288319
 42
0.4142135623730891
 10
13.43360650907931
 20
4.975000075288313
 42
0.0
 10
12.47110650907927
 20
4.975000075288313
 42
-0.4142135623730928
 10
11.77110650907928
 20
5.675000075288307
 42
0.0
 97
        0
 92
        7
 72
     1
 73
     1
 93
        2
 10
12.12110650907925
 20
7.600000075288313
 42
1.0
 10
13.87110650907925
 20
7.600000075288313
 42
1.0
 97
        0
 92
        7
 72
     1
 73
     1
 93
       26
 10
18.65742975016826
 20
9.602523672070027
 42
0.0
 10
19.18824956673716
 20
11.28345309120482
 42
0.5069206636600134
 10
18.93793411713949
 20
11.62500007528831
 42
0.0
 10
18.08848942733487
 20
11.62500007528831
 42
0.3272098845218764
 10
17.83817397773719
 20
11.44154705937179
 42
0.0
 10
16.9040390404213
 20
8.483453091204854
 42
-0.3272098845219541
 10
16.65372359082357
 20
8.300000075288313
 42
0.0
 10
16.58360650907934
 20
8.300000075288313
 42
-0.4142135623731526
 10
16.3211065090793
 20
8.562500075288307
 42
0.0
 10
16.3211065090793
 20
11.36250007528831
 42
0.4142135623730951
 10
16.05860650907931
 20
11.62500007528831
 42
0.0
 10
15.18360650907925
 20
11.62500007528831
 42
0.4142135623730871
 10
14.92110650907926
 20
11.36250007528832
 42
0.0
 10
14.92110650907926
 20
3.837500075288309
 42
0.4142135623730891
 10
15.18360650907925
 20
3.575000075288315
 42
0.0
 10
16.05860650907925
 20
3.575000075288315
 42
0.4142135623731526
 10
16.3211065090793
 20
3.837500075288309
 42
0.0
 10
16.3211065090793
 20
6.63750007528832
 42
-0.4142135623731526
 10
16.58360650907934
 20
6.900000075288314
 42
0.0
 10
16.65372359082363
 20
6.900000075288314
 42
-0.3272098845218915
 10
16.9040390404213
 20
6.716547059371777
 42
0.0
 10
17.83817397773719
 20
3.758453091204851
 42
0.3272098845218902
 10
18.08848942733487
 20
3.575000075288315
 42
0.0
 10
18.93793411713949
 20
3.575000075288315
 42
0.5069206636600335
 10
19.18824956673716
 20
3.916547059371819
 42
0.0
 10
18.02505387750034
 20
7.600000075288383
 42
0.0
 97
        0
 92
        7
 72
     1
 73
     1
 93
        8
 10
21.74610650907925
 20
11.36250007528831
 42
0.4142135623731546
 10
21.48360650907921
 20
11.62500007528831
 42
0.0
 10
20.60860650907932
 20
11.62500007528831
 42
0.4142135623731507
 10
20.34610650907927
 20
11.36250007528832
 42
0.0
 10
20.34610650907927
 20
3.837500075288309
 42
0.4142135623731526
 10
20.60860650907932
 20
3.575000075288315
 42
0.0
 10
21.48360650907921
 20
3.575000075288315
 42
0.4142135623731526
 10
21.74610650907925
 20
3.837500075288309
 42
0.0
 97
        0
 92
        7
 72
     1
 73
     1
 93
       24
 10
24.1961065090793
 20
9.962500075288318
 42
-0.4142135623731546
 10
24.45860650907934
 20
10.22500007528831
 42
0.0
 10
25.9461065090793
 20
10.22500007528831
 42
0.4142135623730911
 10
26.20860650907928
 20
10.4875000752883
 42
0.0
 10
26.20860650907928
 20
11.36250007528831
 42
0.4142135623730952
 10
25.9461065090793
 20
11.62500007528831
 42
0.0
 10
24.1961065090793
 20
11.62500007528831
 42
0.4142135623731048
 10
22.79610650907926
 20
10.22500007528832
 42
0.0
 10
22.79610650907926
 20
9.317399062610693
 42
0.1989123673796613
 10
23.41118226858753
 20
7.832474822118918
 42
0.0
 10
24.86608125590987
 20
6.377575834796584
 42
-0.1989123673796402
 10
25.0711065090793
 20
5.882601087966047
 42
0.0
 10
25.0711065090793
 20
5.237500075288309
 42
-0.4142135623730911
 10
24.80860650907931
 20
4.975000075288313
 42
0.0
 10
23.32110650907929
 20
4.975000075288313
 42
0.4142135623731526
 10
23.05860650907925
 20
4.712500075288319
 42
0.0
 10
23.05860650907925
 20
3.837500075288309
 42
0.4142135623730891
 10
23.32110650907924
 20
3.575000075288315
 42
0.0
 10
25.0711065090793
 20
3.575000075288315
 42
0.4142135623730925
 10
26.47110650907928
 20
4.975000075288303
 42
0.0
 10
26.47110650907928
 20
5.882601087965939
 42
0.1989123673796675
 10
25.856030749571
 20
7.367525328457766
 42
0.0
 10
24.40113176224872
 20
8.822424315780024
 42
-0.1989123673796652
 10
24.1961065090793
 20
9.317399062610608
 42
0.0
 97
        0
 92
        7
 72
     1
 73
     1
 93
       16
 10
28.92110650907926
 20
11.36250007528831
 42
0.414213562373103
 10
28.65860650907928
 20
11.62500007528831
 42
0.0
 10
27.78360650907927
 20
11.62500007528831
 42
0.4142135623730871
 10
27.52110650907928
 20
11.36250007528832
 42
0.0
 10
27.52110650907928
 20
4.975000075288303
 42
0.4142135623730926
 10
28.92110650907926
 20
3.575000075288315
 42
0.0
 10
30.67110650907926
 20
3.575000075288315
 42
0.4142135623731044
 10
32.0711065090793
 20
4.975000075288303
 42
0.0
 10
32.0711065090793
 20
11.36250007528831
 42
0.4142135623730951
 10
31.80860650907931
 20
11.62500007528831
 42
0.0
 10
30.93360650907925
 20
11.62500007528831
 42
0.4142135623730871
 10
30.67110650907926
 20
11.36250007528832
 42
0.0
 10
30.67110650907926
 20
5.500000075288301
 42
-0.414213562373088
 10
30.14610650907929
 20
4.975000075288313
 42
0.0
 10
29.4461065090793
 20
4.975000075288313
 42
-0.4142135623731197
 10
28.92110650907926
 20
5.500000075288301
 42
0.0
 97
        0
 92
        7
 72
     1
 73
     1
 93
        8
 10
34.52110650907929
 20
11.36250007528832
 42
0.4142135623730871
 10
34.2586065090793
 20
11.62500007528831
 42
0.0
 10
33.38360650907929
 20
11.62500007528831
 42
0.4142135623731507
 10
33.12110650907925
 20
11.36250007528832
 42
0.0
 10
33.12110650907925
 20
3.837500075288309
 42
0.4142135623730891
 10
33.38360650907924
 20
3.575000075288315
 42
0.0
 10
34.2586065090793
 20
3.575000075288315
 42
0.4142135623730891
 10
34.52110650907929
 20
3.837500075288309
 42
0.0
 97
        0
 75
     0
 76
     1
 52
0.0
 41
0.1
 77
     0
 78
     2
 53
45.0
 43
-450.4711517356508
 44
-6.599999924711653
 45
-0.2245064030267288
 46
0.2245064030267288
 79
     0
 53
135.0
 43
-450.4711517356508
 44
-6.599999924711653
 45
-0.2245064030267288
 46
-0.2245064030267288
 79
     0
 47
0.057451373970553
 98
        8
 10
8.039927913200358
 20
7.583586898231089
 10
11.20225793490828
 20
9.422031166513818
 10
12.58218437451853
 20
7.755940898323672
 10
15.45703042250727
 20
8.100648898509064
 10
20.91923644116707
 20
8.330455032279871
 10
23.44910087925347
 20
9.709288233491918
 10
28.27884341788887
 20
9.36457903283582
 10
33.91354024150007
 20
9.594385166606627
  0
ARC
  5
F77
330
F62
100
AcDbEntity
  8
ZUWAKU
100
AcDbCircle
 10
7.746106509079254
 20
9.317399062610665
 30
0.0
 40
2.099999999999999
100
AcDbArc
 50
180.0
 51
225.0
  0
LINE
  5
F78
330
F62
100
AcDbEntity
  8
ZUWAKU
100
AcDbLine
 10
10.37110650907925
 20
5.675000075288316
 30
0.0
 11
10.37110650907925
 21
9.525000075288293
 31
0.0
  0
LINE
  5
F79
330
F62
100
AcDbEntity
  8
ZUWAKU
100
AcDbLine
 10
11.77110650907928
 20
9.525000075288314
 30
0.0
 11
11.77110650907928
 21
5.675000075288316
 31
0.0
  0
ARC
  5
F7A
330
F62
100
AcDbEntity
  8
ZUWAKU
100
AcDbCircle
 10
7.746106509079254
 20
9.317399062610665
 30
0.0
 40
0.7
100
AcDbArc
 50
180.0000000000016
 51
224.9999999999988
  0
ARC
  5
F7B
330
F62
100
AcDbEntity
  8
ZUWAKU
100
AcDbCircle
 10
12.47110650907927
 20
5.675000075288316
 30
0.0
 40
2.099999999999999
100
AcDbArc
 50
180.0
 51
270.0
  0
ARC
  5
F7C
330
F62
100
AcDbEntity
  8
ZUWAKU
100
AcDbCircle
 10
7.921106509079265
 20
4.975000075288313
 30
0.0
 40
1.399999999999999
100
AcDbArc
 50
270.0
 51
0.0
  0
ARC
  5
F7D
330
F62
100
AcDbEntity
  8
ZUWAKU
100
AcDbCircle
 10
7.221106509079277
 20
5.882601087965966
 30
0.0
 40
2.099999999999999
100
AcDbArc
 50
0.0
 51
45.0
  0
LINE
  5
F7E
330
F62
100
AcDbEntity
  8
ZUWAKU
100
AcDbLine
 10
6.261182268587504
 20
7.832474822118904
 30
0.0
 11
7.716081255909841
 21
6.377575834796573
 31
0.0
  0
LINE
  5
F7F
330
F62
100
AcDbEntity
  8
ZUWAKU
100
AcDbLine
 10
6.171106509079265
 20
4.975000075288313
 30
0.0
 11
7.658606509079277
 21
4.975000075288313
 31
0.0
  0
LINE
  5
F80
330
F62
100
AcDbEntity
  8
ZUWAKU
100
AcDbLine
 10
6.171106509079265
 20
3.575000075288315
 30
0.0
 11
7.921106509079265
 21
3.575000075288315
 31
0.0
  0
ARC
  5
F81
330
F62
100
AcDbEntity
  8
ZUWAKU
100
AcDbCircle
 10
6.171106509079265
 20
4.712500075288314
 30
0.0
 40
0.2625
100
AcDbArc
 50
90.0
 51
180.0
  0
ARC
  5
F82
330
F62
100
AcDbEntity
  8
ZUWAKU
100
AcDbCircle
 10
6.171106509079265
 20
3.837500075288314
 30
0.0
 40
0.2625
100
AcDbArc
 50
180.0
 51
270.0
  0
LINE
  5
F83
330
F62
100
AcDbEntity
  8
ZUWAKU
100
AcDbLine
 10
5.908606509079277
 20
3.837500075288314
 30
0.0
 11
5.908606509079277
 21
4.712500075288314
 31
0.0
  0
ARC
  5
F84
330
F62
100
AcDbEntity
  8
ZUWAKU
100
AcDbCircle
 10
7.221106509079277
 20
5.882601087965987
 30
0.0
 40
0.7
100
AcDbArc
 50
0.0
 51
45.0
  0
ARC
  5
F85
330
F62
100
AcDbEntity
  8
ZUWAKU
100
AcDbCircle
 10
7.658606509079277
 20
5.237500075288316
 30
0.0
 40
0.2625
100
AcDbArc
 50
270.0
 51
0.0
  0
LINE
  5
F86
330
F62
100
AcDbEntity
  8
ZUWAKU
100
AcDbLine
 10
7.921106509079265
 20
5.237500075288316
 30
0.0
 11
7.921106509079265
 21
5.882601087965987
 31
0.0
  0
LINE
  5
F87
330
F62
100
AcDbEntity
  8
ZUWAKU
100
AcDbLine
 10
8.706030749571027
 20
7.367525328457727
 30
0.0
 11
7.251131762248689
 21
8.822424315780065
 31
0.0
  0
ARC
  5
F88
330
F62
100
AcDbEntity
  8
ZUWAKU
100
AcDbCircle
 10
12.47110650907927
 20
5.675000075288316
 30
0.0
 40
0.7
100
AcDbArc
 50
180.0
 51
270.0
  0
LINE
  5
F89
330
F62
100
AcDbEntity
  8
ZUWAKU
100
AcDbLine
 10
9.321106509079299
 20
4.975000075288313
 30
0.0
 11
9.321106509079299
 21
5.882601087965987
 31
0.0
  0
ARC
  5
F8A
330
F62
100
AcDbEntity
  8
ZUWAKU
100
AcDbCircle
 10
8.796106509079265
 20
10.48750007528831
 30
0.0
 40
0.2625
100
AcDbArc
 50
270.0
 51
0.0
  0
ARC
  5
F8B
330
F62
100
AcDbEntity
  8
ZUWAKU
100
AcDbCircle
 10
8.796106509079265
 20
11.36250007528831
 30
0.0
 40
0.2625
100
AcDbArc
 50
0.0
 51
90.0
  0
ARC
  5
F8C
330
F62
100
AcDbEntity
  8
ZUWAKU
100
AcDbCircle
 10
7.046106509079265
 20
10.22500007528831
 30
0.0
 40
1.399999999999999
100
AcDbArc
 50
90.0
 51
180.0
  0
LINE
  5
F8D
330
F62
100
AcDbEntity
  8
ZUWAKU
100
AcDbLine
 10
5.646106509079288
 20
10.22500007528831
 30
0.0
 11
5.646106509079288
 21
9.317399062610643
 31
0.0
  0
LINE
  5
F8E
330
F62
100
AcDbEntity
  8
ZUWAKU
100
AcDbLine
 10
8.796106509079265
 20
10.22500007528831
 30
0.0
 11
7.308606509079254
 21
10.22500007528831
 31
0.0
  0
LINE
  5
F8F
330
F62
100
AcDbEntity
  8
ZUWAKU
100
AcDbLine
 10
7.046106509079265
 20
9.962500075288314
 30
0.0
 11
7.046106509079265
 21
9.317399062610643
 31
0.0
  0
ARC
  5
F90
330
F62
100
AcDbEntity
  8
ZUWAKU
100
AcDbCircle
 10
7.308606509079254
 20
9.962500075288314
 30
0.0
 40
0.2625
100
AcDbArc
 50
90.0
 51
180.0
  0
LINE
  5
F91
330
F62
100
AcDbEntity
  8
ZUWAKU
100
AcDbLine
 10
7.046106509079265
 20
11.62500007528831
 30
0.0
 11
8.796106509079265
 21
11.62500007528831
 31
0.0
  0
ARC
  5
F92
330
F62
100
AcDbEntity
  8
ZUWAKU
100
AcDbCircle
 10
12.47110650907927
 20
9.525000075288293
 30
0.0
 40
2.099999999999999
100
AcDbArc
 50
90.0
 51
180.0
  0
ARC
  5
F93
330
F62
100
AcDbEntity
  8
ZUWAKU
100
AcDbCircle
 10
12.47110650907927
 20
9.525000075288314
 30
0.0
 40
0.7
100
AcDbArc
 50
90.0
 51
180.0
  0
LINE
  5
F94
330
F62
100
AcDbEntity
  8
ZUWAKU
100
AcDbLine
 10
9.058606509079254
 20
11.36250007528831
 30
0.0
 11
9.058606509079254
 21
10.48750007528831
 31
0.0
  0
LINE
  5
F95
330
F62
100
AcDbEntity
  8
ZUWAKU
100
AcDbLine
 10
17.83817397773719
 20
11.44154705937179
 30
0.0
 11
16.9040390404213
 21
8.483453091204829
 31
0.0
  0
LINE
  5
F96
330
F62
100
AcDbEntity
  8
ZUWAKU
100
AcDbLine
 10
14.92110650907926
 20
11.36250007528831
 30
0.0
 11
14.92110650907926
 21
3.837500075288314
 31
0.0
  0
LINE
  5
F97
330
F62
100
AcDbEntity
  8
ZUWAKU
100
AcDbLine
 10
16.3211065090793
 20
8.562500075288316
 30
0.0
 11
16.3211065090793
 21
11.36250007528831
 31
0.0
  0
LINE
  5
F98
330
F62
100
AcDbEntity
  8
ZUWAKU
100
AcDbLine
 10
28.92110650907926
 20
5.500000075288312
 30
0.0
 11
28.92110650907926
 21
11.36250007528831
 31
0.0
  0
LINE
  5
F99
330
F62
100
AcDbEntity
  8
ZUWAKU
100
AcDbLine
 10
27.52110650907928
 20
11.36250007528831
 30
0.0
 11
27.52110650907928
 21
4.975000075288313
 31
0.0
  0
LINE
  5
F9A
330
F62
100
AcDbEntity
  8
ZUWAKU
100
AcDbLine
 10
21.74610650907925
 20
3.837500075288314
 30
0.0
 11
21.74610650907925
 21
11.36250007528831
 31
0.0
  0
LINE
  5
F9B
330
F62
100
AcDbEntity
  8
ZUWAKU
100
AcDbLine
 10
20.34610650907927
 20
11.36250007528831
 30
0.0
 11
20.34610650907927
 21
3.837500075288314
 31
0.0
  0
LINE
  5
F9C
330
F62
100
AcDbEntity
  8
ZUWAKU
100
AcDbLine
 10
18.65742975016826
 20
9.602523672070027
 30
0.0
 11
18.02505387750034
 21
7.600000075288324
 31
0.0
  0
ARC
  5
F9D
330
F62
100
AcDbEntity
  8
ZUWAKU
100
AcDbCircle
 10
24.89610650907929
 20
9.317399062610665
 30
0.0
 40
2.099999999999999
100
AcDbArc
 50
180.0
 51
225.0
  0
ARC
  5
F9E
330
F62
100
AcDbEntity
  8
ZUWAKU
100
AcDbCircle
 10
24.89610650907929
 20
9.317399062610665
 30
0.0
 40
0.7
100
AcDbArc
 50
180.0000000000016
 51
224.9999999999988
  0
LINE
  5
F9F
330
F62
100
AcDbEntity
  8
ZUWAKU
100
AcDbLine
 10
33.12110650907925
 20
11.36250007528831
 30
0.0
 11
33.12110650907925
 21
3.837500075288314
 31
0.0
  0
LINE
  5
FA0
330
F62
100
AcDbEntity
  8
ZUWAKU
100
AcDbLine
 10
34.52110650907929
 20
3.837500075288314
 30
0.0
 11
34.52110650907929
 21
11.36250007528831
 31
0.0
  0
LINE
  5
FA1
330
F62
100
AcDbEntity
  8
ZUWAKU
100
AcDbLine
 10
30.67110650907926
 20
11.36250007528831
 30
0.0
 11
30.67110650907926
 21
5.500000075288312
 31
0.0
  0
LINE
  5
FA2
330
F62
100
AcDbEntity
  8
ZUWAKU
100
AcDbLine
 10
32.0711065090793
 20
4.975000075288313
 30
0.0
 11
32.0711065090793
 21
11.36250007528831
 31
0.0
  0
LINE
  5
FA3
330
F62
100
AcDbEntity
  8
ZUWAKU
100
AcDbLine
 10
39.56331520568289
 20
15.00000007528831
 30
0.0
 11
39.56331520568289
 21
0.4000000752883466
 31
0.0
  0
LINE
  5
FA4
330
F62
100
AcDbEntity
  8
ZUWAKU
100
AcDbLine
 10
39.76331520568283
 20
15.00000007528831
 30
0.0
 11
39.76331520568294
 21
0.4000000752883466
 31
0.0
  0
LINE
  5
FA5
330
F62
100
AcDbEntity
  8
ZUWAKU
100
AcDbLine
 10
39.6633152056828
 20
15.00000007528831
 30
0.0
 11
39.66331520568292
 21
0.4000000752883466
 31
0.0
  0
LINE
  5
FA6
330
F62
100
AcDbEntity
  8
ZUWAKU
100
AcDbLine
 10
28.92110650907926
 20
3.575000075288315
 30
0.0
 11
30.67110650907926
 21
3.575000075288315
 31
0.0
  0
LINE
  5
FA7
330
F62
100
AcDbEntity
  8
ZUWAKU
100
AcDbLine
 10
30.14610650907929
 20
4.975000075288313
 30
0.0
 11
29.4461065090793
 21
4.975000075288313
 31
0.0
  0
LINE
  5
FA8
330
F62
100
AcDbEntity
  8
ZUWAKU
100
AcDbLine
 10
20.60860650907926
 20
3.575000075288315
 30
0.0
 11
21.48360650907926
 21
3.575000075288315
 31
0.0
  0
LINE
  5
FA9
330
F62
100
AcDbEntity
  8
ZUWAKU
100
AcDbLine
 10
17.83817397773719
 20
3.758453091204827
 30
0.0
 11
16.9040390404213
 21
6.716547059371798
 31
0.0
  0
ARC
  5
FAA
330
F62
100
AcDbEntity
  8
ZUWAKU
100
AcDbCircle
 10
16.58360650907928
 20
6.637500075288315
 30
0.0
 40
0.2625
100
AcDbArc
 50
90.0
 51
180.0
  0
ARC
  5
FAB
330
F62
100
AcDbEntity
  8
ZUWAKU
100
AcDbCircle
 10
16.65372359082363
 20
6.637500075288315
 30
0.0
 40
0.2625
100
AcDbArc
 50
17.52556837372303
 51
90.0
  0
ARC
  5
FAC
330
F62
100
AcDbEntity
  8
ZUWAKU
100
AcDbCircle
 10
15.18360650907925
 20
3.837500075288314
 30
0.0
 40
0.2625
100
AcDbArc
 50
180.0
 51
270.0
  0
ARC
  5
FAD
330
F62
100
AcDbEntity
  8
ZUWAKU
100
AcDbCircle
 10
13.43360650907925
 20
4.712500075288314
 30
0.0
 40
0.2625
100
AcDbArc
 50
0.0
 51
90.0
  0
ARC
  5
FAE
330
F62
100
AcDbEntity
  8
ZUWAKU
100
AcDbCircle
 10
13.43360650907925
 20
3.837500075288314
 30
0.0
 40
0.2625
100
AcDbArc
 50
270.0
 51
0.0
  0
LINE
  5
FAF
330
F62
100
AcDbEntity
  8
ZUWAKU
100
AcDbLine
 10
13.69610650907929
 20
4.712500075288314
 30
0.0
 11
13.69610650907929
 21
3.837500075288314
 31
0.0
  0
LINE
  5
FB0
330
F62
100
AcDbEntity
  8
ZUWAKU
100
AcDbLine
 10
16.3211065090793
 20
3.837500075288314
 30
0.0
 11
16.3211065090793
 21
6.637500075288315
 31
0.0
  0
ARC
  5
FB1
330
F62
100
AcDbEntity
  8
ZUWAKU
100
AcDbCircle
 10
16.05860650907925
 20
3.837500075288314
 30
0.0
 40
0.2625
100
AcDbArc
 50
270.0
 51
0.0
  0
LINE
  5
FB2
330
F62
100
AcDbEntity
  8
ZUWAKU
100
AcDbLine
 10
15.18360650907925
 20
3.575000075288315
 30
0.0
 11
16.05860650907925
 21
3.575000075288315
 31
0.0
  0
ARC
  5
FB3
330
F62
100
AcDbEntity
  8
ZUWAKU
100
AcDbCircle
 10
16.58360650907928
 20
8.562500075288316
 30
0.0
 40
0.2625
100
AcDbArc
 50
180.0
 51
270.0
  0
LINE
  5
FB4
330
F62
100
AcDbEntity
  8
ZUWAKU
100
AcDbLine
 10
16.58360650907928
 20
6.900000075288314
 30
0.0
 11
16.65372359082363
 21
6.900000075288314
 31
0.0
  0
LINE
  5
FB5
330
F62
100
AcDbEntity
  8
ZUWAKU
100
AcDbLine
 10
16.65372359082363
 20
8.300000075288313
 30
0.0
 11
16.58360650907928
 21
8.300000075288313
 31
0.0
  0
ARC
  5
FB6
330
F62
100
AcDbEntity
  8
ZUWAKU
100
AcDbCircle
 10
16.65372359082363
 20
8.562500075288316
 30
0.0
 40
0.2625
100
AcDbArc
 50
270.0
 51
342.4744316262769
  0
ARC
  5
FB7
330
F62
100
AcDbEntity
  8
ZUWAKU
100
AcDbCircle
 10
18.08848942733493
 20
3.837500075288314
 30
0.0
 40
0.2625
100
AcDbArc
 50
197.525568373723
 51
270.0
  0
LINE
  5
FB8
330
F62
100
AcDbEntity
  8
ZUWAKU
100
AcDbLine
 10
19.18824956673716
 20
3.916547059371801
 30
0.0
 11
18.02505387750034
 21
7.600000075288324
 31
0.0
  0
ARC
  5
FB9
330
F62
100
AcDbEntity
  8
ZUWAKU
100
AcDbCircle
 10
18.93793411713943
 20
3.837500075288314
 30
0.0
 40
0.2625
100
AcDbArc
 50
270.0
 51
17.52556837372303
  0
LINE
  5
FBA
330
F62
100
AcDbEntity
  8
ZUWAKU
100
AcDbLine
 10
18.08848942733493
 20
3.575000075288315
 30
0.0
 11
18.93793411713943
 21
3.575000075288315
 31
0.0
  0
ARC
  5
FBB
330
F62
100
AcDbEntity
  8
ZUWAKU
100
AcDbCircle
 10
20.60860650907926
 20
3.837500075288314
 30
0.0
 40
0.2625
100
AcDbArc
 50
180.0
 51
270.0
  0
ARC
  5
FBC
330
F62
100
AcDbEntity
  8
ZUWAKU
100
AcDbCircle
 10
25.0711065090793
 20
4.975000075288313
 30
0.0
 40
1.399999999999999
100
AcDbArc
 50
270.0
 51
0.0
  0
ARC
  5
FBD
330
F62
100
AcDbEntity
  8
ZUWAKU
100
AcDbCircle
 10
28.92110650907926
 20
4.975000075288313
 30
0.0
 40
1.399999999999999
100
AcDbArc
 50
180.0
 51
270.0
  0
LINE
  5
FBE
330
F62
100
AcDbEntity
  8
ZUWAKU
100
AcDbLine
 10
25.85603074957106
 20
7.367525328457727
 30
0.0
 11
24.40113176224866
 21
8.822424315780065
 31
0.0
  0
LINE
  5
FBF
330
F62
100
AcDbEntity
  8
ZUWAKU
100
AcDbLine
 10
23.41118226858753
 20
7.832474822118904
 30
0.0
 11
24.86608125590987
 21
6.377575834796573
 31
0.0
  0
LINE
  5
FC0
330
F62
100
AcDbEntity
  8
ZUWAKU
100
AcDbLine
 10
23.32110650907929
 20
3.575000075288315
 30
0.0
 11
25.0711065090793
 21
3.575000075288315
 31
0.0
  0
LINE
  5
FC1
330
F62
100
AcDbEntity
  8
ZUWAKU
100
AcDbLine
 10
23.32110650907929
 20
4.975000075288313
 30
0.0
 11
24.80860650907925
 21
4.975000075288313
 31
0.0
  0
ARC
  5
FC2
330
F62
100
AcDbEntity
  8
ZUWAKU
100
AcDbCircle
 10
23.32110650907929
 20
4.712500075288314
 30
0.0
 40
0.2625
100
AcDbArc
 50
90.0
 51
180.0
  0
ARC
  5
FC3
330
F62
100
AcDbEntity
  8
ZUWAKU
100
AcDbCircle
 10
21.48360650907926
 20
3.837500075288314
 30
0.0
 40
0.2625
100
AcDbArc
 50
270.0
 51
0.0
  0
ARC
  5
FC4
330
F62
100
AcDbEntity
  8
ZUWAKU
100
AcDbCircle
 10
23.32110650907929
 20
3.837500075288314
 30
0.0
 40
0.2625
100
AcDbArc
 50
180.0
 51
270.0
  0
LINE
  5
FC5
330
F62
100
AcDbEntity
  8
ZUWAKU
100
AcDbLine
 10
23.05860650907925
 20
3.837500075288314
 30
0.0
 11
23.05860650907925
 21
4.712500075288314
 31
0.0
  0
ARC
  5
FC6
330
F62
100
AcDbEntity
  8
ZUWAKU
100
AcDbCircle
 10
24.80860650907925
 20
5.237500075288316
 30
0.0
 40
0.2625
100
AcDbArc
 50
270.0
 51
0.0
  0
ARC
  5
FC7
330
F62
100
AcDbEntity
  8
ZUWAKU
100
AcDbCircle
 10
24.37110650907925
 20
5.882601087965987
 30
0.0
 40
0.7
100
AcDbArc
 50
0.0
 51
45.0
  0
LINE
  5
FC8
330
F62
100
AcDbEntity
  8
ZUWAKU
100
AcDbLine
 10
25.0711065090793
 20
5.237500075288316
 30
0.0
 11
25.0711065090793
 21
5.882601087965987
 31
0.0
  0
ARC
  5
FC9
330
F62
100
AcDbEntity
  8
ZUWAKU
100
AcDbCircle
 10
29.4461065090793
 20
5.500000075288312
 30
0.0
 40
0.525
100
AcDbArc
 50
180.0
 51
270.0
  0
ARC
  5
FCA
330
F62
100
AcDbEntity
  8
ZUWAKU
100
AcDbCircle
 10
24.37110650907925
 20
5.882601087965966
 30
0.0
 40
2.099999999999999
100
AcDbArc
 50
0.0
 51
45.0
  0
LINE
  5
FCB
330
F62
100
AcDbEntity
  8
ZUWAKU
100
AcDbLine
 10
26.47110650907928
 20
4.975000075288313
 30
0.0
 11
26.47110650907928
 21
5.882601087965987
 31
0.0
  0
ARC
  5
FCC
330
F62
100
AcDbEntity
  8
ZUWAKU
100
AcDbCircle
 10
30.67110650907926
 20
4.975000075288313
 30
0.0
 40
1.399999999999999
100
AcDbArc
 50
270.0
 51
0.0
  0
LINE
  5
FCD
330
F62
100
AcDbEntity
  8
ZUWAKU
100
AcDbLine
 10
33.38360650907929
 20
3.575000075288315
 30
0.0
 11
34.2586065090793
 21
3.575000075288315
 31
0.0
  0
ARC
  5
FCE
330
F62
100
AcDbEntity
  8
ZUWAKU
100
AcDbCircle
 10
30.14610650907929
 20
5.500000075288312
 30
0.0
 40
0.525
100
AcDbArc
 50
270.0
 51
0.0
  0
ARC
  5
FCF
330
F62
100
AcDbEntity
  8
ZUWAKU
100
AcDbCircle
 10
33.38360650907929
 20
3.837500075288314
 30
0.0
 40
0.2625
100
AcDbArc
 50
180.0
 51
270.0
  0
ARC
  5
FD0
330
F62
100
AcDbEntity
  8
ZUWAKU
100
AcDbCircle
 10
34.2586065090793
 20
3.837500075288314
 30
0.0
 40
0.2625
100
AcDbArc
 50
270.0
 51
0.0
  0
LINE
  5
FD1
330
F62
100
AcDbEntity
  8
ZUWAKU
100
AcDbLine
 10
21.48360650907926
 20
11.62500007528831
 30
0.0
 11
20.60860650907926
 21
11.62500007528831
 31
0.0
  0
LINE
  5
FD2
330
F62
100
AcDbEntity
  8
ZUWAKU
100
AcDbLine
 10
13.69610650907929
 20
11.36250007528831
 30
0.0
 11
13.69610650907929
 21
10.48750007528831
 31
0.0
  0
ARC
  5
FD3
330
F62
100
AcDbEntity
  8
ZUWAKU
100
AcDbCircle
 10
13.43360650907925
 20
10.48750007528831
 30
0.0
 40
0.2625
100
AcDbArc
 50
270.0
 51
0.0
  0
ARC
  5
FD4
330
F62
100
AcDbEntity
  8
ZUWAKU
100
AcDbCircle
 10
15.18360650907925
 20
11.36250007528831
 30
0.0
 40
0.2625
100
AcDbArc
 50
90.0
 51
180.0
  0
ARC
  5
FD5
330
F62
100
AcDbEntity
  8
ZUWAKU
100
AcDbCircle
 10
13.43360650907925
 20
11.36250007528831
 30
0.0
 40
0.2625
100
AcDbArc
 50
0.0
 51
90.0
  0
LINE
  5
FD6
330
F62
100
AcDbEntity
  8
ZUWAKU
100
AcDbLine
 10
16.05860650907925
 20
11.62500007528831
 30
0.0
 11
15.18360650907925
 21
11.62500007528831
 31
0.0
  0
ARC
  5
FD7
330
F62
100
AcDbEntity
  8
ZUWAKU
100
AcDbCircle
 10
16.05860650907925
 20
11.36250007528831
 30
0.0
 40
0.2625
100
AcDbArc
 50
0.0
 51
90.0
  0
ARC
  5
FD8
330
F62
100
AcDbEntity
  8
ZUWAKU
100
AcDbCircle
 10
18.08848942733493
 20
11.36250007528831
 30
0.0
 40
0.2625
100
AcDbArc
 50
90.0
 51
162.4744316262769
  0
LINE
  5
FD9
330
F62
100
AcDbEntity
  8
ZUWAKU
100
AcDbLine
 10
19.18824956673716
 20
11.28345309120483
 30
0.0
 11
18.65742975016826
 21
9.602523672070027
 31
0.0
  0
ARC
  5
FDA
330
F62
100
AcDbEntity
  8
ZUWAKU
100
AcDbCircle
 10
18.93793411713943
 20
11.36250007528831
 30
0.0
 40
0.2625
100
AcDbArc
 50
342.4744316262769
 51
90.0
  0
LINE
  5
FDB
330
F62
100
AcDbEntity
  8
ZUWAKU
100
AcDbLine
 10
18.08848942733493
 20
11.62500007528831
 30
0.0
 11
18.93793411713943
 21
11.62500007528831
 31
0.0
  0
ARC
  5
FDC
330
F62
100
AcDbEntity
  8
ZUWAKU
100
AcDbCircle
 10
20.60860650907926
 20
11.36250007528831
 30
0.0
 40
0.2625
100
AcDbArc
 50
90.0
 51
180.0
  0
LINE
  5
FDD
330
F62
100
AcDbEntity
  8
ZUWAKU
100
AcDbLine
 10
25.9461065090793
 20
10.22500007528831
 30
0.0
 11
24.45860650907929
 21
10.22500007528831
 31
0.0
  0
LINE
  5
FDE
330
F62
100
AcDbEntity
  8
ZUWAKU
100
AcDbLine
 10
24.1961065090793
 20
11.62500007528831
 30
0.0
 11
25.9461065090793
 21
11.62500007528831
 31
0.0
  0
ARC
  5
FDF
330
F62
100
AcDbEntity
  8
ZUWAKU
100
AcDbCircle
 10
24.1961065090793
 20
10.22500007528831
 30
0.0
 40
1.399999999999999
100
AcDbArc
 50
90.0
 51
180.0
  0
LINE
  5
FE0
330
F62
100
AcDbEntity
  8
ZUWAKU
100
AcDbLine
 10
22.79610650907926
 20
10.22500007528831
 30
0.0
 11
22.79610650907926
 21
9.317399062610643
 31
0.0
  0
ARC
  5
FE1
330
F62
100
AcDbEntity
  8
ZUWAKU
100
AcDbCircle
 10
21.48360650907926
 20
11.36250007528831
 30
0.0
 40
0.2625
100
AcDbArc
 50
0.0
 51
90.0
  0
LINE
  5
FE2
330
F62
100
AcDbEntity
  8
ZUWAKU
100
AcDbLine
 10
24.1961065090793
 20
9.962500075288314
 30
0.0
 11
24.1961065090793
 21
9.317399062610643
 31
0.0
  0
ARC
  5
FE3
330
F62
100
AcDbEntity
  8
ZUWAKU
100
AcDbCircle
 10
24.45860650907929
 20
9.962500075288314
 30
0.0
 40
0.2625
100
AcDbArc
 50
90.0
 51
180.0
  0
LINE
  5
FE4
330
F62
100
AcDbEntity
  8
ZUWAKU
100
AcDbLine
 10
26.20860650907928
 20
11.36250007528831
 30
0.0
 11
26.20860650907928
 21
10.48750007528831
 31
0.0
  0
ARC
  5
FE5
330
F62
100
AcDbEntity
  8
ZUWAKU
100
AcDbCircle
 10
25.9461065090793
 20
10.48750007528831
 30
0.0
 40
0.2625
100
AcDbArc
 50
270.0
 51
0.0
  0
ARC
  5
FE6
330
F62
100
AcDbEntity
  8
ZUWAKU
100
AcDbCircle
 10
25.9461065090793
 20
11.36250007528831
 30
0.0
 40
0.2625
100
AcDbArc
 50
0.0
 51
90.0
  0
LINE
  5
FE7
330
F62
100
AcDbEntity
  8
ZUWAKU
100
AcDbLine
 10
28.65860650907928
 20
11.62500007528831
 30
0.0
 11
27.78360650907927
 21
11.62500007528831
 31
0.0
  0
ARC
  5
FE8
330
F62
100
AcDbEntity
  8
ZUWAKU
100
AcDbCircle
 10
27.78360650907927
 20
11.36250007528831
 30
0.0
 40
0.2625
100
AcDbArc
 50
90.0
 51
180.0
  0
ARC
  5
FE9
330
F62
100
AcDbEntity
  8
ZUWAKU
100
AcDbCircle
 10
28.65860650907928
 20
11.36250007528831
 30
0.0
 40
0.2625
100
AcDbArc
 50
0.0
 51
90.0
  0
LINE
  5
FEA
330
F62
100
AcDbEntity
  8
ZUWAKU
100
AcDbLine
 10
34.2586065090793
 20
11.62500007528831
 30
0.0
 11
33.38360650907929
 21
11.62500007528831
 31
0.0
  0
ARC
  5
FEB
330
F62
100
AcDbEntity
  8
ZUWAKU
100
AcDbCircle
 10
30.93360650907925
 20
11.36250007528831
 30
0.0
 40
0.2625
100
AcDbArc
 50
90.0
 51
180.0
  0
LINE
  5
FEC
330
F62
100
AcDbEntity
  8
ZUWAKU
100
AcDbLine
 10
31.80860650907925
 20
11.62500007528831
 30
0.0
 11
30.93360650907925
 21
11.62500007528831
 31
0.0
  0
ARC
  5
FED
330
F62
100
AcDbEntity
  8
ZUWAKU
100
AcDbCircle
 10
31.80860650907925
 20
11.36250007528831
 30
0.0
 40
0.2625
100
AcDbArc
 50
0.0
 51
90.0
  0
ARC
  5
FEE
330
F62
100
AcDbEntity
  8
ZUWAKU
100
AcDbCircle
 10
33.38360650907929
 20
11.36250007528831
 30
0.0
 40
0.2625
100
AcDbArc
 50
90.0
 51
180.0
  0
ARC
  5
FEF
330
F62
100
AcDbEntity
  8
ZUWAKU
100
AcDbCircle
 10
34.2586065090793
 20
11.36250007528831
 30
0.0
 40
0.2625
100
AcDbArc
 50
0.0
 51
90.0
  0
LINE
  5
FF0
330
F62
100
AcDbEntity
  8
ZUWAKU
100
AcDbLine
 10
104.2233010767225
 20
15.00000007528831
 30
0.0
 11
104.2233010767226
 21
0.4000000752883466
 31
0.0
  0
LINE
  5
FF1
330
F62
100
AcDbEntity
  8
ZUWAKU
100
AcDbLine
 10
104.3233010767226
 20
15.00000007528831
 30
0.0
 11
104.3233010767227
 21
0.4000000752883466
 31
0.0
  0
LINE
  5
FF2
330
F62
100
AcDbEntity
  8
ZUWAKU
100
AcDbLine
 10
104.1233010767226
 20
15.00000007528831
 30
0.0
 11
104.1233010767226
 21
0.4000000752883466
 31
0.0
  0
TEXT
  5
FF3
330
F62
100
AcDbEntity
  8
MOJI
100
AcDbText
 10
119.9136017721142
 20
9.002460603992005
 30
0.0
 40
2.799999999999999
  1
のきとい
 41
0.9
  7
ｽﾀｲﾙ1
100
AcDbText
  0
TEXT
  5
FF4
330
F62
100
AcDbEntity
  8
ZUWAKU
100
AcDbText
 10
104.8620235878274
 20
4.827678344481121
 30
0.0
 40
2.0
  1
サイズ
 41
0.9
  7
ｽﾀｲﾙ1
100
AcDbText
  0
TEXT
  5
FF5
330
F62
100
AcDbEntity
  8
MOJI
100
AcDbText
 10
119.9136017721142
 20
1.602460603992023
 30
0.0
 40
2.799999999999999
  1
Ｔ１６０－４,０００
 41
0.9
  7
ｽﾀｲﾙ1
100
AcDbText
  0
TEXT
  5
FF6
330
F62
100
AcDbEntity
  8
ZUWAKU
100
AcDbText
 10
104.8620235878273
 20
12.0276783444811
 30
0.0
 40
2.0
  1
品名
 41
0.9
  7
ｽﾀｲﾙ1
100
AcDbText
  0
TEXT
  5
FF7
330
F62
100
AcDbEntity
  8
ZUWAKU
100
AcDbText
 10
329.1019692753399
 20
9.002460603992005
 30
0.0
 40
2.799999999999999
  1
　　．　　．　　
 41
0.9
  7
ｽﾀｲﾙ1
100
AcDbText
  0
LINE
  5
FF8
330
F62
100
AcDbEntity
  8
ZUWAKU
100
AcDbLine
 10
324.4086016867908
 20
7.800000075288329
 30
0.0
 11
348.6245057059593
 21
7.800000075288329
 31
0.0
  0
LINE
  5
FF9
330
F62
100
AcDbEntity
  8
ZUWAKU
100
AcDbLine
 10
324.4086016867909
 20
7.700000075288331
 30
0.0
 11
348.6245057059593
 21
7.700000075288329
 31
0.0
  0
LINE
  5
FFA
330
F62
100
AcDbEntity
  8
ZUWAKU
100
AcDbLine
 10
324.4086016867908
 20
7.600000075288328
 30
0.0
 11
348.6245057059593
 21
7.600000075288329
 31
0.0
  0
LINE
  5
FFB
330
F62
100
AcDbEntity
  8
ZUWAKU
100
AcDbLine
 10
252.5995901807591
 20
7.800000075288329
 30
0.0
 11
276.2634783147449
 21
7.800000075288329
 31
0.0
  0
LINE
  5
FFC
330
F62
100
AcDbEntity
  8
ZUWAKU
100
AcDbLine
 10
252.5995901807591
 20
7.700000075288329
 30
0.0
 11
276.2634783147449
 21
7.700000075288329
 31
0.0
  0
LINE
  5
FFD
330
F62
100
AcDbEntity
  8
ZUWAKU
100
AcDbLine
 10
252.5995901807591
 20
7.600000075288331
 30
0.0
 11
276.2634783147449
 21
7.600000075288331
 31
0.0
  0
LINE
  5
FFE
330
F62
100
AcDbEntity
  8
ZUWAKU
100
AcDbLine
 10
252.3995901807592
 20
15.00000007528831
 30
0.0
 11
252.3995901807592
 21
0.4000000752883466
 31
0.0
  0
LINE
  5
FFF
330
F62
100
AcDbEntity
  8
ZUWAKU
100
AcDbLine
 10
252.5995901807591
 20
15.00000007528831
 30
0.0
 11
252.5995901807592
 21
0.4000000752883466
 31
0.0
  0
LINE
  5
1000
330
F62
100
AcDbEntity
  8
ZUWAKU
100
AcDbLine
 10
252.4995901807591
 20
15.00000007528831
 30
0.0
 11
252.4995901807592
 21
0.4000000752883466
 31
0.0
  0
TEXT
  5
1001
330
F62
100
AcDbEntity
  8
MOJI
100
AcDbText
 10
264.0204544178451
 20
9.002460603992005
 30
0.0
 40
2.799999999999999
  1
Ａ３
 41
0.9
  7
ｽﾀｲﾙ1
100
AcDbText
  0
LINE
  5
1002
330
F62
100
AcDbEntity
  8
ZUWAKU
100
AcDbLine
 10
223.7121824171844
 20
15.00000007528831
 30
0.0
 11
223.7121824171844
 21
0.4000000752883466
 31
0.0
  0
LINE
  5
1003
330
F62
100
AcDbEntity
  8
ZUWAKU
100
AcDbLine
 10
223.9121824171843
 20
15.00000007528831
 30
0.0
 11
223.9121824171844
 21
0.4000000752883466
 31
0.0
  0
LINE
  5
1004
330
F62
100
AcDbEntity
  8
ZUWAKU
100
AcDbLine
 10
223.8121824171843
 20
15.00000007528831
 30
0.0
 11
223.8121824171844
 21
0.4000000752883466
 31
0.0
  0
TEXT
  5
1005
330
F62
100
AcDbEntity
  8
MOJI
100
AcDbText
 10
231.6232164271897
 20
5.971308936118305
 30
0.0
 40
2.799999999999999
  1
ＣＡ８２□
 41
0.9
  7
ｽﾀｲﾙ1
100
AcDbText
  0
TEXT
  5
1006
330
F62
100
AcDbEntity
  8
ZUWAKU
100
AcDbText
 10
230.6528771429501
 20
1.307035530858058
 30
0.0
 40
1.5
  1
□には色品番が入ります
 41
0.9
  7
ｽﾀｲﾙ1
100
AcDbText
  0
TEXT
  5
1007
330
F62
100
AcDbEntity
  8
ZUWAKU
100
AcDbText
 10
253.338312691864
 20
4.827678344481121
 30
0.0
 40
2.0
  1
縮尺
 41
0.9
  7
ｽﾀｲﾙ1
100
AcDbText
  0
TEXT
  5
1008
330
F62
100
AcDbEntity
  8
MOJI
100
AcDbText
 10
264.0204544178451
 20
1.602460603992023
 30
0.0
 40
2.799999999999999
  1
１/１
 41
0.9
  7
ｽﾀｲﾙ1
100
AcDbText
  0
TEXT
  5
1009
330
F62
100
AcDbEntity
  8
ZUWAKU
100
AcDbText
 10
224.6509049282891
 20
12.0276783444811
 30
0.0
 40
2.0
  1
品番
 41
0.9
  7
ｽﾀｲﾙ1
100
AcDbText
  0
TEXT
  5
100A
330
F62
100
AcDbEntity
  8
ZUWAKU
100
AcDbText
 10
253.3383126918639
 20
12.0276783444811
 30
0.0
 40
2.0
  1
用紙
 41
0.9
  7
ｽﾀｲﾙ1
100
AcDbText
  0
LINE
  5
100B
330
F62
100
AcDbEntity
  8
ZUWAKU
100
AcDbLine
 10
276.2634783147449
 20
15.00000007528831
 30
0.0
 11
276.2634783147449
 21
0.4000000752883466
 31
0.0
  0
LINE
  5
100C
330
F62
100
AcDbEntity
  8
ZUWAKU
100
AcDbLine
 10
276.4634783147448
 20
15.00000007528831
 30
0.0
 11
276.4634783147449
 21
0.4000000752883466
 31
0.0
  0
LINE
  5
100D
330
F62
100
AcDbEntity
  8
ZUWAKU
100
AcDbLine
 10
276.3634783147448
 20
15.00000007528831
 30
0.0
 11
276.3634783147449
 21
0.4000000752883466
 31
0.0
  0
LINE
  5
100E
330
F62
100
AcDbEntity
  8
ZUWAKU
100
AcDbLine
 10
324.2086016867909
 20
15.00000007528831
 30
0.0
 11
324.2086016867909
 21
0.4000000752883466
 31
0.0
  0
LINE
  5
100F
330
F62
100
AcDbEntity
  8
ZUWAKU
100
AcDbLine
 10
324.4086016867909
 20
15.00000007528831
 30
0.0
 11
324.408601686791
 21
0.4000000752883466
 31
0.0
  0
LINE
  5
1010
330
F62
100
AcDbEntity
  8
ZUWAKU
100
AcDbLine
 10
324.3086016867909
 20
15.00000007528831
 30
0.0
 11
324.308601686791
 21
0.4000000752883466
 31
0.0
  0
TEXT
  5
1011
330
F62
100
AcDbEntity
  8
ZUWAKU
100
AcDbText
 10
325.1473241978957
 20
12.0276783444811
 30
0.0
 40
2.0
  1
DATE
 41
0.9
  7
ｽﾀｲﾙ1
100
AcDbText
  0
TEXT
  5
1012
330
F62
100
AcDbEntity
  8
ZUWAKU
100
AcDbText
 10
354.2640425278106
 20
8.776919743131713
 30
0.0
 40
3.0
  1
積水化学工業株式会社
 41
0.9
  7
ｽﾀｲﾙ1
100
AcDbText
  0
LINE
  5
1013
330
F62
100
AcDbEntity
  8
ZUWAKU
100
AcDbLine
 10
348.9245057059592
 20
15.00000007528831
 30
0.0
 11
348.9245057059594
 21
0.4000000752883466
 31
0.0
  0
LINE
  5
1014
330
F62
100
AcDbEntity
  8
ZUWAKU
100
AcDbLine
 10
348.8245057059592
 20
15.00000007528831
 30
0.0
 11
348.8245057059593
 21
0.4000000752883466
 31
0.0
  0
LINE
  5
1015
330
F62
100
AcDbEntity
  8
ZUWAKU
100
AcDbLine
 10
348.7245057059593
 20
15.00000007528831
 30
0.0
 11
348.7245057059593
 21
0.4000000752883466
 31
0.0
  0
LINE
  5
1016
330
F62
100
AcDbEntity
  8
ZUWAKU
100
AcDbLine
 10
348.6245057059593
 20
15.00000007528831
 30
0.0
 11
348.6245057059593
 21
0.4000000752883466
 31
0.0
  0
TEXT
  5
1017
330
F62
100
AcDbEntity
  8
ZUWAKU
100
AcDbText
 10
354.2640425278106
 20
3.324420232215345
 30
0.0
 40
3.0
  1
建材事業部
 41
0.9
  7
ｽﾀｲﾙ1
100
AcDbText
  0
ENDBLK
  5
1019
330
F62
100
AcDbEntity
  8
0
100
AcDbBlockEnd
  0
BLOCK
  5
1811
330
1805
100
AcDbEntity
  8
0
100
AcDbBlockBegin
  2
*D62
 70
     1
 10
0.0
 20
0.0
 30
0.0
  3
*D62
  1

  0
LINE
  5
1B0F
330
1805
100
AcDbEntity
  8
SUNPOU
100
AcDbLine
 10
659.0698509750041
 20
471.6704172650609
 30
0.0
 11
679.4413853751319
 21
471.6704172650609
 31
0.0
  0
LINE
  5
1B10
330
1805
100
AcDbEntity
  8
SUNPOU
100
AcDbLine
 10
662.340750975004
 20
466.6704172650609
 30
0.0
 11
679.4413853751319
 21
466.6704172650609
 31
0.0
  0
LINE
  5
1B11
330
1805
100
AcDbEntity
  8
SUNPOU
100
AcDbLine
 10
676.4413853751318
 20
478.6704172650608
 30
0.0
 11
676.4413853751318
 21
485.6704172650609
 31
0.0
  0
LINE
  5
1B12
330
1805
100
AcDbEntity
  8
SUNPOU
100
AcDbLine
 10
676.4413853751318
 20
459.6704172650609
 30
0.0
 11
676.4413853751318
 21
452.6704172650608
 31
0.0
  0
MTEXT
  5
1B13
330
1805
100
AcDbEntity
  8
SUNPOU
100
AcDbMText
 10
683.231901655774
 20
470.3259007078294
 30
0.0
 40
6.0
 41
0.0
 71
     5
 72
     1
  1
\A1;差込み寸法5
 11
0.0000000000000001
 21
1.0
 31
0.0
  0
LINE
  5
1B14
330
1805
100
AcDbEntity
  8
SUNPOU
100
AcDbLine
 10
676.4413853751318
 20
471.6704172650609
 30
0.0
 11
676.4413853751318
 21
466.6704172650609
 31
0.0
  0
INSERT
  5
1B15
330
1805
100
AcDbEntity
  8
SUNPOU
100
AcDbBlockReference
  2
_OPEN
 10
676.4413853751318
 20
471.6704172650609
 30
0.0
 41
7.0
 42
7.0
 43
7.0
 50
270.0
  0
INSERT
  5
1B16
330
1805
100
AcDbEntity
  8
SUNPOU
100
AcDbBlockReference
  2
_OPEN
 10
676.4413853751318
 20
466.6704172650609
 30
0.0
 41
7.0
 42
7.0
 43
7.0
 50
90.0
  0
POINT
  5
1B17
330
1805
100
AcDbEntity
  8
DEFPOINTS
 62
     0
100
AcDbPoint
 10
653.0698509750041
 20
471.6704172650609
 30
0.0
  0
POINT
  5
1B18
330
1805
100
AcDbEntity
  8
DEFPOINTS
 62
     0
100
AcDbPoint
 10
656.3407509750041
 20
466.6704172650609
 30
0.0
  0
POINT
  5
1B19
330
1805
100
AcDbEntity
  8
DEFPOINTS
 62
     0
100
AcDbPoint
 10
676.4413853751318
 20
466.6704172650609
 30
0.0
  0
ENDBLK
  5
1812
330
1805
100
AcDbEntity
  8
0
100
AcDbBlockEnd
  0
BLOCK
  5
181F
330
1813
100
AcDbEntity
  8
0
100
AcDbBlockBegin
  2
*D63
 70
     1
 10
0.0
 20
0.0
 30
0.0
  3
*D63
  1

  0
LINE
  5
1B04
330
1813
100
AcDbEntity
  8
SUNPOU
100
AcDbLine
 10
519.9078173013417
 20
476.8844842164985
 30
0.0
 11
499.6795289256652
 21
476.8844842164985
 31
0.0
  0
LINE
  5
1B05
330
1813
100
AcDbEntity
  8
SUNPOU
100
AcDbLine
 10
519.9078173013417
 20
459.8844842164985
 30
0.0
 11
499.6795289256652
 21
459.8844842164985
 31
0.0
  0
LINE
  5
1B06
330
1813
100
AcDbEntity
  8
SUNPOU
100
AcDbLine
 10
502.6795289256652
 20
483.8844842164985
 30
0.0
 11
502.6795289256652
 21
490.8844842164985
 31
0.0
  0
LINE
  5
1B07
330
1813
100
AcDbEntity
  8
SUNPOU
100
AcDbLine
 10
502.6795289256652
 20
452.8844842164985
 30
0.0
 11
502.6795289256652
 21
445.8844842164985
 31
0.0
  0
LINE
  5
1B08
330
1813
100
AcDbEntity
  8
SUNPOU
100
AcDbLine
 10
502.6795289256652
 20
476.8844842164985
 30
0.0
 11
502.6795289256652
 21
459.8844842164985
 31
0.0
  0
INSERT
  5
1B09
330
1813
100
AcDbEntity
  8
SUNPOU
100
AcDbBlockReference
  2
_OPEN
 10
502.6795289256652
 20
476.8844842164985
 30
0.0
 41
7.0
 42
7.0
 43
7.0
 50
270.0
  0
INSERT
  5
1B0A
330
1813
100
AcDbEntity
  8
SUNPOU
100
AcDbBlockReference
  2
_OPEN
 10
502.6795289256652
 20
459.8844842164985
 30
0.0
 41
7.0
 42
7.0
 43
7.0
 50
90.0
  0
MTEXT
  5
1B0B
330
1813
100
AcDbEntity
  8
SUNPOU
100
AcDbMText
 10
497.6795289256651
 20
468.3844842164986
 30
0.0
 40
6.0
 41
0.0
 71
     5
 72
     1
  1
\A1;17
 11
0.0000000000000001
 21
1.0
 31
0.0
  0
POINT
  5
1B0C
330
1813
100
AcDbEntity
  8
DEFPOINTS
 62
     0
100
AcDbPoint
 10
525.9078173013417
 20
476.8844842164985
 30
0.0
  0
POINT
  5
1B0D
330
1813
100
AcDbEntity
  8
DEFPOINTS
 62
     0
100
AcDbPoint
 10
525.9078173013417
 20
459.8844842164985
 30
0.0
  0
POINT
  5
1B0E
330
1813
100
AcDbEntity
  8
DEFPOINTS
 62
     0
100
AcDbPoint
 10
502.6795289256652
 20
459.8844842164985
 30
0.0
  0
ENDBLK
  5
1820
330
1813
100
AcDbEntity
  8
0
100
AcDbBlockEnd
  0
BLOCK
  5
182B
330
1821
100
AcDbEntity
  8
0
100
AcDbBlockBegin
  2
*D64
 70
     1
 10
0.0
 20
0.0
 30
0.0
  3
*D64
  1

  0
LINE
  5
1AFB
330
1821
100
AcDbEntity
  8
SUNPOU
100
AcDbLine
 10
524.9078173013417
 20
481.8844842164985
 30
0.0
 11
524.9078173013417
 21
493.5300618212773
 31
0.0
  0
LINE
  5
1AFC
330
1821
100
AcDbEntity
  8
SUNPOU
100
AcDbLine
 10
577.9079173013417
 20
481.8845842164985
 30
0.0
 11
577.9079173013417
 21
493.5300618212773
 31
0.0
  0
LINE
  5
1AFD
330
1821
100
AcDbEntity
  8
SUNPOU
100
AcDbLine
 10
531.9078173013418
 20
490.5300618212772
 30
0.0
 11
570.9079173013417
 21
490.5300618212772
 31
0.0
  0
INSERT
  5
1AFE
330
1821
100
AcDbEntity
  8
SUNPOU
100
AcDbBlockReference
  2
_OPEN
 10
524.9078173013417
 20
490.5300618212772
 30
0.0
 41
7.0
 42
7.0
 43
7.0
 50
180.0
  0
INSERT
  5
1AFF
330
1821
100
AcDbEntity
  8
SUNPOU
100
AcDbBlockReference
  2
_OPEN
 10
577.9079173013417
 20
490.5300618212772
 30
0.0
 41
7.0
 42
7.0
 43
7.0
  0
MTEXT
  5
1B00
330
1821
100
AcDbEntity
  8
SUNPOU
100
AcDbMText
 10
551.4078673013417
 20
495.5300618212772
 30
0.0
 40
6.0
 41
0.0
 71
     5
 72
     1
  1
\A1;53
  0
POINT
  5
1B01
330
1821
100
AcDbEntity
  8
DEFPOINTS
 62
     0
100
AcDbPoint
 10
524.9078173013417
 20
475.8844842164985
 30
0.0
  0
POINT
  5
1B02
330
1821
100
AcDbEntity
  8
DEFPOINTS
 62
     0
100
AcDbPoint
 10
577.9079173013417
 20
475.8845842164985
 30
0.0
  0
POINT
  5
1B03
330
1821
100
AcDbEntity
  8
DEFPOINTS
 62
     0
100
AcDbPoint
 10
577.9079173013417
 20
490.5300618212772
 30
0.0
  0
ENDBLK
  5
182C
330
1821
100
AcDbEntity
  8
0
100
AcDbBlockEnd
  0
BLOCK
  5
1839
330
182D
100
AcDbEntity
  8
0
100
AcDbBlockBegin
  2
*D65
 70
     1
 10
0.0
 20
0.0
 30
0.0
  3
*D65
  1

  0
LINE
  5
1ADA
330
182D
100
AcDbEntity
  8
SUNPOU
100
AcDbLine
 10
647.8407509750041
 20
481.1704172650609
 30
0.0
 11
647.8407509750041
 21
493.5300618212773
 31
0.0
  0
LINE
  5
1ADB
330
182D
100
AcDbEntity
  8
SUNPOU
100
AcDbLine
 10
657.2696449750042
 20
481.1704172650609
 30
0.0
 11
657.2696449750042
 21
493.5300618212773
 31
0.0
  0
LINE
  5
1ADC
330
182D
100
AcDbEntity
  8
SUNPOU
100
AcDbLine
 10
640.840750975004
 20
490.5300618212772
 30
0.0
 11
633.8407509750041
 21
490.5300618212772
 31
0.0
  0
LINE
  5
1ADD
330
182D
100
AcDbEntity
  8
SUNPOU
100
AcDbLine
 10
664.2696449750042
 20
490.5300618212772
 30
0.0
 11
671.2696449750041
 21
490.5300618212772
 31
0.0
  0
LINE
  5
1ADE
330
182D
100
AcDbEntity
  8
SUNPOU
100
AcDbLine
 10
647.8407509750041
 20
490.5300618212772
 30
0.0
 11
657.2696449750042
 21
490.5300618212772
 31
0.0
  0
INSERT
  5
1ADF
330
182D
100
AcDbEntity
  8
SUNPOU
100
AcDbBlockReference
  2
_OPEN
 10
647.8407509750041
 20
490.5300618212772
 30
0.0
 41
7.0
 42
7.0
 43
7.0
  0
INSERT
  5
1AE0
330
182D
100
AcDbEntity
  8
SUNPOU
100
AcDbBlockReference
  2
_OPEN
 10
657.2696449750042
 20
490.5300618212772
 30
0.0
 41
7.0
 42
7.0
 43
7.0
 50
180.0
  0
MTEXT
  5
1AE1
330
182D
100
AcDbEntity
  8
SUNPOU
100
AcDbMText
 10
652.5551979750041
 20
495.5300618212772
 30
0.0
 40
6.0
 41
0.0
 71
     5
 72
     1
  1
\A1;9
  0
POINT
  5
1AE2
330
182D
100
AcDbEntity
  8
DEFPOINTS
 62
     0
100
AcDbPoint
 10
647.8407509750041
 20
475.1704172650609
 30
0.0
  0
POINT
  5
1AE3
330
182D
100
AcDbEntity
  8
DEFPOINTS
 62
     0
100
AcDbPoint
 10
657.2696449750042
 20
475.1704172650609
 30
0.0
  0
POINT
  5
1AE4
330
182D
100
AcDbEntity
  8
DEFPOINTS
 62
     0
100
AcDbPoint
 10
657.2696449750042
 20
490.5300618212772
 30
0.0
  0
ENDBLK
  5
183A
330
182D
100
AcDbEntity
  8
0
100
AcDbBlockEnd
  0
BLOCK
  5
1847
330
183B
100
AcDbEntity
  8
0
100
AcDbBlockBegin
  2
*D66
 70
     1
 10
0.0
 20
0.0
 30
0.0
  3
*D66
  1

  0
LINE
  5
1AF0
330
183B
100
AcDbEntity
  8
SUNPOU
100
AcDbLine
 10
645.9871975844107
 20
471.5239706556541
 30
0.0
 11
630.4537066796785
 21
471.5239706556541
 31
0.0
  0
LINE
  5
1AF1
330
183B
100
AcDbEntity
  8
SUNPOU
100
AcDbLine
 10
645.840750975004
 20
458.6704172650609
 30
0.0
 11
630.4537066796785
 21
458.6704172650609
 31
0.0
  0
LINE
  5
1AF2
330
183B
100
AcDbEntity
  8
SUNPOU
100
AcDbLine
 10
633.4537066796785
 20
478.5239706556541
 30
0.0
 11
633.4537066796785
 21
485.5239706556542
 31
0.0
  0
LINE
  5
1AF3
330
183B
100
AcDbEntity
  8
SUNPOU
100
AcDbLine
 10
633.4537066796785
 20
451.670417265061
 30
0.0
 11
633.4537066796785
 21
444.6704172650609
 31
0.0
  0
LINE
  5
1AF4
330
183B
100
AcDbEntity
  8
SUNPOU
100
AcDbLine
 10
633.4537066796785
 20
471.5239706556541
 30
0.0
 11
633.4537066796785
 21
458.6704172650609
 31
0.0
  0
INSERT
  5
1AF5
330
183B
100
AcDbEntity
  8
SUNPOU
100
AcDbBlockReference
  2
_OPEN
 10
633.4537066796785
 20
471.5239706556541
 30
0.0
 41
7.0
 42
7.0
 43
7.0
 50
270.0
  0
INSERT
  5
1AF6
330
183B
100
AcDbEntity
  8
SUNPOU
100
AcDbBlockReference
  2
_OPEN
 10
633.4537066796785
 20
458.6704172650609
 30
0.0
 41
7.0
 42
7.0
 43
7.0
 50
90.0
  0
MTEXT
  5
1AF7
330
183B
100
AcDbEntity
  8
SUNPOU
100
AcDbMText
 10
628.4537066796785
 20
465.0971939603576
 30
0.0
 40
6.0
 41
0.0
 71
     5
 72
     1
  1
\A1;13
 11
0.0000000000000001
 21
1.0
 31
0.0
  0
POINT
  5
1AF8
330
183B
100
AcDbEntity
  8
DEFPOINTS
 62
     0
100
AcDbPoint
 10
651.9871975844107
 20
471.5239706556541
 30
0.0
  0
POINT
  5
1AF9
330
183B
100
AcDbEntity
  8
DEFPOINTS
 62
     0
100
AcDbPoint
 10
651.8407509750041
 20
458.6704172650609
 30
0.0
  0
POINT
  5
1AFA
330
183B
100
AcDbEntity
  8
DEFPOINTS
 62
     0
100
AcDbPoint
 10
633.4537066796785
 20
458.6704172650609
 30
0.0
  0
ENDBLK
  5
1848
330
183B
100
AcDbEntity
  8
0
100
AcDbBlockEnd
  0
BLOCK
  5
1855
330
1849
100
AcDbEntity
  8
0
100
AcDbBlockBegin
  2
*D67
 70
     1
 10
0.0
 20
0.0
 30
0.0
  3
*D67
  1

  0
LINE
  5
1AE5
330
1849
100
AcDbEntity
  8
SUNPOU
100
AcDbLine
 10
581.9079173013417
 20
474.8845842164985
 30
0.0
 11
599.9633771312205
 21
474.8845842164985
 31
0.0
  0
LINE
  5
1AE6
330
1849
100
AcDbEntity
  8
SUNPOU
100
AcDbLine
 10
582.9791643513297
 20
459.8871255166677
 30
0.0
 11
599.9633771312205
 21
459.8871255166677
 31
0.0
  0
LINE
  5
1AE7
330
1849
100
AcDbEntity
  8
SUNPOU
100
AcDbLine
 10
596.9633771312206
 20
481.8845842164985
 30
0.0
 11
596.9633771312206
 21
488.8845842164985
 31
0.0
  0
LINE
  5
1AE8
330
1849
100
AcDbEntity
  8
SUNPOU
100
AcDbLine
 10
596.9633771312206
 20
452.8871255166677
 30
0.0
 11
596.9633771312206
 21
445.8871255166677
 31
0.0
  0
LINE
  5
1AE9
330
1849
100
AcDbEntity
  8
SUNPOU
100
AcDbLine
 10
596.9633771312206
 20
474.8845842164985
 30
0.0
 11
596.9633771312206
 21
459.8871255166677
 31
0.0
  0
INSERT
  5
1AEA
330
1849
100
AcDbEntity
  8
SUNPOU
100
AcDbBlockReference
  2
_OPEN
 10
596.9633771312206
 20
474.8845842164985
 30
0.0
 41
7.0
 42
7.0
 43
7.0
 50
270.0
  0
INSERT
  5
1AEB
330
1849
100
AcDbEntity
  8
SUNPOU
100
AcDbBlockReference
  2
_OPEN
 10
596.9633771312206
 20
459.8871255166677
 30
0.0
 41
7.0
 42
7.0
 43
7.0
 50
90.0
  0
MTEXT
  5
1AEC
330
1849
100
AcDbEntity
  8
SUNPOU
100
AcDbMText
 10
591.9633771312204
 20
467.3858548665831
 30
0.0
 40
6.0
 41
0.0
 71
     5
 72
     1
  1
\A1;15
 11
0.0000000000000001
 21
1.0
 31
0.0
  0
POINT
  5
1AED
330
1849
100
AcDbEntity
  8
DEFPOINTS
 62
     0
100
AcDbPoint
 10
575.9079173013417
 20
474.8845842164985
 30
0.0
  0
POINT
  5
1AEE
330
1849
100
AcDbEntity
  8
DEFPOINTS
 62
     0
100
AcDbPoint
 10
576.9791643513297
 20
459.8871255166677
 30
0.0
  0
POINT
  5
1AEF
330
1849
100
AcDbEntity
  8
DEFPOINTS
 62
     0
100
AcDbPoint
 10
596.9633771312206
 20
459.8871255166677
 30
0.0
  0
ENDBLK
  5
1856
330
1849
100
AcDbEntity
  8
0
100
AcDbBlockEnd
  0
BLOCK
  5
1863
330
1857
100
AcDbEntity
  8
0
100
AcDbBlockBegin
  2
*D68
 70
     1
 10
0.0
 20
0.0
 30
0.0
  3
*D68
  1

  0
LINE
  5
1ACF
330
1857
100
AcDbEntity
  8
SUNPOU
100
AcDbLine
 10
651.8407509750041
 20
452.6704172650608
 30
0.0
 11
651.8407509750041
 21
440.1750499013409
 31
0.0
  0
LINE
  5
1AD0
330
1857
100
AcDbEntity
  8
SUNPOU
100
AcDbLine
 10
653.568950975004
 20
465.2003172650609
 30
0.0
 11
653.568950975004
 21
440.1750499013409
 31
0.0
  0
LINE
  5
1AD1
330
1857
100
AcDbEntity
  8
SUNPOU
100
AcDbLine
 10
644.840750975004
 20
443.175049901341
 30
0.0
 11
637.840750975004
 21
443.175049901341
 31
0.0
  0
LINE
  5
1AD2
330
1857
100
AcDbEntity
  8
SUNPOU
100
AcDbLine
 10
660.5689509750041
 20
443.175049901341
 30
0.0
 11
667.5689509750041
 21
443.175049901341
 31
0.0
  0
MTEXT
  5
1AD3
330
1857
100
AcDbEntity
  8
SUNPOU
100
AcDbMText
 10
652.7048509750041
 20
428.175049901341
 30
0.0
 40
6.0
 41
0.0
 71
     5
 72
     1
  1
\A1;2
  0
LINE
  5
1AD4
330
1857
100
AcDbEntity
  8
SUNPOU
100
AcDbLine
 10
651.8407509750041
 20
443.175049901341
 30
0.0
 11
653.568950975004
 21
443.175049901341
 31
0.0
  0
INSERT
  5
1AD5
330
1857
100
AcDbEntity
  8
SUNPOU
100
AcDbBlockReference
  2
_OPEN
 10
651.8407509750041
 20
443.175049901341
 30
0.0
 41
7.0
 42
7.0
 43
7.0
  0
INSERT
  5
1AD6
330
1857
100
AcDbEntity
  8
SUNPOU
100
AcDbBlockReference
  2
_OPEN
 10
653.568950975004
 20
443.175049901341
 30
0.0
 41
7.0
 42
7.0
 43
7.0
 50
180.0
  0
POINT
  5
1AD7
330
1857
100
AcDbEntity
  8
DEFPOINTS
 62
     0
100
AcDbPoint
 10
651.8407509750041
 20
458.6704172650609
 30
0.0
  0
POINT
  5
1AD8
330
1857
100
AcDbEntity
  8
DEFPOINTS
 62
     0
100
AcDbPoint
 10
653.568950975004
 20
471.2003172650609
 30
0.0
  0
POINT
  5
1AD9
330
1857
100
AcDbEntity
  8
DEFPOINTS
 62
     0
100
AcDbPoint
 10
653.568950975004
 20
443.175049901341
 30
0.0
  0
ENDBLK
  5
1864
330
1857
100
AcDbEntity
  8
0
100
AcDbBlockEnd
  0
ENDSEC
  0
SECTION
  2
ENTITIES
  0
LINE
  5
351
330
1A
100
AcDbEntity
  8
SEIHIN
  6
CONTINUOUS
 62
     3
100
AcDbLine
 10
152.9276052736843
 20
274.7187292613121
 30
0.0
 11
231.2927786954842
 21
274.7187292613121
 31
0.0
  0
LINE
  5
352
330
1A
100
AcDbEntity
  8
SEIHIN
  6
CONTINUOUS
 62
     3
100
AcDbLine
 10
148.2927786954842
 20
285.8112754937121
 30
0.0
 11
231.2927786954842
 21
285.8112754937121
 31
0.0
  0
LINE
  5
353
330
1A
100
AcDbEntity
  8
SEIHIN
  6
CONTINUOUS
 62
     3
100
AcDbLine
 10
187.2308705083842
 20
129.3102396701121
 30
0.0
 11
231.2927786954842
 21
129.3102396701121
 31
0.0
  0
LINE
  5
354
330
1A
100
AcDbEntity
  8
SEIHIN
  6
CONTINUOUS
 62
     3
100
AcDbLine
 10
190.7018501432844
 20
129.3102396701121
 30
0.0
 11
231.2927786954842
 21
129.3102396701121
 31
0.0
  0
LINE
  5
355
330
1A
100
AcDbEntity
  8
SEIHIN
  6
CONTINUOUS
 62
     3
100
AcDbLine
 10
152.9276052736843
 20
172.5713175175121
 30
0.0
 11
231.2927786954842
 21
172.5713175175121
 31
0.0
  0
LINE
  5
359
330
1A
100
AcDbEntity
  8
SEIHIN
  6
CONTINUOUS
 62
     3
100
AcDbLine
 10
116.2927786954842
 20
150.3102060299122
 30
0.0
 11
116.2927786954842
 21
290.7139421640122
 31
0.0
  0
ARC
  5
35A
330
1A
100
AcDbEntity
  8
SEIHIN
  6
CONTINUOUS
 62
     3
100
AcDbCircle
 10
134.0404884833842
 20
119.3853439487121
 30
0.0
 40
30.0
100
AcDbArc
 50
50.98155128570001
 51
87.13759477389999
  0
LINE
  5
35B
330
1A
100
AcDbEntity
  8
SEIHIN
  6
CONTINUOUS
 62
     3
100
AcDbLine
 10
135.5386172354842
 20
149.3479141029121
 30
0.0
 11
116.2927786954842
 21
150.3102060299122
 31
0.0
  0
ARC
  5
35F
330
1A
100
AcDbEntity
  8
SEIHIN
  6
CONTINUOUS
 62
     3
100
AcDbCircle
 10
190.7018417883841
 20
189.3102396701121
 30
0.0
 40
60.0
100
AcDbArc
 50
230.9815500835999
 51
270.0000079782999
  0
ARC
  5
360
330
1A
100
AcDbEntity
  8
SEIHIN
  6
CONTINUOUS
 62
     3
100
AcDbCircle
 10
150.4136657153844
 20
472.5607841791123
 30
0.0
 40
300.0
100
AcDbArc
 50
267.1579096372
 51
270.4801327082
  0
LINE
  5
361
330
1A
100
AcDbEntity
  8
SEIHIN
  6
CONTINUOUS
 62
     3
100
AcDbLine
 10
135.5386172354842
 20
172.9297895662121
 30
0.0
 11
116.2927786954842
 21
173.5713175175121
 31
0.0
  0
LINE
  5
362
330
1A
100
AcDbEntity
  8
SEIHIN
  6
CONTINUOUS
 62
     3
100
AcDbLine
 10
116.2927786954842
 20
290.7139421640122
 30
0.0
 11
146.2927786954842
 21
290.7139421640122
 31
0.0
  0
ARC
  5
363
330
1A
100
AcDbEntity
  8
SEIHIN
  6
CONTINUOUS
 62
     3
100
AcDbCircle
 10
150.4136657153844
 20
574.7081959229121
 30
0.0
 40
300.0
100
AcDbArc
 50
267.1579096372
 51
270.4801327082
  0
LINE
  5
364
330
1A
100
AcDbEntity
  8
SEIHIN
  6
CONTINUOUS
 62
     3
100
AcDbLine
 10
135.5386172354842
 20
275.0772013100122
 30
0.0
 11
116.2927786954842
 21
275.718729261312
 31
0.0
  0
LINE
  5
365
330
1A
100
AcDbEntity
  8
SEIHIN
  6
CONTINUOUS
 62
     3
100
AcDbLine
 10
146.2927786954842
 20
287.8112754937122
 30
0.0
 11
146.2927786954842
 21
290.7139421640122
 31
0.0
  0
ARC
  5
366
330
1A
100
AcDbEntity
  8
SEIHIN
  6
CONTINUOUS
 62
     3
100
AcDbCircle
 10
148.2927786954842
 20
287.8112754937122
 30
0.0
 40
2.0
100
AcDbArc
 50
180.0
 51
270.0
  0
LINE
  5
368
330
1A
100
AcDbEntity
  8
SEIHIN
  6
CONTINUOUS
 62
     3
100
AcDbLine
 10
346.2927786954842
 20
150.3102060299122
 30
0.0
 11
346.2927786954842
 21
290.7139421640122
 31
0.0
  0
LINE
  5
369
330
1A
100
AcDbEntity
  8
CENTER_L
  6
CENTER
 62
     1
100
AcDbLine
 10
231.2927786954842
 20
48.69678518161214
 30
0.0
 11
231.2927786954842
 21
297.7139421640121
 31
0.0
  0
LINE
  5
36A
330
1A
100
AcDbEntity
  8
SEIHIN
  6
CONTINUOUS
 62
     3
100
AcDbLine
 10
327.0469401555842
 20
149.3479141029121
 30
0.0
 11
346.2927786954842
 21
150.3102060299122
 31
0.0
  0
LINE
  5
36B
330
1A
100
AcDbEntity
  8
SEIHIN
  6
CONTINUOUS
 62
     3
100
AcDbLine
 10
271.8837072477843
 20
129.3102396701121
 30
0.0
 11
231.2927786954842
 21
129.3102396701121
 31
0.0
  0
LINE
  5
36C
330
1A
100
AcDbEntity
  8
SEIHIN
  6
CONTINUOUS
 62
     3
100
AcDbLine
 10
275.3546868825842
 20
129.3102396701121
 30
0.0
 11
231.2927786954842
 21
129.3102396701121
 31
0.0
  0
ARC
  5
379
330
1A
100
AcDbEntity
  8
SEIHIN
  6
CONTINUOUS
 62
     3
100
AcDbCircle
 10
271.8837156025843
 20
189.3102396701121
 30
0.0
 40
60.0
100
AcDbArc
 50
269.9999920216999
 51
309.0184499164
  0
ARC
  5
37A
330
1A
100
AcDbEntity
  8
SEIHIN
  6
CONTINUOUS
 62
     3
100
AcDbCircle
 10
328.5450689075842
 20
119.3853439487121
 30
0.0
 40
30.0
100
AcDbArc
 50
92.8624052261
 51
129.0184487143
  0
LINE
  5
37B
330
1A
100
AcDbEntity
  8
SEIHIN
  6
CONTINUOUS
 62
     3
100
AcDbLine
 10
346.2927786954842
 20
290.7139421640122
 30
0.0
 11
316.2927786954842
 21
290.7139421640122
 31
0.0
  0
LINE
  5
37C
330
1A
100
AcDbEntity
  8
SEIHIN
  6
CONTINUOUS
 62
     3
100
AcDbLine
 10
327.0469401555842
 20
275.0772013100122
 30
0.0
 11
346.2927786954842
 21
275.718729261312
 31
0.0
  0
LINE
  5
37D
330
1A
100
AcDbEntity
  8
SEIHIN
  6
CONTINUOUS
 62
     3
100
AcDbLine
 10
327.0469401555842
 20
172.9297895662121
 30
0.0
 11
346.2927786954842
 21
173.5713175175121
 31
0.0
  0
LINE
  5
37E
330
1A
100
AcDbEntity
  8
SEIHIN
  6
CONTINUOUS
 62
     3
100
AcDbLine
 10
309.6579521172843
 20
172.5713175175121
 30
0.0
 11
231.2927786954842
 21
172.5713175175121
 31
0.0
  0
ARC
  5
37F
330
1A
100
AcDbEntity
  8
SEIHIN
  6
CONTINUOUS
 62
     3
100
AcDbCircle
 10
312.1718916756842
 20
472.5607841791123
 30
0.0
 40
300.0
100
AcDbArc
 50
269.5198672917999
 51
272.8420903627999
  0
LINE
  5
380
330
1A
100
AcDbEntity
  8
SEIHIN
  6
CONTINUOUS
 62
     3
100
AcDbLine
 10
314.2927786954842
 20
285.8112754937121
 30
0.0
 11
231.2927786954842
 21
285.8112754937121
 31
0.0
  0
LINE
  5
381
330
1A
100
AcDbEntity
  8
SEIHIN
  6
CONTINUOUS
 62
     3
100
AcDbLine
 10
309.6579521172843
 20
274.7187292613121
 30
0.0
 11
231.2927786954842
 21
274.7187292613121
 31
0.0
  0
ARC
  5
382
330
1A
100
AcDbEntity
  8
SEIHIN
  6
CONTINUOUS
 62
     3
100
AcDbCircle
 10
312.1718916756842
 20
574.7081959229121
 30
0.0
 40
300.0
100
AcDbArc
 50
269.5198672917999
 51
272.8420903627999
  0
LINE
  5
383
330
1A
100
AcDbEntity
  8
SEIHIN
  6
CONTINUOUS
 62
     3
100
AcDbLine
 10
316.2927786954842
 20
287.8112754937122
 30
0.0
 11
316.2927786954842
 21
290.7139421640122
 31
0.0
  0
ARC
  5
384
330
1A
100
AcDbEntity
  8
SEIHIN
  6
CONTINUOUS
 62
     3
100
AcDbCircle
 10
314.2927786954842
 20
287.8112754937122
 30
0.0
 40
2.0
100
AcDbArc
 50
270.0
 51
0.0
  0
LINE
  5
386
330
1A
100
AcDbEntity
  8
SEIHIN
  6
CONTINUOUS
 62
     3
100
AcDbLine
 10
146.2927786954842
 20
533.4528709427354
 30
0.0
 11
231.2927786954842
 21
533.4528709427354
 31
0.0
  0
LINE
  5
387
330
1A
100
AcDbEntity
  8
SEIHIN
  6
CONTINUOUS
 62
     3
100
AcDbLine
 10
146.2927786954842
 20
535.9557466706355
 30
0.0
 11
231.2927786954842
 21
535.9557466706355
 31
0.0
  0
LINE
  5
388
330
1A
100
AcDbEntity
  8
SEIHIN
  6
CONTINUOUS
 62
     3
100
AcDbLine
 10
167.3097699842842
 20
529.8059626356355
 30
0.0
 11
229.2927786954842
 21
529.8059626356355
 31
0.0
  0
LINE
  5
389
330
1A
100
AcDbEntity
  8
CENTER_L
  6
CENTER
 62
     1
100
AcDbLine
 10
268.5931132144842
 20
484.6712146885354
 30
0.0
 11
192.098645767151
 21
484.6712146885355
 31
0.0
  0
LINE
  5
38A
330
1A
100
AcDbEntity
  8
SEIHIN
  6
CONTINUOUS
 62
     3
100
AcDbLine
 10
148.2927786954842
 20
371.3059626356354
 30
0.0
 11
231.2927786954842
 21
371.3059626356354
 31
0.0
  0
LINE
  5
38B
330
1A
100
AcDbEntity
  8
SEIHIN
  6
CONTINUOUS
 62
     3
100
AcDbLine
 10
152.9276052736843
 20
368.8059626356354
 30
0.0
 11
231.2927786954842
 21
368.8059626356354
 31
0.0
  0
LINE
  5
38C
330
1A
100
AcDbEntity
  8
SEIHIN
  6
CONTINUOUS
 62
     3
100
AcDbLine
 10
146.2927786954842
 20
379.5559626356354
 30
0.0
 11
231.2927786954842
 21
379.5559626356354
 31
0.0
  0
LINE
  5
38D
330
1A
100
AcDbEntity
  8
SEIHIN
  6
CONTINUOUS
 62
     3
100
AcDbLine
 10
167.3097824733843
 20
440.1166454157354
 30
0.0
 11
229.2927786954842
 21
440.1166454157354
 31
0.0
  0
LINE
  5
38E
330
1A
100
AcDbEntity
  8
SEIHIN
  6
CONTINUOUS
 62
     3
100
AcDbLine
 10
116.2927786954842
 20
428.8059626356353
 30
0.0
 11
229.2927786954842
 21
428.8059626356353
 31
0.0
  0
LINE
  5
38F
330
1A
100
AcDbEntity
  8
SEIHIN
  6
CONTINUOUS
 62
     3
100
AcDbLine
 10
116.2927786954842
 20
434.8059626356354
 30
0.0
 11
229.2927786954842
 21
434.8059626356354
 31
0.0
  0
LINE
  5
390
330
1A
100
AcDbEntity
  8
CENTER_L
  6
CENTER
 62
     1
100
AcDbLine
 10
109.2927786954842
 20
482.3059626356356
 30
0.0
 11
153.2927786954842
 21
482.3059626356355
 31
0.0
  0
LINE
  5
391
330
1A
100
AcDbEntity
  8
SUNPOU
  6
PHANTOM
 62
     4
100
AcDbLine
 10
188.9785841144305
 20
371.3059626356354
 30
0.0
 11
188.9785841144303
 21
533.4528709427354
 31
0.0
  0
LINE
  5
392
330
1A
100
AcDbEntity
  8
SEIHIN
  6
CONTINUOUS
 62
     3
100
AcDbLine
 10
146.2927786954842
 20
373.3059626356354
 30
0.0
 11
146.2927786954842
 21
386.8812339104353
 31
0.0
  0
LINE
  5
393
330
1A
100
AcDbEntity
  8
SEIHIN
  6
CONTINUOUS
 62
     3
100
AcDbLine
 10
116.2927786954842
 20
369.8059626356354
 30
0.0
 11
116.2927786954842
 21
535.0603202955354
 31
0.0
  0
ARC
  5
394
330
1A
100
AcDbEntity
  8
SEIHIN
  6
CONTINUOUS
 62
     3
100
AcDbCircle
 10
150.4136657153844
 20
668.7954292971353
 30
0.0
 40
300.0
100
AcDbArc
 50
267.1579096372
 51
270.4801327082
  0
LINE
  5
395
330
1A
100
AcDbEntity
  8
SEIHIN
  6
CONTINUOUS
 62
     3
100
AcDbLine
 10
135.5386172354842
 20
369.1644346842354
 30
0.0
 11
116.2927786954842
 21
369.8059626356354
 31
0.0
  0
ARC
  5
396
330
1A
100
AcDbEntity
  8
SEIHIN
  6
CONTINUOUS
 62
     3
100
AcDbCircle
 10
148.2927786954842
 20
373.3059626356354
 30
0.0
 40
2.0
100
AcDbArc
 50
180.0
 51
270.0
  0
LINE
  5
397
330
1A
100
AcDbEntity
  8
SEIHIN
  6
CONTINUOUS
 62
     3
100
AcDbLine
 10
167.3097824733843
 20
440.1166454157354
 30
0.0
 11
167.3097699842842
 21
529.8059626356355
 31
0.0
  0
LINE
  5
398
330
1A
100
AcDbEntity
  8
SEIHIN
  6
CONTINUOUS
 62
     3
100
AcDbLine
 10
146.2927786954842
 20
434.8059626356354
 30
0.0
 11
146.2927786954842
 21
536.1648939205354
 31
0.0
  0
LINE
  5
399
330
1A
100
AcDbEntity
  8
SEIHIN
  6
CONTINUOUS
 62
     3
100
AcDbLine
 10
116.2927786954842
 20
386.8812339104353
 30
0.0
 11
146.2927786954842
 21
386.8812339104353
 31
0.0
  0
LINE
  5
39A
330
1A
100
AcDbEntity
  8
SEIHIN
  6
CONTINUOUS
 62
     3
100
AcDbLine
 10
167.3097824733843
 20
440.1166454157354
 30
0.0
 11
146.2927786954842
 21
434.8059626356354
 31
0.0
  0
LINE
  5
39B
330
1A
100
AcDbEntity
  8
SEIHIN
  6
CONTINUOUS
 62
     3
100
AcDbLine
 10
116.2927786954842
 20
523.4559626356354
 30
0.0
 11
146.2927786954842
 21
523.4559626356354
 31
0.0
  0
LINE
  5
39C
330
1A
100
AcDbEntity
  8
SEIHIN
  6
CONTINUOUS
 62
     3
100
AcDbLine
 10
146.2927786954842
 20
536.0603202955354
 30
0.0
 11
116.2927786954842
 21
535.0603202955354
 31
0.0
  0
LINE
  5
39D
330
1A
100
AcDbEntity
  8
SEIHIN
  6
CONTINUOUS
 62
     3
100
AcDbLine
 10
130.2927786954842
 20
531.0559626356355
 30
0.0
 11
132.2927786954842
 21
531.0559626356355
 31
0.0
  0
LINE
  5
39E
330
1A
100
AcDbEntity
  8
SEIHIN
  6
CONTINUOUS
 62
     3
100
AcDbLine
 10
132.2927786954842
 20
523.4559626356354
 30
0.0
 11
132.2927786954842
 21
531.0559626356355
 31
0.0
  0
LINE
  5
39F
330
1A
100
AcDbEntity
  8
SEIHIN
  6
CONTINUOUS
 62
     3
100
AcDbLine
 10
130.2927786954842
 20
523.4559626356354
 30
0.0
 11
130.2927786954842
 21
531.0559626356355
 31
0.0
  0
LINE
  5
3A0
330
1A
100
AcDbEntity
  8
SEIHIN
  6
CONTINUOUS
 62
     3
100
AcDbLine
 10
167.3097699842842
 20
529.8059626356355
 30
0.0
 11
146.2927786954842
 21
528.7922431528354
 31
0.0
  0
LINE
  5
3A1
330
1A
100
AcDbEntity
  8
SUNPOU
  6
PHANTOM
 62
     4
100
AcDbLine
 10
273.6069732765381
 20
371.3059626356354
 30
0.0
 11
273.6069732765384
 21
533.4528709427354
 31
0.0
  0
LINE
  5
3A3
330
1A
100
AcDbEntity
  8
SEIHIN
  6
CONTINUOUS
 62
     3
100
AcDbLine
 10
316.2927786954842
 20
373.3059626356354
 30
0.0
 11
316.2927786954842
 21
386.8812339104353
 31
0.0
  0
LINE
  5
3A4
330
1A
100
AcDbEntity
  8
SEIHIN
  6
CONTINUOUS
 62
     3
100
AcDbLine
 10
346.2927786954842
 20
369.8059626356354
 30
0.0
 11
346.2927786954842
 21
535.0603202955354
 31
0.0
  0
LINE
  5
3A5
330
1A
100
AcDbEntity
  8
CENTER_L
  6
CENTER
 62
     1
100
AcDbLine
 10
231.2927786954842
 20
355.6905506260353
 30
0.0
 11
231.2927786954842
 21
542.9576730218355
 31
0.0
  0
LINE
  5
3A7
330
1A
100
AcDbEntity
  8
SEIHIN
  6
CONTINUOUS
 62
     3
100
AcDbLine
 10
327.0469401555842
 20
369.1644346842354
 30
0.0
 11
346.2927786954842
 21
369.8059626356354
 31
0.0
  0
LINE
  5
3A8
330
1A
100
AcDbEntity
  8
SEIHIN
  6
CONTINUOUS
 62
     3
100
AcDbLine
 10
316.2927786954842
 20
379.5559626356354
 30
0.0
 11
231.2927786954842
 21
379.5559626356354
 31
0.0
  0
LINE
  5
3A9
330
1A
100
AcDbEntity
  8
SEIHIN
  6
CONTINUOUS
 62
     3
100
AcDbLine
 10
309.6579521172843
 20
368.8059626356354
 30
0.0
 11
231.2927786954842
 21
368.8059626356354
 31
0.0
  0
LINE
  5
3AA
330
1A
100
AcDbEntity
  8
SEIHIN
  6
CONTINUOUS
 62
     3
100
AcDbLine
 10
314.2927786954842
 20
371.3059626356354
 30
0.0
 11
231.2927786954842
 21
371.3059626356354
 31
0.0
  0
LINE
  5
3AB
330
1A
100
AcDbEntity
  8
SEIHIN
  6
CONTINUOUS
 62
     3
100
AcDbLine
 10
218.2927786954842
 20
371.3059626356354
 30
0.0
 11
218.2927786954842
 21
379.5559626356354
 31
0.0
  0
LINE
  5
3AC
330
1A
100
AcDbEntity
  8
SEIHIN
  6
CONTINUOUS
 62
     3
100
AcDbLine
 10
216.2927786954842
 20
371.3059626356354
 30
0.0
 11
216.2927786954842
 21
379.5559626356354
 31
0.0
  0
LINE
  5
3AD
330
1A
100
AcDbEntity
  8
SEIHIN
  6
CONTINUOUS
 62
     3
100
AcDbLine
 10
246.2927786954842
 20
371.3059626356354
 30
0.0
 11
246.2927786954842
 21
379.5559626356354
 31
0.0
  0
LINE
  5
3AE
330
1A
100
AcDbEntity
  8
SEIHIN
  6
CONTINUOUS
 62
     3
100
AcDbLine
 10
244.2927786954842
 20
371.3059626356354
 30
0.0
 11
244.2927786954842
 21
379.5559626356354
 31
0.0
  0
ARC
  5
3AF
330
1A
100
AcDbEntity
  8
SEIHIN
  6
CONTINUOUS
 62
     3
100
AcDbCircle
 10
312.1718916756842
 20
668.7954292971353
 30
0.0
 40
300.0
100
AcDbArc
 50
269.5198672917999
 51
272.8420903627999
  0
ARC
  5
3B0
330
1A
100
AcDbEntity
  8
SEIHIN
  6
CONTINUOUS
 62
     3
100
AcDbCircle
 10
314.2927786954842
 20
373.3059626356354
 30
0.0
 40
2.0
100
AcDbArc
 50
270.0
 51
0.0
  0
LINE
  5
3B1
330
1A
100
AcDbEntity
  8
SEIHIN
  6
CONTINUOUS
 62
     3
100
AcDbLine
 10
346.2927786954842
 20
523.4559626356354
 30
0.0
 11
316.2927786954842
 21
523.4559626356354
 31
0.0
  0
LINE
  5
3B2
330
1A
100
AcDbEntity
  8
SEIHIN
  6
CONTINUOUS
 62
     3
100
AcDbLine
 10
316.2927786954842
 20
536.0603202955354
 30
0.0
 11
346.2927786954842
 21
535.0603202955354
 31
0.0
  0
LINE
  5
3B3
330
1A
100
AcDbEntity
  8
SEIHIN
  6
CONTINUOUS
 62
     3
100
AcDbLine
 10
346.2927786954842
 20
386.8812339104353
 30
0.0
 11
316.2927786954842
 21
386.8812339104353
 31
0.0
  0
LINE
  5
3B4
330
1A
100
AcDbEntity
  8
SEIHIN
  6
CONTINUOUS
 62
     3
100
AcDbLine
 10
346.2927786954842
 20
428.8059626356353
 30
0.0
 11
233.2927786954842
 21
428.8059626356353
 31
0.0
  0
LINE
  5
3B5
330
1A
100
AcDbEntity
  8
SEIHIN
  6
CONTINUOUS
 62
     3
100
AcDbLine
 10
346.2927786954842
 20
434.8059626356354
 30
0.0
 11
233.2927786954842
 21
434.8059626356354
 31
0.0
  0
CIRCLE
  5
3B6
330
1A
100
AcDbEntity
  8
SEIHIN
  6
CONTINUOUS
 62
     3
100
AcDbCircle
 10
231.2927786954842
 20
484.6712146885354
 30
0.0
 40
28.55
  0
LINE
  5
3B7
330
1A
100
AcDbEntity
  8
SEIHIN
  6
CONTINUOUS
 62
     3
100
AcDbLine
 10
295.2757749176844
 20
440.1166454157354
 30
0.0
 11
295.2757874066842
 21
529.8059626356355
 31
0.0
  0
LINE
  5
3B8
330
1A
100
AcDbEntity
  8
SEIHIN
  6
CONTINUOUS
 62
     3
100
AcDbLine
 10
316.2927786954842
 20
434.8059626356354
 30
0.0
 11
316.2927786954842
 21
536.1648939205354
 31
0.0
  0
LINE
  5
3B9
330
1A
100
AcDbEntity
  8
SEIHIN
  6
CONTINUOUS
 62
     3
100
AcDbLine
 10
295.2757749176844
 20
440.1166454157354
 30
0.0
 11
233.2927786954842
 21
440.1166454157354
 31
0.0
  0
ARC
  5
3BA
330
1A
100
AcDbEntity
  8
SEIHIN
  6
CONTINUOUS
 62
     3
100
AcDbCircle
 10
233.2927786954842
 20
429.8059626356354
 30
0.0
 40
1.0
100
AcDbArc
 50
180.0
 51
270.0
  0
ARC
  5
3BB
330
1A
100
AcDbEntity
  8
SEIHIN
  6
CONTINUOUS
 62
     3
100
AcDbCircle
 10
229.2927786954842
 20
429.8059626356354
 30
0.0
 40
1.0
100
AcDbArc
 50
270.0
 51
0.0
  0
ARC
  5
3BC
330
1A
100
AcDbEntity
  8
SEIHIN
  6
CONTINUOUS
 62
     3
100
AcDbCircle
 10
231.2927786954842
 20
427.8059626356354
 30
0.0
 40
1.0
100
AcDbArc
 50
90.0
 51
180.0
  0
ARC
  5
3BD
330
1A
100
AcDbEntity
  8
SEIHIN
  6
CONTINUOUS
 62
     3
100
AcDbCircle
 10
231.2927786954842
 20
427.8059626356354
 30
0.0
 40
1.0
100
AcDbArc
 50
0.0
 51
90.0
  0
LINE
  5
3BE
330
1A
100
AcDbEntity
  8
SEIHIN
  6
CONTINUOUS
 62
     3
100
AcDbLine
 10
232.2927786954842
 20
418.0012648988355
 30
0.0
 11
232.2927786954842
 21
452.3681983858353
 31
0.0
  0
LINE
  5
3BF
330
1A
100
AcDbEntity
  8
SEIHIN
  6
CONTINUOUS
 62
     3
100
AcDbLine
 10
230.2927786954842
 20
418.0012644833353
 30
0.0
 11
230.2927786954842
 21
452.3681983858353
 31
0.0
  0
ARC
  5
3C0
330
1A
100
AcDbEntity
  8
SEIHIN
  6
CONTINUOUS
 62
     3
100
AcDbCircle
 10
233.2927786954842
 20
418.0012646986354
 30
0.0
 40
1.0
100
AcDbArc
 50
179.9999885275
 51
270.0
  0
ARC
  5
3C1
330
1A
100
AcDbEntity
  8
SEIHIN
  6
CONTINUOUS
 62
     3
100
AcDbCircle
 10
229.2927786954842
 20
418.0012646986354
 30
0.0
 40
1.0
100
AcDbArc
 50
270.0
 51
359.9999876661
  0
LINE
  5
3C2
330
1A
100
AcDbEntity
  8
SEIHIN
  6
CONTINUOUS
 62
     3
100
AcDbLine
 10
229.2927787939843
 20
417.0012646986354
 30
0.0
 11
231.2927786954842
 21
417.0012646986354
 31
0.0
  0
ARC
  5
3C3
330
1A
100
AcDbEntity
  8
SEIHIN
  6
CONTINUOUS
 62
     3
100
AcDbCircle
 10
231.2927786954842
 20
421.2028086627355
 30
0.0
 40
1.0
100
AcDbArc
 50
90.0
 51
180.0
  0
ARC
  5
3C4
330
1A
100
AcDbEntity
  8
SEIHIN
  6
CONTINUOUS
 62
     3
100
AcDbCircle
 10
231.2927786954842
 20
421.2028086627355
 30
0.0
 40
1.0
100
AcDbArc
 50
0.0
 51
90.0
  0
LINE
  5
3C5
330
1A
100
AcDbEntity
  8
SEIHIN
  6
CONTINUOUS
 62
     3
100
AcDbLine
 10
233.2927785969841
 20
417.0012646986354
 30
0.0
 11
231.2927786954842
 21
417.0012646986354
 31
0.0
  0
ARC
  5
3C6
330
1A
100
AcDbEntity
  8
SEIHIN
  6
CONTINUOUS
 62
     3
100
AcDbCircle
 10
233.2927786954842
 20
441.1166454157354
 30
0.0
 40
1.0
100
AcDbArc
 50
180.0
 51
270.0
  0
ARC
  5
3C7
330
1A
100
AcDbEntity
  8
SEIHIN
  6
CONTINUOUS
 62
     3
100
AcDbCircle
 10
231.2927786954842
 20
439.1166454157354
 30
0.0
 40
1.0
100
AcDbArc
 50
90.0
 51
180.0
  0
ARC
  5
3C8
330
1A
100
AcDbEntity
  8
SEIHIN
  6
CONTINUOUS
 62
     3
100
AcDbCircle
 10
229.2927786954842
 20
441.1166454157354
 30
0.0
 40
1.0
100
AcDbArc
 50
270.0
 51
0.0
  0
ARC
  5
3C9
330
1A
100
AcDbEntity
  8
SEIHIN
  6
CONTINUOUS
 62
     3
100
AcDbCircle
 10
231.2927786954842
 20
446.9142033249354
 30
0.0
 40
1.0
100
AcDbArc
 50
90.0
 51
180.0
  0
ARC
  5
3CA
330
1A
100
AcDbEntity
  8
SEIHIN
  6
CONTINUOUS
 62
     3
100
AcDbCircle
 10
231.2927786954842
 20
439.1166454157354
 30
0.0
 40
1.0
100
AcDbArc
 50
0.0
 51
90.0
  0
ARC
  5
3CB
330
1A
100
AcDbEntity
  8
SEIHIN
  6
CONTINUOUS
 62
     3
100
AcDbCircle
 10
231.2927786954842
 20
446.9142033249354
 30
0.0
 40
1.0
100
AcDbArc
 50
0.0
 51
90.0
  0
ARC
  5
3CC
330
1A
100
AcDbEntity
  8
SEIHIN
  6
CONTINUOUS
 62
     3
100
AcDbCircle
 10
233.2927786954842
 20
435.8059626356354
 30
0.0
 40
1.0
100
AcDbArc
 50
180.0
 51
270.0
  0
ARC
  5
3CD
330
1A
100
AcDbEntity
  8
SEIHIN
  6
CONTINUOUS
 62
     3
100
AcDbCircle
 10
231.2927786954842
 20
435.2847521336354
 30
0.0
 40
1.0
100
AcDbArc
 50
90.0
 51
180.0
  0
ARC
  5
3CE
330
1A
100
AcDbEntity
  8
SEIHIN
  6
CONTINUOUS
 62
     3
100
AcDbCircle
 10
231.2927786954842
 20
433.8059626356353
 30
0.0
 40
1.0
100
AcDbArc
 50
90.0
 51
180.0
  0
ARC
  5
3CF
330
1A
100
AcDbEntity
  8
SEIHIN
  6
CONTINUOUS
 62
     3
100
AcDbCircle
 10
229.2927786954842
 20
435.8059626356354
 30
0.0
 40
1.0
100
AcDbArc
 50
270.0
 51
0.0
  0
ARC
  5
3D0
330
1A
100
AcDbEntity
  8
SEIHIN
  6
CONTINUOUS
 62
     3
100
AcDbCircle
 10
231.2927786954842
 20
433.8059626356353
 30
0.0
 40
1.0
100
AcDbArc
 50
0.0
 51
90.0
  0
ARC
  5
3D1
330
1A
100
AcDbEntity
  8
SEIHIN
  6
CONTINUOUS
 62
     3
100
AcDbCircle
 10
231.2927786954842
 20
435.2847521336354
 30
0.0
 40
1.0
100
AcDbArc
 50
0.0
 51
90.0
  0
ARC
  5
3D2
330
1A
100
AcDbEntity
  8
SEIHIN
  6
CONTINUOUS
 62
     3
100
AcDbCircle
 10
231.2927786954842
 20
452.3681983858353
 30
0.0
 40
1.0
100
AcDbArc
 50
90.0
 51
180.0
  0
ARC
  5
3D3
330
1A
100
AcDbEntity
  8
SEIHIN
  6
CONTINUOUS
 62
     3
100
AcDbCircle
 10
231.2927786954842
 20
452.3681983858353
 30
0.0
 40
1.0
100
AcDbArc
 50
0.0
 51
90.0
  0
LINE
  5
3D4
330
1A
100
AcDbEntity
  8
SEIHIN
  6
CONTINUOUS
 62
     3
100
AcDbLine
 10
295.2757749176844
 20
440.1166454157354
 30
0.0
 11
316.2927786954842
 21
434.8059626356354
 31
0.0
  0
LINE
  5
3D5
330
1A
100
AcDbEntity
  8
SEIHIN
  6
CONTINUOUS
 62
     3
100
AcDbLine
 10
316.2927786954842
 20
535.9557466706355
 30
0.0
 11
231.2927786954842
 21
535.9557466706355
 31
0.0
  0
LINE
  5
3D6
330
1A
100
AcDbEntity
  8
SEIHIN
  6
CONTINUOUS
 62
     3
100
AcDbLine
 10
295.2757874066842
 20
529.8059626356355
 30
0.0
 11
233.2927789373843
 21
529.8059626356355
 31
0.0
  0
LINE
  5
3D7
330
1A
100
AcDbEntity
  8
SEIHIN
  6
CONTINUOUS
 62
     3
100
AcDbLine
 10
316.2927786954842
 20
533.4528709427354
 30
0.0
 11
231.2927786954842
 21
533.4528709427354
 31
0.0
  0
ARC
  5
3D8
330
1A
100
AcDbEntity
  8
SEIHIN
  6
CONTINUOUS
 62
     3
100
AcDbCircle
 10
231.2927786954842
 20
522.1796490848354
 30
0.0
 40
1.0
100
AcDbArc
 50
180.0
 51
270.0
  0
ARC
  5
3D9
330
1A
100
AcDbEntity
  8
SEIHIN
  6
CONTINUOUS
 62
     3
100
AcDbCircle
 10
231.2927786954842
 20
522.1796490848354
 30
0.0
 40
1.0
100
AcDbArc
 50
270.0
 51
0.0
  0
LINE
  5
3DA
330
1A
100
AcDbEntity
  8
SEIHIN
  6
CONTINUOUS
 62
     3
100
AcDbLine
 10
230.2927786954842
 20
516.9742309911355
 30
0.0
 11
230.2927786954842
 21
530.1911517566354
 31
0.0
  0
LINE
  5
3DB
330
1A
100
AcDbEntity
  8
SEIHIN
  6
CONTINUOUS
 62
     3
100
AcDbLine
 10
232.2927786954842
 20
516.9742309911355
 30
0.0
 11
232.2927786954842
 21
530.1911517566354
 31
0.0
  0
ARC
  5
3DC
330
1A
100
AcDbEntity
  8
SEIHIN
  6
CONTINUOUS
 62
     3
100
AcDbCircle
 10
231.2927786954842
 20
520.2605070177354
 30
0.0
 40
1.0
100
AcDbArc
 50
180.0
 51
270.0
  0
ARC
  5
3DD
330
1A
100
AcDbEntity
  8
SEIHIN
  6
CONTINUOUS
 62
     3
100
AcDbCircle
 10
231.2927786954842
 20
520.2605070177354
 30
0.0
 40
1.0
100
AcDbArc
 50
270.0
 51
0.0
  0
ARC
  5
3DE
330
1A
100
AcDbEntity
  8
SEIHIN
  6
CONTINUOUS
 62
     3
100
AcDbCircle
 10
231.2927786954842
 20
517.4539977674355
 30
0.0
 40
1.0
100
AcDbArc
 50
180.0
 51
270.0
  0
ARC
  5
3DF
330
1A
100
AcDbEntity
  8
SEIHIN
  6
CONTINUOUS
 62
     3
100
AcDbCircle
 10
231.2927786954842
 20
516.9742309911355
 30
0.0
 40
1.0
100
AcDbArc
 50
180.0
 51
270.0
  0
ARC
  5
3E0
330
1A
100
AcDbEntity
  8
SEIHIN
  6
CONTINUOUS
 62
     3
100
AcDbCircle
 10
231.2927786954842
 20
517.4539977674355
 30
0.0
 40
1.0
100
AcDbArc
 50
270.0
 51
0.0
  0
ARC
  5
3E1
330
1A
100
AcDbEntity
  8
SEIHIN
  6
CONTINUOUS
 62
     3
100
AcDbCircle
 10
231.2927786954842
 20
516.9742309911355
 30
0.0
 40
1.0
100
AcDbArc
 50
270.0
 51
0.0
  0
ARC
  5
3E2
330
1A
100
AcDbEntity
  8
SEIHIN
  6
CONTINUOUS
 62
     3
100
AcDbCircle
 10
233.2927786954842
 20
530.1911519963355
 30
0.0
 40
1.0
100
AcDbArc
 50
90.0
 51
180.000013731
  0
ARC
  5
3E3
330
1A
100
AcDbEntity
  8
SEIHIN
  6
CONTINUOUS
 62
     3
100
AcDbCircle
 10
229.2927786954842
 20
530.1911519963355
 30
0.0
 40
1.0
100
AcDbArc
 50
359.9999862690001
 51
90.0
  0
LINE
  5
3E4
330
1A
100
AcDbEntity
  8
SEIHIN
  6
CONTINUOUS
 62
     3
100
AcDbLine
 10
229.2927787890844
 20
531.1911519963355
 30
0.0
 11
231.2927786954842
 21
531.1911519963355
 31
0.0
  0
LINE
  5
3E5
330
1A
100
AcDbEntity
  8
SEIHIN
  6
CONTINUOUS
 62
     3
100
AcDbLine
 10
233.2927786019843
 20
531.1911519963355
 30
0.0
 11
231.2927786954842
 21
531.1911519963355
 31
0.0
  0
ARC
  5
3E6
330
1A
100
AcDbEntity
  8
SEIHIN
  6
CONTINUOUS
 62
     3
100
AcDbCircle
 10
233.2927786954842
 20
528.8059626356355
 30
0.0
 40
1.0
100
AcDbArc
 50
89.9999861434
 51
180.0
  0
ARC
  5
3E7
330
1A
100
AcDbEntity
  8
SEIHIN
  6
CONTINUOUS
 62
     3
100
AcDbCircle
 10
229.2927786954842
 20
528.8059626356355
 30
0.0
 40
1.0
100
AcDbArc
 50
0.0
 51
90.0
  0
LINE
  5
3E8
330
1A
100
AcDbEntity
  8
SEIHIN
  6
CONTINUOUS
 62
     3
100
AcDbLine
 10
295.2757874066842
 20
529.8059626356355
 30
0.0
 11
316.2927786954842
 21
528.7922431528354
 31
0.0
  0
LINE
  5
3E9
330
1A
100
AcDbEntity
  8
SEIHIN
  6
CONTINUOUS
 62
     3
100
AcDbLine
 10
332.2927786954842
 20
531.0559626356355
 30
0.0
 11
330.2927786954842
 21
531.0559626356355
 31
0.0
  0
LINE
  5
3EA
330
1A
100
AcDbEntity
  8
SEIHIN
  6
CONTINUOUS
 62
     3
100
AcDbLine
 10
330.2927786954842
 20
523.4559626356354
 30
0.0
 11
330.2927786954842
 21
531.0559626356355
 31
0.0
  0
LINE
  5
3EB
330
1A
100
AcDbEntity
  8
SEIHIN
  6
CONTINUOUS
 62
     3
100
AcDbLine
 10
332.2927786954842
 20
523.4559626356354
 30
0.0
 11
332.2927786954842
 21
531.0559626356355
 31
0.0
  0
ARC
  5
3F1
330
1A
100
AcDbEntity
  8
NOKITOI
  6
PHANTOM
 62
     8
100
AcDbCircle
 10
610.5754180249894
 20
1153.504820061922
 30
0.0
 40
998.55
100
AcDbArc
 50
267.4122100793
 51
272.4608881303999
  0
ARC
  5
3F2
330
1A
100
AcDbEntity
  8
NOKITOI
  6
PHANTOM
 62
     8
100
AcDbCircle
 10
610.5754180249894
 20
1153.504820061922
 30
0.0
 40
1000.0
100
AcDbArc
 50
267.4053482472
 51
272.4608879625999
  0
LINE
  5
3F6
330
1A
100
AcDbEntity
  8
SEIHIN
  6
CONTINUOUS
 62
     3
100
AcDbLine
 10
652.9297115118895
 20
131.0048200619222
 30
0.0
 11
612.9406700778893
 21
131.0048200619222
 31
0.0
  0
LINE
  5
3F7
330
1A
100
AcDbEntity
  8
SEIHIN
  6
CONTINUOUS
 62
     3
100
AcDbLine
 10
612.9406700778893
 20
131.0048200619222
 30
0.0
 11
656.5851120641894
 21
131.0048200619222
 31
0.0
  0
ARC
  5
3F8
330
1A
100
AcDbEntity
  8
SEIHIN
  6
CONTINUOUS
 62
     3
100
AcDbCircle
 10
610.5754180249894
 20
1153.504820061922
 30
0.0
 40
1002.5
100
AcDbArc
 50
267.4053481697999
 51
272.4609632319645
  0
ARC
  5
3F9
330
1A
100
AcDbEntity
  8
SEIHIN
  6
CONTINUOUS
 62
     3
100
AcDbCircle
 10
610.5754180249894
 20
1153.504820061922
 30
0.0
 40
1001.5
100
AcDbArc
 50
267.4053482951999
 51
272.4609632319999
  0
ARC
  5
3FA
330
1A
100
AcDbEntity
  8
SEIHIN
  6
CONTINUOUS
 62
     3
100
AcDbCircle
 10
610.5754180249894
 20
1153.504820061922
 30
0.0
 40
1000.0
100
AcDbArc
 50
267.4053483183
 51
272.4609631308
  0
ARC
  5
401
330
1A
100
AcDbEntity
  8
SEIHIN
  6
CONTINUOUS
 62
     3
100
AcDbCircle
 10
565.4414885778894
 20
157.5269445984222
 30
0.0
 40
5.5
100
AcDbArc
 50
194.1089391538
 51
267.4053254384999
  0
ARC
  5
402
330
1A
100
AcDbEntity
  8
SEIHIN
  6
CONTINUOUS
 62
     3
100
AcDbCircle
 10
565.4414885778894
 20
157.5269445984222
 30
0.0
 40
4.5
100
AcDbArc
 50
194.1089391538
 51
267.4053482951999
  0
LINE
  5
403
330
1A
100
AcDbEntity
  8
CENTER_L
  6
CENTER
 62
     1
100
AcDbLine
 10
610.5754180249894
 20
144.0048200619221
 30
0.0
 11
610.5754180249894
 21
161.9548200619221
 31
0.0
  0
LINE
  5
404
330
1A
100
AcDbEntity
  8
SEIHIN
  6
CONTINUOUS
 62
     3
100
AcDbLine
 10
555.3166985948894
 20
175.2462317174222
 30
0.0
 11
565.8664766469894
 21
133.2735213540222
 31
0.0
  0
LINE
  5
405
330
1A
100
AcDbEntity
  8
CENTER_L
  6
CENTER
 62
     1
100
AcDbLine
 10
612.9406700778893
 20
53.94877379882212
 30
0.0
 11
612.9406700778893
 21
138.0048200619222
 31
0.0
  0
LINE
  5
40D
330
1A
100
AcDbEntity
  8
SEIHIN
  6
CONTINUOUS
 62
     3
100
AcDbLine
 10
568.7759782827895
 20
131.0048200619222
 30
0.0
 11
612.9406700778893
 21
131.0048200619222
 31
0.0
  0
LINE
  5
40E
330
1A
100
AcDbEntity
  8
SEIHIN
  6
CONTINUOUS
 62
     3
100
AcDbLine
 10
572.9516286438895
 20
131.0048200619222
 30
0.0
 11
612.9406700778893
 21
131.0048200619222
 31
0.0
  0
ARC
  5
410
330
1A
100
AcDbEntity
  8
SEIHIN
  6
CONTINUOUS
 62
     3
100
AcDbCircle
 10
568.7759787005895
 20
134.0048200619222
 30
0.0
 40
3.0
100
AcDbArc
 50
194.1089338354999
 51
269.9999920216999
  0
POINT
  5
411
330
1A
100
AcDbEntity
  8
DEFPOINTS
  6
BYBLOCK
 62
     0
100
AcDbPoint
 10
568.7759787005895
 20
131.0048200619222
 30
0.0
  0
POINT
  5
42A
330
1A
100
AcDbEntity
  8
DEFPOINTS
  6
BYBLOCK
 62
     0
100
AcDbPoint
 10
610.5754180249894
 20
151.0048200619221
 30
0.0
  0
LINE
  5
42B
330
1A
100
AcDbEntity
  8
NOKITOI
  6
PHANTOM
 62
     8
100
AcDbLine
 10
500.3675383104893
 20
284.6383607639221
 30
0.0
 11
509.5785861350893
 21
288.849125483722
 31
0.0
  0
ARC
  5
42C
330
1A
100
AcDbEntity
  8
NOKITOI
  6
PHANTOM
 62
     8
100
AcDbCircle
 10
775.4312407951895
 20
315.697072972422
 30
0.0
 40
270.0
100
AcDbArc
 50
186.4726667883999
 51
210.8898568909
  0
LINE
  5
42D
330
1A
100
AcDbEntity
  8
SEIHIN
  6
CONTINUOUS
 62
     3
100
AcDbLine
 10
508.1574729115893
 20
277.4107859025222
 30
0.0
 11
506.7262058378894
 21
287.7298698965223
 31
0.0
  0
ARC
  5
42E
330
1A
100
AcDbEntity
  8
SEIHIN
  6
CONTINUOUS
 62
     3
100
AcDbCircle
 10
505.6827409619893
 20
277.0562414380221
 30
0.0
 40
2.5
100
AcDbArc
 50
8.1530473559
 51
96.22582906440001
  0
ARC
  5
42F
330
1A
100
AcDbEntity
  8
SEIHIN
  6
CONTINUOUS
 62
     3
100
AcDbCircle
 10
775.4285234742894
 20
315.7015880767223
 30
0.0
 40
271.4999999999999
100
AcDbArc
 50
188.1530473559
 51
210.8909783522999
  0
ARC
  5
430
330
1A
100
AcDbEntity
  8
SEIHIN
  6
CONTINUOUS
 62
     3
100
AcDbCircle
 10
775.4285234742894
 20
315.7015880767223
 30
0.0
 40
272.5
100
AcDbArc
 50
188.2545161129
 51
210.8909784341999
  0
ARC
  5
431
330
1A
100
AcDbEntity
  8
SEIHIN
  6
CONTINUOUS
 62
     3
100
AcDbCircle
 10
775.4285234742894
 20
315.7015880767223
 30
0.0
 40
270.0
100
AcDbArc
 50
188.1530473559
 51
210.8909783522999
  0
LINE
  5
432
330
1A
100
AcDbEntity
  8
SEIHIN
  6
CONTINUOUS
 62
     3
100
AcDbLine
 10
511.0148809442894
 20
292.1852339554223
 30
0.0
 11
499.4937151650894
 21
287.4724687414222
 31
0.0
  0
LINE
  5
433
330
1A
100
AcDbEntity
  8
SEIHIN
  6
CONTINUOUS
 62
     3
100
AcDbLine
 10
510.5415436683895
 20
289.2905445497222
 30
0.0
 11
499.8861167067893
 21
284.9319122301222
 31
0.0
  0
ARC
  5
435
330
1A
100
AcDbEntity
  8
NOKITOI
  6
PHANTOM
 62
     8
100
AcDbCircle
 10
502.6754180249895
 20
282.8345976818221
 30
0.0
 40
1.0
100
AcDbArc
 50
114.5671713205999
 51
180.0
  0
ARC
  5
436
330
1A
100
AcDbEntity
  8
NOKITOI
  6
PHANTOM
 62
     8
100
AcDbCircle
 10
500.5754180249893
 20
284.183623450422
 30
0.0
 40
0.5
100
AcDbArc
 50
114.5671504518
 51
179.9999775375999
  0
LINE
  5
437
330
1A
100
AcDbEntity
  8
NOKITOI
  6
PHANTOM
 62
     8
100
AcDbLine
 10
502.2596582646895
 20
283.744072157422
 30
0.0
 11
506.4475963210895
 21
285.6585581260221
 31
0.0
  0
ARC
  5
438
330
1A
100
AcDbEntity
  8
NOKITOI
  6
PHANTOM
 62
     8
100
AcDbCircle
 10
500.8754180249895
 20
280.304820061922
 30
0.0
 40
0.8
100
AcDbArc
 50
180.0
 51
0.0
  0
LINE
  5
439
330
1A
100
AcDbEntity
  8
NOKITOI
  6
PHANTOM
 62
     8
100
AcDbLine
 10
500.0754180249893
 20
284.183623646422
 30
0.0
 11
500.0754180249893
 21
280.304820061922
 31
0.0
  0
LINE
  5
43A
330
1A
100
AcDbEntity
  8
NOKITOI
  6
PHANTOM
 62
     8
100
AcDbLine
 10
501.6754180249895
 20
282.8345976818221
 30
0.0
 11
501.6754180249895
 21
280.304820061922
 31
0.0
  0
ARC
  5
43B
330
1A
100
AcDbEntity
  8
NOKITOI
  6
PHANTOM
 62
     8
100
AcDbCircle
 10
506.6554762997895
 20
285.2038209333221
 30
0.0
 40
0.5
100
AcDbArc
 50
6.472659640399999
 51
114.5671837435
  0
LINE
  5
43C
330
1A
100
AcDbEntity
  8
SEIHIN
  6
CONTINUOUS
 62
     3
100
AcDbLine
 10
499.6059971739894
 20
276.3933239338222
 30
0.0
 11
505.2025596514893
 21
277.0038580223221
 31
0.0
  0
LINE
  5
43D
330
1A
100
AcDbEntity
  8
SEIHIN
  6
CONTINUOUS
 62
     3
100
AcDbLine
 10
500.1291771211892
 20
277.4563309240221
 30
0.0
 11
505.5742934517895
 21
278.0503436146222
 31
0.0
  0
LINE
  5
43E
330
1A
100
AcDbEntity
  8
SEIHIN
  6
CONTINUOUS
 62
     3
100
AcDbLine
 10
499.5754180249893
 20
279.7968390404223
 30
0.0
 11
499.5754180249893
 21
284.4691325731222
 31
0.0
  0
ARC
  5
43F
330
1A
100
AcDbEntity
  8
SEIHIN
  6
CONTINUOUS
 62
     3
100
AcDbCircle
 10
498.5754180249894
 20
279.1977707593222
 30
0.0
 40
0.5
100
AcDbArc
 50
180.0
 51
230.3124308002999
  0
LINE
  5
440
330
1A
100
AcDbEntity
  8
SEIHIN
  6
CONTINUOUS
 62
     3
100
AcDbLine
 10
498.2561175875893
 20
278.8130016978222
 30
0.0
 11
499.7556529286894
 21
277.5686129508223
 31
0.0
  0
LINE
  5
441
330
1A
100
AcDbEntity
  8
SEIHIN
  6
CONTINUOUS
 62
     3
100
AcDbLine
 10
498.0754180249894
 20
279.1977707593222
 30
0.0
 11
498.0754180249894
 21
286.2694957900222
 31
0.0
  0
ARC
  5
442
330
1A
100
AcDbEntity
  8
SEIHIN
  6
CONTINUOUS
 62
     3
100
AcDbCircle
 10
499.7623159046895
 20
276.9133432933221
 30
0.0
 40
0.5
100
AcDbArc
 50
230.3124308002999
 51
276.2258290644
  0
ARC
  5
443
330
1A
100
AcDbEntity
  8
SEIHIN
  6
CONTINUOUS
 62
     3
100
AcDbCircle
 10
500.0754180249893
 20
284.4691325731222
 30
0.0
 40
0.5
100
AcDbArc
 50
112.2471535684
 51
180.0
  0
ARC
  5
444
330
1A
100
AcDbEntity
  8
SEIHIN
  6
CONTINUOUS
 62
     3
100
AcDbCircle
 10
500.3754180249895
 20
279.7968390404223
 30
0.0
 40
0.8
100
AcDbArc
 50
180.0
 51
276.2258290644
  0
ARC
  5
445
330
1A
100
AcDbEntity
  8
SEIHIN
  6
CONTINUOUS
 62
     3
100
AcDbCircle
 10
500.0749533660894
 20
277.9533820123221
 30
0.0
 40
0.5
100
AcDbArc
 50
230.3124308002999
 51
276.2258290644
  0
LINE
  5
446
330
1A
100
AcDbEntity
  8
SEIHIN
  6
CONTINUOUS
 62
     3
100
AcDbLine
 10
500.4621760330894
 20
279.0015572991221
 30
0.0
 11
505.8926566565894
 21
279.5939733671222
 31
0.0
  0
ARC
  5
447
330
1A
100
AcDbEntity
  8
SEIHIN
  6
CONTINUOUS
 62
     3
100
AcDbCircle
 10
505.2567834065894
 20
276.5068069340222
 30
0.0
 40
0.5
100
AcDbArc
 50
8.254516112899999
 51
96.22582906440001
  0
ARC
  5
448
330
1A
100
AcDbEntity
  8
SEIHIN
  6
CONTINUOUS
 62
     3
100
AcDbCircle
 10
505.6827409619893
 20
277.0562414380221
 30
0.0
 40
1.0
100
AcDbArc
 50
8.1530473559
 51
96.22582906440001
  0
ARC
  5
449
330
1A
100
AcDbEntity
  8
SEIHIN
  6
CONTINUOUS
 62
     3
100
AcDbCircle
 10
497.5963518042893
 20
278.7107676547222
 30
0.0
 40
0.5
100
AcDbArc
 50
175.0
 51
230.3124308002999
  0
LINE
  5
44A
330
1A
100
AcDbEntity
  8
SEIHIN
  6
CONTINUOUS
 62
     3
100
AcDbLine
 10
497.0982544552491
 20
278.754345526096
 30
0.0
 11
497.6409389799894
 21
284.9572580277222
 31
0.0
  0
LINE
  5
44B
330
1A
100
AcDbEntity
  8
SEIHIN
  6
CONTINUOUS
 62
     3
100
AcDbLine
 10
497.2770513668958
 20
278.3259985932295
 30
0.0
 11
499.6059971739894
 21
276.3933239338222
 31
0.0
  0
ARC
  5
44C
330
1A
100
AcDbEntity
  8
SEIHIN
  6
CONTINUOUS
 62
     3
100
AcDbCircle
 10
500.6295230742893
 20
284.6957907995222
 30
0.0
 40
3.0
100
AcDbArc
 50
112.2471535684999
 51
175.0
  0
ARC
  5
44D
330
1A
100
AcDbEntity
  8
NOKITOI
  6
PHANTOM
 62
     8
100
AcDbCircle
 10
775.4312407951895
 20
315.697072972422
 30
0.0
 40
268.3999999999999
100
AcDbArc
 50
194.1857825054999
 51
207.8033975833999
  0
LINE
  5
44E
330
1A
100
AcDbEntity
  8
SEIHIN
  6
CONTINUOUS
 62
     3
100
AcDbLine
 10
564.9981176787894
 20
188.0069386679222
 30
0.0
 11
573.4973392863891
 21
154.1924484397222
 31
0.0
  0
LINE
  5
44F
330
1A
100
AcDbEntity
  8
NOKITOI
  6
PHANTOM
 62
     8
100
AcDbLine
 10
538.0171304074894
 20
190.504820061922
 30
0.0
 11
542.7581208614895
 21
193.004820061922
 31
0.0
  0
LINE
  5
450
330
1A
100
AcDbEntity
  8
NOKITOI
  6
PHANTOM
 62
     8
100
AcDbLine
 10
538.6969316748893
 20
189.224044680522
 30
0.0
 11
542.5838883714893
 21
191.273699037622
 31
0.0
  0
ARC
  5
451
330
1A
100
AcDbEntity
  8
NOKITOI
  6
PHANTOM
 62
     8
100
AcDbCircle
 10
775.4312407951895
 20
315.697072972422
 30
0.0
 40
268.3999999999999
100
AcDbArc
 50
208.1129329202
 51
210.8037235737999
  0
LINE
  5
452
330
1A
100
AcDbEntity
  8
NOKITOI
  6
PHANTOM
 62
     8
100
AcDbLine
 10
557.0754180249894
 20
178.504820061922
 30
0.0
 11
562.5319866414895
 21
156.795645424422
 31
0.0
  0
LINE
  5
453
330
1A
100
AcDbEntity
  8
NOKITOI
  6
PHANTOM
 62
     8
100
AcDbLine
 10
558.2720242926895
 20
180.307737510922
 30
0.0
 11
564.1037594357892
 21
157.105947969222
 31
0.0
  0
LINE
  5
454
330
1A
100
AcDbEntity
  8
NOKITOI
  6
PHANTOM
 62
     8
100
AcDbLine
 10
544.7393861803895
 20
176.606969008922
 30
0.0
 11
557.0754180249894
 21
178.504820061922
 31
0.0
  0
LINE
  5
455
330
1A
100
AcDbEntity
  8
SEIHIN
  6
CONTINUOUS
 62
     3
100
AcDbLine
 10
557.1863958501892
 20
178.0632903830221
 30
0.0
 11
562.5319866418892
 21
156.7956454230222
 31
0.0
  0
LINE
  5
456
330
1A
100
AcDbEntity
  8
SEIHIN
  6
CONTINUOUS
 62
     3
100
AcDbLine
 10
545.2707200879892
 20
176.6887113464222
 30
0.0
 11
550.0170020350894
 21
186.6510183277222
 31
0.0
  0
LINE
  5
457
330
1A
100
AcDbEntity
  8
SEIHIN
  6
CONTINUOUS
 62
     3
100
AcDbLine
 10
556.6254502985893
 20
178.4355929173222
 30
0.0
 11
544.7393722983895
 21
176.6069655326222
 31
0.0
  0
LINE
  5
458
330
1A
100
AcDbEntity
  8
SEIHIN
  6
CONTINUOUS
 62
     3
100
AcDbLine
 10
556.0645775122893
 20
176.3730551230221
 30
0.0
 11
561.0772355993892
 21
156.4299961315222
 31
0.0
  0
ARC
  5
459
330
1A
100
AcDbEntity
  8
NOKITOI
  6
PHANTOM
 62
     8
100
AcDbCircle
 10
544.5873291339894
 20
177.595340727822
 30
0.0
 40
1.0
100
AcDbArc
 50
210.8898752786
 51
278.7461542663999
  0
ARC
  5
45A
330
1A
100
AcDbEntity
  8
SEIHIN
  6
CONTINUOUS
 62
     3
100
AcDbCircle
 10
555.5796605146895
 20
176.2511719600222
 30
0.0
 40
0.5
100
AcDbArc
 50
14.1089391538
 51
98.7461622626
  0
ARC
  5
45B
330
1A
100
AcDbEntity
  8
SEIHIN
  6
CONTINUOUS
 62
     3
100
AcDbCircle
 10
554.8317815972893
 20
175.1243485545222
 30
0.0
 40
0.5
100
AcDbArc
 50
14.1089391538
 51
98.7461622626
  0
ARC
  5
45C
330
1A
100
AcDbEntity
  8
SEIHIN
  6
CONTINUOUS
 62
     3
100
AcDbCircle
 10
544.5873151141893
 20
177.5953372303222
 30
0.0
 40
2.5
100
AcDbArc
 50
210.8909783522999
 51
278.7461622625999
  0
ARC
  5
45D
330
1A
100
AcDbEntity
  8
SEIHIN
  6
CONTINUOUS
 62
     3
100
AcDbCircle
 10
544.5873151141893
 20
177.5953372303222
 30
0.0
 40
3.5
100
AcDbArc
 50
210.8909847281
 51
278.7461634440999
  0
ARC
  5
45E
330
1A
100
AcDbEntity
  8
SEIHIN
  6
CONTINUOUS
 62
     3
100
AcDbCircle
 10
544.5955724213892
 20
177.5966075852222
 30
0.0
 40
1.0
100
AcDbArc
 50
278.7461622625999
 51
334.5257500930999
  0
ARC
  5
45F
330
1A
100
AcDbEntity
  8
SEIHIN
  6
CONTINUOUS
 62
     3
100
AcDbCircle
 10
544.5873151141893
 20
177.5953372303222
 30
0.0
 40
1.0
100
AcDbArc
 50
210.8909783522999
 51
278.7461622625999
  0
LINE
  5
460
330
1A
100
AcDbEntity
  8
SEIHIN
  6
CONTINUOUS
 62
     3
100
AcDbLine
 10
555.5036319224893
 20
176.7453578089222
 30
0.0
 11
544.9674580747894
 21
175.1244079861222
 31
0.0
  0
LINE
  5
461
330
1A
100
AcDbEntity
  8
SEIHIN
  6
CONTINUOUS
 62
     3
100
AcDbLine
 10
554.7557530051892
 20
175.6185344033222
 30
0.0
 11
545.1195153303895
 21
174.1360362995222
 31
0.0
  0
ARC
  5
462
330
1A
100
AcDbEntity
  8
NOKITOI
  6
PHANTOM
 62
     8
100
AcDbCircle
 10
565.5585104285894
 20
157.471597458222
 30
0.0
 40
1.5
100
AcDbArc
 50
194.1089391538
 51
267.4122100793
  0
ARC
  5
463
330
1A
100
AcDbEntity
  8
NOKITOI
  6
PHANTOM
 62
     8
100
AcDbCircle
 10
565.4414885778894
 20
157.526944598522
 30
0.0
 40
3.0
100
AcDbArc
 50
194.1089430167999
 51
267.4053322868999
  0
ARC
  5
464
330
1A
100
AcDbEntity
  8
SEIHIN
  6
CONTINUOUS
 62
     3
100
AcDbCircle
 10
610.5754180249894
 20
1153.504820061922
 30
0.0
 40
1000.0
100
AcDbArc
 50
267.4053464256999
 51
267.4053483183
  0
LINE
  5
465
330
1A
100
AcDbEntity
  8
SEIHIN
  6
CONTINUOUS
 62
     3
100
AcDbLine
 10
562.5319865835892
 20
156.7956456548222
 30
0.0
 11
562.5319866418892
 21
156.7956454230222
 31
0.0
  0
ARC
  5
466
330
1A
100
AcDbEntity
  8
SEIHIN
  6
CONTINUOUS
 62
     3
100
AcDbCircle
 10
565.4414885778894
 20
157.5269445984222
 30
0.0
 40
3.0
100
AcDbArc
 50
194.1089391538
 51
267.4053482951999
  0
LINE
  5
467
330
1A
100
AcDbEntity
  8
NOKITOI
  6
PHANTOM
 62
     8
100
AcDbLine
 10
542.7581208614895
 20
193.004820061922
 30
0.0
 11
558.2720242926895
 21
180.307737510922
 31
0.0
  0
LINE
  5
468
330
1A
100
AcDbEntity
  8
SEIHIN
  6
CONTINUOUS
 62
     3
100
AcDbLine
 10
562.7543353197896
 20
189.4961494113222
 30
0.0
 11
551.5184450168892
 21
187.7675509031222
 31
0.0
  0
ARC
  5
469
330
1A
100
AcDbEntity
  8
SEIHIN
  6
CONTINUOUS
 62
     3
100
AcDbCircle
 10
556.7014788906893
 20
177.9414070684222
 30
0.0
 40
0.5
100
AcDbArc
 50
14.1089570626
 51
98.7461622626
  0
LINE
  5
46A
330
1A
100
AcDbEntity
  8
NOKITOI
  6
PHANTOM
 62
     8
100
AcDbLine
 10
544.8953364820895
 20
178.249785540022
 30
0.0
 11
556.3448827535894
 21
180.011254197222
 31
0.0
  0
LINE
  5
46B
330
1A
100
AcDbEntity
  8
NOKITOI
  6
PHANTOM
 62
     8
100
AcDbLine
 10
542.5838883714893
 20
191.273699037622
 30
0.0
 11
556.3448827535894
 21
180.011254197222
 31
0.0
  0
ARC
  5
46C
330
1A
100
AcDbEntity
  8
SEIHIN
  6
CONTINUOUS
 62
     3
100
AcDbCircle
 10
551.8225593853892
 20
185.7908075078221
 30
0.0
 40
2.0
100
AcDbArc
 50
98.7461622626
 51
154.5257500930999
  0
ARC
  5
46D
330
1A
100
AcDbEntity
  8
SEIHIN
  6
CONTINUOUS
 62
     3
100
AcDbCircle
 10
563.0584496882895
 20
187.5194060160222
 30
0.0
 40
2.0
100
AcDbArc
 50
14.1089391538
 51
98.7461622626
  0
ARC
  5
46E
330
1A
100
AcDbEntity
  8
NOKITOI
  6
PHANTOM
 62
     8
100
AcDbCircle
 10
518.6850306900894
 20
270.754820061922
 30
0.0
 40
7.75
100
AcDbArc
 50
90.00000463200002
 51
270.0000047291999
  0
ARC
  5
46F
330
1A
100
AcDbEntity
  8
NOKITOI
  6
PHANTOM
 62
     8
100
AcDbCircle
 10
547.5754180249894
 20
211.804820061922
 30
0.0
 40
50.0
100
AcDbArc
 50
114.8843483776999
 51
130.3302822651
  0
ARC
  5
470
330
1A
100
AcDbEntity
  8
NOKITOI
  6
PHANTOM
 62
     8
100
AcDbCircle
 10
547.5754180249894
 20
211.804820061922
 30
0.0
 40
51.45
100
AcDbArc
 50
114.2851310492
 51
129.5343506588999
  0
LINE
  5
471
330
1A
100
AcDbEntity
  8
NOKITOI
  6
PHANTOM
 62
     8
100
AcDbLine
 10
518.6850313297894
 20
263.004820061922
 30
0.0
 11
525.5754180249893
 21
263.004820061922
 31
0.0
  0
LINE
  5
472
330
1A
100
AcDbEntity
  8
NOKITOI
  6
PHANTOM
 62
     8
100
AcDbLine
 10
518.6850313763896
 20
261.554820061922
 30
0.0
 11
525.5754180249893
 21
261.554820061922
 31
0.0
  0
ARC
  5
473
330
1A
100
AcDbEntity
  8
NOKITOI
  6
PHANTOM
 62
     8
100
AcDbCircle
 10
518.6850306900894
 20
270.754820061922
 30
0.0
 40
9.199999999999999
100
AcDbArc
 50
223.0761682909
 51
270.0000042740999
  0
ARC
  5
474
330
1A
100
AcDbEntity
  8
NOKITOI
  6
PHANTOM
 62
     8
100
AcDbCircle
 10
775.4312407951895
 20
315.697072972422
 30
0.0
 40
268.3999999999999
100
AcDbArc
 50
191.002705877
 51
193.8416404550999
  0
ARC
  5
475
330
1A
100
AcDbEntity
  8
NOKITOI
  6
PHANTOM
 62
     8
100
AcDbCircle
 10
525.5754180249893
 20
260.004820061922
 30
0.0
 40
1.55
100
AcDbArc
 50
302.8047584538
 51
90.0
  0
ARC
  5
476
330
1A
100
AcDbEntity
  8
NOKITOI
  6
PHANTOM
 62
     8
100
AcDbCircle
 10
525.5754180249893
 20
260.004820061922
 30
0.0
 40
3.0
100
AcDbArc
 50
288.6750019947
 51
90.0
  0
LINE
  5
477
330
1A
100
AcDbEntity
  8
NOKITOI
  6
PHANTOM
 62
     8
100
AcDbLine
 10
509.0795759328896
 20
282.6009912544221
 30
0.0
 11
530.7654345608896
 21
281.1552673458219
 31
0.0
  0
LINE
  5
478
330
1A
100
AcDbEntity
  8
NOKITOI
  6
PHANTOM
 62
     8
100
AcDbLine
 10
509.6978647842895
 20
284.1633236113221
 30
0.0
 11
533.2413895631896
 21
282.5937552927221
 31
0.0
  0
LINE
  5
479
330
1A
100
AcDbEntity
  8
NOKITOI
  6
PHANTOM
 62
     8
100
AcDbLine
 10
528.6725494935894
 20
279.9548200619219
 30
0.0
 11
518.6850300318894
 21
279.9548200619219
 31
0.0
  0
LINE
  5
47A
330
1A
100
AcDbEntity
  8
NOKITOI
  6
PHANTOM
 62
     8
100
AcDbLine
 10
526.1676047200894
 20
278.504820061922
 30
0.0
 11
518.6850300635894
 21
278.504820061922
 31
0.0
  0
ARC
  5
47B
330
1A
100
AcDbEntity
  8
NOKITOI
  6
PHANTOM
 62
     8
100
AcDbCircle
 10
509.7864661858896
 20
288.394388324022
 30
0.0
 40
0.5
100
AcDbArc
 50
343.6104768811
 51
114.5671928313999
  0
ARC
  5
47C
330
1A
100
AcDbEntity
  8
NOKITOI
  6
PHANTOM
 62
     8
100
AcDbCircle
 10
509.7311241000896
 20
284.6622162029221
 30
0.0
 40
0.5
100
AcDbArc
 50
163.6104434492
 51
266.1859469238
  0
LINE
  5
47D
330
1A
100
AcDbEntity
  8
NOKITOI
  6
PHANTOM
 62
     8
100
AcDbLine
 10
510.2661489790896
 20
288.253305306122
 30
0.0
 11
509.2514413892895
 21
284.803299500622
 31
0.0
  0
ARC
  5
47E
330
1A
100
AcDbEntity
  8
NOKITOI
  6
PHANTOM
 62
     8
100
AcDbCircle
 10
518.6850306900894
 20
270.754820061922
 30
0.0
 40
9.199999999999999
100
AcDbArc
 50
90.00000409930001
 51
156.7813748210999
  0
ARC
  5
47F
330
1A
100
AcDbEntity
  8
NOKITOI
  6
PHANTOM
 62
     8
100
AcDbCircle
 10
775.4312407951895
 20
315.697072972422
 30
0.0
 40
268.3999999999999
100
AcDbArc
 50
187.0831015443
 51
188.8548372349
  0
ARC
  5
480
330
1A
100
AcDbEntity
  8
SEIHIN
  6
CONTINUOUS
 62
     3
100
AcDbCircle
 10
510.7308448597893
 20
288.8277648408223
 30
0.0
 40
0.5
100
AcDbArc
 50
343.5407503716999
 51
112.2471535684
  0
ARC
  5
481
330
1A
100
AcDbEntity
  8
SEIHIN
  6
CONTINUOUS
 62
     3
100
AcDbCircle
 10
511.2555341288894
 20
287.0743117316222
 30
0.0
 40
0.5
100
AcDbArc
 50
163.540767401
 51
249.0187713847
  0
ARC
  5
482
330
1A
100
AcDbEntity
  8
SEIHIN
  6
CONTINUOUS
 62
     3
100
AcDbCircle
 10
512.1506892997892
 20
289.4085561960222
 30
0.0
 40
3.0
100
AcDbArc
 50
249.0187681111
 51
112.2471627788
  0
LINE
  5
483
330
1A
100
AcDbEntity
  8
SEIHIN
  6
CONTINUOUS
 62
     3
100
AcDbLine
 10
511.2103556144895
 20
288.6860982038222
 30
0.0
 11
510.7760233406895
 21
287.2159782557222
 31
0.0
  0
ARC
  5
484
330
1A
100
AcDbEntity
  8
NOKITOI
  6
PHANTOM
 62
     8
100
AcDbCircle
 10
533.1748703344894
 20
281.5959701494221
 30
0.0
 40
1.0
100
AcDbArc
 50
339.7751439063
 51
86.18591263459999
  0
ARC
  5
485
330
1A
100
AcDbEntity
  8
NOKITOI
  6
PHANTOM
 62
     8
100
AcDbCircle
 10
526.1676045127894
 20
277.504820061922
 30
0.0
 40
1.0
100
AcDbArc
 50
339.7751249116
 51
89.9999881233
  0
LINE
  5
486
330
1A
100
AcDbEntity
  8
NOKITOI
  6
PHANTOM
 62
     8
100
AcDbLine
 10
528.6725494935894
 20
279.9548200619219
 30
0.0
 11
530.7654345608896
 21
281.1552673458219
 31
0.0
  0
LINE
  5
487
330
1A
100
AcDbEntity
  8
NOKITOI
  6
PHANTOM
 62
     8
100
AcDbLine
 10
529.1706251217894
 20
278.5689161448219
 30
0.0
 11
532.2256644070896
 21
280.3212405650219
 31
0.0
  0
LINE
  5
488
330
1A
100
AcDbEntity
  8
NOKITOI
  6
PHANTOM
 62
     8
100
AcDbLine
 10
530.0643515901895
 20
274.4548200619219
 30
0.0
 11
527.6549055122893
 21
274.4548200619219
 31
0.0
  0
ARC
  5
489
330
1A
100
AcDbEntity
  8
NOKITOI
  6
PHANTOM
 62
     8
100
AcDbCircle
 10
526.2924826757896
 20
273.5048200619221
 30
0.0
 40
0.5
100
AcDbArc
 50
159.7751198921999
 51
269.9999880048
  0
LINE
  5
48A
330
1A
100
AcDbEntity
  8
NOKITOI
  6
PHANTOM
 62
     8
100
AcDbLine
 10
530.3781308285895
 20
273.004820061922
 30
0.0
 11
526.2924825710895
 21
273.004820061922
 31
0.0
  0
ARC
  5
48B
330
1A
100
AcDbEntity
  8
NOKITOI
  6
PHANTOM
 62
     8
100
AcDbCircle
 10
530.3781308285895
 20
274.0048200619221
 30
0.0
 40
1.0
100
AcDbArc
 50
270.0
 51
339.7751405688
  0
LINE
  5
48C
330
1A
100
AcDbEntity
  8
NOKITOI
  6
PHANTOM
 62
     8
100
AcDbLine
 10
529.1706251217894
 20
278.5689161448219
 30
0.0
 11
527.6549055122893
 21
274.4548200619219
 31
0.0
  0
LINE
  5
48D
330
1A
100
AcDbEntity
  8
NOKITOI
  6
PHANTOM
 62
     8
100
AcDbLine
 10
532.2256644070896
 20
280.3212405650219
 30
0.0
 11
530.0643515901895
 21
274.4548200619219
 31
0.0
  0
LINE
  5
48E
330
1A
100
AcDbEntity
  8
NOKITOI
  6
PHANTOM
 62
     8
100
AcDbLine
 10
534.1132134713896
 20
281.250264845222
 30
0.0
 11
531.3164739453894
 21
273.6591147031219
 31
0.0
  0
LINE
  5
48F
330
1A
100
AcDbEntity
  8
NOKITOI
  6
PHANTOM
 62
     8
100
AcDbLine
 10
527.1059475350896
 20
277.1591144467219
 30
0.0
 11
525.8233111796896
 21
273.677672910722
 31
0.0
  0
ARC
  5
490
330
1A
100
AcDbEntity
  8
NOKITOI
  6
PHANTOM
 62
     8
100
AcDbCircle
 10
653.2981260438893
 20
159.422444089222
 30
0.0
 40
5.0
100
AcDbArc
 50
272.4608668161999
 51
357.2695148405999
  0
ARC
  5
491
330
1A
100
AcDbEntity
  8
SEIHIN
  6
CONTINUOUS
 62
     3
100
AcDbCircle
 10
653.2994301250894
 20
159.4225001356222
 30
0.0
 40
6.5
100
AcDbArc
 50
272.4609632319999
 51
357.2531593204
  0
ARC
  5
492
330
1A
100
AcDbEntity
  8
SEIHIN
  6
CONTINUOUS
 62
     3
100
AcDbCircle
 10
653.2994301250894
 20
159.4225001356222
 30
0.0
 40
5.0
100
AcDbArc
 50
272.4609632319999
 51
357.2531522643
  0
ARC
  5
493
330
1A
100
AcDbEntity
  8
SEIHIN
  6
CONTINUOUS
 62
     3
100
AcDbCircle
 10
653.2994301250894
 20
159.4225001356222
 30
0.0
 40
7.5
100
AcDbArc
 50
272.4609632319999
 51
357.2531593204
  0
LINE
  5
494
330
1A
100
AcDbEntity
  8
SEIHIN
  6
CONTINUOUS
 62
     3
100
AcDbLine
 10
659.5816655538895
 20
133.8610504332222
 30
0.0
 11
664.3224428573014
 21
233.1471125883362
 31
0.0
  0
ARC
  5
497
330
1A
100
AcDbEntity
  8
SEIHIN
  6
CONTINUOUS
 62
     3
100
AcDbCircle
 10
656.5851124850894
 20
134.0048200619222
 30
0.0
 40
3.0
100
AcDbArc
 50
269.9999919609
 51
357.2531502494999
  0
LINE
  5
498
330
1A
100
AcDbEntity
  8
NOKITOI
  6
PHANTOM
 62
     8
100
AcDbLine
 10
659.6635337141894
 20
218.370770258722
 30
0.0
 11
656.8440956262896
 21
159.253329570922
 31
0.0
  0
LINE
  5
499
330
1A
100
AcDbEntity
  8
NOKITOI
  6
PHANTOM
 62
     8
100
AcDbLine
 10
661.8255974796896
 20
233.266630462822
 30
0.0
 11
658.2924493928892
 21
159.184254490422
 31
0.0
  0
LINE
  5
49A
330
1A
100
AcDbEntity
  8
SEIHIN
  6
CONTINUOUS
 62
     3
100
AcDbLine
 10
659.7919618233893
 20
159.1110003014222
 30
0.0
 11
663.5031058947895
 21
236.9301243787222
 31
0.0
  0
LINE
  5
49B
330
1A
100
AcDbEntity
  8
SEIHIN
  6
CONTINUOUS
 62
     3
100
AcDbLine
 10
658.2936852481891
 20
159.1828842635222
 30
0.0
 11
661.8256872836894
 21
233.2667117659222
 31
0.0
  0
LINE
  5
49C
330
1A
100
AcDbEntity
  8
SEIHIN
  6
CONTINUOUS
 62
     3
100
AcDbLine
 10
648.0434481564891
 20
154.2069932264222
 30
0.0
 11
649.3577466417893
 21
181.6006661647222
 31
0.0
  0
ARC
  5
49D
330
1A
100
AcDbEntity
  8
NOKITOI
  6
PHANTOM
 62
     8
100
AcDbCircle
 10
653.2981260438893
 20
159.422444089222
 30
0.0
 40
3.549999999999999
100
AcDbArc
 50
272.460905393
 51
357.2695164051999
  0
ARC
  5
49E
330
1A
100
AcDbEntity
  8
SEIHIN
  6
CONTINUOUS
 62
     3
100
AcDbCircle
 10
610.5754180249894
 20
1153.504820061922
 30
0.0
 40
1000.0
100
AcDbArc
 50
272.4609628977
 51
272.4609633613999
  0
ARC
  5
49F
330
1A
100
AcDbEntity
  8
SEIHIN
  6
CONTINUOUS
 62
     3
100
AcDbCircle
 10
610.5754180249894
 20
1153.504820061922
 30
0.0
 40
1000.0
100
AcDbArc
 50
272.4609631308
 51
272.4609633613999
  0
LINE
  5
4A0
330
1A
100
AcDbEntity
  8
SEIHIN
  6
CONTINUOUS
 62
     3
100
AcDbLine
 10
658.2936852633895
 20
159.1828845813221
 30
0.0
 11
658.2936852837895
 21
159.1828850057221
 31
0.0
  0
LINE
  5
4A1
330
1A
100
AcDbEntity
  8
SEIHIN
  6
CONTINUOUS
 62
     3
100
AcDbLine
 10
651.3554487027893
 20
183.5048200619222
 30
0.0
 11
658.5074352713893
 21
183.5048200619222
 31
0.0
  0
ARC
  5
4A2
330
1A
100
AcDbEntity
  8
SEIHIN
  6
CONTINUOUS
 62
     3
100
AcDbCircle
 10
651.3554487027893
 20
181.5048200619222
 30
0.0
 40
2.0
100
AcDbArc
 50
90.0
 51
177.2531593204
  0
ARC
  5
4A3
330
1A
100
AcDbEntity
  8
SEIHIN
  6
CONTINUOUS
 62
     3
100
AcDbCircle
 10
658.5074352713893
 20
184.5048200619222
 30
0.0
 40
1.0
100
AcDbArc
 50
270.0
 51
357.2531593204
  0
LINE
  5
4A4
330
1A
100
AcDbEntity
  8
NOKITOI
  6
PHANTOM
 62
     8
100
AcDbLine
 10
660.3772436801894
 20
233.335704853422
 30
0.0
 11
659.7903305211587
 21
221.0294215500007
 31
0.0
  0
LINE
  5
4A5
330
1A
100
AcDbEntity
  8
NOKITOI
  6
PHANTOM
 62
     8
100
AcDbLine
 10
653.0754180249894
 20
235.504820061922
 30
0.0
 11
647.9376943420414
 21
219.1547099319967
 31
0.0
  0
LINE
  5
4A6
330
1A
100
AcDbEntity
  8
NOKITOI
  6
PHANTOM
 62
     8
100
AcDbLine
 10
654.1920951212175
 20
234.054820061922
 30
0.0
 11
649.8180057495021
 21
220.1348727547035
 31
0.0
  0
LINE
  5
4A7
330
1A
100
AcDbEntity
  8
NOKITOI
  6
PHANTOM
 62
     8
100
AcDbLine
 10
648.4717858855731
 20
218.5080897149471
 30
0.0
 11
658.5753246434053
 21
219.4144088161606
 31
0.0
  0
LINE
  5
4A8
330
1A
100
AcDbEntity
  8
NOKITOI
  6
PHANTOM
 62
     8
100
AcDbLine
 10
649.8180057495021
 20
220.1348727547035
 30
0.0
 11
659.7903305211582
 21
221.0294215500007
 31
0.0
  0
ARC
  5
4A9
330
1A
100
AcDbEntity
  8
NOKITOI
  6
PHANTOM
 62
     8
100
AcDbCircle
 10
648.4146985630384
 20
219.004820061922
 30
0.0
 40
0.5
100
AcDbArc
 50
162.5556257086474
 51
276.5560221412856
  0
ARC
  5
4AA
330
1A
100
AcDbEntity
  8
NOKITOI
  6
PHANTOM
 62
     8
100
AcDbCircle
 10
658.6646690369896
 20
218.418408023322
 30
0.0
 40
1.0
100
AcDbArc
 50
357.2695237413999
 51
95.12589166664202
  0
LINE
  5
4AB
330
1A
100
AcDbEntity
  8
NOKITOI
  6
PHANTOM
 62
     8
100
AcDbLine
 10
656.8312746940894
 20
238.504820061922
 30
0.0
 11
655.0754180249894
 21
238.504820061922
 31
0.0
  0
LINE
  5
4AC
330
1A
100
AcDbEntity
  8
NOKITOI
  6
PHANTOM
 62
     8
100
AcDbLine
 10
656.5254180249892
 20
234.054820061922
 30
0.0
 11
654.1920951212175
 21
234.054820061922
 31
0.0
  0
LINE
  5
4AD
330
1A
100
AcDbEntity
  8
SEIHIN
  6
CONTINUOUS
 62
     3
100
AcDbLine
 10
654.2254180249894
 20
241.0048200619223
 30
0.0
 11
656.8309780229895
 21
241.0048200619223
 31
0.0
  0
LINE
  5
4AE
330
1A
100
AcDbEntity
  8
SEIHIN
  6
CONTINUOUS
 62
     3
100
AcDbLine
 10
654.5754180249893
 20
238.5048200619222
 30
0.0
 11
656.8313600577892
 21
238.5048200619222
 31
0.0
  0
ARC
  5
4AF
330
1A
100
AcDbEntity
  8
SEIHIN
  6
CONTINUOUS
 62
     3
100
AcDbCircle
 10
654.2254180249894
 20
238.5048200619222
 30
0.0
 40
2.5
100
AcDbArc
 50
90.0
 51
278.0478462473
  0
ARC
  5
4B0
330
1A
100
AcDbEntity
  8
SEIHIN
  6
CONTINUOUS
 62
     3
100
AcDbCircle
 10
657.2254180249895
 20
238.5048200619222
 30
0.0
 40
5.5
100
AcDbArc
 50
90.00000535359999
 51
179.9999987629999
  0
LINE
  5
4B1
330
1A
100
AcDbEntity
  8
NOKITOI
  6
PHANTOM
 62
     8
100
AcDbLine
 10
655.0754180249894
 20
238.504820061922
 30
0.0
 11
655.0754180249894
 21
235.504820061922
 31
0.0
  0
LINE
  5
4B2
330
1A
100
AcDbEntity
  8
NOKITOI
  6
PHANTOM
 62
     8
100
AcDbLine
 10
655.0754180249894
 20
235.504820061922
 30
0.0
 11
653.0754180249894
 21
235.504820061922
 31
0.0
  0
LINE
  5
4B3
330
1A
100
AcDbEntity
  8
SEIHIN
  6
CONTINUOUS
 62
     3
100
AcDbLine
 10
654.5754180249893
 20
236.0294413030222
 30
0.0
 11
654.5754180249893
 21
238.5048200619222
 31
0.0
  0
LINE
  5
4B4
330
1A
100
AcDbEntity
  8
NOKITOI
  6
PHANTOM
 62
     8
100
AcDbLine
 10
656.8312744197895
 20
237.0548200619221
 30
0.0
 11
656.5254180249892
 21
237.0548200619221
 31
0.0
  0
ARC
  5
4B5
330
1A
100
AcDbEntity
  8
NOKITOI
  6
PHANTOM
 62
     8
100
AcDbCircle
 10
656.8312741305892
 20
233.504820061922
 30
0.0
 40
3.549999999999999
100
AcDbArc
 50
357.2695052524
 51
89.99999533379998
  0
LINE
  5
4B6
330
1A
100
AcDbEntity
  8
NOKITOI
  6
PHANTOM
 62
     8
100
AcDbLine
 10
656.5254180249892
 20
237.0548200619221
 30
0.0
 11
656.5254180249892
 21
234.054820061922
 31
0.0
  0
ARC
  5
4B7
330
1A
100
AcDbEntity
  8
NOKITOI
  6
PHANTOM
 62
     8
100
AcDbCircle
 10
656.8312741305892
 20
233.504820061922
 30
0.0
 40
5.0
100
AcDbArc
 50
357.2695148368
 51
89.99999354360001
  0
LINE
  5
4B8
330
1A
100
AcDbEntity
  8
SEIHIN
  6
CONTINUOUS
 62
     3
100
AcDbLine
 10
657.2254175110895
 20
244.0048200619223
 30
0.0
 11
657.3254180249894
 21
244.0048200619223
 31
0.0
  0
ARC
  5
4B9
330
1A
100
AcDbEntity
  8
SEIHIN
  6
CONTINUOUS
 62
     3
100
AcDbCircle
 10
657.3254180249894
 20
242.0048200619223
 30
0.0
 40
2.0
100
AcDbArc
 50
0.0
 51
90.0
  0
ARC
  5
4BA
330
1A
100
AcDbEntity
  8
SEIHIN
  6
CONTINUOUS
 62
     3
100
AcDbCircle
 10
656.8313600577892
 20
233.5048200619222
 30
0.0
 40
5.0
100
AcDbArc
 50
357.2704475607
 51
90.0
  0
ARC
  5
4BB
330
1A
100
AcDbEntity
  8
SEIHIN
  6
CONTINUOUS
 62
     3
100
AcDbCircle
 10
656.8309780229895
 20
233.5048200619222
 30
0.0
 40
7.5
100
AcDbArc
 50
357.2662791048
 51
90.0
  0
LINE
  5
4BC
330
1A
100
AcDbEntity
  8
SEIHIN
  6
CONTINUOUS
 62
     3
100
AcDbLine
 10
659.3254180249894
 20
240.5774270289222
 30
0.0
 11
659.3254180249894
 21
242.0048200619223
 31
0.0
  0
DIMENSION
  5
5ED
330
1A
100
AcDbEntity
  8
SUNPOU
100
AcDbDimension
  2
*D1
 10
346.2927786954842
 20
348.2692968301453
 30
0.0
 11
331.2927786954842
 21
353.2692968301453
 31
0.0
 70
    32
  3
STANDARD
100
AcDbAlignedDimension
 13
316.2927786954842
 23
434.8059626356354
 33
0.0
 14
346.2927786954842
 24
369.8059626356354
 34
0.0
100
AcDbRotatedDimension
1001
ACAD
1000
DSTYLE
1002
{
1070
   372
1070
    -1
1070
   371
1070
    -1
1070
    41
1040
7.0
1070
    42
1040
6.0
1070
    43
1040
14.0
1070
    44
1040
3.0
1070
    73
1070
     0
1070
    74
1070
     0
1070
    77
1070
     3
1070
   140
1040
6.0
1070
   141
1040
150.0
1070
   147
1040
2.0
1070
   172
1070
     1
1070
   173
1070
     1
1070
   176
1070
   256
1070
   177
1070
   256
1070
   178
1070
   256
1070
   271
1070
     0
1070
   272
1070
     2
1070
     6
1000
OPEN
1070
     7
1000
OPEN
1002
}
  0
DIMENSION
  5
5FA
330
1A
100
AcDbEntity
  8
SUNPOU
100
AcDbDimension
  2
*D2
 10
273.6069732765381
 20
333.8195282530571
 30
0.0
 11
309.9498759860111
 21
338.8195282530571
 31
0.0
 70
    32
  1
※a<>
  3
STANDARD
100
AcDbAlignedDimension
 13
346.2927786954842
 23
369.8059626356354
 33
0.0
 14
273.6069732765381
 24
371.3059626356354
 34
0.0
100
AcDbRotatedDimension
1001
ACAD
1000
DSTYLE
1002
{
1070
   372
1070
    -1
1070
   371
1070
    -1
1070
    41
1040
7.0
1070
    42
1040
6.0
1070
    43
1040
14.0
1070
    44
1040
3.0
1070
    73
1070
     0
1070
    74
1070
     0
1070
    77
1070
     3
1070
   140
1040
6.0
1070
   141
1040
150.0
1070
   147
1040
2.0
1070
   172
1070
     1
1070
   173
1070
     1
1070
   176
1070
   256
1070
   177
1070
   256
1070
   178
1070
   256
1070
   271
1070
     0
1070
   272
1070
     2
1070
     6
1000
OPEN
1070
     7
1000
OPEN
1002
}
  0
DIMENSION
  5
607
330
1A
100
AcDbEntity
  8
SUNPOU
100
AcDbDimension
  2
*D3
 10
188.9785841144305
 20
333.8195282530571
 30
0.0
 11
231.2927786954843
 21
338.8195282530571
 31
0.0
 70
    32
  3
STANDARD
100
AcDbAlignedDimension
 13
273.6069732765381
 23
371.3059626356354
 33
0.0
 14
188.9785841144305
 24
371.3059626356354
 34
0.0
100
AcDbRotatedDimension
1001
ACAD
1000
DSTYLE
1002
{
1070
   372
1070
    -1
1070
   371
1070
    -1
1070
    41
1040
7.0
1070
    42
1040
6.0
1070
    43
1040
14.0
1070
    44
1040
3.0
1070
    73
1070
     0
1070
    74
1070
     0
1070
    77
1070
     3
1070
   140
1040
6.0
1070
   141
1040
150.0
1070
   147
1040
2.0
1070
   172
1070
     1
1070
   173
1070
     1
1070
   176
1070
   256
1070
   177
1070
   256
1070
   178
1070
   256
1070
   271
1070
     0
1070
   272
1070
     2
1070
     6
1000
OPEN
1070
     7
1000
OPEN
1002
}
  0
DIMENSION
  5
616
330
1A
100
AcDbEntity
  8
SUNPOU
100
AcDbDimension
  2
*D4
 10
116.2927786954842
 20
309.4079132583122
 30
0.0
 11
231.2927786954842
 21
314.4079132583121
 31
0.0
 70
    32
  3
STANDARD
100
AcDbAlignedDimension
 13
346.2927786954842
 23
290.7139421640122
 33
0.0
 14
116.2927786954842
 24
290.7139421640122
 34
0.0
100
AcDbRotatedDimension
1001
ACAD
1000
DSTYLE
1002
{
1070
   372
1070
    -1
1070
   371
1070
    -1
1070
    41
1040
7.0
1070
    42
1040
6.0
1070
    43
1040
14.0
1070
    44
1040
3.0
1070
    73
1070
     0
1070
    74
1070
     0
1070
    77
1070
     3
1070
   140
1040
6.0
1070
   141
1040
150.0
1070
   147
1040
2.0
1070
   172
1070
     1
1070
   173
1070
     1
1070
   176
1070
   256
1070
   177
1070
   256
1070
   178
1070
   256
1070
   271
1070
     0
1070
   272
1070
     2
1070
     6
1000
OPEN
1070
     7
1000
OPEN
1002
}
  0
DIMENSION
  5
63D
330
1A
100
AcDbEntity
  8
SUNPOU
100
AcDbDimension
  2
*D5
 10
714.8478719511654
 20
151.0048200619221
 30
0.0
 11
709.8478719511653
 21
196.0048200619223
 31
0.0
 70
    32
  3
STANDARD
100
AcDbAlignedDimension
 13
656.8309780229895
 23
241.0048200619222
 33
0.0
 14
610.5754180249894
 24
151.0048200619221
 34
0.0
 50
90.0
100
AcDbRotatedDimension
1001
ACAD
1000
DSTYLE
1002
{
1070
   372
1070
    -1
1070
   371
1070
    -1
1070
    41
1040
7.0
1070
    42
1040
6.0
1070
    43
1040
14.0
1070
    44
1040
3.0
1070
    73
1070
     0
1070
    74
1070
     0
1070
    77
1070
     3
1070
   140
1040
6.0
1070
   141
1040
150.0
1070
   147
1040
2.0
1070
   172
1070
     1
1070
   173
1070
     1
1070
   176
1070
   256
1070
   177
1070
   256
1070
   178
1070
   256
1070
   271
1070
     0
1070
   272
1070
     2
1070
     6
1000
OPEN
1070
     7
1000
OPEN
1002
}
  0
DIMENSION
  5
65E
330
1A
100
AcDbEntity
  8
SUNPOU
100
AcDbDimension
  2
*D6
 10
612.9406700778893
 20
178.920065163403
 30
0.0
 11
630.9406700778893
 21
183.920065163403
 31
0.0
 70
    32
  3
STANDARD
100
AcDbAlignedDimension
 13
610.5754180249894
 23
161.9548200619221
 33
0.0
 14
612.9406700778893
 24
138.0048200619222
 34
0.0
100
AcDbRotatedDimension
1001
ACAD
1000
DSTYLE
1002
{
1070
   372
1070
    -1
1070
   371
1070
    -1
1070
    41
1040
7.0
1070
    42
1040
6.0
1070
    43
1040
14.0
1070
    44
1040
3.0
1070
    73
1070
     0
1070
    74
1070
     0
1070
    77
1070
     3
1070
   140
1040
6.0
1070
   141
1040
150.0
1070
   147
1040
2.0
1070
   172
1070
     1
1070
   173
1070
     1
1070
   176
1070
   256
1070
   177
1070
   256
1070
   178
1070
   256
1070
   271
1070
     0
1070
   272
1070
     2
1070
     6
1000
OPEN
1070
     7
1000
OPEN
1002
}
  0
DIMENSION
  5
678
330
1A
100
AcDbEntity
  8
SUNPOU
100
AcDbDimension
  2
*D7
 10
456.5460504587772
 20
151.0048200619221
 30
0.0
 11
451.5460504587771
 21
221.7066881289723
 31
0.0
 70
    32
  3
STANDARD
100
AcDbAlignedDimension
 13
512.1506892997892
 23
292.4085561960223
 33
0.0
 14
610.5754180249894
 24
151.0048200619221
 34
0.0
 50
90.0
100
AcDbRotatedDimension
1001
ACAD
1000
DSTYLE
1002
{
1070
   372
1070
    -1
1070
   371
1070
    -1
1070
    41
1040
7.0
1070
    42
1040
6.0
1070
    43
1040
14.0
1070
    44
1040
3.0
1070
    73
1070
     0
1070
    74
1070
     0
1070
    77
1070
     3
1070
   140
1040
6.0
1070
   141
1040
150.0
1070
   147
1040
2.0
1070
   172
1070
     1
1070
   173
1070
     1
1070
   176
1070
   256
1070
   177
1070
   256
1070
   178
1070
   256
1070
   271
1070
     0
1070
   272
1070
     2
1070
     6
1000
OPEN
1070
     7
1000
OPEN
1002
}
  0
DIMENSION
  5
687
330
1A
100
AcDbEntity
  8
SUNPOU
100
AcDbDimension
  2
*D8
 10
456.5460504587772
 20
131.0048200619222
 30
0.0
 11
451.5460504587771
 21
141.0048200619223
 31
0.0
 70
    32
  3
STANDARD
100
AcDbAlignedDimension
 13
610.5754180249894
 23
151.0048200619221
 33
0.0
 14
568.7759782827895
 24
131.0048200619222
 34
0.0
 50
90.0
100
AcDbRotatedDimension
1001
ACAD
1000
DSTYLE
1002
{
1070
   372
1070
    -1
1070
   371
1070
    -1
1070
    41
1040
7.0
1070
    42
1040
6.0
1070
    43
1040
14.0
1070
    44
1040
3.0
1070
    73
1070
     0
1070
    74
1070
     0
1070
    77
1070
     3
1070
   140
1040
6.0
1070
   141
1040
150.0
1070
   147
1040
2.0
1070
   172
1070
     1
1070
   173
1070
     1
1070
   176
1070
   256
1070
   177
1070
   256
1070
   178
1070
   256
1070
   271
1070
     0
1070
   272
1070
     2
1070
     6
1000
OPEN
1070
     7
1000
OPEN
1002
}
  0
LINE
  5
734
330
1A
100
AcDbEntity
  8
SEIHIN
  6
CONTINUOUS
 62
     3
100
AcDbLine
 10
260.4929437134976
 20
68.81013966947586
 30
0.0
 11
260.4929437134976
 21
74.8102396701608
 31
0.0
  0
LINE
  5
735
330
1A
100
AcDbEntity
  8
SEIHIN
  6
CONTINUOUS
 62
     3
100
AcDbLine
 10
202.0923437134976
 20
68.81033967016088
 30
0.0
 11
202.0923437134976
 21
74.8102396701608
 31
0.0
  0
LINE
  5
736
330
1A
100
AcDbEntity
  8
SEIHIN
  6
CONTINUOUS
 62
     3
100
AcDbLine
 10
202.0923437134976
 20
68.81033967016088
 30
0.0
 11
260.4929437134976
 21
68.81013966947586
 31
0.0
  0
LINE
  5
737
330
1A
100
AcDbEntity
  8
SEIHIN
  6
CONTINUOUS
 62
     3
100
AcDbLine
 10
263.2927437134975
 20
129.3103396701608
 30
0.0
 11
259.5706437134976
 21
88.73783967016079
 31
0.0
  0
LINE
  5
738
330
1A
100
AcDbEntity
  8
SEIHIN
  6
CONTINUOUS
 62
     3
100
AcDbLine
 10
196.2927437134976
 20
74.81033967016088
 30
0.0
 11
266.2928732036647
 21
74.81013966979083
 31
0.0
  0
LINE
  5
739
330
1A
100
AcDbEntity
  8
SEIHIN
  6
CONTINUOUS
 62
     3
100
AcDbLine
 10
190.2927437134976
 20
129.3103396701608
 30
0.0
 11
194.0149437134977
 21
88.73783967016079
 31
0.0
  0
ARC
  5
73A
330
1A
100
AcDbEntity
  8
SEIHIN
  6
CONTINUOUS
 62
     3
100
AcDbCircle
 10
293.5967437134976
 20
97.87373967016089
 30
0.0
 40
99.99997100000001
100
AcDbArc
 50
185.241794
 51
193.3344079999999
  0
LINE
  5
73C
330
1A
100
AcDbEntity
  8
SEIHIN
  6
CONTINUOUS
 62
     3
100
AcDbLine
 10
199.2927437134976
 20
129.3103396701608
 30
0.0
 11
203.0149437134976
 21
88.73783967016079
 31
0.0
  0
ARC
  5
73D
330
1A
100
AcDbEntity
  8
SEIHIN
  6
CONTINUOUS
 62
     3
100
AcDbCircle
 10
302.5967437134976
 20
97.87373967016089
 30
0.0
 40
99.99997100000001
100
AcDbArc
 50
185.241794
 51
193.3344079999999
  0
ARC
  5
73E
330
1A
100
AcDbEntity
  8
SEIHIN
  6
CONTINUOUS
 62
     3
100
AcDbCircle
 10
159.9888437134976
 20
97.87373967016089
 30
0.0
 40
100.000031
100
AcDbArc
 50
346.665369
 51
354.758035
  0
LINE
  5
73F
330
1A
100
AcDbEntity
  8
SEIHIN
  6
CONTINUOUS
 62
     3
100
AcDbLine
 10
272.2927437134975
 20
129.3103396701608
 30
0.0
 11
268.5706437134975
 21
88.73783967016079
 31
0.0
  0
ARC
  5
740
330
1A
100
AcDbEntity
  8
SEIHIN
  6
CONTINUOUS
 62
     3
100
AcDbCircle
 10
168.9888437134976
 20
97.87373967016089
 30
0.0
 40
100.0000189999999
100
AcDbArc
 50
346.665424
 51
354.758035
  0
LINE
  5
75C
330
1A
100
AcDbEntity
  8
SEIHIN
  6
CONTINUOUS
 62
     3
100
AcDbLine
 10
577.9406350959027
 20
76.50492006197101
 30
0.0
 11
647.9407645860698
 21
76.50472006160095
 31
0.0
  0
LINE
  5
75D
330
1A
100
AcDbEntity
  8
SEIHIN
  6
CONTINUOUS
 62
     3
100
AcDbLine
 10
583.7402350959027
 20
70.504920061971
 30
0.0
 11
642.1408350959027
 21
70.50472006128598
 31
0.0
  0
LINE
  5
75E
330
1A
100
AcDbEntity
  8
SEIHIN
  6
CONTINUOUS
 62
     3
100
AcDbLine
 10
580.9406350959027
 20
131.004920061971
 30
0.0
 11
584.6628350959027
 21
90.4324200619709
 31
0.0
  0
LINE
  5
75F
330
1A
100
AcDbEntity
  8
SEIHIN
  6
CONTINUOUS
 62
     3
100
AcDbLine
 10
571.9406350959027
 20
131.004920061971
 30
0.0
 11
575.6628350959028
 21
90.4324200619709
 31
0.0
  0
LINE
  5
760
330
1A
100
AcDbEntity
  8
SEIHIN
  6
CONTINUOUS
 62
     3
100
AcDbLine
 10
583.7402350959027
 20
70.504920061971
 30
0.0
 11
583.7402350959027
 21
76.50482006197091
 31
0.0
  0
ARC
  5
761
330
1A
100
AcDbEntity
  8
SEIHIN
  6
CONTINUOUS
 62
     3
100
AcDbCircle
 10
684.2446350959026
 20
99.56832006197101
 30
0.0
 40
99.99997100000001
100
AcDbArc
 50
185.241794
 51
193.3344079999999
  0
ARC
  5
762
330
1A
100
AcDbEntity
  8
SEIHIN
  6
CONTINUOUS
 62
     3
100
AcDbCircle
 10
675.2446350959027
 20
99.56832006197101
 30
0.0
 40
99.99997100000001
100
AcDbArc
 50
185.241794
 51
193.3344079999999
  0
LINE
  5
763
330
1A
100
AcDbEntity
  8
SEIHIN
  6
CONTINUOUS
 62
     3
100
AcDbLine
 10
653.9406350959026
 20
131.004920061971
 30
0.0
 11
650.2185350959027
 21
90.4324200619709
 31
0.0
  0
LINE
  5
764
330
1A
100
AcDbEntity
  8
SEIHIN
  6
CONTINUOUS
 62
     3
100
AcDbLine
 10
644.9406350959026
 20
131.004920061971
 30
0.0
 11
641.2185350959027
 21
90.4324200619709
 31
0.0
  0
LINE
  5
765
330
1A
100
AcDbEntity
  8
SEIHIN
  6
CONTINUOUS
 62
     3
100
AcDbLine
 10
642.1408350959027
 20
70.50472006128598
 30
0.0
 11
642.1408350959027
 21
76.50482006197091
 31
0.0
  0
ARC
  5
766
330
1A
100
AcDbEntity
  8
SEIHIN
  6
CONTINUOUS
 62
     3
100
AcDbCircle
 10
550.6367350959027
 20
99.56832006197101
 30
0.0
 40
100.0000189999999
100
AcDbArc
 50
346.665424
 51
354.758035
  0
ARC
  5
767
330
1A
100
AcDbEntity
  8
SEIHIN
  6
CONTINUOUS
 62
     3
100
AcDbCircle
 10
541.6367350959027
 20
99.56832006197101
 30
0.0
 40
100.000031
100
AcDbArc
 50
346.665369
 51
354.758035
  0
DIMENSION
  5
77D
330
1A
100
AcDbEntity
  8
SUNPOU
100
AcDbDimension
  2
*D9
 10
266.2928490622415
 20
43.08408733808483
 30
0.0
 11
231.2927963878696
 21
48.08408733808483
 31
0.0
 70
    32
  3
STANDARD
100
AcDbAlignedDimension
 13
196.2927437134976
 23
74.81033967016088
 33
0.0
 14
266.2928490622415
 24
74.81003781872376
 34
0.0
100
AcDbRotatedDimension
1001
ACAD
1000
DSTYLE
1002
{
1070
   372
1070
    -1
1070
   371
1070
    -1
1070
    41
1040
7.0
1070
    42
1040
6.0
1070
    43
1040
14.0
1070
    44
1040
3.0
1070
    73
1070
     0
1070
    74
1070
     0
1070
    77
1070
     3
1070
   140
1040
6.0
1070
   141
1040
150.0
1070
   147
1040
2.0
1070
   172
1070
     1
1070
   173
1070
     1
1070
   176
1070
   256
1070
   177
1070
   256
1070
   178
1070
   256
1070
   271
1070
     0
1070
   272
1070
     2
1070
     6
1000
OPEN
1070
     7
1000
OPEN
1002
}
  0
DIMENSION
  5
78A
330
1A
100
AcDbEntity
  8
SUNPOU
100
AcDbDimension
  2
*D10
 10
456.5460504587772
 20
76.50492006197104
 30
0.0
 11
451.5460504587772
 21
103.7548700619467
 31
0.0
 70
    32
  3
STANDARD
100
AcDbAlignedDimension
 13
568.7759782828467
 23
131.0048200619222
 33
0.0
 14
577.9406350959027
 24
76.50492006197101
 34
0.0
 50
90.0
100
AcDbRotatedDimension
1001
ACAD
1000
DSTYLE
1002
{
1070
   372
1070
    -1
1070
   371
1070
    -1
1070
    41
1040
7.0
1070
    42
1040
6.0
1070
    43
1040
14.0
1070
    44
1040
3.0
1070
    73
1070
     0
1070
    74
1070
     0
1070
    77
1070
     3
1070
   140
1040
6.0
1070
   141
1040
150.0
1070
   147
1040
2.0
1070
   172
1070
     1
1070
   173
1070
     1
1070
   176
1070
   256
1070
   177
1070
   256
1070
   178
1070
   256
1070
   271
1070
     0
1070
   272
1070
     2
1070
     6
1000
OPEN
1070
     7
1000
OPEN
1002
}
  0
DIMENSION
  5
797
330
1A
100
AcDbEntity
  8
SUNPOU
100
AcDbDimension
  2
*D11
 10
405.917819417155
 20
68.81013966947581
 30
0.0
 11
400.917819417155
 21
179.762040916744
 31
0.0
 70
    32
  3
STANDARD
100
AcDbAlignedDimension
 13
346.2927786954842
 23
290.7139421640122
 33
0.0
 14
260.4929437134976
 24
68.81013966947586
 34
0.0
 50
90.0
100
AcDbRotatedDimension
1001
ACAD
1000
DSTYLE
1002
{
1070
   372
1070
    -1
1070
   371
1070
    -1
1070
    41
1040
7.0
1070
    42
1040
6.0
1070
    43
1040
14.0
1070
    44
1040
3.0
1070
    73
1070
     0
1070
    74
1070
     0
1070
    77
1070
     3
1070
   140
1040
6.0
1070
   141
1040
150.0
1070
   147
1040
2.0
1070
   172
1070
     1
1070
   173
1070
     1
1070
   176
1070
   256
1070
   177
1070
   256
1070
   178
1070
   256
1070
   271
1070
     0
1070
   272
1070
     2
1070
     6
1000
OPEN
1070
     7
1000
OPEN
1002
}
  0
LINE
  5
7A0
330
1A
100
AcDbEntity
  8
CENTER_L
  6
CENTER
 62
     1
100
AcDbLine
 10
309.2927786954843
 20
482.3059626356354
 30
0.0
 11
353.2927786954842
 21
482.3059626356354
 31
0.0
  0
LINE
  5
7A3
330
1A
100
AcDbEntity
  8
SEIHIN
100
AcDbLine
 10
344.2927786954842
 20
286.7798099884172
 30
0.0
 11
318.2927786954842
 21
286.7798099884172
 31
0.0
  0
LINE
  5
7A6
330
1A
100
AcDbEntity
  8
SEIHIN
100
AcDbLine
 10
144.4280563365835
 20
286.7798099884172
 30
0.0
 11
118.2927786954842
 21
286.7798099884172
 31
0.0
  0
DIMENSION
  5
7BC
330
1A
100
AcDbEntity
  8
SUNPOU
100
AcDbDimension
  2
*D12
 10
527.436966264976
 20
86.5049255405376
 30
0.0
 11
522.436966264976
 21
113.0049255405376
 31
0.0
 70
    32
  1
※ｂ<>
  3
STANDARD
100
AcDbAlignedDimension
 13
577.9406350959027
 23
76.50492006197101
 33
0.0
 14
576.0231510761278
 24
86.5049255405376
 34
0.0
 50
90.0
100
AcDbRotatedDimension
1001
ACAD
1000
DSTYLE
1002
{
1070
   372
1070
    -1
1070
   371
1070
    -1
1070
    41
1040
7.0
1070
    42
1040
6.0
1070
    43
1040
14.0
1070
    44
1040
3.0
1070
    73
1070
     0
1070
    74
1070
     0
1070
    77
1070
     3
1070
   140
1040
6.0
1070
   141
1040
150.0
1070
   147
1040
2.0
1070
   172
1070
     1
1070
   173
1070
     1
1070
   176
1070
   256
1070
   177
1070
   256
1070
   178
1070
   256
1070
   271
1070
     0
1070
   272
1070
     2
1070
     6
1000
OPEN
1070
     7
1000
OPEN
1002
}
  0
DIMENSION
  5
829
330
1A
100
AcDbEntity
  8
SUNPOU
100
AcDbDimension
  2
*D13
 10
439.8373905084054
 20
76.50492006197104
 30
0.0
 11
434.8373905084054
 21
184.4567381289967
 31
0.0
 70
    32
  3
STANDARD
100
AcDbAlignedDimension
 13
512.1506892997892
 23
292.4085561960223
 33
0.0
 14
577.9406350959027
 24
76.50492006197101
 34
0.0
 50
90.0
100
AcDbRotatedDimension
1001
ACAD
1000
DSTYLE
1002
{
1070
   372
1070
    -1
1070
   371
1070
    -1
1070
    41
1040
7.0
1070
    42
1040
6.0
1070
    43
1040
14.0
1070
    44
1040
3.0
1070
    73
1070
     0
1070
    74
1070
     0
1070
    77
1070
     3
1070
   140
1040
6.0
1070
   141
1040
150.0
1070
   147
1040
2.0
1070
   172
1070
     1
1070
   173
1070
     1
1070
   176
1070
   256
1070
   177
1070
   256
1070
   178
1070
   256
1070
   271
1070
     0
1070
   272
1070
     2
1070
   341
1005
6D
1070
     6
1000
OPEN
1070
     7
1000
OPEN
1002
}
  0
LINE
  5
17D1
330
1A
100
AcDbEntity
  8
SEIHIN
  6
CONTINUOUS
 62
     3
 48
5.0
100
AcDbLine
 10
652.3407509750041
 20
471.6704172650609
 30
0.0
 11
653.0698509750041
 21
471.6704172650609
 31
0.0
  0
LINE
  5
17D2
330
1A
100
AcDbEntity
  8
SEIHIN
  6
HIDDEN
 62
     6
 48
5.0
100
AcDbLine
 10
657.0740509750041
 20
473.6704172650608
 30
0.0
 11
650.340750975004
 21
473.6704172650608
 31
0.0
  0
LINE
  5
17D3
330
1A
100
AcDbEntity
  8
SEIHIN
  6
CONTINUOUS
 62
     3
 48
5.0
100
AcDbLine
 10
648.340750975004
 20
475.6704172650609
 30
0.0
 11
656.7696509750041
 21
475.6704172650609
 31
0.0
  0
DIMENSION
  5
17D4
330
1A
100
AcDbEntity
  8
SUNPOU
100
AcDbDimension
  2
*D68
 10
653.568950975004
 20
443.175049901341
 30
0.0
 11
652.7048509750041
 21
428.175049901341
 31
0.0
 70
    32
  3
STANDARD
100
AcDbAlignedDimension
 13
651.8407509750041
 23
458.6704172650609
 33
0.0
 14
653.568950975004
 24
471.2003172650609
 34
0.0
100
AcDbRotatedDimension
1001
ACAD
1000
DSTYLE
1002
{
1070
   287
1070
     5
1070
    41
1040
7.0
1070
    42
1040
6.0
1070
    43
1040
14.0
1070
    44
1040
3.0
1070
    73
1070
     0
1070
    74
1070
     0
1070
    77
1070
     3
1070
   140
1040
6.0
1070
   141
1040
150.0
1070
   147
1040
2.0
1070
   172
1070
     1
1070
   173
1070
     1
1070
   176
1070
   256
1070
   177
1070
   256
1070
   178
1070
   256
1070
   271
1070
     0
1070
   272
1070
     0
1070
   279
1070
     2
1070
   341
1005
6D
1070
     6
1000
OPEN
1070
     7
1000
OPEN
1070
   371
1070
    -1
1070
   372
1070
    -1
1002
}
  0
TEXT
  5
17D5
330
1A
100
AcDbEntity
  8
SUNPOU
 62
     4
100
AcDbText
 10
524.0120330451804
 20
396.3648487022224
 30
0.0
 40
8.0
  1
洋風じょうご用ストッパー２個入り
100
AcDbText
  0
DIMENSION
  5
17D6
330
1A
100
AcDbEntity
  8
SUNPOU
100
AcDbDimension
  2
*D65
 10
657.2696449750042
 20
490.5300618212772
 30
0.0
 11
652.5551979750041
 21
495.5300618212772
 31
0.0
 70
    32
  3
STANDARD
100
AcDbAlignedDimension
 13
647.8407509750041
 23
475.1704172650609
 33
0.0
 14
657.2696449750042
 24
475.1704172650609
 34
0.0
100
AcDbRotatedDimension
1001
ACAD
1000
DSTYLE
1002
{
1070
   287
1070
     5
1070
    41
1040
7.0
1070
    42
1040
6.0
1070
    43
1040
14.0
1070
    44
1040
3.0
1070
    73
1070
     0
1070
    74
1070
     0
1070
    77
1070
     3
1070
   140
1040
6.0
1070
   141
1040
150.0
1070
   147
1040
2.0
1070
   172
1070
     1
1070
   173
1070
     1
1070
   176
1070
   256
1070
   177
1070
   256
1070
   178
1070
   256
1070
   271
1070
     0
1070
   272
1070
     0
1070
   279
1070
     2
1070
   341
1005
6D
1070
     6
1000
OPEN
1070
     7
1000
OPEN
1070
   371
1070
    -1
1070
   372
1070
    -1
1002
}
  0
LINE
  5
17D7
330
1A
100
AcDbEntity
  8
CENTER_L
  6
CENTER
 62
     1
 48
5.0
100
AcDbLine
 10
551.4078173013417
 20
479.3653842164984
 30
0.0
 11
551.4078173013417
 21
454.6329842164985
 31
0.0
  0
DIMENSION
  5
17D8
330
1A
100
AcDbEntity
  8
SUNPOU
 48
5.0
100
AcDbDimension
  2
*D67
 10
596.9633771312206
 20
459.8871255166677
 30
0.0
 11
591.9633771312204
 21
467.3858548665831
 31
0.0
 70
    32
  3
STANDARD
100
AcDbAlignedDimension
 13
575.9079173013417
 23
474.8845842164985
 33
0.0
 14
576.9791643513297
 24
459.8871255166677
 34
0.0
 50
90.0
100
AcDbRotatedDimension
1001
ACAD
1000
DSTYLE
1002
{
1070
   287
1070
     5
1070
    41
1040
7.0
1070
    42
1040
6.0
1070
    43
1040
14.0
1070
    44
1040
3.0
1070
    73
1070
     0
1070
    74
1070
     0
1070
    77
1070
     3
1070
   140
1040
6.0
1070
   141
1040
150.0
1070
   147
1040
2.0
1070
   172
1070
     1
1070
   173
1070
     1
1070
   176
1070
   256
1070
   177
1070
   256
1070
   178
1070
   256
1070
   271
1070
     0
1070
   272
1070
     0
1070
   279
1070
     2
1070
   341
1005
6D
1070
     6
1000
OPEN
1070
     7
1000
OPEN
1070
   371
1070
    -1
1070
   372
1070
    -1
1002
}
  0
DIMENSION
  5
17D9
330
1A
100
AcDbEntity
  8
SUNPOU
 48
5.0
100
AcDbDimension
  2
*D66
 10
633.4537066796785
 20
458.6704172650609
 30
0.0
 11
628.4537066796785
 21
465.0971939603576
 31
0.0
 70
    32
  3
STANDARD
100
AcDbAlignedDimension
 13
651.9871975844107
 23
471.5239706556541
 33
0.0
 14
651.8407509750041
 24
458.6704172650609
 34
0.0
 50
90.0
100
AcDbRotatedDimension
1001
ACAD
1000
DSTYLE
1002
{
1070
   287
1070
     5
1070
    41
1040
7.0
1070
    42
1040
6.0
1070
    43
1040
14.0
1070
    44
1040
3.0
1070
    73
1070
     0
1070
    74
1070
     0
1070
    77
1070
     3
1070
   140
1040
6.0
1070
   141
1040
150.0
1070
   147
1040
2.0
1070
   172
1070
     1
1070
   173
1070
     1
1070
   176
1070
   256
1070
   177
1070
   256
1070
   178
1070
   256
1070
   271
1070
     0
1070
   272
1070
     0
1070
   279
1070
     2
1070
   341
1005
6D
1070
     6
1000
OPEN
1070
     7
1000
OPEN
1070
   371
1070
    -1
1070
   372
1070
    -1
1002
}
  0
DIMENSION
  5
17DA
330
1A
100
AcDbEntity
  8
SUNPOU
100
AcDbDimension
  2
*D64
 10
577.9079173013417
 20
490.5300618212772
 30
0.0
 11
551.4078673013417
 21
495.5300618212772
 31
0.0
 70
    32
  3
STANDARD
100
AcDbAlignedDimension
 13
524.9078173013417
 23
475.8844842164985
 33
0.0
 14
577.9079173013417
 24
475.8845842164985
 34
0.0
100
AcDbRotatedDimension
1001
ACAD
1000
DSTYLE
1002
{
1070
   287
1070
     5
1070
    41
1040
7.0
1070
    42
1040
6.0
1070
    43
1040
14.0
1070
    44
1040
3.0
1070
    73
1070
     0
1070
    74
1070
     0
1070
    77
1070
     3
1070
   140
1040
6.0
1070
   141
1040
150.0
1070
   147
1040
2.0
1070
   172
1070
     1
1070
   173
1070
     1
1070
   176
1070
   256
1070
   177
1070
   256
1070
   178
1070
   256
1070
   271
1070
     0
1070
   272
1070
     0
1070
   279
1070
     2
1070
   341
1005
6D
1070
     6
1000
OPEN
1070
     7
1000
OPEN
1070
   371
1070
    -1
1070
   372
1070
    -1
1002
}
  0
DIMENSION
  5
17DB
330
1A
100
AcDbEntity
  8
SUNPOU
100
AcDbDimension
  2
*D63
 10
502.6795289256652
 20
459.8844842164985
 30
0.0
 11
497.6795289256651
 21
468.3844842164986
 31
0.0
 70
    32
  3
STANDARD
100
AcDbAlignedDimension
 13
525.9078173013417
 23
476.8844842164985
 33
0.0
 14
525.9078173013417
 24
459.8844842164985
 34
0.0
 50
90.0
100
AcDbRotatedDimension
1001
ACAD
1000
DSTYLE
1002
{
1070
   287
1070
     5
1070
    41
1040
7.0
1070
    42
1040
6.0
1070
    43
1040
14.0
1070
    44
1040
3.0
1070
    73
1070
     0
1070
    74
1070
     0
1070
    77
1070
     3
1070
   140
1040
6.0
1070
   141
1040
150.0
1070
   147
1040
2.0
1070
   172
1070
     1
1070
   173
1070
     1
1070
   176
1070
   256
1070
   177
1070
   256
1070
   178
1070
   256
1070
   271
1070
     0
1070
   272
1070
     0
1070
   279
1070
     2
1070
   341
1005
6D
1070
     6
1000
OPEN
1070
     7
1000
OPEN
1070
   371
1070
    -1
1070
   372
1070
    -1
1002
}
  0
LINE
  5
17DC
330
1A
100
AcDbEntity
  8
SEIHIN
  6
CONTINUOUS
 62
     3
 48
5.0
100
AcDbLine
 10
577.9079173013417
 20
427.1895070934451
 30
0.0
 11
577.9079173013417
 21
435.1895051326819
 31
0.0
  0
LINE
  5
17DD
330
1A
100
AcDbEntity
  8
CENTER_L
  6
CENTER
 62
     1
 48
5.0
100
AcDbLine
 10
551.4078173013417
 20
443.1894551325974
 30
0.0
 11
551.4078173013417
 21
420.1894551325532
 31
0.0
  0
LINE
  5
17DE
330
1A
100
AcDbEntity
  8
SEIHIN
  6
CONTINUOUS
 62
     3
 48
5.0
100
AcDbLine
 10
524.9078173013417
 20
427.1894031718842
 30
0.0
 11
524.9078173013417
 21
435.189405132682
 31
0.0
  0
LINE
  5
17DF
330
1A
100
AcDbEntity
  8
SEIHIN
100
AcDbLine
 10
524.9078173013417
 20
427.1894031718842
 30
0.0
 11
577.9079173013417
 21
427.1895070934451
 31
0.0
  0
LINE
  5
17E0
330
1A
100
AcDbEntity
  8
SEIHIN
  6
CONTINUOUS
 62
     3
 48
5.0
100
AcDbLine
 10
577.9079173013417
 20
430.189505132682
 30
0.0
 11
524.9078173013417
 21
430.189505132682
 31
0.0
  0
LINE
  5
17E1
330
1A
100
AcDbEntity
  8
SEIHIN
  6
CONTINUOUS
 62
     3
 48
5.0
100
AcDbLine
 10
577.9079173013417
 20
427.689505132682
 30
0.0
 11
524.9078173013417
 21
427.689505132682
 31
0.0
  0
LINE
  5
17E2
330
1A
100
AcDbEntity
  8
SEIHIN
  6
CONTINUOUS
 62
     3
 48
5.0
100
AcDbLine
 10
575.9079173013417
 20
474.8845842164985
 30
0.0
 11
551.4079173013417
 21
474.8845842164985
 31
0.0
  0
LINE
  5
17E3
330
1A
100
AcDbEntity
  8
SEIHIN
  6
CONTINUOUS
 62
     3
 48
5.0
100
AcDbLine
 10
551.4079173013417
 20
459.8845842164985
 30
0.0
 11
576.9079173013417
 21
459.8845842164985
 31
0.0
  0
LINE
  5
17E4
330
1A
100
AcDbEntity
  8
SEIHIN
  6
CONTINUOUS
 62
     3
 48
5.0
100
AcDbLine
 10
575.9079173013417
 20
434.189505132682
 30
0.0
 11
526.9078173013418
 21
434.189505132682
 31
0.0
  0
LINE
  5
17E5
330
1A
100
AcDbEntity
  8
SEIHIN
  6
CONTINUOUS
 62
     3
 48
5.0
100
AcDbLine
 10
577.9079173013417
 20
432.189505132682
 30
0.0
 11
524.9078173013417
 21
432.189505132682
 31
0.0
  0
LINE
  5
17E6
330
1A
100
AcDbEntity
  8
SEIHIN
  6
CONTINUOUS
 62
     3
 48
5.0
100
AcDbLine
 10
526.9078173013418
 20
434.189505132682
 30
0.0
 11
526.9078173013418
 21
435.189405132682
 31
0.0
  0
ARC
  5
17E7
330
1A
100
AcDbEntity
  8
SEIHIN
  6
CONTINUOUS
 62
     3
 48
5.0
100
AcDbCircle
 10
525.9078173013417
 20
435.189405132682
 30
0.0
 40
1.0
100
AcDbArc
 50
0.0
 51
180.0
  0
LINE
  5
17E8
330
1A
100
AcDbEntity
  8
SEIHIN
  6
CONTINUOUS
 62
     3
 48
5.0
100
AcDbLine
 10
551.4078173013417
 20
459.8844842164985
 30
0.0
 11
525.9078173013417
 21
459.8844842164985
 31
0.0
  0
LINE
  5
17E9
330
1A
100
AcDbEntity
  8
SEIHIN
  6
CONTINUOUS
 62
     3
 48
5.0
100
AcDbLine
 10
526.9078173013418
 20
474.8844842164985
 30
0.0
 11
551.4078173013417
 21
474.8845842164985
 31
0.0
  0
LINE
  5
17EA
330
1A
100
AcDbEntity
  8
SEIHIN
  6
CONTINUOUS
 62
     3
 48
5.0
100
AcDbLine
 10
526.9078173013418
 20
460.8844842164985
 30
0.0
 11
526.9078173013418
 21
475.8844842164985
 31
0.0
  0
LINE
  5
17EB
330
1A
100
AcDbEntity
  8
SEIHIN
  6
CONTINUOUS
 62
     3
 48
5.0
100
AcDbLine
 10
524.9078173013417
 20
460.8844842164985
 30
0.0
 11
524.9078173013417
 21
475.8844842164985
 31
0.0
  0
ARC
  5
17EC
330
1A
100
AcDbEntity
  8
SEIHIN
  6
CONTINUOUS
 62
     3
 48
5.0
100
AcDbCircle
 10
525.9078173013417
 20
460.8844842164985
 30
0.0
 40
1.0
100
AcDbArc
 50
180.0
 51
0.0
  0
ARC
  5
17ED
330
1A
100
AcDbEntity
  8
SEIHIN
  6
CONTINUOUS
 62
     3
 48
5.0
100
AcDbCircle
 10
525.9078173013417
 20
475.8844842164985
 30
0.0
 40
1.0
100
AcDbArc
 50
0.0
 51
180.0
  0
ARC
  5
17EE
330
1A
100
AcDbEntity
  8
SEIHIN
  6
CONTINUOUS
 62
     3
 48
5.0
100
AcDbCircle
 10
576.9079173013417
 20
435.1895051326819
 30
0.0
 40
1.0
100
AcDbArc
 50
0.0
 51
180.0
  0
LINE
  5
17EF
330
1A
100
AcDbEntity
  8
SEIHIN
  6
CONTINUOUS
 62
     3
 48
5.0
100
AcDbLine
 10
575.9079173013419
 20
434.189505132682
 30
0.0
 11
575.9079173013417
 21
435.1895051326819
 31
0.0
  0
LINE
  5
17F0
330
1A
100
AcDbEntity
  8
SEIHIN
  6
CONTINUOUS
 62
     3
 48
5.0
100
AcDbLine
 10
577.9079173013417
 20
460.8845842164985
 30
0.0
 11
577.9079173013417
 21
475.8845842164985
 31
0.0
  0
LINE
  5
17F1
330
1A
100
AcDbEntity
  8
SEIHIN
  6
CONTINUOUS
 62
     3
 48
5.0
100
AcDbLine
 10
575.9079173013417
 20
460.8845842164985
 30
0.0
 11
575.9079173013417
 21
475.8845842164985
 31
0.0
  0
ARC
  5
17F2
330
1A
100
AcDbEntity
  8
SEIHIN
  6
CONTINUOUS
 62
     3
 48
5.0
100
AcDbCircle
 10
576.9079173013417
 20
460.8845842164985
 30
0.0
 40
1.0
100
AcDbArc
 50
180.0
 51
0.0
  0
ARC
  5
17F3
330
1A
100
AcDbEntity
  8
SEIHIN
  6
CONTINUOUS
 62
     3
 48
5.0
100
AcDbCircle
 10
576.9079173013417
 20
475.8845842164985
 30
0.0
 40
1.0
100
AcDbArc
 50
0.0
 51
180.0
  0
LINE
  5
17F4
330
1A
100
AcDbEntity
  8
SEIHIN
  6
HIDDEN
 62
     6
 48
5.0
100
AcDbLine
 10
649.840750975004
 20
460.1704172650609
 30
0.0
 11
649.840750975004
 21
473.1704172650609
 31
0.0
  0
LINE
  5
17F5
330
1A
100
AcDbEntity
  8
SEIHIN
  6
CONTINUOUS
 62
     3
 48
5.0
100
AcDbLine
 10
651.8407509750041
 20
471.1704172650609
 30
0.0
 11
651.8407509750041
 21
458.6704172650609
 31
0.0
  0
LINE
  5
17F6
330
1A
100
AcDbEntity
  8
SEIHIN
  6
CONTINUOUS
 62
     3
 48
5.0
100
AcDbLine
 10
647.8407509750041
 20
475.1704172650609
 30
0.0
 11
647.8407509750041
 21
460.6704172650609
 31
0.0
  0
LINE
  5
17F7
330
1A
100
AcDbEntity
  8
SEIHIN
  6
CONTINUOUS
 62
     3
 48
5.0
100
AcDbLine
 10
649.840750975004
 20
458.6704172650609
 30
0.0
 11
651.8407509750041
 21
458.6704172650609
 31
0.0
  0
ARC
  5
17F8
330
1A
100
AcDbEntity
  8
SEIHIN
  6
CONTINUOUS
 62
     3
 48
5.0
100
AcDbCircle
 10
649.840750975004
 20
460.6704172650609
 30
0.0
 40
2.0
100
AcDbArc
 50
180.0
 51
270.0
  0
ARC
  5
17F9
330
1A
100
AcDbEntity
  8
SEIHIN
  6
HIDDEN
 62
     6
 48
5.0
100
AcDbCircle
 10
651.3407509750041
 20
460.1704172650609
 30
0.0
 40
1.5
100
AcDbArc
 50
180.0
 51
270.0
  0
ARC
  5
17FA
330
1A
100
AcDbEntity
  8
SEIHIN
  6
CONTINUOUS
 62
     3
 48
5.0
100
AcDbCircle
 10
652.3407509750041
 20
471.1704172650609
 30
0.0
 40
0.5
100
AcDbArc
 50
90.0
 51
180.0
  0
ARC
  5
17FB
330
1A
100
AcDbEntity
  8
SEIHIN
  6
HIDDEN
 62
     6
 48
5.0
100
AcDbCircle
 10
650.340750975004
 20
473.1704172650609
 30
0.0
 40
0.5
100
AcDbArc
 50
90.0
 51
180.0
  0
ARC
  5
17FC
330
1A
100
AcDbEntity
  8
SEIHIN
  6
CONTINUOUS
 62
     3
 48
5.0
100
AcDbCircle
 10
648.340750975004
 20
475.1704172650609
 30
0.0
 40
0.5
100
AcDbArc
 50
90.0
 51
180.0
  0
DIMENSION
  5
17FD
330
1A
100
AcDbEntity
  8
SUNPOU
 48
5.0
100
AcDbDimension
  2
*D62
 10
676.4413853751318
 20
466.6704172650609
 30
0.0
 11
683.231901655774
 21
470.3259007078294
 31
0.0
 70
   160
  1
差込み寸法<>
  3
STANDARD
100
AcDbAlignedDimension
 13
653.0698509750041
 23
471.6704172650609
 33
0.0
 14
656.3407509750041
 24
466.6704172650609
 34
0.0
 50
90.0
100
AcDbRotatedDimension
1001
ACAD
1000
DSTYLE
1002
{
1070
   287
1070
     5
1070
    41
1040
7.0
1070
    42
1040
6.0
1070
    43
1040
14.0
1070
    44
1040
3.0
1070
    73
1070
     0
1070
    74
1070
     0
1070
    77
1070
     3
1070
   140
1040
6.0
1070
   141
1040
150.0
1070
   147
1040
2.0
1070
   172
1070
     1
1070
   173
1070
     1
1070
   176
1070
   256
1070
   177
1070
   256
1070
   178
1070
   256
1070
   271
1070
     0
1070
   272
1070
     0
1070
   279
1070
     2
1070
   341
1005
6D
1070
     6
1000
OPEN
1070
     7
1000
OPEN
1070
   371
1070
    -1
1070
   372
1070
    -1
1002
}
  0
ARC
  5
17FE
330
1A
100
AcDbEntity
  8
SEIHIN
  6
CONTINUOUS
 62
     3
 48
5.0
100
AcDbCircle
 10
654.7825509750041
 20
467.6704172650609
 30
0.0
 40
0.9999979999999998
100
AcDbArc
 50
183.4340880000001
 51
270.0
  0
LINE
  5
17FF
330
1A
100
AcDbEntity
  8
SEIHIN
  6
CONTINUOUS
 62
     3
 48
5.0
100
AcDbLine
 10
656.3407509750041
 20
466.6704172650609
 30
0.0
 11
656.3407509750041
 21
468.1704172650609
 31
0.0
  0
LINE
  5
1800
330
1A
100
AcDbEntity
  8
SEIHIN
  6
CONTINUOUS
 62
     3
 48
5.0
100
AcDbLine
 10
654.7825509750041
 20
466.6704172650609
 30
0.0
 11
656.3407509750041
 21
466.6704172650609
 31
0.0
  0
ARC
  5
1801
330
1A
100
AcDbEntity
  8
SEIHIN
  6
CONTINUOUS
 62
     3
 48
5.0
100
AcDbCircle
 10
653.0698509750041
 20
471.1704172650609
 30
0.0
 40
0.4999970000000001
100
AcDbArc
 50
3.428369000000671
 51
90.0
  0
ARC
  5
1802
330
1A
100
AcDbEntity
  8
SEIHIN
  6
CONTINUOUS
 62
     3
 48
5.0
100
AcDbCircle
 10
656.7696509750041
 20
475.1704172650609
 30
0.0
 40
0.499994
100
AcDbArc
 50
352.4030849999999
 51
90.0
  0
LINE
  5
1803
330
1A
100
AcDbEntity
  8
SEIHIN
  6
CONTINUOUS
 62
     3
 48
5.0
100
AcDbLine
 10
653.568950975004
 20
471.2003172650609
 30
0.0
 11
653.7843509750041
 21
467.6105172650609
 31
0.0
  0
LINE
  5
1804
330
1A
100
AcDbEntity
  8
SEIHIN
  6
CONTINUOUS
 62
     3
 48
5.0
100
AcDbLine
 10
656.3407509750041
 20
468.1704172650609
 30
0.0
 11
657.2652509750041
 21
475.1043172650609
 31
0.0
  0
TEXT
  5
18B0
330
1A
100
AcDbEntity
  8
SUNPOU
  6
CONTINUOUS
 62
     4
100
AcDbText
 10
669.2567169962687
 20
37.17803154470846
 30
0.0
 40
6.0
  1
※b　角々エルボの差込み寸法を示す
100
AcDbText
  0
TEXT
  5
18B1
330
1A
100
AcDbEntity
  8
SUNPOU
  6
CONTINUOUS
 62
     4
100
AcDbText
 10
669.2567169962687
 20
47.18128289961794
 30
0.0
 40
6.0
  1
※a　のきといの差込み寸法を示す
100
AcDbText
  0
LWPOLYLINE
  5
19EF
330
1A
100
AcDbEntity
  8
ZUWAKU
100
AcDbPolyline
 90
        4
 70
     1
 43
0.0
 10
0.8000008633773632
 20
550.8000001505767
 10
0.8000008633773632
 20
0.8000001505766931
 10
796.8000008633773
 20
0.8000001505766931
 10
796.8000008633773
 20
550.8000001505767
  0
LWPOLYLINE
  5
19F0
330
1A
100
AcDbEntity
  8
ZUWAKU
100
AcDbPolyline
 90
        4
 70
     1
 43
0.0
 10
0.400000863377386
 20
551.2000001505766
 10
0.400000863377386
 20
0.4000001505767159
 10
797.2000008633775
 20
0.4000001505766928
 10
797.2000008633775
 20
551.2000001505766
  0
LWPOLYLINE
  5
19F1
330
1A
100
AcDbEntity
  8
ZUWAKU
100
AcDbPolyline
 90
        4
 70
     1
 43
0.0
 10
0.0000008633774087
 20
551.6000001505766
 10
0.0000008633774087
 20
0.0000001505766249
 10
797.6000008633775
 20
0.0000001505766924
 10
797.6000008633775
 20
551.6000001505767
  0
LWPOLYLINE
  5
19F2
330
1A
100
AcDbEntity
  8
ZUWAKU
100
AcDbPolyline
 90
        4
 70
     1
 43
0.0
 10
0.6000008633773178
 20
551.0000001505767
 10
0.6000008633773178
 20
0.6000001505766477
 10
797.0000008633776
 20
0.6000001505766939
 10
797.0000008633774
 20
551.0000001505767
  0
LWPOLYLINE
  5
19F3
330
1A
100
AcDbEntity
  8
ZUWAKU
100
AcDbPolyline
 90
        4
 70
     1
 43
0.0
 10
0.2000008633773405
 20
551.4000001505767
 10
0.2000008633773405
 20
0.2000001505766704
 10
797.4000008633773
 20
0.2000001505766935
 10
797.4000008633774
 20
551.4000001505767
  0
LINE
  5
19F4
330
1A
100
AcDbEntity
  8
ZUWAKU
100
AcDbLine
 10
0.0000008633774087
 20
30.00000015057662
 30
0.0
 11
797.4000008633773
 21
30.00000015057662
 31
0.0
  0
LINE
  5
19F5
330
1A
100
AcDbEntity
  8
ZUWAKU
100
AcDbLine
 10
0.0000008633774087
 20
30.20000015057663
 30
0.0
 11
797.4000008633773
 21
30.20000015057663
 31
0.0
  0
LINE
  5
19F6
330
1A
100
AcDbEntity
  8
ZUWAKU
100
AcDbLine
 10
0.0000008633774087
 20
30.40000015057663
 30
0.0
 11
797.4000008633773
 21
30.40000015057663
 31
0.0
  0
LINE
  5
19F7
330
1A
100
AcDbEntity
  8
ZUWAKU
100
AcDbLine
 10
0.0000008633774087
 20
30.60000015057663
 30
0.0
 11
797.4000008633773
 21
30.60000015057663
 31
0.0
  0
LINE
  5
19F8
330
1A
100
AcDbEntity
  8
ZUWAKU
100
AcDbLine
 10
0.0000008633774087
 20
30.80000015057663
 30
0.0
 11
797.4000008633773
 21
30.80000015057663
 31
0.0
  0
LINE
  5
19F9
330
1A
100
AcDbEntity
  8
ZUWAKU
100
AcDbLine
 10
208.6466021534454
 20
15.40000015057666
 30
0.0
 11
447.4243648343688
 21
15.40000015057666
 31
0.0
  0
LINE
  5
19FA
330
1A
100
AcDbEntity
  8
ZUWAKU
100
AcDbLine
 10
208.6466021534454
 20
15.60000015057665
 30
0.0
 11
447.4243648343688
 21
15.60000015057666
 31
0.0
  0
LINE
  5
19FB
330
1A
100
AcDbEntity
  8
ZUWAKU
100
AcDbLine
 10
208.6466021534454
 20
15.20000015057666
 30
0.0
 11
447.4243648343688
 21
15.20000015057665
 31
0.0
  0
TEXT
  5
19FC
330
1A
100
AcDbEntity
  8
MOJI
100
AcDbText
 10
92.95779045154654
 20
12.74117828085138
 30
0.0
 40
6.0
  1
アートフェイスＨ１６０
 41
0.9
  7
ｽﾀｲﾙ1
100
AcDbText
  0
CIRCLE
  5
19FD
330
1A
100
AcDbEntity
  8
ZUWAKU
100
AcDbCircle
 10
25.9922130181585
 20
15.20000015057662
 30
0.0
 40
1.75
  0
LINE
  5
19FE
330
1A
100
AcDbEntity
  8
ZUWAKU
100
AcDbLine
 10
26.8672130181585
 20
7.15000015057663
 30
0.0
 11
24.94221301815855
 21
7.15000015057663
 31
0.0
  0
LINE
  5
19FF
330
1A
100
AcDbEntity
  8
ZUWAKU
100
AcDbLine
 10
24.94221301815855
 20
9.950000150576627
 30
0.0
 11
26.8672130181585
 21
9.950000150576627
 31
0.0
  0
LINE
  5
1A00
330
1A
100
AcDbEntity
  8
ZUWAKU
100
AcDbLine
 10
26.8672130181585
 20
20.45000015057663
 30
0.0
 11
24.94221301815855
 21
20.45000015057663
 31
0.0
  0
LINE
  5
1A01
330
1A
100
AcDbEntity
  8
ZUWAKU
100
AcDbLine
 10
24.94221301815855
 20
23.25000015057658
 30
0.0
 11
26.8672130181585
 21
23.25000015057663
 31
0.0
  0
HATCH
  5
1A02
330
1A
100
AcDbEntity
  8
ZUWAKU
100
AcDbHatch
 10
0.0
 20
0.0
 30
0.0
210
0.0
220
0.0
230
1.0
  2
ANSI37
 70
     0
 71
     0
 91
        8
 92
        7
 72
     1
 73
     1
 93
       24
 10
14.50226352449726
 20
17.6448486315602
 42
-0.1989123673796348
 10
14.09221301815853
 20
18.63479812522125
 42
0.0
 10
14.09221301815853
 20
19.92500015057663
 42
-0.4142135623730912
 10
14.61721301815851
 20
20.45000015057663
 42
0.0
 10
17.59221301815841
 20
20.45000015057663
 42
0.4142135623731546
 10
18.1172130181585
 20
20.97500015057661
 42
0.0
 10
18.1172130181585
 20
22.72500015057663
 42
0.4142135623731586
 10
17.59221301815841
 20
23.25000015057663
 42
0.0
 10
14.09221301815853
 20
23.25000015057663
 42
0.4142135623730928
 10
11.29221301815857
 20
20.45000015057665
 42
0.0
 10
11.29221301815857
 20
18.63479812522138
 42
0.1989123673796619
 10
12.522364537175
 20
15.66494964423777
 42
0.0
 10
15.43216251181968
 20
12.75515166959312
 42
-0.1989123673796613
 10
15.84221301815853
 20
11.76520217593193
 42
0.0
 10
15.84221301815853
 20
10.47500015057661
 42
-0.4142135623730911
 10
15.31721301815855
 20
9.950000150576627
 42
0.0
 10
12.34221301815864
 20
9.950000150576627
 42
0.4142135623731526
 10
11.81721301815855
 20
9.425000150576639
 42
0.0
 10
11.81721301815855
 20
7.675000150576618
 42
0.4142135623731526
 10
12.34221301815864
 20
7.15000015057663
 42
0.0
 10
15.84221301815853
 20
7.15000015057663
 42
0.4142135623731044
 10
18.64221301815859
 20
9.950000150576606
 42
0.0
 10
18.64221301815859
 20
11.76520217593187
 42
0.1989123673796604
 10
17.41206149914205
 20
14.73505065691542
 42
0.0
 97
        0
 92
        7
 72
     1
 73
     1
 93
       16
 10
23.54221301815857
 20
19.05000015057663
 42
-0.4142135623730935
 10
24.94221301815855
 20
20.45000015057663
 42
0.0
 10
26.8672130181585
 20
20.45000015057663
 42
0.4142135623731546
 10
27.39221301815859
 20
20.97500015057661
 42
0.0
 10
27.39221301815859
 20
22.72500015057663
 42
0.4142135623730951
 10
26.86721301815862
 20
23.25000015057663
 42
0.0
 10
24.94221301815844
 20
23.25000015057658
 42
0.4142135623730892
 10
20.74221301815851
 20
19.05000015057656
 42
0.0
 10
20.74221301815851
 20
11.35000015057665
 42
0.4142135623730969
 10
24.94221301815855
 20
7.15000015057663
 42
0.0
 10
26.8672130181585
 20
7.15000015057663
 42
0.4142135623731526
 10
27.39221301815859
 20
7.675000150576618
 42
0.0
 10
27.39221301815859
 20
9.425000150576639
 42
0.4142135623730891
 10
26.86721301815862
 20
9.950000150576627
 42
0.0
 10
24.94221301815855
 20
9.950000150576627
 42
-0.4142135623730928
 10
23.54221301815857
 20
11.35000015057661
 42
0.0
 97
        0
 92
        7
 72
     1
 73
     1
 93
        2
 10
24.24221301815851
 20
15.20000015057662
 42
1.0
 10
27.74221301815851
 20
15.20000015057662
 42
1.0
 97
        0
 92
        7
 72
     1
 73
     1
 93
       26
 10
37.31485950033652
 20
19.20504734414005
 42
0.0
 10
38.37649913347433
 20
22.56690618240964
 42
0.5069206636600134
 10
37.87586823427898
 20
23.25000015057663
 42
0.0
 10
36.17697885466975
 20
23.25000015057663
 42
0.3272098845218764
 10
35.67634795547439
 20
22.88309411874359
 42
0.0
 10
33.80807808084262
 20
16.9669061824097
 42
-0.3272098845219541
 10
33.30744718164714
 20
16.60000015057662
 42
0.0
 10
33.16721301815869
 20
16.60000015057662
 42
-0.4142135623731526
 10
32.6422130181586
 20
17.12500015057661
 42
0.0
 10
32.6422130181586
 20
22.72500015057663
 42
0.4142135623730951
 10
32.11721301815862
 20
23.25000015057663
 42
0.0
 10
30.3672130181585
 20
23.25000015057663
 42
0.4142135623730871
 10
29.84221301815853
 20
22.72500015057664
 42
0.0
 10
29.84221301815853
 20
7.675000150576618
 42
0.4142135623730891
 10
30.3672130181585
 20
7.15000015057663
 42
0.0
 10
32.11721301815851
 20
7.15000015057663
 42
0.4142135623731526
 10
32.6422130181586
 20
7.675000150576618
 42
0.0
 10
32.6422130181586
 20
13.27500015057664
 42
-0.4142135623731526
 10
33.16721301815869
 20
13.80000015057663
 42
0.0
 10
33.30744718164726
 20
13.80000015057663
 42
-0.3272098845218915
 10
33.80807808084262
 20
13.43309411874355
 42
0.0
 10
35.67634795547439
 20
7.516906182409702
 42
0.3272098845218902
 10
36.17697885466975
 20
7.15000015057663
 42
0.0
 10
37.87586823427898
 20
7.15000015057663
 42
0.5069206636600335
 10
38.37649913347433
 20
7.833094118743638
 42
0.0
 10
36.05010775500068
 20
15.20000015057676
 42
0.0
 97
        0
 92
        7
 72
     1
 73
     1
 93
        8
 10
43.49221301815851
 20
22.72500015057663
 42
0.4142135623731546
 10
42.96721301815842
 20
23.25000015057663
 42
0.0
 10
41.21721301815864
 20
23.25000015057663
 42
0.4142135623731507
 10
40.69221301815855
 20
22.72500015057664
 42
0.0
 10
40.69221301815855
 20
7.675000150576618
 42
0.4142135623731526
 10
41.21721301815864
 20
7.15000015057663
 42
0.0
 10
42.96721301815842
 20
7.15000015057663
 42
0.4142135623731526
 10
43.49221301815851
 20
7.675000150576618
 42
0.0
 97
        0
 92
        7
 72
     1
 73
     1
 93
       24
 10
48.3922130181586
 20
19.92500015057663
 42
-0.4142135623731546
 10
48.91721301815869
 20
20.45000015057663
 42
0.0
 10
51.8922130181586
 20
20.45000015057663
 42
0.4142135623730911
 10
52.41721301815857
 20
20.97500015057661
 42
0.0
 10
52.41721301815857
 20
22.72500015057663
 42
0.4142135623730952
 10
51.8922130181586
 20
23.25000015057663
 42
0.0
 10
48.3922130181586
 20
23.25000015057663
 42
0.4142135623731048
 10
45.59221301815853
 20
20.45000015057665
 42
0.0
 10
45.59221301815853
 20
18.63479812522138
 42
0.1989123673796613
 10
46.82236453717507
 20
15.66494964423783
 42
0.0
 10
49.73216251181975
 20
12.75515166959316
 42
-0.1989123673796402
 10
50.1422130181586
 20
11.76520217593209
 42
0.0
 10
50.1422130181586
 20
10.47500015057661
 42
-0.4142135623730911
 10
49.61721301815862
 20
9.950000150576627
 42
0.0
 10
46.64221301815859
 20
9.950000150576627
 42
0.4142135623731526
 10
46.1172130181585
 20
9.425000150576639
 42
0.0
 10
46.1172130181585
 20
7.675000150576618
 42
0.4142135623730891
 10
46.64221301815849
 20
7.15000015057663
 42
0.0
 10
50.1422130181586
 20
7.15000015057663
 42
0.4142135623730925
 10
52.94221301815856
 20
9.950000150576606
 42
0.0
 10
52.94221301815856
 20
11.76520217593187
 42
0.1989123673796675
 10
51.71206149914201
 20
14.73505065691553
 42
0.0
 10
48.80226352449745
 20
17.64484863156004
 42
-0.1989123673796652
 10
48.3922130181586
 20
18.63479812522121
 42
0.0
 97
        0
 92
        7
 72
     1
 73
     1
 93
       16
 10
57.84221301815853
 20
22.72500015057662
 42
0.414213562373103
 10
57.31721301815856
 20
23.25000015057663
 42
0.0
 10
55.56721301815855
 20
23.25000015057663
 42
0.4142135623730871
 10
55.04221301815857
 20
22.72500015057664
 42
0.0
 10
55.04221301815857
 20
9.950000150576606
 42
0.4142135623730926
 10
57.84221301815853
 20
7.15000015057663
 42
0.0
 10
61.34221301815853
 20
7.15000015057663
 42
0.4142135623731044
 10
64.1422130181586
 20
9.950000150576606
 42
0.0
 10
64.1422130181586
 20
22.72500015057663
 42
0.4142135623730951
 10
63.61721301815862
 20
23.25000015057663
 42
0.0
 10
61.8672130181585
 20
23.25000015057663
 42
0.4142135623730871
 10
61.34221301815853
 20
22.72500015057664
 42
0.0
 10
61.34221301815853
 20
11.0000001505766
 42
-0.414213562373088
 10
60.29221301815858
 20
9.950000150576627
 42
0.0
 10
58.8922130181586
 20
9.950000150576627
 42
-0.4142135623731197
 10
57.84221301815853
 20
11.0000001505766
 42
0.0
 97
        0
 92
        7
 72
     1
 73
     1
 93
        8
 10
69.04221301815858
 20
22.72500015057664
 42
0.4142135623730871
 10
68.5172130181586
 20
23.25000015057663
 42
0.0
 10
66.76721301815859
 20
23.25000015057663
 42
0.4142135623731507
 10
66.2422130181585
 20
22.72500015057664
 42
0.0
 10
66.2422130181585
 20
7.675000150576618
 42
0.4142135623730891
 10
66.76721301815849
 20
7.15000015057663
 42
0.0
 10
68.5172130181586
 20
7.15000015057663
 42
0.4142135623730891
 10
69.04221301815858
 20
7.675000150576618
 42
0.0
 97
        0
 75
     0
 76
     1
 52
0.0
 41
0.2
 77
     0
 78
     2
 53
45.0
 43
-900.9423034713016
 44
-13.1999998494233
 45
-0.4490128060534576
 46
0.4490128060534577
 79
     0
 53
135.0
 43
-900.9423034713016
 44
-13.1999998494233
 45
-0.4490128060534577
 46
-0.4490128060534576
 79
     0
 47
0.057451373970553
 98
        8
 10
16.07985582640071
 20
15.16717379646218
 10
22.40451586981657
 20
18.84406233302763
 10
25.16436874903706
 20
15.51188179664734
 10
30.91406084501454
 20
16.20129779701812
 10
41.83847288233415
 20
16.66091006455974
 10
46.89820175850695
 20
19.41857646698383
 10
56.55768683577775
 20
18.72915806567164
 10
67.82708048300015
 20
19.18877033321325
  0
ARC
  5
1A03
330
1A
100
AcDbEntity
  8
ZUWAKU
100
AcDbCircle
 10
15.4922130181585
 20
18.63479812522133
 30
0.0
 40
4.199999999999999
100
AcDbArc
 50
180.0
 51
225.0
  0
LINE
  5
1A04
330
1A
100
AcDbEntity
  8
ZUWAKU
100
AcDbLine
 10
20.74221301815851
 20
11.35000015057663
 30
0.0
 11
20.74221301815851
 21
19.05000015057658
 31
0.0
  0
LINE
  5
1A05
330
1A
100
AcDbEntity
  8
ZUWAKU
100
AcDbLine
 10
23.54221301815857
 20
19.05000015057662
 30
0.0
 11
23.54221301815857
 21
11.35000015057663
 31
0.0
  0
ARC
  5
1A06
330
1A
100
AcDbEntity
  8
ZUWAKU
100
AcDbCircle
 10
15.4922130181585
 20
18.63479812522133
 30
0.0
 40
1.399999999999999
100
AcDbArc
 50
180.0000000000016
 51
224.9999999999988
  0
ARC
  5
1A07
330
1A
100
AcDbEntity
  8
ZUWAKU
100
AcDbCircle
 10
24.94221301815855
 20
11.35000015057663
 30
0.0
 40
4.199999999999999
100
AcDbArc
 50
180.0
 51
270.0
  0
ARC
  5
1A08
330
1A
100
AcDbEntity
  8
ZUWAKU
100
AcDbCircle
 10
15.84221301815853
 20
9.950000150576627
 30
0.0
 40
2.799999999999999
100
AcDbArc
 50
270.0
 51
0.0
  0
ARC
  5
1A09
330
1A
100
AcDbEntity
  8
ZUWAKU
100
AcDbCircle
 10
14.44221301815855
 20
11.76520217593193
 30
0.0
 40
4.199999999999999
100
AcDbArc
 50
0.0
 51
45.0
  0
LINE
  5
1A0A
330
1A
100
AcDbEntity
  8
ZUWAKU
100
AcDbLine
 10
12.522364537175
 20
15.6649496442378
 30
0.0
 11
15.43216251181968
 21
12.75515166959314
 31
0.0
  0
LINE
  5
1A0B
330
1A
100
AcDbEntity
  8
ZUWAKU
100
AcDbLine
 10
12.34221301815853
 20
9.950000150576627
 30
0.0
 11
15.31721301815855
 21
9.950000150576627
 31
0.0
  0
LINE
  5
1A0C
330
1A
100
AcDbEntity
  8
ZUWAKU
100
AcDbLine
 10
12.34221301815853
 20
7.15000015057663
 30
0.0
 11
15.84221301815853
 21
7.15000015057663
 31
0.0
  0
ARC
  5
1A0D
330
1A
100
AcDbEntity
  8
ZUWAKU
100
AcDbCircle
 10
12.34221301815853
 20
9.425000150576629
 30
0.0
 40
0.525
100
AcDbArc
 50
90.0
 51
180.0
  0
ARC
  5
1A0E
330
1A
100
AcDbEntity
  8
ZUWAKU
100
AcDbCircle
 10
12.34221301815853
 20
7.675000150576629
 30
0.0
 40
0.525
100
AcDbArc
 50
180.0
 51
270.0
  0
LINE
  5
1A0F
330
1A
100
AcDbEntity
  8
ZUWAKU
100
AcDbLine
 10
11.81721301815855
 20
7.675000150576629
 30
0.0
 11
11.81721301815855
 21
9.425000150576629
 31
0.0
  0
ARC
  5
1A10
330
1A
100
AcDbEntity
  8
ZUWAKU
100
AcDbCircle
 10
14.44221301815855
 20
11.76520217593197
 30
0.0
 40
1.399999999999999
100
AcDbArc
 50
0.0
 51
45.0
  0
ARC
  5
1A11
330
1A
100
AcDbEntity
  8
ZUWAKU
100
AcDbCircle
 10
15.31721301815855
 20
10.47500015057663
 30
0.0
 40
0.525
100
AcDbArc
 50
270.0
 51
0.0
  0
LINE
  5
1A12
330
1A
100
AcDbEntity
  8
ZUWAKU
100
AcDbLine
 10
15.84221301815853
 20
10.47500015057663
 30
0.0
 11
15.84221301815853
 21
11.76520217593197
 31
0.0
  0
LINE
  5
1A13
330
1A
100
AcDbEntity
  8
ZUWAKU
100
AcDbLine
 10
17.41206149914205
 20
14.73505065691545
 30
0.0
 11
14.50226352449738
 21
17.64484863156013
 31
0.0
  0
ARC
  5
1A14
330
1A
100
AcDbEntity
  8
ZUWAKU
100
AcDbCircle
 10
24.94221301815855
 20
11.35000015057663
 30
0.0
 40
1.399999999999999
100
AcDbArc
 50
180.0
 51
270.0
  0
LINE
  5
1A15
330
1A
100
AcDbEntity
  8
ZUWAKU
100
AcDbLine
 10
18.64221301815859
 20
9.950000150576627
 30
0.0
 11
18.64221301815859
 21
11.76520217593197
 31
0.0
  0
ARC
  5
1A16
330
1A
100
AcDbEntity
  8
ZUWAKU
100
AcDbCircle
 10
17.59221301815853
 20
20.97500015057662
 30
0.0
 40
0.525
100
AcDbArc
 50
270.0
 51
0.0
  0
ARC
  5
1A17
330
1A
100
AcDbEntity
  8
ZUWAKU
100
AcDbCircle
 10
17.59221301815853
 20
22.72500015057662
 30
0.0
 40
0.525
100
AcDbArc
 50
0.0
 51
90.0
  0
ARC
  5
1A18
330
1A
100
AcDbEntity
  8
ZUWAKU
100
AcDbCircle
 10
14.09221301815853
 20
20.45000015057663
 30
0.0
 40
2.799999999999999
100
AcDbArc
 50
90.0
 51
180.0
  0
LINE
  5
1A19
330
1A
100
AcDbEntity
  8
ZUWAKU
100
AcDbLine
 10
11.29221301815857
 20
20.45000015057663
 30
0.0
 11
11.29221301815857
 21
18.63479812522128
 31
0.0
  0
LINE
  5
1A1A
330
1A
100
AcDbEntity
  8
ZUWAKU
100
AcDbLine
 10
17.59221301815853
 20
20.45000015057663
 30
0.0
 11
14.61721301815851
 21
20.45000015057663
 31
0.0
  0
LINE
  5
1A1B
330
1A
100
AcDbEntity
  8
ZUWAKU
100
AcDbLine
 10
14.09221301815853
 20
19.92500015057663
 30
0.0
 11
14.09221301815853
 21
18.63479812522128
 31
0.0
  0
ARC
  5
1A1C
330
1A
100
AcDbEntity
  8
ZUWAKU
100
AcDbCircle
 10
14.61721301815851
 20
19.92500015057663
 30
0.0
 40
0.525
100
AcDbArc
 50
90.0
 51
180.0
  0
LINE
  5
1A1D
330
1A
100
AcDbEntity
  8
ZUWAKU
100
AcDbLine
 10
14.09221301815853
 20
23.25000015057663
 30
0.0
 11
17.59221301815853
 21
23.25000015057663
 31
0.0
  0
ARC
  5
1A1E
330
1A
100
AcDbEntity
  8
ZUWAKU
100
AcDbCircle
 10
24.94221301815855
 20
19.05000015057658
 30
0.0
 40
4.199999999999999
100
AcDbArc
 50
90.0
 51
180.0
  0
ARC
  5
1A1F
330
1A
100
AcDbEntity
  8
ZUWAKU
100
AcDbCircle
 10
24.94221301815855
 20
19.05000015057662
 30
0.0
 40
1.399999999999999
100
AcDbArc
 50
90.0
 51
180.0
  0
LINE
  5
1A20
330
1A
100
AcDbEntity
  8
ZUWAKU
100
AcDbLine
 10
18.1172130181585
 20
22.72500015057662
 30
0.0
 11
18.1172130181585
 21
20.97500015057662
 31
0.0
  0
LINE
  5
1A21
330
1A
100
AcDbEntity
  8
ZUWAKU
100
AcDbLine
 10
35.67634795547439
 20
22.88309411874359
 30
0.0
 11
33.80807808084262
 21
16.96690618240966
 31
0.0
  0
LINE
  5
1A22
330
1A
100
AcDbEntity
  8
ZUWAKU
100
AcDbLine
 10
29.84221301815853
 20
22.72500015057662
 30
0.0
 11
29.84221301815853
 21
7.675000150576629
 31
0.0
  0
LINE
  5
1A23
330
1A
100
AcDbEntity
  8
ZUWAKU
100
AcDbLine
 10
32.6422130181586
 20
17.12500015057663
 30
0.0
 11
32.6422130181586
 21
22.72500015057662
 31
0.0
  0
LINE
  5
1A24
330
1A
100
AcDbEntity
  8
ZUWAKU
100
AcDbLine
 10
57.84221301815853
 20
11.00000015057662
 30
0.0
 11
57.84221301815853
 21
22.72500015057662
 31
0.0
  0
LINE
  5
1A25
330
1A
100
AcDbEntity
  8
ZUWAKU
100
AcDbLine
 10
55.04221301815857
 20
22.72500015057662
 30
0.0
 11
55.04221301815857
 21
9.950000150576627
 31
0.0
  0
LINE
  5
1A26
330
1A
100
AcDbEntity
  8
ZUWAKU
100
AcDbLine
 10
43.49221301815851
 20
7.675000150576629
 30
0.0
 11
43.49221301815851
 21
22.72500015057662
 31
0.0
  0
LINE
  5
1A27
330
1A
100
AcDbEntity
  8
ZUWAKU
100
AcDbLine
 10
40.69221301815855
 20
22.72500015057662
 30
0.0
 11
40.69221301815855
 21
7.675000150576629
 31
0.0
  0
LINE
  5
1A28
330
1A
100
AcDbEntity
  8
ZUWAKU
100
AcDbLine
 10
37.31485950033652
 20
19.20504734414005
 30
0.0
 11
36.05010775500068
 21
15.20000015057664
 31
0.0
  0
ARC
  5
1A29
330
1A
100
AcDbEntity
  8
ZUWAKU
100
AcDbCircle
 10
49.79221301815858
 20
18.63479812522133
 30
0.0
 40
4.199999999999999
100
AcDbArc
 50
180.0
 51
225.0
  0
ARC
  5
1A2A
330
1A
100
AcDbEntity
  8
ZUWAKU
100
AcDbCircle
 10
49.79221301815858
 20
18.63479812522133
 30
0.0
 40
1.399999999999999
100
AcDbArc
 50
180.0000000000016
 51
224.9999999999988
  0
LINE
  5
1A2B
330
1A
100
AcDbEntity
  8
ZUWAKU
100
AcDbLine
 10
66.2422130181585
 20
22.72500015057662
 30
0.0
 11
66.2422130181585
 21
7.675000150576629
 31
0.0
  0
LINE
  5
1A2C
330
1A
100
AcDbEntity
  8
ZUWAKU
100
AcDbLine
 10
69.04221301815858
 20
7.675000150576629
 30
0.0
 11
69.04221301815858
 21
22.72500015057662
 31
0.0
  0
LINE
  5
1A2D
330
1A
100
AcDbEntity
  8
ZUWAKU
100
AcDbLine
 10
61.34221301815853
 20
22.72500015057662
 30
0.0
 11
61.34221301815853
 21
11.00000015057662
 31
0.0
  0
LINE
  5
1A2E
330
1A
100
AcDbEntity
  8
ZUWAKU
100
AcDbLine
 10
64.1422130181586
 20
9.950000150576627
 30
0.0
 11
64.1422130181586
 21
22.72500015057662
 31
0.0
  0
LINE
  5
1A2F
330
1A
100
AcDbEntity
  8
ZUWAKU
100
AcDbLine
 10
79.12663041136579
 20
30.00000015057662
 30
0.0
 11
79.12663041136579
 21
0.8000001505766931
 31
0.0
  0
LINE
  5
1A30
330
1A
100
AcDbEntity
  8
ZUWAKU
100
AcDbLine
 10
79.52663041136566
 20
30.00000015057662
 30
0.0
 11
79.52663041136588
 21
0.8000001505766931
 31
0.0
  0
LINE
  5
1A31
330
1A
100
AcDbEntity
  8
ZUWAKU
100
AcDbLine
 10
79.32663041136561
 20
30.00000015057662
 30
0.0
 11
79.32663041136584
 21
0.8000001505766931
 31
0.0
  0
LINE
  5
1A32
330
1A
100
AcDbEntity
  8
ZUWAKU
100
AcDbLine
 10
57.84221301815853
 20
7.15000015057663
 30
0.0
 11
61.34221301815853
 21
7.15000015057663
 31
0.0
  0
LINE
  5
1A33
330
1A
100
AcDbEntity
  8
ZUWAKU
100
AcDbLine
 10
60.29221301815858
 20
9.950000150576627
 30
0.0
 11
58.8922130181586
 21
9.950000150576627
 31
0.0
  0
LINE
  5
1A34
330
1A
100
AcDbEntity
  8
ZUWAKU
100
AcDbLine
 10
41.21721301815853
 20
7.15000015057663
 30
0.0
 11
42.96721301815852
 21
7.15000015057663
 31
0.0
  0
LINE
  5
1A35
330
1A
100
AcDbEntity
  8
ZUWAKU
100
AcDbLine
 10
35.67634795547439
 20
7.516906182409655
 30
0.0
 11
33.80807808084262
 21
13.43309411874359
 31
0.0
  0
ARC
  5
1A36
330
1A
100
AcDbEntity
  8
ZUWAKU
100
AcDbCircle
 10
33.16721301815857
 20
13.27500015057663
 30
0.0
 40
0.525
100
AcDbArc
 50
90.0
 51
180.0
  0
ARC
  5
1A37
330
1A
100
AcDbEntity
  8
ZUWAKU
100
AcDbCircle
 10
33.30744718164726
 20
13.27500015057663
 30
0.0
 40
0.525
100
AcDbArc
 50
17.52556837372303
 51
90.0
  0
ARC
  5
1A38
330
1A
100
AcDbEntity
  8
ZUWAKU
100
AcDbCircle
 10
30.3672130181585
 20
7.675000150576629
 30
0.0
 40
0.525
100
AcDbArc
 50
180.0
 51
270.0
  0
ARC
  5
1A39
330
1A
100
AcDbEntity
  8
ZUWAKU
100
AcDbCircle
 10
26.8672130181585
 20
9.425000150576629
 30
0.0
 40
0.525
100
AcDbArc
 50
0.0
 51
90.0
  0
ARC
  5
1A3A
330
1A
100
AcDbEntity
  8
ZUWAKU
100
AcDbCircle
 10
26.8672130181585
 20
7.675000150576629
 30
0.0
 40
0.525
100
AcDbArc
 50
270.0
 51
0.0
  0
LINE
  5
1A3B
330
1A
100
AcDbEntity
  8
ZUWAKU
100
AcDbLine
 10
27.39221301815859
 20
9.425000150576629
 30
0.0
 11
27.39221301815859
 21
7.675000150576629
 31
0.0
  0
LINE
  5
1A3C
330
1A
100
AcDbEntity
  8
ZUWAKU
100
AcDbLine
 10
32.6422130181586
 20
7.675000150576629
 30
0.0
 11
32.6422130181586
 21
13.27500015057663
 31
0.0
  0
ARC
  5
1A3D
330
1A
100
AcDbEntity
  8
ZUWAKU
100
AcDbCircle
 10
32.11721301815851
 20
7.675000150576629
 30
0.0
 40
0.525
100
AcDbArc
 50
270.0
 51
0.0
  0
LINE
  5
1A3E
330
1A
100
AcDbEntity
  8
ZUWAKU
100
AcDbLine
 10
30.3672130181585
 20
7.15000015057663
 30
0.0
 11
32.11721301815851
 21
7.15000015057663
 31
0.0
  0
ARC
  5
1A3F
330
1A
100
AcDbEntity
  8
ZUWAKU
100
AcDbCircle
 10
33.16721301815857
 20
17.12500015057663
 30
0.0
 40
0.525
100
AcDbArc
 50
180.0
 51
270.0
  0
LINE
  5
1A40
330
1A
100
AcDbEntity
  8
ZUWAKU
100
AcDbLine
 10
33.16721301815857
 20
13.80000015057663
 30
0.0
 11
33.30744718164726
 21
13.80000015057663
 31
0.0
  0
LINE
  5
1A41
330
1A
100
AcDbEntity
  8
ZUWAKU
100
AcDbLine
 10
33.30744718164726
 20
16.60000015057662
 30
0.0
 11
33.16721301815857
 21
16.60000015057662
 31
0.0
  0
ARC
  5
1A42
330
1A
100
AcDbEntity
  8
ZUWAKU
100
AcDbCircle
 10
33.30744718164726
 20
17.12500015057663
 30
0.0
 40
0.525
100
AcDbArc
 50
270.0
 51
342.4744316262769
  0
ARC
  5
1A43
330
1A
100
AcDbEntity
  8
ZUWAKU
100
AcDbCircle
 10
36.17697885466987
 20
7.675000150576629
 30
0.0
 40
0.525
100
AcDbArc
 50
197.525568373723
 51
270.0
  0
LINE
  5
1A44
330
1A
100
AcDbEntity
  8
ZUWAKU
100
AcDbLine
 10
38.37649913347433
 20
7.833094118743602
 30
0.0
 11
36.05010775500068
 21
15.20000015057664
 31
0.0
  0
ARC
  5
1A45
330
1A
100
AcDbEntity
  8
ZUWAKU
100
AcDbCircle
 10
37.87586823427886
 20
7.675000150576629
 30
0.0
 40
0.525
100
AcDbArc
 50
270.0
 51
17.52556837372303
  0
LINE
  5
1A46
330
1A
100
AcDbEntity
  8
ZUWAKU
100
AcDbLine
 10
36.17697885466987
 20
7.15000015057663
 30
0.0
 11
37.87586823427886
 21
7.15000015057663
 31
0.0
  0
ARC
  5
1A47
330
1A
100
AcDbEntity
  8
ZUWAKU
100
AcDbCircle
 10
41.21721301815853
 20
7.675000150576629
 30
0.0
 40
0.525
100
AcDbArc
 50
180.0
 51
270.0
  0
ARC
  5
1A48
330
1A
100
AcDbEntity
  8
ZUWAKU
100
AcDbCircle
 10
50.1422130181586
 20
9.950000150576627
 30
0.0
 40
2.799999999999999
100
AcDbArc
 50
270.0
 51
0.0
  0
ARC
  5
1A49
330
1A
100
AcDbEntity
  8
ZUWAKU
100
AcDbCircle
 10
57.84221301815853
 20
9.950000150576627
 30
0.0
 40
2.799999999999999
100
AcDbArc
 50
180.0
 51
270.0
  0
LINE
  5
1A4A
330
1A
100
AcDbEntity
  8
ZUWAKU
100
AcDbLine
 10
51.71206149914212
 20
14.73505065691545
 30
0.0
 11
48.80226352449733
 21
17.64484863156013
 31
0.0
  0
LINE
  5
1A4B
330
1A
100
AcDbEntity
  8
ZUWAKU
100
AcDbLine
 10
46.82236453717507
 20
15.6649496442378
 30
0.0
 11
49.73216251181975
 21
12.75515166959314
 31
0.0
  0
LINE
  5
1A4C
330
1A
100
AcDbEntity
  8
ZUWAKU
100
AcDbLine
 10
46.64221301815859
 20
7.15000015057663
 30
0.0
 11
50.1422130181586
 21
7.15000015057663
 31
0.0
  0
LINE
  5
1A4D
330
1A
100
AcDbEntity
  8
ZUWAKU
100
AcDbLine
 10
46.64221301815859
 20
9.950000150576627
 30
0.0
 11
49.61721301815851
 21
9.950000150576627
 31
0.0
  0
ARC
  5
1A4E
330
1A
100
AcDbEntity
  8
ZUWAKU
100
AcDbCircle
 10
46.64221301815859
 20
9.425000150576629
 30
0.0
 40
0.525
100
AcDbArc
 50
90.0
 51
180.0
  0
ARC
  5
1A4F
330
1A
100
AcDbEntity
  8
ZUWAKU
100
AcDbCircle
 10
42.96721301815852
 20
7.675000150576629
 30
0.0
 40
0.525
100
AcDbArc
 50
270.0
 51
0.0
  0
ARC
  5
1A50
330
1A
100
AcDbEntity
  8
ZUWAKU
100
AcDbCircle
 10
46.64221301815859
 20
7.675000150576629
 30
0.0
 40
0.525
100
AcDbArc
 50
180.0
 51
270.0
  0
LINE
  5
1A51
330
1A
100
AcDbEntity
  8
ZUWAKU
100
AcDbLine
 10
46.1172130181585
 20
7.675000150576629
 30
0.0
 11
46.1172130181585
 21
9.425000150576629
 31
0.0
  0
ARC
  5
1A52
330
1A
100
AcDbEntity
  8
ZUWAKU
100
AcDbCircle
 10
49.61721301815851
 20
10.47500015057663
 30
0.0
 40
0.525
100
AcDbArc
 50
270.0
 51
0.0
  0
ARC
  5
1A53
330
1A
100
AcDbEntity
  8
ZUWAKU
100
AcDbCircle
 10
48.7422130181585
 20
11.76520217593197
 30
0.0
 40
1.399999999999999
100
AcDbArc
 50
0.0
 51
45.0
  0
LINE
  5
1A54
330
1A
100
AcDbEntity
  8
ZUWAKU
100
AcDbLine
 10
50.1422130181586
 20
10.47500015057663
 30
0.0
 11
50.1422130181586
 21
11.76520217593197
 31
0.0
  0
ARC
  5
1A55
330
1A
100
AcDbEntity
  8
ZUWAKU
100
AcDbCircle
 10
58.8922130181586
 20
11.00000015057662
 30
0.0
 40
1.049999999999999
100
AcDbArc
 50
180.0
 51
270.0
  0
ARC
  5
1A56
330
1A
100
AcDbEntity
  8
ZUWAKU
100
AcDbCircle
 10
48.7422130181585
 20
11.76520217593193
 30
0.0
 40
4.199999999999999
100
AcDbArc
 50
0.0
 51
45.0
  0
LINE
  5
1A57
330
1A
100
AcDbEntity
  8
ZUWAKU
100
AcDbLine
 10
52.94221301815856
 20
9.950000150576627
 30
0.0
 11
52.94221301815856
 21
11.76520217593197
 31
0.0
  0
ARC
  5
1A58
330
1A
100
AcDbEntity
  8
ZUWAKU
100
AcDbCircle
 10
61.34221301815853
 20
9.950000150576627
 30
0.0
 40
2.799999999999999
100
AcDbArc
 50
270.0
 51
0.0
  0
LINE
  5
1A59
330
1A
100
AcDbEntity
  8
ZUWAKU
100
AcDbLine
 10
66.76721301815859
 20
7.15000015057663
 30
0.0
 11
68.5172130181586
 21
7.15000015057663
 31
0.0
  0
ARC
  5
1A5A
330
1A
100
AcDbEntity
  8
ZUWAKU
100
AcDbCircle
 10
60.29221301815858
 20
11.00000015057662
 30
0.0
 40
1.049999999999999
100
AcDbArc
 50
270.0
 51
0.0
  0
ARC
  5
1A5B
330
1A
100
AcDbEntity
  8
ZUWAKU
100
AcDbCircle
 10
66.76721301815859
 20
7.675000150576629
 30
0.0
 40
0.525
100
AcDbArc
 50
180.0
 51
270.0
  0
ARC
  5
1A5C
330
1A
100
AcDbEntity
  8
ZUWAKU
100
AcDbCircle
 10
68.5172130181586
 20
7.675000150576629
 30
0.0
 40
0.525
100
AcDbArc
 50
270.0
 51
0.0
  0
LINE
  5
1A5D
330
1A
100
AcDbEntity
  8
ZUWAKU
100
AcDbLine
 10
42.96721301815852
 20
23.25000015057663
 30
0.0
 11
41.21721301815853
 21
23.25000015057663
 31
0.0
  0
LINE
  5
1A5E
330
1A
100
AcDbEntity
  8
ZUWAKU
100
AcDbLine
 10
27.39221301815859
 20
22.72500015057662
 30
0.0
 11
27.39221301815859
 21
20.97500015057662
 31
0.0
  0
ARC
  5
1A5F
330
1A
100
AcDbEntity
  8
ZUWAKU
100
AcDbCircle
 10
26.8672130181585
 20
20.97500015057662
 30
0.0
 40
0.525
100
AcDbArc
 50
270.0
 51
0.0
  0
ARC
  5
1A60
330
1A
100
AcDbEntity
  8
ZUWAKU
100
AcDbCircle
 10
30.3672130181585
 20
22.72500015057662
 30
0.0
 40
0.525
100
AcDbArc
 50
90.0
 51
180.0
  0
ARC
  5
1A61
330
1A
100
AcDbEntity
  8
ZUWAKU
100
AcDbCircle
 10
26.8672130181585
 20
22.72500015057662
 30
0.0
 40
0.525
100
AcDbArc
 50
0.0
 51
90.0
  0
LINE
  5
1A62
330
1A
100
AcDbEntity
  8
ZUWAKU
100
AcDbLine
 10
32.11721301815851
 20
23.25000015057663
 30
0.0
 11
30.3672130181585
 21
23.25000015057663
 31
0.0
  0
ARC
  5
1A63
330
1A
100
AcDbEntity
  8
ZUWAKU
100
AcDbCircle
 10
32.11721301815851
 20
22.72500015057662
 30
0.0
 40
0.525
100
AcDbArc
 50
0.0
 51
90.0
  0
ARC
  5
1A64
330
1A
100
AcDbEntity
  8
ZUWAKU
100
AcDbCircle
 10
36.17697885466987
 20
22.72500015057662
 30
0.0
 40
0.525
100
AcDbArc
 50
90.0
 51
162.4744316262769
  0
LINE
  5
1A65
330
1A
100
AcDbEntity
  8
ZUWAKU
100
AcDbLine
 10
38.37649913347433
 20
22.56690618240966
 30
0.0
 11
37.31485950033652
 21
19.20504734414005
 31
0.0
  0
ARC
  5
1A66
330
1A
100
AcDbEntity
  8
ZUWAKU
100
AcDbCircle
 10
37.87586823427886
 20
22.72500015057662
 30
0.0
 40
0.525
100
AcDbArc
 50
342.4744316262769
 51
90.0
  0
LINE
  5
1A67
330
1A
100
AcDbEntity
  8
ZUWAKU
100
AcDbLine
 10
36.17697885466987
 20
23.25000015057663
 30
0.0
 11
37.87586823427886
 21
23.25000015057663
 31
0.0
  0
ARC
  5
1A68
330
1A
100
AcDbEntity
  8
ZUWAKU
100
AcDbCircle
 10
41.21721301815853
 20
22.72500015057662
 30
0.0
 40
0.525
100
AcDbArc
 50
90.0
 51
180.0
  0
LINE
  5
1A69
330
1A
100
AcDbEntity
  8
ZUWAKU
100
AcDbLine
 10
51.8922130181586
 20
20.45000015057663
 30
0.0
 11
48.91721301815858
 21
20.45000015057663
 31
0.0
  0
LINE
  5
1A6A
330
1A
100
AcDbEntity
  8
ZUWAKU
100
AcDbLine
 10
48.3922130181586
 20
23.25000015057663
 30
0.0
 11
51.8922130181586
 21
23.25000015057663
 31
0.0
  0
ARC
  5
1A6B
330
1A
100
AcDbEntity
  8
ZUWAKU
100
AcDbCircle
 10
48.3922130181586
 20
20.45000015057663
 30
0.0
 40
2.799999999999999
100
AcDbArc
 50
90.0
 51
180.0
  0
LINE
  5
1A6C
330
1A
100
AcDbEntity
  8
ZUWAKU
100
AcDbLine
 10
45.59221301815853
 20
20.45000015057663
 30
0.0
 11
45.59221301815853
 21
18.63479812522128
 31
0.0
  0
ARC
  5
1A6D
330
1A
100
AcDbEntity
  8
ZUWAKU
100
AcDbCircle
 10
42.96721301815852
 20
22.72500015057662
 30
0.0
 40
0.525
100
AcDbArc
 50
0.0
 51
90.0
  0
LINE
  5
1A6E
330
1A
100
AcDbEntity
  8
ZUWAKU
100
AcDbLine
 10
48.3922130181586
 20
19.92500015057663
 30
0.0
 11
48.3922130181586
 21
18.63479812522128
 31
0.0
  0
ARC
  5
1A6F
330
1A
100
AcDbEntity
  8
ZUWAKU
100
AcDbCircle
 10
48.91721301815858
 20
19.92500015057663
 30
0.0
 40
0.525
100
AcDbArc
 50
90.0
 51
180.0
  0
LINE
  5
1A70
330
1A
100
AcDbEntity
  8
ZUWAKU
100
AcDbLine
 10
52.41721301815857
 20
22.72500015057662
 30
0.0
 11
52.41721301815857
 21
20.97500015057662
 31
0.0
  0
ARC
  5
1A71
330
1A
100
AcDbEntity
  8
ZUWAKU
100
AcDbCircle
 10
51.8922130181586
 20
20.97500015057662
 30
0.0
 40
0.525
100
AcDbArc
 50
270.0
 51
0.0
  0
ARC
  5
1A72
330
1A
100
AcDbEntity
  8
ZUWAKU
100
AcDbCircle
 10
51.8922130181586
 20
22.72500015057662
 30
0.0
 40
0.525
100
AcDbArc
 50
0.0
 51
90.0
  0
LINE
  5
1A73
330
1A
100
AcDbEntity
  8
ZUWAKU
100
AcDbLine
 10
57.31721301815856
 20
23.25000015057663
 30
0.0
 11
55.56721301815855
 21
23.25000015057663
 31
0.0
  0
ARC
  5
1A74
330
1A
100
AcDbEntity
  8
ZUWAKU
100
AcDbCircle
 10
55.56721301815855
 20
22.72500015057662
 30
0.0
 40
0.525
100
AcDbArc
 50
90.0
 51
180.0
  0
ARC
  5
1A75
330
1A
100
AcDbEntity
  8
ZUWAKU
100
AcDbCircle
 10
57.31721301815856
 20
22.72500015057662
 30
0.0
 40
0.525
100
AcDbArc
 50
0.0
 51
90.0
  0
LINE
  5
1A76
330
1A
100
AcDbEntity
  8
ZUWAKU
100
AcDbLine
 10
68.5172130181586
 20
23.25000015057663
 30
0.0
 11
66.76721301815859
 21
23.25000015057663
 31
0.0
  0
ARC
  5
1A77
330
1A
100
AcDbEntity
  8
ZUWAKU
100
AcDbCircle
 10
61.8672130181585
 20
22.72500015057662
 30
0.0
 40
0.525
100
AcDbArc
 50
90.0
 51
180.0
  0
LINE
  5
1A78
330
1A
100
AcDbEntity
  8
ZUWAKU
100
AcDbLine
 10
63.61721301815851
 20
23.25000015057663
 30
0.0
 11
61.8672130181585
 21
23.25000015057663
 31
0.0
  0
ARC
  5
1A79
330
1A
100
AcDbEntity
  8
ZUWAKU
100
AcDbCircle
 10
63.61721301815851
 20
22.72500015057662
 30
0.0
 40
0.525
100
AcDbArc
 50
0.0
 51
90.0
  0
ARC
  5
1A7A
330
1A
100
AcDbEntity
  8
ZUWAKU
100
AcDbCircle
 10
66.76721301815859
 20
22.72500015057662
 30
0.0
 40
0.525
100
AcDbArc
 50
90.0
 51
180.0
  0
ARC
  5
1A7B
330
1A
100
AcDbEntity
  8
ZUWAKU
100
AcDbCircle
 10
68.5172130181586
 20
22.72500015057662
 30
0.0
 40
0.525
100
AcDbArc
 50
0.0
 51
90.0
  0
LINE
  5
1A7C
330
1A
100
AcDbEntity
  8
ZUWAKU
100
AcDbLine
 10
208.4466021534451
 20
30.00000015057662
 30
0.0
 11
208.4466021534453
 21
0.8000001505766931
 31
0.0
  0
LINE
  5
1A7D
330
1A
100
AcDbEntity
  8
ZUWAKU
100
AcDbLine
 10
208.6466021534452
 20
30.00000015057662
 30
0.0
 11
208.6466021534454
 21
0.8000001505766931
 31
0.0
  0
LINE
  5
1A7E
330
1A
100
AcDbEntity
  8
ZUWAKU
100
AcDbLine
 10
208.2466021534453
 20
30.00000015057662
 30
0.0
 11
208.2466021534453
 21
0.8000001505766931
 31
0.0
  0
TEXT
  5
1A7F
330
1A
100
AcDbEntity
  8
MOJI
100
AcDbText
 10
239.8272035442285
 20
18.00492120798401
 30
0.0
 40
5.599999999999999
  1
洋風じょうご
 41
0.9
  7
ｽﾀｲﾙ1
100
AcDbText
  0
TEXT
  5
1A80
330
1A
100
AcDbEntity
  8
ZUWAKU
100
AcDbText
 10
209.7240471756549
 20
9.655356688962243
 30
0.0
 40
4.0
  1
サイズ
 41
0.9
  7
ｽﾀｲﾙ1
100
AcDbText
  0
TEXT
  5
1A81
330
1A
100
AcDbEntity
  8
MOJI
100
AcDbText
 10
239.8272035442285
 20
3.204921207984046
 30
0.0
 40
5.599999999999999
  1
Ｈ１６０－Ｙ６０・ＵＴ６０
 41
0.9
  7
ｽﾀｲﾙ1
100
AcDbText
  0
TEXT
  5
1A82
330
1A
100
AcDbEntity
  8
ZUWAKU
100
AcDbText
 10
209.7240471756547
 20
24.0553566889622
 30
0.0
 40
4.0
  1
品名
 41
0.9
  7
ｽﾀｲﾙ1
100
AcDbText
  0
TEXT
  5
1A83
330
1A
100
AcDbEntity
  8
ZUWAKU
100
AcDbText
 10
658.2039385506798
 20
18.00492120798401
 30
0.0
 40
5.599999999999999
  1
　　．　　．　　
 41
0.9
  7
ｽﾀｲﾙ1
100
AcDbText
  0
LINE
  5
1A84
330
1A
100
AcDbEntity
  8
ZUWAKU
100
AcDbLine
 10
648.8172033735816
 20
15.60000015057665
 30
0.0
 11
697.2490114119186
 21
15.60000015057665
 31
0.0
  0
LINE
  5
1A85
330
1A
100
AcDbEntity
  8
ZUWAKU
100
AcDbLine
 10
648.8172033735818
 20
15.40000015057666
 30
0.0
 11
697.2490114119186
 21
15.40000015057666
 31
0.0
  0
LINE
  5
1A86
330
1A
100
AcDbEntity
  8
ZUWAKU
100
AcDbLine
 10
648.8172033735816
 20
15.20000015057665
 30
0.0
 11
697.2490114119186
 21
15.20000015057665
 31
0.0
  0
LINE
  5
1A87
330
1A
100
AcDbEntity
  8
ZUWAKU
100
AcDbLine
 10
505.1991803615183
 20
15.60000015057665
 30
0.0
 11
552.5269566294898
 21
15.60000015057665
 31
0.0
  0
LINE
  5
1A88
330
1A
100
AcDbEntity
  8
ZUWAKU
100
AcDbLine
 10
505.1991803615183
 20
15.40000015057666
 30
0.0
 11
552.5269566294898
 21
15.40000015057666
 31
0.0
  0
LINE
  5
1A89
330
1A
100
AcDbEntity
  8
ZUWAKU
100
AcDbLine
 10
505.1991803615183
 20
15.20000015057666
 30
0.0
 11
552.5269566294898
 21
15.20000015057666
 31
0.0
  0
LINE
  5
1A8A
330
1A
100
AcDbEntity
  8
ZUWAKU
100
AcDbLine
 10
504.7991803615184
 20
30.00000015057662
 30
0.0
 11
504.7991803615184
 21
0.8000001505766931
 31
0.0
  0
LINE
  5
1A8B
330
1A
100
AcDbEntity
  8
ZUWAKU
100
AcDbLine
 10
505.1991803615183
 20
30.00000015057662
 30
0.0
 11
505.1991803615185
 21
0.8000001505766931
 31
0.0
  0
LINE
  5
1A8C
330
1A
100
AcDbEntity
  8
ZUWAKU
100
AcDbLine
 10
504.9991803615182
 20
30.00000015057662
 30
0.0
 11
504.9991803615184
 21
0.8000001505766931
 31
0.0
  0
TEXT
  5
1A8D
330
1A
100
AcDbEntity
  8
MOJI
100
AcDbText
 10
528.0409088356902
 20
18.00492120798401
 30
0.0
 40
5.599999999999999
  1
Ａ３
 41
0.9
  7
ｽﾀｲﾙ1
100
AcDbText
  0
LINE
  5
1A8E
330
1A
100
AcDbEntity
  8
ZUWAKU
100
AcDbLine
 10
447.4243648343688
 20
30.00000015057662
 30
0.0
 11
447.4243648343688
 21
0.8000001505766931
 31
0.0
  0
LINE
  5
1A8F
330
1A
100
AcDbEntity
  8
ZUWAKU
100
AcDbLine
 10
447.8243648343687
 20
30.00000015057662
 30
0.0
 11
447.8243648343688
 21
0.8000001505766931
 31
0.0
  0
LINE
  5
1A90
330
1A
100
AcDbEntity
  8
ZUWAKU
100
AcDbLine
 10
447.6243648343686
 20
30.00000015057662
 30
0.0
 11
447.6243648343689
 21
0.8000001505766931
 31
0.0
  0
TEXT
  5
1A91
330
1A
100
AcDbEntity
  8
MOJI
100
AcDbText
 10
463.2464328543794
 20
11.94261787223661
 30
0.0
 40
5.599999999999999
  1
ＰＤ０９□
 41
0.9
  7
ｽﾀｲﾙ1
100
AcDbText
  0
TEXT
  5
1A92
330
1A
100
AcDbEntity
  8
ZUWAKU
100
AcDbText
 10
461.3057542859003
 20
2.614071061716117
 30
0.0
 40
3.0
  1
□には色品番が入ります
 41
0.9
  7
ｽﾀｲﾙ1
100
AcDbText
  0
TEXT
  5
1A93
330
1A
100
AcDbEntity
  8
ZUWAKU
100
AcDbText
 10
506.6766253837281
 20
9.655356688962243
 30
0.0
 40
4.0
  1
縮尺
 41
0.9
  7
ｽﾀｲﾙ1
100
AcDbText
  0
TEXT
  5
1A94
330
1A
100
AcDbEntity
  8
MOJI
100
AcDbText
 10
528.0409088356902
 20
3.204921207984046
 30
0.0
 40
5.599999999999999
  1
１/１
 41
0.9
  7
ｽﾀｲﾙ1
100
AcDbText
  0
TEXT
  5
1A95
330
1A
100
AcDbEntity
  8
ZUWAKU
100
AcDbText
 10
449.3018098565783
 20
24.0553566889622
 30
0.0
 40
4.0
  1
品番
 41
0.9
  7
ｽﾀｲﾙ1
100
AcDbText
  0
TEXT
  5
1A96
330
1A
100
AcDbEntity
  8
ZUWAKU
100
AcDbText
 10
506.6766253837279
 20
24.0553566889622
 30
0.0
 40
4.0
  1
用紙
 41
0.9
  7
ｽﾀｲﾙ1
100
AcDbText
  0
LINE
  5
1A97
330
1A
100
AcDbEntity
  8
ZUWAKU
100
AcDbLine
 10
552.5269566294898
 20
30.00000015057662
 30
0.0
 11
552.5269566294898
 21
0.8000001505766931
 31
0.0
  0
LINE
  5
1A98
330
1A
100
AcDbEntity
  8
ZUWAKU
100
AcDbLine
 10
552.9269566294897
 20
30.00000015057662
 30
0.0
 11
552.9269566294899
 21
0.8000001505766931
 31
0.0
  0
LINE
  5
1A99
330
1A
100
AcDbEntity
  8
ZUWAKU
100
AcDbLine
 10
552.7269566294896
 20
30.00000015057662
 30
0.0
 11
552.7269566294899
 21
0.8000001505766931
 31
0.0
  0
LINE
  5
1A9A
330
1A
100
AcDbEntity
  8
ZUWAKU
100
AcDbLine
 10
648.4172033735819
 20
30.00000015057662
 30
0.0
 11
648.4172033735819
 21
0.8000001505766931
 31
0.0
  0
LINE
  5
1A9B
330
1A
100
AcDbEntity
  8
ZUWAKU
100
AcDbLine
 10
648.8172033735818
 20
30.00000015057662
 30
0.0
 11
648.817203373582
 21
0.8000001505766931
 31
0.0
  0
LINE
  5
1A9C
330
1A
100
AcDbEntity
  8
ZUWAKU
100
AcDbLine
 10
648.6172033735818
 20
30.00000015057662
 30
0.0
 11
648.617203373582
 21
0.8000001505766931
 31
0.0
  0
TEXT
  5
1A9D
330
1A
100
AcDbEntity
  8
ZUWAKU
100
AcDbText
 10
650.2946483957914
 20
24.0553566889622
 30
0.0
 40
4.0
  1
DATE
 41
0.9
  7
ｽﾀｲﾙ1
100
AcDbText
  0
TEXT
  5
1A9E
330
1A
100
AcDbEntity
  8
ZUWAKU
100
AcDbText
 10
708.5280850556212
 20
17.55383948626342
 30
0.0
 40
6.0
  1
積水化学工業株式会社
 41
0.9
  7
ｽﾀｲﾙ1
100
AcDbText
  0
LINE
  5
1A9F
330
1A
100
AcDbEntity
  8
ZUWAKU
100
AcDbLine
 10
697.8490114119185
 20
30.00000015057662
 30
0.0
 11
697.8490114119188
 21
0.8000001505766931
 31
0.0
  0
LINE
  5
1AA0
330
1A
100
AcDbEntity
  8
ZUWAKU
100
AcDbLine
 10
697.6490114119185
 20
30.00000015057662
 30
0.0
 11
697.6490114119187
 21
0.8000001505766931
 31
0.0
  0
LINE
  5
1AA1
330
1A
100
AcDbEntity
  8
ZUWAKU
100
AcDbLine
 10
697.4490114119187
 20
30.00000015057662
 30
0.0
 11
697.4490114119187
 21
0.8000001505766931
 31
0.0
  0
LINE
  5
1AA2
330
1A
100
AcDbEntity
  8
ZUWAKU
100
AcDbLine
 10
697.2490114119186
 20
30.00000015057662
 30
0.0
 11
697.2490114119186
 21
0.8000001505766931
 31
0.0
  0
TEXT
  5
1AA3
330
1A
100
AcDbEntity
  8
ZUWAKU
100
AcDbText
 10
708.5280850556212
 20
6.648840464430691
 30
0.0
 40
6.0
  1
建材事業部
 41
0.9
  7
ｽﾀｲﾙ1
100
AcDbText
  0
VIEWPORT
  5
22
330
17
100
AcDbEntity
 67
     1
  8
0
100
AcDbViewport
 10
313.6808219178082
 20
148.5
 30
0.0
 40
627.3616438356165
 41
297.0
 68
     2
 69
     1
1001
ACAD
1000
MVIEW
1002
{
1070
    16
1010
0.0
1020
0.0
1030
0.0
1010
0.0
1020
0.0
1030
1.0
1040
0.0
1040
297.0
1040
313.6808219178082
1040
148.5
1040
50.0
1040
0.0
1040
0.0
1070
     0
1070
   100
1070
     1
1070
     0
1070
     0
1070
     0
1070
     0
1070
     0
1040
0.0
1040
0.0
1040
0.0
1040
1.0
1040
1.0
1040
10.0
1040
10.0
1070
     0
1002
{
1002
}
1002
}
  0
VIEWPORT
  5
64
330
17
100
AcDbEntity
 67
     1
  8
VIEWPORT
100
AcDbViewport
 10
210.0
 20
148.5
 30
0.0
 40
420.0
 41
297.0
 68
     1
 69
     2
1001
ACAD
1000
MVIEW
1002
{
1070
    16
1010
0.0
1020
0.0
1030
0.0
1010
0.0
1020
0.0
1030
1.0
1040
0.0
1040
605.8799999999998
1040
420.0
1040
297.0
1040
50.0
1040
0.0
1040
0.0
1070
     0
1070
   100
1070
     1
1070
     0
1070
     0
1070
     0
1070
     0
1070
     0
1040
0.0
1040
0.0
1040
0.0
1040
10.0
1040
10.0
1040
0.0
1040
0.0
1070
     0
1002
{
1002
}
1002
}
  0
ENDSEC
  0
SECTION
  2
OBJECTS
  0
DICTIONARY
  5
C
330
0
100
AcDbDictionary
  3
ACAD_GROUP
350
D
  3
ACAD_LAYOUT
350
7E8
  3
ACAD_MLINESTYLE
350
E
  3
ACAD_PLOTSETTINGS
350
7E9
  3
ACAD_PLOTSTYLENAME
350
7E6
  3
ACDBHEADERROUNDTRIPXREC
350
1AAC
  0
DICTIONARY
  5
9AE
330
1A
100
AcDbDictionary
280
     1
  3
ACAD_LAYOUTSELFREF
360
1ACE
  0
DICTIONARY
  5
9AC
330
17
100
AcDbDictionary
280
     1
  3
ACAD_LAYOUTSELFREF
360
1ACD
  0
DICTIONARY
  5
D
102
{ACAD_REACTORS
330
C
102
}
330
C
100
AcDbDictionary
  0
DICTIONARY
  5
7E8
102
{ACAD_REACTORS
330
C
102
}
330
C
100
AcDbDictionary
  0
DICTIONARY
  5
E
102
{ACAD_REACTORS
330
C
102
}
330
C
100
AcDbDictionary
  3
STANDARD
350
13
  0
DICTIONARY
  5
7E9
102
{ACAD_REACTORS
330
C
102
}
330
C
100
AcDbDictionary
  0
ACDBDICTIONARYWDFLT
  5
7E6
102
{ACAD_REACTORS
330
C
102
}
330
C
100
AcDbDictionary
281
     1
  3
Normal
350
7E7
100
AcDbDictionaryWithDefault
340
7E7
1001
ACAD
1000
TREAT_AS_HARD
1070
     0
1000
TREAT_AS_HARD
1070
     0
1000
TREAT_AS_HARD
1070
     0
1000
TREAT_AS_HARD
1070
     0
  0
DICTIONARY
  5
1AAC
102
{ACAD_REACTORS
330
C
102
}
330
C
100
AcDbDictionary
  3
TSTACKALIGN
350
1AAD
  3
TSTACKSIZE
350
1AAE
  3
HYPERLINKBASE
350
1AAF
  3
STYLESHEET
350
1AB0
  3
LAYOUTDICT
350
1AB1
  3
PLOTSETDICT
350
1AB2
  3
PLOTSTYLNAMDICT
350
1AB3
  3
LWETCUNION
350
1AB4
  3
INSUNITS
350
1AB5
  3
CEPSNTYPE
350
1AB6
  3
FINGERPRINTGUID
350
1AB7
  3
VERSIONGUID
350
1AB8
  3
PSVPSCALE
350
1AB9
  3
DIMSTYLEDATA
350
1ABA
  3
PUCSORTHOREF
350
1ABB
  3
PUCSORTHOVIEW
350
1ABC
  3
PUCSBASE
350
1ABD
  3
PUCSORGTOP
350
1ABE
  3
PUCSORGBOTTOM
350
1ABF
  3
PUCSORGLEFT
350
1AC0
  3
PUCSORGRIGHT
350
1AC1
  3
PUCSORGFRONT
350
1AC2
  3
PUCSORGBACK
350
1AC3
  3
UCSORTHOREF
350
1AC4
  3
UCSORTHOVIEW
350
1AC5
  3
UCSBASE
350
1AC6
  3
UCSORGTOP
350
1AC7
  3
UCSORGBOTTOM
350
1AC8
  3
UCSORGLEFT
350
1AC9
  3
UCSORGRIGHT
350
1ACA
  3
UCSORGFRONT
350
1ACB
  3
UCSORGBACK
350
1ACC
  0
XRECORD
  5
1ACE
102
{ACAD_REACTORS
330
9AE
102
}
330
9AE
100
AcDbXrecord
340
1A
  0
XRECORD
  5
1ACD
102
{ACAD_REACTORS
330
9AC
102
}
330
9AC
100
AcDbXrecord
340
17
  0
MLINESTYLE
  5
13
102
{ACAD_REACTORS
330
E
102
}
330
E
100
AcDbMlineStyle
  2
STANDARD
 70
     0
  3

 62
     0
 51
90.0
 52
90.0
 71
     2
 49
0.5
 62
   256
  6
BYLAYER
 49
-0.5
 62
   256
  6
BYLAYER
  0
ACDBPLACEHOLDER
  5
7E7
102
{ACAD_REACTORS
330
7E6
102
}
330
7E6
100
AcDbPlaceHolder
280
     0
  0
XRECORD
  5
1AAD
102
{ACAD_REACTORS
330
1AAC
102
}
330
1AAC
100
AcDbXrecord
 90
        1
  0
XRECORD
  5
1AAE
102
{ACAD_REACTORS
330
1AAC
102
}
330
1AAC
100
AcDbXrecord
 90
       70
  0
XRECORD
  5
1AAF
102
{ACAD_REACTORS
330
1AAC
102
}
330
1AAC
100
AcDbXrecord
  1

  0
XRECORD
  5
1AB0
102
{ACAD_REACTORS
330
1AAC
102
}
330
1AAC
100
AcDbXrecord
  1
systemprinter.ctb
  0
XRECORD
  5
1AB1
102
{ACAD_REACTORS
330
1AAC
102
}
330
1AAC
100
AcDbXrecord
340
7E8
  0
XRECORD
  5
1AB2
102
{ACAD_REACTORS
330
1AAC
102
}
330
1AAC
100
AcDbXrecord
340
7E9
  0
XRECORD
  5
1AB3
102
{ACAD_REACTORS
330
1AAC
102
}
330
1AAC
100
AcDbXrecord
340
7E6
  0
XRECORD
  5
1AB4
102
{ACAD_REACTORS
330
1AAC
102
}
330
1AAC
100
AcDbXrecord
 90
    10781
  0
XRECORD
  5
1AB5
102
{ACAD_REACTORS
330
1AAC
102
}
330
1AAC
100
AcDbXrecord
 90
        0
  0
XRECORD
  5
1AB6
102
{ACAD_REACTORS
330
1AAC
102
}
330
1AAC
100
AcDbXrecord
 90
        0
  0
XRECORD
  5
1AB7
102
{ACAD_REACTORS
330
1AAC
102
}
330
1AAC
100
AcDbXrecord
  1
{3EC7EA8D-9636-4F3C-A135-20FDB3E5FAF7}
  0
XRECORD
  5
1AB8
102
{ACAD_REACTORS
330
1AAC
102
}
330
1AAC
100
AcDbXrecord
  1
{6BE0F4C6-7CBF-494F-9B06-D2DA8A6FBA1B}
  0
XRECORD
  5
1AB9
102
{ACAD_REACTORS
330
1AAC
102
}
330
1AAC
100
AcDbXrecord
 40
0.0
  0
XRECORD
  5
1ABA
102
{ACAD_REACTORS
330
1AAC
102
}
330
1AAC
100
AcDbXrecord
1000
DSTYLE
1002
{
1070
   341
340
6D
1070
   343
340
6D
1070
   344
340
6D
1070
   371
 70
    -1
1070
   372
 70
    -1
1002
}
  0
XRECORD
  5
1ABB
102
{ACAD_REACTORS
330
1AAC
102
}
330
1AAC
100
AcDbXrecord
340
0
  0
XRECORD
  5
1ABC
102
{ACAD_REACTORS
330
1AAC
102
}
330
1AAC
100
AcDbXrecord
 70
     0
  0
XRECORD
  5
1ABD
102
{ACAD_REACTORS
330
1AAC
102
}
330
1AAC
100
AcDbXrecord
340
0
  0
XRECORD
  5
1ABE
102
{ACAD_REACTORS
330
1AAC
102
}
330
1AAC
100
AcDbXrecord
 10
0.0
 20
0.0
 30
0.0
  0
XRECORD
  5
1ABF
102
{ACAD_REACTORS
330
1AAC
102
}
330
1AAC
100
AcDbXrecord
 10
0.0
 20
0.0
 30
0.0
  0
XRECORD
  5
1AC0
102
{ACAD_REACTORS
330
1AAC
102
}
330
1AAC
100
AcDbXrecord
 10
0.0
 20
0.0
 30
0.0
  0
XRECORD
  5
1AC1
102
{ACAD_REACTORS
330
1AAC
102
}
330
1AAC
100
AcDbXrecord
 10
0.0
 20
0.0
 30
0.0
  0
XRECORD
  5
1AC2
102
{ACAD_REACTORS
330
1AAC
102
}
330
1AAC
100
AcDbXrecord
 10
0.0
 20
0.0
 30
0.0
  0
XRECORD
  5
1AC3
102
{ACAD_REACTORS
330
1AAC
102
}
330
1AAC
100
AcDbXrecord
 10
0.0
 20
0.0
 30
0.0
  0
XRECORD
  5
1AC4
102
{ACAD_REACTORS
330
1AAC
102
}
330
1AAC
100
AcDbXrecord
340
0
  0
XRECORD
  5
1AC5
102
{ACAD_REACTORS
330
1AAC
102
}
330
1AAC
100
AcDbXrecord
 70
     0
  0
XRECORD
  5
1AC6
102
{ACAD_REACTORS
330
1AAC
102
}
330
1AAC
100
AcDbXrecord
340
0
  0
XRECORD
  5
1AC7
102
{ACAD_REACTORS
330
1AAC
102
}
330
1AAC
100
AcDbXrecord
 10
0.0
 20
0.0
 30
0.0
  0
XRECORD
  5
1AC8
102
{ACAD_REACTORS
330
1AAC
102
}
330
1AAC
100
AcDbXrecord
 10
0.0
 20
0.0
 30
0.0
  0
XRECORD
  5
1AC9
102
{ACAD_REACTORS
330
1AAC
102
}
330
1AAC
100
AcDbXrecord
 10
0.0
 20
0.0
 30
0.0
  0
XRECORD
  5
1ACA
102
{ACAD_REACTORS
330
1AAC
102
}
330
1AAC
100
AcDbXrecord
 10
0.0
 20
0.0
 30
0.0
  0
XRECORD
  5
1ACB
102
{ACAD_REACTORS
330
1AAC
102
}
330
1AAC
100
AcDbXrecord
 10
0.0
 20
0.0
 30
0.0
  0
XRECORD
  5
1ACC
102
{ACAD_REACTORS
330
1AAC
102
}
330
1AAC
100
AcDbXrecord
 10
0.0
 20
0.0
 30
0.0
  0
ENDSEC
  0
EOF
