  0
SECTION
  2
HEADER
  9
$ACADVER
  1
AC1014
  9
$ACADMAINTVER
 70
     9
  9
$DWGCODEPAGE
  3
ANSI_932
  9
$INSBASE
 10
0.0
 20
0.0
 30
0.0
  9
$EXTMIN
 10
-0.0128099507776369
 20
-0.0090584651927657
 30
-0.0000000000000053
  9
$EXTMAX
 10
797.6616026615272
 20
551.6426495160594
 30
0.0000000000000099
  9
$LIMMIN
 10
0.0
 20
0.0
  9
$LIMMAX
 10
840.0
 20
594.0
  9
$ORTHOMODE
 70
     0
  9
$REGENMODE
 70
     1
  9
$FILLMODE
 70
     1
  9
$QTEXTMODE
 70
     0
  9
$MIRRTEXT
 70
     1
  9
$DRAGMODE
 70
     2
  9
$LTSCALE
 40
2.0
  9
$OSMODE
 70
    35
  9
$ATTMODE
 70
     1
  9
$TEXTSIZE
 40
5.0
  9
$TRACEWID
 40
1.0
  9
$TEXTSTYLE
  7
STANDARD
  9
$CLAYER
  8
SUNPOU
  9
$CELTYPE
  6
BYLAYER
  9
$CECOLOR
 62
   256
  9
$CELTSCALE
 40
1.0
  9
$DELOBJ
 70
     1
  9
$DISPSILH
 70
     0
  9
$DIMSCALE
 40
1.0
  9
$DIMASZ
 40
7.0
  9
$DIMEXO
 40
6.0
  9
$DIMDLI
 40
14.0
  9
$DIMRND
 40
0.0
  9
$DIMDLE
 40
0.0
  9
$DIMEXE
 40
3.0
  9
$DIMTP
 40
0.0
  9
$DIMTM
 40
0.0
  9
$DIMTXT
 40
6.0
  9
$DIMCEN
 40
150.0
  9
$DIMTSZ
 40
0.0
  9
$DIMTOL
 70
     0
  9
$DIMLIM
 70
     0
  9
$DIMTIH
 70
     0
  9
$DIMTOH
 70
     0
  9
$DIMSE1
 70
     0
  9
$DIMSE2
 70
     0
  9
$DIMTAD
 70
     3
  9
$DIMZIN
 70
     0
  9
$DIMBLK
  1

  9
$DIMASO
 70
     1
  9
$DIMSHO
 70
     1
  9
$DIMPOST
  1

  9
$DIMAPOST
  1

  9
$DIMALT
 70
     0
  9
$DIMALTD
 70
     2
  9
$DIMALTF
 40
25.4
  9
$DIMLFAC
 40
1.0
  9
$DIMTOFL
 70
     1
  9
$DIMTVP
 40
0.0
  9
$DIMTIX
 70
     0
  9
$DIMSOXD
 70
     0
  9
$DIMSAH
 70
     1
  9
$DIMBLK1
  1
OPEN
  9
$DIMBLK2
  1
OPEN
  9
$DIMSTYLE
  2
STANDARD
  9
$DIMCLRD
 70
   256
  9
$DIMCLRE
 70
   256
  9
$DIMCLRT
 70
   256
  9
$DIMTFAC
 40
1.0
  9
$DIMGAP
 40
2.0
  9
$DIMJUST
 70
     0
  9
$DIMSD1
 70
     0
  9
$DIMSD2
 70
     0
  9
$DIMTOLJ
 70
     1
  9
$DIMTZIN
 70
     0
  9
$DIMALTZ
 70
     0
  9
$DIMALTTZ
 70
     0
  9
$DIMFIT
 70
     5
  9
$DIMUPT
 70
     0
  9
$DIMUNIT
 70
     2
  9
$DIMDEC
 70
     0
  9
$DIMTDEC
 70
     0
  9
$DIMALTU
 70
     2
  9
$DIMALTTD
 70
     2
  9
$DIMTXSTY
  7
STANDARD
  9
$DIMAUNIT
 70
     0
  9
$LUNITS
 70
     2
  9
$LUPREC
 70
     4
  9
$SKETCHINC
 40
1.0
  9
$FILLETRAD
 40
20.0
  9
$AUNITS
 70
     0
  9
$AUPREC
 70
     0
  9
$MENU
  1
.
  9
$ELEVATION
 40
0.0
  9
$PELEVATION
 40
0.0
  9
$THICKNESS
 40
0.0
  9
$LIMCHECK
 70
     0
  9
$BLIPMODE
 70
     0
  9
$CHAMFERA
 40
20.0
  9
$CHAMFERB
 40
20.0
  9
$CHAMFERC
 40
40.0
  9
$CHAMFERD
 40
0.0
  9
$SKPOLY
 70
     0
  9
$TDCREATE
 40
2451023.646678588
  9
$TDUPDATE
 40
2453482.688337488
  9
$TDINDWG
 40
0.0796372106
  9
$TDUSRTIMER
 40
0.0796372106
  9
$USRTIMER
 70
     1
  9
$ANGBASE
 50
0.0
  9
$ANGDIR
 70
     0
  9
$PDMODE
 70
     0
  9
$PDSIZE
 40
0.0
  9
$PLINEWID
 40
0.0
  9
$COORDS
 70
     1
  9
$SPLFRAME
 70
     0
  9
$SPLINETYPE
 70
     6
  9
$SPLINESEGS
 70
     8
  9
$ATTDIA
 70
     0
  9
$ATTREQ
 70
     1
  9
$HANDLING
 70
 10241
  9
$HANDSEED
  5
14CB
  9
$SURFTAB1
 70
     6
  9
$SURFTAB2
 70
     6
  9
$SURFTYPE
 70
     6
  9
$SURFU
 70
     6
  9
$SURFV
 70
     6
  9
$UCSNAME
  2

  9
$UCSORG
 10
0.0
 20
0.0
 30
0.0
  9
$UCSXDIR
 10
1.0
 20
0.0
 30
0.0
  9
$UCSYDIR
 10
0.0
 20
1.0
 30
0.0
  9
$PUCSNAME
  2

  9
$PUCSORG
 10
0.0
 20
0.0
 30
0.0
  9
$PUCSXDIR
 10
1.0
 20
0.0
 30
0.0
  9
$PUCSYDIR
 10
0.0
 20
1.0
 30
0.0
  9
$USERI1
 70
     0
  9
$USERI2
 70
     0
  9
$USERI3
 70
     0
  9
$USERI4
 70
     0
  9
$USERI5
 70
     0
  9
$USERR1
 40
0.0
  9
$USERR2
 40
0.0
  9
$USERR3
 40
0.0
  9
$USERR4
 40
0.0
  9
$USERR5
 40
0.0
  9
$WORLDVIEW
 70
     1
  9
$SHADEDGE
 70
     3
  9
$SHADEDIF
 70
    70
  9
$TILEMODE
 70
     1
  9
$MAXACTVP
 70
    16
  9
$PINSBASE
 10
0.0
 20
0.0
 30
0.0
  9
$PLIMCHECK
 70
     0
  9
$PEXTMIN
 10
0.0
 20
0.0
 30
0.0
  9
$PEXTMAX
 10
420.0
 20
297.0
 30
0.0
  9
$PLIMMIN
 10
0.0
 20
0.0
  9
$PLIMMAX
 10
420.0
 20
297.0
  9
$UNITMODE
 70
     0
  9
$VISRETAIN
 70
     0
  9
$PLINEGEN
 70
     0
  9
$PSLTSCALE
 70
     1
  9
$TREEDEPTH
 70
  3020
  9
$PICKSTYLE
 70
     1
  9
$CMLSTYLE
  2
STANDARD
  9
$CMLJUST
 70
     0
  9
$CMLSCALE
 40
1.0
  9
$PROXYGRAPHICS
 70
     1
  9
$MEASUREMENT
 70
     1
  0
ENDSEC
  0
SECTION
  2
CLASSES
  0
CLASS
  1
ACDBDICTIONARYWDFLT
  2
AcDbDictionaryWithDefault
  3
AutoCAD 2000
 90
        0
280
     0
281
     0
  0
CLASS
  1
ACDBPLACEHOLDER
  2
AcDbPlaceHolder
  3
AutoCAD 2000
 90
        0
280
     0
281
     0
  0
CLASS
  1
LAYOUT
  2
AcDbLayout
  3
AutoCAD 2000
 90
        0
280
     0
281
     0
  0
CLASS
  1
LONG_TRANSACTION
  2
AcDbLongTransaction
  3
AutoCAD 2000
 90
        0
280
     0
281
     0
  0
CLASS
  1
LWPOLYLINE
  2
AcDbPolyline
  3
AutoCAD 2000
 90
        0
280
     0
281
     1
  0
CLASS
  1
HATCH
  2
AcDbHatch
  3
AutoCAD 2000
 90
        0
280
     0
281
     1
  0
CLASS
  1
XRECORD
  2
AcDbXrecord
  3
AutoCAD 2000
 90
        0
280
     0
281
     0
  0
CLASS
  1
LONG_TRANSACTION
  2
AcDbLongTransaction
  3
AutoCAD 2000
 90
        0
280
     0
281
     0
  0
CLASS
  1
LWPOLYLINE
  2
AcDbPolyline
  3
AutoCAD 2000
 90
        0
280
     0
281
     1
  0
CLASS
  1
HATCH
  2
AcDbHatch
  3
AutoCAD 2000
 90
        0
280
     0
281
     1
  0
CLASS
  1
XRECORD
  2
AcDbXrecord
  3
AutoCAD 2000
 90
        0
280
     0
281
     0
  0
CLASS
  1
LONG_TRANSACTION
  2
AcDbLongTransaction
  3
AutoCAD 2000
 90
        0
280
     0
281
     0
  0
CLASS
  1
LWPOLYLINE
  2
AcDbPolyline
  3
AutoCAD 2000
 90
        0
280
     0
281
     1
  0
CLASS
  1
HATCH
  2
AcDbHatch
  3
AutoCAD 2000
 90
        0
280
     0
281
     1
  0
CLASS
  1
XRECORD
  2
AcDbXrecord
  3
AutoCAD 2000
 90
        0
280
     0
281
     0
  0
CLASS
  1
LONG_TRANSACTION
  2
AcDbLongTransaction
  3
AutoCAD 2000
 90
        0
280
     0
281
     0
  0
CLASS
  1
LWPOLYLINE
  2
AcDbPolyline
  3
AutoCAD 2000
 90
        0
280
     0
281
     1
  0
CLASS
  1
HATCH
  2
AcDbHatch
  3
AutoCAD 2000
 90
        0
280
     0
281
     1
  0
CLASS
  1
XRECORD
  2
AcDbXrecord
  3
AutoCAD 2000
 90
        0
280
     0
281
     0
  0
CLASS
  1
LONG_TRANSACTION
  2
AcDbLongTransaction
  3
AutoCAD 2000
 90
        0
280
     0
281
     0
  0
CLASS
  1
LWPOLYLINE
  2
AcDbPolyline
  3
AutoCAD 2000
 90
        0
280
     0
281
     1
  0
CLASS
  1
HATCH
  2
AcDbHatch
  3
AutoCAD 2000
 90
        0
280
     0
281
     1
  0
CLASS
  1
XRECORD
  2
AcDbXrecord
  3
AutoCAD 2000
 90
        0
280
     0
281
     0
  0
CLASS
  1
LONG_TRANSACTION
  2
AcDbLongTransaction
  3
AutoCAD 2000
 90
        0
280
     0
281
     0
  0
CLASS
  1
LWPOLYLINE
  2
AcDbPolyline
  3
AutoCAD 2000
 90
        0
280
     0
281
     1
  0
CLASS
  1
HATCH
  2
AcDbHatch
  3
AutoCAD 2000
 90
        0
280
     0
281
     1
  0
CLASS
  1
XRECORD
  2
AcDbXrecord
  3
AutoCAD 2000
 90
        0
280
     0
281
     0
  0
ENDSEC
  0
SECTION
  2
TABLES
  0
TABLE
  2
VPORT
  5
8
330
0
100
AcDbSymbolTable
 70
     2
  0
VPORT
  5
145C
330
8
100
AcDbSymbolTableRecord
100
AcDbViewportTableRecord
  2
*ACTIVE
 70
     0
 10
0.0
 20
0.0
 11
1.0
 21
1.0
 12
415.5336097805324
 22
288.1003614352416
 13
0.0
 23
0.0
 14
5.0
 24
5.0
 15
0.0
 25
0.0
 16
0.0
 26
0.0
 36
1.0
 17
0.0
 27
0.0
 37
0.0
 40
600.6122997134938
 41
1.752310536044362
 42
50.0
 43
0.0
 44
0.0
 50
0.0
 51
0.0
 71
     0
 72
   100
 73
     1
 74
     0
 75
     0
 76
     0
 77
     0
 78
     0
  0
ENDTAB
  0
TABLE
  2
LTYPE
  5
5
330
0
100
AcDbSymbolTable
 70
     4
  0
LTYPE
  5
14
330
5
100
AcDbSymbolTableRecord
100
AcDbLinetypeTableRecord
  2
BYBLOCK
 70
     0
  3

 72
    65
 73
     0
 40
0.0
  0
LTYPE
  5
15
330
5
100
AcDbSymbolTableRecord
100
AcDbLinetypeTableRecord
  2
BYLAYER
 70
     0
  3

 72
    65
 73
     0
 40
0.0
  0
LTYPE
  5
16
330
5
100
AcDbSymbolTableRecord
100
AcDbLinetypeTableRecord
  2
CONTINUOUS
 70
     0
  3
Solid line
 72
    65
 73
     0
 40
0.0
  0
LTYPE
  5
115
330
5
100
AcDbSymbolTableRecord
100
AcDbLinetypeTableRecord
  2
PHANTOM
 70
     0
  3
______  __  __  ______  __  __  ______  __  __ 
 72
    65
 73
     6
 40
2.5
 49
1.25
 74
     0
 49
-0.25
 74
     0
 49
0.25
 74
     0
 49
-0.25
 74
     0
 49
0.25
 74
     0
 49
-0.25
 74
     0
  0
LTYPE
  5
135
330
5
100
AcDbSymbolTableRecord
100
AcDbLinetypeTableRecord
  2
CENTER
 70
     0
  3
____ _ ____ _ ____ _ ____ _ ____ _ ____ _ ____ 
 72
    65
 73
     4
 40
2.0
 49
1.25
 74
     0
 49
-0.25
 74
     0
 49
0.25
 74
     0
 49
-0.25
 74
     0
  0
LTYPE
  5
9F0
330
5
100
AcDbSymbolTableRecord
100
AcDbLinetypeTableRecord
  2
HIDDEN
 70
     0
  3
__ __ __ __ __ __ __ __ __ __ __ __ __ __ __ __
 72
    65
 73
     2
 40
0.375
 49
0.25
 74
     0
 49
-0.125
 74
     0
  0
ENDTAB
  0
TABLE
  2
LAYER
  5
2
330
0
100
AcDbSymbolTable
 70
     9
  0
LAYER
  5
F
330
2
100
AcDbSymbolTableRecord
100
AcDbLayerTableRecord
  2
0
 70
     0
 62
     7
  6
CONTINUOUS
  0
LAYER
  5
62
330
2
100
AcDbSymbolTableRecord
100
AcDbLayerTableRecord
  2
VIEWPORT
 70
     0
 62
     7
  6
CONTINUOUS
  0
LAYER
  5
65
330
2
100
AcDbSymbolTableRecord
100
AcDbLayerTableRecord
  2
ZUWAKU
 70
     0
 62
     7
  6
CONTINUOUS
  0
LAYER
  5
1D7
330
2
100
AcDbSymbolTableRecord
100
AcDbLayerTableRecord
  2
SEIHIN
 70
     0
 62
     3
  6
CONTINUOUS
  0
LAYER
  5
1D8
330
2
100
AcDbSymbolTableRecord
100
AcDbLayerTableRecord
  2
CENTER_L
 70
     0
 62
     1
  6
CENTER
  0
LAYER
  5
1D9
330
2
100
AcDbSymbolTableRecord
100
AcDbLayerTableRecord
  2
SUNPOU
 70
     0
 62
     4
  6
CONTINUOUS
  0
LAYER
  5
1DA
330
2
100
AcDbSymbolTableRecord
100
AcDbLayerTableRecord
  2
DEFPOINTS
 70
     0
 62
     7
  6
CONTINUOUS
  0
LAYER
  5
6A8
330
2
100
AcDbSymbolTableRecord
100
AcDbLayerTableRecord
  2
NOKITOI
 70
     0
 62
     8
  6
PHANTOM
  0
LAYER
  5
1167
330
2
100
AcDbSymbolTableRecord
100
AcDbLayerTableRecord
  2
MOJI
 70
     0
 62
     2
  6
CONTINUOUS
  0
ENDTAB
  0
TABLE
  2
STYLE
  5
3
330
0
100
AcDbSymbolTable
 70
     2
  0
STYLE
  5
10
330
3
100
AcDbSymbolTableRecord
100
AcDbTextStyleTableRecord
  2
STANDARD
 70
     0
 40
0.0
 41
1.0
 50
0.0
 71
     0
 42
5.0
  3
TXT
  4
a:\program files\autocad lt\ms\bigfont.shx
  0
STYLE
  5
1168
330
3
100
AcDbSymbolTableRecord
100
AcDbTextStyleTableRecord
  2
ｽﾀｲﾙ1
 70
     0
 40
0.0
 41
1.0
 50
0.0
 71
     0
 42
2.5
  3
MS PGothic.ttf
  4

1001
ACAD
1000
MS PGothic
1071
    32818
  0
ENDTAB
  0
TABLE
  2
VIEW
  5
6
330
0
100
AcDbSymbolTable
 70
     0
  0
ENDTAB
  0
TABLE
  2
UCS
  5
7
330
0
100
AcDbSymbolTable
 70
     0
  0
ENDTAB
  0
TABLE
  2
APPID
  5
9
330
0
100
AcDbSymbolTable
 70
     1
  0
APPID
  5
11
330
9
100
AcDbSymbolTableRecord
100
AcDbRegAppTableRecord
  2
ACAD
 70
     0
  0
ENDTAB
  0
TABLE
  2
DIMSTYLE
  5
A
330
0
100
AcDbSymbolTable
 70
     1
  0
DIMSTYLE
105
1D
102
{ACAD_REACTORS
330
584
330
591
330
5AB
330
5E0
330
5FA
330
61A
330
627
330
81D
330
844
330
8C4
330
8D1
330
8DE
330
8F2
330
FE7
330
A4C
330
A5B
330
A62
330
A55
330
A54
330
13E5
102
}
330
A
100
AcDbSymbolTableRecord
100
AcDbDimStyleTableRecord
  2
STANDARD
 70
     0
  3

  4

  5

  6

  7

 40
1.0
 41
0.18
 42
0.0625
 43
0.38
 44
0.18
 45
0.0
 46
0.0
 47
0.0
 48
0.0
140
0.18
141
0.09
142
0.0
143
25.4
144
1.0
145
0.0
146
1.0
147
0.09
 71
     0
 72
     0
 73
     1
 74
     1
 75
     0
 76
     0
 77
     0
 78
     0
170
     0
171
     2
172
     0
173
     0
174
     0
175
     0
176
     0
177
     0
178
     0
270
     2
271
     4
272
     4
273
     2
274
     2
340
10
275
     0
280
     0
281
     0
282
     0
283
     1
284
     0
285
     0
286
     0
287
     3
288
     0
  0
ENDTAB
  0
TABLE
  2
BLOCK_RECORD
  5
1
330
0
100
AcDbSymbolTable
 70
    21
  0
BLOCK_RECORD
  5
1A
102
{ACAD_XDICTIONARY
360
B17
102
}
330
1
100
AcDbSymbolTableRecord
100
AcDbBlockTableRecord
  2
*MODEL_SPACE
  0
BLOCK_RECORD
  5
17
102
{ACAD_XDICTIONARY
360
B15
102
}
330
1
100
AcDbSymbolTableRecord
100
AcDbBlockTableRecord
  2
*PAPER_SPACE
  0
BLOCK_RECORD
  5
6D
330
1
100
AcDbSymbolTableRecord
100
AcDbBlockTableRecord
  2
_OPEN
  0
BLOCK_RECORD
  5
576
330
1
100
AcDbSymbolTableRecord
100
AcDbBlockTableRecord
  2
*D1
  0
BLOCK_RECORD
  5
585
330
1
100
AcDbSymbolTableRecord
100
AcDbBlockTableRecord
  2
*D2
  0
BLOCK_RECORD
  5
59F
330
1
100
AcDbSymbolTableRecord
100
AcDbBlockTableRecord
  2
*D3
  0
BLOCK_RECORD
  5
5D4
330
1
100
AcDbSymbolTableRecord
100
AcDbBlockTableRecord
  2
*D4
  0
BLOCK_RECORD
  5
5EE
330
1
100
AcDbSymbolTableRecord
100
AcDbBlockTableRecord
  2
*D5
  0
BLOCK_RECORD
  5
60E
330
1
100
AcDbSymbolTableRecord
100
AcDbBlockTableRecord
  2
*D6
  0
BLOCK_RECORD
  5
61B
330
1
100
AcDbSymbolTableRecord
100
AcDbBlockTableRecord
  2
*D7
  0
BLOCK_RECORD
  5
811
330
1
100
AcDbSymbolTableRecord
100
AcDbBlockTableRecord
  2
*D8
  0
BLOCK_RECORD
  5
836
330
1
100
AcDbSymbolTableRecord
100
AcDbBlockTableRecord
  2
*D9
  0
BLOCK_RECORD
  5
8B8
330
1
100
AcDbSymbolTableRecord
100
AcDbBlockTableRecord
  2
*D10
  0
BLOCK_RECORD
  5
8C5
330
1
100
AcDbSymbolTableRecord
100
AcDbBlockTableRecord
  2
*D11
  0
BLOCK_RECORD
  5
8D2
330
1
100
AcDbSymbolTableRecord
100
AcDbBlockTableRecord
  2
*D12
  0
BLOCK_RECORD
  5
8E4
330
1
100
AcDbSymbolTableRecord
100
AcDbBlockTableRecord
  2
*D13
  0
BLOCK_RECORD
  5
A77
330
1
100
AcDbSymbolTableRecord
100
AcDbBlockTableRecord
  2
*D14
  0
BLOCK_RECORD
  5
A83
330
1
100
AcDbSymbolTableRecord
100
AcDbBlockTableRecord
  2
*D15
  0
BLOCK_RECORD
  5
A91
330
1
100
AcDbSymbolTableRecord
100
AcDbBlockTableRecord
  2
*D16
  0
BLOCK_RECORD
  5
A9F
330
1
100
AcDbSymbolTableRecord
100
AcDbBlockTableRecord
  2
*D17
  0
BLOCK_RECORD
  5
AAB
330
1
100
AcDbSymbolTableRecord
100
AcDbBlockTableRecord
  2
*D18
  0
BLOCK_RECORD
  5
FE8
330
1
100
AcDbSymbolTableRecord
100
AcDbBlockTableRecord
  2
*D19
  0
BLOCK_RECORD
  5
13E6
330
1
100
AcDbSymbolTableRecord
100
AcDbBlockTableRecord
  2
*D20
  0
ENDTAB
  0
ENDSEC
  0
SECTION
  2
BLOCKS
  0
BLOCK
  5
1B
330
1A
100
AcDbEntity
  8
0
100
AcDbBlockBegin
  2
*MODEL_SPACE
 70
     0
 10
0.0
 20
0.0
 30
0.0
  3
*MODEL_SPACE
  1

  0
ENDBLK
  5
1C
330
1A
100
AcDbEntity
  8
0
100
AcDbBlockEnd
  0
BLOCK
  5
18
330
17
100
AcDbEntity
 67
     1
  8
0
100
AcDbBlockBegin
  2
*PAPER_SPACE
 70
     0
 10
0.0
 20
0.0
 30
0.0
  3
*PAPER_SPACE
  1

  0
ENDBLK
  5
19
330
17
100
AcDbEntity
 67
     1
  8
0
100
AcDbBlockEnd
  0
BLOCK
  5
6E
330
6D
100
AcDbEntity
  8
0
100
AcDbBlockBegin
  2
_OPEN
 70
     0
 10
0.0
 20
0.0
 30
0.0
  3
_OPEN
  1

  0
LINE
  5
6F
330
6D
100
AcDbEntity
  8
0
  6
BYBLOCK
 62
     0
100
AcDbLine
 10
-1.0
 20
0.1666666666666666
 30
0.0
 11
0.0
 21
0.0
 31
0.0
  0
LINE
  5
70
330
6D
100
AcDbEntity
  8
0
  6
BYBLOCK
 62
     0
100
AcDbLine
 10
0.0
 20
0.0
 30
0.0
 11
-1.0
 21
-0.1666666666666666
 31
0.0
  0
LINE
  5
71
330
6D
100
AcDbEntity
  8
0
  6
BYBLOCK
 62
     0
100
AcDbLine
 10
0.0
 20
0.0
 30
0.0
 11
-1.0
 21
0.0
 31
0.0
  0
ENDBLK
  5
72
330
6D
100
AcDbEntity
  8
0
100
AcDbBlockEnd
  0
BLOCK
  5
577
330
576
100
AcDbEntity
  8
0
100
AcDbBlockBegin
  2
*D1
 70
     1
 10
0.0
 20
0.0
 30
0.0
  3
*D1
  1

  0
LINE
  5
1288
330
576
100
AcDbEntity
  8
SUNPOU
100
AcDbLine
 10
580.8118760259816
 20
180.6273558399076
 30
0.0
 11
580.8118760259816
 21
199.7782880465795
 31
0.0
  0
LINE
  5
1289
330
576
100
AcDbEntity
  8
SUNPOU
100
AcDbLine
 10
597.5578450259817
 20
113.6028378399076
 30
0.0
 11
597.5578450259817
 21
199.7782880465795
 31
0.0
  0
LINE
  5
128A
330
576
100
AcDbEntity
  8
SUNPOU
100
AcDbLine
 10
573.8118760259816
 20
196.7782880465795
 30
0.0
 11
566.8118760259816
 21
196.7782880465795
 31
0.0
  0
LINE
  5
128B
330
576
100
AcDbEntity
  8
SUNPOU
100
AcDbLine
 10
604.5578450259816
 20
196.7782880465795
 30
0.0
 11
611.5578450259817
 21
196.7782880465795
 31
0.0
  0
LINE
  5
128C
330
576
100
AcDbEntity
  8
SUNPOU
100
AcDbLine
 10
580.8118760259816
 20
196.7782880465795
 30
0.0
 11
597.5578450259817
 21
196.7782880465795
 31
0.0
  0
INSERT
  5
128D
330
576
100
AcDbEntity
  8
SUNPOU
100
AcDbBlockReference
  2
_OPEN
 10
580.8118760259816
 20
196.7782880465795
 30
0.0
 41
7.0
 42
7.0
 43
7.0
  0
INSERT
  5
128E
330
576
100
AcDbEntity
  8
SUNPOU
100
AcDbBlockReference
  2
_OPEN
 10
597.5578450259817
 20
196.7782880465795
 30
0.0
 41
7.0
 42
7.0
 43
7.0
 50
180.0
  0
MTEXT
  5
128F
330
576
100
AcDbEntity
  8
SUNPOU
100
AcDbMText
 10
589.1848605259816
 20
201.7782880465795
 30
0.0
 40
6.0
 41
0.0
 71
     5
 72
     1
  1
\A1;17
1001
ACAD
1000
MTEXTBEGIN
1070
    73
1070
     1
1070
    44
1040
1.0
1070
    74
1070
     0
1000
MTEXTEND
  0
POINT
  5
1290
330
576
100
AcDbEntity
  8
DEFPOINTS
 62
     0
100
AcDbPoint
 10
580.8118760259816
 20
174.6273558399076
 30
0.0
  0
POINT
  5
1291
330
576
100
AcDbEntity
  8
DEFPOINTS
 62
     0
100
AcDbPoint
 10
597.5578450259817
 20
107.6028378399076
 30
0.0
  0
POINT
  5
1292
330
576
100
AcDbEntity
  8
DEFPOINTS
 62
     0
100
AcDbPoint
 10
597.5578450259817
 20
196.7782880465795
 30
0.0
  0
ENDBLK
  5
583
330
576
100
AcDbEntity
  8
0
100
AcDbBlockEnd
  0
BLOCK
  5
586
330
585
100
AcDbEntity
  8
0
100
AcDbBlockBegin
  2
*D2
 70
     1
 10
0.0
 20
0.0
 30
0.0
  3
*D2
  1

  0
LINE
  5
1262
330
585
100
AcDbEntity
  8
SUNPOU
100
AcDbLine
 10
649.6681110259816
 20
245.2967958399075
 30
0.0
 11
694.5537152891283
 21
245.2967958399075
 31
0.0
  0
LINE
  5
1263
330
585
100
AcDbEntity
  8
SUNPOU
100
AcDbLine
 10
586.8118760259816
 20
150.3043987851517
 30
0.0
 11
694.5537152891283
 21
150.3043987851517
 31
0.0
  0
LINE
  5
1264
330
585
100
AcDbEntity
  8
SUNPOU
100
AcDbLine
 10
691.5537152891284
 20
238.2967958399075
 30
0.0
 11
691.5537152891284
 21
157.3043987851517
 31
0.0
  0
INSERT
  5
1265
330
585
100
AcDbEntity
  8
SUNPOU
100
AcDbBlockReference
  2
_OPEN
 10
691.5537152891284
 20
245.2967958399075
 30
0.0
 41
7.0
 42
7.0
 43
7.0
 50
90.0
  0
INSERT
  5
1266
330
585
100
AcDbEntity
  8
SUNPOU
100
AcDbBlockReference
  2
_OPEN
 10
691.5537152891284
 20
150.3043987851517
 30
0.0
 41
7.0
 42
7.0
 43
7.0
 50
270.0
  0
MTEXT
  5
1267
330
585
100
AcDbEntity
  8
SUNPOU
100
AcDbMText
 10
686.5537152891284
 20
197.8005973125297
 30
0.0
 40
6.0
 41
0.0
 71
     5
 72
     1
  1
\A1;95
 11
0.0000000000000001
 21
1.0
 31
0.0
1001
ACAD
1000
MTEXTBEGIN
1070
    73
1070
     1
1070
    44
1040
1.0
1070
    74
1070
     0
1000
MTEXTEND
  0
POINT
  5
1268
330
585
100
AcDbEntity
  8
DEFPOINTS
 62
     0
100
AcDbPoint
 10
643.6681110259817
 20
245.2967958399075
 30
0.0
  0
POINT
  5
1269
330
585
100
AcDbEntity
  8
DEFPOINTS
 62
     0
100
AcDbPoint
 10
580.8118760259816
 20
150.3043987851517
 30
0.0
  0
POINT
  5
126A
330
585
100
AcDbEntity
  8
DEFPOINTS
 62
     0
100
AcDbPoint
 10
691.5537152891284
 20
150.3043987851517
 30
0.0
  0
ENDBLK
  5
590
330
585
100
AcDbEntity
  8
0
100
AcDbBlockEnd
  0
BLOCK
  5
5A0
330
59F
100
AcDbEntity
  8
0
100
AcDbBlockBegin
  2
*D3
 70
     1
 10
0.0
 20
0.0
 30
0.0
  3
*D3
  1

  0
LINE
  5
1259
330
59F
100
AcDbEntity
  8
SUNPOU
100
AcDbLine
 10
499.7989770259817
 20
295.3955118399076
 30
0.0
 11
440.7123253051677
 21
295.3955118399076
 31
0.0
  0
LINE
  5
125A
330
59F
100
AcDbEntity
  8
SUNPOU
100
AcDbLine
 10
574.8118760259816
 20
150.3043987851517
 30
0.0
 11
440.7123253051677
 21
150.3043987851518
 31
0.0
  0
LINE
  5
125B
330
59F
100
AcDbEntity
  8
SUNPOU
100
AcDbLine
 10
443.7123253051677
 20
288.3955118399076
 30
0.0
 11
443.7123253051677
 21
157.3043987851518
 31
0.0
  0
INSERT
  5
125C
330
59F
100
AcDbEntity
  8
SUNPOU
100
AcDbBlockReference
  2
_OPEN
 10
443.7123253051677
 20
295.3955118399076
 30
0.0
 41
7.0
 42
7.0
 43
7.0
 50
90.0
  0
INSERT
  5
125D
330
59F
100
AcDbEntity
  8
SUNPOU
100
AcDbBlockReference
  2
_OPEN
 10
443.7123253051677
 20
150.3043987851518
 30
0.0
 41
7.0
 42
7.0
 43
7.0
 50
270.0
  0
MTEXT
  5
125E
330
59F
100
AcDbEntity
  8
SUNPOU
100
AcDbMText
 10
438.7123253051676
 20
222.8499553125298
 30
0.0
 40
6.0
 41
0.0
 71
     5
 72
     1
  1
\A1;145
 11
0.0000000000000001
 21
1.0
 31
0.0
1001
ACAD
1000
MTEXTBEGIN
1070
    73
1070
     1
1070
    44
1040
1.0
1070
    74
1070
     0
1000
MTEXTEND
  0
POINT
  5
125F
330
59F
100
AcDbEntity
  8
DEFPOINTS
 62
     0
100
AcDbPoint
 10
505.7989770259816
 20
295.3955118399076
 30
0.0
  0
POINT
  5
1260
330
59F
100
AcDbEntity
  8
DEFPOINTS
 62
     0
100
AcDbPoint
 10
580.8118760259816
 20
150.3043987851517
 30
0.0
  0
POINT
  5
1261
330
59F
100
AcDbEntity
  8
DEFPOINTS
 62
     0
100
AcDbPoint
 10
443.7123253051677
 20
150.3043987851518
 30
0.0
  0
ENDBLK
  5
5AA
330
59F
100
AcDbEntity
  8
0
100
AcDbBlockEnd
  0
BLOCK
  5
85F
330
5D4
100
AcDbEntity
  8
0
100
AcDbBlockBegin
  2
*D4
 70
     1
 10
0.0
 20
0.0
 30
0.0
  3
*D4
  1

  0
LINE
  5
122C
330
5D4
100
AcDbEntity
  8
SUNPOU
100
AcDbLine
 10
112.4802410259817
 20
302.0005228399076
 30
0.0
 11
112.4802410259817
 21
322.6894187825034
 31
0.0
  0
LINE
  5
122D
330
5D4
100
AcDbEntity
  8
SUNPOU
100
AcDbLine
 10
342.4802410259817
 20
302.0005228399076
 30
0.0
 11
342.4802410259817
 21
322.6894187825034
 31
0.0
  0
LINE
  5
122E
330
5D4
100
AcDbEntity
  8
SUNPOU
100
AcDbLine
 10
119.4802410259817
 20
319.6894187825034
 30
0.0
 11
335.4802410259817
 21
319.6894187825034
 31
0.0
  0
INSERT
  5
122F
330
5D4
100
AcDbEntity
  8
SUNPOU
100
AcDbBlockReference
  2
_OPEN
 10
112.4802410259817
 20
319.6894187825034
 30
0.0
 41
7.0
 42
7.0
 43
7.0
 50
180.0
  0
INSERT
  5
1230
330
5D4
100
AcDbEntity
  8
SUNPOU
100
AcDbBlockReference
  2
_OPEN
 10
342.4802410259817
 20
319.6894187825034
 30
0.0
 41
7.0
 42
7.0
 43
7.0
  0
MTEXT
  5
1231
330
5D4
100
AcDbEntity
  8
SUNPOU
100
AcDbMText
 10
227.4802410259817
 20
324.6894187825034
 30
0.0
 40
6.0
 41
0.0
 71
     5
 72
     1
  1
\A1;230
1001
ACAD
1000
MTEXTBEGIN
1070
    73
1070
     1
1070
    44
1040
1.0
1070
    74
1070
     0
1000
MTEXTEND
  0
POINT
  5
1232
330
5D4
100
AcDbEntity
  8
DEFPOINTS
 62
     0
100
AcDbPoint
 10
112.4802410259817
 20
296.0005228399076
 30
0.0
  0
POINT
  5
1233
330
5D4
100
AcDbEntity
  8
DEFPOINTS
 62
     0
100
AcDbPoint
 10
342.4802410259817
 20
296.0005228399076
 30
0.0
  0
POINT
  5
1234
330
5D4
100
AcDbEntity
  8
DEFPOINTS
 62
     0
100
AcDbPoint
 10
342.4802410259817
 20
319.6894187825034
 30
0.0
  0
ENDBLK
  5
869
330
5D4
100
AcDbEntity
  8
0
100
AcDbBlockEnd
  0
BLOCK
  5
5EF
330
5EE
100
AcDbEntity
  8
0
100
AcDbBlockBegin
  2
*D5
 70
     1
 10
0.0
 20
0.0
 30
0.0
  3
*D5
  1

  0
LINE
  5
1250
330
5EE
100
AcDbEntity
  8
SUNPOU
100
AcDbLine
 10
651.1596220259816
 20
246.4400518399076
 30
0.0
 11
651.1596220259816
 21
333.891834408231
 31
0.0
  0
LINE
  5
1251
330
5EE
100
AcDbEntity
  8
SUNPOU
100
AcDbLine
 10
489.4247670259816
 20
218.3481588399076
 30
0.0
 11
489.4247670259816
 21
333.891834408231
 31
0.0
  0
LINE
  5
1252
330
5EE
100
AcDbEntity
  8
SUNPOU
100
AcDbLine
 10
644.1596220259817
 20
330.891834408231
 30
0.0
 11
496.4247670259816
 21
330.891834408231
 31
0.0
  0
INSERT
  5
1253
330
5EE
100
AcDbEntity
  8
SUNPOU
100
AcDbBlockReference
  2
_OPEN
 10
651.1596220259816
 20
330.891834408231
 30
0.0
 41
7.0
 42
7.0
 43
7.0
  0
INSERT
  5
1254
330
5EE
100
AcDbEntity
  8
SUNPOU
100
AcDbBlockReference
  2
_OPEN
 10
489.4247670259816
 20
330.891834408231
 30
0.0
 41
7.0
 42
7.0
 43
7.0
 50
180.0
  0
MTEXT
  5
1255
330
5EE
100
AcDbEntity
  8
SUNPOU
100
AcDbMText
 10
570.2921945259816
 20
335.891834408231
 30
0.0
 40
6.0
 41
0.0
 71
     5
 72
     1
  1
\A1;162
1001
ACAD
1000
MTEXTBEGIN
1070
    73
1070
     1
1070
    44
1040
1.0
1070
    74
1070
     0
1000
MTEXTEND
  0
POINT
  5
1256
330
5EE
100
AcDbEntity
  8
DEFPOINTS
 62
     0
100
AcDbPoint
 10
651.1596220259816
 20
240.4400518399075
 30
0.0
  0
POINT
  5
1257
330
5EE
100
AcDbEntity
  8
DEFPOINTS
 62
     0
100
AcDbPoint
 10
489.4247670259816
 20
212.3481588399076
 30
0.0
  0
POINT
  5
1258
330
5EE
100
AcDbEntity
  8
DEFPOINTS
 62
     0
100
AcDbPoint
 10
489.4247670259816
 20
330.891834408231
 30
0.0
  0
ENDBLK
  5
5F9
330
5EE
100
AcDbEntity
  8
0
100
AcDbBlockEnd
  0
BLOCK
  5
86A
330
60E
100
AcDbEntity
  8
0
100
AcDbBlockBegin
  2
*D6
 70
     1
 10
0.0
 20
0.0
 30
0.0
  3
*D6
  1

  0
LINE
  5
1235
330
60E
100
AcDbEntity
  8
SUNPOU
100
AcDbLine
 10
342.4802410259817
 20
366.5278391395438
 30
0.0
 11
342.4802410259817
 21
341.6175829726296
 31
0.0
  0
LINE
  5
1236
330
60E
100
AcDbEntity
  8
SUNPOU
100
AcDbLine
 10
269.9802410259817
 20
382.4020491395437
 30
0.0
 11
269.9802410259817
 21
341.6175829726296
 31
0.0
  0
LINE
  5
1237
330
60E
100
AcDbEntity
  8
SUNPOU
100
AcDbLine
 10
335.4802410259817
 20
344.6175829726296
 30
0.0
 11
276.9802410259817
 21
344.6175829726296
 31
0.0
  0
INSERT
  5
1238
330
60E
100
AcDbEntity
  8
SUNPOU
100
AcDbBlockReference
  2
_OPEN
 10
342.4802410259817
 20
344.6175829726296
 30
0.0
 41
7.0
 42
7.0
 43
7.0
  0
INSERT
  5
1239
330
60E
100
AcDbEntity
  8
SUNPOU
100
AcDbBlockReference
  2
_OPEN
 10
269.9802410259817
 20
344.6175829726296
 30
0.0
 41
7.0
 42
7.0
 43
7.0
 50
180.0
  0
MTEXT
  5
123A
330
60E
100
AcDbEntity
  8
SUNPOU
100
AcDbMText
 10
306.2302410259817
 20
349.6175829726296
 30
0.0
 40
6.0
 41
0.0
 71
     5
 72
     1
  1
\A1;※a 73
1001
ACAD
1000
MTEXTBEGIN
1070
    73
1070
     1
1070
    44
1040
1.0
1070
    74
1070
     0
1000
MTEXTEND
  0
POINT
  5
123B
330
60E
100
AcDbEntity
  8
DEFPOINTS
 62
     0
100
AcDbPoint
 10
342.4802410259817
 20
372.5278391395438
 30
0.0
  0
POINT
  5
123C
330
60E
100
AcDbEntity
  8
DEFPOINTS
 62
     0
100
AcDbPoint
 10
269.9802410259817
 20
388.4020491395437
 30
0.0
  0
POINT
  5
123D
330
60E
100
AcDbEntity
  8
DEFPOINTS
 62
     0
100
AcDbPoint
 10
269.9802410259817
 20
344.6175829726296
 30
0.0
  0
ENDBLK
  5
874
330
60E
100
AcDbEntity
  8
0
100
AcDbBlockEnd
  0
BLOCK
  5
875
330
61B
100
AcDbEntity
  8
0
100
AcDbBlockBegin
  2
*D7
 70
     1
 10
0.0
 20
0.0
 30
0.0
  3
*D7
  1

  0
LINE
  5
123E
330
61B
100
AcDbEntity
  8
SUNPOU
100
AcDbLine
 10
269.9802410259817
 20
382.4020491395437
 30
0.0
 11
269.9802410259817
 21
341.6175829726296
 31
0.0
  0
LINE
  5
123F
330
61B
100
AcDbEntity
  8
SUNPOU
100
AcDbLine
 10
184.9802410259817
 20
382.4020491395437
 30
0.0
 11
184.9802410259817
 21
341.6175829726296
 31
0.0
  0
LINE
  5
1240
330
61B
100
AcDbEntity
  8
SUNPOU
100
AcDbLine
 10
262.9802410259817
 20
344.6175829726296
 30
0.0
 11
191.9802410259817
 21
344.6175829726296
 31
0.0
  0
INSERT
  5
1241
330
61B
100
AcDbEntity
  8
SUNPOU
100
AcDbBlockReference
  2
_OPEN
 10
269.9802410259817
 20
344.6175829726296
 30
0.0
 41
7.0
 42
7.0
 43
7.0
  0
INSERT
  5
1242
330
61B
100
AcDbEntity
  8
SUNPOU
100
AcDbBlockReference
  2
_OPEN
 10
184.9802410259817
 20
344.6175829726296
 30
0.0
 41
7.0
 42
7.0
 43
7.0
 50
180.0
  0
MTEXT
  5
1243
330
61B
100
AcDbEntity
  8
SUNPOU
100
AcDbMText
 10
227.4802410259817
 20
349.6175829726296
 30
0.0
 40
6.0
 41
0.0
 71
     5
 72
     1
  1
\A1;85
1001
ACAD
1000
MTEXTBEGIN
1070
    73
1070
     1
1070
    44
1040
1.0
1070
    74
1070
     0
1000
MTEXTEND
  0
POINT
  5
1244
330
61B
100
AcDbEntity
  8
DEFPOINTS
 62
     0
100
AcDbPoint
 10
269.9802410259817
 20
388.4020491395437
 30
0.0
  0
POINT
  5
1245
330
61B
100
AcDbEntity
  8
DEFPOINTS
 62
     0
100
AcDbPoint
 10
184.9802410259817
 20
388.4020491395437
 30
0.0
  0
POINT
  5
1246
330
61B
100
AcDbEntity
  8
DEFPOINTS
 62
     0
100
AcDbPoint
 10
184.9802410259817
 20
344.6175829726296
 30
0.0
  0
ENDBLK
  5
87F
330
61B
100
AcDbEntity
  8
0
100
AcDbBlockEnd
  0
BLOCK
  5
812
330
811
100
AcDbEntity
  8
0
100
AcDbBlockBegin
  2
*D8
 70
     1
 10
0.0
 20
0.0
 30
0.0
  3
*D8
  1

  0
LINE
  5
1247
330
811
100
AcDbEntity
  8
SUNPOU
100
AcDbLine
 10
309.2643580259817
 20
426.7381201395438
 30
0.0
 11
309.2643580259817
 21
432.7113844576238
 31
0.0
  0
LINE
  5
1248
330
811
100
AcDbEntity
  8
SUNPOU
100
AcDbLine
 10
342.4802410259817
 20
426.7381201395438
 30
0.0
 11
342.4802410259817
 21
432.7113844576238
 31
0.0
  0
LINE
  5
1249
330
811
100
AcDbEntity
  8
SUNPOU
100
AcDbLine
 10
316.2643580259817
 20
429.7113844576237
 30
0.0
 11
335.4802410259817
 21
429.7113844576237
 31
0.0
  0
INSERT
  5
124A
330
811
100
AcDbEntity
  8
SUNPOU
100
AcDbBlockReference
  2
_OPEN
 10
309.2643580259817
 20
429.7113844576237
 30
0.0
 41
7.0
 42
7.0
 43
7.0
 50
180.0
  0
INSERT
  5
124B
330
811
100
AcDbEntity
  8
SUNPOU
100
AcDbBlockReference
  2
_OPEN
 10
342.4802410259817
 20
429.7113844576237
 30
0.0
 41
7.0
 42
7.0
 43
7.0
  0
MTEXT
  5
124C
330
811
100
AcDbEntity
  8
SUNPOU
100
AcDbMText
 10
325.8722995259816
 20
434.7113844576238
 30
0.0
 40
6.0
 41
0.0
 71
     5
 72
     1
  1
\A1;33
1001
ACAD
1000
MTEXTBEGIN
1070
    73
1070
     1
1070
    44
1040
1.0
1070
    74
1070
     0
1000
MTEXTEND
  0
POINT
  5
124D
330
811
100
AcDbEntity
  8
DEFPOINTS
 62
     0
100
AcDbPoint
 10
309.2643580259817
 20
420.7381201395437
 30
0.0
  0
POINT
  5
124E
330
811
100
AcDbEntity
  8
DEFPOINTS
 62
     0
100
AcDbPoint
 10
342.4802410259817
 20
420.7381201395437
 30
0.0
  0
POINT
  5
124F
330
811
100
AcDbEntity
  8
DEFPOINTS
 62
     0
100
AcDbPoint
 10
342.4802410259817
 20
429.7113844576237
 30
0.0
  0
ENDBLK
  5
81C
330
811
100
AcDbEntity
  8
0
100
AcDbBlockEnd
  0
BLOCK
  5
837
330
836
100
AcDbEntity
  8
0
100
AcDbBlockBegin
  2
*D9
 70
     1
 10
0.0
 20
0.0
 30
0.0
  3
*D9
  1

  0
LINE
  5
127F
330
836
100
AcDbEntity
  8
SUNPOU
100
AcDbLine
 10
574.8118760259816
 20
150.3043987851517
 30
0.0
 11
440.7123253051677
 21
150.3043987851518
 31
0.0
  0
LINE
  5
1280
330
836
100
AcDbEntity
  8
SUNPOU
100
AcDbLine
 10
544.8039690259816
 20
130.3043988399076
 30
0.0
 11
440.7123253051677
 21
130.3043988399076
 31
0.0
  0
LINE
  5
1281
330
836
100
AcDbEntity
  8
SUNPOU
100
AcDbLine
 10
443.7123253051677
 20
143.3043987851518
 30
0.0
 11
443.7123253051677
 21
137.3043988399076
 31
0.0
  0
INSERT
  5
1282
330
836
100
AcDbEntity
  8
SUNPOU
100
AcDbBlockReference
  2
_OPEN
 10
443.7123253051677
 20
150.3043987851518
 30
0.0
 41
7.0
 42
7.0
 43
7.0
 50
90.0
  0
INSERT
  5
1283
330
836
100
AcDbEntity
  8
SUNPOU
100
AcDbBlockReference
  2
_OPEN
 10
443.7123253051677
 20
130.3043988399076
 30
0.0
 41
7.0
 42
7.0
 43
7.0
 50
270.0
  0
MTEXT
  5
1284
330
836
100
AcDbEntity
  8
SUNPOU
100
AcDbMText
 10
438.7123253051676
 20
140.3043988125298
 30
0.0
 40
6.0
 41
0.0
 71
     5
 72
     1
  1
\A1;20
 11
0.0000000000000001
 21
1.0
 31
0.0
1001
ACAD
1000
MTEXTBEGIN
1070
    73
1070
     1
1070
    44
1040
1.0
1070
    74
1070
     0
1000
MTEXTEND
  0
POINT
  5
1285
330
836
100
AcDbEntity
  8
DEFPOINTS
 62
     0
100
AcDbPoint
 10
580.8118760259816
 20
150.3043987851517
 30
0.0
  0
POINT
  5
1286
330
836
100
AcDbEntity
  8
DEFPOINTS
 62
     0
100
AcDbPoint
 10
550.8039690259817
 20
130.3043988399076
 30
0.0
  0
POINT
  5
1287
330
836
100
AcDbEntity
  8
DEFPOINTS
 62
     0
100
AcDbPoint
 10
443.7123253051677
 20
130.3043988399076
 30
0.0
  0
ENDBLK
  5
843
330
836
100
AcDbEntity
  8
0
100
AcDbBlockEnd
  0
BLOCK
  5
8B9
330
8B8
100
AcDbEntity
  8
0
100
AcDbBlockBegin
  2
*D10
 70
     1
 10
0.0
 20
0.0
 30
0.0
  3
*D10
  1

  0
LINE
  5
1276
330
8B8
100
AcDbEntity
  8
SUNPOU
100
AcDbLine
 10
544.8039690259816
 20
130.3043988399076
 30
0.0
 11
440.7123253051677
 21
130.3043988399076
 31
0.0
  0
LINE
  5
1277
330
8B8
100
AcDbEntity
  8
SUNPOU
100
AcDbLine
 10
556.557810043995
 20
75.80449883995635
 30
0.0
 11
440.7123253051677
 21
75.8044988399564
 31
0.0
  0
LINE
  5
1278
330
8B8
100
AcDbEntity
  8
SUNPOU
100
AcDbLine
 10
443.7123253051677
 20
123.3043988399076
 30
0.0
 11
443.7123253051677
 21
82.8044988399564
 31
0.0
  0
INSERT
  5
1279
330
8B8
100
AcDbEntity
  8
SUNPOU
100
AcDbBlockReference
  2
_OPEN
 10
443.7123253051677
 20
130.3043988399076
 30
0.0
 41
7.0
 42
7.0
 43
7.0
 50
90.0
  0
INSERT
  5
127A
330
8B8
100
AcDbEntity
  8
SUNPOU
100
AcDbBlockReference
  2
_OPEN
 10
443.7123253051677
 20
75.8044988399564
 30
0.0
 41
7.0
 42
7.0
 43
7.0
 50
270.0
  0
MTEXT
  5
127B
330
8B8
100
AcDbEntity
  8
SUNPOU
100
AcDbMText
 10
438.7123253051677
 20
103.054448839932
 30
0.0
 40
6.0
 41
0.0
 71
     5
 72
     1
  1
\A1;54
 11
0.0000000000000001
 21
1.0
 31
0.0
1001
ACAD
1000
MTEXTBEGIN
1070
    73
1070
     1
1070
    44
1040
1.0
1070
    74
1070
     0
1000
MTEXTEND
  0
POINT
  5
127C
330
8B8
100
AcDbEntity
  8
DEFPOINTS
 62
     0
100
AcDbPoint
 10
550.8039690259817
 20
130.3043988399076
 30
0.0
  0
POINT
  5
127D
330
8B8
100
AcDbEntity
  8
DEFPOINTS
 62
     0
100
AcDbPoint
 10
562.5578100439951
 20
75.80449883995635
 30
0.0
  0
POINT
  5
127E
330
8B8
100
AcDbEntity
  8
DEFPOINTS
 62
     0
100
AcDbPoint
 10
443.7123253051677
 20
75.8044988399564
 30
0.0
  0
ENDBLK
  5
8C3
330
8B8
100
AcDbEntity
  8
0
100
AcDbBlockEnd
  0
BLOCK
  5
8C6
330
8C5
100
AcDbEntity
  8
0
100
AcDbBlockBegin
  2
*D11
 70
     1
 10
0.0
 20
0.0
 30
0.0
  3
*D11
  1

  0
LINE
  5
1223
330
8C5
100
AcDbEntity
  8
SUNPOU
100
AcDbLine
 10
348.4802410259817
 20
296.0005228399076
 30
0.0
 11
407.69728313926
 21
296.0005228399075
 31
0.0
  0
LINE
  5
1224
330
8C5
100
AcDbEntity
  8
SUNPOU
100
AcDbLine
 10
262.6804060439951
 20
69.80433283927135
 30
0.0
 11
407.6972831392599
 21
69.80433283927131
 31
0.0
  0
LINE
  5
1225
330
8C5
100
AcDbEntity
  8
SUNPOU
100
AcDbLine
 10
404.69728313926
 20
289.0005228399076
 30
0.0
 11
404.6972831392599
 21
76.80433283927131
 31
0.0
  0
INSERT
  5
1226
330
8C5
100
AcDbEntity
  8
SUNPOU
100
AcDbBlockReference
  2
_OPEN
 10
404.69728313926
 20
296.0005228399075
 30
0.0
 41
7.0
 42
7.0
 43
7.0
 50
90.0
  0
INSERT
  5
1227
330
8C5
100
AcDbEntity
  8
SUNPOU
100
AcDbBlockReference
  2
_OPEN
 10
404.6972831392599
 20
69.80433283927131
 30
0.0
 41
7.0
 42
7.0
 43
7.0
 50
270.0
  0
MTEXT
  5
1228
330
8C5
100
AcDbEntity
  8
SUNPOU
100
AcDbMText
 10
399.69728313926
 20
182.9024278395895
 30
0.0
 40
6.0
 41
0.0
 71
     5
 72
     1
  1
\A1;226
 11
0.0000000000000001
 21
1.0
 31
0.0
1001
ACAD
1000
MTEXTBEGIN
1070
    73
1070
     1
1070
    44
1040
1.0
1070
    74
1070
     0
1000
MTEXTEND
  0
POINT
  5
1229
330
8C5
100
AcDbEntity
  8
DEFPOINTS
 62
     0
100
AcDbPoint
 10
342.4802410259817
 20
296.0005228399076
 30
0.0
  0
POINT
  5
122A
330
8C5
100
AcDbEntity
  8
DEFPOINTS
 62
     0
100
AcDbPoint
 10
256.6804060439951
 20
69.80433283927135
 30
0.0
  0
POINT
  5
122B
330
8C5
100
AcDbEntity
  8
DEFPOINTS
 62
     0
100
AcDbPoint
 10
404.6972831392599
 20
69.80433283927131
 30
0.0
  0
ENDBLK
  5
8D0
330
8C5
100
AcDbEntity
  8
0
100
AcDbBlockEnd
  0
BLOCK
  5
8D3
330
8D2
100
AcDbEntity
  8
0
100
AcDbBlockBegin
  2
*D12
 70
     1
 10
0.0
 20
0.0
 30
0.0
  3
*D12
  1

  0
LINE
  5
12D6
330
8D2
100
AcDbEntity
  8
SUNPOU
100
AcDbLine
 10
262.4803355341622
 20
69.80433283958632
 30
0.0
 11
262.4803355341622
 21
33.99757609782932
 31
0.0
  0
LINE
  5
12D7
330
8D2
100
AcDbEntity
  8
SUNPOU
100
AcDbLine
 10
192.4802060439951
 20
69.80453283995638
 30
0.0
 11
192.4802060439951
 21
33.99757609782932
 31
0.0
  0
LINE
  5
12D8
330
8D2
100
AcDbEntity
  8
SUNPOU
100
AcDbLine
 10
255.4803355341622
 20
36.99757609782932
 30
0.0
 11
199.4802060439951
 21
36.99757609782932
 31
0.0
  0
INSERT
  5
12D9
330
8D2
100
AcDbEntity
  8
SUNPOU
100
AcDbBlockReference
  2
_OPEN
 10
262.4803355341622
 20
36.99757609782932
 30
0.0
 41
7.0
 42
7.0
 43
7.0
  0
INSERT
  5
12DA
330
8D2
100
AcDbEntity
  8
SUNPOU
100
AcDbBlockReference
  2
_OPEN
 10
192.4802060439951
 20
36.99757609782932
 30
0.0
 41
7.0
 42
7.0
 43
7.0
 50
180.0
  0
MTEXT
  5
12DB
330
8D2
100
AcDbEntity
  8
SUNPOU
100
AcDbMText
 10
227.4802707890787
 20
41.99757609782932
 30
0.0
 40
6.0
 41
0.0
 71
     5
 72
     1
  1
\A1;70
1001
ACAD
1000
MTEXTBEGIN
1070
    73
1070
     1
1070
    44
1040
1.0
1070
    74
1070
     0
1000
MTEXTEND
  0
POINT
  5
12DC
330
8D2
100
AcDbEntity
  8
DEFPOINTS
 62
     0
100
AcDbPoint
 10
262.4803355341622
 20
75.80433283958632
 30
0.0
  0
POINT
  5
12DD
330
8D2
100
AcDbEntity
  8
DEFPOINTS
 62
     0
100
AcDbPoint
 10
192.4802060439951
 20
75.80453283995638
 30
0.0
  0
POINT
  5
12DE
330
8D2
100
AcDbEntity
  8
DEFPOINTS
 62
     0
100
AcDbPoint
 10
192.4802060439951
 20
36.99757609782932
 30
0.0
  0
ENDBLK
  5
8DD
330
8D2
100
AcDbEntity
  8
0
100
AcDbBlockEnd
  0
BLOCK
  5
90D
330
8E4
100
AcDbEntity
  8
0
100
AcDbBlockBegin
  2
*D13
 70
     1
 10
0.0
 20
0.0
 30
0.0
  3
*D13
  1

  0
LINE
  5
126B
330
8E4
100
AcDbEntity
  8
SUNPOU
100
AcDbLine
 10
556.557810043995
 20
75.80449883995635
 30
0.0
 11
506.2163447322164
 21
75.80449883995637
 31
0.0
  0
LINE
  5
126C
330
8E4
100
AcDbEntity
  8
SUNPOU
100
AcDbLine
 10
554.7187723775892
 20
85.8045040943905
 30
0.0
 11
506.2163447322164
 21
85.80450409439052
 31
0.0
  0
LINE
  5
126D
330
8E4
100
AcDbEntity
  8
SUNPOU
100
AcDbLine
 10
509.2163447322163
 20
68.80449883995637
 30
0.0
 11
509.2163447322163
 21
61.80449883995636
 31
0.0
  0
LINE
  5
126E
330
8E4
100
AcDbEntity
  8
SUNPOU
100
AcDbLine
 10
509.2163447322163
 20
92.80450409439053
 30
0.0
 11
509.2163447322163
 21
124.8045040943905
 31
0.0
  0
LINE
  5
126F
330
8E4
100
AcDbEntity
  8
SUNPOU
100
AcDbLine
 10
509.2163447322163
 20
75.80449883995637
 30
0.0
 11
509.2163447322163
 21
85.80450409439052
 31
0.0
  0
INSERT
  5
1270
330
8E4
100
AcDbEntity
  8
SUNPOU
100
AcDbBlockReference
  2
_OPEN
 10
509.2163447322163
 20
75.80449883995637
 30
0.0
 41
7.0
 42
7.0
 43
7.0
 50
90.0
  0
INSERT
  5
1271
330
8E4
100
AcDbEntity
  8
SUNPOU
100
AcDbBlockReference
  2
_OPEN
 10
509.2163447322163
 20
85.80450409439052
 30
0.0
 41
7.0
 42
7.0
 43
7.0
 50
270.0
  0
MTEXT
  5
1272
330
8E4
100
AcDbEntity
  8
SUNPOU
100
AcDbMText
 10
504.2163447322163
 20
112.3045040943906
 30
0.0
 40
6.0
 41
0.0
 71
     5
 72
     1
  1
\A1;※ｂ10
 11
0.0000000000000001
 21
1.0
 31
0.0
1001
ACAD
1000
MTEXTBEGIN
1070
    73
1070
     1
1070
    44
1040
1.0
1070
    74
1070
     0
1000
MTEXTEND
  0
POINT
  5
1273
330
8E4
100
AcDbEntity
  8
DEFPOINTS
 62
     0
100
AcDbPoint
 10
562.5578100439951
 20
75.80449883995635
 30
0.0
  0
POINT
  5
1274
330
8E4
100
AcDbEntity
  8
DEFPOINTS
 62
     0
100
AcDbPoint
 10
560.7187723775893
 20
85.8045040943905
 30
0.0
  0
POINT
  5
1275
330
8E4
100
AcDbEntity
  8
DEFPOINTS
 62
     0
100
AcDbPoint
 10
509.2163447322163
 20
85.80450409439052
 30
0.0
  0
ENDBLK
  5
919
330
8E4
100
AcDbEntity
  8
0
100
AcDbBlockEnd
  0
BLOCK
  5
A81
330
A77
100
AcDbEntity
  8
0
100
AcDbBlockBegin
  2
*D14
 70
     1
 10
0.0
 20
0.0
 30
0.0
  3
*D14
  1

  0
LINE
  5
1480
330
A77
100
AcDbEntity
  8
SUNPOU
100
AcDbLine
 10
581.9079164515203
 20
474.8845839342106
 30
0.0
 11
599.9633762813991
 21
474.8845839342106
 31
0.0
  0
LINE
  5
1481
330
A77
100
AcDbEntity
  8
SUNPOU
100
AcDbLine
 10
582.9791635015083
 20
459.8871252343798
 30
0.0
 11
599.9633762813991
 21
459.8871252343798
 31
0.0
  0
LINE
  5
1482
330
A77
100
AcDbEntity
  8
SUNPOU
100
AcDbLine
 10
596.9633762813991
 20
481.8845839342105
 30
0.0
 11
596.9633762813991
 21
488.8845839342105
 31
0.0
  0
LINE
  5
1483
330
A77
100
AcDbEntity
  8
SUNPOU
100
AcDbLine
 10
596.9633762813991
 20
452.8871252343797
 30
0.0
 11
596.9633762813991
 21
445.8871252343798
 31
0.0
  0
LINE
  5
1484
330
A77
100
AcDbEntity
  8
SUNPOU
100
AcDbLine
 10
596.9633762813991
 20
474.8845839342106
 30
0.0
 11
596.9633762813991
 21
459.8871252343798
 31
0.0
  0
INSERT
  5
1485
330
A77
100
AcDbEntity
  8
SUNPOU
100
AcDbBlockReference
  2
_OPEN
 10
596.9633762813991
 20
474.8845839342106
 30
0.0
 41
7.0
 42
7.0
 43
7.0
 50
270.0
  0
INSERT
  5
1486
330
A77
100
AcDbEntity
  8
SUNPOU
100
AcDbBlockReference
  2
_OPEN
 10
596.9633762813991
 20
459.8871252343798
 30
0.0
 41
7.0
 42
7.0
 43
7.0
 50
90.0
  0
MTEXT
  5
1487
330
A77
100
AcDbEntity
  8
SUNPOU
100
AcDbMText
 10
591.963376281399
 20
467.3858545842953
 30
0.0
 40
6.0
 41
0.0
 71
     5
 72
     1
  1
\A1;15
 11
0.0000000000000001
 21
1.0
 31
0.0
  0
POINT
  5
1488
330
A77
100
AcDbEntity
  8
DEFPOINTS
 62
     0
100
AcDbPoint
 10
575.9079164515203
 20
474.8845839342106
 30
0.0
  0
POINT
  5
1489
330
A77
100
AcDbEntity
  8
DEFPOINTS
 62
     0
100
AcDbPoint
 10
576.9791635015082
 20
459.8871252343798
 30
0.0
  0
POINT
  5
148A
330
A77
100
AcDbEntity
  8
DEFPOINTS
 62
     0
100
AcDbPoint
 10
596.9633762813991
 20
459.8871252343798
 30
0.0
  0
ENDBLK
  5
A82
330
A77
100
AcDbEntity
  8
0
100
AcDbBlockEnd
  0
BLOCK
  5
A8F
330
A83
100
AcDbEntity
  8
0
100
AcDbBlockBegin
  2
*D15
 70
     1
 10
0.0
 20
0.0
 30
0.0
  3
*D15
  1

  0
LINE
  5
148B
330
A83
100
AcDbEntity
  8
SUNPOU
100
AcDbLine
 10
651.8407501251827
 20
452.670416982773
 30
0.0
 11
651.8407501251827
 21
440.1750496190531
 31
0.0
  0
LINE
  5
148C
330
A83
100
AcDbEntity
  8
SUNPOU
100
AcDbLine
 10
653.5689501251827
 20
465.2003169827729
 30
0.0
 11
653.5689501251827
 21
440.1750496190531
 31
0.0
  0
LINE
  5
148D
330
A83
100
AcDbEntity
  8
SUNPOU
100
AcDbLine
 10
644.8407501251827
 20
443.175049619053
 30
0.0
 11
637.8407501251826
 21
443.175049619053
 31
0.0
  0
LINE
  5
148E
330
A83
100
AcDbEntity
  8
SUNPOU
100
AcDbLine
 10
660.5689501251827
 20
443.175049619053
 30
0.0
 11
667.5689501251826
 21
443.175049619053
 31
0.0
  0
MTEXT
  5
148F
330
A83
100
AcDbEntity
  8
SUNPOU
100
AcDbMText
 10
652.7048501251827
 20
428.1750496190531
 30
0.0
 40
6.0
 41
0.0
 71
     5
 72
     1
  1
\A1;2
  0
LINE
  5
1490
330
A83
100
AcDbEntity
  8
SUNPOU
100
AcDbLine
 10
651.8407501251827
 20
443.175049619053
 30
0.0
 11
653.5689501251827
 21
443.175049619053
 31
0.0
  0
INSERT
  5
1491
330
A83
100
AcDbEntity
  8
SUNPOU
100
AcDbBlockReference
  2
_OPEN
 10
651.8407501251827
 20
443.175049619053
 30
0.0
 41
7.0
 42
7.0
 43
7.0
  0
INSERT
  5
1492
330
A83
100
AcDbEntity
  8
SUNPOU
100
AcDbBlockReference
  2
_OPEN
 10
653.5689501251827
 20
443.175049619053
 30
0.0
 41
7.0
 42
7.0
 43
7.0
 50
180.0
  0
POINT
  5
1493
330
A83
100
AcDbEntity
  8
DEFPOINTS
 62
     0
100
AcDbPoint
 10
651.8407501251827
 20
458.6704169827729
 30
0.0
  0
POINT
  5
1494
330
A83
100
AcDbEntity
  8
DEFPOINTS
 62
     0
100
AcDbPoint
 10
653.5689501251827
 20
471.2003169827729
 30
0.0
  0
POINT
  5
1495
330
A83
100
AcDbEntity
  8
DEFPOINTS
 62
     0
100
AcDbPoint
 10
653.5689501251827
 20
443.175049619053
 30
0.0
  0
ENDBLK
  5
A90
330
A83
100
AcDbEntity
  8
0
100
AcDbBlockEnd
  0
BLOCK
  5
A9D
330
A91
100
AcDbEntity
  8
0
100
AcDbBlockBegin
  2
*D16
 70
     1
 10
0.0
 20
0.0
 30
0.0
  3
*D16
  1

  0
LINE
  5
1496
330
A91
100
AcDbEntity
  8
SUNPOU
100
AcDbLine
 10
659.0698501251827
 20
471.6704169827729
 30
0.0
 11
679.4413845253104
 21
471.6704169827729
 31
0.0
  0
LINE
  5
1497
330
A91
100
AcDbEntity
  8
SUNPOU
100
AcDbLine
 10
662.3407501251826
 20
466.6704169827729
 30
0.0
 11
679.4413845253104
 21
466.6704169827729
 31
0.0
  0
LINE
  5
1498
330
A91
100
AcDbEntity
  8
SUNPOU
100
AcDbLine
 10
676.4413845253105
 20
478.6704169827729
 30
0.0
 11
676.4413845253105
 21
485.6704169827729
 31
0.0
  0
LINE
  5
1499
330
A91
100
AcDbEntity
  8
SUNPOU
100
AcDbLine
 10
676.4413845253105
 20
459.6704169827729
 30
0.0
 11
676.4413845253105
 21
452.670416982773
 31
0.0
  0
MTEXT
  5
149A
330
A91
100
AcDbEntity
  8
SUNPOU
100
AcDbMText
 10
683.2319008059526
 20
470.3259004255414
 30
0.0
 40
6.0
 41
0.0
 71
     5
 72
     1
  1
\A1;差込み寸法5
 11
0.0000000000000001
 21
1.0
 31
0.0
  0
LINE
  5
149B
330
A91
100
AcDbEntity
  8
SUNPOU
100
AcDbLine
 10
676.4413845253105
 20
471.6704169827729
 30
0.0
 11
676.4413845253105
 21
466.6704169827729
 31
0.0
  0
INSERT
  5
149C
330
A91
100
AcDbEntity
  8
SUNPOU
100
AcDbBlockReference
  2
_OPEN
 10
676.4413845253105
 20
471.6704169827729
 30
0.0
 41
7.0
 42
7.0
 43
7.0
 50
270.0
  0
INSERT
  5
149D
330
A91
100
AcDbEntity
  8
SUNPOU
100
AcDbBlockReference
  2
_OPEN
 10
676.4413845253105
 20
466.6704169827729
 30
0.0
 41
7.0
 42
7.0
 43
7.0
 50
90.0
  0
POINT
  5
149E
330
A91
100
AcDbEntity
  8
DEFPOINTS
 62
     0
100
AcDbPoint
 10
653.0698501251826
 20
471.6704169827729
 30
0.0
  0
POINT
  5
149F
330
A91
100
AcDbEntity
  8
DEFPOINTS
 62
     0
100
AcDbPoint
 10
656.3407501251827
 20
466.6704169827729
 30
0.0
  0
POINT
  5
14A0
330
A91
100
AcDbEntity
  8
DEFPOINTS
 62
     0
100
AcDbPoint
 10
676.4413845253105
 20
466.6704169827729
 30
0.0
  0
ENDBLK
  5
A9E
330
A91
100
AcDbEntity
  8
0
100
AcDbBlockEnd
  0
BLOCK
  5
AA9
330
A9F
100
AcDbEntity
  8
0
100
AcDbBlockBegin
  2
*D17
 70
     1
 10
0.0
 20
0.0
 30
0.0
  3
*D17
  1

  0
LINE
  5
14A1
330
A9F
100
AcDbEntity
  8
SUNPOU
100
AcDbLine
 10
645.9871967345894
 20
471.5239703733661
 30
0.0
 11
630.4537058298572
 21
471.5239703733662
 31
0.0
  0
LINE
  5
14A2
330
A9F
100
AcDbEntity
  8
SUNPOU
100
AcDbLine
 10
645.8407501251826
 20
458.6704169827729
 30
0.0
 11
630.4537058298572
 21
458.670416982773
 31
0.0
  0
LINE
  5
14A3
330
A9F
100
AcDbEntity
  8
SUNPOU
100
AcDbLine
 10
633.4537058298572
 20
478.5239703733662
 30
0.0
 11
633.4537058298572
 21
485.5239703733662
 31
0.0
  0
LINE
  5
14A4
330
A9F
100
AcDbEntity
  8
SUNPOU
100
AcDbLine
 10
633.4537058298572
 20
451.670416982773
 30
0.0
 11
633.4537058298572
 21
444.670416982773
 31
0.0
  0
LINE
  5
14A5
330
A9F
100
AcDbEntity
  8
SUNPOU
100
AcDbLine
 10
633.4537058298572
 20
471.5239703733662
 30
0.0
 11
633.4537058298572
 21
458.670416982773
 31
0.0
  0
INSERT
  5
14A6
330
A9F
100
AcDbEntity
  8
SUNPOU
100
AcDbBlockReference
  2
_OPEN
 10
633.4537058298572
 20
471.5239703733662
 30
0.0
 41
7.0
 42
7.0
 43
7.0
 50
270.0
  0
INSERT
  5
14A7
330
A9F
100
AcDbEntity
  8
SUNPOU
100
AcDbBlockReference
  2
_OPEN
 10
633.4537058298572
 20
458.670416982773
 30
0.0
 41
7.0
 42
7.0
 43
7.0
 50
90.0
  0
MTEXT
  5
14A8
330
A9F
100
AcDbEntity
  8
SUNPOU
100
AcDbMText
 10
628.453705829857
 20
465.0971936780696
 30
0.0
 40
6.0
 41
0.0
 71
     5
 72
     1
  1
\A1;13
 11
0.0000000000000001
 21
1.0
 31
0.0
  0
POINT
  5
14A9
330
A9F
100
AcDbEntity
  8
DEFPOINTS
 62
     0
100
AcDbPoint
 10
651.9871967345895
 20
471.5239703733661
 30
0.0
  0
POINT
  5
14AA
330
A9F
100
AcDbEntity
  8
DEFPOINTS
 62
     0
100
AcDbPoint
 10
651.8407501251827
 20
458.6704169827729
 30
0.0
  0
POINT
  5
14AB
330
A9F
100
AcDbEntity
  8
DEFPOINTS
 62
     0
100
AcDbPoint
 10
633.4537058298572
 20
458.670416982773
 30
0.0
  0
ENDBLK
  5
AAA
330
A9F
100
AcDbEntity
  8
0
100
AcDbBlockEnd
  0
BLOCK
  5
AB5
330
AAB
100
AcDbEntity
  8
0
100
AcDbBlockBegin
  2
*D18
 70
     1
 10
0.0
 20
0.0
 30
0.0
  3
*D18
  1

  0
LINE
  5
14AC
330
AAB
100
AcDbEntity
  8
SUNPOU
100
AcDbLine
 10
647.8407501251827
 20
481.1704169827729
 30
0.0
 11
647.8407501251827
 21
493.5300615389893
 31
0.0
  0
LINE
  5
14AD
330
AAB
100
AcDbEntity
  8
SUNPOU
100
AcDbLine
 10
657.2696441251827
 20
481.1704169827729
 30
0.0
 11
657.2696441251827
 21
493.5300615389893
 31
0.0
  0
LINE
  5
14AE
330
AAB
100
AcDbEntity
  8
SUNPOU
100
AcDbLine
 10
640.8407501251827
 20
490.5300615389893
 30
0.0
 11
633.8407501251826
 21
490.5300615389893
 31
0.0
  0
LINE
  5
14AF
330
AAB
100
AcDbEntity
  8
SUNPOU
100
AcDbLine
 10
664.2696441251827
 20
490.5300615389893
 30
0.0
 11
671.2696441251827
 21
490.5300615389893
 31
0.0
  0
LINE
  5
14B0
330
AAB
100
AcDbEntity
  8
SUNPOU
100
AcDbLine
 10
647.8407501251827
 20
490.5300615389893
 30
0.0
 11
657.2696441251827
 21
490.5300615389893
 31
0.0
  0
INSERT
  5
14B1
330
AAB
100
AcDbEntity
  8
SUNPOU
100
AcDbBlockReference
  2
_OPEN
 10
647.8407501251827
 20
490.5300615389893
 30
0.0
 41
7.0
 42
7.0
 43
7.0
  0
INSERT
  5
14B2
330
AAB
100
AcDbEntity
  8
SUNPOU
100
AcDbBlockReference
  2
_OPEN
 10
657.2696441251827
 20
490.5300615389893
 30
0.0
 41
7.0
 42
7.0
 43
7.0
 50
180.0
  0
MTEXT
  5
14B3
330
AAB
100
AcDbEntity
  8
SUNPOU
100
AcDbMText
 10
652.5551971251827
 20
495.5300615389893
 30
0.0
 40
6.0
 41
0.0
 71
     5
 72
     1
  1
\A1;9
  0
POINT
  5
14B4
330
AAB
100
AcDbEntity
  8
DEFPOINTS
 62
     0
100
AcDbPoint
 10
647.8407501251827
 20
475.1704169827729
 30
0.0
  0
POINT
  5
14B5
330
AAB
100
AcDbEntity
  8
DEFPOINTS
 62
     0
100
AcDbPoint
 10
657.2696441251827
 20
475.1704169827729
 30
0.0
  0
POINT
  5
14B6
330
AAB
100
AcDbEntity
  8
DEFPOINTS
 62
     0
100
AcDbPoint
 10
657.2696441251827
 20
490.5300615389893
 30
0.0
  0
ENDBLK
  5
AB6
330
AAB
100
AcDbEntity
  8
0
100
AcDbBlockEnd
  0
BLOCK
  5
FF2
330
FE8
100
AcDbEntity
  8
0
100
AcDbBlockBegin
  2
*D19
 70
     1
 10
0.0
 20
0.0
 30
0.0
  3
*D19
  1

  0
LINE
  5
14B7
330
FE8
100
AcDbEntity
  8
SUNPOU
100
AcDbLine
 10
524.9078164515204
 20
481.8844839342106
 30
0.0
 11
524.9078164515204
 21
493.5300615389893
 31
0.0
  0
LINE
  5
14B8
330
FE8
100
AcDbEntity
  8
SUNPOU
100
AcDbLine
 10
577.9079164515203
 20
481.8845839342105
 30
0.0
 11
577.9079164515203
 21
493.5300615389893
 31
0.0
  0
LINE
  5
14B9
330
FE8
100
AcDbEntity
  8
SUNPOU
100
AcDbLine
 10
531.9078164515203
 20
490.5300615389893
 30
0.0
 11
570.9079164515203
 21
490.5300615389893
 31
0.0
  0
INSERT
  5
14BA
330
FE8
100
AcDbEntity
  8
SUNPOU
100
AcDbBlockReference
  2
_OPEN
 10
524.9078164515204
 20
490.5300615389893
 30
0.0
 41
7.0
 42
7.0
 43
7.0
 50
180.0
  0
INSERT
  5
14BB
330
FE8
100
AcDbEntity
  8
SUNPOU
100
AcDbBlockReference
  2
_OPEN
 10
577.9079164515203
 20
490.5300615389893
 30
0.0
 41
7.0
 42
7.0
 43
7.0
  0
MTEXT
  5
14BC
330
FE8
100
AcDbEntity
  8
SUNPOU
100
AcDbMText
 10
551.4078664515203
 20
495.5300615389893
 30
0.0
 40
6.0
 41
0.0
 71
     5
 72
     1
  1
\A1;53
  0
POINT
  5
14BD
330
FE8
100
AcDbEntity
  8
DEFPOINTS
 62
     0
100
AcDbPoint
 10
524.9078164515204
 20
475.8844839342105
 30
0.0
  0
POINT
  5
14BE
330
FE8
100
AcDbEntity
  8
DEFPOINTS
 62
     0
100
AcDbPoint
 10
577.9079164515203
 20
475.8845839342106
 30
0.0
  0
POINT
  5
14BF
330
FE8
100
AcDbEntity
  8
DEFPOINTS
 62
     0
100
AcDbPoint
 10
577.9079164515203
 20
490.5300615389893
 30
0.0
  0
ENDBLK
  5
FF3
330
FE8
100
AcDbEntity
  8
0
100
AcDbBlockEnd
  0
BLOCK
  5
13F2
330
13E6
100
AcDbEntity
  8
0
100
AcDbBlockBegin
  2
*D20
 70
     1
 10
0.0
 20
0.0
 30
0.0
  3
*D20
  1

  0
LINE
  5
14C0
330
13E6
100
AcDbEntity
  8
SUNPOU
100
AcDbLine
 10
519.9078164515204
 20
476.8844839342106
 30
0.0
 11
499.6795280758438
 21
476.8844839342106
 31
0.0
  0
LINE
  5
14C1
330
13E6
100
AcDbEntity
  8
SUNPOU
100
AcDbLine
 10
519.9078164515204
 20
459.8844839342105
 30
0.0
 11
499.6795280758438
 21
459.8844839342105
 31
0.0
  0
LINE
  5
14C2
330
13E6
100
AcDbEntity
  8
SUNPOU
100
AcDbLine
 10
502.6795280758437
 20
483.8844839342105
 30
0.0
 11
502.6795280758437
 21
490.8844839342106
 31
0.0
  0
LINE
  5
14C3
330
13E6
100
AcDbEntity
  8
SUNPOU
100
AcDbLine
 10
502.6795280758437
 20
452.8844839342106
 30
0.0
 11
502.6795280758437
 21
445.8844839342106
 31
0.0
  0
LINE
  5
14C4
330
13E6
100
AcDbEntity
  8
SUNPOU
100
AcDbLine
 10
502.6795280758437
 20
476.8844839342106
 30
0.0
 11
502.6795280758437
 21
459.8844839342105
 31
0.0
  0
INSERT
  5
14C5
330
13E6
100
AcDbEntity
  8
SUNPOU
100
AcDbBlockReference
  2
_OPEN
 10
502.6795280758437
 20
476.8844839342106
 30
0.0
 41
7.0
 42
7.0
 43
7.0
 50
270.0
  0
INSERT
  5
14C6
330
13E6
100
AcDbEntity
  8
SUNPOU
100
AcDbBlockReference
  2
_OPEN
 10
502.6795280758437
 20
459.8844839342105
 30
0.0
 41
7.0
 42
7.0
 43
7.0
 50
90.0
  0
MTEXT
  5
14C7
330
13E6
100
AcDbEntity
  8
SUNPOU
100
AcDbMText
 10
497.6795280758437
 20
468.3844839342106
 30
0.0
 40
6.0
 41
0.0
 71
     5
 72
     1
  1
\A1;17
 11
0.0000000000000001
 21
1.0
 31
0.0
  0
POINT
  5
14C8
330
13E6
100
AcDbEntity
  8
DEFPOINTS
 62
     0
100
AcDbPoint
 10
525.9078164515203
 20
476.8844839342106
 30
0.0
  0
POINT
  5
14C9
330
13E6
100
AcDbEntity
  8
DEFPOINTS
 62
     0
100
AcDbPoint
 10
525.9078164515203
 20
459.8844839342105
 30
0.0
  0
POINT
  5
14CA
330
13E6
100
AcDbEntity
  8
DEFPOINTS
 62
     0
100
AcDbPoint
 10
502.6795280758437
 20
459.8844839342105
 30
0.0
  0
ENDBLK
  5
13F3
330
13E6
100
AcDbEntity
  8
0
100
AcDbBlockEnd
  0
ENDSEC
  0
SECTION
  2
ENTITIES
  0
ARC
  5
318
330
1A
100
AcDbEntity
  8
SEIHIN
100
AcDbCircle
 10
741.9105090259817
 20
215.0315238399076
 30
0.0
 40
251.0
100
AcDbArc
 50
161.417227
 51
180.6125439999999
  0
ARC
  5
31B
330
1A
100
AcDbEntity
  8
SEIHIN
  6
CONTINUOUS
 62
     3
100
AcDbCircle
 10
741.9105090259817
 20
215.0315238399076
 30
0.0
 40
252.4999999999999
100
AcDbArc
 50
162.18749
 51
180.608905
  0
ARC
  5
31C
330
1A
100
AcDbEntity
  8
SEIHIN
  6
CONTINUOUS
 62
     3
100
AcDbCircle
 10
741.9105090259817
 20
215.0315238399076
 30
0.0
 40
250.0
100
AcDbArc
 50
162.187491
 51
180.213912
  0
LINE
  5
31D
330
1A
100
AcDbEntity
  8
SEIHIN
  6
CONTINUOUS
 62
     3
100
AcDbLine
 10
342.4802410259817
 20
151.7968298399076
 30
0.0
 11
342.4802410259817
 21
296.0005228399076
 31
0.0
  0
LINE
  5
31E
330
1A
100
AcDbEntity
  8
CENTER_L
  6
CENTER
 62
     1
 48
5.0
100
AcDbLine
 10
227.4802410259817
 20
58.30443283990764
 30
0.0
 11
227.4802410259817
 21
307.4512218399076
 31
0.0
  0
LINE
  5
31F
330
1A
100
AcDbEntity
  8
SEIHIN
  6
CONTINUOUS
 62
     3
100
AcDbLine
 10
112.4802410259817
 20
151.7968298399076
 30
0.0
 11
112.4802410259817
 21
296.0005228399076
 31
0.0
  0
ARC
  5
321
330
1A
100
AcDbEntity
  8
SEIHIN
100
AcDbCircle
 10
584.7162130259817
 20
1152.796795839907
 30
0.0
 40
1001.0
100
AcDbArc
 50
266.2968329999999
 51
273.2100829999999
  0
LINE
  5
323
330
1A
100
AcDbEntity
  8
SEIHIN
  6
CONTINUOUS
 62
     3
100
AcDbLine
 10
597.5578450259817
 20
130.3043988399076
 30
0.0
 11
643.1973050259816
 21
130.3043988399076
 31
0.0
  0
ARC
  5
324
330
1A
100
AcDbEntity
  8
SEIHIN
  6
CONTINUOUS
 62
     3
100
AcDbCircle
 10
584.7162130259817
 20
1152.796795839907
 30
0.0
 40
1002.5
100
AcDbArc
 50
266.222438
 51
273.181137
  0
ARC
  5
325
330
1A
100
AcDbEntity
  8
SEIHIN
  6
CONTINUOUS
 62
     3
100
AcDbCircle
 10
584.7162130259817
 20
1152.796795839907
 30
0.0
 40
1000.0
100
AcDbArc
 50
267.1835319999999
 51
273.181137
  0
LINE
  5
32A
330
1A
100
AcDbEntity
  8
SEIHIN
  6
CONTINUOUS
 62
     3
100
AcDbLine
 10
342.4802410259817
 20
212.3481588399076
 30
0.0
 11
227.4802410259817
 21
212.3481588399076
 31
0.0
  0
LINE
  5
32B
330
1A
100
AcDbEntity
  8
SEIHIN
  6
CONTINUOUS
 62
     3
100
AcDbLine
 10
227.4802410259817
 20
130.3044328399076
 30
0.0
 11
298.7820030259817
 21
130.3044328399076
 31
0.0
  0
LINE
  5
32C
330
1A
100
AcDbEntity
  8
SEIHIN
  6
CONTINUOUS
 62
     3
100
AcDbLine
 10
307.4833650259817
 20
150.2968298399076
 30
0.0
 11
227.4802410259817
 21
150.2968298399076
 31
0.0
  0
LINE
  5
32D
330
1A
100
AcDbEntity
  8
SEIHIN
  6
CONTINUOUS
 62
     3
100
AcDbLine
 10
307.4833650259817
 20
152.7129248399076
 30
0.0
 11
227.4802410259817
 21
152.7129248399076
 31
0.0
  0
LINE
  5
32E
330
1A
100
AcDbEntity
  8
SEIHIN
  6
CONTINUOUS
 62
     3
100
AcDbLine
 10
342.4802410259817
 20
207.4968298399076
 30
0.0
 11
227.4802410259817
 21
207.4968298399076
 31
0.0
  0
LINE
  5
332
330
1A
100
AcDbEntity
  8
SEIHIN
  6
CONTINUOUS
 62
     3
100
AcDbLine
 10
142.7245690259817
 20
149.8897728399076
 30
0.0
 11
153.6062600259816
 21
131.7605148399076
 31
0.0
  0
LINE
  5
33F
330
1A
100
AcDbEntity
  8
SEIHIN
  6
CONTINUOUS
 62
     3
100
AcDbLine
 10
227.4802410259817
 20
130.3044328399076
 30
0.0
 11
156.1784810259816
 21
130.3044328399076
 31
0.0
  0
ARC
  5
340
330
1A
100
AcDbEntity
  8
SEIHIN
  6
CONTINUOUS
 62
     3
100
AcDbCircle
 10
156.1784800259816
 20
133.3044328399076
 30
0.0
 40
3.0
100
AcDbArc
 50
210.973352
 51
270.0000109999999
  0
LINE
  5
341
330
1A
100
AcDbEntity
  8
SEIHIN
  6
CONTINUOUS
 62
     3
100
AcDbLine
 10
147.4771170259816
 20
150.2968298399076
 30
0.0
 11
227.4802410259817
 21
150.2968298399076
 31
0.0
  0
LINE
  5
342
330
1A
100
AcDbEntity
  8
SEIHIN
  6
CONTINUOUS
 62
     3
100
AcDbLine
 10
112.4802410259817
 20
207.4968298399076
 30
0.0
 11
227.4802410259817
 21
207.4968298399076
 31
0.0
  0
LINE
  5
343
330
1A
100
AcDbEntity
  8
SEIHIN
  6
CONTINUOUS
 62
     3
100
AcDbLine
 10
147.4771170259816
 20
152.7129248399076
 30
0.0
 11
227.4802410259817
 21
152.7129248399076
 31
0.0
  0
LINE
  5
344
330
1A
100
AcDbEntity
  8
SEIHIN
  6
CONTINUOUS
 62
     3
100
AcDbLine
 10
137.4895970259817
 20
150.5463618399076
 30
0.0
 11
112.4802410259817
 21
151.7968298399076
 31
0.0
  0
LINE
  5
345
330
1A
100
AcDbEntity
  8
SEIHIN
  6
CONTINUOUS
 62
     3
100
AcDbLine
 10
137.4895970259817
 20
152.9624568399076
 30
0.0
 11
112.4802410259817
 21
154.2129248399076
 31
0.0
  0
ARC
  5
346
330
1A
100
AcDbEntity
  8
SEIHIN
  6
CONTINUOUS
 62
     3
100
AcDbCircle
 10
141.8671620259816
 20
149.3751328399076
 30
0.0
 40
1.0
100
AcDbArc
 50
30.973368
 51
88.400653
  0
ARC
  5
347
330
1A
100
AcDbEntity
  8
SEIHIN
  6
CONTINUOUS
 62
     3
100
AcDbCircle
 10
147.4771200259816
 20
350.2968298399076
 30
0.0
 40
200.0
100
AcDbArc
 50
267.137595
 51
269.999999
  0
ARC
  5
348
330
1A
100
AcDbEntity
  8
SEIHIN
  6
CONTINUOUS
 62
     3
100
AcDbCircle
 10
147.4771200259816
 20
352.7129248399076
 30
0.0
 40
200.0
100
AcDbArc
 50
267.137595
 51
269.999999
  0
LINE
  5
349
330
1A
100
AcDbEntity
  8
SEIHIN
  6
CONTINUOUS
 62
     3
100
AcDbLine
 10
112.4802410259817
 20
209.4968298399076
 30
0.0
 11
142.4802410259817
 21
209.4968298399076
 31
0.0
  0
LINE
  5
34A
330
1A
100
AcDbEntity
  8
SEIHIN
  6
CONTINUOUS
 62
     3
100
AcDbLine
 10
142.4802410259817
 20
207.4968298399076
 30
0.0
 11
142.4802410259817
 21
209.4968298399076
 31
0.0
  0
LINE
  5
34B
330
1A
100
AcDbEntity
  8
SEIHIN
  6
CONTINUOUS
 62
     3
100
AcDbLine
 10
112.4802410259817
 20
212.3481588399076
 30
0.0
 11
227.4802410259817
 21
212.3481588399076
 31
0.0
  0
LINE
  5
34E
330
1A
100
AcDbEntity
  8
CENTER_L
  6
CENTER
 62
     1
 48
5.0
100
AcDbLine
 10
580.8118760259816
 20
144.0287668399076
 30
0.0
 11
580.8118760259816
 21
174.6273558399076
 31
0.0
  0
LINE
  5
34F
330
1A
100
AcDbEntity
  8
SEIHIN
  6
CONTINUOUS
 62
     3
100
AcDbLine
 10
537.3297190259815
 20
150.9516338399076
 30
0.0
 11
548.1954230259816
 21
131.8226828399076
 31
0.0
  0
LINE
  5
350
330
1A
100
AcDbEntity
  8
SEIHIN
  6
CONTINUOUS
 62
     3
100
AcDbLine
 10
312.2359140259816
 20
149.8897728399076
 30
0.0
 11
301.3542220259817
 21
131.7605138399076
 31
0.0
  0
ARC
  5
355
330
1A
100
AcDbEntity
  8
SEIHIN
  6
CONTINUOUS
 62
     3
100
AcDbCircle
 10
298.7820020259817
 20
133.3044328399076
 30
0.0
 40
3.0
100
AcDbArc
 50
270.0000059999999
 51
329.02662
  0
LINE
  5
35B
330
1A
100
AcDbEntity
  8
CENTER_L
  6
CENTER
 62
     1
 48
5.0
100
AcDbLine
 10
597.5578450259817
 20
53.24835283990762
 30
0.0
 11
597.5578450259817
 21
107.6028378399076
 31
0.0
  0
LINE
  5
36F
330
1A
100
AcDbEntity
  8
SEIHIN
  6
CONTINUOUS
 62
     3
100
AcDbLine
 10
550.8039690259817
 20
130.3043988399076
 30
0.0
 11
597.5578450259817
 21
130.3043988399076
 31
0.0
  0
ARC
  5
370
330
1A
100
AcDbEntity
  8
SEIHIN
  6
CONTINUOUS
 62
     3
100
AcDbCircle
 10
550.8039700259817
 20
133.3043988399076
 30
0.0
 40
3.0
100
AcDbArc
 50
209.5975909999999
 51
269.999968
  0
ARC
  5
371
330
1A
100
AcDbEntity
  8
SEIHIN
  6
CONTINUOUS
 62
     3
100
AcDbCircle
 10
313.0933200259816
 20
149.3751328399076
 30
0.0
 40
1.0
100
AcDbArc
 50
91.599347
 51
149.026632
  0
ARC
  5
372
330
1A
100
AcDbEntity
  8
SEIHIN
  6
CONTINUOUS
 62
     3
100
AcDbCircle
 10
307.4833620259817
 20
350.2968298399076
 30
0.0
 40
200.0
100
AcDbArc
 50
270.000001
 51
272.8624049999999
  0
ARC
  5
373
330
1A
100
AcDbEntity
  8
SEIHIN
  6
CONTINUOUS
 62
     3
100
AcDbCircle
 10
307.4833620259817
 20
352.7129248399076
 30
0.0
 40
200.0
100
AcDbArc
 50
270.000001
 51
272.8624049999999
  0
LINE
  5
374
330
1A
100
AcDbEntity
  8
SEIHIN
  6
CONTINUOUS
 62
     3
100
AcDbLine
 10
317.4708860259817
 20
152.9624568399076
 30
0.0
 11
342.4802410259817
 21
154.2129248399076
 31
0.0
  0
LINE
  5
375
330
1A
100
AcDbEntity
  8
SEIHIN
  6
CONTINUOUS
 62
     3
100
AcDbLine
 10
317.4708860259817
 20
150.5463618399076
 30
0.0
 11
342.4802410259817
 21
151.7968298399076
 31
0.0
  0
LINE
  5
376
330
1A
100
AcDbEntity
  8
SEIHIN
  6
CONTINUOUS
 62
     3
100
AcDbLine
 10
312.4802410259817
 20
207.4968298399076
 30
0.0
 11
312.4802410259817
 21
209.4968298399076
 31
0.0
  0
LINE
  5
377
330
1A
100
AcDbEntity
  8
SEIHIN
  6
CONTINUOUS
 62
     3
100
AcDbLine
 10
342.4802410259817
 20
209.4968298399076
 30
0.0
 11
312.4802410259817
 21
209.4968298399076
 31
0.0
  0
LINE
  5
378
330
1A
100
AcDbEntity
  8
SEIHIN
  6
CONTINUOUS
 62
     3
100
AcDbLine
 10
515.9118760259816
 20
205.2577068399076
 30
0.0
 11
515.9118760259816
 21
211.7981588399076
 31
0.0
  0
LINE
  5
379
330
1A
100
AcDbEntity
  8
SEIHIN
  6
CONTINUOUS
 62
     3
100
AcDbLine
 10
513.7990300259816
 20
209.3668558399076
 30
0.0
 11
513.5539110259817
 21
212.1685698399076
 31
0.0
  0
ARC
  5
37A
330
1A
100
AcDbEntity
  8
SEIHIN
  6
CONTINUOUS
 62
     3
100
AcDbCircle
 10
584.7162130259817
 20
1152.796795839907
 30
0.0
 40
990.0
100
AcDbArc
 50
266.5627359999999
 51
266.932303
  0
ARC
  5
37B
330
1A
100
AcDbEntity
  8
SEIHIN
  6
CONTINUOUS
 62
     3
100
AcDbCircle
 10
584.7162130259817
 20
1152.796795839907
 30
0.0
 40
1000.0
100
AcDbArc
 50
266.2224389999999
 51
267.1261079999999
  0
ARC
  5
37C
330
1A
100
AcDbEntity
  8
SEIHIN
100
AcDbCircle
 10
750.1836890259816
 20
245.0106778399075
 30
0.0
 40
251.0
100
AcDbArc
 50
188.8521029999999
 51
200.334198
  0
ARC
  5
37D
330
1A
100
AcDbEntity
  8
SEIHIN
  6
CONTINUOUS
 62
     3
100
AcDbCircle
 10
750.1836890259816
 20
245.0106778399075
 30
0.0
 40
252.4999999999999
100
AcDbArc
 50
189.858063
 51
200.635407
  0
ARC
  5
37E
330
1A
100
AcDbEntity
  8
SEIHIN
  6
CONTINUOUS
 62
     3
100
AcDbCircle
 10
750.1836890259816
 20
245.0106778399075
 30
0.0
 40
250.0
100
AcDbArc
 50
189.907353
 51
200.635407
  0
ARC
  5
37F
330
1A
100
AcDbEntity
  8
SEIHIN
  6
CONTINUOUS
 62
     3
100
AcDbCircle
 10
750.1836890259816
 20
245.0106778399075
 30
0.0
 40
240.0
100
AcDbArc
 50
193.430003
 51
199.2423859999999
  0
ARC
  5
380
330
1A
100
AcDbEntity
  8
SEIHIN
100
AcDbCircle
 10
520.4516750259816
 20
159.8743068399076
 30
0.0
 40
6.0
100
AcDbArc
 50
200.334198
 51
266.2968329999999
  0
ARC
  5
381
330
1A
100
AcDbEntity
  8
SEIHIN
  6
CONTINUOUS
 62
     3
100
AcDbCircle
 10
750.1836890259816
 20
245.0106778399075
 30
0.0
 40
250.0
100
AcDbArc
 50
200.635407
 51
200.642399
  0
ARC
  5
382
330
1A
100
AcDbEntity
  8
SEIHIN
  6
CONTINUOUS
 62
     3
100
AcDbCircle
 10
584.7162130259817
 20
1152.796795839907
 30
0.0
 40
1000.0
100
AcDbArc
 50
266.221074
 51
266.2224389999999
  0
ARC
  5
383
330
1A
100
AcDbEntity
  8
SEIHIN
  6
CONTINUOUS
 62
     3
100
AcDbCircle
 10
519.0307310259817
 20
157.9629318399076
 30
0.0
 40
3.0
100
AcDbArc
 50
200.635421
 51
266.222438
  0
ARC
  5
384
330
1A
100
AcDbEntity
  8
SEIHIN
  6
CONTINUOUS
 62
     3
100
AcDbCircle
 10
519.0307310259817
 20
157.9629318399076
 30
0.0
 40
5.5
100
AcDbArc
 50
200.6354229999999
 51
266.222435
  0
ARC
  5
385
330
1A
100
AcDbEntity
  8
SEIHIN
  6
CONTINUOUS
 62
     3
100
AcDbCircle
 10
525.4800770259817
 20
166.5741638399076
 30
0.0
 40
2.0
100
AcDbArc
 50
199.2423859999999
 51
266.5627359999999
  0
LINE
  5
386
330
1A
100
AcDbEntity
  8
SEIHIN
  6
CONTINUOUS
 62
     3
100
AcDbLine
 10
514.1652060259816
 20
205.1814458399076
 30
0.0
 11
514.1079750259816
 21
205.8355928399076
 31
0.0
  0
ARC
  5
387
330
1A
100
AcDbEntity
  8
SEIHIN
  6
CONTINUOUS
 62
     3
100
AcDbCircle
 10
508.1931510259817
 20
214.3492368399076
 30
0.0
 40
7.5
100
AcDbArc
 50
293.9840339999999
 51
319.684799
  0
LINE
  5
388
330
1A
100
AcDbEntity
  8
SEIHIN
  6
CONTINUOUS
 62
     3
100
AcDbLine
 10
507.5118760259816
 20
203.9967958399075
 30
0.0
 11
507.5118760259816
 21
204.9967958399076
 31
0.0
  0
ARC
  5
389
330
1A
100
AcDbEntity
  8
SEIHIN
  6
CONTINUOUS
 62
     3
100
AcDbCircle
 10
515.0368760259816
 20
205.2577068399076
 30
0.0
 40
0.875
100
AcDbArc
 50
180.000011
 51
0.0
  0
ARC
  5
38A
330
1A
100
AcDbEntity
  8
SEIHIN
  6
CONTINUOUS
 62
     3
100
AcDbCircle
 10
508.2869090259817
 20
213.9667168399076
 30
0.0
 40
10.0
100
AcDbArc
 50
265.554931
 51
319.684799
  0
ARC
  5
38B
330
1A
100
AcDbEntity
  8
SEIHIN
  6
CONTINUOUS
 62
     3
100
AcDbCircle
 10
513.9118760259816
 20
207.4967958399076
 30
0.0
 40
2.0
100
AcDbArc
 50
0.0
 51
90.0
  0
ARC
  5
38C
330
1A
100
AcDbEntity
  8
SEIHIN
  6
CONTINUOUS
 62
     3
100
AcDbCircle
 10
514.8013270259816
 20
188.8044178399076
 30
0.0
 40
2.0
100
AcDbArc
 50
13.430003
 51
90.0
  0
ARC
  5
38D
330
1A
100
AcDbEntity
  8
SEIHIN
  6
CONTINUOUS
 62
     3
100
AcDbCircle
 10
504.7313580259817
 20
203.9967958399075
 30
0.0
 40
3.5
100
AcDbArc
 50
90.00000900000001
 51
185.0
  0
LINE
  5
38E
330
1A
100
AcDbEntity
  8
SEIHIN
  6
CONTINUOUS
 62
     3
100
AcDbLine
 10
503.9118760259817
 20
203.9967968399076
 30
0.0
 11
503.9118760259817
 21
201.9967958399075
 31
0.0
  0
ARC
  5
38F
330
1A
100
AcDbEntity
  8
SEIHIN
  6
CONTINUOUS
 62
     3
100
AcDbCircle
 10
504.9118760259816
 20
203.9967958399075
 30
0.0
 40
1.0
100
AcDbArc
 50
90.0
 51
180.0
  0
LINE
  5
390
330
1A
100
AcDbEntity
  8
SEIHIN
  6
CONTINUOUS
 62
     3
100
AcDbLine
 10
501.4118760259816
 20
201.7806538399076
 30
0.0
 11
501.2446770259816
 21
203.6917508399076
 31
0.0
  0
LINE
  5
391
330
1A
100
AcDbEntity
  8
SEIHIN
  6
CONTINUOUS
 62
     3
100
AcDbLine
 10
503.9118760259817
 20
201.7981588399076
 30
0.0
 11
503.9118760259817
 21
203.7981588399076
 31
0.0
  0
ARC
  5
392
330
1A
100
AcDbEntity
  8
SEIHIN
  6
CONTINUOUS
 62
     3
100
AcDbCircle
 10
506.9346520259816
 20
191.8044178399076
 30
0.0
 40
1.0
100
AcDbArc
 50
192.338083
 51
270.0
  0
LINE
  5
393
330
1A
100
AcDbEntity
  8
SEIHIN
  6
CONTINUOUS
 62
     3
100
AcDbLine
 10
511.2417660259817
 20
207.4967958399076
 30
0.0
 11
504.7313570259816
 21
207.4967958399076
 31
0.0
  0
LINE
  5
394
330
1A
100
AcDbEntity
  8
SEIHIN
  6
CONTINUOUS
 62
     3
100
AcDbLine
 10
507.5118760259816
 20
204.9967958399076
 30
0.0
 11
504.9118760259816
 21
204.9967958399076
 31
0.0
  0
LINE
  5
395
330
1A
100
AcDbEntity
  8
SEIHIN
  6
CONTINUOUS
 62
     3
100
AcDbLine
 10
514.8013270259816
 20
190.8044178399076
 30
0.0
 11
506.9346520259816
 21
190.8044178399076
 31
0.0
  0
ARC
  5
396
330
1A
100
AcDbEntity
  8
SEIHIN
  6
CONTINUOUS
 62
     3
100
AcDbCircle
 10
543.3223420259817
 20
161.6608078399076
 30
0.0
 40
2.0
100
AcDbArc
 50
29.597617
 51
87.60848499999999
  0
LINE
  5
397
330
1A
100
AcDbEntity
  8
SEIHIN
  6
CONTINUOUS
 62
     3
100
AcDbLine
 10
545.0613730259816
 20
162.6486188399076
 30
0.0
 11
550.3213580259816
 21
153.3884738399076
 31
0.0
  0
ARC
  5
398
330
1A
100
AcDbEntity
  8
SEIHIN
  6
CONTINUOUS
 62
     3
100
AcDbCircle
 10
535.6285110259817
 20
155.0035318399076
 30
0.0
 40
1.0
100
AcDbArc
 50
267.183289
 51
0.0
  0
ARC
  5
399
330
1A
100
AcDbEntity
  8
SEIHIN
  6
CONTINUOUS
 62
     3
100
AcDbCircle
 10
534.6285110259818
 20
155.0532308399076
 30
0.0
 40
1.0
100
AcDbArc
 50
180.0
 51
267.126089
  0
ARC
  5
39A
330
1A
100
AcDbEntity
  8
SEIHIN
  6
CONTINUOUS
 62
     3
100
AcDbCircle
 10
584.7162130259817
 20
1152.796795839907
 30
0.0
 40
1000.0
100
AcDbArc
 50
267.1261079999999
 51
267.1835319999999
  0
ARC
  5
39B
330
1A
100
AcDbEntity
  8
SEIHIN
  6
CONTINUOUS
 62
     3
100
AcDbCircle
 10
536.4602040259817
 20
150.4577278399076
 30
0.0
 40
1.0
100
AcDbArc
 50
29.597617
 51
87.24371500000001
  0
LINE
  5
39C
330
1A
100
AcDbEntity
  8
SEIHIN
  6
CONTINUOUS
 62
     3
100
AcDbLine
 10
533.6285110259817
 20
155.0532308399076
 30
0.0
 11
533.6285110259817
 21
162.2183308399076
 31
0.0
  0
LINE
  5
39D
330
1A
100
AcDbEntity
  8
SEIHIN
  6
CONTINUOUS
 62
     3
100
AcDbLine
 10
536.6285110259817
 20
155.0035318399076
 30
0.0
 11
536.6285110259817
 21
161.8679778399076
 31
0.0
  0
ARC
  5
39E
330
1A
100
AcDbEntity
  8
SEIHIN
  6
CONTINUOUS
 62
     3
100
AcDbCircle
 10
531.6285110259817
 20
162.2183308399076
 30
0.0
 40
2.0
100
AcDbArc
 50
0.0
 51
86.93230300000001
  0
ARC
  5
39F
330
1A
100
AcDbEntity
  8
SEIHIN
  6
CONTINUOUS
 62
     3
100
AcDbCircle
 10
538.6285110259818
 20
161.8679778399076
 30
0.0
 40
2.0
100
AcDbArc
 50
87.337115
 51
180.0
  0
ARC
  5
3A0
330
1A
100
AcDbEntity
  8
SEIHIN
  6
CONTINUOUS
 62
     3
100
AcDbCircle
 10
584.7162130259817
 20
1152.796795839907
 30
0.0
 40
990.0
100
AcDbArc
 50
267.3371149999999
 51
267.608485
  0
ARC
  5
3A1
330
1A
100
AcDbEntity
  8
SEIHIN
  6
CONTINUOUS
 62
     3
100
AcDbCircle
 10
509.3200840259817
 20
211.7981588399076
 30
0.0
 40
4.25
100
AcDbArc
 50
5.0
 51
90.0
  0
ARC
  5
3A2
330
1A
100
AcDbEntity
  8
SEIHIN
  6
CONTINUOUS
 62
     3
100
AcDbCircle
 10
493.0122510259817
 20
215.0981588399075
 30
0.0
 40
1.0
100
AcDbArc
 50
270.0
 51
0.0
  0
LINE
  5
3A3
330
1A
100
AcDbEntity
  8
SEIHIN
  6
CONTINUOUS
 62
     3
100
AcDbLine
 10
491.9122510259817
 20
214.0981588399076
 30
0.0
 11
493.0122510259817
 21
214.0981588399076
 31
0.0
  0
LINE
  5
3A4
330
1A
100
AcDbEntity
  8
SEIHIN
  6
CONTINUOUS
 62
     3
100
AcDbLine
 10
494.0122510259817
 20
215.0981588399075
 30
0.0
 11
494.0122510259817
 21
216.7981588399076
 31
0.0
  0
ARC
  5
3A5
330
1A
100
AcDbEntity
  8
SEIHIN
  6
CONTINUOUS
 62
     3
100
AcDbCircle
 10
495.0122510259816
 20
216.7981588399076
 30
0.0
 40
1.0
100
AcDbArc
 50
90.000014
 51
179.999989
  0
LINE
  5
3A6
330
1A
100
AcDbEntity
  8
SEIHIN
  6
CONTINUOUS
 62
     3
100
AcDbLine
 10
495.7622510259817
 20
215.0981588399075
 30
0.0
 11
495.7622510259817
 21
215.5481588399076
 31
0.0
  0
ARC
  5
3A7
330
1A
100
AcDbEntity
  8
SEIHIN
  6
CONTINUOUS
 62
     3
100
AcDbCircle
 10
496.2622510259817
 20
215.5481588399076
 30
0.0
 40
0.5
100
AcDbArc
 50
90.0
 51
180.0
  0
LINE
  5
3A8
330
1A
100
AcDbEntity
  8
SEIHIN
  6
CONTINUOUS
 62
     3
100
AcDbLine
 10
495.0122510259816
 20
217.7981588399076
 30
0.0
 11
509.9118760259816
 21
217.7981588399076
 31
0.0
  0
LINE
  5
3A9
330
1A
100
AcDbEntity
  8
SEIHIN
  6
CONTINUOUS
 62
     3
100
AcDbLine
 10
496.2622510259817
 20
216.0481588399076
 30
0.0
 11
509.3200840259817
 21
216.0481588399076
 31
0.0
  0
LINE
  5
3AA
330
1A
100
AcDbEntity
  8
SEIHIN
  6
CONTINUOUS
 62
     3
100
AcDbLine
 10
515.9118760259816
 20
211.7981588399076
 30
0.0
 11
513.5863180259816
 21
211.7981588399076
 31
0.0
  0
ARC
  5
3AB
330
1A
100
AcDbEntity
  8
SEIHIN
  6
CONTINUOUS
 62
     3
100
AcDbCircle
 10
493.0122510259817
 20
215.0981588399075
 30
0.0
 40
2.75
100
AcDbArc
 50
270.0
 51
0.0
  0
ARC
  5
3AC
330
1A
100
AcDbEntity
  8
SEIHIN
  6
CONTINUOUS
 62
     3
100
AcDbCircle
 10
509.9118760259816
 20
211.7981588399076
 30
0.0
 40
6.0
100
AcDbArc
 50
0.0
 51
90.0
  0
LINE
  5
3AD
330
1A
100
AcDbEntity
  8
SEIHIN
  6
CONTINUOUS
 62
     3
100
AcDbLine
 10
489.4247670259816
 20
212.3481588399076
 30
0.0
 11
493.0122510259817
 21
212.3481588399076
 31
0.0
  0
LINE
  5
3AE
330
1A
100
AcDbEntity
  8
SEIHIN
  6
CONTINUOUS
 62
     3
100
AcDbLine
 10
646.1939090259817
 20
133.1617008399076
 30
0.0
 11
651.1596220259816
 21
237.4400518399076
 31
0.0
  0
ARC
  5
3B2
330
1A
100
AcDbEntity
  8
SEIHIN
  6
CONTINUOUS
 62
     3
100
AcDbCircle
 10
643.1973050259816
 20
133.3043988399076
 30
0.0
 40
3.0
100
AcDbArc
 50
270.0000059999999
 51
357.273629
  0
LINE
  5
3B3
330
1A
100
AcDbEntity
  8
SEIHIN
  6
CONTINUOUS
 62
     3
100
AcDbLine
 10
646.4266490259817
 20
159.0726308399076
 30
0.0
 11
650.1607540259818
 21
237.4876178399076
 31
0.0
  0
LINE
  5
3B4
330
1A
100
AcDbEntity
  8
SEIHIN
  6
CONTINUOUS
 62
     3
100
AcDbLine
 10
644.9258800259817
 20
159.0921718399076
 30
0.0
 11
648.6624520259816
 21
237.5589668399076
 31
0.0
  0
LINE
  5
3B5
330
1A
100
AcDbEntity
  8
SEIHIN
  6
CONTINUOUS
 62
     3
100
AcDbLine
 10
634.6742260259816
 20
154.0454768399076
 30
0.0
 11
636.3339690259817
 21
188.8995488399076
 31
0.0
  0
ARC
  5
3B6
330
1A
100
AcDbEntity
  8
SEIHIN
100
AcDbCircle
 10
640.4334400259817
 20
159.3580258399076
 30
0.0
 40
6.0
100
AcDbArc
 50
273.2100829999999
 51
357.273647
  0
ARC
  5
3B7
330
1A
100
AcDbEntity
  8
SEIHIN
  6
CONTINUOUS
 62
     3
100
AcDbCircle
 10
639.9315390259816
 20
159.3300038399076
 30
0.0
 40
5.0
100
AcDbArc
 50
273.181137
 51
357.2736209999999
  0
ARC
  5
3B8
330
1A
100
AcDbEntity
  8
SEIHIN
  6
CONTINUOUS
 62
     3
100
AcDbCircle
 10
639.9315390259816
 20
159.3300038399076
 30
0.0
 40
7.5
100
AcDbArc
 50
273.181147
 51
357.273647
  0
ARC
  5
3B9
330
1A
100
AcDbEntity
  8
SEIHIN
  6
CONTINUOUS
 62
     3
100
AcDbCircle
 10
645.4824970259817
 20
191.8044178399076
 30
0.0
 40
1.0
100
AcDbArc
 50
270.0
 51
357.273647
  0
ARC
  5
3BA
330
1A
100
AcDbEntity
  8
SEIHIN
  6
CONTINUOUS
 62
     3
100
AcDbCircle
 10
638.3317050259817
 20
188.8044178399076
 30
0.0
 40
2.0
100
AcDbArc
 50
90.00000199999998
 51
177.2736639999999
  0
LINE
  5
3BB
330
1A
100
AcDbEntity
  8
SEIHIN
  6
CONTINUOUS
 62
     3
100
AcDbLine
 10
638.3317050259817
 20
190.8044178399076
 30
0.0
 11
645.4824970259817
 21
190.8044178399076
 31
0.0
  0
ARC
  5
3BC
330
1A
100
AcDbEntity
  8
SEIHIN
  6
CONTINUOUS
 62
     3
100
AcDbCircle
 10
643.6681110259817
 20
237.7967958399076
 30
0.0
 40
5.0
100
AcDbArc
 50
357.273647
 51
90.0
  0
ARC
  5
3BD
330
1A
100
AcDbEntity
  8
SEIHIN
  6
CONTINUOUS
 62
     3
100
AcDbCircle
 10
643.6681110259817
 20
237.7967958399076
 30
0.0
 40
7.5
100
AcDbArc
 50
357.2736439999999
 51
89.999993
  0
ARC
  5
3BE
330
1A
100
AcDbEntity
  8
SEIHIN
  6
CONTINUOUS
 62
     3
100
AcDbCircle
 10
644.6118760259817
 20
242.5967958399076
 30
0.0
 40
5.7
100
AcDbArc
 50
90.00001000000002
 51
178.790456
  0
ARC
  5
3BF
330
1A
100
AcDbEntity
  8
SEIHIN
  6
CONTINUOUS
 62
     3
100
AcDbCircle
 10
641.4118760259817
 20
242.7967958399076
 30
0.0
 40
2.5
100
AcDbArc
 50
89.999994
 51
270.0
  0
LINE
  5
3C0
330
1A
100
AcDbEntity
  8
SEIHIN
  6
CONTINUOUS
 62
     3
100
AcDbLine
 10
643.6681110259817
 20
242.7967958399076
 30
0.0
 11
641.4118760259817
 21
242.7967958399076
 31
0.0
  0
LINE
  5
3C1
330
1A
100
AcDbEntity
  8
SEIHIN
  6
CONTINUOUS
 62
     3
100
AcDbLine
 10
641.4118760259817
 20
240.2967958399076
 30
0.0
 11
641.4118760259817
 21
242.7967958399076
 31
0.0
  0
LINE
  5
3C2
330
1A
100
AcDbEntity
  8
SEIHIN
  6
CONTINUOUS
 62
     3
100
AcDbLine
 10
641.4118760259817
 20
245.2967958399076
 30
0.0
 11
643.6681120259817
 21
245.2967958399076
 31
0.0
  0
LINE
  5
3C3
330
1A
100
AcDbEntity
  8
SEIHIN
  6
CONTINUOUS
 62
     3
100
AcDbLine
 10
646.5118760259817
 20
244.7367528399075
 30
0.0
 11
646.5118760259817
 21
246.2967958399076
 31
0.0
  0
ARC
  5
3C4
330
1A
100
AcDbEntity
  8
SEIHIN
  6
CONTINUOUS
 62
     3
100
AcDbCircle
 10
644.5118760259816
 20
246.2967958399076
 30
0.0
 40
2.0
100
AcDbArc
 50
0.0
 51
90.0
  0
LINE
  5
3C5
330
1A
100
AcDbEntity
  8
SEIHIN
  6
CONTINUOUS
 62
     3
100
AcDbLine
 10
312.4802410259817
 20
520.3931471395438
 30
0.0
 11
312.4802410259817
 21
532.7712131395437
 31
0.0
  0
ARC
  5
3C6
330
1A
100
AcDbEntity
  8
SEIHIN
  6
CONTINUOUS
 62
     3
100
AcDbCircle
 10
229.4802410259817
 20
526.8756531395438
 30
0.0
 40
1.0
100
AcDbArc
 50
90.0
 51
180.0
  0
ARC
  5
3C7
330
1A
100
AcDbEntity
  8
SEIHIN
  6
CONTINUOUS
 62
     3
100
AcDbCircle
 10
225.4802410259817
 20
526.8756531395438
 30
0.0
 40
1.0
100
AcDbArc
 50
0.0
 51
90.0
  0
LINE
  5
3C8
330
1A
100
AcDbEntity
  8
SEIHIN
  6
CONTINUOUS
 62
     3
100
AcDbLine
 10
142.4802410259817
 20
520.3931471395438
 30
0.0
 11
142.4802410259817
 21
532.7712131395437
 31
0.0
  0
LINE
  5
3C9
330
1A
100
AcDbEntity
  8
CENTER_L
  6
CENTER
 62
     1
 48
5.0
100
AcDbLine
 10
227.4802410259817
 20
360.4477181395437
 30
0.0
 11
227.4802410259817
 21
541.3869551395436
 31
0.0
  0
LINE
  5
3CA
330
1A
100
AcDbEntity
  8
SEIHIN
  6
CONTINUOUS
 62
     3
100
AcDbLine
 10
342.4802410259817
 20
384.5153811395437
 30
0.0
 11
342.4802410259817
 21
531.2695651395438
 31
0.0
  0
LINE
  5
3CB
330
1A
100
AcDbEntity
  8
SEIHIN
  6
CONTINUOUS
 62
     3
100
AcDbLine
 10
112.4802410259817
 20
372.5278391395438
 30
0.0
 11
112.4802410259817
 21
531.2695651395438
 31
0.0
  0
LINE
  5
3CD
330
1A
100
AcDbEntity
  8
CENTER_L
  6
CENTER
 62
     1
 48
5.0
100
AcDbLine
 10
263.0302410259815
 20
479.1609471395438
 30
0.0
 11
191.9302410259817
 21
479.1609471395438
 31
0.0
  0
CIRCLE
  5
3CE
330
1A
100
AcDbEntity
  8
SEIHIN
  6
CONTINUOUS
 62
     3
100
AcDbCircle
 10
227.4802410259817
 20
479.1609471395438
 30
0.0
 40
28.55
  0
LINE
  5
3CF
330
1A
100
AcDbEntity
  8
SEIHIN
  6
CONTINUOUS
 62
     3
100
AcDbLine
 10
229.4802410259817
 20
432.1160521395437
 30
0.0
 11
298.5650420259817
 21
432.1160521395437
 31
0.0
  0
LINE
  5
3D0
330
1A
100
AcDbEntity
  8
SEIHIN
  6
CONTINUOUS
 62
     3
100
AcDbLine
 10
308.7643580259817
 20
420.7381201395437
 30
0.0
 11
229.4802410259817
 21
420.7381201395437
 31
0.0
  0
LINE
  5
3D1
330
1A
100
AcDbEntity
  8
SEIHIN
  6
CONTINUOUS
 62
     3
100
AcDbLine
 10
298.5650420259817
 20
525.2771641395439
 30
0.0
 11
229.4802410259817
 21
525.2771641395439
 31
0.0
  0
LINE
  5
3D2
330
1A
100
AcDbEntity
  8
SEIHIN
  6
CONTINUOUS
 62
     3
100
AcDbLine
 10
342.4802410259817
 20
397.5149471395438
 30
0.0
 11
227.4802410259817
 21
397.5149471395438
 31
0.0
  0
LINE
  5
3D3
330
1A
100
AcDbEntity
  8
SEIHIN
  6
CONTINUOUS
 62
     3
100
AcDbLine
 10
305.2643580259817
 20
398.5149471395438
 30
0.0
 11
229.4802410259817
 21
398.5149471395438
 31
0.0
  0
LINE
  5
3D4
330
1A
100
AcDbEntity
  8
SEIHIN
  6
CONTINUOUS
 62
     3
100
AcDbLine
 10
307.4833620259817
 20
371.0278391395438
 30
0.0
 11
227.4802410259817
 21
371.0278391395438
 31
0.0
  0
LINE
  5
3D5
330
1A
100
AcDbEntity
  8
SEIHIN
  6
CONTINUOUS
 62
     3
100
AcDbLine
 10
310.4802410259817
 20
388.4020491395437
 30
0.0
 11
227.4802410259817
 21
388.4020491395437
 31
0.0
  0
LINE
  5
3D6
330
1A
100
AcDbEntity
  8
SEIHIN
  6
CONTINUOUS
 62
     3
100
AcDbLine
 10
227.4802410259817
 20
384.3477981395438
 30
0.0
 11
337.5874030259816
 21
384.3477981395438
 31
0.0
  0
LINE
  5
3D7
330
1A
100
AcDbEntity
  8
SEIHIN
  6
CONTINUOUS
 62
     3
100
AcDbLine
 10
342.4802410259817
 20
296.0005228399076
 30
0.0
 11
227.4802410259817
 21
296.0005228399076
 31
0.0
  0
LINE
  5
3D8
330
1A
100
AcDbEntity
  8
SEIHIN
  6
CONTINUOUS
 62
     3
100
AcDbLine
 10
228.4802410259817
 20
397.5149471395438
 30
0.0
 11
228.4802410259817
 21
415.2311061395438
 31
0.0
  0
LINE
  5
3D9
330
1A
100
AcDbEntity
  8
SEIHIN
  6
CONTINUOUS
 62
     3
100
AcDbLine
 10
226.4802410259817
 20
397.5149471395438
 30
0.0
 11
226.4802410259817
 21
415.2311061395438
 31
0.0
  0
LINE
  5
3DA
330
1A
100
AcDbEntity
  8
SEIHIN
  6
CONTINUOUS
 62
     3
100
AcDbLine
 10
145.6961250259817
 20
397.8259471395437
 30
0.0
 11
145.6961250259817
 21
526.3149781395436
 31
0.0
  0
LINE
  5
3DB
330
1A
100
AcDbEntity
  8
SEIHIN
  6
CONTINUOUS
 62
     3
100
AcDbLine
 10
149.6961250259817
 20
397.8259471395437
 30
0.0
 11
149.6961250259817
 21
420.7381201395437
 31
0.0
  0
LINE
  5
3DC
330
1A
100
AcDbEntity
  8
SEIHIN
  6
CONTINUOUS
 62
     3
100
AcDbLine
 10
112.4802410259817
 20
296.0005228399076
 30
0.0
 11
227.4802410259817
 21
296.0005228399076
 31
0.0
  0
LINE
  5
3DD
330
1A
100
AcDbEntity
  8
SEIHIN
  6
CONTINUOUS
 62
     3
100
AcDbLine
 10
149.6961250259817
 20
398.5149471395438
 30
0.0
 11
225.4802410259817
 21
398.5149471395438
 31
0.0
  0
LINE
  5
3DE
330
1A
100
AcDbEntity
  8
SEIHIN
  6
CONTINUOUS
 62
     3
100
AcDbLine
 10
144.4802410259817
 20
388.4020491395437
 30
0.0
 11
227.4802410259817
 21
388.4020491395437
 31
0.0
  0
LINE
  5
3DF
330
1A
100
AcDbEntity
  8
SEIHIN
  6
CONTINUOUS
 62
     3
100
AcDbLine
 10
147.4771200259816
 20
371.0278391395438
 30
0.0
 11
227.4802410259817
 21
371.0278391395438
 31
0.0
  0
LINE
  5
3E0
330
1A
100
AcDbEntity
  8
SEIHIN
  6
CONTINUOUS
 62
     3
100
AcDbLine
 10
227.4802410259817
 20
384.3477981395438
 30
0.0
 11
117.3730800259816
 21
384.3477981395438
 31
0.0
  0
LINE
  5
3E1
330
1A
100
AcDbEntity
  8
SEIHIN
  6
CONTINUOUS
 62
     3
100
AcDbLine
 10
112.4802410259817
 20
397.5149471395438
 30
0.0
 11
227.4802410259817
 21
397.5149471395438
 31
0.0
  0
LINE
  5
3E2
330
1A
100
AcDbEntity
  8
SEIHIN
  6
CONTINUOUS
 62
     3
100
AcDbLine
 10
145.6961250259817
 20
398.5149471395438
 30
0.0
 11
112.4802410259817
 21
398.5149471395438
 31
0.0
  0
LINE
  5
3E3
330
1A
100
AcDbEntity
  8
SEIHIN
  6
CONTINUOUS
 62
     3
100
AcDbLine
 10
112.4802410259817
 20
396.6781171395437
 30
0.0
 11
142.4802410259817
 21
396.6781171395437
 31
0.0
  0
LINE
  5
3E4
330
1A
100
AcDbEntity
  8
SEIHIN
  6
CONTINUOUS
 62
     3
100
AcDbLine
 10
112.4802410259817
 20
372.5278391395438
 30
0.0
 11
137.4895970259817
 21
371.2773711395437
 31
0.0
  0
LINE
  5
3E5
330
1A
100
AcDbEntity
  8
SEIHIN
  6
CONTINUOUS
 62
     3
100
AcDbLine
 10
149.6961250259817
 20
397.8259471395437
 30
0.0
 11
145.6961250259817
 21
397.8259471395437
 31
0.0
  0
ARC
  5
3E6
330
1A
100
AcDbEntity
  8
SEIHIN
  6
CONTINUOUS
 62
     3
100
AcDbCircle
 10
144.4802410259817
 20
390.4020491395437
 30
0.0
 40
2.0
100
AcDbArc
 50
180.0
 51
270.0
  0
LINE
  5
3E7
330
1A
100
AcDbEntity
  8
SEIHIN
  6
CONTINUOUS
 62
     3
100
AcDbLine
 10
142.4802410259817
 20
390.4020491395437
 30
0.0
 11
142.4802410259817
 21
396.6781171395437
 31
0.0
  0
ARC
  5
3E8
330
1A
100
AcDbEntity
  8
SEIHIN
  6
CONTINUOUS
 62
     3
100
AcDbCircle
 10
147.4771200259816
 20
571.0278391395438
 30
0.0
 40
200.0
100
AcDbArc
 50
267.137595
 51
270.0
  0
ARC
  5
3E9
330
1A
100
AcDbEntity
  8
SEIHIN
  6
CONTINUOUS
 62
     3
100
AcDbCircle
 10
229.4802410259817
 20
399.5149471395438
 30
0.0
 40
1.0
100
AcDbArc
 50
180.0
 51
270.0
  0
ARC
  5
3EA
330
1A
100
AcDbEntity
  8
SEIHIN
  6
CONTINUOUS
 62
     3
100
AcDbCircle
 10
227.4802410259817
 20
396.9883831395437
 30
0.0
 40
1.0
100
AcDbArc
 50
90.0
 51
148.226378
  0
ARC
  5
3EB
330
1A
100
AcDbEntity
  8
SEIHIN
  6
CONTINUOUS
 62
     3
100
AcDbCircle
 10
225.4802410259817
 20
399.5149471395438
 30
0.0
 40
1.0
100
AcDbArc
 50
270.0
 51
0.0
  0
ARC
  5
3EC
330
1A
100
AcDbEntity
  8
SEIHIN
  6
CONTINUOUS
 62
     3
100
AcDbCircle
 10
227.4802410259817
 20
396.9883831395437
 30
0.0
 40
1.0
100
AcDbArc
 50
31.773622
 51
90.0
  0
LINE
  5
3ED
330
1A
100
AcDbEntity
  8
SEIHIN
  6
CONTINUOUS
 62
     3
100
AcDbLine
 10
155.8954400259816
 20
524.7771641395438
 30
0.0
 11
155.8954400259816
 21
432.6160521395437
 31
0.0
  0
LINE
  5
3EE
330
1A
100
AcDbEntity
  8
SEIHIN
  6
CONTINUOUS
 62
     3
100
AcDbLine
 10
146.1961250259816
 20
420.7381201395437
 30
0.0
 11
225.4802410259817
 21
420.7381201395437
 31
0.0
  0
LINE
  5
3F0
330
1A
100
AcDbEntity
  8
SEIHIN
  6
CONTINUOUS
 62
     3
100
AcDbLine
 10
225.4802410259817
 20
432.1160521395437
 30
0.0
 11
156.3954400259816
 21
432.1160521395437
 31
0.0
  0
ARC
  5
3F1
330
1A
100
AcDbEntity
  8
SEIHIN
  6
CONTINUOUS
 62
     3
100
AcDbCircle
 10
156.3954400259816
 20
432.6160521395437
 30
0.0
 40
0.5
100
AcDbArc
 50
180.0
 51
270.0
  0
ARC
  5
3F2
330
1A
100
AcDbEntity
  8
SEIHIN
  6
CONTINUOUS
 62
     3
100
AcDbCircle
 10
146.1961250259816
 20
421.2381201395437
 30
0.0
 40
0.5
100
AcDbArc
 50
180.0
 51
270.0
  0
LINE
  5
3F3
330
1A
100
AcDbEntity
  8
SEIHIN
  6
CONTINUOUS
 62
     3
100
AcDbLine
 10
145.6961250259817
 20
420.7381201395437
 30
0.0
 11
155.8954400259816
 21
432.1160521395437
 31
0.0
  0
LINE
  5
3F4
330
1A
100
AcDbEntity
  8
CENTER_L
  6
CENTER
 62
     1
 48
5.0
100
AcDbLine
 10
104.9460850259816
 20
462.4149471395438
 30
0.0
 11
157.4802410259817
 21
462.4149471395438
 31
0.0
  0
ARC
  5
3F5
330
1A
100
AcDbEntity
  8
SEIHIN
  6
CONTINUOUS
 62
     3
100
AcDbCircle
 10
229.4802410259817
 20
433.1160521395438
 30
0.0
 40
1.0
100
AcDbArc
 50
180.0
 51
270.0
  0
LINE
  5
3F6
330
1A
100
AcDbEntity
  8
SEIHIN
  6
CONTINUOUS
 62
     3
100
AcDbLine
 10
228.4802410259817
 20
418.2315821395437
 30
0.0
 11
228.4802410259817
 21
446.8579001395436
 31
0.0
  0
ARC
  5
3F7
330
1A
100
AcDbEntity
  8
SEIHIN
  6
CONTINUOUS
 62
     3
100
AcDbCircle
 10
225.4802410259817
 20
433.1160521395438
 30
0.0
 40
1.0
100
AcDbArc
 50
270.0
 51
0.0
  0
LINE
  5
3F8
330
1A
100
AcDbEntity
  8
SEIHIN
  6
CONTINUOUS
 62
     3
100
AcDbLine
 10
226.4802410259817
 20
418.2315821395437
 30
0.0
 11
226.4802410259817
 21
446.8579001395436
 31
0.0
  0
ARC
  5
3F9
330
1A
100
AcDbEntity
  8
SEIHIN
  6
CONTINUOUS
 62
     3
100
AcDbCircle
 10
229.4802410259817
 20
421.7381201395438
 30
0.0
 40
1.0
100
AcDbArc
 50
180.0
 51
270.0
  0
ARC
  5
3FA
330
1A
100
AcDbEntity
  8
SEIHIN
  6
CONTINUOUS
 62
     3
100
AcDbCircle
 10
225.4802410259817
 20
421.7381201395438
 30
0.0
 40
1.0
100
AcDbArc
 50
270.0
 51
0.0
  0
ARC
  5
3FB
330
1A
100
AcDbEntity
  8
SEIHIN
  6
CONTINUOUS
 62
     3
100
AcDbCircle
 10
227.4802410259817
 20
425.1164071395438
 30
0.0
 40
1.0
100
AcDbArc
 50
90.0
 51
180.0
  0
LINE
  5
3FC
330
1A
100
AcDbEntity
  8
SEIHIN
  6
CONTINUOUS
 62
     3
100
AcDbLine
 10
226.4802410259817
 20
418.2315821395437
 30
0.0
 11
227.4802410259817
 21
418.2315821395437
 31
0.0
  0
LINE
  5
3FD
330
1A
100
AcDbEntity
  8
SEIHIN
  6
CONTINUOUS
 62
     3
100
AcDbLine
 10
226.4802410259817
 20
415.2311061395438
 30
0.0
 11
227.4802410259817
 21
415.2311061395438
 31
0.0
  0
ARC
  5
3FE
330
1A
100
AcDbEntity
  8
SEIHIN
  6
CONTINUOUS
 62
     3
100
AcDbCircle
 10
227.4802410259817
 20
404.6370131395437
 30
0.0
 40
1.0
100
AcDbArc
 50
90.0
 51
180.0
  0
LINE
  5
3FF
330
1A
100
AcDbEntity
  8
SEIHIN
  6
CONTINUOUS
 62
     3
100
AcDbLine
 10
228.4802410259817
 20
418.2315821395437
 30
0.0
 11
227.4802410259817
 21
418.2315821395437
 31
0.0
  0
LINE
  5
400
330
1A
100
AcDbEntity
  8
SEIHIN
  6
CONTINUOUS
 62
     3
100
AcDbLine
 10
228.4802410259817
 20
415.2311061395438
 30
0.0
 11
227.4802410259817
 21
415.2311061395438
 31
0.0
  0
ARC
  5
401
330
1A
100
AcDbEntity
  8
SEIHIN
  6
CONTINUOUS
 62
     3
100
AcDbCircle
 10
227.4802410259817
 20
404.6370131395437
 30
0.0
 40
1.0
100
AcDbArc
 50
0.0
 51
90.0
  0
ARC
  5
402
330
1A
100
AcDbEntity
  8
SEIHIN
  6
CONTINUOUS
 62
     3
100
AcDbCircle
 10
227.4802410259817
 20
425.1164071395438
 30
0.0
 40
1.0
100
AcDbArc
 50
0.0
 51
90.0
  0
ARC
  5
403
330
1A
100
AcDbEntity
  8
SEIHIN
  6
CONTINUOUS
 62
     3
100
AcDbCircle
 10
227.4802410259817
 20
436.9364381395437
 30
0.0
 40
1.0
100
AcDbArc
 50
90.0
 51
180.000006
  0
ARC
  5
404
330
1A
100
AcDbEntity
  8
SEIHIN
  6
CONTINUOUS
 62
     3
100
AcDbCircle
 10
227.4802410259817
 20
446.8579001395436
 30
0.0
 40
1.0
100
AcDbArc
 50
90.0
 51
180.000007
  0
ARC
  5
405
330
1A
100
AcDbEntity
  8
SEIHIN
  6
CONTINUOUS
 62
     3
100
AcDbCircle
 10
227.4802410259817
 20
446.8579001395436
 30
0.0
 40
1.0
100
AcDbArc
 50
359.999993
 51
90.0
  0
ARC
  5
406
330
1A
100
AcDbEntity
  8
SEIHIN
  6
CONTINUOUS
 62
     3
100
AcDbCircle
 10
227.4802410259817
 20
436.9364381395437
 30
0.0
 40
1.0
100
AcDbArc
 50
359.999994
 51
90.0
  0
LINE
  5
407
330
1A
100
AcDbEntity
  8
SEIHIN
  6
CONTINUOUS
 62
     3
100
AcDbLine
 10
156.3954400259816
 20
525.2771641395439
 30
0.0
 11
225.4802410259817
 21
525.2771641395439
 31
0.0
  0
LINE
  5
408
330
1A
100
AcDbEntity
  8
SEIHIN
  6
CONTINUOUS
 62
     3
100
AcDbLine
 10
112.4802410259817
 20
520.3931471395438
 30
0.0
 11
142.4802410259817
 21
520.3931471395438
 31
0.0
  0
ARC
  5
409
330
1A
100
AcDbEntity
  8
SEIHIN
  6
CONTINUOUS
 62
     3
100
AcDbCircle
 10
156.3954400259816
 20
524.7771641395438
 30
0.0
 40
0.5
100
AcDbArc
 50
90.0
 51
180.0
  0
LINE
  5
40A
330
1A
100
AcDbEntity
  8
SEIHIN
  6
CONTINUOUS
 62
     3
100
AcDbLine
 10
155.8954400259816
 20
525.2771641395439
 30
0.0
 11
145.6961250259817
 21
526.3149781395436
 31
0.0
  0
LINE
  5
40B
330
1A
100
AcDbEntity
  8
SEIHIN
  6
CONTINUOUS
 62
     3
100
AcDbLine
 10
142.4802410259817
 20
526.3149781395436
 30
0.0
 11
145.6961250259817
 21
526.3149781395436
 31
0.0
  0
LINE
  5
40C
330
1A
100
AcDbEntity
  8
SEIHIN
  6
CONTINUOUS
 62
     3
100
AcDbLine
 10
126.4802410259817
 20
520.3931471395438
 30
0.0
 11
126.4802410259817
 21
527.9931471395436
 31
0.0
  0
LINE
  5
40D
330
1A
100
AcDbEntity
  8
SEIHIN
  6
CONTINUOUS
 62
     3
100
AcDbLine
 10
128.4802410259817
 20
520.3931471395438
 30
0.0
 11
128.4802410259817
 21
527.9931471395436
 31
0.0
  0
LINE
  5
40E
330
1A
100
AcDbEntity
  8
SEIHIN
  6
CONTINUOUS
 62
     3
100
AcDbLine
 10
126.4802410259817
 20
527.9931471395436
 30
0.0
 11
128.4802410259817
 21
527.9931471395436
 31
0.0
  0
ARC
  5
40F
330
1A
100
AcDbEntity
  8
SEIHIN
  6
CONTINUOUS
 62
     3
100
AcDbCircle
 10
229.4802410259817
 20
524.2771641395438
 30
0.0
 40
1.0
100
AcDbArc
 50
90.0
 51
180.0
  0
LINE
  5
410
330
1A
100
AcDbEntity
  8
SEIHIN
  6
CONTINUOUS
 62
     3
100
AcDbLine
 10
228.4802410259817
 20
511.4462801395439
 30
0.0
 11
228.4802410259817
 21
526.8756531395438
 31
0.0
  0
ARC
  5
411
330
1A
100
AcDbEntity
  8
SEIHIN
  6
CONTINUOUS
 62
     3
100
AcDbCircle
 10
227.4802410259817
 20
526.2821571395436
 30
0.0
 40
1.0
100
AcDbArc
 50
180.0
 51
270.0
  0
ARC
  5
412
330
1A
100
AcDbEntity
  8
SEIHIN
  6
CONTINUOUS
 62
     3
100
AcDbCircle
 10
225.4802410259817
 20
524.2771641395438
 30
0.0
 40
1.0
100
AcDbArc
 50
0.0
 51
90.0
  0
ARC
  5
413
330
1A
100
AcDbEntity
  8
SEIHIN
  6
CONTINUOUS
 62
     3
100
AcDbCircle
 10
227.4802410259817
 20
516.7419991395438
 30
0.0
 40
1.0
100
AcDbArc
 50
180.0
 51
270.0
  0
ARC
  5
414
330
1A
100
AcDbEntity
  8
SEIHIN
  6
CONTINUOUS
 62
     3
100
AcDbCircle
 10
227.4802410259817
 20
511.9401311395438
 30
0.0
 40
1.0
100
AcDbArc
 50
180.0
 51
270.0
  0
ARC
  5
415
330
1A
100
AcDbEntity
  8
SEIHIN
  6
CONTINUOUS
 62
     3
100
AcDbCircle
 10
227.4802410259817
 20
511.4462801395439
 30
0.0
 40
1.0
100
AcDbArc
 50
180.0
 51
270.0
  0
LINE
  5
416
330
1A
100
AcDbEntity
  8
SEIHIN
  6
CONTINUOUS
 62
     3
100
AcDbLine
 10
226.4802410259817
 20
511.4462801395439
 30
0.0
 11
226.4802410259817
 21
526.8756531395438
 31
0.0
  0
ARC
  5
417
330
1A
100
AcDbEntity
  8
SEIHIN
  6
CONTINUOUS
 62
     3
100
AcDbCircle
 10
227.4802410259817
 20
519.1277501395436
 30
0.0
 40
1.0
100
AcDbArc
 50
180.0
 51
270.0
  0
ARC
  5
418
330
1A
100
AcDbEntity
  8
SEIHIN
  6
CONTINUOUS
 62
     3
100
AcDbCircle
 10
227.4802410259817
 20
511.4462801395439
 30
0.0
 40
1.0
100
AcDbArc
 50
270.0
 51
0.0
  0
ARC
  5
419
330
1A
100
AcDbEntity
  8
SEIHIN
  6
CONTINUOUS
 62
     3
100
AcDbCircle
 10
227.4802410259817
 20
511.9401311395438
 30
0.0
 40
1.0
100
AcDbArc
 50
270.0
 51
0.0
  0
LINE
  5
41A
330
1A
100
AcDbEntity
  8
SEIHIN
  6
CONTINUOUS
 62
     3
100
AcDbLine
 10
225.4802410259817
 20
527.8756531395438
 30
0.0
 11
229.4802410259817
 21
527.8756531395438
 31
0.0
  0
ARC
  5
41B
330
1A
100
AcDbEntity
  8
SEIHIN
  6
CONTINUOUS
 62
     3
100
AcDbCircle
 10
227.4802410259817
 20
516.7419991395438
 30
0.0
 40
1.0
100
AcDbArc
 50
270.0
 51
0.0
  0
ARC
  5
41C
330
1A
100
AcDbEntity
  8
SEIHIN
  6
CONTINUOUS
 62
     3
100
AcDbCircle
 10
227.4802410259817
 20
526.2821571395436
 30
0.0
 40
1.0
100
AcDbArc
 50
270.0
 51
0.0
  0
ARC
  5
41D
330
1A
100
AcDbEntity
  8
SEIHIN
  6
CONTINUOUS
 62
     3
100
AcDbCircle
 10
227.4802410259817
 20
519.1277501395436
 30
0.0
 40
1.0
100
AcDbArc
 50
270.0
 51
0.0
  0
LINE
  5
41E
330
1A
100
AcDbEntity
  8
SEIHIN
  6
CONTINUOUS
 62
     3
100
AcDbLine
 10
305.2643580259817
 20
397.8259471395437
 30
0.0
 11
305.2643580259817
 21
420.7381201395437
 31
0.0
  0
LINE
  5
41F
330
1A
100
AcDbEntity
  8
SEIHIN
  6
CONTINUOUS
 62
     3
100
AcDbLine
 10
309.2643580259817
 20
397.8259471395437
 30
0.0
 11
309.2643580259817
 21
526.3149781395436
 31
0.0
  0
LINE
  5
421
330
1A
100
AcDbEntity
  8
SEIHIN
  6
CONTINUOUS
 62
     3
100
AcDbLine
 10
342.4802410259817
 20
372.5278391395438
 30
0.0
 11
342.4802410259817
 21
397.5149471395438
 31
0.0
  0
LINE
  5
422
330
1A
100
AcDbEntity
  8
SEIHIN
  6
CONTINUOUS
 62
     3
100
AcDbLine
 10
312.4802410259817
 20
390.4020491395437
 30
0.0
 11
312.4802410259817
 21
396.6781171395437
 31
0.0
  0
ARC
  5
423
330
1A
100
AcDbEntity
  8
SEIHIN
  6
CONTINUOUS
 62
     3
100
AcDbCircle
 10
310.4802410259817
 20
390.4020491395437
 30
0.0
 40
2.0
100
AcDbArc
 50
270.0
 51
0.0
  0
LINE
  5
424
330
1A
100
AcDbEntity
  8
SEIHIN
  6
CONTINUOUS
 62
     3
100
AcDbLine
 10
305.2643580259817
 20
397.8259471395437
 30
0.0
 11
309.2643580259817
 21
397.8259471395437
 31
0.0
  0
ARC
  5
425
330
1A
100
AcDbEntity
  8
SEIHIN
  6
CONTINUOUS
 62
     3
100
AcDbCircle
 10
307.4833620259817
 20
571.0278391395438
 30
0.0
 40
200.0
100
AcDbArc
 50
270.0
 51
272.8624049999999
  0
LINE
  5
426
330
1A
100
AcDbEntity
  8
SEIHIN
  6
CONTINUOUS
 62
     3
100
AcDbLine
 10
309.2643580259817
 20
398.5149471395438
 30
0.0
 11
342.4802410259817
 21
398.5149471395438
 31
0.0
  0
LINE
  5
427
330
1A
100
AcDbEntity
  8
SEIHIN
  6
CONTINUOUS
 62
     3
100
AcDbLine
 10
342.4802410259817
 20
372.5278391395438
 30
0.0
 11
317.4708860259817
 21
371.2773711395437
 31
0.0
  0
LINE
  5
428
330
1A
100
AcDbEntity
  8
SEIHIN
  6
CONTINUOUS
 62
     3
100
AcDbLine
 10
342.4802410259817
 20
396.6781171395437
 30
0.0
 11
312.4802410259817
 21
396.6781171395437
 31
0.0
  0
LINE
  5
429
330
1A
100
AcDbEntity
  8
SEIHIN
  6
CONTINUOUS
 62
     3
100
AcDbLine
 10
512.3943320259817
 20
292.0338308399075
 30
0.0
 11
511.5105720259816
 21
289.6771388399076
 31
0.0
  0
ARC
  5
42A
330
1A
100
AcDbEntity
  8
SEIHIN
  6
CONTINUOUS
 62
     3
100
AcDbCircle
 10
511.9787370259817
 20
289.5015768399076
 30
0.0
 40
0.5
100
AcDbArc
 50
159.443955
 51
262.0976689999999
  0
ARC
  5
42B
330
1A
100
AcDbEntity
  8
SEIHIN
  6
CONTINUOUS
 62
     3
100
AcDbCircle
 10
512.2925460259816
 20
291.7624028399075
 30
0.0
 40
2.7825
100
AcDbArc
 50
262.0976689999999
 51
82.40536199999999
  0
LINE
  5
42C
330
1A
100
AcDbEntity
  8
SEIHIN
  6
CONTINUOUS
 62
     3
100
AcDbLine
 10
505.7989770259816
 20
295.3955118399076
 30
0.0
 11
506.7989770259816
 21
295.3955118399076
 31
0.0
  0
ARC
  5
42D
330
1A
100
AcDbEntity
  8
SEIHIN
  6
CONTINUOUS
 62
     3
100
AcDbCircle
 10
501.8764330259817
 20
281.2481588399076
 30
0.0
 40
1.0
100
AcDbArc
 50
90.0
 51
164.577764
  0
LINE
  5
42E
330
1A
100
AcDbEntity
  8
SEIHIN
  6
CONTINUOUS
 62
     3
100
AcDbLine
 10
505.8118760259816
 20
282.2481588399075
 30
0.0
 11
501.8764330259817
 21
282.2481588399075
 31
0.0
  0
ARC
  5
42F
330
1A
100
AcDbEntity
  8
SEIHIN
  6
CONTINUOUS
 62
     3
100
AcDbCircle
 10
502.3487400259817
 20
284.7481588399076
 30
0.0
 40
0.5
100
AcDbArc
 50
163.774087
 51
270.0
  0
LINE
  5
430
330
1A
100
AcDbEntity
  8
SEIHIN
  6
CONTINUOUS
 62
     3
100
AcDbLine
 10
505.8118760259816
 20
284.2481588399076
 30
0.0
 11
502.3487400259817
 21
284.2481588399076
 31
0.0
  0
ARC
  5
431
330
1A
100
AcDbEntity
  8
SEIHIN
  6
CONTINUOUS
 62
     3
100
AcDbCircle
 10
505.8118760259816
 20
283.2481588399076
 30
0.0
 40
1.0
100
AcDbArc
 50
270.0000129999999
 51
90.0
  0
ARC
  5
432
330
1A
100
AcDbEntity
  8
SEIHIN
  6
CONTINUOUS
 62
     3
100
AcDbCircle
 10
505.7989770259816
 20
290.8955118399076
 30
0.0
 40
2.0
100
AcDbArc
 50
82.405357
 51
162.187562
  0
ARC
  5
433
330
1A
100
AcDbEntity
  8
SEIHIN
  6
CONTINUOUS
 62
     3
100
AcDbCircle
 10
505.7989770259816
 20
290.8955118399076
 30
0.0
 40
4.5
100
AcDbArc
 50
90.0
 51
162.187485
  0
LINE
  5
434
330
1A
100
AcDbEntity
  8
SEIHIN
  6
CONTINUOUS
 62
     3
100
AcDbLine
 10
506.7989770259816
 20
295.3955118399076
 30
0.0
 11
512.7032270259816
 21
294.5144288399075
 31
0.0
  0
LINE
  5
435
330
1A
100
AcDbEntity
  8
SEIHIN
  6
CONTINUOUS
 62
     3
100
AcDbLine
 10
512.3943320259817
 20
292.0338308399075
 30
0.0
 11
506.0633040259816
 21
292.8779678399076
 31
0.0
  0
LINE
  5
436
330
1A
100
AcDbEntity
  8
SEIHIN
  6
CONTINUOUS
 62
     3
100
AcDbLine
 10
299.0650420259817
 20
524.7771641395438
 30
0.0
 11
299.0650420259817
 21
432.6160521395437
 31
0.0
  0
LINE
  5
437
330
1A
100
AcDbEntity
  8
CENTER_L
  6
CENTER
 62
     1
 48
5.0
100
AcDbLine
 10
350.0143980259816
 20
462.4149471395438
 30
0.0
 11
297.4802410259817
 21
462.4149471395438
 31
0.0
  0
ARC
  5
438
330
1A
100
AcDbEntity
  8
SEIHIN
  6
CONTINUOUS
 62
     3
100
AcDbCircle
 10
298.5650420259817
 20
432.6160521395437
 30
0.0
 40
0.5
100
AcDbArc
 50
270.0
 51
0.0
  0
LINE
  5
439
330
1A
100
AcDbEntity
  8
SEIHIN
  6
CONTINUOUS
 62
     3
100
AcDbLine
 10
309.2643580259817
 20
420.7381201395437
 30
0.0
 11
299.0650420259817
 21
432.1160521395437
 31
0.0
  0
ARC
  5
43A
330
1A
100
AcDbEntity
  8
SEIHIN
  6
CONTINUOUS
 62
     3
100
AcDbCircle
 10
308.7643580259817
 20
421.2381201395437
 30
0.0
 40
0.5
100
AcDbArc
 50
270.0
 51
0.0
  0
LINE
  5
43C
330
1A
100
AcDbEntity
  8
SEIHIN
  6
CONTINUOUS
 62
     3
100
AcDbLine
 10
299.0650420259817
 20
525.2771641395439
 30
0.0
 11
309.2643580259817
 21
526.3149781395436
 31
0.0
  0
ARC
  5
43D
330
1A
100
AcDbEntity
  8
SEIHIN
  6
CONTINUOUS
 62
     3
100
AcDbCircle
 10
298.5650420259817
 20
524.7771641395438
 30
0.0
 40
0.5
100
AcDbArc
 50
0.0
 51
90.0
  0
LINE
  5
43E
330
1A
100
AcDbEntity
  8
SEIHIN
  6
CONTINUOUS
 62
     3
100
AcDbLine
 10
328.4802410259817
 20
527.9931471395436
 30
0.0
 11
326.4802410259817
 21
527.9931471395436
 31
0.0
  0
LINE
  5
43F
330
1A
100
AcDbEntity
  8
SEIHIN
  6
CONTINUOUS
 62
     3
100
AcDbLine
 10
326.4802410259817
 20
520.3931471395438
 30
0.0
 11
326.4802410259817
 21
527.9931471395436
 31
0.0
  0
LINE
  5
440
330
1A
100
AcDbEntity
  8
SEIHIN
  6
CONTINUOUS
 62
     3
100
AcDbLine
 10
328.4802410259817
 20
520.3931471395438
 30
0.0
 11
328.4802410259817
 21
527.9931471395436
 31
0.0
  0
LINE
  5
441
330
1A
100
AcDbEntity
  8
SEIHIN
  6
CONTINUOUS
 62
     3
100
AcDbLine
 10
312.4802410259817
 20
526.3149781395436
 30
0.0
 11
309.2643580259817
 21
526.3149781395436
 31
0.0
  0
LINE
  5
442
330
1A
100
AcDbEntity
  8
SEIHIN
  6
CONTINUOUS
 62
     3
100
AcDbLine
 10
342.4802410259817
 20
520.3931471395438
 30
0.0
 11
312.4802410259817
 21
520.3931471395438
 31
0.0
  0
LINE
  5
443
330
1A
100
AcDbEntity
  8
SEIHIN
  6
CONTINUOUS
 62
     3
100
AcDbLine
 10
307.4778800259816
 20
532.7712131395437
 30
0.0
 11
227.4802410259817
 21
532.7712131395437
 31
0.0
  0
LINE
  5
444
330
1A
100
AcDbEntity
  8
SEIHIN
  6
CONTINUOUS
 62
     3
100
AcDbLine
 10
312.4802410259817
 20
530.4744011395436
 30
0.0
 11
227.4802410259817
 21
530.4744011395436
 31
0.0
  0
LINE
  5
445
330
1A
100
AcDbEntity
  8
SEIHIN
  6
CONTINUOUS
 62
     3
100
AcDbLine
 10
312.4802410259817
 20
528.7076921395437
 30
0.0
 11
227.4802410259817
 21
528.7076921395437
 31
0.0
  0
LINE
  5
446
330
1A
100
AcDbEntity
  8
SEIHIN
  6
CONTINUOUS
 62
     3
100
AcDbLine
 10
142.4802410259817
 20
528.7076921395437
 30
0.0
 11
227.4802410259817
 21
528.7076921395437
 31
0.0
  0
LINE
  5
447
330
1A
100
AcDbEntity
  8
SEIHIN
  6
CONTINUOUS
 62
     3
100
AcDbLine
 10
147.4826030259816
 20
532.7712131395437
 30
0.0
 11
227.4802410259817
 21
532.7712131395437
 31
0.0
  0
LINE
  5
448
330
1A
100
AcDbEntity
  8
SEIHIN
  6
CONTINUOUS
 62
     3
100
AcDbLine
 10
142.4802410259817
 20
530.4744011395436
 30
0.0
 11
227.4802410259817
 21
530.4744011395436
 31
0.0
  0
LINE
  5
449
330
1A
100
AcDbEntity
  8
SEIHIN
  6
CONTINUOUS
 62
     3
100
AcDbLine
 10
137.4841340259816
 20
532.5211331395437
 30
0.0
 11
112.4802410259817
 21
531.2695651395438
 31
0.0
  0
ARC
  5
44A
330
1A
100
AcDbEntity
  8
SEIHIN
  6
CONTINUOUS
 62
     3
100
AcDbCircle
 10
147.4826030259816
 20
332.7712131395438
 30
0.0
 40
200.0
100
AcDbArc
 50
90.0
 51
92.86554500000001
  0
ARC
  5
44B
330
1A
100
AcDbEntity
  8
SEIHIN
  6
CONTINUOUS
 62
     3
100
AcDbCircle
 10
307.4778800259816
 20
332.7712131395438
 30
0.0
 40
200.0
100
AcDbArc
 50
87.134455
 51
90.0
  0
LINE
  5
44C
330
1A
100
AcDbEntity
  8
SEIHIN
  6
CONTINUOUS
 62
     3
100
AcDbLine
 10
317.4763480259816
 20
532.5211331395437
 30
0.0
 11
342.4802410259817
 21
531.2695651395438
 31
0.0
  0
DIMENSION
  5
584
330
1A
100
AcDbEntity
  8
SUNPOU
100
AcDbDimension
  2
*D1
 10
597.5578450259817
 20
196.7782880465795
 30
0.0
 11
589.1848605259816
 21
201.7782880465795
 31
0.0
 70
    32
  3
STANDARD
100
AcDbAlignedDimension
 13
580.8118760259816
 23
174.6273558399076
 33
0.0
 14
597.5578450259817
 24
107.6028378399076
 34
0.0
100
AcDbRotatedDimension
1001
ACAD
1000
DSTYLE
1002
{
1070
   372
1070
    -1
1070
   371
1070
    -1
1070
    41
1040
7.0
1070
    42
1040
6.0
1070
    43
1040
14.0
1070
    44
1040
3.0
1070
    73
1070
     0
1070
    74
1070
     0
1070
    77
1070
     3
1070
   140
1040
6.0
1070
   141
1040
150.0
1070
   147
1040
2.0
1070
   172
1070
     1
1070
   173
1070
     1
1070
   176
1070
   256
1070
   177
1070
   256
1070
   178
1070
   256
1070
   271
1070
     0
1070
   272
1070
     2
1070
     6
1000
OPEN
1070
     7
1000
OPEN
1002
}
  0
DIMENSION
  5
591
330
1A
100
AcDbEntity
  8
SUNPOU
100
AcDbDimension
  2
*D2
 10
691.5537152891284
 20
150.3043987851517
 30
0.0
 11
686.5537152891284
 21
197.8005973125297
 31
0.0
 70
    32
  3
STANDARD
100
AcDbAlignedDimension
 13
643.6681110259817
 23
245.2967958399075
 33
0.0
 14
580.8118760259816
 24
150.3043987851517
 34
0.0
 50
90.0
100
AcDbRotatedDimension
1001
ACAD
1000
DSTYLE
1002
{
1070
   372
1070
    -1
1070
   371
1070
    -1
1070
    41
1040
7.0
1070
    42
1040
6.0
1070
    43
1040
14.0
1070
    44
1040
3.0
1070
    73
1070
     0
1070
    74
1070
     0
1070
    77
1070
     3
1070
   140
1040
6.0
1070
   141
1040
150.0
1070
   147
1040
2.0
1070
   172
1070
     1
1070
   173
1070
     1
1070
   176
1070
   256
1070
   177
1070
   256
1070
   178
1070
   256
1070
   271
1070
     0
1070
   272
1070
     2
1070
     6
1000
OPEN
1070
     7
1000
OPEN
1002
}
  0
DIMENSION
  5
5AB
330
1A
100
AcDbEntity
  8
SUNPOU
100
AcDbDimension
  2
*D3
 10
443.7123253051677
 20
150.3043987851518
 30
0.0
 11
438.7123253051676
 21
222.8499553125298
 31
0.0
 70
    32
  3
STANDARD
100
AcDbAlignedDimension
 13
505.7989770259816
 23
295.3955118399076
 33
0.0
 14
580.8118760259816
 24
150.3043987851517
 34
0.0
 50
90.0
100
AcDbRotatedDimension
1001
ACAD
1000
DSTYLE
1002
{
1070
   372
1070
    -1
1070
   371
1070
    -1
1070
    41
1040
7.0
1070
    42
1040
6.0
1070
    43
1040
14.0
1070
    44
1040
3.0
1070
    73
1070
     0
1070
    74
1070
     0
1070
    77
1070
     3
1070
   140
1040
6.0
1070
   141
1040
150.0
1070
   147
1040
2.0
1070
   172
1070
     1
1070
   173
1070
     1
1070
   176
1070
   256
1070
   177
1070
   256
1070
   178
1070
   256
1070
   271
1070
     0
1070
   272
1070
     2
1070
     6
1000
OPEN
1070
     7
1000
OPEN
1002
}
  0
DIMENSION
  5
5E0
330
1A
100
AcDbEntity
  8
SUNPOU
100
AcDbDimension
  2
*D4
 10
342.4802410259817
 20
319.6894187825034
 30
0.0
 11
227.4802410259817
 21
324.6894187825034
 31
0.0
 70
    32
  3
STANDARD
100
AcDbAlignedDimension
 13
112.4802410259817
 23
296.0005228399076
 33
0.0
 14
342.4802410259817
 24
296.0005228399076
 34
0.0
100
AcDbRotatedDimension
1001
ACAD
1000
DSTYLE
1002
{
1070
   372
1070
    -1
1070
   371
1070
    -1
1070
    41
1040
7.0
1070
    42
1040
6.0
1070
    43
1040
14.0
1070
    44
1040
3.0
1070
    73
1070
     0
1070
    74
1070
     0
1070
    77
1070
     3
1070
   140
1040
6.0
1070
   141
1040
150.0
1070
   147
1040
2.0
1070
   172
1070
     1
1070
   173
1070
     1
1070
   176
1070
   256
1070
   177
1070
   256
1070
   178
1070
   256
1070
   271
1070
     0
1070
   272
1070
     2
1070
     6
1000
OPEN
1070
     7
1000
OPEN
1002
}
  0
DIMENSION
  5
5FA
330
1A
100
AcDbEntity
  8
SUNPOU
100
AcDbDimension
  2
*D5
 10
489.4247670259816
 20
330.891834408231
 30
0.0
 11
570.2921945259816
 21
335.891834408231
 31
0.0
 70
    32
  3
STANDARD
100
AcDbAlignedDimension
 13
651.1596220259816
 23
240.4400518399075
 33
0.0
 14
489.4247670259816
 24
212.3481588399076
 34
0.0
100
AcDbRotatedDimension
1001
ACAD
1000
DSTYLE
1002
{
1070
   372
1070
    -1
1070
   371
1070
    -1
1070
    41
1040
7.0
1070
    42
1040
6.0
1070
    43
1040
14.0
1070
    44
1040
3.0
1070
    73
1070
     0
1070
    74
1070
     0
1070
    77
1070
     3
1070
   140
1040
6.0
1070
   141
1040
150.0
1070
   147
1040
2.0
1070
   172
1070
     1
1070
   173
1070
     1
1070
   176
1070
   256
1070
   177
1070
   256
1070
   178
1070
   256
1070
   271
1070
     0
1070
   272
1070
     2
1070
     6
1000
OPEN
1070
     7
1000
OPEN
1002
}
  0
LINE
  5
600
330
1A
100
AcDbEntity
  8
SUNPOU
  6
PHANTOM
 62
     4
 48
5.0
100
AcDbLine
 10
269.9802410259817
 20
388.4020491395437
 30
0.0
 11
269.9802410259817
 21
528.7076921395436
 31
0.0
  0
LINE
  5
601
330
1A
100
AcDbEntity
  8
SUNPOU
  6
PHANTOM
 62
     4
 48
5.0
100
AcDbLine
 10
184.9802410259817
 20
388.4020491395437
 30
0.0
 11
184.9802410259817
 21
528.7076921395436
 31
0.0
  0
DIMENSION
  5
61A
330
1A
100
AcDbEntity
  8
SUNPOU
100
AcDbDimension
  2
*D6
 10
269.9802410259817
 20
344.6175829726296
 30
0.0
 11
306.2302410259817
 21
349.6175829726296
 31
0.0
 70
    32
  1
※a <>
  3
STANDARD
100
AcDbAlignedDimension
 13
342.4802410259817
 23
372.5278391395438
 33
0.0
 14
269.9802410259817
 24
388.4020491395437
 34
0.0
100
AcDbRotatedDimension
1001
ACAD
1000
DSTYLE
1002
{
1070
   372
1070
    -1
1070
   371
1070
    -1
1070
    41
1040
7.0
1070
    42
1040
6.0
1070
    43
1040
14.0
1070
    44
1040
3.0
1070
    73
1070
     0
1070
    74
1070
     0
1070
    77
1070
     3
1070
   140
1040
6.0
1070
   141
1040
150.0
1070
   147
1040
2.0
1070
   172
1070
     1
1070
   173
1070
     1
1070
   176
1070
   256
1070
   177
1070
   256
1070
   178
1070
   256
1070
   271
1070
     0
1070
   272
1070
     2
1070
     6
1000
OPEN
1070
     7
1000
OPEN
1002
}
  0
DIMENSION
  5
627
330
1A
100
AcDbEntity
  8
SUNPOU
100
AcDbDimension
  2
*D7
 10
184.9802410259817
 20
344.6175829726296
 30
0.0
 11
227.4802410259817
 21
349.6175829726296
 31
0.0
 70
    32
  3
STANDARD
100
AcDbAlignedDimension
 13
269.9802410259817
 23
388.4020491395437
 33
0.0
 14
184.9802410259817
 24
388.4020491395437
 34
0.0
100
AcDbRotatedDimension
1001
ACAD
1000
DSTYLE
1002
{
1070
   372
1070
    -1
1070
   371
1070
    -1
1070
    41
1040
7.0
1070
    42
1040
6.0
1070
    43
1040
14.0
1070
    44
1040
3.0
1070
    73
1070
     0
1070
    74
1070
     0
1070
    77
1070
     3
1070
   140
1040
6.0
1070
   141
1040
150.0
1070
   147
1040
2.0
1070
   172
1070
     1
1070
   173
1070
     1
1070
   176
1070
   256
1070
   177
1070
   256
1070
   178
1070
   256
1070
   271
1070
     0
1070
   272
1070
     2
1070
     6
1000
OPEN
1070
     7
1000
OPEN
1002
}
  0
TEXT
  5
649
330
1A
100
AcDbEntity
  8
SUNPOU
  6
CONTINUOUS
 62
     4
100
AcDbText
 10
669.2567161464474
 20
47.18128261732999
 30
0.0
 40
6.0
  1
※a　のきといの差込み寸法を示す
100
AcDbText
  0
TEXT
  5
6A2
330
1A
100
AcDbEntity
  8
SUNPOU
  6
CONTINUOUS
 62
     4
100
AcDbText
 10
669.2567161464474
 20
37.17803126242051
 30
0.0
 40
6.0
  1
※b　角々エルボの差込み寸法を示す
100
AcDbText
  0
ARC
  5
76E
330
1A
100
AcDbEntity
  8
NOKITOI
  6
PHANTOM
 62
     8
 48
5.0
100
AcDbCircle
 10
584.7162134453315
 20
1152.796795865111
 30
0.0
 40
1000.0
100
AcDbArc
 50
266.2223517865
 51
273.1811367221999
  0
ARC
  5
76F
330
1A
100
AcDbEntity
  8
NOKITOI
  6
PHANTOM
 62
     8
 48
5.0
100
AcDbCircle
 10
584.7162134453315
 20
1152.796795865111
 30
0.0
 40
998.55
100
AcDbArc
 50
266.2223518053
 51
273.1811365939
  0
ARC
  5
770
330
1A
100
AcDbEntity
  8
NOKITOI
  6
PHANTOM
 62
     8
 48
5.0
100
AcDbCircle
 10
741.9118682396315
 20
214.7356593358121
 30
0.0
 40
250.0
100
AcDbArc
 50
162.1695584315
 51
180.1002679523
  0
ARC
  5
771
330
1A
100
AcDbEntity
  8
NOKITOI
  6
PHANTOM
 62
     8
 48
5.0
100
AcDbCircle
 10
741.9118682396315
 20
214.7356593358121
 30
0.0
 40
248.3999999999999
100
AcDbArc
 50
171.419147457
 51
177.7937752152
  0
ARC
  5
772
330
1A
100
AcDbEntity
  8
NOKITOI
  6
PHANTOM
 62
     8
 48
5.0
100
AcDbCircle
 10
510.9118760518315
 20
211.798158083912
 30
0.0
 40
6.0
100
AcDbArc
 50
0.0
 51
90.0
  0
ARC
  5
773
330
1A
100
AcDbEntity
  8
NOKITOI
  6
PHANTOM
 62
     8
 48
5.0
100
AcDbCircle
 10
510.9118760518315
 20
211.798158083912
 30
0.0
 40
7.45
100
AcDbArc
 50
0.0
 51
90.0
  0
LINE
  5
774
330
1A
100
AcDbEntity
  8
NOKITOI
  6
PHANTOM
 62
     8
 48
5.0
100
AcDbLine
 10
506.3618760518315
 20
201.7981580839121
 30
0.0
 11
512.9118760518315
 21
201.7981580839121
 31
0.0
  0
LINE
  5
775
330
1A
100
AcDbEntity
  8
NOKITOI
  6
PHANTOM
 62
     8
 48
5.0
100
AcDbLine
 10
511.9118760518315
 20
200.3481580839121
 30
0.0
 11
506.9379864276315
 21
193.7981580839121
 31
0.0
  0
ARC
  5
776
330
1A
100
AcDbEntity
  8
NOKITOI
  6
PHANTOM
 62
     8
 48
5.0
100
AcDbCircle
 10
750.1197946731315
 20
245.176272475212
 30
0.0
 40
248.55
100
AcDbArc
 50
191.9297001918
 51
200.6764330743999
  0
ARC
  5
777
330
1A
100
AcDbEntity
  8
NOKITOI
  6
PHANTOM
 62
     8
 48
5.0
100
AcDbCircle
 10
750.1197946731315
 20
245.176272475212
 30
0.0
 40
250.0
100
AcDbArc
 50
189.9921039466999
 51
200.6764328196
  0
ARC
  5
778
330
1A
100
AcDbEntity
  8
NOKITOI
  6
PHANTOM
 62
     8
 48
5.0
100
AcDbCircle
 10
505.0618121560315
 20
203.809462395312
 30
0.0
 40
1.149999999999999
100
AcDbArc
 50
98.62322372480001
 51
180.6477031289999
  0
LINE
  5
779
330
1A
100
AcDbEntity
  8
NOKITOI
  6
PHANTOM
 62
     8
 48
5.0
100
AcDbLine
 10
505.3618760518316
 20
202.798158083912
 30
0.0
 11
505.3618760518316
 21
204.948158083912
 31
0.0
  0
LINE
  5
77A
330
1A
100
AcDbEntity
  8
NOKITOI
  6
PHANTOM
 62
     8
 48
5.0
100
AcDbLine
 10
510.0911895491314
 20
200.3481580839121
 30
0.0
 11
506.5476412925315
 21
195.681741489512
 31
0.0
  0
ARC
  5
77B
330
1A
100
AcDbEntity
  8
NOKITOI
  6
PHANTOM
 62
     8
 48
5.0
100
AcDbCircle
 10
750.1197946731315
 20
245.176272475212
 30
0.0
 40
248.55
100
AcDbArc
 50
190.3906442665999
 51
191.4862694265999
  0
LINE
  5
77C
330
1A
100
AcDbEntity
  8
NOKITOI
  6
PHANTOM
 62
     8
 48
5.0
100
AcDbLine
 10
505.6457824344315
 20
200.3481580839121
 30
0.0
 11
510.0911895491314
 21
200.3481580839121
 31
0.0
  0
LINE
  5
77D
330
1A
100
AcDbEntity
  8
NOKITOI
  6
PHANTOM
 62
     8
 48
5.0
100
AcDbLine
 10
503.9118760518315
 20
201.7981580839121
 30
0.0
 11
503.9118760518315
 21
203.7981580839121
 31
0.0
  0
ARC
  5
77E
330
1A
100
AcDbEntity
  8
NOKITOI
  6
PHANTOM
 62
     8
 48
5.0
100
AcDbCircle
 10
506.3618760518315
 20
202.798158083912
 30
0.0
 40
1.0
100
AcDbArc
 50
180.0
 51
270.0
  0
LINE
  5
77F
330
1A
100
AcDbEntity
  8
NOKITOI
  6
PHANTOM
 62
     8
 48
5.0
100
AcDbLine
 10
493.5528592324315
 20
219.248158083912
 30
0.0
 11
499.1431431803315
 21
219.248158083912
 31
0.0
  0
LINE
  5
780
330
1A
100
AcDbEntity
  8
NOKITOI
  6
PHANTOM
 62
     8
 48
5.0
100
AcDbLine
 10
493.6959972368315
 20
224.298158083912
 30
0.0
 11
501.9122510546315
 21
219.248158083912
 31
0.0
  0
LINE
  5
781
330
1A
100
AcDbEntity
  8
NOKITOI
  6
PHANTOM
 62
     8
 48
5.0
100
AcDbLine
 10
493.6374131492315
 20
222.6321743611121
 30
0.0
 11
499.1431431803315
 21
219.248158083912
 31
0.0
  0
LINE
  5
782
330
1A
100
AcDbEntity
  8
NOKITOI
  6
PHANTOM
 62
     8
 48
5.0
100
AcDbLine
 10
494.5204656022315
 20
217.798158083912
 30
0.0
 11
510.9118760518315
 21
217.798158083912
 31
0.0
  0
ARC
  5
783
330
1A
100
AcDbEntity
  8
NOKITOI
  6
PHANTOM
 62
     8
 48
5.0
100
AcDbCircle
 10
741.9118682396315
 20
214.7356593358121
 30
0.0
 40
248.3999999999999
100
AcDbArc
 50
179.5223369345
 51
179.8707745326
  0
LINE
  5
784
330
1A
100
AcDbEntity
  8
NOKITOI
  6
PHANTOM
 62
     8
 48
5.0
100
AcDbLine
 10
491.9122510546315
 20
214.2981580839121
 30
0.0
 11
492.5125025725315
 21
214.2981580839121
 31
0.0
  0
ARC
  5
785
330
1A
100
AcDbEntity
  8
NOKITOI
  6
PHANTOM
 62
     8
 48
5.0
100
AcDbCircle
 10
492.5125025725315
 20
215.298158083912
 30
0.0
 40
1.0
100
AcDbArc
 50
270.0
 51
359.8707745326
  0
ARC
  5
786
330
1A
100
AcDbEntity
  8
NOKITOI
  6
PHANTOM
 62
     8
 48
5.0
100
AcDbCircle
 10
741.9118682396315
 20
214.7356593358121
 30
0.0
 40
248.3999999999999
100
AcDbArc
 50
178.1782881565
 51
178.9590927693999
  0
ARC
  5
787
330
1A
100
AcDbEntity
  8
NOKITOI
  6
PHANTOM
 62
     8
 48
5.0
100
AcDbCircle
 10
494.5204656022315
 20
216.798158083912
 30
0.0
 40
1.0
100
AcDbArc
 50
90.0
 51
179.5223369345
  0
LINE
  5
788
330
1A
100
AcDbEntity
  8
NOKITOI
  6
PHANTOM
 62
     8
 48
5.0
100
AcDbLine
 10
504.9118760518315
 20
204.948158083912
 30
0.0
 11
505.3618760518316
 21
204.948158083912
 31
0.0
  0
LINE
  5
789
330
1A
100
AcDbEntity
  8
NOKITOI
  6
PHANTOM
 62
     8
 48
5.0
100
AcDbLine
 10
501.9122510546315
 20
219.248158083912
 30
0.0
 11
510.9118760518315
 21
219.248158083912
 31
0.0
  0
ARC
  5
78A
330
1A
100
AcDbEntity
  8
NOKITOI
  6
PHANTOM
 62
     8
 48
5.0
100
AcDbCircle
 10
519.0292269213315
 20
157.9630309570121
 30
0.0
 40
3.0
100
AcDbArc
 50
200.676411839
 51
266.2223455359999
  0
ARC
  5
78B
330
1A
100
AcDbEntity
  8
NOKITOI
  6
PHANTOM
 62
     8
 48
5.0
100
AcDbCircle
 10
519.0292269213315
 20
157.9630309570121
 30
0.0
 40
1.55
100
AcDbArc
 50
200.6764330743999
 51
266.2223518053
  0
ARC
  5
78C
330
1A
100
AcDbEntity
  8
NOKITOI
  6
PHANTOM
 62
     8
 48
5.0
100
AcDbCircle
 10
512.9118760518315
 20
205.7981580839121
 30
0.0
 40
4.0
100
AcDbArc
 50
270.0
 51
0.0
  0
ARC
  5
78D
330
1A
100
AcDbEntity
  8
NOKITOI
  6
PHANTOM
 62
     8
 48
5.0
100
AcDbCircle
 10
512.9118760518315
 20
205.7981580839121
 30
0.0
 40
5.45
100
AcDbArc
 50
270.0
 51
0.0
  0
LINE
  5
78E
330
1A
100
AcDbEntity
  8
NOKITOI
  6
PHANTOM
 62
     8
 48
5.0
100
AcDbLine
 10
511.9118760518315
 20
200.3481580839121
 30
0.0
 11
512.9118760518315
 21
200.3481580839121
 31
0.0
  0
LINE
  5
78F
330
1A
100
AcDbEntity
  8
NOKITOI
  6
PHANTOM
 62
     8
 48
5.0
100
AcDbLine
 10
518.3618760518315
 20
205.7981580839121
 30
0.0
 11
518.3618760518315
 21
211.798158083912
 31
0.0
  0
LINE
  5
790
330
1A
100
AcDbEntity
  8
NOKITOI
  6
PHANTOM
 62
     8
 48
5.0
100
AcDbLine
 10
516.9118760518315
 20
205.7981580839121
 30
0.0
 11
516.9118760518315
 21
211.798158083912
 31
0.0
  0
LINE
  5
791
330
1A
100
AcDbEntity
  8
NOKITOI
  6
PHANTOM
 62
     8
 48
5.0
100
AcDbLine
 10
508.9108873441315
 20
286.686797904812
 30
0.0
 11
517.8834326072315
 21
285.610092473312
 31
0.0
  0
LINE
  5
792
330
1A
100
AcDbEntity
  8
NOKITOI
  6
PHANTOM
 62
     8
 48
5.0
100
AcDbLine
 10
508.7873468036316
 20
284.2481580839121
 30
0.0
 11
515.5090075204316
 21
284.2481580839121
 31
0.0
  0
LINE
  5
793
330
1A
100
AcDbEntity
  8
NOKITOI
  6
PHANTOM
 62
     8
 48
5.0
100
AcDbLine
 10
509.2732915592315
 20
288.103712083212
 30
0.0
 11
520.1017787254316
 21
286.8042936233121
 31
0.0
  0
LINE
  5
794
330
1A
100
AcDbEntity
  8
NOKITOI
  6
PHANTOM
 62
     8
 48
5.0
100
AcDbLine
 10
508.7873468036316
 20
282.7981580839121
 30
0.0
 11
513.0040625396316
 21
282.7981580839121
 31
0.0
  0
LINE
  5
795
330
1A
100
AcDbEntity
  8
NOKITOI
  6
PHANTOM
 62
     8
 48
5.0
100
AcDbLine
 10
508.9422886916316
 20
267.298158083912
 30
0.0
 11
512.4118760518315
 21
267.298158083912
 31
0.0
  0
LINE
  5
796
330
1A
100
AcDbEntity
  8
NOKITOI
  6
PHANTOM
 62
     8
 48
5.0
100
AcDbLine
 10
508.7873468036316
 20
265.848158083912
 30
0.0
 11
512.4118760518315
 21
265.848158083912
 31
0.0
  0
ARC
  5
797
330
1A
100
AcDbEntity
  8
NOKITOI
  6
PHANTOM
 62
     8
 48
5.0
100
AcDbCircle
 10
534.3861132399315
 20
216.0681580839121
 30
0.0
 40
50.0
100
AcDbArc
 50
114.4946484714
 51
134.3895727026999
  0
ARC
  5
798
330
1A
100
AcDbEntity
  8
NOKITOI
  6
PHANTOM
 62
     8
 48
5.0
100
AcDbCircle
 10
534.3861132399315
 20
216.0681580839121
 30
0.0
 40
51.45
100
AcDbArc
 50
114.4946484714
 51
133.7268468125
  0
ARC
  5
799
330
1A
100
AcDbEntity
  8
NOKITOI
  6
PHANTOM
 62
     8
 48
5.0
100
AcDbCircle
 10
508.9422886916316
 20
275.048158083912
 30
0.0
 40
7.75
100
AcDbArc
 50
90.0
 51
270.0
  0
ARC
  5
79A
330
1A
100
AcDbEntity
  8
NOKITOI
  6
PHANTOM
 62
     8
 48
5.0
100
AcDbCircle
 10
741.9118682396315
 20
214.7356593358121
 30
0.0
 40
248.3999999999999
100
AcDbArc
 50
166.6473975366
 51
171.0807524796999
  0
LINE
  5
79B
330
1A
100
AcDbEntity
  8
NOKITOI
  6
PHANTOM
 62
     8
 48
5.0
100
AcDbLine
 10
496.2923836979315
 20
251.7981580839121
 30
0.0
 11
499.4094481616316
 21
251.7981580839121
 31
0.0
  0
LINE
  5
79C
330
1A
100
AcDbEntity
  8
NOKITOI
  6
PHANTOM
 62
     8
 48
5.0
100
AcDbLine
 10
496.5155613396316
 20
253.2481580839121
 30
0.0
 11
498.8227880298316
 21
253.2481580839121
 31
0.0
  0
ARC
  5
79D
330
1A
100
AcDbEntity
  8
NOKITOI
  6
PHANTOM
 62
     8
 48
5.0
100
AcDbCircle
 10
508.9422886916316
 20
275.048158083912
 30
0.0
 40
9.199999999999999
100
AcDbArc
 50
198.6775985467999
 51
270.0
  0
ARC
  5
79E
330
1A
100
AcDbEntity
  8
NOKITOI
  6
PHANTOM
 62
     8
 48
5.0
100
AcDbCircle
 10
508.9422886916316
 20
275.048158083912
 30
0.0
 40
9.199999999999999
100
AcDbArc
 50
198.6775985467999
 51
270.0
  0
ARC
  5
79F
330
1A
100
AcDbEntity
  8
NOKITOI
  6
PHANTOM
 62
     8
 48
5.0
100
AcDbCircle
 10
741.9118682396315
 20
214.7356593358121
 30
0.0
 40
248.3999999999999
100
AcDbArc
 50
162.1512099251
 51
164.3238038275
  0
ARC
  5
7A0
330
1A
100
AcDbEntity
  8
NOKITOI
  6
PHANTOM
 62
     8
 48
5.0
100
AcDbCircle
 10
508.9422886916316
 20
275.048158083912
 30
0.0
 40
9.199999999999999
100
AcDbArc
 50
90.0
 51
132.2936028172999
  0
ARC
  5
7A1
330
1A
100
AcDbEntity
  8
NOKITOI
  6
PHANTOM
 62
     8
 48
5.0
100
AcDbCircle
 10
509.5562637176315
 20
291.8677260043121
 30
0.0
 40
0.5
100
AcDbArc
 50
339.4439368506999
 51
85.23633891220001
  0
ARC
  5
7A2
330
1A
100
AcDbEntity
  8
NOKITOI
  6
PHANTOM
 62
     8
 48
5.0
100
AcDbCircle
 10
505.8240919178315
 20
290.6735409986121
 30
0.0
 40
2.0
100
AcDbArc
 50
85.23637202519999
 51
162.1695753436
  0
ARC
  5
7A3
330
1A
100
AcDbEntity
  8
NOKITOI
  6
PHANTOM
 62
     8
 48
5.0
100
AcDbCircle
 10
509.1193914802316
 20
288.4243323722121
 30
0.0
 40
1.75
100
AcDbArc
 50
159.4439547804
 51
263.1572265874
  0
LINE
  5
7A4
330
1A
100
AcDbEntity
  8
NOKITOI
  6
PHANTOM
 62
     8
 48
5.0
100
AcDbLine
 10
508.0317609213316
 20
290.5079864001121
 30
0.0
 11
507.4808154194315
 21
289.0387983950121
 31
0.0
  0
LINE
  5
7A5
330
1A
100
AcDbEntity
  8
NOKITOI
  6
PHANTOM
 62
     8
 48
5.0
100
AcDbLine
 10
505.7781491006315
 20
291.078756052612
 30
0.0
 11
507.7757758120315
 21
290.9122871600121
 31
0.0
  0
ARC
  5
7A6
330
1A
100
AcDbEntity
  8
NOKITOI
  6
PHANTOM
 62
     8
 48
5.0
100
AcDbCircle
 10
505.7532354567315
 20
290.7797923251121
 30
0.0
 40
0.3
100
AcDbArc
 50
85.2363583093
 51
162.1512099253
  0
ARC
  5
7A7
330
1A
100
AcDbEntity
  8
NOKITOI
  6
PHANTOM
 62
     8
 48
5.0
100
AcDbCircle
 10
507.7508621680315
 20
290.6133234325121
 30
0.0
 40
0.3
100
AcDbArc
 50
339.4439547805
 51
85.2363583093
  0
ARC
  5
7A8
330
1A
100
AcDbEntity
  8
NOKITOI
  6
PHANTOM
 62
     8
 48
5.0
100
AcDbCircle
 10
509.3269069085315
 20
288.5505066605121
 30
0.0
 40
0.45
100
AcDbArc
 50
159.4439547804
 51
263.1572265872999
  0
LINE
  5
7A9
330
1A
100
AcDbEntity
  8
NOKITOI
  6
PHANTOM
 62
     8
 48
5.0
100
AcDbLine
 10
510.0244282515316
 20
291.692164137012
 30
0.0
 11
508.9055587786315
 21
288.7085122093121
 31
0.0
  0
LINE
  5
7AA
330
1A
100
AcDbEntity
  8
NOKITOI
  6
PHANTOM
 62
     8
 48
5.0
100
AcDbLine
 10
505.9901824004316
 20
292.6666325548121
 30
0.0
 11
509.5977866263315
 21
292.365998869312
 31
0.0
  0
ARC
  5
7AB
330
1A
100
AcDbEntity
  8
NOKITOI
  6
PHANTOM
 62
     8
 48
5.0
100
AcDbCircle
 10
512.4118760518315
 20
264.2981580839121
 30
0.0
 40
3.0
100
AcDbArc
 50
294.4946484714
 51
90.0
  0
ARC
  5
7AC
330
1A
100
AcDbEntity
  8
NOKITOI
  6
PHANTOM
 62
     8
 48
5.0
100
AcDbCircle
 10
512.4118760518315
 20
264.2981580839121
 30
0.0
 40
1.55
100
AcDbArc
 50
294.4946484714
 51
90.0
  0
ARC
  5
7AD
330
1A
100
AcDbEntity
  8
NOKITOI
  6
PHANTOM
 62
     8
 48
5.0
100
AcDbCircle
 10
519.9826316181315
 20
285.811417011212
 30
0.0
 40
1.0
100
AcDbArc
 50
339.7751309718
 51
83.15711771670001
  0
LINE
  5
7AE
330
1A
100
AcDbEntity
  8
NOKITOI
  6
PHANTOM
 62
     8
 48
5.0
100
AcDbLine
 10
518.1529319722314
 20
277.9524527250121
 30
0.0
 11
520.9209746770316
 21
285.465711495212
 31
0.0
  0
LINE
  5
7AF
330
1A
100
AcDbEntity
  8
NOKITOI
  6
PHANTOM
 62
     8
 48
5.0
100
AcDbLine
 10
514.4913635392315
 20
278.7481580839121
 30
0.0
 11
516.0070831487315
 21
282.8622541667121
 31
0.0
  0
LINE
  5
7B0
330
1A
100
AcDbEntity
  8
NOKITOI
  6
PHANTOM
 62
     8
 48
5.0
100
AcDbLine
 10
512.6597691442316
 20
277.9710107633121
 30
0.0
 11
513.9424056564315
 21
281.4524527250121
 31
0.0
  0
LINE
  5
7B1
330
1A
100
AcDbEntity
  8
NOKITOI
  6
PHANTOM
 62
     8
 48
5.0
100
AcDbLine
 10
516.9008096170315
 20
278.7481580839121
 30
0.0
 11
519.0621224340316
 21
284.6145785869121
 31
0.0
  0
LINE
  5
7B2
330
1A
100
AcDbEntity
  8
NOKITOI
  6
PHANTOM
 62
     8
 48
5.0
100
AcDbLine
 10
514.4913635392315
 20
278.7481580839121
 30
0.0
 11
516.9008096170315
 21
278.7481580839121
 31
0.0
  0
LINE
  5
7B3
330
1A
100
AcDbEntity
  8
NOKITOI
  6
PHANTOM
 62
     8
 48
5.0
100
AcDbLine
 10
513.1289407026315
 20
277.298158083912
 30
0.0
 11
517.2145888554315
 21
277.298158083912
 31
0.0
  0
ARC
  5
7B4
330
1A
100
AcDbEntity
  8
NOKITOI
  6
PHANTOM
 62
     8
 48
5.0
100
AcDbCircle
 10
513.1289407026315
 20
277.798158083912
 30
0.0
 40
0.5
100
AcDbArc
 50
159.7751405688
 51
270.0
  0
ARC
  5
7B5
330
1A
100
AcDbEntity
  8
NOKITOI
  6
PHANTOM
 62
     8
 48
5.0
100
AcDbCircle
 10
517.2145888554315
 20
278.298158083912
 30
0.0
 40
1.0
100
AcDbArc
 50
270.0
 51
339.7751405689
  0
LINE
  5
7B6
330
1A
100
AcDbEntity
  8
NOKITOI
  6
PHANTOM
 62
     8
 48
5.0
100
AcDbLine
 10
515.5090075204316
 20
284.2481580839121
 30
0.0
 11
517.8834326072315
 21
285.610092473312
 31
0.0
  0
ARC
  5
7B7
330
1A
100
AcDbEntity
  8
NOKITOI
  6
PHANTOM
 62
     8
 48
5.0
100
AcDbCircle
 10
513.0040625396316
 20
281.798158083912
 30
0.0
 40
1.0
100
AcDbArc
 50
339.7751405688
 51
90.0
  0
LINE
  5
7B8
330
1A
100
AcDbEntity
  8
NOKITOI
  6
PHANTOM
 62
     8
 48
5.0
100
AcDbLine
 10
516.0070831487315
 20
282.8622541667121
 30
0.0
 11
519.0621224340316
 21
284.6145785869121
 31
0.0
  0
LINE
  5
7B9
330
1A
100
AcDbEntity
  8
NOKITOI
  6
PHANTOM
 62
     8
 48
5.0
100
AcDbLine
 10
640.9706526166489
 20
238.3481580839121
 30
0.0
 11
636.5351555609473
 21
224.4723665379223
 31
0.0
  0
LINE
  5
7BA
330
1A
100
AcDbEntity
  8
NOKITOI
  6
PHANTOM
 62
     8
 48
5.0
100
AcDbLine
 10
639.9118760518315
 20
239.798158083912
 30
0.0
 11
634.6861963404632
 21
223.4503978553604
 31
0.0
  0
LINE
  5
7BB
330
1A
100
AcDbEntity
  8
NOKITOI
  6
PHANTOM
 62
     8
 48
5.0
100
AcDbLine
 10
644.9258769131315
 20
159.0921761710121
 30
0.0
 11
648.6624557955315
 21
237.5603327005121
 31
0.0
  0
LINE
  5
7BC
330
1A
100
AcDbEntity
  8
NOKITOI
  6
PHANTOM
 62
     8
 48
5.0
100
AcDbLine
 10
646.6249854104315
 20
225.2579588757121
 30
0.0
 11
647.2140969784316
 21
237.629301803412
 31
0.0
  0
LINE
  5
7BD
330
1A
100
AcDbEntity
  8
NOKITOI
  6
PHANTOM
 62
     8
 48
5.0
100
AcDbLine
 10
646.5554710870314
 20
223.798158083912
 30
0.0
 11
635.1624557781538
 21
222.7981580839121
 31
0.0
  0
LINE
  5
7BE
330
1A
100
AcDbEntity
  8
NOKITOI
  6
PHANTOM
 62
     8
 48
5.0
100
AcDbLine
 10
636.5351555609473
 20
224.4723665379223
 30
0.0
 11
646.6249854104315
 21
225.2579588757121
 31
0.0
  0
ARC
  5
7BF
330
1A
100
AcDbEntity
  8
NOKITOI
  6
PHANTOM
 62
     8
 48
5.0
100
AcDbCircle
 10
639.9315362856316
 20
159.3300032024121
 30
0.0
 40
5.0
100
AcDbArc
 50
273.1811365939
 51
357.2736890061
  0
ARC
  5
7C0
330
1A
100
AcDbEntity
  8
NOKITOI
  6
PHANTOM
 62
     8
 48
5.0
100
AcDbCircle
 10
639.9315362856316
 20
159.3300032024121
 30
0.0
 40
3.549999999999999
100
AcDbArc
 50
273.1811365939
 51
357.2736890061
  0
ARC
  5
7C2
330
1A
100
AcDbEntity
  8
NOKITOI
  6
PHANTOM
 62
     8
 48
5.0
100
AcDbCircle
 10
635.1624557781538
 20
223.298158083912
 30
0.0
 40
0.5
100
AcDbArc
 50
162.2731452909182
 51
280.032342916176
  0
LINE
  5
7C3
330
1A
100
AcDbEntity
  8
NOKITOI
  6
PHANTOM
 62
     8
 48
5.0
100
AcDbLine
 10
635.1624557781538
 20
222.7981580839121
 30
0.0
 11
635.1624557781538
 21
222.7981580839121
 31
0.0
  0
LINE
  5
7C4
330
1A
100
AcDbEntity
  8
NOKITOI
  6
PHANTOM
 62
     8
 48
5.0
100
AcDbLine
 10
643.4775181746315
 20
159.161146921912
 30
0.0
 11
646.5554710870314
 21
223.798158083912
 31
0.0
  0
LINE
  5
7C5
330
1A
100
AcDbEntity
  8
NOKITOI
  6
PHANTOM
 62
     8
 48
5.0
100
AcDbLine
 10
641.9118760518315
 20
242.798158083912
 30
0.0
 11
643.6681178614316
 21
242.798158083912
 31
0.0
  0
LINE
  5
7C6
330
1A
100
AcDbEntity
  8
NOKITOI
  6
PHANTOM
 62
     8
 48
5.0
100
AcDbLine
 10
640.9706526166489
 20
238.3481580839121
 30
0.0
 11
643.3618760518315
 21
238.348158083912
 31
0.0
  0
LINE
  5
7C7
330
1A
100
AcDbEntity
  8
NOKITOI
  6
PHANTOM
 62
     8
 48
5.0
100
AcDbLine
 10
641.9118760518315
 20
239.798158083912
 30
0.0
 11
641.9118760518315
 21
242.798158083912
 31
0.0
  0
LINE
  5
7C8
330
1A
100
AcDbEntity
  8
NOKITOI
  6
PHANTOM
 62
     8
 48
5.0
100
AcDbLine
 10
639.9118760518315
 20
239.798158083912
 30
0.0
 11
641.9118760518315
 21
239.798158083912
 31
0.0
  0
LINE
  5
7C9
330
1A
100
AcDbEntity
  8
NOKITOI
  6
PHANTOM
 62
     8
 48
5.0
100
AcDbLine
 10
643.3618760518315
 20
238.348158083912
 30
0.0
 11
643.3618760518315
 21
241.3481580839121
 31
0.0
  0
ARC
  5
7CA
330
1A
100
AcDbEntity
  8
NOKITOI
  6
PHANTOM
 62
     8
 48
5.0
100
AcDbCircle
 10
643.6681150895315
 20
237.798158083912
 30
0.0
 40
5.0
100
AcDbArc
 50
357.2736890061
 51
90.0
  0
ARC
  5
7CB
330
1A
100
AcDbEntity
  8
NOKITOI
  6
PHANTOM
 62
     8
 48
5.0
100
AcDbCircle
 10
643.6681150895315
 20
237.798158083912
 30
0.0
 40
3.549999999999999
100
AcDbArc
 50
357.2736890061
 51
90.0
  0
LINE
  5
7CC
330
1A
100
AcDbEntity
  8
NOKITOI
  6
PHANTOM
 62
     8
 48
5.0
100
AcDbLine
 10
643.3618760518315
 20
241.3481580839121
 30
0.0
 11
643.6681150895315
 21
241.3481580839121
 31
0.0
  0
DIMENSION
  5
81D
330
1A
100
AcDbEntity
  8
SUNPOU
100
AcDbDimension
  2
*D8
 10
342.4802410259817
 20
429.7113844576237
 30
0.0
 11
325.8722995259816
 21
434.7113844576238
 31
0.0
 70
    32
  3
STANDARD
100
AcDbAlignedDimension
 13
309.2643580259817
 23
420.7381201395437
 33
0.0
 14
342.4802410259817
 24
420.7381201395437
 34
0.0
100
AcDbRotatedDimension
1001
ACAD
1000
DSTYLE
1002
{
1070
   372
1070
    -1
1070
   371
1070
    -1
1070
    41
1040
7.0
1070
    42
1040
6.0
1070
    43
1040
14.0
1070
    44
1040
3.0
1070
    73
1070
     0
1070
    74
1070
     0
1070
    77
1070
     3
1070
   140
1040
6.0
1070
   141
1040
150.0
1070
   147
1040
2.0
1070
   172
1070
     1
1070
   173
1070
     1
1070
   176
1070
   256
1070
   177
1070
   256
1070
   178
1070
   256
1070
   271
1070
     0
1070
   272
1070
     2
1070
     6
1000
OPEN
1070
     7
1000
OPEN
1002
}
  0
DIMENSION
  5
844
330
1A
100
AcDbEntity
  8
SUNPOU
100
AcDbDimension
  2
*D9
 10
443.7123253051677
 20
130.3043988399076
 30
0.0
 11
438.7123253051676
 21
140.3043988125298
 31
0.0
 70
    32
  3
STANDARD
100
AcDbAlignedDimension
 13
580.8118760259816
 23
150.3043987851517
 33
0.0
 14
550.8039690259817
 24
130.3043988399076
 34
0.0
 50
90.0
100
AcDbRotatedDimension
1001
ACAD
1000
DSTYLE
1002
{
1070
   372
1070
    -1
1070
   371
1070
    -1
1070
    41
1040
7.0
1070
    42
1040
6.0
1070
    43
1040
14.0
1070
    44
1040
3.0
1070
    73
1070
     0
1070
    74
1070
     0
1070
    77
1070
     3
1070
   140
1040
6.0
1070
   141
1040
150.0
1070
   147
1040
2.0
1070
   172
1070
     1
1070
   173
1070
     1
1070
   176
1070
   256
1070
   177
1070
   256
1070
   178
1070
   256
1070
   271
1070
     0
1070
   272
1070
     2
1070
     6
1000
OPEN
1070
     7
1000
OPEN
1002
}
  0
LINE
  5
895
330
1A
100
AcDbEntity
  8
SEIHIN
  6
CONTINUOUS
 62
     3
100
AcDbLine
 10
256.6804060439951
 20
69.80433283927135
 30
0.0
 11
256.6804060439951
 21
75.80443283995629
 31
0.0
  0
LINE
  5
896
330
1A
100
AcDbEntity
  8
SEIHIN
  6
CONTINUOUS
 62
     3
100
AcDbLine
 10
198.2798060439951
 20
69.80453283995638
 30
0.0
 11
198.2798060439951
 21
75.80443283995629
 31
0.0
  0
LINE
  5
897
330
1A
100
AcDbEntity
  8
SEIHIN
  6
CONTINUOUS
 62
     3
100
AcDbLine
 10
198.2798060439951
 20
69.80453283995638
 30
0.0
 11
256.6804060439951
 21
69.80433283927135
 31
0.0
  0
LINE
  5
898
330
1A
100
AcDbEntity
  8
SEIHIN
  6
CONTINUOUS
 62
     3
100
AcDbLine
 10
259.480206043995
 20
130.3045328399563
 30
0.0
 11
255.7581060439951
 21
89.73203283995628
 31
0.0
  0
LINE
  5
899
330
1A
100
AcDbEntity
  8
SEIHIN
  6
CONTINUOUS
 62
     3
100
AcDbLine
 10
192.4802060439951
 20
75.80453283995638
 30
0.0
 11
262.4803355341622
 21
75.80433283958632
 31
0.0
  0
LINE
  5
89A
330
1A
100
AcDbEntity
  8
SEIHIN
  6
CONTINUOUS
 62
     3
100
AcDbLine
 10
186.4802060439951
 20
130.3045328399563
 30
0.0
 11
190.2024060439952
 21
89.73203283995628
 31
0.0
  0
ARC
  5
89B
330
1A
100
AcDbEntity
  8
SEIHIN
  6
CONTINUOUS
 62
     3
100
AcDbCircle
 10
289.7842060439951
 20
98.86793283995638
 30
0.0
 40
99.99997100000001
100
AcDbArc
 50
185.241794
 51
193.3344079999999
  0
LINE
  5
89D
330
1A
100
AcDbEntity
  8
SEIHIN
  6
CONTINUOUS
 62
     3
100
AcDbLine
 10
195.4802060439951
 20
130.3045328399563
 30
0.0
 11
199.2024060439952
 21
89.73203283995628
 31
0.0
  0
ARC
  5
89E
330
1A
100
AcDbEntity
  8
SEIHIN
  6
CONTINUOUS
 62
     3
100
AcDbCircle
 10
298.7842060439951
 20
98.86793283995638
 30
0.0
 40
99.99997100000001
100
AcDbArc
 50
185.241794
 51
193.3344079999999
  0
ARC
  5
89F
330
1A
100
AcDbEntity
  8
SEIHIN
  6
CONTINUOUS
 62
     3
100
AcDbCircle
 10
156.1763060439951
 20
98.86793283995638
 30
0.0
 40
100.000031
100
AcDbArc
 50
346.665369
 51
354.758035
  0
LINE
  5
8A0
330
1A
100
AcDbEntity
  8
SEIHIN
  6
CONTINUOUS
 62
     3
100
AcDbLine
 10
268.480206043995
 20
130.3045328399563
 30
0.0
 11
264.7581060439951
 21
89.73203283995628
 31
0.0
  0
ARC
  5
8A1
330
1A
100
AcDbEntity
  8
SEIHIN
  6
CONTINUOUS
 62
     3
100
AcDbCircle
 10
165.1763060439951
 20
98.86793283995638
 30
0.0
 40
100.0000189999999
100
AcDbArc
 50
346.665424
 51
354.758035
  0
LINE
  5
8A2
330
1A
100
AcDbEntity
  8
SEIHIN
  6
CONTINUOUS
 62
     3
100
AcDbLine
 10
638.557810043995
 20
130.3044988399563
 30
0.0
 11
634.835710043995
 21
89.73199883995624
 31
0.0
  0
LINE
  5
8A3
330
1A
100
AcDbEntity
  8
SEIHIN
  6
CONTINUOUS
 62
     3
100
AcDbLine
 10
565.5578100439951
 20
130.3044988399563
 30
0.0
 11
569.2800100439951
 21
89.73199883995624
 31
0.0
  0
LINE
  5
8A4
330
1A
100
AcDbEntity
  8
SEIHIN
  6
CONTINUOUS
 62
     3
100
AcDbLine
 10
556.557810043995
 20
130.3044988399563
 30
0.0
 11
560.2800100439951
 21
89.73199883995624
 31
0.0
  0
LINE
  5
8A5
330
1A
100
AcDbEntity
  8
SEIHIN
  6
CONTINUOUS
 62
     3
100
AcDbLine
 10
629.557810043995
 20
130.3044988399563
 30
0.0
 11
625.835710043995
 21
89.73199883995624
 31
0.0
  0
LINE
  5
8A6
330
1A
100
AcDbEntity
  8
SEIHIN
  6
CONTINUOUS
 62
     3
100
AcDbLine
 10
562.5578100439951
 20
75.80449883995635
 30
0.0
 11
632.5579395341621
 21
75.80429883958629
 31
0.0
  0
LINE
  5
8A7
330
1A
100
AcDbEntity
  8
SEIHIN
  6
CONTINUOUS
 62
     3
100
AcDbLine
 10
568.357410043995
 20
69.80449883995635
 30
0.0
 11
626.7580100439951
 21
69.80429883927133
 31
0.0
  0
ARC
  5
8A8
330
1A
100
AcDbEntity
  8
SEIHIN
  6
CONTINUOUS
 62
     3
100
AcDbCircle
 10
668.8618100439951
 20
98.86789883995636
 30
0.0
 40
99.99997100000001
100
AcDbArc
 50
185.241794
 51
193.3344079999999
  0
ARC
  5
8A9
330
1A
100
AcDbEntity
  8
SEIHIN
  6
CONTINUOUS
 62
     3
100
AcDbCircle
 10
659.861810043995
 20
98.86789883995636
 30
0.0
 40
99.99997100000001
100
AcDbArc
 50
185.241794
 51
193.3344079999999
  0
LINE
  5
8AA
330
1A
100
AcDbEntity
  8
SEIHIN
  6
CONTINUOUS
 62
     3
100
AcDbLine
 10
568.357410043995
 20
69.80449883995635
 30
0.0
 11
568.357410043995
 21
75.80439883995627
 31
0.0
  0
ARC
  5
8AB
330
1A
100
AcDbEntity
  8
SEIHIN
  6
CONTINUOUS
 62
     3
100
AcDbCircle
 10
535.2539100439951
 20
98.86789883995636
 30
0.0
 40
100.0000189999999
100
AcDbArc
 50
346.665424
 51
354.758035
  0
ARC
  5
8AC
330
1A
100
AcDbEntity
  8
SEIHIN
  6
CONTINUOUS
 62
     3
100
AcDbCircle
 10
526.253910043995
 20
98.86789883995636
 30
0.0
 40
100.000031
100
AcDbArc
 50
346.665369
 51
354.758035
  0
LINE
  5
8AD
330
1A
100
AcDbEntity
  8
SEIHIN
  6
CONTINUOUS
 62
     3
100
AcDbLine
 10
626.7580100439951
 20
69.80429883927133
 30
0.0
 11
626.7580100439951
 21
75.80439883995627
 31
0.0
  0
DIMENSION
  5
8C4
330
1A
100
AcDbEntity
  8
SUNPOU
100
AcDbDimension
  2
*D10
 10
443.7123253051677
 20
75.8044988399564
 30
0.0
 11
438.7123253051677
 21
103.054448839932
 31
0.0
 70
    32
  3
STANDARD
100
AcDbAlignedDimension
 13
550.8039690259817
 23
130.3043988399076
 33
0.0
 14
562.5578100439951
 24
75.80449883995635
 34
0.0
 50
90.0
100
AcDbRotatedDimension
1001
ACAD
1000
DSTYLE
1002
{
1070
   372
1070
    -1
1070
   371
1070
    -1
1070
    41
1040
7.0
1070
    42
1040
6.0
1070
    43
1040
14.0
1070
    44
1040
3.0
1070
    73
1070
     0
1070
    74
1070
     0
1070
    77
1070
     3
1070
   140
1040
6.0
1070
   141
1040
150.0
1070
   147
1040
2.0
1070
   172
1070
     1
1070
   173
1070
     1
1070
   176
1070
   256
1070
   177
1070
   256
1070
   178
1070
   256
1070
   271
1070
     0
1070
   272
1070
     2
1070
     6
1000
OPEN
1070
     7
1000
OPEN
1002
}
  0
DIMENSION
  5
8D1
330
1A
100
AcDbEntity
  8
SUNPOU
100
AcDbDimension
  2
*D11
 10
404.6972831392599
 20
69.80433283927131
 30
0.0
 11
399.69728313926
 21
182.9024278395895
 31
0.0
 70
    32
  3
STANDARD
100
AcDbAlignedDimension
 13
342.4802410259817
 23
296.0005228399076
 33
0.0
 14
256.6804060439951
 24
69.80433283927135
 34
0.0
 50
90.0
100
AcDbRotatedDimension
1001
ACAD
1000
DSTYLE
1002
{
1070
   372
1070
    -1
1070
   371
1070
    -1
1070
    41
1040
7.0
1070
    42
1040
6.0
1070
    43
1040
14.0
1070
    44
1040
3.0
1070
    73
1070
     0
1070
    74
1070
     0
1070
    77
1070
     3
1070
   140
1040
6.0
1070
   141
1040
150.0
1070
   147
1040
2.0
1070
   172
1070
     1
1070
   173
1070
     1
1070
   176
1070
   256
1070
   177
1070
   256
1070
   178
1070
   256
1070
   271
1070
     0
1070
   272
1070
     2
1070
     6
1000
OPEN
1070
     7
1000
OPEN
1002
}
  0
DIMENSION
  5
8DE
330
1A
100
AcDbEntity
  8
SUNPOU
100
AcDbDimension
  2
*D12
 10
192.4802060439951
 20
36.99757609782932
 30
0.0
 11
227.4802707890787
 21
41.99757609782932
 31
0.0
 70
    32
  3
STANDARD
100
AcDbAlignedDimension
 13
262.4803355341622
 23
75.80433283958632
 33
0.0
 14
192.4802060439951
 24
75.80453283995638
 34
0.0
100
AcDbRotatedDimension
1001
ACAD
1000
DSTYLE
1002
{
1070
   372
1070
    -1
1070
   371
1070
    -1
1070
    41
1040
7.0
1070
    42
1040
6.0
1070
    43
1040
14.0
1070
    44
1040
3.0
1070
    73
1070
     0
1070
    74
1070
     0
1070
    77
1070
     3
1070
   140
1040
6.0
1070
   141
1040
150.0
1070
   147
1040
2.0
1070
   172
1070
     1
1070
   173
1070
     1
1070
   176
1070
   256
1070
   177
1070
   256
1070
   178
1070
   256
1070
   271
1070
     0
1070
   272
1070
     2
1070
     6
1000
OPEN
1070
     7
1000
OPEN
1002
}
  0
DIMENSION
  5
8F2
330
1A
100
AcDbEntity
  8
SUNPOU
100
AcDbDimension
  2
*D13
 10
509.2163447322163
 20
85.80450409439052
 30
0.0
 11
504.2163447322163
 21
112.3045040943906
 31
0.0
 70
    32
  1
※ｂ<>
  3
STANDARD
100
AcDbAlignedDimension
 13
562.5578100439951
 23
75.80449883995635
 33
0.0
 14
560.7187723775893
 24
85.8045040943905
 34
0.0
 50
90.0
100
AcDbRotatedDimension
1001
ACAD
1000
DSTYLE
1002
{
1070
   372
1070
    -1
1070
   371
1070
    -1
1070
    41
1040
7.0
1070
    42
1040
6.0
1070
    43
1040
14.0
1070
    44
1040
3.0
1070
    73
1070
     0
1070
    74
1070
     0
1070
    77
1070
     3
1070
   140
1040
6.0
1070
   141
1040
150.0
1070
   147
1040
2.0
1070
   172
1070
     1
1070
   173
1070
     1
1070
   176
1070
   256
1070
   177
1070
   256
1070
   178
1070
   256
1070
   271
1070
     0
1070
   272
1070
     2
1070
     6
1000
OPEN
1070
     7
1000
OPEN
1002
}
  0
LINE
  5
A31
330
1A
100
AcDbEntity
  8
SEIHIN
  6
CONTINUOUS
 62
     3
 48
5.0
100
AcDbLine
 10
575.9079164515203
 20
474.8845839342106
 30
0.0
 11
551.4079164515203
 21
474.8845839342106
 31
0.0
  0
LINE
  5
A32
330
1A
100
AcDbEntity
  8
SEIHIN
  6
CONTINUOUS
 62
     3
 48
5.0
100
AcDbLine
 10
551.4079164515203
 20
459.8845839342105
 30
0.0
 11
576.9079164515203
 21
459.8845839342105
 31
0.0
  0
LINE
  5
A34
330
1A
100
AcDbEntity
  8
SEIHIN
  6
CONTINUOUS
 62
     3
 48
5.0
100
AcDbLine
 10
575.9079164515203
 20
434.1895048503941
 30
0.0
 11
526.9078164515203
 21
434.1895048503941
 31
0.0
  0
LINE
  5
A35
330
1A
100
AcDbEntity
  8
SEIHIN
100
AcDbLine
 10
524.9078164515204
 20
427.1894028895963
 30
0.0
 11
577.9079164515203
 21
427.1895068111572
 31
0.0
  0
LINE
  5
A36
330
1A
100
AcDbEntity
  8
SEIHIN
  6
CONTINUOUS
 62
     3
 48
5.0
100
AcDbLine
 10
577.9079164515203
 20
432.189504850394
 30
0.0
 11
524.9078164515204
 21
432.189504850394
 31
0.0
  0
LINE
  5
A37
330
1A
100
AcDbEntity
  8
SEIHIN
  6
CONTINUOUS
 62
     3
 48
5.0
100
AcDbLine
 10
577.9079164515203
 20
430.1895048503941
 30
0.0
 11
524.9078164515204
 21
430.1895048503941
 31
0.0
  0
LINE
  5
A38
330
1A
100
AcDbEntity
  8
SEIHIN
  6
CONTINUOUS
 62
     3
 48
5.0
100
AcDbLine
 10
577.9079164515203
 20
427.689504850394
 30
0.0
 11
524.9078164515204
 21
427.689504850394
 31
0.0
  0
TEXT
  5
A39
330
1A
100
AcDbEntity
  8
SUNPOU
 62
     4
100
AcDbText
 10
524.0120321953591
 20
396.3648484199344
 30
0.0
 40
8.0
  1
洋風じょうご用ストッパー２個入り
100
AcDbText
  0
LINE
  5
A3A
330
1A
100
AcDbEntity
  8
CENTER_L
  6
CENTER
 62
     1
 48
5.0
100
AcDbLine
 10
551.4078164515203
 20
443.1894548503095
 30
0.0
 11
551.4078164515203
 21
420.1894548502652
 31
0.0
  0
LINE
  5
A3B
330
1A
100
AcDbEntity
  8
SEIHIN
  6
CONTINUOUS
 62
     3
 48
5.0
100
AcDbLine
 10
524.9078164515204
 20
427.1894028895963
 30
0.0
 11
524.9078164515204
 21
435.1894048503941
 31
0.0
  0
ARC
  5
A3C
330
1A
100
AcDbEntity
  8
SEIHIN
  6
CONTINUOUS
 62
     3
 48
5.0
100
AcDbCircle
 10
525.9078164515203
 20
435.1894048503941
 30
0.0
 40
1.0
100
AcDbArc
 50
0.0
 51
180.0
  0
LINE
  5
A3D
330
1A
100
AcDbEntity
  8
SEIHIN
  6
CONTINUOUS
 62
     3
 48
5.0
100
AcDbLine
 10
526.9078164515203
 20
434.1895048503941
 30
0.0
 11
526.9078164515203
 21
435.1894048503941
 31
0.0
  0
LINE
  5
A3E
330
1A
100
AcDbEntity
  8
CENTER_L
  6
CENTER
 62
     1
 48
5.0
100
AcDbLine
 10
551.4078164515203
 20
479.3653839342105
 30
0.0
 11
551.4078164515203
 21
454.6329839342106
 31
0.0
  0
LINE
  5
A3F
330
1A
100
AcDbEntity
  8
SEIHIN
  6
CONTINUOUS
 62
     3
 48
5.0
100
AcDbLine
 10
526.9078164515203
 20
460.8844839342106
 30
0.0
 11
526.9078164515203
 21
475.8844839342105
 31
0.0
  0
LINE
  5
A40
330
1A
100
AcDbEntity
  8
SEIHIN
  6
CONTINUOUS
 62
     3
 48
5.0
100
AcDbLine
 10
524.9078164515204
 20
460.8844839342106
 30
0.0
 11
524.9078164515204
 21
475.8844839342105
 31
0.0
  0
LINE
  5
A41
330
1A
100
AcDbEntity
  8
SEIHIN
  6
CONTINUOUS
 62
     3
 48
5.0
100
AcDbLine
 10
551.4078164515203
 20
459.8844839342105
 30
0.0
 11
525.9078164515203
 21
459.8844839342105
 31
0.0
  0
ARC
  5
A42
330
1A
100
AcDbEntity
  8
SEIHIN
  6
CONTINUOUS
 62
     3
 48
5.0
100
AcDbCircle
 10
525.9078164515203
 20
460.8844839342106
 30
0.0
 40
1.0
100
AcDbArc
 50
180.0
 51
0.0
  0
LINE
  5
A43
330
1A
100
AcDbEntity
  8
SEIHIN
  6
CONTINUOUS
 62
     3
 48
5.0
100
AcDbLine
 10
526.9078164515203
 20
474.8844839342106
 30
0.0
 11
551.4078164515203
 21
474.8845839342106
 31
0.0
  0
ARC
  5
A45
330
1A
100
AcDbEntity
  8
SEIHIN
  6
CONTINUOUS
 62
     3
 48
5.0
100
AcDbCircle
 10
525.9078164515203
 20
475.8844839342105
 30
0.0
 40
1.0
100
AcDbArc
 50
0.0
 51
180.0
  0
ARC
  5
A48
330
1A
100
AcDbEntity
  8
SEIHIN
  6
CONTINUOUS
 62
     3
 48
5.0
100
AcDbCircle
 10
576.9079164515203
 20
435.1895048503941
 30
0.0
 40
1.0
100
AcDbArc
 50
0.0
 51
180.0
  0
LINE
  5
A49
330
1A
100
AcDbEntity
  8
SEIHIN
  6
CONTINUOUS
 62
     3
 48
5.0
100
AcDbLine
 10
575.9079164515204
 20
434.1895048503941
 30
0.0
 11
575.9079164515203
 21
435.1895048503941
 31
0.0
  0
LINE
  5
A4A
330
1A
100
AcDbEntity
  8
SEIHIN
  6
CONTINUOUS
 62
     3
 48
5.0
100
AcDbLine
 10
577.9079164515203
 20
427.1895068111572
 30
0.0
 11
577.9079164515203
 21
435.1895048503941
 31
0.0
  0
DIMENSION
  5
A4C
330
1A
100
AcDbEntity
  8
SUNPOU
 48
5.0
100
AcDbDimension
  2
*D14
 10
596.9633762813991
 20
459.8871252343798
 30
0.0
 11
591.963376281399
 21
467.3858545842953
 31
0.0
 70
    32
  3
STANDARD
100
AcDbAlignedDimension
 13
575.9079164515203
 23
474.8845839342106
 33
0.0
 14
576.9791635015082
 24
459.8871252343798
 34
0.0
 50
90.0
100
AcDbRotatedDimension
1001
ACAD
1000
DSTYLE
1002
{
1070
   287
1070
     5
1070
    41
1040
7.0
1070
    42
1040
6.0
1070
    43
1040
14.0
1070
    44
1040
3.0
1070
    73
1070
     0
1070
    74
1070
     0
1070
    77
1070
     3
1070
   140
1040
6.0
1070
   141
1040
150.0
1070
   147
1040
2.0
1070
   172
1070
     1
1070
   173
1070
     1
1070
   176
1070
   256
1070
   177
1070
   256
1070
   178
1070
   256
1070
   271
1070
     0
1070
   272
1070
     0
1070
   279
1070
     2
1070
   341
1005
6D
1070
     6
1000
OPEN
1070
     7
1000
OPEN
1070
   371
1070
    -1
1070
   372
1070
    -1
1002
}
  0
LINE
  5
A4D
330
1A
100
AcDbEntity
  8
SEIHIN
  6
CONTINUOUS
 62
     3
 48
5.0
100
AcDbLine
 10
577.9079164515203
 20
460.8845839342105
 30
0.0
 11
577.9079164515203
 21
475.8845839342106
 31
0.0
  0
LINE
  5
A4E
330
1A
100
AcDbEntity
  8
SEIHIN
  6
CONTINUOUS
 62
     3
 48
5.0
100
AcDbLine
 10
575.9079164515203
 20
460.8845839342105
 30
0.0
 11
575.9079164515203
 21
475.8845839342106
 31
0.0
  0
ARC
  5
A4F
330
1A
100
AcDbEntity
  8
SEIHIN
  6
CONTINUOUS
 62
     3
 48
5.0
100
AcDbCircle
 10
576.9079164515203
 20
460.8845839342105
 30
0.0
 40
1.0
100
AcDbArc
 50
180.0
 51
0.0
  0
ARC
  5
A51
330
1A
100
AcDbEntity
  8
SEIHIN
  6
CONTINUOUS
 62
     3
 48
5.0
100
AcDbCircle
 10
576.9079164515203
 20
475.8845839342106
 30
0.0
 40
1.0
100
AcDbArc
 50
0.0
 51
180.0
  0
DIMENSION
  5
A54
330
1A
100
AcDbEntity
  8
SUNPOU
100
AcDbDimension
  2
*D15
 10
653.5689501251827
 20
443.175049619053
 30
0.0
 11
652.7048501251827
 21
428.1750496190531
 31
0.0
 70
    32
  3
STANDARD
100
AcDbAlignedDimension
 13
651.8407501251827
 23
458.6704169827729
 33
0.0
 14
653.5689501251827
 24
471.2003169827729
 34
0.0
100
AcDbRotatedDimension
1001
ACAD
1000
DSTYLE
1002
{
1070
   287
1070
     5
1070
    41
1040
7.0
1070
    42
1040
6.0
1070
    43
1040
14.0
1070
    44
1040
3.0
1070
    73
1070
     0
1070
    74
1070
     0
1070
    77
1070
     3
1070
   140
1040
6.0
1070
   141
1040
150.0
1070
   147
1040
2.0
1070
   172
1070
     1
1070
   173
1070
     1
1070
   176
1070
   256
1070
   177
1070
   256
1070
   178
1070
   256
1070
   271
1070
     0
1070
   272
1070
     0
1070
   279
1070
     2
1070
   341
1005
6D
1070
     6
1000
OPEN
1070
     7
1000
OPEN
1070
   371
1070
    -1
1070
   372
1070
    -1
1002
}
  0
DIMENSION
  5
A55
330
1A
100
AcDbEntity
  8
SUNPOU
 48
5.0
100
AcDbDimension
  2
*D16
 10
676.4413845253105
 20
466.6704169827729
 30
0.0
 11
683.2319008059526
 21
470.3259004255414
 31
0.0
 70
   160
  1
差込み寸法<>
  3
STANDARD
100
AcDbAlignedDimension
 13
653.0698501251826
 23
471.6704169827729
 33
0.0
 14
656.3407501251827
 24
466.6704169827729
 34
0.0
 50
90.0
100
AcDbRotatedDimension
1001
ACAD
1000
DSTYLE
1002
{
1070
   287
1070
     5
1070
    41
1040
7.0
1070
    42
1040
6.0
1070
    43
1040
14.0
1070
    44
1040
3.0
1070
    73
1070
     0
1070
    74
1070
     0
1070
    77
1070
     3
1070
   140
1040
6.0
1070
   141
1040
150.0
1070
   147
1040
2.0
1070
   172
1070
     1
1070
   173
1070
     1
1070
   176
1070
   256
1070
   177
1070
   256
1070
   178
1070
   256
1070
   271
1070
     0
1070
   272
1070
     0
1070
   279
1070
     2
1070
   341
1005
6D
1070
     6
1000
OPEN
1070
     7
1000
OPEN
1070
   371
1070
    -1
1070
   372
1070
    -1
1002
}
  0
LINE
  5
A56
330
1A
100
AcDbEntity
  8
SEIHIN
  6
CONTINUOUS
 62
     3
 48
5.0
100
AcDbLine
 10
651.8407501251827
 20
471.1704169827729
 30
0.0
 11
651.8407501251827
 21
458.6704169827729
 31
0.0
  0
LINE
  5
A57
330
1A
100
AcDbEntity
  8
SEIHIN
  6
CONTINUOUS
 62
     3
 48
5.0
100
AcDbLine
 10
653.5689501251827
 20
471.2003169827729
 30
0.0
 11
653.7843501251828
 21
467.6105169827729
 31
0.0
  0
LINE
  5
A58
330
1A
100
AcDbEntity
  8
SEIHIN
  6
CONTINUOUS
 62
     3
 48
5.0
100
AcDbLine
 10
656.3407501251827
 20
468.1704169827729
 30
0.0
 11
657.2652501251828
 21
475.1043169827729
 31
0.0
  0
LINE
  5
A59
330
1A
100
AcDbEntity
  8
SEIHIN
  6
HIDDEN
 62
     6
 48
5.0
100
AcDbLine
 10
649.8407501251826
 20
460.1704169827729
 30
0.0
 11
649.8407501251826
 21
473.1704169827729
 31
0.0
  0
LINE
  5
A5A
330
1A
100
AcDbEntity
  8
SEIHIN
  6
CONTINUOUS
 62
     3
 48
5.0
100
AcDbLine
 10
647.8407501251827
 20
475.1704169827729
 30
0.0
 11
647.8407501251827
 21
460.6704169827729
 31
0.0
  0
DIMENSION
  5
A5B
330
1A
100
AcDbEntity
  8
SUNPOU
 48
5.0
100
AcDbDimension
  2
*D17
 10
633.4537058298572
 20
458.670416982773
 30
0.0
 11
628.453705829857
 21
465.0971936780696
 31
0.0
 70
    32
  3
STANDARD
100
AcDbAlignedDimension
 13
651.9871967345895
 23
471.5239703733661
 33
0.0
 14
651.8407501251827
 24
458.6704169827729
 34
0.0
 50
90.0
100
AcDbRotatedDimension
1001
ACAD
1000
DSTYLE
1002
{
1070
   287
1070
     5
1070
    41
1040
7.0
1070
    42
1040
6.0
1070
    43
1040
14.0
1070
    44
1040
3.0
1070
    73
1070
     0
1070
    74
1070
     0
1070
    77
1070
     3
1070
   140
1040
6.0
1070
   141
1040
150.0
1070
   147
1040
2.0
1070
   172
1070
     1
1070
   173
1070
     1
1070
   176
1070
   256
1070
   177
1070
   256
1070
   178
1070
   256
1070
   271
1070
     0
1070
   272
1070
     0
1070
   279
1070
     2
1070
   341
1005
6D
1070
     6
1000
OPEN
1070
     7
1000
OPEN
1070
   371
1070
    -1
1070
   372
1070
    -1
1002
}
  0
ARC
  5
A5C
330
1A
100
AcDbEntity
  8
SEIHIN
  6
CONTINUOUS
 62
     3
 48
5.0
100
AcDbCircle
 10
649.8407501251826
 20
460.6704169827729
 30
0.0
 40
2.0
100
AcDbArc
 50
180.0
 51
270.0
  0
ARC
  5
A5D
330
1A
100
AcDbEntity
  8
SEIHIN
  6
HIDDEN
 62
     6
 48
5.0
100
AcDbCircle
 10
651.3407501251826
 20
460.1704169827729
 30
0.0
 40
1.5
100
AcDbArc
 50
180.0
 51
270.0
  0
ARC
  5
A5E
330
1A
100
AcDbEntity
  8
SEIHIN
  6
CONTINUOUS
 62
     3
 48
5.0
100
AcDbCircle
 10
654.7825501251828
 20
467.6704169827729
 30
0.0
 40
0.9999979999999998
100
AcDbArc
 50
183.434088
 51
270.0
  0
LINE
  5
A5F
330
1A
100
AcDbEntity
  8
SEIHIN
  6
CONTINUOUS
 62
     3
 48
5.0
100
AcDbLine
 10
656.3407501251827
 20
466.6704169827729
 30
0.0
 11
656.3407501251827
 21
468.1704169827729
 31
0.0
  0
LINE
  5
A60
330
1A
100
AcDbEntity
  8
SEIHIN
  6
CONTINUOUS
 62
     3
 48
5.0
100
AcDbLine
 10
654.7825501251828
 20
466.6704169827729
 30
0.0
 11
656.3407501251827
 21
466.6704169827729
 31
0.0
  0
LINE
  5
A61
330
1A
100
AcDbEntity
  8
SEIHIN
  6
CONTINUOUS
 62
     3
 48
5.0
100
AcDbLine
 10
649.8407501251826
 20
458.6704169827729
 30
0.0
 11
651.8407501251827
 21
458.6704169827729
 31
0.0
  0
DIMENSION
  5
A62
330
1A
100
AcDbEntity
  8
SUNPOU
100
AcDbDimension
  2
*D18
 10
657.2696441251827
 20
490.5300615389893
 30
0.0
 11
652.5551971251827
 21
495.5300615389893
 31
0.0
 70
    32
  3
STANDARD
100
AcDbAlignedDimension
 13
647.8407501251827
 23
475.1704169827729
 33
0.0
 14
657.2696441251827
 24
475.1704169827729
 34
0.0
100
AcDbRotatedDimension
1001
ACAD
1000
DSTYLE
1002
{
1070
   287
1070
     5
1070
    41
1040
7.0
1070
    42
1040
6.0
1070
    43
1040
14.0
1070
    44
1040
3.0
1070
    73
1070
     0
1070
    74
1070
     0
1070
    77
1070
     3
1070
   140
1040
6.0
1070
   141
1040
150.0
1070
   147
1040
2.0
1070
   172
1070
     1
1070
   173
1070
     1
1070
   176
1070
   256
1070
   177
1070
   256
1070
   178
1070
   256
1070
   271
1070
     0
1070
   272
1070
     0
1070
   279
1070
     2
1070
   341
1005
6D
1070
     6
1000
OPEN
1070
     7
1000
OPEN
1070
   371
1070
    -1
1070
   372
1070
    -1
1002
}
  0
LINE
  5
A63
330
1A
100
AcDbEntity
  8
SEIHIN
  6
CONTINUOUS
 62
     3
 48
5.0
100
AcDbLine
 10
648.3407501251827
 20
475.6704169827729
 30
0.0
 11
656.7696501251828
 21
475.6704169827729
 31
0.0
  0
ARC
  5
A64
330
1A
100
AcDbEntity
  8
SEIHIN
  6
CONTINUOUS
 62
     3
 48
5.0
100
AcDbCircle
 10
648.3407501251827
 20
475.1704169827729
 30
0.0
 40
0.5
100
AcDbArc
 50
90.0
 51
180.0
  0
ARC
  5
A65
330
1A
100
AcDbEntity
  8
SEIHIN
  6
CONTINUOUS
 62
     3
 48
5.0
100
AcDbCircle
 10
653.0698501251826
 20
471.1704169827729
 30
0.0
 40
0.4999970000000001
100
AcDbArc
 50
3.428369000000773
 51
90.0
  0
LINE
  5
A66
330
1A
100
AcDbEntity
  8
SEIHIN
  6
CONTINUOUS
 62
     3
 48
5.0
100
AcDbLine
 10
652.3407501251827
 20
471.6704169827729
 30
0.0
 11
653.0698501251826
 21
471.6704169827729
 31
0.0
  0
ARC
  5
A67
330
1A
100
AcDbEntity
  8
SEIHIN
  6
CONTINUOUS
 62
     3
 48
5.0
100
AcDbCircle
 10
652.3407501251827
 20
471.1704169827729
 30
0.0
 40
0.5
100
AcDbArc
 50
90.0
 51
180.0
  0
ARC
  5
A68
330
1A
100
AcDbEntity
  8
SEIHIN
  6
CONTINUOUS
 62
     3
 48
5.0
100
AcDbCircle
 10
656.7696501251828
 20
475.1704169827729
 30
0.0
 40
0.499994
100
AcDbArc
 50
352.4030849999995
 51
90.0
  0
ARC
  5
A69
330
1A
100
AcDbEntity
  8
SEIHIN
  6
HIDDEN
 62
     6
 48
5.0
100
AcDbCircle
 10
650.3407501251826
 20
473.1704169827729
 30
0.0
 40
0.5
100
AcDbArc
 50
90.0
 51
180.0
  0
LINE
  5
A6A
330
1A
100
AcDbEntity
  8
SEIHIN
  6
HIDDEN
 62
     6
 48
5.0
100
AcDbLine
 10
657.0740501251828
 20
473.670416982773
 30
0.0
 11
650.3407501251826
 21
473.670416982773
 31
0.0
  0
DIMENSION
  5
FE7
330
1A
100
AcDbEntity
  8
SUNPOU
100
AcDbDimension
  2
*D19
 10
577.9079164515203
 20
490.5300615389893
 30
0.0
 11
551.4078664515203
 21
495.5300615389893
 31
0.0
 70
    32
  3
STANDARD
100
AcDbAlignedDimension
 13
524.9078164515204
 23
475.8844839342105
 33
0.0
 14
577.9079164515203
 24
475.8845839342106
 34
0.0
100
AcDbRotatedDimension
1001
ACAD
1000
DSTYLE
1002
{
1070
   287
1070
     5
1070
    41
1040
7.0
1070
    42
1040
6.0
1070
    43
1040
14.0
1070
    44
1040
3.0
1070
    73
1070
     0
1070
    74
1070
     0
1070
    77
1070
     3
1070
   140
1040
6.0
1070
   141
1040
150.0
1070
   147
1040
2.0
1070
   172
1070
     1
1070
   173
1070
     1
1070
   176
1070
   256
1070
   177
1070
   256
1070
   178
1070
   256
1070
   271
1070
     0
1070
   272
1070
     0
1070
   279
1070
     2
1070
   341
1005
6D
1070
     6
1000
OPEN
1070
     7
1000
OPEN
1070
   371
1070
    -1
1070
   372
1070
    -1
1002
}
  0
LINE
  5
12DF
330
1A
100
AcDbEntity
  8
ZUWAKU
100
AcDbLine
 10
208.646601303624
 20
15.19999986828872
 30
0.0
 11
447.4243639845474
 21
15.19999986828871
 31
0.0
  0
LINE
  5
12E0
330
1A
100
AcDbEntity
  8
ZUWAKU
100
AcDbLine
 10
208.646601303624
 20
15.59999986828871
 30
0.0
 11
447.4243639845474
 21
15.59999986828872
 31
0.0
  0
LINE
  5
12E1
330
1A
100
AcDbEntity
  8
ZUWAKU
100
AcDbLine
 10
208.646601303624
 20
15.39999986828871
 30
0.0
 11
447.4243639845474
 21
15.39999986828871
 31
0.0
  0
LINE
  5
12E2
330
1A
100
AcDbEntity
  8
ZUWAKU
100
AcDbLine
 10
0.0000000135560185
 20
30.79999986828869
 30
0.0
 11
797.4000000135559
 21
30.79999986828869
 31
0.0
  0
LINE
  5
12E3
330
1A
100
AcDbEntity
  8
ZUWAKU
100
AcDbLine
 10
0.0000000135560185
 20
30.59999986828869
 30
0.0
 11
797.4000000135559
 21
30.59999986828869
 31
0.0
  0
LINE
  5
12E4
330
1A
100
AcDbEntity
  8
ZUWAKU
100
AcDbLine
 10
0.0000000135560185
 20
30.39999986828869
 30
0.0
 11
797.4000000135559
 21
30.39999986828869
 31
0.0
  0
LINE
  5
12E5
330
1A
100
AcDbEntity
  8
ZUWAKU
100
AcDbLine
 10
0.0000000135560185
 20
30.19999986828868
 30
0.0
 11
797.4000000135559
 21
30.19999986828868
 31
0.0
  0
LINE
  5
12E6
330
1A
100
AcDbEntity
  8
ZUWAKU
100
AcDbLine
 10
0.0000000135560185
 20
29.99999986828868
 30
0.0
 11
797.4000000135559
 21
29.99999986828868
 31
0.0
  0
LWPOLYLINE
  5
12E7
330
1A
100
AcDbEntity
  8
ZUWAKU
100
AcDbPolyline
 90
        4
 70
     1
 43
0.0
 10
0.2000000135559503
 20
551.3999998682887
 10
0.2000000135559503
 20
0.1999998682887281
 10
797.4000000135559
 20
0.1999998682887511
 10
797.4000000135561
 20
551.3999998682887
  0
LWPOLYLINE
  5
12E8
330
1A
100
AcDbEntity
  8
ZUWAKU
100
AcDbPolyline
 90
        4
 70
     1
 43
0.0
 10
0.6000000135559276
 20
550.9999998682888
 10
0.6000000135559276
 20
0.5999998682887054
 10
797.0000000135562
 20
0.5999998682887516
 10
797.000000013556
 20
550.9999998682888
  0
LWPOLYLINE
  5
12E9
330
1A
100
AcDbEntity
  8
ZUWAKU
100
AcDbPolyline
 90
        4
 70
     1
 43
0.0
 10
0.0000000135560185
 20
551.5999998682887
 10
0.0000000135560185
 20
-0.0000001317113174
 10
797.6000000135561
 20
-0.0000001317112499
 10
797.6000000135561
 20
551.5999998682888
  0
LWPOLYLINE
  5
12EA
330
1A
100
AcDbEntity
  8
ZUWAKU
100
AcDbPolyline
 90
        4
 70
     1
 43
0.0
 10
0.4000000135559958
 20
551.1999998682887
 10
0.4000000135559958
 20
0.3999998682887735
 10
797.200000013556
 20
0.3999998682887504
 10
797.200000013556
 20
551.1999998682887
  0
LWPOLYLINE
  5
12EB
330
1A
100
AcDbEntity
  8
ZUWAKU
100
AcDbPolyline
 90
        4
 70
     1
 43
0.0
 10
0.800000013555973
 20
550.7999998682887
 10
0.800000013555973
 20
0.7999998682887508
 10
796.8000000135559
 20
0.7999998682887508
 10
796.8000000135559
 20
550.7999998682887
  0
TEXT
  5
12EC
330
1A
100
AcDbEntity
  8
MOJI
100
AcDbText
 10
92.95778960172516
 20
12.74117799856344
 30
0.0
 40
6.0
  1
アートフェイスＴ１６０
 41
0.9
  7
ｽﾀｲﾙ1
100
AcDbText
  0
HATCH
  5
12ED
330
1A
100
AcDbEntity
  8
ZUWAKU
100
AcDbHatch
 10
0.0
 20
0.0
 30
0.0
210
0.0
220
0.0
230
1.0
  2
ANSI37
 70
     0
 71
     0
 91
        8
 92
        7
 72
     1
 73
     1
 93
       24
 10
14.50226267467587
 20
17.64484834927226
 42
-0.1989123673796348
 10
14.09221216833714
 20
18.63479784293331
 42
0.0
 10
14.09221216833714
 20
19.92499986828869
 42
-0.4142135623730912
 10
14.61721216833711
 20
20.44999986828868
 42
0.0
 10
17.59221216833702
 20
20.44999986828868
 42
0.4142135623731546
 10
18.11721216833712
 20
20.97499986828867
 42
0.0
 10
18.11721216833712
 20
22.72499986828869
 42
0.4142135623731586
 10
17.59221216833702
 20
23.24999986828868
 42
0.0
 10
14.09221216833714
 20
23.24999986828868
 42
0.4142135623730928
 10
11.29221216833718
 20
20.44999986828871
 42
0.0
 10
11.29221216833718
 20
18.63479784293344
 42
0.1989123673796619
 10
12.52236368735361
 20
15.66494936194983
 42
0.0
 10
15.43216166199829
 20
12.75515138730518
 42
-0.1989123673796613
 10
15.84221216833714
 20
11.76520189364399
 42
0.0
 10
15.84221216833714
 20
10.47499986828867
 42
-0.4142135623730911
 10
15.31721216833716
 20
9.949999868288685
 42
0.0
 10
12.34221216833725
 20
9.949999868288685
 42
0.4142135623731526
 10
11.81721216833716
 20
9.424999868288697
 42
0.0
 10
11.81721216833716
 20
7.674999868288676
 42
0.4142135623731526
 10
12.34221216833725
 20
7.149999868288688
 42
0.0
 10
15.84221216833714
 20
7.149999868288688
 42
0.4142135623731044
 10
18.64221216833721
 20
9.949999868288664
 42
0.0
 10
18.64221216833721
 20
11.76520189364393
 42
0.1989123673796604
 10
17.41206064932066
 20
14.73505037462747
 42
0.0
 97
        0
 92
        7
 72
     1
 73
     1
 93
       16
 10
23.54221216833718
 20
19.04999986828869
 42
-0.4142135623730935
 10
24.94221216833716
 20
20.44999986828868
 42
0.0
 10
26.86721216833712
 20
20.44999986828868
 42
0.4142135623731546
 10
27.39221216833721
 20
20.97499986828867
 42
0.0
 10
27.39221216833721
 20
22.72499986828869
 42
0.4142135623730951
 10
26.86721216833723
 20
23.24999986828868
 42
0.0
 10
24.94221216833705
 20
23.24999986828864
 42
0.4142135623730892
 10
20.74221216833711
 20
19.04999986828862
 42
0.0
 10
20.74221216833711
 20
11.34999986828871
 42
0.4142135623730969
 10
24.94221216833716
 20
7.149999868288688
 42
0.0
 10
26.86721216833712
 20
7.149999868288688
 42
0.4142135623731526
 10
27.39221216833721
 20
7.674999868288676
 42
0.0
 10
27.39221216833721
 20
9.424999868288697
 42
0.4142135623730891
 10
26.86721216833723
 20
9.949999868288685
 42
0.0
 10
24.94221216833716
 20
9.949999868288685
 42
-0.4142135623730928
 10
23.54221216833718
 20
11.34999986828867
 42
0.0
 97
        0
 92
        7
 72
     1
 73
     1
 93
        2
 10
24.24221216833712
 20
15.19999986828868
 42
1.0
 10
27.74221216833712
 20
15.19999986828868
 42
1.0
 97
        0
 92
        7
 72
     1
 73
     1
 93
       26
 10
37.31485865051513
 20
19.20504706185211
 42
0.0
 10
38.37649828365295
 20
22.5669059001217
 42
0.5069206636600134
 10
37.87586738445759
 20
23.24999986828868
 42
0.0
 10
36.17697800484836
 20
23.24999986828868
 42
0.3272098845218764
 10
35.676347105653
 20
22.88309383645565
 42
0.0
 10
33.80807723102122
 20
16.96690590012176
 42
-0.3272098845219541
 10
33.30744633182575
 20
16.59999986828868
 42
0.0
 10
33.1672121683373
 20
16.59999986828868
 42
-0.4142135623731526
 10
32.64221216833721
 20
17.12499986828867
 42
0.0
 10
32.64221216833721
 20
22.72499986828869
 42
0.4142135623730951
 10
32.11721216833723
 20
23.24999986828868
 42
0.0
 10
30.36721216833711
 20
23.24999986828868
 42
0.4142135623730871
 10
29.84221216833714
 20
22.7249998682887
 42
0.0
 10
29.84221216833714
 20
7.674999868288676
 42
0.4142135623730891
 10
30.36721216833711
 20
7.149999868288688
 42
0.0
 10
32.11721216833712
 20
7.149999868288688
 42
0.4142135623731526
 10
32.64221216833721
 20
7.674999868288676
 42
0.0
 10
32.64221216833721
 20
13.27499986828869
 42
-0.4142135623731526
 10
33.1672121683373
 20
13.79999986828868
 42
0.0
 10
33.30744633182587
 20
13.79999986828868
 42
-0.3272098845218915
 10
33.80807723102122
 20
13.43309383645561
 42
0.0
 10
35.676347105653
 20
7.516905900121759
 42
0.3272098845218902
 10
36.17697800484836
 20
7.149999868288688
 42
0.0
 10
37.87586738445759
 20
7.149999868288688
 42
0.5069206636600335
 10
38.37649828365295
 20
7.833093836455695
 42
0.0
 10
36.05010690517929
 20
15.19999986828882
 42
0.0
 97
        0
 92
        7
 72
     1
 73
     1
 93
        8
 10
43.49221216833711
 20
22.7249998682887
 42
0.4142135623731546
 10
42.96721216833702
 20
23.24999986828868
 42
0.0
 10
41.21721216833726
 20
23.24999986828868
 42
0.4142135623731507
 10
40.69221216833716
 20
22.7249998682887
 42
0.0
 10
40.69221216833716
 20
7.674999868288676
 42
0.4142135623731526
 10
41.21721216833726
 20
7.149999868288688
 42
0.0
 10
42.96721216833702
 20
7.149999868288688
 42
0.4142135623731526
 10
43.49221216833711
 20
7.674999868288676
 42
0.0
 97
        0
 92
        7
 72
     1
 73
     1
 93
       24
 10
48.3922121683372
 20
19.92499986828869
 42
-0.4142135623731546
 10
48.9172121683373
 20
20.44999986828868
 42
0.0
 10
51.89221216833721
 20
20.44999986828868
 42
0.4142135623730911
 10
52.41721216833719
 20
20.97499986828867
 42
0.0
 10
52.41721216833719
 20
22.72499986828869
 42
0.4142135623730952
 10
51.89221216833721
 20
23.24999986828868
 42
0.0
 10
48.3922121683372
 20
23.24999986828868
 42
0.4142135623731048
 10
45.59221216833714
 20
20.44999986828871
 42
0.0
 10
45.59221216833714
 20
18.63479784293344
 42
0.1989123673796613
 10
46.82236368735368
 20
15.66494936194989
 42
0.0
 10
49.73216166199836
 20
12.75515138730522
 42
-0.1989123673796402
 10
50.14221216833721
 20
11.76520189364415
 42
0.0
 10
50.14221216833721
 20
10.47499986828867
 42
-0.4142135623730911
 10
49.61721216833723
 20
9.949999868288685
 42
0.0
 10
46.64221216833721
 20
9.949999868288685
 42
0.4142135623731526
 10
46.11721216833712
 20
9.424999868288697
 42
0.0
 10
46.11721216833712
 20
7.674999868288676
 42
0.4142135623730891
 10
46.64221216833709
 20
7.149999868288688
 42
0.0
 10
50.14221216833721
 20
7.149999868288688
 42
0.4142135623730925
 10
52.94221216833716
 20
9.949999868288664
 42
0.0
 10
52.94221216833716
 20
11.76520189364393
 42
0.1989123673796675
 10
51.71206064932062
 20
14.73505037462759
 42
0.0
 10
48.80226267467605
 20
17.6448483492721
 42
-0.1989123673796652
 10
48.3922121683372
 20
18.63479784293327
 42
0.0
 97
        0
 92
        7
 72
     1
 73
     1
 93
       16
 10
57.84221216833714
 20
22.72499986828867
 42
0.414213562373103
 10
57.31721216833716
 20
23.24999986828868
 42
0.0
 10
55.56721216833716
 20
23.24999986828868
 42
0.4142135623730871
 10
55.04221216833719
 20
22.7249998682887
 42
0.0
 10
55.04221216833719
 20
9.949999868288664
 42
0.4142135623730926
 10
57.84221216833714
 20
7.149999868288688
 42
0.0
 10
61.34221216833714
 20
7.149999868288688
 42
0.4142135623731044
 10
64.14221216833721
 20
9.949999868288664
 42
0.0
 10
64.14221216833721
 20
22.72499986828869
 42
0.4142135623730951
 10
63.61721216833723
 20
23.24999986828868
 42
0.0
 10
61.86721216833712
 20
23.24999986828868
 42
0.4142135623730871
 10
61.34221216833714
 20
22.7249998682887
 42
0.0
 10
61.34221216833714
 20
10.99999986828866
 42
-0.414213562373088
 10
60.29221216833718
 20
9.949999868288685
 42
0.0
 10
58.89221216833721
 20
9.949999868288685
 42
-0.4142135623731197
 10
57.84221216833714
 20
10.99999986828866
 42
0.0
 97
        0
 92
        7
 72
     1
 73
     1
 93
        8
 10
69.04221216833718
 20
22.7249998682887
 42
0.4142135623730871
 10
68.51721216833721
 20
23.24999986828868
 42
0.0
 10
66.76721216833721
 20
23.24999986828868
 42
0.4142135623731507
 10
66.24221216833712
 20
22.7249998682887
 42
0.0
 10
66.24221216833712
 20
7.674999868288676
 42
0.4142135623730891
 10
66.76721216833709
 20
7.149999868288688
 42
0.0
 10
68.51721216833721
 20
7.149999868288688
 42
0.4142135623730891
 10
69.04221216833718
 20
7.674999868288676
 42
0.0
 97
        0
 75
     0
 76
     1
 52
0.0
 41
0.2
 77
     0
 78
     2
 53
45.0
 43
-900.942304321123
 44
-13.20000013171124
 45
-0.4490128060534576
 46
0.4490128060534577
 79
     0
 53
135.0
 43
-900.942304321123
 44
-13.20000013171124
 45
-0.4490128060534577
 46
-0.4490128060534576
 79
     0
 47
0.057451373970553
 98
        8
 10
16.07985497657932
 20
15.16717351417423
 10
22.40451501999519
 20
18.84406205073969
 10
25.16436789921567
 20
15.5118815143594
 10
30.91405999519315
 20
16.20129751473018
 10
41.83847203251275
 20
16.6609097822718
 10
46.89820090868557
 20
19.41857618469589
 10
56.55768598595637
 20
18.72915778338369
 10
67.82707963317875
 20
19.18877005092531
  0
LINE
  5
12EE
330
1A
100
AcDbEntity
  8
ZUWAKU
100
AcDbLine
 10
24.94221216833716
 20
23.24999986828864
 30
0.0
 11
26.86721216833712
 21
23.24999986828868
 31
0.0
  0
LINE
  5
12EF
330
1A
100
AcDbEntity
  8
ZUWAKU
100
AcDbLine
 10
26.86721216833712
 20
20.44999986828868
 30
0.0
 11
24.94221216833716
 21
20.44999986828868
 31
0.0
  0
LINE
  5
12F0
330
1A
100
AcDbEntity
  8
ZUWAKU
100
AcDbLine
 10
24.94221216833716
 20
9.949999868288685
 30
0.0
 11
26.86721216833712
 21
9.949999868288685
 31
0.0
  0
LINE
  5
12F1
330
1A
100
AcDbEntity
  8
ZUWAKU
100
AcDbLine
 10
26.86721216833712
 20
7.149999868288688
 30
0.0
 11
24.94221216833716
 21
7.149999868288688
 31
0.0
  0
CIRCLE
  5
12F2
330
1A
100
AcDbEntity
  8
ZUWAKU
100
AcDbCircle
 10
25.99221216833711
 20
15.19999986828868
 30
0.0
 40
1.75
  0
ARC
  5
12F3
330
1A
100
AcDbEntity
  8
ZUWAKU
100
AcDbCircle
 10
15.49221216833712
 20
18.63479784293338
 30
0.0
 40
1.399999999999999
100
AcDbArc
 50
180.0000000000016
 51
224.9999999999988
  0
LINE
  5
12F4
330
1A
100
AcDbEntity
  8
ZUWAKU
100
AcDbLine
 10
23.54221216833718
 20
19.04999986828868
 30
0.0
 11
23.54221216833718
 21
11.34999986828869
 31
0.0
  0
LINE
  5
12F5
330
1A
100
AcDbEntity
  8
ZUWAKU
100
AcDbLine
 10
20.74221216833711
 20
11.34999986828869
 30
0.0
 11
20.74221216833711
 21
19.04999986828864
 31
0.0
  0
ARC
  5
12F6
330
1A
100
AcDbEntity
  8
ZUWAKU
100
AcDbCircle
 10
15.49221216833712
 20
18.63479784293338
 30
0.0
 40
4.199999999999999
100
AcDbArc
 50
180.0
 51
225.0
  0
ARC
  5
12F7
330
1A
100
AcDbEntity
  8
ZUWAKU
100
AcDbCircle
 10
15.84221216833714
 20
9.949999868288685
 30
0.0
 40
2.799999999999999
100
AcDbArc
 50
270.0
 51
0.0
  0
ARC
  5
12F8
330
1A
100
AcDbEntity
  8
ZUWAKU
100
AcDbCircle
 10
24.94221216833716
 20
11.34999986828869
 30
0.0
 40
4.199999999999999
100
AcDbArc
 50
180.0
 51
270.0
  0
ARC
  5
12F9
330
1A
100
AcDbEntity
  8
ZUWAKU
100
AcDbCircle
 10
14.44221216833716
 20
11.76520189364399
 30
0.0
 40
4.199999999999999
100
AcDbArc
 50
0.0
 51
45.0
  0
LINE
  5
12FA
330
1A
100
AcDbEntity
  8
ZUWAKU
100
AcDbLine
 10
17.41206064932066
 20
14.73505037462751
 30
0.0
 11
14.50226267467598
 21
17.64484834927218
 31
0.0
  0
LINE
  5
12FB
330
1A
100
AcDbEntity
  8
ZUWAKU
100
AcDbLine
 10
15.84221216833714
 20
10.47499986828869
 30
0.0
 11
15.84221216833714
 21
11.76520189364403
 31
0.0
  0
ARC
  5
12FC
330
1A
100
AcDbEntity
  8
ZUWAKU
100
AcDbCircle
 10
15.31721216833716
 20
10.47499986828869
 30
0.0
 40
0.525
100
AcDbArc
 50
270.0
 51
0.0
  0
ARC
  5
12FD
330
1A
100
AcDbEntity
  8
ZUWAKU
100
AcDbCircle
 10
14.44221216833716
 20
11.76520189364403
 30
0.0
 40
1.399999999999999
100
AcDbArc
 50
0.0
 51
45.0
  0
LINE
  5
12FE
330
1A
100
AcDbEntity
  8
ZUWAKU
100
AcDbLine
 10
11.81721216833716
 20
7.674999868288686
 30
0.0
 11
11.81721216833716
 21
9.424999868288686
 31
0.0
  0
ARC
  5
12FF
330
1A
100
AcDbEntity
  8
ZUWAKU
100
AcDbCircle
 10
12.34221216833714
 20
7.674999868288686
 30
0.0
 40
0.525
100
AcDbArc
 50
180.0
 51
270.0
  0
ARC
  5
1300
330
1A
100
AcDbEntity
  8
ZUWAKU
100
AcDbCircle
 10
12.34221216833714
 20
9.424999868288686
 30
0.0
 40
0.525
100
AcDbArc
 50
90.0
 51
180.0
  0
LINE
  5
1301
330
1A
100
AcDbEntity
  8
ZUWAKU
100
AcDbLine
 10
12.34221216833714
 20
7.149999868288688
 30
0.0
 11
15.84221216833714
 21
7.149999868288688
 31
0.0
  0
LINE
  5
1302
330
1A
100
AcDbEntity
  8
ZUWAKU
100
AcDbLine
 10
12.34221216833714
 20
9.949999868288685
 30
0.0
 11
15.31721216833716
 21
9.949999868288685
 31
0.0
  0
LINE
  5
1303
330
1A
100
AcDbEntity
  8
ZUWAKU
100
AcDbLine
 10
12.52236368735361
 20
15.66494936194986
 30
0.0
 11
15.43216166199829
 21
12.7551513873052
 31
0.0
  0
LINE
  5
1304
330
1A
100
AcDbEntity
  8
ZUWAKU
100
AcDbLine
 10
18.64221216833721
 20
9.949999868288685
 30
0.0
 11
18.64221216833721
 21
11.76520189364403
 31
0.0
  0
ARC
  5
1305
330
1A
100
AcDbEntity
  8
ZUWAKU
100
AcDbCircle
 10
24.94221216833716
 20
11.34999986828869
 30
0.0
 40
1.399999999999999
100
AcDbArc
 50
180.0
 51
270.0
  0
ARC
  5
1306
330
1A
100
AcDbEntity
  8
ZUWAKU
100
AcDbCircle
 10
17.59221216833714
 20
22.72499986828868
 30
0.0
 40
0.525
100
AcDbArc
 50
0.0
 51
90.0
  0
ARC
  5
1307
330
1A
100
AcDbEntity
  8
ZUWAKU
100
AcDbCircle
 10
17.59221216833714
 20
20.97499986828868
 30
0.0
 40
0.525
100
AcDbArc
 50
270.0
 51
0.0
  0
LINE
  5
1308
330
1A
100
AcDbEntity
  8
ZUWAKU
100
AcDbLine
 10
14.09221216833714
 20
23.24999986828868
 30
0.0
 11
17.59221216833714
 21
23.24999986828868
 31
0.0
  0
ARC
  5
1309
330
1A
100
AcDbEntity
  8
ZUWAKU
100
AcDbCircle
 10
14.61721216833711
 20
19.92499986828868
 30
0.0
 40
0.525
100
AcDbArc
 50
90.0
 51
180.0
  0
LINE
  5
130A
330
1A
100
AcDbEntity
  8
ZUWAKU
100
AcDbLine
 10
14.09221216833714
 20
19.92499986828868
 30
0.0
 11
14.09221216833714
 21
18.63479784293334
 31
0.0
  0
LINE
  5
130B
330
1A
100
AcDbEntity
  8
ZUWAKU
100
AcDbLine
 10
17.59221216833714
 20
20.44999986828868
 30
0.0
 11
14.61721216833711
 21
20.44999986828868
 31
0.0
  0
LINE
  5
130C
330
1A
100
AcDbEntity
  8
ZUWAKU
100
AcDbLine
 10
11.29221216833718
 20
20.44999986828868
 30
0.0
 11
11.29221216833718
 21
18.63479784293334
 31
0.0
  0
ARC
  5
130D
330
1A
100
AcDbEntity
  8
ZUWAKU
100
AcDbCircle
 10
14.09221216833714
 20
20.44999986828868
 30
0.0
 40
2.799999999999999
100
AcDbArc
 50
90.0
 51
180.0
  0
LINE
  5
130E
330
1A
100
AcDbEntity
  8
ZUWAKU
100
AcDbLine
 10
18.11721216833712
 20
22.72499986828868
 30
0.0
 11
18.11721216833712
 21
20.97499986828868
 31
0.0
  0
ARC
  5
130F
330
1A
100
AcDbEntity
  8
ZUWAKU
100
AcDbCircle
 10
24.94221216833716
 20
19.04999986828868
 30
0.0
 40
1.399999999999999
100
AcDbArc
 50
90.0
 51
180.0
  0
ARC
  5
1310
330
1A
100
AcDbEntity
  8
ZUWAKU
100
AcDbCircle
 10
24.94221216833716
 20
19.04999986828864
 30
0.0
 40
4.199999999999999
100
AcDbArc
 50
90.0
 51
180.0
  0
LINE
  5
1311
330
1A
100
AcDbEntity
  8
ZUWAKU
100
AcDbLine
 10
79.32662956154422
 20
29.99999986828868
 30
0.0
 11
79.32662956154445
 21
0.7999998682887508
 31
0.0
  0
LINE
  5
1312
330
1A
100
AcDbEntity
  8
ZUWAKU
100
AcDbLine
 10
79.52662956154426
 20
29.99999986828868
 30
0.0
 11
79.52662956154449
 21
0.7999998682887508
 31
0.0
  0
LINE
  5
1313
330
1A
100
AcDbEntity
  8
ZUWAKU
100
AcDbLine
 10
79.12662956154441
 20
29.99999986828868
 30
0.0
 11
79.12662956154441
 21
0.7999998682887508
 31
0.0
  0
LINE
  5
1314
330
1A
100
AcDbEntity
  8
ZUWAKU
100
AcDbLine
 10
64.14221216833721
 20
9.949999868288685
 30
0.0
 11
64.14221216833721
 21
22.72499986828868
 31
0.0
  0
LINE
  5
1315
330
1A
100
AcDbEntity
  8
ZUWAKU
100
AcDbLine
 10
61.34221216833714
 20
22.72499986828868
 30
0.0
 11
61.34221216833714
 21
10.99999986828868
 31
0.0
  0
LINE
  5
1316
330
1A
100
AcDbEntity
  8
ZUWAKU
100
AcDbLine
 10
69.04221216833718
 20
7.674999868288686
 30
0.0
 11
69.04221216833718
 21
22.72499986828868
 31
0.0
  0
LINE
  5
1317
330
1A
100
AcDbEntity
  8
ZUWAKU
100
AcDbLine
 10
66.24221216833712
 20
22.72499986828868
 30
0.0
 11
66.24221216833712
 21
7.674999868288686
 31
0.0
  0
ARC
  5
1318
330
1A
100
AcDbEntity
  8
ZUWAKU
100
AcDbCircle
 10
49.79221216833718
 20
18.63479784293338
 30
0.0
 40
1.399999999999999
100
AcDbArc
 50
180.0000000000016
 51
224.9999999999988
  0
ARC
  5
1319
330
1A
100
AcDbEntity
  8
ZUWAKU
100
AcDbCircle
 10
49.79221216833718
 20
18.63479784293338
 30
0.0
 40
4.199999999999999
100
AcDbArc
 50
180.0
 51
225.0
  0
LINE
  5
131A
330
1A
100
AcDbEntity
  8
ZUWAKU
100
AcDbLine
 10
37.31485865051513
 20
19.20504706185211
 30
0.0
 11
36.05010690517929
 21
15.1999998682887
 31
0.0
  0
LINE
  5
131B
330
1A
100
AcDbEntity
  8
ZUWAKU
100
AcDbLine
 10
40.69221216833716
 20
22.72499986828868
 30
0.0
 11
40.69221216833716
 21
7.674999868288686
 31
0.0
  0
LINE
  5
131C
330
1A
100
AcDbEntity
  8
ZUWAKU
100
AcDbLine
 10
43.49221216833711
 20
7.674999868288686
 30
0.0
 11
43.49221216833711
 21
22.72499986828868
 31
0.0
  0
LINE
  5
131D
330
1A
100
AcDbEntity
  8
ZUWAKU
100
AcDbLine
 10
55.04221216833719
 20
22.72499986828868
 30
0.0
 11
55.04221216833719
 21
9.949999868288685
 31
0.0
  0
LINE
  5
131E
330
1A
100
AcDbEntity
  8
ZUWAKU
100
AcDbLine
 10
57.84221216833714
 20
10.99999986828868
 30
0.0
 11
57.84221216833714
 21
22.72499986828868
 31
0.0
  0
LINE
  5
131F
330
1A
100
AcDbEntity
  8
ZUWAKU
100
AcDbLine
 10
32.64221216833721
 20
17.12499986828869
 30
0.0
 11
32.64221216833721
 21
22.72499986828868
 31
0.0
  0
LINE
  5
1320
330
1A
100
AcDbEntity
  8
ZUWAKU
100
AcDbLine
 10
29.84221216833714
 20
22.72499986828868
 30
0.0
 11
29.84221216833714
 21
7.674999868288686
 31
0.0
  0
LINE
  5
1321
330
1A
100
AcDbEntity
  8
ZUWAKU
100
AcDbLine
 10
35.676347105653
 20
22.88309383645565
 30
0.0
 11
33.80807723102122
 21
16.96690590012171
 31
0.0
  0
LINE
  5
1322
330
1A
100
AcDbEntity
  8
ZUWAKU
100
AcDbLine
 10
60.29221216833718
 20
9.949999868288685
 30
0.0
 11
58.89221216833721
 21
9.949999868288685
 31
0.0
  0
LINE
  5
1323
330
1A
100
AcDbEntity
  8
ZUWAKU
100
AcDbLine
 10
57.84221216833714
 20
7.149999868288688
 30
0.0
 11
61.34221216833714
 21
7.149999868288688
 31
0.0
  0
LINE
  5
1324
330
1A
100
AcDbEntity
  8
ZUWAKU
100
AcDbLine
 10
41.21721216833714
 20
7.149999868288688
 30
0.0
 11
42.96721216833714
 21
7.149999868288688
 31
0.0
  0
LINE
  5
1325
330
1A
100
AcDbEntity
  8
ZUWAKU
100
AcDbLine
 10
35.676347105653
 20
7.516905900121713
 30
0.0
 11
33.80807723102122
 21
13.43309383645565
 31
0.0
  0
ARC
  5
1326
330
1A
100
AcDbEntity
  8
ZUWAKU
100
AcDbCircle
 10
33.30744633182587
 20
17.12499986828869
 30
0.0
 40
0.525
100
AcDbArc
 50
270.0
 51
342.4744316262769
  0
LINE
  5
1327
330
1A
100
AcDbEntity
  8
ZUWAKU
100
AcDbLine
 10
33.30744633182587
 20
16.59999986828868
 30
0.0
 11
33.16721216833718
 21
16.59999986828868
 31
0.0
  0
LINE
  5
1328
330
1A
100
AcDbEntity
  8
ZUWAKU
100
AcDbLine
 10
33.16721216833718
 20
13.79999986828868
 30
0.0
 11
33.30744633182587
 21
13.79999986828868
 31
0.0
  0
ARC
  5
1329
330
1A
100
AcDbEntity
  8
ZUWAKU
100
AcDbCircle
 10
33.16721216833718
 20
17.12499986828869
 30
0.0
 40
0.525
100
AcDbArc
 50
180.0
 51
270.0
  0
LINE
  5
132A
330
1A
100
AcDbEntity
  8
ZUWAKU
100
AcDbLine
 10
30.36721216833711
 20
7.149999868288688
 30
0.0
 11
32.11721216833712
 21
7.149999868288688
 31
0.0
  0
ARC
  5
132B
330
1A
100
AcDbEntity
  8
ZUWAKU
100
AcDbCircle
 10
32.11721216833712
 20
7.674999868288686
 30
0.0
 40
0.525
100
AcDbArc
 50
270.0
 51
0.0
  0
LINE
  5
132C
330
1A
100
AcDbEntity
  8
ZUWAKU
100
AcDbLine
 10
32.64221216833721
 20
7.674999868288686
 30
0.0
 11
32.64221216833721
 21
13.27499986828868
 31
0.0
  0
LINE
  5
132D
330
1A
100
AcDbEntity
  8
ZUWAKU
100
AcDbLine
 10
27.39221216833721
 20
9.424999868288686
 30
0.0
 11
27.39221216833721
 21
7.674999868288686
 31
0.0
  0
ARC
  5
132E
330
1A
100
AcDbEntity
  8
ZUWAKU
100
AcDbCircle
 10
26.86721216833712
 20
7.674999868288686
 30
0.0
 40
0.525
100
AcDbArc
 50
270.0
 51
0.0
  0
ARC
  5
132F
330
1A
100
AcDbEntity
  8
ZUWAKU
100
AcDbCircle
 10
26.86721216833712
 20
9.424999868288686
 30
0.0
 40
0.525
100
AcDbArc
 50
0.0
 51
90.0
  0
ARC
  5
1330
330
1A
100
AcDbEntity
  8
ZUWAKU
100
AcDbCircle
 10
30.36721216833711
 20
7.674999868288686
 30
0.0
 40
0.525
100
AcDbArc
 50
180.0
 51
270.0
  0
ARC
  5
1331
330
1A
100
AcDbEntity
  8
ZUWAKU
100
AcDbCircle
 10
33.30744633182587
 20
13.27499986828868
 30
0.0
 40
0.525
100
AcDbArc
 50
17.52556837372303
 51
90.0
  0
ARC
  5
1332
330
1A
100
AcDbEntity
  8
ZUWAKU
100
AcDbCircle
 10
33.16721216833718
 20
13.27499986828868
 30
0.0
 40
0.525
100
AcDbArc
 50
90.0
 51
180.0
  0
ARC
  5
1333
330
1A
100
AcDbEntity
  8
ZUWAKU
100
AcDbCircle
 10
41.21721216833714
 20
7.674999868288686
 30
0.0
 40
0.525
100
AcDbArc
 50
180.0
 51
270.0
  0
LINE
  5
1334
330
1A
100
AcDbEntity
  8
ZUWAKU
100
AcDbLine
 10
36.17697800484847
 20
7.149999868288688
 30
0.0
 11
37.87586738445748
 21
7.149999868288688
 31
0.0
  0
ARC
  5
1335
330
1A
100
AcDbEntity
  8
ZUWAKU
100
AcDbCircle
 10
37.87586738445748
 20
7.674999868288686
 30
0.0
 40
0.525
100
AcDbArc
 50
270.0
 51
17.52556837372303
  0
LINE
  5
1336
330
1A
100
AcDbEntity
  8
ZUWAKU
100
AcDbLine
 10
38.37649828365295
 20
7.83309383645566
 30
0.0
 11
36.05010690517929
 21
15.1999998682887
 31
0.0
  0
ARC
  5
1337
330
1A
100
AcDbEntity
  8
ZUWAKU
100
AcDbCircle
 10
36.17697800484847
 20
7.674999868288686
 30
0.0
 40
0.525
100
AcDbArc
 50
197.525568373723
 51
270.0
  0
ARC
  5
1338
330
1A
100
AcDbEntity
  8
ZUWAKU
100
AcDbCircle
 10
57.84221216833714
 20
9.949999868288685
 30
0.0
 40
2.799999999999999
100
AcDbArc
 50
180.0
 51
270.0
  0
ARC
  5
1339
330
1A
100
AcDbEntity
  8
ZUWAKU
100
AcDbCircle
 10
50.14221216833721
 20
9.949999868288685
 30
0.0
 40
2.799999999999999
100
AcDbArc
 50
270.0
 51
0.0
  0
LINE
  5
133A
330
1A
100
AcDbEntity
  8
ZUWAKU
100
AcDbLine
 10
51.71206064932073
 20
14.73505037462751
 30
0.0
 11
48.80226267467595
 21
17.64484834927218
 31
0.0
  0
LINE
  5
133B
330
1A
100
AcDbEntity
  8
ZUWAKU
100
AcDbLine
 10
50.14221216833721
 20
10.47499986828869
 30
0.0
 11
50.14221216833721
 21
11.76520189364403
 31
0.0
  0
ARC
  5
133C
330
1A
100
AcDbEntity
  8
ZUWAKU
100
AcDbCircle
 10
48.74221216833712
 20
11.76520189364403
 30
0.0
 40
1.399999999999999
100
AcDbArc
 50
0.0
 51
45.0
  0
ARC
  5
133D
330
1A
100
AcDbEntity
  8
ZUWAKU
100
AcDbCircle
 10
49.61721216833712
 20
10.47499986828869
 30
0.0
 40
0.525
100
AcDbArc
 50
270.0
 51
0.0
  0
LINE
  5
133E
330
1A
100
AcDbEntity
  8
ZUWAKU
100
AcDbLine
 10
46.11721216833712
 20
7.674999868288686
 30
0.0
 11
46.11721216833712
 21
9.424999868288686
 31
0.0
  0
ARC
  5
133F
330
1A
100
AcDbEntity
  8
ZUWAKU
100
AcDbCircle
 10
46.64221216833721
 20
7.674999868288686
 30
0.0
 40
0.525
100
AcDbArc
 50
180.0
 51
270.0
  0
ARC
  5
1340
330
1A
100
AcDbEntity
  8
ZUWAKU
100
AcDbCircle
 10
42.96721216833714
 20
7.674999868288686
 30
0.0
 40
0.525
100
AcDbArc
 50
270.0
 51
0.0
  0
ARC
  5
1341
330
1A
100
AcDbEntity
  8
ZUWAKU
100
AcDbCircle
 10
46.64221216833721
 20
9.424999868288686
 30
0.0
 40
0.525
100
AcDbArc
 50
90.0
 51
180.0
  0
LINE
  5
1342
330
1A
100
AcDbEntity
  8
ZUWAKU
100
AcDbLine
 10
46.64221216833721
 20
9.949999868288685
 30
0.0
 11
49.61721216833712
 21
9.949999868288685
 31
0.0
  0
LINE
  5
1343
330
1A
100
AcDbEntity
  8
ZUWAKU
100
AcDbLine
 10
46.64221216833721
 20
7.149999868288688
 30
0.0
 11
50.14221216833721
 21
7.149999868288688
 31
0.0
  0
LINE
  5
1344
330
1A
100
AcDbEntity
  8
ZUWAKU
100
AcDbLine
 10
46.82236368735368
 20
15.66494936194986
 30
0.0
 11
49.73216166199836
 21
12.7551513873052
 31
0.0
  0
LINE
  5
1345
330
1A
100
AcDbEntity
  8
ZUWAKU
100
AcDbLine
 10
52.94221216833716
 20
9.949999868288685
 30
0.0
 11
52.94221216833716
 21
11.76520189364403
 31
0.0
  0
ARC
  5
1346
330
1A
100
AcDbEntity
  8
ZUWAKU
100
AcDbCircle
 10
48.74221216833712
 20
11.76520189364399
 30
0.0
 40
4.199999999999999
100
AcDbArc
 50
0.0
 51
45.0
  0
ARC
  5
1347
330
1A
100
AcDbEntity
  8
ZUWAKU
100
AcDbCircle
 10
58.89221216833721
 20
10.99999986828868
 30
0.0
 40
1.049999999999999
100
AcDbArc
 50
180.0
 51
270.0
  0
ARC
  5
1348
330
1A
100
AcDbEntity
  8
ZUWAKU
100
AcDbCircle
 10
61.34221216833714
 20
9.949999868288685
 30
0.0
 40
2.799999999999999
100
AcDbArc
 50
270.0
 51
0.0
  0
LINE
  5
1349
330
1A
100
AcDbEntity
  8
ZUWAKU
100
AcDbLine
 10
66.76721216833721
 20
7.149999868288688
 30
0.0
 11
68.51721216833721
 21
7.149999868288688
 31
0.0
  0
ARC
  5
134A
330
1A
100
AcDbEntity
  8
ZUWAKU
100
AcDbCircle
 10
66.76721216833721
 20
7.674999868288686
 30
0.0
 40
0.525
100
AcDbArc
 50
180.0
 51
270.0
  0
ARC
  5
134B
330
1A
100
AcDbEntity
  8
ZUWAKU
100
AcDbCircle
 10
60.29221216833718
 20
10.99999986828868
 30
0.0
 40
1.049999999999999
100
AcDbArc
 50
270.0
 51
0.0
  0
ARC
  5
134C
330
1A
100
AcDbEntity
  8
ZUWAKU
100
AcDbCircle
 10
68.51721216833721
 20
7.674999868288686
 30
0.0
 40
0.525
100
AcDbArc
 50
270.0
 51
0.0
  0
LINE
  5
134D
330
1A
100
AcDbEntity
  8
ZUWAKU
100
AcDbLine
 10
42.96721216833714
 20
23.24999986828868
 30
0.0
 11
41.21721216833714
 21
23.24999986828868
 31
0.0
  0
ARC
  5
134E
330
1A
100
AcDbEntity
  8
ZUWAKU
100
AcDbCircle
 10
32.11721216833712
 20
22.72499986828868
 30
0.0
 40
0.525
100
AcDbArc
 50
0.0
 51
90.0
  0
LINE
  5
134F
330
1A
100
AcDbEntity
  8
ZUWAKU
100
AcDbLine
 10
32.11721216833712
 20
23.24999986828868
 30
0.0
 11
30.36721216833711
 21
23.24999986828868
 31
0.0
  0
ARC
  5
1350
330
1A
100
AcDbEntity
  8
ZUWAKU
100
AcDbCircle
 10
26.86721216833712
 20
22.72499986828868
 30
0.0
 40
0.525
100
AcDbArc
 50
0.0
 51
90.0
  0
ARC
  5
1351
330
1A
100
AcDbEntity
  8
ZUWAKU
100
AcDbCircle
 10
30.36721216833711
 20
22.72499986828868
 30
0.0
 40
0.525
100
AcDbArc
 50
90.0
 51
180.0
  0
ARC
  5
1352
330
1A
100
AcDbEntity
  8
ZUWAKU
100
AcDbCircle
 10
26.86721216833712
 20
20.97499986828868
 30
0.0
 40
0.525
100
AcDbArc
 50
270.0
 51
0.0
  0
LINE
  5
1353
330
1A
100
AcDbEntity
  8
ZUWAKU
100
AcDbLine
 10
27.39221216833721
 20
22.72499986828868
 30
0.0
 11
27.39221216833721
 21
20.97499986828868
 31
0.0
  0
ARC
  5
1354
330
1A
100
AcDbEntity
  8
ZUWAKU
100
AcDbCircle
 10
41.21721216833714
 20
22.72499986828868
 30
0.0
 40
0.525
100
AcDbArc
 50
90.0
 51
180.0
  0
LINE
  5
1355
330
1A
100
AcDbEntity
  8
ZUWAKU
100
AcDbLine
 10
36.17697800484847
 20
23.24999986828868
 30
0.0
 11
37.87586738445748
 21
23.24999986828868
 31
0.0
  0
ARC
  5
1356
330
1A
100
AcDbEntity
  8
ZUWAKU
100
AcDbCircle
 10
37.87586738445748
 20
22.72499986828868
 30
0.0
 40
0.525
100
AcDbArc
 50
342.4744316262769
 51
90.0
  0
LINE
  5
1357
330
1A
100
AcDbEntity
  8
ZUWAKU
100
AcDbLine
 10
38.37649828365295
 20
22.56690590012171
 30
0.0
 11
37.31485865051513
 21
19.20504706185211
 31
0.0
  0
ARC
  5
1358
330
1A
100
AcDbEntity
  8
ZUWAKU
100
AcDbCircle
 10
36.17697800484847
 20
22.72499986828868
 30
0.0
 40
0.525
100
AcDbArc
 50
90.0
 51
162.4744316262769
  0
LINE
  5
1359
330
1A
100
AcDbEntity
  8
ZUWAKU
100
AcDbLine
 10
48.3922121683372
 20
23.24999986828868
 30
0.0
 11
51.89221216833721
 21
23.24999986828868
 31
0.0
  0
LINE
  5
135A
330
1A
100
AcDbEntity
  8
ZUWAKU
100
AcDbLine
 10
51.89221216833721
 20
20.44999986828868
 30
0.0
 11
48.91721216833719
 21
20.44999986828868
 31
0.0
  0
ARC
  5
135B
330
1A
100
AcDbEntity
  8
ZUWAKU
100
AcDbCircle
 10
48.91721216833719
 20
19.92499986828868
 30
0.0
 40
0.525
100
AcDbArc
 50
90.0
 51
180.0
  0
LINE
  5
135C
330
1A
100
AcDbEntity
  8
ZUWAKU
100
AcDbLine
 10
48.3922121683372
 20
19.92499986828868
 30
0.0
 11
48.3922121683372
 21
18.63479784293334
 31
0.0
  0
ARC
  5
135D
330
1A
100
AcDbEntity
  8
ZUWAKU
100
AcDbCircle
 10
42.96721216833714
 20
22.72499986828868
 30
0.0
 40
0.525
100
AcDbArc
 50
0.0
 51
90.0
  0
LINE
  5
135E
330
1A
100
AcDbEntity
  8
ZUWAKU
100
AcDbLine
 10
45.59221216833714
 20
20.44999986828868
 30
0.0
 11
45.59221216833714
 21
18.63479784293334
 31
0.0
  0
ARC
  5
135F
330
1A
100
AcDbEntity
  8
ZUWAKU
100
AcDbCircle
 10
48.3922121683372
 20
20.44999986828868
 30
0.0
 40
2.799999999999999
100
AcDbArc
 50
90.0
 51
180.0
  0
ARC
  5
1360
330
1A
100
AcDbEntity
  8
ZUWAKU
100
AcDbCircle
 10
57.31721216833716
 20
22.72499986828868
 30
0.0
 40
0.525
100
AcDbArc
 50
0.0
 51
90.0
  0
ARC
  5
1361
330
1A
100
AcDbEntity
  8
ZUWAKU
100
AcDbCircle
 10
55.56721216833716
 20
22.72499986828868
 30
0.0
 40
0.525
100
AcDbArc
 50
90.0
 51
180.0
  0
LINE
  5
1362
330
1A
100
AcDbEntity
  8
ZUWAKU
100
AcDbLine
 10
57.31721216833716
 20
23.24999986828868
 30
0.0
 11
55.56721216833716
 21
23.24999986828868
 31
0.0
  0
ARC
  5
1363
330
1A
100
AcDbEntity
  8
ZUWAKU
100
AcDbCircle
 10
51.89221216833721
 20
22.72499986828868
 30
0.0
 40
0.525
100
AcDbArc
 50
0.0
 51
90.0
  0
ARC
  5
1364
330
1A
100
AcDbEntity
  8
ZUWAKU
100
AcDbCircle
 10
51.89221216833721
 20
20.97499986828868
 30
0.0
 40
0.525
100
AcDbArc
 50
270.0
 51
0.0
  0
LINE
  5
1365
330
1A
100
AcDbEntity
  8
ZUWAKU
100
AcDbLine
 10
52.41721216833719
 20
22.72499986828868
 30
0.0
 11
52.41721216833719
 21
20.97499986828868
 31
0.0
  0
LINE
  5
1366
330
1A
100
AcDbEntity
  8
ZUWAKU
100
AcDbLine
 10
68.51721216833721
 20
23.24999986828868
 30
0.0
 11
66.76721216833721
 21
23.24999986828868
 31
0.0
  0
ARC
  5
1367
330
1A
100
AcDbEntity
  8
ZUWAKU
100
AcDbCircle
 10
66.76721216833721
 20
22.72499986828868
 30
0.0
 40
0.525
100
AcDbArc
 50
90.0
 51
180.0
  0
ARC
  5
1368
330
1A
100
AcDbEntity
  8
ZUWAKU
100
AcDbCircle
 10
63.61721216833712
 20
22.72499986828868
 30
0.0
 40
0.525
100
AcDbArc
 50
0.0
 51
90.0
  0
LINE
  5
1369
330
1A
100
AcDbEntity
  8
ZUWAKU
100
AcDbLine
 10
63.61721216833712
 20
23.24999986828868
 30
0.0
 11
61.86721216833712
 21
23.24999986828868
 31
0.0
  0
ARC
  5
136A
330
1A
100
AcDbEntity
  8
ZUWAKU
100
AcDbCircle
 10
61.86721216833712
 20
22.72499986828868
 30
0.0
 40
0.525
100
AcDbArc
 50
90.0
 51
180.0
  0
ARC
  5
136B
330
1A
100
AcDbEntity
  8
ZUWAKU
100
AcDbCircle
 10
68.51721216833721
 20
22.72499986828868
 30
0.0
 40
0.525
100
AcDbArc
 50
0.0
 51
90.0
  0
TEXT
  5
136C
330
1A
100
AcDbEntity
  8
MOJI
100
AcDbText
 10
239.827202694407
 20
18.00492092569607
 30
0.0
 40
5.599999999999999
  1
洋風じょうご
 41
0.9
  7
ｽﾀｲﾙ1
100
AcDbText
  0
TEXT
  5
136D
330
1A
100
AcDbEntity
  8
MOJI
100
AcDbText
 10
239.827202694407
 20
3.204920925696104
 30
0.0
 40
5.599999999999999
  1
Ｔ１６０－Ｙ６０・ＵＴ６０
 41
0.9
  7
ｽﾀｲﾙ1
100
AcDbText
  0
LINE
  5
136E
330
1A
100
AcDbEntity
  8
ZUWAKU
100
AcDbLine
 10
208.2466013036239
 20
29.99999986828868
 30
0.0
 11
208.2466013036239
 21
0.7999998682887508
 31
0.0
  0
LINE
  5
136F
330
1A
100
AcDbEntity
  8
ZUWAKU
100
AcDbLine
 10
208.6466013036238
 20
29.99999986828868
 30
0.0
 11
208.646601303624
 21
0.7999998682887508
 31
0.0
  0
LINE
  5
1370
330
1A
100
AcDbEntity
  8
ZUWAKU
100
AcDbLine
 10
208.4466013036237
 20
29.99999986828868
 30
0.0
 11
208.446601303624
 21
0.7999998682887508
 31
0.0
  0
TEXT
  5
1371
330
1A
100
AcDbEntity
  8
ZUWAKU
100
AcDbText
 10
209.7240463258335
 20
9.6553564066743
 30
0.0
 40
4.0
  1
サイズ
 41
0.9
  7
ｽﾀｲﾙ1
100
AcDbText
  0
TEXT
  5
1372
330
1A
100
AcDbEntity
  8
ZUWAKU
100
AcDbText
 10
209.7240463258333
 20
24.05535640667426
 30
0.0
 40
4.0
  1
品名
 41
0.9
  7
ｽﾀｲﾙ1
100
AcDbText
  0
LINE
  5
1373
330
1A
100
AcDbEntity
  8
ZUWAKU
100
AcDbLine
 10
648.8172025237602
 20
15.19999986828871
 30
0.0
 11
697.2490105620972
 21
15.19999986828871
 31
0.0
  0
LINE
  5
1374
330
1A
100
AcDbEntity
  8
ZUWAKU
100
AcDbLine
 10
648.8172025237604
 20
15.39999986828872
 30
0.0
 11
697.2490105620972
 21
15.39999986828871
 31
0.0
  0
LINE
  5
1375
330
1A
100
AcDbEntity
  8
ZUWAKU
100
AcDbLine
 10
648.8172025237602
 20
15.59999986828871
 30
0.0
 11
697.2490105620972
 21
15.59999986828871
 31
0.0
  0
TEXT
  5
1376
330
1A
100
AcDbEntity
  8
ZUWAKU
100
AcDbText
 10
658.2039377008584
 20
18.00492092569607
 30
0.0
 40
5.599999999999999
  1
　　．　　．　　
 41
0.9
  7
ｽﾀｲﾙ1
100
AcDbText
  0
LINE
  5
1377
330
1A
100
AcDbEntity
  8
ZUWAKU
100
AcDbLine
 10
505.1991795116968
 20
15.19999986828872
 30
0.0
 11
552.5269557796685
 21
15.19999986828872
 31
0.0
  0
LINE
  5
1378
330
1A
100
AcDbEntity
  8
ZUWAKU
100
AcDbLine
 10
505.1991795116968
 20
15.39999986828871
 30
0.0
 11
552.5269557796685
 21
15.39999986828871
 31
0.0
  0
LINE
  5
1379
330
1A
100
AcDbEntity
  8
ZUWAKU
100
AcDbLine
 10
505.1991795116968
 20
15.59999986828871
 30
0.0
 11
552.5269557796685
 21
15.59999986828871
 31
0.0
  0
TEXT
  5
137A
330
1A
100
AcDbEntity
  8
MOJI
100
AcDbText
 10
463.246432004558
 20
11.94261758994866
 30
0.0
 40
5.599999999999999
  1
ＰＤ１９□
 41
0.9
  7
ｽﾀｲﾙ1
100
AcDbText
  0
LINE
  5
137B
330
1A
100
AcDbEntity
  8
ZUWAKU
100
AcDbLine
 10
447.6243639845472
 20
29.99999986828868
 30
0.0
 11
447.6243639845474
 21
0.7999998682887508
 31
0.0
  0
LINE
  5
137C
330
1A
100
AcDbEntity
  8
ZUWAKU
100
AcDbLine
 10
447.8243639845472
 20
29.99999986828868
 30
0.0
 11
447.8243639845475
 21
0.7999998682887508
 31
0.0
  0
LINE
  5
137D
330
1A
100
AcDbEntity
  8
ZUWAKU
100
AcDbLine
 10
447.4243639845474
 20
29.99999986828868
 30
0.0
 11
447.4243639845474
 21
0.7999998682887508
 31
0.0
  0
TEXT
  5
137E
330
1A
100
AcDbEntity
  8
MOJI
100
AcDbText
 10
528.0409079858689
 20
18.00492092569607
 30
0.0
 40
5.599999999999999
  1
Ａ３
 41
0.9
  7
ｽﾀｲﾙ1
100
AcDbText
  0
LINE
  5
137F
330
1A
100
AcDbEntity
  8
ZUWAKU
100
AcDbLine
 10
504.9991795116969
 20
29.99999986828868
 30
0.0
 11
504.999179511697
 21
0.7999998682887508
 31
0.0
  0
LINE
  5
1380
330
1A
100
AcDbEntity
  8
ZUWAKU
100
AcDbLine
 10
505.1991795116968
 20
29.99999986828868
 30
0.0
 11
505.1991795116971
 21
0.7999998682887508
 31
0.0
  0
LINE
  5
1381
330
1A
100
AcDbEntity
  8
ZUWAKU
100
AcDbLine
 10
504.799179511697
 20
29.99999986828868
 30
0.0
 11
504.799179511697
 21
0.7999998682887508
 31
0.0
  0
TEXT
  5
1382
330
1A
100
AcDbEntity
  8
ZUWAKU
100
AcDbText
 10
462.0583242136342
 20
2.614070779428175
 30
0.0
 40
3.0
  1
□には色品番が入ります
 41
0.9
  7
ｽﾀｲﾙ1
100
AcDbText
  0
TEXT
  5
1383
330
1A
100
AcDbEntity
  8
ZUWAKU
100
AcDbText
 10
506.6766245339067
 20
9.6553564066743
 30
0.0
 40
4.0
  1
縮尺
 41
0.9
  7
ｽﾀｲﾙ1
100
AcDbText
  0
TEXT
  5
1384
330
1A
100
AcDbEntity
  8
MOJI
100
AcDbText
 10
528.0409079858689
 20
3.204920925696104
 30
0.0
 40
5.599999999999999
  1
１/２
 41
0.9
  7
ｽﾀｲﾙ1
100
AcDbText
  0
TEXT
  5
1385
330
1A
100
AcDbEntity
  8
ZUWAKU
100
AcDbText
 10
449.3018090067569
 20
24.05535640667426
 30
0.0
 40
4.0
  1
品番
 41
0.9
  7
ｽﾀｲﾙ1
100
AcDbText
  0
TEXT
  5
1386
330
1A
100
AcDbEntity
  8
ZUWAKU
100
AcDbText
 10
506.6766245339065
 20
24.05535640667426
 30
0.0
 40
4.0
  1
用紙
 41
0.9
  7
ｽﾀｲﾙ1
100
AcDbText
  0
LINE
  5
1387
330
1A
100
AcDbEntity
  8
ZUWAKU
100
AcDbLine
 10
648.6172025237603
 20
29.99999986828868
 30
0.0
 11
648.6172025237606
 21
0.7999998682887508
 31
0.0
  0
LINE
  5
1388
330
1A
100
AcDbEntity
  8
ZUWAKU
100
AcDbLine
 10
648.8172025237604
 20
29.99999986828868
 30
0.0
 11
648.8172025237607
 21
0.7999998682887508
 31
0.0
  0
LINE
  5
1389
330
1A
100
AcDbEntity
  8
ZUWAKU
100
AcDbLine
 10
648.4172025237605
 20
29.99999986828868
 30
0.0
 11
648.4172025237605
 21
0.7999998682887508
 31
0.0
  0
LINE
  5
138A
330
1A
100
AcDbEntity
  8
ZUWAKU
100
AcDbLine
 10
552.7269557796683
 20
29.99999986828868
 30
0.0
 11
552.7269557796684
 21
0.7999998682887508
 31
0.0
  0
LINE
  5
138B
330
1A
100
AcDbEntity
  8
ZUWAKU
100
AcDbLine
 10
552.9269557796683
 20
29.99999986828868
 30
0.0
 11
552.9269557796685
 21
0.7999998682887508
 31
0.0
  0
LINE
  5
138C
330
1A
100
AcDbEntity
  8
ZUWAKU
100
AcDbLine
 10
552.5269557796685
 20
29.99999986828868
 30
0.0
 11
552.5269557796685
 21
0.7999998682887508
 31
0.0
  0
TEXT
  5
138D
330
1A
100
AcDbEntity
  8
ZUWAKU
100
AcDbText
 10
650.29464754597
 20
24.05535640667426
 30
0.0
 40
4.0
  1
DATE
 41
0.9
  7
ｽﾀｲﾙ1
100
AcDbText
  0
LINE
  5
138E
330
1A
100
AcDbEntity
  8
ZUWAKU
100
AcDbLine
 10
697.2490105620972
 20
29.99999986828868
 30
0.0
 11
697.2490105620972
 21
0.7999998682887508
 31
0.0
  0
LINE
  5
138F
330
1A
100
AcDbEntity
  8
ZUWAKU
100
AcDbLine
 10
697.4490105620973
 20
29.99999986828868
 30
0.0
 11
697.4490105620973
 21
0.7999998682887508
 31
0.0
  0
LINE
  5
1390
330
1A
100
AcDbEntity
  8
ZUWAKU
100
AcDbLine
 10
697.6490105620971
 20
29.99999986828868
 30
0.0
 11
697.6490105620974
 21
0.7999998682887508
 31
0.0
  0
LINE
  5
1391
330
1A
100
AcDbEntity
  8
ZUWAKU
100
AcDbLine
 10
697.8490105620972
 20
29.99999986828868
 30
0.0
 11
697.8490105620974
 21
0.7999998682887508
 31
0.0
  0
TEXT
  5
1392
330
1A
100
AcDbEntity
  8
ZUWAKU
100
AcDbText
 10
708.5280842057998
 20
17.55383920397548
 30
0.0
 40
6.0
  1
積水化学工業株式会社
 41
0.9
  7
ｽﾀｲﾙ1
100
AcDbText
  0
TEXT
  5
1393
330
1A
100
AcDbEntity
  8
ZUWAKU
100
AcDbText
 10
708.5280842057998
 20
6.648840182142748
 30
0.0
 40
6.0
  1
建材事業部
 41
0.9
  7
ｽﾀｲﾙ1
100
AcDbText
  0
DIMENSION
  5
13E5
330
1A
100
AcDbEntity
  8
SUNPOU
100
AcDbDimension
  2
*D20
 10
502.6795280758437
 20
459.8844839342105
 30
0.0
 11
497.6795280758437
 21
468.3844839342106
 31
0.0
 70
    32
  3
STANDARD
100
AcDbAlignedDimension
 13
525.9078164515203
 23
476.8844839342106
 33
0.0
 14
525.9078164515203
 24
459.8844839342105
 34
0.0
 50
90.0
100
AcDbRotatedDimension
1001
ACAD
1000
DSTYLE
1002
{
1070
   287
1070
     5
1070
    41
1040
7.0
1070
    42
1040
6.0
1070
    43
1040
14.0
1070
    44
1040
3.0
1070
    73
1070
     0
1070
    74
1070
     0
1070
    77
1070
     3
1070
   140
1040
6.0
1070
   141
1040
150.0
1070
   147
1040
2.0
1070
   172
1070
     1
1070
   173
1070
     1
1070
   176
1070
   256
1070
   177
1070
   256
1070
   178
1070
   256
1070
   271
1070
     0
1070
   272
1070
     0
1070
   279
1070
     2
1070
   341
1005
6D
1070
     6
1000
OPEN
1070
     7
1000
OPEN
1070
   371
1070
    -1
1070
   372
1070
    -1
1002
}
  0
VIEWPORT
  5
22
330
17
100
AcDbEntity
 67
     1
  8
0
100
AcDbViewport
 10
313.6808219178082
 20
148.5
 30
0.0
 40
627.3616438356165
 41
297.0
 68
     2
 69
     1
1001
ACAD
1000
MVIEW
1002
{
1070
    16
1010
0.0
1020
0.0
1030
0.0
1010
0.0
1020
0.0
1030
1.0
1040
0.0
1040
297.0
1040
313.6808219178082
1040
148.5
1040
50.0
1040
0.0
1040
0.0
1070
     0
1070
   100
1070
     1
1070
     0
1070
     0
1070
     0
1070
     0
1070
     0
1040
0.0
1040
0.0
1040
0.0
1040
1.0
1040
1.0
1040
10.0
1040
10.0
1070
     0
1002
{
1002
}
1002
}
  0
VIEWPORT
  5
64
330
17
100
AcDbEntity
 67
     1
  8
VIEWPORT
100
AcDbViewport
 10
210.0
 20
148.5
 30
0.0
 40
420.0
 41
297.0
 68
     1
 69
     2
1001
ACAD
1000
MVIEW
1002
{
1070
    16
1010
0.0
1020
0.0
1030
0.0
1010
0.0
1020
0.0
1030
1.0
1040
0.0
1040
605.8799999999998
1040
420.0
1040
297.0
1040
50.0
1040
0.0
1040
0.0
1070
     0
1070
   100
1070
     1
1070
     0
1070
     0
1070
     0
1070
     0
1070
     0
1040
0.0
1040
0.0
1040
0.0
1040
10.0
1040
10.0
1040
0.0
1040
0.0
1070
     0
1002
{
1002
}
1002
}
  0
ENDSEC
  0
SECTION
  2
OBJECTS
  0
DICTIONARY
  5
C
330
0
100
AcDbDictionary
  3
ACAD_GROUP
350
D
  3
ACAD_LAYOUT
350
91E
  3
ACAD_MLINESTYLE
350
E
  3
ACAD_PLOTSETTINGS
350
91F
  3
ACAD_PLOTSTYLENAME
350
91C
  3
ACDBHEADERROUNDTRIPXREC
350
145D
  0
DICTIONARY
  5
B17
330
1A
100
AcDbDictionary
280
     1
  3
ACAD_LAYOUTSELFREF
360
147F
  0
DICTIONARY
  5
B15
330
17
100
AcDbDictionary
280
     1
  3
ACAD_LAYOUTSELFREF
360
147E
  0
DICTIONARY
  5
D
102
{ACAD_REACTORS
330
C
102
}
330
C
100
AcDbDictionary
  0
DICTIONARY
  5
91E
102
{ACAD_REACTORS
330
C
102
}
330
C
100
AcDbDictionary
  0
DICTIONARY
  5
E
102
{ACAD_REACTORS
330
C
102
}
330
C
100
AcDbDictionary
  3
STANDARD
350
13
  0
DICTIONARY
  5
91F
102
{ACAD_REACTORS
330
C
102
}
330
C
100
AcDbDictionary
  0
ACDBDICTIONARYWDFLT
  5
91C
102
{ACAD_REACTORS
330
C
102
}
330
C
100
AcDbDictionary
281
     1
  3
Normal
350
91D
100
AcDbDictionaryWithDefault
340
91D
1001
ACAD
1000
TREAT_AS_HARD
1070
     0
1000
TREAT_AS_HARD
1070
     0
1000
TREAT_AS_HARD
1070
     0
1000
TREAT_AS_HARD
1070
     0
1000
TREAT_AS_HARD
1070
     0
  0
DICTIONARY
  5
145D
102
{ACAD_REACTORS
330
C
102
}
330
C
100
AcDbDictionary
  3
TSTACKALIGN
350
145E
  3
TSTACKSIZE
350
145F
  3
HYPERLINKBASE
350
1460
  3
STYLESHEET
350
1461
  3
LAYOUTDICT
350
1462
  3
PLOTSETDICT
350
1463
  3
PLOTSTYLNAMDICT
350
1464
  3
LWETCUNION
350
1465
  3
INSUNITS
350
1466
  3
CEPSNTYPE
350
1467
  3
FINGERPRINTGUID
350
1468
  3
VERSIONGUID
350
1469
  3
PSVPSCALE
350
146A
  3
DIMSTYLEDATA
350
146B
  3
PUCSORTHOREF
350
146C
  3
PUCSORTHOVIEW
350
146D
  3
PUCSBASE
350
146E
  3
PUCSORGTOP
350
146F
  3
PUCSORGBOTTOM
350
1470
  3
PUCSORGLEFT
350
1471
  3
PUCSORGRIGHT
350
1472
  3
PUCSORGFRONT
350
1473
  3
PUCSORGBACK
350
1474
  3
UCSORTHOREF
350
1475
  3
UCSORTHOVIEW
350
1476
  3
UCSBASE
350
1477
  3
UCSORGTOP
350
1478
  3
UCSORGBOTTOM
350
1479
  3
UCSORGLEFT
350
147A
  3
UCSORGRIGHT
350
147B
  3
UCSORGFRONT
350
147C
  3
UCSORGBACK
350
147D
  0
XRECORD
  5
147F
102
{ACAD_REACTORS
330
B17
102
}
330
B17
100
AcDbXrecord
340
1A
  0
XRECORD
  5
147E
102
{ACAD_REACTORS
330
B15
102
}
330
B15
100
AcDbXrecord
340
17
  0
MLINESTYLE
  5
13
102
{ACAD_REACTORS
330
E
102
}
330
E
100
AcDbMlineStyle
  2
STANDARD
 70
     0
  3

 62
     0
 51
90.0
 52
90.0
 71
     2
 49
0.5
 62
   256
  6
BYLAYER
 49
-0.5
 62
   256
  6
BYLAYER
  0
ACDBPLACEHOLDER
  5
91D
102
{ACAD_REACTORS
330
91C
102
}
330
91C
100
AcDbPlaceHolder
280
     0
  0
XRECORD
  5
145E
102
{ACAD_REACTORS
330
145D
102
}
330
145D
100
AcDbXrecord
 90
        1
  0
XRECORD
  5
145F
102
{ACAD_REACTORS
330
145D
102
}
330
145D
100
AcDbXrecord
 90
       70
  0
XRECORD
  5
1460
102
{ACAD_REACTORS
330
145D
102
}
330
145D
100
AcDbXrecord
  1

  0
XRECORD
  5
1461
102
{ACAD_REACTORS
330
145D
102
}
330
145D
100
AcDbXrecord
  1
systemprinter.ctb
  0
XRECORD
  5
1462
102
{ACAD_REACTORS
330
145D
102
}
330
145D
100
AcDbXrecord
340
91E
  0
XRECORD
  5
1463
102
{ACAD_REACTORS
330
145D
102
}
330
145D
100
AcDbXrecord
340
91F
  0
XRECORD
  5
1464
102
{ACAD_REACTORS
330
145D
102
}
330
145D
100
AcDbXrecord
340
91C
  0
XRECORD
  5
1465
102
{ACAD_REACTORS
330
145D
102
}
330
145D
100
AcDbXrecord
 90
    10781
  0
XRECORD
  5
1466
102
{ACAD_REACTORS
330
145D
102
}
330
145D
100
AcDbXrecord
 90
        0
  0
XRECORD
  5
1467
102
{ACAD_REACTORS
330
145D
102
}
330
145D
100
AcDbXrecord
 90
        0
  0
XRECORD
  5
1468
102
{ACAD_REACTORS
330
145D
102
}
330
145D
100
AcDbXrecord
  1
{ACC18456-7ED3-478A-8261-873BEA195DF0}
  0
XRECORD
  5
1469
102
{ACAD_REACTORS
330
145D
102
}
330
145D
100
AcDbXrecord
  1
{E8214303-CD20-40B5-96A4-BDA6776112D0}
  0
XRECORD
  5
146A
102
{ACAD_REACTORS
330
145D
102
}
330
145D
100
AcDbXrecord
 40
0.0
  0
XRECORD
  5
146B
102
{ACAD_REACTORS
330
145D
102
}
330
145D
100
AcDbXrecord
1000
DSTYLE
1002
{
1070
   279
 70
     2
1070
   341
340
6D
1070
   343
340
6D
1070
   344
340
6D
1070
   371
 70
    -1
1070
   372
 70
    -1
1002
}
  0
XRECORD
  5
146C
102
{ACAD_REACTORS
330
145D
102
}
330
145D
100
AcDbXrecord
340
0
  0
XRECORD
  5
146D
102
{ACAD_REACTORS
330
145D
102
}
330
145D
100
AcDbXrecord
 70
     0
  0
XRECORD
  5
146E
102
{ACAD_REACTORS
330
145D
102
}
330
145D
100
AcDbXrecord
340
0
  0
XRECORD
  5
146F
102
{ACAD_REACTORS
330
145D
102
}
330
145D
100
AcDbXrecord
 10
0.0
 20
0.0
 30
0.0
  0
XRECORD
  5
1470
102
{ACAD_REACTORS
330
145D
102
}
330
145D
100
AcDbXrecord
 10
0.0
 20
0.0
 30
0.0
  0
XRECORD
  5
1471
102
{ACAD_REACTORS
330
145D
102
}
330
145D
100
AcDbXrecord
 10
0.0
 20
0.0
 30
0.0
  0
XRECORD
  5
1472
102
{ACAD_REACTORS
330
145D
102
}
330
145D
100
AcDbXrecord
 10
0.0
 20
0.0
 30
0.0
  0
XRECORD
  5
1473
102
{ACAD_REACTORS
330
145D
102
}
330
145D
100
AcDbXrecord
 10
0.0
 20
0.0
 30
0.0
  0
XRECORD
  5
1474
102
{ACAD_REACTORS
330
145D
102
}
330
145D
100
AcDbXrecord
 10
0.0
 20
0.0
 30
0.0
  0
XRECORD
  5
1475
102
{ACAD_REACTORS
330
145D
102
}
330
145D
100
AcDbXrecord
340
0
  0
XRECORD
  5
1476
102
{ACAD_REACTORS
330
145D
102
}
330
145D
100
AcDbXrecord
 70
     0
  0
XRECORD
  5
1477
102
{ACAD_REACTORS
330
145D
102
}
330
145D
100
AcDbXrecord
340
0
  0
XRECORD
  5
1478
102
{ACAD_REACTORS
330
145D
102
}
330
145D
100
AcDbXrecord
 10
0.0
 20
0.0
 30
0.0
  0
XRECORD
  5
1479
102
{ACAD_REACTORS
330
145D
102
}
330
145D
100
AcDbXrecord
 10
0.0
 20
0.0
 30
0.0
  0
XRECORD
  5
147A
102
{ACAD_REACTORS
330
145D
102
}
330
145D
100
AcDbXrecord
 10
0.0
 20
0.0
 30
0.0
  0
XRECORD
  5
147B
102
{ACAD_REACTORS
330
145D
102
}
330
145D
100
AcDbXrecord
 10
0.0
 20
0.0
 30
0.0
  0
XRECORD
  5
147C
102
{ACAD_REACTORS
330
145D
102
}
330
145D
100
AcDbXrecord
 10
0.0
 20
0.0
 30
0.0
  0
XRECORD
  5
147D
102
{ACAD_REACTORS
330
145D
102
}
330
145D
100
AcDbXrecord
 10
0.0
 20
0.0
 30
0.0
  0
ENDSEC
  0
EOF
