  0
SECTION
  2
HEADER
  9
$ACADVER
  1
AC1014
  9
$ACADMAINTVER
 70
     9
  9
$DWGCODEPAGE
  3
ANSI_932
  9
$INSBASE
 10
0.0
 20
0.0
 30
0.0
  9
$EXTMIN
 10
-0.0256328098773793
 20
-0.0181264030875355
 30
-0.0015258207003583
  9
$EXTMAX
 10
797.6000995626677
 20
551.6452344634274
 30
0.0000000349246037
  9
$LIMMIN
 10
0.0
 20
0.0
  9
$LIMMAX
 10
840.0
 20
594.0
  9
$ORTHOMODE
 70
     1
  9
$REGENMODE
 70
     1
  9
$FILLMODE
 70
     1
  9
$QTEXTMODE
 70
     0
  9
$MIRRTEXT
 70
     1
  9
$DRAGMODE
 70
     2
  9
$LTSCALE
 40
2.0
  9
$OSMODE
 70
    35
  9
$ATTMODE
 70
     1
  9
$TEXTSIZE
 40
5.0
  9
$TRACEWID
 40
1.0
  9
$TEXTSTYLE
  7
STANDARD
  9
$CLAYER
  8
SUNPOU
  9
$CELTYPE
  6
BYLAYER
  9
$CECOLOR
 62
   256
  9
$CELTSCALE
 40
1.0
  9
$DELOBJ
 70
     1
  9
$DISPSILH
 70
     0
  9
$DIMSCALE
 40
1.0
  9
$DIMASZ
 40
7.0
  9
$DIMEXO
 40
6.0
  9
$DIMDLI
 40
14.0
  9
$DIMRND
 40
0.0
  9
$DIMDLE
 40
0.0
  9
$DIMEXE
 40
3.0
  9
$DIMTP
 40
0.0
  9
$DIMTM
 40
0.0
  9
$DIMTXT
 40
6.0
  9
$DIMCEN
 40
150.0
  9
$DIMTSZ
 40
0.0
  9
$DIMTOL
 70
     0
  9
$DIMLIM
 70
     0
  9
$DIMTIH
 70
     0
  9
$DIMTOH
 70
     0
  9
$DIMSE1
 70
     0
  9
$DIMSE2
 70
     0
  9
$DIMTAD
 70
     3
  9
$DIMZIN
 70
     0
  9
$DIMBLK
  1

  9
$DIMASO
 70
     1
  9
$DIMSHO
 70
     1
  9
$DIMPOST
  1

  9
$DIMAPOST
  1

  9
$DIMALT
 70
     0
  9
$DIMALTD
 70
     2
  9
$DIMALTF
 40
25.4
  9
$DIMLFAC
 40
1.0
  9
$DIMTOFL
 70
     1
  9
$DIMTVP
 40
0.0
  9
$DIMTIX
 70
     0
  9
$DIMSOXD
 70
     0
  9
$DIMSAH
 70
     1
  9
$DIMBLK1
  1
OPEN
  9
$DIMBLK2
  1
OPEN
  9
$DIMSTYLE
  2
STANDARD
  9
$DIMCLRD
 70
   256
  9
$DIMCLRE
 70
   256
  9
$DIMCLRT
 70
   256
  9
$DIMTFAC
 40
1.0
  9
$DIMGAP
 40
2.0
  9
$DIMJUST
 70
     0
  9
$DIMSD1
 70
     0
  9
$DIMSD2
 70
     0
  9
$DIMTOLJ
 70
     1
  9
$DIMTZIN
 70
     0
  9
$DIMALTZ
 70
     0
  9
$DIMALTTZ
 70
     0
  9
$DIMFIT
 70
     5
  9
$DIMUPT
 70
     0
  9
$DIMUNIT
 70
     2
  9
$DIMDEC
 70
     0
  9
$DIMTDEC
 70
     0
  9
$DIMALTU
 70
     2
  9
$DIMALTTD
 70
     2
  9
$DIMTXSTY
  7
STANDARD
  9
$DIMAUNIT
 70
     0
  9
$LUNITS
 70
     2
  9
$LUPREC
 70
     4
  9
$SKETCHINC
 40
1.0
  9
$FILLETRAD
 40
0.5
  9
$AUNITS
 70
     0
  9
$AUPREC
 70
     0
  9
$MENU
  1
.
  9
$ELEVATION
 40
0.0
  9
$PELEVATION
 40
0.0
  9
$THICKNESS
 40
0.0
  9
$LIMCHECK
 70
     0
  9
$BLIPMODE
 70
     0
  9
$CHAMFERA
 40
20.0
  9
$CHAMFERB
 40
20.0
  9
$CHAMFERC
 40
40.0
  9
$CHAMFERD
 40
0.0
  9
$SKPOLY
 70
     0
  9
$TDCREATE
 40
2451159.855623147
  9
$TDUPDATE
 40
2453483.431026111
  9
$TDINDWG
 40
0.1383999421
  9
$TDUSRTIMER
 40
0.1383999421
  9
$USRTIMER
 70
     1
  9
$ANGBASE
 50
0.0
  9
$ANGDIR
 70
     0
  9
$PDMODE
 70
     0
  9
$PDSIZE
 40
0.0
  9
$PLINEWID
 40
0.0
  9
$COORDS
 70
     1
  9
$SPLFRAME
 70
     0
  9
$SPLINETYPE
 70
     6
  9
$SPLINESEGS
 70
     8
  9
$ATTDIA
 70
     0
  9
$ATTREQ
 70
     1
  9
$HANDLING
 70
 10241
  9
$HANDSEED
  5
19FC
  9
$SURFTAB1
 70
     6
  9
$SURFTAB2
 70
     6
  9
$SURFTYPE
 70
     6
  9
$SURFU
 70
     6
  9
$SURFV
 70
     6
  9
$UCSNAME
  2

  9
$UCSORG
 10
0.0
 20
0.0
 30
0.0
  9
$UCSXDIR
 10
1.0
 20
0.0
 30
0.0
  9
$UCSYDIR
 10
0.0
 20
1.0
 30
0.0
  9
$PUCSNAME
  2

  9
$PUCSORG
 10
0.0
 20
0.0
 30
0.0
  9
$PUCSXDIR
 10
1.0
 20
0.0
 30
0.0
  9
$PUCSYDIR
 10
0.0
 20
1.0
 30
0.0
  9
$USERI1
 70
     0
  9
$USERI2
 70
     0
  9
$USERI3
 70
     0
  9
$USERI4
 70
     0
  9
$USERI5
 70
     0
  9
$USERR1
 40
0.0
  9
$USERR2
 40
0.0
  9
$USERR3
 40
0.0
  9
$USERR4
 40
0.0
  9
$USERR5
 40
0.0
  9
$WORLDVIEW
 70
     1
  9
$SHADEDGE
 70
     3
  9
$SHADEDIF
 70
    70
  9
$TILEMODE
 70
     1
  9
$MAXACTVP
 70
    16
  9
$PINSBASE
 10
0.0
 20
0.0
 30
0.0
  9
$PLIMCHECK
 70
     0
  9
$PEXTMIN
 10
0.0
 20
0.0
 30
0.0
  9
$PEXTMAX
 10
420.0
 20
297.0
 30
0.0
  9
$PLIMMIN
 10
0.0
 20
0.0
  9
$PLIMMAX
 10
420.0
 20
297.0
  9
$UNITMODE
 70
     0
  9
$VISRETAIN
 70
     0
  9
$PLINEGEN
 70
     0
  9
$PSLTSCALE
 70
     1
  9
$TREEDEPTH
 70
  3020
  9
$PICKSTYLE
 70
     1
  9
$CMLSTYLE
  2
STANDARD
  9
$CMLJUST
 70
     0
  9
$CMLSCALE
 40
1.0
  9
$PROXYGRAPHICS
 70
     1
  9
$MEASUREMENT
 70
     1
  0
ENDSEC
  0
SECTION
  2
CLASSES
  0
CLASS
  1
ACDBDICTIONARYWDFLT
  2
AcDbDictionaryWithDefault
  3
AutoCAD 2000
 90
        0
280
     0
281
     0
  0
CLASS
  1
ACDBPLACEHOLDER
  2
AcDbPlaceHolder
  3
AutoCAD 2000
 90
        0
280
     0
281
     0
  0
CLASS
  1
LAYOUT
  2
AcDbLayout
  3
AutoCAD 2000
 90
        0
280
     0
281
     0
  0
CLASS
  1
LONG_TRANSACTION
  2
AcDbLongTransaction
  3
AutoCAD 2000
 90
        0
280
     0
281
     0
  0
CLASS
  1
LWPOLYLINE
  2
AcDbPolyline
  3
AutoCAD 2000
 90
        0
280
     0
281
     1
  0
CLASS
  1
HATCH
  2
AcDbHatch
  3
AutoCAD 2000
 90
        0
280
     0
281
     1
  0
CLASS
  1
XRECORD
  2
AcDbXrecord
  3
AutoCAD 2000
 90
        0
280
     0
281
     0
  0
CLASS
  1
LONG_TRANSACTION
  2
AcDbLongTransaction
  3
AutoCAD 2000
 90
        0
280
     0
281
     0
  0
CLASS
  1
LWPOLYLINE
  2
AcDbPolyline
  3
AutoCAD 2000
 90
        0
280
     0
281
     1
  0
CLASS
  1
HATCH
  2
AcDbHatch
  3
AutoCAD 2000
 90
        0
280
     0
281
     1
  0
CLASS
  1
XRECORD
  2
AcDbXrecord
  3
AutoCAD 2000
 90
        0
280
     0
281
     0
  0
CLASS
  1
LONG_TRANSACTION
  2
AcDbLongTransaction
  3
AutoCAD 2000
 90
        0
280
     0
281
     0
  0
CLASS
  1
LWPOLYLINE
  2
AcDbPolyline
  3
AutoCAD 2000
 90
        0
280
     0
281
     1
  0
CLASS
  1
HATCH
  2
AcDbHatch
  3
AutoCAD 2000
 90
        0
280
     0
281
     1
  0
CLASS
  1
XRECORD
  2
AcDbXrecord
  3
AutoCAD 2000
 90
        0
280
     0
281
     0
  0
CLASS
  1
LONG_TRANSACTION
  2
AcDbLongTransaction
  3
AutoCAD 2000
 90
        0
280
     0
281
     0
  0
CLASS
  1
LWPOLYLINE
  2
AcDbPolyline
  3
AutoCAD 2000
 90
        0
280
     0
281
     1
  0
CLASS
  1
HATCH
  2
AcDbHatch
  3
AutoCAD 2000
 90
        0
280
     0
281
     1
  0
CLASS
  1
XRECORD
  2
AcDbXrecord
  3
AutoCAD 2000
 90
        0
280
     0
281
     0
  0
CLASS
  1
LONG_TRANSACTION
  2
AcDbLongTransaction
  3
AutoCAD 2000
 90
        0
280
     0
281
     0
  0
CLASS
  1
LWPOLYLINE
  2
AcDbPolyline
  3
AutoCAD 2000
 90
        0
280
     0
281
     1
  0
CLASS
  1
HATCH
  2
AcDbHatch
  3
AutoCAD 2000
 90
        0
280
     0
281
     1
  0
CLASS
  1
XRECORD
  2
AcDbXrecord
  3
AutoCAD 2000
 90
        0
280
     0
281
     0
  0
CLASS
  1
LONG_TRANSACTION
  2
AcDbLongTransaction
  3
AutoCAD 2000
 90
        0
280
     0
281
     0
  0
CLASS
  1
LWPOLYLINE
  2
AcDbPolyline
  3
AutoCAD 2000
 90
        0
280
     0
281
     1
  0
CLASS
  1
HATCH
  2
AcDbHatch
  3
AutoCAD 2000
 90
        0
280
     0
281
     1
  0
CLASS
  1
XRECORD
  2
AcDbXrecord
  3
AutoCAD 2000
 90
        0
280
     0
281
     0
  0
CLASS
  1
LONG_TRANSACTION
  2
AcDbLongTransaction
  3
AutoCAD 2000
 90
        0
280
     0
281
     0
  0
CLASS
  1
LWPOLYLINE
  2
AcDbPolyline
  3
AutoCAD 2000
 90
        0
280
     0
281
     1
  0
CLASS
  1
HATCH
  2
AcDbHatch
  3
AutoCAD 2000
 90
        0
280
     0
281
     1
  0
CLASS
  1
XRECORD
  2
AcDbXrecord
  3
AutoCAD 2000
 90
        0
280
     0
281
     0
  0
ENDSEC
  0
SECTION
  2
TABLES
  0
TABLE
  2
VPORT
  5
8
330
0
100
AcDbSymbolTable
 70
     2
  0
VPORT
  5
198D
330
8
100
AcDbSymbolTableRecord
100
AcDbViewportTableRecord
  2
*ACTIVE
 70
     0
 10
0.0
 20
0.0
 11
1.0
 21
1.0
 12
412.2160979602552
 22
265.9065917416072
 13
0.0
 23
0.0
 14
5.0
 24
5.0
 15
0.0
 25
0.0
 16
0.0
 26
0.0
 36
1.0
 17
0.0
 27
0.0
 37
0.0
 40
600.5939729167001
 41
1.752310536044362
 42
50.0
 43
0.0
 44
0.0
 50
0.0
 51
0.0
 71
     0
 72
   100
 73
     1
 74
     0
 75
     0
 76
     0
 77
     0
 78
     0
  0
ENDTAB
  0
TABLE
  2
LTYPE
  5
5
330
0
100
AcDbSymbolTable
 70
     4
  0
LTYPE
  5
14
330
5
100
AcDbSymbolTableRecord
100
AcDbLinetypeTableRecord
  2
BYBLOCK
 70
     0
  3

 72
    65
 73
     0
 40
0.0
  0
LTYPE
  5
15
330
5
100
AcDbSymbolTableRecord
100
AcDbLinetypeTableRecord
  2
BYLAYER
 70
     0
  3

 72
    65
 73
     0
 40
0.0
  0
LTYPE
  5
16
330
5
100
AcDbSymbolTableRecord
100
AcDbLinetypeTableRecord
  2
CONTINUOUS
 70
     0
  3
Solid line
 72
    65
 73
     0
 40
0.0
  0
LTYPE
  5
115
330
5
100
AcDbSymbolTableRecord
100
AcDbLinetypeTableRecord
  2
PHANTOM
 70
     0
  3
______  __  __  ______  __  __  ______  __  __ 
 72
    65
 73
     6
 40
2.5
 49
1.25
 74
     0
 49
-0.25
 74
     0
 49
0.25
 74
     0
 49
-0.25
 74
     0
 49
0.25
 74
     0
 49
-0.25
 74
     0
  0
LTYPE
  5
135
330
5
100
AcDbSymbolTableRecord
100
AcDbLinetypeTableRecord
  2
CENTER
 70
     0
  3
____ _ ____ _ ____ _ ____ _ ____ _ ____ _ ____ 
 72
    65
 73
     4
 40
2.0
 49
1.25
 74
     0
 49
-0.25
 74
     0
 49
0.25
 74
     0
 49
-0.25
 74
     0
  0
LTYPE
  5
E9F
330
5
100
AcDbSymbolTableRecord
100
AcDbLinetypeTableRecord
  2
HIDDEN
 70
     0
  3
__ __ __ __ __ __ __ __ __ __ __ __ __ __ __ __
 72
    65
 73
     2
 40
0.375
 49
0.25
 74
     0
 49
-0.125
 74
     0
  0
ENDTAB
  0
TABLE
  2
LAYER
  5
2
330
0
100
AcDbSymbolTable
 70
     9
  0
LAYER
  5
F
330
2
100
AcDbSymbolTableRecord
100
AcDbLayerTableRecord
  2
0
 70
     0
 62
     7
  6
CONTINUOUS
  0
LAYER
  5
62
330
2
100
AcDbSymbolTableRecord
100
AcDbLayerTableRecord
  2
VIEWPORT
 70
     0
 62
     7
  6
CONTINUOUS
  0
LAYER
  5
65
330
2
100
AcDbSymbolTableRecord
100
AcDbLayerTableRecord
  2
ZUWAKU
 70
     0
 62
     7
  6
CONTINUOUS
  0
LAYER
  5
143
330
2
100
AcDbSymbolTableRecord
100
AcDbLayerTableRecord
  2
NOKITOI
 70
     0
 62
     9
  6
PHANTOM
  0
LAYER
  5
144
330
2
100
AcDbSymbolTableRecord
100
AcDbLayerTableRecord
  2
SEIHIN
 70
     0
 62
     3
  6
CONTINUOUS
  0
LAYER
  5
3CD
330
2
100
AcDbSymbolTableRecord
100
AcDbLayerTableRecord
  2
CENTER_L
 70
     0
 62
     1
  6
CENTER
  0
LAYER
  5
3CE
330
2
100
AcDbSymbolTableRecord
100
AcDbLayerTableRecord
  2
SUNPOU
 70
     0
 62
     4
  6
CONTINUOUS
  0
LAYER
  5
6E3
330
2
100
AcDbSymbolTableRecord
100
AcDbLayerTableRecord
  2
DEFPOINTS
 70
     0
 62
     7
  6
CONTINUOUS
  0
LAYER
  5
15FD
330
2
100
AcDbSymbolTableRecord
100
AcDbLayerTableRecord
  2
MOJI
 70
     0
 62
     2
  6
CONTINUOUS
  0
ENDTAB
  0
TABLE
  2
STYLE
  5
3
330
0
100
AcDbSymbolTable
 70
     2
  0
STYLE
  5
10
330
3
100
AcDbSymbolTableRecord
100
AcDbTextStyleTableRecord
  2
STANDARD
 70
     0
 40
0.0
 41
1.0
 50
0.0
 71
     0
 42
5.0
  3
TXT
  4
a:\program files\autocad lt\ms\bigfont.shx
  0
STYLE
  5
15FE
330
3
100
AcDbSymbolTableRecord
100
AcDbTextStyleTableRecord
  2
ｽﾀｲﾙ1
 70
     0
 40
0.0
 41
1.0
 50
0.0
 71
     0
 42
2.5
  3
MS PGothic.ttf
  4

1001
ACAD
1000
MS PGothic
1071
    32818
  0
ENDTAB
  0
TABLE
  2
VIEW
  5
6
330
0
100
AcDbSymbolTable
 70
     0
  0
ENDTAB
  0
TABLE
  2
UCS
  5
7
330
0
100
AcDbSymbolTable
 70
     0
  0
ENDTAB
  0
TABLE
  2
APPID
  5
9
330
0
100
AcDbSymbolTable
 70
     1
  0
APPID
  5
11
330
9
100
AcDbSymbolTableRecord
100
AcDbRegAppTableRecord
  2
ACAD
 70
     0
  0
ENDTAB
  0
TABLE
  2
DIMSTYLE
  5
A
330
0
100
AcDbSymbolTable
 70
     1
  0
DIMSTYLE
105
1D
102
{ACAD_REACTORS
330
91D
330
958
330
965
330
972
330
983
330
9AA
330
A15
330
B15
330
B16
330
B17
330
B19
330
C20
330
C32
330
14A2
330
EE4
330
EF7
330
EE5
330
F0F
330
EE6
330
18A5
102
}
330
A
100
AcDbSymbolTableRecord
100
AcDbDimStyleTableRecord
  2
STANDARD
 70
     0
  3

  4

  5

  6

  7

 40
1.0
 41
0.18
 42
0.0625
 43
0.38
 44
0.18
 45
0.0
 46
0.0
 47
0.0
 48
0.0
140
0.18
141
0.09
142
0.0
143
25.4
144
1.0
145
0.0
146
1.0
147
0.09
 71
     0
 72
     0
 73
     1
 74
     1
 75
     0
 76
     0
 77
     0
 78
     0
170
     0
171
     2
172
     0
173
     0
174
     0
175
     0
176
     0
177
     0
178
     0
270
     2
271
     4
272
     4
273
     2
274
     2
340
10
275
     0
280
     0
281
     0
282
     0
283
     1
284
     0
285
     0
286
     0
287
     3
288
     0
  0
ENDTAB
  0
TABLE
  2
BLOCK_RECORD
  5
1
330
0
100
AcDbSymbolTable
 70
    21
  0
BLOCK_RECORD
  5
1A
102
{ACAD_XDICTIONARY
360
DC3
102
}
330
1
100
AcDbSymbolTableRecord
100
AcDbBlockTableRecord
  2
*MODEL_SPACE
  0
BLOCK_RECORD
  5
17
102
{ACAD_XDICTIONARY
360
DC1
102
}
330
1
100
AcDbSymbolTableRecord
100
AcDbBlockTableRecord
  2
*PAPER_SPACE
  0
BLOCK_RECORD
  5
6D
330
1
100
AcDbSymbolTableRecord
100
AcDbBlockTableRecord
  2
_OPEN
  0
BLOCK_RECORD
  5
911
330
1
100
AcDbSymbolTableRecord
100
AcDbBlockTableRecord
  2
*D1
  0
BLOCK_RECORD
  5
94C
330
1
100
AcDbSymbolTableRecord
100
AcDbBlockTableRecord
  2
*D2
  0
BLOCK_RECORD
  5
959
330
1
100
AcDbSymbolTableRecord
100
AcDbBlockTableRecord
  2
*D3
  0
BLOCK_RECORD
  5
966
330
1
100
AcDbSymbolTableRecord
100
AcDbBlockTableRecord
  2
*D4
  0
BLOCK_RECORD
  5
975
330
1
100
AcDbSymbolTableRecord
100
AcDbBlockTableRecord
  2
*D5
  0
BLOCK_RECORD
  5
99E
330
1
100
AcDbSymbolTableRecord
100
AcDbBlockTableRecord
  2
*D6
  0
BLOCK_RECORD
  5
A09
330
1
100
AcDbSymbolTableRecord
100
AcDbBlockTableRecord
  2
*D7
  0
BLOCK_RECORD
  5
B4A
330
1
100
AcDbSymbolTableRecord
100
AcDbBlockTableRecord
  2
*D8
  0
BLOCK_RECORD
  5
B58
330
1
100
AcDbSymbolTableRecord
100
AcDbBlockTableRecord
  2
*D9
  0
BLOCK_RECORD
  5
B64
330
1
100
AcDbSymbolTableRecord
100
AcDbBlockTableRecord
  2
*D10
  0
BLOCK_RECORD
  5
B70
330
1
100
AcDbSymbolTableRecord
100
AcDbBlockTableRecord
  2
*D11
  0
BLOCK_RECORD
  5
C14
330
1
100
AcDbSymbolTableRecord
100
AcDbBlockTableRecord
  2
*D12
  0
BLOCK_RECORD
  5
C26
330
1
100
AcDbSymbolTableRecord
100
AcDbBlockTableRecord
  2
*D13
  0
BLOCK_RECORD
  5
F1A
330
1
100
AcDbSymbolTableRecord
100
AcDbBlockTableRecord
  2
*D14
  0
BLOCK_RECORD
  5
F26
330
1
100
AcDbSymbolTableRecord
100
AcDbBlockTableRecord
  2
*D15
  0
BLOCK_RECORD
  5
F32
330
1
100
AcDbSymbolTableRecord
100
AcDbBlockTableRecord
  2
*D16
  0
BLOCK_RECORD
  5
F40
330
1
100
AcDbSymbolTableRecord
100
AcDbBlockTableRecord
  2
*D17
  0
BLOCK_RECORD
  5
F58
330
1
100
AcDbSymbolTableRecord
100
AcDbBlockTableRecord
  2
*D18
  0
BLOCK_RECORD
  5
14A3
330
1
100
AcDbSymbolTableRecord
100
AcDbBlockTableRecord
  2
*D19
  0
BLOCK_RECORD
  5
18A6
330
1
100
AcDbSymbolTableRecord
100
AcDbBlockTableRecord
  2
*D20
  0
ENDTAB
  0
ENDSEC
  0
SECTION
  2
BLOCKS
  0
BLOCK
  5
1B
330
1A
100
AcDbEntity
  8
0
100
AcDbBlockBegin
  2
*MODEL_SPACE
 70
     0
 10
0.0
 20
0.0
 30
0.0
  3
*MODEL_SPACE
  1

  0
ENDBLK
  5
1C
330
1A
100
AcDbEntity
  8
0
100
AcDbBlockEnd
  0
BLOCK
  5
18
330
17
100
AcDbEntity
 67
     1
  8
0
100
AcDbBlockBegin
  2
*PAPER_SPACE
 70
     0
 10
0.0
 20
0.0
 30
0.0
  3
*PAPER_SPACE
  1

  0
ENDBLK
  5
19
330
17
100
AcDbEntity
 67
     1
  8
0
100
AcDbBlockEnd
  0
BLOCK
  5
6E
330
6D
100
AcDbEntity
  8
0
100
AcDbBlockBegin
  2
_OPEN
 70
     0
 10
0.0
 20
0.0
 30
0.0
  3
_OPEN
  1

  0
LINE
  5
6F
330
6D
100
AcDbEntity
  8
0
  6
BYBLOCK
 62
     0
100
AcDbLine
 10
-1.0
 20
0.1666666666666666
 30
0.0
 11
0.0
 21
0.0
 31
0.0
  0
LINE
  5
70
330
6D
100
AcDbEntity
  8
0
  6
BYBLOCK
 62
     0
100
AcDbLine
 10
0.0
 20
0.0
 30
0.0
 11
-1.0
 21
-0.1666666666666666
 31
0.0
  0
LINE
  5
71
330
6D
100
AcDbEntity
  8
0
  6
BYBLOCK
 62
     0
100
AcDbLine
 10
0.0
 20
0.0
 30
0.0
 11
-1.0
 21
0.0
 31
0.0
  0
ENDBLK
  5
72
330
6D
100
AcDbEntity
  8
0
100
AcDbBlockEnd
  0
BLOCK
  5
A48
330
911
100
AcDbEntity
  8
0
100
AcDbBlockBegin
  2
*D1
 70
     1
 10
0.0
 20
0.0
 30
0.0
  3
*D1
  1

  0
LINE
  5
17A9
330
911
100
AcDbEntity
  8
SUNPOU
 62
     4
100
AcDbLine
 10
275.5250892924205
 20
358.1903615854163
 30
0.0
 11
275.5250892924205
 21
322.68353032202
 31
0.0
  0
LINE
  5
17AA
330
911
100
AcDbEntity
  8
SUNPOU
 62
     4
100
AcDbLine
 10
350.5250892924205
 20
356.4903615854162
 30
0.0
 11
350.5250892924205
 21
322.68353032202
 31
0.0
  0
LINE
  5
17AB
330
911
100
AcDbEntity
  8
SUNPOU
 62
     4
100
AcDbLine
 10
282.5250892924206
 20
325.68353032202
 30
0.0
 11
343.5250892924206
 21
325.68353032202
 31
0.0
  0
INSERT
  5
17AC
330
911
100
AcDbEntity
  8
SUNPOU
 62
     4
100
AcDbBlockReference
  2
_OPEN
 10
275.5250892924205
 20
325.68353032202
 30
0.0
 41
7.0
 42
7.0
 43
7.0
 50
180.0
  0
INSERT
  5
17AD
330
911
100
AcDbEntity
  8
SUNPOU
 62
     4
100
AcDbBlockReference
  2
_OPEN
 10
350.5250892924205
 20
325.68353032202
 30
0.0
 41
7.0
 42
7.0
 43
7.0
  0
MTEXT
  5
17AE
330
911
100
AcDbEntity
  8
SUNPOU
 62
     4
100
AcDbMText
 10
313.0250892924205
 20
330.68353032202
 30
0.0
 40
6.0
 41
0.0
 71
     5
 72
     1
  1
\A1;※a75
1001
ACAD
1000
MTEXTBEGIN
1070
    73
1070
     1
1070
    44
1040
1.0
1070
    74
1070
     0
1000
MTEXTEND
  0
POINT
  5
17AF
330
911
100
AcDbEntity
  8
DEFPOINTS
 62
     0
100
AcDbPoint
 10
275.5250892924205
 20
364.1903615854163
 30
0.0
  0
POINT
  5
17B0
330
911
100
AcDbEntity
  8
DEFPOINTS
 62
     0
100
AcDbPoint
 10
350.5250892924205
 20
362.4903615854162
 30
0.0
  0
POINT
  5
17B1
330
911
100
AcDbEntity
  8
DEFPOINTS
 62
     0
100
AcDbPoint
 10
350.5250892924205
 20
325.68353032202
 30
0.0
  0
ENDBLK
  5
A52
330
911
100
AcDbEntity
  8
0
100
AcDbBlockEnd
  0
BLOCK
  5
94D
330
94C
100
AcDbEntity
  8
0
100
AcDbBlockBegin
  2
*D2
 70
     1
 10
0.0
 20
0.0
 30
0.0
  3
*D2
  1

  0
LINE
  5
17C4
330
94C
100
AcDbEntity
  8
SUNPOU
100
AcDbLine
 10
587.463673791711
 20
155.586834384308
 30
0.0
 11
675.1996026573506
 21
155.586834384308
 31
0.0
  0
LINE
  5
17C5
330
94C
100
AcDbEntity
  8
SUNPOU
100
AcDbLine
 10
632.6447968805109
 20
230.5868347320079
 30
0.0
 11
675.1996026573506
 21
230.5868347320079
 31
0.0
  0
LINE
  5
17C6
330
94C
100
AcDbEntity
  8
SUNPOU
100
AcDbLine
 10
672.1996026573506
 20
162.586834384308
 30
0.0
 11
672.1996026573506
 21
223.5868347320078
 31
0.0
  0
INSERT
  5
17C7
330
94C
100
AcDbEntity
  8
SUNPOU
100
AcDbBlockReference
  2
_OPEN
 10
672.1996026573506
 20
155.586834384308
 30
0.0
 41
7.0
 42
7.0
 43
7.0
 50
270.0
  0
INSERT
  5
17C8
330
94C
100
AcDbEntity
  8
SUNPOU
100
AcDbBlockReference
  2
_OPEN
 10
672.1996026573506
 20
230.5868347320079
 30
0.0
 41
7.0
 42
7.0
 43
7.0
 50
90.0
  0
MTEXT
  5
17C9
330
94C
100
AcDbEntity
  8
SUNPOU
100
AcDbMText
 10
667.1996026573506
 20
193.0868345581581
 30
0.0
 40
6.0
 41
0.0
 71
     5
 72
     1
  1
\A1;75
 11
0.0000000000000001
 21
1.0
 31
0.0
1001
ACAD
1000
MTEXTBEGIN
1070
    73
1070
     1
1070
    44
1040
1.0
1070
    74
1070
     0
1000
MTEXTEND
  0
POINT
  5
17CA
330
94C
100
AcDbEntity
  8
DEFPOINTS
 62
     0
100
AcDbPoint
 10
581.463673791711
 20
155.586834384308
 30
0.0
  0
POINT
  5
17CB
330
94C
100
AcDbEntity
  8
DEFPOINTS
 62
     0
100
AcDbPoint
 10
626.644796880511
 20
230.5868347320079
 30
0.0
  0
POINT
  5
17CC
330
94C
100
AcDbEntity
  8
DEFPOINTS
 62
     0
100
AcDbPoint
 10
672.1996026573506
 20
230.5868347320079
 30
0.0
  0
ENDBLK
  5
957
330
94C
100
AcDbEntity
  8
0
100
AcDbBlockEnd
  0
BLOCK
  5
95A
330
959
100
AcDbEntity
  8
0
100
AcDbBlockBegin
  2
*D3
 70
     1
 10
0.0
 20
0.0
 30
0.0
  3
*D3
  1

  0
LINE
  5
17BB
330
959
100
AcDbEntity
  8
SUNPOU
100
AcDbLine
 10
483.7092889856109
 20
259.4788108701079
 30
0.0
 11
483.7092889856109
 21
304.1862073694874
 31
0.0
  0
LINE
  5
17BC
330
959
100
AcDbEntity
  8
SUNPOU
100
AcDbLine
 10
634.1362064774109
 20
228.7279722899079
 30
0.0
 11
634.1362064774109
 21
304.1862073694874
 31
0.0
  0
LINE
  5
17BD
330
959
100
AcDbEntity
  8
SUNPOU
100
AcDbLine
 10
490.7092889856109
 20
301.1862073694874
 30
0.0
 11
627.1362064774109
 21
301.1862073694874
 31
0.0
  0
INSERT
  5
17BE
330
959
100
AcDbEntity
  8
SUNPOU
100
AcDbBlockReference
  2
_OPEN
 10
483.7092889856109
 20
301.1862073694874
 30
0.0
 41
7.0
 42
7.0
 43
7.0
 50
180.0
  0
INSERT
  5
17BF
330
959
100
AcDbEntity
  8
SUNPOU
100
AcDbBlockReference
  2
_OPEN
 10
634.1362064774109
 20
301.1862073694874
 30
0.0
 41
7.0
 42
7.0
 43
7.0
  0
MTEXT
  5
17C0
330
959
100
AcDbEntity
  8
SUNPOU
100
AcDbMText
 10
558.922747731511
 20
306.1862073694874
 30
0.0
 40
6.0
 41
0.0
 71
     5
 72
     1
  1
\A1;150
1001
ACAD
1000
MTEXTBEGIN
1070
    73
1070
     1
1070
    44
1040
1.0
1070
    74
1070
     0
1000
MTEXTEND
  0
POINT
  5
17C1
330
959
100
AcDbEntity
  8
DEFPOINTS
 62
     0
100
AcDbPoint
 10
483.7092889856109
 20
253.4788108701079
 30
0.0
  0
POINT
  5
17C2
330
959
100
AcDbEntity
  8
DEFPOINTS
 62
     0
100
AcDbPoint
 10
634.1362064774109
 20
222.7279722899079
 30
0.0
  0
POINT
  5
17C3
330
959
100
AcDbEntity
  8
DEFPOINTS
 62
     0
100
AcDbPoint
 10
634.1362064774109
 20
301.1862073694874
 30
0.0
  0
ENDBLK
  5
964
330
959
100
AcDbEntity
  8
0
100
AcDbBlockEnd
  0
BLOCK
  5
967
330
966
100
AcDbEntity
  8
0
100
AcDbBlockBegin
  2
*D4
 70
     1
 10
0.0
 20
0.0
 30
0.0
  3
*D4
  1

  0
LINE
  5
17FC
330
966
100
AcDbEntity
  8
SUNPOU
100
AcDbLine
 10
490.735211894711
 20
271.7633624355079
 30
0.0
 11
442.0500684709695
 21
271.7633624355079
 31
0.0
  0
LINE
  5
17FD
330
966
100
AcDbEntity
  8
SUNPOU
100
AcDbLine
 10
575.463673791711
 20
155.5868343843081
 30
0.0
 11
442.0500684709695
 21
155.5868343843081
 31
0.0
  0
LINE
  5
17FE
330
966
100
AcDbEntity
  8
SUNPOU
100
AcDbLine
 10
445.0500684709695
 20
264.7633624355079
 30
0.0
 11
445.0500684709695
 21
162.5868343843081
 31
0.0
  0
INSERT
  5
17FF
330
966
100
AcDbEntity
  8
SUNPOU
100
AcDbBlockReference
  2
_OPEN
 10
445.0500684709695
 20
271.7633624355079
 30
0.0
 41
7.0
 42
7.0
 43
7.0
 50
90.0
  0
INSERT
  5
1800
330
966
100
AcDbEntity
  8
SUNPOU
100
AcDbBlockReference
  2
_OPEN
 10
445.0500684709695
 20
155.5868343843081
 30
0.0
 41
7.0
 42
7.0
 43
7.0
 50
270.0
  0
MTEXT
  5
1801
330
966
100
AcDbEntity
  8
SUNPOU
100
AcDbMText
 10
440.0500684709695
 20
213.6750984099081
 30
0.0
 40
6.0
 41
0.0
 71
     5
 72
     1
  1
\A1;116
 11
0.0000000000000001
 21
1.0
 31
0.0
1001
ACAD
1000
MTEXTBEGIN
1070
    73
1070
     1
1070
    44
1040
1.0
1070
    74
1070
     0
1000
MTEXTEND
  0
POINT
  5
1802
330
966
100
AcDbEntity
  8
DEFPOINTS
 62
     0
100
AcDbPoint
 10
496.735211894711
 20
271.7633624355079
 30
0.0
  0
POINT
  5
1803
330
966
100
AcDbEntity
  8
DEFPOINTS
 62
     0
100
AcDbPoint
 10
581.463673791711
 20
155.586834384308
 30
0.0
  0
POINT
  5
1804
330
966
100
AcDbEntity
  8
DEFPOINTS
 62
     0
100
AcDbPoint
 10
445.0500684709695
 20
155.5868343843081
 30
0.0
  0
ENDBLK
  5
971
330
966
100
AcDbEntity
  8
0
100
AcDbBlockEnd
  0
BLOCK
  5
976
330
975
100
AcDbEntity
  8
0
100
AcDbBlockBegin
  2
*D5
 70
     1
 10
0.0
 20
0.0
 30
0.0
  3
*D5
  1

  0
LINE
  5
17F3
330
975
100
AcDbEntity
  8
SUNPOU
100
AcDbLine
 10
575.463673791711
 20
155.5868343843081
 30
0.0
 11
442.0500684709695
 21
155.5868343843081
 31
0.0
  0
LINE
  5
17F4
330
975
100
AcDbEntity
  8
SUNPOU
100
AcDbLine
 10
527.863105420476
 20
135.5868343843079
 30
0.0
 11
442.0500684709695
 21
135.5868343843079
 31
0.0
  0
LINE
  5
17F5
330
975
100
AcDbEntity
  8
SUNPOU
100
AcDbLine
 10
445.0500684709695
 20
148.5868343843081
 30
0.0
 11
445.0500684709695
 21
142.5868343843079
 31
0.0
  0
INSERT
  5
17F6
330
975
100
AcDbEntity
  8
SUNPOU
100
AcDbBlockReference
  2
_OPEN
 10
445.0500684709695
 20
155.5868343843081
 30
0.0
 41
7.0
 42
7.0
 43
7.0
 50
90.0
  0
INSERT
  5
17F7
330
975
100
AcDbEntity
  8
SUNPOU
100
AcDbBlockReference
  2
_OPEN
 10
445.0500684709695
 20
135.5868343843079
 30
0.0
 41
7.0
 42
7.0
 43
7.0
 50
270.0
  0
MTEXT
  5
17F8
330
975
100
AcDbEntity
  8
SUNPOU
100
AcDbMText
 10
440.0500684709695
 20
145.5868343843081
 30
0.0
 40
6.0
 41
0.0
 71
     5
 72
     1
  1
\A1;20
 11
0.0000000000000001
 21
1.0
 31
0.0
1001
ACAD
1000
MTEXTBEGIN
1070
    73
1070
     1
1070
    44
1040
1.0
1070
    74
1070
     0
1000
MTEXTEND
  0
POINT
  5
17F9
330
975
100
AcDbEntity
  8
DEFPOINTS
 62
     0
100
AcDbPoint
 10
581.463673791711
 20
155.586834384308
 30
0.0
  0
POINT
  5
17FA
330
975
100
AcDbEntity
  8
DEFPOINTS
 62
     0
100
AcDbPoint
 10
533.863105420476
 20
135.5868343843079
 30
0.0
  0
POINT
  5
17FB
330
975
100
AcDbEntity
  8
DEFPOINTS
 62
     0
100
AcDbPoint
 10
445.0500684709695
 20
135.5868343843079
 30
0.0
  0
ENDBLK
  5
982
330
975
100
AcDbEntity
  8
0
100
AcDbBlockEnd
  0
BLOCK
  5
99F
330
99E
100
AcDbEntity
  8
0
100
AcDbBlockBegin
  2
*D6
 70
     1
 10
0.0
 20
0.0
 30
0.0
  3
*D6
  1

  0
LINE
  5
1797
330
99E
100
AcDbEntity
  8
SUNPOU
100
AcDbLine
 10
120.5250892924206
 20
277.7633624355079
 30
0.0
 11
120.5250892924206
 21
312.1095306123388
 31
0.0
  0
LINE
  5
1798
330
99E
100
AcDbEntity
  8
SUNPOU
100
AcDbLine
 10
350.5250892924205
 20
277.7633624355079
 30
0.0
 11
350.5250892924205
 21
312.1095306123388
 31
0.0
  0
LINE
  5
1799
330
99E
100
AcDbEntity
  8
SUNPOU
100
AcDbLine
 10
127.5250892924206
 20
309.1095306123388
 30
0.0
 11
343.5250892924206
 21
309.1095306123388
 31
0.0
  0
INSERT
  5
179A
330
99E
100
AcDbEntity
  8
SUNPOU
100
AcDbBlockReference
  2
_OPEN
 10
120.5250892924206
 20
309.1095306123388
 30
0.0
 41
7.0
 42
7.0
 43
7.0
 50
180.0
  0
INSERT
  5
179B
330
99E
100
AcDbEntity
  8
SUNPOU
100
AcDbBlockReference
  2
_OPEN
 10
350.5250892924205
 20
309.1095306123388
 30
0.0
 41
7.0
 42
7.0
 43
7.0
  0
MTEXT
  5
179C
330
99E
100
AcDbEntity
  8
SUNPOU
100
AcDbMText
 10
235.5250892924205
 20
314.1095306123388
 30
0.0
 40
6.0
 41
0.0
 71
     5
 72
     1
  1
\A1;230
1001
ACAD
1000
MTEXTBEGIN
1070
    73
1070
     1
1070
    44
1040
1.0
1070
    74
1070
     0
1000
MTEXTEND
  0
POINT
  5
179D
330
99E
100
AcDbEntity
  8
DEFPOINTS
 62
     0
100
AcDbPoint
 10
120.5250892924206
 20
271.7633624355079
 30
0.0
  0
POINT
  5
179E
330
99E
100
AcDbEntity
  8
DEFPOINTS
 62
     0
100
AcDbPoint
 10
350.5250892924205
 20
271.7633624355079
 30
0.0
  0
POINT
  5
179F
330
99E
100
AcDbEntity
  8
DEFPOINTS
 62
     0
100
AcDbPoint
 10
350.5250892924205
 20
309.1095306123388
 30
0.0
  0
ENDBLK
  5
9A9
330
99E
100
AcDbEntity
  8
0
100
AcDbBlockEnd
  0
BLOCK
  5
A3D
330
A09
100
AcDbEntity
  8
0
100
AcDbBlockBegin
  2
*D7
 70
     1
 10
0.0
 20
0.0
 30
0.0
  3
*D7
  1

  0
LINE
  5
17A0
330
A09
100
AcDbEntity
  8
SUNPOU
 62
     4
100
AcDbLine
 10
195.5250892924203
 20
358.1903615854163
 30
0.0
 11
195.5250892924203
 21
322.68353032202
 31
0.0
  0
LINE
  5
17A1
330
A09
100
AcDbEntity
  8
SUNPOU
 62
     4
100
AcDbLine
 10
275.5250892924205
 20
358.1903615854163
 30
0.0
 11
275.5250892924205
 21
322.68353032202
 31
0.0
  0
LINE
  5
17A2
330
A09
100
AcDbEntity
  8
SUNPOU
 62
     4
100
AcDbLine
 10
202.5250892924203
 20
325.68353032202
 30
0.0
 11
268.5250892924206
 21
325.68353032202
 31
0.0
  0
INSERT
  5
17A3
330
A09
100
AcDbEntity
  8
SUNPOU
 62
     4
100
AcDbBlockReference
  2
_OPEN
 10
195.5250892924203
 20
325.68353032202
 30
0.0
 41
7.0
 42
7.0
 43
7.0
 50
180.0
  0
INSERT
  5
17A4
330
A09
100
AcDbEntity
  8
SUNPOU
 62
     4
100
AcDbBlockReference
  2
_OPEN
 10
275.5250892924205
 20
325.68353032202
 30
0.0
 41
7.0
 42
7.0
 43
7.0
  0
MTEXT
  5
17A5
330
A09
100
AcDbEntity
  8
SUNPOU
 62
     4
100
AcDbMText
 10
235.5250892924205
 20
330.68353032202
 30
0.0
 40
6.0
 41
0.0
 71
     5
 72
     1
  1
\A1;80
1001
ACAD
1000
MTEXTBEGIN
1070
    73
1070
     1
1070
    44
1040
1.0
1070
    74
1070
     0
1000
MTEXTEND
  0
POINT
  5
17A6
330
A09
100
AcDbEntity
  8
DEFPOINTS
 62
     0
100
AcDbPoint
 10
195.5250892924203
 20
364.1903615854163
 30
0.0
  0
POINT
  5
17A7
330
A09
100
AcDbEntity
  8
DEFPOINTS
 62
     0
100
AcDbPoint
 10
275.5250892924205
 20
364.1903615854163
 30
0.0
  0
POINT
  5
17A8
330
A09
100
AcDbEntity
  8
DEFPOINTS
 62
     0
100
AcDbPoint
 10
275.5250892924205
 20
325.68353032202
 30
0.0
  0
ENDBLK
  5
A47
330
A09
100
AcDbEntity
  8
0
100
AcDbBlockEnd
  0
BLOCK
  5
BAE
330
B4A
100
AcDbEntity
  8
0
100
AcDbBlockBegin
  2
*D8
 70
     1
 10
0.0
 20
0.0
 30
0.0
  3
*D8
  1

  0
LINE
  5
17DF
330
B4A
100
AcDbEntity
  8
SUNPOU
100
AcDbLine
 10
624.3028581080209
 20
91.08683438430796
 30
0.0
 11
654.897847688537
 21
91.08683438430796
 31
0.0
  0
LINE
  5
17E0
330
B4A
100
AcDbEntity
  8
SUNPOU
100
AcDbLine
 10
622.4637686773212
 20
81.08653636008677
 30
0.0
 11
654.897847688537
 21
81.08653636008677
 31
0.0
  0
LINE
  5
17E1
330
B4A
100
AcDbEntity
  8
SUNPOU
100
AcDbLine
 10
651.897847688537
 20
98.08683438430797
 30
0.0
 11
651.897847688537
 21
105.0868343843079
 31
0.0
  0
LINE
  5
17E2
330
B4A
100
AcDbEntity
  8
SUNPOU
100
AcDbLine
 10
651.897847688537
 20
74.08653636008676
 30
0.0
 11
651.897847688537
 21
39.28653636008676
 31
0.0
  0
LINE
  5
17E3
330
B4A
100
AcDbEntity
  8
SUNPOU
100
AcDbLine
 10
651.897847688537
 20
91.08683438430796
 30
0.0
 11
651.897847688537
 21
81.08653636008677
 31
0.0
  0
INSERT
  5
17E4
330
B4A
100
AcDbEntity
  8
SUNPOU
100
AcDbBlockReference
  2
_OPEN
 10
651.897847688537
 20
91.08683438430796
 30
0.0
 41
7.0
 42
7.0
 43
7.0
 50
270.0
  0
INSERT
  5
17E5
330
B4A
100
AcDbEntity
  8
SUNPOU
100
AcDbBlockReference
  2
_OPEN
 10
651.897847688537
 20
81.08653636008677
 30
0.0
 41
7.0
 42
7.0
 43
7.0
 50
90.0
  0
MTEXT
  5
17E6
330
B4A
100
AcDbEntity
  8
SUNPOU
100
AcDbMText
 10
646.897847688537
 20
53.18653636008686
 30
0.0
 40
6.0
 41
0.0
 71
     5
 72
     1
  1
\A1;※b 10
 11
0.0000000000000001
 21
1.0
 31
0.0
1001
ACAD
1000
MTEXTBEGIN
1070
    73
1070
     1
1070
    44
1040
1.0
1070
    74
1070
     0
1000
MTEXTEND
  0
POINT
  5
17E7
330
B4A
100
AcDbEntity
  8
DEFPOINTS
 62
     0
100
AcDbPoint
 10
618.3028581080209
 20
91.08683438430796
 30
0.0
  0
POINT
  5
17E8
330
B4A
100
AcDbEntity
  8
DEFPOINTS
 62
     0
100
AcDbPoint
 10
616.4637686773212
 20
81.08653636008677
 30
0.0
  0
POINT
  5
17E9
330
B4A
100
AcDbEntity
  8
DEFPOINTS
 62
     0
100
AcDbPoint
 10
651.897847688537
 20
81.08653636008677
 30
0.0
  0
ENDBLK
  5
BBA
330
B4A
100
AcDbEntity
  8
0
100
AcDbBlockEnd
  0
BLOCK
  5
BBB
330
B58
100
AcDbEntity
  8
0
100
AcDbBlockBegin
  2
*D9
 70
     1
 10
0.0
 20
0.0
 30
0.0
  3
*D9
  1

  0
LINE
  5
1851
330
B58
100
AcDbEntity
  8
SUNPOU
100
AcDbLine
 10
531.9637454372286
 20
129.5868343843079
 30
0.0
 11
531.9637454372286
 21
35.60081560958769
 31
0.0
  0
LINE
  5
1852
330
B58
100
AcDbEntity
  8
SUNPOU
100
AcDbLine
 10
624.9235419586557
 20
129.5868343843079
 30
0.0
 11
624.9235419586557
 21
35.60081560958769
 31
0.0
  0
LINE
  5
1853
330
B58
100
AcDbEntity
  8
SUNPOU
100
AcDbLine
 10
538.9637454372286
 20
38.6008156095877
 30
0.0
 11
617.9235419586557
 21
38.6008156095877
 31
0.0
  0
INSERT
  5
1854
330
B58
100
AcDbEntity
  8
SUNPOU
100
AcDbBlockReference
  2
_OPEN
 10
531.9637454372286
 20
38.6008156095877
 30
0.0
 41
7.0
 42
7.0
 43
7.0
 50
180.0
  0
INSERT
  5
1855
330
B58
100
AcDbEntity
  8
SUNPOU
100
AcDbBlockReference
  2
_OPEN
 10
624.9235419586557
 20
38.6008156095877
 30
0.0
 41
7.0
 42
7.0
 43
7.0
  0
MTEXT
  5
1856
330
B58
100
AcDbEntity
  8
SUNPOU
100
AcDbMText
 10
578.4436436979421
 20
43.6008156095877
 30
0.0
 40
6.0
 41
0.0
 71
     5
 72
     1
  1
\A1;93
1001
ACAD
1000
MTEXTBEGIN
1070
    73
1070
     1
1070
    44
1040
1.0
1070
    74
1070
     0
1000
MTEXTEND
  0
POINT
  5
1857
330
B58
100
AcDbEntity
  8
DEFPOINTS
 62
     0
100
AcDbPoint
 10
531.9637454372286
 20
135.5868343843079
 30
0.0
  0
POINT
  5
1858
330
B58
100
AcDbEntity
  8
DEFPOINTS
 62
     0
100
AcDbPoint
 10
624.9235419586557
 20
135.5868343843079
 30
0.0
  0
POINT
  5
1859
330
B58
100
AcDbEntity
  8
DEFPOINTS
 62
     0
100
AcDbPoint
 10
624.9235419586557
 20
38.6008156095877
 30
0.0
  0
ENDBLK
  5
BC5
330
B58
100
AcDbEntity
  8
0
100
AcDbBlockEnd
  0
BLOCK
  5
BC6
330
B64
100
AcDbEntity
  8
0
100
AcDbBlockBegin
  2
*D10
 70
     1
 10
0.0
 20
0.0
 30
0.0
  3
*D10
  1

  0
LINE
  5
1848
330
B64
100
AcDbEntity
  8
SUNPOU
100
AcDbLine
 10
546.463669928813
 20
75.08683438430799
 30
0.0
 11
546.463669928813
 21
50.29774641279868
 31
0.0
  0
LINE
  5
1849
330
B64
100
AcDbEntity
  8
SUNPOU
100
AcDbLine
 10
616.4637686773212
 20
75.08653636008677
 30
0.0
 11
616.4637686773212
 21
50.29774641279868
 31
0.0
  0
LINE
  5
184A
330
B64
100
AcDbEntity
  8
SUNPOU
100
AcDbLine
 10
553.463669928813
 20
53.29774641279868
 30
0.0
 11
609.4637686773212
 21
53.29774641279868
 31
0.0
  0
INSERT
  5
184B
330
B64
100
AcDbEntity
  8
SUNPOU
100
AcDbBlockReference
  2
_OPEN
 10
546.463669928813
 20
53.29774641279868
 30
0.0
 41
7.0
 42
7.0
 43
7.0
 50
180.0
  0
INSERT
  5
184C
330
B64
100
AcDbEntity
  8
SUNPOU
100
AcDbBlockReference
  2
_OPEN
 10
616.4637686773212
 20
53.29774641279868
 30
0.0
 41
7.0
 42
7.0
 43
7.0
  0
MTEXT
  5
184D
330
B64
100
AcDbEntity
  8
SUNPOU
100
AcDbMText
 10
581.4637193030671
 20
58.29774641279868
 30
0.0
 40
6.0
 41
0.0
 71
     5
 72
     1
  1
\A1;□70
1001
ACAD
1000
MTEXTBEGIN
1070
    73
1070
     1
1070
    44
1040
1.0
1070
    74
1070
     0
1000
MTEXTEND
  0
POINT
  5
184E
330
B64
100
AcDbEntity
  8
DEFPOINTS
 62
     0
100
AcDbPoint
 10
546.463669928813
 20
81.086834384308
 30
0.0
  0
POINT
  5
184F
330
B64
100
AcDbEntity
  8
DEFPOINTS
 62
     0
100
AcDbPoint
 10
616.4637686773212
 20
81.08653636008677
 30
0.0
  0
POINT
  5
1850
330
B64
100
AcDbEntity
  8
DEFPOINTS
 62
     0
100
AcDbPoint
 10
616.4637686773212
 20
53.29774641279868
 30
0.0
  0
ENDBLK
  5
BD0
330
B64
100
AcDbEntity
  8
0
100
AcDbBlockEnd
  0
BLOCK
  5
BF6
330
B70
100
AcDbEntity
  8
0
100
AcDbBlockBegin
  2
*D11
 70
     1
 10
0.0
 20
0.0
 30
0.0
  3
*D11
  1

  0
LINE
  5
17CD
330
B70
100
AcDbEntity
  8
SUNPOU
100
AcDbLine
 10
527.4062737917108
 20
135.5868113843079
 30
0.0
 11
442.0899236376451
 21
135.5868113843079
 31
0.0
  0
LINE
  5
17CE
330
B70
100
AcDbEntity
  8
SUNPOU
100
AcDbLine
 10
540.463669928813
 20
81.086834384308
 30
0.0
 11
442.0899236376451
 21
81.08683438430801
 31
0.0
  0
LINE
  5
17CF
330
B70
100
AcDbEntity
  8
SUNPOU
100
AcDbLine
 10
445.0899236376451
 20
128.5868113843079
 30
0.0
 11
445.089923637645
 21
88.08683438430803
 31
0.0
  0
INSERT
  5
17D0
330
B70
100
AcDbEntity
  8
SUNPOU
100
AcDbBlockReference
  2
_OPEN
 10
445.0899236376451
 20
135.5868113843079
 30
0.0
 41
7.0
 42
7.0
 43
7.0
 50
90.0
  0
INSERT
  5
17D1
330
B70
100
AcDbEntity
  8
SUNPOU
100
AcDbBlockReference
  2
_OPEN
 10
445.089923637645
 20
81.08683438430801
 30
0.0
 41
7.0
 42
7.0
 43
7.0
 50
270.0
  0
MTEXT
  5
17D2
330
B70
100
AcDbEntity
  8
SUNPOU
100
AcDbMText
 10
440.089923637645
 20
108.3368228843079
 30
0.0
 40
6.0
 41
0.0
 71
     5
 72
     1
  1
\A1;54
 11
0.0000000000000001
 21
1.0
 31
0.0
1001
ACAD
1000
MTEXTBEGIN
1070
    73
1070
     1
1070
    44
1040
1.0
1070
    74
1070
     0
1000
MTEXTEND
  0
POINT
  5
17D3
330
B70
100
AcDbEntity
  8
DEFPOINTS
 62
     0
100
AcDbPoint
 10
533.4062737917109
 20
135.5868113843079
 30
0.0
  0
POINT
  5
17D4
330
B70
100
AcDbEntity
  8
DEFPOINTS
 62
     0
100
AcDbPoint
 10
546.463669928813
 20
81.086834384308
 30
0.0
  0
POINT
  5
17D5
330
B70
100
AcDbEntity
  8
DEFPOINTS
 62
     0
100
AcDbPoint
 10
445.089923637645
 20
81.08683438430801
 30
0.0
  0
ENDBLK
  5
C00
330
B70
100
AcDbEntity
  8
0
100
AcDbBlockEnd
  0
BLOCK
  5
C15
330
C14
100
AcDbEntity
  8
0
100
AcDbBlockBegin
  2
*D12
 70
     1
 10
0.0
 20
0.0
 30
0.0
  3
*D12
  1

  0
LINE
  5
178E
330
C14
100
AcDbEntity
  8
SUNPOU
100
AcDbLine
 10
356.5250892924205
 20
271.7633624355079
 30
0.0
 11
402.2877971660319
 21
271.7633624355079
 31
0.0
  0
LINE
  5
178F
330
C14
100
AcDbEntity
  8
SUNPOU
100
AcDbLine
 10
270.725254310434
 20
75.08673438367165
 30
0.0
 11
402.2877971660318
 21
75.08673438367161
 31
0.0
  0
LINE
  5
1790
330
C14
100
AcDbEntity
  8
SUNPOU
100
AcDbLine
 10
399.2877971660319
 20
264.7633624355079
 30
0.0
 11
399.2877971660318
 21
82.08673438367162
 31
0.0
  0
INSERT
  5
1791
330
C14
100
AcDbEntity
  8
SUNPOU
100
AcDbBlockReference
  2
_OPEN
 10
399.2877971660319
 20
271.7633624355079
 30
0.0
 41
7.0
 42
7.0
 43
7.0
 50
90.0
  0
INSERT
  5
1792
330
C14
100
AcDbEntity
  8
SUNPOU
100
AcDbBlockReference
  2
_OPEN
 10
399.2877971660318
 20
75.08673438367161
 30
0.0
 41
7.0
 42
7.0
 43
7.0
 50
270.0
  0
MTEXT
  5
1793
330
C14
100
AcDbEntity
  8
SUNPOU
100
AcDbMText
 10
394.2877971660318
 20
173.4250484095898
 30
0.0
 40
6.0
 41
0.0
 71
     5
 72
     1
  1
\A1;197
 11
0.0000000000000001
 21
1.0
 31
0.0
1001
ACAD
1000
MTEXTBEGIN
1070
    73
1070
     1
1070
    44
1040
1.0
1070
    74
1070
     0
1000
MTEXTEND
  0
POINT
  5
1794
330
C14
100
AcDbEntity
  8
DEFPOINTS
 62
     0
100
AcDbPoint
 10
350.5250892924205
 20
271.7633624355079
 30
0.0
  0
POINT
  5
1795
330
C14
100
AcDbEntity
  8
DEFPOINTS
 62
     0
100
AcDbPoint
 10
264.725254310434
 20
75.08673438367165
 30
0.0
  0
POINT
  5
1796
330
C14
100
AcDbEntity
  8
DEFPOINTS
 62
     0
100
AcDbPoint
 10
399.2877971660318
 20
75.08673438367161
 30
0.0
  0
ENDBLK
  5
C1F
330
C14
100
AcDbEntity
  8
0
100
AcDbBlockEnd
  0
BLOCK
  5
C27
330
C26
100
AcDbEntity
  8
0
100
AcDbBlockBegin
  2
*D13
 70
     1
 10
0.0
 20
0.0
 30
0.0
  3
*D13
  1

  0
LINE
  5
17B2
330
C26
100
AcDbEntity
  8
SUNPOU
100
AcDbLine
 10
320.5250892924206
 20
414.4903615854162
 30
0.0
 11
320.5250892924206
 21
425.252895995741
 31
0.0
  0
LINE
  5
17B3
330
C26
100
AcDbEntity
  8
SUNPOU
100
AcDbLine
 10
350.5250892924205
 20
414.4903615854162
 30
0.0
 11
350.5250892924205
 21
425.252895995741
 31
0.0
  0
LINE
  5
17B4
330
C26
100
AcDbEntity
  8
SUNPOU
100
AcDbLine
 10
327.5250892924205
 20
422.252895995741
 30
0.0
 11
343.5250892924206
 21
422.252895995741
 31
0.0
  0
INSERT
  5
17B5
330
C26
100
AcDbEntity
  8
SUNPOU
100
AcDbBlockReference
  2
_OPEN
 10
320.5250892924206
 20
422.252895995741
 30
0.0
 41
7.0
 42
7.0
 43
7.0
 50
180.0
  0
INSERT
  5
17B6
330
C26
100
AcDbEntity
  8
SUNPOU
100
AcDbBlockReference
  2
_OPEN
 10
350.5250892924205
 20
422.252895995741
 30
0.0
 41
7.0
 42
7.0
 43
7.0
  0
MTEXT
  5
17B7
330
C26
100
AcDbEntity
  8
SUNPOU
100
AcDbMText
 10
335.5250892924205
 20
427.252895995741
 30
0.0
 40
6.0
 41
0.0
 71
     5
 72
     1
  1
\A1;30
1001
ACAD
1000
MTEXTBEGIN
1070
    73
1070
     1
1070
    44
1040
1.0
1070
    74
1070
     0
1000
MTEXTEND
  0
POINT
  5
17B8
330
C26
100
AcDbEntity
  8
DEFPOINTS
 62
     0
100
AcDbPoint
 10
320.5250892924206
 20
408.4903615854162
 30
0.0
  0
POINT
  5
17B9
330
C26
100
AcDbEntity
  8
DEFPOINTS
 62
     0
100
AcDbPoint
 10
350.5250892924205
 20
408.4903615854162
 30
0.0
  0
POINT
  5
17BA
330
C26
100
AcDbEntity
  8
DEFPOINTS
 62
     0
100
AcDbPoint
 10
350.5250892924205
 20
422.252895995741
 30
0.0
  0
ENDBLK
  5
C31
330
C26
100
AcDbEntity
  8
0
100
AcDbBlockEnd
  0
BLOCK
  5
F24
330
F1A
100
AcDbEntity
  8
0
100
AcDbBlockBegin
  2
*D14
 70
     1
 10
0.0
 20
0.0
 30
0.0
  3
*D14
  1

  0
LINE
  5
19B1
330
F1A
100
AcDbEntity
  8
SUNPOU
  6
CONTINUOUS
100
AcDbLine
 10
648.3489858615144
 20
444.5542719282295
 30
0.0
 11
632.8154949567822
 21
444.5542719282296
 31
0.0
  0
LINE
  5
19B2
330
F1A
100
AcDbEntity
  8
SUNPOU
  6
CONTINUOUS
100
AcDbLine
 10
648.2025392521077
 20
431.7007185376363
 30
0.0
 11
632.8154949567822
 21
431.7007185376364
 31
0.0
  0
LINE
  5
19B3
330
F1A
100
AcDbEntity
  8
SUNPOU
  6
CONTINUOUS
100
AcDbLine
 10
635.8154949567822
 20
451.5542719282296
 30
0.0
 11
635.8154949567822
 21
458.5542719282296
 31
0.0
  0
LINE
  5
19B4
330
F1A
100
AcDbEntity
  8
SUNPOU
  6
CONTINUOUS
100
AcDbLine
 10
635.8154949567822
 20
424.7007185376364
 30
0.0
 11
635.8154949567822
 21
417.7007185376364
 31
0.0
  0
LINE
  5
19B5
330
F1A
100
AcDbEntity
  8
SUNPOU
  6
CONTINUOUS
100
AcDbLine
 10
635.8154949567822
 20
444.5542719282296
 30
0.0
 11
635.8154949567822
 21
431.7007185376364
 31
0.0
  0
INSERT
  5
19B6
330
F1A
100
AcDbEntity
  8
SUNPOU
  6
CONTINUOUS
100
AcDbBlockReference
  2
_OPEN
 10
635.8154949567822
 20
444.5542719282296
 30
0.0
 41
7.0
 42
7.0
 43
7.0
 50
270.0
  0
INSERT
  5
19B7
330
F1A
100
AcDbEntity
  8
SUNPOU
  6
CONTINUOUS
100
AcDbBlockReference
  2
_OPEN
 10
635.8154949567822
 20
431.7007185376364
 30
0.0
 41
7.0
 42
7.0
 43
7.0
 50
90.0
  0
MTEXT
  5
19B8
330
F1A
100
AcDbEntity
  8
SUNPOU
  6
CONTINUOUS
100
AcDbMText
 10
630.8154949567821
 20
438.1274952329331
 30
0.0
 40
6.0
 41
0.0
 71
     5
 72
     1
  1
\A1;13
 11
0.0000000000000001
 21
1.0
 31
0.0
  0
POINT
  5
19B9
330
F1A
100
AcDbEntity
  8
DEFPOINTS
  6
CONTINUOUS
 62
     0
100
AcDbPoint
 10
654.3489858615145
 20
444.5542719282295
 30
0.0
  0
POINT
  5
19BA
330
F1A
100
AcDbEntity
  8
DEFPOINTS
  6
CONTINUOUS
 62
     0
100
AcDbPoint
 10
654.2025392521077
 20
431.7007185376363
 30
0.0
  0
POINT
  5
19BB
330
F1A
100
AcDbEntity
  8
DEFPOINTS
  6
CONTINUOUS
 62
     0
100
AcDbPoint
 10
635.8154949567822
 20
431.7007185376364
 30
0.0
  0
ENDBLK
  5
F25
330
F1A
100
AcDbEntity
  8
0
100
AcDbBlockEnd
  0
BLOCK
  5
F30
330
F26
100
AcDbEntity
  8
0
100
AcDbBlockBegin
  2
*D15
 70
     1
 10
0.0
 20
0.0
 30
0.0
  3
*D15
  1

  0
LINE
  5
19BC
330
F26
100
AcDbEntity
  8
SUNPOU
100
AcDbLine
 10
650.2025392521077
 20
454.2007185376363
 30
0.0
 11
650.2025392521077
 21
462.1084185376363
 31
0.0
  0
LINE
  5
19BD
330
F26
100
AcDbEntity
  8
SUNPOU
100
AcDbLine
 10
659.6314332521077
 20
454.2007185376363
 30
0.0
 11
659.6314332521077
 21
462.1084185376363
 31
0.0
  0
LINE
  5
19BE
330
F26
100
AcDbEntity
  8
SUNPOU
100
AcDbLine
 10
643.2025392521077
 20
459.1084185376363
 30
0.0
 11
636.2025392521077
 21
459.1084185376363
 31
0.0
  0
LINE
  5
19BF
330
F26
100
AcDbEntity
  8
SUNPOU
100
AcDbLine
 10
666.6314332521077
 20
459.1084185376363
 30
0.0
 11
673.6314332521077
 21
459.1084185376363
 31
0.0
  0
LINE
  5
19C0
330
F26
100
AcDbEntity
  8
SUNPOU
100
AcDbLine
 10
650.2025392521077
 20
459.1084185376363
 30
0.0
 11
659.6314332521077
 21
459.1084185376363
 31
0.0
  0
INSERT
  5
19C1
330
F26
100
AcDbEntity
  8
SUNPOU
100
AcDbBlockReference
  2
_OPEN
 10
650.2025392521077
 20
459.1084185376363
 30
0.0
 41
7.0
 42
7.0
 43
7.0
  0
INSERT
  5
19C2
330
F26
100
AcDbEntity
  8
SUNPOU
100
AcDbBlockReference
  2
_OPEN
 10
659.6314332521077
 20
459.1084185376363
 30
0.0
 41
7.0
 42
7.0
 43
7.0
 50
180.0
  0
MTEXT
  5
19C3
330
F26
100
AcDbEntity
  8
SUNPOU
100
AcDbMText
 10
654.9169862521077
 20
464.1084185376363
 30
0.0
 40
6.0
 41
0.0
 71
     5
 72
     1
  1
\A1;9
  0
POINT
  5
19C4
330
F26
100
AcDbEntity
  8
DEFPOINTS
 62
     0
100
AcDbPoint
 10
650.2025392521077
 20
448.2007185376363
 30
0.0
  0
POINT
  5
19C5
330
F26
100
AcDbEntity
  8
DEFPOINTS
 62
     0
100
AcDbPoint
 10
659.6314332521077
 20
448.2007185376363
 30
0.0
  0
POINT
  5
19C6
330
F26
100
AcDbEntity
  8
DEFPOINTS
 62
     0
100
AcDbPoint
 10
659.6314332521077
 20
459.1084185376363
 30
0.0
  0
ENDBLK
  5
F31
330
F26
100
AcDbEntity
  8
0
100
AcDbBlockEnd
  0
BLOCK
  5
F3E
330
F32
100
AcDbEntity
  8
0
100
AcDbBlockBegin
  2
*D16
 70
     1
 10
0.0
 20
0.0
 30
0.0
  3
*D16
  1

  0
LINE
  5
19C7
330
F32
100
AcDbEntity
  8
SUNPOU
100
AcDbLine
 10
654.2025392521077
 20
425.7007185376363
 30
0.0
 11
654.2025392521077
 21
413.2053511739164
 31
0.0
  0
LINE
  5
19C8
330
F32
100
AcDbEntity
  8
SUNPOU
100
AcDbLine
 10
655.9307392521077
 20
438.2306185376363
 30
0.0
 11
655.9307392521077
 21
413.2053511739164
 31
0.0
  0
LINE
  5
19C9
330
F32
100
AcDbEntity
  8
SUNPOU
100
AcDbLine
 10
647.2025392521077
 20
416.2053511739165
 30
0.0
 11
640.2025392521077
 21
416.2053511739165
 31
0.0
  0
LINE
  5
19CA
330
F32
100
AcDbEntity
  8
SUNPOU
100
AcDbLine
 10
662.9307392521077
 20
416.2053511739165
 30
0.0
 11
669.9307392521077
 21
416.2053511739165
 31
0.0
  0
MTEXT
  5
19CB
330
F32
100
AcDbEntity
  8
SUNPOU
100
AcDbMText
 10
655.0666392521077
 20
401.2053511739164
 30
0.0
 40
6.0
 41
0.0
 71
     5
 72
     1
  1
\A1;2
  0
LINE
  5
19CC
330
F32
100
AcDbEntity
  8
SUNPOU
100
AcDbLine
 10
654.2025392521077
 20
416.2053511739165
 30
0.0
 11
655.9307392521077
 21
416.2053511739165
 31
0.0
  0
INSERT
  5
19CD
330
F32
100
AcDbEntity
  8
SUNPOU
100
AcDbBlockReference
  2
_OPEN
 10
654.2025392521077
 20
416.2053511739165
 30
0.0
 41
7.0
 42
7.0
 43
7.0
  0
INSERT
  5
19CE
330
F32
100
AcDbEntity
  8
SUNPOU
100
AcDbBlockReference
  2
_OPEN
 10
655.9307392521077
 20
416.2053511739165
 30
0.0
 41
7.0
 42
7.0
 43
7.0
 50
180.0
  0
POINT
  5
19CF
330
F32
100
AcDbEntity
  8
DEFPOINTS
 62
     0
100
AcDbPoint
 10
654.2025392521077
 20
431.7007185376363
 30
0.0
  0
POINT
  5
19D0
330
F32
100
AcDbEntity
  8
DEFPOINTS
 62
     0
100
AcDbPoint
 10
655.9307392521077
 20
444.2306185376363
 30
0.0
  0
POINT
  5
19D1
330
F32
100
AcDbEntity
  8
DEFPOINTS
 62
     0
100
AcDbPoint
 10
655.9307392521077
 20
416.2053511739165
 30
0.0
  0
ENDBLK
  5
F3F
330
F32
100
AcDbEntity
  8
0
100
AcDbBlockEnd
  0
BLOCK
  5
F4A
330
F40
100
AcDbEntity
  8
0
100
AcDbBlockBegin
  2
*D17
 70
     1
 10
0.0
 20
0.0
 30
0.0
  3
*D17
  1

  0
LINE
  5
19D2
330
F40
100
AcDbEntity
  8
SUNPOU
100
AcDbLine
 10
591.5608558201422
 20
446.7007185376363
 30
0.0
 11
609.616315650021
 21
446.7007185376363
 31
0.0
  0
LINE
  5
19D3
330
F40
100
AcDbEntity
  8
SUNPOU
100
AcDbLine
 10
592.6321028701302
 20
431.7032598378055
 30
0.0
 11
609.616315650021
 21
431.7032598378055
 31
0.0
  0
LINE
  5
19D4
330
F40
100
AcDbEntity
  8
SUNPOU
100
AcDbLine
 10
606.616315650021
 20
453.7007185376364
 30
0.0
 11
606.616315650021
 21
460.7007185376363
 31
0.0
  0
LINE
  5
19D5
330
F40
100
AcDbEntity
  8
SUNPOU
100
AcDbLine
 10
606.616315650021
 20
424.7032598378056
 30
0.0
 11
606.616315650021
 21
417.7032598378056
 31
0.0
  0
LINE
  5
19D6
330
F40
100
AcDbEntity
  8
SUNPOU
100
AcDbLine
 10
606.616315650021
 20
446.7007185376363
 30
0.0
 11
606.616315650021
 21
431.7032598378055
 31
0.0
  0
INSERT
  5
19D7
330
F40
100
AcDbEntity
  8
SUNPOU
100
AcDbBlockReference
  2
_OPEN
 10
606.616315650021
 20
446.7007185376363
 30
0.0
 41
7.0
 42
7.0
 43
7.0
 50
270.0
  0
INSERT
  5
19D8
330
F40
100
AcDbEntity
  8
SUNPOU
100
AcDbBlockReference
  2
_OPEN
 10
606.616315650021
 20
431.7032598378055
 30
0.0
 41
7.0
 42
7.0
 43
7.0
 50
90.0
  0
MTEXT
  5
19D9
330
F40
100
AcDbEntity
  8
SUNPOU
100
AcDbMText
 10
601.6163156500209
 20
439.201989187721
 30
0.0
 40
6.0
 41
0.0
 71
     5
 72
     1
  1
\A1;15
 11
0.0000000000000001
 21
1.0
 31
0.0
  0
POINT
  5
19DA
330
F40
100
AcDbEntity
  8
DEFPOINTS
 62
     0
100
AcDbPoint
 10
585.5608558201423
 20
446.7007185376363
 30
0.0
  0
POINT
  5
19DB
330
F40
100
AcDbEntity
  8
DEFPOINTS
 62
     0
100
AcDbPoint
 10
586.6321028701301
 20
431.7032598378055
 30
0.0
  0
POINT
  5
19DC
330
F40
100
AcDbEntity
  8
DEFPOINTS
 62
     0
100
AcDbPoint
 10
606.616315650021
 20
431.7032598378055
 30
0.0
  0
ENDBLK
  5
F4B
330
F40
100
AcDbEntity
  8
0
100
AcDbBlockEnd
  0
BLOCK
  5
F64
330
F58
100
AcDbEntity
  8
0
100
AcDbBlockBegin
  2
*D18
 70
     1
 10
0.0
 20
0.0
 30
0.0
  3
*D18
  1

  0
LINE
  5
19DD
330
F58
100
AcDbEntity
  8
SUNPOU
  6
CONTINUOUS
100
AcDbLine
 10
661.4316392521077
 20
444.7007185376363
 30
0.0
 11
681.8031736522355
 21
444.7007185376363
 31
0.0
  0
LINE
  5
19DE
330
F58
100
AcDbEntity
  8
SUNPOU
  6
CONTINUOUS
100
AcDbLine
 10
664.7025392521077
 20
439.7007185376363
 30
0.0
 11
681.8031736522355
 21
439.7007185376363
 31
0.0
  0
LINE
  5
19DF
330
F58
100
AcDbEntity
  8
SUNPOU
  6
CONTINUOUS
100
AcDbLine
 10
678.8031736522355
 20
451.7007185376363
 30
0.0
 11
678.8031736522355
 21
458.7007185376363
 31
0.0
  0
LINE
  5
19E0
330
F58
100
AcDbEntity
  8
SUNPOU
  6
CONTINUOUS
100
AcDbLine
 10
678.8031736522355
 20
432.7007185376364
 30
0.0
 11
678.8031736522355
 21
425.7007185376363
 31
0.0
  0
MTEXT
  5
19E1
330
F58
100
AcDbEntity
  8
SUNPOU
  6
CONTINUOUS
100
AcDbMText
 10
688.194825950989
 20
438.9157633183158
 30
0.0
 40
6.0
 41
0.0
 71
     5
 72
     1
  1
\A1;差込み寸法5
 11
0.0000000000000001
 21
1.0
 31
0.0
  0
LINE
  5
19E2
330
F58
100
AcDbEntity
  8
SUNPOU
  6
CONTINUOUS
100
AcDbLine
 10
678.8031736522355
 20
444.7007185376363
 30
0.0
 11
678.8031736522355
 21
439.7007185376363
 31
0.0
  0
INSERT
  5
19E3
330
F58
100
AcDbEntity
  8
SUNPOU
  6
CONTINUOUS
100
AcDbBlockReference
  2
_OPEN
 10
678.8031736522355
 20
444.7007185376363
 30
0.0
 41
7.0
 42
7.0
 43
7.0
 50
270.0
  0
INSERT
  5
19E4
330
F58
100
AcDbEntity
  8
SUNPOU
  6
CONTINUOUS
100
AcDbBlockReference
  2
_OPEN
 10
678.8031736522355
 20
439.7007185376363
 30
0.0
 41
7.0
 42
7.0
 43
7.0
 50
90.0
  0
POINT
  5
19E5
330
F58
100
AcDbEntity
  8
DEFPOINTS
  6
CONTINUOUS
 62
     0
100
AcDbPoint
 10
655.4316392521077
 20
444.7007185376363
 30
0.0
  0
POINT
  5
19E6
330
F58
100
AcDbEntity
  8
DEFPOINTS
  6
CONTINUOUS
 62
     0
100
AcDbPoint
 10
658.7025392521077
 20
439.7007185376363
 30
0.0
  0
POINT
  5
19E7
330
F58
100
AcDbEntity
  8
DEFPOINTS
  6
CONTINUOUS
 62
     0
100
AcDbPoint
 10
678.8031736522355
 20
439.7007185376363
 30
0.0
  0
ENDBLK
  5
F65
330
F58
100
AcDbEntity
  8
0
100
AcDbBlockEnd
  0
BLOCK
  5
14AD
330
14A3
100
AcDbEntity
  8
0
100
AcDbBlockBegin
  2
*D19
 70
     1
 10
0.0
 20
0.0
 30
0.0
  3
*D19
  1

  0
LINE
  5
19E8
330
14A3
100
AcDbEntity
  8
SUNPOU
100
AcDbLine
 10
534.5607558201423
 20
453.7006185376363
 30
0.0
 11
534.5607558201423
 21
471.963621531546
 31
0.0
  0
LINE
  5
19E9
330
14A3
100
AcDbEntity
  8
SUNPOU
100
AcDbLine
 10
587.5608558201422
 20
453.7007185376364
 30
0.0
 11
587.5608558201422
 21
471.963621531546
 31
0.0
  0
LINE
  5
19EA
330
14A3
100
AcDbEntity
  8
SUNPOU
100
AcDbLine
 10
541.5607558201422
 20
468.963621531546
 30
0.0
 11
580.5608558201422
 21
468.963621531546
 31
0.0
  0
INSERT
  5
19EB
330
14A3
100
AcDbEntity
  8
SUNPOU
100
AcDbBlockReference
  2
_OPEN
 10
534.5607558201423
 20
468.963621531546
 30
0.0
 41
7.0
 42
7.0
 43
7.0
 50
180.0
  0
INSERT
  5
19EC
330
14A3
100
AcDbEntity
  8
SUNPOU
100
AcDbBlockReference
  2
_OPEN
 10
587.5608558201422
 20
468.963621531546
 30
0.0
 41
7.0
 42
7.0
 43
7.0
  0
MTEXT
  5
19ED
330
14A3
100
AcDbEntity
  8
SUNPOU
100
AcDbMText
 10
561.0608058201422
 20
473.9636215315461
 30
0.0
 40
6.0
 41
0.0
 71
     5
 72
     1
  1
\A1;53
  0
POINT
  5
19EE
330
14A3
100
AcDbEntity
  8
DEFPOINTS
 62
     0
100
AcDbPoint
 10
534.5607558201423
 20
447.7006185376364
 30
0.0
  0
POINT
  5
19EF
330
14A3
100
AcDbEntity
  8
DEFPOINTS
 62
     0
100
AcDbPoint
 10
587.5608558201422
 20
447.7007185376363
 30
0.0
  0
POINT
  5
19F0
330
14A3
100
AcDbEntity
  8
DEFPOINTS
 62
     0
100
AcDbPoint
 10
587.5608558201422
 20
468.963621531546
 30
0.0
  0
ENDBLK
  5
14AE
330
14A3
100
AcDbEntity
  8
0
100
AcDbBlockEnd
  0
BLOCK
  5
18B2
330
18A6
100
AcDbEntity
  8
0
100
AcDbBlockBegin
  2
*D20
 70
     1
 10
0.0
 20
0.0
 30
0.0
  3
*D20
  1

  0
LINE
  5
19F1
330
18A6
100
AcDbEntity
  8
SUNPOU
100
AcDbLine
 10
529.5607558201423
 20
448.7006185376364
 30
0.0
 11
510.6790496577327
 21
448.7006185376364
 31
0.0
  0
LINE
  5
19F2
330
18A6
100
AcDbEntity
  8
SUNPOU
100
AcDbLine
 10
529.5607558201423
 20
431.7006185376364
 30
0.0
 11
510.6790496577327
 21
431.7006185376364
 31
0.0
  0
LINE
  5
19F3
330
18A6
100
AcDbEntity
  8
SUNPOU
100
AcDbLine
 10
513.6790496577328
 20
455.7006185376364
 30
0.0
 11
513.6790496577328
 21
462.7006185376363
 31
0.0
  0
LINE
  5
19F4
330
18A6
100
AcDbEntity
  8
SUNPOU
100
AcDbLine
 10
513.6790496577328
 20
424.7006185376363
 30
0.0
 11
513.6790496577328
 21
417.7006185376363
 31
0.0
  0
LINE
  5
19F5
330
18A6
100
AcDbEntity
  8
SUNPOU
100
AcDbLine
 10
513.6790496577328
 20
448.7006185376364
 30
0.0
 11
513.6790496577328
 21
431.7006185376364
 31
0.0
  0
INSERT
  5
19F6
330
18A6
100
AcDbEntity
  8
SUNPOU
100
AcDbBlockReference
  2
_OPEN
 10
513.6790496577328
 20
448.7006185376364
 30
0.0
 41
7.0
 42
7.0
 43
7.0
 50
270.0
  0
INSERT
  5
19F7
330
18A6
100
AcDbEntity
  8
SUNPOU
100
AcDbBlockReference
  2
_OPEN
 10
513.6790496577328
 20
431.7006185376364
 30
0.0
 41
7.0
 42
7.0
 43
7.0
 50
90.0
  0
MTEXT
  5
19F8
330
18A6
100
AcDbEntity
  8
SUNPOU
100
AcDbMText
 10
508.6790496577326
 20
440.2006185376364
 30
0.0
 40
6.0
 41
0.0
 71
     5
 72
     1
  1
\A1;17
 11
0.0000000000000001
 21
1.0
 31
0.0
  0
POINT
  5
19F9
330
18A6
100
AcDbEntity
  8
DEFPOINTS
 62
     0
100
AcDbPoint
 10
535.5607558201422
 20
448.7006185376364
 30
0.0
  0
POINT
  5
19FA
330
18A6
100
AcDbEntity
  8
DEFPOINTS
 62
     0
100
AcDbPoint
 10
535.5607558201422
 20
431.7006185376364
 30
0.0
  0
POINT
  5
19FB
330
18A6
100
AcDbEntity
  8
DEFPOINTS
 62
     0
100
AcDbPoint
 10
513.6790496577328
 20
431.7006185376364
 30
0.0
  0
ENDBLK
  5
18B3
330
18A6
100
AcDbEntity
  8
0
100
AcDbBlockEnd
  0
ENDSEC
  0
SECTION
  2
ENTITIES
  0
ARC
  5
3D0
330
1A
100
AcDbEntity
  8
NOKITOI
  6
PHANTOM
 62
     9
 48
3.0
100
AcDbCircle
 10
581.463673791711
 20
1158.086834384308
 30
0.0
 40
1000.0
100
AcDbArc
 50
267.2057870799
 51
272.4394137225999
  0
ARC
  5
3D1
330
1A
100
AcDbEntity
  8
NOKITOI
  6
PHANTOM
 62
     9
 48
3.0
100
AcDbCircle
 10
581.463673791711
 20
1158.086834384308
 30
0.0
 40
998.7
100
AcDbArc
 50
267.2027850585
 51
272.4394137225999
  0
LINE
  5
3D2
330
1A
100
AcDbEntity
  8
SEIHIN
  6
CONTINUOUS
 62
     3
100
AcDbLine
 10
534.6155085316109
 20
184.1160422601079
 30
0.0
 11
540.9172241467108
 21
158.9091797997079
 31
0.0
  0
ARC
  5
3D3
330
1A
100
AcDbEntity
  8
SEIHIN
  6
CONTINUOUS
 62
     3
100
AcDbCircle
 10
538.1573756557108
 20
141.0868343843079
 30
0.0
 40
5.5
100
AcDbArc
 50
194.0362434679
 51
270.0
  0
ARC
  5
3D4
330
1A
100
AcDbEntity
  8
SEIHIN
  6
CONTINUOUS
 62
     3
100
AcDbCircle
 10
581.463673791711
 20
1158.086834384308
 30
0.0
 40
1002.5
100
AcDbArc
 50
267.2057870799
 51
272.4394137225999
  0
ARC
  5
3D5
330
1A
100
AcDbEntity
  8
SEIHIN
  6
CONTINUOUS
 62
     3
100
AcDbCircle
 10
581.463673791711
 20
1158.086834384308
 30
0.0
 40
1000.0
100
AcDbArc
 50
267.2057870799
 51
272.4381855922
  0
ARC
  5
3D6
330
1A
100
AcDbEntity
  8
SEIHIN
  6
CONTINUOUS
 62
     3
100
AcDbCircle
 10
581.463673791711
 20
1158.086834384308
 30
0.0
 40
1001.5
100
AcDbArc
 50
267.2057870799
 51
272.4394137225999
  0
ARC
  5
3E1
330
1A
100
AcDbEntity
  8
NOKITOI
  6
PHANTOM
 62
     9
 48
3.0
100
AcDbCircle
 10
722.2229668895108
 20
277.3053623310079
 30
0.0
 40
228.6
100
AcDbArc
 50
190.8722588022
 51
204.3402516129999
  0
ARC
  5
3E2
330
1A
100
AcDbEntity
  8
NOKITOI
  6
PHANTOM
 62
     9
 48
3.0
100
AcDbCircle
 10
722.2229668895108
 20
277.3053623310079
 30
0.0
 40
230.0
100
AcDbArc
 50
184.0482867622
 51
206.8535797088
  0
ARC
  5
3E5
330
1A
100
AcDbEntity
  8
SEIHIN
  6
CONTINUOUS
 62
     3
100
AcDbCircle
 10
722.2229668895108
 20
277.3053623310079
 30
0.0
 40
231.4999999999999
100
AcDbArc
 50
185.5892534145
 51
206.8535797088
  0
ARC
  5
3E6
330
1A
100
AcDbEntity
  8
SEIHIN
  6
CONTINUOUS
 62
     3
100
AcDbCircle
 10
722.2229668895108
 20
277.3053623310079
 30
0.0
 40
232.5
100
AcDbArc
 50
185.7275442459999
 51
206.8535797088
  0
ARC
  5
3E7
330
1A
100
AcDbEntity
  8
SEIHIN
  6
CONTINUOUS
 62
     3
100
AcDbCircle
 10
722.2229668895108
 20
277.3053623310079
 30
0.0
 40
230.0
100
AcDbArc
 50
185.5892534145
 51
206.8535797088
  0
LINE
  5
3E8
330
1A
100
AcDbEntity
  8
SEIHIN
  6
CONTINUOUS
 62
     3
100
AcDbLine
 10
350.5250892924205
 20
271.7633624355079
 30
0.0
 11
350.5250892924205
 21
156.5868343843079
 31
0.0
  0
LINE
  5
3E9
330
1A
100
AcDbEntity
  8
CENTER_L
  6
CENTER
 62
     1
 48
5.0
100
AcDbLine
 10
235.5250892924205
 20
63.08687438397953
 30
0.0
 11
235.5250892924205
 21
274.7973587987079
 31
0.0
  0
LINE
  5
3EA
330
1A
100
AcDbEntity
  8
SEIHIN
  6
CONTINUOUS
 62
     3
100
AcDbLine
 10
120.5250892924206
 20
271.7633624355079
 30
0.0
 11
120.5250892924206
 21
156.5868343843079
 31
0.0
  0
LINE
  5
3EE
330
1A
100
AcDbEntity
  8
SEIHIN
  6
CONTINUOUS
 62
     3
100
AcDbLine
 10
280.4068085077206
 20
135.5868343843079
 30
0.0
 11
190.6433704246205
 21
135.5868343843079
 31
0.0
  0
LINE
  5
3F2
330
1A
100
AcDbEntity
  8
SEIHIN
  6
CONTINUOUS
 62
     3
100
AcDbLine
 10
120.5250892924206
 20
170.3351638995079
 30
0.0
 11
350.5250892924205
 21
170.3351638995079
 31
0.0
  0
ARC
  5
3F6
330
1A
100
AcDbEntity
  8
SEIHIN
  6
CONTINUOUS
 62
     3
100
AcDbCircle
 10
138.9590684936206
 20
131.8713661370079
 30
0.0
 40
24.0
100
AcDbArc
 50
55.0348792265
 51
87.8307424103
  0
LINE
  5
406
330
1A
100
AcDbEntity
  8
SEIHIN
  6
CONTINUOUS
 62
     3
100
AcDbLine
 10
139.8675079207205
 20
155.8541670120079
 30
0.0
 11
120.5250892924206
 21
156.5868343843079
 31
0.0
  0
ARC
  5
41A
330
1A
100
AcDbEntity
  8
SEIHIN
  6
CONTINUOUS
 62
     3
100
AcDbCircle
 10
190.6433700770205
 20
183.5868343843079
 30
0.0
 40
48.0
100
AcDbArc
 50
235.0348792265
 51
270.0000004148999
  0
LINE
  5
41C
330
1A
100
AcDbEntity
  8
SEIHIN
  6
CONTINUOUS
 62
     3
100
AcDbLine
 10
163.1356421436206
 20
144.2507834394079
 30
0.0
 11
152.7129324603205
 21
151.5393916095079
 31
0.0
  0
ARC
  5
438
330
1A
100
AcDbEntity
  8
SEIHIN
  6
CONTINUOUS
 62
     3
100
AcDbCircle
 10
332.0911100912205
 20
131.8713661370079
 30
0.0
 40
24.0
100
AcDbArc
 50
92.16925758969999
 51
124.9651207735
  0
ARC
  5
43A
330
1A
100
AcDbEntity
  8
SEIHIN
  6
CONTINUOUS
 62
     3
100
AcDbCircle
 10
280.4068085077206
 20
183.5868343843079
 30
0.0
 40
48.0
100
AcDbArc
 50
270.0
 51
304.9651207734999
  0
LINE
  5
444
330
1A
100
AcDbEntity
  8
SEIHIN
  6
CONTINUOUS
 62
     3
100
AcDbLine
 10
307.9145364412206
 20
144.2507834394079
 30
0.0
 11
320.1374845665487
 21
152.7982996110014
 31
0.0
  0
LINE
  5
44A
330
1A
100
AcDbEntity
  8
SEIHIN
  6
CONTINUOUS
 62
     3
100
AcDbLine
 10
331.1826706641206
 20
155.8541670120079
 30
0.0
 11
350.5250892924205
 21
156.5868343843079
 31
0.0
  0
LINE
  5
47F
330
1A
100
AcDbEntity
  8
NOKITOI
  6
PHANTOM
 62
     9
 48
3.0
100
AcDbLine
 10
525.9476488749109
 20
175.7350998717079
 30
0.0
 11
518.2545136310109
 21
181.8368347320079
 31
0.0
  0
LINE
  5
480
330
1A
100
AcDbEntity
  8
NOKITOI
  6
PHANTOM
 62
     9
 48
3.0
100
AcDbLine
 10
518.690046349611
 20
183.0868347320079
 30
0.0
 11
527.6252302551108
 21
175.9999811422079
 31
0.0
  0
ARC
  5
481
330
1A
100
AcDbEntity
  8
NOKITOI
  6
PHANTOM
 62
     9
 48
3.0
100
AcDbCircle
 10
722.2229668895108
 20
277.3053623310079
 30
0.0
 40
228.6
100
AcDbArc
 50
204.6845833638999
 51
206.7288798443999
  0
LINE
  5
48D
330
1A
100
AcDbEntity
  8
SEIHIN
  6
CONTINUOUS
 62
     3
100
AcDbLine
 10
532.8215919049109
 20
139.7528884466079
 30
0.0
 11
524.930676226611
 21
171.3165511601079
 31
0.0
  0
LINE
  5
494
330
1A
100
AcDbEntity
  8
NOKITOI
  6
PHANTOM
 62
     9
 48
3.0
100
AcDbLine
 10
526.2379915007109
 20
174.5154576506079
 30
0.0
 11
517.5493575541109
 21
173.1435680801079
 31
0.0
  0
LINE
  5
495
330
1A
100
AcDbEntity
  8
NOKITOI
  6
PHANTOM
 62
     9
 48
3.0
100
AcDbLine
 10
518.050066446111
 20
174.4881131724079
 30
0.0
 11
525.9476488749109
 21
175.7350998717079
 31
0.0
  0
LINE
  5
496
330
1A
100
AcDbEntity
  8
SEIHIN
  6
CONTINUOUS
 62
     3
100
AcDbLine
 10
524.3676236898108
 20
171.6891648303079
 30
0.0
 11
517.939263987811
 21
170.6741606668079
 31
0.0
  0
LINE
  5
497
330
1A
100
AcDbEntity
  8
SEIHIN
  6
CONTINUOUS
 62
     3
100
AcDbLine
 10
526.2379915007109
 20
174.5154576506079
 30
0.0
 11
517.5493577167997
 21
173.1435681057957
 31
0.0
  0
LINE
  5
498
330
1A
100
AcDbEntity
  8
SEIHIN
  6
CONTINUOUS
 62
     3
100
AcDbLine
 10
525.1157708141108
 20
172.8196819584079
 30
0.0
 11
517.7833014143109
 21
171.6619236321079
 31
0.0
  0
ARC
  5
49A
330
1A
100
AcDbEntity
  8
NOKITOI
  6
PHANTOM
 62
     9
 48
3.0
100
AcDbCircle
 10
517.4713762674109
 20
173.6374495628079
 30
0.0
 40
0.5
100
AcDbArc
 50
206.8535797088
 51
278.9726266149
  0
LINE
  5
49B
330
1A
100
AcDbEntity
  8
SEIHIN
  6
CONTINUOUS
 62
     3
100
AcDbLine
 10
517.0254734717669
 20
173.4112404998235
 30
0.0
 11
517.0252943706109
 21
173.4115935437079
 31
0.0
  0
ARC
  5
49D
330
1A
100
AcDbEntity
  8
SEIHIN
  6
CONTINUOUS
 62
     3
100
AcDbCircle
 10
517.4713762674109
 20
173.6374495628079
 30
0.0
 40
3.0
100
AcDbArc
 50
206.8535797088
 51
278.9726266149
  0
ARC
  5
49F
330
1A
100
AcDbEntity
  8
SEIHIN
  6
CONTINUOUS
 62
     3
100
AcDbCircle
 10
517.4713762674109
 20
173.6374495628079
 30
0.0
 40
2.0
100
AcDbArc
 50
206.8535797088
 51
278.9726266149
  0
ARC
  5
4A0
330
1A
100
AcDbEntity
  8
SEIHIN
  6
CONTINUOUS
 62
     3
100
AcDbCircle
 10
517.7960845991107
 20
173.6887192994079
 30
0.0
 40
0.5
100
AcDbArc
 50
278.9726679149
 51
344.1940443947
  0
LINE
  5
4A8
330
1A
100
AcDbEntity
  8
NOKITOI
  6
PHANTOM
 62
     9
 48
3.0
100
AcDbLine
 10
529.9506064179109
 20
161.5445944588079
 30
0.0
 11
526.801044037511
 21
174.1428439805079
 31
0.0
  0
ARC
  5
4A9
330
1A
100
AcDbEntity
  8
NOKITOI
  6
PHANTOM
 62
     9
 48
3.0
100
AcDbCircle
 10
526.315972787411
 20
174.0215761680079
 30
0.0
 40
0.5
100
AcDbArc
 50
14.036243468
 51
98.97262661489998
  0
ARC
  5
4AA
330
1A
100
AcDbEntity
  8
NOKITOI
  6
PHANTOM
 62
     9
 48
3.0
100
AcDbCircle
 10
532.8610339184108
 20
162.2722013339079
 30
0.0
 40
3.0
100
AcDbArc
 50
194.0362434679
 51
267.2057870799
  0
LINE
  5
4AB
330
1A
100
AcDbEntity
  8
NOKITOI
  6
PHANTOM
 62
     9
 48
3.0
100
AcDbLine
 10
527.6252302551108
 20
175.9999811422079
 30
0.0
 11
531.1596158703109
 21
161.8624386811079
 31
0.0
  0
ARC
  5
4AC
330
1A
100
AcDbEntity
  8
NOKITOI
  6
PHANTOM
 62
     9
 48
3.0
100
AcDbCircle
 10
532.8088581206109
 20
162.2747492437079
 30
0.0
 40
1.7
100
AcDbArc
 50
194.0362434679
 51
267.2027850585
  0
LINE
  5
4AD
330
1A
100
AcDbEntity
  8
SEIHIN
  6
CONTINUOUS
 62
     3
100
AcDbLine
 10
526.2379915007109
 20
174.5154576506079
 30
0.0
 11
526.690046349611
 21
174.5868347320079
 31
0.0
  0
LINE
  5
4AE
330
1A
100
AcDbEntity
  8
SEIHIN
  6
CONTINUOUS
 62
     3
100
AcDbLine
 10
526.690046349611
 20
174.5868347320079
 30
0.0
 11
526.801044037511
 21
174.1428439805079
 31
0.0
  0
ARC
  5
4B1
330
1A
100
AcDbEntity
  8
SEIHIN
  6
CONTINUOUS
 62
     3
100
AcDbCircle
 10
524.4456049765108
 20
171.1952833476079
 30
0.0
 40
0.5
100
AcDbArc
 50
14.0362434679
 51
98.97262661489998
  0
ARC
  5
4B2
330
1A
100
AcDbEntity
  8
SEIHIN
  6
CONTINUOUS
 62
     3
100
AcDbCircle
 10
532.8610339184108
 20
162.2722013339079
 30
0.0
 40
5.5
100
AcDbArc
 50
194.0362434679
 51
267.2057870799
  0
ARC
  5
4B3
330
1A
100
AcDbEntity
  8
SEIHIN
  6
CONTINUOUS
 62
     3
100
AcDbCircle
 10
526.315972787411
 20
174.0215761680079
 30
0.0
 40
0.5
100
AcDbArc
 50
14.036243468
 51
98.97262661489998
  0
ARC
  5
4B4
330
1A
100
AcDbEntity
  8
SEIHIN
  6
CONTINUOUS
 62
     3
100
AcDbCircle
 10
532.8610339184108
 20
162.2722013339079
 30
0.0
 40
4.5
100
AcDbArc
 50
194.0362434679
 51
267.2057870799
  0
LINE
  5
4B5
330
1A
100
AcDbEntity
  8
SEIHIN
  6
CONTINUOUS
 62
     3
100
AcDbLine
 10
528.495392667711
 20
161.1807910212079
 30
0.0
 11
525.678823350911
 21
172.4470682883079
 31
0.0
  0
ARC
  5
4B6
330
1A
100
AcDbEntity
  8
SEIHIN
  6
CONTINUOUS
 62
     3
100
AcDbCircle
 10
525.1937521009108
 20
172.3258004757079
 30
0.0
 40
0.5
100
AcDbArc
 50
14.0362434679
 51
98.97262661489998
  0
LINE
  5
4B7
330
1A
100
AcDbEntity
  8
SEIHIN
  6
CONTINUOUS
 62
     3
100
AcDbLine
 10
529.9506064179109
 20
161.5445944588079
 30
0.0
 11
526.801044037511
 21
174.1428439805079
 31
0.0
  0
ARC
  5
4B8
330
1A
100
AcDbEntity
  8
SEIHIN
  6
CONTINUOUS
 62
     3
100
AcDbCircle
 10
532.8610339184108
 20
162.2722013339079
 30
0.0
 40
3.0
100
AcDbArc
 50
194.0362434679
 51
267.2057870799
  0
LINE
  5
4CA
330
1A
100
AcDbEntity
  8
NOKITOI
  6
PHANTOM
 62
     9
 48
3.0
100
AcDbLine
 10
513.942317147111
 20
183.0868347320079
 30
0.0
 11
518.690046349611
 21
183.0868347320079
 31
0.0
  0
LINE
  5
4CB
330
1A
100
AcDbEntity
  8
NOKITOI
  6
PHANTOM
 62
     9
 48
3.0
100
AcDbLine
 10
518.2545136310109
 20
181.8368347320079
 30
0.0
 11
514.5123021703109
 21
181.8368347321079
 31
0.0
  0
ARC
  5
4CD
330
1A
100
AcDbEntity
  8
SEIHIN
  6
CONTINUOUS
 62
     3
100
AcDbCircle
 10
532.6752233445108
 20
183.6309717572079
 30
0.0
 40
2.0
100
AcDbArc
 50
14.0362214041
 51
98.97262661489998
  0
ARC
  5
4CE
330
1A
100
AcDbEntity
  8
SEIHIN
  6
CONTINUOUS
 62
     3
100
AcDbCircle
 10
522.7658933516108
 20
182.0663407057079
 30
0.0
 40
2.0
100
AcDbArc
 50
98.97262661489998
 51
164.1940443945999
  0
LINE
  5
4CF
330
1A
100
AcDbEntity
  8
SEIHIN
  6
CONTINUOUS
 62
     3
100
AcDbLine
 10
532.3632981976109
 20
185.6064976879079
 30
0.0
 11
522.4539682047109
 21
184.0418666364079
 31
0.0
  0
LINE
  5
4D1
330
1A
100
AcDbEntity
  8
SEIHIN
  6
CONTINUOUS
 62
     3
100
AcDbLine
 10
250.5250892924205
 20
364.1903615854163
 30
0.0
 11
318.5250892924206
 21
364.1903615854163
 31
0.0
  0
LINE
  5
4D2
330
1A
100
AcDbEntity
  8
SEIHIN
  6
CONTINUOUS
 62
     3
100
AcDbLine
 10
319.0250892924205
 20
267.7973587987079
 30
0.0
 11
152.0250892924206
 21
267.7973587987079
 31
0.0
  0
LINE
  5
4D3
330
1A
100
AcDbEntity
  8
SEIHIN
  6
CONTINUOUS
 62
     3
100
AcDbLine
 10
120.5250892924206
 20
256.2068347320079
 30
0.0
 11
350.5250892924205
 21
256.2068347320079
 31
0.0
  0
LINE
  5
4D4
330
1A
100
AcDbEntity
  8
SEIHIN
  6
CONTINUOUS
 62
     3
100
AcDbLine
 10
350.5250892924205
 20
404.6903615854163
 30
0.0
 11
120.5250892924206
 21
404.6903615854163
 31
0.0
  0
LINE
  5
4D5
330
1A
100
AcDbEntity
  8
SEIHIN
  6
CONTINUOUS
 62
     3
100
AcDbLine
 10
350.5250892924205
 20
395.1903615854163
 30
0.0
 11
120.5250892924206
 21
395.1903615854163
 31
0.0
  0
LINE
  5
4D6
330
1A
100
AcDbEntity
  8
SEIHIN
  6
CONTINUOUS
 62
     3
100
AcDbLine
 10
320.5250892924206
 20
512.1451121163162
 30
0.0
 11
150.5250892924206
 21
512.1451121163162
 31
0.0
  0
LINE
  5
4D8
330
1A
100
AcDbEntity
  8
SEIHIN
  6
CONTINUOUS
 62
     3
100
AcDbLine
 10
300.5250892924205
 20
507.9621829387162
 30
0.0
 11
236.5250892924206
 21
507.9621829387162
 31
0.0
  0
LINE
  5
4D9
330
1A
100
AcDbEntity
  8
SEIHIN
  6
CONTINUOUS
 62
     3
100
AcDbLine
 10
150.5250892924206
 20
371.1930392900163
 30
0.0
 11
320.5250892924206
 21
371.1930392900163
 31
0.0
  0
LINE
  5
4DA
330
1A
100
AcDbEntity
  8
SEIHIN
  6
CONTINUOUS
 62
     3
100
AcDbLine
 10
319.0250892924205
 20
361.4903615854162
 30
0.0
 11
152.0250892924206
 21
361.4903615854162
 31
0.0
  0
LINE
  5
4DB
330
1A
100
AcDbEntity
  8
CENTER_L
  6
CENTER
 62
     1
 48
5.0
100
AcDbLine
 10
360.5250892924205
 20
459.4639890275162
 30
0.0
 11
313.5250892924206
 21
459.4639890275163
 31
0.0
  0
LINE
  5
4DC
330
1A
100
AcDbEntity
  8
SEIHIN
  6
CONTINUOUS
 62
     3
100
AcDbLine
 10
320.5250892924206
 20
361.4903615854162
 30
0.0
 11
150.5250892924206
 21
361.4903615854162
 31
0.0
  0
LINE
  5
4DD
330
1A
100
AcDbEntity
  8
CENTER_L
  6
CENTER
 62
     1
 48
5.0
100
AcDbLine
 10
285.5250892924205
 20
463.4639890275162
 30
0.0
 11
185.5250892924205
 21
463.4639890275162
 31
0.0
  0
LINE
  5
4DF
330
1A
100
AcDbEntity
  8
CENTER_L
  6
CENTER
 62
     1
 48
5.0
100
AcDbLine
 10
235.5250892924205
 20
355.4507980278163
 30
0.0
 11
235.5250892924205
 21
519.1451121163161
 31
0.0
  0
LINE
  5
4E2
330
1A
100
AcDbEntity
  8
SEIHIN
  6
CONTINUOUS
 62
     3
100
AcDbLine
 10
120.5250892924206
 20
362.4903615854162
 30
0.0
 11
120.5250892924206
 21
511.1451121163162
 31
0.0
  0
LINE
  5
4E6
330
1A
100
AcDbEntity
  8
SEIHIN
  6
CONTINUOUS
 62
     3
100
AcDbLine
 10
120.5250892924206
 20
377.7355271305163
 30
0.0
 11
150.5250892924206
 21
377.7355271305163
 31
0.0
  0
LINE
  5
4E7
330
1A
100
AcDbEntity
  8
SEIHIN
  6
CONTINUOUS
 62
     3
100
AcDbLine
 10
150.5250892924206
 20
361.4903615854162
 30
0.0
 11
120.5250892924206
 21
362.4903615854162
 31
0.0
  0
LINE
  5
4E8
330
1A
100
AcDbEntity
  8
SEIHIN
  6
CONTINUOUS
 62
     3
100
AcDbLine
 10
150.5250892924206
 20
271.7633624355079
 30
0.0
 11
120.5250892924206
 21
271.7633624355079
 31
0.0
  0
ARC
  5
4F4
330
1A
100
AcDbEntity
  8
SEIHIN
  6
CONTINUOUS
 62
     3
100
AcDbCircle
 10
152.0250892924206
 20
269.2973587987079
 30
0.0
 40
1.5
100
AcDbArc
 50
180.0
 51
270.0
  0
LINE
  5
4F5
330
1A
100
AcDbEntity
  8
SEIHIN
  6
CONTINUOUS
 62
     3
100
AcDbLine
 10
150.5250892924206
 20
269.2973587987079
 30
0.0
 11
150.5250892924206
 21
271.7633624355079
 31
0.0
  0
LINE
  5
4FB
330
1A
100
AcDbEntity
  8
SEIHIN
  6
CONTINUOUS
 62
     3
100
AcDbLine
 10
152.5250892924206
 20
364.1903615854163
 30
0.0
 11
220.5250892924206
 21
364.1903615854163
 31
0.0
  0
LINE
  5
4FC
330
1A
100
AcDbEntity
  8
SEIHIN
  6
CONTINUOUS
 62
     3
100
AcDbLine
 10
150.5250892924206
 20
377.7355271305163
 30
0.0
 11
150.5250892924206
 21
366.1903615854163
 31
0.0
  0
ARC
  5
4FD
330
1A
100
AcDbEntity
  8
SEIHIN
  6
CONTINUOUS
 62
     3
100
AcDbCircle
 10
152.5250892924206
 20
366.1903615854163
 30
0.0
 40
2.0
100
AcDbArc
 50
180.0
 51
270.0
  0
LINE
  5
503
330
1A
100
AcDbEntity
  8
SEIHIN
  6
CONTINUOUS
 62
     3
100
AcDbLine
 10
222.5250892924206
 20
364.1903615854163
 30
0.0
 11
248.5250892924205
 21
364.1903615854163
 31
0.0
  0
LINE
  5
504
330
1A
100
AcDbEntity
  8
SEIHIN
  6
CONTINUOUS
 62
     3
100
AcDbLine
 10
220.5250892924206
 20
371.1930392900163
 30
0.0
 11
220.5250892924206
 21
364.1903615854163
 31
0.0
  0
LINE
  5
506
330
1A
100
AcDbEntity
  8
SEIHIN
  6
CONTINUOUS
 62
     3
100
AcDbLine
 10
222.5250892924206
 20
371.1930392900163
 30
0.0
 11
222.5250892924206
 21
364.1903615854163
 31
0.0
  0
LINE
  5
507
330
1A
100
AcDbEntity
  8
SEIHIN
  6
CONTINUOUS
 62
     3
100
AcDbLine
 10
250.5250892924205
 20
371.1930392900163
 30
0.0
 11
250.5250892924205
 21
364.1903615854163
 31
0.0
  0
LINE
  5
509
330
1A
100
AcDbEntity
  8
SEIHIN
  6
CONTINUOUS
 62
     3
100
AcDbLine
 10
248.5250892924205
 20
364.1903615854163
 30
0.0
 11
248.5250892924205
 21
371.1930392900163
 31
0.0
  0
LINE
  5
50A
330
1A
100
AcDbEntity
  8
SEIHIN
  6
CONTINUOUS
 62
     3
100
AcDbLine
 10
120.5250892924206
 20
511.1451121163162
 30
0.0
 11
150.5250892924206
 21
512.1451121163162
 31
0.0
  0
LINE
  5
50B
330
1A
100
AcDbEntity
  8
SEIHIN
  6
CONTINUOUS
 62
     3
100
AcDbLine
 10
120.5250892924206
 20
499.8903615854162
 30
0.0
 11
150.5250892924206
 21
499.8903615854162
 31
0.0
  0
LINE
  5
50C
330
1A
100
AcDbEntity
  8
SEIHIN
  6
CONTINUOUS
 62
     3
100
AcDbLine
 10
120.5250892924206
 20
499.8903615854162
 30
0.0
 11
150.5250892924206
 21
499.8903615854162
 31
0.0
  0
LINE
  5
513
330
1A
100
AcDbEntity
  8
SEIHIN
  6
CONTINUOUS
 62
     3
100
AcDbLine
 10
134.5250892924205
 20
507.4903615854163
 30
0.0
 11
136.5250892924205
 21
507.4903615854163
 31
0.0
  0
LINE
  5
514
330
1A
100
AcDbEntity
  8
SEIHIN
  6
CONTINUOUS
 62
     3
100
AcDbLine
 10
134.5250892924205
 20
507.4903615854163
 30
0.0
 11
134.5250892924205
 21
499.8903615854162
 31
0.0
  0
LINE
  5
515
330
1A
100
AcDbEntity
  8
SEIHIN
  6
CONTINUOUS
 62
     3
100
AcDbLine
 10
136.5250892924205
 20
507.4903615854163
 30
0.0
 11
136.5250892924205
 21
499.8903615854162
 31
0.0
  0
CIRCLE
  5
516
330
1A
100
AcDbEntity
  8
SEIHIN
  6
CONTINUOUS
 62
     3
100
AcDbCircle
 10
235.5250892924205
 20
463.4639890275162
 30
0.0
 40
28.5
  0
LINE
  5
517
330
1A
100
AcDbEntity
  8
SEIHIN
  6
CONTINUOUS
 62
     3
100
AcDbLine
 10
150.5250892924206
 20
408.4903615854162
 30
0.0
 11
150.5250892924206
 21
512.1451121163162
 31
0.0
  0
LINE
  5
518
330
1A
100
AcDbEntity
  8
SEIHIN
  6
CONTINUOUS
 62
     3
100
AcDbLine
 10
170.5250892924206
 20
507.9621829387162
 30
0.0
 11
170.5250892924206
 21
413.3634206563162
 31
0.0
  0
LINE
  5
519
330
1A
100
AcDbEntity
  8
SEIHIN
  6
CONTINUOUS
 62
     3
100
AcDbLine
 10
169.0459775907183
 20
411.6139640992012
 30
0.0
 11
150.5250892924206
 21
408.4903615854162
 31
0.0
  0
LINE
  5
51C
330
1A
100
AcDbEntity
  8
SEIHIN
  6
CONTINUOUS
 62
     3
100
AcDbLine
 10
233.5250892924205
 20
395.1903615854163
 30
0.0
 11
237.5250892924205
 21
395.1903615854163
 31
0.0
  0
LINE
  5
51D
330
1A
100
AcDbEntity
  8
SEIHIN
  6
CONTINUOUS
 62
     3
100
AcDbLine
 10
234.5250892924206
 20
399.4452804319163
 30
0.0
 11
236.5250892924206
 21
399.4452804319163
 31
0.0
  0
LINE
  5
51E
330
1A
100
AcDbEntity
  8
SEIHIN
  6
CONTINUOUS
 62
     3
100
AcDbLine
 10
234.5250892924206
 20
404.6903615854163
 30
0.0
 11
236.5250892924206
 21
404.6903615854163
 31
0.0
  0
LINE
  5
51F
330
1A
100
AcDbEntity
  8
SEIHIN
  6
CONTINUOUS
 62
     3
100
AcDbLine
 10
234.5250892924206
 20
408.4903615854162
 30
0.0
 11
236.5250892924206
 21
408.4903615854162
 31
0.0
  0
LINE
  5
520
330
1A
100
AcDbEntity
  8
SEIHIN
  6
CONTINUOUS
 62
     3
100
AcDbLine
 10
234.5250892924206
 20
411.8634206563163
 30
0.0
 11
236.5250892924206
 21
411.8634206563163
 31
0.0
  0
LINE
  5
521
330
1A
100
AcDbEntity
  8
SEIHIN
  6
CONTINUOUS
 62
     3
100
AcDbLine
 10
234.5250892924206
 20
412.9981256494163
 30
0.0
 11
236.5250892924206
 21
412.9981256494163
 31
0.0
  0
LINE
  5
522
330
1A
100
AcDbEntity
  8
SEIHIN
  6
CONTINUOUS
 62
     3
100
AcDbLine
 10
234.5250892924206
 20
421.9538541303163
 30
0.0
 11
236.5250892924206
 21
421.9538541303163
 31
0.0
  0
ARC
  5
523
330
1A
100
AcDbEntity
  8
SEIHIN
  6
CONTINUOUS
 62
     3
100
AcDbCircle
 10
235.5250892924205
 20
431.4639890275162
 30
0.0
 40
1.0
100
AcDbArc
 50
359.9999800808999
 51
180.0000147253
  0
LINE
  5
524
330
1A
100
AcDbEntity
  8
SEIHIN
  6
CONTINUOUS
 62
     3
100
AcDbLine
 10
234.5250892924206
 20
396.1903615854163
 30
0.0
 11
234.5250892924206
 21
431.4639887705163
 31
0.0
  0
ARC
  5
525
330
1A
100
AcDbEntity
  8
SEIHIN
  6
CONTINUOUS
 62
     3
100
AcDbCircle
 10
233.5250892924205
 20
396.1903615854163
 30
0.0
 40
1.0
100
AcDbArc
 50
270.0
 51
0.0
  0
LINE
  5
52A
330
1A
100
AcDbEntity
  8
SEIHIN
  6
CONTINUOUS
 62
     3
100
AcDbLine
 10
236.5250892924206
 20
431.4639886798163
 30
0.0
 11
236.5250892924206
 21
396.1903615854163
 31
0.0
  0
ARC
  5
52B
330
1A
100
AcDbEntity
  8
SEIHIN
  6
CONTINUOUS
 62
     3
100
AcDbCircle
 10
237.5250892924205
 20
396.1903615854163
 30
0.0
 40
1.0
100
AcDbArc
 50
180.0
 51
270.0
  0
LINE
  5
530
330
1A
100
AcDbEntity
  8
SEIHIN
  6
CONTINUOUS
 62
     3
100
AcDbLine
 10
150.5250892924206
 20
506.5690484747163
 30
0.0
 11
170.5250892924206
 21
507.9621829387162
 31
0.0
  0
LINE
  5
531
330
1A
100
AcDbEntity
  8
SEIHIN
  6
CONTINUOUS
 62
     3
100
AcDbLine
 10
233.5250892924205
 20
512.1451121163162
 30
0.0
 11
237.5250892924205
 21
512.1451121163162
 31
0.0
  0
LINE
  5
532
330
1A
100
AcDbEntity
  8
SEIHIN
  6
CONTINUOUS
 62
     3
100
AcDbLine
 10
234.5250892924206
 20
496.0253741451163
 30
0.0
 11
236.5250892924206
 21
496.0253741451163
 31
0.0
  0
LINE
  5
533
330
1A
100
AcDbEntity
  8
SEIHIN
  6
CONTINUOUS
 62
     3
100
AcDbLine
 10
234.5250892924206
 20
498.4680239110162
 30
0.0
 11
236.5250892924206
 21
498.4680239110162
 31
0.0
  0
ARC
  5
536
330
1A
100
AcDbEntity
  8
SEIHIN
  6
CONTINUOUS
 62
     3
100
AcDbCircle
 10
235.5250892924205
 20
495.4639902735163
 30
0.0
 40
1.0
100
AcDbArc
 50
179.9999897699
 51
0.0000063705
  0
LINE
  5
543
330
1A
100
AcDbEntity
  8
SEIHIN
  6
CONTINUOUS
 62
     3
100
AcDbLine
 10
350.5250892924205
 20
362.4903615854162
 30
0.0
 11
350.5250892924205
 21
511.1451121163162
 31
0.0
  0
LINE
  5
544
330
1A
100
AcDbEntity
  8
SEIHIN
  6
CONTINUOUS
 62
     3
100
AcDbLine
 10
320.5250892924206
 20
271.7633624355079
 30
0.0
 11
350.5250892924205
 21
271.7633624355079
 31
0.0
  0
ARC
  5
549
330
1A
100
AcDbEntity
  8
SEIHIN
  6
CONTINUOUS
 62
     3
100
AcDbCircle
 10
319.0250892924205
 20
269.2973587987079
 30
0.0
 40
1.5
100
AcDbArc
 50
270.0
 51
0.0
  0
LINE
  5
54A
330
1A
100
AcDbEntity
  8
SEIHIN
  6
CONTINUOUS
 62
     3
100
AcDbLine
 10
320.5250892924206
 20
269.2973587987079
 30
0.0
 11
320.5250892924206
 21
271.7633624355079
 31
0.0
  0
LINE
  5
553
330
1A
100
AcDbEntity
  8
SEIHIN
  6
CONTINUOUS
 62
     3
100
AcDbLine
 10
320.5250892924206
 20
377.7355271305163
 30
0.0
 11
350.5250892924205
 21
377.7355271305163
 31
0.0
  0
LINE
  5
554
330
1A
100
AcDbEntity
  8
SEIHIN
  6
CONTINUOUS
 62
     3
100
AcDbLine
 10
320.5250892924206
 20
361.4903615854162
 30
0.0
 11
350.5250892924205
 21
362.4903615854162
 31
0.0
  0
LINE
  5
556
330
1A
100
AcDbEntity
  8
SEIHIN
  6
CONTINUOUS
 62
     3
100
AcDbLine
 10
320.5250892924206
 20
366.1903615854163
 30
0.0
 11
320.5250892924206
 21
377.7355271305163
 31
0.0
  0
ARC
  5
557
330
1A
100
AcDbEntity
  8
SEIHIN
  6
CONTINUOUS
 62
     3
100
AcDbCircle
 10
318.5250892924206
 20
366.1903615854163
 30
0.0
 40
2.0
100
AcDbArc
 50
270.0
 51
0.0
  0
ARC
  5
563
330
1A
100
AcDbEntity
  8
NOKITOI
  6
PHANTOM
 62
     9
 48
3.0
100
AcDbCircle
 10
505.4623463577108
 20
258.9568347320079
 30
0.0
 40
1.0
100
AcDbArc
 50
340.0168934781
 51
90.0
  0
LINE
  5
564
330
1A
100
AcDbEntity
  8
NOKITOI
  6
PHANTOM
 62
     9
 48
3.0
100
AcDbLine
 10
493.990046349611
 20
265.1868347320079
 30
0.0
 11
511.471142085911
 21
264.2520167782079
 31
0.0
  0
LINE
  5
565
330
1A
100
AcDbEntity
  8
NOKITOI
  6
PHANTOM
 62
     9
 48
3.0
100
AcDbLine
 10
505.1339996338108
 20
255.1277062636079
 30
0.0
 11
506.4021397812109
 21
258.6150916689079
 31
0.0
  0
ARC
  5
566
330
1A
100
AcDbEntity
  8
NOKITOI
  6
PHANTOM
 62
     9
 48
3.0
100
AcDbCircle
 10
505.470046349611
 20
241.4568347320078
 30
0.0
 40
1.75
100
AcDbArc
 50
294.7524724261
 51
90.0
  0
ARC
  5
567
330
1A
100
AcDbEntity
  8
NOKITOI
  6
PHANTOM
 62
     9
 48
3.0
100
AcDbCircle
 10
520.186961501611
 20
201.0603371838079
 30
0.0
 40
41.25
100
AcDbArc
 50
109.8166130064999
 51
123.4017199424999
  0
LINE
  5
568
330
1A
100
AcDbEntity
  8
NOKITOI
  6
PHANTOM
 62
     9
 48
3.0
100
AcDbLine
 10
507.5768815606108
 20
258.1879128401079
 30
0.0
 11
505.4623463577108
 21
261.2068347320079
 31
0.0
  0
ARC
  5
569
330
1A
100
AcDbEntity
  8
NOKITOI
  6
PHANTOM
 62
     9
 48
3.0
100
AcDbCircle
 10
520.0965335203108
 20
201.0270286617079
 30
0.0
 40
40.0
100
AcDbArc
 50
110.1459171419
 51
124.0043462568999
  0
LINE
  5
56A
330
1A
100
AcDbEntity
  8
NOKITOI
  6
PHANTOM
 62
     9
 48
3.0
100
AcDbLine
 10
509.8022745603109
 20
254.4568347320079
 30
0.0
 11
505.6038963455109
 21
254.4568347320079
 31
0.0
  0
ARC
  5
56B
330
1A
100
AcDbEntity
  8
NOKITOI
  6
PHANTOM
 62
     9
 48
3.0
100
AcDbCircle
 10
505.470046349611
 20
241.4568347320078
 30
0.0
 40
3.0
100
AcDbArc
 50
286.4592496283
 51
90.0
  0
LINE
  5
56C
330
1A
100
AcDbEntity
  8
NOKITOI
  6
PHANTOM
 62
     9
 48
3.0
100
AcDbLine
 10
505.5671006808108
 20
263.1657405736079
 30
0.0
 11
510.8022095715109
 21
262.8857882265079
 31
0.0
  0
ARC
  5
56F
330
1A
100
AcDbEntity
  8
NOKITOI
  6
PHANTOM
 62
     9
 48
3.0
100
AcDbCircle
 10
502.8037644199109
 20
252.2068347320078
 30
0.0
 40
7.75
100
AcDbArc
 50
90.0
 51
270.0
  0
LINE
  5
572
330
1A
100
AcDbEntity
  8
NOKITOI
  6
PHANTOM
 62
     9
 48
3.0
100
AcDbLine
 10
502.8037644199109
 20
243.2068347320079
 30
0.0
 11
505.470046349611
 21
243.2068347320079
 31
0.0
  0
ARC
  5
573
330
1A
100
AcDbEntity
  8
NOKITOI
  6
PHANTOM
 62
     9
 48
3.0
100
AcDbCircle
 10
502.8037644199109
 20
252.2068347320078
 30
0.0
 40
9.0
100
AcDbArc
 50
217.6723592547
 51
270.0
  0
LINE
  5
574
330
1A
100
AcDbEntity
  8
NOKITOI
  6
PHANTOM
 62
     9
 48
3.0
100
AcDbLine
 10
502.8037644199109
 20
244.4568347320079
 30
0.0
 11
505.470046349611
 21
244.4568347320079
 31
0.0
  0
ARC
  5
575
330
1A
100
AcDbEntity
  8
NOKITOI
  6
PHANTOM
 62
     9
 48
3.0
100
AcDbCircle
 10
722.2229668895108
 20
277.3053623310079
 30
0.0
 40
228.6
100
AcDbArc
 50
187.6923095857
 51
190.5380321243999
  0
LINE
  5
578
330
1A
100
AcDbEntity
  8
NOKITOI
  6
PHANTOM
 62
     9
 48
3.0
100
AcDbLine
 10
492.8099002445109
 20
266.0614085922079
 30
0.0
 11
488.0900463496109
 21
263.906934108408
 31
0.0
  0
LINE
  5
579
330
1A
100
AcDbEntity
  8
NOKITOI
  6
PHANTOM
 62
     9
 48
3.0
100
AcDbLine
 10
492.796838087811
 20
261.0680157772079
 30
0.0
 11
488.0900463496109
 21
259.8068347320079
 31
0.0
  0
LINE
  5
57A
330
1A
100
AcDbEntity
  8
NOKITOI
  6
PHANTOM
 62
     9
 48
3.0
100
AcDbLine
 10
492.710425390811
 20
262.3389567904079
 30
0.0
 11
488.0900463496109
 21
261.1009299575079
 31
0.0
  0
LINE
  5
57B
330
1A
100
AcDbEntity
  8
NOKITOI
  6
PHANTOM
 62
     9
 48
3.0
100
AcDbLine
 10
486.982419428511
 20
264.9402944433079
 30
0.0
 11
494.132367248111
 21
268.2040353304079
 31
0.0
  0
ARC
  5
57C
330
1A
100
AcDbEntity
  8
SEIHIN
  6
CONTINUOUS
 62
     3
100
AcDbCircle
 10
490.8283450232109
 20
254.6607388772079
 30
0.0
 40
1.0
100
AcDbArc
 50
5.5892534145
 51
102.3176619503
  0
LINE
  5
57D
330
1A
100
AcDbEntity
  8
SEIHIN
  6
CONTINUOUS
 62
     3
100
AcDbLine
 10
486.7780714110109
 20
268.0312621009079
 30
0.0
 11
495.6263826366109
 21
271.5509236773079
 31
0.0
  0
LINE
  5
57E
330
1A
100
AcDbEntity
  8
SEIHIN
  6
CONTINUOUS
 62
     3
100
AcDbLine
 10
486.820436407511
 20
265.3575898884079
 30
0.0
 11
495.1088635216109
 21
268.6545420071079
 31
0.0
  0
ARC
  5
57F
330
1A
100
AcDbEntity
  8
SEIHIN
  6
CONTINUOUS
 62
     3
100
AcDbCircle
 10
490.8283450232109
 20
254.6607388772079
 30
0.0
 40
2.5
100
AcDbArc
 50
5.5892534145
 51
102.3176619503
  0
LINE
  5
580
330
1A
100
AcDbEntity
  8
NOKITOI
  6
PHANTOM
 62
     9
 48
3.0
100
AcDbLine
 10
488.0900463496109
 20
263.906934108408
 30
0.0
 11
488.0900463496109
 21
261.1009299575079
 31
0.0
  0
LINE
  5
581
330
1A
100
AcDbEntity
  8
NOKITOI
  6
PHANTOM
 62
     9
 48
3.0
100
AcDbLine
 10
486.6900463496109
 20
257.5068347320079
 30
0.0
 11
486.6900463496109
 21
264.4854416522079
 31
0.0
  0
ARC
  5
582
330
1A
100
AcDbEntity
  8
NOKITOI
  6
PHANTOM
 62
     9
 48
3.0
100
AcDbCircle
 10
487.3900463496109
 20
257.5068347320079
 30
0.0
 40
0.7
100
AcDbArc
 50
180.0
 51
270.0
  0
LINE
  5
583
330
1A
100
AcDbEntity
  8
NOKITOI
  6
PHANTOM
 62
     9
 48
3.0
100
AcDbLine
 10
488.0900463496109
 20
259.8068347320079
 30
0.0
 11
488.0900463496109
 21
257.5068347320079
 31
0.0
  0
ARC
  5
584
330
1A
100
AcDbEntity
  8
NOKITOI
  6
PHANTOM
 62
     9
 48
3.0
100
AcDbCircle
 10
487.3900463496109
 20
257.5068347320079
 30
0.0
 40
0.7
100
AcDbArc
 50
270.0
 51
0.0
  0
ARC
  5
585
330
1A
100
AcDbEntity
  8
NOKITOI
  6
PHANTOM
 62
     9
 48
3.0
100
AcDbCircle
 10
487.190046349611
 20
264.4854416522079
 30
0.0
 40
0.5
100
AcDbArc
 50
114.5353031557999
 51
180.0
  0
ARC
  5
588
330
1A
100
AcDbEntity
  8
SEIHIN
  6
CONTINUOUS
 62
     3
100
AcDbCircle
 10
486.8900463496109
 20
257.0761792568079
 30
0.0
 40
0.7
100
AcDbArc
 50
180.0
 51
282.3176619502999
  0
LINE
  5
589
330
1A
100
AcDbEntity
  8
SEIHIN
  6
CONTINUOUS
 62
     3
100
AcDbLine
 10
487.0393784412109
 20
256.3922933552079
 30
0.0
 11
490.295016124611
 21
257.1031885258079
 31
0.0
  0
ARC
  5
58A
330
1A
100
AcDbEntity
  8
SEIHIN
  6
CONTINUOUS
 62
     3
100
AcDbCircle
 10
485.2862595298109
 20
254.9859229188079
 30
0.0
 40
0.5
100
AcDbArc
 50
177.1333686114999
 51
282.3176619502999
  0
LINE
  5
58B
330
1A
100
AcDbEntity
  8
SEIHIN
  6
CONTINUOUS
 62
     3
100
AcDbLine
 10
485.392582644611
 20
267.106988493008
 30
0.0
 11
484.7868852034109
 21
255.0109285614079
 31
0.0
  0
ARC
  5
58C
330
1A
100
AcDbEntity
  8
SEIHIN
  6
CONTINUOUS
 62
     3
100
AcDbCircle
 10
488.2565111794108
 20
264.3145140799079
 30
0.0
 40
4.0
100
AcDbArc
 50
111.6915634179
 51
177.1333686114999
  0
LINE
  5
58D
330
1A
100
AcDbEntity
  8
SEIHIN
  6
CONTINUOUS
 62
     3
100
AcDbLine
 10
484.2615165684109
 20
264.5145592208079
 30
0.0
 11
483.7096643898109
 21
253.4938142557079
 31
0.0
  0
ARC
  5
58E
330
1A
100
AcDbEntity
  8
SEIHIN
  6
CONTINUOUS
 62
     3
100
AcDbCircle
 10
484.0092889856109
 20
253.4788108701079
 30
0.0
 40
0.3
100
AcDbArc
 50
177.1333686114999
 51
282.3176619502999
  0
LINE
  5
58F
330
1A
100
AcDbEntity
  8
SEIHIN
  6
CONTINUOUS
 62
     3
100
AcDbLine
 10
484.0732884535109
 20
253.1857169123079
 30
0.0
 11
490.2795050936109
 21
254.5408951804079
 31
0.0
  0
LINE
  5
590
330
1A
100
AcDbEntity
  8
SEIHIN
  6
CONTINUOUS
 62
     3
100
AcDbLine
 10
485.3929253095109
 20
254.4974329891079
 30
0.0
 11
490.6150134638109
 21
255.6377187367079
 31
0.0
  0
ARC
  5
591
330
1A
100
AcDbEntity
  8
SEIHIN
  6
CONTINUOUS
 62
     3
100
AcDbCircle
 10
490.3861708733109
 20
254.052405250708
 30
0.0
 40
0.5
100
AcDbArc
 50
5.727544245999999
 51
102.3176619503
  0
LINE
  5
592
330
1A
100
AcDbEntity
  8
SEIHIN
  6
CONTINUOUS
 62
     3
100
AcDbLine
 10
486.1900463496109
 20
265.1068347320079
 30
0.0
 11
486.1900463496109
 21
264.4284028832079
 31
0.0
  0
LINE
  5
593
330
1A
100
AcDbEntity
  8
SEIHIN
  6
CONTINUOUS
 62
     3
100
AcDbLine
 10
486.1900463496109
 20
265.1068347320079
 30
0.0
 11
486.820436407511
 21
265.3575898884079
 31
0.0
  0
ARC
  5
594
330
1A
100
AcDbEntity
  8
SEIHIN
  6
CONTINUOUS
 62
     3
100
AcDbCircle
 10
487.190046349611
 20
264.4284028832079
 30
0.0
 40
1.0
100
AcDbArc
 50
111.6915634179
 51
180.0
  0
LINE
  5
595
330
1A
100
AcDbEntity
  8
SEIHIN
  6
CONTINUOUS
 62
     3
100
AcDbLine
 10
486.1900463496109
 20
257.0761792568079
 30
0.0
 11
486.1900463496109
 21
264.4284028832079
 31
0.0
  0
ARC
  5
596
330
1A
100
AcDbEntity
  8
NOKITOI
  6
PHANTOM
 62
     9
 48
3.0
100
AcDbCircle
 10
722.2229668895108
 20
277.3053623310079
 30
0.0
 40
230.0
100
AcDbArc
 50
182.9998310043
 51
183.7309486313
  0
LINE
  5
597
330
1A
100
AcDbEntity
  8
NOKITOI
  6
PHANTOM
 62
     9
 48
3.0
100
AcDbLine
 10
492.5381383926109
 20
265.2687698575079
 30
0.0
 11
492.8099002445109
 21
266.0614085922079
 31
0.0
  0
LINE
  5
598
330
1A
100
AcDbEntity
  8
NOKITOI
  6
PHANTOM
 62
     9
 48
3.0
100
AcDbLine
 10
505.4623463577108
 20
261.2068347320079
 30
0.0
 11
505.5671006808108
 21
263.1657405736079
 31
0.0
  0
ARC
  5
599
330
1A
100
AcDbEntity
  8
NOKITOI
  6
PHANTOM
 62
     9
 48
3.0
100
AcDbCircle
 10
502.8037644199109
 20
252.2068347320078
 30
0.0
 40
9.0
100
AcDbArc
 50
90.0
 51
155.3786098683
  0
ARC
  5
59A
330
1A
100
AcDbEntity
  8
NOKITOI
  6
PHANTOM
 62
     9
 48
3.0
100
AcDbCircle
 10
722.2229668895108
 20
277.3053623310079
 30
0.0
 40
228.6
100
AcDbArc
 50
183.3911788461999
 51
185.3586595372999
  0
ARC
  5
59B
330
1A
100
AcDbEntity
  8
NOKITOI
  6
PHANTOM
 62
     9
 48
3.0
100
AcDbCircle
 10
505.6038963455109
 20
254.9568347320079
 30
0.0
 40
0.5
100
AcDbArc
 50
160.0168934781
 51
270.0
  0
ARC
  5
59C
330
1A
100
AcDbEntity
  8
NOKITOI
  6
PHANTOM
 62
     9
 48
3.0
100
AcDbCircle
 10
494.3399941692109
 20
267.7491825392079
 30
0.0
 40
0.5
100
AcDbArc
 50
341.075355584
 51
114.5353031557
  0
LINE
  5
59D
330
1A
100
AcDbEntity
  8
NOKITOI
  6
PHANTOM
 62
     9
 48
3.0
100
AcDbLine
 10
494.8129671422109
 20
267.5870203771079
 30
0.0
 11
493.990046349611
 21
265.1868347320079
 31
0.0
  0
LINE
  5
59E
330
1A
100
AcDbEntity
  8
NOKITOI
  6
PHANTOM
 62
     9
 48
3.0
100
AcDbLine
 10
505.4623463577108
 20
259.9568347320079
 30
0.0
 11
502.8037644199109
 21
259.9568347320079
 31
0.0
  0
LINE
  5
59F
330
1A
100
AcDbEntity
  8
NOKITOI
  6
PHANTOM
 62
     9
 48
3.0
100
AcDbLine
 10
494.0232576523109
 20
263.7830583826079
 30
0.0
 11
504.3188841539108
 21
263.232490120508
 31
0.0
  0
LINE
  5
5A0
330
1A
100
AcDbEntity
  8
NOKITOI
  6
PHANTOM
 62
     9
 48
3.0
100
AcDbLine
 10
504.3188841539108
 20
263.232490120508
 30
0.0
 11
504.2105603363109
 21
261.2068347320079
 31
0.0
  0
LINE
  5
5A1
330
1A
100
AcDbEntity
  8
NOKITOI
  6
PHANTOM
 62
     9
 48
3.0
100
AcDbLine
 10
504.2105603363109
 20
261.2068347320079
 30
0.0
 11
502.8037644199109
 21
261.2068347320079
 31
0.0
  0
LINE
  5
5A2
330
1A
100
AcDbEntity
  8
SEIHIN
  6
CONTINUOUS
 62
     3
100
AcDbLine
 10
496.1193386876109
 20
269.0564865732079
 30
0.0
 11
495.766641465611
 21
268.0277863423079
 31
0.0
  0
LINE
  5
5A3
330
1A
100
AcDbEntity
  8
SEIHIN
  6
CONTINUOUS
 62
     3
100
AcDbLine
 10
496.1193386876109
 20
269.0564865732079
 30
0.0
 11
495.1088635216109
 21
268.6545420071079
 31
0.0
  0
ARC
  5
5A4
330
1A
100
AcDbEntity
  8
SEIHIN
  6
CONTINUOUS
 62
     3
100
AcDbCircle
 10
495.2936684926108
 20
268.1899485045079
 30
0.0
 40
0.5
100
AcDbArc
 50
341.075355584
 51
111.6915634179
  0
LINE
  5
5A5
330
1A
100
AcDbEntity
  8
SEIHIN
  6
CONTINUOUS
 62
     3
100
AcDbLine
 10
495.766641465611
 20
268.0277863423079
 30
0.0
 11
495.2854304612109
 21
266.6242542461079
 31
0.0
  0
LINE
  5
5A6
330
1A
100
AcDbEntity
  8
SEIHIN
  6
CONTINUOUS
 62
     3
100
AcDbLine
 10
495.2854304612109
 20
266.6242542461079
 30
0.0
 11
495.1463657146109
 21
266.2186487353079
 31
0.0
  0
ARC
  5
5A7
330
1A
100
AcDbEntity
  8
SEIHIN
  6
CONTINUOUS
 62
     3
100
AcDbCircle
 10
495.758403434211
 20
266.4620920839079
 30
0.0
 40
0.5
100
AcDbArc
 50
161.0753555839999
 51
247.0004820323
  0
ARC
  5
5A8
330
1A
100
AcDbEntity
  8
SEIHIN
  6
CONTINUOUS
 62
     3
100
AcDbCircle
 10
496.735211894711
 20
268.763362435508
 30
0.0
 40
3.0
100
AcDbArc
 50
247.0004820323
 51
111.6915517406999
  0
ARC
  5
5A9
330
1A
100
AcDbEntity
  8
SEIHIN
  6
CONTINUOUS
 62
     3
100
AcDbCircle
 10
496.735211894711
 20
268.763362435508
 30
0.0
 40
3.0
100
AcDbArc
 50
238.0205278103999
 51
247.0004820323
  0
LINE
  5
5AA
330
1A
100
AcDbEntity
  8
SEIHIN
  6
CONTINUOUS
 62
     3
100
AcDbLine
 10
492.4999975668109
 20
267.6167931051079
 30
0.0
 11
493.3164592368109
 21
254.9042294520079
 31
0.0
  0
LINE
  5
5AB
330
1A
100
AcDbEntity
  8
NOKITOI
  6
PHANTOM
 62
     9
 48
3.0
100
AcDbLine
 10
512.3482108327109
 20
262.8564109001079
 30
0.0
 11
510.286545026511
 21
254.8324075824079
 31
0.0
  0
ARC
  5
5AC
330
1A
100
AcDbEntity
  8
NOKITOI
  6
PHANTOM
 62
     9
 48
3.0
100
AcDbCircle
 10
509.8022745603109
 20
254.9568347320079
 30
0.0
 40
0.5
100
AcDbArc
 50
270.0
 51
345.5902741236
  0
ARC
  5
5AD
330
1A
100
AcDbEntity
  8
NOKITOI
  6
PHANTOM
 62
     9
 48
3.0
100
AcDbCircle
 10
511.4177424484109
 20
263.2534435567079
 30
0.0
 40
1.0
100
AcDbArc
 50
345.5902741236
 51
86.93897020059999
  0
LINE
  5
5AE
330
1A
100
AcDbEntity
  8
NOKITOI
  6
PHANTOM
 62
     9
 48
3.0
100
AcDbLine
 10
506.6746713394109
 20
255.7068347320079
 30
0.0
 11
507.5768815606108
 21
258.1879128401079
 31
0.0
  0
LINE
  5
5AF
330
1A
100
AcDbEntity
  8
NOKITOI
  6
PHANTOM
 62
     9
 48
3.0
100
AcDbLine
 10
510.8022095715109
 20
262.8857882265079
 30
0.0
 11
508.9576685914109
 21
255.7068347320079
 31
0.0
  0
LINE
  5
5B0
330
1A
100
AcDbEntity
  8
NOKITOI
  6
PHANTOM
 62
     9
 48
3.0
100
AcDbLine
 10
508.9576685914109
 20
255.7068347320079
 30
0.0
 11
506.6746713394109
 21
255.7068347320079
 31
0.0
  0
LINE
  5
5B1
330
1A
100
AcDbEntity
  8
SEIHIN
  6
CONTINUOUS
 62
     3
100
AcDbLine
 10
300.5250892924205
 20
413.3634206563162
 30
0.0
 11
300.5250892924205
 21
507.9621829387162
 31
0.0
  0
LINE
  5
5B2
330
1A
100
AcDbEntity
  8
SEIHIN
  6
CONTINUOUS
 62
     3
100
AcDbLine
 10
320.5250892924206
 20
408.4903615854162
 30
0.0
 11
320.5250892924206
 21
512.1451121163162
 31
0.0
  0
LINE
  5
5B3
330
1A
100
AcDbEntity
  8
SEIHIN
  6
CONTINUOUS
 62
     3
100
AcDbLine
 10
302.0042009941227
 20
411.6139640992012
 30
0.0
 11
320.5250892924206
 21
408.4903615854162
 31
0.0
  0
LINE
  5
5B6
330
1A
100
AcDbEntity
  8
SEIHIN
  6
CONTINUOUS
 62
     3
100
AcDbLine
 10
320.5250892924206
 20
512.1451121163162
 30
0.0
 11
350.5250892924205
 21
511.1451121163162
 31
0.0
  0
LINE
  5
5B7
330
1A
100
AcDbEntity
  8
SEIHIN
  6
CONTINUOUS
 62
     3
100
AcDbLine
 10
320.5250892924206
 20
499.8903615854162
 30
0.0
 11
350.5250892924205
 21
499.8903615854162
 31
0.0
  0
LINE
  5
5B8
330
1A
100
AcDbEntity
  8
SEIHIN
  6
CONTINUOUS
 62
     3
100
AcDbLine
 10
320.5250892924206
 20
512.1451121163162
 30
0.0
 11
320.5250892924206
 21
499.8903615854162
 31
0.0
  0
LINE
  5
5B9
330
1A
100
AcDbEntity
  8
SEIHIN
  6
CONTINUOUS
 62
     3
100
AcDbLine
 10
300.5250892924205
 20
507.9621829387162
 30
0.0
 11
320.5250892924206
 21
506.0177368508163
 31
0.0
  0
LINE
  5
5BC
330
1A
100
AcDbEntity
  8
SEIHIN
  6
CONTINUOUS
 62
     3
100
AcDbLine
 10
334.5250892924206
 20
499.8903615854162
 30
0.0
 11
334.5250892924206
 21
507.4903615854163
 31
0.0
  0
LINE
  5
5BD
330
1A
100
AcDbEntity
  8
SEIHIN
  6
CONTINUOUS
 62
     3
100
AcDbLine
 10
334.5250892924206
 20
507.4903615854163
 30
0.0
 11
336.5250892924206
 21
507.4903615854163
 31
0.0
  0
LINE
  5
5BE
330
1A
100
AcDbEntity
  8
SEIHIN
  6
CONTINUOUS
 62
     3
100
AcDbLine
 10
336.5250892924206
 20
507.4903615854163
 30
0.0
 11
336.5250892924206
 21
499.8903615854162
 31
0.0
  0
LINE
  5
5C7
330
1A
100
AcDbEntity
  8
NOKITOI
  6
PHANTOM
 62
     9
 48
3.0
100
AcDbLine
 10
626.190046349611
 20
226.7868347320079
 30
0.0
 11
626.190046349611
 21
223.7868347320079
 31
0.0
  0
LINE
  5
5C8
330
1A
100
AcDbEntity
  8
NOKITOI
  6
PHANTOM
 62
     9
 48
3.0
100
AcDbLine
 10
624.8900463496108
 20
225.0868347320079
 30
0.0
 11
624.8900463496108
 21
228.0868347320079
 31
0.0
  0
ARC
  5
5C9
330
1A
100
AcDbEntity
  8
NOKITOI
  6
PHANTOM
 62
     9
 48
3.0
100
AcDbCircle
 10
626.644796880511
 20
223.0868347320078
 30
0.0
 40
3.7
100
AcDbArc
 50
357.2574457102999
 51
90.0
  0
ARC
  5
5CA
330
1A
100
AcDbEntity
  8
NOKITOI
  6
PHANTOM
 62
     9
 48
3.0
100
AcDbCircle
 10
626.644796880511
 20
223.0868347320078
 30
0.0
 40
5.0
100
AcDbArc
 50
357.2574457102999
 51
90.0
  0
LINE
  5
5CB
330
1A
100
AcDbEntity
  8
CENTER_L
  6
CENTER
 62
     1
 48
5.0
100
AcDbLine
 10
581.463673791711
 20
63.08669438016932
 30
0.0
 11
581.463673791711
 21
169.386834384308
 31
0.0
  0
LINE
  5
5CD
330
1A
100
AcDbEntity
  8
SEIHIN
  6
CONTINUOUS
 62
     3
100
AcDbLine
 10
633.3163839054109
 20
226.5131923563079
 30
0.0
 11
630.3063536705108
 21
163.6775017291079
 31
0.0
  0
ARC
  5
5CF
330
1A
100
AcDbEntity
  8
SEIHIN
  6
CONTINUOUS
 62
     3
100
AcDbCircle
 10
626.644796880511
 20
223.0868347320078
 30
0.0
 40
7.5
100
AcDbArc
 50
357.2574457102999
 51
90.0
  0
LINE
  5
5D0
330
1A
100
AcDbEntity
  8
SEIHIN
  6
CONTINUOUS
 62
     3
100
AcDbLine
 10
624.3900463496109
 20
228.0868347320079
 30
0.0
 11
624.3900463496109
 21
225.5868347320078
 31
0.0
  0
ARC
  5
5D1
330
1A
100
AcDbEntity
  8
SEIHIN
  6
CONTINUOUS
 62
     3
100
AcDbCircle
 10
624.3900463496109
 20
228.0868347320079
 30
0.0
 40
2.5
100
AcDbArc
 50
90.00000728249998
 51
270.0
  0
ARC
  5
5D2
330
1A
100
AcDbEntity
  8
SEIHIN
  6
CONTINUOUS
 62
     3
100
AcDbCircle
 10
626.644796880511
 20
223.0868347320078
 30
0.0
 40
5.0
100
AcDbArc
 50
357.2574457102999
 51
90.0
  0
LINE
  5
5F4
330
1A
100
AcDbEntity
  8
SEIHIN
  6
CONTINUOUS
 62
     3
100
AcDbLine
 10
538.1573756557108
 20
135.5868343843079
 30
0.0
 11
627.102137181311
 21
135.5868343843079
 31
0.0
  0
LINE
  5
60A
330
1A
100
AcDbEntity
  8
NOKITOI
  6
PHANTOM
 62
     9
 48
3.0
100
AcDbLine
 10
627.509560754311
 20
163.8114770409079
 30
0.0
 11
629.889272004511
 21
213.4889846498079
 31
0.0
  0
LINE
  5
60B
330
1A
100
AcDbEntity
  8
NOKITOI
  6
PHANTOM
 62
     9
 48
3.0
100
AcDbLine
 10
631.6390699451107
 20
222.8475931040079
 30
0.0
 11
628.8080717511109
 21
163.7492742176079
 31
0.0
  0
LINE
  5
60C
330
1A
100
AcDbEntity
  8
SEIHIN
  6
CONTINUOUS
 62
     3
100
AcDbLine
 10
631.639882352011
 20
223.3084676102079
 30
0.0
 11
628.786763323211
 21
163.7483666744079
 31
0.0
  0
LINE
  5
60D
330
1A
100
AcDbEntity
  8
SEIHIN
  6
CONTINUOUS
 62
     3
100
AcDbLine
 10
619.8499644304111
 20
186.1825310355079
 30
0.0
 11
618.5370220302108
 21
158.7742872548079
 31
0.0
  0
LINE
  5
60E
330
1A
100
AcDbEntity
  8
SEIHIN
  6
CONTINUOUS
 62
     3
100
AcDbLine
 10
634.1362064774109
 20
222.7279722899079
 30
0.0
 11
630.0987010201108
 21
138.4432894074079
 31
0.0
  0
ARC
  5
616
330
1A
100
AcDbEntity
  8
SEIHIN
  6
CONTINUOUS
 62
     3
100
AcDbCircle
 10
627.102137181311
 20
138.5868343843079
 30
0.0
 40
3.0
100
AcDbArc
 50
270.0
 51
357.2574457102999
  0
ARC
  5
61B
330
1A
100
AcDbEntity
  8
NOKITOI
  6
PHANTOM
 62
     9
 48
3.0
100
AcDbCircle
 10
623.8137986866108
 20
163.9885158456079
 30
0.0
 40
3.7
100
AcDbArc
 50
272.4394137225999
 51
357.2574457102999
  0
ARC
  5
61C
330
1A
100
AcDbEntity
  8
NOKITOI
  6
PHANTOM
 62
     9
 48
3.0
100
AcDbCircle
 10
623.8137986866108
 20
163.9885158456079
 30
0.0
 40
5.0
100
AcDbArc
 50
272.4394137225999
 51
357.2574457102999
  0
ARC
  5
61D
330
1A
100
AcDbEntity
  8
SEIHIN
  6
CONTINUOUS
 62
     3
100
AcDbCircle
 10
623.8137986865108
 20
163.9885158456079
 30
0.0
 40
6.5
100
AcDbArc
 50
272.4394137225999
 51
357.2574457102999
  0
ARC
  5
61E
330
1A
100
AcDbEntity
  8
SEIHIN
  6
CONTINUOUS
 62
     3
100
AcDbCircle
 10
623.8137986865108
 20
163.9885158456079
 30
0.0
 40
7.5
100
AcDbArc
 50
272.4394137225999
 51
357.2574457102999
  0
ARC
  5
621
330
1A
100
AcDbEntity
  8
SEIHIN
  6
CONTINUOUS
 62
     3
100
AcDbCircle
 10
623.7924902587108
 20
163.9876083024079
 30
0.0
 40
5.0
100
AcDbArc
 50
272.4381855922
 51
357.2574457102999
  0
LINE
  5
62F
330
1A
100
AcDbEntity
  8
NOKITOI
  6
PHANTOM
 62
     9
 48
3.0
100
AcDbLine
 10
629.341186121811
 20
214.0105355231079
 30
0.0
 11
620.4072704604109
 21
213.1369658229079
 31
0.0
  0
LINE
  5
630
330
1A
100
AcDbEntity
  8
NOKITOI
  6
PHANTOM
 62
     9
 48
3.0
100
AcDbLine
 10
623.9050556779109
 20
223.7868347320079
 30
0.0
 11
621.599279760411
 21
214.5637310619079
 31
0.0
  0
LINE
  5
631
330
1A
100
AcDbEntity
  8
NOKITOI
  6
PHANTOM
 62
     9
 48
3.0
100
AcDbLine
 10
619.8754410819108
 20
213.7632236954079
 30
0.0
 11
622.8900463496109
 21
225.0868347320079
 31
0.0
  0
LINE
  5
632
330
1A
100
AcDbEntity
  8
NOKITOI
  6
PHANTOM
 62
     9
 48
3.0
100
AcDbLine
 10
621.599279760411
 20
214.5637310619079
 30
0.0
 11
629.9807943553109
 21
215.3995535370079
 31
0.0
  0
LINE
  5
633
330
1A
100
AcDbEntity
  8
SEIHIN
  6
CONTINUOUS
 62
     3
100
AcDbLine
 10
621.8476736562108
 20
188.0868343843079
 30
0.0
 11
628.999410139711
 21
188.0868343843079
 31
0.0
  0
ARC
  5
634
330
1A
100
AcDbEntity
  8
SEIHIN
  6
CONTINUOUS
 62
     3
100
AcDbCircle
 10
621.8476736562108
 20
186.0868343843079
 30
0.0
 40
2.0
100
AcDbArc
 50
90.0
 51
177.2574457102999
  0
ARC
  5
635
330
1A
100
AcDbEntity
  8
NOKITOI
  6
PHANTOM
 62
     9
 48
3.0
100
AcDbCircle
 10
620.3586118842109
 20
213.6345925334079
 30
0.0
 40
0.5
100
AcDbArc
 50
165.0923200672999
 51
275.5847009843999
  0
ARC
  5
636
330
1A
100
AcDbEntity
  8
SEIHIN
  6
CONTINUOUS
 62
     3
100
AcDbCircle
 10
628.999410139711
 20
189.0868343843079
 30
0.0
 40
1.0
100
AcDbArc
 50
270.0
 51
357.2574533454
  0
LINE
  5
637
330
1A
100
AcDbEntity
  8
NOKITOI
  6
PHANTOM
 62
     9
 48
3.0
100
AcDbLine
 10
629.9807943553109
 20
215.3995535370079
 30
0.0
 11
630.3405589483109
 21
222.9097959273079
 31
0.0
  0
ARC
  5
638
330
1A
100
AcDbEntity
  8
NOKITOI
  6
PHANTOM
 62
     9
 48
3.0
100
AcDbCircle
 10
629.3898446981109
 20
213.5129088126079
 30
0.0
 40
0.5
100
AcDbArc
 50
357.2574457104
 51
95.5847009844
  0
LINE
  5
639
330
1A
100
AcDbEntity
  8
NOKITOI
  6
PHANTOM
 62
     9
 48
3.0
100
AcDbLine
 10
626.190046349611
 20
223.7868347320079
 30
0.0
 11
623.9050556779109
 21
223.7868347320079
 31
0.0
  0
LINE
  5
63A
330
1A
100
AcDbEntity
  8
NOKITOI
  6
PHANTOM
 62
     9
 48
3.0
100
AcDbLine
 10
622.8900463496109
 20
225.0868347320079
 30
0.0
 11
624.8900463496108
 21
225.0868347320079
 31
0.0
  0
ARC
  5
647
330
1A
100
AcDbEntity
  8
SEIHIN
  6
CONTINUOUS
 62
     3
100
AcDbCircle
 10
627.3900463496109
 20
228.0868347320079
 30
0.0
 40
5.5
100
AcDbArc
 50
90.00000844889999
 51
180.0
  0
LINE
  5
648
330
1A
100
AcDbEntity
  8
NOKITOI
  6
PHANTOM
 62
     9
 48
3.0
100
AcDbLine
 10
626.644796880511
 20
226.7868347320079
 30
0.0
 11
626.190046349611
 21
226.7868347320079
 31
0.0
  0
LINE
  5
649
330
1A
100
AcDbEntity
  8
NOKITOI
  6
PHANTOM
 62
     9
 48
3.0
100
AcDbLine
 10
624.8900463496108
 20
228.0868347320079
 30
0.0
 11
626.644796880511
 21
228.0868347320079
 31
0.0
  0
LINE
  5
64A
330
1A
100
AcDbEntity
  8
SEIHIN
  6
CONTINUOUS
 62
     3
100
AcDbLine
 10
624.3900460318108
 20
228.0868347320079
 30
0.0
 11
626.644796880511
 21
228.0868347320079
 31
0.0
  0
LINE
  5
64B
330
1A
100
AcDbEntity
  8
SEIHIN
  6
CONTINUOUS
 62
     3
100
AcDbLine
 10
627.390045538611
 20
233.5868347320078
 30
0.0
 11
627.490046349611
 21
233.5868347320078
 31
0.0
  0
ARC
  5
64C
330
1A
100
AcDbEntity
  8
SEIHIN
  6
CONTINUOUS
 62
     3
100
AcDbCircle
 10
627.490046349611
 20
231.5868347320078
 30
0.0
 40
2.0
100
AcDbArc
 50
0.0
 51
90.0
  0
LINE
  5
64D
330
1A
100
AcDbEntity
  8
SEIHIN
  6
CONTINUOUS
 62
     3
100
AcDbLine
 10
629.490046349611
 20
230.0261830774079
 30
0.0
 11
629.490046349611
 21
231.5868347320078
 31
0.0
  0
LINE
  5
64F
330
1A
100
AcDbEntity
  8
SEIHIN
  6
CONTINUOUS
 62
     3
100
AcDbLine
 10
624.3900460318108
 20
230.5868347320079
 30
0.0
 11
626.644796880511
 21
230.5868347320079
 31
0.0
  0
LINE
  5
650
330
1A
100
AcDbEntity
  8
SEIHIN
  6
CONTINUOUS
 62
     3
100
AcDbLine
 10
624.3900463496109
 20
228.0868347320079
 30
0.0
 11
626.644796880511
 21
228.0868347320079
 31
0.0
  0
LINE
  5
903
330
1A
100
AcDbEntity
  8
SEIHIN
  6
CONTINUOUS
 62
     3
100
AcDbLine
 10
320.5250892924206
 20
509.6451121163162
 30
0.0
 11
150.5250892924206
 21
509.6451121163162
 31
0.0
  0
ARC
  5
904
330
1A
100
AcDbEntity
  8
SEIHIN
  6
CONTINUOUS
 62
     3
100
AcDbCircle
 10
237.5250892924205
 20
508.3451121163163
 30
0.0
 40
1.0
100
AcDbArc
 50
90.0
 51
180.0
  0
LINE
  5
905
330
1A
100
AcDbEntity
  8
SEIHIN
  6
CONTINUOUS
 62
     3
100
AcDbLine
 10
236.5250892924206
 20
508.3451121163163
 30
0.0
 11
236.5250892924206
 21
495.4639903847163
 31
0.0
  0
LINE
  5
906
330
1A
100
AcDbEntity
  8
SEIHIN
  6
CONTINUOUS
 62
     3
100
AcDbLine
 10
234.5250892924206
 20
495.4639904521163
 30
0.0
 11
234.5250892924206
 21
508.1237606150276
 31
0.0
  0
ARC
  5
907
330
1A
100
AcDbEntity
  8
SEIHIN
  6
CONTINUOUS
 62
     3
100
AcDbCircle
 10
233.2312108165824
 20
508.0844363656715
 30
0.0
 40
1.294475919754625
100
AcDbArc
 50
358.2591717781203
 51
76.87801227953734
  0
LINE
  5
90A
330
1A
100
AcDbEntity
  8
SEIHIN
  6
CONTINUOUS
 62
     3
100
AcDbLine
 10
234.5250892924206
 20
507.9621829387162
 30
0.0
 11
170.5250892924206
 21
507.9621829387162
 31
0.0
  0
LINE
  5
90F
330
1A
100
AcDbEntity
  8
SUNPOU
  6
PHANTOM
 48
5.0
100
AcDbLine
 10
275.5250892924205
 20
364.1903615854163
 30
0.0
 11
275.5250892924205
 21
509.6451121163162
 31
0.0
  0
LINE
  5
910
330
1A
100
AcDbEntity
  8
SUNPOU
  6
PHANTOM
 48
5.0
100
AcDbLine
 10
195.5250892924203
 20
364.1903615854163
 30
0.0
 11
195.5250892924206
 21
509.6451121163162
 31
0.0
  0
DIMENSION
  5
91D
330
1A
100
AcDbEntity
  8
SUNPOU
100
AcDbDimension
  2
*D1
 10
350.5250892924205
 20
325.68353032202
 30
0.0
 11
313.0250892924205
 21
330.68353032202
 31
0.0
 70
    32
  1
※a<>
  3
STANDARD
100
AcDbAlignedDimension
 13
275.5250892924205
 23
364.1903615854163
 33
0.0
 14
350.5250892924205
 24
362.4903615854162
 34
0.0
100
AcDbRotatedDimension
1001
ACAD
1000
DSTYLE
1002
{
1070
   140
1040
6.0
1070
    74
1070
     0
1070
   172
1070
     1
1070
    73
1070
     0
1070
   272
1070
     2
1070
    77
1070
     3
1070
   173
1070
     1
1070
   147
1040
2.0
1070
    42
1040
6.0
1070
    44
1040
3.0
1070
    43
1040
14.0
1070
   271
1070
     0
1070
   178
1070
     4
1070
   177
1070
     4
1070
   176
1070
     4
1070
   141
1040
150.0
1070
     7
1000
_OPEN
1070
     6
1000
_OPEN
1070
    41
1040
7.0
1002
}
  0
DIMENSION
  5
958
330
1A
100
AcDbEntity
  8
SUNPOU
100
AcDbDimension
  2
*D2
 10
672.1996026573506
 20
230.5868347320079
 30
0.0
 11
667.1996026573506
 21
193.0868345581581
 31
0.0
 70
    32
  3
STANDARD
100
AcDbAlignedDimension
 13
581.463673791711
 23
155.586834384308
 33
0.0
 14
626.644796880511
 24
230.5868347320079
 34
0.0
 50
90.0
100
AcDbRotatedDimension
1001
ACAD
1000
DSTYLE
1002
{
1070
   372
1070
    -1
1070
   371
1070
    -1
1070
    41
1040
7.0
1070
    42
1040
6.0
1070
    43
1040
14.0
1070
    44
1040
3.0
1070
    73
1070
     0
1070
    74
1070
     0
1070
    77
1070
     3
1070
   140
1040
6.0
1070
   141
1040
150.0
1070
   147
1040
2.0
1070
   172
1070
     1
1070
   173
1070
     1
1070
   176
1070
   256
1070
   177
1070
   256
1070
   178
1070
   256
1070
   271
1070
     0
1070
   272
1070
     2
1070
     6
1000
OPEN
1070
     7
1000
OPEN
1002
}
  0
DIMENSION
  5
965
330
1A
100
AcDbEntity
  8
SUNPOU
100
AcDbDimension
  2
*D3
 10
634.1362064774109
 20
301.1862073694874
 30
0.0
 11
558.922747731511
 21
306.1862073694874
 31
0.0
 70
    32
  3
STANDARD
100
AcDbAlignedDimension
 13
483.7092889856109
 23
253.4788108701079
 33
0.0
 14
634.1362064774109
 24
222.7279722899079
 34
0.0
100
AcDbRotatedDimension
1001
ACAD
1000
DSTYLE
1002
{
1070
   372
1070
    -1
1070
   371
1070
    -1
1070
    41
1040
7.0
1070
    42
1040
6.0
1070
    43
1040
14.0
1070
    44
1040
3.0
1070
    73
1070
     0
1070
    74
1070
     0
1070
    77
1070
     3
1070
   140
1040
6.0
1070
   141
1040
150.0
1070
   147
1040
2.0
1070
   172
1070
     1
1070
   173
1070
     1
1070
   176
1070
   256
1070
   177
1070
   256
1070
   178
1070
   256
1070
   271
1070
     0
1070
   272
1070
     2
1070
     6
1000
OPEN
1070
     7
1000
OPEN
1002
}
  0
DIMENSION
  5
972
330
1A
100
AcDbEntity
  8
SUNPOU
100
AcDbDimension
  2
*D4
 10
445.0500684709695
 20
155.5868343843081
 30
0.0
 11
440.0500684709695
 21
213.6750984099081
 31
0.0
 70
    32
  3
STANDARD
100
AcDbAlignedDimension
 13
496.735211894711
 23
271.7633624355079
 33
0.0
 14
581.463673791711
 24
155.586834384308
 34
0.0
 50
90.0
100
AcDbRotatedDimension
1001
ACAD
1000
DSTYLE
1002
{
1070
   372
1070
    -1
1070
   371
1070
    -1
1070
    41
1040
7.0
1070
    42
1040
6.0
1070
    43
1040
14.0
1070
    44
1040
3.0
1070
    73
1070
     0
1070
    74
1070
     0
1070
    77
1070
     3
1070
   140
1040
6.0
1070
   141
1040
150.0
1070
   147
1040
2.0
1070
   172
1070
     1
1070
   173
1070
     1
1070
   176
1070
   256
1070
   177
1070
   256
1070
   178
1070
   256
1070
   271
1070
     0
1070
   272
1070
     2
1070
     6
1000
OPEN
1070
     7
1000
OPEN
1002
}
  0
DIMENSION
  5
983
330
1A
100
AcDbEntity
  8
SUNPOU
100
AcDbDimension
  2
*D5
 10
445.0500684709695
 20
135.5868343843079
 30
0.0
 11
440.0500684709695
 21
145.5868343843081
 31
0.0
 70
    32
  3
STANDARD
100
AcDbAlignedDimension
 13
581.463673791711
 23
155.586834384308
 33
0.0
 14
533.863105420476
 24
135.5868343843079
 34
0.0
 50
90.0
100
AcDbRotatedDimension
1001
ACAD
1000
DSTYLE
1002
{
1070
   372
1070
    -1
1070
   371
1070
    -1
1070
    41
1040
7.0
1070
    42
1040
6.0
1070
    43
1040
14.0
1070
    44
1040
3.0
1070
    73
1070
     0
1070
    74
1070
     0
1070
    77
1070
     3
1070
   140
1040
6.0
1070
   141
1040
150.0
1070
   147
1040
2.0
1070
   172
1070
     1
1070
   173
1070
     1
1070
   176
1070
   256
1070
   177
1070
   256
1070
   178
1070
   256
1070
   271
1070
     0
1070
   272
1070
     2
1070
     6
1000
OPEN
1070
     7
1000
OPEN
1002
}
  0
DIMENSION
  5
9AA
330
1A
100
AcDbEntity
  8
SUNPOU
100
AcDbDimension
  2
*D6
 10
350.5250892924205
 20
309.1095306123388
 30
0.0
 11
235.5250892924205
 21
314.1095306123388
 31
0.0
 70
    32
  3
STANDARD
100
AcDbAlignedDimension
 13
120.5250892924206
 23
271.7633624355079
 33
0.0
 14
350.5250892924205
 24
271.7633624355079
 34
0.0
100
AcDbRotatedDimension
1001
ACAD
1000
DSTYLE
1002
{
1070
   372
1070
    -1
1070
   371
1070
    -1
1070
    41
1040
7.0
1070
    42
1040
6.0
1070
    43
1040
14.0
1070
    44
1040
3.0
1070
    73
1070
     0
1070
    74
1070
     0
1070
    77
1070
     3
1070
   140
1040
6.0
1070
   141
1040
150.0
1070
   147
1040
2.0
1070
   172
1070
     1
1070
   173
1070
     1
1070
   176
1070
   256
1070
   177
1070
   256
1070
   178
1070
   256
1070
   271
1070
     0
1070
   272
1070
     2
1070
     6
1000
OPEN
1070
     7
1000
OPEN
1002
}
  0
LINE
  5
9DA
330
1A
100
AcDbEntity
  8
SEIHIN
100
AcDbLine
 10
299.0250892924206
 20
411.8634206563163
 30
0.0
 11
172.0250892924205
 21
411.8634206563163
 31
0.0
  0
TEXT
  5
9DF
330
1A
100
AcDbEntity
  8
SUNPOU
100
AcDbText
 10
676.296058680618
 20
45.3789568130245
 30
0.0
 40
6.0
  1
※a　軒樋の差込寸法を示す
100
AcDbText
  0
TEXT
  5
9E0
330
1A
100
AcDbEntity
  8
SUNPOU
100
AcDbText
 10
676.296058680618
 20
36.49396567134897
 30
0.0
 40
6.0
  1
※b　角々エルボの差込寸法を示す
100
AcDbText
  0
DIMENSION
  5
A15
330
1A
100
AcDbEntity
  8
SUNPOU
100
AcDbDimension
  2
*D7
 10
275.5250892924205
 20
325.68353032202
 30
0.0
 11
235.5250892924205
 21
330.68353032202
 31
0.0
 70
    32
  3
STANDARD
100
AcDbAlignedDimension
 13
195.5250892924203
 23
364.1903615854163
 33
0.0
 14
275.5250892924205
 24
364.1903615854163
 34
0.0
100
AcDbRotatedDimension
1001
ACAD
1000
DSTYLE
1002
{
1070
   140
1040
6.0
1070
    74
1070
     0
1070
   172
1070
     1
1070
    73
1070
     0
1070
   272
1070
     2
1070
    77
1070
     3
1070
   173
1070
     1
1070
   147
1040
2.0
1070
    42
1040
6.0
1070
    44
1040
3.0
1070
    43
1040
14.0
1070
   271
1070
     0
1070
   178
1070
     4
1070
   177
1070
     4
1070
   176
1070
     4
1070
   141
1040
150.0
1070
     7
1000
_OPEN
1070
     6
1000
_OPEN
1070
    41
1040
7.0
1002
}
  0
LINE
  5
A1C
330
1A
100
AcDbEntity
  8
SEIHIN
100
AcDbLine
 10
347.5250892924206
 20
267.0813587987105
 30
0.0
 11
323.5250892924206
 21
267.0813587987105
 31
0.0
  0
LINE
  5
A21
330
1A
100
AcDbEntity
  8
SEIHIN
100
AcDbLine
 10
147.5250892924206
 20
267.0813587987105
 30
0.0
 11
123.5250892924206
 21
267.0813587987105
 31
0.0
  0
LINE
  5
A24
330
1A
100
AcDbEntity
  8
SEIHIN
  6
CONTINUOUS
 62
     3
100
AcDbLine
 10
331.1826706641206
 20
155.8541670120079
 30
0.0
 11
350.5250892924205
 21
156.5868343843079
 31
0.0
  0
LINE
  5
A25
330
1A
100
AcDbEntity
  8
SEIHIN
  6
CONTINUOUS
 62
     3
100
AcDbLine
 10
331.1826706641206
 20
157.0448841634553
 30
0.0
 11
350.5250892924205
 21
157.7775515357553
 31
0.0
  0
LINE
  5
A26
330
1A
100
AcDbEntity
  8
SEIHIN
  6
CONTINUOUS
 62
     3
100
AcDbLine
 10
332.9829091062251
 20
157.1130750135365
 30
0.0
 11
350.5250892924205
 21
157.7775515357553
 31
0.0
  0
ARC
  5
A27
330
1A
100
AcDbEntity
  8
SEIHIN
  6
CONTINUOUS
 62
     3
100
AcDbCircle
 10
333.891348533326
 20
133.130274138591
 30
0.0
 40
24.0
100
AcDbArc
 50
92.16925758977557
 51
124.9651207736445
  0
LINE
  5
A28
330
1A
100
AcDbEntity
  8
SEIHIN
  6
CONTINUOUS
 62
     3
100
AcDbLine
 10
138.067269478616
 20
157.1130750135365
 30
0.0
 11
120.5250892924206
 21
157.7775515357553
 31
0.0
  0
ARC
  5
A29
330
1A
100
AcDbEntity
  8
SEIHIN
  6
CONTINUOUS
 62
     3
100
AcDbCircle
 10
137.1588300515151
 20
133.130274138591
 30
0.0
 40
24.0
100
AcDbArc
 50
55.03487922635541
 51
87.83074241022445
  0
LINE
  5
A2C
330
1A
100
AcDbEntity
  8
CENTER_L
  6
CENTER
 62
     1
 48
5.0
100
AcDbLine
 10
157.5250892924206
 20
459.4639890275163
 30
0.0
 11
110.5250892924205
 21
459.4639890275162
 31
0.0
  0
LINE
  5
A3B
330
1A
100
AcDbEntity
  8
SEIHIN
  6
CONTINUOUS
 62
     3
 48
5.0
100
AcDbLine
 10
250.8955154413599
 20
487.4639890275163
 30
0.0
 11
220.1546631434812
 21
487.4639890275163
 31
0.0
  0
LINE
  5
A3C
330
1A
100
AcDbEntity
  8
SEIHIN
  6
CONTINUOUS
 62
     3
 48
5.0
100
AcDbLine
 10
250.8955154413599
 20
439.4639890275162
 30
0.0
 11
220.1546631434812
 21
439.4639890275162
 31
0.0
  0
ARC
  5
B00
330
1A
100
AcDbEntity
  8
SEIHIN
  6
CONTINUOUS
 62
     3
 48
5.0
100
AcDbCircle
 10
173.221154310434
 20
104.1503343843566
 30
0.0
 40
100.0000189999999
100
AcDbArc
 50
346.665424
 51
354.758035
  0
LINE
  5
B02
330
1A
100
AcDbEntity
  8
SEIHIN
  6
CONTINUOUS
 62
     3
 48
5.0
100
AcDbLine
 10
203.525054310434
 20
135.5869343843566
 30
0.0
 11
207.247254310434
 21
95.01443438435661
 31
0.0
  0
LINE
  5
B04
330
1A
100
AcDbEntity
  8
SEIHIN
  6
CONTINUOUS
 62
     3
 48
5.0
100
AcDbLine
 10
200.525054310434
 20
81.08693438435665
 30
0.0
 11
270.525183800601
 21
81.08673438398666
 31
0.0
  0
LINE
  5
B05
330
1A
100
AcDbEntity
  8
SEIHIN
  6
CONTINUOUS
 62
     3
 48
5.0
100
AcDbLine
 10
194.525054310434
 20
135.5869343843566
 30
0.0
 11
198.247254310434
 21
95.01443438435661
 31
0.0
  0
ARC
  5
B06
330
1A
100
AcDbEntity
  8
SEIHIN
  6
CONTINUOUS
 62
     3
 48
5.0
100
AcDbCircle
 10
297.8290543104339
 20
104.1503343843566
 30
0.0
 40
99.99997100000001
100
AcDbArc
 50
185.241794
 51
193.3344079999999
  0
LINE
  5
B09
330
1A
100
AcDbEntity
  8
SEIHIN
  6
CONTINUOUS
 62
     3
 48
5.0
100
AcDbLine
 10
267.5250543104339
 20
135.5869343843566
 30
0.0
 11
263.8029543104339
 21
95.01443438435661
 31
0.0
  0
ARC
  5
B0C
330
1A
100
AcDbEntity
  8
SEIHIN
  6
CONTINUOUS
 62
     3
 48
5.0
100
AcDbCircle
 10
306.8290543104339
 20
104.1503343843566
 30
0.0
 40
99.99997100000001
100
AcDbArc
 50
185.241794
 51
193.3344079999999
  0
LINE
  5
B0D
330
1A
100
AcDbEntity
  8
SEIHIN
  6
CONTINUOUS
 62
     3
 48
5.0
100
AcDbLine
 10
206.3246543104339
 20
75.08693438435665
 30
0.0
 11
264.725254310434
 21
75.08673438367168
 31
0.0
  0
LINE
  5
B0E
330
1A
100
AcDbEntity
  8
SEIHIN
  6
CONTINUOUS
 62
     3
 48
5.0
100
AcDbLine
 10
206.3246543104339
 20
75.08693438435665
 30
0.0
 11
206.3246543104339
 21
81.08683438435662
 31
0.0
  0
ARC
  5
B0F
330
1A
100
AcDbEntity
  8
SEIHIN
  6
CONTINUOUS
 62
     3
 48
5.0
100
AcDbCircle
 10
164.221154310434
 20
104.1503343843566
 30
0.0
 40
100.000031
100
AcDbArc
 50
346.665369
 51
354.758035
  0
LINE
  5
B10
330
1A
100
AcDbEntity
  8
SEIHIN
  6
CONTINUOUS
 62
     3
 48
5.0
100
AcDbLine
 10
264.725254310434
 20
75.08693438435665
 30
0.0
 11
264.725254310434
 21
81.08683438435662
 31
0.0
  0
LINE
  5
B11
330
1A
100
AcDbEntity
  8
SEIHIN
  6
CONTINUOUS
 62
     3
 48
5.0
100
AcDbLine
 10
276.5250543104339
 20
135.5869343843566
 30
0.0
 11
272.8029543104339
 21
95.01443438435661
 31
0.0
  0
DIMENSION
  5
B15
330
1A
100
AcDbEntity
  8
SUNPOU
 48
5.0
100
AcDbDimension
  2
*D8
 10
651.897847688537
 20
81.08653636008677
 30
0.0
 11
646.897847688537
 21
53.18653636008686
 31
0.0
 70
    32
  1
※b <>
  3
STANDARD
100
AcDbAlignedDimension
 13
618.3028581080209
 23
91.08683438430796
 33
0.0
 14
616.4637686773212
 24
81.08653636008677
 34
0.0
 50
90.0
100
AcDbRotatedDimension
1001
ACAD
1000
DSTYLE
1002
{
1070
   372
1070
    -1
1070
   371
1070
    -1
1070
    41
1040
7.0
1070
    42
1040
6.0
1070
    43
1040
14.0
1070
    44
1040
3.0
1070
    73
1070
     0
1070
    74
1070
     0
1070
    77
1070
     3
1070
   140
1040
6.0
1070
   141
1040
150.0
1070
   147
1040
2.0
1070
   172
1070
     1
1070
   173
1070
     1
1070
   176
1070
   256
1070
   177
1070
   256
1070
   178
1070
   256
1070
   271
1070
     0
1070
   272
1070
     2
1070
     6
1000
OPEN
1070
     7
1000
OPEN
1002
}
  0
DIMENSION
  5
B16
330
1A
100
AcDbEntity
  8
SUNPOU
100
AcDbDimension
  2
*D9
 10
624.9235419586557
 20
38.6008156095877
 30
0.0
 11
578.4436436979421
 21
43.6008156095877
 31
0.0
 70
    32
  3
STANDARD
100
AcDbAlignedDimension
 13
531.9637454372286
 23
135.5868343843079
 33
0.0
 14
624.9235419586557
 24
135.5868343843079
 34
0.0
100
AcDbRotatedDimension
1001
ACAD
1000
DSTYLE
1002
{
1070
   372
1070
    -1
1070
   371
1070
    -1
1070
    41
1040
7.0
1070
    42
1040
6.0
1070
    43
1040
14.0
1070
    44
1040
3.0
1070
    73
1070
     0
1070
    74
1070
     0
1070
    77
1070
     3
1070
   140
1040
6.0
1070
   141
1040
150.0
1070
   147
1040
2.0
1070
   172
1070
     1
1070
   173
1070
     1
1070
   176
1070
   256
1070
   177
1070
   256
1070
   178
1070
   256
1070
   271
1070
     0
1070
   272
1070
     2
1070
     6
1000
OPEN
1070
     7
1000
OPEN
1002
}
  0
DIMENSION
  5
B17
330
1A
100
AcDbEntity
  8
SUNPOU
100
AcDbDimension
  2
*D10
 10
616.4637686773212
 20
53.29774641279868
 30
0.0
 11
581.4637193030671
 21
58.29774641279868
 31
0.0
 70
    32
  1
□<>
  3
STANDARD
100
AcDbAlignedDimension
 13
546.463669928813
 23
81.086834384308
 33
0.0
 14
616.4637686773212
 24
81.08653636008677
 34
0.0
100
AcDbRotatedDimension
1001
ACAD
1000
DSTYLE
1002
{
1070
   372
1070
    -1
1070
   371
1070
    -1
1070
    41
1040
7.0
1070
    42
1040
6.0
1070
    43
1040
14.0
1070
    44
1040
3.0
1070
    73
1070
     0
1070
    74
1070
     0
1070
    77
1070
     3
1070
   140
1040
6.0
1070
   141
1040
150.0
1070
   147
1040
2.0
1070
   172
1070
     1
1070
   173
1070
     1
1070
   176
1070
   256
1070
   177
1070
   256
1070
   178
1070
   256
1070
   271
1070
     0
1070
   272
1070
     2
1070
     6
1000
OPEN
1070
     7
1000
OPEN
1002
}
  0
DIMENSION
  5
B19
330
1A
100
AcDbEntity
  8
SUNPOU
 48
5.0
100
AcDbDimension
  2
*D11
 10
445.089923637645
 20
81.08683438430801
 30
0.0
 11
445.089923637645
 21
108.3368228843079
 31
0.0
 70
   160
  3
STANDARD
100
AcDbAlignedDimension
 13
533.4062737917109
 23
135.5868113843079
 33
0.0
 14
546.463669928813
 24
81.086834384308
 34
0.0
 50
90.0
100
AcDbRotatedDimension
1001
ACAD
1000
DSTYLE
1002
{
1070
   372
1070
    -1
1070
   371
1070
    -1
1070
    41
1040
7.0
1070
    42
1040
6.0
1070
    43
1040
14.0
1070
    44
1040
3.0
1070
    73
1070
     0
1070
    74
1070
     0
1070
    77
1070
     3
1070
   140
1040
6.0
1070
   141
1040
150.0
1070
   147
1040
2.0
1070
   172
1070
     1
1070
   173
1070
     1
1070
   176
1070
   256
1070
   177
1070
   256
1070
   178
1070
   256
1070
   271
1070
     0
1070
   272
1070
     2
1070
     6
1000
OPEN
1070
     7
1000
OPEN
1002
}
  0
LINE
  5
B22
330
1A
100
AcDbEntity
  8
SEIHIN
  6
CONTINUOUS
 62
     3
 48
5.0
100
AcDbLine
 10
540.4634737917108
 20
135.5869343843079
 30
0.0
 11
544.1858737917109
 21
95.01443438430801
 31
0.0
  0
LINE
  5
B23
330
1A
100
AcDbEntity
  8
SEIHIN
  6
CONTINUOUS
 62
     3
 48
5.0
100
AcDbLine
 10
549.4634737917108
 20
135.5869343843079
 30
0.0
 11
553.1858737917109
 21
95.01443438430801
 31
0.0
  0
LINE
  5
B24
330
1A
100
AcDbEntity
  8
SEIHIN
  6
CONTINUOUS
 62
     3
 48
5.0
100
AcDbLine
 10
546.4634737917108
 20
81.08683438430796
 30
0.0
 11
616.4638393170061
 21
81.08683438430796
 31
0.0
  0
ARC
  5
B25
330
1A
100
AcDbEntity
  8
SEIHIN
  6
CONTINUOUS
 62
     3
 48
5.0
100
AcDbCircle
 10
643.7676737917108
 20
104.150334384308
 30
0.0
 40
99.99997100000001
100
AcDbArc
 50
185.241794
 51
193.3344079999999
  0
ARC
  5
B26
330
1A
100
AcDbEntity
  8
SEIHIN
  6
CONTINUOUS
 62
     3
 48
5.0
100
AcDbCircle
 10
652.7677737917108
 20
104.150334384308
 30
0.0
 40
99.999937
100
AcDbArc
 50
185.241857
 51
193.3344639999999
  0
LINE
  5
B27
330
1A
100
AcDbEntity
  8
SEIHIN
  6
CONTINUOUS
 62
     3
 48
5.0
100
AcDbLine
 10
552.2632737917108
 20
75.086934384308
 30
0.0
 11
610.6641737917109
 21
75.08673438122571
 31
0.0
  0
LINE
  5
B28
330
1A
100
AcDbEntity
  8
SEIHIN
  6
CONTINUOUS
 62
     3
 48
5.0
100
AcDbLine
 10
552.2632737917108
 20
75.086934384308
 30
0.0
 11
552.2632737917108
 21
81.08683438430796
 31
0.0
  0
LINE
  5
B2C
330
1A
100
AcDbEntity
  8
SEIHIN
  6
CONTINUOUS
 62
     3
 48
5.0
100
AcDbLine
 10
613.4639737917109
 20
135.5869343843079
 30
0.0
 11
609.7415737917108
 21
95.01443438430801
 31
0.0
  0
LINE
  5
B2D
330
1A
100
AcDbEntity
  8
SEIHIN
  6
CONTINUOUS
 62
     3
 48
5.0
100
AcDbLine
 10
622.4639737917109
 20
135.5869343843079
 30
0.0
 11
618.7415737917108
 21
95.01443438430801
 31
0.0
  0
ARC
  5
B2E
330
1A
100
AcDbEntity
  8
SEIHIN
  6
CONTINUOUS
 62
     3
 48
5.0
100
AcDbCircle
 10
510.1596737917109
 20
104.150334384308
 30
0.0
 40
99.999982
100
AcDbArc
 50
346.6653549999999
 51
354.758035
  0
LINE
  5
B2F
330
1A
100
AcDbEntity
  8
SEIHIN
  6
CONTINUOUS
 62
     3
 48
5.0
100
AcDbLine
 10
610.6641737917109
 20
75.086934384308
 30
0.0
 11
610.6641737917109
 21
81.08683438430796
 31
0.0
  0
ARC
  5
B30
330
1A
100
AcDbEntity
  8
SEIHIN
  6
CONTINUOUS
 62
     3
 48
5.0
100
AcDbCircle
 10
519.1597737917109
 20
104.150334384308
 30
0.0
 40
100.000031
100
AcDbArc
 50
346.665369
 51
354.758035
  0
LINE
  5
C12
330
1A
100
AcDbEntity
  8
SEIHIN
100
AcDbLine
 10
320.5250892924206
 20
408.4903615854162
 30
0.0
 11
350.5250892924205
 21
408.4903615854162
 31
0.0
  0
LINE
  5
C13
330
1A
100
AcDbEntity
  8
SEIHIN
100
AcDbLine
 10
150.5250892924206
 20
408.4903615854162
 30
0.0
 11
120.5250892924206
 21
408.4903615854162
 31
0.0
  0
DIMENSION
  5
C20
330
1A
100
AcDbEntity
  8
SUNPOU
100
AcDbDimension
  2
*D12
 10
399.2877971660318
 20
75.08673438367161
 30
0.0
 11
394.2877971660318
 21
173.4250484095898
 31
0.0
 70
    32
  3
STANDARD
100
AcDbAlignedDimension
 13
350.5250892924205
 23
271.7633624355079
 33
0.0
 14
264.725254310434
 24
75.08673438367165
 34
0.0
 50
90.0
100
AcDbRotatedDimension
1001
ACAD
1000
DSTYLE
1002
{
1070
   372
1070
    -1
1070
   371
1070
    -1
1070
    41
1040
7.0
1070
    42
1040
6.0
1070
    43
1040
14.0
1070
    44
1040
3.0
1070
    73
1070
     0
1070
    74
1070
     0
1070
    77
1070
     3
1070
   140
1040
6.0
1070
   141
1040
150.0
1070
   147
1040
2.0
1070
   172
1070
     1
1070
   173
1070
     1
1070
   176
1070
   256
1070
   177
1070
   256
1070
   178
1070
   256
1070
   271
1070
     0
1070
   272
1070
     2
1070
     6
1000
OPEN
1070
     7
1000
OPEN
1002
}
  0
DIMENSION
  5
C32
330
1A
100
AcDbEntity
  8
SUNPOU
100
AcDbDimension
  2
*D13
 10
350.5250892924205
 20
422.252895995741
 30
0.0
 11
335.5250892924205
 21
427.252895995741
 31
0.0
 70
    32
  3
STANDARD
100
AcDbAlignedDimension
 13
320.5250892924206
 23
408.4903615854162
 33
0.0
 14
350.5250892924205
 24
408.4903615854162
 34
0.0
100
AcDbRotatedDimension
1001
ACAD
1000
DSTYLE
1002
{
1070
   372
1070
    -1
1070
   371
1070
    -1
1070
    41
1040
7.0
1070
    42
1040
6.0
1070
    43
1040
14.0
1070
    44
1040
3.0
1070
    73
1070
     0
1070
    74
1070
     0
1070
    77
1070
     3
1070
   140
1040
6.0
1070
   141
1040
150.0
1070
   147
1040
2.0
1070
   172
1070
     1
1070
   173
1070
     1
1070
   176
1070
   256
1070
   177
1070
   256
1070
   178
1070
   256
1070
   271
1070
     0
1070
   272
1070
     2
1070
     6
1000
OPEN
1070
     7
1000
OPEN
1002
}
  0
LINE
  5
C3C
330
1A
100
AcDbEntity
  8
SEIHIN
100
AcDbLine
 10
520.8415139792472
 20
182.6111012321977
 30
0.0
 11
518.2771794422019
 21
173.5525291677863
 31
0.0
  0
ARC
  5
C3D
330
1A
100
AcDbEntity
  8
SEIHIN
  6
CONTINUOUS
 62
     3
100
AcDbCircle
 10
517.4713764300641
 20
173.6374495884603
 30
0.0
 40
0.5
100
AcDbArc
 50
206.8989378625504
 51
278.9726266147945
  0
TEXT
  5
EDF
330
1A
100
AcDbEntity
  8
SUNPOU
 62
     4
100
AcDbText
 10
533.664971563981
 20
368.1809830233602
 30
0.0
 40
8.0
  1
洋風じょうご用ストッパー２個入り
100
AcDbText
  0
LINE
  5
EE0
330
1A
100
AcDbEntity
  8
SEIHIN
  6
CONTINUOUS
 62
     3
 48
5.0
100
AcDbLine
 10
650.7025392521077
 20
448.7007185376363
 30
0.0
 11
659.1314392521078
 21
448.7007185376363
 31
0.0
  0
LINE
  5
EE1
330
1A
100
AcDbEntity
  8
SEIHIN
  6
HIDDEN
 62
     6
 48
5.0
100
AcDbLine
 10
659.4358392521078
 20
446.7007185376363
 30
0.0
 11
652.7025392521077
 21
446.7007185376363
 31
0.0
  0
LINE
  5
EE2
330
1A
100
AcDbEntity
  8
SEIHIN
  6
CONTINUOUS
 62
     3
 48
5.0
100
AcDbLine
 10
652.2025392521077
 20
431.7007185376363
 30
0.0
 11
654.2025392521077
 21
431.7007185376363
 31
0.0
  0
ARC
  5
EE3
330
1A
100
AcDbEntity
  8
SEIHIN
  6
HIDDEN
 62
     6
 48
5.0
100
AcDbCircle
 10
653.7025392521077
 20
433.2007185376363
 30
0.0
 40
1.5
100
AcDbArc
 50
180.0
 51
270.0
  0
DIMENSION
  5
EE4
330
1A
100
AcDbEntity
  8
SUNPOU
  6
CONTINUOUS
 48
5.0
100
AcDbDimension
  2
*D14
 10
635.8154949567822
 20
431.7007185376364
 30
0.0
 11
630.8154949567821
 21
438.1274952329331
 31
0.0
 70
    32
  3
STANDARD
100
AcDbAlignedDimension
 13
654.3489858615145
 23
444.5542719282295
 33
0.0
 14
654.2025392521077
 24
431.7007185376363
 34
0.0
 50
90.0
100
AcDbRotatedDimension
1001
ACAD
1000
DSTYLE
1002
{
1070
   287
1070
     5
1070
    41
1040
7.0
1070
    42
1040
6.0
1070
    43
1040
14.0
1070
    44
1040
3.0
1070
    73
1070
     0
1070
    74
1070
     0
1070
    77
1070
     3
1070
   140
1040
6.0
1070
   141
1040
150.0
1070
   147
1040
2.0
1070
   172
1070
     1
1070
   173
1070
     1
1070
   176
1070
   256
1070
   177
1070
   256
1070
   178
1070
   256
1070
   271
1070
     0
1070
   272
1070
     0
1070
   279
1070
     2
1070
   341
1005
6D
1070
     6
1000
OPEN
1070
     7
1000
OPEN
1070
   371
1070
    -1
1070
   372
1070
    -1
1002
}
  0
DIMENSION
  5
EE5
330
1A
100
AcDbEntity
  8
SUNPOU
100
AcDbDimension
  2
*D15
 10
659.6314332521077
 20
459.1084185376363
 30
0.0
 11
654.9169862521077
 21
464.1084185376363
 31
0.0
 70
    32
  3
STANDARD
100
AcDbAlignedDimension
 13
650.2025392521077
 23
448.2007185376363
 33
0.0
 14
659.6314332521077
 24
448.2007185376363
 34
0.0
100
AcDbRotatedDimension
1001
ACAD
1000
DSTYLE
1002
{
1070
   287
1070
     5
1070
    41
1040
7.0
1070
    42
1040
6.0
1070
    43
1040
14.0
1070
    44
1040
3.0
1070
    73
1070
     0
1070
    74
1070
     0
1070
    77
1070
     3
1070
   140
1040
6.0
1070
   141
1040
150.0
1070
   147
1040
2.0
1070
   172
1070
     1
1070
   173
1070
     1
1070
   176
1070
   256
1070
   177
1070
   256
1070
   178
1070
   256
1070
   271
1070
     0
1070
   272
1070
     0
1070
   279
1070
     2
1070
   341
1005
6D
1070
     6
1000
OPEN
1070
     7
1000
OPEN
1070
   371
1070
    -1
1070
   372
1070
    -1
1002
}
  0
DIMENSION
  5
EE6
330
1A
100
AcDbEntity
  8
SUNPOU
100
AcDbDimension
  2
*D16
 10
655.9307392521077
 20
416.2053511739165
 30
0.0
 11
655.0666392521077
 21
401.2053511739164
 31
0.0
 70
    32
  3
STANDARD
100
AcDbAlignedDimension
 13
654.2025392521077
 23
431.7007185376363
 33
0.0
 14
655.9307392521077
 24
444.2306185376363
 34
0.0
100
AcDbRotatedDimension
1001
ACAD
1000
DSTYLE
1002
{
1070
   287
1070
     5
1070
    41
1040
7.0
1070
    42
1040
6.0
1070
    43
1040
14.0
1070
    44
1040
3.0
1070
    73
1070
     0
1070
    74
1070
     0
1070
    77
1070
     3
1070
   140
1040
6.0
1070
   141
1040
150.0
1070
   147
1040
2.0
1070
   172
1070
     1
1070
   173
1070
     1
1070
   176
1070
   256
1070
   177
1070
   256
1070
   178
1070
   256
1070
   271
1070
     0
1070
   272
1070
     0
1070
   279
1070
     2
1070
   341
1005
6D
1070
     6
1000
OPEN
1070
     7
1000
OPEN
1070
   371
1070
    -1
1070
   372
1070
    -1
1002
}
  0
LINE
  5
EE7
330
1A
100
AcDbEntity
  8
CENTER_L
  6
CENTER
 62
     1
 48
5.0
100
AcDbLine
 10
561.0607558201422
 20
415.0055894537352
 30
0.0
 11
561.0607558201422
 21
392.005589453691
 31
0.0
  0
ARC
  5
EE8
330
1A
100
AcDbEntity
  8
SEIHIN
  6
CONTINUOUS
 62
     3
 48
5.0
100
AcDbCircle
 10
586.5608558201422
 20
407.0056394538198
 30
0.0
 40
1.0
100
AcDbArc
 50
0.0
 51
180.0
  0
LINE
  5
EE9
330
1A
100
AcDbEntity
  8
SEIHIN
  6
CONTINUOUS
 62
     3
 48
5.0
100
AcDbLine
 10
587.5608558201422
 20
399.5056394538199
 30
0.0
 11
534.5607558201423
 21
399.5056394538199
 31
0.0
  0
LINE
  5
EEA
330
1A
100
AcDbEntity
  8
SEIHIN
  6
CONTINUOUS
 62
     3
 48
5.0
100
AcDbLine
 10
587.5608558201422
 20
402.0056394538198
 30
0.0
 11
534.5607558201423
 21
402.0056394538198
 31
0.0
  0
LINE
  5
EEB
330
1A
100
AcDbEntity
  8
SEIHIN
  6
CONTINUOUS
 62
     3
 48
5.0
100
AcDbLine
 10
587.5608558201422
 20
404.0056394538198
 30
0.0
 11
534.5607558201423
 21
404.0056394538198
 31
0.0
  0
LINE
  5
EEC
330
1A
100
AcDbEntity
  8
SEIHIN
100
AcDbLine
 10
534.5607558201423
 20
399.005537493022
 30
0.0
 11
587.5608558201422
 21
399.005641414583
 31
0.0
  0
LINE
  5
EED
330
1A
100
AcDbEntity
  8
SEIHIN
  6
CONTINUOUS
 62
     3
 48
5.0
100
AcDbLine
 10
585.5608558201423
 20
406.0056394538198
 30
0.0
 11
536.5607558201422
 21
406.0056394538198
 31
0.0
  0
LINE
  5
EEE
330
1A
100
AcDbEntity
  8
SEIHIN
  6
CONTINUOUS
 62
     3
 48
5.0
100
AcDbLine
 10
536.5607558201422
 20
406.0056394538198
 30
0.0
 11
536.5607558201422
 21
407.0055394538199
 31
0.0
  0
ARC
  5
EEF
330
1A
100
AcDbEntity
  8
SEIHIN
  6
CONTINUOUS
 62
     3
 48
5.0
100
AcDbCircle
 10
535.5607558201422
 20
407.0055394538199
 30
0.0
 40
1.0
100
AcDbArc
 50
0.0
 51
180.0
  0
LINE
  5
EF0
330
1A
100
AcDbEntity
  8
SEIHIN
  6
CONTINUOUS
 62
     3
 48
5.0
100
AcDbLine
 10
534.5607558201423
 20
399.005537493022
 30
0.0
 11
534.5607558201423
 21
407.0055394538199
 31
0.0
  0
LINE
  5
EF1
330
1A
100
AcDbEntity
  8
SEIHIN
  6
CONTINUOUS
 62
     3
 48
5.0
100
AcDbLine
 10
585.5608558201423
 20
406.0056394538198
 30
0.0
 11
585.5608558201423
 21
407.0056394538198
 31
0.0
  0
LINE
  5
EF2
330
1A
100
AcDbEntity
  8
SEIHIN
  6
CONTINUOUS
 62
     3
 48
5.0
100
AcDbLine
 10
587.5608558201422
 20
399.005641414583
 30
0.0
 11
587.5608558201422
 21
407.0056394538198
 31
0.0
  0
ARC
  5
EF5
330
1A
100
AcDbEntity
  8
SEIHIN
  6
CONTINUOUS
 62
     3
 48
5.0
100
AcDbCircle
 10
586.5608558201422
 20
447.7007185376363
 30
0.0
 40
1.0
100
AcDbArc
 50
0.0
 51
180.0
  0
ARC
  5
EF6
330
1A
100
AcDbEntity
  8
SEIHIN
  6
CONTINUOUS
 62
     3
 48
5.0
100
AcDbCircle
 10
586.5608558201422
 20
432.7007185376364
 30
0.0
 40
1.0
100
AcDbArc
 50
180.0
 51
0.0
  0
DIMENSION
  5
EF7
330
1A
100
AcDbEntity
  8
SUNPOU
 48
5.0
100
AcDbDimension
  2
*D17
 10
606.616315650021
 20
431.7032598378055
 30
0.0
 11
601.6163156500209
 21
439.201989187721
 31
0.0
 70
    32
  3
STANDARD
100
AcDbAlignedDimension
 13
585.5608558201423
 23
446.7007185376363
 33
0.0
 14
586.6321028701301
 24
431.7032598378055
 34
0.0
 50
90.0
100
AcDbRotatedDimension
1001
ACAD
1000
DSTYLE
1002
{
1070
   287
1070
     5
1070
    41
1040
7.0
1070
    42
1040
6.0
1070
    43
1040
14.0
1070
    44
1040
3.0
1070
    73
1070
     0
1070
    74
1070
     0
1070
    77
1070
     3
1070
   140
1040
6.0
1070
   141
1040
150.0
1070
   147
1040
2.0
1070
   172
1070
     1
1070
   173
1070
     1
1070
   176
1070
   256
1070
   177
1070
   256
1070
   178
1070
   256
1070
   271
1070
     0
1070
   272
1070
     0
1070
   279
1070
     2
1070
   341
1005
6D
1070
     6
1000
OPEN
1070
     7
1000
OPEN
1070
   371
1070
    -1
1070
   372
1070
    -1
1002
}
  0
LINE
  5
EFB
330
1A
100
AcDbEntity
  8
SEIHIN
  6
CONTINUOUS
 62
     3
 48
5.0
100
AcDbLine
 10
561.0607558201422
 20
431.7006185376364
 30
0.0
 11
535.5607558201422
 21
431.7006185376364
 31
0.0
  0
LINE
  5
EFC
330
1A
100
AcDbEntity
  8
SEIHIN
  6
CONTINUOUS
 62
     3
 48
5.0
100
AcDbLine
 10
536.5607558201422
 20
446.7006185376363
 30
0.0
 11
561.0607558201422
 21
446.7007185376363
 31
0.0
  0
LINE
  5
EFD
330
1A
100
AcDbEntity
  8
SEIHIN
  6
CONTINUOUS
 62
     3
 48
5.0
100
AcDbLine
 10
534.5607558201423
 20
432.7006185376363
 30
0.0
 11
534.5607558201423
 21
447.7006185376364
 31
0.0
  0
LINE
  5
EFE
330
1A
100
AcDbEntity
  8
SEIHIN
  6
CONTINUOUS
 62
     3
 48
5.0
100
AcDbLine
 10
536.5607558201422
 20
432.7006185376363
 30
0.0
 11
536.5607558201422
 21
447.7006185376364
 31
0.0
  0
ARC
  5
EFF
330
1A
100
AcDbEntity
  8
SEIHIN
  6
CONTINUOUS
 62
     3
 48
5.0
100
AcDbCircle
 10
535.5607558201422
 20
432.7006185376363
 30
0.0
 40
1.0
100
AcDbArc
 50
180.0
 51
0.0
  0
ARC
  5
F00
330
1A
100
AcDbEntity
  8
SEIHIN
  6
CONTINUOUS
 62
     3
 48
5.0
100
AcDbCircle
 10
535.5607558201422
 20
447.7006185376364
 30
0.0
 40
1.0
100
AcDbArc
 50
0.0
 51
180.0
  0
LINE
  5
F01
330
1A
100
AcDbEntity
  8
CENTER_L
  6
CENTER
 62
     1
 48
5.0
100
AcDbLine
 10
561.0607558201422
 20
451.1815185376363
 30
0.0
 11
561.0607558201422
 21
426.4491185376363
 31
0.0
  0
LINE
  5
F02
330
1A
100
AcDbEntity
  8
SEIHIN
  6
CONTINUOUS
 62
     3
 48
5.0
100
AcDbLine
 10
561.0608558201422
 20
431.7007185376363
 30
0.0
 11
586.5608558201422
 21
431.7007185376363
 31
0.0
  0
LINE
  5
F03
330
1A
100
AcDbEntity
  8
SEIHIN
  6
CONTINUOUS
 62
     3
 48
5.0
100
AcDbLine
 10
585.5608558201423
 20
446.7007185376363
 30
0.0
 11
561.0608558201422
 21
446.7007185376363
 31
0.0
  0
LINE
  5
F04
330
1A
100
AcDbEntity
  8
SEIHIN
  6
CONTINUOUS
 62
     3
 48
5.0
100
AcDbLine
 10
585.5608558201423
 20
432.7007185376364
 30
0.0
 11
585.5608558201423
 21
447.7007185376363
 31
0.0
  0
LINE
  5
F09
330
1A
100
AcDbEntity
  8
SEIHIN
  6
CONTINUOUS
 62
     3
 48
5.0
100
AcDbLine
 10
587.5608558201422
 20
432.7007185376364
 30
0.0
 11
587.5608558201422
 21
447.7007185376363
 31
0.0
  0
LINE
  5
F0A
330
1A
100
AcDbEntity
  8
SEIHIN
  6
CONTINUOUS
 62
     3
 48
5.0
100
AcDbLine
 10
650.2025392521077
 20
448.2007185376363
 30
0.0
 11
650.2025392521077
 21
433.7007185376363
 31
0.0
  0
LINE
  5
F0B
330
1A
100
AcDbEntity
  8
SEIHIN
  6
HIDDEN
 62
     6
 48
5.0
100
AcDbLine
 10
652.2025392521077
 20
433.2007185376363
 30
0.0
 11
652.2025392521077
 21
446.2007185376363
 31
0.0
  0
ARC
  5
F0C
330
1A
100
AcDbEntity
  8
SEIHIN
  6
CONTINUOUS
 62
     3
 48
5.0
100
AcDbCircle
 10
652.2025392521077
 20
433.7007185376363
 30
0.0
 40
2.0
100
AcDbArc
 50
180.0
 51
270.0
  0
ARC
  5
F0D
330
1A
100
AcDbEntity
  8
SEIHIN
  6
CONTINUOUS
 62
     3
 48
5.0
100
AcDbCircle
 10
650.7025392521077
 20
448.2007185376363
 30
0.0
 40
0.5
100
AcDbArc
 50
90.0
 51
180.0
  0
ARC
  5
F0E
330
1A
100
AcDbEntity
  8
SEIHIN
  6
HIDDEN
 62
     6
 48
5.0
100
AcDbCircle
 10
652.7025392521077
 20
446.2007185376363
 30
0.0
 40
0.5
100
AcDbArc
 50
90.0
 51
180.0
  0
DIMENSION
  5
F0F
330
1A
100
AcDbEntity
  8
SUNPOU
  6
CONTINUOUS
 48
5.0
100
AcDbDimension
  2
*D18
 10
678.8031736522355
 20
439.7007185376363
 30
0.0
 11
688.194825950989
 21
438.9157633183158
 31
0.0
 70
   160
  1
差込み寸法<>
  3
STANDARD
100
AcDbAlignedDimension
 13
655.4316392521077
 23
444.7007185376363
 33
0.0
 14
658.7025392521077
 24
439.7007185376363
 34
0.0
 50
90.0
100
AcDbRotatedDimension
1001
ACAD
1000
DSTYLE
1002
{
1070
   287
1070
     5
1070
    41
1040
7.0
1070
    42
1040
6.0
1070
    43
1040
14.0
1070
    44
1040
3.0
1070
    73
1070
     0
1070
    74
1070
     0
1070
    77
1070
     3
1070
   140
1040
6.0
1070
   141
1040
150.0
1070
   147
1040
2.0
1070
   172
1070
     1
1070
   173
1070
     1
1070
   176
1070
   256
1070
   177
1070
   256
1070
   178
1070
   256
1070
   271
1070
     0
1070
   272
1070
     0
1070
   279
1070
     2
1070
   341
1005
6D
1070
     6
1000
OPEN
1070
     7
1000
OPEN
1070
   371
1070
    -1
1070
   372
1070
    -1
1002
}
  0
LINE
  5
F10
330
1A
100
AcDbEntity
  8
SEIHIN
  6
CONTINUOUS
 62
     3
 48
5.0
100
AcDbLine
 10
658.7025392521077
 20
441.2007185376364
 30
0.0
 11
659.6270392521078
 21
448.1346185376363
 31
0.0
  0
LINE
  5
F11
330
1A
100
AcDbEntity
  8
SEIHIN
  6
CONTINUOUS
 62
     3
 48
5.0
100
AcDbLine
 10
655.9307392521077
 20
444.2306185376363
 30
0.0
 11
656.1461392521078
 21
440.6408185376363
 31
0.0
  0
LINE
  5
F12
330
1A
100
AcDbEntity
  8
SEIHIN
  6
CONTINUOUS
 62
     3
 48
5.0
100
AcDbLine
 10
654.2025392521077
 20
444.2007185376363
 30
0.0
 11
654.2025392521077
 21
431.7007185376363
 31
0.0
  0
LINE
  5
F13
330
1A
100
AcDbEntity
  8
SEIHIN
  6
CONTINUOUS
 62
     3
 48
5.0
100
AcDbLine
 10
657.1443392521078
 20
439.7007185376363
 30
0.0
 11
658.7025392521077
 21
439.7007185376363
 31
0.0
  0
LINE
  5
F14
330
1A
100
AcDbEntity
  8
SEIHIN
  6
CONTINUOUS
 62
     3
 48
5.0
100
AcDbLine
 10
658.7025392521077
 20
439.7007185376363
 30
0.0
 11
658.7025392521077
 21
441.2007185376364
 31
0.0
  0
ARC
  5
F15
330
1A
100
AcDbEntity
  8
SEIHIN
  6
CONTINUOUS
 62
     3
 48
5.0
100
AcDbCircle
 10
657.1443392521078
 20
440.7007185376364
 30
0.0
 40
0.9999979999999998
100
AcDbArc
 50
183.434088
 51
270.0
  0
ARC
  5
F16
330
1A
100
AcDbEntity
  8
SEIHIN
  6
CONTINUOUS
 62
     3
 48
5.0
100
AcDbCircle
 10
659.1314392521078
 20
448.2007185376363
 30
0.0
 40
0.499994
100
AcDbArc
 50
352.4030849999995
 51
90.0
  0
ARC
  5
F17
330
1A
100
AcDbEntity
  8
SEIHIN
  6
CONTINUOUS
 62
     3
 48
5.0
100
AcDbCircle
 10
654.7025392521077
 20
444.2007185376363
 30
0.0
 40
0.5
100
AcDbArc
 50
90.0
 51
180.0
  0
LINE
  5
F18
330
1A
100
AcDbEntity
  8
SEIHIN
  6
CONTINUOUS
 62
     3
 48
5.0
100
AcDbLine
 10
654.7025392521077
 20
444.7007185376363
 30
0.0
 11
655.4316392521077
 21
444.7007185376363
 31
0.0
  0
ARC
  5
F19
330
1A
100
AcDbEntity
  8
SEIHIN
  6
CONTINUOUS
 62
     3
 48
5.0
100
AcDbCircle
 10
655.4316392521077
 20
444.2007185376363
 30
0.0
 40
0.4999970000000001
100
AcDbArc
 50
3.428369000000773
 51
90.0
  0
DIMENSION
  5
14A2
330
1A
100
AcDbEntity
  8
SUNPOU
100
AcDbDimension
  2
*D19
 10
587.5608558201422
 20
468.963621531546
 30
0.0
 11
561.0608058201422
 21
473.9636215315461
 31
0.0
 70
    32
  3
STANDARD
100
AcDbAlignedDimension
 13
534.5607558201423
 23
447.7006185376364
 33
0.0
 14
587.5608558201422
 24
447.7007185376363
 34
0.0
100
AcDbRotatedDimension
1001
ACAD
1000
DSTYLE
1002
{
1070
   287
1070
     5
1070
    41
1040
7.0
1070
    42
1040
6.0
1070
    43
1040
14.0
1070
    44
1040
3.0
1070
    73
1070
     0
1070
    74
1070
     0
1070
    77
1070
     3
1070
   140
1040
6.0
1070
   141
1040
150.0
1070
   147
1040
2.0
1070
   172
1070
     1
1070
   173
1070
     1
1070
   176
1070
   256
1070
   177
1070
   256
1070
   178
1070
   256
1070
   271
1070
     0
1070
   272
1070
     0
1070
   279
1070
     2
1070
   341
1005
6D
1070
     6
1000
OPEN
1070
     7
1000
OPEN
1070
   371
1070
    -1
1070
   372
1070
    -1
1002
}
  0
DIMENSION
  5
18A5
330
1A
100
AcDbEntity
  8
SUNPOU
100
AcDbDimension
  2
*D20
 10
513.6790496577328
 20
431.7006185376364
 30
0.0
 11
508.6790496577326
 21
440.2006185376364
 31
0.0
 70
    32
  3
STANDARD
100
AcDbAlignedDimension
 13
535.5607558201422
 23
448.7006185376364
 33
0.0
 14
535.5607558201422
 24
431.7006185376364
 34
0.0
 50
90.0
100
AcDbRotatedDimension
1001
ACAD
1000
DSTYLE
1002
{
1070
   287
1070
     5
1070
    41
1040
7.0
1070
    42
1040
6.0
1070
    43
1040
14.0
1070
    44
1040
3.0
1070
    73
1070
     0
1070
    74
1070
     0
1070
    77
1070
     3
1070
   140
1040
6.0
1070
   141
1040
150.0
1070
   147
1040
2.0
1070
   172
1070
     1
1070
   173
1070
     1
1070
   176
1070
   256
1070
   177
1070
   256
1070
   178
1070
   256
1070
   271
1070
     0
1070
   272
1070
     0
1070
   279
1070
     2
1070
   341
1005
6D
1070
     6
1000
OPEN
1070
     7
1000
OPEN
1070
   371
1070
    -1
1070
   372
1070
    -1
1002
}
  0
LINE
  5
18CA
330
1A
100
AcDbEntity
  8
ZUWAKU
100
AcDbLine
 10
208.6466016834092
 20
15.19999965533644
 30
0.0
 11
447.4243643643326
 21
15.19999965533644
 31
0.0
  0
LINE
  5
18CB
330
1A
100
AcDbEntity
  8
ZUWAKU
100
AcDbLine
 10
208.6466016834092
 20
15.59999965533644
 30
0.0
 11
447.4243643643326
 21
15.59999965533645
 31
0.0
  0
LINE
  5
18CC
330
1A
100
AcDbEntity
  8
ZUWAKU
100
AcDbLine
 10
208.6466016834092
 20
15.39999965533644
 30
0.0
 11
447.4243643643326
 21
15.39999965533644
 31
0.0
  0
LINE
  5
18CD
330
1A
100
AcDbEntity
  8
ZUWAKU
100
AcDbLine
 10
0.0000003933412245
 20
30.79999965533642
 30
0.0
 11
797.4000003933411
 21
30.79999965533642
 31
0.0
  0
LINE
  5
18CE
330
1A
100
AcDbEntity
  8
ZUWAKU
100
AcDbLine
 10
0.0000003933412245
 20
30.59999965533641
 30
0.0
 11
797.4000003933411
 21
30.59999965533641
 31
0.0
  0
LINE
  5
18CF
330
1A
100
AcDbEntity
  8
ZUWAKU
100
AcDbLine
 10
0.0000003933412245
 20
30.39999965533641
 30
0.0
 11
797.4000003933411
 21
30.39999965533641
 31
0.0
  0
LINE
  5
18D0
330
1A
100
AcDbEntity
  8
ZUWAKU
100
AcDbLine
 10
0.0000003933412245
 20
30.19999965533641
 30
0.0
 11
797.4000003933411
 21
30.19999965533641
 31
0.0
  0
LINE
  5
18D1
330
1A
100
AcDbEntity
  8
ZUWAKU
100
AcDbLine
 10
0.0000003933412245
 20
29.99999965533641
 30
0.0
 11
797.4000003933411
 21
29.99999965533641
 31
0.0
  0
LWPOLYLINE
  5
18D2
330
1A
100
AcDbEntity
  8
ZUWAKU
100
AcDbPolyline
 90
        4
 70
     1
 43
0.0
 10
0.2000003933411563
 20
551.3999996553365
 10
0.2000003933411563
 20
0.1999996553364553
 10
797.4000003933411
 20
0.1999996553364784
 10
797.4000003933412
 20
551.3999996553365
  0
LWPOLYLINE
  5
18D3
330
1A
100
AcDbEntity
  8
ZUWAKU
100
AcDbPolyline
 90
        4
 70
     1
 43
0.0
 10
0.6000003933411336
 20
550.9999996553365
 10
0.6000003933411336
 20
0.5999996553364327
 10
797.0000003933415
 20
0.5999996553364788
 10
797.0000003933412
 20
550.9999996553365
  0
LWPOLYLINE
  5
18D4
330
1A
100
AcDbEntity
  8
ZUWAKU
100
AcDbPolyline
 90
        4
 70
     1
 43
0.0
 10
0.0000003933412245
 20
551.5999996553364
 10
0.0000003933412245
 20
-0.0000003446635901
 10
797.6000003933413
 20
-0.0000003446635226
 10
797.6000003933413
 20
551.5999996553365
  0
LWPOLYLINE
  5
18D5
330
1A
100
AcDbEntity
  8
ZUWAKU
100
AcDbPolyline
 90
        4
 70
     1
 43
0.0
 10
0.4000003933412018
 20
551.1999996553364
 10
0.4000003933412018
 20
0.3999996553365008
 10
797.2000003933413
 20
0.3999996553364777
 10
797.2000003933413
 20
551.1999996553364
  0
LWPOLYLINE
  5
18D6
330
1A
100
AcDbEntity
  8
ZUWAKU
100
AcDbPolyline
 90
        4
 70
     1
 43
0.0
 10
0.800000393341179
 20
550.7999996553365
 10
0.800000393341179
 20
0.7999996553364781
 10
796.8000003933411
 20
0.7999996553364781
 10
796.8000003933411
 20
550.7999996553365
  0
TEXT
  5
18D7
330
1A
100
AcDbEntity
  8
MOJI
100
AcDbText
 10
92.95778998151035
 20
12.74117778561117
 30
0.0
 40
6.0
  1
アートフェイスＨ１２０
 41
0.9
  7
ｽﾀｲﾙ1
100
AcDbText
  0
HATCH
  5
18D8
330
1A
100
AcDbEntity
  8
ZUWAKU
100
AcDbHatch
 10
0.0
 20
0.0
 30
0.0
210
0.0
220
0.0
230
1.0
  2
ANSI37
 70
     0
 71
     0
 91
        8
 92
        7
 72
     1
 73
     1
 93
       24
 10
14.50226305446108
 20
17.64484813631999
 42
-0.1989123673796348
 10
14.09221254812234
 20
18.63479762998104
 42
0.0
 10
14.09221254812234
 20
19.92499965533642
 42
-0.4142135623730912
 10
14.61721254812232
 20
20.44999965533641
 42
0.0
 10
17.59221254812223
 20
20.44999965533641
 42
0.4142135623731546
 10
18.11721254812232
 20
20.9749996553364
 42
0.0
 10
18.11721254812232
 20
22.72499965533641
 42
0.4142135623731586
 10
17.59221254812223
 20
23.24999965533641
 42
0.0
 10
14.09221254812234
 20
23.24999965533641
 42
0.4142135623730928
 10
11.29221254812239
 20
20.44999965533644
 42
0.0
 10
11.29221254812239
 20
18.63479762998117
 42
0.1989123673796619
 10
12.52236406713882
 20
15.66494914899756
 42
0.0
 10
15.43216204178349
 20
12.7551511743529
 42
-0.1989123673796613
 10
15.84221254812234
 20
11.76520168069172
 42
0.0
 10
15.84221254812234
 20
10.4749996553364
 42
-0.4142135623730911
 10
15.31721254812237
 20
9.949999655336412
 42
0.0
 10
12.34221254812246
 20
9.949999655336412
 42
0.4142135623731526
 10
11.81721254812237
 20
9.424999655336424
 42
0.0
 10
11.81721254812237
 20
7.674999655336403
 42
0.4142135623731526
 10
12.34221254812246
 20
7.149999655336415
 42
0.0
 10
15.84221254812234
 20
7.149999655336415
 42
0.4142135623731044
 10
18.64221254812241
 20
9.949999655336391
 42
0.0
 10
18.64221254812241
 20
11.76520168069166
 42
0.1989123673796604
 10
17.41206102910587
 20
14.7350501616752
 42
0.0
 97
        0
 92
        7
 72
     1
 73
     1
 93
       16
 10
23.54221254812239
 20
19.04999965533642
 42
-0.4142135623730935
 10
24.94221254812237
 20
20.44999965533641
 42
0.0
 10
26.86721254812232
 20
20.44999965533641
 42
0.4142135623731546
 10
27.39221254812241
 20
20.9749996553364
 42
0.0
 10
27.39221254812241
 20
22.72499965533641
 42
0.4142135623730951
 10
26.86721254812244
 20
23.24999965533641
 42
0.0
 10
24.94221254812226
 20
23.24999965533637
 42
0.4142135623730892
 10
20.74221254812232
 20
19.04999965533635
 42
0.0
 10
20.74221254812232
 20
11.34999965533644
 42
0.4142135623730969
 10
24.94221254812237
 20
7.149999655336415
 42
0.0
 10
26.86721254812232
 20
7.149999655336415
 42
0.4142135623731526
 10
27.39221254812241
 20
7.674999655336403
 42
0.0
 10
27.39221254812241
 20
9.424999655336424
 42
0.4142135623730891
 10
26.86721254812244
 20
9.949999655336412
 42
0.0
 10
24.94221254812237
 20
9.949999655336412
 42
-0.4142135623730928
 10
23.54221254812239
 20
11.3499996553364
 42
0.0
 97
        0
 92
        7
 72
     1
 73
     1
 93
        2
 10
24.24221254812232
 20
15.19999965533641
 42
1.0
 10
27.74221254812232
 20
15.19999965533641
 42
1.0
 97
        0
 92
        7
 72
     1
 73
     1
 93
       26
 10
37.31485903030034
 20
19.20504684889984
 42
0.0
 10
38.37649866343815
 20
22.56690568716943
 42
0.5069206636600134
 10
37.8758677642428
 20
23.24999965533641
 42
0.0
 10
36.17697838463357
 20
23.24999965533641
 42
0.3272098845218764
 10
35.67634748543821
 20
22.88309362350338
 42
0.0
 10
33.80807761080643
 20
16.96690568716949
 42
-0.3272098845219541
 10
33.30744671161096
 20
16.59999965533641
 42
0.0
 10
33.1672125481225
 20
16.59999965533641
 42
-0.4142135623731526
 10
32.64221254812241
 20
17.12499965533639
 42
0.0
 10
32.64221254812241
 20
22.72499965533641
 42
0.4142135623730951
 10
32.11721254812244
 20
23.24999965533641
 42
0.0
 10
30.36721254812232
 20
23.24999965533641
 42
0.4142135623730871
 10
29.84221254812235
 20
22.72499965533643
 42
0.0
 10
29.84221254812235
 20
7.674999655336403
 42
0.4142135623730891
 10
30.36721254812232
 20
7.149999655336415
 42
0.0
 10
32.11721254812232
 20
7.149999655336415
 42
0.4142135623731526
 10
32.64221254812241
 20
7.674999655336403
 42
0.0
 10
32.64221254812241
 20
13.27499965533642
 42
-0.4142135623731526
 10
33.1672125481225
 20
13.79999965533641
 42
0.0
 10
33.30744671161108
 20
13.79999965533641
 42
-0.3272098845218915
 10
33.80807761080643
 20
13.43309362350334
 42
0.0
 10
35.67634748543821
 20
7.516905687169487
 42
0.3272098845218902
 10
36.17697838463357
 20
7.149999655336415
 42
0.0
 10
37.8758677642428
 20
7.149999655336415
 42
0.5069206636600335
 10
38.37649866343815
 20
7.833093623503422
 42
0.0
 10
36.05010728496449
 20
15.19999965533655
 42
0.0
 97
        0
 92
        7
 72
     1
 73
     1
 93
        8
 10
43.49221254812232
 20
22.72499965533642
 42
0.4142135623731546
 10
42.96721254812223
 20
23.24999965533641
 42
0.0
 10
41.21721254812245
 20
23.24999965533641
 42
0.4142135623731507
 10
40.69221254812236
 20
22.72499965533643
 42
0.0
 10
40.69221254812236
 20
7.674999655336403
 42
0.4142135623731526
 10
41.21721254812245
 20
7.149999655336415
 42
0.0
 10
42.96721254812223
 20
7.149999655336415
 42
0.4142135623731526
 10
43.49221254812232
 20
7.674999655336403
 42
0.0
 97
        0
 92
        7
 72
     1
 73
     1
 93
       24
 10
48.39221254812241
 20
19.92499965533642
 42
-0.4142135623731546
 10
48.9172125481225
 20
20.44999965533641
 42
0.0
 10
51.89221254812242
 20
20.44999965533641
 42
0.4142135623730911
 10
52.41721254812239
 20
20.9749996553364
 42
0.0
 10
52.41721254812239
 20
22.72499965533641
 42
0.4142135623730952
 10
51.89221254812242
 20
23.24999965533641
 42
0.0
 10
48.39221254812241
 20
23.24999965533641
 42
0.4142135623731048
 10
45.59221254812235
 20
20.44999965533644
 42
0.0
 10
45.59221254812235
 20
18.63479762998117
 42
0.1989123673796613
 10
46.82236406713889
 20
15.66494914899762
 42
0.0
 10
49.73216204178356
 20
12.75515117435295
 42
-0.1989123673796402
 10
50.14221254812241
 20
11.76520168069188
 42
0.0
 10
50.14221254812241
 20
10.4749996553364
 42
-0.4142135623730911
 10
49.61721254812244
 20
9.949999655336412
 42
0.0
 10
46.64221254812241
 20
9.949999655336412
 42
0.4142135623731526
 10
46.11721254812232
 20
9.424999655336424
 42
0.0
 10
46.11721254812232
 20
7.674999655336403
 42
0.4142135623730891
 10
46.6422125481223
 20
7.149999655336415
 42
0.0
 10
50.14221254812241
 20
7.149999655336415
 42
0.4142135623730925
 10
52.94221254812237
 20
9.949999655336391
 42
0.0
 10
52.94221254812237
 20
11.76520168069166
 42
0.1989123673796675
 10
51.71206102910582
 20
14.73505016167531
 42
0.0
 10
48.80226305446126
 20
17.64484813631983
 42
-0.1989123673796652
 10
48.39221254812241
 20
18.634797629981
 42
0.0
 97
        0
 92
        7
 72
     1
 73
     1
 93
       16
 10
57.84221254812234
 20
22.7249996553364
 42
0.414213562373103
 10
57.31721254812237
 20
23.24999965533641
 42
0.0
 10
55.56721254812237
 20
23.24999965533641
 42
0.4142135623730871
 10
55.0422125481224
 20
22.72499965533643
 42
0.0
 10
55.0422125481224
 20
9.949999655336391
 42
0.4142135623730926
 10
57.84221254812234
 20
7.149999655336415
 42
0.0
 10
61.34221254812235
 20
7.149999655336415
 42
0.4142135623731044
 10
64.14221254812241
 20
9.949999655336391
 42
0.0
 10
64.14221254812241
 20
22.72499965533641
 42
0.4142135623730951
 10
63.61721254812244
 20
23.24999965533641
 42
0.0
 10
61.86721254812233
 20
23.24999965533641
 42
0.4142135623730871
 10
61.34221254812235
 20
22.72499965533643
 42
0.0
 10
61.34221254812235
 20
10.99999965533638
 42
-0.414213562373088
 10
60.29221254812239
 20
9.949999655336412
 42
0.0
 10
58.89221254812241
 20
9.949999655336412
 42
-0.4142135623731197
 10
57.84221254812234
 20
10.99999965533638
 42
0.0
 97
        0
 92
        7
 72
     1
 73
     1
 93
        8
 10
69.04221254812239
 20
22.72499965533643
 42
0.4142135623730871
 10
68.51721254812241
 20
23.24999965533641
 42
0.0
 10
66.76721254812242
 20
23.24999965533641
 42
0.4142135623731507
 10
66.24221254812233
 20
22.72499965533643
 42
0.0
 10
66.24221254812233
 20
7.674999655336403
 42
0.4142135623730891
 10
66.7672125481223
 20
7.149999655336415
 42
0.0
 10
68.51721254812241
 20
7.149999655336415
 42
0.4142135623730891
 10
69.04221254812239
 20
7.674999655336403
 42
0.0
 97
        0
 75
     0
 76
     1
 52
0.0
 41
0.2
 77
     0
 78
     2
 53
45.0
 43
-900.9423039413377
 44
-13.20000034466352
 45
-0.4490128060534576
 46
0.4490128060534577
 79
     0
 53
135.0
 43
-900.9423039413377
 44
-13.20000034466352
 45
-0.4490128060534577
 46
-0.4490128060534576
 79
     0
 47
0.057451373970553
 98
        8
 10
16.07985535636453
 20
15.16717330122196
 10
22.40451539978039
 20
18.84406183778742
 10
25.16436827900088
 20
15.51188130140713
 10
30.91406037497836
 20
16.20129730177791
 10
41.83847241229796
 20
16.66090956931952
 10
46.89820128847077
 20
19.41857597174362
 10
56.55768636574157
 20
18.72915757043142
 10
67.82708001296396
 20
19.18876983797304
  0
LINE
  5
18D9
330
1A
100
AcDbEntity
  8
ZUWAKU
100
AcDbLine
 10
24.94221254812237
 20
23.24999965533637
 30
0.0
 11
26.86721254812232
 21
23.24999965533641
 31
0.0
  0
LINE
  5
18DA
330
1A
100
AcDbEntity
  8
ZUWAKU
100
AcDbLine
 10
26.86721254812232
 20
20.44999965533641
 30
0.0
 11
24.94221254812237
 21
20.44999965533641
 31
0.0
  0
LINE
  5
18DB
330
1A
100
AcDbEntity
  8
ZUWAKU
100
AcDbLine
 10
24.94221254812237
 20
9.949999655336412
 30
0.0
 11
26.86721254812232
 21
9.949999655336412
 31
0.0
  0
LINE
  5
18DC
330
1A
100
AcDbEntity
  8
ZUWAKU
100
AcDbLine
 10
26.86721254812232
 20
7.149999655336415
 30
0.0
 11
24.94221254812237
 21
7.149999655336415
 31
0.0
  0
CIRCLE
  5
18DD
330
1A
100
AcDbEntity
  8
ZUWAKU
100
AcDbCircle
 10
25.99221254812232
 20
15.19999965533641
 30
0.0
 40
1.75
  0
ARC
  5
18DE
330
1A
100
AcDbEntity
  8
ZUWAKU
100
AcDbCircle
 10
15.49221254812232
 20
18.63479762998111
 30
0.0
 40
1.399999999999999
100
AcDbArc
 50
180.0000000000016
 51
224.9999999999988
  0
LINE
  5
18DF
330
1A
100
AcDbEntity
  8
ZUWAKU
100
AcDbLine
 10
23.54221254812239
 20
19.04999965533641
 30
0.0
 11
23.54221254812239
 21
11.34999965533641
 31
0.0
  0
LINE
  5
18E0
330
1A
100
AcDbEntity
  8
ZUWAKU
100
AcDbLine
 10
20.74221254812232
 20
11.34999965533641
 30
0.0
 11
20.74221254812232
 21
19.04999965533637
 31
0.0
  0
ARC
  5
18E1
330
1A
100
AcDbEntity
  8
ZUWAKU
100
AcDbCircle
 10
15.49221254812232
 20
18.63479762998111
 30
0.0
 40
4.199999999999999
100
AcDbArc
 50
180.0
 51
225.0
  0
ARC
  5
18E2
330
1A
100
AcDbEntity
  8
ZUWAKU
100
AcDbCircle
 10
15.84221254812234
 20
9.949999655336412
 30
0.0
 40
2.799999999999999
100
AcDbArc
 50
270.0
 51
0.0
  0
ARC
  5
18E3
330
1A
100
AcDbEntity
  8
ZUWAKU
100
AcDbCircle
 10
24.94221254812237
 20
11.34999965533641
 30
0.0
 40
4.199999999999999
100
AcDbArc
 50
180.0
 51
270.0
  0
ARC
  5
18E4
330
1A
100
AcDbEntity
  8
ZUWAKU
100
AcDbCircle
 10
14.44221254812237
 20
11.76520168069171
 30
0.0
 40
4.199999999999999
100
AcDbArc
 50
0.0
 51
45.0
  0
LINE
  5
18E5
330
1A
100
AcDbEntity
  8
ZUWAKU
100
AcDbLine
 10
17.41206102910587
 20
14.73505016167524
 30
0.0
 11
14.50226305446119
 21
17.64484813631991
 31
0.0
  0
LINE
  5
18E6
330
1A
100
AcDbEntity
  8
ZUWAKU
100
AcDbLine
 10
15.84221254812234
 20
10.47499965533641
 30
0.0
 11
15.84221254812234
 21
11.76520168069176
 31
0.0
  0
ARC
  5
18E7
330
1A
100
AcDbEntity
  8
ZUWAKU
100
AcDbCircle
 10
15.31721254812237
 20
10.47499965533641
 30
0.0
 40
0.525
100
AcDbArc
 50
270.0
 51
0.0
  0
ARC
  5
18E8
330
1A
100
AcDbEntity
  8
ZUWAKU
100
AcDbCircle
 10
14.44221254812237
 20
11.76520168069176
 30
0.0
 40
1.399999999999999
100
AcDbArc
 50
0.0
 51
45.0
  0
LINE
  5
18E9
330
1A
100
AcDbEntity
  8
ZUWAKU
100
AcDbLine
 10
11.81721254812237
 20
7.674999655336414
 30
0.0
 11
11.81721254812237
 21
9.424999655336414
 31
0.0
  0
ARC
  5
18EA
330
1A
100
AcDbEntity
  8
ZUWAKU
100
AcDbCircle
 10
12.34221254812234
 20
7.674999655336414
 30
0.0
 40
0.525
100
AcDbArc
 50
180.0
 51
270.0
  0
ARC
  5
18EB
330
1A
100
AcDbEntity
  8
ZUWAKU
100
AcDbCircle
 10
12.34221254812234
 20
9.424999655336414
 30
0.0
 40
0.525
100
AcDbArc
 50
90.0
 51
180.0
  0
LINE
  5
18EC
330
1A
100
AcDbEntity
  8
ZUWAKU
100
AcDbLine
 10
12.34221254812234
 20
7.149999655336415
 30
0.0
 11
15.84221254812234
 21
7.149999655336415
 31
0.0
  0
LINE
  5
18ED
330
1A
100
AcDbEntity
  8
ZUWAKU
100
AcDbLine
 10
12.34221254812234
 20
9.949999655336412
 30
0.0
 11
15.31721254812237
 21
9.949999655336412
 31
0.0
  0
LINE
  5
18EE
330
1A
100
AcDbEntity
  8
ZUWAKU
100
AcDbLine
 10
12.52236406713882
 20
15.66494914899759
 30
0.0
 11
15.43216204178349
 21
12.75515117435293
 31
0.0
  0
LINE
  5
18EF
330
1A
100
AcDbEntity
  8
ZUWAKU
100
AcDbLine
 10
18.64221254812241
 20
9.949999655336412
 30
0.0
 11
18.64221254812241
 21
11.76520168069176
 31
0.0
  0
ARC
  5
18F0
330
1A
100
AcDbEntity
  8
ZUWAKU
100
AcDbCircle
 10
24.94221254812237
 20
11.34999965533641
 30
0.0
 40
1.399999999999999
100
AcDbArc
 50
180.0
 51
270.0
  0
ARC
  5
18F1
330
1A
100
AcDbEntity
  8
ZUWAKU
100
AcDbCircle
 10
17.59221254812234
 20
22.72499965533641
 30
0.0
 40
0.525
100
AcDbArc
 50
0.0
 51
90.0
  0
ARC
  5
18F2
330
1A
100
AcDbEntity
  8
ZUWAKU
100
AcDbCircle
 10
17.59221254812234
 20
20.97499965533641
 30
0.0
 40
0.525
100
AcDbArc
 50
270.0
 51
0.0
  0
LINE
  5
18F3
330
1A
100
AcDbEntity
  8
ZUWAKU
100
AcDbLine
 10
14.09221254812234
 20
23.24999965533641
 30
0.0
 11
17.59221254812234
 21
23.24999965533641
 31
0.0
  0
ARC
  5
18F4
330
1A
100
AcDbEntity
  8
ZUWAKU
100
AcDbCircle
 10
14.61721254812232
 20
19.92499965533641
 30
0.0
 40
0.525
100
AcDbArc
 50
90.0
 51
180.0
  0
LINE
  5
18F5
330
1A
100
AcDbEntity
  8
ZUWAKU
100
AcDbLine
 10
14.09221254812234
 20
19.92499965533641
 30
0.0
 11
14.09221254812234
 21
18.63479762998107
 31
0.0
  0
LINE
  5
18F6
330
1A
100
AcDbEntity
  8
ZUWAKU
100
AcDbLine
 10
17.59221254812234
 20
20.44999965533641
 30
0.0
 11
14.61721254812232
 21
20.44999965533641
 31
0.0
  0
LINE
  5
18F7
330
1A
100
AcDbEntity
  8
ZUWAKU
100
AcDbLine
 10
11.29221254812239
 20
20.44999965533641
 30
0.0
 11
11.29221254812239
 21
18.63479762998107
 31
0.0
  0
ARC
  5
18F8
330
1A
100
AcDbEntity
  8
ZUWAKU
100
AcDbCircle
 10
14.09221254812234
 20
20.44999965533641
 30
0.0
 40
2.799999999999999
100
AcDbArc
 50
90.0
 51
180.0
  0
LINE
  5
18F9
330
1A
100
AcDbEntity
  8
ZUWAKU
100
AcDbLine
 10
18.11721254812232
 20
22.72499965533641
 30
0.0
 11
18.11721254812232
 21
20.97499965533641
 31
0.0
  0
ARC
  5
18FA
330
1A
100
AcDbEntity
  8
ZUWAKU
100
AcDbCircle
 10
24.94221254812237
 20
19.04999965533641
 30
0.0
 40
1.399999999999999
100
AcDbArc
 50
90.0
 51
180.0
  0
ARC
  5
18FB
330
1A
100
AcDbEntity
  8
ZUWAKU
100
AcDbCircle
 10
24.94221254812237
 20
19.04999965533637
 30
0.0
 40
4.199999999999999
100
AcDbArc
 50
90.0
 51
180.0
  0
LINE
  5
18FC
330
1A
100
AcDbEntity
  8
ZUWAKU
100
AcDbLine
 10
79.32662994132943
 20
29.99999965533641
 30
0.0
 11
79.32662994132965
 21
0.7999996553364781
 31
0.0
  0
LINE
  5
18FD
330
1A
100
AcDbEntity
  8
ZUWAKU
100
AcDbLine
 10
79.52662994132947
 20
29.99999965533641
 30
0.0
 11
79.5266299413297
 21
0.7999996553364781
 31
0.0
  0
LINE
  5
18FE
330
1A
100
AcDbEntity
  8
ZUWAKU
100
AcDbLine
 10
79.12662994132961
 20
29.99999965533641
 30
0.0
 11
79.12662994132961
 21
0.7999996553364781
 31
0.0
  0
LINE
  5
18FF
330
1A
100
AcDbEntity
  8
ZUWAKU
100
AcDbLine
 10
64.14221254812241
 20
9.949999655336412
 30
0.0
 11
64.14221254812241
 21
22.72499965533641
 31
0.0
  0
LINE
  5
1900
330
1A
100
AcDbEntity
  8
ZUWAKU
100
AcDbLine
 10
61.34221254812235
 20
22.72499965533641
 30
0.0
 11
61.34221254812235
 21
10.9999996553364
 31
0.0
  0
LINE
  5
1901
330
1A
100
AcDbEntity
  8
ZUWAKU
100
AcDbLine
 10
69.04221254812239
 20
7.674999655336414
 30
0.0
 11
69.04221254812239
 21
22.72499965533641
 31
0.0
  0
LINE
  5
1902
330
1A
100
AcDbEntity
  8
ZUWAKU
100
AcDbLine
 10
66.24221254812233
 20
22.72499965533641
 30
0.0
 11
66.24221254812233
 21
7.674999655336414
 31
0.0
  0
ARC
  5
1903
330
1A
100
AcDbEntity
  8
ZUWAKU
100
AcDbCircle
 10
49.79221254812239
 20
18.63479762998111
 30
0.0
 40
1.399999999999999
100
AcDbArc
 50
180.0000000000016
 51
224.9999999999988
  0
ARC
  5
1904
330
1A
100
AcDbEntity
  8
ZUWAKU
100
AcDbCircle
 10
49.79221254812239
 20
18.63479762998111
 30
0.0
 40
4.199999999999999
100
AcDbArc
 50
180.0
 51
225.0
  0
LINE
  5
1905
330
1A
100
AcDbEntity
  8
ZUWAKU
100
AcDbLine
 10
37.31485903030034
 20
19.20504684889984
 30
0.0
 11
36.05010728496449
 21
15.19999965533643
 31
0.0
  0
LINE
  5
1906
330
1A
100
AcDbEntity
  8
ZUWAKU
100
AcDbLine
 10
40.69221254812236
 20
22.72499965533641
 30
0.0
 11
40.69221254812236
 21
7.674999655336414
 31
0.0
  0
LINE
  5
1907
330
1A
100
AcDbEntity
  8
ZUWAKU
100
AcDbLine
 10
43.49221254812232
 20
7.674999655336414
 30
0.0
 11
43.49221254812232
 21
22.72499965533641
 31
0.0
  0
LINE
  5
1908
330
1A
100
AcDbEntity
  8
ZUWAKU
100
AcDbLine
 10
55.0422125481224
 20
22.72499965533641
 30
0.0
 11
55.0422125481224
 21
9.949999655336412
 31
0.0
  0
LINE
  5
1909
330
1A
100
AcDbEntity
  8
ZUWAKU
100
AcDbLine
 10
57.84221254812234
 20
10.9999996553364
 30
0.0
 11
57.84221254812234
 21
22.72499965533641
 31
0.0
  0
LINE
  5
190A
330
1A
100
AcDbEntity
  8
ZUWAKU
100
AcDbLine
 10
32.64221254812241
 20
17.12499965533641
 30
0.0
 11
32.64221254812241
 21
22.72499965533641
 31
0.0
  0
LINE
  5
190B
330
1A
100
AcDbEntity
  8
ZUWAKU
100
AcDbLine
 10
29.84221254812235
 20
22.72499965533641
 30
0.0
 11
29.84221254812235
 21
7.674999655336414
 31
0.0
  0
LINE
  5
190C
330
1A
100
AcDbEntity
  8
ZUWAKU
100
AcDbLine
 10
35.67634748543821
 20
22.88309362350338
 30
0.0
 11
33.80807761080643
 21
16.96690568716944
 31
0.0
  0
LINE
  5
190D
330
1A
100
AcDbEntity
  8
ZUWAKU
100
AcDbLine
 10
60.29221254812239
 20
9.949999655336412
 30
0.0
 11
58.89221254812241
 21
9.949999655336412
 31
0.0
  0
LINE
  5
190E
330
1A
100
AcDbEntity
  8
ZUWAKU
100
AcDbLine
 10
57.84221254812234
 20
7.149999655336415
 30
0.0
 11
61.34221254812235
 21
7.149999655336415
 31
0.0
  0
LINE
  5
190F
330
1A
100
AcDbEntity
  8
ZUWAKU
100
AcDbLine
 10
41.21721254812235
 20
7.149999655336415
 30
0.0
 11
42.96721254812235
 21
7.149999655336415
 31
0.0
  0
LINE
  5
1910
330
1A
100
AcDbEntity
  8
ZUWAKU
100
AcDbLine
 10
35.67634748543821
 20
7.51690568716944
 30
0.0
 11
33.80807761080643
 21
13.43309362350338
 31
0.0
  0
ARC
  5
1911
330
1A
100
AcDbEntity
  8
ZUWAKU
100
AcDbCircle
 10
33.30744671161108
 20
17.12499965533641
 30
0.0
 40
0.525
100
AcDbArc
 50
270.0
 51
342.4744316262769
  0
LINE
  5
1912
330
1A
100
AcDbEntity
  8
ZUWAKU
100
AcDbLine
 10
33.30744671161108
 20
16.59999965533641
 30
0.0
 11
33.16721254812239
 21
16.59999965533641
 31
0.0
  0
LINE
  5
1913
330
1A
100
AcDbEntity
  8
ZUWAKU
100
AcDbLine
 10
33.16721254812239
 20
13.79999965533641
 30
0.0
 11
33.30744671161108
 21
13.79999965533641
 31
0.0
  0
ARC
  5
1914
330
1A
100
AcDbEntity
  8
ZUWAKU
100
AcDbCircle
 10
33.16721254812239
 20
17.12499965533641
 30
0.0
 40
0.525
100
AcDbArc
 50
180.0
 51
270.0
  0
LINE
  5
1915
330
1A
100
AcDbEntity
  8
ZUWAKU
100
AcDbLine
 10
30.36721254812232
 20
7.149999655336415
 30
0.0
 11
32.11721254812232
 21
7.149999655336415
 31
0.0
  0
ARC
  5
1916
330
1A
100
AcDbEntity
  8
ZUWAKU
100
AcDbCircle
 10
32.11721254812232
 20
7.674999655336414
 30
0.0
 40
0.525
100
AcDbArc
 50
270.0
 51
0.0
  0
LINE
  5
1917
330
1A
100
AcDbEntity
  8
ZUWAKU
100
AcDbLine
 10
32.64221254812241
 20
7.674999655336414
 30
0.0
 11
32.64221254812241
 21
13.27499965533641
 31
0.0
  0
LINE
  5
1918
330
1A
100
AcDbEntity
  8
ZUWAKU
100
AcDbLine
 10
27.39221254812241
 20
9.424999655336414
 30
0.0
 11
27.39221254812241
 21
7.674999655336414
 31
0.0
  0
ARC
  5
1919
330
1A
100
AcDbEntity
  8
ZUWAKU
100
AcDbCircle
 10
26.86721254812232
 20
7.674999655336414
 30
0.0
 40
0.525
100
AcDbArc
 50
270.0
 51
0.0
  0
ARC
  5
191A
330
1A
100
AcDbEntity
  8
ZUWAKU
100
AcDbCircle
 10
26.86721254812232
 20
9.424999655336414
 30
0.0
 40
0.525
100
AcDbArc
 50
0.0
 51
90.0
  0
ARC
  5
191B
330
1A
100
AcDbEntity
  8
ZUWAKU
100
AcDbCircle
 10
30.36721254812232
 20
7.674999655336414
 30
0.0
 40
0.525
100
AcDbArc
 50
180.0
 51
270.0
  0
ARC
  5
191C
330
1A
100
AcDbEntity
  8
ZUWAKU
100
AcDbCircle
 10
33.30744671161108
 20
13.27499965533641
 30
0.0
 40
0.525
100
AcDbArc
 50
17.52556837372303
 51
90.0
  0
ARC
  5
191D
330
1A
100
AcDbEntity
  8
ZUWAKU
100
AcDbCircle
 10
33.16721254812239
 20
13.27499965533641
 30
0.0
 40
0.525
100
AcDbArc
 50
90.0
 51
180.0
  0
ARC
  5
191E
330
1A
100
AcDbEntity
  8
ZUWAKU
100
AcDbCircle
 10
41.21721254812235
 20
7.674999655336414
 30
0.0
 40
0.525
100
AcDbArc
 50
180.0
 51
270.0
  0
LINE
  5
191F
330
1A
100
AcDbEntity
  8
ZUWAKU
100
AcDbLine
 10
36.17697838463368
 20
7.149999655336415
 30
0.0
 11
37.87586776424268
 21
7.149999655336415
 31
0.0
  0
ARC
  5
1920
330
1A
100
AcDbEntity
  8
ZUWAKU
100
AcDbCircle
 10
37.87586776424268
 20
7.674999655336414
 30
0.0
 40
0.525
100
AcDbArc
 50
270.0
 51
17.52556837372303
  0
LINE
  5
1921
330
1A
100
AcDbEntity
  8
ZUWAKU
100
AcDbLine
 10
38.37649866343815
 20
7.833093623503387
 30
0.0
 11
36.05010728496449
 21
15.19999965533643
 31
0.0
  0
ARC
  5
1922
330
1A
100
AcDbEntity
  8
ZUWAKU
100
AcDbCircle
 10
36.17697838463368
 20
7.674999655336414
 30
0.0
 40
0.525
100
AcDbArc
 50
197.525568373723
 51
270.0
  0
ARC
  5
1923
330
1A
100
AcDbEntity
  8
ZUWAKU
100
AcDbCircle
 10
57.84221254812234
 20
9.949999655336412
 30
0.0
 40
2.799999999999999
100
AcDbArc
 50
180.0
 51
270.0
  0
ARC
  5
1924
330
1A
100
AcDbEntity
  8
ZUWAKU
100
AcDbCircle
 10
50.14221254812241
 20
9.949999655336412
 30
0.0
 40
2.799999999999999
100
AcDbArc
 50
270.0
 51
0.0
  0
LINE
  5
1925
330
1A
100
AcDbEntity
  8
ZUWAKU
100
AcDbLine
 10
51.71206102910594
 20
14.73505016167524
 30
0.0
 11
48.80226305446115
 21
17.64484813631991
 31
0.0
  0
LINE
  5
1926
330
1A
100
AcDbEntity
  8
ZUWAKU
100
AcDbLine
 10
50.14221254812241
 20
10.47499965533641
 30
0.0
 11
50.14221254812241
 21
11.76520168069176
 31
0.0
  0
ARC
  5
1927
330
1A
100
AcDbEntity
  8
ZUWAKU
100
AcDbCircle
 10
48.74221254812233
 20
11.76520168069176
 30
0.0
 40
1.399999999999999
100
AcDbArc
 50
0.0
 51
45.0
  0
ARC
  5
1928
330
1A
100
AcDbEntity
  8
ZUWAKU
100
AcDbCircle
 10
49.61721254812232
 20
10.47499965533641
 30
0.0
 40
0.525
100
AcDbArc
 50
270.0
 51
0.0
  0
LINE
  5
1929
330
1A
100
AcDbEntity
  8
ZUWAKU
100
AcDbLine
 10
46.11721254812232
 20
7.674999655336414
 30
0.0
 11
46.11721254812232
 21
9.424999655336414
 31
0.0
  0
ARC
  5
192A
330
1A
100
AcDbEntity
  8
ZUWAKU
100
AcDbCircle
 10
46.64221254812241
 20
7.674999655336414
 30
0.0
 40
0.525
100
AcDbArc
 50
180.0
 51
270.0
  0
ARC
  5
192B
330
1A
100
AcDbEntity
  8
ZUWAKU
100
AcDbCircle
 10
42.96721254812235
 20
7.674999655336414
 30
0.0
 40
0.525
100
AcDbArc
 50
270.0
 51
0.0
  0
ARC
  5
192C
330
1A
100
AcDbEntity
  8
ZUWAKU
100
AcDbCircle
 10
46.64221254812241
 20
9.424999655336414
 30
0.0
 40
0.525
100
AcDbArc
 50
90.0
 51
180.0
  0
LINE
  5
192D
330
1A
100
AcDbEntity
  8
ZUWAKU
100
AcDbLine
 10
46.64221254812241
 20
9.949999655336412
 30
0.0
 11
49.61721254812232
 21
9.949999655336412
 31
0.0
  0
LINE
  5
192E
330
1A
100
AcDbEntity
  8
ZUWAKU
100
AcDbLine
 10
46.64221254812241
 20
7.149999655336415
 30
0.0
 11
50.14221254812241
 21
7.149999655336415
 31
0.0
  0
LINE
  5
192F
330
1A
100
AcDbEntity
  8
ZUWAKU
100
AcDbLine
 10
46.82236406713889
 20
15.66494914899759
 30
0.0
 11
49.73216204178356
 21
12.75515117435293
 31
0.0
  0
LINE
  5
1930
330
1A
100
AcDbEntity
  8
ZUWAKU
100
AcDbLine
 10
52.94221254812237
 20
9.949999655336412
 30
0.0
 11
52.94221254812237
 21
11.76520168069176
 31
0.0
  0
ARC
  5
1931
330
1A
100
AcDbEntity
  8
ZUWAKU
100
AcDbCircle
 10
48.74221254812233
 20
11.76520168069171
 30
0.0
 40
4.199999999999999
100
AcDbArc
 50
0.0
 51
45.0
  0
ARC
  5
1932
330
1A
100
AcDbEntity
  8
ZUWAKU
100
AcDbCircle
 10
58.89221254812241
 20
10.9999996553364
 30
0.0
 40
1.049999999999999
100
AcDbArc
 50
180.0
 51
270.0
  0
ARC
  5
1933
330
1A
100
AcDbEntity
  8
ZUWAKU
100
AcDbCircle
 10
61.34221254812235
 20
9.949999655336412
 30
0.0
 40
2.799999999999999
100
AcDbArc
 50
270.0
 51
0.0
  0
LINE
  5
1934
330
1A
100
AcDbEntity
  8
ZUWAKU
100
AcDbLine
 10
66.76721254812242
 20
7.149999655336415
 30
0.0
 11
68.51721254812241
 21
7.149999655336415
 31
0.0
  0
ARC
  5
1935
330
1A
100
AcDbEntity
  8
ZUWAKU
100
AcDbCircle
 10
66.76721254812242
 20
7.674999655336414
 30
0.0
 40
0.525
100
AcDbArc
 50
180.0
 51
270.0
  0
ARC
  5
1936
330
1A
100
AcDbEntity
  8
ZUWAKU
100
AcDbCircle
 10
60.29221254812239
 20
10.9999996553364
 30
0.0
 40
1.049999999999999
100
AcDbArc
 50
270.0
 51
0.0
  0
ARC
  5
1937
330
1A
100
AcDbEntity
  8
ZUWAKU
100
AcDbCircle
 10
68.51721254812241
 20
7.674999655336414
 30
0.0
 40
0.525
100
AcDbArc
 50
270.0
 51
0.0
  0
LINE
  5
1938
330
1A
100
AcDbEntity
  8
ZUWAKU
100
AcDbLine
 10
42.96721254812235
 20
23.24999965533641
 30
0.0
 11
41.21721254812235
 21
23.24999965533641
 31
0.0
  0
ARC
  5
1939
330
1A
100
AcDbEntity
  8
ZUWAKU
100
AcDbCircle
 10
32.11721254812232
 20
22.72499965533641
 30
0.0
 40
0.525
100
AcDbArc
 50
0.0
 51
90.0
  0
LINE
  5
193A
330
1A
100
AcDbEntity
  8
ZUWAKU
100
AcDbLine
 10
32.11721254812232
 20
23.24999965533641
 30
0.0
 11
30.36721254812232
 21
23.24999965533641
 31
0.0
  0
ARC
  5
193B
330
1A
100
AcDbEntity
  8
ZUWAKU
100
AcDbCircle
 10
26.86721254812232
 20
22.72499965533641
 30
0.0
 40
0.525
100
AcDbArc
 50
0.0
 51
90.0
  0
ARC
  5
193C
330
1A
100
AcDbEntity
  8
ZUWAKU
100
AcDbCircle
 10
30.36721254812232
 20
22.72499965533641
 30
0.0
 40
0.525
100
AcDbArc
 50
90.0
 51
180.0
  0
ARC
  5
193D
330
1A
100
AcDbEntity
  8
ZUWAKU
100
AcDbCircle
 10
26.86721254812232
 20
20.97499965533641
 30
0.0
 40
0.525
100
AcDbArc
 50
270.0
 51
0.0
  0
LINE
  5
193E
330
1A
100
AcDbEntity
  8
ZUWAKU
100
AcDbLine
 10
27.39221254812241
 20
22.72499965533641
 30
0.0
 11
27.39221254812241
 21
20.97499965533641
 31
0.0
  0
ARC
  5
193F
330
1A
100
AcDbEntity
  8
ZUWAKU
100
AcDbCircle
 10
41.21721254812235
 20
22.72499965533641
 30
0.0
 40
0.525
100
AcDbArc
 50
90.0
 51
180.0
  0
LINE
  5
1940
330
1A
100
AcDbEntity
  8
ZUWAKU
100
AcDbLine
 10
36.17697838463368
 20
23.24999965533641
 30
0.0
 11
37.87586776424268
 21
23.24999965533641
 31
0.0
  0
ARC
  5
1941
330
1A
100
AcDbEntity
  8
ZUWAKU
100
AcDbCircle
 10
37.87586776424268
 20
22.72499965533641
 30
0.0
 40
0.525
100
AcDbArc
 50
342.4744316262769
 51
90.0
  0
LINE
  5
1942
330
1A
100
AcDbEntity
  8
ZUWAKU
100
AcDbLine
 10
38.37649866343815
 20
22.56690568716944
 30
0.0
 11
37.31485903030034
 21
19.20504684889984
 31
0.0
  0
ARC
  5
1943
330
1A
100
AcDbEntity
  8
ZUWAKU
100
AcDbCircle
 10
36.17697838463368
 20
22.72499965533641
 30
0.0
 40
0.525
100
AcDbArc
 50
90.0
 51
162.4744316262769
  0
LINE
  5
1944
330
1A
100
AcDbEntity
  8
ZUWAKU
100
AcDbLine
 10
48.39221254812241
 20
23.24999965533641
 30
0.0
 11
51.89221254812242
 21
23.24999965533641
 31
0.0
  0
LINE
  5
1945
330
1A
100
AcDbEntity
  8
ZUWAKU
100
AcDbLine
 10
51.89221254812242
 20
20.44999965533641
 30
0.0
 11
48.91721254812239
 21
20.44999965533641
 31
0.0
  0
ARC
  5
1946
330
1A
100
AcDbEntity
  8
ZUWAKU
100
AcDbCircle
 10
48.91721254812239
 20
19.92499965533641
 30
0.0
 40
0.525
100
AcDbArc
 50
90.0
 51
180.0
  0
LINE
  5
1947
330
1A
100
AcDbEntity
  8
ZUWAKU
100
AcDbLine
 10
48.39221254812241
 20
19.92499965533641
 30
0.0
 11
48.39221254812241
 21
18.63479762998107
 31
0.0
  0
ARC
  5
1948
330
1A
100
AcDbEntity
  8
ZUWAKU
100
AcDbCircle
 10
42.96721254812235
 20
22.72499965533641
 30
0.0
 40
0.525
100
AcDbArc
 50
0.0
 51
90.0
  0
LINE
  5
1949
330
1A
100
AcDbEntity
  8
ZUWAKU
100
AcDbLine
 10
45.59221254812235
 20
20.44999965533641
 30
0.0
 11
45.59221254812235
 21
18.63479762998107
 31
0.0
  0
ARC
  5
194A
330
1A
100
AcDbEntity
  8
ZUWAKU
100
AcDbCircle
 10
48.39221254812241
 20
20.44999965533641
 30
0.0
 40
2.799999999999999
100
AcDbArc
 50
90.0
 51
180.0
  0
ARC
  5
194B
330
1A
100
AcDbEntity
  8
ZUWAKU
100
AcDbCircle
 10
57.31721254812237
 20
22.72499965533641
 30
0.0
 40
0.525
100
AcDbArc
 50
0.0
 51
90.0
  0
ARC
  5
194C
330
1A
100
AcDbEntity
  8
ZUWAKU
100
AcDbCircle
 10
55.56721254812237
 20
22.72499965533641
 30
0.0
 40
0.525
100
AcDbArc
 50
90.0
 51
180.0
  0
LINE
  5
194D
330
1A
100
AcDbEntity
  8
ZUWAKU
100
AcDbLine
 10
57.31721254812237
 20
23.24999965533641
 30
0.0
 11
55.56721254812237
 21
23.24999965533641
 31
0.0
  0
ARC
  5
194E
330
1A
100
AcDbEntity
  8
ZUWAKU
100
AcDbCircle
 10
51.89221254812242
 20
22.72499965533641
 30
0.0
 40
0.525
100
AcDbArc
 50
0.0
 51
90.0
  0
ARC
  5
194F
330
1A
100
AcDbEntity
  8
ZUWAKU
100
AcDbCircle
 10
51.89221254812242
 20
20.97499965533641
 30
0.0
 40
0.525
100
AcDbArc
 50
270.0
 51
0.0
  0
LINE
  5
1950
330
1A
100
AcDbEntity
  8
ZUWAKU
100
AcDbLine
 10
52.41721254812239
 20
22.72499965533641
 30
0.0
 11
52.41721254812239
 21
20.97499965533641
 31
0.0
  0
LINE
  5
1951
330
1A
100
AcDbEntity
  8
ZUWAKU
100
AcDbLine
 10
68.51721254812241
 20
23.24999965533641
 30
0.0
 11
66.76721254812242
 21
23.24999965533641
 31
0.0
  0
ARC
  5
1952
330
1A
100
AcDbEntity
  8
ZUWAKU
100
AcDbCircle
 10
66.76721254812242
 20
22.72499965533641
 30
0.0
 40
0.525
100
AcDbArc
 50
90.0
 51
180.0
  0
ARC
  5
1953
330
1A
100
AcDbEntity
  8
ZUWAKU
100
AcDbCircle
 10
63.61721254812232
 20
22.72499965533641
 30
0.0
 40
0.525
100
AcDbArc
 50
0.0
 51
90.0
  0
LINE
  5
1954
330
1A
100
AcDbEntity
  8
ZUWAKU
100
AcDbLine
 10
63.61721254812232
 20
23.24999965533641
 30
0.0
 11
61.86721254812233
 21
23.24999965533641
 31
0.0
  0
ARC
  5
1955
330
1A
100
AcDbEntity
  8
ZUWAKU
100
AcDbCircle
 10
61.86721254812233
 20
22.72499965533641
 30
0.0
 40
0.525
100
AcDbArc
 50
90.0
 51
180.0
  0
ARC
  5
1956
330
1A
100
AcDbEntity
  8
ZUWAKU
100
AcDbCircle
 10
68.51721254812241
 20
22.72499965533641
 30
0.0
 40
0.525
100
AcDbArc
 50
0.0
 51
90.0
  0
TEXT
  5
1957
330
1A
100
AcDbEntity
  8
MOJI
100
AcDbText
 10
239.8272030741923
 20
3.204920712743831
 30
0.0
 40
5.599999999999999
  1
Ｈ１２０－Ｙ６０・ＵＴ６０
 41
0.9
  7
ｽﾀｲﾙ1
100
AcDbText
  0
TEXT
  5
1958
330
1A
100
AcDbEntity
  8
MOJI
100
AcDbText
 10
239.8272030741923
 20
18.00492071274379
 30
0.0
 40
5.599999999999999
  1
洋風じょうご
 41
0.9
  7
ｽﾀｲﾙ1
100
AcDbText
  0
LINE
  5
1959
330
1A
100
AcDbEntity
  8
ZUWAKU
100
AcDbLine
 10
208.2466016834091
 20
29.99999965533641
 30
0.0
 11
208.2466016834091
 21
0.7999996553364781
 31
0.0
  0
LINE
  5
195A
330
1A
100
AcDbEntity
  8
ZUWAKU
100
AcDbLine
 10
208.646601683409
 20
29.99999965533641
 30
0.0
 11
208.6466016834092
 21
0.7999996553364781
 31
0.0
  0
LINE
  5
195B
330
1A
100
AcDbEntity
  8
ZUWAKU
100
AcDbLine
 10
208.4466016834089
 20
29.99999965533641
 30
0.0
 11
208.4466016834091
 21
0.7999996553364781
 31
0.0
  0
TEXT
  5
195C
330
1A
100
AcDbEntity
  8
ZUWAKU
100
AcDbText
 10
209.7240467056187
 20
9.655356193722028
 30
0.0
 40
4.0
  1
サイズ
 41
0.9
  7
ｽﾀｲﾙ1
100
AcDbText
  0
TEXT
  5
195D
330
1A
100
AcDbEntity
  8
ZUWAKU
100
AcDbText
 10
209.7240467056185
 20
24.05535619372199
 30
0.0
 40
4.0
  1
品名
 41
0.9
  7
ｽﾀｲﾙ1
100
AcDbText
  0
LINE
  5
195E
330
1A
100
AcDbEntity
  8
ZUWAKU
100
AcDbLine
 10
648.8172029035454
 20
15.19999965533644
 30
0.0
 11
697.2490109418824
 21
15.19999965533644
 31
0.0
  0
LINE
  5
195F
330
1A
100
AcDbEntity
  8
ZUWAKU
100
AcDbLine
 10
648.8172029035456
 20
15.39999965533644
 30
0.0
 11
697.2490109418824
 21
15.39999965533644
 31
0.0
  0
LINE
  5
1960
330
1A
100
AcDbEntity
  8
ZUWAKU
100
AcDbLine
 10
648.8172029035454
 20
15.59999965533644
 30
0.0
 11
697.2490109418824
 21
15.59999965533644
 31
0.0
  0
TEXT
  5
1961
330
1A
100
AcDbEntity
  8
ZUWAKU
100
AcDbText
 10
658.2039380806436
 20
18.00492071274379
 30
0.0
 40
5.599999999999999
  1
　　．　　．　　
 41
0.9
  7
ｽﾀｲﾙ1
100
AcDbText
  0
LINE
  5
1962
330
1A
100
AcDbEntity
  8
ZUWAKU
100
AcDbLine
 10
505.1991798914821
 20
15.19999965533644
 30
0.0
 11
552.5269561594536
 21
15.19999965533644
 31
0.0
  0
LINE
  5
1963
330
1A
100
AcDbEntity
  8
ZUWAKU
100
AcDbLine
 10
505.1991798914821
 20
15.39999965533644
 30
0.0
 11
552.5269561594536
 21
15.39999965533644
 31
0.0
  0
LINE
  5
1964
330
1A
100
AcDbEntity
  8
ZUWAKU
100
AcDbLine
 10
505.1991798914821
 20
15.59999965533644
 30
0.0
 11
552.5269561594536
 21
15.59999965533644
 31
0.0
  0
TEXT
  5
1965
330
1A
100
AcDbEntity
  8
MOJI
100
AcDbText
 10
464.5946263965802
 20
11.94261737699639
 30
0.0
 40
5.599999999999999
  1
ＰＤ４９□
 41
0.9
  7
ｽﾀｲﾙ1
100
AcDbText
  0
LINE
  5
1966
330
1A
100
AcDbEntity
  8
ZUWAKU
100
AcDbLine
 10
447.6243643643324
 20
29.99999965533641
 30
0.0
 11
447.6243643643327
 21
0.7999996553364781
 31
0.0
  0
LINE
  5
1967
330
1A
100
AcDbEntity
  8
ZUWAKU
100
AcDbLine
 10
447.8243643643325
 20
29.99999965533641
 30
0.0
 11
447.8243643643327
 21
0.7999996553364781
 31
0.0
  0
LINE
  5
1968
330
1A
100
AcDbEntity
  8
ZUWAKU
100
AcDbLine
 10
447.4243643643326
 20
29.99999965533641
 30
0.0
 11
447.4243643643326
 21
0.7999996553364781
 31
0.0
  0
TEXT
  5
1969
330
1A
100
AcDbEntity
  8
MOJI
100
AcDbText
 10
528.040908365654
 20
18.00492071274379
 30
0.0
 40
5.599999999999999
  1
Ａ３
 41
0.9
  7
ｽﾀｲﾙ1
100
AcDbText
  0
LINE
  5
196A
330
1A
100
AcDbEntity
  8
ZUWAKU
100
AcDbLine
 10
504.999179891482
 20
29.99999965533641
 30
0.0
 11
504.9991798914823
 21
0.7999996553364781
 31
0.0
  0
LINE
  5
196B
330
1A
100
AcDbEntity
  8
ZUWAKU
100
AcDbLine
 10
505.1991798914821
 20
29.99999965533641
 30
0.0
 11
505.1991798914823
 21
0.7999996553364781
 31
0.0
  0
LINE
  5
196C
330
1A
100
AcDbEntity
  8
ZUWAKU
100
AcDbLine
 10
504.7991798914822
 20
29.99999965533641
 30
0.0
 11
504.7991798914822
 21
0.7999996553364781
 31
0.0
  0
TEXT
  5
196D
330
1A
100
AcDbEntity
  8
ZUWAKU
100
AcDbText
 10
462.6937620488483
 20
2.614070566475902
 30
0.0
 40
3.0
  1
□には色品番が入ります
 41
0.9
  7
ｽﾀｲﾙ1
100
AcDbText
  0
TEXT
  5
196E
330
1A
100
AcDbEntity
  8
ZUWAKU
100
AcDbText
 10
506.6766249136919
 20
9.655356193722028
 30
0.0
 40
4.0
  1
縮尺
 41
0.9
  7
ｽﾀｲﾙ1
100
AcDbText
  0
TEXT
  5
196F
330
1A
100
AcDbEntity
  8
MOJI
100
AcDbText
 10
528.040908365654
 20
3.204920712743831
 30
0.0
 40
5.599999999999999
  1
１/２
 41
0.9
  7
ｽﾀｲﾙ1
100
AcDbText
  0
TEXT
  5
1970
330
1A
100
AcDbEntity
  8
ZUWAKU
100
AcDbText
 10
449.3018093865421
 20
24.05535619372199
 30
0.0
 40
4.0
  1
品番
 41
0.9
  7
ｽﾀｲﾙ1
100
AcDbText
  0
TEXT
  5
1971
330
1A
100
AcDbEntity
  8
ZUWAKU
100
AcDbText
 10
506.6766249136917
 20
24.05535619372199
 30
0.0
 40
4.0
  1
用紙
 41
0.9
  7
ｽﾀｲﾙ1
100
AcDbText
  0
LINE
  5
1972
330
1A
100
AcDbEntity
  8
ZUWAKU
100
AcDbLine
 10
648.6172029035456
 20
29.99999965533641
 30
0.0
 11
648.6172029035458
 21
0.7999996553364781
 31
0.0
  0
LINE
  5
1973
330
1A
100
AcDbEntity
  8
ZUWAKU
100
AcDbLine
 10
648.8172029035456
 20
29.99999965533641
 30
0.0
 11
648.8172029035458
 21
0.7999996553364781
 31
0.0
  0
LINE
  5
1974
330
1A
100
AcDbEntity
  8
ZUWAKU
100
AcDbLine
 10
648.4172029035457
 20
29.99999965533641
 30
0.0
 11
648.4172029035457
 21
0.7999996553364781
 31
0.0
  0
LINE
  5
1975
330
1A
100
AcDbEntity
  8
ZUWAKU
100
AcDbLine
 10
552.7269561594534
 20
29.99999965533641
 30
0.0
 11
552.7269561594537
 21
0.7999996553364781
 31
0.0
  0
LINE
  5
1976
330
1A
100
AcDbEntity
  8
ZUWAKU
100
AcDbLine
 10
552.9269561594535
 20
29.99999965533641
 30
0.0
 11
552.9269561594538
 21
0.7999996553364781
 31
0.0
  0
LINE
  5
1977
330
1A
100
AcDbEntity
  8
ZUWAKU
100
AcDbLine
 10
552.5269561594536
 20
29.99999965533641
 30
0.0
 11
552.5269561594536
 21
0.7999996553364781
 31
0.0
  0
TEXT
  5
1978
330
1A
100
AcDbEntity
  8
ZUWAKU
100
AcDbText
 10
650.2946479257552
 20
24.05535619372199
 30
0.0
 40
4.0
  1
DATE
 41
0.9
  7
ｽﾀｲﾙ1
100
AcDbText
  0
LINE
  5
1979
330
1A
100
AcDbEntity
  8
ZUWAKU
100
AcDbLine
 10
697.2490109418824
 20
29.99999965533641
 30
0.0
 11
697.2490109418824
 21
0.7999996553364781
 31
0.0
  0
LINE
  5
197A
330
1A
100
AcDbEntity
  8
ZUWAKU
100
AcDbLine
 10
697.4490109418825
 20
29.99999965533641
 30
0.0
 11
697.4490109418825
 21
0.7999996553364781
 31
0.0
  0
LINE
  5
197B
330
1A
100
AcDbEntity
  8
ZUWAKU
100
AcDbLine
 10
697.6490109418823
 20
29.99999965533641
 30
0.0
 11
697.6490109418826
 21
0.7999996553364781
 31
0.0
  0
LINE
  5
197C
330
1A
100
AcDbEntity
  8
ZUWAKU
100
AcDbLine
 10
697.8490109418824
 20
29.99999965533641
 30
0.0
 11
697.8490109418826
 21
0.7999996553364781
 31
0.0
  0
TEXT
  5
197D
330
1A
100
AcDbEntity
  8
ZUWAKU
100
AcDbText
 10
708.528084585585
 20
17.55383899102321
 30
0.0
 40
6.0
  1
積水化学工業株式会社
 41
0.9
  7
ｽﾀｲﾙ1
100
AcDbText
  0
TEXT
  5
197E
330
1A
100
AcDbEntity
  8
ZUWAKU
100
AcDbText
 10
708.528084585585
 20
6.648839969190476
 30
0.0
 40
6.0
  1
建材事業部
 41
0.9
  7
ｽﾀｲﾙ1
100
AcDbText
  0
VIEWPORT
  5
22
330
17
100
AcDbEntity
 67
     1
  8
0
100
AcDbViewport
 10
313.6808219178082
 20
148.5
 30
0.0
 40
627.3616438356165
 41
297.0
 68
     2
 69
     1
1001
ACAD
1000
MVIEW
1002
{
1070
    16
1010
0.0
1020
0.0
1030
0.0
1010
0.0
1020
0.0
1030
1.0
1040
0.0
1040
297.0
1040
313.6808219178082
1040
148.5
1040
50.0
1040
0.0
1040
0.0
1070
     0
1070
   100
1070
     1
1070
     0
1070
     0
1070
     0
1070
     0
1070
     0
1040
0.0
1040
0.0
1040
0.0
1040
1.0
1040
1.0
1040
10.0
1040
10.0
1070
     0
1002
{
1002
}
1002
}
  0
VIEWPORT
  5
64
330
17
100
AcDbEntity
 67
     1
  8
VIEWPORT
100
AcDbViewport
 10
210.0
 20
148.5
 30
0.0
 40
420.0
 41
297.0
 68
     1
 69
     2
1001
ACAD
1000
MVIEW
1002
{
1070
    16
1010
0.0
1020
0.0
1030
0.0
1010
0.0
1020
0.0
1030
1.0
1040
0.0
1040
605.8799999999998
1040
420.0
1040
297.0
1040
50.0
1040
0.0
1040
0.0
1070
     0
1070
   100
1070
     1
1070
     0
1070
     0
1070
     0
1070
     0
1070
     0
1040
0.0
1040
0.0
1040
0.0
1040
10.0
1040
10.0
1040
0.0
1040
0.0
1070
     0
1002
{
1002
}
1002
}
  0
ENDSEC
  0
SECTION
  2
OBJECTS
  0
DICTIONARY
  5
C
330
0
100
AcDbDictionary
  3
ACAD_GROUP
350
D
  3
ACAD_LAYOUT
350
C42
  3
ACAD_MLINESTYLE
350
E
  3
ACAD_PLOTSETTINGS
350
C43
  3
ACAD_PLOTSTYLENAME
350
C40
  3
ACDBHEADERROUNDTRIPXREC
350
198E
  0
DICTIONARY
  5
DC3
330
1A
100
AcDbDictionary
280
     1
  3
ACAD_LAYOUTSELFREF
360
19B0
  0
DICTIONARY
  5
DC1
330
17
100
AcDbDictionary
280
     1
  3
ACAD_LAYOUTSELFREF
360
19AF
  0
DICTIONARY
  5
D
102
{ACAD_REACTORS
330
C
102
}
330
C
100
AcDbDictionary
  0
DICTIONARY
  5
C42
102
{ACAD_REACTORS
330
C
102
}
330
C
100
AcDbDictionary
  0
DICTIONARY
  5
E
102
{ACAD_REACTORS
330
C
102
}
330
C
100
AcDbDictionary
  3
STANDARD
350
13
  0
DICTIONARY
  5
C43
102
{ACAD_REACTORS
330
C
102
}
330
C
100
AcDbDictionary
  0
ACDBDICTIONARYWDFLT
  5
C40
102
{ACAD_REACTORS
330
C
102
}
330
C
100
AcDbDictionary
281
     1
  3
Normal
350
C41
100
AcDbDictionaryWithDefault
340
C41
1001
ACAD
1000
TREAT_AS_HARD
1070
     0
1000
TREAT_AS_HARD
1070
     0
1000
TREAT_AS_HARD
1070
     0
1000
TREAT_AS_HARD
1070
     0
1000
TREAT_AS_HARD
1070
     0
1000
TREAT_AS_HARD
1070
     0
  0
DICTIONARY
  5
198E
102
{ACAD_REACTORS
330
C
102
}
330
C
100
AcDbDictionary
  3
TSTACKALIGN
350
198F
  3
TSTACKSIZE
350
1990
  3
HYPERLINKBASE
350
1991
  3
STYLESHEET
350
1992
  3
LAYOUTDICT
350
1993
  3
PLOTSETDICT
350
1994
  3
PLOTSTYLNAMDICT
350
1995
  3
LWETCUNION
350
1996
  3
INSUNITS
350
1997
  3
CEPSNTYPE
350
1998
  3
FINGERPRINTGUID
350
1999
  3
VERSIONGUID
350
199A
  3
PSVPSCALE
350
199B
  3
DIMSTYLEDATA
350
199C
  3
PUCSORTHOREF
350
199D
  3
PUCSORTHOVIEW
350
199E
  3
PUCSBASE
350
199F
  3
PUCSORGTOP
350
19A0
  3
PUCSORGBOTTOM
350
19A1
  3
PUCSORGLEFT
350
19A2
  3
PUCSORGRIGHT
350
19A3
  3
PUCSORGFRONT
350
19A4
  3
PUCSORGBACK
350
19A5
  3
UCSORTHOREF
350
19A6
  3
UCSORTHOVIEW
350
19A7
  3
UCSBASE
350
19A8
  3
UCSORGTOP
350
19A9
  3
UCSORGBOTTOM
350
19AA
  3
UCSORGLEFT
350
19AB
  3
UCSORGRIGHT
350
19AC
  3
UCSORGFRONT
350
19AD
  3
UCSORGBACK
350
19AE
  0
XRECORD
  5
19B0
102
{ACAD_REACTORS
330
DC3
102
}
330
DC3
100
AcDbXrecord
340
1A
  0
XRECORD
  5
19AF
102
{ACAD_REACTORS
330
DC1
102
}
330
DC1
100
AcDbXrecord
340
17
  0
MLINESTYLE
  5
13
102
{ACAD_REACTORS
330
E
102
}
330
E
100
AcDbMlineStyle
  2
STANDARD
 70
     0
  3

 62
     0
 51
90.0
 52
90.0
 71
     2
 49
0.5
 62
   256
  6
BYLAYER
 49
-0.5
 62
   256
  6
BYLAYER
  0
ACDBPLACEHOLDER
  5
C41
102
{ACAD_REACTORS
330
C40
102
}
330
C40
100
AcDbPlaceHolder
280
     0
  0
XRECORD
  5
198F
102
{ACAD_REACTORS
330
198E
102
}
330
198E
100
AcDbXrecord
 90
        1
  0
XRECORD
  5
1990
102
{ACAD_REACTORS
330
198E
102
}
330
198E
100
AcDbXrecord
 90
       70
  0
XRECORD
  5
1991
102
{ACAD_REACTORS
330
198E
102
}
330
198E
100
AcDbXrecord
  1

  0
XRECORD
  5
1992
102
{ACAD_REACTORS
330
198E
102
}
330
198E
100
AcDbXrecord
  1
systemprinter.ctb
  0
XRECORD
  5
1993
102
{ACAD_REACTORS
330
198E
102
}
330
198E
100
AcDbXrecord
340
C42
  0
XRECORD
  5
1994
102
{ACAD_REACTORS
330
198E
102
}
330
198E
100
AcDbXrecord
340
C43
  0
XRECORD
  5
1995
102
{ACAD_REACTORS
330
198E
102
}
330
198E
100
AcDbXrecord
340
C40
  0
XRECORD
  5
1996
102
{ACAD_REACTORS
330
198E
102
}
330
198E
100
AcDbXrecord
 90
    10781
  0
XRECORD
  5
1997
102
{ACAD_REACTORS
330
198E
102
}
330
198E
100
AcDbXrecord
 90
        0
  0
XRECORD
  5
1998
102
{ACAD_REACTORS
330
198E
102
}
330
198E
100
AcDbXrecord
 90
        0
  0
XRECORD
  5
1999
102
{ACAD_REACTORS
330
198E
102
}
330
198E
100
AcDbXrecord
  1
{844639E2-177E-11D4-932C-444553540000}
  0
XRECORD
  5
199A
102
{ACAD_REACTORS
330
198E
102
}
330
198E
100
AcDbXrecord
  1
{BDE617C8-97B2-448C-BD10-17A5B608B061}
  0
XRECORD
  5
199B
102
{ACAD_REACTORS
330
198E
102
}
330
198E
100
AcDbXrecord
 40
0.0
  0
XRECORD
  5
199C
102
{ACAD_REACTORS
330
198E
102
}
330
198E
100
AcDbXrecord
1000
DSTYLE
1002
{
1070
   279
 70
     2
1070
   341
340
6D
1070
   343
340
6D
1070
   344
340
6D
1070
   371
 70
    -1
1070
   372
 70
    -1
1002
}
  0
XRECORD
  5
199D
102
{ACAD_REACTORS
330
198E
102
}
330
198E
100
AcDbXrecord
340
0
  0
XRECORD
  5
199E
102
{ACAD_REACTORS
330
198E
102
}
330
198E
100
AcDbXrecord
 70
     0
  0
XRECORD
  5
199F
102
{ACAD_REACTORS
330
198E
102
}
330
198E
100
AcDbXrecord
340
0
  0
XRECORD
  5
19A0
102
{ACAD_REACTORS
330
198E
102
}
330
198E
100
AcDbXrecord
 10
0.0
 20
0.0
 30
0.0
  0
XRECORD
  5
19A1
102
{ACAD_REACTORS
330
198E
102
}
330
198E
100
AcDbXrecord
 10
0.0
 20
0.0
 30
0.0
  0
XRECORD
  5
19A2
102
{ACAD_REACTORS
330
198E
102
}
330
198E
100
AcDbXrecord
 10
0.0
 20
0.0
 30
0.0
  0
XRECORD
  5
19A3
102
{ACAD_REACTORS
330
198E
102
}
330
198E
100
AcDbXrecord
 10
0.0
 20
0.0
 30
0.0
  0
XRECORD
  5
19A4
102
{ACAD_REACTORS
330
198E
102
}
330
198E
100
AcDbXrecord
 10
0.0
 20
0.0
 30
0.0
  0
XRECORD
  5
19A5
102
{ACAD_REACTORS
330
198E
102
}
330
198E
100
AcDbXrecord
 10
0.0
 20
0.0
 30
0.0
  0
XRECORD
  5
19A6
102
{ACAD_REACTORS
330
198E
102
}
330
198E
100
AcDbXrecord
340
0
  0
XRECORD
  5
19A7
102
{ACAD_REACTORS
330
198E
102
}
330
198E
100
AcDbXrecord
 70
     0
  0
XRECORD
  5
19A8
102
{ACAD_REACTORS
330
198E
102
}
330
198E
100
AcDbXrecord
340
0
  0
XRECORD
  5
19A9
102
{ACAD_REACTORS
330
198E
102
}
330
198E
100
AcDbXrecord
 10
0.0
 20
0.0
 30
0.0
  0
XRECORD
  5
19AA
102
{ACAD_REACTORS
330
198E
102
}
330
198E
100
AcDbXrecord
 10
0.0
 20
0.0
 30
0.0
  0
XRECORD
  5
19AB
102
{ACAD_REACTORS
330
198E
102
}
330
198E
100
AcDbXrecord
 10
0.0
 20
0.0
 30
0.0
  0
XRECORD
  5
19AC
102
{ACAD_REACTORS
330
198E
102
}
330
198E
100
AcDbXrecord
 10
0.0
 20
0.0
 30
0.0
  0
XRECORD
  5
19AD
102
{ACAD_REACTORS
330
198E
102
}
330
198E
100
AcDbXrecord
 10
0.0
 20
0.0
 30
0.0
  0
XRECORD
  5
19AE
102
{ACAD_REACTORS
330
198E
102
}
330
198E
100
AcDbXrecord
 10
0.0
 20
0.0
 30
0.0
  0
ENDSEC
  0
EOF
