  0
SECTION
  2
HEADER
  9
$ACADVER
  1
AC1014
  9
$ACADMAINTVER
 70
     9
  9
$DWGCODEPAGE
  3
ANSI_932
  9
$INSBASE
 10
0.0
 20
0.0
 30
0.0
  9
$EXTMIN
 10
-0.0513266502548504
 20
-0.0362522485420414
 30
-0.0015258207003583
  9
$EXTMAX
 10
1595.302677155125
 20
1103.290468966615
 30
0.0000000349246037
  9
$LIMMIN
 10
0.0
 20
0.0
  9
$LIMMAX
 10
1682.0
 20
1188.0
  9
$ORTHOMODE
 70
     0
  9
$REGENMODE
 70
     1
  9
$FILLMODE
 70
     1
  9
$QTEXTMODE
 70
     0
  9
$MIRRTEXT
 70
     1
  9
$DRAGMODE
 70
     2
  9
$LTSCALE
 40
5.657142857142857
  9
$OSMODE
 70
    35
  9
$ATTMODE
 70
     1
  9
$TEXTSIZE
 40
19.8
  9
$TRACEWID
 40
0.05
  9
$TEXTSTYLE
  7
ｽﾀｲﾙ1
  9
$CLAYER
  8
SUNPOU
  9
$CELTYPE
  6
BYLAYER
  9
$CECOLOR
 62
   256
  9
$CELTSCALE
 40
1.0
  9
$DELOBJ
 70
     1
  9
$DISPSILH
 70
     0
  9
$DIMSCALE
 40
1.0
  9
$DIMASZ
 40
14.0
  9
$DIMEXO
 40
12.0
  9
$DIMDLI
 40
28.0
  9
$DIMRND
 40
0.0
  9
$DIMDLE
 40
0.0
  9
$DIMEXE
 40
6.0
  9
$DIMTP
 40
0.0
  9
$DIMTM
 40
0.0
  9
$DIMTXT
 40
12.0
  9
$DIMCEN
 40
150.0
  9
$DIMTSZ
 40
0.0
  9
$DIMTOL
 70
     0
  9
$DIMLIM
 70
     0
  9
$DIMTIH
 70
     0
  9
$DIMTOH
 70
     0
  9
$DIMSE1
 70
     0
  9
$DIMSE2
 70
     0
  9
$DIMTAD
 70
     3
  9
$DIMZIN
 70
     0
  9
$DIMBLK
  1

  9
$DIMASO
 70
     1
  9
$DIMSHO
 70
     1
  9
$DIMPOST
  1

  9
$DIMAPOST
  1

  9
$DIMALT
 70
     0
  9
$DIMALTD
 70
     2
  9
$DIMALTF
 40
0.03937
  9
$DIMLFAC
 40
1.0
  9
$DIMTOFL
 70
     1
  9
$DIMTVP
 40
0.0
  9
$DIMTIX
 70
     0
  9
$DIMSOXD
 70
     0
  9
$DIMSAH
 70
     1
  9
$DIMBLK1
  1
OPEN
  9
$DIMBLK2
  1
OPEN
  9
$DIMSTYLE
  2
STANDARD
  9
$DIMCLRD
 70
   256
  9
$DIMCLRE
 70
   256
  9
$DIMCLRT
 70
   256
  9
$DIMTFAC
 40
1.0
  9
$DIMGAP
 40
4.0
  9
$DIMJUST
 70
     0
  9
$DIMSD1
 70
     0
  9
$DIMSD2
 70
     0
  9
$DIMTOLJ
 70
     1
  9
$DIMTZIN
 70
     0
  9
$DIMALTZ
 70
     0
  9
$DIMALTTZ
 70
     0
  9
$DIMFIT
 70
     3
  9
$DIMUPT
 70
     0
  9
$DIMUNIT
 70
     2
  9
$DIMDEC
 70
     0
  9
$DIMTDEC
 70
     0
  9
$DIMALTU
 70
     2
  9
$DIMALTTD
 70
     2
  9
$DIMTXSTY
  7
STANDARD
  9
$DIMAUNIT
 70
     0
  9
$LUNITS
 70
     2
  9
$LUPREC
 70
     4
  9
$SKETCHINC
 40
0.1
  9
$FILLETRAD
 40
20.0
  9
$AUNITS
 70
     0
  9
$AUPREC
 70
     0
  9
$MENU
  1
acad
  9
$ELEVATION
 40
0.0
  9
$PELEVATION
 40
0.0
  9
$THICKNESS
 40
0.0
  9
$LIMCHECK
 70
     0
  9
$BLIPMODE
 70
     0
  9
$CHAMFERA
 40
56.57142857142858
  9
$CHAMFERB
 40
56.57142857142858
  9
$CHAMFERC
 40
113.1428571428571
  9
$CHAMFERD
 40
0.0
  9
$SKPOLY
 70
     0
  9
$TDCREATE
 40
2451019.669682407
  9
$TDUPDATE
 40
2453507.426696863
  9
$TDINDWG
 40
0.1147517361
  9
$TDUSRTIMER
 40
0.1147517361
  9
$USRTIMER
 70
     1
  9
$ANGBASE
 50
0.0
  9
$ANGDIR
 70
     0
  9
$PDMODE
 70
     0
  9
$PDSIZE
 40
0.0
  9
$PLINEWID
 40
0.0
  9
$COORDS
 70
     1
  9
$SPLFRAME
 70
     0
  9
$SPLINETYPE
 70
     6
  9
$SPLINESEGS
 70
     8
  9
$ATTDIA
 70
     0
  9
$ATTREQ
 70
     1
  9
$HANDLING
 70
 10241
  9
$HANDSEED
  5
1B12
  9
$SURFTAB1
 70
     6
  9
$SURFTAB2
 70
     6
  9
$SURFTYPE
 70
     6
  9
$SURFU
 70
     6
  9
$SURFV
 70
     6
  9
$UCSNAME
  2

  9
$UCSORG
 10
0.0
 20
0.0
 30
0.0
  9
$UCSXDIR
 10
1.0
 20
0.0
 30
0.0
  9
$UCSYDIR
 10
0.0
 20
1.0
 30
0.0
  9
$PUCSNAME
  2

  9
$PUCSORG
 10
0.0
 20
0.0
 30
0.0
  9
$PUCSXDIR
 10
1.0
 20
0.0
 30
0.0
  9
$PUCSYDIR
 10
0.0
 20
1.0
 30
0.0
  9
$USERI1
 70
     0
  9
$USERI2
 70
     0
  9
$USERI3
 70
     0
  9
$USERI4
 70
     0
  9
$USERI5
 70
     0
  9
$USERR1
 40
0.0
  9
$USERR2
 40
0.0
  9
$USERR3
 40
0.0
  9
$USERR4
 40
0.0
  9
$USERR5
 40
0.0
  9
$WORLDVIEW
 70
     1
  9
$SHADEDGE
 70
     3
  9
$SHADEDIF
 70
    70
  9
$TILEMODE
 70
     1
  9
$MAXACTVP
 70
    16
  9
$PINSBASE
 10
0.0
 20
0.0
 30
0.0
  9
$PLIMCHECK
 70
     0
  9
$PEXTMIN
 10
0.0
 20
0.0
 30
0.0
  9
$PEXTMAX
 10
420.0
 20
297.0
 30
0.0
  9
$PLIMMIN
 10
0.0
 20
0.0
  9
$PLIMMAX
 10
420.0
 20
297.0
  9
$UNITMODE
 70
     0
  9
$VISRETAIN
 70
     0
  9
$PLINEGEN
 70
     0
  9
$PSLTSCALE
 70
     1
  9
$TREEDEPTH
 70
  3020
  9
$PICKSTYLE
 70
     1
  9
$CMLSTYLE
  2
STANDARD
  9
$CMLJUST
 70
     0
  9
$CMLSCALE
 40
20.0
  9
$PROXYGRAPHICS
 70
     1
  9
$MEASUREMENT
 70
     1
  0
ENDSEC
  0
SECTION
  2
CLASSES
  0
CLASS
  1
ACDBDICTIONARYWDFLT
  2
AcDbDictionaryWithDefault
  3
AutoCAD 2000
 90
        0
280
     0
281
     0
  0
CLASS
  1
ACDBPLACEHOLDER
  2
AcDbPlaceHolder
  3
AutoCAD 2000
 90
        0
280
     0
281
     0
  0
CLASS
  1
LAYOUT
  2
AcDbLayout
  3
AutoCAD 2000
 90
        0
280
     0
281
     0
  0
CLASS
  1
LONG_TRANSACTION
  2
AcDbLongTransaction
  3
AutoCAD 2000
 90
        0
280
     0
281
     0
  0
CLASS
  1
LWPOLYLINE
  2
AcDbPolyline
  3
AutoCAD 2000
 90
        0
280
     0
281
     1
  0
CLASS
  1
HATCH
  2
AcDbHatch
  3
AutoCAD 2000
 90
        0
280
     0
281
     1
  0
CLASS
  1
XRECORD
  2
AcDbXrecord
  3
AutoCAD 2000
 90
        0
280
     0
281
     0
  0
CLASS
  1
LONG_TRANSACTION
  2
AcDbLongTransaction
  3
AutoCAD 2000
 90
        0
280
     0
281
     0
  0
CLASS
  1
LWPOLYLINE
  2
AcDbPolyline
  3
AutoCAD 2000
 90
        0
280
     0
281
     1
  0
CLASS
  1
HATCH
  2
AcDbHatch
  3
AutoCAD 2000
 90
        0
280
     0
281
     1
  0
CLASS
  1
XRECORD
  2
AcDbXrecord
  3
AutoCAD 2000
 90
        0
280
     0
281
     0
  0
CLASS
  1
LONG_TRANSACTION
  2
AcDbLongTransaction
  3
AutoCAD 2000
 90
        0
280
     0
281
     0
  0
CLASS
  1
LWPOLYLINE
  2
AcDbPolyline
  3
AutoCAD 2000
 90
        0
280
     0
281
     1
  0
CLASS
  1
HATCH
  2
AcDbHatch
  3
AutoCAD 2000
 90
        0
280
     0
281
     1
  0
CLASS
  1
XRECORD
  2
AcDbXrecord
  3
AutoCAD 2000
 90
        0
280
     0
281
     0
  0
CLASS
  1
LONG_TRANSACTION
  2
AcDbLongTransaction
  3
AutoCAD 2000
 90
        0
280
     0
281
     0
  0
CLASS
  1
LWPOLYLINE
  2
AcDbPolyline
  3
AutoCAD 2000
 90
        0
280
     0
281
     1
  0
CLASS
  1
HATCH
  2
AcDbHatch
  3
AutoCAD 2000
 90
        0
280
     0
281
     1
  0
CLASS
  1
XRECORD
  2
AcDbXrecord
  3
AutoCAD 2000
 90
        0
280
     0
281
     0
  0
ENDSEC
  0
SECTION
  2
TABLES
  0
TABLE
  2
VPORT
  5
8
330
0
100
AcDbSymbolTable
 70
     3
  0
VPORT
  5
1AEE
330
8
100
AcDbSymbolTableRecord
100
AcDbViewportTableRecord
  2
*ACTIVE
 70
     0
 10
0.0
 20
0.0
 11
1.0
 21
1.0
 12
852.0885569799391
 22
580.6692818210528
 13
0.0
 23
0.0
 14
10.0
 24
10.0
 15
10.0
 25
10.0
 16
0.0
 26
0.0
 36
1.0
 17
0.0
 27
0.0
 37
0.0
 40
1201.169608440391
 41
1.752310536044362
 42
50.0
 43
0.0
 44
0.0
 50
0.0
 51
0.0
 71
     0
 72
   100
 73
     1
 74
     0
 75
     0
 76
     0
 77
     0
 78
     0
  0
ENDTAB
  0
TABLE
  2
LTYPE
  5
5
330
0
100
AcDbSymbolTable
 70
     2
  0
LTYPE
  5
13
330
5
100
AcDbSymbolTableRecord
100
AcDbLinetypeTableRecord
  2
BYBLOCK
 70
     0
  3

 72
    65
 73
     0
 40
0.0
  0
LTYPE
  5
14
330
5
100
AcDbSymbolTableRecord
100
AcDbLinetypeTableRecord
  2
BYLAYER
 70
     0
  3

 72
    65
 73
     0
 40
0.0
  0
LTYPE
  5
15
330
5
100
AcDbSymbolTableRecord
100
AcDbLinetypeTableRecord
  2
CONTINUOUS
 70
     0
  3
Solid line
 72
    65
 73
     0
 40
0.0
  0
LTYPE
  5
11C
330
5
100
AcDbSymbolTableRecord
100
AcDbLinetypeTableRecord
  2
CENTER
 70
     0
  3
____ _ ____ _ ____ _ ____ _ ____ _ ____ _ ____ 
 72
    65
 73
     4
 40
2.0
 49
1.25
 74
     0
 49
-0.25
 74
     0
 49
0.25
 74
     0
 49
-0.25
 74
     0
  0
ENDTAB
  0
TABLE
  2
LAYER
  5
2
330
0
100
AcDbSymbolTable
 70
     8
  0
LAYER
  5
F
330
2
100
AcDbSymbolTableRecord
100
AcDbLayerTableRecord
  2
0
 70
     0
 62
     7
  6
CONTINUOUS
  0
LAYER
  5
23
330
2
100
AcDbSymbolTableRecord
100
AcDbLayerTableRecord
  2
VIEWPORT
 70
     0
 62
     7
  6
CONTINUOUS
  0
LAYER
  5
2D
330
2
100
AcDbSymbolTableRecord
100
AcDbLayerTableRecord
  2
ZUWAKU
 70
     0
 62
     7
  6
CONTINUOUS
  0
LAYER
  5
A6
330
2
100
AcDbSymbolTableRecord
100
AcDbLayerTableRecord
  2
DEFPOINTS
 70
     0
 62
     7
  6
CONTINUOUS
  0
LAYER
  5
1F5
330
2
100
AcDbSymbolTableRecord
100
AcDbLayerTableRecord
  2
SEIHIN
 70
     0
 62
     3
  6
CONTINUOUS
  0
LAYER
  5
5FF
330
2
100
AcDbSymbolTableRecord
100
AcDbLayerTableRecord
  2
CENTER_L
 70
     0
 62
     1
  6
CENTER
  0
LAYER
  5
600
330
2
100
AcDbSymbolTableRecord
100
AcDbLayerTableRecord
  2
SUNPOU
 70
     0
 62
     4
  6
CONTINUOUS
  0
LAYER
  5
14B3
330
2
100
AcDbSymbolTableRecord
100
AcDbLayerTableRecord
  2
MOJI
 70
     0
 62
     2
  6
CONTINUOUS
  0
ENDTAB
  0
TABLE
  2
STYLE
  5
3
330
0
100
AcDbSymbolTable
 70
     2
  0
STYLE
  5
10
330
3
100
AcDbSymbolTableRecord
100
AcDbTextStyleTableRecord
  2
STANDARD
 70
     0
 40
0.0
 41
1.0
 50
0.0
 71
     0
 42
19.8
  3
txt
  4
c:\PROGRAM FILES\AUTOCAD LT\ms\bigfont.shx
  0
STYLE
  5
14A8
330
3
100
AcDbSymbolTableRecord
100
AcDbTextStyleTableRecord
  2
ｽﾀｲﾙ1
 70
     0
 40
0.0
 41
1.0
 50
0.0
 71
     0
 42
19.8
  3
MS Gothic.ttf
  4

1001
ACAD
1000
MS Gothic
1071
    32817
  0
ENDTAB
  0
TABLE
  2
VIEW
  5
6
330
0
100
AcDbSymbolTable
 70
     0
  0
ENDTAB
  0
TABLE
  2
UCS
  5
7
330
0
100
AcDbSymbolTable
 70
     0
  0
ENDTAB
  0
TABLE
  2
APPID
  5
9
330
0
100
AcDbSymbolTable
 70
     1
  0
APPID
  5
11
330
9
100
AcDbSymbolTableRecord
100
AcDbRegAppTableRecord
  2
ACAD
 70
     0
  0
ENDTAB
  0
TABLE
  2
DIMSTYLE
  5
A
330
0
100
AcDbSymbolTable
 70
     1
  0
DIMSTYLE
105
1D
102
{ACAD_REACTORS
330
1894
330
1895
330
18B8
330
18BE
330
18C2
330
190C
330
195D
330
1961
330
1962
330
1991
330
19C9
102
}
330
A
100
AcDbSymbolTableRecord
100
AcDbDimStyleTableRecord
  2
STANDARD
 70
     0
  3

  4

  5

  6

  7

 40
1.0
 41
0.18
 42
0.0625
 43
0.38
 44
0.18
 45
0.0
 46
0.0
 47
0.0
 48
0.0
140
0.18
141
0.09
142
0.0
143
25.4
144
1.0
145
0.0
146
1.0
147
0.09
 71
     0
 72
     0
 73
     1
 74
     1
 75
     0
 76
     0
 77
     0
 78
     0
170
     0
171
     2
172
     0
173
     0
174
     0
175
     0
176
     0
177
     0
178
     0
270
     2
271
     4
272
     4
273
     2
274
     2
340
10
275
     0
280
     0
281
     0
282
     0
283
     1
284
     0
285
     0
286
     0
287
     3
288
     0
  0
ENDTAB
  0
TABLE
  2
BLOCK_RECORD
  5
1
330
0
100
AcDbSymbolTable
 70
    12
  0
BLOCK_RECORD
  5
19
102
{ACAD_XDICTIONARY
360
13D5
102
}
330
1
100
AcDbSymbolTableRecord
100
AcDbBlockTableRecord
  2
*MODEL_SPACE
  0
BLOCK_RECORD
  5
16
102
{ACAD_XDICTIONARY
360
13D3
102
}
330
1
100
AcDbSymbolTableRecord
100
AcDbBlockTableRecord
  2
*PAPER_SPACE
  0
BLOCK_RECORD
  5
27
330
1
100
AcDbSymbolTableRecord
100
AcDbBlockTableRecord
  2
_OPEN
  0
BLOCK_RECORD
  5
19FC
330
1
100
AcDbSymbolTableRecord
100
AcDbBlockTableRecord
  2
*D1
  0
BLOCK_RECORD
  5
1A08
330
1
100
AcDbSymbolTableRecord
100
AcDbBlockTableRecord
  2
*D2
  0
BLOCK_RECORD
  5
1A14
330
1
100
AcDbSymbolTableRecord
100
AcDbBlockTableRecord
  2
*D3
  0
BLOCK_RECORD
  5
1A20
330
1
100
AcDbSymbolTableRecord
100
AcDbBlockTableRecord
  2
*D4
  0
BLOCK_RECORD
  5
1A2C
330
1
100
AcDbSymbolTableRecord
100
AcDbBlockTableRecord
  2
*D5
  0
BLOCK_RECORD
  5
1A38
330
1
100
AcDbSymbolTableRecord
100
AcDbBlockTableRecord
  2
*D6
  0
BLOCK_RECORD
  5
1A44
330
1
100
AcDbSymbolTableRecord
100
AcDbBlockTableRecord
  2
*D7
  0
BLOCK_RECORD
  5
1A50
330
1
100
AcDbSymbolTableRecord
100
AcDbBlockTableRecord
  2
*D8
  0
BLOCK_RECORD
  5
1A5C
330
1
100
AcDbSymbolTableRecord
100
AcDbBlockTableRecord
  2
*D9
  0
BLOCK_RECORD
  5
1A68
330
1
100
AcDbSymbolTableRecord
100
AcDbBlockTableRecord
  2
*D10
  0
BLOCK_RECORD
  5
1A76
330
1
100
AcDbSymbolTableRecord
100
AcDbBlockTableRecord
  2
*D11
  0
ENDTAB
  0
ENDSEC
  0
SECTION
  2
BLOCKS
  0
BLOCK
  5
1A
330
19
100
AcDbEntity
  8
0
100
AcDbBlockBegin
  2
*MODEL_SPACE
 70
     0
 10
0.0
 20
0.0
 30
0.0
  3
*MODEL_SPACE
  1

  0
ENDBLK
  5
1B
330
19
100
AcDbEntity
  8
0
100
AcDbBlockEnd
  0
BLOCK
  5
17
330
16
100
AcDbEntity
 67
     1
  8
0
100
AcDbBlockBegin
  2
*PAPER_SPACE
 70
     0
 10
0.0
 20
0.0
 30
0.0
  3
*PAPER_SPACE
  1

  0
ENDBLK
  5
18
330
16
100
AcDbEntity
 67
     1
  8
0
100
AcDbBlockEnd
  0
BLOCK
  5
28
330
27
100
AcDbEntity
  8
0
100
AcDbBlockBegin
  2
_OPEN
 70
     0
 10
0.0
 20
0.0
 30
0.0
  3
_OPEN
  1

  0
LINE
  5
29
330
27
100
AcDbEntity
  8
0
  6
BYBLOCK
 62
     0
100
AcDbLine
 10
-1.0
 20
0.1666666666666666
 30
0.0
 11
0.0
 21
0.0
 31
0.0
  0
LINE
  5
2A
330
27
100
AcDbEntity
  8
0
  6
BYBLOCK
 62
     0
100
AcDbLine
 10
0.0
 20
0.0
 30
0.0
 11
-1.0
 21
-0.1666666666666666
 31
0.0
  0
LINE
  5
2B
330
27
100
AcDbEntity
  8
0
  6
BYBLOCK
 62
     0
100
AcDbLine
 10
0.0
 20
0.0
 30
0.0
 11
-1.0
 21
0.0
 31
0.0
  0
ENDBLK
  5
2C
330
27
100
AcDbEntity
  8
0
100
AcDbBlockEnd
  0
BLOCK
  5
1A06
330
19FC
100
AcDbEntity
  8
0
100
AcDbBlockBegin
  2
*D1
 70
     1
 10
0.0
 20
0.0
 30
0.0
  3
*D1
  1

  0
LINE
  5
1A82
330
19FC
100
AcDbEntity
  8
SUNPOU
  6
CONTINUOUS
100
AcDbLine
 10
885.4853109254902
 20
639.56688471184
 30
0.0
 11
804.9449820535635
 21
639.56688471184
 31
0.0
  0
LINE
  5
1A83
330
19FC
100
AcDbEntity
  8
SUNPOU
  6
CONTINUOUS
100
AcDbLine
 10
856.69919492409
 20
595.5668847118399
 30
0.0
 11
804.9449820535635
 21
595.5668847118399
 31
0.0
  0
LINE
  5
1A84
330
19FC
100
AcDbEntity
  8
SUNPOU
  6
CONTINUOUS
100
AcDbLine
 10
810.9449820535635
 20
625.56688471184
 30
0.0
 11
810.9449820535635
 21
609.56688471184
 31
0.0
  0
INSERT
  5
1A85
330
19FC
100
AcDbEntity
  8
SUNPOU
  6
CONTINUOUS
100
AcDbBlockReference
  2
_OPEN
 10
810.9449820535635
 20
639.56688471184
 30
0.0
 41
14.0
 42
14.0
 43
14.0
 50
90.0
  0
INSERT
  5
1A86
330
19FC
100
AcDbEntity
  8
SUNPOU
  6
CONTINUOUS
100
AcDbBlockReference
  2
_OPEN
 10
810.9449820535635
 20
595.5668847118399
 30
0.0
 41
14.0
 42
14.0
 43
14.0
 50
270.0
  0
MTEXT
  5
1A87
330
19FC
100
AcDbEntity
  8
SUNPOU
  6
CONTINUOUS
100
AcDbMText
 10
800.9449820535634
 20
617.5668847118402
 30
0.0
 40
12.0
 41
0.0
 71
     5
 72
     1
  1
\A1;※44
 11
0.0000000000000001
 21
1.0
 31
0.0
1001
ACAD
1000
MTEXTBEGIN
1070
    73
1070
     1
1070
    44
1040
1.0
1070
    74
1070
     0
1000
MTEXTEND
  0
POINT
  5
1A88
330
19FC
100
AcDbEntity
  8
DEFPOINTS
  6
CONTINUOUS
 62
     0
100
AcDbPoint
 10
897.4853109254901
 20
639.56688471184
 30
0.0
  0
POINT
  5
1A89
330
19FC
100
AcDbEntity
  8
DEFPOINTS
  6
CONTINUOUS
 62
     0
100
AcDbPoint
 10
868.6991949240901
 20
595.5668847118399
 30
0.0
  0
POINT
  5
1A8A
330
19FC
100
AcDbEntity
  8
DEFPOINTS
  6
CONTINUOUS
 62
     0
100
AcDbPoint
 10
810.9449820535635
 20
595.5668847118399
 30
0.0
  0
ENDBLK
  5
1A07
330
19FC
100
AcDbEntity
  8
0
100
AcDbBlockEnd
  0
BLOCK
  5
1A12
330
1A08
100
AcDbEntity
  8
0
100
AcDbBlockBegin
  2
*D2
 70
     1
 10
0.0
 20
0.0
 30
0.0
  3
*D2
  1

  0
LINE
  5
1A8B
330
1A08
100
AcDbEntity
  8
SUNPOU
  6
CONTINUOUS
100
AcDbLine
 10
869.1262876535205
 20
398.870790816966
 30
0.0
 11
804.9449820535635
 21
398.870790816966
 31
0.0
  0
LINE
  5
1A8C
330
1A08
100
AcDbEntity
  8
SUNPOU
  6
CONTINUOUS
100
AcDbLine
 10
969.3884655599902
 20
257.3503838301399
 30
0.0
 11
804.9449820535635
 21
257.35038383014
 31
0.0
  0
LINE
  5
1A8D
330
1A08
100
AcDbEntity
  8
SUNPOU
  6
CONTINUOUS
100
AcDbLine
 10
810.9449820535635
 20
384.870790816966
 30
0.0
 11
810.9449820535635
 21
271.35038383014
 31
0.0
  0
INSERT
  5
1A8E
330
1A08
100
AcDbEntity
  8
SUNPOU
  6
CONTINUOUS
100
AcDbBlockReference
  2
_OPEN
 10
810.9449820535635
 20
398.870790816966
 30
0.0
 41
14.0
 42
14.0
 43
14.0
 50
90.0
  0
INSERT
  5
1A8F
330
1A08
100
AcDbEntity
  8
SUNPOU
  6
CONTINUOUS
100
AcDbBlockReference
  2
_OPEN
 10
810.9449820535635
 20
257.35038383014
 30
0.0
 41
14.0
 42
14.0
 43
14.0
 50
270.0
  0
MTEXT
  5
1A90
330
1A08
100
AcDbEntity
  8
SUNPOU
  6
CONTINUOUS
100
AcDbMText
 10
800.9449820535634
 20
328.1105873235531
 30
0.0
 40
12.0
 41
0.0
 71
     5
 72
     1
  1
\A1;{141}
 11
0.0000000000000001
 21
1.0
 31
0.0
1001
ACAD
1000
MTEXTBEGIN
1070
    73
1070
     1
1070
    44
1040
1.0
1070
    74
1070
     0
1000
MTEXTEND
  0
POINT
  5
1A91
330
1A08
100
AcDbEntity
  8
DEFPOINTS
  6
CONTINUOUS
 62
     0
100
AcDbPoint
 10
881.1262876535206
 20
398.870790816966
 30
0.0
  0
POINT
  5
1A92
330
1A08
100
AcDbEntity
  8
DEFPOINTS
  6
CONTINUOUS
 62
     0
100
AcDbPoint
 10
981.3884655599903
 20
257.3503838301399
 30
0.0
  0
POINT
  5
1A93
330
1A08
100
AcDbEntity
  8
DEFPOINTS
  6
CONTINUOUS
 62
     0
100
AcDbPoint
 10
810.9449820535635
 20
257.35038383014
 30
0.0
  0
ENDBLK
  5
1A13
330
1A08
100
AcDbEntity
  8
0
100
AcDbBlockEnd
  0
BLOCK
  5
1A1E
330
1A14
100
AcDbEntity
  8
0
100
AcDbBlockBegin
  2
*D3
 70
     1
 10
0.0
 20
0.0
 30
0.0
  3
*D3
  1

  0
LINE
  5
1A94
330
1A14
100
AcDbEntity
  8
SUNPOU
100
AcDbLine
 10
1098.588474077889
 20
355.25038383014
 30
0.0
 11
1126.547238784922
 21
355.25038383014
 31
0.0
  0
LINE
  5
1A95
330
1A14
100
AcDbEntity
  8
SUNPOU
100
AcDbLine
 10
993.3884655599902
 20
257.3503838301399
 30
0.0
 11
1126.547238784922
 21
257.3503838301399
 31
0.0
  0
LINE
  5
1A96
330
1A14
100
AcDbEntity
  8
SUNPOU
100
AcDbLine
 10
1120.547238784922
 20
341.2503838301399
 30
0.0
 11
1120.547238784922
 21
271.35038383014
 31
0.0
  0
INSERT
  5
1A97
330
1A14
100
AcDbEntity
  8
SUNPOU
100
AcDbBlockReference
  2
_OPEN
 10
1120.547238784922
 20
355.25038383014
 30
0.0
 41
14.0
 42
14.0
 43
14.0
 50
90.0
  0
INSERT
  5
1A98
330
1A14
100
AcDbEntity
  8
SUNPOU
100
AcDbBlockReference
  2
_OPEN
 10
1120.547238784922
 20
257.3503838301399
 30
0.0
 41
14.0
 42
14.0
 43
14.0
 50
270.0
  0
MTEXT
  5
1A99
330
1A14
100
AcDbEntity
  8
SUNPOU
100
AcDbMText
 10
1110.547238784922
 20
306.3003838301401
 30
0.0
 40
12.0
 41
0.0
 71
     5
 72
     1
  1
\A1;98
 11
0.0000000000000001
 21
1.0
 31
0.0
1001
ACAD
1000
MTEXTBEGIN
1070
    73
1070
     1
1070
    44
1040
1.0
1070
    74
1070
     0
1000
MTEXTEND
  0
POINT
  5
1A9A
330
1A14
100
AcDbEntity
  8
DEFPOINTS
 62
     0
100
AcDbPoint
 10
1086.588474077889
 20
355.25038383014
 30
0.0
  0
POINT
  5
1A9B
330
1A14
100
AcDbEntity
  8
DEFPOINTS
 62
     0
100
AcDbPoint
 10
981.3884655599903
 20
257.3503838301399
 30
0.0
  0
POINT
  5
1A9C
330
1A14
100
AcDbEntity
  8
DEFPOINTS
 62
     0
100
AcDbPoint
 10
1120.547238784922
 20
257.3503838301399
 30
0.0
  0
ENDBLK
  5
1A1F
330
1A14
100
AcDbEntity
  8
0
100
AcDbBlockEnd
  0
BLOCK
  5
1A2A
330
1A20
100
AcDbEntity
  8
0
100
AcDbBlockBegin
  2
*D4
 70
     1
 10
0.0
 20
0.0
 30
0.0
  3
*D4
  1

  0
LINE
  5
1A9D
330
1A20
100
AcDbEntity
  8
SUNPOU
  6
CONTINUOUS
100
AcDbLine
 10
867.7218711394141
 20
396.8992139333787
 30
0.0
 11
867.7218711394141
 21
466.0061821196375
 31
0.0
  0
LINE
  5
1A9E
330
1A20
100
AcDbEntity
  8
SUNPOU
  6
CONTINUOUS
100
AcDbLine
 10
1185.24840584789
 20
410.8950166274399
 30
0.0
 11
1185.24840584789
 21
466.0061821196375
 31
0.0
  0
LINE
  5
1A9F
330
1A20
100
AcDbEntity
  8
SUNPOU
  6
CONTINUOUS
100
AcDbLine
 10
881.7218711394142
 20
460.0061821196375
 30
0.0
 11
1171.24840584789
 21
460.0061821196375
 31
0.0
  0
INSERT
  5
1AA0
330
1A20
100
AcDbEntity
  8
SUNPOU
  6
CONTINUOUS
100
AcDbBlockReference
  2
_OPEN
 10
867.7218711394141
 20
460.0061821196375
 30
0.0
 41
14.0
 42
14.0
 43
14.0
 50
180.0
  0
INSERT
  5
1AA1
330
1A20
100
AcDbEntity
  8
SUNPOU
  6
CONTINUOUS
100
AcDbBlockReference
  2
_OPEN
 10
1185.24840584789
 20
460.0061821196375
 30
0.0
 41
14.0
 42
14.0
 43
14.0
  0
MTEXT
  5
1AA2
330
1A20
100
AcDbEntity
  8
SUNPOU
  6
CONTINUOUS
100
AcDbMText
 10
1026.485138493652
 20
470.0061821196375
 30
0.0
 40
12.0
 41
0.0
 71
     5
 72
     1
  1
\A1;318
1001
ACAD
1000
MTEXTBEGIN
1070
    73
1070
     1
1070
    44
1040
1.0
1070
    74
1070
     0
1000
MTEXTEND
  0
POINT
  5
1AA3
330
1A20
100
AcDbEntity
  8
DEFPOINTS
  6
CONTINUOUS
 62
     0
100
AcDbPoint
 10
867.7218711394141
 20
384.8992139333787
 30
0.0
  0
POINT
  5
1AA4
330
1A20
100
AcDbEntity
  8
DEFPOINTS
  6
CONTINUOUS
 62
     0
100
AcDbPoint
 10
1185.24840584789
 20
398.8950166274399
 30
0.0
  0
POINT
  5
1AA5
330
1A20
100
AcDbEntity
  8
DEFPOINTS
  6
CONTINUOUS
 62
     0
100
AcDbPoint
 10
1185.24840584789
 20
460.0061821196375
 30
0.0
  0
ENDBLK
  5
1A2B
330
1A20
100
AcDbEntity
  8
0
100
AcDbBlockEnd
  0
BLOCK
  5
1A36
330
1A2C
100
AcDbEntity
  8
0
100
AcDbBlockBegin
  2
*D5
 70
     1
 10
0.0
 20
0.0
 30
0.0
  3
*D5
  1

  0
LINE
  5
1AA6
330
1A2C
100
AcDbEntity
  8
SUNPOU
  6
CONTINUOUS
100
AcDbLine
 10
867.6960616835019
 20
397.1657312238749
 30
0.0
 11
867.6960616835019
 21
439.3427195048769
 31
0.0
  0
LINE
  5
1AA7
330
1A2C
100
AcDbEntity
  8
SUNPOU
  6
CONTINUOUS
100
AcDbLine
 10
1035.47123061969
 20
355.01360263874
 30
0.0
 11
1035.47123061969
 21
439.3427195048769
 31
0.0
  0
LINE
  5
1AA8
330
1A2C
100
AcDbEntity
  8
SUNPOU
  6
CONTINUOUS
100
AcDbLine
 10
881.696061683502
 20
433.3427195048768
 30
0.0
 11
1021.47123061969
 21
433.3427195048768
 31
0.0
  0
INSERT
  5
1AA9
330
1A2C
100
AcDbEntity
  8
SUNPOU
  6
CONTINUOUS
100
AcDbBlockReference
  2
_OPEN
 10
867.6960616835019
 20
433.3427195048768
 30
0.0
 41
14.0
 42
14.0
 43
14.0
 50
180.0
  0
INSERT
  5
1AAA
330
1A2C
100
AcDbEntity
  8
SUNPOU
  6
CONTINUOUS
100
AcDbBlockReference
  2
_OPEN
 10
1035.47123061969
 20
433.3427195048768
 30
0.0
 41
14.0
 42
14.0
 43
14.0
  0
MTEXT
  5
1AAB
330
1A2C
100
AcDbEntity
  8
SUNPOU
  6
CONTINUOUS
100
AcDbMText
 10
951.5836461515959
 20
443.3427195048769
 30
0.0
 40
12.0
 41
0.0
 71
     5
 72
     1
  1
\A1;168
1001
ACAD
1000
MTEXTBEGIN
1070
    73
1070
     1
1070
    44
1040
1.0
1070
    74
1070
     0
1000
MTEXTEND
  0
POINT
  5
1AAC
330
1A2C
100
AcDbEntity
  8
DEFPOINTS
  6
CONTINUOUS
 62
     0
100
AcDbPoint
 10
867.6960616835019
 20
385.1657312238748
 30
0.0
  0
POINT
  5
1AAD
330
1A2C
100
AcDbEntity
  8
DEFPOINTS
  6
CONTINUOUS
 62
     0
100
AcDbPoint
 10
1035.47123061969
 20
343.01360263874
 30
0.0
  0
POINT
  5
1AAE
330
1A2C
100
AcDbEntity
  8
DEFPOINTS
  6
CONTINUOUS
 62
     0
100
AcDbPoint
 10
1035.47123061969
 20
433.3427195048768
 30
0.0
  0
ENDBLK
  5
1A37
330
1A2C
100
AcDbEntity
  8
0
100
AcDbBlockEnd
  0
BLOCK
  5
1A42
330
1A38
100
AcDbEntity
  8
0
100
AcDbBlockBegin
  2
*D6
 70
     1
 10
0.0
 20
0.0
 30
0.0
  3
*D6
  1

  0
LINE
  5
1AAF
330
1A38
100
AcDbEntity
  8
SUNPOU
  6
CONTINUOUS
100
AcDbLine
 10
1042.47684029979
 20
348.2503838301399
 30
0.0
 11
1071.467281714833
 21
348.2503838301399
 31
0.0
  0
LINE
  5
1AB0
330
1A38
100
AcDbEntity
  8
SUNPOU
  6
CONTINUOUS
100
AcDbLine
 10
1073.048756708686
 20
257.3503838301399
 30
0.0
 11
1071.467281714833
 21
257.3503838301399
 31
0.0
  0
LINE
  5
1AB1
330
1A38
100
AcDbEntity
  8
SUNPOU
  6
CONTINUOUS
100
AcDbLine
 10
1065.467281714833
 20
334.25038383014
 30
0.0
 11
1065.467281714833
 21
271.3503838301398
 31
0.0
  0
INSERT
  5
1AB2
330
1A38
100
AcDbEntity
  8
SUNPOU
  6
CONTINUOUS
100
AcDbBlockReference
  2
_OPEN
 10
1065.467281714833
 20
348.2503838301399
 30
0.0
 41
14.0
 42
14.0
 43
14.0
 50
90.0
  0
INSERT
  5
1AB3
330
1A38
100
AcDbEntity
  8
SUNPOU
  6
CONTINUOUS
100
AcDbBlockReference
  2
_OPEN
 10
1065.467281714833
 20
257.3503838301399
 30
0.0
 41
14.0
 42
14.0
 43
14.0
 50
270.0
  0
MTEXT
  5
1AB4
330
1A38
100
AcDbEntity
  8
SUNPOU
  6
CONTINUOUS
100
AcDbMText
 10
1055.467281714833
 20
302.8003838301401
 30
0.0
 40
12.0
 41
0.0
 71
     5
 72
     1
  1
\A1;91
 11
0.0000000000000001
 21
1.0
 31
0.0
1001
ACAD
1000
MTEXTBEGIN
1070
    73
1070
     1
1070
    44
1040
1.0
1070
    74
1070
     0
1000
MTEXTEND
  0
POINT
  5
1AB5
330
1A38
100
AcDbEntity
  8
DEFPOINTS
  6
CONTINUOUS
 62
     0
100
AcDbPoint
 10
1030.47684029979
 20
348.2503838301399
 30
0.0
  0
POINT
  5
1AB6
330
1A38
100
AcDbEntity
  8
DEFPOINTS
  6
CONTINUOUS
 62
     0
100
AcDbPoint
 10
1061.048756708686
 20
257.3503838301399
 30
0.0
  0
POINT
  5
1AB7
330
1A38
100
AcDbEntity
  8
DEFPOINTS
  6
CONTINUOUS
 62
     0
100
AcDbPoint
 10
1065.467281714833
 20
257.3503838301399
 30
0.0
  0
ENDBLK
  5
1A43
330
1A38
100
AcDbEntity
  8
0
100
AcDbBlockEnd
  0
BLOCK
  5
1A4E
330
1A44
100
AcDbEntity
  8
0
100
AcDbBlockBegin
  2
*D7
 70
     1
 10
0.0
 20
0.0
 30
0.0
  3
*D7
  1

  0
LINE
  5
1AB8
330
1A44
100
AcDbEntity
  8
SUNPOU
100
AcDbLine
 10
1042.02125300869
 20
639.56688471184
 30
0.0
 11
1111.432630177984
 21
639.56688471184
 31
0.0
  0
LINE
  5
1AB9
330
1A44
100
AcDbEntity
  8
SUNPOU
100
AcDbLine
 10
1045.78146239099
 20
595.5668847118399
 30
0.0
 11
1111.432630177984
 21
595.5668847118399
 31
0.0
  0
LINE
  5
1ABA
330
1A44
100
AcDbEntity
  8
SUNPOU
100
AcDbLine
 10
1105.432630177984
 20
625.56688471184
 30
0.0
 11
1105.432630177984
 21
609.56688471184
 31
0.0
  0
INSERT
  5
1ABB
330
1A44
100
AcDbEntity
  8
SUNPOU
100
AcDbBlockReference
  2
_OPEN
 10
1105.432630177984
 20
639.56688471184
 30
0.0
 41
14.0
 42
14.0
 43
14.0
 50
90.0
  0
INSERT
  5
1ABC
330
1A44
100
AcDbEntity
  8
SUNPOU
100
AcDbBlockReference
  2
_OPEN
 10
1105.432630177984
 20
595.5668847118399
 30
0.0
 41
14.0
 42
14.0
 43
14.0
 50
270.0
  0
MTEXT
  5
1ABD
330
1A44
100
AcDbEntity
  8
SUNPOU
100
AcDbMText
 10
1095.432630177984
 20
617.5668847118401
 30
0.0
 40
12.0
 41
0.0
 71
     5
 72
     1
  1
\A1;※44
 11
0.0000000000000001
 21
1.0
 31
0.0
1001
ACAD
1000
MTEXTBEGIN
1070
    73
1070
     1
1070
    44
1040
1.0
1070
    74
1070
     0
1000
MTEXTEND
  0
POINT
  5
1ABE
330
1A44
100
AcDbEntity
  8
DEFPOINTS
 62
     0
100
AcDbPoint
 10
1030.02125300869
 20
639.56688471184
 30
0.0
  0
POINT
  5
1ABF
330
1A44
100
AcDbEntity
  8
DEFPOINTS
 62
     0
100
AcDbPoint
 10
1033.78146239099
 20
595.5668847118399
 30
0.0
  0
POINT
  5
1AC0
330
1A44
100
AcDbEntity
  8
DEFPOINTS
 62
     0
100
AcDbPoint
 10
1105.432630177984
 20
595.5668847118399
 30
0.0
  0
ENDBLK
  5
1A4F
330
1A44
100
AcDbEntity
  8
0
100
AcDbBlockEnd
  0
BLOCK
  5
1A5A
330
1A50
100
AcDbEntity
  8
0
100
AcDbBlockBegin
  2
*D8
 70
     1
 10
0.0
 20
0.0
 30
0.0
  3
*D8
  1

  0
LINE
  5
1AC1
330
1A50
100
AcDbEntity
  8
SUNPOU
100
AcDbLine
 10
1048.159101112599
 20
654.5668847630021
 30
0.0
 11
1148.719246039538
 21
654.5668847630021
 31
0.0
  0
LINE
  5
1AC2
330
1A50
100
AcDbEntity
  8
SUNPOU
100
AcDbLine
 10
1045.74840582789
 20
595.5668847118399
 30
0.0
 11
1148.719246039538
 21
595.5668847118399
 31
0.0
  0
LINE
  5
1AC3
330
1A50
100
AcDbEntity
  8
SUNPOU
100
AcDbLine
 10
1142.719246039538
 20
640.5668847630021
 30
0.0
 11
1142.719246039538
 21
609.56688471184
 31
0.0
  0
INSERT
  5
1AC4
330
1A50
100
AcDbEntity
  8
SUNPOU
100
AcDbBlockReference
  2
_OPEN
 10
1142.719246039538
 20
654.5668847630021
 30
0.0
 41
14.0
 42
14.0
 43
14.0
 50
90.0
  0
INSERT
  5
1AC5
330
1A50
100
AcDbEntity
  8
SUNPOU
100
AcDbBlockReference
  2
_OPEN
 10
1142.719246039538
 20
595.5668847118399
 30
0.0
 41
14.0
 42
14.0
 43
14.0
 50
270.0
  0
MTEXT
  5
1AC6
330
1A50
100
AcDbEntity
  8
SUNPOU
100
AcDbMText
 10
1132.719246039538
 20
625.0668847374212
 30
0.0
 40
12.0
 41
0.0
 71
     5
 72
     1
  1
\A1;59
 11
0.0000000000000001
 21
1.0
 31
0.0
1001
ACAD
1000
MTEXTBEGIN
1070
    73
1070
     1
1070
    44
1040
1.0
1070
    74
1070
     0
1000
MTEXTEND
  0
POINT
  5
1AC7
330
1A50
100
AcDbEntity
  8
DEFPOINTS
 62
     0
100
AcDbPoint
 10
1036.1591011126
 20
654.5668847630021
 30
0.0
  0
POINT
  5
1AC8
330
1A50
100
AcDbEntity
  8
DEFPOINTS
 62
     0
100
AcDbPoint
 10
1033.74840582789
 20
595.5668847118399
 30
0.0
  0
POINT
  5
1AC9
330
1A50
100
AcDbEntity
  8
DEFPOINTS
 62
     0
100
AcDbPoint
 10
1142.719246039538
 20
595.5668847118399
 30
0.0
  0
ENDBLK
  5
1A5B
330
1A50
100
AcDbEntity
  8
0
100
AcDbBlockEnd
  0
BLOCK
  5
1A66
330
1A5C
100
AcDbEntity
  8
0
100
AcDbBlockBegin
  2
*D9
 70
     1
 10
0.0
 20
0.0
 30
0.0
  3
*D9
  1

  0
LINE
  5
1ACA
330
1A5C
100
AcDbEntity
  8
SUNPOU
  6
CONTINUOUS
100
AcDbLine
 10
1166.25379614969
 20
913.61609563564
 30
0.0
 11
1278.279663004806
 21
913.61609563564
 31
0.0
  0
LINE
  5
1ACB
330
1A5C
100
AcDbEntity
  8
SUNPOU
  6
CONTINUOUS
100
AcDbLine
 10
1045.78146239099
 20
595.5668847118399
 30
0.0
 11
1278.279663004806
 21
595.5668847118399
 31
0.0
  0
LINE
  5
1ACC
330
1A5C
100
AcDbEntity
  8
SUNPOU
  6
CONTINUOUS
100
AcDbLine
 10
1272.279663004806
 20
899.61609563564
 30
0.0
 11
1272.279663004806
 21
609.56688471184
 31
0.0
  0
INSERT
  5
1ACD
330
1A5C
100
AcDbEntity
  8
SUNPOU
  6
CONTINUOUS
100
AcDbBlockReference
  2
_OPEN
 10
1272.279663004806
 20
913.61609563564
 30
0.0
 41
14.0
 42
14.0
 43
14.0
 50
90.0
  0
INSERT
  5
1ACE
330
1A5C
100
AcDbEntity
  8
SUNPOU
  6
CONTINUOUS
100
AcDbBlockReference
  2
_OPEN
 10
1272.279663004806
 20
595.5668847118399
 30
0.0
 41
14.0
 42
14.0
 43
14.0
 50
270.0
  0
MTEXT
  5
1ACF
330
1A5C
100
AcDbEntity
  8
SUNPOU
  6
CONTINUOUS
100
AcDbMText
 10
1262.279663004806
 20
754.59149017374
 30
0.0
 40
12.0
 41
0.0
 71
     5
 72
     1
  1
\A1;318
 11
0.0000000000000001
 21
1.0
 31
0.0
1001
ACAD
1000
MTEXTBEGIN
1070
    73
1070
     1
1070
    44
1040
1.0
1070
    74
1070
     0
1000
MTEXTEND
  0
POINT
  5
1AD0
330
1A5C
100
AcDbEntity
  8
DEFPOINTS
  6
CONTINUOUS
 62
     0
100
AcDbPoint
 10
1154.25379614969
 20
913.61609563564
 30
0.0
  0
POINT
  5
1AD1
330
1A5C
100
AcDbEntity
  8
DEFPOINTS
  6
CONTINUOUS
 62
     0
100
AcDbPoint
 10
1033.78146239099
 20
595.5668847118399
 30
0.0
  0
POINT
  5
1AD2
330
1A5C
100
AcDbEntity
  8
DEFPOINTS
  6
CONTINUOUS
 62
     0
100
AcDbPoint
 10
1272.279663004806
 20
595.5668847118399
 30
0.0
  0
ENDBLK
  5
1A67
330
1A5C
100
AcDbEntity
  8
0
100
AcDbBlockEnd
  0
BLOCK
  5
1A74
330
1A68
100
AcDbEntity
  8
0
100
AcDbBlockBegin
  2
*D10
 70
     1
 10
0.0
 20
0.0
 30
0.0
  3
*D10
  1

  0
LINE
  5
1AD3
330
1A68
100
AcDbEntity
  8
SUNPOU
100
AcDbLine
 10
1011.159101103383
 20
697.2487029043493
 30
0.0
 11
1011.159101103383
 21
702.4555358139118
 31
0.0
  0
LINE
  5
1AD4
330
1A68
100
AcDbEntity
  8
SUNPOU
100
AcDbLine
 10
1036.1591011126
 20
666.5668847630021
 30
0.0
 11
1036.1591011126
 21
702.4555358139118
 31
0.0
  0
LINE
  5
1AD5
330
1A68
100
AcDbEntity
  8
SUNPOU
100
AcDbLine
 10
997.1591011033835
 20
696.4555358139119
 30
0.0
 11
983.1591011033836
 21
696.4555358139119
 31
0.0
  0
LINE
  5
1AD6
330
1A68
100
AcDbEntity
  8
SUNPOU
100
AcDbLine
 10
1050.159101112599
 20
696.4555358139119
 30
0.0
 11
1092.159101112599
 21
696.4555358139119
 31
0.0
  0
LINE
  5
1AD7
330
1A68
100
AcDbEntity
  8
SUNPOU
100
AcDbLine
 10
1011.159101103383
 20
696.4555358139119
 30
0.0
 11
1036.1591011126
 21
696.4555358139119
 31
0.0
  0
INSERT
  5
1AD8
330
1A68
100
AcDbEntity
  8
SUNPOU
100
AcDbBlockReference
  2
_OPEN
 10
1011.159101103383
 20
696.4555358139119
 30
0.0
 41
14.0
 42
14.0
 43
14.0
  0
INSERT
  5
1AD9
330
1A68
100
AcDbEntity
  8
SUNPOU
100
AcDbBlockReference
  2
_OPEN
 10
1036.1591011126
 20
696.4555358139119
 30
0.0
 41
14.0
 42
14.0
 43
14.0
 50
180.0
  0
MTEXT
  5
1ADA
330
1A68
100
AcDbEntity
  8
SUNPOU
100
AcDbMText
 10
1078.1591011126
 20
706.4555358139118
 30
0.0
 40
12.0
 41
0.0
 71
     5
 72
     1
  1
\A1;25
1001
ACAD
1000
MTEXTBEGIN
1070
    73
1070
     1
1070
    44
1040
1.0
1070
    74
1070
     0
1000
MTEXTEND
  0
POINT
  5
1ADB
330
1A68
100
AcDbEntity
  8
DEFPOINTS
 62
     0
100
AcDbPoint
 10
1011.159101103383
 20
685.2487029043493
 30
0.0
  0
POINT
  5
1ADC
330
1A68
100
AcDbEntity
  8
DEFPOINTS
 62
     0
100
AcDbPoint
 10
1036.1591011126
 20
654.5668847630021
 30
0.0
  0
POINT
  5
1ADD
330
1A68
100
AcDbEntity
  8
DEFPOINTS
 62
     0
100
AcDbPoint
 10
1036.1591011126
 20
696.4555358139119
 30
0.0
  0
ENDBLK
  5
1A75
330
1A68
100
AcDbEntity
  8
0
100
AcDbBlockEnd
  0
BLOCK
  5
1A80
330
1A76
100
AcDbEntity
  8
0
100
AcDbBlockBegin
  2
*D11
 70
     1
 10
0.0
 20
0.0
 30
0.0
  3
*D11
  1

  0
LINE
  5
1ADE
330
1A76
100
AcDbEntity
  8
SUNPOU
100
AcDbLine
 10
1166.25379614969
 20
913.61609563564
 30
0.0
 11
1246.817498926143
 21
913.61609563564
 31
0.0
  0
LINE
  5
1ADF
330
1A76
100
AcDbEntity
  8
SUNPOU
100
AcDbLine
 10
1165.47467319199
 20
745.33845025994
 30
0.0
 11
1246.817498926143
 21
745.33845025994
 31
0.0
  0
LINE
  5
1AE0
330
1A76
100
AcDbEntity
  8
SUNPOU
100
AcDbLine
 10
1240.817498926143
 20
899.61609563564
 30
0.0
 11
1240.817498926143
 21
759.33845025994
 31
0.0
  0
INSERT
  5
1AE1
330
1A76
100
AcDbEntity
  8
SUNPOU
100
AcDbBlockReference
  2
_OPEN
 10
1240.817498926143
 20
913.61609563564
 30
0.0
 41
14.0
 42
14.0
 43
14.0
 50
90.0
  0
INSERT
  5
1AE2
330
1A76
100
AcDbEntity
  8
SUNPOU
100
AcDbBlockReference
  2
_OPEN
 10
1240.817498926143
 20
745.33845025994
 30
0.0
 41
14.0
 42
14.0
 43
14.0
 50
270.0
  0
MTEXT
  5
1AE3
330
1A76
100
AcDbEntity
  8
SUNPOU
100
AcDbMText
 10
1230.817498926143
 20
829.47727294779
 30
0.0
 40
12.0
 41
0.0
 71
     5
 72
     1
  1
\A1;168
 11
0.0000000000000001
 21
1.0
 31
0.0
1001
ACAD
1000
MTEXTBEGIN
1070
    73
1070
     1
1070
    44
1040
1.0
1070
    74
1070
     0
1000
MTEXTEND
  0
POINT
  5
1AE4
330
1A76
100
AcDbEntity
  8
DEFPOINTS
 62
     0
100
AcDbPoint
 10
1154.25379614969
 20
913.61609563564
 30
0.0
  0
POINT
  5
1AE5
330
1A76
100
AcDbEntity
  8
DEFPOINTS
 62
     0
100
AcDbPoint
 10
1153.47467319199
 20
745.33845025994
 30
0.0
  0
POINT
  5
1AE6
330
1A76
100
AcDbEntity
  8
DEFPOINTS
 62
     0
100
AcDbPoint
 10
1240.817498926143
 20
745.33845025994
 30
0.0
  0
ENDBLK
  5
1A81
330
1A76
100
AcDbEntity
  8
0
100
AcDbBlockEnd
  0
ENDSEC
  0
SECTION
  2
ENTITIES
  0
TEXT
  5
70F
330
19
100
AcDbEntity
  8
SUNPOU
 62
     4
100
AcDbText
 10
1362.583581941548
 20
72.43470612666513
 30
0.0
 40
12.0
  1
※　のきといの差込み寸法を示す
100
AcDbText
  0
LINE
  5
15C9
330
19
100
AcDbEntity
  8
ZUWAKU
100
AcDbLine
 10
417.293202593692
 20
30.39999986828876
 30
0.0
 11
894.8487279555388
 21
30.39999986828874
 31
0.0
  0
LINE
  5
15CA
330
19
100
AcDbEntity
  8
ZUWAKU
100
AcDbLine
 10
417.293202593692
 20
31.19999986828875
 30
0.0
 11
894.8487279555388
 21
31.19999986828876
 31
0.0
  0
LINE
  5
15CB
330
19
100
AcDbEntity
  8
ZUWAKU
100
AcDbLine
 10
417.293202593692
 20
30.79999986828875
 30
0.0
 11
894.8487279555388
 21
30.79999986828875
 31
0.0
  0
LINE
  5
15CC
330
19
100
AcDbEntity
  8
ZUWAKU
100
AcDbLine
 10
0.0000000135560185
 20
61.59999986828871
 30
0.0
 11
1594.800000013555
 21
61.59999986828871
 31
0.0
  0
LINE
  5
15CD
330
19
100
AcDbEntity
  8
ZUWAKU
100
AcDbLine
 10
0.0000000135560185
 20
61.1999998682887
 30
0.0
 11
1594.800000013555
 21
61.1999998682887
 31
0.0
  0
LINE
  5
15CE
330
19
100
AcDbEntity
  8
ZUWAKU
100
AcDbLine
 10
0.0000000135560185
 20
60.7999998682887
 30
0.0
 11
1594.800000013555
 21
60.7999998682887
 31
0.0
  0
LINE
  5
15CF
330
19
100
AcDbEntity
  8
ZUWAKU
100
AcDbLine
 10
0.0000000135560185
 20
60.39999986828869
 30
0.0
 11
1594.800000013555
 21
60.39999986828869
 31
0.0
  0
LINE
  5
15D0
330
19
100
AcDbEntity
  8
ZUWAKU
100
AcDbLine
 10
0.0000000135560185
 20
59.99999986828868
 30
0.0
 11
1594.800000013555
 21
59.99999986828868
 31
0.0
  0
LWPOLYLINE
  5
15D1
330
19
100
AcDbEntity
  8
ZUWAKU
100
AcDbPolyline
 90
        4
 70
     1
 43
0.0
 10
0.4000000135558821
 20
1102.799999868289
 10
0.4000000135558821
 20
0.3999998682887735
 10
1594.800000013555
 20
0.3999998682888197
 10
1594.800000013556
 20
1102.799999868289
  0
LWPOLYLINE
  5
15D2
330
19
100
AcDbEntity
  8
ZUWAKU
100
AcDbPolyline
 90
        4
 70
     1
 43
0.0
 10
1.200000013555836
 20
1101.999999868288
 10
1.200000013555836
 20
1.199999868288728
 10
1594.000000013556
 20
1.19999986828882
 10
1594.000000013556
 20
1101.999999868288
  0
LWPOLYLINE
  5
15D3
330
19
100
AcDbEntity
  8
ZUWAKU
100
AcDbPolyline
 90
        4
 70
     1
 43
0.0
 10
0.0000000135560185
 20
1103.199999868288
 10
0.0000000135560185
 20
-0.0000001317113174
 10
1595.200000013556
 20
-0.0000001317111824
 10
1595.200000013556
 20
1103.199999868289
  0
LWPOLYLINE
  5
15D4
330
19
100
AcDbEntity
  8
ZUWAKU
100
AcDbPolyline
 90
        4
 70
     1
 43
0.0
 10
0.800000013555973
 20
1102.399999868288
 10
0.800000013555973
 20
0.7999998682888645
 10
1594.400000013556
 20
0.7999998682888183
 10
1594.400000013556
 20
1102.399999868288
  0
LWPOLYLINE
  5
15D5
330
19
100
AcDbEntity
  8
ZUWAKU
100
AcDbPolyline
 90
        4
 70
     1
 43
0.0
 10
1.600000013555927
 20
1101.599999868288
 10
1.600000013555927
 20
1.599999868288819
 10
1593.600000013555
 20
1.599999868288819
 10
1593.600000013555
 20
1101.599999868288
  0
TEXT
  5
15D6
330
19
100
AcDbEntity
  8
MOJI
100
AcDbText
 10
185.9155791898943
 20
25.4823561288382
 30
0.0
 40
12.0
  1
アートフェイスＨ１６０
 41
0.9
  7
ｽﾀｲﾙ1
100
AcDbText
  0
HATCH
  5
15D7
330
19
100
AcDbEntity
  8
ZUWAKU
100
AcDbHatch
 10
0.0
 20
0.0
 30
0.0
210
0.0
220
0.0
230
1.0
  2
ANSI37
 70
     0
 71
     0
 91
        8
 92
        7
 72
     1
 73
     1
 93
       24
 10
29.00452533579573
 20
35.28969683025585
 42
-0.1989123673796348
 10
28.18442432311826
 20
37.26959581757795
 42
0.0
 10
28.18442432311826
 20
39.8499998682887
 42
-0.4142135623730912
 10
29.23442432311821
 20
40.89999986828869
 42
0.0
 10
35.18442432311803
 20
40.89999986828869
 42
0.4142135623731546
 10
36.23442432311822
 20
41.94999986828867
 42
0.0
 10
36.23442432311822
 20
45.44999986828869
 42
0.4142135623731586
 10
35.18442432311803
 20
46.49999986828869
 42
0.0
 10
28.18442432311826
 20
46.49999986828869
 42
0.4142135623730928
 10
22.58442432311835
 20
40.89999986828874
 42
0.0
 10
22.58442432311835
 20
37.2695958175782
 42
0.1989123673796619
 10
25.04472736115122
 20
31.32989885561099
 42
0.0
 10
30.86432331044056
 20
25.51030290632168
 42
-0.1989123673796613
 10
31.68442432311826
 20
23.5304039189993
 42
0.0
 10
31.68442432311826
 20
20.94999986828867
 42
-0.4142135623730911
 10
30.6344243231183
 20
19.89999986828868
 42
0.0
 10
24.68442432311849
 20
19.89999986828868
 42
0.4142135623731526
 10
23.63442432311831
 20
18.84999986828871
 42
0.0
 10
23.63442432311831
 20
15.34999986828867
 42
0.4142135623731526
 10
24.68442432311849
 20
14.29999986828869
 42
0.0
 10
31.68442432311826
 20
14.29999986828869
 42
0.4142135623731044
 10
37.2844243231184
 20
19.89999986828864
 42
0.0
 10
37.2844243231184
 20
23.53040391899919
 42
0.1989123673796604
 10
34.82412128508531
 20
29.47010088096627
 42
0.0
 97
        0
 92
        7
 72
     1
 73
     1
 93
       16
 10
47.08442432311835
 20
38.0999998682887
 42
-0.4142135623730935
 10
49.88442432311831
 20
40.89999986828869
 42
0.0
 10
53.73442432311822
 20
40.89999986828869
 42
0.4142135623731546
 10
54.7844243231184
 20
41.94999986828867
 42
0.0
 10
54.7844243231184
 20
45.44999986828869
 42
0.4142135623730951
 10
53.73442432311844
 20
46.49999986828869
 42
0.0
 10
49.88442432311808
 20
46.49999986828861
 42
0.4142135623730892
 10
41.48442432311822
 20
38.09999986828856
 42
0.0
 10
41.48442432311822
 20
22.69999986828874
 42
0.4142135623730969
 10
49.88442432311831
 20
14.29999986828869
 42
0.0
 10
53.73442432311822
 20
14.29999986828869
 42
0.4142135623731526
 10
54.7844243231184
 20
15.34999986828867
 42
0.0
 10
54.7844243231184
 20
18.84999986828871
 42
0.4142135623730891
 10
53.73442432311844
 20
19.89999986828868
 42
0.0
 10
49.88442432311831
 20
19.89999986828868
 42
-0.4142135623730928
 10
47.08442432311835
 20
22.69999986828866
 42
0.0
 97
        0
 92
        7
 72
     1
 73
     1
 93
        2
 10
48.48442432311822
 20
30.39999986828869
 42
1.0
 10
55.48442432311822
 20
30.39999986828869
 42
1.0
 97
        0
 92
        7
 72
     1
 73
     1
 93
       26
 10
74.62971728747425
 20
38.41009425541554
 42
0.0
 10
76.75299655374988
 20
45.13381193195472
 42
0.5069206636600134
 10
75.75173475535916
 20
46.49999986828869
 42
0.0
 10
72.35395599614071
 20
46.49999986828869
 42
0.3272098845218764
 10
71.35269419774999
 20
45.76618780462263
 42
0.0
 10
67.61615444848644
 20
33.93381193195485
 42
-0.3272098845219541
 10
66.61489265009549
 20
33.19999986828868
 42
0.0
 10
66.33442432311858
 20
33.19999986828868
 42
-0.4142135623731526
 10
65.2844243231184
 20
34.24999986828866
 42
0.0
 10
65.2844243231184
 20
45.44999986828869
 42
0.4142135623730951
 10
64.23442432311844
 20
46.49999986828869
 42
0.0
 10
60.73442432311821
 20
46.49999986828869
 42
0.4142135623730871
 10
59.68442432311826
 20
45.44999986828872
 42
0.0
 10
59.68442432311826
 20
15.34999986828867
 42
0.4142135623730891
 10
60.73442432311821
 20
14.29999986828869
 42
0.0
 10
64.23442432311822
 20
14.29999986828869
 42
0.4142135623731526
 10
65.2844243231184
 20
15.34999986828867
 42
0.0
 10
65.2844243231184
 20
26.54999986828871
 42
-0.4142135623731526
 10
66.33442432311858
 20
27.59999986828869
 42
0.0
 10
66.61489265009572
 20
27.59999986828869
 42
-0.3272098845218915
 10
67.61615444848644
 20
26.86618780462254
 42
0.0
 10
71.35269419774999
 20
15.03381193195483
 42
0.3272098845218902
 10
72.35395599614071
 20
14.29999986828869
 42
0.0
 10
75.75173475535916
 20
14.29999986828869
 42
0.5069206636600335
 10
76.75299655374988
 20
15.6661878046227
 42
0.0
 10
72.10021379680256
 20
30.39999986828896
 42
0.0
 97
        0
 92
        7
 72
     1
 73
     1
 93
        8
 10
86.98442432311821
 20
45.44999986828871
 42
0.4142135623731546
 10
85.93442432311803
 20
46.49999986828869
 42
0.0
 10
82.4344243231185
 20
46.49999986828869
 42
0.4142135623731507
 10
81.38442432311832
 20
45.44999986828872
 42
0.0
 10
81.38442432311832
 20
15.34999986828867
 42
0.4142135623731526
 10
82.4344243231185
 20
14.29999986828869
 42
0.0
 10
85.93442432311803
 20
14.29999986828869
 42
0.4142135623731526
 10
86.98442432311821
 20
15.34999986828867
 42
0.0
 97
        0
 92
        7
 72
     1
 73
     1
 93
       24
 10
96.7844243231184
 20
39.8499998682887
 42
-0.4142135623731546
 10
97.83442432311858
 20
40.89999986828869
 42
0.0
 10
103.7844243231184
 20
40.89999986828869
 42
0.4142135623730911
 10
104.8344243231183
 20
41.94999986828867
 42
0.0
 10
104.8344243231183
 20
45.44999986828869
 42
0.4142135623730952
 10
103.7844243231184
 20
46.49999986828869
 42
0.0
 10
96.7844243231184
 20
46.49999986828869
 42
0.4142135623731048
 10
91.18442432311827
 20
40.89999986828874
 42
0.0
 10
91.18442432311827
 20
37.2695958175782
 42
0.1989123673796613
 10
93.64472736115136
 20
31.3298988556111
 42
0.0
 10
99.46432331044071
 20
25.51030290632176
 42
-0.1989123673796402
 10
100.2844243231183
 20
23.53040391899962
 42
0.0
 10
100.2844243231183
 20
20.94999986828867
 42
-0.4142135623730911
 10
99.23442432311844
 20
19.89999986828868
 42
0.0
 10
93.2844243231184
 20
19.89999986828868
 42
0.4142135623731526
 10
92.23442432311822
 20
18.84999986828871
 42
0.0
 10
92.23442432311822
 20
15.34999986828867
 42
0.4142135623730891
 10
93.28442432311817
 20
14.29999986828869
 42
0.0
 10
100.2844243231183
 20
14.29999986828869
 42
0.4142135623730925
 10
105.8844243231183
 20
19.89999986828864
 42
0.0
 10
105.8844243231183
 20
23.53040391899919
 42
0.1989123673796675
 10
103.4241212850852
 20
29.4701008809665
 42
0.0
 10
97.60452533579609
 20
35.28969683025553
 42
-0.1989123673796652
 10
96.7844243231184
 20
37.26959581757786
 42
0.0
 97
        0
 92
        7
 72
     1
 73
     1
 93
       16
 10
115.6844243231182
 20
45.44999986828867
 42
0.414213562373103
 10
114.6344243231183
 20
46.49999986828869
 42
0.0
 10
111.1344243231183
 20
46.49999986828869
 42
0.4142135623730871
 10
110.0844243231183
 20
45.44999986828872
 42
0.0
 10
110.0844243231183
 20
19.89999986828864
 42
0.4142135623730926
 10
115.6844243231182
 20
14.29999986828869
 42
0.0
 10
122.6844243231182
 20
14.29999986828869
 42
0.4142135623731044
 10
128.2844243231183
 20
19.89999986828864
 42
0.0
 10
128.2844243231183
 20
45.44999986828869
 42
0.4142135623730951
 10
127.2344243231184
 20
46.49999986828869
 42
0.0
 10
123.7344243231182
 20
46.49999986828869
 42
0.4142135623730871
 10
122.6844243231182
 20
45.44999986828872
 42
0.0
 10
122.6844243231182
 20
21.99999986828863
 42
-0.414213562373088
 10
120.5844243231183
 20
19.89999986828868
 42
0.0
 10
117.7844243231183
 20
19.89999986828868
 42
-0.4142135623731197
 10
115.6844243231182
 20
21.99999986828863
 42
0.0
 97
        0
 92
        7
 72
     1
 73
     1
 93
        8
 10
138.0844243231183
 20
45.44999986828872
 42
0.4142135623730871
 10
137.0344243231184
 20
46.49999986828869
 42
0.0
 10
133.5344243231183
 20
46.49999986828869
 42
0.4142135623731507
 10
132.4844243231182
 20
45.44999986828872
 42
0.0
 10
132.4844243231182
 20
15.34999986828867
 42
0.4142135623730891
 10
133.5344243231181
 20
14.29999986828869
 42
0.0
 10
137.0344243231184
 20
14.29999986828869
 42
0.4142135623730891
 10
138.0844243231183
 20
15.34999986828867
 42
0.0
 97
        0
 75
     0
 76
     1
 52
0.0
 41
0.4
 77
     0
 78
     2
 53
45.0
 43
-1801.884608655802
 44
-26.40000013171118
 45
-0.8980256121069151
 46
0.8980256121069153
 79
     0
 53
135.0
 43
-1801.884608655802
 44
-26.40000013171118
 45
-0.8980256121069153
 46
-0.8980256121069151
 79
     0
 47
0.057451373970553
 98
        8
 10
32.15970993960263
 20
30.33434716005979
 10
44.80903002643436
 20
37.6881242331907
 10
50.32873578487533
 20
31.02376316043012
 10
61.82811997683029
 20
32.40259516117169
 10
83.67694405146949
 20
33.32181969625492
 10
93.79640180381512
 20
38.8371525011031
 10
113.1153719583567
 20
37.45831569847871
 10
135.6541592528014
 20
38.37754023356194
  0
LINE
  5
15D8
330
19
100
AcDbEntity
  8
ZUWAKU
100
AcDbLine
 10
49.88442432311831
 20
46.49999986828861
 30
0.0
 11
53.73442432311822
 21
46.49999986828869
 31
0.0
  0
LINE
  5
15D9
330
19
100
AcDbEntity
  8
ZUWAKU
100
AcDbLine
 10
53.73442432311822
 20
40.89999986828869
 30
0.0
 11
49.88442432311831
 21
40.89999986828869
 31
0.0
  0
LINE
  5
15DA
330
19
100
AcDbEntity
  8
ZUWAKU
100
AcDbLine
 10
49.88442432311831
 20
19.89999986828868
 30
0.0
 11
53.73442432311822
 21
19.89999986828868
 31
0.0
  0
LINE
  5
15DB
330
19
100
AcDbEntity
  8
ZUWAKU
100
AcDbLine
 10
53.73442432311822
 20
14.29999986828869
 30
0.0
 11
49.88442432311831
 21
14.29999986828869
 31
0.0
  0
CIRCLE
  5
15DC
330
19
100
AcDbEntity
  8
ZUWAKU
100
AcDbCircle
 10
51.98442432311821
 20
30.39999986828869
 30
0.0
 40
3.5
  0
ARC
  5
15DD
330
19
100
AcDbEntity
  8
ZUWAKU
100
AcDbCircle
 10
30.98442432311822
 20
37.26959581757809
 30
0.0
 40
2.799999999999999
100
AcDbArc
 50
180.0000000000016
 51
224.9999999999988
  0
LINE
  5
15DE
330
19
100
AcDbEntity
  8
ZUWAKU
100
AcDbLine
 10
47.08442432311835
 20
38.09999986828869
 30
0.0
 11
47.08442432311835
 21
22.6999998682887
 31
0.0
  0
LINE
  5
15DF
330
19
100
AcDbEntity
  8
ZUWAKU
100
AcDbLine
 10
41.48442432311822
 20
22.6999998682887
 30
0.0
 11
41.48442432311822
 21
38.0999998682886
 31
0.0
  0
ARC
  5
15E0
330
19
100
AcDbEntity
  8
ZUWAKU
100
AcDbCircle
 10
30.98442432311822
 20
37.26959581757809
 30
0.0
 40
8.399999999999998
100
AcDbArc
 50
180.0
 51
225.0
  0
ARC
  5
15E1
330
19
100
AcDbEntity
  8
ZUWAKU
100
AcDbCircle
 10
31.68442432311826
 20
19.89999986828868
 30
0.0
 40
5.599999999999999
100
AcDbArc
 50
270.0
 51
0.0
  0
ARC
  5
15E2
330
19
100
AcDbEntity
  8
ZUWAKU
100
AcDbCircle
 10
49.88442432311831
 20
22.6999998682887
 30
0.0
 40
8.399999999999998
100
AcDbArc
 50
180.0
 51
270.0
  0
ARC
  5
15E3
330
19
100
AcDbEntity
  8
ZUWAKU
100
AcDbCircle
 10
28.88442432311831
 20
23.53040391899929
 30
0.0
 40
8.399999999999998
100
AcDbArc
 50
0.0
 51
45.0
  0
LINE
  5
15E4
330
19
100
AcDbEntity
  8
ZUWAKU
100
AcDbLine
 10
34.82412128508531
 20
29.47010088096634
 30
0.0
 11
29.00452533579596
 21
35.28969683025569
 31
0.0
  0
LINE
  5
15E5
330
19
100
AcDbEntity
  8
ZUWAKU
100
AcDbLine
 10
31.68442432311826
 20
20.9499998682887
 30
0.0
 11
31.68442432311826
 21
23.53040391899938
 31
0.0
  0
ARC
  5
15E6
330
19
100
AcDbEntity
  8
ZUWAKU
100
AcDbCircle
 10
30.6344243231183
 20
20.9499998682887
 30
0.0
 40
1.049999999999999
100
AcDbArc
 50
270.0
 51
0.0
  0
ARC
  5
15E7
330
19
100
AcDbEntity
  8
ZUWAKU
100
AcDbCircle
 10
28.88442432311831
 20
23.53040391899938
 30
0.0
 40
2.799999999999999
100
AcDbArc
 50
0.0
 51
45.0
  0
LINE
  5
15E8
330
19
100
AcDbEntity
  8
ZUWAKU
100
AcDbLine
 10
23.63442432311831
 20
15.34999986828869
 30
0.0
 11
23.63442432311831
 21
18.84999986828869
 31
0.0
  0
ARC
  5
15E9
330
19
100
AcDbEntity
  8
ZUWAKU
100
AcDbCircle
 10
24.68442432311826
 20
15.34999986828869
 30
0.0
 40
1.049999999999999
100
AcDbArc
 50
180.0
 51
270.0
  0
ARC
  5
15EA
330
19
100
AcDbEntity
  8
ZUWAKU
100
AcDbCircle
 10
24.68442432311826
 20
18.84999986828869
 30
0.0
 40
1.049999999999999
100
AcDbArc
 50
90.0
 51
180.0
  0
LINE
  5
15EB
330
19
100
AcDbEntity
  8
ZUWAKU
100
AcDbLine
 10
24.68442432311826
 20
14.29999986828869
 30
0.0
 11
31.68442432311826
 21
14.29999986828869
 31
0.0
  0
LINE
  5
15EC
330
19
100
AcDbEntity
  8
ZUWAKU
100
AcDbLine
 10
24.68442432311826
 20
19.89999986828868
 30
0.0
 11
30.6344243231183
 21
19.89999986828868
 31
0.0
  0
LINE
  5
15ED
330
19
100
AcDbEntity
  8
ZUWAKU
100
AcDbLine
 10
25.04472736115122
 20
31.32989885561105
 30
0.0
 11
30.86432331044056
 21
25.51030290632172
 31
0.0
  0
LINE
  5
15EE
330
19
100
AcDbEntity
  8
ZUWAKU
100
AcDbLine
 10
37.2844243231184
 20
19.89999986828868
 30
0.0
 11
37.2844243231184
 21
23.53040391899938
 31
0.0
  0
ARC
  5
15EF
330
19
100
AcDbEntity
  8
ZUWAKU
100
AcDbCircle
 10
49.88442432311831
 20
22.6999998682887
 30
0.0
 40
2.799999999999999
100
AcDbArc
 50
180.0
 51
270.0
  0
ARC
  5
15F0
330
19
100
AcDbEntity
  8
ZUWAKU
100
AcDbCircle
 10
35.18442432311826
 20
45.44999986828869
 30
0.0
 40
1.049999999999999
100
AcDbArc
 50
0.0
 51
90.0
  0
ARC
  5
15F1
330
19
100
AcDbEntity
  8
ZUWAKU
100
AcDbCircle
 10
35.18442432311826
 20
41.94999986828868
 30
0.0
 40
1.049999999999999
100
AcDbArc
 50
270.0
 51
0.0
  0
LINE
  5
15F2
330
19
100
AcDbEntity
  8
ZUWAKU
100
AcDbLine
 10
28.18442432311826
 20
46.49999986828869
 30
0.0
 11
35.18442432311826
 21
46.49999986828869
 31
0.0
  0
ARC
  5
15F3
330
19
100
AcDbEntity
  8
ZUWAKU
100
AcDbCircle
 10
29.23442432311821
 20
39.84999986828869
 30
0.0
 40
1.049999999999999
100
AcDbArc
 50
90.0
 51
180.0
  0
LINE
  5
15F4
330
19
100
AcDbEntity
  8
ZUWAKU
100
AcDbLine
 10
28.18442432311826
 20
39.84999986828869
 30
0.0
 11
28.18442432311826
 21
37.269595817578
 31
0.0
  0
LINE
  5
15F5
330
19
100
AcDbEntity
  8
ZUWAKU
100
AcDbLine
 10
35.18442432311826
 20
40.89999986828869
 30
0.0
 11
29.23442432311821
 21
40.89999986828869
 31
0.0
  0
LINE
  5
15F6
330
19
100
AcDbEntity
  8
ZUWAKU
100
AcDbLine
 10
22.58442432311835
 20
40.89999986828869
 30
0.0
 11
22.58442432311835
 21
37.269595817578
 31
0.0
  0
ARC
  5
15F7
330
19
100
AcDbEntity
  8
ZUWAKU
100
AcDbCircle
 10
28.18442432311826
 20
40.89999986828869
 30
0.0
 40
5.599999999999999
100
AcDbArc
 50
90.0
 51
180.0
  0
LINE
  5
15F8
330
19
100
AcDbEntity
  8
ZUWAKU
100
AcDbLine
 10
36.23442432311822
 20
45.44999986828869
 30
0.0
 11
36.23442432311822
 21
41.94999986828868
 31
0.0
  0
ARC
  5
15F9
330
19
100
AcDbEntity
  8
ZUWAKU
100
AcDbCircle
 10
49.88442432311831
 20
38.09999986828869
 30
0.0
 40
2.799999999999999
100
AcDbArc
 50
90.0
 51
180.0
  0
ARC
  5
15FA
330
19
100
AcDbEntity
  8
ZUWAKU
100
AcDbCircle
 10
49.88442432311831
 20
38.0999998682886
 30
0.0
 40
8.399999999999998
100
AcDbArc
 50
90.0
 51
180.0
  0
LINE
  5
15FB
330
19
100
AcDbEntity
  8
ZUWAKU
100
AcDbLine
 10
158.6532591095324
 20
59.99999986828868
 30
0.0
 11
158.6532591095329
 21
1.599999868288819
 31
0.0
  0
LINE
  5
15FC
330
19
100
AcDbEntity
  8
ZUWAKU
100
AcDbLine
 10
159.0532591095325
 20
59.99999986828868
 30
0.0
 11
159.0532591095329
 21
1.599999868288819
 31
0.0
  0
LINE
  5
15FD
330
19
100
AcDbEntity
  8
ZUWAKU
100
AcDbLine
 10
158.2532591095327
 20
59.99999986828868
 30
0.0
 11
158.2532591095327
 21
1.599999868288819
 31
0.0
  0
LINE
  5
15FE
330
19
100
AcDbEntity
  8
ZUWAKU
100
AcDbLine
 10
128.2844243231183
 20
19.89999986828868
 30
0.0
 11
128.2844243231183
 21
45.44999986828869
 31
0.0
  0
LINE
  5
15FF
330
19
100
AcDbEntity
  8
ZUWAKU
100
AcDbLine
 10
122.6844243231182
 20
45.44999986828869
 30
0.0
 11
122.6844243231182
 21
21.99999986828868
 31
0.0
  0
LINE
  5
1600
330
19
100
AcDbEntity
  8
ZUWAKU
100
AcDbLine
 10
138.0844243231183
 20
15.34999986828869
 30
0.0
 11
138.0844243231183
 21
45.44999986828869
 31
0.0
  0
LINE
  5
1601
330
19
100
AcDbEntity
  8
ZUWAKU
100
AcDbLine
 10
132.4844243231182
 20
45.44999986828869
 30
0.0
 11
132.4844243231182
 21
15.34999986828869
 31
0.0
  0
ARC
  5
1602
330
19
100
AcDbEntity
  8
ZUWAKU
100
AcDbCircle
 10
99.58442432311835
 20
37.26959581757809
 30
0.0
 40
2.799999999999999
100
AcDbArc
 50
180.0000000000016
 51
224.9999999999988
  0
ARC
  5
1603
330
19
100
AcDbEntity
  8
ZUWAKU
100
AcDbCircle
 10
99.58442432311835
 20
37.26959581757809
 30
0.0
 40
8.399999999999998
100
AcDbArc
 50
180.0
 51
225.0
  0
LINE
  5
1604
330
19
100
AcDbEntity
  8
ZUWAKU
100
AcDbLine
 10
74.62971728747425
 20
38.41009425541554
 30
0.0
 11
72.10021379680256
 21
30.39999986828873
 31
0.0
  0
LINE
  5
1605
330
19
100
AcDbEntity
  8
ZUWAKU
100
AcDbLine
 10
81.38442432311832
 20
45.44999986828869
 30
0.0
 11
81.38442432311832
 21
15.34999986828869
 31
0.0
  0
LINE
  5
1606
330
19
100
AcDbEntity
  8
ZUWAKU
100
AcDbLine
 10
86.98442432311821
 20
15.34999986828869
 30
0.0
 11
86.98442432311821
 21
45.44999986828869
 31
0.0
  0
LINE
  5
1607
330
19
100
AcDbEntity
  8
ZUWAKU
100
AcDbLine
 10
110.0844243231183
 20
45.44999986828869
 30
0.0
 11
110.0844243231183
 21
19.89999986828868
 31
0.0
  0
LINE
  5
1608
330
19
100
AcDbEntity
  8
ZUWAKU
100
AcDbLine
 10
115.6844243231182
 20
21.99999986828868
 30
0.0
 11
115.6844243231182
 21
45.44999986828869
 31
0.0
  0
LINE
  5
1609
330
19
100
AcDbEntity
  8
ZUWAKU
100
AcDbLine
 10
65.2844243231184
 20
34.24999986828869
 30
0.0
 11
65.2844243231184
 21
45.44999986828869
 31
0.0
  0
LINE
  5
160A
330
19
100
AcDbEntity
  8
ZUWAKU
100
AcDbLine
 10
59.68442432311826
 20
45.44999986828869
 30
0.0
 11
59.68442432311826
 21
15.34999986828869
 31
0.0
  0
LINE
  5
160B
330
19
100
AcDbEntity
  8
ZUWAKU
100
AcDbLine
 10
71.35269419774999
 20
45.76618780462263
 30
0.0
 11
67.61615444848644
 21
33.93381193195475
 31
0.0
  0
LINE
  5
160C
330
19
100
AcDbEntity
  8
ZUWAKU
100
AcDbLine
 10
120.5844243231183
 20
19.89999986828868
 30
0.0
 11
117.7844243231183
 21
19.89999986828868
 31
0.0
  0
LINE
  5
160D
330
19
100
AcDbEntity
  8
ZUWAKU
100
AcDbLine
 10
115.6844243231182
 20
14.29999986828869
 30
0.0
 11
122.6844243231182
 21
14.29999986828869
 31
0.0
  0
LINE
  5
160E
330
19
100
AcDbEntity
  8
ZUWAKU
100
AcDbLine
 10
82.43442432311827
 20
14.29999986828869
 30
0.0
 11
85.93442432311826
 21
14.29999986828869
 31
0.0
  0
LINE
  5
160F
330
19
100
AcDbEntity
  8
ZUWAKU
100
AcDbLine
 10
71.35269419774999
 20
15.03381193195474
 30
0.0
 11
67.61615444848644
 21
26.86618780462262
 31
0.0
  0
ARC
  5
1610
330
19
100
AcDbEntity
  8
ZUWAKU
100
AcDbCircle
 10
66.61489265009572
 20
34.24999986828869
 30
0.0
 40
1.049999999999999
100
AcDbArc
 50
270.0
 51
342.4744316262769
  0
LINE
  5
1611
330
19
100
AcDbEntity
  8
ZUWAKU
100
AcDbLine
 10
66.61489265009572
 20
33.19999986828868
 30
0.0
 11
66.33442432311835
 21
33.19999986828868
 31
0.0
  0
LINE
  5
1612
330
19
100
AcDbEntity
  8
ZUWAKU
100
AcDbLine
 10
66.33442432311835
 20
27.59999986828869
 30
0.0
 11
66.61489265009572
 21
27.59999986828869
 31
0.0
  0
ARC
  5
1613
330
19
100
AcDbEntity
  8
ZUWAKU
100
AcDbCircle
 10
66.33442432311835
 20
34.24999986828869
 30
0.0
 40
1.049999999999999
100
AcDbArc
 50
180.0
 51
270.0
  0
LINE
  5
1614
330
19
100
AcDbEntity
  8
ZUWAKU
100
AcDbLine
 10
60.73442432311821
 20
14.29999986828869
 30
0.0
 11
64.23442432311822
 21
14.29999986828869
 31
0.0
  0
ARC
  5
1615
330
19
100
AcDbEntity
  8
ZUWAKU
100
AcDbCircle
 10
64.23442432311822
 20
15.34999986828869
 30
0.0
 40
1.049999999999999
100
AcDbArc
 50
270.0
 51
0.0
  0
LINE
  5
1616
330
19
100
AcDbEntity
  8
ZUWAKU
100
AcDbLine
 10
65.2844243231184
 20
15.34999986828869
 30
0.0
 11
65.2844243231184
 21
26.54999986828869
 31
0.0
  0
LINE
  5
1617
330
19
100
AcDbEntity
  8
ZUWAKU
100
AcDbLine
 10
54.7844243231184
 20
18.84999986828869
 30
0.0
 11
54.7844243231184
 21
15.34999986828869
 31
0.0
  0
ARC
  5
1618
330
19
100
AcDbEntity
  8
ZUWAKU
100
AcDbCircle
 10
53.73442432311822
 20
15.34999986828869
 30
0.0
 40
1.049999999999999
100
AcDbArc
 50
270.0
 51
0.0
  0
ARC
  5
1619
330
19
100
AcDbEntity
  8
ZUWAKU
100
AcDbCircle
 10
53.73442432311822
 20
18.84999986828869
 30
0.0
 40
1.049999999999999
100
AcDbArc
 50
0.0
 51
90.0
  0
ARC
  5
161A
330
19
100
AcDbEntity
  8
ZUWAKU
100
AcDbCircle
 10
60.73442432311821
 20
15.34999986828869
 30
0.0
 40
1.049999999999999
100
AcDbArc
 50
180.0
 51
270.0
  0
ARC
  5
161B
330
19
100
AcDbEntity
  8
ZUWAKU
100
AcDbCircle
 10
66.61489265009572
 20
26.54999986828869
 30
0.0
 40
1.049999999999999
100
AcDbArc
 50
17.52556837372303
 51
90.0
  0
ARC
  5
161C
330
19
100
AcDbEntity
  8
ZUWAKU
100
AcDbCircle
 10
66.33442432311835
 20
26.54999986828869
 30
0.0
 40
1.049999999999999
100
AcDbArc
 50
90.0
 51
180.0
  0
ARC
  5
161D
330
19
100
AcDbEntity
  8
ZUWAKU
100
AcDbCircle
 10
82.43442432311827
 20
15.34999986828869
 30
0.0
 40
1.049999999999999
100
AcDbArc
 50
180.0
 51
270.0
  0
LINE
  5
161E
330
19
100
AcDbEntity
  8
ZUWAKU
100
AcDbLine
 10
72.35395599614093
 20
14.29999986828869
 30
0.0
 11
75.75173475535894
 21
14.29999986828869
 31
0.0
  0
ARC
  5
161F
330
19
100
AcDbEntity
  8
ZUWAKU
100
AcDbCircle
 10
75.75173475535894
 20
15.34999986828869
 30
0.0
 40
1.049999999999999
100
AcDbArc
 50
270.0
 51
17.52556837372303
  0
LINE
  5
1620
330
19
100
AcDbEntity
  8
ZUWAKU
100
AcDbLine
 10
76.75299655374988
 20
15.66618780462263
 30
0.0
 11
72.10021379680256
 21
30.39999986828873
 31
0.0
  0
ARC
  5
1621
330
19
100
AcDbEntity
  8
ZUWAKU
100
AcDbCircle
 10
72.35395599614093
 20
15.34999986828869
 30
0.0
 40
1.049999999999999
100
AcDbArc
 50
197.525568373723
 51
270.0
  0
ARC
  5
1622
330
19
100
AcDbEntity
  8
ZUWAKU
100
AcDbCircle
 10
115.6844243231182
 20
19.89999986828868
 30
0.0
 40
5.599999999999999
100
AcDbArc
 50
180.0
 51
270.0
  0
ARC
  5
1623
330
19
100
AcDbEntity
  8
ZUWAKU
100
AcDbCircle
 10
100.2844243231183
 20
19.89999986828868
 30
0.0
 40
5.599999999999999
100
AcDbArc
 50
270.0
 51
0.0
  0
LINE
  5
1624
330
19
100
AcDbEntity
  8
ZUWAKU
100
AcDbLine
 10
103.4241212850854
 20
29.47010088096634
 30
0.0
 11
97.60452533579588
 21
35.28969683025569
 31
0.0
  0
LINE
  5
1625
330
19
100
AcDbEntity
  8
ZUWAKU
100
AcDbLine
 10
100.2844243231183
 20
20.9499998682887
 30
0.0
 11
100.2844243231183
 21
23.53040391899938
 31
0.0
  0
ARC
  5
1626
330
19
100
AcDbEntity
  8
ZUWAKU
100
AcDbCircle
 10
97.48442432311822
 20
23.53040391899938
 30
0.0
 40
2.799999999999999
100
AcDbArc
 50
0.0
 51
45.0
  0
ARC
  5
1627
330
19
100
AcDbEntity
  8
ZUWAKU
100
AcDbCircle
 10
99.23442432311823
 20
20.9499998682887
 30
0.0
 40
1.049999999999999
100
AcDbArc
 50
270.0
 51
0.0
  0
LINE
  5
1628
330
19
100
AcDbEntity
  8
ZUWAKU
100
AcDbLine
 10
92.23442432311822
 20
15.34999986828869
 30
0.0
 11
92.23442432311822
 21
18.84999986828869
 31
0.0
  0
ARC
  5
1629
330
19
100
AcDbEntity
  8
ZUWAKU
100
AcDbCircle
 10
93.2844243231184
 20
15.34999986828869
 30
0.0
 40
1.049999999999999
100
AcDbArc
 50
180.0
 51
270.0
  0
ARC
  5
162A
330
19
100
AcDbEntity
  8
ZUWAKU
100
AcDbCircle
 10
85.93442432311826
 20
15.34999986828869
 30
0.0
 40
1.049999999999999
100
AcDbArc
 50
270.0
 51
0.0
  0
ARC
  5
162B
330
19
100
AcDbEntity
  8
ZUWAKU
100
AcDbCircle
 10
93.2844243231184
 20
18.84999986828869
 30
0.0
 40
1.049999999999999
100
AcDbArc
 50
90.0
 51
180.0
  0
LINE
  5
162C
330
19
100
AcDbEntity
  8
ZUWAKU
100
AcDbLine
 10
93.2844243231184
 20
19.89999986828868
 30
0.0
 11
99.23442432311823
 21
19.89999986828868
 31
0.0
  0
LINE
  5
162D
330
19
100
AcDbEntity
  8
ZUWAKU
100
AcDbLine
 10
93.2844243231184
 20
14.29999986828869
 30
0.0
 11
100.2844243231183
 21
14.29999986828869
 31
0.0
  0
LINE
  5
162E
330
19
100
AcDbEntity
  8
ZUWAKU
100
AcDbLine
 10
93.64472736115136
 20
31.32989885561105
 30
0.0
 11
99.46432331044071
 21
25.51030290632172
 31
0.0
  0
LINE
  5
162F
330
19
100
AcDbEntity
  8
ZUWAKU
100
AcDbLine
 10
105.8844243231183
 20
19.89999986828868
 30
0.0
 11
105.8844243231183
 21
23.53040391899938
 31
0.0
  0
ARC
  5
1630
330
19
100
AcDbEntity
  8
ZUWAKU
100
AcDbCircle
 10
97.48442432311822
 20
23.53040391899929
 30
0.0
 40
8.399999999999998
100
AcDbArc
 50
0.0
 51
45.0
  0
ARC
  5
1631
330
19
100
AcDbEntity
  8
ZUWAKU
100
AcDbCircle
 10
117.7844243231183
 20
21.99999986828868
 30
0.0
 40
2.099999999999999
100
AcDbArc
 50
180.0
 51
270.0
  0
ARC
  5
1632
330
19
100
AcDbEntity
  8
ZUWAKU
100
AcDbCircle
 10
122.6844243231182
 20
19.89999986828868
 30
0.0
 40
5.599999999999999
100
AcDbArc
 50
270.0
 51
0.0
  0
LINE
  5
1633
330
19
100
AcDbEntity
  8
ZUWAKU
100
AcDbLine
 10
133.5344243231183
 20
14.29999986828869
 30
0.0
 11
137.0344243231184
 21
14.29999986828869
 31
0.0
  0
ARC
  5
1634
330
19
100
AcDbEntity
  8
ZUWAKU
100
AcDbCircle
 10
133.5344243231183
 20
15.34999986828869
 30
0.0
 40
1.049999999999999
100
AcDbArc
 50
180.0
 51
270.0
  0
ARC
  5
1635
330
19
100
AcDbEntity
  8
ZUWAKU
100
AcDbCircle
 10
120.5844243231183
 20
21.99999986828868
 30
0.0
 40
2.099999999999999
100
AcDbArc
 50
270.0
 51
0.0
  0
ARC
  5
1636
330
19
100
AcDbEntity
  8
ZUWAKU
100
AcDbCircle
 10
137.0344243231184
 20
15.34999986828869
 30
0.0
 40
1.049999999999999
100
AcDbArc
 50
270.0
 51
0.0
  0
LINE
  5
1637
330
19
100
AcDbEntity
  8
ZUWAKU
100
AcDbLine
 10
85.93442432311826
 20
46.49999986828869
 30
0.0
 11
82.43442432311827
 21
46.49999986828869
 31
0.0
  0
ARC
  5
1638
330
19
100
AcDbEntity
  8
ZUWAKU
100
AcDbCircle
 10
64.23442432311822
 20
45.44999986828869
 30
0.0
 40
1.049999999999999
100
AcDbArc
 50
0.0
 51
90.0
  0
LINE
  5
1639
330
19
100
AcDbEntity
  8
ZUWAKU
100
AcDbLine
 10
64.23442432311822
 20
46.49999986828869
 30
0.0
 11
60.73442432311821
 21
46.49999986828869
 31
0.0
  0
ARC
  5
163A
330
19
100
AcDbEntity
  8
ZUWAKU
100
AcDbCircle
 10
53.73442432311822
 20
45.44999986828869
 30
0.0
 40
1.049999999999999
100
AcDbArc
 50
0.0
 51
90.0
  0
ARC
  5
163B
330
19
100
AcDbEntity
  8
ZUWAKU
100
AcDbCircle
 10
60.73442432311821
 20
45.44999986828869
 30
0.0
 40
1.049999999999999
100
AcDbArc
 50
90.0
 51
180.0
  0
ARC
  5
163C
330
19
100
AcDbEntity
  8
ZUWAKU
100
AcDbCircle
 10
53.73442432311822
 20
41.94999986828868
 30
0.0
 40
1.049999999999999
100
AcDbArc
 50
270.0
 51
0.0
  0
LINE
  5
163D
330
19
100
AcDbEntity
  8
ZUWAKU
100
AcDbLine
 10
54.7844243231184
 20
45.44999986828869
 30
0.0
 11
54.7844243231184
 21
41.94999986828868
 31
0.0
  0
ARC
  5
163E
330
19
100
AcDbEntity
  8
ZUWAKU
100
AcDbCircle
 10
82.43442432311827
 20
45.44999986828869
 30
0.0
 40
1.049999999999999
100
AcDbArc
 50
90.0
 51
180.0
  0
LINE
  5
163F
330
19
100
AcDbEntity
  8
ZUWAKU
100
AcDbLine
 10
72.35395599614093
 20
46.49999986828869
 30
0.0
 11
75.75173475535894
 21
46.49999986828869
 31
0.0
  0
ARC
  5
1640
330
19
100
AcDbEntity
  8
ZUWAKU
100
AcDbCircle
 10
75.75173475535894
 20
45.44999986828869
 30
0.0
 40
1.049999999999999
100
AcDbArc
 50
342.4744316262769
 51
90.0
  0
LINE
  5
1641
330
19
100
AcDbEntity
  8
ZUWAKU
100
AcDbLine
 10
76.75299655374988
 20
45.13381193195475
 30
0.0
 11
74.62971728747425
 21
38.41009425541554
 31
0.0
  0
ARC
  5
1642
330
19
100
AcDbEntity
  8
ZUWAKU
100
AcDbCircle
 10
72.35395599614093
 20
45.44999986828869
 30
0.0
 40
1.049999999999999
100
AcDbArc
 50
90.0
 51
162.4744316262769
  0
LINE
  5
1643
330
19
100
AcDbEntity
  8
ZUWAKU
100
AcDbLine
 10
96.7844243231184
 20
46.49999986828869
 30
0.0
 11
103.7844243231184
 21
46.49999986828869
 31
0.0
  0
LINE
  5
1644
330
19
100
AcDbEntity
  8
ZUWAKU
100
AcDbLine
 10
103.7844243231184
 20
40.89999986828869
 30
0.0
 11
97.83442432311836
 21
40.89999986828869
 31
0.0
  0
ARC
  5
1645
330
19
100
AcDbEntity
  8
ZUWAKU
100
AcDbCircle
 10
97.83442432311836
 20
39.84999986828869
 30
0.0
 40
1.049999999999999
100
AcDbArc
 50
90.0
 51
180.0
  0
LINE
  5
1646
330
19
100
AcDbEntity
  8
ZUWAKU
100
AcDbLine
 10
96.7844243231184
 20
39.84999986828869
 30
0.0
 11
96.7844243231184
 21
37.269595817578
 31
0.0
  0
ARC
  5
1647
330
19
100
AcDbEntity
  8
ZUWAKU
100
AcDbCircle
 10
85.93442432311826
 20
45.44999986828869
 30
0.0
 40
1.049999999999999
100
AcDbArc
 50
0.0
 51
90.0
  0
LINE
  5
1648
330
19
100
AcDbEntity
  8
ZUWAKU
100
AcDbLine
 10
91.18442432311827
 20
40.89999986828869
 30
0.0
 11
91.18442432311827
 21
37.269595817578
 31
0.0
  0
ARC
  5
1649
330
19
100
AcDbEntity
  8
ZUWAKU
100
AcDbCircle
 10
96.7844243231184
 20
40.89999986828869
 30
0.0
 40
5.599999999999999
100
AcDbArc
 50
90.0
 51
180.0
  0
ARC
  5
164A
330
19
100
AcDbEntity
  8
ZUWAKU
100
AcDbCircle
 10
114.6344243231183
 20
45.44999986828869
 30
0.0
 40
1.049999999999999
100
AcDbArc
 50
0.0
 51
90.0
  0
ARC
  5
164B
330
19
100
AcDbEntity
  8
ZUWAKU
100
AcDbCircle
 10
111.1344243231183
 20
45.44999986828869
 30
0.0
 40
1.049999999999999
100
AcDbArc
 50
90.0
 51
180.0
  0
LINE
  5
164C
330
19
100
AcDbEntity
  8
ZUWAKU
100
AcDbLine
 10
114.6344243231183
 20
46.49999986828869
 30
0.0
 11
111.1344243231183
 21
46.49999986828869
 31
0.0
  0
ARC
  5
164D
330
19
100
AcDbEntity
  8
ZUWAKU
100
AcDbCircle
 10
103.7844243231184
 20
45.44999986828869
 30
0.0
 40
1.049999999999999
100
AcDbArc
 50
0.0
 51
90.0
  0
ARC
  5
164E
330
19
100
AcDbEntity
  8
ZUWAKU
100
AcDbCircle
 10
103.7844243231184
 20
41.94999986828868
 30
0.0
 40
1.049999999999999
100
AcDbArc
 50
270.0
 51
0.0
  0
LINE
  5
164F
330
19
100
AcDbEntity
  8
ZUWAKU
100
AcDbLine
 10
104.8344243231183
 20
45.44999986828869
 30
0.0
 11
104.8344243231183
 21
41.94999986828868
 31
0.0
  0
LINE
  5
1650
330
19
100
AcDbEntity
  8
ZUWAKU
100
AcDbLine
 10
137.0344243231184
 20
46.49999986828869
 30
0.0
 11
133.5344243231183
 21
46.49999986828869
 31
0.0
  0
ARC
  5
1651
330
19
100
AcDbEntity
  8
ZUWAKU
100
AcDbCircle
 10
133.5344243231183
 20
45.44999986828869
 30
0.0
 40
1.049999999999999
100
AcDbArc
 50
90.0
 51
180.0
  0
ARC
  5
1652
330
19
100
AcDbEntity
  8
ZUWAKU
100
AcDbCircle
 10
127.2344243231182
 20
45.44999986828869
 30
0.0
 40
1.049999999999999
100
AcDbArc
 50
0.0
 51
90.0
  0
LINE
  5
1653
330
19
100
AcDbEntity
  8
ZUWAKU
100
AcDbLine
 10
127.2344243231182
 20
46.49999986828869
 30
0.0
 11
123.7344243231182
 21
46.49999986828869
 31
0.0
  0
ARC
  5
1654
330
19
100
AcDbEntity
  8
ZUWAKU
100
AcDbCircle
 10
123.7344243231182
 20
45.44999986828869
 30
0.0
 40
1.049999999999999
100
AcDbArc
 50
90.0
 51
180.0
  0
ARC
  5
1655
330
19
100
AcDbEntity
  8
ZUWAKU
100
AcDbCircle
 10
137.0344243231184
 20
45.44999986828869
 30
0.0
 40
1.049999999999999
100
AcDbArc
 50
0.0
 51
90.0
  0
TEXT
  5
1656
330
19
100
AcDbEntity
  8
MOJI
100
AcDbText
 10
479.6544053752581
 20
36.00984198310345
 30
0.0
 40
11.19999999999999
  1
曲りⅡ（出）
 41
0.9
  7
ｽﾀｲﾙ1
100
AcDbText
  0
TEXT
  5
1657
330
19
100
AcDbEntity
  8
MOJI
100
AcDbText
 10
479.6544053752581
 20
6.409841983103525
 30
0.0
 40
11.19999999999999
  1
Ｈ１６０
 41
0.9
  7
ｽﾀｲﾙ1
100
AcDbText
  0
LINE
  5
1658
330
19
100
AcDbEntity
  8
ZUWAKU
100
AcDbLine
 10
416.4932025936918
 20
59.99999986828868
 30
0.0
 11
416.4932025936918
 21
1.599999868288819
 31
0.0
  0
LINE
  5
1659
330
19
100
AcDbEntity
  8
ZUWAKU
100
AcDbLine
 10
417.2932025936916
 20
59.99999986828868
 30
0.0
 11
417.293202593692
 21
1.599999868288819
 31
0.0
  0
LINE
  5
165A
330
19
100
AcDbEntity
  8
ZUWAKU
100
AcDbLine
 10
416.8932025936915
 20
59.99999986828868
 30
0.0
 11
416.893202593692
 21
1.599999868288819
 31
0.0
  0
TEXT
  5
165B
330
19
100
AcDbEntity
  8
ZUWAKU
100
AcDbText
 10
419.448092638111
 20
19.31071294505992
 30
0.0
 40
8.0
  1
サイズ
 41
0.9
  7
ｽﾀｲﾙ1
100
AcDbText
  0
TEXT
  5
165C
330
19
100
AcDbEntity
  8
ZUWAKU
100
AcDbText
 10
419.4480926381106
 20
48.11071294505985
 30
0.0
 40
8.0
  1
品名
 41
0.9
  7
ｽﾀｲﾙ1
100
AcDbText
  0
LINE
  5
165D
330
19
100
AcDbEntity
  8
ZUWAKU
100
AcDbLine
 10
1297.634405033964
 20
30.39999986828874
 30
0.0
 11
1394.498021110638
 21
30.39999986828875
 31
0.0
  0
LINE
  5
165E
330
19
100
AcDbEntity
  8
ZUWAKU
100
AcDbLine
 10
1297.634405033964
 20
30.79999986828875
 30
0.0
 11
1394.498021110638
 21
30.79999986828875
 31
0.0
  0
LINE
  5
165F
330
19
100
AcDbEntity
  8
ZUWAKU
100
AcDbLine
 10
1297.634405033964
 20
31.19999986828875
 30
0.0
 11
1394.498021110638
 21
31.19999986828875
 31
0.0
  0
TEXT
  5
1660
330
19
100
AcDbEntity
  8
ZUWAKU
100
AcDbText
 10
1316.40787538816
 20
36.00984198310345
 30
0.0
 40
11.19999999999999
  1
　　．　　．　　
 41
0.9
  7
ｽﾀｲﾙ1
100
AcDbText
  0
LINE
  5
1661
330
19
100
AcDbEntity
  8
ZUWAKU
100
AcDbLine
 10
1010.398359009837
 20
30.39999986828876
 30
0.0
 11
1105.05391154578
 21
30.39999986828876
 31
0.0
  0
LINE
  5
1662
330
19
100
AcDbEntity
  8
ZUWAKU
100
AcDbLine
 10
1010.398359009837
 20
30.79999986828875
 30
0.0
 11
1105.05391154578
 21
30.79999986828875
 31
0.0
  0
LINE
  5
1663
330
19
100
AcDbEntity
  8
ZUWAKU
100
AcDbLine
 10
1010.398359009837
 20
31.19999986828875
 30
0.0
 11
1105.05391154578
 21
31.19999986828875
 31
0.0
  0
TEXT
  5
1664
330
19
100
AcDbEntity
  8
MOJI
100
AcDbText
 10
926.49286399556
 20
23.88523531160865
 30
0.0
 40
11.19999999999999
  1
ＰＥ２１□
 41
0.9
  7
ｽﾀｲﾙ1
100
AcDbText
  0
LINE
  5
1665
330
19
100
AcDbEntity
  8
ZUWAKU
100
AcDbLine
 10
895.2487279555384
 20
59.99999986828868
 30
0.0
 11
895.248727955539
 21
1.599999868288819
 31
0.0
  0
LINE
  5
1666
330
19
100
AcDbEntity
  8
ZUWAKU
100
AcDbLine
 10
895.6487279555386
 20
59.99999986828868
 30
0.0
 11
895.6487279555389
 21
1.599999868288819
 31
0.0
  0
LINE
  5
1667
330
19
100
AcDbEntity
  8
ZUWAKU
100
AcDbLine
 10
894.8487279555388
 20
59.99999986828868
 30
0.0
 11
894.8487279555388
 21
1.599999868288819
 31
0.0
  0
TEXT
  5
1668
330
19
100
AcDbEntity
  8
MOJI
100
AcDbText
 10
1056.081815958181
 20
36.00984198310345
 30
0.0
 40
11.19999999999999
  1
Ａ３
 41
0.9
  7
ｽﾀｲﾙ1
100
AcDbText
  0
LINE
  5
1669
330
19
100
AcDbEntity
  8
ZUWAKU
100
AcDbLine
 10
1009.998359009837
 20
59.99999986828868
 30
0.0
 11
1009.998359009838
 21
1.599999868288819
 31
0.0
  0
LINE
  5
166A
330
19
100
AcDbEntity
  8
ZUWAKU
100
AcDbLine
 10
1010.398359009837
 20
59.99999986828868
 30
0.0
 11
1010.398359009838
 21
1.599999868288819
 31
0.0
  0
LINE
  5
166B
330
19
100
AcDbEntity
  8
ZUWAKU
100
AcDbLine
 10
1009.598359009838
 20
59.99999986828868
 30
0.0
 11
1009.598359009838
 21
1.599999868288819
 31
0.0
  0
TEXT
  5
166C
330
19
100
AcDbEntity
  8
ZUWAKU
100
AcDbText
 10
928.2362869336516
 20
5.228141690567667
 30
0.0
 40
6.0
  1
□には色品番が入ります
 41
0.9
  7
ｽﾀｲﾙ1
100
AcDbText
  0
TEXT
  5
166D
330
19
100
AcDbEntity
  8
ZUWAKU
100
AcDbText
 10
1013.353249054257
 20
19.31071294505992
 30
0.0
 40
8.0
  1
縮尺
 41
0.9
  7
ｽﾀｲﾙ1
100
AcDbText
  0
TEXT
  5
166E
330
19
100
AcDbEntity
  8
MOJI
100
AcDbText
 10
1056.081815958181
 20
6.409841983103525
 30
0.0
 40
11.19999999999999
  1
１/４
 41
0.9
  7
ｽﾀｲﾙ1
100
AcDbText
  0
TEXT
  5
166F
330
19
100
AcDbEntity
  8
ZUWAKU
100
AcDbText
 10
898.6036179999578
 20
48.11071294505985
 30
0.0
 40
8.0
  1
品番
 41
0.9
  7
ｽﾀｲﾙ1
100
AcDbText
  0
TEXT
  5
1670
330
19
100
AcDbEntity
  8
ZUWAKU
100
AcDbText
 10
1013.353249054257
 20
48.11071294505985
 30
0.0
 40
8.0
  1
用紙
 41
0.9
  7
ｽﾀｲﾙ1
100
AcDbText
  0
LINE
  5
1671
330
19
100
AcDbEntity
  8
ZUWAKU
100
AcDbLine
 10
1297.234405033965
 20
59.99999986828868
 30
0.0
 11
1297.234405033965
 21
1.599999868288819
 31
0.0
  0
LINE
  5
1672
330
19
100
AcDbEntity
  8
ZUWAKU
100
AcDbLine
 10
1297.634405033964
 20
59.99999986828868
 30
0.0
 11
1297.634405033965
 21
1.599999868288819
 31
0.0
  0
LINE
  5
1673
330
19
100
AcDbEntity
  8
ZUWAKU
100
AcDbLine
 10
1296.834405033965
 20
59.99999986828868
 30
0.0
 11
1296.834405033965
 21
1.599999868288819
 31
0.0
  0
LINE
  5
1674
330
19
100
AcDbEntity
  8
ZUWAKU
100
AcDbLine
 10
1105.45391154578
 20
59.99999986828868
 30
0.0
 11
1105.453911545781
 21
1.599999868288819
 31
0.0
  0
LINE
  5
1675
330
19
100
AcDbEntity
  8
ZUWAKU
100
AcDbLine
 10
1105.85391154578
 20
59.99999986828868
 30
0.0
 11
1105.853911545781
 21
1.599999868288819
 31
0.0
  0
LINE
  5
1676
330
19
100
AcDbEntity
  8
ZUWAKU
100
AcDbLine
 10
1105.05391154578
 20
59.99999986828868
 30
0.0
 11
1105.05391154578
 21
1.599999868288819
 31
0.0
  0
TEXT
  5
1677
330
19
100
AcDbEntity
  8
ZUWAKU
100
AcDbText
 10
1300.589295078384
 20
48.11071294505985
 30
0.0
 40
8.0
  1
DATE
 41
0.9
  7
ｽﾀｲﾙ1
100
AcDbText
  0
LINE
  5
1678
330
19
100
AcDbEntity
  8
ZUWAKU
100
AcDbLine
 10
1394.498021110638
 20
59.99999986828868
 30
0.0
 11
1394.498021110638
 21
1.599999868288819
 31
0.0
  0
LINE
  5
1679
330
19
100
AcDbEntity
  8
ZUWAKU
100
AcDbLine
 10
1394.898021110638
 20
59.99999986828868
 30
0.0
 11
1394.898021110638
 21
1.599999868288819
 31
0.0
  0
LINE
  5
167A
330
19
100
AcDbEntity
  8
ZUWAKU
100
AcDbLine
 10
1395.298021110638
 20
59.99999986828868
 30
0.0
 11
1395.298021110638
 21
1.599999868288819
 31
0.0
  0
LINE
  5
167B
330
19
100
AcDbEntity
  8
ZUWAKU
100
AcDbLine
 10
1395.698021110638
 20
59.99999986828868
 30
0.0
 11
1395.698021110638
 21
1.599999868288819
 31
0.0
  0
TEXT
  5
167C
330
19
100
AcDbEntity
  8
ZUWAKU
100
AcDbText
 10
1417.056168398043
 20
35.10767853966228
 30
0.0
 40
12.0
  1
積水化学工業株式会社
 41
0.9
  7
ｽﾀｲﾙ1
100
AcDbText
  0
TEXT
  5
167D
330
19
100
AcDbEntity
  8
ZUWAKU
100
AcDbText
 10
1417.056168398043
 20
13.29768049599681
 30
0.0
 40
12.0
  1
建材事業部
 41
0.9
  7
ｽﾀｲﾙ1
100
AcDbText
  0
DIMENSION
  5
1894
330
19
100
AcDbEntity
  8
SUNPOU
  6
CONTINUOUS
100
AcDbDimension
  2
*D1
 10
810.9449820535635
 20
595.5668847118399
 30
0.0
 11
800.9449820535634
 21
617.5668847118402
 31
0.0
 70
    32
  1
※<>
  3
STANDARD
100
AcDbAlignedDimension
 13
897.4853109254901
 23
639.56688471184
 33
0.0
 14
868.6991949240901
 24
595.5668847118399
 34
0.0
 50
90.0
100
AcDbRotatedDimension
1001
ACAD
1000
DSTYLE
1002
{
1070
   372
1070
    -1
1070
   371
1070
    -1
1070
    41
1040
14.0
1070
    42
1040
12.0
1070
    43
1040
28.0
1070
    44
1040
6.0
1070
    73
1070
     0
1070
    74
1070
     0
1070
    77
1070
     3
1070
   140
1040
12.0
1070
   141
1040
150.0
1070
   143
1040
0.03937
1070
   147
1040
4.0
1070
   172
1070
     1
1070
   173
1070
     1
1070
   176
1070
   256
1070
   177
1070
   256
1070
   178
1070
   256
1070
   271
1070
     0
1070
   272
1070
     2
1070
     6
1000
OPEN
1070
     7
1000
OPEN
1002
}
  0
DIMENSION
  5
1895
330
19
100
AcDbEntity
  8
SUNPOU
  6
CONTINUOUS
100
AcDbDimension
  2
*D2
 10
810.9449820535635
 20
257.35038383014
 30
0.0
 11
800.9449820535634
 21
328.1105873235531
 31
0.0
 70
    32
  1
{141}
  3
STANDARD
100
AcDbAlignedDimension
 13
881.1262876535206
 23
398.870790816966
 33
0.0
 14
981.3884655599903
 24
257.3503838301399
 34
0.0
 50
90.0
100
AcDbRotatedDimension
1001
ACAD
1000
DSTYLE
1002
{
1070
   372
1070
    -1
1070
   371
1070
    -1
1070
    41
1040
14.0
1070
    42
1040
12.0
1070
    43
1040
28.0
1070
    44
1040
6.0
1070
    73
1070
     0
1070
    74
1070
     0
1070
    77
1070
     3
1070
   140
1040
12.0
1070
   141
1040
150.0
1070
   143
1040
0.03937
1070
   147
1040
4.0
1070
   172
1070
     1
1070
   173
1070
     1
1070
   176
1070
   256
1070
   177
1070
   256
1070
   178
1070
   256
1070
   271
1070
     0
1070
   272
1070
     2
1070
     6
1000
OPEN
1070
     7
1000
OPEN
1002
}
  0
LINE
  5
1896
330
19
100
AcDbEntity
  8
SEIHIN
  6
CONTINUOUS
 62
     3
100
AcDbLine
 10
617.4270079468879
 20
258.5794161227565
 30
0.0
 11
444.561677357188
 21
258.5794161227565
 31
0.0
  0
LINE
  5
1897
330
19
100
AcDbEntity
  8
SEIHIN
100
AcDbLine
 10
332.3276460553887
 20
393.6696797168008
 30
0.0
 11
648.4216176450879
 21
393.6696797168008
 31
0.0
  0
LINE
  5
1898
330
19
100
AcDbEntity
  8
SEIHIN
100
AcDbLine
 10
378.5735744452879
 20
280.44090233884
 30
0.0
 11
617.421617645088
 21
280.44090233884
 31
0.0
  0
LINE
  5
1899
330
19
100
AcDbEntity
  8
SEIHIN
100
AcDbLine
 10
330.861677357188
 20
385.0789071349399
 30
0.0
 11
617.421617645088
 21
385.0789071349399
 31
0.0
  0
LINE
  5
189A
330
19
100
AcDbEntity
  8
SEIHIN
100
AcDbLine
 10
333.7087841235879
 20
382.75337965004
 30
0.0
 11
617.421617645088
 21
382.75337965004
 31
0.0
  0
LINE
  5
189B
330
19
100
AcDbEntity
  8
SEIHIN
  6
CONTINUOUS
 62
     3
100
AcDbLine
 10
347.8173871493953
 20
394.26848852464
 30
0.0
 11
608.421617645088
 21
394.26848852464
 31
0.0
  0
LINE
  5
189C
330
19
100
AcDbEntity
  8
SEIHIN
  6
CONTINUOUS
 62
     3
100
AcDbLine
 10
617.4270079468879
 20
257.3503838301399
 30
0.0
 11
444.561677357188
 21
257.3503838301399
 31
0.0
  0
LINE
  5
189D
330
19
100
AcDbEntity
  8
SEIHIN
  6
CONTINUOUS
 62
     3
100
AcDbLine
 10
330.8692734806879
 20
385.16573122374
 30
0.0
 11
331.4433417800879
 21
391.72736191124
 31
0.0
  0
ARC
  5
189E
330
19
100
AcDbEntity
  8
SEIHIN
  6
CONTINUOUS
 62
     3
100
AcDbCircle
 10
444.561677357188
 20
1261.279416122756
 30
0.0
 40
1002.7
100
AcDbArc
 50
267.3873716740625
 51
270.0
  0
ARC
  5
189F
330
19
100
AcDbEntity
  8
SEIHIN
  6
CONTINUOUS
 62
     3
100
AcDbCircle
 10
444.561677357188
 20
1260.05038383014
 30
0.0
 40
1002.7
100
AcDbArc
 50
267.4053482952377
 51
270.0
  0
ARC
  5
18A0
330
19
100
AcDbEntity
  8
SEIHIN
  6
CONTINUOUS
 62
     3
100
AcDbCircle
 10
609.4147825750881
 20
422.24715357014
 30
0.0
 40
272.6999999999999
100
AcDbArc
 50
188.3271447004746
 51
210.8909786807989
  0
LINE
  5
18A1
330
19
100
AcDbEntity
  8
SEIHIN
  6
CONTINUOUS
 62
     3
100
AcDbLine
 10
389.4362820422703
 20
280.4409023388401
 30
0.0
 11
393.8996941373209
 21
262.6830403085658
 31
0.0
  0
ARC
  5
18A2
330
19
100
AcDbEntity
  8
SEIHIN
  6
CONTINUOUS
 62
     3
100
AcDbCircle
 10
399.4277479101626
 20
264.0725083666984
 30
0.0
 40
5.7
100
AcDbArc
 50
194.1089391537687
 51
267.4053482952444
  0
ARC
  5
18A3
330
19
100
AcDbEntity
  8
SEIHIN
  6
CONTINUOUS
 62
     3
100
AcDbCircle
 10
399.115260855369
 20
265.3157505068148
 30
0.0
 40
5.7
100
AcDbArc
 50
194.1089391537687
 51
267.3873716740657
  0
ARC
  5
18A4
330
19
100
AcDbEntity
  8
SEIHIN
  6
CONTINUOUS
 62
     3
100
AcDbCircle
 10
378.5735744452879
 20
284.14090233884
 30
0.0
 40
3.7
100
AcDbArc
 50
210.8909956153989
 51
270.0
  0
ARC
  5
18A5
330
19
100
AcDbEntity
  8
SEIHIN
  6
CONTINUOUS
 62
     3
100
AcDbCircle
 10
333.7087841235879
 20
383.2533796500399
 30
0.0
 40
0.5
100
AcDbArc
 50
232.1249946450985
 51
270.0
  0
ARC
  5
18A6
330
19
100
AcDbEntity
  8
SEIHIN
  6
CONTINUOUS
 62
     3
100
AcDbCircle
 10
331.361677357188
 20
385.0789071349399
 30
0.0
 40
0.5
100
AcDbArc
 50
170.0000000000013
 51
232.1250354542017
  0
LINE
  5
18A7
330
19
100
AcDbEntity
  8
SEIHIN
  6
CONTINUOUS
 62
     3
100
AcDbLine
 10
331.054707182088
 20
384.68423092384
 30
0.0
 11
333.401813667288
 21
382.85870365764
 31
0.0
  0
LINE
  5
18A8
330
19
100
AcDbEntity
  8
SEIHIN
  6
CONTINUOUS
 62
     3
100
AcDbLine
 10
333.417282650988
 20
394.40928944864
 30
0.0
 11
344.299499450688
 21
398.87079081694
 31
0.0
  0
ARC
  5
18A9
330
19
100
AcDbEntity
  8
SEIHIN
  6
CONTINUOUS
 62
     3
100
AcDbCircle
 10
334.631164813988
 20
391.44846353444
 30
0.0
 40
3.2
100
AcDbArc
 50
112.2926937813994
 51
175.0000000000002
  0
ARC
  5
18AA
330
19
100
AcDbEntity
  8
SEIHIN
  6
CONTINUOUS
 62
     3
100
AcDbCircle
 10
345.4375142347879
 20
396.09501662744
 30
0.0
 40
3.0
100
AcDbArc
 50
322.494130331247
 51
112.2926990702013
  0
LINE
  5
18AB
330
19
100
AcDbEntity
  8
SEIHIN
  6
CONTINUOUS
 62
     3
100
AcDbLine
 10
648.4216176450879
 20
258.85038383014
 30
0.0
 11
648.4216176450879
 21
398.8950166274399
 31
0.0
  0
LINE
  5
18AC
330
19
100
AcDbEntity
  8
SEIHIN
  6
CONTINUOUS
 62
     3
100
AcDbLine
 10
648.4216176450879
 20
260.0794161227566
 30
0.0
 11
629.405466092488
 21
258.9384470295565
 31
0.0
  0
LINE
  5
18AD
330
19
100
AcDbEntity
  8
SEIHIN
  6
CONTINUOUS
 62
     3
100
AcDbLine
 10
648.416227343288
 20
281.94090233884
 30
0.0
 11
629.400075790688
 21
280.79993324564
 31
0.0
  0
LINE
  5
18AE
330
19
100
AcDbEntity
  8
SEIHIN
  6
CONTINUOUS
 62
     3
100
AcDbLine
 10
648.4216176450879
 20
258.85038383014
 30
0.0
 11
629.405466092488
 21
257.70941473694
 31
0.0
  0
ARC
  5
18AF
330
19
100
AcDbEntity
  8
SEIHIN
  6
CONTINUOUS
 62
     3
100
AcDbCircle
 10
617.4270079468879
 20
458.5794161227566
 30
0.0
 40
200.0
100
AcDbArc
 50
270.0
 51
273.4336303624985
  0
ARC
  5
18B0
330
19
100
AcDbEntity
  8
SEIHIN
  6
CONTINUOUS
 62
     3
100
AcDbCircle
 10
617.4270079468879
 20
457.35038383014
 30
0.0
 40
200.0
100
AcDbArc
 50
270.0
 51
273.4336303624985
  0
ARC
  5
18B1
330
19
100
AcDbEntity
  8
SEIHIN
  6
CONTINUOUS
 62
     3
100
AcDbCircle
 10
617.421617645088
 20
480.44090233884
 30
0.0
 40
200.0
100
AcDbArc
 50
270.0
 51
273.4336303624985
  0
LINE
  5
18B2
330
19
100
AcDbEntity
  8
SEIHIN
  6
CONTINUOUS
 62
     3
100
AcDbLine
 10
648.416227343288
 20
386.57890713494
 30
0.0
 11
629.400075790688
 21
385.43793804174
 31
0.0
  0
LINE
  5
18B3
330
19
100
AcDbEntity
  8
SEIHIN
  6
CONTINUOUS
 62
     3
100
AcDbLine
 10
648.416227343288
 20
384.25337965004
 30
0.0
 11
629.400075790688
 21
383.11241055684
 31
0.0
  0
ARC
  5
18B4
330
19
100
AcDbEntity
  8
SEIHIN
  6
CONTINUOUS
 62
     3
100
AcDbCircle
 10
617.421617645088
 20
585.0789071349399
 30
0.0
 40
200.0
100
AcDbArc
 50
270.0
 51
273.4336303624985
  0
ARC
  5
18B5
330
19
100
AcDbEntity
  8
SEIHIN
  6
CONTINUOUS
 62
     3
100
AcDbCircle
 10
617.421617645088
 20
582.7533796500399
 30
0.0
 40
200.0
100
AcDbArc
 50
270.0
 51
273.4336303624985
  0
LINE
  5
18B6
330
19
100
AcDbEntity
  8
SEIHIN
  6
CONTINUOUS
 62
     3
100
AcDbLine
 10
608.421617645088
 20
398.8950166274399
 30
0.0
 11
648.4216176450879
 21
398.8950166274399
 31
0.0
  0
LINE
  5
18B7
330
19
100
AcDbEntity
  8
SEIHIN
  6
CONTINUOUS
 62
     3
100
AcDbLine
 10
608.4216176450878
 20
394.26848852464
 30
0.0
 11
608.421617645088
 21
398.8950166274399
 31
0.0
  0
DIMENSION
  5
18B8
330
19
100
AcDbEntity
  8
SUNPOU
100
AcDbDimension
  2
*D3
 10
1120.547238784922
 20
257.3503838301399
 30
0.0
 11
1110.547238784922
 21
306.3003838301401
 31
0.0
 70
    32
  3
STANDARD
100
AcDbAlignedDimension
 13
1086.588474077889
 23
355.25038383014
 33
0.0
 14
981.3884655599903
 24
257.3503838301399
 34
0.0
 50
90.0
100
AcDbRotatedDimension
1001
ACAD
1000
DSTYLE
1002
{
1070
   372
1070
    -1
1070
   371
1070
    -1
1070
    41
1040
14.0
1070
    42
1040
12.0
1070
    43
1040
28.0
1070
    44
1040
6.0
1070
    73
1070
     0
1070
    74
1070
     0
1070
    77
1070
     3
1070
   140
1040
12.0
1070
   141
1040
150.0
1070
   143
1040
0.03937
1070
   147
1040
4.0
1070
   172
1070
     1
1070
   173
1070
     1
1070
   176
1070
   256
1070
   177
1070
   256
1070
   178
1070
   256
1070
   271
1070
     0
1070
   272
1070
     2
1070
     6
1000
OPEN
1070
     7
1000
OPEN
1002
}
  0
LINE
  5
18B9
330
19
100
AcDbEntity
  8
SEIHIN
100
AcDbLine
 10
1093.407513247889
 20
352.12411393014
 30
0.0
 11
1107.203699047889
 21
340.63983723014
 31
0.0
  0
LINE
  5
18BA
330
19
100
AcDbEntity
  8
SEIHIN
  6
CONTINUOUS
 62
     3
100
AcDbLine
 10
1154.25379614969
 20
258.6018334217015
 30
0.0
 11
1031.870702215279
 21
258.6018334217015
 31
0.0
  0
LINE
  5
18BB
330
19
100
AcDbEntity
  8
SEIHIN
  6
CONTINUOUS
 62
     3
100
AcDbLine
 10
1154.25379614969
 20
257.3503838301399
 30
0.0
 11
981.3884655599903
 21
257.3503838301399
 31
0.0
  0
LINE
  5
18BC
330
19
100
AcDbEntity
  8
SEIHIN
  6
CONTINUOUS
 62
     3
100
AcDbLine
 10
884.6441753521975
 20
394.26848852464
 30
0.0
 11
1145.24840584789
 21
394.26848852464
 31
0.0
  0
LINE
  5
18BD
330
19
100
AcDbEntity
  8
SEIHIN
  6
CONTINUOUS
 62
     3
100
AcDbLine
 10
870.4255023927682
 20
386.1018052079399
 30
0.0
 11
1185.24840584789
 21
386.1018052079399
 31
0.0
  0
DIMENSION
  5
18BE
330
19
100
AcDbEntity
  8
SUNPOU
  6
CONTINUOUS
100
AcDbDimension
  2
*D4
 10
1185.24840584789
 20
460.0061821196375
 30
0.0
 11
1026.485138493652
 21
470.0061821196375
 31
0.0
 70
    32
  3
STANDARD
100
AcDbAlignedDimension
 13
867.7218711394141
 23
384.8992139333787
 33
0.0
 14
1185.24840584789
 24
398.8950166274399
 34
0.0
100
AcDbRotatedDimension
1001
ACAD
1000
DSTYLE
1002
{
1070
   372
1070
    -1
1070
   371
1070
    -1
1070
    41
1040
14.0
1070
    42
1040
12.0
1070
    43
1040
28.0
1070
    44
1040
6.0
1070
    73
1070
     0
1070
    74
1070
     0
1070
    77
1070
     3
1070
   140
1040
12.0
1070
   141
1040
150.0
1070
   143
1040
0.03937
1070
   147
1040
4.0
1070
   172
1070
     1
1070
   173
1070
     1
1070
   176
1070
   256
1070
   177
1070
   256
1070
   178
1070
   256
1070
   271
1070
     0
1070
   272
1070
     2
1070
     6
1000
OPEN
1070
     7
1000
OPEN
1002
}
  0
LINE
  5
18BF
330
19
100
AcDbEntity
  8
SEIHIN
  6
CONTINUOUS
 62
     3
100
AcDbLine
 10
869.1884655599901
 20
385.81253284344
 30
0.0
 11
869.1884655599901
 21
392.9732240906357
 31
0.0
  0
LINE
  5
18C0
330
19
100
AcDbEntity
  8
SEIHIN
  6
CONTINUOUS
 62
     3
100
AcDbLine
 10
867.6960616834902
 20
385.16573122374
 30
0.0
 11
868.2701299828901
 21
391.72736191124
 31
0.0
  0
LINE
  5
18C1
330
19
100
AcDbEntity
  8
SEIHIN
  6
CONTINUOUS
 62
     3
100
AcDbLine
 10
870.3884655599901
 20
386.34240303764
 30
0.0
 11
870.3884655599901
 21
391.21498455284
 31
0.0
  0
DIMENSION
  5
18C2
330
19
100
AcDbEntity
  8
SUNPOU
  6
CONTINUOUS
100
AcDbDimension
  2
*D5
 10
1035.47123061969
 20
433.3427195048768
 30
0.0
 11
951.5836461515959
 21
443.3427195048769
 31
0.0
 70
    32
  3
STANDARD
100
AcDbAlignedDimension
 13
867.6960616835019
 23
385.1657312238748
 33
0.0
 14
1035.47123061969
 24
343.01360263874
 34
0.0
100
AcDbRotatedDimension
1001
ACAD
1000
DSTYLE
1002
{
1070
   372
1070
    -1
1070
   371
1070
    -1
1070
    41
1040
14.0
1070
    42
1040
12.0
1070
    43
1040
28.0
1070
    44
1040
6.0
1070
    73
1070
     0
1070
    74
1070
     0
1070
    77
1070
     3
1070
   140
1040
12.0
1070
   141
1040
150.0
1070
   143
1040
0.03937
1070
   147
1040
4.0
1070
   172
1070
     1
1070
   173
1070
     1
1070
   176
1070
   256
1070
   177
1070
   256
1070
   178
1070
   256
1070
   271
1070
     0
1070
   272
1070
     2
1070
     6
1000
OPEN
1070
     7
1000
OPEN
1002
}
  0
ARC
  5
18C3
330
19
100
AcDbEntity
  8
SEIHIN
  6
CONTINUOUS
 62
     3
100
AcDbCircle
 10
981.3884655599903
 20
1260.05038383014
 30
0.0
 40
1002.7
100
AcDbArc
 50
267.4053481949988
 51
272.4608138159004
  0
ARC
  5
18C4
330
19
100
AcDbEntity
  8
SEIHIN
  6
CONTINUOUS
 62
     3
100
AcDbCircle
 10
981.3884655599903
 20
1260.05038383014
 30
0.0
 40
1001.2
100
AcDbArc
 50
267.4053482951986
 51
272.4608137752984
  0
ARC
  5
18C5
330
19
100
AcDbEntity
  8
SEIHIN
  6
CONTINUOUS
 62
     3
100
AcDbCircle
 10
981.3884655599903
 20
1260.05038383014
 30
0.0
 40
1000.0
100
AcDbArc
 50
267.4053483609999
 51
272.4608137752527
  0
ARC
  5
18C6
330
19
100
AcDbEntity
  8
SEIHIN
  6
CONTINUOUS
 62
     3
100
AcDbCircle
 10
981.3884655599903
 20
1260.05038383014
 30
0.0
 40
996.4999999999999
100
AcDbArc
 50
267.5253609887986
 51
269.2812684120011
  0
ARC
  5
18C7
330
19
100
AcDbEntity
  8
SEIHIN
  6
CONTINUOUS
 62
     3
100
AcDbCircle
 10
981.3884655599903
 20
1260.05038383014
 30
0.0
 40
995.5
100
AcDbArc
 50
267.5253609887986
 51
269.4244425600995
  0
ARC
  5
18C8
330
19
100
AcDbEntity
  8
SEIHIN
  6
CONTINUOUS
 62
     3
100
AcDbCircle
 10
981.3884655599903
 20
1260.05038383014
 30
0.0
 40
998.2499999999999
100
AcDbArc
 50
267.5232126372986
 51
269.4260281708995
  0
ARC
  5
18C9
330
19
100
AcDbEntity
  8
SEIHIN
  6
CONTINUOUS
 62
     3
100
AcDbCircle
 10
981.3884655600903
 20
903.1097903349401
 30
0.0
 40
619.968887996
100
AcDbArc
 50
265.4793576892005
 51
270.0
  0
ARC
  5
18CA
330
19
100
AcDbEntity
  8
SEIHIN
  6
CONTINUOUS
 62
     3
100
AcDbCircle
 10
1146.24157077789
 20
422.24715357014
 30
0.0
 40
271.1999999999999
100
AcDbArc
 50
188.1530477219986
 51
210.8909784477991
  0
ARC
  5
18CB
330
19
100
AcDbEntity
  8
SEIHIN
  6
CONTINUOUS
 62
     3
100
AcDbCircle
 10
1146.24157077789
 20
422.24715357014
 30
0.0
 40
272.6999999999999
100
AcDbArc
 50
188.2950017452007
 51
210.8909786807989
  0
ARC
  5
18CC
330
19
100
AcDbEntity
  8
SEIHIN
  6
CONTINUOUS
 62
     3
100
AcDbCircle
 10
1146.24157077789
 20
422.24715357014
 30
0.0
 40
266.5
100
AcDbArc
 50
201.8526281082016
 51
209.1587316997013
  0
ARC
  5
18CD
330
19
100
AcDbEntity
  8
SEIHIN
  6
CONTINUOUS
 62
     3
100
AcDbCircle
 10
1146.24157077789
 20
422.24715357014
 30
0.0
 40
268.25
100
AcDbArc
 50
202.0192296206994
 51
209.4186780300993
  0
ARC
  5
18CE
330
19
100
AcDbEntity
  8
SEIHIN
  6
CONTINUOUS
 62
     3
100
AcDbCircle
 10
1146.24157077789
 20
422.24715357014
 30
0.0
 40
265.5
100
AcDbArc
 50
202.0844548815006
 51
209.0088523754016
  0
ARC
  5
18CF
330
19
100
AcDbEntity
  8
SEIHIN
  6
CONTINUOUS
 62
     3
100
AcDbCircle
 10
1146.24157077789
 20
422.24715357014
 30
0.0
 40
270.0
100
AcDbArc
 50
188.1530476314012
 51
210.8909785171992
  0
LINE
  5
18D0
330
19
100
AcDbEntity
  8
SEIHIN
  6
CONTINUOUS
 62
     3
100
AcDbLine
 10
916.6101651574901
 20
293.88820609714
 30
0.0
 11
931.5053234464901
 21
289.12087331114
 31
0.0
  0
LINE
  5
18D1
330
19
100
AcDbEntity
  8
SEIHIN
  6
CONTINUOUS
 62
     3
100
AcDbLine
 10
927.9994430708899
 20
284.6088554021399
 30
0.0
 11
933.3450341106901
 21
263.3412094547399
 31
0.0
  0
LINE
  5
18D2
330
19
100
AcDbEntity
  8
SEIHIN
  6
CONTINUOUS
 62
     3
100
AcDbLine
 10
930.6710101405901
 20
288.33793254844
 30
0.0
 11
936.2311033283901
 21
266.21688129834
 31
0.0
  0
LINE
  5
18D3
330
19
100
AcDbEntity
  8
SEIHIN
  6
CONTINUOUS
 62
     3
100
AcDbLine
 10
929.2109618550901
 20
286.9677862135399
 30
0.0
 11
934.54298126729
 21
265.75413552474
 31
0.0
  0
ARC
  5
18D4
330
19
100
AcDbEntity
  8
SEIHIN
  6
CONTINUOUS
 62
     3
100
AcDbCircle
 10
936.2545361129901
 20
264.07250836664
 30
0.0
 40
5.7
100
AcDbArc
 50
194.1089449996001
 51
267.4053306564002
  0
LINE
  5
18D5
330
19
100
AcDbEntity
  8
SEIHIN
  6
CONTINUOUS
 62
     3
100
AcDbLine
 10
927.1019883980899
 20
283.25666720364
 30
0.0
 11
932.1812333329901
 21
263.0486897975399
 31
0.0
  0
LINE
  5
18D6
330
19
100
AcDbEntity
  8
SEIHIN
  6
CONTINUOUS
 62
     3
100
AcDbLine
 10
925.9801700220901
 20
281.5664320952399
 30
0.0
 11
930.7264824818901
 21
262.68303974454
 31
0.0
  0
LINE
  5
18D7
330
19
100
AcDbEntity
  8
SEIHIN
  6
CONTINUOUS
 62
     3
100
AcDbLine
 10
916.6101651574901
 20
293.88820609714
 30
0.0
 11
914.0499284719901
 21
293.4943235301399
 31
0.0
  0
LINE
  5
18D8
330
19
100
AcDbEntity
  8
SEIHIN
  6
CONTINUOUS
 62
     3
100
AcDbLine
 10
916.52954712209
 20
292.86403821184
 30
0.0
 11
913.5142522185901
 21
292.4001466882399
 31
0.0
  0
ARC
  5
18D9
330
19
100
AcDbEntity
  8
SEIHIN
  6
CONTINUOUS
 62
     3
100
AcDbCircle
 10
915.40036264809
 20
284.14090233884
 30
0.0
 40
3.7
100
AcDbArc
 50
210.8909956153989
 51
278.7461724807989
  0
ARC
  5
18DA
330
19
100
AcDbEntity
  8
SEIHIN
  6
CONTINUOUS
 62
     3
100
AcDbCircle
 10
915.40036264809
 20
284.14090233884
 30
0.0
 40
2.2
100
AcDbArc
 50
210.8909784477991
 51
278.7461622626
  0
LINE
  5
18DB
330
19
100
AcDbEntity
  8
SEIHIN
  6
CONTINUOUS
 62
     3
100
AcDbLine
 10
916.3884655599902
 20
291.07174441264
 30
0.0
 11
912.5814067443901
 21
290.48604305634
 31
0.0
  0
LINE
  5
18DC
330
19
100
AcDbEntity
  8
SEIHIN
  6
CONTINUOUS
 62
     3
100
AcDbLine
 10
912.5814067443901
 20
290.48604305634
 30
0.0
 11
913.5142522185901
 21
292.4001466882399
 31
0.0
  0
LINE
  5
18DD
330
19
100
AcDbEntity
  8
SEIHIN
  6
CONTINUOUS
 62
     3
100
AcDbLine
 10
916.3884655599902
 20
291.07174441264
 30
0.0
 11
929.2109618550901
 21
286.9677862135399
 31
0.0
  0
LINE
  5
18DE
330
19
100
AcDbEntity
  8
SEIHIN
  6
CONTINUOUS
 62
     3
100
AcDbLine
 10
916.3884655599902
 20
291.07174441264
 30
0.0
 11
916.52954712209
 21
292.86403821184
 31
0.0
  0
LINE
  5
18DF
330
19
100
AcDbEntity
  8
SEIHIN
  6
CONTINUOUS
 62
     3
100
AcDbLine
 10
916.52954712209
 20
292.86403821184
 30
0.0
 11
930.6710101405901
 21
288.33793254844
 31
0.0
  0
LINE
  5
18E0
330
19
100
AcDbEntity
  8
SEIHIN
  6
CONTINUOUS
 62
     3
100
AcDbLine
 10
929.2109618550901
 20
286.9677862135399
 30
0.0
 11
930.6710101405901
 21
288.33793254844
 31
0.0
  0
LINE
  5
18E1
330
19
100
AcDbEntity
  8
SEIHIN
  6
CONTINUOUS
 62
     3
100
AcDbLine
 10
927.4384975875902
 20
284.98115798814
 30
0.0
 11
915.5524196677902
 21
283.15253061594
 31
0.0
  0
LINE
  5
18E2
330
19
100
AcDbEntity
  8
SEIHIN
  6
CONTINUOUS
 62
     3
100
AcDbLine
 10
925.4192244323901
 20
281.93873478104
 30
0.0
 11
915.96297488199
 21
280.48392715794
 31
0.0
  0
LINE
  5
18E3
330
19
100
AcDbEntity
  8
SEIHIN
  6
CONTINUOUS
 62
     3
100
AcDbLine
 10
926.5410428083901
 20
283.6289698894399
 30
0.0
 11
915.7348884533901
 21
281.96648460404
 31
0.0
  0
ARC
  5
18E4
330
19
100
AcDbEntity
  8
SEIHIN
  6
CONTINUOUS
 62
     3
100
AcDbCircle
 10
915.40036264809
 20
284.14090233884
 30
0.0
 40
1.0
100
AcDbArc
 50
210.8909784477991
 51
210.8909928253003
  0
ARC
  5
18E5
330
19
100
AcDbEntity
  8
SEIHIN
  6
CONTINUOUS
 62
     3
100
AcDbCircle
 10
915.40036264809
 20
284.14090233884
 30
0.0
 40
1.0
100
AcDbArc
 50
210.8909784477991
 51
278.7461622626
  0
ARC
  5
18E6
330
19
100
AcDbEntity
  8
SEIHIN
  6
CONTINUOUS
 62
     3
100
AcDbCircle
 10
927.5145261013902
 20
284.4869721273399
 30
0.0
 40
0.5
100
AcDbArc
 50
14.10893915379872
 51
98.74616226260002
  0
ARC
  5
18E7
330
19
100
AcDbEntity
  8
SEIHIN
  6
CONTINUOUS
 62
     3
100
AcDbCircle
 10
926.6170714004902
 20
283.13478404064
 30
0.0
 40
0.5
100
AcDbArc
 50
14.10893915379872
 51
98.74616226260002
  0
ARC
  5
18E8
330
19
100
AcDbEntity
  8
SEIHIN
  6
CONTINUOUS
 62
     3
100
AcDbCircle
 10
925.4952530244903
 20
281.44454893224
 30
0.0
 40
0.5
100
AcDbArc
 50
14.10893915379872
 51
98.74616226260002
  0
LINE
  5
18E9
330
19
100
AcDbEntity
  8
SEIHIN
  6
CONTINUOUS
 62
     3
100
AcDbLine
 10
931.5053234464901
 20
289.12087331114
 30
0.0
 11
937.2009373235901
 21
266.46064762434
 31
0.0
  0
ARC
  5
18EA
330
19
100
AcDbEntity
  8
SEIHIN
  6
CONTINUOUS
 62
     3
100
AcDbCircle
 10
938.46172151739
 20
266.7775438481399
 30
0.0
 40
2.299999999999999
100
AcDbArc
 50
194.1089391537986
 51
267.5253609887986
  0
ARC
  5
18EB
330
19
100
AcDbEntity
  8
SEIHIN
  6
CONTINUOUS
 62
     3
100
AcDbCircle
 10
938.46172151739
 20
266.7775438481399
 30
0.0
 40
1.3
100
AcDbArc
 50
194.1089391537986
 51
267.5253609887986
  0
ARC
  5
18EC
330
19
100
AcDbEntity
  8
SEIHIN
  6
CONTINUOUS
 62
     3
100
AcDbCircle
 10
936.2545361129901
 20
264.07250836664
 30
0.0
 40
4.2
100
AcDbArc
 50
194.1089391537986
 51
267.4053482951986
  0
ARC
  5
18ED
330
19
100
AcDbEntity
  8
SEIHIN
  6
CONTINUOUS
 62
     3
100
AcDbCircle
 10
981.3884655599903
 20
1260.05038383014
 30
0.0
 40
1000.0
100
AcDbArc
 50
267.4053482364004
 51
267.4053483609999
  0
ARC
  5
18EE
330
19
100
AcDbEntity
  8
SEIHIN
  6
CONTINUOUS
 62
     3
100
AcDbCircle
 10
936.2545361129901
 20
264.07250836664
 30
0.0
 40
3.0
100
AcDbArc
 50
194.1089391537986
 51
267.4053482951986
  0
ARC
  5
18EF
330
19
100
AcDbEntity
  8
SEIHIN
  6
CONTINUOUS
 62
     3
100
AcDbCircle
 10
938.4223172482901
 20
266.7292008287399
 30
0.0
 40
4.0
100
AcDbArc
 50
194.1089391537986
 51
267.5232126372986
  0
ARC
  5
18F0
330
19
100
AcDbEntity
  8
SEIHIN
  6
CONTINUOUS
 62
     3
100
AcDbCircle
 10
898.4852997499901
 20
322.05038383014
 30
0.0
 40
1.0
100
AcDbArc
 50
90.0
 51
202.0192296206994
  0
LINE
  5
18F1
330
19
100
AcDbEntity
  8
SEIHIN
  6
CONTINUOUS
 62
     3
100
AcDbLine
 10
895.80516285639
 20
323.0503838301399
 30
0.0
 11
899.2944968254901
 21
323.0503838301399
 31
0.0
  0
ARC
  5
18F2
330
19
100
AcDbEntity
  8
SEIHIN
  6
CONTINUOUS
 62
     3
100
AcDbCircle
 10
895.80516285639
 20
324.05038383014
 30
0.0
 40
1.0
100
AcDbArc
 50
201.4102754042988
 51
270.0
  0
LINE
  5
18F3
330
19
100
AcDbEntity
  8
SEIHIN
  6
CONTINUOUS
 62
     3
100
AcDbLine
 10
876.3548067492902
 20
384.89413803744
 30
0.0
 11
871.0311163803901
 21
384.31337181544
 31
0.0
  0
LINE
  5
18F4
330
19
100
AcDbEntity
  8
SEIHIN
  6
CONTINUOUS
 62
     3
100
AcDbLine
 10
876.2246696153901
 20
386.08706063614
 30
0.0
 11
871.2752237109901
 21
385.54712108294
 31
0.0
  0
LINE
  5
18F5
330
19
100
AcDbEntity
  8
SEIHIN
  6
CONTINUOUS
 62
     3
100
AcDbLine
 10
875.8454620543901
 20
383.32967394054
 30
0.0
 11
870.5897961089901
 21
382.75632856474
 31
0.0
  0
LINE
  5
18F6
330
19
100
AcDbEntity
  8
SEIHIN
  6
CONTINUOUS
 62
     3
100
AcDbLine
 10
869.3814952532902
 20
385.4178567347399
 30
0.0
 11
870.6699223185902
 21
384.41574679504
 31
0.0
  0
LINE
  5
18F7
330
19
100
AcDbEntity
  8
SEIHIN
  6
CONTINUOUS
 62
     3
100
AcDbLine
 10
867.8814953848901
 20
384.68423092384
 30
0.0
 11
870.2286018700901
 21
382.85870365764
 31
0.0
  0
ARC
  5
18F8
330
19
100
AcDbEntity
  8
SEIHIN
  6
CONTINUOUS
 62
     3
100
AcDbCircle
 10
869.6884655599902
 20
385.81253284344
 30
0.0
 40
0.5
100
AcDbArc
 50
180.0
 51
232.1250163488989
  0
ARC
  5
18F9
330
19
100
AcDbEntity
  8
SEIHIN
  6
CONTINUOUS
 62
     3
100
AcDbCircle
 10
868.1884655599901
 20
385.0789071349399
 30
0.0
 40
0.5
100
AcDbArc
 50
170.0000000000013
 51
232.1250354542017
  0
ARC
  5
18FA
330
19
100
AcDbEntity
  8
SEIHIN
  6
CONTINUOUS
 62
     3
100
AcDbCircle
 10
870.97689262539
 20
384.81042290374
 30
0.0
 40
0.5
100
AcDbArc
 50
232.1250163488989
 51
276.2258290644007
  0
ARC
  5
18FB
330
19
100
AcDbEntity
  8
SEIHIN
  6
CONTINUOUS
 62
     3
100
AcDbCircle
 10
871.18846555999
 20
386.34240280864
 30
0.0
 40
0.8
100
AcDbArc
 50
179.9999836026991
 51
276.2258393548993
  0
ARC
  5
18FC
330
19
100
AcDbEntity
  8
SEIHIN
  6
CONTINUOUS
 62
     3
100
AcDbCircle
 10
870.5355723263901
 20
383.2533796500399
 30
0.0
 40
0.5
100
AcDbArc
 50
232.1249946450985
 51
276.225832234901
  0
ARC
  5
18FD
330
19
100
AcDbEntity
  8
SEIHIN
  6
CONTINUOUS
 62
     3
100
AcDbCircle
 10
876.49578851249
 20
383.6018052079399
 30
0.0
 40
2.5
100
AcDbArc
 50
8.153047721998662
 51
96.22582906440074
  0
ARC
  5
18FE
330
19
100
AcDbEntity
  8
SEIHIN
  6
CONTINUOUS
 62
     3
100
AcDbCircle
 10
876.49578851249
 20
383.6018052079399
 30
0.0
 40
1.3
100
AcDbArc
 50
8.153047721998662
 51
96.22582906440074
  0
LINE
  5
18FF
330
19
100
AcDbEntity
  8
SEIHIN
  6
CONTINUOUS
 62
     3
100
AcDbLine
 10
876.2246697786903
 20
386.08706065394
 30
0.0
 11
876.2246696153901
 21
386.08706063614
 31
0.0
  0
ARC
  5
1900
330
19
100
AcDbEntity
  8
SEIHIN
  6
CONTINUOUS
 62
     3
100
AcDbCircle
 10
875.8996858094901
 20
382.8326228522399
 30
0.0
 40
0.5
100
AcDbArc
 50
8.295001745200751
 51
96.22582906440074
  0
ARC
  5
1901
330
19
100
AcDbEntity
  8
SEIHIN
  6
CONTINUOUS
 62
     3
100
AcDbCircle
 10
899.71978834229
 20
319.0503838301399
 30
0.0
 40
1.0
100
AcDbArc
 50
90.0
 51
202.7147297615992
  0
LINE
  5
1902
330
19
100
AcDbEntity
  8
SEIHIN
  6
CONTINUOUS
 62
     3
100
AcDbLine
 10
899.71978834229
 20
320.05038383014
 30
0.0
 11
900.5330509515902
 21
320.05038383014
 31
0.0
  0
ARC
  5
1903
330
19
100
AcDbEntity
  8
SEIHIN
  6
CONTINUOUS
 62
     3
100
AcDbCircle
 10
900.5330509515902
 20
319.0503838301399
 30
0.0
 40
1.0
100
AcDbArc
 50
22.78224545219795
 51
90.0
  0
ARC
  5
1904
330
19
100
AcDbEntity
  8
SEIHIN
  6
CONTINUOUS
 62
     3
100
AcDbCircle
 10
899.2944968254901
 20
322.05038383014
 30
0.0
 40
1.0
100
AcDbArc
 50
22.08445488150059
 51
90.0
  0
LINE
  5
1905
330
19
100
AcDbEntity
  8
SEIHIN
100
AcDbLine
 10
1005.417194171008
 20
279.1074551456228
 30
0.0
 11
1009.04304791789
 21
355.25038383014
 31
0.0
  0
LINE
  5
1906
330
19
100
AcDbEntity
  8
SEIHIN
  6
CONTINUOUS
 62
     3
100
AcDbLine
 10
1025.72948952269
 20
268.4552194510399
 30
0.0
 11
1028.31782012949
 21
323.0503838301399
 31
0.0
  0
LINE
  5
1907
330
19
100
AcDbEntity
  8
SEIHIN
  6
CONTINUOUS
 62
     3
100
AcDbLine
 10
1024.73061146309
 20
268.50257578164
 30
0.0
 11
1027.27153253619
 21
322.09773989854
 31
0.0
  0
LINE
  5
1908
330
19
100
AcDbEntity
  8
SEIHIN
  6
CONTINUOUS
 62
     3
100
AcDbLine
 10
1027.47535751659
 20
268.32660378714
 30
0.0
 11
1030.02013106079
 21
322.0030273414399
 31
0.0
  0
LINE
  5
1909
330
19
100
AcDbEntity
  8
SEIHIN
  6
CONTINUOUS
 62
     3
100
AcDbLine
 10
1029.10427487939
 20
265.7311707414399
 30
0.0
 11
1032.64019224859
 21
340.3136021710399
 31
0.0
  0
LINE
  5
190A
330
19
100
AcDbEntity
  8
SEIHIN
  6
CONTINUOUS
 62
     3
100
AcDbLine
 10
1030.30292855409
 20
265.6743432113399
 30
0.0
 11
1033.96954579699
 21
343.01360217704
 31
0.0
  0
LINE
  5
190B
330
19
100
AcDbEntity
  8
SEIHIN
  6
CONTINUOUS
 62
     3
100
AcDbLine
 10
1031.80124561939
 20
265.60330820664
 30
0.0
 11
1035.47123061969
 21
343.01360263874
 31
0.0
  0
DIMENSION
  5
190C
330
19
100
AcDbEntity
  8
SUNPOU
  6
CONTINUOUS
100
AcDbDimension
  2
*D6
 10
1065.467281714833
 20
257.3503838301399
 30
0.0
 11
1055.467281714833
 21
302.8003838301401
 31
0.0
 70
    32
  3
STANDARD
100
AcDbAlignedDimension
 13
1030.47684029979
 23
348.2503838301399
 33
0.0
 14
1061.048756708686
 24
257.3503838301399
 34
0.0
 50
90.0
100
AcDbRotatedDimension
1001
ACAD
1000
DSTYLE
1002
{
1070
   372
1070
    -1
1070
   371
1070
    -1
1070
    41
1040
14.0
1070
    42
1040
12.0
1070
    43
1040
28.0
1070
    44
1040
6.0
1070
    73
1070
     0
1070
    74
1070
     0
1070
    77
1070
     3
1070
   140
1040
12.0
1070
   141
1040
150.0
1070
   143
1040
0.03937
1070
   147
1040
4.0
1070
   172
1070
     1
1070
   173
1070
     1
1070
   176
1070
   256
1070
   177
1070
   256
1070
   178
1070
   256
1070
   271
1070
     0
1070
   272
1070
     2
1070
     6
1000
OPEN
1070
     7
1000
OPEN
1002
}
  0
ARC
  5
190D
330
19
100
AcDbEntity
  8
SEIHIN
  6
CONTINUOUS
 62
     3
100
AcDbCircle
 10
1024.10988458459
 20
265.96795246114
 30
0.0
 40
5.0
100
AcDbArc
 50
272.4608137752984
 51
357.2856605872992
  0
ARC
  5
190E
330
19
100
AcDbEntity
  8
SEIHIN
  6
CONTINUOUS
 62
     3
100
AcDbCircle
 10
1024.10988458459
 20
265.96795246114
 30
0.0
 40
6.2
100
AcDbArc
 50
272.4608137752984
 51
357.2856669400983
  0
ARC
  5
190F
330
19
100
AcDbEntity
  8
SEIHIN
  6
CONTINUOUS
 62
     3
100
AcDbCircle
 10
1024.10988458459
 20
265.96795246114
 30
0.0
 40
7.7
100
AcDbArc
 50
272.460819062599
 51
357.2856631500004
  0
LINE
  5
1910
330
19
100
AcDbEntity
  8
CENTER_L
  6
CENTER
 62
     1
 48
5.0
100
AcDbLine
 10
981.3884655599903
 20
249.37493551784
 30
0.0
 11
981.3884655599903
 21
278.9890552683083
 31
0.0
  0
ARC
  5
1911
330
19
100
AcDbEntity
  8
SEIHIN
  6
CONTINUOUS
 62
     3
100
AcDbCircle
 10
981.3884655599903
 20
1260.05038383014
 30
0.0
 40
996.4999999999999
100
AcDbArc
 50
270.7187315879988
 51
272.3131238570008
  0
ARC
  5
1912
330
19
100
AcDbEntity
  8
SEIHIN
  6
CONTINUOUS
 62
     3
100
AcDbCircle
 10
981.3884655599903
 20
1260.05038383014
 30
0.0
 40
995.5
100
AcDbArc
 50
270.5755574399004
 51
272.3131238570008
  0
LINE
  5
1913
330
19
100
AcDbEntity
  8
SEIHIN
  6
CONTINUOUS
 62
     3
100
AcDbLine
 10
981.3884648055902
 20
283.14090233884
 30
0.0
 11
1005.609263083569
 21
283.1409023094138
 31
0.0
  0
ARC
  5
1914
330
19
100
AcDbEntity
  8
SEIHIN
  6
CONTINUOUS
 62
     3
100
AcDbCircle
 10
981.3884655599903
 20
1260.05038383014
 30
0.0
 40
998.2499999999999
100
AcDbArc
 50
270.5739718291004
 51
272.3157681887997
  0
ARC
  5
1915
330
19
100
AcDbEntity
  8
SEIHIN
  6
CONTINUOUS
 62
     3
100
AcDbCircle
 10
981.3884655599903
 20
1260.05038383014
 30
0.0
 40
998.2499999999999
100
AcDbArc
 50
269.4829089839001
 51
270.5170910160997
  0
LINE
  5
1916
330
19
100
AcDbEntity
  8
SEIHIN
  6
CONTINUOUS
 62
     3
100
AcDbLine
 10
968.8884655599903
 20
263.62878631224
 30
0.0
 11
968.8884655599903
 21
264.62886507534
 31
0.0
  0
ARC
  5
1917
330
19
100
AcDbEntity
  8
SEIHIN
  6
CONTINUOUS
 62
     3
100
AcDbCircle
 10
972.3884655599901
 20
262.84099633924
 30
0.0
 40
1.0
100
AcDbArc
 50
180.0
 51
269.4829089839001
  0
LINE
  5
1918
330
19
100
AcDbEntity
  8
SEIHIN
  6
CONTINUOUS
 62
     3
100
AcDbLine
 10
968.8884655599903
 20
263.62878631224
 30
0.0
 11
971.3884655599901
 21
261.85047274014
 31
0.0
  0
LINE
  5
1919
330
19
100
AcDbEntity
  8
SEIHIN
  6
CONTINUOUS
 62
     3
100
AcDbLine
 10
971.3884655599901
 20
261.85047274014
 30
0.0
 11
971.3884655599901
 21
264.60061111424
 31
0.0
  0
LINE
  5
191A
330
19
100
AcDbEntity
  8
SEIHIN
  6
CONTINUOUS
 62
     3
100
AcDbLine
 10
993.8884655599903
 20
263.62878631224
 30
0.0
 11
993.8884655599903
 21
264.62886507534
 31
0.0
  0
ARC
  5
191B
330
19
100
AcDbEntity
  8
SEIHIN
  6
CONTINUOUS
 62
     3
100
AcDbCircle
 10
990.3884655599902
 20
262.84099633924
 30
0.0
 40
1.0
100
AcDbArc
 50
270.5170910160997
 51
0.0
  0
LINE
  5
191C
330
19
100
AcDbEntity
  8
SEIHIN
  6
CONTINUOUS
 62
     3
100
AcDbLine
 10
993.8884655599903
 20
263.62878631224
 30
0.0
 11
991.3884655599902
 21
261.85047274014
 31
0.0
  0
LINE
  5
191D
330
19
100
AcDbEntity
  8
SEIHIN
  6
CONTINUOUS
 62
     3
100
AcDbLine
 10
991.3884655599902
 20
261.85047274014
 30
0.0
 11
991.3884655599902
 21
264.60061111424
 31
0.0
  0
ARC
  5
191E
330
19
100
AcDbEntity
  8
SEIHIN
100
AcDbCircle
 10
985.4398314165196
 20
280.0587581339318
 30
0.0
 40
20.0
100
AcDbArc
 50
309.7998611972939
 51
357.2736890060939
  0
ARC
  5
191F
330
19
100
AcDbEntity
  8
SEIHIN
  6
CONTINUOUS
 62
     3
100
AcDbCircle
 10
1021.43431386639
 20
268.65885167274
 30
0.0
 40
4.299999999999999
100
AcDbArc
 50
272.3131238570008
 51
357.2856669400983
  0
ARC
  5
1920
330
19
100
AcDbEntity
  8
SEIHIN
  6
CONTINUOUS
 62
     3
100
AcDbCircle
 10
1021.43431386639
 20
268.65885167274
 30
0.0
 40
3.299999999999999
100
AcDbArc
 50
272.3131238570008
 51
357.2856669400983
  0
ARC
  5
1921
330
19
100
AcDbEntity
  8
SEIHIN
  6
CONTINUOUS
 62
     3
100
AcDbCircle
 10
1021.482089158989
 20
268.61074177084
 30
0.0
 40
6.0
100
AcDbArc
 50
272.3157681887997
 51
357.2856669400983
  0
LINE
  5
1922
330
19
100
AcDbEntity
  8
SEIHIN
100
AcDbLine
 10
1021.307748407891
 20
339.2503838301399
 30
0.0
 11
1032.589785576043
 21
339.25038383014
 31
0.0
  0
LINE
  5
1923
330
19
100
AcDbEntity
  8
SEIHIN
100
AcDbLine
 10
1009.04304791789
 20
355.25038383014
 30
0.0
 11
1086.588474077889
 21
355.25038383014
 31
0.0
  0
ARC
  5
1924
330
19
100
AcDbEntity
  8
SEIHIN
  6
CONTINUOUS
 62
     3
100
AcDbCircle
 10
1028.97515549899
 20
343.2503838301399
 30
0.0
 40
5.0
100
AcDbArc
 50
357.2856669400983
 51
90.0
  0
ARC
  5
1925
330
19
100
AcDbEntity
  8
SEIHIN
  6
CONTINUOUS
 62
     3
100
AcDbCircle
 10
1027.69321147219
 20
341.55038383014
 30
0.0
 40
5.0
100
AcDbArc
 50
357.2856669400983
 51
90.0
  0
ARC
  5
1926
330
19
100
AcDbEntity
  8
SEIHIN
  6
CONTINUOUS
 62
     3
100
AcDbCircle
 10
1027.64580195089
 20
340.55038383014
 30
0.0
 40
5.0
100
AcDbArc
 50
357.2856669400983
 51
90.0
  0
LINE
  5
1927
330
19
100
AcDbEntity
  8
SEIHIN
  6
CONTINUOUS
 62
     3
100
AcDbLine
 10
1025.38846555999
 20
348.2503838301399
 30
0.0
 11
1030.47684094799
 21
348.2503838301399
 31
0.0
  0
ARC
  5
1928
330
19
100
AcDbEntity
  8
SEIHIN
  6
CONTINUOUS
 62
     3
100
AcDbCircle
 10
1029.02125300869
 20
322.05038383014
 30
0.0
 40
1.0
100
AcDbArc
 50
357.2856578747009
 51
90.0
  0
ARC
  5
1929
330
19
100
AcDbEntity
  8
SEIHIN
  6
CONTINUOUS
 62
     3
100
AcDbCircle
 10
1028.87902444489
 20
319.0503838301399
 30
0.0
 40
1.0
100
AcDbArc
 50
357.2856669400983
 51
90.0
  0
LINE
  5
192A
330
19
100
AcDbEntity
  8
SEIHIN
  6
CONTINUOUS
 62
     3
100
AcDbLine
 10
1028.27041060829
 20
323.0503838301399
 30
0.0
 11
1030.86803746259
 21
323.0503838301399
 31
0.0
  0
LINE
  5
192B
330
19
100
AcDbEntity
  8
SEIHIN
100
AcDbLine
 10
1015.81332275789
 20
352.3139093301399
 30
0.0
 11
1020.22919598789
 21
341.5558569301399
 31
0.0
  0
LINE
  5
192C
330
19
100
AcDbEntity
  8
SEIHIN
100
AcDbLine
 10
1013.06010076789
 20
352.44656313014
 30
0.0
 11
1017.68617897789
 21
341.55612013014
 31
0.0
  0
LINE
  5
192D
330
19
100
AcDbEntity
  8
SEIHIN
  6
CONTINUOUS
 62
     3
100
AcDbLine
 10
1024.38846555999
 20
346.55038383014
 30
0.0
 11
1024.38846555999
 21
343.2503838301399
 31
0.0
  0
ARC
  5
192E
330
19
100
AcDbEntity
  8
SEIHIN
  6
CONTINUOUS
 62
     3
100
AcDbCircle
 10
1025.38846555999
 20
345.65038383014
 30
0.0
 40
2.6
100
AcDbArc
 50
90.0
 51
270.0
  0
LINE
  5
192F
330
19
100
AcDbEntity
  8
SEIHIN
  6
CONTINUOUS
 62
     3
100
AcDbLine
 10
1025.38846555999
 20
345.55038383014
 30
0.0
 11
1025.38846555999
 21
343.05038383014
 31
0.0
  0
ARC
  5
1930
330
19
100
AcDbEntity
  8
SEIHIN
  6
CONTINUOUS
 62
     3
100
AcDbCircle
 10
1028.12818204439
 20
319.0503838301399
 30
0.0
 40
1.0
100
AcDbArc
 50
90.0
 51
177.2856669400983
  0
LINE
  5
1931
330
19
100
AcDbEntity
  8
SEIHIN
  6
CONTINUOUS
 62
     3
100
AcDbLine
 10
1028.12818204439
 20
320.05038383014
 30
0.0
 11
1028.87902444489
 21
320.05038383014
 31
0.0
  0
ARC
  5
1932
330
19
100
AcDbEntity
  8
SEIHIN
100
AcDbCircle
 10
1021.308162457889
 20
343.25354043014
 30
0.0
 40
4.000000010980143
100
AcDbArc
 50
205.109848587041
 51
269.9940691706448
  0
ARC
  5
1933
330
19
100
AcDbEntity
  8
SEIHIN
100
AcDbCircle
 10
1023.851179457889
 20
343.2532772301399
 30
0.0
 40
4.000000006452146
100
AcDbArc
 50
205.1098486478239
 51
269.9940693138827
  0
ARC
  5
1934
330
19
100
AcDbEntity
  8
SEIHIN
  6
CONTINUOUS
 62
     3
100
AcDbCircle
 10
1028.27041060829
 20
322.05038383014
 30
0.0
 40
1.0
100
AcDbArc
 50
90.0
 51
177.2856819810009
  0
ARC
  5
1935
330
19
100
AcDbEntity
  8
SEIHIN
100
AcDbCircle
 10
1011.82707657789
 20
351.0776105301399
 30
0.0
 40
4.173558814137463
100
AcDbArc
 50
17.23081185867229
 51
91.11163709549009
  0
ARC
  5
1936
330
19
100
AcDbEntity
  8
SEIHIN
100
AcDbCircle
 10
1009.203213757889
 20
351.25038383014
 30
0.0
 40
4.03812114208757
100
AcDbArc
 50
17.23081316081794
 51
51.68864967655194
  0
ARC
  5
1937
330
19
100
AcDbEntity
  8
SEIHIN
100
AcDbCircle
 10
1009.130132607889
 20
351.20603643014
 30
0.0
 40
4.173558814234503
100
AcDbArc
 50
17.23081185867229
 51
91.11163723274815
  0
LINE
  5
1938
330
19
100
AcDbEntity
  8
SEIHIN
  6
CONTINUOUS
 62
     3
100
AcDbLine
 10
1024.38846555999
 20
346.55038383014
 30
0.0
 11
1027.69321147219
 21
346.55038383014
 31
0.0
  0
LINE
  5
1939
330
19
100
AcDbEntity
  8
SEIHIN
  6
CONTINUOUS
 62
     3
100
AcDbLine
 10
1025.38846555999
 20
345.55038383014
 30
0.0
 11
1027.64580230139
 21
345.55038383014
 31
0.0
  0
LINE
  5
193A
330
19
100
AcDbEntity
  8
SEIHIN
  6
CONTINUOUS
 62
     3
100
AcDbLine
 10
1025.38846555999
 20
345.55038383014
 30
0.0
 11
1024.38846555999
 21
346.55038383014
 31
0.0
  0
ARC
  5
193B
330
19
100
AcDbEntity
  8
SEIHIN
  6
CONTINUOUS
 62
     3
100
AcDbCircle
 10
1030.47684029979
 20
343.2503838301399
 30
0.0
 40
5.0
100
AcDbArc
 50
357.2856722365002
 51
89.99999257229891
  0
LINE
  5
193C
330
19
100
AcDbEntity
  8
SEIHIN
  6
CONTINUOUS
 62
     3
100
AcDbLine
 10
1032.64019224589
 20
340.3136021142399
 30
0.0
 11
1032.64019224859
 21
340.3136021710399
 31
0.0
  0
ARC
  5
193D
330
19
100
AcDbEntity
  8
SEIHIN
  6
CONTINUOUS
 62
     3
100
AcDbCircle
 10
1030.86803765219
 20
324.05038383014
 30
0.0
 40
1.0
100
AcDbArc
 50
269.9999891349011
 51
357.2856669400983
  0
ARC
  5
193E
330
19
100
AcDbEntity
  8
SEIHIN
100
AcDbCircle
 10
1086.588474077889
 20
346.2503838301399
 30
0.0
 40
9.000000013601132
100
AcDbArc
 50
40.74069217862646
 51
90.0
  0
LINE
  5
193F
330
19
100
AcDbEntity
  8
SEIHIN
  6
CONTINUOUS
 62
     3
100
AcDbLine
 10
881.5570502412901
 20
395.25064401624
 30
0.0
 11
881.1351394683901
 21
393.8225681375399
 31
0.0
  0
ARC
  5
1940
330
19
100
AcDbEntity
  8
SEIHIN
  6
CONTINUOUS
 62
     3
100
AcDbCircle
 10
881.07753945019
 20
395.39231053034
 30
0.0
 40
0.5
100
AcDbArc
 50
343.5407503717009
 51
112.2926937813994
  0
ARC
  5
1941
330
19
100
AcDbEntity
  8
SEIHIN
  6
CONTINUOUS
 62
     3
100
AcDbCircle
 10
881.07753945019
 20
395.39231053034
 30
0.0
 40
1.5
100
AcDbArc
 50
343.5407503717009
 51
112.2926937813994
  0
ARC
  5
1942
330
19
100
AcDbEntity
  8
SEIHIN
  6
CONTINUOUS
 62
     3
100
AcDbCircle
 10
882.2643024375901
 20
396.09501662744
 30
0.0
 40
3.0
100
AcDbArc
 50
254.9381920302002
 51
112.2926990702013
  0
ARC
  5
1943
330
19
100
AcDbEntity
  8
SEIHIN
  6
CONTINUOUS
 62
     3
100
AcDbCircle
 10
881.6146502143901
 20
393.68090147084
 30
0.0
 40
0.5
100
AcDbArc
 50
163.540750371701
 51
254.9381920302002
  0
LINE
  5
1944
330
19
100
AcDbEntity
  8
SEIHIN
  6
CONTINUOUS
 62
     3
100
AcDbLine
 10
870.6987964720902
 20
392.75839310264
 30
0.0
 11
880.5085321862902
 21
396.7801976776399
 31
0.0
  0
ARC
  5
1945
330
19
100
AcDbEntity
  8
SEIHIN
  6
CONTINUOUS
 62
     3
100
AcDbCircle
 10
871.4579530167901
 20
391.44846353444
 30
0.0
 40
3.2
100
AcDbArc
 50
112.2926937813994
 51
175.0000000000002
  0
ARC
  5
1946
330
19
100
AcDbEntity
  8
SEIHIN
  6
CONTINUOUS
 62
     3
100
AcDbCircle
 10
870.88846555999
 20
392.29576405354
 30
0.0
 40
0.5
100
AcDbArc
 50
112.2926937813994
 51
180.0
  0
LINE
  5
1947
330
19
100
AcDbEntity
  8
SEIHIN
  6
CONTINUOUS
 62
     3
100
AcDbLine
 10
870.3884655599901
 20
391.21498455284
 30
0.0
 11
870.3884655599901
 21
392.29576405354
 31
0.0
  0
ARC
  5
1948
330
19
100
AcDbEntity
  8
SEIHIN
  6
CONTINUOUS
 62
     3
100
AcDbCircle
 10
870.88846555999
 20
391.2149845370399
 30
0.0
 40
0.5
100
AcDbArc
 50
112.2926937813994
 51
180.0
  0
LINE
  5
1949
330
19
100
AcDbEntity
  8
SEIHIN
  6
CONTINUOUS
 62
     3
100
AcDbLine
 10
870.6987964720902
 20
391.67761358614
 30
0.0
 11
880.8878704873901
 21
395.8549396307399
 31
0.0
  0
LINE
  5
194A
330
19
100
AcDbEntity
  8
SEIHIN
  6
CONTINUOUS
 62
     3
100
AcDbLine
 10
870.2440708537901
 20
394.40928944864
 30
0.0
 11
881.1262876534902
 21
398.87079081694
 31
0.0
  0
LINE
  5
194B
330
19
100
AcDbEntity
  8
SEIHIN
  6
CONTINUOUS
 62
     3
100
AcDbLine
 10
877.01829756699
 20
394.26848852464
 30
0.0
 11
881.2668821985901
 21
394.26848852464
 31
0.0
  0
LINE
  5
194C
330
19
100
AcDbEntity
  8
SEIHIN
  6
CONTINUOUS
 62
     3
100
AcDbLine
 10
882.5160716882901
 20
394.96731053034
 30
0.0
 11
881.96727601439
 21
393.10975695624
 31
0.0
  0
LINE
  5
194D
330
19
100
AcDbEntity
  8
SEIHIN
  6
CONTINUOUS
 62
     3
100
AcDbLine
 10
1185.24840584789
 20
258.85038383014
 30
0.0
 11
1185.24840584789
 21
398.8950166274399
 31
0.0
  0
LINE
  5
194E
330
19
100
AcDbEntity
  8
SEIHIN
100
AcDbLine
 10
1095.566587650924
 20
342.7886289309776
 30
0.0
 11
1095.566587650924
 21
263.6489981457502
 31
0.0
  0
LINE
  5
194F
330
19
100
AcDbEntity
  8
SEIHIN
100
AcDbLine
 10
1125.12701259158
 20
334.3562359776446
 30
0.0
 11
1125.12701259158
 21
263.6489981457502
 31
0.0
  0
ARC
  5
1950
330
19
100
AcDbEntity
  8
SEIHIN
  6
CONTINUOUS
 62
     3
100
AcDbCircle
 10
1154.25379614969
 20
458.6018334217015
 30
0.0
 40
200.0
100
AcDbArc
 50
270.0
 51
273.4336303624985
  0
ARC
  5
1951
330
19
100
AcDbEntity
  8
SEIHIN
  6
CONTINUOUS
 62
     3
100
AcDbCircle
 10
1154.25379614969
 20
457.35038383014
 30
0.0
 40
200.0
100
AcDbArc
 50
270.0
 51
273.4336303624985
  0
LINE
  5
1952
330
19
100
AcDbEntity
  8
SEIHIN
  6
CONTINUOUS
 62
     3
100
AcDbLine
 10
1185.24840584789
 20
260.1018334217014
 30
0.0
 11
1166.23225429529
 21
258.9608643285014
 31
0.0
  0
LINE
  5
1953
330
19
100
AcDbEntity
  8
SEIHIN
  6
CONTINUOUS
 62
     3
100
AcDbLine
 10
1185.24840584789
 20
258.85038383014
 30
0.0
 11
1166.23225429529
 21
257.70941473694
 31
0.0
  0
LINE
  5
1954
330
19
100
AcDbEntity
  8
SEIHIN
  6
CONTINUOUS
 62
     3
100
AcDbLine
 10
1145.24840584789
 20
348.2503838301399
 30
0.0
 11
1185.24840584789
 21
348.2503838301399
 31
0.0
  0
LINE
  5
1955
330
19
100
AcDbEntity
  8
SEIHIN
100
AcDbLine
 10
1145.24840584789
 20
348.2503838301399
 30
0.0
 11
1145.24840584789
 21
343.2503838301399
 31
0.0
  0
LINE
  5
1956
330
19
100
AcDbEntity
  8
SEIHIN
  6
CONTINUOUS
 62
     3
100
AcDbLine
 10
1145.24840584789
 20
343.2503838301399
 30
0.0
 11
1145.24840584789
 21
348.2503838301399
 31
0.0
  0
LINE
  5
1957
330
19
100
AcDbEntity
  8
SEIHIN
100
AcDbLine
 10
1110.23438314789
 20
339.2503838301399
 30
0.0
 11
1141.24840584789
 21
339.2503838301399
 31
0.0
  0
ARC
  5
1958
330
19
100
AcDbEntity
  8
SEIHIN
100
AcDbCircle
 10
1110.23438314789
 20
343.2503838301399
 30
0.0
 40
3.999999979047761
100
AcDbArc
 50
220.7406907442399
 51
270.0
  0
ARC
  5
1959
330
19
100
AcDbEntity
  8
SEIHIN
100
AcDbCircle
 10
1141.24840584789
 20
343.2503838301399
 30
0.0
 40
4.0
100
AcDbArc
 50
270.0
 51
0.0
  0
LINE
  5
195A
330
19
100
AcDbEntity
  8
SEIHIN
  6
CONTINUOUS
 62
     3
100
AcDbLine
 10
1145.24840584789
 20
392.8950166274399
 30
0.0
 11
1185.24840584789
 21
392.8950166274399
 31
0.0
  0
LINE
  5
195B
330
19
100
AcDbEntity
  8
SEIHIN
  6
CONTINUOUS
 62
     3
100
AcDbLine
 10
1145.24840584789
 20
398.8950166274399
 30
0.0
 11
1185.24840584789
 21
398.8950166274399
 31
0.0
  0
LINE
  5
195C
330
19
100
AcDbEntity
  8
SEIHIN
  6
CONTINUOUS
 62
     3
100
AcDbLine
 10
1145.24840584789
 20
392.8950166274399
 30
0.0
 11
1145.24840584789
 21
398.8950166274399
 31
0.0
  0
DIMENSION
  5
195D
330
19
100
AcDbEntity
  8
SUNPOU
100
AcDbDimension
  2
*D7
 10
1105.432630177984
 20
595.5668847118399
 30
0.0
 11
1095.432630177984
 21
617.5668847118401
 31
0.0
 70
    32
  1
※<>
  3
STANDARD
100
AcDbAlignedDimension
 13
1030.02125300869
 23
639.56688471184
 33
0.0
 14
1033.78146239099
 24
595.5668847118399
 34
0.0
 50
90.0
100
AcDbRotatedDimension
1001
ACAD
1000
DSTYLE
1002
{
1070
   372
1070
    -1
1070
   371
1070
    -1
1070
    41
1040
14.0
1070
    42
1040
12.0
1070
    43
1040
28.0
1070
    44
1040
6.0
1070
    73
1070
     0
1070
    74
1070
     0
1070
    77
1070
     3
1070
   140
1040
12.0
1070
   141
1040
150.0
1070
   143
1040
0.03937
1070
   147
1040
4.0
1070
   172
1070
     1
1070
   173
1070
     1
1070
   176
1070
   256
1070
   177
1070
   256
1070
   178
1070
   256
1070
   271
1070
     0
1070
   272
1070
     2
1070
     6
1000
OPEN
1070
     7
1000
OPEN
1002
}
  0
ARC
  5
195E
330
19
100
AcDbEntity
  8
SEIHIN
100
AcDbCircle
 10
1090.34917134789
 20
754.6561894672306
 30
0.0
 40
15.00000001696845
100
AcDbArc
 50
50.82634197471988
 51
90.0
  0
ARC
  5
195F
330
19
100
AcDbEntity
  8
SEIHIN
100
AcDbCircle
 10
1090.34917134789
 20
754.5584456672306
 30
0.0
 40
17.69999999194207
100
AcDbArc
 50
50.82633879512378
 51
90.0
  0
LINE
  5
1960
330
19
100
AcDbEntity
  8
SEIHIN
100
AcDbLine
 10
1089.83356964789
 20
787.5481884672305
 30
0.0
 11
1127.05330394789
 21
757.2209975672307
 31
0.0
  0
DIMENSION
  5
1961
330
19
100
AcDbEntity
  8
SUNPOU
100
AcDbDimension
  2
*D8
 10
1142.719246039538
 20
595.5668847118399
 30
0.0
 11
1132.719246039538
 21
625.0668847374212
 31
0.0
 70
    32
  3
STANDARD
100
AcDbAlignedDimension
 13
1036.1591011126
 23
654.5668847630021
 33
0.0
 14
1033.74840582789
 24
595.5668847118399
 34
0.0
 50
90.0
100
AcDbRotatedDimension
1001
ACAD
1000
DSTYLE
1002
{
1070
   372
1070
    -1
1070
   371
1070
    -1
1070
    41
1040
14.0
1070
    42
1040
12.0
1070
    43
1040
28.0
1070
    44
1040
6.0
1070
    73
1070
     0
1070
    74
1070
     0
1070
    77
1070
     3
1070
   140
1040
12.0
1070
   141
1040
150.0
1070
   143
1040
0.03937
1070
   147
1040
4.0
1070
   172
1070
     1
1070
   173
1070
     1
1070
   176
1070
   256
1070
   177
1070
   256
1070
   178
1070
   256
1070
   271
1070
     0
1070
   272
1070
     2
1070
     6
1000
OPEN
1070
     7
1000
OPEN
1002
}
  0
DIMENSION
  5
1962
330
19
100
AcDbEntity
  8
SUNPOU
  6
CONTINUOUS
100
AcDbDimension
  2
*D9
 10
1272.279663004806
 20
595.5668847118399
 30
0.0
 11
1262.279663004806
 21
754.59149017374
 31
0.0
 70
    32
  3
STANDARD
100
AcDbAlignedDimension
 13
1154.25379614969
 23
913.61609563564
 33
0.0
 14
1033.78146239099
 24
595.5668847118399
 34
0.0
 50
90.0
100
AcDbRotatedDimension
1001
ACAD
1000
DSTYLE
1002
{
1070
   372
1070
    -1
1070
   371
1070
    -1
1070
    41
1040
14.0
1070
    42
1040
12.0
1070
    43
1040
28.0
1070
    44
1040
6.0
1070
    73
1070
     0
1070
    74
1070
     0
1070
    77
1070
     3
1070
   140
1040
12.0
1070
   141
1040
150.0
1070
   143
1040
0.03937
1070
   147
1040
4.0
1070
   172
1070
     1
1070
   173
1070
     1
1070
   176
1070
   256
1070
   177
1070
   256
1070
   178
1070
   256
1070
   271
1070
     0
1070
   272
1070
     2
1070
     6
1000
OPEN
1070
     7
1000
OPEN
1002
}
  0
LINE
  5
1963
330
19
100
AcDbEntity
  8
SEIHIN
  6
CONTINUOUS
 62
     3
100
AcDbLine
 10
875.1762885938902
 20
910.4390019657399
 30
0.0
 11
1143.24840584789
 21
910.4390019657399
 31
0.0
  0
LINE
  5
1964
330
19
100
AcDbEntity
  8
SEIHIN
  6
CONTINUOUS
 62
     3
100
AcDbLine
 10
1145.24840584789
 20
902.7868703064401
 30
0.0
 11
882.82842025329
 21
902.7868703064401
 31
0.0
  0
LINE
  5
1965
330
19
100
AcDbEntity
  8
SEIHIN
  6
CONTINUOUS
 62
     3
100
AcDbLine
 10
1136.24840584789
 20
853.02426897104
 30
0.0
 11
932.5910215886901
 21
853.02426897104
 31
0.0
  0
LINE
  5
1966
330
19
100
AcDbEntity
  8
SEIHIN
  6
CONTINUOUS
 62
     3
100
AcDbLine
 10
1136.24840584789
 20
846.45858076034
 30
0.0
 11
939.1567097993899
 21
846.45858076034
 31
0.0
  0
LINE
  5
1967
330
19
100
AcDbEntity
  8
SEIHIN
  6
CONTINUOUS
 62
     3
100
AcDbLine
 10
1136.24840584789
 20
865.8404139139399
 30
0.0
 11
919.77487664579
 21
865.8404139139399
 31
0.0
  0
LINE
  5
1968
330
19
100
AcDbEntity
  8
SEIHIN
  6
CONTINUOUS
 62
     3
100
AcDbLine
 10
1154.25379614969
 20
913.61609563564
 30
0.0
 11
874.69919492409
 21
913.61609563564
 31
0.0
  0
LINE
  5
1969
330
19
100
AcDbEntity
  8
CENTER_L
  6
CENTER
 62
     1
 48
5.0
100
AcDbLine
 10
1196.06017363319
 20
799.4268249996401
 30
0.0
 11
972.4200208430907
 21
799.4268249996401
 31
0.0
  0
ARC
  5
196A
330
19
100
AcDbEntity
  8
SEIHIN
100
AcDbCircle
 10
1035.31947363789
 20
745.4958169118399
 30
0.0
 40
24.16037255539072
100
AcDbArc
 50
90.0
 51
180.0
  0
ARC
  5
196B
330
19
100
AcDbEntity
  8
SEIHIN
100
AcDbCircle
 10
1035.31947363789
 20
745.4958169118399
 30
0.0
 40
26.76262875539078
100
AcDbArc
 50
90.0
 51
180.0
  0
ARC
  5
196C
330
19
100
AcDbEntity
  8
SEIHIN
100
AcDbCircle
 10
1035.31947363789
 20
745.4958169118399
 30
0.0
 40
45.42384522493626
100
AcDbArc
 50
90.0
 51
180.0
  0
LINE
  5
196D
330
19
100
AcDbEntity
  8
SEIHIN
  6
CONTINUOUS
 62
     3
100
AcDbLine
 10
867.1991949240901
 20
626.56149441004
 30
0.0
 11
867.1991949240901
 21
906.1160956356401
 31
0.0
  0
LINE
  5
196E
330
19
100
AcDbEntity
  8
SEIHIN
  6
CONTINUOUS
 62
     3
100
AcDbLine
 10
870.3762885938902
 20
905.6390019657399
 30
0.0
 11
870.3762885938902
 21
637.5668847118399
 31
0.0
  0
LINE
  5
196F
330
19
100
AcDbEntity
  8
SEIHIN
  6
CONTINUOUS
 62
     3
100
AcDbLine
 10
927.7910215886903
 20
644.5668847118399
 30
0.0
 11
927.7910215886903
 21
848.22426897104
 31
0.0
  0
LINE
  5
1970
330
19
100
AcDbEntity
  8
SEIHIN
  6
CONTINUOUS
 62
     3
100
AcDbLine
 10
914.9748766457902
 20
644.5668847118399
 30
0.0
 11
914.9748766457902
 21
861.0404139139401
 31
0.0
  0
LINE
  5
1971
330
19
100
AcDbEntity
  8
SEIHIN
  6
CONTINUOUS
 62
     3
100
AcDbLine
 10
934.3567097993902
 20
644.5668847118399
 30
0.0
 11
934.3567097993902
 21
841.65858076034
 31
0.0
  0
LINE
  5
1972
330
19
100
AcDbEntity
  8
SEIHIN
  6
CONTINUOUS
 62
     3
100
AcDbLine
 10
878.0284202532902
 20
635.5668847118399
 30
0.0
 11
878.0284202532902
 21
897.9868703064399
 31
0.0
  0
LINE
  5
1973
330
19
100
AcDbEntity
  8
CENTER_L
  6
CENTER
 62
     1
 48
5.0
100
AcDbLine
 10
859.6382578265901
 20
921.17703273314
 30
0.0
 11
1030.973229597525
 21
749.842060962205
 31
0.0
  0
LINE
  5
1974
330
19
100
AcDbEntity
  8
CENTER_L
  6
CENTER
 62
     1
 48
5.0
100
AcDbLine
 10
981.3884655599903
 20
588.4583973759399
 30
0.0
 11
981.3884655599901
 21
808.3952697166395
 31
0.0
  0
LINE
  5
1975
330
19
100
AcDbEntity
  8
SEIHIN
  6
CONTINUOUS
 62
     3
100
AcDbLine
 10
899.7236076999213
 20
634.5668847118401
 30
0.0
 11
968.8608780499075
 21
634.5668847118398
 31
0.0
  0
LINE
  5
1976
330
19
100
AcDbEntity
  8
SEIHIN
  6
CONTINUOUS
 62
     3
100
AcDbLine
 10
868.6991949240901
 20
595.5668847118399
 30
0.0
 11
1033.78146239099
 21
595.5668847118399
 31
0.0
  0
LINE
  5
1977
330
19
100
AcDbEntity
  8
SEIHIN
  6
CONTINUOUS
 62
     3
100
AcDbLine
 10
895.24171088579
 20
644.5668847118399
 30
0.0
 11
1031.55819831459
 21
644.5668847118399
 31
0.0
  0
LINE
  5
1978
330
19
100
AcDbEntity
  8
SEIHIN
  6
CONTINUOUS
 62
     3
100
AcDbLine
 10
900.2211274969901
 20
639.56688471184
 30
0.0
 11
971.3884655599901
 21
639.56688471184
 31
0.0
  0
ARC
  5
1979
330
19
100
AcDbEntity
  8
SEIHIN
  6
CONTINUOUS
 62
     3
100
AcDbCircle
 10
899.7236076999213
 20
636.56688471184
 30
0.0
 40
2.0
100
AcDbArc
 50
184.42794498417
 51
270.0
  0
LINE
  5
197A
330
19
100
AcDbEntity
  8
SEIHIN
  6
CONTINUOUS
 62
     3
100
AcDbLine
 10
895.24171088579
 20
644.5668847118399
 30
0.0
 11
900.2417108857901
 21
639.56688471184
 31
0.0
  0
LINE
  5
197B
330
19
100
AcDbEntity
  8
SEIHIN
  6
CONTINUOUS
 62
     3
100
AcDbLine
 10
885.1705147379901
 20
595.5668847118399
 30
0.0
 11
885.1705147379901
 21
635.5668847118399
 31
0.0
  0
ARC
  5
197C
330
19
100
AcDbEntity
  8
SEIHIN
  6
CONTINUOUS
 62
     3
100
AcDbCircle
 10
1067.19919492409
 20
626.56149441004
 30
0.0
 40
200.0
100
AcDbArc
 50
180.0
 51
183.4336303624984
  0
LINE
  5
197D
330
19
100
AcDbEntity
  8
SEIHIN
  6
CONTINUOUS
 62
     3
100
AcDbLine
 10
867.5582258308901
 20
614.5830362644399
 30
0.0
 11
868.6991949240901
 21
595.5668847118399
 31
0.0
  0
LINE
  5
197E
330
19
100
AcDbEntity
  8
SEIHIN
  6
CONTINUOUS
 62
     3
100
AcDbLine
 10
885.1705147379901
 20
635.5668847118399
 30
0.0
 11
872.3762885938901
 21
635.5668847118399
 31
0.0
  0
ARC
  5
197F
330
19
100
AcDbEntity
  8
SEIHIN
  6
CONTINUOUS
 62
     3
100
AcDbCircle
 10
872.3762885938901
 20
637.5668847118399
 30
0.0
 40
2.0
100
AcDbArc
 50
180.0
 51
270.0
  0
LINE
  5
1980
330
19
100
AcDbEntity
  8
SEIHIN
  6
CONTINUOUS
 62
     3
100
AcDbLine
 10
895.24171088579
 20
642.0668847118399
 30
0.0
 11
895.24171088579
 21
644.5668847118399
 31
0.0
  0
LINE
  5
1981
330
19
100
AcDbEntity
  8
SEIHIN
  6
CONTINUOUS
 62
     3
100
AcDbLine
 10
895.24171088579
 20
642.0668847118399
 30
0.0
 11
897.4853109254901
 21
639.56688471184
 31
0.0
  0
LINE
  5
1982
330
19
100
AcDbEntity
  8
SEIHIN
  6
CONTINUOUS
 62
     3
100
AcDbLine
 10
897.4853109254901
 20
639.56688471184
 30
0.0
 11
897.7295772692933
 21
636.4124740848427
 31
0.0
  0
LINE
  5
1983
330
19
100
AcDbEntity
  8
SEIHIN
  6
CONTINUOUS
 62
     3
100
AcDbLine
 10
934.3567097993902
 20
595.5668847118399
 30
0.0
 11
934.3567097993904
 21
634.56688471184
 31
0.0
  0
LINE
  5
1984
330
19
100
AcDbEntity
  8
SEIHIN
  6
CONTINUOUS
 62
     3
100
AcDbLine
 10
927.7910215886903
 20
595.5668847118399
 30
0.0
 11
927.7910215886903
 21
634.56688471184
 31
0.0
  0
LINE
  5
1985
330
19
100
AcDbEntity
  8
SEIHIN
  6
CONTINUOUS
 62
     3
100
AcDbLine
 10
914.9748766457902
 20
595.5668847118399
 30
0.0
 11
914.9748766457902
 21
634.5668847118401
 31
0.0
  0
LINE
  5
1986
330
19
100
AcDbEntity
  8
SEIHIN
  6
CONTINUOUS
 62
     3
100
AcDbLine
 10
927.7910215886903
 20
644.5668847118399
 30
0.0
 11
931.5053234464901
 21
639.56688471184
 31
0.0
  0
LINE
  5
1987
330
19
100
AcDbEntity
  8
SEIHIN
  6
CONTINUOUS
 62
     3
100
AcDbLine
 10
914.9748766457902
 20
644.5668847118399
 30
0.0
 11
914.0499284719901
 21
639.56688471184
 31
0.0
  0
LINE
  5
1988
330
19
100
AcDbEntity
  8
SEIHIN
  6
CONTINUOUS
 62
     3
100
AcDbLine
 10
914.0499284719901
 20
634.56688471184
 30
0.0
 11
914.0499284719901
 21
639.56688471184
 31
0.0
  0
LINE
  5
1989
330
19
100
AcDbEntity
  8
SEIHIN
  6
CONTINUOUS
 62
     3
100
AcDbLine
 10
900.2417108857901
 20
639.56688471184
 30
0.0
 11
900.6220319792408
 21
634.5668847118401
 31
0.0
  0
LINE
  5
198A
330
19
100
AcDbEntity
  8
SEIHIN
  6
CONTINUOUS
 62
     3
100
AcDbLine
 10
914.9748766457902
 20
644.5668847118399
 30
0.0
 11
916.6101651574901
 21
639.56688471184
 31
0.0
  0
LINE
  5
198B
330
19
100
AcDbEntity
  8
SEIHIN
  6
CONTINUOUS
 62
     3
100
AcDbLine
 10
916.6101651574901
 20
634.56688471184
 30
0.0
 11
916.6101651574901
 21
639.56688471184
 31
0.0
  0
LINE
  5
198C
330
19
100
AcDbEntity
  8
SEIHIN
100
AcDbLine
 10
937.6403850092783
 20
639.56688471184
 30
0.0
 11
934.3567097993902
 21
644.5668847118399
 31
0.0
  0
LINE
  5
198D
330
19
100
AcDbEntity
  8
SEIHIN
100
AcDbLine
 10
937.6403850092783
 20
639.56688471184
 30
0.0
 11
937.6403850092783
 21
634.5668847118398
 31
0.0
  0
LINE
  5
198E
330
19
100
AcDbEntity
  8
SEIHIN
  6
CONTINUOUS
 62
     3
100
AcDbLine
 10
931.5053234464899
 20
634.5668847118398
 30
0.0
 11
931.5053234464901
 21
639.56688471184
 31
0.0
  0
LINE
  5
198F
330
19
100
AcDbEntity
  8
SEIHIN
100
AcDbLine
 10
1012.535186342599
 20
679.28550721184
 30
0.0
 11
1027.982643394361
 21
660.3272645206295
 31
0.0
  0
LINE
  5
1990
330
19
100
AcDbEntity
  8
SEIHIN
100
AcDbLine
 10
1014.530576332599
 20
681.11098331184
 30
0.0
 11
1030.07577786118
 21
662.0327814680522
 31
0.0
  0
DIMENSION
  5
1991
330
19
100
AcDbEntity
  8
SUNPOU
100
AcDbDimension
  2
*D10
 10
1036.1591011126
 20
696.4555358139119
 30
0.0
 11
1078.1591011126
 21
706.4555358139118
 31
0.0
 70
    32
  3
STANDARD
100
AcDbAlignedDimension
 13
1011.159101103383
 23
685.2487029043493
 33
0.0
 14
1036.1591011126
 24
654.5668847630021
 34
0.0
100
AcDbRotatedDimension
1001
ACAD
1000
DSTYLE
1002
{
1070
   372
1070
    -1
1070
   371
1070
    -1
1070
    41
1040
14.0
1070
    42
1040
12.0
1070
    43
1040
28.0
1070
    44
1040
6.0
1070
    73
1070
     0
1070
    74
1070
     0
1070
    77
1070
     3
1070
   140
1040
12.0
1070
   141
1040
150.0
1070
   143
1040
0.03937
1070
   147
1040
4.0
1070
   172
1070
     1
1070
   173
1070
     1
1070
   176
1070
   256
1070
   177
1070
   256
1070
   178
1070
   256
1070
   271
1070
     0
1070
   272
1070
     2
1070
     6
1000
OPEN
1070
     7
1000
OPEN
1002
}
  0
LINE
  5
1992
330
19
100
AcDbEntity
  8
SEIHIN
100
AcDbLine
 10
993.2671020985997
 20
690.9817209118401
 30
0.0
 11
1023.594293002599
 21
653.76198661184
 31
0.0
  0
ARC
  5
1993
330
19
100
AcDbEntity
  8
SEIHIN
100
AcDbCircle
 10
1012.24537320629
 20
647.5043035900312
 30
0.0
 40
20.3
100
AcDbArc
 50
0.0
 51
39.17365805055904
  0
LINE
  5
1994
330
19
100
AcDbEntity
  8
SEIHIN
  6
CONTINUOUS
 62
     3
100
AcDbLine
 10
1022.78846555999
 20
635.5668847118399
 30
0.0
 11
1035.47684029979
 21
635.5668847118399
 31
0.0
  0
LINE
  5
1995
330
19
100
AcDbEntity
  8
SEIHIN
  6
CONTINUOUS
 62
     3
100
AcDbLine
 10
1031.55819831459
 20
644.5668847118399
 30
0.0
 11
1027.27153253619
 21
639.56688471184
 31
0.0
  0
LINE
  5
1996
330
19
100
AcDbEntity
  8
SEIHIN
  6
CONTINUOUS
 62
     3
100
AcDbLine
 10
1022.78846555999
 20
595.5668847118399
 30
0.0
 11
1022.78846555999
 21
635.5668847118399
 31
0.0
  0
LINE
  5
1997
330
19
100
AcDbEntity
  8
SEIHIN
  6
CONTINUOUS
 62
     3
100
AcDbLine
 10
995.3260338665902
 20
624.35157071634
 30
0.0
 11
1022.78846555999
 21
620.23834293634
 31
0.0
  0
LINE
  5
1998
330
19
100
AcDbEntity
  8
SEIHIN
  6
CONTINUOUS
 62
     3
100
AcDbLine
 10
991.3884655599902
 20
639.56688471184
 30
0.0
 11
1027.27153253619
 21
639.56688471184
 31
0.0
  0
LINE
  5
1999
330
19
100
AcDbEntity
  8
SEIHIN
100
AcDbLine
 10
991.3884655599902
 20
639.56688471184
 30
0.0
 11
971.3884655599901
 21
639.56688471184
 31
0.0
  0
LINE
  5
199A
330
19
100
AcDbEntity
  8
SEIHIN
  6
CONTINUOUS
 62
     3
100
AcDbLine
 10
991.3884655599902
 20
642.7741798622399
 30
0.0
 11
971.3884655599901
 21
642.7741798622399
 31
0.0
  0
ARC
  5
199B
330
19
100
AcDbEntity
  8
SEIHIN
  6
CONTINUOUS
 62
     3
100
AcDbCircle
 10
968.8608780499075
 20
636.5668847118398
 30
0.0
 40
2.0
100
AcDbArc
 50
270.0
 51
350.5376777922533
  0
LINE
  5
199C
330
19
100
AcDbEntity
  8
SEIHIN
  6
CONTINUOUS
 62
     3
100
AcDbLine
 10
971.3884655599901
 20
639.56688471184
 30
0.0
 11
971.3884655599901
 21
644.5668847118399
 31
0.0
  0
LINE
  5
199D
330
19
100
AcDbEntity
  8
SEIHIN
  6
CONTINUOUS
 62
     3
100
AcDbLine
 10
971.3884655599901
 20
639.56688471184
 30
0.0
 11
970.8336658975733
 21
636.2380867372387
 31
0.0
  0
LINE
  5
199E
330
19
100
AcDbEntity
  8
SEIHIN
  6
CONTINUOUS
 62
     3
100
AcDbLine
 10
991.3884655599902
 20
639.56688471184
 30
0.0
 11
991.3884655599902
 21
644.5668847118399
 31
0.0
  0
ARC
  5
199F
330
19
100
AcDbEntity
  8
SEIHIN
  6
CONTINUOUS
 62
     3
100
AcDbCircle
 10
995.6222824859901
 20
626.32950821674
 30
0.0
 40
2.0
100
AcDbArc
 50
189.4623222080009
 51
261.4817568266996
  0
LINE
  5
19A0
330
19
100
AcDbEntity
  8
SEIHIN
  6
CONTINUOUS
 62
     3
100
AcDbLine
 10
991.3884655599902
 20
639.56688471184
 30
0.0
 11
993.6494946382902
 21
626.00071024214
 31
0.0
  0
LINE
  5
19A1
330
19
100
AcDbEntity
  8
SEIHIN
100
AcDbLine
 10
1026.440267611504
 20
645.76374371184
 30
0.0
 11
1026.440267611504
 21
644.5668847118398
 31
0.0
  0
LINE
  5
19A2
330
19
100
AcDbEntity
  8
SEIHIN
  6
CONTINUOUS
 62
     3
100
AcDbLine
 10
1027.27153253619
 20
635.5668847118399
 30
0.0
 11
1027.27153253619
 21
639.56688471184
 31
0.0
  0
ARC
  5
19A3
330
19
100
AcDbEntity
  8
SEIHIN
100
AcDbCircle
 10
1013.778267612599
 20
645.76374371184
 30
0.0
 40
12.6619999989047
100
AcDbArc
 50
0.0
 51
39.17365793406501
  0
ARC
  5
19A4
330
19
100
AcDbEntity
  8
SEIHIN
  6
CONTINUOUS
 62
     3
100
AcDbCircle
 10
835.4768402997901
 20
627.34061736774
 30
0.0
 40
200.0
100
AcDbArc
 50
356.1204200235985
 51
0.0
  0
LINE
  5
19A5
330
19
100
AcDbEntity
  8
SEIHIN
  6
CONTINUOUS
 62
     3
100
AcDbLine
 10
1035.01853147869
 20
613.8086743631399
 30
0.0
 11
1033.78146239099
 21
595.5668847118399
 31
0.0
  0
LINE
  5
19A6
330
19
100
AcDbEntity
  8
SEIHIN
  6
CONTINUOUS
 62
     3
100
AcDbLine
 10
1035.24537320629
 20
635.5668847118399
 30
0.0
 11
1035.24537320629
 21
647.5043035765849
 31
0.0
  0
LINE
  5
19A7
330
19
100
AcDbEntity
  8
SEIHIN
  6
CONTINUOUS
 62
     3
100
AcDbLine
 10
1032.54537320629
 20
635.5668847118399
 30
0.0
 11
1032.54537320629
 21
647.5043035900312
 31
0.0
  0
LINE
  5
19A8
330
19
100
AcDbEntity
  8
SEIHIN
  6
CONTINUOUS
 62
     3
100
AcDbLine
 10
1031.55819831459
 20
642.0668847118399
 30
0.0
 11
1031.55819831459
 21
644.5668847118399
 31
0.0
  0
LINE
  5
19A9
330
19
100
AcDbEntity
  8
SEIHIN
  6
CONTINUOUS
 62
     3
100
AcDbLine
 10
1030.02125300869
 20
639.56688471184
 30
0.0
 11
1031.55819831459
 21
642.0668847118399
 31
0.0
  0
LINE
  5
19AA
330
19
100
AcDbEntity
  8
SEIHIN
  6
CONTINUOUS
 62
     3
100
AcDbLine
 10
1030.02125300869
 20
635.5668847118399
 30
0.0
 11
1030.02125300869
 21
639.56688471184
 31
0.0
  0
LINE
  5
19AB
330
19
100
AcDbEntity
  8
SEIHIN
  6
CONTINUOUS
 62
     3
100
AcDbLine
 10
1035.47684029979
 20
627.34061736774
 30
0.0
 11
1035.47684029979
 21
635.5668847118399
 31
0.0
  0
ARC
  5
19AC
330
19
100
AcDbEntity
  8
SEIHIN
100
AcDbCircle
 10
1012.24537320629
 20
647.5043035765849
 30
0.0
 40
23.0
100
AcDbArc
 50
0.0
 51
39.17365801779823
  0
LINE
  5
19AD
330
19
100
AcDbEntity
  8
SEIHIN
100
AcDbLine
 10
1008.556844973383
 20
745.46914091184
 30
0.0
 11
1008.556844973383
 21
690.46611921184
 31
0.0
  0
LINE
  5
19AE
330
19
100
AcDbEntity
  8
SEIHIN
100
AcDbLine
 10
1011.159101103383
 20
745.4958169118399
 30
0.0
 11
1011.159101103383
 21
690.58607761184
 31
0.0
  0
LINE
  5
19AF
330
19
100
AcDbEntity
  8
SEIHIN
100
AcDbLine
 10
989.8956284129539
 20
700.4500143118353
 30
0.0
 11
989.8956284129539
 21
745.4958169118399
 31
0.0
  0
ARC
  5
19B0
330
19
100
AcDbEntity
  8
SEIHIN
100
AcDbCircle
 10
1004.895626882599
 20
700.4568152118399
 30
0.0
 40
15.00000001138729
100
AcDbArc
 50
180.0259775253484
 51
219.1736580638859
  0
ARC
  5
19B1
330
19
100
AcDbEntity
  8
SEIHIN
100
AcDbCircle
 10
1026.159101112599
 20
690.58607761184
 30
0.0
 40
15.00000000921611
100
AcDbArc
 50
180.0
 51
219.1736580735359
  0
ARC
  5
19B2
330
19
100
AcDbEntity
  8
SEIHIN
100
AcDbCircle
 10
1026.256844982599
 20
690.46611921184
 30
0.0
 40
17.70000000744676
100
AcDbArc
 50
180.0
 51
219.1736611230866
  0
LINE
  5
19B3
330
19
100
AcDbEntity
  8
SEIHIN
100
AcDbLine
 10
1011.159101112599
 20
690.46611921184
 30
0.0
 11
1008.556844982599
 21
690.46611921184
 31
0.0
  0
LINE
  5
19B4
330
19
100
AcDbEntity
  8
SEIHIN
100
AcDbLine
 10
1020.945052452599
 20
673.2386773118399
 30
0.0
 11
1018.851918592599
 21
671.5331596118399
 31
0.0
  0
ARC
  5
19B5
330
19
100
AcDbEntity
  8
SEIHIN
  6
CONTINUOUS
 62
     3
100
AcDbCircle
 10
932.5910215886901
 20
848.22426897104
 30
0.0
 40
4.799999999999999
100
AcDbArc
 50
90.0
 51
135.0
  0
ARC
  5
19B6
330
19
100
AcDbEntity
  8
SEIHIN
  6
CONTINUOUS
 62
     3
100
AcDbCircle
 10
932.5910215886901
 20
848.22426897104
 30
0.0
 40
4.799999999999999
100
AcDbArc
 50
135.0
 51
180.0
  0
ARC
  5
19B7
330
19
100
AcDbEntity
  8
SEIHIN
  6
CONTINUOUS
 62
     3
100
AcDbCircle
 10
939.1567097993899
 20
841.65858076034
 30
0.0
 40
4.799999999999999
100
AcDbArc
 50
90.0
 51
135.0
  0
ARC
  5
19B8
330
19
100
AcDbEntity
  8
SEIHIN
  6
CONTINUOUS
 62
     3
100
AcDbCircle
 10
939.1567097993899
 20
841.65858076034
 30
0.0
 40
4.799999999999999
100
AcDbArc
 50
135.0
 51
180.0
  0
ARC
  5
19B9
330
19
100
AcDbEntity
  8
SEIHIN
  6
CONTINUOUS
 62
     3
100
AcDbCircle
 10
882.82842025329
 20
897.9868703064399
 30
0.0
 40
4.799999999999999
100
AcDbArc
 50
135.0
 51
180.0
  0
ARC
  5
19BA
330
19
100
AcDbEntity
  8
SEIHIN
  6
CONTINUOUS
 62
     3
100
AcDbCircle
 10
882.82842025329
 20
897.9868703064399
 30
0.0
 40
4.799999999999999
100
AcDbArc
 50
90.0
 51
135.0
  0
ARC
  5
19BB
330
19
100
AcDbEntity
  8
SEIHIN
  6
CONTINUOUS
 62
     3
100
AcDbCircle
 10
875.1762885938902
 20
905.6390019657399
 30
0.0
 40
4.799999999999999
100
AcDbArc
 50
90.0
 51
135.0
  0
ARC
  5
19BC
330
19
100
AcDbEntity
  8
SEIHIN
  6
CONTINUOUS
 62
     3
100
AcDbCircle
 10
875.1762885938902
 20
905.6390019657399
 30
0.0
 40
4.799999999999999
100
AcDbArc
 50
135.0
 51
180.0
  0
ARC
  5
19BD
330
19
100
AcDbEntity
  8
SEIHIN
  6
CONTINUOUS
 62
     3
100
AcDbCircle
 10
874.69919492409
 20
906.1160956356401
 30
0.0
 40
7.5
100
AcDbArc
 50
135.0
 51
180.0
  0
ARC
  5
19BE
330
19
100
AcDbEntity
  8
SEIHIN
  6
CONTINUOUS
 62
     3
100
AcDbCircle
 10
874.69919492409
 20
906.1160956356401
 30
0.0
 40
7.5
100
AcDbArc
 50
90.0
 51
135.0
  0
ARC
  5
19BF
330
19
100
AcDbEntity
  8
SEIHIN
  6
CONTINUOUS
 62
     3
100
AcDbCircle
 10
919.77487664579
 20
861.0404139139401
 30
0.0
 40
4.799999999999999
100
AcDbArc
 50
90.0
 51
135.0
  0
ARC
  5
19C0
330
19
100
AcDbEntity
  8
SEIHIN
  6
CONTINUOUS
 62
     3
100
AcDbCircle
 10
919.77487664579
 20
861.0404139139401
 30
0.0
 40
4.799999999999999
100
AcDbArc
 50
135.0
 51
180.0
  0
LINE
  5
19C1
330
19
100
AcDbEntity
  8
SEIHIN
100
AcDbLine
 10
1035.346149697889
 20
772.2584456672307
 30
0.0
 11
1090.34917134789
 21
772.2584456672307
 31
0.0
  0
LINE
  5
19C2
330
19
100
AcDbEntity
  8
SEIHIN
100
AcDbLine
 10
1035.31947363789
 20
769.6561894672306
 30
0.0
 11
1090.34917134789
 21
769.6561894672306
 31
0.0
  0
LINE
  5
19C3
330
19
100
AcDbEntity
  8
SEIHIN
100
AcDbLine
 10
1035.31947363789
 20
790.9196621367762
 30
0.0
 11
1080.365338435756
 21
790.9196621367763
 31
0.0
  0
LINE
  5
19C4
330
19
100
AcDbEntity
  8
SEIHIN
100
AcDbLine
 10
1090.34917134789
 20
769.6561894672306
 30
0.0
 11
1090.34917134789
 21
772.2584456672307
 31
0.0
  0
ARC
  5
19C5
330
19
100
AcDbEntity
  8
SEIHIN
100
AcDbCircle
 10
1080.35847537789
 20
775.9196637672306
 30
0.0
 40
14.99999993959781
100
AcDbArc
 50
50.8263418222727
 51
89.97402255094419
  0
LINE
  5
19C6
330
19
100
AcDbEntity
  8
SEIHIN
100
AcDbLine
 10
1107.57661324789
 20
759.8702381672307
 30
0.0
 11
1109.28213094789
 21
761.9633720672307
 31
0.0
  0
LINE
  5
19C7
330
19
100
AcDbEntity
  8
SEIHIN
100
AcDbLine
 10
1101.52978334789
 20
768.2801042672306
 30
0.0
 11
1120.488026116897
 21
752.8326471614569
 31
0.0
  0
LINE
  5
19C8
330
19
100
AcDbEntity
  8
SEIHIN
100
AcDbLine
 10
1099.82426564789
 20
766.1869703672307
 30
0.0
 11
1118.782509234171
 21
750.7395126687265
 31
0.0
  0
DIMENSION
  5
19C9
330
19
100
AcDbEntity
  8
SUNPOU
100
AcDbDimension
  2
*D11
 10
1240.817498926143
 20
745.33845025994
 30
0.0
 11
1230.817498926143
 21
829.47727294779
 31
0.0
 70
    32
  3
STANDARD
100
AcDbAlignedDimension
 13
1154.25379614969
 23
913.61609563564
 33
0.0
 14
1153.47467319199
 24
745.33845025994
 34
0.0
 50
90.0
100
AcDbRotatedDimension
1001
ACAD
1000
DSTYLE
1002
{
1070
   372
1070
    -1
1070
   371
1070
    -1
1070
    41
1040
14.0
1070
    42
1040
12.0
1070
    43
1040
28.0
1070
    44
1040
6.0
1070
    73
1070
     0
1070
    74
1070
     0
1070
    77
1070
     3
1070
   140
1040
12.0
1070
   141
1040
150.0
1070
   143
1040
0.03937
1070
   147
1040
4.0
1070
   172
1070
     1
1070
   173
1070
     1
1070
   176
1070
   256
1070
   177
1070
   256
1070
   178
1070
   256
1070
   271
1070
     0
1070
   272
1070
     2
1070
     6
1000
OPEN
1070
     7
1000
OPEN
1002
}
  0
LINE
  5
19CA
330
19
100
AcDbEntity
  8
SEIHIN
  6
CONTINUOUS
 62
     3
100
AcDbLine
 10
1185.24840584789
 20
912.11609563564
 30
0.0
 11
1185.24840584789
 21
747.03382816874
 31
0.0
  0
LINE
  5
19CB
330
19
100
AcDbEntity
  8
SEIHIN
  6
CONTINUOUS
 62
     3
100
AcDbLine
 10
1136.24840584789
 20
885.57357967394
 30
0.0
 11
1136.24840584789
 21
749.25709224504
 31
0.0
  0
LINE
  5
19CC
330
19
100
AcDbEntity
  8
SEIHIN
  6
CONTINUOUS
 62
     3
100
AcDbLine
 10
1141.24840584789
 20
809.42682499964
 30
0.0
 11
1141.24840584789
 21
753.54375802354
 31
0.0
  0
LINE
  5
19CD
330
19
100
AcDbEntity
  8
SEIHIN
  6
CONTINUOUS
 62
     3
100
AcDbLine
 10
1156.46371984339
 20
785.48925669314
 30
0.0
 11
1160.57694762339
 21
758.0268249996399
 31
0.0
  0
ARC
  5
19CE
330
19
100
AcDbEntity
  8
SEIHIN
  6
CONTINUOUS
 62
     3
100
AcDbCircle
 10
1153.47467319199
 20
945.33845025994
 30
0.0
 40
200.0
100
AcDbArc
 50
270.0
 51
273.8795799764013
  0
LINE
  5
19CF
330
19
100
AcDbEntity
  8
SEIHIN
  6
CONTINUOUS
 62
     3
100
AcDbLine
 10
1185.24840584789
 20
758.0268249996399
 30
0.0
 11
1145.24840584789
 21
758.0268249996399
 31
0.0
  0
ARC
  5
19D0
330
19
100
AcDbEntity
  8
SEIHIN
100
AcDbCircle
 10
1133.31098708916
 20
768.5699173533399
 30
0.0
 40
23.0
100
AcDbArc
 50
230.8263420994227
 51
270.0
  0
ARC
  5
19D1
330
19
100
AcDbEntity
  8
SEIHIN
100
AcDbCircle
 10
1133.310987042817
 20
768.5699173533399
 30
0.0
 40
20.3
100
AcDbArc
 50
230.8263419664729
 51
270.0
  0
ARC
  5
19D2
330
19
100
AcDbEntity
  8
SEIHIN
100
AcDbCircle
 10
1135.05154684789
 20
767.0370229672307
 30
0.0
 40
12.66200000278087
100
AcDbArc
 50
230.8263420945197
 51
270.0
  0
LINE
  5
19D3
330
19
100
AcDbEntity
  8
SEIHIN
  6
CONTINUOUS
 62
     3
100
AcDbLine
 10
1145.24840584789
 20
748.26991735334
 30
0.0
 11
1133.310987042817
 21
748.26991735334
 31
0.0
  0
LINE
  5
19D4
330
19
100
AcDbEntity
  8
SEIHIN
  6
CONTINUOUS
 62
     3
100
AcDbLine
 10
1145.24840584789
 20
745.56991735334
 30
0.0
 11
1133.31098708916
 21
745.56991735334
 31
0.0
  0
LINE
  5
19D5
330
19
100
AcDbEntity
  8
SEIHIN
  6
CONTINUOUS
 62
     3
100
AcDbLine
 10
1145.24840584789
 20
750.79403755104
 30
0.0
 11
1141.24840584789
 21
750.79403755104
 31
0.0
  0
LINE
  5
19D6
330
19
100
AcDbEntity
  8
SEIHIN
  6
CONTINUOUS
 62
     3
100
AcDbLine
 10
1145.24840584789
 20
753.54375802354
 30
0.0
 11
1141.24840584789
 21
753.54375802354
 31
0.0
  0
LINE
  5
19D7
330
19
100
AcDbEntity
  8
SEIHIN
  6
CONTINUOUS
 62
     3
100
AcDbLine
 10
1138.74840584789
 20
749.25709224504
 30
0.0
 11
1136.24840584789
 21
749.25709224504
 31
0.0
  0
LINE
  5
19D8
330
19
100
AcDbEntity
  8
SEIHIN
  6
CONTINUOUS
 62
     3
100
AcDbLine
 10
1141.24840584789
 20
750.79403755104
 30
0.0
 11
1138.74840584789
 21
749.25709224504
 31
0.0
  0
LINE
  5
19D9
330
19
100
AcDbEntity
  8
SEIHIN
  6
CONTINUOUS
 62
     3
100
AcDbLine
 10
1136.24840584789
 20
749.25709224504
 30
0.0
 11
1141.24840584789
 21
753.54375802354
 31
0.0
  0
LINE
  5
19DA
330
19
100
AcDbEntity
  8
SEIHIN
  6
CONTINUOUS
 62
     3
100
AcDbLine
 10
1153.47467319199
 20
745.33845025994
 30
0.0
 11
1145.24840584789
 21
745.33845025994
 31
0.0
  0
LINE
  5
19DB
330
19
100
AcDbEntity
  8
SEIHIN
  6
CONTINUOUS
 62
     3
100
AcDbLine
 10
1145.24840584789
 20
758.0268249996399
 30
0.0
 11
1145.24840584789
 21
745.33845025994
 31
0.0
  0
LINE
  5
19DC
330
19
100
AcDbEntity
  8
SEIHIN
  6
CONTINUOUS
 62
     3
100
AcDbLine
 10
1167.00661619659
 20
745.79675908104
 30
0.0
 11
1185.24840584789
 21
747.03382816874
 31
0.0
  0
LINE
  5
19DD
330
19
100
AcDbEntity
  8
SEIHIN
  6
CONTINUOUS
 62
     3
100
AcDbLine
 10
1146.24840584789
 20
880.1932585804863
 30
0.0
 11
1146.24840584789
 21
811.9544125097394
 31
0.0
  0
LINE
  5
19DE
330
19
100
AcDbEntity
  8
SEIHIN
  6
CONTINUOUS
 62
     3
100
AcDbLine
 10
1141.24840584789
 20
880.5941630627399
 30
0.0
 11
1141.24840584789
 21
809.42682499964
 31
0.0
  0
LINE
  5
19DF
330
19
100
AcDbEntity
  8
SEIHIN
  6
CONTINUOUS
 62
     3
100
AcDbLine
 10
1185.24840584789
 20
853.02426897104
 30
0.0
 11
1146.24840584789
 21
853.02426897104
 31
0.0
  0
LINE
  5
19E0
330
19
100
AcDbEntity
  8
SEIHIN
  6
CONTINUOUS
 62
     3
100
AcDbLine
 10
1185.24840584789
 20
846.45858076034
 30
0.0
 11
1146.24840584789
 21
846.45858076034
 31
0.0
  0
LINE
  5
19E1
330
19
100
AcDbEntity
  8
SEIHIN
  6
CONTINUOUS
 62
     3
100
AcDbLine
 10
1138.04111069749
 20
789.42682499964
 30
0.0
 11
1138.04111069749
 21
809.42682499964
 31
0.0
  0
LINE
  5
19E2
330
19
100
AcDbEntity
  8
SEIHIN
  6
CONTINUOUS
 62
     3
100
AcDbLine
 10
1141.24840584789
 20
789.42682499964
 30
0.0
 11
1154.81458031759
 21
787.16579592144
 31
0.0
  0
LINE
  5
19E3
330
19
100
AcDbEntity
  8
SEIHIN
  6
CONTINUOUS
 62
     3
100
AcDbLine
 10
1141.24840584789
 20
789.42682499964
 30
0.0
 11
1136.24840584789
 21
789.42682499964
 31
0.0
  0
ARC
  5
19E4
330
19
100
AcDbEntity
  8
SEIHIN
  6
CONTINUOUS
 62
     3
100
AcDbCircle
 10
1154.48578234299
 20
785.19300807374
 30
0.0
 40
2.0
100
AcDbArc
 50
8.518243173300396
 51
80.53767779199901
  0
LINE
  5
19E5
330
19
100
AcDbEntity
  8
SEIHIN
  6
CONTINUOUS
 62
     3
100
AcDbLine
 10
1141.24840584789
 20
809.42682499964
 30
0.0
 11
1144.5772038225
 21
809.9816246620751
 31
0.0
  0
LINE
  5
19E6
330
19
100
AcDbEntity
  8
SEIHIN
  6
CONTINUOUS
 62
     3
100
AcDbLine
 10
1141.24840584789
 20
809.42682499964
 30
0.0
 11
1136.24840584789
 21
809.42682499964
 31
0.0
  0
ARC
  5
19E7
330
19
100
AcDbEntity
  8
SEIHIN
  6
CONTINUOUS
 62
     3
100
AcDbCircle
 10
1144.24840584789
 20
811.9544125097394
 30
0.0
 40
2.0
100
AcDbArc
 50
279.4623222080242
 51
0.0
  0
LINE
  5
19E8
330
19
100
AcDbEntity
  8
SEIHIN
100
AcDbLine
 10
1141.24840584789
 20
843.1749055504518
 30
0.0
 11
1146.24840584789
 21
843.1749055504518
 31
0.0
  0
LINE
  5
19E9
330
19
100
AcDbEntity
  8
SEIHIN
  6
CONTINUOUS
 62
     3
100
AcDbLine
 10
1146.24840584789
 20
849.3099671132402
 30
0.0
 11
1141.24840584789
 21
849.30996711324
 31
0.0
  0
LINE
  5
19EA
330
19
100
AcDbEntity
  8
SEIHIN
100
AcDbLine
 10
1141.24840584789
 20
843.1749055504518
 30
0.0
 11
1136.24840584789
 21
846.45858076034
 31
0.0
  0
LINE
  5
19EB
330
19
100
AcDbEntity
  8
SEIHIN
  6
CONTINUOUS
 62
     3
100
AcDbLine
 10
1136.24840584789
 20
853.02426897104
 30
0.0
 11
1141.24840584789
 21
849.30996711324
 31
0.0
  0
ARC
  5
19EC
330
19
100
AcDbEntity
  8
SEIHIN
  6
CONTINUOUS
 62
     3
100
AcDbCircle
 10
1154.25379614969
 20
713.61609563564
 30
0.0
 40
200.0
100
AcDbArc
 50
86.56636963750147
 51
90.0
  0
LINE
  5
19ED
330
19
100
AcDbEntity
  8
SEIHIN
  6
CONTINUOUS
 62
     3
100
AcDbLine
 10
1185.24840584789
 20
895.64477582174
 30
0.0
 11
1145.24840584789
 21
895.64477582174
 31
0.0
  0
LINE
  5
19EE
330
19
100
AcDbEntity
  8
SEIHIN
  6
CONTINUOUS
 62
     3
100
AcDbLine
 10
1185.24840584789
 20
865.8404139139399
 30
0.0
 11
1146.24840584789
 21
865.8404139139399
 31
0.0
  0
LINE
  5
19EF
330
19
100
AcDbEntity
  8
SEIHIN
  6
CONTINUOUS
 62
     3
100
AcDbLine
 10
1145.24840584789
 20
895.64477582174
 30
0.0
 11
1145.24840584789
 21
908.43900196574
 31
0.0
  0
LINE
  5
19F0
330
19
100
AcDbEntity
  8
SEIHIN
  6
CONTINUOUS
 62
     3
100
AcDbLine
 10
1146.24840584789
 20
866.76536208774
 30
0.0
 11
1141.24840584789
 21
866.76536208774
 31
0.0
  0
LINE
  5
19F1
330
19
100
AcDbEntity
  8
SEIHIN
  6
CONTINUOUS
 62
     3
100
AcDbLine
 10
1146.24840584789
 20
864.2051254021401
 30
0.0
 11
1141.24840584789
 21
864.2051254021399
 31
0.0
  0
LINE
  5
19F2
330
19
100
AcDbEntity
  8
SEIHIN
  6
CONTINUOUS
 62
     3
100
AcDbLine
 10
1136.24840584789
 20
865.8404139139399
 30
0.0
 11
1141.24840584789
 21
864.2051254021399
 31
0.0
  0
LINE
  5
19F3
330
19
100
AcDbEntity
  8
SEIHIN
  6
CONTINUOUS
 62
     3
100
AcDbLine
 10
1136.24840584789
 20
865.8404139139399
 30
0.0
 11
1141.24840584789
 21
866.76536208774
 31
0.0
  0
ARC
  5
19F4
330
19
100
AcDbEntity
  8
SEIHIN
  6
CONTINUOUS
 62
     3
100
AcDbCircle
 10
1143.24840584789
 20
880.1932585804863
 30
0.0
 40
3.0
100
AcDbArc
 50
0.0
 51
77.87182561951735
  0
LINE
  5
19F5
330
19
100
AcDbEntity
  8
SEIHIN
  6
CONTINUOUS
 62
     3
100
AcDbLine
 10
1141.24840584789
 20
880.57357967394
 30
0.0
 11
1146.24840584789
 21
880.1932585804863
 31
0.0
  0
LINE
  5
19F6
330
19
100
AcDbEntity
  8
SEIHIN
  6
CONTINUOUS
 62
     3
100
AcDbLine
 10
1138.74840584789
 20
885.57357967394
 30
0.0
 11
1141.24840584789
 21
883.32997963424
 31
0.0
  0
LINE
  5
19F7
330
19
100
AcDbEntity
  8
SEIHIN
  6
CONTINUOUS
 62
     3
100
AcDbLine
 10
1136.24840584789
 20
885.57357967394
 30
0.0
 11
1141.24840584789
 21
880.57357967394
 31
0.0
  0
LINE
  5
19F8
330
19
100
AcDbEntity
  8
SEIHIN
  6
CONTINUOUS
 62
     3
100
AcDbLine
 10
1138.74840584789
 20
885.57357967394
 30
0.0
 11
1136.24840584789
 21
885.57357967394
 31
0.0
  0
LINE
  5
19F9
330
19
100
AcDbEntity
  8
SEIHIN
  6
CONTINUOUS
 62
     3
100
AcDbLine
 10
1141.24840584789
 20
883.32997963424
 30
0.0
 11
1143.878703893298
 21
883.1262987053319
 31
0.0
  0
ARC
  5
19FA
330
19
100
AcDbEntity
  8
SEIHIN
  6
CONTINUOUS
 62
     3
100
AcDbCircle
 10
1143.24840584789
 20
908.43900196574
 30
0.0
 40
2.0
100
AcDbArc
 50
0.0
 51
90.0
  0
LINE
  5
19FB
330
19
100
AcDbEntity
  8
SEIHIN
  6
CONTINUOUS
 62
     3
100
AcDbLine
 10
1166.23225429529
 20
913.2570647288401
 30
0.0
 11
1185.24840584789
 21
912.11609563564
 31
0.0
  0
VIEWPORT
  5
22
330
16
100
AcDbEntity
 67
     1
  8
0
100
AcDbViewport
 10
313.6808219178082
 20
148.5
 30
0.0
 40
627.3616438356165
 41
297.0
 68
     2
 69
     1
1001
ACAD
1000
MVIEW
1002
{
1070
    16
1010
0.0
1020
0.0
1030
0.0
1010
0.0
1020
0.0
1030
1.0
1040
0.0
1040
297.0
1040
313.6808219178082
1040
148.5
1040
50.0
1040
0.0
1040
0.0
1070
     0
1070
   100
1070
     1
1070
     0
1070
     0
1070
     0
1070
     0
1070
     0
1040
0.0
1040
0.0
1040
0.0
1040
10.0
1040
10.0
1040
10.0
1040
10.0
1070
     0
1002
{
1002
}
1002
}
  0
VIEWPORT
  5
25
330
16
100
AcDbEntity
 67
     1
  8
VIEWPORT
100
AcDbViewport
 10
210.0
 20
148.5
 30
0.0
 40
420.0
 41
297.0
 68
     1
 69
     2
1001
ACAD
1000
MVIEW
1002
{
1070
    16
1010
0.0
1020
0.0
1030
0.0
1010
0.0
1020
0.0
1030
1.0
1040
0.0
1040
1212.607689320388
1040
841.0
1040
594.0
1040
50.0
1040
0.0
1040
0.0
1070
     0
1070
   100
1070
     1
1070
     0
1070
     0
1070
     0
1070
     0
1070
     0
1040
0.0
1040
0.0
1040
0.0
1040
57.0
1040
57.0
1040
57.0
1040
57.0
1070
     0
1002
{
1002
}
1002
}
  0
ENDSEC
  0
SECTION
  2
OBJECTS
  0
DICTIONARY
  5
C
330
0
100
AcDbDictionary
  3
ACAD_GROUP
350
D
  3
ACAD_LAYOUT
350
11DA
  3
ACAD_MLINESTYLE
350
E
  3
ACAD_PLOTSETTINGS
350
11DB
  3
ACAD_PLOTSTYLENAME
350
11D8
  3
ACDBHEADERROUNDTRIPXREC
350
1AEF
  0
DICTIONARY
  5
13D5
330
19
100
AcDbDictionary
280
     1
  3
ACAD_LAYOUTSELFREF
360
1B11
  0
DICTIONARY
  5
13D3
330
16
100
AcDbDictionary
280
     1
  3
ACAD_LAYOUTSELFREF
360
1B10
  0
DICTIONARY
  5
D
102
{ACAD_REACTORS
330
C
102
}
330
C
100
AcDbDictionary
  0
DICTIONARY
  5
11DA
102
{ACAD_REACTORS
330
C
102
}
330
C
100
AcDbDictionary
  0
DICTIONARY
  5
E
102
{ACAD_REACTORS
330
C
102
}
330
C
100
AcDbDictionary
  3
STANDARD
350
1C
  0
DICTIONARY
  5
11DB
102
{ACAD_REACTORS
330
C
102
}
330
C
100
AcDbDictionary
  0
ACDBDICTIONARYWDFLT
  5
11D8
102
{ACAD_REACTORS
330
C
102
}
330
C
100
AcDbDictionary
281
     1
  3
Normal
350
11D9
100
AcDbDictionaryWithDefault
340
11D9
1001
ACAD
1000
TREAT_AS_HARD
1070
     0
1000
TREAT_AS_HARD
1070
     0
1000
TREAT_AS_HARD
1070
     0
  0
DICTIONARY
  5
1AEF
102
{ACAD_REACTORS
330
C
102
}
330
C
100
AcDbDictionary
  3
TSTACKALIGN
350
1AF0
  3
TSTACKSIZE
350
1AF1
  3
HYPERLINKBASE
350
1AF2
  3
STYLESHEET
350
1AF3
  3
LAYOUTDICT
350
1AF4
  3
PLOTSETDICT
350
1AF5
  3
PLOTSTYLNAMDICT
350
1AF6
  3
LWETCUNION
350
1AF7
  3
INSUNITS
350
1AF8
  3
CEPSNTYPE
350
1AF9
  3
FINGERPRINTGUID
350
1AFA
  3
VERSIONGUID
350
1AFB
  3
PSVPSCALE
350
1AFC
  3
DIMSTYLEDATA
350
1AFD
  3
PUCSORTHOREF
350
1AFE
  3
PUCSORTHOVIEW
350
1AFF
  3
PUCSBASE
350
1B00
  3
PUCSORGTOP
350
1B01
  3
PUCSORGBOTTOM
350
1B02
  3
PUCSORGLEFT
350
1B03
  3
PUCSORGRIGHT
350
1B04
  3
PUCSORGFRONT
350
1B05
  3
PUCSORGBACK
350
1B06
  3
UCSORTHOREF
350
1B07
  3
UCSORTHOVIEW
350
1B08
  3
UCSBASE
350
1B09
  3
UCSORGTOP
350
1B0A
  3
UCSORGBOTTOM
350
1B0B
  3
UCSORGLEFT
350
1B0C
  3
UCSORGRIGHT
350
1B0D
  3
UCSORGFRONT
350
1B0E
  3
UCSORGBACK
350
1B0F
  0
XRECORD
  5
1B11
102
{ACAD_REACTORS
330
13D5
102
}
330
13D5
100
AcDbXrecord
340
19
  0
XRECORD
  5
1B10
102
{ACAD_REACTORS
330
13D3
102
}
330
13D3
100
AcDbXrecord
340
16
  0
MLINESTYLE
  5
1C
102
{ACAD_REACTORS
330
E
102
}
330
E
100
AcDbMlineStyle
  2
STANDARD
 70
     0
  3

 62
     0
 51
90.0
 52
90.0
 71
     2
 49
0.5
 62
   256
  6
BYLAYER
 49
-0.5
 62
   256
  6
BYLAYER
  0
ACDBPLACEHOLDER
  5
11D9
102
{ACAD_REACTORS
330
11D8
102
}
330
11D8
100
AcDbPlaceHolder
280
     0
  0
XRECORD
  5
1AF0
102
{ACAD_REACTORS
330
1AEF
102
}
330
1AEF
100
AcDbXrecord
 90
        1
  0
XRECORD
  5
1AF1
102
{ACAD_REACTORS
330
1AEF
102
}
330
1AEF
100
AcDbXrecord
 90
       70
  0
XRECORD
  5
1AF2
102
{ACAD_REACTORS
330
1AEF
102
}
330
1AEF
100
AcDbXrecord
  1

  0
XRECORD
  5
1AF3
102
{ACAD_REACTORS
330
1AEF
102
}
330
1AEF
100
AcDbXrecord
  1
systemprinter.ctb
  0
XRECORD
  5
1AF4
102
{ACAD_REACTORS
330
1AEF
102
}
330
1AEF
100
AcDbXrecord
340
11DA
  0
XRECORD
  5
1AF5
102
{ACAD_REACTORS
330
1AEF
102
}
330
1AEF
100
AcDbXrecord
340
11DB
  0
XRECORD
  5
1AF6
102
{ACAD_REACTORS
330
1AEF
102
}
330
1AEF
100
AcDbXrecord
340
11D8
  0
XRECORD
  5
1AF7
102
{ACAD_REACTORS
330
1AEF
102
}
330
1AEF
100
AcDbXrecord
 90
    10781
  0
XRECORD
  5
1AF8
102
{ACAD_REACTORS
330
1AEF
102
}
330
1AEF
100
AcDbXrecord
 90
        0
  0
XRECORD
  5
1AF9
102
{ACAD_REACTORS
330
1AEF
102
}
330
1AEF
100
AcDbXrecord
 90
        0
  0
XRECORD
  5
1AFA
102
{ACAD_REACTORS
330
1AEF
102
}
330
1AEF
100
AcDbXrecord
  1
{E1832D66-A93C-11D5-932D-0050DA99388B}
  0
XRECORD
  5
1AFB
102
{ACAD_REACTORS
330
1AEF
102
}
330
1AEF
100
AcDbXrecord
  1
{B5C388B8-5163-4846-AB2A-27E521592616}
  0
XRECORD
  5
1AFC
102
{ACAD_REACTORS
330
1AEF
102
}
330
1AEF
100
AcDbXrecord
 40
0.0
  0
XRECORD
  5
1AFD
102
{ACAD_REACTORS
330
1AEF
102
}
330
1AEF
100
AcDbXrecord
1000
DSTYLE
1002
{
1070
   341
340
27
1070
   343
340
27
1070
   344
340
27
1070
   371
 70
    -1
1070
   372
 70
    -1
1002
}
  0
XRECORD
  5
1AFE
102
{ACAD_REACTORS
330
1AEF
102
}
330
1AEF
100
AcDbXrecord
340
0
  0
XRECORD
  5
1AFF
102
{ACAD_REACTORS
330
1AEF
102
}
330
1AEF
100
AcDbXrecord
 70
     0
  0
XRECORD
  5
1B00
102
{ACAD_REACTORS
330
1AEF
102
}
330
1AEF
100
AcDbXrecord
340
0
  0
XRECORD
  5
1B01
102
{ACAD_REACTORS
330
1AEF
102
}
330
1AEF
100
AcDbXrecord
 10
0.0
 20
0.0
 30
0.0
  0
XRECORD
  5
1B02
102
{ACAD_REACTORS
330
1AEF
102
}
330
1AEF
100
AcDbXrecord
 10
0.0
 20
0.0
 30
0.0
  0
XRECORD
  5
1B03
102
{ACAD_REACTORS
330
1AEF
102
}
330
1AEF
100
AcDbXrecord
 10
0.0
 20
0.0
 30
0.0
  0
XRECORD
  5
1B04
102
{ACAD_REACTORS
330
1AEF
102
}
330
1AEF
100
AcDbXrecord
 10
0.0
 20
0.0
 30
0.0
  0
XRECORD
  5
1B05
102
{ACAD_REACTORS
330
1AEF
102
}
330
1AEF
100
AcDbXrecord
 10
0.0
 20
0.0
 30
0.0
  0
XRECORD
  5
1B06
102
{ACAD_REACTORS
330
1AEF
102
}
330
1AEF
100
AcDbXrecord
 10
0.0
 20
0.0
 30
0.0
  0
XRECORD
  5
1B07
102
{ACAD_REACTORS
330
1AEF
102
}
330
1AEF
100
AcDbXrecord
340
0
  0
XRECORD
  5
1B08
102
{ACAD_REACTORS
330
1AEF
102
}
330
1AEF
100
AcDbXrecord
 70
     0
  0
XRECORD
  5
1B09
102
{ACAD_REACTORS
330
1AEF
102
}
330
1AEF
100
AcDbXrecord
340
0
  0
XRECORD
  5
1B0A
102
{ACAD_REACTORS
330
1AEF
102
}
330
1AEF
100
AcDbXrecord
 10
0.0
 20
0.0
 30
0.0
  0
XRECORD
  5
1B0B
102
{ACAD_REACTORS
330
1AEF
102
}
330
1AEF
100
AcDbXrecord
 10
0.0
 20
0.0
 30
0.0
  0
XRECORD
  5
1B0C
102
{ACAD_REACTORS
330
1AEF
102
}
330
1AEF
100
AcDbXrecord
 10
0.0
 20
0.0
 30
0.0
  0
XRECORD
  5
1B0D
102
{ACAD_REACTORS
330
1AEF
102
}
330
1AEF
100
AcDbXrecord
 10
0.0
 20
0.0
 30
0.0
  0
XRECORD
  5
1B0E
102
{ACAD_REACTORS
330
1AEF
102
}
330
1AEF
100
AcDbXrecord
 10
0.0
 20
0.0
 30
0.0
  0
XRECORD
  5
1B0F
102
{ACAD_REACTORS
330
1AEF
102
}
330
1AEF
100
AcDbXrecord
 10
0.0
 20
0.0
 30
0.0
  0
ENDSEC
  0
EOF
