  0
SECTION
  2
HEADER
  9
$ACADVER
  1
AC1014
  9
$ACADMAINTVER
 70
     9
  9
$DWGCODEPAGE
  3
ANSI_932
  9
$INSBASE
 10
0.0
 20
0.0
 30
0.0
  9
$EXTMIN
 10
-0.064077134533818
 20
-0.045311687991898
 30
-0.000000000000013
  9
$EXTMAX
 10
797.6622489505002
 20
551.6432960943491
 30
0.0000000000000023
  9
$LIMMIN
 10
0.0
 20
0.0
  9
$LIMMAX
 10
840.0
 20
594.0
  9
$ORTHOMODE
 70
     0
  9
$REGENMODE
 70
     1
  9
$FILLMODE
 70
     1
  9
$QTEXTMODE
 70
     0
  9
$MIRRTEXT
 70
     1
  9
$DRAGMODE
 70
     2
  9
$LTSCALE
 40
2.0
  9
$OSMODE
 70
    35
  9
$ATTMODE
 70
     1
  9
$TEXTSIZE
 40
5.0
  9
$TRACEWID
 40
1.0
  9
$TEXTSTYLE
  7
STANDARD
  9
$CLAYER
  8
SUNPOU
  9
$CELTYPE
  6
BYLAYER
  9
$CECOLOR
 62
   256
  9
$CELTSCALE
 40
1.0
  9
$DELOBJ
 70
     1
  9
$DISPSILH
 70
     0
  9
$DIMSCALE
 40
1.0
  9
$DIMASZ
 40
7.0
  9
$DIMEXO
 40
6.0
  9
$DIMDLI
 40
14.0
  9
$DIMRND
 40
0.0
  9
$DIMDLE
 40
0.0
  9
$DIMEXE
 40
3.0
  9
$DIMTP
 40
0.0
  9
$DIMTM
 40
0.0
  9
$DIMTXT
 40
6.0
  9
$DIMCEN
 40
150.0
  9
$DIMTSZ
 40
0.0
  9
$DIMTOL
 70
     0
  9
$DIMLIM
 70
     0
  9
$DIMTIH
 70
     0
  9
$DIMTOH
 70
     0
  9
$DIMSE1
 70
     0
  9
$DIMSE2
 70
     0
  9
$DIMTAD
 70
     3
  9
$DIMZIN
 70
     0
  9
$DIMBLK
  1

  9
$DIMASO
 70
     1
  9
$DIMSHO
 70
     1
  9
$DIMPOST
  1

  9
$DIMAPOST
  1

  9
$DIMALT
 70
     0
  9
$DIMALTD
 70
     2
  9
$DIMALTF
 40
25.4
  9
$DIMLFAC
 40
1.0
  9
$DIMTOFL
 70
     1
  9
$DIMTVP
 40
0.0
  9
$DIMTIX
 70
     0
  9
$DIMSOXD
 70
     0
  9
$DIMSAH
 70
     1
  9
$DIMBLK1
  1
OPEN
  9
$DIMBLK2
  1
OPEN
  9
$DIMSTYLE
  2
STANDARD
  9
$DIMCLRD
 70
   256
  9
$DIMCLRE
 70
   256
  9
$DIMCLRT
 70
     4
  9
$DIMTFAC
 40
1.0
  9
$DIMGAP
 40
2.0
  9
$DIMJUST
 70
     0
  9
$DIMSD1
 70
     0
  9
$DIMSD2
 70
     0
  9
$DIMTOLJ
 70
     1
  9
$DIMTZIN
 70
     0
  9
$DIMALTZ
 70
     0
  9
$DIMALTTZ
 70
     0
  9
$DIMFIT
 70
     3
  9
$DIMUPT
 70
     0
  9
$DIMUNIT
 70
     2
  9
$DIMDEC
 70
     0
  9
$DIMTDEC
 70
     0
  9
$DIMALTU
 70
     2
  9
$DIMALTTD
 70
     2
  9
$DIMTXSTY
  7
STANDARD
  9
$DIMAUNIT
 70
     0
  9
$LUNITS
 70
     2
  9
$LUPREC
 70
     4
  9
$SKETCHINC
 40
1.0
  9
$FILLETRAD
 40
20.0
  9
$AUNITS
 70
     0
  9
$AUPREC
 70
     0
  9
$MENU
  1
.
  9
$ELEVATION
 40
0.0
  9
$PELEVATION
 40
0.0
  9
$THICKNESS
 40
0.0
  9
$LIMCHECK
 70
     0
  9
$BLIPMODE
 70
     0
  9
$CHAMFERA
 40
20.0
  9
$CHAMFERB
 40
20.0
  9
$CHAMFERC
 40
40.0
  9
$CHAMFERD
 40
0.0
  9
$SKPOLY
 70
     0
  9
$TDCREATE
 40
2451047.417040625
  9
$TDUPDATE
 40
2453507.426070058
  9
$TDINDWG
 40
0.0249525231
  9
$TDUSRTIMER
 40
0.0249525231
  9
$USRTIMER
 70
     1
  9
$ANGBASE
 50
0.0
  9
$ANGDIR
 70
     0
  9
$PDMODE
 70
     0
  9
$PDSIZE
 40
0.0
  9
$PLINEWID
 40
0.0
  9
$COORDS
 70
     1
  9
$SPLFRAME
 70
     0
  9
$SPLINETYPE
 70
     6
  9
$SPLINESEGS
 70
     8
  9
$ATTDIA
 70
     0
  9
$ATTREQ
 70
     1
  9
$HANDLING
 70
 10241
  9
$HANDSEED
  5
10ED
  9
$SURFTAB1
 70
     6
  9
$SURFTAB2
 70
     6
  9
$SURFTYPE
 70
     6
  9
$SURFU
 70
     6
  9
$SURFV
 70
     6
  9
$UCSNAME
  2

  9
$UCSORG
 10
0.0
 20
0.0
 30
0.0
  9
$UCSXDIR
 10
1.0
 20
0.0
 30
0.0
  9
$UCSYDIR
 10
0.0
 20
1.0
 30
0.0
  9
$PUCSNAME
  2

  9
$PUCSORG
 10
0.0
 20
0.0
 30
0.0
  9
$PUCSXDIR
 10
1.0
 20
0.0
 30
0.0
  9
$PUCSYDIR
 10
0.0
 20
1.0
 30
0.0
  9
$USERI1
 70
     0
  9
$USERI2
 70
     0
  9
$USERI3
 70
     0
  9
$USERI4
 70
     0
  9
$USERI5
 70
     0
  9
$USERR1
 40
0.0
  9
$USERR2
 40
0.0
  9
$USERR3
 40
0.0
  9
$USERR4
 40
0.0
  9
$USERR5
 40
0.0
  9
$WORLDVIEW
 70
     1
  9
$SHADEDGE
 70
     3
  9
$SHADEDIF
 70
    70
  9
$TILEMODE
 70
     1
  9
$MAXACTVP
 70
    16
  9
$PINSBASE
 10
0.0
 20
0.0
 30
0.0
  9
$PLIMCHECK
 70
     0
  9
$PEXTMIN
 10
0.0
 20
0.0
 30
0.0
  9
$PEXTMAX
 10
420.0
 20
297.0
 30
0.0
  9
$PLIMMIN
 10
0.0
 20
0.0
  9
$PLIMMAX
 10
420.0
 20
297.0
  9
$UNITMODE
 70
     0
  9
$VISRETAIN
 70
     0
  9
$PLINEGEN
 70
     0
  9
$PSLTSCALE
 70
     1
  9
$TREEDEPTH
 70
  3020
  9
$PICKSTYLE
 70
     1
  9
$CMLSTYLE
  2
STANDARD
  9
$CMLJUST
 70
     0
  9
$CMLSCALE
 40
1.0
  9
$PROXYGRAPHICS
 70
     1
  9
$MEASUREMENT
 70
     1
  0
ENDSEC
  0
SECTION
  2
CLASSES
  0
CLASS
  1
ACDBDICTIONARYWDFLT
  2
AcDbDictionaryWithDefault
  3
AutoCAD 2000
 90
        0
280
     0
281
     0
  0
CLASS
  1
ACDBPLACEHOLDER
  2
AcDbPlaceHolder
  3
AutoCAD 2000
 90
        0
280
     0
281
     0
  0
CLASS
  1
LAYOUT
  2
AcDbLayout
  3
AutoCAD 2000
 90
        0
280
     0
281
     0
  0
CLASS
  1
LONG_TRANSACTION
  2
AcDbLongTransaction
  3
AutoCAD 2000
 90
        0
280
     0
281
     0
  0
CLASS
  1
LWPOLYLINE
  2
AcDbPolyline
  3
AutoCAD 2000
 90
        0
280
     0
281
     1
  0
CLASS
  1
HATCH
  2
AcDbHatch
  3
AutoCAD 2000
 90
        0
280
     0
281
     1
  0
CLASS
  1
XRECORD
  2
AcDbXrecord
  3
AutoCAD 2000
 90
        0
280
     0
281
     0
  0
CLASS
  1
LONG_TRANSACTION
  2
AcDbLongTransaction
  3
AutoCAD 2000
 90
        0
280
     0
281
     0
  0
CLASS
  1
LWPOLYLINE
  2
AcDbPolyline
  3
AutoCAD 2000
 90
        0
280
     0
281
     1
  0
CLASS
  1
HATCH
  2
AcDbHatch
  3
AutoCAD 2000
 90
        0
280
     0
281
     1
  0
CLASS
  1
XRECORD
  2
AcDbXrecord
  3
AutoCAD 2000
 90
        0
280
     0
281
     0
  0
CLASS
  1
LONG_TRANSACTION
  2
AcDbLongTransaction
  3
AutoCAD 2000
 90
        0
280
     0
281
     0
  0
CLASS
  1
LWPOLYLINE
  2
AcDbPolyline
  3
AutoCAD 2000
 90
        0
280
     0
281
     1
  0
CLASS
  1
HATCH
  2
AcDbHatch
  3
AutoCAD 2000
 90
        0
280
     0
281
     1
  0
CLASS
  1
XRECORD
  2
AcDbXrecord
  3
AutoCAD 2000
 90
        0
280
     0
281
     0
  0
CLASS
  1
LONG_TRANSACTION
  2
AcDbLongTransaction
  3
AutoCAD 2000
 90
        0
280
     0
281
     0
  0
CLASS
  1
LWPOLYLINE
  2
AcDbPolyline
  3
AutoCAD 2000
 90
        0
280
     0
281
     1
  0
CLASS
  1
HATCH
  2
AcDbHatch
  3
AutoCAD 2000
 90
        0
280
     0
281
     1
  0
CLASS
  1
XRECORD
  2
AcDbXrecord
  3
AutoCAD 2000
 90
        0
280
     0
281
     0
  0
ENDSEC
  0
SECTION
  2
TABLES
  0
TABLE
  2
VPORT
  5
8
330
0
100
AcDbSymbolTable
 70
     2
  0
VPORT
  5
106F
330
8
100
AcDbSymbolTableRecord
100
AcDbViewportTableRecord
  2
*ACTIVE
 70
     0
 10
0.0
 20
0.0
 11
1.0
 21
1.0
 12
413.3197450505804
 22
288.1050308237229
 13
0.0
 23
0.0
 14
5.0
 24
5.0
 15
0.0
 25
0.0
 16
0.0
 26
0.0
 36
1.0
 17
0.0
 27
0.0
 37
0.0
 40
600.6031317748643
 41
1.752310536044362
 42
50.0
 43
0.0
 44
0.0
 50
0.0
 51
0.0
 71
     0
 72
   100
 73
     1
 74
     0
 75
     0
 76
     0
 77
     0
 78
     0
  0
ENDTAB
  0
TABLE
  2
LTYPE
  5
5
330
0
100
AcDbSymbolTable
 70
     2
  0
LTYPE
  5
14
330
5
100
AcDbSymbolTableRecord
100
AcDbLinetypeTableRecord
  2
BYBLOCK
 70
     0
  3

 72
    65
 73
     0
 40
0.0
  0
LTYPE
  5
15
330
5
100
AcDbSymbolTableRecord
100
AcDbLinetypeTableRecord
  2
BYLAYER
 70
     0
  3

 72
    65
 73
     0
 40
0.0
  0
LTYPE
  5
16
330
5
100
AcDbSymbolTableRecord
100
AcDbLinetypeTableRecord
  2
CONTINUOUS
 70
     0
  3
Solid line
 72
    65
 73
     0
 40
0.0
  0
LTYPE
  5
135
330
5
100
AcDbSymbolTableRecord
100
AcDbLinetypeTableRecord
  2
CENTER
 70
     0
  3
____ _ ____ _ ____ _ ____ _ ____ _ ____ _ ____ 
 72
    65
 73
     4
 40
2.0
 49
1.25
 74
     0
 49
-0.25
 74
     0
 49
0.25
 74
     0
 49
-0.25
 74
     0
  0
ENDTAB
  0
TABLE
  2
LAYER
  5
2
330
0
100
AcDbSymbolTable
 70
     8
  0
LAYER
  5
F
330
2
100
AcDbSymbolTableRecord
100
AcDbLayerTableRecord
  2
0
 70
     0
 62
     7
  6
CONTINUOUS
  0
LAYER
  5
62
330
2
100
AcDbSymbolTableRecord
100
AcDbLayerTableRecord
  2
VIEWPORT
 70
     0
 62
     7
  6
CONTINUOUS
  0
LAYER
  5
65
330
2
100
AcDbSymbolTableRecord
100
AcDbLayerTableRecord
  2
ZUWAKU
 70
     0
 62
     7
  6
CONTINUOUS
  0
LAYER
  5
1A5
330
2
100
AcDbSymbolTableRecord
100
AcDbLayerTableRecord
  2
DEFPOINTS
 70
     0
 62
     7
  6
CONTINUOUS
  0
LAYER
  5
1A6
330
2
100
AcDbSymbolTableRecord
100
AcDbLayerTableRecord
  2
SEIHIN
 70
     0
 62
     3
  6
CONTINUOUS
  0
LAYER
  5
1A7
330
2
100
AcDbSymbolTableRecord
100
AcDbLayerTableRecord
  2
CENTER_L
 70
     0
 62
     1
  6
CENTER
  0
LAYER
  5
1A8
330
2
100
AcDbSymbolTableRecord
100
AcDbLayerTableRecord
  2
SUNPOU
 70
     0
 62
     4
  6
CONTINUOUS
  0
LAYER
  5
9AC
330
2
100
AcDbSymbolTableRecord
100
AcDbLayerTableRecord
  2
MOJI
 70
     0
 62
     2
  6
CONTINUOUS
  0
ENDTAB
  0
TABLE
  2
STYLE
  5
3
330
0
100
AcDbSymbolTable
 70
     2
  0
STYLE
  5
10
330
3
100
AcDbSymbolTableRecord
100
AcDbTextStyleTableRecord
  2
STANDARD
 70
     0
 40
0.0
 41
1.0
 50
0.0
 71
     0
 42
5.0
  3
TXT
  4
bigfont.shx
  0
STYLE
  5
9AD
330
3
100
AcDbSymbolTableRecord
100
AcDbTextStyleTableRecord
  2
ｽﾀｲﾙ1
 70
     0
 40
0.0
 41
1.0
 50
0.0
 71
     0
 42
2.5
  3
MS PGothic.ttf
  4

1001
ACAD
1000
MS PGothic
1071
    32818
  0
ENDTAB
  0
TABLE
  2
VIEW
  5
6
330
0
100
AcDbSymbolTable
 70
     0
  0
ENDTAB
  0
TABLE
  2
UCS
  5
7
330
0
100
AcDbSymbolTable
 70
     0
  0
ENDTAB
  0
TABLE
  2
APPID
  5
9
330
0
100
AcDbSymbolTable
 70
     1
  0
APPID
  5
11
330
9
100
AcDbSymbolTableRecord
100
AcDbRegAppTableRecord
  2
ACAD
 70
     0
  0
ENDTAB
  0
TABLE
  2
DIMSTYLE
  5
A
330
0
100
AcDbSymbolTable
 70
     1
  0
DIMSTYLE
105
1D
102
{ACAD_REACTORS
330
D71
330
D6A
330
D01
330
E0A
330
E09
330
DD8
330
CEF
330
CEE
330
D02
330
CED
102
}
330
A
100
AcDbSymbolTableRecord
100
AcDbDimStyleTableRecord
  2
STANDARD
 70
     0
  3

  4

  5

  6

  7

 40
1.0
 41
0.18
 42
0.0625
 43
0.38
 44
0.18
 45
0.0
 46
0.0
 47
0.0
 48
0.0
140
0.18
141
0.09
142
0.0
143
25.4
144
1.0
145
0.0
146
1.0
147
0.09
 71
     0
 72
     0
 73
     1
 74
     1
 75
     0
 76
     0
 77
     0
 78
     0
170
     0
171
     2
172
     0
173
     0
174
     0
175
     0
176
     0
177
     0
178
     0
270
     2
271
     4
272
     4
273
     2
274
     2
340
10
275
     0
280
     0
281
     0
282
     0
283
     1
284
     0
285
     0
286
     0
287
     3
288
     0
  0
ENDTAB
  0
TABLE
  2
BLOCK_RECORD
  5
1
330
0
100
AcDbSymbolTable
 70
    11
  0
BLOCK_RECORD
  5
1A
102
{ACAD_XDICTIONARY
360
7B6
102
}
330
1
100
AcDbSymbolTableRecord
100
AcDbBlockTableRecord
  2
*MODEL_SPACE
  0
BLOCK_RECORD
  5
17
102
{ACAD_XDICTIONARY
360
7B4
102
}
330
1
100
AcDbSymbolTableRecord
100
AcDbBlockTableRecord
  2
*PAPER_SPACE
  0
BLOCK_RECORD
  5
6D
330
1
100
AcDbSymbolTableRecord
100
AcDbBlockTableRecord
  2
_OPEN
  0
BLOCK_RECORD
  5
E22
330
1
100
AcDbSymbolTableRecord
100
AcDbBlockTableRecord
  2
*D1
  0
BLOCK_RECORD
  5
E2E
330
1
100
AcDbSymbolTableRecord
100
AcDbBlockTableRecord
  2
*D2
  0
BLOCK_RECORD
  5
E3A
330
1
100
AcDbSymbolTableRecord
100
AcDbBlockTableRecord
  2
*D3
  0
BLOCK_RECORD
  5
E46
330
1
100
AcDbSymbolTableRecord
100
AcDbBlockTableRecord
  2
*D4
  0
BLOCK_RECORD
  5
E52
330
1
100
AcDbSymbolTableRecord
100
AcDbBlockTableRecord
  2
*D5
  0
BLOCK_RECORD
  5
E5E
330
1
100
AcDbSymbolTableRecord
100
AcDbBlockTableRecord
  2
*D6
  0
BLOCK_RECORD
  5
E6A
330
1
100
AcDbSymbolTableRecord
100
AcDbBlockTableRecord
  2
*D7
  0
BLOCK_RECORD
  5
E76
330
1
100
AcDbSymbolTableRecord
100
AcDbBlockTableRecord
  2
*D8
  0
BLOCK_RECORD
  5
E82
330
1
100
AcDbSymbolTableRecord
100
AcDbBlockTableRecord
  2
*D9
  0
BLOCK_RECORD
  5
E8E
330
1
100
AcDbSymbolTableRecord
100
AcDbBlockTableRecord
  2
*D10
  0
ENDTAB
  0
ENDSEC
  0
SECTION
  2
BLOCKS
  0
BLOCK
  5
1B
330
1A
100
AcDbEntity
  8
0
100
AcDbBlockBegin
  2
*MODEL_SPACE
 70
     0
 10
0.0
 20
0.0
 30
0.0
  3
*MODEL_SPACE
  1

  0
ENDBLK
  5
1C
330
1A
100
AcDbEntity
  8
0
100
AcDbBlockEnd
  0
BLOCK
  5
18
330
17
100
AcDbEntity
 67
     1
  8
0
100
AcDbBlockBegin
  2
*PAPER_SPACE
 70
     0
 10
0.0
 20
0.0
 30
0.0
  3
*PAPER_SPACE
  1

  0
ENDBLK
  5
19
330
17
100
AcDbEntity
 67
     1
  8
0
100
AcDbBlockEnd
  0
BLOCK
  5
6E
330
6D
100
AcDbEntity
  8
0
100
AcDbBlockBegin
  2
_OPEN
 70
     0
 10
0.0
 20
0.0
 30
0.0
  3
_OPEN
  1

  0
LINE
  5
6F
330
6D
100
AcDbEntity
  8
0
  6
BYBLOCK
 62
     0
100
AcDbLine
 10
-1.0
 20
0.1666666666666666
 30
0.0
 11
0.0
 21
0.0
 31
0.0
  0
LINE
  5
70
330
6D
100
AcDbEntity
  8
0
  6
BYBLOCK
 62
     0
100
AcDbLine
 10
0.0
 20
0.0
 30
0.0
 11
-1.0
 21
-0.1666666666666666
 31
0.0
  0
LINE
  5
71
330
6D
100
AcDbEntity
  8
0
  6
BYBLOCK
 62
     0
100
AcDbLine
 10
0.0
 20
0.0
 30
0.0
 11
-1.0
 21
0.0
 31
0.0
  0
ENDBLK
  5
72
330
6D
100
AcDbEntity
  8
0
100
AcDbBlockEnd
  0
BLOCK
  5
E2C
330
E22
100
AcDbEntity
  8
0
100
AcDbBlockBegin
  2
*D1
 70
     1
 10
0.0
 20
0.0
 30
0.0
  3
*D1
  1

  0
LINE
  5
1093
330
E22
100
AcDbEntity
  8
SUNPOU
100
AcDbLine
 10
523.734277292267
 20
64.03064146197767
 30
0.0
 11
523.734277292267
 21
43.76919998772746
 31
0.0
  0
LINE
  5
1094
330
E22
100
AcDbEntity
  8
SUNPOU
100
AcDbLine
 10
424.0228903899178
 20
64.00822416303412
 30
0.0
 11
424.0228903899178
 21
43.76919998772746
 31
0.0
  0
LINE
  5
1095
330
E22
100
AcDbEntity
  8
SUNPOU
100
AcDbLine
 10
516.734277292267
 20
46.76919998772746
 30
0.0
 11
431.0228903899179
 21
46.76919998772746
 31
0.0
  0
INSERT
  5
1096
330
E22
100
AcDbEntity
  8
SUNPOU
100
AcDbBlockReference
  2
_OPEN
 10
523.734277292267
 20
46.76919998772746
 30
0.0
 41
7.0
 42
7.0
 43
7.0
  0
INSERT
  5
1097
330
E22
100
AcDbEntity
  8
SUNPOU
100
AcDbBlockReference
  2
_OPEN
 10
424.0228903899178
 20
46.76919998772746
 30
0.0
 41
7.0
 42
7.0
 43
7.0
 50
180.0
  0
MTEXT
  5
1098
330
E22
100
AcDbEntity
  8
SUNPOU
100
AcDbMText
 10
473.8785838410924
 20
51.76919998772746
 30
0.0
 40
6.0
 41
0.0
 71
     5
 72
     1
  1
\A1;100
  0
POINT
  5
1099
330
E22
100
AcDbEntity
  8
DEFPOINTS
 62
     0
100
AcDbPoint
 10
523.734277292267
 20
70.03064146197766
 30
0.0
  0
POINT
  5
109A
330
E22
100
AcDbEntity
  8
DEFPOINTS
 62
     0
100
AcDbPoint
 10
424.0228903899178
 20
70.00822416303413
 30
0.0
  0
POINT
  5
109B
330
E22
100
AcDbEntity
  8
DEFPOINTS
 62
     0
100
AcDbPoint
 10
424.0228903899178
 20
46.76919998772746
 30
0.0
  0
ENDBLK
  5
E2D
330
E22
100
AcDbEntity
  8
0
100
AcDbBlockEnd
  0
BLOCK
  5
E38
330
E2E
100
AcDbEntity
  8
0
100
AcDbBlockBegin
  2
*D2
 70
     1
 10
0.0
 20
0.0
 30
0.0
  3
*D2
  1

  0
LINE
  5
109C
330
E2E
100
AcDbEntity
  8
SUNPOU
100
AcDbLine
 10
527.736198825798
 20
160.4424099511162
 30
0.0
 11
527.736198825798
 21
245.6971122509685
 31
0.0
  0
LINE
  5
109D
330
E2E
100
AcDbEntity
  8
SUNPOU
100
AcDbLine
 10
289.9534338005981
 20
216.7066688680163
 30
0.0
 11
289.9534338005981
 21
245.6971122509685
 31
0.0
  0
LINE
  5
109E
330
E2E
100
AcDbEntity
  8
SUNPOU
100
AcDbLine
 10
520.736198825798
 20
242.6971122509685
 30
0.0
 11
296.9534338005981
 21
242.6971122509685
 31
0.0
  0
INSERT
  5
109F
330
E2E
100
AcDbEntity
  8
SUNPOU
100
AcDbBlockReference
  2
_OPEN
 10
527.736198825798
 20
242.6971122509685
 30
0.0
 41
7.0
 42
7.0
 43
7.0
  0
INSERT
  5
10A0
330
E2E
100
AcDbEntity
  8
SUNPOU
100
AcDbBlockReference
  2
_OPEN
 10
289.9534338005981
 20
242.6971122509685
 30
0.0
 41
7.0
 42
7.0
 43
7.0
 50
180.0
  0
MTEXT
  5
10A1
330
E2E
100
AcDbEntity
  8
SUNPOU
100
AcDbMText
 10
408.8448163131981
 20
247.6971122509685
 30
0.0
 40
6.0
 41
0.0
 71
     5
 72
     1
  1
\A1;238
  0
POINT
  5
10A2
330
E2E
100
AcDbEntity
  8
DEFPOINTS
 62
     0
100
AcDbPoint
 10
527.736198825798
 20
154.4424099511162
 30
0.0
  0
POINT
  5
10A3
330
E2E
100
AcDbEntity
  8
DEFPOINTS
 62
     0
100
AcDbPoint
 10
289.9534338005981
 20
210.7066688680163
 30
0.0
  0
POINT
  5
10A4
330
E2E
100
AcDbEntity
  8
DEFPOINTS
 62
     0
100
AcDbPoint
 10
289.9534338005981
 20
242.6971122509685
 30
0.0
  0
ENDBLK
  5
E39
330
E2E
100
AcDbEntity
  8
0
100
AcDbBlockEnd
  0
BLOCK
  5
E44
330
E3A
100
AcDbEntity
  8
0
100
AcDbBlockBegin
  2
*D3
 70
     1
 10
0.0
 20
0.0
 30
0.0
  3
*D3
  1

  0
LINE
  5
10A5
330
E3A
100
AcDbEntity
  8
SUNPOU
100
AcDbLine
 10
359.9534338005982
 20
202.5077151752165
 30
0.0
 11
359.9534338005982
 21
230.5513038974911
 31
0.0
  0
LINE
  5
10A6
330
E3A
100
AcDbEntity
  8
SUNPOU
100
AcDbLine
 10
527.736198825798
 20
160.4424099511162
 30
0.0
 11
527.736198825798
 21
230.5513038974911
 31
0.0
  0
LINE
  5
10A7
330
E3A
100
AcDbEntity
  8
SUNPOU
100
AcDbLine
 10
366.9534338005981
 20
227.5513038974911
 30
0.0
 11
520.736198825798
 21
227.5513038974911
 31
0.0
  0
INSERT
  5
10A8
330
E3A
100
AcDbEntity
  8
SUNPOU
100
AcDbBlockReference
  2
_OPEN
 10
359.9534338005982
 20
227.5513038974911
 30
0.0
 41
7.0
 42
7.0
 43
7.0
 50
180.0
  0
INSERT
  5
10A9
330
E3A
100
AcDbEntity
  8
SUNPOU
100
AcDbBlockReference
  2
_OPEN
 10
527.736198825798
 20
227.5513038974911
 30
0.0
 41
7.0
 42
7.0
 43
7.0
  0
MTEXT
  5
10AA
330
E3A
100
AcDbEntity
  8
SUNPOU
100
AcDbMText
 10
443.844816313198
 20
232.5513038974911
 30
0.0
 40
6.0
 41
0.0
 71
     5
 72
     1
  1
\A1;168
  0
POINT
  5
10AB
330
E3A
100
AcDbEntity
  8
DEFPOINTS
 62
     0
100
AcDbPoint
 10
359.9534338005982
 20
196.5077151752165
 30
0.0
  0
POINT
  5
10AC
330
E3A
100
AcDbEntity
  8
DEFPOINTS
 62
     0
100
AcDbPoint
 10
527.736198825798
 20
154.4424099511162
 30
0.0
  0
POINT
  5
10AD
330
E3A
100
AcDbEntity
  8
DEFPOINTS
 62
     0
100
AcDbPoint
 10
527.736198825798
 20
227.5513038974911
 30
0.0
  0
ENDBLK
  5
E45
330
E3A
100
AcDbEntity
  8
0
100
AcDbBlockEnd
  0
BLOCK
  5
E50
330
E46
100
AcDbEntity
  8
0
100
AcDbBlockBegin
  2
*D4
 70
     1
 10
0.0
 20
0.0
 30
0.0
  3
*D4
  1

  0
LINE
  5
10AE
330
E46
100
AcDbEntity
  8
SUNPOU
100
AcDbLine
 10
289.4641631645981
 20
343.5579063178077
 30
0.0
 11
289.4641631645981
 21
260.2030276811335
 31
0.0
  0
LINE
  5
10AF
330
E46
100
AcDbEntity
  8
SUNPOU
100
AcDbLine
 10
359.4641631645981
 20
303.0525160160076
 30
0.0
 11
359.4641631645981
 21
260.2030276811335
 31
0.0
  0
LINE
  5
10B0
330
E46
100
AcDbEntity
  8
SUNPOU
100
AcDbLine
 10
296.4641631645981
 20
263.2030276811335
 30
0.0
 11
352.4641631645981
 21
263.2030276811335
 31
0.0
  0
INSERT
  5
10B1
330
E46
100
AcDbEntity
  8
SUNPOU
100
AcDbBlockReference
  2
_OPEN
 10
289.4641631645981
 20
263.2030276811335
 30
0.0
 41
7.0
 42
7.0
 43
7.0
 50
180.0
  0
INSERT
  5
10B2
330
E46
100
AcDbEntity
  8
SUNPOU
100
AcDbBlockReference
  2
_OPEN
 10
359.4641631645981
 20
263.2030276811335
 30
0.0
 41
7.0
 42
7.0
 43
7.0
  0
MTEXT
  5
10B3
330
E46
100
AcDbEntity
  8
SUNPOU
100
AcDbMText
 10
324.4641631645981
 20
268.2030276811335
 30
0.0
 40
6.0
 41
0.0
 71
     5
 72
     1
  1
\A1;70
  0
POINT
  5
10B4
330
E46
100
AcDbEntity
  8
DEFPOINTS
 62
     0
100
AcDbPoint
 10
289.4641631645981
 20
349.5579063178077
 30
0.0
  0
POINT
  5
10B5
330
E46
100
AcDbEntity
  8
DEFPOINTS
 62
     0
100
AcDbPoint
 10
359.4641631645981
 20
309.0525160160076
 30
0.0
  0
POINT
  5
10B6
330
E46
100
AcDbEntity
  8
DEFPOINTS
 62
     0
100
AcDbPoint
 10
359.4641631645981
 20
263.2030276811335
 30
0.0
  0
ENDBLK
  5
E51
330
E46
100
AcDbEntity
  8
0
100
AcDbBlockEnd
  0
BLOCK
  5
E5C
330
E52
100
AcDbEntity
  8
0
100
AcDbBlockBegin
  2
*D5
 70
     1
 10
0.0
 20
0.0
 30
0.0
  3
*D5
  1

  0
LINE
  5
10B7
330
E52
100
AcDbEntity
  8
SUNPOU
100
AcDbLine
 10
368.5292706781981
 20
210.5238246676162
 30
0.0
 11
219.4706284472545
 21
210.5238246676162
 31
0.0
  0
LINE
  5
10B8
330
E52
100
AcDbEntity
  8
SUNPOU
100
AcDbLine
 10
314.9480434987981
 20
68.7791918704163
 30
0.0
 11
219.4706284472545
 21
68.77919187041633
 31
0.0
  0
LINE
  5
10B9
330
E52
100
AcDbEntity
  8
SUNPOU
100
AcDbLine
 10
222.4706284472545
 20
203.5238246676163
 30
0.0
 11
222.4706284472545
 21
75.77919187041633
 31
0.0
  0
INSERT
  5
10BA
330
E52
100
AcDbEntity
  8
SUNPOU
100
AcDbBlockReference
  2
_OPEN
 10
222.4706284472545
 20
210.5238246676162
 30
0.0
 41
7.0
 42
7.0
 43
7.0
 50
90.0
  0
INSERT
  5
10BB
330
E52
100
AcDbEntity
  8
SUNPOU
100
AcDbBlockReference
  2
_OPEN
 10
222.4706284472545
 20
68.77919187041633
 30
0.0
 41
7.0
 42
7.0
 43
7.0
 50
270.0
  0
MTEXT
  5
10BC
330
E52
100
AcDbEntity
  8
SUNPOU
100
AcDbMText
 10
217.4706284472545
 20
139.6515082690163
 30
0.0
 40
6.0
 41
0.0
 71
     5
 72
     1
  1
\A1;{141}
 11
0.0000000000000001
 21
1.0
 31
0.0
  0
POINT
  5
10BD
330
E52
100
AcDbEntity
  8
DEFPOINTS
 62
     0
100
AcDbPoint
 10
374.5292706781981
 20
210.5238246676162
 30
0.0
  0
POINT
  5
10BE
330
E52
100
AcDbEntity
  8
DEFPOINTS
 62
     0
100
AcDbPoint
 10
320.9480434987981
 20
68.7791918704163
 30
0.0
  0
POINT
  5
10BF
330
E52
100
AcDbEntity
  8
DEFPOINTS
 62
     0
100
AcDbPoint
 10
222.4706284472545
 20
68.77919187041633
 30
0.0
  0
ENDBLK
  5
E5D
330
E52
100
AcDbEntity
  8
0
100
AcDbBlockEnd
  0
BLOCK
  5
E68
330
E5E
100
AcDbEntity
  8
0
100
AcDbBlockBegin
  2
*D6
 70
     1
 10
0.0
 20
0.0
 30
0.0
  3
*D6
  1

  0
LINE
  5
10C0
330
E5E
100
AcDbEntity
  8
SUNPOU
100
AcDbLine
 10
323.4641631645981
 20
516.1071172416076
 30
0.0
 11
199.1092509033802
 21
516.1071172416077
 31
0.0
  0
LINE
  5
10C1
330
E5E
100
AcDbEntity
  8
SUNPOU
100
AcDbLine
 10
354.9641631645982
 20
278.0579063178076
 30
0.0
 11
199.1092509033801
 21
278.0579063178076
 31
0.0
  0
LINE
  5
10C2
330
E5E
100
AcDbEntity
  8
SUNPOU
100
AcDbLine
 10
202.1092509033802
 20
509.1071172416077
 30
0.0
 11
202.1092509033801
 21
285.0579063178077
 31
0.0
  0
INSERT
  5
10C3
330
E5E
100
AcDbEntity
  8
SUNPOU
100
AcDbBlockReference
  2
_OPEN
 10
202.1092509033802
 20
516.1071172416077
 30
0.0
 41
7.0
 42
7.0
 43
7.0
 50
90.0
  0
INSERT
  5
10C4
330
E5E
100
AcDbEntity
  8
SUNPOU
100
AcDbBlockReference
  2
_OPEN
 10
202.1092509033801
 20
278.0579063178076
 30
0.0
 41
7.0
 42
7.0
 43
7.0
 50
270.0
  0
MTEXT
  5
10C5
330
E5E
100
AcDbEntity
  8
SUNPOU
100
AcDbMText
 10
197.1092509033801
 20
397.0825117797076
 30
0.0
 40
6.0
 41
0.0
 71
     5
 72
     1
  1
\A1;238
 11
0.0000000000000001
 21
1.0
 31
0.0
  0
POINT
  5
10C6
330
E5E
100
AcDbEntity
  8
DEFPOINTS
 62
     0
100
AcDbPoint
 10
329.4641631645981
 20
516.1071172416076
 30
0.0
  0
POINT
  5
10C7
330
E5E
100
AcDbEntity
  8
DEFPOINTS
 62
     0
100
AcDbPoint
 10
360.9641631645981
 20
278.0579063178076
 30
0.0
  0
POINT
  5
10C8
330
E5E
100
AcDbEntity
  8
DEFPOINTS
 62
     0
100
AcDbPoint
 10
202.1092509033801
 20
278.0579063178076
 30
0.0
  0
ENDBLK
  5
E69
330
E5E
100
AcDbEntity
  8
0
100
AcDbBlockEnd
  0
BLOCK
  5
E74
330
E6A
100
AcDbEntity
  8
0
100
AcDbBlockBegin
  2
*D7
 70
     1
 10
0.0
 20
0.0
 30
0.0
  3
*D7
  1

  0
LINE
  5
10C9
330
E6A
100
AcDbEntity
  8
SUNPOU
100
AcDbLine
 10
354.9641631645982
 20
278.0579063178076
 30
0.0
 11
228.7070765659659
 21
278.0579063178076
 31
0.0
  0
LINE
  5
10CA
330
E6A
100
AcDbEntity
  8
SUNPOU
100
AcDbLine
 10
308.4668540811839
 20
348.1476841946893
 30
0.0
 11
228.7070765659659
 21
348.1476841946893
 31
0.0
  0
LINE
  5
10CB
330
E6A
100
AcDbEntity
  8
SUNPOU
100
AcDbLine
 10
231.7070765659659
 20
285.0579063178077
 30
0.0
 11
231.7070765659659
 21
341.1476841946893
 31
0.0
  0
INSERT
  5
10CC
330
E6A
100
AcDbEntity
  8
SUNPOU
100
AcDbBlockReference
  2
_OPEN
 10
231.7070765659659
 20
278.0579063178076
 30
0.0
 41
7.0
 42
7.0
 43
7.0
 50
270.0
  0
INSERT
  5
10CD
330
E6A
100
AcDbEntity
  8
SUNPOU
100
AcDbBlockReference
  2
_OPEN
 10
231.7070765659659
 20
348.1476841946893
 30
0.0
 41
7.0
 42
7.0
 43
7.0
 50
90.0
  0
MTEXT
  5
10CE
330
E6A
100
AcDbEntity
  8
SUNPOU
100
AcDbMText
 10
226.7070765659659
 20
313.1027952562485
 30
0.0
 40
6.0
 41
0.0
 71
     5
 72
     1
  1
\A1;70
 11
0.0000000000000001
 21
1.0
 31
0.0
  0
POINT
  5
10CF
330
E6A
100
AcDbEntity
  8
DEFPOINTS
 62
     0
100
AcDbPoint
 10
360.9641631645981
 20
278.0579063178076
 30
0.0
  0
POINT
  5
10D0
330
E6A
100
AcDbEntity
  8
DEFPOINTS
 62
     0
100
AcDbPoint
 10
314.4668540811839
 20
348.1476841946893
 30
0.0
  0
POINT
  5
10D1
330
E6A
100
AcDbEntity
  8
DEFPOINTS
 62
     0
100
AcDbPoint
 10
231.7070765659659
 20
348.1476841946893
 30
0.0
  0
ENDBLK
  5
E75
330
E6A
100
AcDbEntity
  8
0
100
AcDbBlockEnd
  0
BLOCK
  5
E80
330
E76
100
AcDbEntity
  8
0
100
AcDbBlockBegin
  2
*D8
 70
     1
 10
0.0
 20
0.0
 30
0.0
  3
*D8
  1

  0
LINE
  5
10D2
330
E76
100
AcDbEntity
  8
SUNPOU
100
AcDbLine
 10
528.7418081818814
 20
159.6791918704162
 30
0.0
 11
590.2304360306138
 21
159.6791918704162
 31
0.0
  0
LINE
  5
10D3
330
E76
100
AcDbEntity
  8
SUNPOU
100
AcDbLine
 10
479.6534338005981
 20
68.86593984344926
 30
0.0
 11
590.2304360306138
 21
68.86593984344923
 31
0.0
  0
LINE
  5
10D4
330
E76
100
AcDbEntity
  8
SUNPOU
100
AcDbLine
 10
587.2304360306138
 20
152.6791918704162
 30
0.0
 11
587.2304360306138
 21
75.86593984344924
 31
0.0
  0
INSERT
  5
10D5
330
E76
100
AcDbEntity
  8
SUNPOU
100
AcDbBlockReference
  2
_OPEN
 10
587.2304360306138
 20
159.6791918704162
 30
0.0
 41
7.0
 42
7.0
 43
7.0
 50
90.0
  0
INSERT
  5
10D6
330
E76
100
AcDbEntity
  8
SUNPOU
100
AcDbBlockReference
  2
_OPEN
 10
587.2304360306138
 20
68.86593984344924
 30
0.0
 41
7.0
 42
7.0
 43
7.0
 50
270.0
  0
MTEXT
  5
10D7
330
E76
100
AcDbEntity
  8
SUNPOU
100
AcDbMText
 10
582.2304360306138
 20
114.2725658569328
 30
0.0
 40
6.0
 41
0.0
 71
     5
 72
     1
  1
\A1;91
 11
0.0000000000000001
 21
1.0
 31
0.0
  0
POINT
  5
10D8
330
E76
100
AcDbEntity
  8
DEFPOINTS
 62
     0
100
AcDbPoint
 10
522.7418081818814
 20
159.6791918704162
 30
0.0
  0
POINT
  5
10D9
330
E76
100
AcDbEntity
  8
DEFPOINTS
 62
     0
100
AcDbPoint
 10
473.6534338005981
 20
68.86593984344926
 30
0.0
  0
POINT
  5
10DA
330
E76
100
AcDbEntity
  8
DEFPOINTS
 62
     0
100
AcDbPoint
 10
587.2304360306138
 20
68.86593984344924
 30
0.0
  0
ENDBLK
  5
E81
330
E76
100
AcDbEntity
  8
0
100
AcDbBlockEnd
  0
BLOCK
  5
E8C
330
E82
100
AcDbEntity
  8
0
100
AcDbBlockBegin
  2
*D9
 70
     1
 10
0.0
 20
0.0
 30
0.0
  3
*D9
  1

  0
LINE
  5
10DB
330
E82
100
AcDbEntity
  8
SUNPOU
100
AcDbLine
 10
528.2862212491981
 20
322.0579063178076
 30
0.0
 11
566.395817898373
 21
322.0579063178076
 31
0.0
  0
LINE
  5
10DC
330
E82
100
AcDbEntity
  8
SUNPOU
100
AcDbLine
 10
532.0464306315982
 20
278.0579063178076
 30
0.0
 11
566.395817898373
 21
278.0579063178076
 31
0.0
  0
LINE
  5
10DD
330
E82
100
AcDbEntity
  8
SUNPOU
100
AcDbLine
 10
563.395817898373
 20
315.0579063178077
 30
0.0
 11
563.395817898373
 21
285.0579063178077
 31
0.0
  0
INSERT
  5
10DE
330
E82
100
AcDbEntity
  8
SUNPOU
100
AcDbBlockReference
  2
_OPEN
 10
563.395817898373
 20
322.0579063178076
 30
0.0
 41
7.0
 42
7.0
 43
7.0
 50
90.0
  0
INSERT
  5
10DF
330
E82
100
AcDbEntity
  8
SUNPOU
100
AcDbBlockReference
  2
_OPEN
 10
563.395817898373
 20
278.0579063178076
 30
0.0
 41
7.0
 42
7.0
 43
7.0
 50
270.0
  0
MTEXT
  5
10E0
330
E82
100
AcDbEntity
  8
SUNPOU
100
AcDbMText
 10
558.3958178983729
 20
300.0579063178077
 30
0.0
 40
6.0
 41
0.0
 71
     5
 72
     1
  1
\A1;※44
 11
0.0000000000000001
 21
1.0
 31
0.0
  0
POINT
  5
10E1
330
E82
100
AcDbEntity
  8
DEFPOINTS
 62
     0
100
AcDbPoint
 10
522.2862212491982
 20
322.0579063178076
 30
0.0
  0
POINT
  5
10E2
330
E82
100
AcDbEntity
  8
DEFPOINTS
 62
     0
100
AcDbPoint
 10
526.0464306315982
 20
278.0579063178076
 30
0.0
  0
POINT
  5
10E3
330
E82
100
AcDbEntity
  8
DEFPOINTS
 62
     0
100
AcDbPoint
 10
563.395817898373
 20
278.0579063178076
 30
0.0
  0
ENDBLK
  5
E8D
330
E82
100
AcDbEntity
  8
0
100
AcDbBlockEnd
  0
BLOCK
  5
E9A
330
E8E
100
AcDbEntity
  8
0
100
AcDbBlockBegin
  2
*D10
 70
     1
 10
0.0
 20
0.0
 30
0.0
  3
*D10
  1

  0
LINE
  5
10E4
330
E8E
100
AcDbEntity
  8
SUNPOU
100
AcDbLine
 10
489.6534338005981
 20
325.2652014681076
 30
0.0
 11
504.8741244331981
 21
325.2652014681076
 31
0.0
  0
LINE
  5
10E5
330
E8E
100
AcDbEntity
  8
SUNPOU
100
AcDbLine
 10
494.6948150657981
 20
307.0579063178076
 30
0.0
 11
504.8741244331981
 21
307.0579063178076
 31
0.0
  0
LINE
  5
10E6
330
E8E
100
AcDbEntity
  8
SUNPOU
100
AcDbLine
 10
501.8741244331981
 20
318.2652014681076
 30
0.0
 11
501.8741244331981
 21
314.0579063178076
 31
0.0
  0
INSERT
  5
10E7
330
E8E
100
AcDbEntity
  8
SUNPOU
100
AcDbBlockReference
  2
_OPEN
 10
501.8741244331981
 20
325.2652014681076
 30
0.0
 41
7.0
 42
7.0
 43
7.0
 50
90.0
  0
INSERT
  5
10E8
330
E8E
100
AcDbEntity
  8
SUNPOU
100
AcDbBlockReference
  2
_OPEN
 10
501.8741244331981
 20
307.0579063178076
 30
0.0
 41
7.0
 42
7.0
 43
7.0
 50
270.0
  0
MTEXT
  5
10E9
330
E8E
100
AcDbEntity
  8
SUNPOU
100
AcDbMText
 10
496.874124433198
 20
316.1615538929577
 30
0.0
 40
6.0
 41
0.0
 71
     5
 72
     1
  1
\A1;18
 11
0.0000000000000001
 21
1.0
 31
0.0
  0
POINT
  5
10EA
330
E8E
100
AcDbEntity
  8
DEFPOINTS
 62
     0
100
AcDbPoint
 10
483.6534338005981
 20
325.2652014681076
 30
0.0
  0
POINT
  5
10EB
330
E8E
100
AcDbEntity
  8
DEFPOINTS
 62
     0
100
AcDbPoint
 10
488.6948150657981
 20
307.0579063178076
 30
0.0
  0
POINT
  5
10EC
330
E8E
100
AcDbEntity
  8
DEFPOINTS
 62
     0
100
AcDbPoint
 10
501.8741244331981
 20
307.0579063178076
 30
0.0
  0
ENDBLK
  5
E9B
330
E8E
100
AcDbEntity
  8
0
100
AcDbBlockEnd
  0
ENDSEC
  0
SECTION
  2
ENTITIES
  0
TEXT
  5
47C
330
1A
100
AcDbEntity
  8
SUNPOU
  6
CONTINUOUS
 62
     4
100
AcDbText
 10
677.0260490057292
 20
38.46233979594222
 30
0.0
 40
6.0
  1
※　のきといの差込み寸法を示す
100
AcDbText
  0
LINE
  5
A68
330
1A
100
AcDbEntity
  8
ZUWAKU
100
AcDbLine
 10
208.646601303624
 20
15.19999986828872
 30
0.0
 11
447.4243639845474
 21
15.19999986828871
 31
0.0
  0
LINE
  5
A69
330
1A
100
AcDbEntity
  8
ZUWAKU
100
AcDbLine
 10
208.646601303624
 20
15.59999986828871
 30
0.0
 11
447.4243639845474
 21
15.59999986828872
 31
0.0
  0
LINE
  5
A6A
330
1A
100
AcDbEntity
  8
ZUWAKU
100
AcDbLine
 10
208.646601303624
 20
15.39999986828871
 30
0.0
 11
447.4243639845474
 21
15.39999986828871
 31
0.0
  0
LINE
  5
A6B
330
1A
100
AcDbEntity
  8
ZUWAKU
100
AcDbLine
 10
0.0000000135560185
 20
30.79999986828869
 30
0.0
 11
797.4000000135559
 21
30.79999986828869
 31
0.0
  0
LINE
  5
A6C
330
1A
100
AcDbEntity
  8
ZUWAKU
100
AcDbLine
 10
0.0000000135560185
 20
30.59999986828869
 30
0.0
 11
797.4000000135559
 21
30.59999986828869
 31
0.0
  0
LINE
  5
A6D
330
1A
100
AcDbEntity
  8
ZUWAKU
100
AcDbLine
 10
0.0000000135560185
 20
30.39999986828869
 30
0.0
 11
797.4000000135559
 21
30.39999986828869
 31
0.0
  0
LINE
  5
A6E
330
1A
100
AcDbEntity
  8
ZUWAKU
100
AcDbLine
 10
0.0000000135560185
 20
30.19999986828868
 30
0.0
 11
797.4000000135559
 21
30.19999986828868
 31
0.0
  0
LINE
  5
A6F
330
1A
100
AcDbEntity
  8
ZUWAKU
100
AcDbLine
 10
0.0000000135560185
 20
29.99999986828868
 30
0.0
 11
797.4000000135559
 21
29.99999986828868
 31
0.0
  0
LWPOLYLINE
  5
A70
330
1A
100
AcDbEntity
  8
ZUWAKU
100
AcDbPolyline
 90
        4
 70
     1
 43
0.0
 10
0.2000000135559503
 20
551.3999998682887
 10
0.2000000135559503
 20
0.1999998682887281
 10
797.4000000135559
 20
0.1999998682887511
 10
797.4000000135561
 20
551.3999998682887
  0
LWPOLYLINE
  5
A71
330
1A
100
AcDbEntity
  8
ZUWAKU
100
AcDbPolyline
 90
        4
 70
     1
 43
0.0
 10
0.6000000135559276
 20
550.9999998682888
 10
0.6000000135559276
 20
0.5999998682887054
 10
797.0000000135562
 20
0.5999998682887516
 10
797.000000013556
 20
550.9999998682888
  0
LWPOLYLINE
  5
A72
330
1A
100
AcDbEntity
  8
ZUWAKU
100
AcDbPolyline
 90
        4
 70
     1
 43
0.0
 10
0.0000000135560185
 20
551.5999998682887
 10
0.0000000135560185
 20
-0.0000001317113174
 10
797.6000000135561
 20
-0.0000001317112499
 10
797.6000000135561
 20
551.5999998682888
  0
LWPOLYLINE
  5
A73
330
1A
100
AcDbEntity
  8
ZUWAKU
100
AcDbPolyline
 90
        4
 70
     1
 43
0.0
 10
0.4000000135559958
 20
551.1999998682887
 10
0.4000000135559958
 20
0.3999998682887735
 10
797.200000013556
 20
0.3999998682887504
 10
797.200000013556
 20
551.1999998682887
  0
LWPOLYLINE
  5
A74
330
1A
100
AcDbEntity
  8
ZUWAKU
100
AcDbPolyline
 90
        4
 70
     1
 43
0.0
 10
0.800000013555973
 20
550.7999998682887
 10
0.800000013555973
 20
0.7999998682887508
 10
796.8000000135559
 20
0.7999998682887508
 10
796.8000000135559
 20
550.7999998682887
  0
TEXT
  5
A75
330
1A
100
AcDbEntity
  8
MOJI
100
AcDbText
 10
92.95778960172516
 20
12.74117799856344
 30
0.0
 40
6.0
  1
アートフェイスＨ１６０
 41
0.9
  7
ｽﾀｲﾙ1
100
AcDbText
  0
HATCH
  5
A76
330
1A
100
AcDbEntity
  8
ZUWAKU
100
AcDbHatch
 10
0.0
 20
0.0
 30
0.0
210
0.0
220
0.0
230
1.0
  2
ANSI37
 70
     0
 71
     0
 91
        8
 92
        7
 72
     1
 73
     1
 93
       24
 10
14.50226267467587
 20
17.64484834927226
 42
-0.1989123673796348
 10
14.09221216833714
 20
18.63479784293331
 42
0.0
 10
14.09221216833714
 20
19.92499986828869
 42
-0.4142135623730912
 10
14.61721216833711
 20
20.44999986828868
 42
0.0
 10
17.59221216833702
 20
20.44999986828868
 42
0.4142135623731546
 10
18.11721216833712
 20
20.97499986828867
 42
0.0
 10
18.11721216833712
 20
22.72499986828869
 42
0.4142135623731586
 10
17.59221216833702
 20
23.24999986828868
 42
0.0
 10
14.09221216833714
 20
23.24999986828868
 42
0.4142135623730928
 10
11.29221216833718
 20
20.44999986828871
 42
0.0
 10
11.29221216833718
 20
18.63479784293344
 42
0.1989123673796619
 10
12.52236368735361
 20
15.66494936194983
 42
0.0
 10
15.43216166199829
 20
12.75515138730518
 42
-0.1989123673796613
 10
15.84221216833714
 20
11.76520189364399
 42
0.0
 10
15.84221216833714
 20
10.47499986828867
 42
-0.4142135623730911
 10
15.31721216833716
 20
9.949999868288685
 42
0.0
 10
12.34221216833725
 20
9.949999868288685
 42
0.4142135623731526
 10
11.81721216833716
 20
9.424999868288697
 42
0.0
 10
11.81721216833716
 20
7.674999868288676
 42
0.4142135623731526
 10
12.34221216833725
 20
7.149999868288688
 42
0.0
 10
15.84221216833714
 20
7.149999868288688
 42
0.4142135623731044
 10
18.64221216833721
 20
9.949999868288664
 42
0.0
 10
18.64221216833721
 20
11.76520189364393
 42
0.1989123673796604
 10
17.41206064932066
 20
14.73505037462747
 42
0.0
 97
        0
 92
        7
 72
     1
 73
     1
 93
       16
 10
23.54221216833718
 20
19.04999986828869
 42
-0.4142135623730935
 10
24.94221216833716
 20
20.44999986828868
 42
0.0
 10
26.86721216833712
 20
20.44999986828868
 42
0.4142135623731546
 10
27.39221216833721
 20
20.97499986828867
 42
0.0
 10
27.39221216833721
 20
22.72499986828869
 42
0.4142135623730951
 10
26.86721216833723
 20
23.24999986828868
 42
0.0
 10
24.94221216833705
 20
23.24999986828864
 42
0.4142135623730892
 10
20.74221216833711
 20
19.04999986828862
 42
0.0
 10
20.74221216833711
 20
11.34999986828871
 42
0.4142135623730969
 10
24.94221216833716
 20
7.149999868288688
 42
0.0
 10
26.86721216833712
 20
7.149999868288688
 42
0.4142135623731526
 10
27.39221216833721
 20
7.674999868288676
 42
0.0
 10
27.39221216833721
 20
9.424999868288697
 42
0.4142135623730891
 10
26.86721216833723
 20
9.949999868288685
 42
0.0
 10
24.94221216833716
 20
9.949999868288685
 42
-0.4142135623730928
 10
23.54221216833718
 20
11.34999986828867
 42
0.0
 97
        0
 92
        7
 72
     1
 73
     1
 93
        2
 10
24.24221216833712
 20
15.19999986828868
 42
1.0
 10
27.74221216833712
 20
15.19999986828868
 42
1.0
 97
        0
 92
        7
 72
     1
 73
     1
 93
       26
 10
37.31485865051513
 20
19.20504706185211
 42
0.0
 10
38.37649828365295
 20
22.5669059001217
 42
0.5069206636600134
 10
37.87586738445759
 20
23.24999986828868
 42
0.0
 10
36.17697800484836
 20
23.24999986828868
 42
0.3272098845218764
 10
35.676347105653
 20
22.88309383645565
 42
0.0
 10
33.80807723102122
 20
16.96690590012176
 42
-0.3272098845219541
 10
33.30744633182575
 20
16.59999986828868
 42
0.0
 10
33.1672121683373
 20
16.59999986828868
 42
-0.4142135623731526
 10
32.64221216833721
 20
17.12499986828867
 42
0.0
 10
32.64221216833721
 20
22.72499986828869
 42
0.4142135623730951
 10
32.11721216833723
 20
23.24999986828868
 42
0.0
 10
30.36721216833711
 20
23.24999986828868
 42
0.4142135623730871
 10
29.84221216833714
 20
22.7249998682887
 42
0.0
 10
29.84221216833714
 20
7.674999868288676
 42
0.4142135623730891
 10
30.36721216833711
 20
7.149999868288688
 42
0.0
 10
32.11721216833712
 20
7.149999868288688
 42
0.4142135623731526
 10
32.64221216833721
 20
7.674999868288676
 42
0.0
 10
32.64221216833721
 20
13.27499986828869
 42
-0.4142135623731526
 10
33.1672121683373
 20
13.79999986828868
 42
0.0
 10
33.30744633182587
 20
13.79999986828868
 42
-0.3272098845218915
 10
33.80807723102122
 20
13.43309383645561
 42
0.0
 10
35.676347105653
 20
7.516905900121759
 42
0.3272098845218902
 10
36.17697800484836
 20
7.149999868288688
 42
0.0
 10
37.87586738445759
 20
7.149999868288688
 42
0.5069206636600335
 10
38.37649828365295
 20
7.833093836455695
 42
0.0
 10
36.05010690517929
 20
15.19999986828882
 42
0.0
 97
        0
 92
        7
 72
     1
 73
     1
 93
        8
 10
43.49221216833711
 20
22.7249998682887
 42
0.4142135623731546
 10
42.96721216833702
 20
23.24999986828868
 42
0.0
 10
41.21721216833726
 20
23.24999986828868
 42
0.4142135623731507
 10
40.69221216833716
 20
22.7249998682887
 42
0.0
 10
40.69221216833716
 20
7.674999868288676
 42
0.4142135623731526
 10
41.21721216833726
 20
7.149999868288688
 42
0.0
 10
42.96721216833702
 20
7.149999868288688
 42
0.4142135623731526
 10
43.49221216833711
 20
7.674999868288676
 42
0.0
 97
        0
 92
        7
 72
     1
 73
     1
 93
       24
 10
48.3922121683372
 20
19.92499986828869
 42
-0.4142135623731546
 10
48.9172121683373
 20
20.44999986828868
 42
0.0
 10
51.89221216833721
 20
20.44999986828868
 42
0.4142135623730911
 10
52.41721216833719
 20
20.97499986828867
 42
0.0
 10
52.41721216833719
 20
22.72499986828869
 42
0.4142135623730952
 10
51.89221216833721
 20
23.24999986828868
 42
0.0
 10
48.3922121683372
 20
23.24999986828868
 42
0.4142135623731048
 10
45.59221216833714
 20
20.44999986828871
 42
0.0
 10
45.59221216833714
 20
18.63479784293344
 42
0.1989123673796613
 10
46.82236368735368
 20
15.66494936194989
 42
0.0
 10
49.73216166199836
 20
12.75515138730522
 42
-0.1989123673796402
 10
50.14221216833721
 20
11.76520189364415
 42
0.0
 10
50.14221216833721
 20
10.47499986828867
 42
-0.4142135623730911
 10
49.61721216833723
 20
9.949999868288685
 42
0.0
 10
46.64221216833721
 20
9.949999868288685
 42
0.4142135623731526
 10
46.11721216833712
 20
9.424999868288697
 42
0.0
 10
46.11721216833712
 20
7.674999868288676
 42
0.4142135623730891
 10
46.64221216833709
 20
7.149999868288688
 42
0.0
 10
50.14221216833721
 20
7.149999868288688
 42
0.4142135623730925
 10
52.94221216833716
 20
9.949999868288664
 42
0.0
 10
52.94221216833716
 20
11.76520189364393
 42
0.1989123673796675
 10
51.71206064932062
 20
14.73505037462759
 42
0.0
 10
48.80226267467605
 20
17.6448483492721
 42
-0.1989123673796652
 10
48.3922121683372
 20
18.63479784293327
 42
0.0
 97
        0
 92
        7
 72
     1
 73
     1
 93
       16
 10
57.84221216833714
 20
22.72499986828867
 42
0.414213562373103
 10
57.31721216833716
 20
23.24999986828868
 42
0.0
 10
55.56721216833716
 20
23.24999986828868
 42
0.4142135623730871
 10
55.04221216833719
 20
22.7249998682887
 42
0.0
 10
55.04221216833719
 20
9.949999868288664
 42
0.4142135623730926
 10
57.84221216833714
 20
7.149999868288688
 42
0.0
 10
61.34221216833714
 20
7.149999868288688
 42
0.4142135623731044
 10
64.14221216833721
 20
9.949999868288664
 42
0.0
 10
64.14221216833721
 20
22.72499986828869
 42
0.4142135623730951
 10
63.61721216833723
 20
23.24999986828868
 42
0.0
 10
61.86721216833712
 20
23.24999986828868
 42
0.4142135623730871
 10
61.34221216833714
 20
22.7249998682887
 42
0.0
 10
61.34221216833714
 20
10.99999986828866
 42
-0.414213562373088
 10
60.29221216833718
 20
9.949999868288685
 42
0.0
 10
58.89221216833721
 20
9.949999868288685
 42
-0.4142135623731197
 10
57.84221216833714
 20
10.99999986828866
 42
0.0
 97
        0
 92
        7
 72
     1
 73
     1
 93
        8
 10
69.04221216833718
 20
22.7249998682887
 42
0.4142135623730871
 10
68.51721216833721
 20
23.24999986828868
 42
0.0
 10
66.76721216833721
 20
23.24999986828868
 42
0.4142135623731507
 10
66.24221216833712
 20
22.7249998682887
 42
0.0
 10
66.24221216833712
 20
7.674999868288676
 42
0.4142135623730891
 10
66.76721216833709
 20
7.149999868288688
 42
0.0
 10
68.51721216833721
 20
7.149999868288688
 42
0.4142135623730891
 10
69.04221216833718
 20
7.674999868288676
 42
0.0
 97
        0
 75
     0
 76
     1
 52
0.0
 41
0.2
 77
     0
 78
     2
 53
45.0
 43
-900.942304321123
 44
-13.20000013171124
 45
-0.4490128060534576
 46
0.4490128060534577
 79
     0
 53
135.0
 43
-900.942304321123
 44
-13.20000013171124
 45
-0.4490128060534577
 46
-0.4490128060534576
 79
     0
 47
0.057451373970553
 98
        8
 10
16.07985497657932
 20
15.16717351417423
 10
22.40451501999519
 20
18.84406205073969
 10
25.16436789921567
 20
15.5118815143594
 10
30.91405999519315
 20
16.20129751473018
 10
41.83847203251275
 20
16.6609097822718
 10
46.89820090868557
 20
19.41857618469589
 10
56.55768598595637
 20
18.72915778338369
 10
67.82707963317875
 20
19.18877005092531
  0
LINE
  5
A77
330
1A
100
AcDbEntity
  8
ZUWAKU
100
AcDbLine
 10
24.94221216833716
 20
23.24999986828864
 30
0.0
 11
26.86721216833712
 21
23.24999986828868
 31
0.0
  0
LINE
  5
A78
330
1A
100
AcDbEntity
  8
ZUWAKU
100
AcDbLine
 10
26.86721216833712
 20
20.44999986828868
 30
0.0
 11
24.94221216833716
 21
20.44999986828868
 31
0.0
  0
LINE
  5
A79
330
1A
100
AcDbEntity
  8
ZUWAKU
100
AcDbLine
 10
24.94221216833716
 20
9.949999868288685
 30
0.0
 11
26.86721216833712
 21
9.949999868288685
 31
0.0
  0
LINE
  5
A7A
330
1A
100
AcDbEntity
  8
ZUWAKU
100
AcDbLine
 10
26.86721216833712
 20
7.149999868288688
 30
0.0
 11
24.94221216833716
 21
7.149999868288688
 31
0.0
  0
CIRCLE
  5
A7B
330
1A
100
AcDbEntity
  8
ZUWAKU
100
AcDbCircle
 10
25.99221216833711
 20
15.19999986828868
 30
0.0
 40
1.75
  0
ARC
  5
A7C
330
1A
100
AcDbEntity
  8
ZUWAKU
100
AcDbCircle
 10
15.49221216833712
 20
18.63479784293338
 30
0.0
 40
1.399999999999999
100
AcDbArc
 50
180.0000000000016
 51
224.9999999999988
  0
LINE
  5
A7D
330
1A
100
AcDbEntity
  8
ZUWAKU
100
AcDbLine
 10
23.54221216833718
 20
19.04999986828868
 30
0.0
 11
23.54221216833718
 21
11.34999986828869
 31
0.0
  0
LINE
  5
A7E
330
1A
100
AcDbEntity
  8
ZUWAKU
100
AcDbLine
 10
20.74221216833711
 20
11.34999986828869
 30
0.0
 11
20.74221216833711
 21
19.04999986828864
 31
0.0
  0
ARC
  5
A7F
330
1A
100
AcDbEntity
  8
ZUWAKU
100
AcDbCircle
 10
15.49221216833712
 20
18.63479784293338
 30
0.0
 40
4.199999999999999
100
AcDbArc
 50
180.0
 51
225.0
  0
ARC
  5
A80
330
1A
100
AcDbEntity
  8
ZUWAKU
100
AcDbCircle
 10
15.84221216833714
 20
9.949999868288685
 30
0.0
 40
2.799999999999999
100
AcDbArc
 50
270.0
 51
0.0
  0
ARC
  5
A81
330
1A
100
AcDbEntity
  8
ZUWAKU
100
AcDbCircle
 10
24.94221216833716
 20
11.34999986828869
 30
0.0
 40
4.199999999999999
100
AcDbArc
 50
180.0
 51
270.0
  0
ARC
  5
A82
330
1A
100
AcDbEntity
  8
ZUWAKU
100
AcDbCircle
 10
14.44221216833716
 20
11.76520189364399
 30
0.0
 40
4.199999999999999
100
AcDbArc
 50
0.0
 51
45.0
  0
LINE
  5
A83
330
1A
100
AcDbEntity
  8
ZUWAKU
100
AcDbLine
 10
17.41206064932066
 20
14.73505037462751
 30
0.0
 11
14.50226267467598
 21
17.64484834927218
 31
0.0
  0
LINE
  5
A84
330
1A
100
AcDbEntity
  8
ZUWAKU
100
AcDbLine
 10
15.84221216833714
 20
10.47499986828869
 30
0.0
 11
15.84221216833714
 21
11.76520189364403
 31
0.0
  0
ARC
  5
A85
330
1A
100
AcDbEntity
  8
ZUWAKU
100
AcDbCircle
 10
15.31721216833716
 20
10.47499986828869
 30
0.0
 40
0.525
100
AcDbArc
 50
270.0
 51
0.0
  0
ARC
  5
A86
330
1A
100
AcDbEntity
  8
ZUWAKU
100
AcDbCircle
 10
14.44221216833716
 20
11.76520189364403
 30
0.0
 40
1.399999999999999
100
AcDbArc
 50
0.0
 51
45.0
  0
LINE
  5
A87
330
1A
100
AcDbEntity
  8
ZUWAKU
100
AcDbLine
 10
11.81721216833716
 20
7.674999868288686
 30
0.0
 11
11.81721216833716
 21
9.424999868288686
 31
0.0
  0
ARC
  5
A88
330
1A
100
AcDbEntity
  8
ZUWAKU
100
AcDbCircle
 10
12.34221216833714
 20
7.674999868288686
 30
0.0
 40
0.525
100
AcDbArc
 50
180.0
 51
270.0
  0
ARC
  5
A89
330
1A
100
AcDbEntity
  8
ZUWAKU
100
AcDbCircle
 10
12.34221216833714
 20
9.424999868288686
 30
0.0
 40
0.525
100
AcDbArc
 50
90.0
 51
180.0
  0
LINE
  5
A8A
330
1A
100
AcDbEntity
  8
ZUWAKU
100
AcDbLine
 10
12.34221216833714
 20
7.149999868288688
 30
0.0
 11
15.84221216833714
 21
7.149999868288688
 31
0.0
  0
LINE
  5
A8B
330
1A
100
AcDbEntity
  8
ZUWAKU
100
AcDbLine
 10
12.34221216833714
 20
9.949999868288685
 30
0.0
 11
15.31721216833716
 21
9.949999868288685
 31
0.0
  0
LINE
  5
A8C
330
1A
100
AcDbEntity
  8
ZUWAKU
100
AcDbLine
 10
12.52236368735361
 20
15.66494936194986
 30
0.0
 11
15.43216166199829
 21
12.7551513873052
 31
0.0
  0
LINE
  5
A8D
330
1A
100
AcDbEntity
  8
ZUWAKU
100
AcDbLine
 10
18.64221216833721
 20
9.949999868288685
 30
0.0
 11
18.64221216833721
 21
11.76520189364403
 31
0.0
  0
ARC
  5
A8E
330
1A
100
AcDbEntity
  8
ZUWAKU
100
AcDbCircle
 10
24.94221216833716
 20
11.34999986828869
 30
0.0
 40
1.399999999999999
100
AcDbArc
 50
180.0
 51
270.0
  0
ARC
  5
A8F
330
1A
100
AcDbEntity
  8
ZUWAKU
100
AcDbCircle
 10
17.59221216833714
 20
22.72499986828868
 30
0.0
 40
0.525
100
AcDbArc
 50
0.0
 51
90.0
  0
ARC
  5
A90
330
1A
100
AcDbEntity
  8
ZUWAKU
100
AcDbCircle
 10
17.59221216833714
 20
20.97499986828868
 30
0.0
 40
0.525
100
AcDbArc
 50
270.0
 51
0.0
  0
LINE
  5
A91
330
1A
100
AcDbEntity
  8
ZUWAKU
100
AcDbLine
 10
14.09221216833714
 20
23.24999986828868
 30
0.0
 11
17.59221216833714
 21
23.24999986828868
 31
0.0
  0
ARC
  5
A92
330
1A
100
AcDbEntity
  8
ZUWAKU
100
AcDbCircle
 10
14.61721216833711
 20
19.92499986828868
 30
0.0
 40
0.525
100
AcDbArc
 50
90.0
 51
180.0
  0
LINE
  5
A93
330
1A
100
AcDbEntity
  8
ZUWAKU
100
AcDbLine
 10
14.09221216833714
 20
19.92499986828868
 30
0.0
 11
14.09221216833714
 21
18.63479784293334
 31
0.0
  0
LINE
  5
A94
330
1A
100
AcDbEntity
  8
ZUWAKU
100
AcDbLine
 10
17.59221216833714
 20
20.44999986828868
 30
0.0
 11
14.61721216833711
 21
20.44999986828868
 31
0.0
  0
LINE
  5
A95
330
1A
100
AcDbEntity
  8
ZUWAKU
100
AcDbLine
 10
11.29221216833718
 20
20.44999986828868
 30
0.0
 11
11.29221216833718
 21
18.63479784293334
 31
0.0
  0
ARC
  5
A96
330
1A
100
AcDbEntity
  8
ZUWAKU
100
AcDbCircle
 10
14.09221216833714
 20
20.44999986828868
 30
0.0
 40
2.799999999999999
100
AcDbArc
 50
90.0
 51
180.0
  0
LINE
  5
A97
330
1A
100
AcDbEntity
  8
ZUWAKU
100
AcDbLine
 10
18.11721216833712
 20
22.72499986828868
 30
0.0
 11
18.11721216833712
 21
20.97499986828868
 31
0.0
  0
ARC
  5
A98
330
1A
100
AcDbEntity
  8
ZUWAKU
100
AcDbCircle
 10
24.94221216833716
 20
19.04999986828868
 30
0.0
 40
1.399999999999999
100
AcDbArc
 50
90.0
 51
180.0
  0
ARC
  5
A99
330
1A
100
AcDbEntity
  8
ZUWAKU
100
AcDbCircle
 10
24.94221216833716
 20
19.04999986828864
 30
0.0
 40
4.199999999999999
100
AcDbArc
 50
90.0
 51
180.0
  0
LINE
  5
A9A
330
1A
100
AcDbEntity
  8
ZUWAKU
100
AcDbLine
 10
79.32662956154422
 20
29.99999986828868
 30
0.0
 11
79.32662956154445
 21
0.7999998682887508
 31
0.0
  0
LINE
  5
A9B
330
1A
100
AcDbEntity
  8
ZUWAKU
100
AcDbLine
 10
79.52662956154426
 20
29.99999986828868
 30
0.0
 11
79.52662956154449
 21
0.7999998682887508
 31
0.0
  0
LINE
  5
A9C
330
1A
100
AcDbEntity
  8
ZUWAKU
100
AcDbLine
 10
79.12662956154441
 20
29.99999986828868
 30
0.0
 11
79.12662956154441
 21
0.7999998682887508
 31
0.0
  0
LINE
  5
A9D
330
1A
100
AcDbEntity
  8
ZUWAKU
100
AcDbLine
 10
64.14221216833721
 20
9.949999868288685
 30
0.0
 11
64.14221216833721
 21
22.72499986828868
 31
0.0
  0
LINE
  5
A9E
330
1A
100
AcDbEntity
  8
ZUWAKU
100
AcDbLine
 10
61.34221216833714
 20
22.72499986828868
 30
0.0
 11
61.34221216833714
 21
10.99999986828868
 31
0.0
  0
LINE
  5
A9F
330
1A
100
AcDbEntity
  8
ZUWAKU
100
AcDbLine
 10
69.04221216833718
 20
7.674999868288686
 30
0.0
 11
69.04221216833718
 21
22.72499986828868
 31
0.0
  0
LINE
  5
AA0
330
1A
100
AcDbEntity
  8
ZUWAKU
100
AcDbLine
 10
66.24221216833712
 20
22.72499986828868
 30
0.0
 11
66.24221216833712
 21
7.674999868288686
 31
0.0
  0
ARC
  5
AA1
330
1A
100
AcDbEntity
  8
ZUWAKU
100
AcDbCircle
 10
49.79221216833718
 20
18.63479784293338
 30
0.0
 40
1.399999999999999
100
AcDbArc
 50
180.0000000000016
 51
224.9999999999988
  0
ARC
  5
AA2
330
1A
100
AcDbEntity
  8
ZUWAKU
100
AcDbCircle
 10
49.79221216833718
 20
18.63479784293338
 30
0.0
 40
4.199999999999999
100
AcDbArc
 50
180.0
 51
225.0
  0
LINE
  5
AA3
330
1A
100
AcDbEntity
  8
ZUWAKU
100
AcDbLine
 10
37.31485865051513
 20
19.20504706185211
 30
0.0
 11
36.05010690517929
 21
15.1999998682887
 31
0.0
  0
LINE
  5
AA4
330
1A
100
AcDbEntity
  8
ZUWAKU
100
AcDbLine
 10
40.69221216833716
 20
22.72499986828868
 30
0.0
 11
40.69221216833716
 21
7.674999868288686
 31
0.0
  0
LINE
  5
AA5
330
1A
100
AcDbEntity
  8
ZUWAKU
100
AcDbLine
 10
43.49221216833711
 20
7.674999868288686
 30
0.0
 11
43.49221216833711
 21
22.72499986828868
 31
0.0
  0
LINE
  5
AA6
330
1A
100
AcDbEntity
  8
ZUWAKU
100
AcDbLine
 10
55.04221216833719
 20
22.72499986828868
 30
0.0
 11
55.04221216833719
 21
9.949999868288685
 31
0.0
  0
LINE
  5
AA7
330
1A
100
AcDbEntity
  8
ZUWAKU
100
AcDbLine
 10
57.84221216833714
 20
10.99999986828868
 30
0.0
 11
57.84221216833714
 21
22.72499986828868
 31
0.0
  0
LINE
  5
AA8
330
1A
100
AcDbEntity
  8
ZUWAKU
100
AcDbLine
 10
32.64221216833721
 20
17.12499986828869
 30
0.0
 11
32.64221216833721
 21
22.72499986828868
 31
0.0
  0
LINE
  5
AA9
330
1A
100
AcDbEntity
  8
ZUWAKU
100
AcDbLine
 10
29.84221216833714
 20
22.72499986828868
 30
0.0
 11
29.84221216833714
 21
7.674999868288686
 31
0.0
  0
LINE
  5
AAA
330
1A
100
AcDbEntity
  8
ZUWAKU
100
AcDbLine
 10
35.676347105653
 20
22.88309383645565
 30
0.0
 11
33.80807723102122
 21
16.96690590012171
 31
0.0
  0
LINE
  5
AAB
330
1A
100
AcDbEntity
  8
ZUWAKU
100
AcDbLine
 10
60.29221216833718
 20
9.949999868288685
 30
0.0
 11
58.89221216833721
 21
9.949999868288685
 31
0.0
  0
LINE
  5
AAC
330
1A
100
AcDbEntity
  8
ZUWAKU
100
AcDbLine
 10
57.84221216833714
 20
7.149999868288688
 30
0.0
 11
61.34221216833714
 21
7.149999868288688
 31
0.0
  0
LINE
  5
AAD
330
1A
100
AcDbEntity
  8
ZUWAKU
100
AcDbLine
 10
41.21721216833714
 20
7.149999868288688
 30
0.0
 11
42.96721216833714
 21
7.149999868288688
 31
0.0
  0
LINE
  5
AAE
330
1A
100
AcDbEntity
  8
ZUWAKU
100
AcDbLine
 10
35.676347105653
 20
7.516905900121713
 30
0.0
 11
33.80807723102122
 21
13.43309383645565
 31
0.0
  0
ARC
  5
AAF
330
1A
100
AcDbEntity
  8
ZUWAKU
100
AcDbCircle
 10
33.30744633182587
 20
17.12499986828869
 30
0.0
 40
0.525
100
AcDbArc
 50
270.0
 51
342.4744316262769
  0
LINE
  5
AB0
330
1A
100
AcDbEntity
  8
ZUWAKU
100
AcDbLine
 10
33.30744633182587
 20
16.59999986828868
 30
0.0
 11
33.16721216833718
 21
16.59999986828868
 31
0.0
  0
LINE
  5
AB1
330
1A
100
AcDbEntity
  8
ZUWAKU
100
AcDbLine
 10
33.16721216833718
 20
13.79999986828868
 30
0.0
 11
33.30744633182587
 21
13.79999986828868
 31
0.0
  0
ARC
  5
AB2
330
1A
100
AcDbEntity
  8
ZUWAKU
100
AcDbCircle
 10
33.16721216833718
 20
17.12499986828869
 30
0.0
 40
0.525
100
AcDbArc
 50
180.0
 51
270.0
  0
LINE
  5
AB3
330
1A
100
AcDbEntity
  8
ZUWAKU
100
AcDbLine
 10
30.36721216833711
 20
7.149999868288688
 30
0.0
 11
32.11721216833712
 21
7.149999868288688
 31
0.0
  0
ARC
  5
AB4
330
1A
100
AcDbEntity
  8
ZUWAKU
100
AcDbCircle
 10
32.11721216833712
 20
7.674999868288686
 30
0.0
 40
0.525
100
AcDbArc
 50
270.0
 51
0.0
  0
LINE
  5
AB5
330
1A
100
AcDbEntity
  8
ZUWAKU
100
AcDbLine
 10
32.64221216833721
 20
7.674999868288686
 30
0.0
 11
32.64221216833721
 21
13.27499986828868
 31
0.0
  0
LINE
  5
AB6
330
1A
100
AcDbEntity
  8
ZUWAKU
100
AcDbLine
 10
27.39221216833721
 20
9.424999868288686
 30
0.0
 11
27.39221216833721
 21
7.674999868288686
 31
0.0
  0
ARC
  5
AB7
330
1A
100
AcDbEntity
  8
ZUWAKU
100
AcDbCircle
 10
26.86721216833712
 20
7.674999868288686
 30
0.0
 40
0.525
100
AcDbArc
 50
270.0
 51
0.0
  0
ARC
  5
AB8
330
1A
100
AcDbEntity
  8
ZUWAKU
100
AcDbCircle
 10
26.86721216833712
 20
9.424999868288686
 30
0.0
 40
0.525
100
AcDbArc
 50
0.0
 51
90.0
  0
ARC
  5
AB9
330
1A
100
AcDbEntity
  8
ZUWAKU
100
AcDbCircle
 10
30.36721216833711
 20
7.674999868288686
 30
0.0
 40
0.525
100
AcDbArc
 50
180.0
 51
270.0
  0
ARC
  5
ABA
330
1A
100
AcDbEntity
  8
ZUWAKU
100
AcDbCircle
 10
33.30744633182587
 20
13.27499986828868
 30
0.0
 40
0.525
100
AcDbArc
 50
17.52556837372303
 51
90.0
  0
ARC
  5
ABB
330
1A
100
AcDbEntity
  8
ZUWAKU
100
AcDbCircle
 10
33.16721216833718
 20
13.27499986828868
 30
0.0
 40
0.525
100
AcDbArc
 50
90.0
 51
180.0
  0
ARC
  5
ABC
330
1A
100
AcDbEntity
  8
ZUWAKU
100
AcDbCircle
 10
41.21721216833714
 20
7.674999868288686
 30
0.0
 40
0.525
100
AcDbArc
 50
180.0
 51
270.0
  0
LINE
  5
ABD
330
1A
100
AcDbEntity
  8
ZUWAKU
100
AcDbLine
 10
36.17697800484847
 20
7.149999868288688
 30
0.0
 11
37.87586738445748
 21
7.149999868288688
 31
0.0
  0
ARC
  5
ABE
330
1A
100
AcDbEntity
  8
ZUWAKU
100
AcDbCircle
 10
37.87586738445748
 20
7.674999868288686
 30
0.0
 40
0.525
100
AcDbArc
 50
270.0
 51
17.52556837372303
  0
LINE
  5
ABF
330
1A
100
AcDbEntity
  8
ZUWAKU
100
AcDbLine
 10
38.37649828365295
 20
7.83309383645566
 30
0.0
 11
36.05010690517929
 21
15.1999998682887
 31
0.0
  0
ARC
  5
AC0
330
1A
100
AcDbEntity
  8
ZUWAKU
100
AcDbCircle
 10
36.17697800484847
 20
7.674999868288686
 30
0.0
 40
0.525
100
AcDbArc
 50
197.525568373723
 51
270.0
  0
ARC
  5
AC1
330
1A
100
AcDbEntity
  8
ZUWAKU
100
AcDbCircle
 10
57.84221216833714
 20
9.949999868288685
 30
0.0
 40
2.799999999999999
100
AcDbArc
 50
180.0
 51
270.0
  0
ARC
  5
AC2
330
1A
100
AcDbEntity
  8
ZUWAKU
100
AcDbCircle
 10
50.14221216833721
 20
9.949999868288685
 30
0.0
 40
2.799999999999999
100
AcDbArc
 50
270.0
 51
0.0
  0
LINE
  5
AC3
330
1A
100
AcDbEntity
  8
ZUWAKU
100
AcDbLine
 10
51.71206064932073
 20
14.73505037462751
 30
0.0
 11
48.80226267467595
 21
17.64484834927218
 31
0.0
  0
LINE
  5
AC4
330
1A
100
AcDbEntity
  8
ZUWAKU
100
AcDbLine
 10
50.14221216833721
 20
10.47499986828869
 30
0.0
 11
50.14221216833721
 21
11.76520189364403
 31
0.0
  0
ARC
  5
AC5
330
1A
100
AcDbEntity
  8
ZUWAKU
100
AcDbCircle
 10
48.74221216833712
 20
11.76520189364403
 30
0.0
 40
1.399999999999999
100
AcDbArc
 50
0.0
 51
45.0
  0
ARC
  5
AC6
330
1A
100
AcDbEntity
  8
ZUWAKU
100
AcDbCircle
 10
49.61721216833712
 20
10.47499986828869
 30
0.0
 40
0.525
100
AcDbArc
 50
270.0
 51
0.0
  0
LINE
  5
AC7
330
1A
100
AcDbEntity
  8
ZUWAKU
100
AcDbLine
 10
46.11721216833712
 20
7.674999868288686
 30
0.0
 11
46.11721216833712
 21
9.424999868288686
 31
0.0
  0
ARC
  5
AC8
330
1A
100
AcDbEntity
  8
ZUWAKU
100
AcDbCircle
 10
46.64221216833721
 20
7.674999868288686
 30
0.0
 40
0.525
100
AcDbArc
 50
180.0
 51
270.0
  0
ARC
  5
AC9
330
1A
100
AcDbEntity
  8
ZUWAKU
100
AcDbCircle
 10
42.96721216833714
 20
7.674999868288686
 30
0.0
 40
0.525
100
AcDbArc
 50
270.0
 51
0.0
  0
ARC
  5
ACA
330
1A
100
AcDbEntity
  8
ZUWAKU
100
AcDbCircle
 10
46.64221216833721
 20
9.424999868288686
 30
0.0
 40
0.525
100
AcDbArc
 50
90.0
 51
180.0
  0
LINE
  5
ACB
330
1A
100
AcDbEntity
  8
ZUWAKU
100
AcDbLine
 10
46.64221216833721
 20
9.949999868288685
 30
0.0
 11
49.61721216833712
 21
9.949999868288685
 31
0.0
  0
LINE
  5
ACC
330
1A
100
AcDbEntity
  8
ZUWAKU
100
AcDbLine
 10
46.64221216833721
 20
7.149999868288688
 30
0.0
 11
50.14221216833721
 21
7.149999868288688
 31
0.0
  0
LINE
  5
ACD
330
1A
100
AcDbEntity
  8
ZUWAKU
100
AcDbLine
 10
46.82236368735368
 20
15.66494936194986
 30
0.0
 11
49.73216166199836
 21
12.7551513873052
 31
0.0
  0
LINE
  5
ACE
330
1A
100
AcDbEntity
  8
ZUWAKU
100
AcDbLine
 10
52.94221216833716
 20
9.949999868288685
 30
0.0
 11
52.94221216833716
 21
11.76520189364403
 31
0.0
  0
ARC
  5
ACF
330
1A
100
AcDbEntity
  8
ZUWAKU
100
AcDbCircle
 10
48.74221216833712
 20
11.76520189364399
 30
0.0
 40
4.199999999999999
100
AcDbArc
 50
0.0
 51
45.0
  0
ARC
  5
AD0
330
1A
100
AcDbEntity
  8
ZUWAKU
100
AcDbCircle
 10
58.89221216833721
 20
10.99999986828868
 30
0.0
 40
1.049999999999999
100
AcDbArc
 50
180.0
 51
270.0
  0
ARC
  5
AD1
330
1A
100
AcDbEntity
  8
ZUWAKU
100
AcDbCircle
 10
61.34221216833714
 20
9.949999868288685
 30
0.0
 40
2.799999999999999
100
AcDbArc
 50
270.0
 51
0.0
  0
LINE
  5
AD2
330
1A
100
AcDbEntity
  8
ZUWAKU
100
AcDbLine
 10
66.76721216833721
 20
7.149999868288688
 30
0.0
 11
68.51721216833721
 21
7.149999868288688
 31
0.0
  0
ARC
  5
AD3
330
1A
100
AcDbEntity
  8
ZUWAKU
100
AcDbCircle
 10
66.76721216833721
 20
7.674999868288686
 30
0.0
 40
0.525
100
AcDbArc
 50
180.0
 51
270.0
  0
ARC
  5
AD4
330
1A
100
AcDbEntity
  8
ZUWAKU
100
AcDbCircle
 10
60.29221216833718
 20
10.99999986828868
 30
0.0
 40
1.049999999999999
100
AcDbArc
 50
270.0
 51
0.0
  0
ARC
  5
AD5
330
1A
100
AcDbEntity
  8
ZUWAKU
100
AcDbCircle
 10
68.51721216833721
 20
7.674999868288686
 30
0.0
 40
0.525
100
AcDbArc
 50
270.0
 51
0.0
  0
LINE
  5
AD6
330
1A
100
AcDbEntity
  8
ZUWAKU
100
AcDbLine
 10
42.96721216833714
 20
23.24999986828868
 30
0.0
 11
41.21721216833714
 21
23.24999986828868
 31
0.0
  0
ARC
  5
AD7
330
1A
100
AcDbEntity
  8
ZUWAKU
100
AcDbCircle
 10
32.11721216833712
 20
22.72499986828868
 30
0.0
 40
0.525
100
AcDbArc
 50
0.0
 51
90.0
  0
LINE
  5
AD8
330
1A
100
AcDbEntity
  8
ZUWAKU
100
AcDbLine
 10
32.11721216833712
 20
23.24999986828868
 30
0.0
 11
30.36721216833711
 21
23.24999986828868
 31
0.0
  0
ARC
  5
AD9
330
1A
100
AcDbEntity
  8
ZUWAKU
100
AcDbCircle
 10
26.86721216833712
 20
22.72499986828868
 30
0.0
 40
0.525
100
AcDbArc
 50
0.0
 51
90.0
  0
ARC
  5
ADA
330
1A
100
AcDbEntity
  8
ZUWAKU
100
AcDbCircle
 10
30.36721216833711
 20
22.72499986828868
 30
0.0
 40
0.525
100
AcDbArc
 50
90.0
 51
180.0
  0
ARC
  5
ADB
330
1A
100
AcDbEntity
  8
ZUWAKU
100
AcDbCircle
 10
26.86721216833712
 20
20.97499986828868
 30
0.0
 40
0.525
100
AcDbArc
 50
270.0
 51
0.0
  0
LINE
  5
ADC
330
1A
100
AcDbEntity
  8
ZUWAKU
100
AcDbLine
 10
27.39221216833721
 20
22.72499986828868
 30
0.0
 11
27.39221216833721
 21
20.97499986828868
 31
0.0
  0
ARC
  5
ADD
330
1A
100
AcDbEntity
  8
ZUWAKU
100
AcDbCircle
 10
41.21721216833714
 20
22.72499986828868
 30
0.0
 40
0.525
100
AcDbArc
 50
90.0
 51
180.0
  0
LINE
  5
ADE
330
1A
100
AcDbEntity
  8
ZUWAKU
100
AcDbLine
 10
36.17697800484847
 20
23.24999986828868
 30
0.0
 11
37.87586738445748
 21
23.24999986828868
 31
0.0
  0
ARC
  5
ADF
330
1A
100
AcDbEntity
  8
ZUWAKU
100
AcDbCircle
 10
37.87586738445748
 20
22.72499986828868
 30
0.0
 40
0.525
100
AcDbArc
 50
342.4744316262769
 51
90.0
  0
LINE
  5
AE0
330
1A
100
AcDbEntity
  8
ZUWAKU
100
AcDbLine
 10
38.37649828365295
 20
22.56690590012171
 30
0.0
 11
37.31485865051513
 21
19.20504706185211
 31
0.0
  0
ARC
  5
AE1
330
1A
100
AcDbEntity
  8
ZUWAKU
100
AcDbCircle
 10
36.17697800484847
 20
22.72499986828868
 30
0.0
 40
0.525
100
AcDbArc
 50
90.0
 51
162.4744316262769
  0
LINE
  5
AE2
330
1A
100
AcDbEntity
  8
ZUWAKU
100
AcDbLine
 10
48.3922121683372
 20
23.24999986828868
 30
0.0
 11
51.89221216833721
 21
23.24999986828868
 31
0.0
  0
LINE
  5
AE3
330
1A
100
AcDbEntity
  8
ZUWAKU
100
AcDbLine
 10
51.89221216833721
 20
20.44999986828868
 30
0.0
 11
48.91721216833719
 21
20.44999986828868
 31
0.0
  0
ARC
  5
AE4
330
1A
100
AcDbEntity
  8
ZUWAKU
100
AcDbCircle
 10
48.91721216833719
 20
19.92499986828868
 30
0.0
 40
0.525
100
AcDbArc
 50
90.0
 51
180.0
  0
LINE
  5
AE5
330
1A
100
AcDbEntity
  8
ZUWAKU
100
AcDbLine
 10
48.3922121683372
 20
19.92499986828868
 30
0.0
 11
48.3922121683372
 21
18.63479784293334
 31
0.0
  0
ARC
  5
AE6
330
1A
100
AcDbEntity
  8
ZUWAKU
100
AcDbCircle
 10
42.96721216833714
 20
22.72499986828868
 30
0.0
 40
0.525
100
AcDbArc
 50
0.0
 51
90.0
  0
LINE
  5
AE7
330
1A
100
AcDbEntity
  8
ZUWAKU
100
AcDbLine
 10
45.59221216833714
 20
20.44999986828868
 30
0.0
 11
45.59221216833714
 21
18.63479784293334
 31
0.0
  0
ARC
  5
AE8
330
1A
100
AcDbEntity
  8
ZUWAKU
100
AcDbCircle
 10
48.3922121683372
 20
20.44999986828868
 30
0.0
 40
2.799999999999999
100
AcDbArc
 50
90.0
 51
180.0
  0
ARC
  5
AE9
330
1A
100
AcDbEntity
  8
ZUWAKU
100
AcDbCircle
 10
57.31721216833716
 20
22.72499986828868
 30
0.0
 40
0.525
100
AcDbArc
 50
0.0
 51
90.0
  0
ARC
  5
AEA
330
1A
100
AcDbEntity
  8
ZUWAKU
100
AcDbCircle
 10
55.56721216833716
 20
22.72499986828868
 30
0.0
 40
0.525
100
AcDbArc
 50
90.0
 51
180.0
  0
LINE
  5
AEB
330
1A
100
AcDbEntity
  8
ZUWAKU
100
AcDbLine
 10
57.31721216833716
 20
23.24999986828868
 30
0.0
 11
55.56721216833716
 21
23.24999986828868
 31
0.0
  0
ARC
  5
AEC
330
1A
100
AcDbEntity
  8
ZUWAKU
100
AcDbCircle
 10
51.89221216833721
 20
22.72499986828868
 30
0.0
 40
0.525
100
AcDbArc
 50
0.0
 51
90.0
  0
ARC
  5
AED
330
1A
100
AcDbEntity
  8
ZUWAKU
100
AcDbCircle
 10
51.89221216833721
 20
20.97499986828868
 30
0.0
 40
0.525
100
AcDbArc
 50
270.0
 51
0.0
  0
LINE
  5
AEE
330
1A
100
AcDbEntity
  8
ZUWAKU
100
AcDbLine
 10
52.41721216833719
 20
22.72499986828868
 30
0.0
 11
52.41721216833719
 21
20.97499986828868
 31
0.0
  0
LINE
  5
AEF
330
1A
100
AcDbEntity
  8
ZUWAKU
100
AcDbLine
 10
68.51721216833721
 20
23.24999986828868
 30
0.0
 11
66.76721216833721
 21
23.24999986828868
 31
0.0
  0
ARC
  5
AF0
330
1A
100
AcDbEntity
  8
ZUWAKU
100
AcDbCircle
 10
66.76721216833721
 20
22.72499986828868
 30
0.0
 40
0.525
100
AcDbArc
 50
90.0
 51
180.0
  0
ARC
  5
AF1
330
1A
100
AcDbEntity
  8
ZUWAKU
100
AcDbCircle
 10
63.61721216833712
 20
22.72499986828868
 30
0.0
 40
0.525
100
AcDbArc
 50
0.0
 51
90.0
  0
LINE
  5
AF2
330
1A
100
AcDbEntity
  8
ZUWAKU
100
AcDbLine
 10
63.61721216833712
 20
23.24999986828868
 30
0.0
 11
61.86721216833712
 21
23.24999986828868
 31
0.0
  0
ARC
  5
AF3
330
1A
100
AcDbEntity
  8
ZUWAKU
100
AcDbCircle
 10
61.86721216833712
 20
22.72499986828868
 30
0.0
 40
0.525
100
AcDbArc
 50
90.0
 51
180.0
  0
ARC
  5
AF4
330
1A
100
AcDbEntity
  8
ZUWAKU
100
AcDbCircle
 10
68.51721216833721
 20
22.72499986828868
 30
0.0
 40
0.525
100
AcDbArc
 50
0.0
 51
90.0
  0
TEXT
  5
AF5
330
1A
100
AcDbEntity
  8
MOJI
100
AcDbText
 10
239.827202694407
 20
18.00492092569607
 30
0.0
 40
5.599999999999999
  1
曲り（入）
 41
0.9
  7
ｽﾀｲﾙ1
100
AcDbText
  0
TEXT
  5
AF6
330
1A
100
AcDbEntity
  8
MOJI
100
AcDbText
 10
239.827202694407
 20
3.204920925696104
 30
0.0
 40
5.599999999999999
  1
Ｈ１６０
 41
0.9
  7
ｽﾀｲﾙ1
100
AcDbText
  0
LINE
  5
AF7
330
1A
100
AcDbEntity
  8
ZUWAKU
100
AcDbLine
 10
208.2466013036239
 20
29.99999986828868
 30
0.0
 11
208.2466013036239
 21
0.7999998682887508
 31
0.0
  0
LINE
  5
AF8
330
1A
100
AcDbEntity
  8
ZUWAKU
100
AcDbLine
 10
208.6466013036238
 20
29.99999986828868
 30
0.0
 11
208.646601303624
 21
0.7999998682887508
 31
0.0
  0
LINE
  5
AF9
330
1A
100
AcDbEntity
  8
ZUWAKU
100
AcDbLine
 10
208.4466013036237
 20
29.99999986828868
 30
0.0
 11
208.446601303624
 21
0.7999998682887508
 31
0.0
  0
TEXT
  5
AFA
330
1A
100
AcDbEntity
  8
ZUWAKU
100
AcDbText
 10
209.7240463258335
 20
9.6553564066743
 30
0.0
 40
4.0
  1
サイズ
 41
0.9
  7
ｽﾀｲﾙ1
100
AcDbText
  0
TEXT
  5
AFB
330
1A
100
AcDbEntity
  8
ZUWAKU
100
AcDbText
 10
209.7240463258333
 20
24.05535640667426
 30
0.0
 40
4.0
  1
品名
 41
0.9
  7
ｽﾀｲﾙ1
100
AcDbText
  0
LINE
  5
AFC
330
1A
100
AcDbEntity
  8
ZUWAKU
100
AcDbLine
 10
648.8172025237602
 20
15.19999986828871
 30
0.0
 11
697.2490105620972
 21
15.19999986828871
 31
0.0
  0
LINE
  5
AFD
330
1A
100
AcDbEntity
  8
ZUWAKU
100
AcDbLine
 10
648.8172025237604
 20
15.39999986828872
 30
0.0
 11
697.2490105620972
 21
15.39999986828871
 31
0.0
  0
LINE
  5
AFE
330
1A
100
AcDbEntity
  8
ZUWAKU
100
AcDbLine
 10
648.8172025237602
 20
15.59999986828871
 30
0.0
 11
697.2490105620972
 21
15.59999986828871
 31
0.0
  0
TEXT
  5
AFF
330
1A
100
AcDbEntity
  8
ZUWAKU
100
AcDbText
 10
658.2039377008584
 20
18.00492092569607
 30
0.0
 40
5.599999999999999
  1
　　．　　．　　
 41
0.9
  7
ｽﾀｲﾙ1
100
AcDbText
  0
LINE
  5
B00
330
1A
100
AcDbEntity
  8
ZUWAKU
100
AcDbLine
 10
505.1991795116968
 20
15.19999986828872
 30
0.0
 11
552.5269557796685
 21
15.19999986828872
 31
0.0
  0
LINE
  5
B01
330
1A
100
AcDbEntity
  8
ZUWAKU
100
AcDbLine
 10
505.1991795116968
 20
15.39999986828871
 30
0.0
 11
552.5269557796685
 21
15.39999986828871
 31
0.0
  0
LINE
  5
B02
330
1A
100
AcDbEntity
  8
ZUWAKU
100
AcDbLine
 10
505.1991795116968
 20
15.59999986828871
 30
0.0
 11
552.5269557796685
 21
15.59999986828871
 31
0.0
  0
TEXT
  5
B03
330
1A
100
AcDbEntity
  8
MOJI
100
AcDbText
 10
463.246432004558
 20
11.94261758994866
 30
0.0
 40
5.599999999999999
  1
ＰＥ２２□
 41
0.9
  7
ｽﾀｲﾙ1
100
AcDbText
  0
LINE
  5
B04
330
1A
100
AcDbEntity
  8
ZUWAKU
100
AcDbLine
 10
447.6243639845472
 20
29.99999986828868
 30
0.0
 11
447.6243639845474
 21
0.7999998682887508
 31
0.0
  0
LINE
  5
B05
330
1A
100
AcDbEntity
  8
ZUWAKU
100
AcDbLine
 10
447.8243639845472
 20
29.99999986828868
 30
0.0
 11
447.8243639845475
 21
0.7999998682887508
 31
0.0
  0
LINE
  5
B06
330
1A
100
AcDbEntity
  8
ZUWAKU
100
AcDbLine
 10
447.4243639845474
 20
29.99999986828868
 30
0.0
 11
447.4243639845474
 21
0.7999998682887508
 31
0.0
  0
TEXT
  5
B07
330
1A
100
AcDbEntity
  8
MOJI
100
AcDbText
 10
528.0409079858689
 20
18.00492092569607
 30
0.0
 40
5.599999999999999
  1
Ａ３
 41
0.9
  7
ｽﾀｲﾙ1
100
AcDbText
  0
LINE
  5
B08
330
1A
100
AcDbEntity
  8
ZUWAKU
100
AcDbLine
 10
504.9991795116969
 20
29.99999986828868
 30
0.0
 11
504.999179511697
 21
0.7999998682887508
 31
0.0
  0
LINE
  5
B09
330
1A
100
AcDbEntity
  8
ZUWAKU
100
AcDbLine
 10
505.1991795116968
 20
29.99999986828868
 30
0.0
 11
505.1991795116971
 21
0.7999998682887508
 31
0.0
  0
LINE
  5
B0A
330
1A
100
AcDbEntity
  8
ZUWAKU
100
AcDbLine
 10
504.799179511697
 20
29.99999986828868
 30
0.0
 11
504.799179511697
 21
0.7999998682887508
 31
0.0
  0
TEXT
  5
B0B
330
1A
100
AcDbEntity
  8
ZUWAKU
100
AcDbText
 10
460.3805048888228
 20
2.614070779428175
 30
0.0
 40
3.0
  1
□には色品番が入ります
 41
0.9
  7
ｽﾀｲﾙ1
100
AcDbText
  0
TEXT
  5
B0C
330
1A
100
AcDbEntity
  8
ZUWAKU
100
AcDbText
 10
506.6766245339067
 20
9.6553564066743
 30
0.0
 40
4.0
  1
縮尺
 41
0.9
  7
ｽﾀｲﾙ1
100
AcDbText
  0
TEXT
  5
B0D
330
1A
100
AcDbEntity
  8
MOJI
100
AcDbText
 10
528.0409079858689
 20
3.204920925696104
 30
0.0
 40
5.599999999999999
  1
１/２
 41
0.9
  7
ｽﾀｲﾙ1
100
AcDbText
  0
TEXT
  5
B0E
330
1A
100
AcDbEntity
  8
ZUWAKU
100
AcDbText
 10
449.3018090067569
 20
24.05535640667426
 30
0.0
 40
4.0
  1
品番
 41
0.9
  7
ｽﾀｲﾙ1
100
AcDbText
  0
TEXT
  5
B0F
330
1A
100
AcDbEntity
  8
ZUWAKU
100
AcDbText
 10
506.6766245339065
 20
24.05535640667426
 30
0.0
 40
4.0
  1
用紙
 41
0.9
  7
ｽﾀｲﾙ1
100
AcDbText
  0
LINE
  5
B10
330
1A
100
AcDbEntity
  8
ZUWAKU
100
AcDbLine
 10
648.6172025237603
 20
29.99999986828868
 30
0.0
 11
648.6172025237606
 21
0.7999998682887508
 31
0.0
  0
LINE
  5
B11
330
1A
100
AcDbEntity
  8
ZUWAKU
100
AcDbLine
 10
648.8172025237604
 20
29.99999986828868
 30
0.0
 11
648.8172025237607
 21
0.7999998682887508
 31
0.0
  0
LINE
  5
B12
330
1A
100
AcDbEntity
  8
ZUWAKU
100
AcDbLine
 10
648.4172025237605
 20
29.99999986828868
 30
0.0
 11
648.4172025237605
 21
0.7999998682887508
 31
0.0
  0
LINE
  5
B13
330
1A
100
AcDbEntity
  8
ZUWAKU
100
AcDbLine
 10
552.7269557796683
 20
29.99999986828868
 30
0.0
 11
552.7269557796684
 21
0.7999998682887508
 31
0.0
  0
LINE
  5
B14
330
1A
100
AcDbEntity
  8
ZUWAKU
100
AcDbLine
 10
552.9269557796683
 20
29.99999986828868
 30
0.0
 11
552.9269557796685
 21
0.7999998682887508
 31
0.0
  0
LINE
  5
B15
330
1A
100
AcDbEntity
  8
ZUWAKU
100
AcDbLine
 10
552.5269557796685
 20
29.99999986828868
 30
0.0
 11
552.5269557796685
 21
0.7999998682887508
 31
0.0
  0
TEXT
  5
B16
330
1A
100
AcDbEntity
  8
ZUWAKU
100
AcDbText
 10
650.29464754597
 20
24.05535640667426
 30
0.0
 40
4.0
  1
DATE
 41
0.9
  7
ｽﾀｲﾙ1
100
AcDbText
  0
LINE
  5
B17
330
1A
100
AcDbEntity
  8
ZUWAKU
100
AcDbLine
 10
697.2490105620972
 20
29.99999986828868
 30
0.0
 11
697.2490105620972
 21
0.7999998682887508
 31
0.0
  0
LINE
  5
B18
330
1A
100
AcDbEntity
  8
ZUWAKU
100
AcDbLine
 10
697.4490105620973
 20
29.99999986828868
 30
0.0
 11
697.4490105620973
 21
0.7999998682887508
 31
0.0
  0
LINE
  5
B19
330
1A
100
AcDbEntity
  8
ZUWAKU
100
AcDbLine
 10
697.6490105620971
 20
29.99999986828868
 30
0.0
 11
697.6490105620974
 21
0.7999998682887508
 31
0.0
  0
LINE
  5
B1A
330
1A
100
AcDbEntity
  8
ZUWAKU
100
AcDbLine
 10
697.8490105620972
 20
29.99999986828868
 30
0.0
 11
697.8490105620974
 21
0.7999998682887508
 31
0.0
  0
TEXT
  5
B1B
330
1A
100
AcDbEntity
  8
ZUWAKU
100
AcDbText
 10
708.5280842057998
 20
17.55383920397548
 30
0.0
 40
6.0
  1
積水化学工業株式会社
 41
0.9
  7
ｽﾀｲﾙ1
100
AcDbText
  0
TEXT
  5
B1C
330
1A
100
AcDbEntity
  8
ZUWAKU
100
AcDbText
 10
708.5280842057998
 20
6.648840182142748
 30
0.0
 40
6.0
  1
建材事業部
 41
0.9
  7
ｽﾀｲﾙ1
100
AcDbText
  0
LINE
  5
CEC
330
1A
100
AcDbEntity
  8
SEIHIN
  6
CONTINUOUS
 62
     3
100
AcDbLine
 10
391.9885759405292
 20
317.0579063178077
 30
0.0
 11
461.1258462904945
 21
317.0579063178077
 31
0.0
  0
DIMENSION
  5
CED
330
1A
100
AcDbEntity
  8
SUNPOU
100
AcDbDimension
  2
*D1
 10
424.0228903899178
 20
46.76919998772746
 30
0.0
 11
473.8785838410924
 21
51.76919998772746
 31
0.0
 70
    32
  3
STANDARD
100
AcDbAlignedDimension
 13
523.734277292267
 23
70.03064146197766
 33
0.0
 14
424.0228903899178
 24
70.00822416303413
 34
0.0
100
AcDbRotatedDimension
1001
ACAD
1000
DSTYLE
1002
{
1070
    41
1040
7.0
1070
    42
1040
6.0
1070
    43
1040
14.0
1070
    44
1040
3.0
1070
    73
1070
     0
1070
    74
1070
     0
1070
    77
1070
     3
1070
   140
1040
6.0
1070
   141
1040
150.0
1070
   147
1040
2.0
1070
   172
1070
     1
1070
   173
1070
     1
1070
   176
1070
   256
1070
   177
1070
   256
1070
   178
1070
   256
1070
   271
1070
     0
1070
   272
1070
     2
1070
     6
1000
OPEN
1070
     7
1000
OPEN
1070
   371
1070
    -1
1070
   372
1070
    -1
1002
}
  0
DIMENSION
  5
CEE
330
1A
100
AcDbEntity
  8
SUNPOU
100
AcDbDimension
  2
*D2
 10
289.9534338005981
 20
242.6971122509685
 30
0.0
 11
408.8448163131981
 21
247.6971122509685
 31
0.0
 70
    32
  3
STANDARD
100
AcDbAlignedDimension
 13
527.736198825798
 23
154.4424099511162
 33
0.0
 14
289.9534338005981
 24
210.7066688680163
 34
0.0
100
AcDbRotatedDimension
1001
ACAD
1000
DSTYLE
1002
{
1070
    41
1040
7.0
1070
    42
1040
6.0
1070
    43
1040
14.0
1070
    44
1040
3.0
1070
    73
1070
     0
1070
    74
1070
     0
1070
    77
1070
     3
1070
   140
1040
6.0
1070
   141
1040
150.0
1070
   147
1040
2.0
1070
   172
1070
     1
1070
   173
1070
     1
1070
   176
1070
   256
1070
   177
1070
   256
1070
   178
1070
   256
1070
   271
1070
     0
1070
   272
1070
     2
1070
     6
1000
OPEN
1070
     7
1000
OPEN
1070
   371
1070
    -1
1070
   372
1070
    -1
1002
}
  0
DIMENSION
  5
CEF
330
1A
100
AcDbEntity
  8
SUNPOU
100
AcDbDimension
  2
*D3
 10
527.736198825798
 20
227.5513038974911
 30
0.0
 11
443.844816313198
 21
232.5513038974911
 31
0.0
 70
    32
  3
STANDARD
100
AcDbAlignedDimension
 13
359.9534338005982
 23
196.5077151752165
 33
0.0
 14
527.736198825798
 24
154.4424099511162
 34
0.0
100
AcDbRotatedDimension
1001
ACAD
1000
DSTYLE
1002
{
1070
    41
1040
7.0
1070
    42
1040
6.0
1070
    43
1040
14.0
1070
    44
1040
3.0
1070
    73
1070
     0
1070
    74
1070
     0
1070
    77
1070
     3
1070
   140
1040
6.0
1070
   141
1040
150.0
1070
   147
1040
2.0
1070
   172
1070
     1
1070
   173
1070
     1
1070
   176
1070
   256
1070
   177
1070
   256
1070
   178
1070
   256
1070
   271
1070
     0
1070
   272
1070
     2
1070
     6
1000
OPEN
1070
     7
1000
OPEN
1070
   371
1070
    -1
1070
   372
1070
    -1
1002
}
  0
LINE
  5
CF0
330
1A
100
AcDbEntity
  8
CENTER_L
  6
CENTER
 62
     1
 48
5.0
100
AcDbLine
 10
278.5373747727982
 20
462.2471769538077
 30
0.0
 11
473.6534338005981
 21
462.2471769538077
 31
0.0
  0
LINE
  5
CF1
330
1A
100
AcDbEntity
  8
SEIHIN
  6
CONTINUOUS
 62
     3
100
AcDbLine
 10
392.486095737498
 20
322.0579063178076
 30
0.0
 11
483.6534338005981
 21
322.0579063178076
 31
0.0
  0
ARC
  5
CF2
330
1A
100
AcDbEntity
  8
SEIHIN
  6
CONTINUOUS
 62
     3
100
AcDbCircle
 10
460.4641631645981
 20
1071.479191870416
 30
0.0
 40
1002.7
100
AcDbArc
 50
267.4053482951986
 51
270.7536764094021
  0
ARC
  5
CF3
330
1A
100
AcDbEntity
  8
SEIHIN
  6
CONTINUOUS
 62
     3
100
AcDbCircle
 10
473.6534338005981
 20
1071.479191870416
 30
0.0
 40
998.2499999999999
100
AcDbArc
 50
267.5232126372987
 51
269.4260281708995
  0
ARC
  5
CF4
330
1A
100
AcDbEntity
  8
SEIHIN
  6
CONTINUOUS
 62
     3
100
AcDbCircle
 10
473.6534338005981
 20
1071.479191870416
 30
0.0
 40
995.5
100
AcDbArc
 50
267.5253609887986
 51
269.4244425600995
  0
ARC
  5
CF5
330
1A
100
AcDbEntity
  8
SEIHIN
  6
CONTINUOUS
 62
     3
100
AcDbCircle
 10
473.6534338005981
 20
1071.479191870416
 30
0.0
 40
996.4999999999999
100
AcDbArc
 50
267.5253609887986
 51
269.2812684120011
  0
LINE
  5
CF6
330
1A
100
AcDbEntity
  8
SEIHIN
  6
CONTINUOUS
 62
     3
100
AcDbLine
 10
473.6534338005981
 20
68.7791918704163
 30
0.0
 11
320.9480434987981
 21
68.7791918704163
 31
0.0
  0
LINE
  5
CF7
330
1A
100
AcDbEntity
  8
SEIHIN
  6
CONTINUOUS
 62
     3
100
AcDbLine
 10
382.5467282180982
 20
147.7424102173163
 30
0.0
 11
524.7155224043981
 21
147.7424102173163
 31
0.0
  0
LINE
  5
CF8
330
1A
100
AcDbEntity
  8
SEIHIN
  6
CONTINUOUS
 62
     3
100
AcDbLine
 10
360.9641631645981
 20
278.0579063178076
 30
0.0
 11
526.0464306315982
 21
278.0579063178076
 31
0.0
  0
ARC
  5
CF9
330
1A
100
AcDbEntity
  8
SEIHIN
  6
CONTINUOUS
 62
     3
100
AcDbCircle
 10
473.6534338005981
 20
1071.479191870416
 30
0.0
 40
1000.0
100
AcDbArc
 50
267.4053482410984
 51
272.4608138238969
  0
ARC
  5
CFA
330
1A
100
AcDbEntity
  8
SEIHIN
  6
CONTINUOUS
 62
     3
100
AcDbCircle
 10
473.6534338005981
 20
1071.479191870416
 30
0.0
 40
1002.7
100
AcDbArc
 50
267.4053482148014
 51
272.4608137856975
  0
ARC
  5
CFB
330
1A
100
AcDbEntity
  8
SEIHIN
  6
CONTINUOUS
 62
     3
100
AcDbCircle
 10
473.6534338005981
 20
1071.479191870416
 30
0.0
 40
1001.2
100
AcDbArc
 50
267.4053482951986
 51
272.4608137752984
  0
LINE
  5
CFC
330
1A
100
AcDbEntity
  8
SEIHIN
  6
CONTINUOUS
 62
     3
100
AcDbLine
 10
338.4641631645981
 20
508.4821570055076
 30
0.0
 11
515.0884138522981
 21
508.4821570055076
 31
0.0
  0
LINE
  5
CFD
330
1A
100
AcDbEntity
  8
SEIHIN
  6
CONTINUOUS
 62
     3
100
AcDbLine
 10
329.4641631645981
 20
513.4040846001076
 30
0.0
 11
520.0103414468981
 21
513.4040846001076
 31
0.0
  0
LINE
  5
CFE
330
1A
100
AcDbEntity
  8
CENTER_L
  6
CENTER
 62
     1
 48
5.0
100
AcDbLine
 10
339.5453436214982
 20
328.1390867747077
 30
0.0
 11
536.0236422325981
 21
524.6173853858078
 31
0.0
  0
LINE
  5
CFF
330
1A
100
AcDbEntity
  8
SEIHIN
  6
CONTINUOUS
 62
     3
100
AcDbLine
 10
329.4641631645981
 20
516.1071172416076
 30
0.0
 11
520.0133740883982
 21
516.1071172416076
 31
0.0
  0
LINE
  5
D00
330
1A
100
AcDbEntity
  8
SEIHIN
  6
CONTINUOUS
 62
     3
100
AcDbLine
 10
387.5066791263982
 20
327.0579063178077
 30
0.0
 11
523.8231665551982
 21
327.0579063178077
 31
0.0
  0
DIMENSION
  5
D01
330
1A
100
AcDbEntity
  8
SUNPOU
100
AcDbDimension
  2
*D4
 10
359.4641631645981
 20
263.2030276811335
 30
0.0
 11
324.4641631645981
 21
268.2030276811335
 31
0.0
 70
    32
  3
STANDARD
100
AcDbAlignedDimension
 13
289.4641631645981
 23
349.5579063178077
 33
0.0
 14
359.4641631645981
 24
309.0525160160076
 34
0.0
100
AcDbRotatedDimension
1001
ACAD
1000
DSTYLE
1002
{
1070
    41
1040
7.0
1070
    42
1040
6.0
1070
    43
1040
14.0
1070
    44
1040
3.0
1070
    73
1070
     0
1070
    74
1070
     0
1070
    77
1070
     3
1070
   140
1040
6.0
1070
   141
1040
150.0
1070
   147
1040
2.0
1070
   172
1070
     1
1070
   173
1070
     1
1070
   176
1070
   256
1070
   177
1070
   256
1070
   178
1070
   256
1070
   271
1070
     0
1070
   272
1070
     2
1070
     6
1000
OPEN
1070
     7
1000
OPEN
1070
   371
1070
    -1
1070
   372
1070
    -1
1002
}
  0
DIMENSION
  5
D02
330
1A
100
AcDbEntity
  8
SUNPOU
100
AcDbDimension
  2
*D5
 10
222.4706284472545
 20
68.77919187041633
 30
0.0
 11
217.4706284472545
 21
139.6515082690163
 31
0.0
 70
    32
  1
{141}
  3
STANDARD
100
AcDbAlignedDimension
 13
374.5292706781981
 23
210.5238246676162
 33
0.0
 14
320.9480434987981
 24
68.7791918704163
 34
0.0
 50
90.0
100
AcDbRotatedDimension
1001
ACAD
1000
DSTYLE
1002
{
1070
    41
1040
7.0
1070
    42
1040
6.0
1070
    43
1040
14.0
1070
    44
1040
3.0
1070
    73
1070
     0
1070
    74
1070
     0
1070
    77
1070
     3
1070
   140
1040
6.0
1070
   141
1040
150.0
1070
   147
1040
2.0
1070
   172
1070
     1
1070
   173
1070
     1
1070
   176
1070
   256
1070
   177
1070
   256
1070
   178
1070
   256
1070
   271
1070
     0
1070
   272
1070
     2
1070
     6
1000
OPEN
1070
     7
1000
OPEN
1070
   371
1070
    -1
1070
   372
1070
    -1
1002
}
  0
ARC
  5
D03
330
1A
100
AcDbEntity
  8
SEIHIN
  6
CONTINUOUS
 62
     3
100
AcDbCircle
 10
638.5065390184982
 20
233.6759616104162
 30
0.0
 40
271.1999999999999
100
AcDbArc
 50
188.1530477220002
 51
210.8909784477975
  0
ARC
  5
D04
330
1A
100
AcDbEntity
  8
SEIHIN
  6
CONTINUOUS
 62
     3
100
AcDbCircle
 10
638.5065390184982
 20
233.6759616104162
 30
0.0
 40
272.6999999999999
100
AcDbArc
 50
188.2950017451991
 51
210.8909784477975
  0
ARC
  5
D05
330
1A
100
AcDbEntity
  8
SEIHIN
  6
CONTINUOUS
 62
     3
100
AcDbCircle
 10
638.5065390184982
 20
233.6759616104162
 30
0.0
 40
270.0
100
AcDbArc
 50
188.1530476391001
 51
210.8909785103012
  0
ARC
  5
D06
330
1A
100
AcDbEntity
  8
SEIHIN
  6
CONTINUOUS
 62
     3
100
AcDbCircle
 10
625.3172683824982
 20
233.6759616104162
 30
0.0
 40
272.6999999999999
100
AcDbArc
 50
188.3271447005008
 51
210.8909784477975
  0
LINE
  5
D07
330
1A
100
AcDbEntity
  8
SEIHIN
  6
CONTINUOUS
 62
     3
100
AcDbLine
 10
289.9534338005981
 20
70.27919187041629
 30
0.0
 11
289.9534338005981
 21
210.7066688680163
 31
0.0
  0
LINE
  5
D08
330
1A
100
AcDbEntity
  8
SEIHIN
  6
CONTINUOUS
 62
     3
100
AcDbLine
 10
410.7279717928586
 20
70.0082241630339
 30
0.0
 11
320.9480434987981
 21
70.0082241630339
 31
0.0
  0
LINE
  5
D09
330
1A
100
AcDbEntity
  8
SEIHIN
  6
CONTINUOUS
 62
     3
100
AcDbLine
 10
407.6653308885981
 20
91.86971037911622
 30
0.0
 11
320.9480434987981
 21
91.86971037911622
 31
0.0
  0
LINE
  5
D0A
330
1A
100
AcDbEntity
  8
SEIHIN
  6
CONTINUOUS
 62
     3
100
AcDbLine
 10
289.9534338005981
 20
71.5082241630339
 30
0.0
 11
308.9695853531982
 21
70.36725506983384
 31
0.0
  0
LINE
  5
D0B
330
1A
100
AcDbEntity
  8
SEIHIN
  6
CONTINUOUS
 62
     3
100
AcDbLine
 10
289.9534338005981
 20
70.27919187041629
 30
0.0
 11
308.9695853531982
 21
69.13822277721624
 31
0.0
  0
ARC
  5
D0C
330
1A
100
AcDbEntity
  8
SEIHIN
  6
CONTINUOUS
 62
     3
100
AcDbCircle
 10
320.9480434987981
 20
270.0082241630338
 30
0.0
 40
200.0
100
AcDbArc
 50
266.5663696374982
 51
270.0
  0
ARC
  5
D0D
330
1A
100
AcDbEntity
  8
SEIHIN
  6
CONTINUOUS
 62
     3
100
AcDbCircle
 10
320.9480434987981
 20
268.7791918704163
 30
0.0
 40
200.0
100
AcDbArc
 50
266.5663696374982
 51
270.0
  0
LINE
  5
D0E
330
1A
100
AcDbEntity
  8
SEIHIN
  6
CONTINUOUS
 62
     3
100
AcDbLine
 10
289.9534338005981
 20
93.36971037911622
 30
0.0
 11
308.9695853531982
 21
92.2287412860162
 31
0.0
  0
ARC
  5
D0F
330
1A
100
AcDbEntity
  8
SEIHIN
  6
CONTINUOUS
 62
     3
100
AcDbCircle
 10
320.9480434987981
 20
291.8697103791163
 30
0.0
 40
200.0
100
AcDbArc
 50
266.5663696374982
 51
270.0
  0
LINE
  5
D10
330
1A
100
AcDbEntity
  8
SEIHIN
  6
CONTINUOUS
 62
     3
100
AcDbLine
 10
418.2451382626982
 20
92.99524013551627
 30
0.0
 11
422.9914506653981
 21
74.11184801191621
 31
0.0
  0
LINE
  5
D11
330
1A
100
AcDbEntity
  8
SEIHIN
  6
CONTINUOUS
 62
     3
100
AcDbLine
 10
419.3669566386981
 20
94.68547524381632
 30
0.0
 11
424.4462015735982
 21
74.47749783781626
 31
0.0
  0
LINE
  5
D12
330
1A
100
AcDbEntity
  8
SEIHIN
  6
CONTINUOUS
 62
     3
100
AcDbLine
 10
405.3387678495982
 20
91.86971037911622
 30
0.0
 11
409.8021799446983
 21
74.11184834881623
 31
0.0
  0
LINE
  5
D13
330
1A
100
AcDbEntity
  8
SEIHIN
  6
CONTINUOUS
 62
     3
100
AcDbLine
 10
422.9359783810982
 20
99.76674058861625
 30
0.0
 11
428.496071568998
 21
77.64568933861631
 31
0.0
  0
LINE
  5
D14
330
1A
100
AcDbEntity
  8
SEIHIN
  6
CONTINUOUS
 62
     3
100
AcDbLine
 10
420.2644113840981
 20
96.03766315341625
 30
0.0
 11
425.6100023309982
 21
74.77001757541632
 31
0.0
  0
LINE
  5
D15
330
1A
100
AcDbEntity
  8
SEIHIN
  6
CONTINUOUS
 62
     3
100
AcDbLine
 10
423.7702916870983
 20
100.5496813514162
 30
0.0
 11
429.4659055641982
 21
77.8894556646162
 31
0.0
  0
LINE
  5
D16
330
1A
100
AcDbEntity
  8
SEIHIN
  6
CONTINUOUS
 62
     3
100
AcDbLine
 10
421.4759300956982
 20
98.39659425381626
 30
0.0
 11
426.8079495078982
 21
77.18294356501622
 31
0.0
  0
LINE
  5
D17
330
1A
100
AcDbEntity
  8
SEIHIN
  6
CONTINUOUS
 62
     3
100
AcDbLine
 10
424.4004447506918
 20
70.0082241630339
 30
0.0
 11
417.1304558256597
 21
70.0082241630339
 31
0.0
  0
ARC
  5
D18
330
1A
100
AcDbEntity
  8
SEIHIN
  6
CONTINUOUS
 62
     3
100
AcDbCircle
 10
428.5195043534981
 20
75.50131640691621
 30
0.0
 40
5.7
100
AcDbArc
 50
194.1089426459009
 51
267.4053341392979
  0
ARC
  5
D19
330
1A
100
AcDbEntity
  8
SEIHIN
  6
CONTINUOUS
 62
     3
100
AcDbCircle
 10
415.3302337175983
 20
75.50131640691621
 30
0.0
 40
5.7
100
AcDbArc
 50
194.1089391538003
 51
267.4053482951986
  0
ARC
  5
D1A
330
1A
100
AcDbEntity
  8
SEIHIN
  6
CONTINUOUS
 62
     3
100
AcDbCircle
 10
428.5195043534981
 20
75.50131640691621
 30
0.0
 40
3.0
100
AcDbArc
 50
194.1089391538003
 51
267.4053482951986
  0
ARC
  5
D1B
330
1A
100
AcDbEntity
  8
SEIHIN
  6
CONTINUOUS
 62
     3
100
AcDbCircle
 10
430.6872854887981
 20
78.15800886901627
 30
0.0
 40
4.0
100
AcDbArc
 50
194.1089391538003
 51
267.5232126372987
  0
ARC
  5
D1C
330
1A
100
AcDbEntity
  8
SEIHIN
  6
CONTINUOUS
 62
     3
100
AcDbCircle
 10
430.7266897579982
 20
78.20635188841629
 30
0.0
 40
1.3
100
AcDbArc
 50
194.1089391538003
 51
267.5253609887986
  0
ARC
  5
D1D
330
1A
100
AcDbEntity
  8
SEIHIN
  6
CONTINUOUS
 62
     3
100
AcDbCircle
 10
430.7266897579982
 20
78.20635188841629
 30
0.0
 40
2.299999999999999
100
AcDbArc
 50
194.1089391538003
 51
267.5253609887986
  0
ARC
  5
D1E
330
1A
100
AcDbEntity
  8
SEIHIN
  6
CONTINUOUS
 62
     3
100
AcDbCircle
 10
428.5195043534981
 20
75.50131640691621
 30
0.0
 40
4.2
100
AcDbArc
 50
194.1089391538003
 51
267.4053482951986
  0
LINE
  5
D1F
330
1A
100
AcDbEntity
  8
SEIHIN
  6
CONTINUOUS
 62
     3
100
AcDbLine
 10
388.0701310969982
 20
134.4791918704162
 30
0.0
 11
391.5594650659982
 21
134.4791918704162
 31
0.0
  0
ARC
  5
D20
330
1A
100
AcDbEntity
  8
SEIHIN
  6
CONTINUOUS
 62
     3
100
AcDbCircle
 10
390.7502679904983
 20
133.4791918704162
 30
0.0
 40
1.0
100
AcDbArc
 50
90.0
 51
202.0192296207013
  0
ARC
  5
D21
330
1A
100
AcDbEntity
  8
SEIHIN
  6
CONTINUOUS
 62
     3
100
AcDbCircle
 10
638.5065390184982
 20
233.6759616104162
 30
0.0
 40
268.25
100
AcDbArc
 50
202.0192296207013
 51
209.4186780300986
  0
ARC
  5
D22
330
1A
100
AcDbEntity
  8
SEIHIN
  6
CONTINUOUS
 62
     3
100
AcDbCircle
 10
388.0701310969982
 20
135.4791918704162
 30
0.0
 40
1.0
100
AcDbArc
 50
201.4102754042988
 51
270.0
  0
ARC
  5
D23
330
1A
100
AcDbEntity
  8
SEIHIN
  6
CONTINUOUS
 62
     3
100
AcDbCircle
 10
638.5065390184982
 20
233.6759616104162
 30
0.0
 40
266.5
100
AcDbArc
 50
201.8526281081981
 51
209.1587316996968
  0
ARC
  5
D24
330
1A
100
AcDbEntity
  8
SEIHIN
  6
CONTINUOUS
 62
     3
100
AcDbCircle
 10
638.5065390184982
 20
233.6759616104162
 30
0.0
 40
265.5
100
AcDbArc
 50
202.0844548815006
 51
209.0088523754009
  0
LINE
  5
D25
330
1A
100
AcDbEntity
  8
SEIHIN
  6
CONTINUOUS
 62
     3
100
AcDbLine
 10
408.875133398098
 20
105.3170141374163
 30
0.0
 11
423.7702916870983
 21
100.5496813514162
 31
0.0
  0
LINE
  5
D26
330
1A
100
AcDbEntity
  8
SEIHIN
  6
CONTINUOUS
 62
     3
100
AcDbLine
 10
408.794515362698
 20
104.2928462521163
 30
0.0
 11
408.653433800598
 21
102.5005524528162
 31
0.0
  0
LINE
  5
D27
330
1A
100
AcDbEntity
  8
SEIHIN
  6
CONTINUOUS
 62
     3
100
AcDbLine
 10
408.794515362698
 20
104.2928462521163
 30
0.0
 11
422.9359783810982
 21
99.76674058861625
 31
0.0
  0
LINE
  5
D28
330
1A
100
AcDbEntity
  8
SEIHIN
  6
CONTINUOUS
 62
     3
100
AcDbLine
 10
408.794515362698
 20
104.2928462521163
 30
0.0
 11
405.7792204590982
 21
103.8289547285162
 31
0.0
  0
LINE
  5
D29
330
1A
100
AcDbEntity
  8
SEIHIN
  6
CONTINUOUS
 62
     3
100
AcDbLine
 10
408.653433800598
 20
102.5005524528162
 30
0.0
 11
404.8463749848981
 21
101.9148510966163
 31
0.0
  0
ARC
  5
D2A
330
1A
100
AcDbEntity
  8
SEIHIN
  6
CONTINUOUS
 62
     3
100
AcDbCircle
 10
407.6653308885981
 20
95.56971037911626
 30
0.0
 40
3.7
100
AcDbArc
 50
210.8909784477975
 51
278.7461622625968
  0
ARC
  5
D2B
330
1A
100
AcDbEntity
  8
SEIHIN
  6
CONTINUOUS
 62
     3
100
AcDbCircle
 10
407.6653308885981
 20
95.56971037911626
 30
0.0
 40
2.2
100
AcDbArc
 50
210.8909784477975
 51
278.7461622625968
  0
ARC
  5
D2C
330
1A
100
AcDbEntity
  8
SEIHIN
  6
CONTINUOUS
 62
     3
100
AcDbCircle
 10
407.6653308885981
 20
95.56971037911626
 30
0.0
 40
1.0
100
AcDbArc
 50
210.8909953167988
 51
278.7461536077985
  0
LINE
  5
D2D
330
1A
100
AcDbEntity
  8
SEIHIN
  6
CONTINUOUS
 62
     3
100
AcDbLine
 10
404.8463749848981
 20
101.9148510966163
 30
0.0
 11
405.7792204590982
 21
103.8289547285162
 31
0.0
  0
ARC
  5
D2E
330
1A
100
AcDbEntity
  8
SEIHIN
  6
CONTINUOUS
 62
     3
100
AcDbCircle
 10
394.4760602525982
 20
95.56971037911626
 30
0.0
 40
3.7
100
AcDbArc
 50
210.8909784477975
 51
269.9999951221002
  0
ARC
  5
D2F
330
1A
100
AcDbEntity
  8
SEIHIN
  6
CONTINUOUS
 62
     3
100
AcDbCircle
 10
419.7794943418982
 20
95.91578016761628
 30
0.0
 40
0.5
100
AcDbArc
 50
14.10891822780071
 51
98.7461776505023
  0
LINE
  5
D30
330
1A
100
AcDbEntity
  8
SEIHIN
  6
CONTINUOUS
 62
     3
100
AcDbLine
 10
421.4759300956982
 20
98.39659425381626
 30
0.0
 11
422.9359783810982
 21
99.76674058861625
 31
0.0
  0
ARC
  5
D31
330
1A
100
AcDbEntity
  8
SEIHIN
  6
CONTINUOUS
 62
     3
100
AcDbCircle
 10
407.6653308885981
 20
95.56971037911626
 30
0.0
 40
1.0
100
AcDbArc
 50
210.8909784477975
 51
210.8909928253003
  0
LINE
  5
D32
330
1A
100
AcDbEntity
  8
SEIHIN
  6
CONTINUOUS
 62
     3
100
AcDbLine
 10
408.653433800598
 20
102.5005524528162
 30
0.0
 11
421.4759300956982
 21
98.39659425381626
 31
0.0
  0
ARC
  5
D33
330
1A
100
AcDbEntity
  8
SEIHIN
  6
CONTINUOUS
 62
     3
100
AcDbCircle
 10
417.7602212649981
 20
92.87335697251625
 30
0.0
 40
0.5
100
AcDbArc
 50
14.1089391538003
 51
98.7461622625968
  0
LINE
  5
D34
330
1A
100
AcDbEntity
  8
SEIHIN
  6
CONTINUOUS
 62
     3
100
AcDbLine
 10
417.6841926728982
 20
93.3675428213163
 30
0.0
 11
408.2279424703981
 21
91.91273509781627
 31
0.0
  0
LINE
  5
D35
330
1A
100
AcDbEntity
  8
SEIHIN
  6
CONTINUOUS
 62
     3
100
AcDbLine
 10
418.8060110489982
 20
95.05777792971628
 30
0.0
 11
407.9998566939982
 21
93.39529264431632
 31
0.0
  0
LINE
  5
D36
330
1A
100
AcDbEntity
  8
SEIHIN
  6
CONTINUOUS
 62
     3
100
AcDbLine
 10
419.7034656170981
 20
96.40996599601624
 30
0.0
 11
407.8173879235983
 21
94.5813386585163
 31
0.0
  0
ARC
  5
D37
330
1A
100
AcDbEntity
  8
SEIHIN
  6
CONTINUOUS
 62
     3
100
AcDbCircle
 10
418.8820396410981
 20
94.5635920808163
 30
0.0
 40
0.5
100
AcDbArc
 50
14.1089391538003
 51
98.7461622625968
  0
LINE
  5
D38
330
1A
100
AcDbEntity
  8
SEIHIN
  6
CONTINUOUS
 62
     3
100
AcDbLine
 10
408.875133398098
 20
105.3170141374163
 30
0.0
 11
406.3148967125981
 21
104.9231315704162
 31
0.0
  0
ARC
  5
D39
330
1A
100
AcDbEntity
  8
SEIHIN
  6
CONTINUOUS
 62
     3
100
AcDbCircle
 10
392.7980191921981
 20
130.4791918704162
 30
0.0
 40
1.0
100
AcDbArc
 50
22.7822454521987
 51
90.0
  0
ARC
  5
D3A
330
1A
100
AcDbEntity
  8
SEIHIN
  6
CONTINUOUS
 62
     3
100
AcDbCircle
 10
391.5594650659982
 20
133.4791918704162
 30
0.0
 40
1.0
100
AcDbArc
 50
22.08445488150059
 51
90.0
  0
ARC
  5
D3B
330
1A
100
AcDbEntity
  8
SEIHIN
  6
CONTINUOUS
 62
     3
100
AcDbCircle
 10
391.9847565828981
 20
130.4791918704162
 30
0.0
 40
1.0
100
AcDbArc
 50
90.0
 51
202.7147297615992
  0
LINE
  5
D3C
330
1A
100
AcDbEntity
  8
SEIHIN
  6
CONTINUOUS
 62
     3
100
AcDbLine
 10
391.9847565828981
 20
131.4791918704162
 30
0.0
 11
392.7980191921981
 21
131.4791918704162
 31
0.0
  0
LINE
  5
D3D
330
1A
100
AcDbEntity
  8
SEIHIN
  6
CONTINUOUS
 62
     3
100
AcDbLine
 10
359.9342146651981
 20
196.2880394521163
 30
0.0
 11
317.8873051588982
 21
196.2880394521163
 31
0.0
  0
LINE
  5
D3E
330
1A
100
AcDbEntity
  8
SEIHIN
  6
CONTINUOUS
 62
     3
100
AcDbLine
 10
362.8005405668982
 20
194.1821876902163
 30
0.0
 11
321.1755787089981
 21
194.1821876902163
 31
0.0
  0
LINE
  5
D3F
330
1A
100
AcDbEntity
  8
SEIHIN
  6
CONTINUOUS
 62
     3
100
AcDbLine
 10
329.9534338005981
 20
210.7066688680163
 30
0.0
 11
289.9534338005981
 21
210.7066688680163
 31
0.0
  0
LINE
  5
D40
330
1A
100
AcDbEntity
  8
SEIHIN
  6
CONTINUOUS
 62
     3
100
AcDbLine
 10
289.9534338005981
 20
197.0216651606163
 30
0.0
 11
312.0208248503981
 21
196.3740969448163
 31
0.0
  0
LINE
  5
D41
330
1A
100
AcDbEntity
  8
SEIHIN
  6
CONTINUOUS
 62
     3
100
AcDbLine
 10
289.9534338005981
 20
195.7392309440163
 30
0.0
 11
308.7433217899981
 21
194.5689642107163
 31
0.0
  0
ARC
  5
D42
330
1A
100
AcDbEntity
  8
SEIHIN
  6
CONTINUOUS
 62
     3
100
AcDbCircle
 10
321.1755787089981
 20
394.1821876902163
 30
0.0
 40
200.0
100
AcDbArc
 50
266.4361230740972
 51
270.0
  0
ARC
  5
D43
330
1A
100
AcDbEntity
  8
SEIHIN
  6
CONTINUOUS
 62
     3
100
AcDbCircle
 10
317.8873051588982
 20
396.2880394521163
 30
0.0
 40
200.0
100
AcDbArc
 50
268.3191360967979
 51
270.0
  0
LINE
  5
D44
330
1A
100
AcDbEntity
  8
SEIHIN
  6
CONTINUOUS
 62
     3
100
AcDbLine
 10
362.6534338005981
 20
205.9166313885163
 30
0.0
 11
331.4534338005981
 21
205.9166313885163
 31
0.0
  0
LINE
  5
D45
330
1A
100
AcDbEntity
  8
SEIHIN
  6
CONTINUOUS
 62
     3
100
AcDbLine
 10
346.7641631645981
 20
196.5077151752162
 30
0.0
 11
347.3458275874982
 21
203.1561699515163
 31
0.0
  0
ARC
  5
D46
330
1A
100
AcDbEntity
  8
SEIHIN
  6
CONTINUOUS
 62
     3
100
AcDbCircle
 10
349.6112699309981
 20
194.6821876902163
 30
0.0
 40
0.5
100
AcDbArc
 50
232.1250163488993
 51
276.2258290644007
  0
ARC
  5
D47
330
1A
100
AcDbEntity
  8
SEIHIN
  6
CONTINUOUS
 62
     3
100
AcDbCircle
 10
347.2641631645981
 20
196.5077151752162
 30
0.0
 40
0.5
100
AcDbArc
 50
180.0
 51
232.1250163488993
  0
LINE
  5
D48
330
1A
100
AcDbEntity
  8
SEIHIN
  6
CONTINUOUS
 62
     3
100
AcDbLine
 10
346.9571928578982
 20
196.1130390665163
 30
0.0
 11
349.3042996241981
 21
194.2875115816162
 31
0.0
  0
LINE
  5
D49
330
1A
100
AcDbEntity
  8
SEIHIN
  6
CONTINUOUS
 62
     3
100
AcDbLine
 10
329.9534338005981
 20
207.4166313885163
 30
0.0
 11
329.9534338005981
 21
210.7066688680163
 31
0.0
  0
ARC
  5
D4A
330
1A
100
AcDbEntity
  8
SEIHIN
  6
CONTINUOUS
 62
     3
100
AcDbCircle
 10
331.4534338005981
 20
207.4166313885163
 30
0.0
 40
1.5
100
AcDbArc
 50
180.0
 51
270.0
  0
LINE
  5
D4B
330
1A
100
AcDbEntity
  8
SEIHIN
  6
CONTINUOUS
 62
     3
100
AcDbLine
 10
349.3197684583981
 20
205.8380974889163
 30
0.0
 11
349.5113234643981
 21
205.9166313885163
 31
0.0
  0
ARC
  5
D4C
330
1A
100
AcDbEntity
  8
SEIHIN
  6
CONTINUOUS
 62
     3
100
AcDbCircle
 10
350.5336506213982
 20
202.8772715747162
 30
0.0
 40
3.2
100
AcDbArc
 50
112.2926937813994
 51
174.9999999999999
  0
ARC
  5
D4D
330
1A
100
AcDbEntity
  8
SEIHIN
  6
CONTINUOUS
 62
     3
100
AcDbCircle
 10
368.7607567530981
 20
195.0306132481163
 30
0.0
 40
2.5
100
AcDbArc
 50
8.153047722000275
 51
96.22582906440074
  0
ARC
  5
D4E
330
1A
100
AcDbEntity
  8
SEIHIN
  6
CONTINUOUS
 62
     3
100
AcDbCircle
 10
361.9534338005982
 20
197.2413408837162
 30
0.0
 40
0.5
100
AcDbArc
 50
180.0
 51
232.1250163488993
  0
ARC
  5
D4F
330
1A
100
AcDbEntity
  8
SEIHIN
  6
CONTINUOUS
 62
     3
100
AcDbCircle
 10
363.4534338005981
 20
197.7712108489163
 30
0.0
 40
0.8
100
AcDbArc
 50
179.9999836027007
 51
276.2258393548994
  0
LINE
  5
D50
330
1A
100
AcDbEntity
  8
SEIHIN
  6
CONTINUOUS
 62
     3
100
AcDbLine
 10
359.9534338005982
 20
196.5077151752162
 30
0.0
 11
360.5350982234981
 21
203.1561699515163
 31
0.0
  0
ARC
  5
D51
330
1A
100
AcDbEntity
  8
SEIHIN
  6
CONTINUOUS
 62
     3
100
AcDbCircle
 10
368.7607567530981
 20
195.0306132481163
 30
0.0
 40
1.3
100
AcDbArc
 50
8.153047722000275
 51
96.22582906440074
  0
ARC
  5
D52
330
1A
100
AcDbEntity
  8
SEIHIN
  6
CONTINUOUS
 62
     3
100
AcDbCircle
 10
368.1646540499982
 20
194.2614308925162
 30
0.0
 40
0.5
100
AcDbArc
 50
8.295001745199138
 51
96.22582906440074
  0
ARC
  5
D53
330
1A
100
AcDbEntity
  8
SEIHIN
  6
CONTINUOUS
 62
     3
100
AcDbCircle
 10
363.2418608658981
 20
196.2392309440162
 30
0.0
 40
0.5
100
AcDbArc
 50
232.1250163488993
 51
276.2258290644007
  0
LINE
  5
D54
330
1A
100
AcDbEntity
  8
SEIHIN
  6
CONTINUOUS
 62
     3
100
AcDbLine
 10
361.6464634938981
 20
196.8466647750162
 30
0.0
 11
362.9348905591982
 21
195.8445548353163
 31
0.0
  0
ARC
  5
D55
330
1A
100
AcDbEntity
  8
SEIHIN
  6
CONTINUOUS
 62
     3
100
AcDbCircle
 10
360.4534338005981
 20
196.5077151752162
 30
0.0
 40
0.5
100
AcDbArc
 50
180.0
 51
232.1249924451005
  0
LINE
  5
D56
330
1A
100
AcDbEntity
  8
SEIHIN
  6
CONTINUOUS
 62
     3
100
AcDbLine
 10
360.1464633291982
 20
196.1130391945163
 30
0.0
 11
362.4935702601981
 21
194.2875115816162
 31
0.0
  0
ARC
  5
D57
330
1A
100
AcDbEntity
  8
SEIHIN
  6
CONTINUOUS
 62
     3
100
AcDbCircle
 10
362.8005405668982
 20
194.6821876902163
 30
0.0
 40
0.5
100
AcDbArc
 50
232.1250163488993
 51
276.2258290644007
  0
LINE
  5
D58
330
1A
100
AcDbEntity
  8
SEIHIN
  6
CONTINUOUS
 62
     3
100
AcDbLine
 10
368.6197749898981
 20
196.3229460777163
 30
0.0
 11
363.2960846209982
 21
195.7421798557162
 31
0.0
  0
LINE
  5
D59
330
1A
100
AcDbEntity
  8
SEIHIN
  6
CONTINUOUS
 62
     3
100
AcDbLine
 10
368.1104302948981
 20
194.7584819808163
 30
0.0
 11
362.8547643219981
 21
194.1851366019162
 31
0.0
  0
ARC
  5
D5A
330
1A
100
AcDbEntity
  8
SEIHIN
  6
CONTINUOUS
 62
     3
100
AcDbCircle
 10
374.5292706781981
 20
207.5238246676162
 30
0.0
 40
3.0
100
AcDbArc
 50
254.9381920302004
 51
112.2926990702013
  0
ARC
  5
D5B
330
1A
100
AcDbEntity
  8
SEIHIN
  6
CONTINUOUS
 62
     3
100
AcDbCircle
 10
373.3425076907981
 20
206.8211185706162
 30
0.0
 40
1.5
100
AcDbArc
 50
343.5407503716977
 51
112.2926937813994
  0
ARC
  5
D5C
330
1A
100
AcDbEntity
  8
SEIHIN
  6
CONTINUOUS
 62
     3
100
AcDbCircle
 10
373.3425076907981
 20
206.8211185706162
 30
0.0
 40
0.5
100
AcDbArc
 50
343.5407660015985
 51
112.2926786802024
  0
ARC
  5
D5D
330
1A
100
AcDbEntity
  8
SEIHIN
  6
CONTINUOUS
 62
     3
100
AcDbCircle
 10
373.8796184549983
 20
205.1097095111162
 30
0.0
 40
0.5
100
AcDbArc
 50
163.5407503716993
 51
254.9381920302004
  0
LINE
  5
D5E
330
1A
100
AcDbEntity
  8
SEIHIN
  6
CONTINUOUS
 62
     3
100
AcDbLine
 10
362.6534338005981
 20
202.6437925931162
 30
0.0
 11
362.6534338005981
 21
203.7245720938162
 31
0.0
  0
ARC
  5
D5F
330
1A
100
AcDbEntity
  8
SEIHIN
  6
CONTINUOUS
 62
     3
100
AcDbCircle
 10
363.1534338005981
 20
203.7245720938162
 30
0.0
 40
0.5
100
AcDbArc
 50
112.2926937813994
 51
180.0
  0
ARC
  5
D60
330
1A
100
AcDbEntity
  8
SEIHIN
  6
CONTINUOUS
 62
     3
100
AcDbCircle
 10
363.7229212573982
 20
202.8772715747162
 30
0.0
 40
3.2
100
AcDbArc
 50
112.2926937813994
 51
174.9999999999999
  0
ARC
  5
D61
330
1A
100
AcDbEntity
  8
SEIHIN
  6
CONTINUOUS
 62
     3
100
AcDbCircle
 10
363.1534338005981
 20
202.6437925773162
 30
0.0
 40
0.5
100
AcDbArc
 50
112.2926937813994
 51
180.0
  0
LINE
  5
D62
330
1A
100
AcDbEntity
  8
SEIHIN
  6
CONTINUOUS
 62
     3
100
AcDbLine
 10
362.5090390943981
 20
205.8380974889163
 30
0.0
 11
373.3912558940983
 21
210.2995988572163
 31
0.0
  0
LINE
  5
D63
330
1A
100
AcDbEntity
  8
SEIHIN
  6
CONTINUOUS
 62
     3
100
AcDbLine
 10
362.9637647125981
 20
204.1872011429162
 30
0.0
 11
372.7735004268982
 21
208.2090057179162
 31
0.0
  0
LINE
  5
D64
330
1A
100
AcDbEntity
  8
SEIHIN
  6
CONTINUOUS
 62
     3
100
AcDbLine
 10
362.9637647125981
 20
203.1064216264162
 30
0.0
 11
373.1528387246981
 21
207.2837476697162
 31
0.0
  0
LINE
  5
D65
330
1A
100
AcDbEntity
  8
SEIHIN
  6
CONTINUOUS
 62
     3
100
AcDbLine
 10
368.4896380687983
 20
197.5158686996162
 30
0.0
 11
363.5401919515982
 21
196.9759291232162
 31
0.0
  0
LINE
  5
D66
330
1A
100
AcDbEntity
  8
SEIHIN
  6
CONTINUOUS
 62
     3
100
AcDbLine
 10
361.4534338005981
 20
197.2413408837162
 30
0.0
 11
361.4534338005981
 21
205.1332473466162
 31
0.0
  0
LINE
  5
D67
330
1A
100
AcDbEntity
  8
SEIHIN
  6
CONTINUOUS
 62
     3
100
AcDbLine
 10
362.6534338005981
 20
197.7712110778162
 30
0.0
 11
362.6534338005981
 21
202.6437925931162
 31
0.0
  0
LINE
  5
D68
330
1A
100
AcDbEntity
  8
SEIHIN
  6
CONTINUOUS
 62
     3
100
AcDbLine
 10
373.8220184753981
 20
206.6794520348163
 30
0.0
 11
373.4001077088983
 21
205.2513761778162
 31
0.0
  0
LINE
  5
D69
330
1A
100
AcDbEntity
  8
SEIHIN
  6
CONTINUOUS
 62
     3
100
AcDbLine
 10
374.7810399288983
 20
206.3961185706162
 30
0.0
 11
374.2322442549982
 21
204.5385649965162
 31
0.0
  0
DIMENSION
  5
D6A
330
1A
100
AcDbEntity
  8
SUNPOU
100
AcDbDimension
  2
*D6
 10
202.1092509033801
 20
278.0579063178076
 30
0.0
 11
197.1092509033801
 21
397.0825117797076
 31
0.0
 70
    32
  3
STANDARD
100
AcDbAlignedDimension
 13
329.4641631645981
 23
516.1071172416076
 33
0.0
 14
360.9641631645981
 24
278.0579063178076
 34
0.0
 50
90.0
100
AcDbRotatedDimension
1001
ACAD
1000
DSTYLE
1002
{
1070
    41
1040
7.0
1070
    42
1040
6.0
1070
    43
1040
14.0
1070
    44
1040
3.0
1070
    73
1070
     0
1070
    74
1070
     0
1070
    77
1070
     3
1070
   140
1040
6.0
1070
   141
1040
150.0
1070
   147
1040
2.0
1070
   172
1070
     1
1070
   173
1070
     1
1070
   176
1070
   256
1070
   177
1070
   256
1070
   178
1070
   256
1070
   271
1070
     0
1070
   272
1070
     2
1070
     6
1000
OPEN
1070
     7
1000
OPEN
1070
   371
1070
    -1
1070
   372
1070
    -1
1002
}
  0
LINE
  5
D6B
330
1A
100
AcDbEntity
  8
SEIHIN
  6
CONTINUOUS
 62
     3
100
AcDbLine
 10
328.4641631645981
 20
380.582319093713
 30
0.0
 11
328.4641631645981
 21
449.7195894437084
 31
0.0
  0
LINE
  5
D6C
330
1A
100
AcDbEntity
  8
SEIHIN
  6
CONTINUOUS
 62
     3
100
AcDbLine
 10
418.522643606298
 20
407.1163867595076
 30
0.0
 11
412.6788869574982
 21
412.9601434082077
 31
0.0
  0
ARC
  5
D6D
330
1A
100
AcDbEntity
  8
SEIHIN
  6
CONTINUOUS
 62
     3
100
AcDbCircle
 10
400.2967788227981
 20
400.9497329824077
 30
0.0
 40
7.7
100
AcDbArc
 50
45.0
 51
90.0
  0
LINE
  5
D6E
330
1A
100
AcDbEntity
  8
SEIHIN
  6
CONTINUOUS
 62
     3
100
AcDbLine
 10
333.4641631645981
 20
381.0798388907077
 30
0.0
 11
333.4641631645981
 21
472.2471769538077
 31
0.0
  0
LINE
  5
D6F
330
1A
100
AcDbEntity
  8
SEIHIN
  6
CONTINUOUS
 62
     3
100
AcDbLine
 10
289.4641631645981
 20
349.5579063178077
 30
0.0
 11
289.4641631645981
 21
514.6401737847077
 31
0.0
  0
LINE
  5
D70
330
1A
100
AcDbEntity
  8
SEIHIN
  6
CONTINUOUS
 62
     3
100
AcDbLine
 10
338.4641631645981
 20
376.1004222795077
 30
0.0
 11
338.4641631645981
 21
512.4169097084076
 31
0.0
  0
DIMENSION
  5
D71
330
1A
100
AcDbEntity
  8
SUNPOU
100
AcDbDimension
  2
*D7
 10
231.7070765659659
 20
348.1476841946893
 30
0.0
 11
226.7070765659659
 21
313.1027952562485
 31
0.0
 70
    32
  3
STANDARD
100
AcDbAlignedDimension
 13
360.9641631645981
 23
278.0579063178076
 33
0.0
 14
314.4668540811839
 24
348.1476841946893
 34
0.0
 50
90.0
100
AcDbRotatedDimension
1001
ACAD
1000
DSTYLE
1002
{
1070
    41
1040
7.0
1070
    42
1040
6.0
1070
    43
1040
14.0
1070
    44
1040
3.0
1070
    73
1070
     0
1070
    74
1070
     0
1070
    77
1070
     3
1070
   140
1040
6.0
1070
   141
1040
150.0
1070
   147
1040
2.0
1070
   172
1070
     1
1070
   173
1070
     1
1070
   176
1070
   256
1070
   177
1070
   256
1070
   178
1070
   256
1070
   271
1070
     0
1070
   272
1070
     2
1070
     6
1000
OPEN
1070
     7
1000
OPEN
1070
   371
1070
    -1
1070
   372
1070
    -1
1002
}
  0
LINE
  5
D72
330
1A
100
AcDbEntity
  8
SEIHIN
  6
CONTINUOUS
 62
     3
100
AcDbLine
 10
320.4587728627982
 20
348.0579063178077
 30
0.0
 11
337.3930956070982
 21
348.0579063178077
 31
0.0
  0
LINE
  5
D73
330
1A
100
AcDbEntity
  8
SEIHIN
  6
CONTINUOUS
 62
     3
100
AcDbLine
 10
289.4641631645981
 20
395.8335880395077
 30
0.0
 11
328.4641631645981
 21
395.8335880395077
 31
0.0
  0
LINE
  5
D74
330
1A
100
AcDbEntity
  8
SEIHIN
  6
CONTINUOUS
 62
     3
100
AcDbLine
 10
289.4641631645981
 20
366.0292261317077
 30
0.0
 11
329.4641631645981
 21
366.0292261317077
 31
0.0
  0
LINE
  5
D75
330
1A
100
AcDbEntity
  8
SEIHIN
  6
CONTINUOUS
 62
     3
100
AcDbLine
 10
308.4803147171982
 20
348.4169372246077
 30
0.0
 11
289.4641631645981
 21
349.5579063178077
 31
0.0
  0
ARC
  5
D76
330
1A
100
AcDbEntity
  8
SEIHIN
  6
CONTINUOUS
 62
     3
100
AcDbCircle
 10
320.4587728627982
 20
548.0579063178076
 30
0.0
 40
200.0
100
AcDbArc
 50
266.5663696374982
 51
270.0
  0
LINE
  5
D77
330
1A
100
AcDbEntity
  8
SEIHIN
  6
CONTINUOUS
 62
     3
100
AcDbLine
 10
420.0559898291981
 20
278.0579063178076
 30
0.0
 11
420.0559898291981
 21
317.0579063178077
 31
0.0
  0
LINE
  5
D78
330
1A
100
AcDbEntity
  8
SEIHIN
  6
CONTINUOUS
 62
     3
100
AcDbLine
 10
426.6216780399981
 20
278.0579063178076
 30
0.0
 11
426.6216780399981
 21
317.0579063178077
 31
0.0
  0
LINE
  5
D79
330
1A
100
AcDbEntity
  8
SEIHIN
  6
CONTINUOUS
 62
     3
100
AcDbLine
 10
407.2398448863983
 20
278.0579063178076
 30
0.0
 11
407.2398448863983
 21
317.0579063178077
 31
0.0
  0
LINE
  5
D7A
330
1A
100
AcDbEntity
  8
SEIHIN
  6
CONTINUOUS
 62
     3
100
AcDbLine
 10
377.4354829785981
 20
278.0579063178076
 30
0.0
 11
377.4354829785981
 21
318.0579063178076
 31
0.0
  0
LINE
  5
D7B
330
1A
100
AcDbEntity
  8
SEIHIN
  6
CONTINUOUS
 62
     3
100
AcDbLine
 10
359.4641631645981
 20
309.0525160160076
 30
0.0
 11
359.4641631645981
 21
325.9868388487077
 31
0.0
  0
LINE
  5
D7C
330
1A
100
AcDbEntity
  8
SEIHIN
  6
CONTINUOUS
 62
     3
100
AcDbLine
 10
359.8231940714981
 20
297.0740578704077
 30
0.0
 11
360.9641631645981
 21
278.0579063178076
 31
0.0
  0
ARC
  5
D7D
330
1A
100
AcDbEntity
  8
SEIHIN
  6
CONTINUOUS
 62
     3
100
AcDbCircle
 10
559.4641631645981
 20
309.0525160160076
 30
0.0
 40
200.0
100
AcDbArc
 50
180.0
 51
183.4336303625002
  0
ARC
  5
D7E
330
1A
100
AcDbEntity
  8
SEIHIN
  6
CONTINUOUS
 62
     3
100
AcDbCircle
 10
391.9885759405292
 20
319.0579063178077
 30
0.0
 40
2.0
100
AcDbArc
 50
184.4279449841703
 51
270.0
  0
LINE
  5
D7F
330
1A
100
AcDbEntity
  8
SEIHIN
100
AcDbLine
 10
405.1540016365338
 20
376.3343446611191
 30
0.0
 11
371.3074402691586
 21
340.5716567719955
 31
0.0
  0
ARC
  5
D80
330
1A
100
AcDbEntity
  8
SEIHIN
  6
CONTINUOUS
 62
     3
100
AcDbCircle
 10
386.7550843929982
 20
388.1335880395076
 30
0.0
 40
7.7
100
AcDbArc
 50
45.0
 51
90.0
  0
LINE
  5
D81
330
1A
100
AcDbEntity
  8
SEIHIN
  6
CONTINUOUS
 62
     3
100
AcDbLine
 10
387.5066791263982
 20
327.0579063178077
 30
0.0
 11
392.5066791263982
 21
322.0579063178076
 31
0.0
  0
LINE
  5
D82
330
1A
100
AcDbEntity
  8
SEIHIN
100
AcDbLine
 10
387.7406015079095
 20
393.7477447897433
 30
0.0
 11
351.977913618786
 21
359.9011834223682
 31
0.0
  0
LINE
  5
D83
330
1A
100
AcDbEntity
  8
SEIHIN
  6
CONTINUOUS
 62
     3
100
AcDbLine
 10
329.4641631645981
 20
366.0292261317077
 30
0.0
 11
329.4641631645981
 21
353.2349999877077
 31
0.0
  0
LINE
  5
D84
330
1A
100
AcDbEntity
  8
SEIHIN
  6
CONTINUOUS
 62
     3
100
AcDbLine
 10
360.5999213442982
 20
349.1936644974076
 30
0.0
 11
353.1617319795982
 21
356.6318538622077
 31
0.0
  0
LINE
  5
D85
330
1A
100
AcDbEntity
  8
SEIHIN
  6
CONTINUOUS
 62
     3
100
AcDbLine
 10
351.7106414084981
 20
340.3043845616076
 30
0.0
 11
360.3859790495981
 21
331.6290469204076
 31
0.0
  0
LINE
  5
D86
330
1A
100
AcDbEntity
  8
SEIHIN
  6
CONTINUOUS
 62
     3
100
AcDbLine
 10
349.4641631645981
 20
338.0579063178076
 30
0.0
 11
357.9996970806981
 21
329.5223724017076
 31
0.0
  0
LINE
  5
D87
330
1A
100
AcDbEntity
  8
SEIHIN
  6
CONTINUOUS
 62
     3
100
AcDbLine
 10
357.9996970808981
 20
329.5223724015077
 30
0.0
 11
340.9286290733981
 21
346.5934404091077
 31
0.0
  0
ARC
  5
D88
330
1A
100
AcDbEntity
  8
SEIHIN
  6
CONTINUOUS
 62
     3
100
AcDbCircle
 10
337.5905815520982
 20
343.5349999877077
 30
0.0
 40
7.7
100
AcDbArc
 50
45.0
 51
90.0
  0
LINE
  5
D89
330
1A
100
AcDbEntity
  8
SEIHIN
  6
CONTINUOUS
 62
     3
100
AcDbLine
 10
329.4641631645981
 20
358.8871316470077
 30
0.0
 11
347.7170097643981
 21
358.8871316470077
 31
0.0
  0
ARC
  5
D8A
330
1A
100
AcDbEntity
  8
SEIHIN
  6
CONTINUOUS
 62
     3
100
AcDbCircle
 10
331.4641631645981
 20
353.2349999877077
 30
0.0
 40
2.0
100
AcDbArc
 50
180.0
 51
270.0
  0
LINE
  5
D8B
330
1A
100
AcDbEntity
  8
SEIHIN
  6
CONTINUOUS
 62
     3
100
AcDbLine
 10
337.5905815520982
 20
351.2349999877077
 30
0.0
 11
331.4641631645981
 21
351.2349999877077
 31
0.0
  0
ARC
  5
D8C
330
1A
100
AcDbEntity
  8
SEIHIN
  6
CONTINUOUS
 62
     3
100
AcDbCircle
 10
337.3930953527981
 20
343.0579063178076
 30
0.0
 40
5.0
100
AcDbArc
 50
45.0
 51
90.0
  0
ARC
  5
D8D
330
1A
100
AcDbEntity
  8
SEIHIN
  6
CONTINUOUS
 62
     3
100
AcDbCircle
 10
347.7170097643981
 20
351.1871316470077
 30
0.0
 40
7.7
100
AcDbArc
 50
45.0
 51
90.0
  0
LINE
  5
D8E
330
1A
100
AcDbEntity
  8
SEIHIN
  6
CONTINUOUS
 62
     3
100
AcDbLine
 10
351.7106414084981
 20
340.3043845616076
 30
0.0
 11
343.0353037672982
 21
348.9797222028077
 31
0.0
  0
ARC
  5
D8F
330
1A
100
AcDbEntity
  8
SEIHIN
  6
CONTINUOUS
 62
     3
100
AcDbCircle
 10
362.5933884938981
 20
336.3107529176077
 30
0.0
 40
7.7
100
AcDbArc
 50
0.0
 51
45.0
  0
LINE
  5
D90
330
1A
100
AcDbEntity
  8
SEIHIN
  6
CONTINUOUS
 62
     3
100
AcDbLine
 10
377.4354829785981
 20
318.0579063178076
 30
0.0
 11
364.6412568344981
 21
318.0579063178076
 31
0.0
  0
ARC
  5
D91
330
1A
100
AcDbEntity
  8
SEIHIN
  6
CONTINUOUS
 62
     3
100
AcDbCircle
 10
354.4641631645981
 20
325.9868385059077
 30
0.0
 40
5.0
100
AcDbArc
 50
0.0
 51
45.0
  0
LINE
  5
D92
330
1A
100
AcDbEntity
  8
SEIHIN
  6
CONTINUOUS
 62
     3
100
AcDbLine
 10
357.9996970806981
 20
329.5223724017076
 30
0.0
 11
357.9996972638982
 21
329.5223722185077
 31
0.0
  0
ARC
  5
D93
330
1A
100
AcDbEntity
  8
SEIHIN
  6
CONTINUOUS
 62
     3
100
AcDbCircle
 10
354.9412568344981
 20
326.1843247053077
 30
0.0
 40
7.7
100
AcDbArc
 50
0.0
 51
45.0
  0
ARC
  5
D94
330
1A
100
AcDbEntity
  8
SEIHIN
  6
CONTINUOUS
 62
     3
100
AcDbCircle
 10
364.6412568344981
 20
320.0579063178076
 30
0.0
 40
2.0
100
AcDbArc
 50
180.0
 51
270.0
  0
LINE
  5
D95
330
1A
100
AcDbEntity
  8
SEIHIN
  6
CONTINUOUS
 62
     3
100
AcDbLine
 10
362.6412568344981
 20
326.1843247053077
 30
0.0
 11
362.6412568344981
 21
320.0579063178076
 31
0.0
  0
LINE
  5
D96
330
1A
100
AcDbEntity
  8
SEIHIN
  6
CONTINUOUS
 62
     3
100
AcDbLine
 10
370.2933884938981
 20
318.0579063178076
 30
0.0
 11
370.2933884938981
 21
336.3107529176077
 31
0.0
  0
LINE
  5
D97
330
1A
100
AcDbEntity
  8
SEIHIN
  6
CONTINUOUS
 62
     3
100
AcDbLine
 10
387.5066791263982
 20
324.5579063178077
 30
0.0
 11
387.5066791263982
 21
327.0579063178077
 31
0.0
  0
LINE
  5
D98
330
1A
100
AcDbEntity
  8
SEIHIN
  6
CONTINUOUS
 62
     3
100
AcDbLine
 10
389.7502791660981
 20
322.0579063178076
 30
0.0
 11
389.9945455099014
 21
318.9034956908104
 31
0.0
  0
LINE
  5
D99
330
1A
100
AcDbEntity
  8
SEIHIN
  6
CONTINUOUS
 62
     3
100
AcDbLine
 10
387.5066791263982
 20
324.5579063178077
 30
0.0
 11
389.7502791660981
 21
322.0579063178076
 31
0.0
  0
LINE
  5
D9A
330
1A
100
AcDbEntity
  8
SEIHIN
  6
CONTINUOUS
 62
     3
100
AcDbLine
 10
360.5999213442982
 20
349.1936644974076
 30
0.0
 11
368.0381107089981
 21
341.7554751327077
 31
0.0
  0
LINE
  5
D9B
330
1A
100
AcDbEntity
  8
SEIHIN
  6
CONTINUOUS
 62
     3
100
AcDbLine
 10
338.4641631645981
 20
395.8335880395077
 30
0.0
 11
386.7550843929982
 21
395.8335880395077
 31
0.0
  0
ARC
  5
D9C
330
1A
100
AcDbEntity
  8
SEIHIN
  6
CONTINUOUS
 62
     3
100
AcDbCircle
 10
330.4641631645981
 20
380.582319093713
 30
0.0
 40
2.0
100
AcDbArc
 50
180.0
 51
265.5720550162938
  0
LINE
  5
D9D
330
1A
100
AcDbEntity
  8
SEIHIN
  6
CONTINUOUS
 62
     3
100
AcDbLine
 10
335.9641631645981
 20
376.1004222795077
 30
0.0
 11
333.4641631645981
 21
378.3440223193077
 31
0.0
  0
LINE
  5
D9E
330
1A
100
AcDbEntity
  8
SEIHIN
  6
CONTINUOUS
 62
     3
100
AcDbLine
 10
335.9641631645981
 20
376.1004222795077
 30
0.0
 11
338.4641631645981
 21
376.1004222795077
 31
0.0
  0
LINE
  5
D9F
330
1A
100
AcDbEntity
  8
SEIHIN
  6
CONTINUOUS
 62
     3
100
AcDbLine
 10
338.4641631645981
 20
376.1004222795077
 30
0.0
 11
333.4641631645981
 21
381.1004222795077
 31
0.0
  0
LINE
  5
DA0
330
1A
100
AcDbEntity
  8
SEIHIN
  6
CONTINUOUS
 62
     3
100
AcDbLine
 10
333.4641631645981
 20
381.1004222795077
 30
0.0
 11
328.4641631645982
 21
381.4807433729614
 31
0.0
  0
LINE
  5
DA1
330
1A
100
AcDbEntity
  8
SEIHIN
  6
CONTINUOUS
 62
     3
100
AcDbLine
 10
333.4641631645981
 20
378.3440223193077
 30
0.0
 11
330.3097525376171
 21
378.5882886630838
 31
0.0
  0
LINE
  5
DA2
330
1A
100
AcDbEntity
  8
SEIHIN
  6
CONTINUOUS
 62
     3
100
AcDbLine
 10
333.4641631645981
 20
397.4688765513077
 30
0.0
 11
338.4641631645981
 21
395.8335880395077
 31
0.0
  0
LINE
  5
DA3
330
1A
100
AcDbEntity
  8
SEIHIN
  6
CONTINUOUS
 62
     3
100
AcDbLine
 10
333.4641631645981
 20
394.9086398658077
 30
0.0
 11
338.4641631645981
 21
395.7471769538077
 31
0.0
  0
LINE
  5
DA4
330
1A
100
AcDbEntity
  8
SEIHIN
  6
CONTINUOUS
 62
     3
100
AcDbLine
 10
328.4641631645981
 20
397.4688765513077
 30
0.0
 11
333.4641631645981
 21
397.4688765513077
 31
0.0
  0
LINE
  5
DA5
330
1A
100
AcDbEntity
  8
SEIHIN
  6
CONTINUOUS
 62
     3
100
AcDbLine
 10
328.4641631645981
 20
394.9086398658078
 30
0.0
 11
333.4641631645981
 21
394.9086398658077
 31
0.0
  0
LINE
  5
DA6
330
1A
100
AcDbEntity
  8
SEIHIN
  6
CONTINUOUS
 62
     3
100
AcDbLine
 10
420.0559898291981
 20
327.0579063178077
 30
0.0
 11
420.0559898291981
 21
388.8905219759077
 31
0.0
  0
LINE
  5
DA7
330
1A
100
AcDbEntity
  8
SEIHIN
  6
CONTINUOUS
 62
     3
100
AcDbLine
 10
426.6216780399981
 20
327.0579063178077
 30
0.0
 11
426.6216780399981
 21
395.8279078955076
 31
0.0
  0
LINE
  5
DA8
330
1A
100
AcDbEntity
  8
SEIHIN
  6
CONTINUOUS
 62
     3
100
AcDbLine
 10
407.2398448863983
 20
327.0579063178077
 30
0.0
 11
407.2398448863983
 21
375.3488275462076
 31
0.0
  0
LINE
  5
DA9
330
1A
100
AcDbEntity
  8
SEIHIN
  6
CONTINUOUS
 62
     3
100
AcDbLine
 10
423.7702916870983
 20
322.0579063178076
 30
0.0
 11
420.1534338005981
 21
327.0579063178077
 31
0.0
  0
LINE
  5
DAA
330
1A
100
AcDbEntity
  8
SEIHIN
  6
CONTINUOUS
 62
     3
100
AcDbLine
 10
406.3148967125981
 20
322.0579063178076
 30
0.0
 11
407.1534338005981
 21
327.0579063178077
 31
0.0
  0
LINE
  5
DAB
330
1A
100
AcDbEntity
  8
SEIHIN
  6
CONTINUOUS
 62
     3
100
AcDbLine
 10
392.5066791263982
 20
322.0579063178076
 30
0.0
 11
392.8870002198079
 21
317.0579063178077
 31
0.0
  0
LINE
  5
DAC
330
1A
100
AcDbEntity
  8
SEIHIN
  6
CONTINUOUS
 62
     3
100
AcDbLine
 10
406.3148967125981
 20
317.0579063178075
 30
0.0
 11
406.3148967125981
 21
322.0579063178076
 31
0.0
  0
LINE
  5
DAD
330
1A
100
AcDbEntity
  8
SEIHIN
  6
CONTINUOUS
 62
     3
100
AcDbLine
 10
408.875133398098
 20
317.0579063178075
 30
0.0
 11
408.875133398098
 21
322.0579063178076
 31
0.0
  0
LINE
  5
DAE
330
1A
100
AcDbEntity
  8
SEIHIN
  6
CONTINUOUS
 62
     3
100
AcDbLine
 10
408.875133398098
 20
322.0579063178076
 30
0.0
 11
407.2398448863983
 21
327.0579063178077
 31
0.0
  0
LINE
  5
DAF
330
1A
100
AcDbEntity
  8
SEIHIN
  6
CONTINUOUS
 62
     3
100
AcDbLine
 10
423.770291687098
 20
317.0579063178075
 30
0.0
 11
423.7702916870983
 21
322.0579063178076
 31
0.0
  0
LINE
  5
DB0
330
1A
100
AcDbEntity
  8
SEIHIN
100
AcDbLine
 10
429.9053532498865
 20
317.0579063178075
 30
0.0
 11
429.9053532498865
 21
322.0579063178076
 31
0.0
  0
LINE
  5
DB1
330
1A
100
AcDbEntity
  8
SEIHIN
100
AcDbLine
 10
429.9053532498865
 20
322.0579063178076
 30
0.0
 11
426.6216780399981
 21
327.0579063178077
 31
0.0
  0
LINE
  5
DB2
330
1A
100
AcDbEntity
  8
SEIHIN
100
AcDbLine
 10
424.535834790143
 20
396.8134250104664
 30
0.0
 11
421.070041604642
 21
393.1514258302248
 31
0.0
  0
LINE
  5
DB3
330
1A
100
AcDbEntity
  8
SEIHIN
  6
CONTINUOUS
 62
     3
100
AcDbLine
 10
418.522643606298
 20
407.1163867595076
 30
0.0
 11
424.3664002550981
 21
401.2726301107077
 31
0.0
  0
LINE
  5
DB4
330
1A
100
AcDbEntity
  8
SEIHIN
  6
CONTINUOUS
 62
     3
100
AcDbLine
 10
398.5921868547982
 20
387.1859300080076
 30
0.0
 11
404.9845671014982
 21
380.7935497613076
 31
0.0
  0
ARC
  5
DB5
330
1A
100
AcDbEntity
  8
SEIHIN
  6
CONTINUOUS
 62
     3
100
AcDbCircle
 10
399.5398448863982
 20
375.3488275462076
 30
0.0
 40
7.7
100
AcDbArc
 50
0.0
 51
45.0
  0
LINE
  5
DB6
330
1A
100
AcDbEntity
  8
SEIHIN
  6
CONTINUOUS
 62
     3
100
AcDbLine
 10
411.7711065410981
 20
400.3648496943077
 30
0.0
 11
405.7415010378981
 21
406.3944551975076
 31
0.0
  0
LINE
  5
DB7
330
1A
100
AcDbEntity
  8
SEIHIN
  6
CONTINUOUS
 62
     3
100
AcDbLine
 10
398.5921868547982
 20
387.1859300080076
 30
0.0
 11
392.1998066080982
 21
393.5783102547077
 31
0.0
  0
LINE
  5
DB8
330
1A
100
AcDbEntity
  8
SEIHIN
  6
CONTINUOUS
 62
     3
100
AcDbLine
 10
411.7711065410981
 20
400.3648496943077
 30
0.0
 11
417.8007120443981
 21
394.3352441911077
 31
0.0
  0
ARC
  5
DB9
330
1A
100
AcDbEntity
  8
SEIHIN
  6
CONTINUOUS
 62
     3
100
AcDbCircle
 10
412.3559898291983
 20
388.8905219759077
 30
0.0
 40
7.7
100
AcDbArc
 50
0.0
 51
45.0
  0
ARC
  5
DBA
330
1A
100
AcDbEntity
  8
SEIHIN
  6
CONTINUOUS
 62
     3
100
AcDbCircle
 10
418.9216780399981
 20
395.8279078955076
 30
0.0
 40
7.7
100
AcDbArc
 50
0.0
 51
45.0
  0
LINE
  5
DBB
330
1A
100
AcDbEntity
  8
SEIHIN
  6
CONTINUOUS
 62
     3
100
AcDbLine
 10
321.2378958204981
 20
516.3355516936077
 30
0.0
 11
329.4641631645981
 21
516.3355516936077
 31
0.0
  0
LINE
  5
DBC
330
1A
100
AcDbEntity
  8
SEIHIN
  6
CONTINUOUS
 62
     3
100
AcDbLine
 10
333.4641631645981
 20
472.2471769538077
 30
0.0
 11
320.9709662026981
 21
474.3293764474077
 31
0.0
  0
LINE
  5
DBD
330
1A
100
AcDbEntity
  8
SEIHIN
  6
CONTINUOUS
 62
     3
100
AcDbLine
 10
289.4641631645981
 20
503.6471769538077
 30
0.0
 11
329.4641631645981
 21
503.6471769538077
 31
0.0
  0
LINE
  5
DBE
330
1A
100
AcDbEntity
  8
SEIHIN
  6
CONTINUOUS
 62
     3
100
AcDbLine
 10
289.4641631645981
 20
415.2154211931077
 30
0.0
 11
328.4641631645981
 21
415.2154211931077
 31
0.0
  0
LINE
  5
DBF
330
1A
100
AcDbEntity
  8
SEIHIN
  6
CONTINUOUS
 62
     3
100
AcDbLine
 10
289.4641631645981
 20
408.6497329824076
 30
0.0
 11
328.4641631645981
 21
408.6497329824076
 31
0.0
  0
LINE
  5
DC0
330
1A
100
AcDbEntity
  8
SEIHIN
  6
CONTINUOUS
 62
     3
100
AcDbLine
 10
318.4641631645981
 20
477.2885582189076
 30
0.0
 11
318.4641631645981
 21
503.6471769538077
 31
0.0
  0
ARC
  5
DC1
330
1A
100
AcDbEntity
  8
SEIHIN
  6
CONTINUOUS
 62
     3
100
AcDbCircle
 10
321.4641631645982
 20
477.2885582189076
 30
0.0
 40
3.0
100
AcDbArc
 50
180.0
 51
260.5376777919989
  0
LINE
  5
DC2
330
1A
100
AcDbEntity
  8
SEIHIN
  6
CONTINUOUS
 62
     3
100
AcDbLine
 10
307.7059528158981
 20
515.8772428724076
 30
0.0
 11
289.4641631645981
 21
514.6401737847077
 31
0.0
  0
ARC
  5
DC3
330
1A
100
AcDbEntity
  8
SEIHIN
  6
CONTINUOUS
 62
     3
100
AcDbCircle
 10
321.2378958204981
 20
316.3355516936077
 30
0.0
 40
200.0
100
AcDbArc
 50
90.0
 51
93.87957997640141
  0
LINE
  5
DC4
330
1A
100
AcDbEntity
  8
SEIHIN
  6
CONTINUOUS
 62
     3
100
AcDbLine
 10
333.4641631645981
 20
472.2471769538077
 30
0.0
 11
333.4641631645981
 21
508.1302439299077
 31
0.0
  0
LINE
  5
DC5
330
1A
100
AcDbEntity
  8
SEIHIN
  6
CONTINUOUS
 62
     3
100
AcDbLine
 10
338.4641631645981
 20
415.2154211931077
 30
0.0
 11
407.2341647423981
 21
415.2154211931077
 31
0.0
  0
LINE
  5
DC6
330
1A
100
AcDbEntity
  8
SEIHIN
  6
CONTINUOUS
 62
     3
100
AcDbLine
 10
338.4641631645981
 20
408.6497329824076
 30
0.0
 11
400.2967788227981
 21
408.6497329824076
 31
0.0
  0
LINE
  5
DC7
330
1A
100
AcDbEntity
  8
SEIHIN
  6
CONTINUOUS
 62
     3
100
AcDbLine
 10
336.6714583149981
 20
472.2471769538077
 30
0.0
 11
336.6714583149981
 21
452.2471769538078
 31
0.0
  0
LINE
  5
DC8
330
1A
100
AcDbEntity
  8
SEIHIN
100
AcDbLine
 10
328.4641631645981
 20
418.4990964030959
 30
0.0
 11
333.4641631645981
 21
418.4990964030959
 31
0.0
  0
LINE
  5
DC9
330
1A
100
AcDbEntity
  8
SEIHIN
  6
CONTINUOUS
 62
     3
100
AcDbLine
 10
333.4641631645981
 20
412.3640348402077
 30
0.0
 11
338.4641631645981
 21
408.7471769538077
 31
0.0
  0
LINE
  5
DCA
330
1A
100
AcDbEntity
  8
SEIHIN
  6
CONTINUOUS
 62
     3
100
AcDbLine
 10
328.4641631645981
 20
412.3640348402077
 30
0.0
 11
333.4641631645981
 21
412.3640348402077
 31
0.0
  0
LINE
  5
DCB
330
1A
100
AcDbEntity
  8
SEIHIN
100
AcDbLine
 10
333.4641631645981
 20
418.4990964030959
 30
0.0
 11
338.4641631645981
 21
415.2154211932076
 31
0.0
  0
ARC
  5
DCC
330
1A
100
AcDbEntity
  8
SEIHIN
  6
CONTINUOUS
 62
     3
100
AcDbCircle
 10
330.4641631645981
 20
449.7195894437084
 30
0.0
 40
2.0
100
AcDbArc
 50
99.46232220802748
 51
180.0
  0
LINE
  5
DCD
330
1A
100
AcDbEntity
  8
SEIHIN
  6
CONTINUOUS
 62
     3
100
AcDbLine
 10
333.4641631645981
 20
452.2471769538078
 30
0.0
 11
338.4641631645981
 21
452.2471769538078
 31
0.0
  0
LINE
  5
DCE
330
1A
100
AcDbEntity
  8
SEIHIN
  6
CONTINUOUS
 62
     3
100
AcDbLine
 10
333.4641631645981
 20
452.2471769538078
 30
0.0
 11
330.1353651899873
 21
451.6923772913727
 31
0.0
  0
LINE
  5
DCF
330
1A
100
AcDbEntity
  8
SEIHIN
  6
CONTINUOUS
 62
     3
100
AcDbLine
 10
333.4641631645981
 20
472.2471769538077
 30
0.0
 11
338.4641631645981
 21
472.2471769538077
 31
0.0
  0
LINE
  5
DD0
330
1A
100
AcDbEntity
  8
SEIHIN
100
AcDbLine
 10
408.219681857257
 20
413.1295779433526
 30
0.0
 11
404.5576826770152
 21
409.6637847578515
 31
0.0
  0
ARC
  5
DD1
330
1A
100
AcDbEntity
  8
SEIHIN
  6
CONTINUOUS
 62
     3
100
AcDbCircle
 10
407.2341647423981
 20
407.5154211931077
 30
0.0
 40
7.7
100
AcDbArc
 50
45.0
 51
90.0
  0
LINE
  5
DD2
330
1A
100
AcDbEntity
  8
SEIHIN
  6
CONTINUOUS
 62
     3
100
AcDbLine
 10
333.4641631645981
 20
510.8799644024077
 30
0.0
 11
335.9641631645981
 21
512.4169097084076
 31
0.0
  0
LINE
  5
DD3
330
1A
100
AcDbEntity
  8
SEIHIN
  6
CONTINUOUS
 62
     3
100
AcDbLine
 10
335.9641631645981
 20
512.4169097084076
 30
0.0
 11
338.4641631645981
 21
512.4169097084076
 31
0.0
  0
LINE
  5
DD4
330
1A
100
AcDbEntity
  8
SEIHIN
  6
CONTINUOUS
 62
     3
100
AcDbLine
 10
329.4641631645981
 20
510.8799644024077
 30
0.0
 11
333.4641631645981
 21
510.8799644024077
 31
0.0
  0
LINE
  5
DD5
330
1A
100
AcDbEntity
  8
SEIHIN
  6
CONTINUOUS
 62
     3
100
AcDbLine
 10
329.4641631645981
 20
508.1302439299077
 30
0.0
 11
333.4641631645981
 21
508.1302439299077
 31
0.0
  0
LINE
  5
DD6
330
1A
100
AcDbEntity
  8
SEIHIN
  6
CONTINUOUS
 62
     3
100
AcDbLine
 10
338.4641631645981
 20
512.4169097084076
 30
0.0
 11
333.4641631645981
 21
508.1302439299077
 31
0.0
  0
LINE
  5
DD7
330
1A
100
AcDbEntity
  8
SEIHIN
  6
CONTINUOUS
 62
     3
100
AcDbLine
 10
329.4641631645981
 20
503.6471769538077
 30
0.0
 11
329.4641631645981
 21
516.3355516936077
 31
0.0
  0
DIMENSION
  5
DD8
330
1A
100
AcDbEntity
  8
SUNPOU
100
AcDbDimension
  2
*D8
 10
587.2304360306138
 20
68.86593984344924
 30
0.0
 11
582.2304360306138
 21
114.2725658569328
 31
0.0
 70
    32
  3
STANDARD
100
AcDbAlignedDimension
 13
522.7418081818814
 23
159.6791918704162
 33
0.0
 14
473.6534338005981
 24
68.86593984344926
 34
0.0
 50
90.0
100
AcDbRotatedDimension
1001
ACAD
1000
DSTYLE
1002
{
1070
    41
1040
7.0
1070
    42
1040
6.0
1070
    43
1040
14.0
1070
    44
1040
3.0
1070
    73
1070
     0
1070
    74
1070
     0
1070
    77
1070
     3
1070
   140
1040
6.0
1070
   141
1040
150.0
1070
   147
1040
2.0
1070
   172
1070
     1
1070
   173
1070
     1
1070
   176
1070
   256
1070
   177
1070
   256
1070
   178
1070
   256
1070
   271
1070
     0
1070
   272
1070
     2
1070
     6
1000
OPEN
1070
     7
1000
OPEN
1070
   371
1070
    -1
1070
   372
1070
    -1
1002
}
  0
LINE
  5
DD9
330
1A
100
AcDbEntity
  8
SEIHIN
  6
CONTINUOUS
 62
     3
100
AcDbLine
 10
516.9955797036982
 20
79.93138382191625
 30
0.0
 11
519.5365007767982
 21
133.5265479387162
 31
0.0
  0
LINE
  5
DDA
330
1A
100
AcDbEntity
  8
SEIHIN
  6
CONTINUOUS
 62
     3
100
AcDbLine
 10
521.3692431341983
 20
77.15997908151621
 30
0.0
 11
524.9051605106981
 21
151.7424106653162
 31
0.0
  0
LINE
  5
DDB
330
1A
100
AcDbEntity
  8
SEIHIN
  6
CONTINUOUS
 62
     3
100
AcDbLine
 10
524.0662138500981
 20
77.03211603811633
 30
0.0
 11
527.736198825798
 21
154.4424099511162
 31
0.0
  0
LINE
  5
DDC
330
1A
100
AcDbEntity
  8
SEIHIN
  6
CONTINUOUS
 62
     3
100
AcDbLine
 10
517.9944577632982
 20
79.88402749131626
 30
0.0
 11
520.5827883700981
 21
134.4791918704162
 31
0.0
  0
LINE
  5
DDD
330
1A
100
AcDbEntity
  8
SEIHIN
  6
CONTINUOUS
 62
     3
100
AcDbLine
 10
522.5678967946983
 20
77.10315125151623
 30
0.0
 11
526.2345140375982
 21
154.4424102173162
 31
0.0
  0
LINE
  5
DDE
330
1A
100
AcDbEntity
  8
SEIHIN
  6
CONTINUOUS
 62
     3
100
AcDbLine
 10
519.7403257571981
 20
79.75541182741619
 30
0.0
 11
522.285099301398
 21
133.4318353817162
 31
0.0
  0
LINE
  5
DDF
330
1A
100
AcDbEntity
  8
CENTER_L
  6
CENTER
 62
     1
 48
5.0
100
AcDbLine
 10
473.6534338005981
 20
60.6292114612163
 30
0.0
 11
473.6534338005981
 21
89.77072398849305
 31
0.0
  0
ARC
  5
DE0
330
1A
100
AcDbEntity
  8
SEIHIN
  6
CONTINUOUS
 62
     3
100
AcDbCircle
 10
516.374852825198
 20
77.39676050131629
 30
0.0
 40
6.2
100
AcDbArc
 50
272.4608137752984
 51
357.2856669400999
  0
ARC
  5
DE1
330
1A
100
AcDbEntity
  8
SEIHIN
  6
CONTINUOUS
 62
     3
100
AcDbCircle
 10
516.374852825198
 20
77.39676050131629
 30
0.0
 40
7.7
100
AcDbArc
 50
272.4608151325032
 51
357.2856615951993
  0
ARC
  5
DE2
330
1A
100
AcDbEntity
  8
SEIHIN
  6
CONTINUOUS
 62
     3
100
AcDbCircle
 10
516.374852825198
 20
77.39676050131629
 30
0.0
 40
5.0
100
AcDbArc
 50
272.4608137752984
 51
357.2856605872992
  0
ARC
  5
DE3
330
1A
100
AcDbEntity
  8
SEIHIN
  6
CONTINUOUS
 62
     3
100
AcDbCircle
 10
473.6534338005981
 20
1071.479191870416
 30
0.0
 40
998.2499999999999
100
AcDbArc
 50
270.5739718291004
 51
272.315768188803
  0
ARC
  5
DE4
330
1A
100
AcDbEntity
  8
SEIHIN
  6
CONTINUOUS
 62
     3
100
AcDbCircle
 10
473.6534338005981
 20
1071.479191870416
 30
0.0
 40
995.5
100
AcDbArc
 50
270.5755574399004
 51
272.3131238570008
  0
ARC
  5
DE5
330
1A
100
AcDbEntity
  8
SEIHIN
  6
CONTINUOUS
 62
     3
100
AcDbCircle
 10
473.6534338005981
 20
1071.479191870416
 30
0.0
 40
996.4999999999999
100
AcDbArc
 50
270.7187315879988
 51
272.3131238570008
  0
ARC
  5
DE6
330
1A
100
AcDbEntity
  8
SEIHIN
  6
CONTINUOUS
 62
     3
100
AcDbCircle
 10
473.6534338005981
 20
1071.479191870416
 30
0.0
 40
998.2499999999999
100
AcDbArc
 50
269.4829089838969
 51
270.517091016103
  0
LINE
  5
DE7
330
1A
100
AcDbEntity
  8
SEIHIN
  6
CONTINUOUS
 62
     3
100
AcDbLine
 10
461.1534338005981
 20
75.05759435251627
 30
0.0
 11
463.6534338005981
 21
73.27928078041622
 31
0.0
  0
LINE
  5
DE8
330
1A
100
AcDbEntity
  8
SEIHIN
  6
CONTINUOUS
 62
     3
100
AcDbLine
 10
463.6534338005981
 20
73.27928078041622
 30
0.0
 11
463.6534338005981
 21
76.02941915451629
 31
0.0
  0
LINE
  5
DE9
330
1A
100
AcDbEntity
  8
SEIHIN
  6
CONTINUOUS
 62
     3
100
AcDbLine
 10
461.1534338005981
 20
75.05759435251627
 30
0.0
 11
461.1534338005981
 21
76.05767311561624
 31
0.0
  0
ARC
  5
DEA
330
1A
100
AcDbEntity
  8
SEIHIN
  6
CONTINUOUS
 62
     3
100
AcDbCircle
 10
464.6534338005981
 20
74.26980437941631
 30
0.0
 40
1.0
100
AcDbArc
 50
180.0
 51
269.4829089838969
  0
LINE
  5
DEB
330
1A
100
AcDbEntity
  8
SEIHIN
  6
CONTINUOUS
 62
     3
100
AcDbLine
 10
486.1534338005981
 20
75.05759435251627
 30
0.0
 11
483.6534338005981
 21
73.27928078041622
 31
0.0
  0
LINE
  5
DEC
330
1A
100
AcDbEntity
  8
SEIHIN
  6
CONTINUOUS
 62
     3
100
AcDbLine
 10
483.6534338005981
 20
73.27928078041622
 30
0.0
 11
483.6534338005981
 21
76.02941915451629
 31
0.0
  0
ARC
  5
DED
330
1A
100
AcDbEntity
  8
SEIHIN
  6
CONTINUOUS
 62
     3
100
AcDbCircle
 10
482.6534338005981
 20
74.26980437941631
 30
0.0
 40
1.0
100
AcDbArc
 50
270.517091016103
 51
0.0
  0
LINE
  5
DEE
330
1A
100
AcDbEntity
  8
SEIHIN
  6
CONTINUOUS
 62
     3
100
AcDbLine
 10
486.1534338005981
 20
75.05759435251627
 30
0.0
 11
486.1534338005981
 21
76.05767311561624
 31
0.0
  0
ARC
  5
DEF
330
1A
100
AcDbEntity
  8
SEIHIN
  6
CONTINUOUS
 62
     3
100
AcDbCircle
 10
513.7470573995981
 20
80.03954981101628
 30
0.0
 40
6.0
100
AcDbArc
 50
272.315768188803
 51
357.2856669400999
  0
ARC
  5
DF0
330
1A
100
AcDbEntity
  8
SEIHIN
  6
CONTINUOUS
 62
     3
100
AcDbCircle
 10
513.6992821069982
 20
80.08765971291632
 30
0.0
 40
4.299999999999999
100
AcDbArc
 50
272.3131238570008
 51
357.2856669400999
  0
ARC
  5
DF1
330
1A
100
AcDbEntity
  8
SEIHIN
  6
CONTINUOUS
 62
     3
100
AcDbCircle
 10
513.6992821069982
 20
80.08765971291632
 30
0.0
 40
3.299999999999999
100
AcDbArc
 50
272.3131238570008
 51
357.2856669400999
  0
ARC
  5
DF2
330
1A
100
AcDbEntity
  8
SEIHIN
  6
CONTINUOUS
 62
     3
100
AcDbCircle
 10
521.2401237395981
 20
154.6791918704162
 30
0.0
 40
5.0
100
AcDbArc
 50
357.2856669400999
 51
90.0
  0
ARC
  5
DF3
330
1A
100
AcDbEntity
  8
SEIHIN
  6
CONTINUOUS
 62
     3
100
AcDbCircle
 10
519.9581797126982
 20
152.9791918704162
 30
0.0
 40
5.0
100
AcDbArc
 50
357.2856669400999
 51
90.0
  0
ARC
  5
DF4
330
1A
100
AcDbEntity
  8
SEIHIN
  6
CONTINUOUS
 62
     3
100
AcDbCircle
 10
519.9107701914981
 20
151.9791918704162
 30
0.0
 40
5.0
100
AcDbArc
 50
357.2856669400999
 51
90.0
  0
LINE
  5
DF5
330
1A
100
AcDbEntity
  8
SEIHIN
  6
CONTINUOUS
 62
     3
100
AcDbLine
 10
517.6534338005981
 20
159.6791918704162
 30
0.0
 11
522.7418081818982
 21
159.6791918704162
 31
0.0
  0
ARC
  5
DF6
330
1A
100
AcDbEntity
  8
SEIHIN
  6
CONTINUOUS
 62
     3
100
AcDbCircle
 10
521.2862212491982
 20
133.4791918704162
 30
0.0
 40
1.0
100
AcDbArc
 50
357.2856578746992
 51
90.0
  0
LINE
  5
DF7
330
1A
100
AcDbEntity
  8
SEIHIN
  6
CONTINUOUS
 62
     3
100
AcDbLine
 10
520.5353788487982
 20
134.4791918704162
 30
0.0
 11
523.1330057030982
 21
134.4791918704162
 31
0.0
  0
ARC
  5
DF8
330
1A
100
AcDbEntity
  8
SEIHIN
  6
CONTINUOUS
 62
     3
100
AcDbCircle
 10
521.1439926853982
 20
130.4791918704162
 30
0.0
 40
1.0
100
AcDbArc
 50
357.2856669400999
 51
90.0
  0
ARC
  5
DF9
330
1A
100
AcDbEntity
  8
SEIHIN
  6
CONTINUOUS
 62
     3
100
AcDbCircle
 10
520.3931502849981
 20
130.4791918704162
 30
0.0
 40
1.0
100
AcDbArc
 50
90.0
 51
177.2856669400999
  0
LINE
  5
DFA
330
1A
100
AcDbEntity
  8
SEIHIN
  6
CONTINUOUS
 62
     3
100
AcDbLine
 10
520.3931502849981
 20
131.4791918704162
 30
0.0
 11
521.1439926853982
 21
131.4791918704162
 31
0.0
  0
ARC
  5
DFB
330
1A
100
AcDbEntity
  8
SEIHIN
  6
CONTINUOUS
 62
     3
100
AcDbCircle
 10
520.5353788487982
 20
133.4791918704162
 30
0.0
 40
1.0
100
AcDbArc
 50
90.0
 51
177.2856819809992
  0
LINE
  5
DFC
330
1A
100
AcDbEntity
  8
SEIHIN
  6
CONTINUOUS
 62
     3
100
AcDbLine
 10
517.6534338005981
 20
156.9791918704162
 30
0.0
 11
516.653433800598
 21
157.9791918704162
 31
0.0
  0
LINE
  5
DFD
330
1A
100
AcDbEntity
  8
SEIHIN
  6
CONTINUOUS
 62
     3
100
AcDbLine
 10
516.653433800598
 20
157.9791918704162
 30
0.0
 11
516.653433800598
 21
154.6791918704162
 31
0.0
  0
ARC
  5
DFE
330
1A
100
AcDbEntity
  8
SEIHIN
  6
CONTINUOUS
 62
     3
100
AcDbCircle
 10
517.6534338005981
 20
157.0791918704162
 30
0.0
 40
2.6
100
AcDbArc
 50
90.0
 51
270.0
  0
LINE
  5
DFF
330
1A
100
AcDbEntity
  8
SEIHIN
  6
CONTINUOUS
 62
     3
100
AcDbLine
 10
517.6534338005981
 20
156.9791918704162
 30
0.0
 11
519.9107704245982
 21
156.9791918704162
 31
0.0
  0
LINE
  5
E00
330
1A
100
AcDbEntity
  8
SEIHIN
  6
CONTINUOUS
 62
     3
100
AcDbLine
 10
517.6534338005981
 20
156.9791918704162
 30
0.0
 11
517.6534338005981
 21
154.4791918704162
 31
0.0
  0
LINE
  5
E01
330
1A
100
AcDbEntity
  8
SEIHIN
  6
CONTINUOUS
 62
     3
100
AcDbLine
 10
516.653433800598
 20
157.9791918704162
 30
0.0
 11
519.9581797126982
 21
157.9791918704162
 31
0.0
  0
ARC
  5
E02
330
1A
100
AcDbEntity
  8
SEIHIN
  6
CONTINUOUS
 62
     3
100
AcDbCircle
 10
523.1330058927981
 20
135.4791918704162
 30
0.0
 40
1.0
100
AcDbArc
 50
269.9999891348978
 51
357.2856669400999
  0
ARC
  5
E03
330
1A
100
AcDbEntity
  8
SEIHIN
  6
CONTINUOUS
 62
     3
100
AcDbCircle
 10
522.741808540398
 20
154.6791918704162
 30
0.0
 40
5.0
100
AcDbArc
 50
357.2856638868007
 51
90.00000410829713
  0
LINE
  5
E04
330
1A
100
AcDbEntity
  8
SEIHIN
  6
CONTINUOUS
 62
     3
100
AcDbLine
 10
524.9051605081981
 20
151.7424106121162
 30
0.0
 11
524.9051605106981
 21
151.7424106653162
 31
0.0
  0
LINE
  5
E05
330
1A
100
AcDbEntity
  8
SEIHIN
  6
CONTINUOUS
 62
     3
100
AcDbLine
 10
519.8884138522981
 20
327.0579063178077
 30
0.0
 11
519.8884138522981
 21
503.6821570055077
 31
0.0
  0
LINE
  5
E06
330
1A
100
AcDbEntity
  8
SEIHIN
  6
CONTINUOUS
 62
     3
100
AcDbLine
 10
524.8103414468983
 20
318.0579063178076
 30
0.0
 11
524.8103414468983
 21
508.6040846001077
 31
0.0
  0
LINE
  5
E07
330
1A
100
AcDbEntity
  8
SEIHIN
  6
CONTINUOUS
 62
     3
100
AcDbLine
 10
527.5133740883982
 20
318.0579063178076
 30
0.0
 11
527.5133740883982
 21
508.6071172416076
 31
0.0
  0
LINE
  5
E08
330
1A
100
AcDbEntity
  8
CENTER_L
  6
CENTER
 62
     1
 48
5.0
100
AcDbLine
 10
473.6534338005981
 20
271.1024548302076
 30
0.0
 11
473.6534338005981
 21
462.2471769538077
 31
0.0
  0
DIMENSION
  5
E09
330
1A
100
AcDbEntity
  8
SUNPOU
100
AcDbDimension
  2
*D9
 10
563.395817898373
 20
278.0579063178076
 30
0.0
 11
558.3958178983729
 21
300.0579063178077
 31
0.0
 70
    32
  1
※<>
  3
STANDARD
100
AcDbAlignedDimension
 13
522.2862212491982
 23
322.0579063178076
 33
0.0
 14
526.0464306315982
 24
278.0579063178076
 34
0.0
 50
90.0
100
AcDbRotatedDimension
1001
ACAD
1000
DSTYLE
1002
{
1070
    41
1040
7.0
1070
    42
1040
6.0
1070
    43
1040
14.0
1070
    44
1040
3.0
1070
    73
1070
     0
1070
    74
1070
     0
1070
    77
1070
     3
1070
   140
1040
6.0
1070
   141
1040
150.0
1070
   147
1040
2.0
1070
   172
1070
     1
1070
   173
1070
     1
1070
   176
1070
   256
1070
   177
1070
   256
1070
   178
1070
   256
1070
   271
1070
     0
1070
   272
1070
     2
1070
     6
1000
OPEN
1070
     7
1000
OPEN
1070
   371
1070
    -1
1070
   372
1070
    -1
1002
}
  0
DIMENSION
  5
E0A
330
1A
100
AcDbEntity
  8
SUNPOU
100
AcDbDimension
  2
*D10
 10
501.8741244331981
 20
307.0579063178076
 30
0.0
 11
496.874124433198
 21
316.1615538929577
 31
0.0
 70
    32
  3
STANDARD
100
AcDbAlignedDimension
 13
483.6534338005981
 23
325.2652014681076
 33
0.0
 14
488.6948150657981
 24
307.0579063178076
 34
0.0
 50
90.0
100
AcDbRotatedDimension
1001
ACAD
1000
DSTYLE
1002
{
1070
    41
1040
7.0
1070
    42
1040
6.0
1070
    43
1040
14.0
1070
    44
1040
3.0
1070
    73
1070
     0
1070
    74
1070
     0
1070
    77
1070
     3
1070
   140
1040
6.0
1070
   141
1040
150.0
1070
   147
1040
2.0
1070
   172
1070
     1
1070
   173
1070
     1
1070
   176
1070
   256
1070
   177
1070
   256
1070
   178
1070
   256
1070
   271
1070
     0
1070
   272
1070
     2
1070
     6
1000
OPEN
1070
     7
1000
OPEN
1070
   371
1070
    -1
1070
   372
1070
    -1
1002
}
  0
LINE
  5
E0B
330
1A
100
AcDbEntity
  8
SEIHIN
  6
CONTINUOUS
 62
     3
100
AcDbLine
 10
527.741808540398
 20
309.8316389737077
 30
0.0
 11
527.741808540398
 21
318.0579063178076
 31
0.0
  0
LINE
  5
E0C
330
1A
100
AcDbEntity
  8
SEIHIN
  6
CONTINUOUS
 62
     3
100
AcDbLine
 10
515.0534338005981
 20
278.0579063178076
 30
0.0
 11
515.0534338005981
 21
318.0579063178076
 31
0.0
  0
LINE
  5
E0D
330
1A
100
AcDbEntity
  8
SEIHIN
  6
CONTINUOUS
 62
     3
100
AcDbLine
 10
483.6534338005981
 20
322.0579063178076
 30
0.0
 11
485.7356334614983
 21
309.5647083524077
 31
0.0
  0
LINE
  5
E0E
330
1A
100
AcDbEntity
  8
SEIHIN
  6
CONTINUOUS
 62
     3
100
AcDbLine
 10
488.6948150657981
 20
307.0579063178076
 30
0.0
 11
515.0534338005981
 21
307.0579063178076
 31
0.0
  0
ARC
  5
E0F
330
1A
100
AcDbEntity
  8
SEIHIN
  6
CONTINUOUS
 62
     3
100
AcDbCircle
 10
488.6948150657981
 20
310.0579063178077
 30
0.0
 40
3.0
100
AcDbArc
 50
189.4623416382005
 51
270.0
  0
LINE
  5
E10
330
1A
100
AcDbEntity
  8
SEIHIN
  6
CONTINUOUS
 62
     3
100
AcDbLine
 10
527.2834997192981
 20
296.2996959690077
 30
0.0
 11
526.0464306315982
 21
278.0579063178076
 31
0.0
  0
ARC
  5
E11
330
1A
100
AcDbEntity
  8
SEIHIN
  6
CONTINUOUS
 62
     3
100
AcDbCircle
 10
327.7418085403982
 20
309.8316389737077
 30
0.0
 40
200.0
100
AcDbArc
 50
356.1204200236003
 51
0.0
  0
LINE
  5
E12
330
1A
100
AcDbEntity
  8
SEIHIN
  6
CONTINUOUS
 62
     3
100
AcDbLine
 10
515.0534338005981
 20
318.0579063178076
 30
0.0
 11
527.741808540398
 21
318.0579063178076
 31
0.0
  0
LINE
  5
E13
330
1A
100
AcDbEntity
  8
SEIHIN
  6
CONTINUOUS
 62
     3
100
AcDbLine
 10
523.8231665551982
 20
327.0579063178077
 30
0.0
 11
519.5365007767982
 21
322.0579063178076
 31
0.0
  0
LINE
  5
E14
330
1A
100
AcDbEntity
  8
SEIHIN
  6
CONTINUOUS
 62
     3
100
AcDbLine
 10
483.6534338005981
 20
322.0579063178076
 30
0.0
 11
519.5365007767982
 21
322.0579063178076
 31
0.0
  0
LINE
  5
E15
330
1A
100
AcDbEntity
  8
SEIHIN
  6
CONTINUOUS
 62
     3
100
AcDbLine
 10
483.6534338005981
 20
325.2652014681076
 30
0.0
 11
463.6534338005981
 21
325.2652014681076
 31
0.0
  0
ARC
  5
E16
330
1A
100
AcDbEntity
  8
SEIHIN
  6
CONTINUOUS
 62
     3
100
AcDbCircle
 10
461.1258462904945
 20
319.0579063178077
 30
0.0
 40
2.0
100
AcDbArc
 50
270.0
 51
350.5376777919061
  0
LINE
  5
E17
330
1A
100
AcDbEntity
  8
SEIHIN
  6
CONTINUOUS
 62
     3
100
AcDbLine
 10
463.6534338005981
 20
322.0579063178076
 30
0.0
 11
463.0986341381585
 21
318.7291083431946
 31
0.0
  0
LINE
  5
E18
330
1A
100
AcDbEntity
  8
SEIHIN
  6
CONTINUOUS
 62
     3
100
AcDbLine
 10
463.6534338005981
 20
322.0579063178076
 30
0.0
 11
463.6534338005981
 21
327.0579063178077
 31
0.0
  0
LINE
  5
E19
330
1A
100
AcDbEntity
  8
SEIHIN
  6
CONTINUOUS
 62
     3
100
AcDbLine
 10
483.6534338005981
 20
322.0579063178076
 30
0.0
 11
483.6534338005981
 21
327.0579063178077
 31
0.0
  0
LINE
  5
E1A
330
1A
100
AcDbEntity
  8
SEIHIN
  6
CONTINUOUS
 62
     3
100
AcDbLine
 10
519.5365007767982
 20
318.0579063178076
 30
0.0
 11
519.5365007767982
 21
322.0579063178076
 31
0.0
  0
LINE
  5
E1B
330
1A
100
AcDbEntity
  8
SEIHIN
  6
CONTINUOUS
 62
     3
100
AcDbLine
 10
523.8231665551982
 20
324.5579063178077
 30
0.0
 11
523.8231665551982
 21
327.0579063178077
 31
0.0
  0
LINE
  5
E1C
330
1A
100
AcDbEntity
  8
SEIHIN
  6
CONTINUOUS
 62
     3
100
AcDbLine
 10
522.2862212491982
 20
318.0579063178076
 30
0.0
 11
522.2862212491982
 21
322.0579063178076
 31
0.0
  0
LINE
  5
E1D
330
1A
100
AcDbEntity
  8
SEIHIN
  6
CONTINUOUS
 62
     3
100
AcDbLine
 10
522.2862212491982
 20
322.0579063178076
 30
0.0
 11
523.8231665551982
 21
324.5579063178077
 31
0.0
  0
ARC
  5
E1E
330
1A
100
AcDbEntity
  8
SEIHIN
  6
CONTINUOUS
 62
     3
100
AcDbCircle
 10
520.0103414468981
 20
508.6040846001077
 30
0.0
 40
4.799999999999999
100
AcDbArc
 50
0.0
 51
90.0
  0
ARC
  5
E1F
330
1A
100
AcDbEntity
  8
SEIHIN
  6
CONTINUOUS
 62
     3
100
AcDbCircle
 10
520.0133740883982
 20
508.6071172416076
 30
0.0
 40
7.5
100
AcDbArc
 50
0.0
 51
90.0
  0
ARC
  5
E20
330
1A
100
AcDbEntity
  8
SEIHIN
  6
CONTINUOUS
 62
     3
100
AcDbCircle
 10
520.0133740883982
 20
508.6071172416076
 30
0.0
 40
7.5
100
AcDbArc
 50
0.0
 51
90.0
  0
ARC
  5
E21
330
1A
100
AcDbEntity
  8
SEIHIN
  6
CONTINUOUS
 62
     3
100
AcDbCircle
 10
515.0884138522981
 20
503.6821570055077
 30
0.0
 40
4.799999999999999
100
AcDbArc
 50
0.0
 51
90.0
  0
VIEWPORT
  5
22
330
17
100
AcDbEntity
 67
     1
  8
0
100
AcDbViewport
 10
313.6808219178082
 20
148.5
 30
0.0
 40
627.3616438356165
 41
297.0
 68
     2
 69
     1
1001
ACAD
1000
MVIEW
1002
{
1070
    16
1010
0.0
1020
0.0
1030
0.0
1010
0.0
1020
0.0
1030
1.0
1040
0.0
1040
297.0
1040
313.6808219178082
1040
148.5
1040
50.0
1040
0.0
1040
0.0
1070
     0
1070
   100
1070
     1
1070
     0
1070
     0
1070
     0
1070
     0
1070
     0
1040
0.0
1040
0.0
1040
0.0
1040
1.0
1040
1.0
1040
10.0
1040
10.0
1070
     0
1002
{
1002
}
1002
}
  0
VIEWPORT
  5
64
330
17
100
AcDbEntity
 67
     1
  8
VIEWPORT
100
AcDbViewport
 10
210.0
 20
148.5
 30
0.0
 40
420.0
 41
297.0
 68
     1
 69
     2
1001
ACAD
1000
MVIEW
1002
{
1070
    16
1010
0.0
1020
0.0
1030
0.0
1010
0.0
1020
0.0
1030
1.0
1040
0.0
1040
605.8799999999998
1040
420.0
1040
297.0
1040
50.0
1040
0.0
1040
0.0
1070
     0
1070
   100
1070
     1
1070
     0
1070
     0
1070
     0
1070
     0
1070
     0
1040
0.0
1040
0.0
1040
0.0
1040
10.0
1040
10.0
1040
0.0
1040
0.0
1070
     0
1002
{
1002
}
1002
}
  0
ENDSEC
  0
SECTION
  2
OBJECTS
  0
DICTIONARY
  5
C
330
0
100
AcDbDictionary
  3
ACAD_GROUP
350
D
  3
ACAD_LAYOUT
350
787
  3
ACAD_MLINESTYLE
350
E
  3
ACAD_PLOTSETTINGS
350
788
  3
ACAD_PLOTSTYLENAME
350
785
  3
ACDBHEADERROUNDTRIPXREC
350
1070
  0
DICTIONARY
  5
7B6
330
1A
100
AcDbDictionary
280
     1
  3
ACAD_LAYOUTSELFREF
360
1092
  0
DICTIONARY
  5
7B4
330
17
100
AcDbDictionary
280
     1
  3
ACAD_LAYOUTSELFREF
360
1091
  0
DICTIONARY
  5
D
102
{ACAD_REACTORS
330
C
102
}
330
C
100
AcDbDictionary
  0
DICTIONARY
  5
787
102
{ACAD_REACTORS
330
C
102
}
330
C
100
AcDbDictionary
  0
DICTIONARY
  5
E
102
{ACAD_REACTORS
330
C
102
}
330
C
100
AcDbDictionary
  3
STANDARD
350
13
  0
DICTIONARY
  5
788
102
{ACAD_REACTORS
330
C
102
}
330
C
100
AcDbDictionary
  0
ACDBDICTIONARYWDFLT
  5
785
102
{ACAD_REACTORS
330
C
102
}
330
C
100
AcDbDictionary
281
     1
  3
Normal
350
786
100
AcDbDictionaryWithDefault
340
786
1001
ACAD
1000
TREAT_AS_HARD
1070
     0
1000
TREAT_AS_HARD
1070
     0
1000
TREAT_AS_HARD
1070
     0
  0
DICTIONARY
  5
1070
102
{ACAD_REACTORS
330
C
102
}
330
C
100
AcDbDictionary
  3
TSTACKALIGN
350
1071
  3
TSTACKSIZE
350
1072
  3
HYPERLINKBASE
350
1073
  3
STYLESHEET
350
1074
  3
LAYOUTDICT
350
1075
  3
PLOTSETDICT
350
1076
  3
PLOTSTYLNAMDICT
350
1077
  3
LWETCUNION
350
1078
  3
INSUNITS
350
1079
  3
CEPSNTYPE
350
107A
  3
FINGERPRINTGUID
350
107B
  3
VERSIONGUID
350
107C
  3
PSVPSCALE
350
107D
  3
DIMSTYLEDATA
350
107E
  3
PUCSORTHOREF
350
107F
  3
PUCSORTHOVIEW
350
1080
  3
PUCSBASE
350
1081
  3
PUCSORGTOP
350
1082
  3
PUCSORGBOTTOM
350
1083
  3
PUCSORGLEFT
350
1084
  3
PUCSORGRIGHT
350
1085
  3
PUCSORGFRONT
350
1086
  3
PUCSORGBACK
350
1087
  3
UCSORTHOREF
350
1088
  3
UCSORTHOVIEW
350
1089
  3
UCSBASE
350
108A
  3
UCSORGTOP
350
108B
  3
UCSORGBOTTOM
350
108C
  3
UCSORGLEFT
350
108D
  3
UCSORGRIGHT
350
108E
  3
UCSORGFRONT
350
108F
  3
UCSORGBACK
350
1090
  0
XRECORD
  5
1092
102
{ACAD_REACTORS
330
7B6
102
}
330
7B6
100
AcDbXrecord
340
1A
  0
XRECORD
  5
1091
102
{ACAD_REACTORS
330
7B4
102
}
330
7B4
100
AcDbXrecord
340
17
  0
MLINESTYLE
  5
13
102
{ACAD_REACTORS
330
E
102
}
330
E
100
AcDbMlineStyle
  2
STANDARD
 70
     0
  3

 62
     0
 51
90.0
 52
90.0
 71
     2
 49
0.5
 62
   256
  6
BYLAYER
 49
-0.5
 62
   256
  6
BYLAYER
  0
ACDBPLACEHOLDER
  5
786
102
{ACAD_REACTORS
330
785
102
}
330
785
100
AcDbPlaceHolder
280
     0
  0
XRECORD
  5
1071
102
{ACAD_REACTORS
330
1070
102
}
330
1070
100
AcDbXrecord
 90
        1
  0
XRECORD
  5
1072
102
{ACAD_REACTORS
330
1070
102
}
330
1070
100
AcDbXrecord
 90
       70
  0
XRECORD
  5
1073
102
{ACAD_REACTORS
330
1070
102
}
330
1070
100
AcDbXrecord
  1

  0
XRECORD
  5
1074
102
{ACAD_REACTORS
330
1070
102
}
330
1070
100
AcDbXrecord
  1
systemprinter.ctb
  0
XRECORD
  5
1075
102
{ACAD_REACTORS
330
1070
102
}
330
1070
100
AcDbXrecord
340
787
  0
XRECORD
  5
1076
102
{ACAD_REACTORS
330
1070
102
}
330
1070
100
AcDbXrecord
340
788
  0
XRECORD
  5
1077
102
{ACAD_REACTORS
330
1070
102
}
330
1070
100
AcDbXrecord
340
785
  0
XRECORD
  5
1078
102
{ACAD_REACTORS
330
1070
102
}
330
1070
100
AcDbXrecord
 90
    10781
  0
XRECORD
  5
1079
102
{ACAD_REACTORS
330
1070
102
}
330
1070
100
AcDbXrecord
 90
        0
  0
XRECORD
  5
107A
102
{ACAD_REACTORS
330
1070
102
}
330
1070
100
AcDbXrecord
 90
        0
  0
XRECORD
  5
107B
102
{ACAD_REACTORS
330
1070
102
}
330
1070
100
AcDbXrecord
  1
{E1832D69-A93C-11D5-932D-0050DA99388B}
  0
XRECORD
  5
107C
102
{ACAD_REACTORS
330
1070
102
}
330
1070
100
AcDbXrecord
  1
{68C3876F-ED25-4226-81BF-55ECC777A339}
  0
XRECORD
  5
107D
102
{ACAD_REACTORS
330
1070
102
}
330
1070
100
AcDbXrecord
 40
0.0
  0
XRECORD
  5
107E
102
{ACAD_REACTORS
330
1070
102
}
330
1070
100
AcDbXrecord
1000
DSTYLE
1002
{
1070
   341
340
6D
1070
   343
340
6D
1070
   344
340
6D
1070
   371
 70
    -1
1070
   372
 70
    -1
1002
}
  0
XRECORD
  5
107F
102
{ACAD_REACTORS
330
1070
102
}
330
1070
100
AcDbXrecord
340
0
  0
XRECORD
  5
1080
102
{ACAD_REACTORS
330
1070
102
}
330
1070
100
AcDbXrecord
 70
     0
  0
XRECORD
  5
1081
102
{ACAD_REACTORS
330
1070
102
}
330
1070
100
AcDbXrecord
340
0
  0
XRECORD
  5
1082
102
{ACAD_REACTORS
330
1070
102
}
330
1070
100
AcDbXrecord
 10
0.0
 20
0.0
 30
0.0
  0
XRECORD
  5
1083
102
{ACAD_REACTORS
330
1070
102
}
330
1070
100
AcDbXrecord
 10
0.0
 20
0.0
 30
0.0
  0
XRECORD
  5
1084
102
{ACAD_REACTORS
330
1070
102
}
330
1070
100
AcDbXrecord
 10
0.0
 20
0.0
 30
0.0
  0
XRECORD
  5
1085
102
{ACAD_REACTORS
330
1070
102
}
330
1070
100
AcDbXrecord
 10
0.0
 20
0.0
 30
0.0
  0
XRECORD
  5
1086
102
{ACAD_REACTORS
330
1070
102
}
330
1070
100
AcDbXrecord
 10
0.0
 20
0.0
 30
0.0
  0
XRECORD
  5
1087
102
{ACAD_REACTORS
330
1070
102
}
330
1070
100
AcDbXrecord
 10
0.0
 20
0.0
 30
0.0
  0
XRECORD
  5
1088
102
{ACAD_REACTORS
330
1070
102
}
330
1070
100
AcDbXrecord
340
0
  0
XRECORD
  5
1089
102
{ACAD_REACTORS
330
1070
102
}
330
1070
100
AcDbXrecord
 70
     0
  0
XRECORD
  5
108A
102
{ACAD_REACTORS
330
1070
102
}
330
1070
100
AcDbXrecord
340
0
  0
XRECORD
  5
108B
102
{ACAD_REACTORS
330
1070
102
}
330
1070
100
AcDbXrecord
 10
0.0
 20
0.0
 30
0.0
  0
XRECORD
  5
108C
102
{ACAD_REACTORS
330
1070
102
}
330
1070
100
AcDbXrecord
 10
0.0
 20
0.0
 30
0.0
  0
XRECORD
  5
108D
102
{ACAD_REACTORS
330
1070
102
}
330
1070
100
AcDbXrecord
 10
0.0
 20
0.0
 30
0.0
  0
XRECORD
  5
108E
102
{ACAD_REACTORS
330
1070
102
}
330
1070
100
AcDbXrecord
 10
0.0
 20
0.0
 30
0.0
  0
XRECORD
  5
108F
102
{ACAD_REACTORS
330
1070
102
}
330
1070
100
AcDbXrecord
 10
0.0
 20
0.0
 30
0.0
  0
XRECORD
  5
1090
102
{ACAD_REACTORS
330
1070
102
}
330
1070
100
AcDbXrecord
 10
0.0
 20
0.0
 30
0.0
  0
ENDSEC
  0
EOF
