  0
SECTION
  2
HEADER
  9
$ACADVER
  1
AC1014
  9
$ACADMAINTVER
 70
     9
  9
$DWGCODEPAGE
  3
ANSI_932
  9
$INSBASE
 10
0.0
 20
0.0
 30
0.0
  9
$EXTMIN
 10
-0.0128099507776369
 20
-0.0090588098619264
 30
-0.0000000000112498
  9
$EXTMAX
 10
797.6616026615272
 20
551.6426494914817
 30
0.0000000000002956
  9
$LIMMIN
 10
0.0
 20
0.0
  9
$LIMMAX
 10
840.0
 20
594.0
  9
$ORTHOMODE
 70
     1
  9
$REGENMODE
 70
     1
  9
$FILLMODE
 70
     1
  9
$QTEXTMODE
 70
     0
  9
$MIRRTEXT
 70
     1
  9
$DRAGMODE
 70
     2
  9
$LTSCALE
 40
2.0
  9
$OSMODE
 70
    35
  9
$ATTMODE
 70
     1
  9
$TEXTSIZE
 40
5.0
  9
$TRACEWID
 40
1.0
  9
$TEXTSTYLE
  7
STANDARD
  9
$CLAYER
  8
SUNPOU
  9
$CELTYPE
  6
BYLAYER
  9
$CECOLOR
 62
   256
  9
$CELTSCALE
 40
1.0
  9
$DELOBJ
 70
     1
  9
$DISPSILH
 70
     0
  9
$DIMSCALE
 40
1.0
  9
$DIMASZ
 40
7.0
  9
$DIMEXO
 40
6.0
  9
$DIMDLI
 40
14.0
  9
$DIMRND
 40
0.0
  9
$DIMDLE
 40
0.0
  9
$DIMEXE
 40
3.0
  9
$DIMTP
 40
0.0
  9
$DIMTM
 40
0.0
  9
$DIMTXT
 40
6.0
  9
$DIMCEN
 40
150.0
  9
$DIMTSZ
 40
0.0
  9
$DIMTOL
 70
     0
  9
$DIMLIM
 70
     0
  9
$DIMTIH
 70
     0
  9
$DIMTOH
 70
     0
  9
$DIMSE1
 70
     0
  9
$DIMSE2
 70
     0
  9
$DIMTAD
 70
     3
  9
$DIMZIN
 70
     0
  9
$DIMBLK
  1

  9
$DIMASO
 70
     1
  9
$DIMSHO
 70
     1
  9
$DIMPOST
  1

  9
$DIMAPOST
  1

  9
$DIMALT
 70
     0
  9
$DIMALTD
 70
     2
  9
$DIMALTF
 40
25.4
  9
$DIMLFAC
 40
1.0
  9
$DIMTOFL
 70
     1
  9
$DIMTVP
 40
0.0
  9
$DIMTIX
 70
     0
  9
$DIMSOXD
 70
     0
  9
$DIMSAH
 70
     1
  9
$DIMBLK1
  1
OPEN
  9
$DIMBLK2
  1
OPEN
  9
$DIMSTYLE
  2
STANDARD
  9
$DIMCLRD
 70
   256
  9
$DIMCLRE
 70
   256
  9
$DIMCLRT
 70
   256
  9
$DIMTFAC
 40
1.0
  9
$DIMGAP
 40
2.0
  9
$DIMJUST
 70
     0
  9
$DIMSD1
 70
     0
  9
$DIMSD2
 70
     0
  9
$DIMTOLJ
 70
     1
  9
$DIMTZIN
 70
     0
  9
$DIMALTZ
 70
     0
  9
$DIMALTTZ
 70
     0
  9
$DIMFIT
 70
     3
  9
$DIMUPT
 70
     0
  9
$DIMUNIT
 70
     2
  9
$DIMDEC
 70
     0
  9
$DIMTDEC
 70
     0
  9
$DIMALTU
 70
     2
  9
$DIMALTTD
 70
     2
  9
$DIMTXSTY
  7
STANDARD
  9
$DIMAUNIT
 70
     0
  9
$LUNITS
 70
     2
  9
$LUPREC
 70
     4
  9
$SKETCHINC
 40
1.0
  9
$FILLETRAD
 40
1.0
  9
$AUNITS
 70
     0
  9
$AUPREC
 70
     0
  9
$MENU
  1
.
  9
$ELEVATION
 40
0.0
  9
$PELEVATION
 40
0.0
  9
$THICKNESS
 40
0.0
  9
$LIMCHECK
 70
     0
  9
$BLIPMODE
 70
     0
  9
$CHAMFERA
 40
20.0
  9
$CHAMFERB
 40
20.0
  9
$CHAMFERC
 40
40.0
  9
$CHAMFERD
 40
0.0
  9
$SKPOLY
 70
     0
  9
$TDCREATE
 40
2451159.670660069
  9
$TDUPDATE
 40
2454217.673509467
  9
$TDINDWG
 40
0.0584457407
  9
$TDUSRTIMER
 40
0.0584457407
  9
$USRTIMER
 70
     1
  9
$ANGBASE
 50
0.0
  9
$ANGDIR
 70
     0
  9
$PDMODE
 70
     0
  9
$PDSIZE
 40
0.0
  9
$PLINEWID
 40
0.0
  9
$COORDS
 70
     0
  9
$SPLFRAME
 70
     0
  9
$SPLINETYPE
 70
     6
  9
$SPLINESEGS
 70
     8
  9
$ATTDIA
 70
     0
  9
$ATTREQ
 70
     1
  9
$HANDLING
 70
 10241
  9
$HANDSEED
  5
BEE
  9
$SURFTAB1
 70
     6
  9
$SURFTAB2
 70
     6
  9
$SURFTYPE
 70
     6
  9
$SURFU
 70
     6
  9
$SURFV
 70
     6
  9
$UCSNAME
  2

  9
$UCSORG
 10
0.0
 20
0.0
 30
0.0
  9
$UCSXDIR
 10
1.0
 20
0.0
 30
0.0
  9
$UCSYDIR
 10
0.0
 20
1.0
 30
0.0
  9
$PUCSNAME
  2

  9
$PUCSORG
 10
0.0
 20
0.0
 30
0.0
  9
$PUCSXDIR
 10
1.0
 20
0.0
 30
0.0
  9
$PUCSYDIR
 10
0.0
 20
1.0
 30
0.0
  9
$USERI1
 70
     0
  9
$USERI2
 70
     0
  9
$USERI3
 70
     0
  9
$USERI4
 70
     0
  9
$USERI5
 70
     0
  9
$USERR1
 40
0.0
  9
$USERR2
 40
0.0
  9
$USERR3
 40
0.0
  9
$USERR4
 40
0.0
  9
$USERR5
 40
0.0
  9
$WORLDVIEW
 70
     1
  9
$SHADEDGE
 70
     3
  9
$SHADEDIF
 70
    70
  9
$TILEMODE
 70
     1
  9
$MAXACTVP
 70
    16
  9
$PINSBASE
 10
0.0
 20
0.0
 30
0.0
  9
$PLIMCHECK
 70
     0
  9
$PEXTMIN
 10
0.0
 20
0.0
 30
0.0
  9
$PEXTMAX
 10
420.0
 20
297.0
 30
0.0
  9
$PLIMMIN
 10
0.0
 20
0.0
  9
$PLIMMAX
 10
420.0
 20
297.0
  9
$UNITMODE
 70
     0
  9
$VISRETAIN
 70
     0
  9
$PLINEGEN
 70
     0
  9
$PSLTSCALE
 70
     1
  9
$TREEDEPTH
 70
  3020
  9
$PICKSTYLE
 70
     1
  9
$CMLSTYLE
  2
STANDARD
  9
$CMLJUST
 70
     0
  9
$CMLSCALE
 40
1.0
  9
$PROXYGRAPHICS
 70
     1
  9
$MEASUREMENT
 70
     1
  0
ENDSEC
  0
SECTION
  2
CLASSES
  0
CLASS
  1
ACDBDICTIONARYWDFLT
  2
AcDbDictionaryWithDefault
  3
AutoCAD 2000
 90
        0
280
     0
281
     0
  0
CLASS
  1
ACDBPLACEHOLDER
  2
AcDbPlaceHolder
  3
AutoCAD 2000
 90
        0
280
     0
281
     0
  0
CLASS
  1
LAYOUT
  2
AcDbLayout
  3
AutoCAD 2000
 90
        0
280
     0
281
     0
  0
CLASS
  1
LONG_TRANSACTION
  2
AcDbLongTransaction
  3
AutoCAD 2000
 90
        0
280
     0
281
     0
  0
CLASS
  1
LWPOLYLINE
  2
AcDbPolyline
  3
AutoCAD 2000
 90
        0
280
     0
281
     1
  0
CLASS
  1
HATCH
  2
AcDbHatch
  3
AutoCAD 2000
 90
        0
280
     0
281
     1
  0
CLASS
  1
XRECORD
  2
AcDbXrecord
  3
AutoCAD 2000
 90
        0
280
     0
281
     0
  0
CLASS
  1
LONG_TRANSACTION
  2
AcDbLongTransaction
  3
AutoCAD 2000
 90
        0
280
     0
281
     0
  0
CLASS
  1
LWPOLYLINE
  2
AcDbPolyline
  3
AutoCAD 2000
 90
        0
280
     0
281
     1
  0
CLASS
  1
HATCH
  2
AcDbHatch
  3
AutoCAD 2000
 90
        0
280
     0
281
     1
  0
CLASS
  1
XRECORD
  2
AcDbXrecord
  3
AutoCAD 2000
 90
        0
280
     0
281
     0
  0
CLASS
  1
LONG_TRANSACTION
  2
AcDbLongTransaction
  3
AutoCAD 2000
 90
        0
280
     0
281
     0
  0
CLASS
  1
LWPOLYLINE
  2
AcDbPolyline
  3
AutoCAD 2000
 90
        0
280
     0
281
     1
  0
CLASS
  1
HATCH
  2
AcDbHatch
  3
AutoCAD 2000
 90
        0
280
     0
281
     1
  0
CLASS
  1
XRECORD
  2
AcDbXrecord
  3
AutoCAD 2000
 90
        0
280
     0
281
     0
  0
ENDSEC
  0
SECTION
  2
TABLES
  0
TABLE
  2
VPORT
  5
8
330
0
100
AcDbSymbolTable
 70
     4
  0
VPORT
  5
BCA
330
8
100
AcDbSymbolTableRecord
100
AcDbViewportTableRecord
  2
*ACTIVE
 70
     0
 10
0.0
 20
0.0
 11
1.0
 21
1.0
 12
443.086444943528
 22
271.6699478821831
 13
0.0
 23
0.0
 14
5.0
 24
5.0
 15
0.0
 25
0.0
 16
0.0
 26
0.0
 36
1.0
 17
0.0
 27
0.0
 37
0.0
 40
652.2667283033001
 41
1.566326530612244
 42
50.0
 43
0.0
 44
0.0
 50
0.0
 51
0.0
 71
     0
 72
   100
 73
     1
 74
     0
 75
     0
 76
     0
 77
     0
 78
     0
  0
ENDTAB
  0
TABLE
  2
LTYPE
  5
5
330
0
100
AcDbSymbolTable
 70
     3
  0
LTYPE
  5
14
330
5
100
AcDbSymbolTableRecord
100
AcDbLinetypeTableRecord
  2
BYBLOCK
 70
     0
  3

 72
    65
 73
     0
 40
0.0
  0
LTYPE
  5
15
330
5
100
AcDbSymbolTableRecord
100
AcDbLinetypeTableRecord
  2
BYLAYER
 70
     0
  3

 72
    65
 73
     0
 40
0.0
  0
LTYPE
  5
16
330
5
100
AcDbSymbolTableRecord
100
AcDbLinetypeTableRecord
  2
CONTINUOUS
 70
     0
  3
Solid line
 72
    65
 73
     0
 40
0.0
  0
LTYPE
  5
115
330
5
100
AcDbSymbolTableRecord
100
AcDbLinetypeTableRecord
  2
PHANTOM
 70
     0
  3
______  __  __  ______  __  __  ______  __  __ 
 72
    65
 73
     6
 40
2.5
 49
1.25
 74
     0
 49
-0.25
 74
     0
 49
0.25
 74
     0
 49
-0.25
 74
     0
 49
0.25
 74
     0
 49
-0.25
 74
     0
  0
LTYPE
  5
135
330
5
100
AcDbSymbolTableRecord
100
AcDbLinetypeTableRecord
  2
CENTER
 70
     0
  3
____ _ ____ _ ____ _ ____ _ ____ _ ____ _ ____ 
 72
    65
 73
     4
 40
2.0
 49
1.25
 74
     0
 49
-0.25
 74
     0
 49
0.25
 74
     0
 49
-0.25
 74
     0
  0
ENDTAB
  0
TABLE
  2
LAYER
  5
2
330
0
100
AcDbSymbolTable
 70
     9
  0
LAYER
  5
F
330
2
100
AcDbSymbolTableRecord
100
AcDbLayerTableRecord
  2
0
 70
     0
 62
     7
  6
CONTINUOUS
  0
LAYER
  5
62
330
2
100
AcDbSymbolTableRecord
100
AcDbLayerTableRecord
  2
VIEWPORT
 70
     0
 62
     7
  6
CONTINUOUS
  0
LAYER
  5
65
330
2
100
AcDbSymbolTableRecord
100
AcDbLayerTableRecord
  2
ZUWAKU
 70
     0
 62
     7
  6
CONTINUOUS
  0
LAYER
  5
2CF
330
2
100
AcDbSymbolTableRecord
100
AcDbLayerTableRecord
  2
SUNPOU
 70
     0
 62
     4
  6
CONTINUOUS
  0
LAYER
  5
2D0
330
2
100
AcDbSymbolTableRecord
100
AcDbLayerTableRecord
  2
NOKITOI
 70
     0
 62
     9
  6
PHANTOM
  0
LAYER
  5
2D1
330
2
100
AcDbSymbolTableRecord
100
AcDbLayerTableRecord
  2
SEIHIN
 70
     0
 62
     3
  6
CONTINUOUS
  0
LAYER
  5
532
330
2
100
AcDbSymbolTableRecord
100
AcDbLayerTableRecord
  2
DEFPOINTS
 70
     0
 62
     7
  6
CONTINUOUS
  0
LAYER
  5
809
330
2
100
AcDbSymbolTableRecord
100
AcDbLayerTableRecord
  2
CENTER_L
 70
     0
 62
     1
  6
CENTER
  0
LAYER
  5
A44
330
2
100
AcDbSymbolTableRecord
100
AcDbLayerTableRecord
  2
MOJI
 70
     0
 62
     2
  6
CONTINUOUS
  0
ENDTAB
  0
TABLE
  2
STYLE
  5
3
330
0
100
AcDbSymbolTable
 70
     2
  0
STYLE
  5
10
330
3
100
AcDbSymbolTableRecord
100
AcDbTextStyleTableRecord
  2
STANDARD
 70
     0
 40
0.0
 41
1.0
 50
0.0
 71
     0
 42
5.0
  3
TXT
  4
bigfont.shx
  0
STYLE
  5
A45
330
3
100
AcDbSymbolTableRecord
100
AcDbTextStyleTableRecord
  2
ｽﾀｲﾙ1
 70
     0
 40
0.0
 41
1.0
 50
0.0
 71
     0
 42
2.5
  3
MS PGothic.ttf
  4

1001
ACAD
1000
MS PGothic
1071
    32818
  0
ENDTAB
  0
TABLE
  2
VIEW
  5
6
330
0
100
AcDbSymbolTable
 70
     0
  0
ENDTAB
  0
TABLE
  2
UCS
  5
7
330
0
100
AcDbSymbolTable
 70
     0
  0
ENDTAB
  0
TABLE
  2
APPID
  5
9
330
0
100
AcDbSymbolTable
 70
     1
  0
APPID
  5
11
330
9
100
AcDbSymbolTableRecord
100
AcDbRegAppTableRecord
  2
ACAD
 70
     0
  0
ENDTAB
  0
TABLE
  2
DIMSTYLE
  5
A
330
0
100
AcDbSymbolTable
 70
     1
  0
DIMSTYLE
105
1D
102
{ACAD_REACTORS
330
847
330
861
330
86E
330
895
102
}
330
A
100
AcDbSymbolTableRecord
100
AcDbDimStyleTableRecord
  2
STANDARD
 70
     0
  3

  4

  5

  6

  7

 40
1.0
 41
0.18
 42
0.0625
 43
0.38
 44
0.18
 45
0.0
 46
0.0
 47
0.0
 48
0.0
140
0.18
141
0.09
142
0.0
143
25.4
144
1.0
145
0.0
146
1.0
147
0.09
 71
     0
 72
     0
 73
     1
 74
     1
 75
     0
 76
     0
 77
     0
 78
     0
170
     0
171
     2
172
     0
173
     0
174
     0
175
     0
176
     0
177
     0
178
     0
270
     2
271
     4
272
     4
273
     2
274
     2
340
10
275
     0
280
     0
281
     0
282
     0
283
     1
284
     0
285
     0
286
     0
287
     3
288
     0
  0
ENDTAB
  0
TABLE
  2
BLOCK_RECORD
  5
1
330
0
100
AcDbSymbolTable
 70
     5
  0
BLOCK_RECORD
  5
1A
102
{ACAD_XDICTIONARY
360
9DE
102
}
330
1
100
AcDbSymbolTableRecord
100
AcDbBlockTableRecord
  2
*MODEL_SPACE
  0
BLOCK_RECORD
  5
17
102
{ACAD_XDICTIONARY
360
9DC
102
}
330
1
100
AcDbSymbolTableRecord
100
AcDbBlockTableRecord
  2
*PAPER_SPACE
  0
BLOCK_RECORD
  5
6D
330
1
100
AcDbSymbolTableRecord
100
AcDbBlockTableRecord
  2
_OPEN
  0
BLOCK_RECORD
  5
83B
330
1
100
AcDbSymbolTableRecord
100
AcDbBlockTableRecord
  2
*D1
  0
BLOCK_RECORD
  5
855
330
1
100
AcDbSymbolTableRecord
100
AcDbBlockTableRecord
  2
*D2
  0
BLOCK_RECORD
  5
862
330
1
100
AcDbSymbolTableRecord
100
AcDbBlockTableRecord
  2
*D3
  0
BLOCK_RECORD
  5
889
330
1
100
AcDbSymbolTableRecord
100
AcDbBlockTableRecord
  2
*D4
  0
ENDTAB
  0
ENDSEC
  0
SECTION
  2
BLOCKS
  0
BLOCK
  5
1B
330
1A
100
AcDbEntity
  8
0
100
AcDbBlockBegin
  2
*MODEL_SPACE
 70
     0
 10
0.0
 20
0.0
 30
0.0
  3
*MODEL_SPACE
  1

  0
ENDBLK
  5
1C
330
1A
100
AcDbEntity
  8
0
100
AcDbBlockEnd
  0
BLOCK
  5
18
330
17
100
AcDbEntity
 67
     1
  8
0
100
AcDbBlockBegin
  2
*PAPER_SPACE
 70
     0
 10
0.0
 20
0.0
 30
0.0
  3
*PAPER_SPACE
  1

  0
ENDBLK
  5
19
330
17
100
AcDbEntity
 67
     1
  8
0
100
AcDbBlockEnd
  0
BLOCK
  5
6E
330
6D
100
AcDbEntity
  8
0
100
AcDbBlockBegin
  2
_OPEN
 70
     0
 10
0.0
 20
0.0
 30
0.0
  3
_OPEN
  1

  0
LINE
  5
6F
330
6D
100
AcDbEntity
  8
0
  6
BYBLOCK
 62
     0
100
AcDbLine
 10
-1.0
 20
0.1666666666666666
 30
0.0
 11
0.0
 21
0.0
 31
0.0
  0
LINE
  5
70
330
6D
100
AcDbEntity
  8
0
  6
BYBLOCK
 62
     0
100
AcDbLine
 10
0.0
 20
0.0
 30
0.0
 11
-1.0
 21
-0.1666666666666666
 31
0.0
  0
LINE
  5
71
330
6D
100
AcDbEntity
  8
0
  6
BYBLOCK
 62
     0
100
AcDbLine
 10
0.0
 20
0.0
 30
0.0
 11
-1.0
 21
0.0
 31
0.0
  0
ENDBLK
  5
72
330
6D
100
AcDbEntity
  8
0
100
AcDbBlockEnd
  0
BLOCK
  5
83C
330
83B
100
AcDbEntity
  8
0
100
AcDbBlockBegin
  2
*D1
 70
     1
 10
0.0
 20
0.0
 30
0.0
  3
*D1
  1

  0
LINE
  5
9E6
330
83B
100
AcDbEntity
  8
SUNPOU
100
AcDbLine
 10
445.617450668615
 20
249.5577998014754
 30
0.0
 11
445.617450668615
 21
300.5143084126839
 31
0.0
  0
LINE
  5
9E7
330
83B
100
AcDbEntity
  8
SUNPOU
100
AcDbLine
 10
596.0443681603573
 20
218.8069612212901
 30
0.0
 11
596.0443681603573
 21
300.5143084126839
 31
0.0
  0
LINE
  5
9E8
330
83B
100
AcDbEntity
  8
SUNPOU
100
AcDbLine
 10
452.617450668615
 20
297.5143084126839
 30
0.0
 11
589.0443681603573
 21
297.5143084126839
 31
0.0
  0
INSERT
  5
9E9
330
83B
100
AcDbEntity
  8
SUNPOU
100
AcDbBlockReference
  2
_OPEN
 10
445.617450668615
 20
297.5143084126839
 30
0.0
 41
7.0
 42
7.0
 43
7.0
 50
180.0
  0
INSERT
  5
9EA
330
83B
100
AcDbEntity
  8
SUNPOU
100
AcDbBlockReference
  2
_OPEN
 10
596.0443681603573
 20
297.5143084126839
 30
0.0
 41
7.0
 42
7.0
 43
7.0
  0
MTEXT
  5
9EB
330
83B
100
AcDbEntity
  8
SUNPOU
 62
     4
100
AcDbMText
 10
520.8309094144862
 20
302.5143084126839
 30
0.0
 40
6.0
 41
0.0
 71
     5
 72
     5
  1
\A1;150
1001
ACAD
1000
MTEXTBEGIN
1070
    73
1070
     1
1070
    44
1040
1.0
1070
    74
1070
     0
1000
MTEXTEND
1000
MTEXTBEGIN
1070
    73
1070
     1
1070
    44
1040
1.0
1070
    74
1070
     0
1000
MTEXTEND
  0
POINT
  5
9EC
330
83B
100
AcDbEntity
  8
DEFPOINTS
 62
     0
100
AcDbPoint
 10
445.617450668615
 20
243.5577998014754
 30
0.0
  0
POINT
  5
9ED
330
83B
100
AcDbEntity
  8
DEFPOINTS
 62
     0
100
AcDbPoint
 10
596.0443681603573
 20
212.8069612212901
 30
0.0
  0
POINT
  5
9EE
330
83B
100
AcDbEntity
  8
DEFPOINTS
 62
     0
100
AcDbPoint
 10
596.0443681603573
 20
297.5143084126839
 30
0.0
  0
ENDBLK
  5
846
330
83B
100
AcDbEntity
  8
0
100
AcDbBlockEnd
  0
BLOCK
  5
856
330
855
100
AcDbEntity
  8
0
100
AcDbBlockBegin
  2
*D2
 70
     1
 10
0.0
 20
0.0
 30
0.0
  3
*D2
  1

  0
LINE
  5
9EF
330
855
100
AcDbEntity
  8
SUNPOU
100
AcDbLine
 10
452.643373577615
 20
261.8423513668754
 30
0.0
 11
388.141941952148
 21
261.8423513668754
 31
0.0
  0
LINE
  5
9F0
330
855
100
AcDbEntity
  8
SUNPOU
100
AcDbLine
 10
537.371835474715
 20
145.6706285440312
 30
0.0
 11
388.141941952148
 21
145.6706285440312
 31
0.0
  0
LINE
  5
9F1
330
855
100
AcDbEntity
  8
SUNPOU
100
AcDbLine
 10
391.141941952148
 20
254.8423513668754
 30
0.0
 11
391.141941952148
 21
152.6706285440313
 31
0.0
  0
INSERT
  5
9F2
330
855
100
AcDbEntity
  8
SUNPOU
100
AcDbBlockReference
  2
_OPEN
 10
391.141941952148
 20
261.8423513668754
 30
0.0
 41
7.0
 42
7.0
 43
7.0
 50
90.0
  0
INSERT
  5
9F3
330
855
100
AcDbEntity
  8
SUNPOU
100
AcDbBlockReference
  2
_OPEN
 10
391.141941952148
 20
145.6706285440312
 30
0.0
 41
7.0
 42
7.0
 43
7.0
 50
270.0
  0
MTEXT
  5
9F4
330
855
100
AcDbEntity
  8
SUNPOU
 62
     4
100
AcDbMText
 10
386.141941952148
 20
203.7564899554534
 30
0.0
 40
6.0
 41
0.0
 71
     5
 72
     5
  1
\A1;116
 11
0.0000000000000001
 21
1.0
 31
0.0
1001
ACAD
1000
MTEXTBEGIN
1070
    73
1070
     1
1070
    44
1040
1.0
1070
    74
1070
     0
1000
MTEXTEND
1000
MTEXTBEGIN
1070
    73
1070
     1
1070
    44
1040
1.0
1070
    74
1070
     0
1000
MTEXTEND
  0
POINT
  5
9F5
330
855
100
AcDbEntity
  8
DEFPOINTS
 62
     0
100
AcDbPoint
 10
458.643373577615
 20
261.8423513668754
 30
0.0
  0
POINT
  5
9F6
330
855
100
AcDbEntity
  8
DEFPOINTS
 62
     0
100
AcDbPoint
 10
543.3718354747149
 20
145.6706285440312
 30
0.0
  0
POINT
  5
9F7
330
855
100
AcDbEntity
  8
DEFPOINTS
 62
     0
100
AcDbPoint
 10
391.141941952148
 20
145.6706285440312
 30
0.0
  0
ENDBLK
  5
860
330
855
100
AcDbEntity
  8
0
100
AcDbBlockEnd
  0
BLOCK
  5
863
330
862
100
AcDbEntity
  8
0
100
AcDbBlockBegin
  2
*D3
 70
     1
 10
0.0
 20
0.0
 30
0.0
  3
*D3
  1

  0
LINE
  5
9F8
330
862
100
AcDbEntity
  8
SUNPOU
100
AcDbLine
 10
594.552958563515
 20
220.6658236633754
 30
0.0
 11
653.1649605736584
 21
220.6658236633754
 31
0.0
  0
LINE
  5
9F9
330
862
100
AcDbEntity
  8
SUNPOU
100
AcDbLine
 10
549.371835474715
 20
145.6658233155753
 30
0.0
 11
653.1649605736584
 21
145.6658233155753
 31
0.0
  0
LINE
  5
9FA
330
862
100
AcDbEntity
  8
SUNPOU
100
AcDbLine
 10
650.1649605736584
 20
213.6658236633754
 30
0.0
 11
650.1649605736584
 21
152.6658233155753
 31
0.0
  0
INSERT
  5
9FB
330
862
100
AcDbEntity
  8
SUNPOU
100
AcDbBlockReference
  2
_OPEN
 10
650.1649605736584
 20
220.6658236633754
 30
0.0
 41
7.0
 42
7.0
 43
7.0
 50
90.0
  0
INSERT
  5
9FC
330
862
100
AcDbEntity
  8
SUNPOU
100
AcDbBlockReference
  2
_OPEN
 10
650.1649605736584
 20
145.6658233155753
 30
0.0
 41
7.0
 42
7.0
 43
7.0
 50
270.0
  0
MTEXT
  5
9FD
330
862
100
AcDbEntity
  8
SUNPOU
 62
     4
100
AcDbMText
 10
645.1649605736584
 20
183.1658234894755
 30
0.0
 40
6.0
 41
0.0
 71
     5
 72
     5
  1
\A1;75
 11
0.0000000000000001
 21
1.0
 31
0.0
1001
ACAD
1000
MTEXTBEGIN
1070
    73
1070
     1
1070
    44
1040
1.0
1070
    74
1070
     0
1000
MTEXTEND
1000
MTEXTBEGIN
1070
    73
1070
     1
1070
    44
1040
1.0
1070
    74
1070
     0
1000
MTEXTEND
  0
POINT
  5
9FE
330
862
100
AcDbEntity
  8
DEFPOINTS
 62
     0
100
AcDbPoint
 10
588.5529585635151
 20
220.6658236633754
 30
0.0
  0
POINT
  5
9FF
330
862
100
AcDbEntity
  8
DEFPOINTS
 62
     0
100
AcDbPoint
 10
543.3718354747149
 20
145.6658233155753
 30
0.0
  0
POINT
  5
A00
330
862
100
AcDbEntity
  8
DEFPOINTS
 62
     0
100
AcDbPoint
 10
650.1649605736584
 20
145.6658233155753
 30
0.0
  0
ENDBLK
  5
86D
330
862
100
AcDbEntity
  8
0
100
AcDbBlockEnd
  0
BLOCK
  5
88A
330
889
100
AcDbEntity
  8
0
100
AcDbBlockBegin
  2
*D4
 70
     1
 10
0.0
 20
0.0
 30
0.0
  3
*D4
  1

  0
LINE
  5
A01
330
889
100
AcDbEntity
  8
SUNPOU
100
AcDbLine
 10
441.098208032515
 20
446.5469199964342
 30
0.0
 11
388.1419419521481
 21
446.5469199964342
 31
0.0
  0
LINE
  5
A02
330
889
100
AcDbEntity
  8
SUNPOU
100
AcDbLine
 10
441.098208032515
 20
356.5469199964342
 30
0.0
 11
388.141941952148
 21
356.5469199964342
 31
0.0
  0
LINE
  5
A03
330
889
100
AcDbEntity
  8
SUNPOU
100
AcDbLine
 10
391.1419419521481
 20
439.5469199964342
 30
0.0
 11
391.141941952148
 21
363.5469199964342
 31
0.0
  0
INSERT
  5
A04
330
889
100
AcDbEntity
  8
SUNPOU
100
AcDbBlockReference
  2
_OPEN
 10
391.1419419521481
 20
446.5469199964342
 30
0.0
 41
7.0
 42
7.0
 43
7.0
 50
90.0
  0
INSERT
  5
A05
330
889
100
AcDbEntity
  8
SUNPOU
100
AcDbBlockReference
  2
_OPEN
 10
391.141941952148
 20
356.5469199964342
 30
0.0
 41
7.0
 42
7.0
 43
7.0
 50
270.0
  0
MTEXT
  5
A06
330
889
100
AcDbEntity
  8
SUNPOU
 62
     4
100
AcDbMText
 10
386.141941952148
 20
401.5469199964343
 30
0.0
 40
6.0
 41
0.0
 71
     5
 72
     5
  1
\A1;90
 11
0.0000000000000001
 21
1.0
 31
0.0
1001
ACAD
1000
MTEXTBEGIN
1070
    73
1070
     1
1070
    44
1040
1.0
1070
    74
1070
     0
1000
MTEXTEND
1000
MTEXTBEGIN
1070
    73
1070
     1
1070
    44
1040
1.0
1070
    74
1070
     0
1000
MTEXTEND
  0
POINT
  5
A07
330
889
100
AcDbEntity
  8
DEFPOINTS
 62
     0
100
AcDbPoint
 10
447.098208032515
 20
446.5469199964342
 30
0.0
  0
POINT
  5
A08
330
889
100
AcDbEntity
  8
DEFPOINTS
 62
     0
100
AcDbPoint
 10
447.098208032515
 20
356.5469199964342
 30
0.0
  0
POINT
  5
A09
330
889
100
AcDbEntity
  8
DEFPOINTS
 62
     0
100
AcDbPoint
 10
391.141941952148
 20
356.5469199964342
 30
0.0
  0
ENDBLK
  5
894
330
889
100
AcDbEntity
  8
0
100
AcDbBlockEnd
  0
ENDSEC
  0
SECTION
  2
ENTITIES
  0
ARC
  5
401
330
1A
100
AcDbEntity
  8
NOKITOI
  6
PHANTOM
 62
     8
 48
5.0
100
AcDbCircle
 10
684.1311285724765
 20
267.3843512623185
 30
0.0
 40
228.6
100
AcDbArc
 50
190.8722588022
 51
204.3402516129999
  0
ARC
  5
402
330
1A
100
AcDbEntity
  8
NOKITOI
  6
PHANTOM
 62
     8
 48
5.0
100
AcDbCircle
 10
684.1311285724765
 20
267.3843512623185
 30
0.0
 40
230.0
100
AcDbArc
 50
184.0482867622
 51
206.8535797088
  0
LINE
  5
403
330
1A
100
AcDbEntity
  8
NOKITOI
  6
PHANTOM
 62
     8
 48
5.0
100
AcDbLine
 10
589.4177224373764
 20
153.8904659722185
 30
0.0
 11
591.7974336875765
 21
203.5679735812185
 31
0.0
  0
LINE
  5
404
330
1A
100
AcDbEntity
  8
NOKITOI
  6
PHANTOM
 62
     8
 48
5.0
100
AcDbLine
 10
593.5472316280765
 20
212.9265820353185
 30
0.0
 11
590.7162334341766
 21
153.8282631489185
 31
0.0
  0
ARC
  5
406
330
1A
100
AcDbEntity
  8
SEIHIN
  6
CONTINUOUS
 62
     3
100
AcDbCircle
 10
684.131128572415
 20
267.3843512622754
 30
0.0
 40
230.0
100
AcDbArc
 50
185.5892535635
 51
206.8535797088
  0
ARC
  5
407
330
1A
100
AcDbEntity
  8
SEIHIN
  6
CONTINUOUS
 62
     3
100
AcDbCircle
 10
684.131128572415
 20
267.3843512622754
 30
0.0
 40
232.5
100
AcDbArc
 50
185.727544173
 51
206.8535797088
  0
LINE
  5
408
330
1A
100
AcDbEntity
  8
SEIHIN
  6
CONTINUOUS
 62
     3
100
AcDbLine
 10
593.5480440349151
 20
213.3874565414754
 30
0.0
 11
590.694925006215
 21
153.8273556056753
 31
0.0
  0
LINE
  5
40C
330
1A
100
AcDbEntity
  8
SEIHIN
  6
CONTINUOUS
 62
     3
100
AcDbLine
 10
594.7415359193151
 20
217.4027459319753
 30
0.0
 11
591.693779619115
 21
153.7795072800753
 31
0.0
  0
LINE
  5
40D
330
1A
100
AcDbEntity
  8
SEIHIN
  6
CONTINUOUS
 62
     3
100
AcDbLine
 10
596.044368160315
 20
212.8069612212754
 30
0.0
 11
593.213369966315
 21
153.7086423348753
 31
0.0
  0
LINE
  5
40E
330
1A
100
AcDbEntity
  8
CENTER_L
  6
CENTER
 62
     1
 48
5.0
100
AcDbLine
 10
543.3718354747149
 20
138.6658233155753
 30
0.0
 11
543.3718354747149
 21
155.1658233155753
 31
0.0
  0
ARC
  5
410
330
1A
100
AcDbEntity
  8
SEIHIN
  6
CONTINUOUS
 62
     3
100
AcDbCircle
 10
684.131128572415
 20
267.3843512622754
 30
0.0
 40
231.0
100
AcDbArc
 50
185.5892534145
 51
206.8535797088
  0
LINE
  5
412
330
1A
100
AcDbEntity
  8
NOKITOI
  6
PHANTOM
 62
     8
 48
5.0
100
AcDbLine
 10
480.5982080325764
 20
173.1658236634185
 30
0.0
 11
489.5333919380765
 21
166.0789700736185
 31
0.0
  0
LINE
  5
413
330
1A
100
AcDbEntity
  8
NOKITOI
  6
PHANTOM
 62
     8
 48
5.0
100
AcDbLine
 10
488.1461531836765
 20
164.5944465820185
 30
0.0
 11
479.4575192370765
 21
163.2225570115185
 31
0.0
  0
LINE
  5
414
330
1A
100
AcDbEntity
  8
NOKITOI
  6
PHANTOM
 62
     8
 48
5.0
100
AcDbLine
 10
487.8558105578766
 20
165.8140888030185
 30
0.0
 11
480.1626753140765
 21
171.9158236634185
 31
0.0
  0
LINE
  5
415
330
1A
100
AcDbEntity
  8
NOKITOI
  6
PHANTOM
 62
     8
 48
5.0
100
AcDbLine
 10
479.9582281290765
 20
164.5671021037185
 30
0.0
 11
487.8558105578766
 21
165.8140888030185
 31
0.0
  0
LINE
  5
418
330
1A
100
AcDbEntity
  8
SEIHIN
  6
CONTINUOUS
 62
     3
100
AcDbLine
 10
488.146153183615
 20
164.5944465819754
 30
0.0
 11
479.457519237015
 21
163.2225570114754
 31
0.0
  0
LINE
  5
419
330
1A
100
AcDbEntity
  8
SEIHIN
  6
CONTINUOUS
 62
     3
100
AcDbLine
 10
487.398006059215
 20
163.4639294537754
 30
0.0
 11
479.6134818105151
 21
162.2347940460754
 31
0.0
  0
LINE
  5
41A
330
1A
100
AcDbEntity
  8
SEIHIN
  6
CONTINUOUS
 62
     3
100
AcDbLine
 10
486.275785372715
 20
161.7681537615754
 30
0.0
 11
479.847425670715
 21
160.7531495980754
 31
0.0
  0
ARC
  5
420
330
1A
100
AcDbEntity
  8
NOKITOI
  6
PHANTOM
 62
     8
 48
5.0
100
AcDbCircle
 10
684.1311285724765
 20
267.3843512623185
 30
0.0
 40
228.6
100
AcDbArc
 50
204.6845833638999
 51
206.7288798443999
  0
ARC
  5
421
330
1A
100
AcDbEntity
  8
SEIHIN
  6
CONTINUOUS
 62
     3
100
AcDbCircle
 10
479.379537950315
 20
163.7164384940754
 30
0.0
 40
3.0
100
AcDbArc
 50
206.8535797088
 51
278.9726266149
  0
ARC
  5
422
330
1A
100
AcDbEntity
  8
NOKITOI
  6
PHANTOM
 62
     8
 48
5.0
100
AcDbCircle
 10
479.3795379503765
 20
163.7164384941185
 30
0.0
 40
0.5
100
AcDbArc
 50
206.8535797088
 51
278.9726266149
  0
ARC
  5
423
330
1A
100
AcDbEntity
  8
SEIHIN
  6
CONTINUOUS
 62
     3
100
AcDbCircle
 10
479.379537950315
 20
163.7164384940754
 30
0.0
 40
0.5
100
AcDbArc
 50
206.8535797088
 51
278.9726266149
  0
ARC
  5
424
330
1A
100
AcDbEntity
  8
SEIHIN
  6
CONTINUOUS
 62
     3
100
AcDbCircle
 10
479.379537950315
 20
163.7164384940754
 30
0.0
 40
1.5
100
AcDbArc
 50
206.8535797088
 51
278.9726266149
  0
LINE
  5
425
330
1A
100
AcDbEntity
  8
SEIHIN
  6
CONTINUOUS
 62
     3
100
AcDbLine
 10
479.098208032515
 20
163.1658236633754
 30
0.0
 11
478.933456053515
 21
163.4905824749754
 31
0.0
  0
LINE
  5
426
330
1A
100
AcDbEntity
  8
SEIHIN
  6
CONTINUOUS
 62
     3
100
AcDbLine
 10
479.098208032515
 20
163.1658236633754
 30
0.0
 11
479.457519237015
 21
163.2225570114754
 31
0.0
  0
LINE
  5
427
330
1A
100
AcDbEntity
  8
NOKITOI
  6
PHANTOM
 62
     8
 48
5.0
100
AcDbLine
 10
480.1626753140765
 20
171.9158236634185
 30
0.0
 11
476.4204638532766
 21
171.9158236634185
 31
0.0
  0
LINE
  5
428
330
1A
100
AcDbEntity
  8
NOKITOI
  6
PHANTOM
 62
     8
 48
5.0
100
AcDbLine
 10
475.8504788301764
 20
173.1658236634185
 30
0.0
 11
480.5982080325764
 21
173.1658236634185
 31
0.0
  0
ARC
  5
429
330
1A
100
AcDbEntity
  8
NOKITOI
  6
PHANTOM
 62
     8
 48
5.0
100
AcDbCircle
 10
543.3718354746766
 20
1148.165823315618
 30
0.0
 40
998.7
100
AcDbArc
 50
267.2027850585
 51
272.4394137225999
  0
ARC
  5
42A
330
1A
100
AcDbEntity
  8
NOKITOI
  6
PHANTOM
 62
     8
 48
5.0
100
AcDbCircle
 10
543.3718354747765
 20
1148.165823315618
 30
0.0
 40
1000.0
100
AcDbArc
 50
267.2057870799
 51
272.4394137225999
  0
ARC
  5
42D
330
1A
100
AcDbEntity
  8
SEIHIN
  6
CONTINUOUS
 62
     3
100
AcDbCircle
 10
543.3718354747149
 20
1148.165823315575
 30
0.0
 40
1000.0
100
AcDbArc
 50
267.2057870799
 51
272.4381855922
  0
ARC
  5
42F
330
1A
100
AcDbEntity
  8
SEIHIN
  6
CONTINUOUS
 62
     3
100
AcDbCircle
 10
543.3718354747149
 20
1148.165823315575
 30
0.0
 40
1002.5
100
AcDbArc
 50
267.2057870799
 51
272.4394137225999
  0
ARC
  5
430
330
1A
100
AcDbEntity
  8
SEIHIN
  6
CONTINUOUS
 62
     3
100
AcDbCircle
 10
543.3718354747149
 20
1148.165823315575
 30
0.0
 40
1001.0
100
AcDbArc
 50
267.2057870799
 51
272.4381855922
  0
LINE
  5
432
330
1A
100
AcDbEntity
  8
NOKITOI
  6
PHANTOM
 62
     8
 48
5.0
100
AcDbLine
 10
489.5333919380765
 20
166.0789700736185
 30
0.0
 11
493.0677775533765
 21
151.9414276125185
 31
0.0
  0
LINE
  5
433
330
1A
100
AcDbEntity
  8
NOKITOI
  6
PHANTOM
 62
     8
 48
5.0
100
AcDbLine
 10
491.8587681009766
 20
151.6235833901185
 30
0.0
 11
488.7092057204766
 21
164.2218329118185
 31
0.0
  0
LINE
  5
437
330
1A
100
AcDbEntity
  8
SEIHIN
  6
CONTINUOUS
 62
     3
100
AcDbLine
 10
490.888625600715
 20
151.3810477650754
 30
0.0
 11
487.961058596115
 21
163.0913157836754
 31
0.0
  0
LINE
  5
438
330
1A
100
AcDbEntity
  8
SEIHIN
  6
CONTINUOUS
 62
     3
100
AcDbLine
 10
489.433411850515
 20
151.0172443274754
 30
0.0
 11
486.838837909515
 21
161.3955400914754
 31
0.0
  0
LINE
  5
439
330
1A
100
AcDbEntity
  8
SEIHIN
  6
CONTINUOUS
 62
     3
100
AcDbLine
 10
491.858768100915
 20
151.6235833900753
 30
0.0
 11
488.709205720415
 21
164.2218329117754
 31
0.0
  0
ARC
  5
43F
330
1A
100
AcDbEntity
  8
NOKITOI
  6
PHANTOM
 62
     8
 48
5.0
100
AcDbCircle
 10
494.7691956013764
 20
152.3511902652185
 30
0.0
 40
3.0
100
AcDbArc
 50
194.0362434679
 51
267.2057870799
  0
ARC
  5
440
330
1A
100
AcDbEntity
  8
SEIHIN
  6
CONTINUOUS
 62
     3
100
AcDbCircle
 10
494.769195601315
 20
152.3511902651754
 30
0.0
 40
4.0
100
AcDbArc
 50
194.0362434679
 51
267.2057870799
  0
ARC
  5
442
330
1A
100
AcDbEntity
  8
SEIHIN
  6
CONTINUOUS
 62
     3
100
AcDbCircle
 10
494.769195601315
 20
152.3511902651754
 30
0.0
 40
3.0
100
AcDbArc
 50
194.0362434679
 51
267.2057870799
  0
ARC
  5
443
330
1A
100
AcDbEntity
  8
SEIHIN
  6
CONTINUOUS
 62
     3
100
AcDbCircle
 10
494.769195601315
 20
152.3511902651754
 30
0.0
 40
5.5
100
AcDbArc
 50
194.0362434679
 51
267.2057870799
  0
ARC
  5
445
330
1A
100
AcDbEntity
  8
NOKITOI
  6
PHANTOM
 62
     8
 48
5.0
100
AcDbCircle
 10
494.7170198035766
 20
152.3537381751185
 30
0.0
 40
1.7
100
AcDbArc
 50
194.0362434679
 51
267.2027850585
  0
ARC
  5
44C
330
1A
100
AcDbEntity
  8
NOKITOI
  6
PHANTOM
 62
     8
 48
5.0
100
AcDbCircle
 10
488.2241344704765
 20
164.1005650993185
 30
0.0
 40
0.5
100
AcDbArc
 50
14.036243468
 51
98.97262661489998
  0
ARC
  5
44D
330
1A
100
AcDbEntity
  8
SEIHIN
  6
CONTINUOUS
 62
     3
100
AcDbCircle
 10
488.224134470415
 20
164.1005650992753
 30
0.0
 40
0.5
100
AcDbArc
 50
14.036243468
 51
98.97262661489998
  0
ARC
  5
44E
330
1A
100
AcDbEntity
  8
SEIHIN
  6
CONTINUOUS
 62
     3
100
AcDbCircle
 10
487.475987346015
 20
162.9700479711754
 30
0.0
 40
0.5
100
AcDbArc
 50
14.0362434679
 51
98.97262661489998
  0
ARC
  5
44F
330
1A
100
AcDbEntity
  8
SEIHIN
  6
CONTINUOUS
 62
     3
100
AcDbCircle
 10
486.353766659415
 20
161.2742722789753
 30
0.0
 40
0.5
100
AcDbArc
 50
14.0362434679
 51
98.97262661489998
  0
ARC
  5
456
330
1A
100
AcDbEntity
  8
NOKITOI
  6
PHANTOM
 62
     8
 48
5.0
100
AcDbCircle
 10
585.7219603695765
 20
154.0675047770185
 30
0.0
 40
3.7
100
AcDbArc
 50
272.4394137225999
 51
357.2574457102999
  0
ARC
  5
457
330
1A
100
AcDbEntity
  8
NOKITOI
  6
PHANTOM
 62
     8
 48
5.0
100
AcDbCircle
 10
585.7219603695765
 20
154.0675047770185
 30
0.0
 40
5.0
100
AcDbArc
 50
272.4394137225999
 51
357.2574457102999
  0
ARC
  5
458
330
1A
100
AcDbEntity
  8
SEIHIN
  6
CONTINUOUS
 62
     3
100
AcDbCircle
 10
585.7006519416151
 20
154.0665972337754
 30
0.0
 40
5.0
100
AcDbArc
 50
272.4381855922
 51
357.2574457102999
  0
ARC
  5
459
330
1A
100
AcDbEntity
  8
SEIHIN
  6
CONTINUOUS
 62
     3
100
AcDbCircle
 10
585.7006519416151
 20
154.0665972337754
 30
0.0
 40
6.0
100
AcDbArc
 50
272.4381855922
 51
357.2574457102999
  0
ARC
  5
45A
330
1A
100
AcDbEntity
  8
SEIHIN
  6
CONTINUOUS
 62
     3
100
AcDbCircle
 10
585.721960369515
 20
154.0675047769753
 30
0.0
 40
7.5
100
AcDbArc
 50
272.4394137225999
 51
357.2574457102999
  0
ARC
  5
45F
330
1A
100
AcDbEntity
  8
SEIHIN
  6
CONTINUOUS
 62
     3
100
AcDbCircle
 10
396.420832767115
 20
415.5523102982342
 30
0.0
 40
200.0
100
AcDbArc
 50
0.0
 51
3.4336303625
  0
ARC
  5
460
330
1A
100
AcDbEntity
  8
SEIHIN
  6
CONTINUOUS
 62
     3
100
AcDbCircle
 10
645.5982080325149
 20
415.5523102982342
 30
0.0
 40
200.0
100
AcDbArc
 50
176.5663696375
 51
180.0
  0
LINE
  5
461
330
1A
100
AcDbEntity
  8
SEIHIN
  6
CONTINUOUS
 62
     3
100
AcDbLine
 10
583.798208032515
 20
416.5469199964341
 30
0.0
 11
583.798208032515
 21
446.5469199964342
 31
0.0
  0
LINE
  5
462
330
1A
100
AcDbEntity
  8
SEIHIN
  6
CONTINUOUS
 62
     3
100
AcDbLine
 10
461.643178155215
 20
416.5469199964341
 30
0.0
 11
461.643178155215
 21
446.5469199964342
 31
0.0
  0
LINE
  5
463
330
1A
100
AcDbEntity
  8
SEIHIN
  6
CONTINUOUS
 62
     3
100
AcDbLine
 10
492.398208032515
 20
356.5469199964342
 30
0.0
 11
492.398208032515
 21
446.5469199964342
 31
0.0
  0
LINE
  5
464
330
1A
100
AcDbEntity
  8
SEIHIN
  6
CONTINUOUS
 62
     3
100
AcDbLine
 10
488.598208032515
 20
356.5469199964342
 30
0.0
 11
488.598208032515
 21
446.5469199964342
 31
0.0
  0
LINE
  5
465
330
1A
100
AcDbEntity
  8
SEIHIN
  6
CONTINUOUS
 62
     3
100
AcDbLine
 10
479.098208032515
 20
356.5469199964342
 30
0.0
 11
479.098208032515
 21
446.5469199964342
 31
0.0
  0
LINE
  5
466
330
1A
100
AcDbEntity
  8
SEIHIN
  6
CONTINUOUS
 62
     3
100
AcDbLine
 10
457.534544319515
 20
416.5469199964341
 30
0.0
 11
457.534544319515
 21
446.5469199964342
 31
0.0
  0
LINE
  5
46B
330
1A
100
AcDbEntity
  8
SEIHIN
  6
CONTINUOUS
 62
     3
100
AcDbLine
 10
447.098208032515
 20
356.5469199964342
 30
0.0
 11
594.920832767115
 21
356.5469199964342
 31
0.0
  0
LINE
  5
46C
330
1A
100
AcDbEntity
  8
CENTER_L
  6
CENTER
 62
     1
 48
5.0
100
AcDbLine
 10
433.371835474715
 20
401.5469199964342
 30
0.0
 11
608.371835474715
 21
401.5469199964342
 31
0.0
  0
ARC
  5
46E
330
1A
100
AcDbEntity
  8
NOKITOI
  6
PHANTOM
 62
     8
 48
5.0
100
AcDbCircle
 10
464.7119261029765
 20
242.2858236634185
 30
0.0
 40
7.75
100
AcDbArc
 50
90.0
 51
270.0
  0
LINE
  5
46F
330
1A
100
AcDbEntity
  8
NOKITOI
  6
PHANTOM
 62
     8
 48
5.0
100
AcDbLine
 10
467.0421613167765
 20
245.2066951949186
 30
0.0
 11
468.3103014641766
 21
248.6940806003185
 31
0.0
  0
LINE
  5
470
330
1A
100
AcDbEntity
  8
NOKITOI
  6
PHANTOM
 62
     8
 48
5.0
100
AcDbLine
 10
474.2563725156766
 20
252.9353998315185
 30
0.0
 11
472.1947067094766
 21
244.9113965138185
 31
0.0
  0
ARC
  5
471
330
1A
100
AcDbEntity
  8
SEIHIN
  6
CONTINUOUS
 62
     3
100
AcDbCircle
 10
452.736506764415
 20
244.7397272132754
 30
0.0
 40
2.5
100
AcDbArc
 50
5.5892534145
 51
102.3176619503
  0
ARC
  5
472
330
1A
100
AcDbEntity
  8
SEIHIN
  6
CONTINUOUS
 62
     3
100
AcDbCircle
 10
452.736506706115
 20
244.7397278085754
 30
0.0
 40
1.5
100
AcDbArc
 50
5.5892534145
 51
102.3176619503
  0
LINE
  5
473
330
1A
100
AcDbEntity
  8
SEIHIN
  6
CONTINUOUS
 62
     3
100
AcDbLine
 10
446.1696782513151
 20
254.5935481521754
 30
0.0
 11
445.617826072715
 21
243.5728031869754
 31
0.0
  0
LINE
  5
474
330
1A
100
AcDbEntity
  8
SEIHIN
  6
CONTINUOUS
 62
     3
100
AcDbLine
 10
447.833158052515
 20
245.2043852740754
 30
0.0
 11
452.4165093670149
 21
246.2051975977753
 31
0.0
  0
ARC
  5
475
330
1A
100
AcDbEntity
  8
SEIHIN
  6
CONTINUOUS
 62
     3
100
AcDbCircle
 10
447.726492272815
 20
245.6928752037754
 30
0.0
 40
0.5
100
AcDbArc
 50
177.1333686114999
 51
282.3176619502999
  0
ARC
  5
477
330
1A
100
AcDbEntity
  8
NOKITOI
  6
PHANTOM
 62
     8
 48
5.0
100
AcDbCircle
 10
464.7119261029765
 20
242.2858236634185
 30
0.0
 40
9.0
100
AcDbArc
 50
217.6723592547
 51
270.0
  0
ARC
  5
478
330
1A
100
AcDbEntity
  8
NOKITOI
  6
PHANTOM
 62
     8
 48
5.0
100
AcDbCircle
 10
684.1311285724765
 20
267.3843512623185
 30
0.0
 40
228.6
100
AcDbArc
 50
187.6923095857
 51
190.5380321243999
  0
LINE
  5
479
330
1A
100
AcDbEntity
  8
SEIHIN
  6
CONTINUOUS
 62
     3
100
AcDbLine
 10
445.981450136415
 20
243.2647058435754
 30
0.0
 11
452.187666776615
 21
244.6198841117753
 31
0.0
  0
ARC
  5
47A
330
1A
100
AcDbEntity
  8
SEIHIN
  6
CONTINUOUS
 62
     3
100
AcDbCircle
 10
445.917450668615
 20
243.5577998014754
 30
0.0
 40
0.3
100
AcDbArc
 50
177.1333686114999
 51
282.3176619502999
  0
ARC
  5
47B
330
1A
100
AcDbEntity
  8
SEIHIN
  6
CONTINUOUS
 62
     3
100
AcDbCircle
 10
452.294332556315
 20
244.1313941820754
 30
0.0
 40
0.5
100
AcDbArc
 50
5.727578194399999
 51
102.3176619503
  0
ARC
  5
47C
330
1A
100
AcDbEntity
  8
NOKITOI
  6
PHANTOM
 62
     8
 48
5.0
100
AcDbCircle
 10
467.3782080325764
 20
231.5358236634185
 30
0.0
 40
3.0
100
AcDbArc
 50
286.4592496283
 51
90.0
  0
ARC
  5
47D
330
1A
100
AcDbEntity
  8
NOKITOI
  6
PHANTOM
 62
     8
 48
5.0
100
AcDbCircle
 10
482.0951231846764
 20
191.1393261152185
 30
0.0
 40
41.25
100
AcDbArc
 50
109.8166130064999
 51
123.4017199424999
  0
ARC
  5
47E
330
1A
100
AcDbEntity
  8
NOKITOI
  6
PHANTOM
 62
     8
 48
5.0
100
AcDbCircle
 10
482.0046952032766
 20
191.1060175931185
 30
0.0
 40
40.0
100
AcDbArc
 50
110.1459171419
 51
124.0043462568999
  0
LINE
  5
47F
330
1A
100
AcDbEntity
  8
NOKITOI
  6
PHANTOM
 62
     8
 48
5.0
100
AcDbLine
 10
464.7119261029765
 20
233.2858236634185
 30
0.0
 11
467.3782080325764
 21
233.2858236634185
 31
0.0
  0
ARC
  5
480
330
1A
100
AcDbEntity
  8
NOKITOI
  6
PHANTOM
 62
     8
 48
5.0
100
AcDbCircle
 10
467.3782080325764
 20
231.5358236634185
 30
0.0
 40
1.75
100
AcDbArc
 50
294.7524724261
 51
90.0
  0
LINE
  5
481
330
1A
100
AcDbEntity
  8
NOKITOI
  6
PHANTOM
 62
     8
 48
5.0
100
AcDbLine
 10
471.7104362432766
 20
244.5358236634185
 30
0.0
 11
467.5120580285765
 21
244.5358236634185
 31
0.0
  0
LINE
  5
482
330
1A
100
AcDbEntity
  8
NOKITOI
  6
PHANTOM
 62
     8
 48
5.0
100
AcDbLine
 10
464.7119261029765
 20
234.5358236634185
 30
0.0
 11
467.3782080325764
 21
234.5358236634185
 31
0.0
  0
ARC
  5
483
330
1A
100
AcDbEntity
  8
NOKITOI
  6
PHANTOM
 62
     8
 48
5.0
100
AcDbCircle
 10
467.5120580285765
 20
245.0358236634185
 30
0.0
 40
0.5
100
AcDbArc
 50
160.0168934781
 51
270.0
  0
ARC
  5
484
330
1A
100
AcDbEntity
  8
NOKITOI
  6
PHANTOM
 62
     8
 48
5.0
100
AcDbCircle
 10
471.7104362432766
 20
245.0358236634185
 30
0.0
 40
0.5
100
AcDbArc
 50
270.0
 51
345.5902741236
  0
LINE
  5
488
330
1A
100
AcDbEntity
  8
NOKITOI
  6
PHANTOM
 62
     8
 48
5.0
100
AcDbLine
 10
455.8982080325765
 20
255.2658236634185
 30
0.0
 11
473.3793037688765
 21
254.3310057096185
 31
0.0
  0
ARC
  5
489
330
1A
100
AcDbEntity
  8
NOKITOI
  6
PHANTOM
 62
     8
 48
5.0
100
AcDbCircle
 10
464.7119261029765
 20
242.2858236634185
 30
0.0
 40
9.0
100
AcDbArc
 50
90.0
 51
155.3786098683
  0
LINE
  5
48A
330
1A
100
AcDbEntity
  8
NOKITOI
  6
PHANTOM
 62
     8
 48
5.0
100
AcDbLine
 10
455.9314193352764
 20
253.8620473140185
 30
0.0
 11
466.2270458368765
 21
253.3114790518185
 31
0.0
  0
ARC
  5
48B
330
1A
100
AcDbEntity
  8
SEIHIN
  6
CONTINUOUS
 62
     3
100
AcDbCircle
 10
457.201830175615
 20
258.2689374358754
 30
0.0
 40
0.5
100
AcDbArc
 50
341.075355584
 51
111.6915634179
  0
ARC
  5
48E
330
1A
100
AcDbEntity
  8
SEIHIN
  6
CONTINUOUS
 62
     3
100
AcDbCircle
 10
458.643373577615
 20
258.8423513668753
 30
0.0
 40
3.0
100
AcDbArc
 50
247.0004820323
 51
111.6915517406999
  0
LINE
  5
490
330
1A
100
AcDbEntity
  8
NOKITOI
  6
PHANTOM
 62
     8
 48
5.0
100
AcDbLine
 10
456.7211288251765
 20
257.6660093084185
 30
0.0
 11
455.8982080325765
 21
255.2658236634185
 31
0.0
  0
LINE
  5
491
330
1A
100
AcDbEntity
  8
NOKITOI
  6
PHANTOM
 62
     8
 48
5.0
100
AcDbLine
 10
448.8905811114765
 20
255.0192833747185
 30
0.0
 11
456.0405289310765
 21
258.2830242618185
 31
0.0
  0
ARC
  5
492
330
1A
100
AcDbEntity
  8
SEIHIN
  6
CONTINUOUS
 62
     3
100
AcDbCircle
 10
450.164672862315
 20
254.3935030112754
 30
0.0
 40
4.0
100
AcDbArc
 50
111.6915634179
 51
177.1333686114999
  0
ARC
  5
493
330
1A
100
AcDbEntity
  8
SEIHIN
  6
CONTINUOUS
 62
     3
100
AcDbCircle
 10
457.666565117115
 20
256.5410810151754
 30
0.0
 40
0.5
100
AcDbArc
 50
161.0753555839999
 51
247.0004820323
  0
LINE
  5
495
330
1A
100
AcDbEntity
  8
SEIHIN
  6
CONTINUOUS
 62
     3
100
AcDbLine
 10
447.8239614185151
 20
257.6371228929754
 30
0.0
 11
447.227117946415
 21
245.7178808463754
 31
0.0
  0
LINE
  5
496
330
1A
100
AcDbEntity
  8
SEIHIN
  6
CONTINUOUS
 62
     3
100
AcDbLine
 10
448.7285980904277
 20
255.4365788197407
 30
0.0
 11
457.0170252045151
 21
258.7335309384753
 31
0.0
  0
LINE
  5
497
330
1A
100
AcDbEntity
  8
NOKITOI
  6
PHANTOM
 62
     8
 48
5.0
100
AcDbLine
 10
454.7049997708764
 20
251.1470047086185
 30
0.0
 11
449.9982080325765
 21
249.8858236634185
 31
0.0
  0
LINE
  5
498
330
1A
100
AcDbEntity
  8
NOKITOI
  6
PHANTOM
 62
     8
 48
5.0
100
AcDbLine
 10
448.5982080325765
 20
247.5858236634185
 30
0.0
 11
448.5982080325765
 21
254.5644305835185
 31
0.0
  0
ARC
  5
499
330
1A
100
AcDbEntity
  8
NOKITOI
  6
PHANTOM
 62
     8
 48
5.0
100
AcDbCircle
 10
684.1311285724765
 20
267.3843512624185
 30
0.0
 40
228.6
100
AcDbArc
 50
183.3911788461999
 51
185.3586595372999
  0
LINE
  5
49A
330
1A
100
AcDbEntity
  8
SEIHIN
  6
CONTINUOUS
 62
     3
100
AcDbLine
 10
448.098208032515
 20
247.1551681880754
 30
0.0
 11
448.098208032515
 21
254.5073918144754
 31
0.0
  0
LINE
  5
49B
330
1A
100
AcDbEntity
  8
SEIHIN
  6
CONTINUOUS
 62
     3
100
AcDbLine
 10
448.098208032515
 20
247.1551681880754
 30
0.0
 11
448.098208032515
 21
254.5073918144989
 31
0.0
  0
LINE
  5
49C
330
1A
100
AcDbEntity
  8
SEIHIN
  6
CONTINUOUS
 62
     3
100
AcDbLine
 10
448.947540124115
 20
246.4712822864754
 30
0.0
 11
452.203177807615
 21
247.1821774571754
 31
0.0
  0
ARC
  5
49D
330
1A
100
AcDbEntity
  8
NOKITOI
  6
PHANTOM
 62
     8
 48
5.0
100
AcDbCircle
 10
449.2982080325766
 20
247.5858236634185
 30
0.0
 40
0.7
100
AcDbArc
 50
180.0
 51
270.0
  0
ARC
  5
49E
330
1A
100
AcDbEntity
  8
NOKITOI
  6
PHANTOM
 62
     8
 48
5.0
100
AcDbCircle
 10
449.2982080325766
 20
247.5858236634185
 30
0.0
 40
0.7
100
AcDbArc
 50
270.0
 51
0.0
  0
LINE
  5
49F
330
1A
100
AcDbEntity
  8
NOKITOI
  6
PHANTOM
 62
     8
 48
5.0
100
AcDbLine
 10
449.9982080325765
 20
249.8858236634185
 30
0.0
 11
449.9982080325765
 21
247.5858236634185
 31
0.0
  0
ARC
  5
4A0
330
1A
100
AcDbEntity
  8
SEIHIN
  6
CONTINUOUS
 62
     3
100
AcDbCircle
 10
448.798208032515
 20
247.1551681880754
 30
0.0
 40
0.7
100
AcDbArc
 50
180.0
 51
282.3176619502999
  0
LINE
  5
4A1
330
1A
100
AcDbEntity
  8
NOKITOI
  6
PHANTOM
 62
     8
 48
5.0
100
AcDbLine
 10
454.6185870737765
 20
252.4179457217186
 30
0.0
 11
449.9982080325765
 21
251.1799188889185
 31
0.0
  0
LINE
  5
4A2
330
1A
100
AcDbEntity
  8
NOKITOI
  6
PHANTOM
 62
     8
 48
5.0
100
AcDbLine
 10
454.7180619275764
 20
256.1403975236185
 30
0.0
 11
449.9982080325765
 21
253.9859230398185
 31
0.0
  0
LINE
  5
4A3
330
1A
100
AcDbEntity
  8
NOKITOI
  6
PHANTOM
 62
     8
 48
5.0
100
AcDbLine
 10
449.9982080325765
 20
253.9859230398185
 30
0.0
 11
449.9982080325765
 21
251.1799188889185
 31
0.0
  0
ARC
  5
4A4
330
1A
100
AcDbEntity
  8
NOKITOI
  6
PHANTOM
 62
     8
 48
5.0
100
AcDbCircle
 10
449.0982080325765
 20
254.5644305835185
 30
0.0
 40
0.5
100
AcDbArc
 50
114.5353031557999
 51
180.0
  0
LINE
  5
4A8
330
1A
100
AcDbEntity
  8
NOKITOI
  6
PHANTOM
 62
     8
 48
5.0
100
AcDbLine
 10
454.4463000756764
 20
255.3477587889185
 30
0.0
 11
454.7180619275764
 21
256.1403975236185
 31
0.0
  0
ARC
  5
4A9
330
1A
100
AcDbEntity
  8
NOKITOI
  6
PHANTOM
 62
     8
 48
5.0
100
AcDbCircle
 10
684.1311285724765
 20
267.3843512623185
 30
0.0
 40
230.0
100
AcDbArc
 50
182.9998310043
 51
183.7309486313
  0
LINE
  5
4AD
330
1A
100
AcDbEntity
  8
SEIHIN
  6
CONTINUOUS
 62
     3
100
AcDbLine
 10
448.686233094015
 20
258.1102510321754
 30
0.0
 11
457.534544319515
 21
261.6299126085753
 31
0.0
  0
ARC
  5
4AE
330
1A
100
AcDbEntity
  8
NOKITOI
  6
PHANTOM
 62
     8
 48
5.0
100
AcDbCircle
 10
456.2481558522765
 20
257.8281714706185
 30
0.0
 40
0.5
100
AcDbArc
 50
341.075355584
 51
114.5353031557
  0
LINE
  5
4AF
330
1A
100
AcDbEntity
  8
SEIHIN
  6
CONTINUOUS
 62
     3
100
AcDbLine
 10
457.674803148615
 20
258.1067752736753
 30
0.0
 11
457.193592144115
 21
256.7032431773753
 31
0.0
  0
LINE
  5
4B0
330
1A
100
AcDbEntity
  8
NOKITOI
  6
PHANTOM
 62
     8
 48
5.0
100
AcDbLine
 10
467.4752623637765
 20
253.2447295050185
 30
0.0
 11
472.7103712544765
 21
252.9647771579185
 31
0.0
  0
LINE
  5
4B1
330
1A
100
AcDbEntity
  8
NOKITOI
  6
PHANTOM
 62
     8
 48
5.0
100
AcDbLine
 10
470.8658302744765
 20
245.7858236634185
 30
0.0
 11
468.5828330224766
 21
245.7858236634185
 31
0.0
  0
LINE
  5
4B2
330
1A
100
AcDbEntity
  8
NOKITOI
  6
PHANTOM
 62
     8
 48
5.0
100
AcDbLine
 10
469.4850432435766
 20
248.2669017714185
 30
0.0
 11
467.3705080407765
 21
251.2858236634185
 31
0.0
  0
ARC
  5
4B3
330
1A
100
AcDbEntity
  8
NOKITOI
  6
PHANTOM
 62
     8
 48
5.0
100
AcDbCircle
 10
467.3705080407765
 20
249.0358236634185
 30
0.0
 40
1.0
100
AcDbArc
 50
340.0168934781
 51
90.0
  0
LINE
  5
4B4
330
1A
100
AcDbEntity
  8
NOKITOI
  6
PHANTOM
 62
     8
 48
5.0
100
AcDbLine
 10
467.3705080407765
 20
250.0358236634185
 30
0.0
 11
464.7119261029765
 21
250.0358236634185
 31
0.0
  0
LINE
  5
4B5
330
1A
100
AcDbEntity
  8
NOKITOI
  6
PHANTOM
 62
     8
 48
5.0
100
AcDbLine
 10
468.5828330224766
 20
245.7858236634185
 30
0.0
 11
469.4850432435766
 21
248.2669017714185
 31
0.0
  0
LINE
  5
4B6
330
1A
100
AcDbEntity
  8
NOKITOI
  6
PHANTOM
 62
     8
 48
5.0
100
AcDbLine
 10
467.3705080407765
 20
251.2858236634185
 30
0.0
 11
467.4752623637765
 21
253.2447295050185
 31
0.0
  0
LINE
  5
4B7
330
1A
100
AcDbEntity
  8
NOKITOI
  6
PHANTOM
 62
     8
 48
5.0
100
AcDbLine
 10
466.1187220193766
 20
251.2858236634185
 30
0.0
 11
464.7119261029765
 21
251.2858236634185
 31
0.0
  0
LINE
  5
4B8
330
1A
100
AcDbEntity
  8
NOKITOI
  6
PHANTOM
 62
     8
 48
5.0
100
AcDbLine
 10
466.2270458368765
 20
253.3114790518185
 30
0.0
 11
466.1187220193766
 21
251.2858236634185
 31
0.0
  0
LINE
  5
4B9
330
1A
100
AcDbEntity
  8
NOKITOI
  6
PHANTOM
 62
     8
 48
5.0
100
AcDbLine
 10
472.7103712544765
 20
252.9647771579185
 30
0.0
 11
470.8658302744765
 21
245.7858236634185
 31
0.0
  0
ARC
  5
4BA
330
1A
100
AcDbEntity
  8
NOKITOI
  6
PHANTOM
 62
     8
 48
5.0
100
AcDbCircle
 10
473.3259041313765
 20
253.3324324881185
 30
0.0
 40
1.0
100
AcDbArc
 50
345.5902741236
 51
86.93897020059999
  0
ARC
  5
4BC
330
1A
100
AcDbEntity
  8
SEIHIN
  6
CONTINUOUS
 62
     3
100
AcDbCircle
 10
645.5982080325149
 20
387.5415296946342
 30
0.0
 40
200.0
100
AcDbArc
 50
180.0
 51
183.4336303625
  0
LINE
  5
4BD
330
1A
100
AcDbEntity
  8
SEIHIN
  6
CONTINUOUS
 62
     3
100
AcDbLine
 10
461.643178155215
 20
356.5469199964342
 30
0.0
 11
461.643178155215
 21
386.5469199964342
 31
0.0
  0
LINE
  5
4BE
330
1A
100
AcDbEntity
  8
SEIHIN
  6
CONTINUOUS
 62
     3
100
AcDbLine
 10
457.534544319515
 20
386.5469199964342
 30
0.0
 11
457.534544319515
 21
356.5469199964342
 31
0.0
  0
LINE
  5
4C0
330
1A
100
AcDbEntity
  8
SEIHIN
  6
CONTINUOUS
 62
     3
100
AcDbLine
 10
445.957238939415
 20
375.5630715490342
 30
0.0
 11
447.098208032515
 21
356.5469199964342
 31
0.0
  0
LINE
  5
4C1
330
1A
100
AcDbEntity
  8
SEIHIN
  6
CONTINUOUS
 62
     3
100
AcDbLine
 10
454.967654790115
 20
416.5469199964341
 30
0.0
 11
454.967654790115
 21
386.5469199964342
 31
0.0
  0
LINE
  5
4C2
330
1A
100
AcDbEntity
  8
SEIHIN
  6
CONTINUOUS
 62
     3
100
AcDbLine
 10
450.598208032515
 20
388.5469199964342
 30
0.0
 11
450.598208032515
 21
414.5469199964342
 31
0.0
  0
LINE
  5
4C4
330
1A
100
AcDbEntity
  8
SEIHIN
  6
CONTINUOUS
 62
     3
100
AcDbLine
 10
445.598208032515
 20
387.5415296946342
 30
0.0
 11
445.598208032515
 21
415.5523102982342
 31
0.0
  0
LINE
  5
4C5
330
1A
100
AcDbEntity
  8
SEIHIN
  6
CONTINUOUS
 62
     3
100
AcDbLine
 10
452.598207404915
 20
386.5469199964342
 30
0.0
 11
461.643178155215
 21
386.5469199964342
 31
0.0
  0
ARC
  5
4C6
330
1A
100
AcDbEntity
  8
SEIHIN
  6
CONTINUOUS
 62
     3
100
AcDbCircle
 10
452.598208032515
 20
388.5469199964342
 30
0.0
 40
2.0
100
AcDbArc
 50
180.0
 51
269.9999820208
  0
LINE
  5
4C9
330
1A
100
AcDbEntity
  8
SEIHIN
  6
CONTINUOUS
 62
     3
100
AcDbLine
 10
452.598208515215
 20
416.5469199964341
 30
0.0
 11
461.643178155215
 21
416.5469199964341
 31
0.0
  0
ARC
  5
4CA
330
1A
100
AcDbEntity
  8
SEIHIN
  6
CONTINUOUS
 62
     3
100
AcDbCircle
 10
452.598208032515
 20
414.5469199964342
 30
0.0
 40
2.0
100
AcDbArc
 50
89.99998617260001
 51
180.0
  0
LINE
  5
4CB
330
1A
100
AcDbEntity
  8
NOKITOI
  6
PHANTOM
 62
     8
 48
5.0
100
AcDbLine
 10
591.2493478048765
 20
204.0895244545185
 30
0.0
 11
582.3154321434765
 21
203.2159547543185
 31
0.0
  0
LINE
  5
4CC
330
1A
100
AcDbEntity
  8
NOKITOI
  6
PHANTOM
 62
     8
 48
5.0
100
AcDbLine
 10
583.5074414433765
 20
204.6427199933185
 30
0.0
 11
591.8889560382765
 21
205.4785424683185
 31
0.0
  0
LINE
  5
4CD
330
1A
100
AcDbEntity
  8
NOKITOI
  6
PHANTOM
 62
     8
 48
5.0
100
AcDbLine
 10
585.8132173609765
 20
213.8658236634185
 30
0.0
 11
583.5074414433765
 21
204.6427199933185
 31
0.0
  0
LINE
  5
4CE
330
1A
100
AcDbEntity
  8
NOKITOI
  6
PHANTOM
 62
     8
 48
5.0
100
AcDbLine
 10
584.7982080325765
 20
215.1658236634185
 30
0.0
 11
586.7982080325766
 21
215.1658236634185
 31
0.0
  0
ARC
  5
4CF
330
1A
100
AcDbEntity
  8
SEIHIN
  6
CONTINUOUS
 62
     3
100
AcDbCircle
 10
586.298208032515
 20
218.1658236633754
 30
0.0
 40
2.5
100
AcDbArc
 50
90.00000728249998
 51
270.0
  0
LINE
  5
4D6
330
1A
100
AcDbEntity
  8
NOKITOI
  6
PHANTOM
 62
     8
 48
5.0
100
AcDbLine
 10
581.7836027649765
 20
203.8422126268185
 30
0.0
 11
584.7982080325765
 21
215.1658236634185
 31
0.0
  0
ARC
  5
4D7
330
1A
100
AcDbEntity
  8
NOKITOI
  6
PHANTOM
 62
     8
 48
5.0
100
AcDbCircle
 10
582.2667735671765
 20
203.7135814648185
 30
0.0
 40
0.5
100
AcDbArc
 50
165.0923200672999
 51
275.5847009843999
  0
LINE
  5
4E1
330
1A
100
AcDbEntity
  8
NOKITOI
  6
PHANTOM
 62
     8
 48
5.0
100
AcDbLine
 10
591.8889560382765
 20
205.4785424683185
 30
0.0
 11
592.2487206312765
 21
212.9887848586185
 31
0.0
  0
ARC
  5
4E3
330
1A
100
AcDbEntity
  8
NOKITOI
  6
PHANTOM
 62
     8
 48
5.0
100
AcDbCircle
 10
591.2980063810765
 20
203.5918977440185
 30
0.0
 40
0.5
100
AcDbArc
 50
357.2574457104
 51
95.5847009844
  0
ARC
  5
4E4
330
1A
100
AcDbEntity
  8
NOKITOI
  6
PHANTOM
 62
     8
 48
5.0
100
AcDbCircle
 10
588.5529585635765
 20
213.1658236634185
 30
0.0
 40
5.0
100
AcDbArc
 50
357.2574457102999
 51
90.0
  0
ARC
  5
4E5
330
1A
100
AcDbEntity
  8
NOKITOI
  6
PHANTOM
 62
     8
 48
5.0
100
AcDbCircle
 10
588.5529585635765
 20
213.1658236634185
 30
0.0
 40
3.7
100
AcDbArc
 50
357.2574457102999
 51
90.0
  0
LINE
  5
4E6
330
1A
100
AcDbEntity
  8
NOKITOI
  6
PHANTOM
 62
     8
 48
5.0
100
AcDbLine
 10
586.7982080325766
 20
215.1658236634185
 30
0.0
 11
586.7982080325766
 21
218.1658236634185
 31
0.0
  0
ARC
  5
4E8
330
1A
100
AcDbEntity
  8
SEIHIN
  6
CONTINUOUS
 62
     3
100
AcDbCircle
 10
588.5529585635151
 20
213.1658236633754
 30
0.0
 40
7.5
100
AcDbArc
 50
357.2574457102999
 51
90.0
  0
LINE
  5
4E9
330
1A
100
AcDbEntity
  8
SEIHIN
  6
CONTINUOUS
 62
     3
100
AcDbLine
 10
586.298208032515
 20
218.1658236633754
 30
0.0
 11
586.298208032515
 21
215.6658236633754
 31
0.0
  0
ARC
  5
4EA
330
1A
100
AcDbEntity
  8
SEIHIN
  6
CONTINUOUS
 62
     3
100
AcDbCircle
 10
588.5529585635151
 20
213.1658236633754
 30
0.0
 40
5.0
100
AcDbArc
 50
357.2574457102999
 51
90.0
  0
LINE
  5
4EB
330
1A
100
AcDbEntity
  8
NOKITOI
  6
PHANTOM
 62
     8
 48
5.0
100
AcDbLine
 10
588.0982080325765
 20
213.8658236634185
 30
0.0
 11
585.8132173609765
 21
213.8658236634185
 31
0.0
  0
LINE
  5
4EC
330
1A
100
AcDbEntity
  8
NOKITOI
  6
PHANTOM
 62
     8
 48
5.0
100
AcDbLine
 10
588.0982080325765
 20
216.8658236634185
 30
0.0
 11
588.0982080325765
 21
213.8658236634185
 31
0.0
  0
LINE
  5
4ED
330
1A
100
AcDbEntity
  8
NOKITOI
  6
PHANTOM
 62
     8
 48
5.0
100
AcDbLine
 10
588.5529585635765
 20
216.8658236634185
 30
0.0
 11
588.0982080325765
 21
216.8658236634185
 31
0.0
  0
LINE
  5
4EF
330
1A
100
AcDbEntity
  8
NOKITOI
  6
PHANTOM
 62
     8
 48
5.0
100
AcDbLine
 10
586.7982080325766
 20
218.1658236634185
 30
0.0
 11
588.5529585635765
 21
218.1658236634185
 31
0.0
  0
LINE
  5
4F0
330
1A
100
AcDbEntity
  8
SEIHIN
  6
CONTINUOUS
 62
     3
100
AcDbLine
 10
586.298207714815
 20
220.6658236633754
 30
0.0
 11
588.5529585635151
 21
220.6658236633754
 31
0.0
  0
LINE
  5
4F1
330
1A
100
AcDbEntity
  8
SEIHIN
  6
CONTINUOUS
 62
     3
100
AcDbLine
 10
586.298208032515
 20
218.1658236633754
 30
0.0
 11
588.5529585635151
 21
218.1658236633754
 31
0.0
  0
LINE
  5
4F4
330
1A
100
AcDbEntity
  8
SEIHIN
  6
CONTINUOUS
 62
     3
100
AcDbLine
 10
583.798208032515
 20
386.5469199964342
 30
0.0
 11
591.798208032515
 21
386.5469199964342
 31
0.0
  0
LINE
  5
4F7
330
1A
100
AcDbEntity
  8
SEIHIN
  6
CONTINUOUS
 62
     3
100
AcDbLine
 10
583.798208032515
 20
416.5469199964341
 30
0.0
 11
591.7982080326151
 21
416.5469199964341
 31
0.0
  0
LINE
  5
4F8
330
1A
100
AcDbEntity
  8
SEIHIN
  6
CONTINUOUS
 62
     3
100
AcDbLine
 10
583.798208032515
 20
356.5469199964342
 30
0.0
 11
583.798208032515
 21
386.5469199964342
 31
0.0
  0
ARC
  5
4FB
330
1A
100
AcDbEntity
  8
SEIHIN
  6
CONTINUOUS
 62
     3
100
AcDbCircle
 10
396.420832767115
 20
387.5415296946342
 30
0.0
 40
200.0
100
AcDbArc
 50
356.5663696374999
 51
0.0
  0
LINE
  5
4FC
330
1A
100
AcDbEntity
  8
SEIHIN
  6
CONTINUOUS
 62
     3
100
AcDbLine
 10
596.061801860215
 20
375.5630715490342
 30
0.0
 11
594.920832767115
 21
356.5469199964342
 31
0.0
  0
LINE
  5
4FD
330
1A
100
AcDbEntity
  8
SEIHIN
  6
CONTINUOUS
 62
     3
100
AcDbLine
 10
596.420832767115
 20
387.5415296946342
 30
0.0
 11
596.420832767115
 21
415.5523102982342
 31
0.0
  0
LINE
  5
4FE
330
1A
100
AcDbEntity
  8
SEIHIN
  6
CONTINUOUS
 62
     3
100
AcDbLine
 10
593.798208032515
 20
388.5469199964342
 30
0.0
 11
593.798208032615
 21
414.5469199964342
 31
0.0
  0
LINE
  5
4FF
330
1A
100
AcDbEntity
  8
SEIHIN
  6
CONTINUOUS
 62
     3
100
AcDbLine
 10
590.476894921915
 20
386.5469199964342
 30
0.0
 11
590.476894921915
 21
416.5469199964341
 31
0.0
  0
ARC
  5
500
330
1A
100
AcDbEntity
  8
SEIHIN
  6
CONTINUOUS
 62
     3
100
AcDbCircle
 10
591.798208032515
 20
388.5469199964342
 30
0.0
 40
2.0
100
AcDbArc
 50
270.0
 51
0.0
  0
ARC
  5
501
330
1A
100
AcDbEntity
  8
SEIHIN
  6
CONTINUOUS
 62
     3
100
AcDbCircle
 10
591.7982080326151
 20
414.5469199964342
 30
0.0
 40
2.0
100
AcDbArc
 50
0.0
 51
90.0
  0
LINE
  5
502
330
1A
100
AcDbEntity
  8
SEIHIN
  6
CONTINUOUS
 62
     3
100
AcDbLine
 10
447.098208032515
 20
446.5469199964342
 30
0.0
 11
594.920832767115
 21
446.5469199964342
 31
0.0
  0
LINE
  5
503
330
1A
100
AcDbEntity
  8
SEIHIN
  6
CONTINUOUS
 62
     3
100
AcDbLine
 10
447.098208032515
 20
446.5469199964342
 30
0.0
 11
445.957238939415
 21
427.5307684438342
 31
0.0
  0
LINE
  5
506
330
1A
100
AcDbEntity
  8
SEIHIN
  6
CONTINUOUS
 62
     3
100
AcDbLine
 10
594.920832767115
 20
446.5469199964342
 30
0.0
 11
596.061801860215
 21
427.5307684438342
 31
0.0
  0
ARC
  5
80D
330
1A
100
AcDbEntity
  8
SEIHIN
  6
CONTINUOUS
 62
     3
100
AcDbCircle
 10
449.098208032515
 20
254.5073918144989
 30
0.0
 40
1.0
100
AcDbArc
 50
111.6915634179988
 51
180.0
  0
LINE
  5
80E
330
1A
100
AcDbEntity
  8
CENTER_L
 48
5.0
100
AcDbLine
 10
543.3718354747149
 20
349.5469199964342
 30
0.0
 11
543.3718354747149
 21
453.5469199964341
 31
0.0
  0
LINE
  5
811
330
1A
100
AcDbEntity
  8
CENTER_L
  6
CENTER
 62
     1
 48
5.0
100
AcDbLine
 10
224.773710238024
 20
128.1658233155754
 30
0.0
 11
224.773710238024
 21
278.1658233155754
 31
0.0
  0
LINE
  5
812
330
1A
100
AcDbEntity
  8
SEIHIN
  6
CONTINUOUS
 62
     3
100
AcDbLine
 10
179.773710238024
 20
147.1658233155754
 30
0.0
 11
179.773710238024
 21
261.8423513668754
 31
0.0
  0
LINE
  5
814
330
1A
100
AcDbEntity
  8
SEIHIN
  6
CONTINUOUS
 62
     3
100
AcDbLine
 10
179.773710238024
 20
147.1658233155754
 30
0.0
 11
204.7830657493241
 21
145.9153555400754
 31
0.0
  0
LINE
  5
815
330
1A
100
AcDbEntity
  8
SEIHIN
  6
CONTINUOUS
 62
     3
100
AcDbLine
 10
214.7705891381241
 20
145.6658233155754
 30
0.0
 11
234.7768271151239
 21
145.6658233155754
 31
0.0
  0
ARC
  5
816
330
1A
100
AcDbEntity
  8
SEIHIN
  6
CONTINUOUS
 62
     3
100
AcDbCircle
 10
214.7705891381241
 20
345.6658233155754
 30
0.0
 40
200.0
100
AcDbArc
 50
267.1375947739
 51
270.0
  0
LINE
  5
817
330
1A
100
AcDbEntity
  8
SEIHIN
  6
CONTINUOUS
 62
     3
100
AcDbLine
 10
179.773710238024
 20
261.8423513668754
 30
0.0
 11
209.773710238024
 21
261.8423513668754
 31
0.0
  0
LINE
  5
81A
330
1A
100
AcDbEntity
  8
SEIHIN
  6
CONTINUOUS
 62
     3
100
AcDbLine
 10
211.273710238024
 20
258.7222710613754
 30
0.0
 11
238.273710238024
 21
258.7222710613754
 31
0.0
  0
ARC
  5
81B
330
1A
100
AcDbEntity
  8
SEIHIN
  6
CONTINUOUS
 62
     3
100
AcDbCircle
 10
211.273710238024
 20
260.2222710613754
 30
0.0
 40
1.5
100
AcDbArc
 50
180.0
 51
270.0
  0
LINE
  5
81C
330
1A
100
AcDbEntity
  8
SEIHIN
  6
CONTINUOUS
 62
     3
100
AcDbLine
 10
209.773710238024
 20
260.2222710613754
 30
0.0
 11
209.773710238024
 21
261.8423513668754
 31
0.0
  0
LINE
  5
81F
330
1A
100
AcDbEntity
  8
SEIHIN
  6
CONTINUOUS
 62
     3
100
AcDbLine
 10
269.773710238024
 20
261.8423513668754
 30
0.0
 11
239.773710238024
 21
261.8423513668754
 31
0.0
  0
LINE
  5
820
330
1A
100
AcDbEntity
  8
SEIHIN
  6
CONTINUOUS
 62
     3
100
AcDbLine
 10
269.773710238024
 20
147.1658233155754
 30
0.0
 11
244.7643547267239
 21
145.9153555400754
 31
0.0
  0
LINE
  5
821
330
1A
100
AcDbEntity
  8
SEIHIN
  6
CONTINUOUS
 62
     3
100
AcDbLine
 10
269.773710238024
 20
147.1658233155754
 30
0.0
 11
269.773710238024
 21
261.8423513668754
 31
0.0
  0
ARC
  5
822
330
1A
100
AcDbEntity
  8
SEIHIN
  6
CONTINUOUS
 62
     3
100
AcDbCircle
 10
234.7768313379239
 20
345.6658233155754
 30
0.0
 40
200.0
100
AcDbArc
 50
270.0
 51
272.8624052261
  0
LINE
  5
823
330
1A
100
AcDbEntity
  8
SEIHIN
  6
CONTINUOUS
 62
     3
100
AcDbLine
 10
239.773710238024
 20
260.2222710613754
 30
0.0
 11
239.773710238024
 21
261.8423513668754
 31
0.0
  0
ARC
  5
824
330
1A
100
AcDbEntity
  8
SEIHIN
  6
CONTINUOUS
 62
     3
100
AcDbCircle
 10
238.273710238024
 20
260.2222710613754
 30
0.0
 40
1.5
100
AcDbArc
 50
270.0
 51
0.0
  0
ARC
  5
82C
330
1A
100
AcDbEntity
  8
SEIHIN
100
AcDbCircle
 10
224.773710238024
 20
766.2280173099198
 30
0.0
 40
522.9633114663445
100
AcDbArc
 50
265.0637025142433
 51
274.9362974857567
  0
LINE
  5
82D
330
1A
100
AcDbEntity
  8
SEIHIN
100
AcDbLine
 10
267.773710238024
 20
258.1102510321754
 30
0.0
 11
241.0646547728111
 21
258.1102510321754
 31
0.0
  0
ARC
  5
832
330
1A
100
AcDbEntity
  8
SEIHIN
100
AcDbCircle
 10
224.773710238024
 20
844.8563003249816
 30
0.0
 40
684.1031507269063
100
AcDbArc
 50
266.2283859169524
 51
273.7716140830475
  0
DIMENSION
  5
847
330
1A
100
AcDbEntity
  8
SUNPOU
100
AcDbDimension
  2
*D1
 10
596.0443681603573
 20
297.5143084126839
 30
0.0
 11
520.8309094144862
 21
302.5143084126839
 31
0.0
 70
    32
  3
STANDARD
100
AcDbAlignedDimension
 13
445.617450668615
 23
243.5577998014754
 33
0.0
 14
596.0443681603573
 24
212.8069612212901
 34
0.0
100
AcDbRotatedDimension
1001
ACAD
1000
DSTYLE
1002
{
1070
   372
1070
    -1
1070
   371
1070
    -1
1070
    41
1040
7.0
1070
    42
1040
6.0
1070
    43
1040
14.0
1070
    44
1040
3.0
1070
    73
1070
     0
1070
    74
1070
     0
1070
    77
1070
     3
1070
   140
1040
6.0
1070
   141
1040
150.0
1070
   147
1040
2.0
1070
   172
1070
     1
1070
   173
1070
     1
1070
   176
1070
   256
1070
   177
1070
   256
1070
   178
1070
     4
1070
   271
1070
     0
1070
   272
1070
     2
1070
     6
1000
OPEN
1070
     7
1000
OPEN
1002
}
  0
DIMENSION
  5
861
330
1A
100
AcDbEntity
  8
SUNPOU
100
AcDbDimension
  2
*D2
 10
391.141941952148
 20
145.6706285440312
 30
0.0
 11
386.141941952148
 21
203.7564899554534
 31
0.0
 70
    32
  3
STANDARD
100
AcDbAlignedDimension
 13
458.643373577615
 23
261.8423513668754
 33
0.0
 14
543.3718354747149
 24
145.6706285440312
 34
0.0
 50
90.0
100
AcDbRotatedDimension
1001
ACAD
1000
DSTYLE
1002
{
1070
   372
1070
    -1
1070
   371
1070
    -1
1070
    41
1040
7.0
1070
    42
1040
6.0
1070
    43
1040
14.0
1070
    44
1040
3.0
1070
    73
1070
     0
1070
    74
1070
     0
1070
    77
1070
     3
1070
   140
1040
6.0
1070
   141
1040
150.0
1070
   147
1040
2.0
1070
   172
1070
     1
1070
   173
1070
     1
1070
   176
1070
   256
1070
   177
1070
   256
1070
   178
1070
     4
1070
   271
1070
     0
1070
   272
1070
     2
1070
     6
1000
OPEN
1070
     7
1000
OPEN
1002
}
  0
DIMENSION
  5
86E
330
1A
100
AcDbEntity
  8
SUNPOU
100
AcDbDimension
  2
*D3
 10
650.1649605736584
 20
145.6658233155753
 30
0.0
 11
645.1649605736584
 21
183.1658234894755
 31
0.0
 70
    32
  3
STANDARD
100
AcDbAlignedDimension
 13
588.5529585635151
 23
220.6658236633754
 33
0.0
 14
543.3718354747149
 24
145.6658233155753
 34
0.0
 50
90.0
100
AcDbRotatedDimension
1001
ACAD
1000
DSTYLE
1002
{
1070
   372
1070
    -1
1070
   371
1070
    -1
1070
    41
1040
7.0
1070
    42
1040
6.0
1070
    43
1040
14.0
1070
    44
1040
3.0
1070
    73
1070
     0
1070
    74
1070
     0
1070
    77
1070
     3
1070
   140
1040
6.0
1070
   141
1040
150.0
1070
   147
1040
2.0
1070
   172
1070
     1
1070
   173
1070
     1
1070
   176
1070
   256
1070
   177
1070
   256
1070
   178
1070
     4
1070
   271
1070
     0
1070
   272
1070
     2
1070
     6
1000
OPEN
1070
     7
1000
OPEN
1002
}
  0
DIMENSION
  5
895
330
1A
100
AcDbEntity
  8
SUNPOU
100
AcDbDimension
  2
*D4
 10
391.141941952148
 20
356.5469199964342
 30
0.0
 11
386.141941952148
 21
401.5469199964343
 31
0.0
 70
    32
  3
STANDARD
100
AcDbAlignedDimension
 13
447.098208032515
 23
446.5469199964342
 33
0.0
 14
447.098208032515
 24
356.5469199964342
 34
0.0
 50
90.0
100
AcDbRotatedDimension
1001
ACAD
1000
DSTYLE
1002
{
1070
   372
1070
    -1
1070
   371
1070
    -1
1070
    41
1040
7.0
1070
    42
1040
6.0
1070
    43
1040
14.0
1070
    44
1040
3.0
1070
    73
1070
     0
1070
    74
1070
     0
1070
    77
1070
     3
1070
   140
1040
6.0
1070
   141
1040
150.0
1070
   147
1040
2.0
1070
   172
1070
     1
1070
   173
1070
     1
1070
   176
1070
   256
1070
   177
1070
   256
1070
   178
1070
     4
1070
   271
1070
     0
1070
   272
1070
     2
1070
     6
1000
OPEN
1070
     7
1000
OPEN
1002
}
  0
LINE
  5
8A0
330
1A
100
AcDbEntity
  8
SEIHIN
  6
CONTINUOUS
 62
     3
100
AcDbLine
 10
214.7705891381241
 20
146.8577294007735
 30
0.0
 11
234.7768271151239
 21
146.8577294007735
 31
0.0
  0
LINE
  5
8A1
330
1A
100
AcDbEntity
  8
SEIHIN
  6
CONTINUOUS
 62
     3
100
AcDbLine
 10
179.773710238024
 20
148.3577294007735
 30
0.0
 11
204.7830657493241
 21
147.1072616252735
 31
0.0
  0
ARC
  5
8A2
330
1A
100
AcDbEntity
  8
SEIHIN
  6
CONTINUOUS
 62
     3
100
AcDbCircle
 10
214.7705891381241
 20
346.8577294007735
 30
0.0
 40
200.0
100
AcDbArc
 50
267.1375947739
 51
270.0
  0
LINE
  5
8A3
330
1A
100
AcDbEntity
  8
SEIHIN
  6
CONTINUOUS
 62
     3
100
AcDbLine
 10
269.773710238024
 20
148.3577294007735
 30
0.0
 11
244.7643547267239
 21
147.1072616252735
 31
0.0
  0
ARC
  5
8A4
330
1A
100
AcDbEntity
  8
SEIHIN
  6
CONTINUOUS
 62
     3
100
AcDbCircle
 10
234.7768313379239
 20
346.8577294007735
 30
0.0
 40
200.0
100
AcDbArc
 50
270.0
 51
272.8624052261
  0
LINE
  5
8AD
330
1A
100
AcDbEntity
  8
SEIHIN
100
AcDbLine
 10
208.4827657032368
 20
258.1102510321754
 30
0.0
 11
181.773710238024
 21
258.1102510321754
 31
0.0
  0
LINE
  5
8AF
330
1A
100
AcDbEntity
  8
SEIHIN
  6
CONTINUOUS
 62
     3
100
AcDbLine
 10
446.2982080325125
 20
387.5415296946342
 30
0.0
 11
446.2982080325125
 21
415.5523102982342
 31
0.0
  0
LINE
  5
8B0
330
1A
100
AcDbEntity
  8
SEIHIN
  6
CONTINUOUS
 62
     3
100
AcDbLine
 10
446.6572389394125
 20
375.5630715490342
 30
0.0
 11
447.7982080325125
 21
356.5469199964342
 31
0.0
  0
ARC
  5
8B1
330
1A
100
AcDbEntity
  8
SEIHIN
  6
CONTINUOUS
 62
     3
100
AcDbCircle
 10
646.2982080325124
 20
387.5415296946342
 30
0.0
 40
200.0
100
AcDbArc
 50
180.0
 51
183.4336303625
  0
LINE
  5
8B2
330
1A
100
AcDbEntity
  8
SEIHIN
  6
CONTINUOUS
 62
     3
100
AcDbLine
 10
447.7982080325125
 20
446.5469199964342
 30
0.0
 11
446.6572389394125
 21
427.5307684438342
 31
0.0
  0
ARC
  5
8B3
330
1A
100
AcDbEntity
  8
SEIHIN
  6
CONTINUOUS
 62
     3
100
AcDbCircle
 10
646.2982080325124
 20
415.5523102982342
 30
0.0
 40
200.0
100
AcDbArc
 50
176.5663696375
 51
180.0
  0
LINE
  5
8B4
330
1A
100
AcDbEntity
  8
SEIHIN
100
AcDbLine
 10
487.5863618332205
 20
163.1368336797181
 30
0.0
 11
486.7278402216373
 21
161.839530842986
 31
0.0
  0
LINE
  5
8B6
330
1A
100
AcDbEntity
  8
SEIHIN
100
AcDbLine
 10
447.1944212127341
 20
245.064911850157
 30
0.0
 11
445.7235156447271
 21
243.3289129156352
 31
0.0
  0
LINE
  5
8B7
330
1A
100
AcDbEntity
  8
SEIHIN
100
AcDbLine
 10
453.6213807561633
 20
245.9509247023755
 30
0.0
 11
452.7365067061334
 21
244.7397278085593
 31
0.0
  0
LINE
  5
B00
330
1A
100
AcDbEntity
  8
ZUWAKU
100
AcDbLine
 10
208.6466016834092
 20
15.19999965533644
 30
0.0
 11
447.4243643643326
 21
15.19999965533644
 31
0.0
  0
LINE
  5
B01
330
1A
100
AcDbEntity
  8
ZUWAKU
100
AcDbLine
 10
208.6466016834092
 20
15.59999965533644
 30
0.0
 11
447.4243643643326
 21
15.59999965533645
 31
0.0
  0
LINE
  5
B02
330
1A
100
AcDbEntity
  8
ZUWAKU
100
AcDbLine
 10
208.6466016834092
 20
15.39999965533644
 30
0.0
 11
447.4243643643326
 21
15.39999965533644
 31
0.0
  0
LINE
  5
B03
330
1A
100
AcDbEntity
  8
ZUWAKU
100
AcDbLine
 10
0.0000003933412245
 20
30.79999965533642
 30
0.0
 11
797.4000003933411
 21
30.79999965533642
 31
0.0
  0
LINE
  5
B04
330
1A
100
AcDbEntity
  8
ZUWAKU
100
AcDbLine
 10
0.0000003933412245
 20
30.59999965533641
 30
0.0
 11
797.4000003933411
 21
30.59999965533641
 31
0.0
  0
LINE
  5
B05
330
1A
100
AcDbEntity
  8
ZUWAKU
100
AcDbLine
 10
0.0000003933412245
 20
30.39999965533641
 30
0.0
 11
797.4000003933411
 21
30.39999965533641
 31
0.0
  0
LINE
  5
B06
330
1A
100
AcDbEntity
  8
ZUWAKU
100
AcDbLine
 10
0.0000003933412245
 20
30.19999965533641
 30
0.0
 11
797.4000003933411
 21
30.19999965533641
 31
0.0
  0
LINE
  5
B07
330
1A
100
AcDbEntity
  8
ZUWAKU
100
AcDbLine
 10
0.0000003933412245
 20
29.99999965533641
 30
0.0
 11
797.4000003933411
 21
29.99999965533641
 31
0.0
  0
LWPOLYLINE
  5
B08
330
1A
100
AcDbEntity
  8
ZUWAKU
100
AcDbPolyline
 90
        4
 70
     1
 43
0.0
 10
0.2000003933411563
 20
551.3999996553365
 10
0.2000003933411563
 20
0.1999996553364553
 10
797.4000003933411
 20
0.1999996553364784
 10
797.4000003933412
 20
551.3999996553365
  0
LWPOLYLINE
  5
B09
330
1A
100
AcDbEntity
  8
ZUWAKU
100
AcDbPolyline
 90
        4
 70
     1
 43
0.0
 10
0.6000003933411336
 20
550.9999996553365
 10
0.6000003933411336
 20
0.5999996553364327
 10
797.0000003933415
 20
0.5999996553364788
 10
797.0000003933412
 20
550.9999996553365
  0
LWPOLYLINE
  5
B0A
330
1A
100
AcDbEntity
  8
ZUWAKU
100
AcDbPolyline
 90
        4
 70
     1
 43
0.0
 10
0.0000003933412245
 20
551.5999996553364
 10
0.0000003933412245
 20
-0.0000003446635901
 10
797.6000003933413
 20
-0.0000003446635226
 10
797.6000003933413
 20
551.5999996553365
  0
LWPOLYLINE
  5
B0B
330
1A
100
AcDbEntity
  8
ZUWAKU
100
AcDbPolyline
 90
        4
 70
     1
 43
0.0
 10
0.4000003933412018
 20
551.1999996553364
 10
0.4000003933412018
 20
0.3999996553365008
 10
797.2000003933413
 20
0.3999996553364777
 10
797.2000003933413
 20
551.1999996553364
  0
LWPOLYLINE
  5
B0C
330
1A
100
AcDbEntity
  8
ZUWAKU
100
AcDbPolyline
 90
        4
 70
     1
 43
0.0
 10
0.800000393341179
 20
550.7999996553365
 10
0.800000393341179
 20
0.7999996553364781
 10
796.8000003933411
 20
0.7999996553364781
 10
796.8000003933411
 20
550.7999996553365
  0
TEXT
  5
B0D
330
1A
100
AcDbEntity
  8
MOJI
100
AcDbText
 10
92.95778998151035
 20
12.74117778561117
 30
0.0
 40
6.0
  1
アートフェイスＨ１２０
 41
0.9
  7
ｽﾀｲﾙ1
100
AcDbText
  0
HATCH
  5
B0E
330
1A
100
AcDbEntity
  8
ZUWAKU
100
AcDbHatch
 10
0.0
 20
0.0
 30
0.0
210
0.0
220
0.0
230
1.0
  2
ANSI37
 70
     0
 71
     0
 91
        8
 92
        7
 72
     1
 73
     1
 93
       24
 10
14.50226305446108
 20
17.64484813631999
 42
-0.1989123673796348
 10
14.09221254812234
 20
18.63479762998104
 42
0.0
 10
14.09221254812234
 20
19.92499965533642
 42
-0.4142135623730912
 10
14.61721254812232
 20
20.44999965533641
 42
0.0
 10
17.59221254812223
 20
20.44999965533641
 42
0.4142135623731546
 10
18.11721254812232
 20
20.9749996553364
 42
0.0
 10
18.11721254812232
 20
22.72499965533641
 42
0.4142135623731586
 10
17.59221254812223
 20
23.24999965533641
 42
0.0
 10
14.09221254812234
 20
23.24999965533641
 42
0.4142135623730928
 10
11.29221254812239
 20
20.44999965533644
 42
0.0
 10
11.29221254812239
 20
18.63479762998117
 42
0.1989123673796619
 10
12.52236406713882
 20
15.66494914899756
 42
0.0
 10
15.43216204178349
 20
12.7551511743529
 42
-0.1989123673796613
 10
15.84221254812234
 20
11.76520168069172
 42
0.0
 10
15.84221254812234
 20
10.4749996553364
 42
-0.4142135623730911
 10
15.31721254812237
 20
9.949999655336412
 42
0.0
 10
12.34221254812246
 20
9.949999655336412
 42
0.4142135623731526
 10
11.81721254812237
 20
9.424999655336424
 42
0.0
 10
11.81721254812237
 20
7.674999655336403
 42
0.4142135623731526
 10
12.34221254812246
 20
7.149999655336415
 42
0.0
 10
15.84221254812234
 20
7.149999655336415
 42
0.4142135623731044
 10
18.64221254812241
 20
9.949999655336391
 42
0.0
 10
18.64221254812241
 20
11.76520168069166
 42
0.1989123673796604
 10
17.41206102910587
 20
14.7350501616752
 42
0.0
 97
        0
 92
        7
 72
     1
 73
     1
 93
       16
 10
23.54221254812239
 20
19.04999965533642
 42
-0.4142135623730935
 10
24.94221254812237
 20
20.44999965533641
 42
0.0
 10
26.86721254812232
 20
20.44999965533641
 42
0.4142135623731546
 10
27.39221254812241
 20
20.9749996553364
 42
0.0
 10
27.39221254812241
 20
22.72499965533641
 42
0.4142135623730951
 10
26.86721254812244
 20
23.24999965533641
 42
0.0
 10
24.94221254812226
 20
23.24999965533637
 42
0.4142135623730892
 10
20.74221254812232
 20
19.04999965533635
 42
0.0
 10
20.74221254812232
 20
11.34999965533644
 42
0.4142135623730969
 10
24.94221254812237
 20
7.149999655336415
 42
0.0
 10
26.86721254812232
 20
7.149999655336415
 42
0.4142135623731526
 10
27.39221254812241
 20
7.674999655336403
 42
0.0
 10
27.39221254812241
 20
9.424999655336424
 42
0.4142135623730891
 10
26.86721254812244
 20
9.949999655336412
 42
0.0
 10
24.94221254812237
 20
9.949999655336412
 42
-0.4142135623730928
 10
23.54221254812239
 20
11.3499996553364
 42
0.0
 97
        0
 92
        7
 72
     1
 73
     1
 93
        2
 10
24.24221254812232
 20
15.19999965533641
 42
1.0
 10
27.74221254812232
 20
15.19999965533641
 42
1.0
 97
        0
 92
        7
 72
     1
 73
     1
 93
       26
 10
37.31485903030034
 20
19.20504684889984
 42
0.0
 10
38.37649866343815
 20
22.56690568716943
 42
0.5069206636600134
 10
37.8758677642428
 20
23.24999965533641
 42
0.0
 10
36.17697838463357
 20
23.24999965533641
 42
0.3272098845218764
 10
35.67634748543821
 20
22.88309362350338
 42
0.0
 10
33.80807761080643
 20
16.96690568716949
 42
-0.3272098845219541
 10
33.30744671161096
 20
16.59999965533641
 42
0.0
 10
33.1672125481225
 20
16.59999965533641
 42
-0.4142135623731526
 10
32.64221254812241
 20
17.12499965533639
 42
0.0
 10
32.64221254812241
 20
22.72499965533641
 42
0.4142135623730951
 10
32.11721254812244
 20
23.24999965533641
 42
0.0
 10
30.36721254812232
 20
23.24999965533641
 42
0.4142135623730871
 10
29.84221254812235
 20
22.72499965533643
 42
0.0
 10
29.84221254812235
 20
7.674999655336403
 42
0.4142135623730891
 10
30.36721254812232
 20
7.149999655336415
 42
0.0
 10
32.11721254812232
 20
7.149999655336415
 42
0.4142135623731526
 10
32.64221254812241
 20
7.674999655336403
 42
0.0
 10
32.64221254812241
 20
13.27499965533642
 42
-0.4142135623731526
 10
33.1672125481225
 20
13.79999965533641
 42
0.0
 10
33.30744671161108
 20
13.79999965533641
 42
-0.3272098845218915
 10
33.80807761080643
 20
13.43309362350334
 42
0.0
 10
35.67634748543821
 20
7.516905687169487
 42
0.3272098845218902
 10
36.17697838463357
 20
7.149999655336415
 42
0.0
 10
37.8758677642428
 20
7.149999655336415
 42
0.5069206636600335
 10
38.37649866343815
 20
7.833093623503422
 42
0.0
 10
36.05010728496449
 20
15.19999965533655
 42
0.0
 97
        0
 92
        7
 72
     1
 73
     1
 93
        8
 10
43.49221254812232
 20
22.72499965533642
 42
0.4142135623731546
 10
42.96721254812223
 20
23.24999965533641
 42
0.0
 10
41.21721254812245
 20
23.24999965533641
 42
0.4142135623731507
 10
40.69221254812236
 20
22.72499965533643
 42
0.0
 10
40.69221254812236
 20
7.674999655336403
 42
0.4142135623731526
 10
41.21721254812245
 20
7.149999655336415
 42
0.0
 10
42.96721254812223
 20
7.149999655336415
 42
0.4142135623731526
 10
43.49221254812232
 20
7.674999655336403
 42
0.0
 97
        0
 92
        7
 72
     1
 73
     1
 93
       24
 10
48.39221254812241
 20
19.92499965533642
 42
-0.4142135623731546
 10
48.9172125481225
 20
20.44999965533641
 42
0.0
 10
51.89221254812242
 20
20.44999965533641
 42
0.4142135623730911
 10
52.41721254812239
 20
20.9749996553364
 42
0.0
 10
52.41721254812239
 20
22.72499965533641
 42
0.4142135623730952
 10
51.89221254812242
 20
23.24999965533641
 42
0.0
 10
48.39221254812241
 20
23.24999965533641
 42
0.4142135623731048
 10
45.59221254812235
 20
20.44999965533644
 42
0.0
 10
45.59221254812235
 20
18.63479762998117
 42
0.1989123673796613
 10
46.82236406713889
 20
15.66494914899762
 42
0.0
 10
49.73216204178356
 20
12.75515117435295
 42
-0.1989123673796402
 10
50.14221254812241
 20
11.76520168069188
 42
0.0
 10
50.14221254812241
 20
10.4749996553364
 42
-0.4142135623730911
 10
49.61721254812244
 20
9.949999655336412
 42
0.0
 10
46.64221254812241
 20
9.949999655336412
 42
0.4142135623731526
 10
46.11721254812232
 20
9.424999655336424
 42
0.0
 10
46.11721254812232
 20
7.674999655336403
 42
0.4142135623730891
 10
46.6422125481223
 20
7.149999655336415
 42
0.0
 10
50.14221254812241
 20
7.149999655336415
 42
0.4142135623730925
 10
52.94221254812237
 20
9.949999655336391
 42
0.0
 10
52.94221254812237
 20
11.76520168069166
 42
0.1989123673796675
 10
51.71206102910582
 20
14.73505016167531
 42
0.0
 10
48.80226305446126
 20
17.64484813631983
 42
-0.1989123673796652
 10
48.39221254812241
 20
18.634797629981
 42
0.0
 97
        0
 92
        7
 72
     1
 73
     1
 93
       16
 10
57.84221254812234
 20
22.7249996553364
 42
0.414213562373103
 10
57.31721254812237
 20
23.24999965533641
 42
0.0
 10
55.56721254812237
 20
23.24999965533641
 42
0.4142135623730871
 10
55.0422125481224
 20
22.72499965533643
 42
0.0
 10
55.0422125481224
 20
9.949999655336391
 42
0.4142135623730926
 10
57.84221254812234
 20
7.149999655336415
 42
0.0
 10
61.34221254812235
 20
7.149999655336415
 42
0.4142135623731044
 10
64.14221254812241
 20
9.949999655336391
 42
0.0
 10
64.14221254812241
 20
22.72499965533641
 42
0.4142135623730951
 10
63.61721254812244
 20
23.24999965533641
 42
0.0
 10
61.86721254812233
 20
23.24999965533641
 42
0.4142135623730871
 10
61.34221254812235
 20
22.72499965533643
 42
0.0
 10
61.34221254812235
 20
10.99999965533638
 42
-0.414213562373088
 10
60.29221254812239
 20
9.949999655336412
 42
0.0
 10
58.89221254812241
 20
9.949999655336412
 42
-0.4142135623731197
 10
57.84221254812234
 20
10.99999965533638
 42
0.0
 97
        0
 92
        7
 72
     1
 73
     1
 93
        8
 10
69.04221254812239
 20
22.72499965533643
 42
0.4142135623730871
 10
68.51721254812241
 20
23.24999965533641
 42
0.0
 10
66.76721254812242
 20
23.24999965533641
 42
0.4142135623731507
 10
66.24221254812233
 20
22.72499965533643
 42
0.0
 10
66.24221254812233
 20
7.674999655336403
 42
0.4142135623730891
 10
66.7672125481223
 20
7.149999655336415
 42
0.0
 10
68.51721254812241
 20
7.149999655336415
 42
0.4142135623730891
 10
69.04221254812239
 20
7.674999655336403
 42
0.0
 97
        0
 75
     0
 76
     1
 52
0.0
 41
0.2
 77
     0
 78
     2
 53
45.0
 43
-900.9423039413377
 44
-13.20000034466352
 45
-0.4490128060534576
 46
0.4490128060534577
 79
     0
 53
135.0
 43
-900.9423039413377
 44
-13.20000034466352
 45
-0.4490128060534577
 46
-0.4490128060534576
 79
     0
 47
0.057451373970553
 98
        8
 10
16.07985535636453
 20
15.16717330122196
 10
22.40451539978039
 20
18.84406183778742
 10
25.16436827900088
 20
15.51188130140713
 10
30.91406037497836
 20
16.20129730177791
 10
41.83847241229796
 20
16.66090956931952
 10
46.89820128847077
 20
19.41857597174362
 10
56.55768636574157
 20
18.72915757043142
 10
67.82708001296396
 20
19.18876983797304
  0
LINE
  5
B0F
330
1A
100
AcDbEntity
  8
ZUWAKU
100
AcDbLine
 10
24.94221254812237
 20
23.24999965533637
 30
0.0
 11
26.86721254812232
 21
23.24999965533641
 31
0.0
  0
LINE
  5
B10
330
1A
100
AcDbEntity
  8
ZUWAKU
100
AcDbLine
 10
26.86721254812232
 20
20.44999965533641
 30
0.0
 11
24.94221254812237
 21
20.44999965533641
 31
0.0
  0
LINE
  5
B11
330
1A
100
AcDbEntity
  8
ZUWAKU
100
AcDbLine
 10
24.94221254812237
 20
9.949999655336412
 30
0.0
 11
26.86721254812232
 21
9.949999655336412
 31
0.0
  0
LINE
  5
B12
330
1A
100
AcDbEntity
  8
ZUWAKU
100
AcDbLine
 10
26.86721254812232
 20
7.149999655336415
 30
0.0
 11
24.94221254812237
 21
7.149999655336415
 31
0.0
  0
CIRCLE
  5
B13
330
1A
100
AcDbEntity
  8
ZUWAKU
100
AcDbCircle
 10
25.99221254812232
 20
15.19999965533641
 30
0.0
 40
1.75
  0
ARC
  5
B14
330
1A
100
AcDbEntity
  8
ZUWAKU
100
AcDbCircle
 10
15.49221254812232
 20
18.63479762998111
 30
0.0
 40
1.399999999999999
100
AcDbArc
 50
180.0000000000016
 51
224.9999999999988
  0
LINE
  5
B15
330
1A
100
AcDbEntity
  8
ZUWAKU
100
AcDbLine
 10
23.54221254812239
 20
19.04999965533641
 30
0.0
 11
23.54221254812239
 21
11.34999965533641
 31
0.0
  0
LINE
  5
B16
330
1A
100
AcDbEntity
  8
ZUWAKU
100
AcDbLine
 10
20.74221254812232
 20
11.34999965533641
 30
0.0
 11
20.74221254812232
 21
19.04999965533637
 31
0.0
  0
ARC
  5
B17
330
1A
100
AcDbEntity
  8
ZUWAKU
100
AcDbCircle
 10
15.49221254812232
 20
18.63479762998111
 30
0.0
 40
4.199999999999999
100
AcDbArc
 50
180.0
 51
225.0
  0
ARC
  5
B18
330
1A
100
AcDbEntity
  8
ZUWAKU
100
AcDbCircle
 10
15.84221254812234
 20
9.949999655336412
 30
0.0
 40
2.799999999999999
100
AcDbArc
 50
270.0
 51
0.0
  0
ARC
  5
B19
330
1A
100
AcDbEntity
  8
ZUWAKU
100
AcDbCircle
 10
24.94221254812237
 20
11.34999965533641
 30
0.0
 40
4.199999999999999
100
AcDbArc
 50
180.0
 51
270.0
  0
ARC
  5
B1A
330
1A
100
AcDbEntity
  8
ZUWAKU
100
AcDbCircle
 10
14.44221254812237
 20
11.76520168069171
 30
0.0
 40
4.199999999999999
100
AcDbArc
 50
0.0
 51
45.0
  0
LINE
  5
B1B
330
1A
100
AcDbEntity
  8
ZUWAKU
100
AcDbLine
 10
17.41206102910587
 20
14.73505016167524
 30
0.0
 11
14.50226305446119
 21
17.64484813631991
 31
0.0
  0
LINE
  5
B1C
330
1A
100
AcDbEntity
  8
ZUWAKU
100
AcDbLine
 10
15.84221254812234
 20
10.47499965533641
 30
0.0
 11
15.84221254812234
 21
11.76520168069176
 31
0.0
  0
ARC
  5
B1D
330
1A
100
AcDbEntity
  8
ZUWAKU
100
AcDbCircle
 10
15.31721254812237
 20
10.47499965533641
 30
0.0
 40
0.525
100
AcDbArc
 50
270.0
 51
0.0
  0
ARC
  5
B1E
330
1A
100
AcDbEntity
  8
ZUWAKU
100
AcDbCircle
 10
14.44221254812237
 20
11.76520168069176
 30
0.0
 40
1.399999999999999
100
AcDbArc
 50
0.0
 51
45.0
  0
LINE
  5
B1F
330
1A
100
AcDbEntity
  8
ZUWAKU
100
AcDbLine
 10
11.81721254812237
 20
7.674999655336414
 30
0.0
 11
11.81721254812237
 21
9.424999655336414
 31
0.0
  0
ARC
  5
B20
330
1A
100
AcDbEntity
  8
ZUWAKU
100
AcDbCircle
 10
12.34221254812234
 20
7.674999655336414
 30
0.0
 40
0.525
100
AcDbArc
 50
180.0
 51
270.0
  0
ARC
  5
B21
330
1A
100
AcDbEntity
  8
ZUWAKU
100
AcDbCircle
 10
12.34221254812234
 20
9.424999655336414
 30
0.0
 40
0.525
100
AcDbArc
 50
90.0
 51
180.0
  0
LINE
  5
B22
330
1A
100
AcDbEntity
  8
ZUWAKU
100
AcDbLine
 10
12.34221254812234
 20
7.149999655336415
 30
0.0
 11
15.84221254812234
 21
7.149999655336415
 31
0.0
  0
LINE
  5
B23
330
1A
100
AcDbEntity
  8
ZUWAKU
100
AcDbLine
 10
12.34221254812234
 20
9.949999655336412
 30
0.0
 11
15.31721254812237
 21
9.949999655336412
 31
0.0
  0
LINE
  5
B24
330
1A
100
AcDbEntity
  8
ZUWAKU
100
AcDbLine
 10
12.52236406713882
 20
15.66494914899759
 30
0.0
 11
15.43216204178349
 21
12.75515117435293
 31
0.0
  0
LINE
  5
B25
330
1A
100
AcDbEntity
  8
ZUWAKU
100
AcDbLine
 10
18.64221254812241
 20
9.949999655336412
 30
0.0
 11
18.64221254812241
 21
11.76520168069176
 31
0.0
  0
ARC
  5
B26
330
1A
100
AcDbEntity
  8
ZUWAKU
100
AcDbCircle
 10
24.94221254812237
 20
11.34999965533641
 30
0.0
 40
1.399999999999999
100
AcDbArc
 50
180.0
 51
270.0
  0
ARC
  5
B27
330
1A
100
AcDbEntity
  8
ZUWAKU
100
AcDbCircle
 10
17.59221254812234
 20
22.72499965533641
 30
0.0
 40
0.525
100
AcDbArc
 50
0.0
 51
90.0
  0
ARC
  5
B28
330
1A
100
AcDbEntity
  8
ZUWAKU
100
AcDbCircle
 10
17.59221254812234
 20
20.97499965533641
 30
0.0
 40
0.525
100
AcDbArc
 50
270.0
 51
0.0
  0
LINE
  5
B29
330
1A
100
AcDbEntity
  8
ZUWAKU
100
AcDbLine
 10
14.09221254812234
 20
23.24999965533641
 30
0.0
 11
17.59221254812234
 21
23.24999965533641
 31
0.0
  0
ARC
  5
B2A
330
1A
100
AcDbEntity
  8
ZUWAKU
100
AcDbCircle
 10
14.61721254812232
 20
19.92499965533641
 30
0.0
 40
0.525
100
AcDbArc
 50
90.0
 51
180.0
  0
LINE
  5
B2B
330
1A
100
AcDbEntity
  8
ZUWAKU
100
AcDbLine
 10
14.09221254812234
 20
19.92499965533641
 30
0.0
 11
14.09221254812234
 21
18.63479762998107
 31
0.0
  0
LINE
  5
B2C
330
1A
100
AcDbEntity
  8
ZUWAKU
100
AcDbLine
 10
17.59221254812234
 20
20.44999965533641
 30
0.0
 11
14.61721254812232
 21
20.44999965533641
 31
0.0
  0
LINE
  5
B2D
330
1A
100
AcDbEntity
  8
ZUWAKU
100
AcDbLine
 10
11.29221254812239
 20
20.44999965533641
 30
0.0
 11
11.29221254812239
 21
18.63479762998107
 31
0.0
  0
ARC
  5
B2E
330
1A
100
AcDbEntity
  8
ZUWAKU
100
AcDbCircle
 10
14.09221254812234
 20
20.44999965533641
 30
0.0
 40
2.799999999999999
100
AcDbArc
 50
90.0
 51
180.0
  0
LINE
  5
B2F
330
1A
100
AcDbEntity
  8
ZUWAKU
100
AcDbLine
 10
18.11721254812232
 20
22.72499965533641
 30
0.0
 11
18.11721254812232
 21
20.97499965533641
 31
0.0
  0
ARC
  5
B30
330
1A
100
AcDbEntity
  8
ZUWAKU
100
AcDbCircle
 10
24.94221254812237
 20
19.04999965533641
 30
0.0
 40
1.399999999999999
100
AcDbArc
 50
90.0
 51
180.0
  0
ARC
  5
B31
330
1A
100
AcDbEntity
  8
ZUWAKU
100
AcDbCircle
 10
24.94221254812237
 20
19.04999965533637
 30
0.0
 40
4.199999999999999
100
AcDbArc
 50
90.0
 51
180.0
  0
LINE
  5
B32
330
1A
100
AcDbEntity
  8
ZUWAKU
100
AcDbLine
 10
79.32662994132943
 20
29.99999965533641
 30
0.0
 11
79.32662994132965
 21
0.7999996553364781
 31
0.0
  0
LINE
  5
B33
330
1A
100
AcDbEntity
  8
ZUWAKU
100
AcDbLine
 10
79.52662994132947
 20
29.99999965533641
 30
0.0
 11
79.5266299413297
 21
0.7999996553364781
 31
0.0
  0
LINE
  5
B34
330
1A
100
AcDbEntity
  8
ZUWAKU
100
AcDbLine
 10
79.12662994132961
 20
29.99999965533641
 30
0.0
 11
79.12662994132961
 21
0.7999996553364781
 31
0.0
  0
LINE
  5
B35
330
1A
100
AcDbEntity
  8
ZUWAKU
100
AcDbLine
 10
64.14221254812241
 20
9.949999655336412
 30
0.0
 11
64.14221254812241
 21
22.72499965533641
 31
0.0
  0
LINE
  5
B36
330
1A
100
AcDbEntity
  8
ZUWAKU
100
AcDbLine
 10
61.34221254812235
 20
22.72499965533641
 30
0.0
 11
61.34221254812235
 21
10.9999996553364
 31
0.0
  0
LINE
  5
B37
330
1A
100
AcDbEntity
  8
ZUWAKU
100
AcDbLine
 10
69.04221254812239
 20
7.674999655336414
 30
0.0
 11
69.04221254812239
 21
22.72499965533641
 31
0.0
  0
LINE
  5
B38
330
1A
100
AcDbEntity
  8
ZUWAKU
100
AcDbLine
 10
66.24221254812233
 20
22.72499965533641
 30
0.0
 11
66.24221254812233
 21
7.674999655336414
 31
0.0
  0
ARC
  5
B39
330
1A
100
AcDbEntity
  8
ZUWAKU
100
AcDbCircle
 10
49.79221254812239
 20
18.63479762998111
 30
0.0
 40
1.399999999999999
100
AcDbArc
 50
180.0000000000016
 51
224.9999999999988
  0
ARC
  5
B3A
330
1A
100
AcDbEntity
  8
ZUWAKU
100
AcDbCircle
 10
49.79221254812239
 20
18.63479762998111
 30
0.0
 40
4.199999999999999
100
AcDbArc
 50
180.0
 51
225.0
  0
LINE
  5
B3B
330
1A
100
AcDbEntity
  8
ZUWAKU
100
AcDbLine
 10
37.31485903030034
 20
19.20504684889984
 30
0.0
 11
36.05010728496449
 21
15.19999965533643
 31
0.0
  0
LINE
  5
B3C
330
1A
100
AcDbEntity
  8
ZUWAKU
100
AcDbLine
 10
40.69221254812236
 20
22.72499965533641
 30
0.0
 11
40.69221254812236
 21
7.674999655336414
 31
0.0
  0
LINE
  5
B3D
330
1A
100
AcDbEntity
  8
ZUWAKU
100
AcDbLine
 10
43.49221254812232
 20
7.674999655336414
 30
0.0
 11
43.49221254812232
 21
22.72499965533641
 31
0.0
  0
LINE
  5
B3E
330
1A
100
AcDbEntity
  8
ZUWAKU
100
AcDbLine
 10
55.0422125481224
 20
22.72499965533641
 30
0.0
 11
55.0422125481224
 21
9.949999655336412
 31
0.0
  0
LINE
  5
B3F
330
1A
100
AcDbEntity
  8
ZUWAKU
100
AcDbLine
 10
57.84221254812234
 20
10.9999996553364
 30
0.0
 11
57.84221254812234
 21
22.72499965533641
 31
0.0
  0
LINE
  5
B40
330
1A
100
AcDbEntity
  8
ZUWAKU
100
AcDbLine
 10
32.64221254812241
 20
17.12499965533641
 30
0.0
 11
32.64221254812241
 21
22.72499965533641
 31
0.0
  0
LINE
  5
B41
330
1A
100
AcDbEntity
  8
ZUWAKU
100
AcDbLine
 10
29.84221254812235
 20
22.72499965533641
 30
0.0
 11
29.84221254812235
 21
7.674999655336414
 31
0.0
  0
LINE
  5
B42
330
1A
100
AcDbEntity
  8
ZUWAKU
100
AcDbLine
 10
35.67634748543821
 20
22.88309362350338
 30
0.0
 11
33.80807761080643
 21
16.96690568716944
 31
0.0
  0
LINE
  5
B43
330
1A
100
AcDbEntity
  8
ZUWAKU
100
AcDbLine
 10
60.29221254812239
 20
9.949999655336412
 30
0.0
 11
58.89221254812241
 21
9.949999655336412
 31
0.0
  0
LINE
  5
B44
330
1A
100
AcDbEntity
  8
ZUWAKU
100
AcDbLine
 10
57.84221254812234
 20
7.149999655336415
 30
0.0
 11
61.34221254812235
 21
7.149999655336415
 31
0.0
  0
LINE
  5
B45
330
1A
100
AcDbEntity
  8
ZUWAKU
100
AcDbLine
 10
41.21721254812235
 20
7.149999655336415
 30
0.0
 11
42.96721254812235
 21
7.149999655336415
 31
0.0
  0
LINE
  5
B46
330
1A
100
AcDbEntity
  8
ZUWAKU
100
AcDbLine
 10
35.67634748543821
 20
7.51690568716944
 30
0.0
 11
33.80807761080643
 21
13.43309362350338
 31
0.0
  0
ARC
  5
B47
330
1A
100
AcDbEntity
  8
ZUWAKU
100
AcDbCircle
 10
33.30744671161108
 20
17.12499965533641
 30
0.0
 40
0.525
100
AcDbArc
 50
270.0
 51
342.4744316262769
  0
LINE
  5
B48
330
1A
100
AcDbEntity
  8
ZUWAKU
100
AcDbLine
 10
33.30744671161108
 20
16.59999965533641
 30
0.0
 11
33.16721254812239
 21
16.59999965533641
 31
0.0
  0
LINE
  5
B49
330
1A
100
AcDbEntity
  8
ZUWAKU
100
AcDbLine
 10
33.16721254812239
 20
13.79999965533641
 30
0.0
 11
33.30744671161108
 21
13.79999965533641
 31
0.0
  0
ARC
  5
B4A
330
1A
100
AcDbEntity
  8
ZUWAKU
100
AcDbCircle
 10
33.16721254812239
 20
17.12499965533641
 30
0.0
 40
0.525
100
AcDbArc
 50
180.0
 51
270.0
  0
LINE
  5
B4B
330
1A
100
AcDbEntity
  8
ZUWAKU
100
AcDbLine
 10
30.36721254812232
 20
7.149999655336415
 30
0.0
 11
32.11721254812232
 21
7.149999655336415
 31
0.0
  0
ARC
  5
B4C
330
1A
100
AcDbEntity
  8
ZUWAKU
100
AcDbCircle
 10
32.11721254812232
 20
7.674999655336414
 30
0.0
 40
0.525
100
AcDbArc
 50
270.0
 51
0.0
  0
LINE
  5
B4D
330
1A
100
AcDbEntity
  8
ZUWAKU
100
AcDbLine
 10
32.64221254812241
 20
7.674999655336414
 30
0.0
 11
32.64221254812241
 21
13.27499965533641
 31
0.0
  0
LINE
  5
B4E
330
1A
100
AcDbEntity
  8
ZUWAKU
100
AcDbLine
 10
27.39221254812241
 20
9.424999655336414
 30
0.0
 11
27.39221254812241
 21
7.674999655336414
 31
0.0
  0
ARC
  5
B4F
330
1A
100
AcDbEntity
  8
ZUWAKU
100
AcDbCircle
 10
26.86721254812232
 20
7.674999655336414
 30
0.0
 40
0.525
100
AcDbArc
 50
270.0
 51
0.0
  0
ARC
  5
B50
330
1A
100
AcDbEntity
  8
ZUWAKU
100
AcDbCircle
 10
26.86721254812232
 20
9.424999655336414
 30
0.0
 40
0.525
100
AcDbArc
 50
0.0
 51
90.0
  0
ARC
  5
B51
330
1A
100
AcDbEntity
  8
ZUWAKU
100
AcDbCircle
 10
30.36721254812232
 20
7.674999655336414
 30
0.0
 40
0.525
100
AcDbArc
 50
180.0
 51
270.0
  0
ARC
  5
B52
330
1A
100
AcDbEntity
  8
ZUWAKU
100
AcDbCircle
 10
33.30744671161108
 20
13.27499965533641
 30
0.0
 40
0.525
100
AcDbArc
 50
17.52556837372303
 51
90.0
  0
ARC
  5
B53
330
1A
100
AcDbEntity
  8
ZUWAKU
100
AcDbCircle
 10
33.16721254812239
 20
13.27499965533641
 30
0.0
 40
0.525
100
AcDbArc
 50
90.0
 51
180.0
  0
ARC
  5
B54
330
1A
100
AcDbEntity
  8
ZUWAKU
100
AcDbCircle
 10
41.21721254812235
 20
7.674999655336414
 30
0.0
 40
0.525
100
AcDbArc
 50
180.0
 51
270.0
  0
LINE
  5
B55
330
1A
100
AcDbEntity
  8
ZUWAKU
100
AcDbLine
 10
36.17697838463368
 20
7.149999655336415
 30
0.0
 11
37.87586776424268
 21
7.149999655336415
 31
0.0
  0
ARC
  5
B56
330
1A
100
AcDbEntity
  8
ZUWAKU
100
AcDbCircle
 10
37.87586776424268
 20
7.674999655336414
 30
0.0
 40
0.525
100
AcDbArc
 50
270.0
 51
17.52556837372303
  0
LINE
  5
B57
330
1A
100
AcDbEntity
  8
ZUWAKU
100
AcDbLine
 10
38.37649866343815
 20
7.833093623503387
 30
0.0
 11
36.05010728496449
 21
15.19999965533643
 31
0.0
  0
ARC
  5
B58
330
1A
100
AcDbEntity
  8
ZUWAKU
100
AcDbCircle
 10
36.17697838463368
 20
7.674999655336414
 30
0.0
 40
0.525
100
AcDbArc
 50
197.525568373723
 51
270.0
  0
ARC
  5
B59
330
1A
100
AcDbEntity
  8
ZUWAKU
100
AcDbCircle
 10
57.84221254812234
 20
9.949999655336412
 30
0.0
 40
2.799999999999999
100
AcDbArc
 50
180.0
 51
270.0
  0
ARC
  5
B5A
330
1A
100
AcDbEntity
  8
ZUWAKU
100
AcDbCircle
 10
50.14221254812241
 20
9.949999655336412
 30
0.0
 40
2.799999999999999
100
AcDbArc
 50
270.0
 51
0.0
  0
LINE
  5
B5B
330
1A
100
AcDbEntity
  8
ZUWAKU
100
AcDbLine
 10
51.71206102910594
 20
14.73505016167524
 30
0.0
 11
48.80226305446115
 21
17.64484813631991
 31
0.0
  0
LINE
  5
B5C
330
1A
100
AcDbEntity
  8
ZUWAKU
100
AcDbLine
 10
50.14221254812241
 20
10.47499965533641
 30
0.0
 11
50.14221254812241
 21
11.76520168069176
 31
0.0
  0
ARC
  5
B5D
330
1A
100
AcDbEntity
  8
ZUWAKU
100
AcDbCircle
 10
48.74221254812233
 20
11.76520168069176
 30
0.0
 40
1.399999999999999
100
AcDbArc
 50
0.0
 51
45.0
  0
ARC
  5
B5E
330
1A
100
AcDbEntity
  8
ZUWAKU
100
AcDbCircle
 10
49.61721254812232
 20
10.47499965533641
 30
0.0
 40
0.525
100
AcDbArc
 50
270.0
 51
0.0
  0
LINE
  5
B5F
330
1A
100
AcDbEntity
  8
ZUWAKU
100
AcDbLine
 10
46.11721254812232
 20
7.674999655336414
 30
0.0
 11
46.11721254812232
 21
9.424999655336414
 31
0.0
  0
ARC
  5
B60
330
1A
100
AcDbEntity
  8
ZUWAKU
100
AcDbCircle
 10
46.64221254812241
 20
7.674999655336414
 30
0.0
 40
0.525
100
AcDbArc
 50
180.0
 51
270.0
  0
ARC
  5
B61
330
1A
100
AcDbEntity
  8
ZUWAKU
100
AcDbCircle
 10
42.96721254812235
 20
7.674999655336414
 30
0.0
 40
0.525
100
AcDbArc
 50
270.0
 51
0.0
  0
ARC
  5
B62
330
1A
100
AcDbEntity
  8
ZUWAKU
100
AcDbCircle
 10
46.64221254812241
 20
9.424999655336414
 30
0.0
 40
0.525
100
AcDbArc
 50
90.0
 51
180.0
  0
LINE
  5
B63
330
1A
100
AcDbEntity
  8
ZUWAKU
100
AcDbLine
 10
46.64221254812241
 20
9.949999655336412
 30
0.0
 11
49.61721254812232
 21
9.949999655336412
 31
0.0
  0
LINE
  5
B64
330
1A
100
AcDbEntity
  8
ZUWAKU
100
AcDbLine
 10
46.64221254812241
 20
7.149999655336415
 30
0.0
 11
50.14221254812241
 21
7.149999655336415
 31
0.0
  0
LINE
  5
B65
330
1A
100
AcDbEntity
  8
ZUWAKU
100
AcDbLine
 10
46.82236406713889
 20
15.66494914899759
 30
0.0
 11
49.73216204178356
 21
12.75515117435293
 31
0.0
  0
LINE
  5
B66
330
1A
100
AcDbEntity
  8
ZUWAKU
100
AcDbLine
 10
52.94221254812237
 20
9.949999655336412
 30
0.0
 11
52.94221254812237
 21
11.76520168069176
 31
0.0
  0
ARC
  5
B67
330
1A
100
AcDbEntity
  8
ZUWAKU
100
AcDbCircle
 10
48.74221254812233
 20
11.76520168069171
 30
0.0
 40
4.199999999999999
100
AcDbArc
 50
0.0
 51
45.0
  0
ARC
  5
B68
330
1A
100
AcDbEntity
  8
ZUWAKU
100
AcDbCircle
 10
58.89221254812241
 20
10.9999996553364
 30
0.0
 40
1.049999999999999
100
AcDbArc
 50
180.0
 51
270.0
  0
ARC
  5
B69
330
1A
100
AcDbEntity
  8
ZUWAKU
100
AcDbCircle
 10
61.34221254812235
 20
9.949999655336412
 30
0.0
 40
2.799999999999999
100
AcDbArc
 50
270.0
 51
0.0
  0
LINE
  5
B6A
330
1A
100
AcDbEntity
  8
ZUWAKU
100
AcDbLine
 10
66.76721254812242
 20
7.149999655336415
 30
0.0
 11
68.51721254812241
 21
7.149999655336415
 31
0.0
  0
ARC
  5
B6B
330
1A
100
AcDbEntity
  8
ZUWAKU
100
AcDbCircle
 10
66.76721254812242
 20
7.674999655336414
 30
0.0
 40
0.525
100
AcDbArc
 50
180.0
 51
270.0
  0
ARC
  5
B6C
330
1A
100
AcDbEntity
  8
ZUWAKU
100
AcDbCircle
 10
60.29221254812239
 20
10.9999996553364
 30
0.0
 40
1.049999999999999
100
AcDbArc
 50
270.0
 51
0.0
  0
ARC
  5
B6D
330
1A
100
AcDbEntity
  8
ZUWAKU
100
AcDbCircle
 10
68.51721254812241
 20
7.674999655336414
 30
0.0
 40
0.525
100
AcDbArc
 50
270.0
 51
0.0
  0
LINE
  5
B6E
330
1A
100
AcDbEntity
  8
ZUWAKU
100
AcDbLine
 10
42.96721254812235
 20
23.24999965533641
 30
0.0
 11
41.21721254812235
 21
23.24999965533641
 31
0.0
  0
ARC
  5
B6F
330
1A
100
AcDbEntity
  8
ZUWAKU
100
AcDbCircle
 10
32.11721254812232
 20
22.72499965533641
 30
0.0
 40
0.525
100
AcDbArc
 50
0.0
 51
90.0
  0
LINE
  5
B70
330
1A
100
AcDbEntity
  8
ZUWAKU
100
AcDbLine
 10
32.11721254812232
 20
23.24999965533641
 30
0.0
 11
30.36721254812232
 21
23.24999965533641
 31
0.0
  0
ARC
  5
B71
330
1A
100
AcDbEntity
  8
ZUWAKU
100
AcDbCircle
 10
26.86721254812232
 20
22.72499965533641
 30
0.0
 40
0.525
100
AcDbArc
 50
0.0
 51
90.0
  0
ARC
  5
B72
330
1A
100
AcDbEntity
  8
ZUWAKU
100
AcDbCircle
 10
30.36721254812232
 20
22.72499965533641
 30
0.0
 40
0.525
100
AcDbArc
 50
90.0
 51
180.0
  0
ARC
  5
B73
330
1A
100
AcDbEntity
  8
ZUWAKU
100
AcDbCircle
 10
26.86721254812232
 20
20.97499965533641
 30
0.0
 40
0.525
100
AcDbArc
 50
270.0
 51
0.0
  0
LINE
  5
B74
330
1A
100
AcDbEntity
  8
ZUWAKU
100
AcDbLine
 10
27.39221254812241
 20
22.72499965533641
 30
0.0
 11
27.39221254812241
 21
20.97499965533641
 31
0.0
  0
ARC
  5
B75
330
1A
100
AcDbEntity
  8
ZUWAKU
100
AcDbCircle
 10
41.21721254812235
 20
22.72499965533641
 30
0.0
 40
0.525
100
AcDbArc
 50
90.0
 51
180.0
  0
LINE
  5
B76
330
1A
100
AcDbEntity
  8
ZUWAKU
100
AcDbLine
 10
36.17697838463368
 20
23.24999965533641
 30
0.0
 11
37.87586776424268
 21
23.24999965533641
 31
0.0
  0
ARC
  5
B77
330
1A
100
AcDbEntity
  8
ZUWAKU
100
AcDbCircle
 10
37.87586776424268
 20
22.72499965533641
 30
0.0
 40
0.525
100
AcDbArc
 50
342.4744316262769
 51
90.0
  0
LINE
  5
B78
330
1A
100
AcDbEntity
  8
ZUWAKU
100
AcDbLine
 10
38.37649866343815
 20
22.56690568716944
 30
0.0
 11
37.31485903030034
 21
19.20504684889984
 31
0.0
  0
ARC
  5
B79
330
1A
100
AcDbEntity
  8
ZUWAKU
100
AcDbCircle
 10
36.17697838463368
 20
22.72499965533641
 30
0.0
 40
0.525
100
AcDbArc
 50
90.0
 51
162.4744316262769
  0
LINE
  5
B7A
330
1A
100
AcDbEntity
  8
ZUWAKU
100
AcDbLine
 10
48.39221254812241
 20
23.24999965533641
 30
0.0
 11
51.89221254812242
 21
23.24999965533641
 31
0.0
  0
LINE
  5
B7B
330
1A
100
AcDbEntity
  8
ZUWAKU
100
AcDbLine
 10
51.89221254812242
 20
20.44999965533641
 30
0.0
 11
48.91721254812239
 21
20.44999965533641
 31
0.0
  0
ARC
  5
B7C
330
1A
100
AcDbEntity
  8
ZUWAKU
100
AcDbCircle
 10
48.91721254812239
 20
19.92499965533641
 30
0.0
 40
0.525
100
AcDbArc
 50
90.0
 51
180.0
  0
LINE
  5
B7D
330
1A
100
AcDbEntity
  8
ZUWAKU
100
AcDbLine
 10
48.39221254812241
 20
19.92499965533641
 30
0.0
 11
48.39221254812241
 21
18.63479762998107
 31
0.0
  0
ARC
  5
B7E
330
1A
100
AcDbEntity
  8
ZUWAKU
100
AcDbCircle
 10
42.96721254812235
 20
22.72499965533641
 30
0.0
 40
0.525
100
AcDbArc
 50
0.0
 51
90.0
  0
LINE
  5
B7F
330
1A
100
AcDbEntity
  8
ZUWAKU
100
AcDbLine
 10
45.59221254812235
 20
20.44999965533641
 30
0.0
 11
45.59221254812235
 21
18.63479762998107
 31
0.0
  0
ARC
  5
B80
330
1A
100
AcDbEntity
  8
ZUWAKU
100
AcDbCircle
 10
48.39221254812241
 20
20.44999965533641
 30
0.0
 40
2.799999999999999
100
AcDbArc
 50
90.0
 51
180.0
  0
ARC
  5
B81
330
1A
100
AcDbEntity
  8
ZUWAKU
100
AcDbCircle
 10
57.31721254812237
 20
22.72499965533641
 30
0.0
 40
0.525
100
AcDbArc
 50
0.0
 51
90.0
  0
ARC
  5
B82
330
1A
100
AcDbEntity
  8
ZUWAKU
100
AcDbCircle
 10
55.56721254812237
 20
22.72499965533641
 30
0.0
 40
0.525
100
AcDbArc
 50
90.0
 51
180.0
  0
LINE
  5
B83
330
1A
100
AcDbEntity
  8
ZUWAKU
100
AcDbLine
 10
57.31721254812237
 20
23.24999965533641
 30
0.0
 11
55.56721254812237
 21
23.24999965533641
 31
0.0
  0
ARC
  5
B84
330
1A
100
AcDbEntity
  8
ZUWAKU
100
AcDbCircle
 10
51.89221254812242
 20
22.72499965533641
 30
0.0
 40
0.525
100
AcDbArc
 50
0.0
 51
90.0
  0
ARC
  5
B85
330
1A
100
AcDbEntity
  8
ZUWAKU
100
AcDbCircle
 10
51.89221254812242
 20
20.97499965533641
 30
0.0
 40
0.525
100
AcDbArc
 50
270.0
 51
0.0
  0
LINE
  5
B86
330
1A
100
AcDbEntity
  8
ZUWAKU
100
AcDbLine
 10
52.41721254812239
 20
22.72499965533641
 30
0.0
 11
52.41721254812239
 21
20.97499965533641
 31
0.0
  0
LINE
  5
B87
330
1A
100
AcDbEntity
  8
ZUWAKU
100
AcDbLine
 10
68.51721254812241
 20
23.24999965533641
 30
0.0
 11
66.76721254812242
 21
23.24999965533641
 31
0.0
  0
ARC
  5
B88
330
1A
100
AcDbEntity
  8
ZUWAKU
100
AcDbCircle
 10
66.76721254812242
 20
22.72499965533641
 30
0.0
 40
0.525
100
AcDbArc
 50
90.0
 51
180.0
  0
ARC
  5
B89
330
1A
100
AcDbEntity
  8
ZUWAKU
100
AcDbCircle
 10
63.61721254812232
 20
22.72499965533641
 30
0.0
 40
0.525
100
AcDbArc
 50
0.0
 51
90.0
  0
LINE
  5
B8A
330
1A
100
AcDbEntity
  8
ZUWAKU
100
AcDbLine
 10
63.61721254812232
 20
23.24999965533641
 30
0.0
 11
61.86721254812233
 21
23.24999965533641
 31
0.0
  0
ARC
  5
B8B
330
1A
100
AcDbEntity
  8
ZUWAKU
100
AcDbCircle
 10
61.86721254812233
 20
22.72499965533641
 30
0.0
 40
0.525
100
AcDbArc
 50
90.0
 51
180.0
  0
ARC
  5
B8C
330
1A
100
AcDbEntity
  8
ZUWAKU
100
AcDbCircle
 10
68.51721254812241
 20
22.72499965533641
 30
0.0
 40
0.525
100
AcDbArc
 50
0.0
 51
90.0
  0
TEXT
  5
B8D
330
1A
100
AcDbEntity
  8
MOJI
100
AcDbText
 10
239.8272030741923
 20
3.204920712743831
 30
0.0
 40
5.599999999999999
  1
Ｈ１２０
 41
0.9
  7
ｽﾀｲﾙ1
100
AcDbText
  0
TEXT
  5
B8E
330
1A
100
AcDbEntity
  8
MOJI
100
AcDbText
 10
239.8272030741923
 20
18.00492071274379
 30
0.0
 40
5.599999999999999
  1
ジョイント
 41
0.9
  7
ｽﾀｲﾙ1
100
AcDbText
  0
LINE
  5
B8F
330
1A
100
AcDbEntity
  8
ZUWAKU
100
AcDbLine
 10
208.2466016834091
 20
29.99999965533641
 30
0.0
 11
208.2466016834091
 21
0.7999996553364781
 31
0.0
  0
LINE
  5
B90
330
1A
100
AcDbEntity
  8
ZUWAKU
100
AcDbLine
 10
208.646601683409
 20
29.99999965533641
 30
0.0
 11
208.6466016834092
 21
0.7999996553364781
 31
0.0
  0
LINE
  5
B91
330
1A
100
AcDbEntity
  8
ZUWAKU
100
AcDbLine
 10
208.4466016834089
 20
29.99999965533641
 30
0.0
 11
208.4466016834091
 21
0.7999996553364781
 31
0.0
  0
TEXT
  5
B92
330
1A
100
AcDbEntity
  8
ZUWAKU
100
AcDbText
 10
209.7240467056187
 20
9.655356193722028
 30
0.0
 40
4.0
  1
サイズ
 41
0.9
  7
ｽﾀｲﾙ1
100
AcDbText
  0
TEXT
  5
B93
330
1A
100
AcDbEntity
  8
ZUWAKU
100
AcDbText
 10
209.7240467056185
 20
24.05535619372199
 30
0.0
 40
4.0
  1
品名
 41
0.9
  7
ｽﾀｲﾙ1
100
AcDbText
  0
LINE
  5
B94
330
1A
100
AcDbEntity
  8
ZUWAKU
100
AcDbLine
 10
648.8172029035454
 20
15.19999965533644
 30
0.0
 11
697.2490109418824
 21
15.19999965533644
 31
0.0
  0
LINE
  5
B95
330
1A
100
AcDbEntity
  8
ZUWAKU
100
AcDbLine
 10
648.8172029035456
 20
15.39999965533644
 30
0.0
 11
697.2490109418824
 21
15.39999965533644
 31
0.0
  0
LINE
  5
B96
330
1A
100
AcDbEntity
  8
ZUWAKU
100
AcDbLine
 10
648.8172029035454
 20
15.59999965533644
 30
0.0
 11
697.2490109418824
 21
15.59999965533644
 31
0.0
  0
TEXT
  5
B97
330
1A
100
AcDbEntity
  8
ZUWAKU
100
AcDbText
 10
658.2039380806436
 20
18.00492071274379
 30
0.0
 40
5.599999999999999
  1
　　．　　．　　
 41
0.9
  7
ｽﾀｲﾙ1
100
AcDbText
  0
LINE
  5
B98
330
1A
100
AcDbEntity
  8
ZUWAKU
100
AcDbLine
 10
505.1991798914821
 20
15.19999965533644
 30
0.0
 11
552.5269561594536
 21
15.19999965533644
 31
0.0
  0
LINE
  5
B99
330
1A
100
AcDbEntity
  8
ZUWAKU
100
AcDbLine
 10
505.1991798914821
 20
15.39999965533644
 30
0.0
 11
552.5269561594536
 21
15.39999965533644
 31
0.0
  0
LINE
  5
B9A
330
1A
100
AcDbEntity
  8
ZUWAKU
100
AcDbLine
 10
505.1991798914821
 20
15.59999965533644
 30
0.0
 11
552.5269561594536
 21
15.59999965533644
 31
0.0
  0
TEXT
  5
B9B
330
1A
100
AcDbEntity
  8
MOJI
100
AcDbText
 10
461.9053485310187
 20
12.90262425960963
 30
0.0
 40
5.599999999999999
  1
ＰＥ３０□
 41
0.9
  7
ｽﾀｲﾙ1
100
AcDbText
  0
LINE
  5
B9C
330
1A
100
AcDbEntity
  8
ZUWAKU
100
AcDbLine
 10
447.6243643643324
 20
29.99999965533641
 30
0.0
 11
447.6243643643327
 21
0.7999996553364781
 31
0.0
  0
LINE
  5
B9D
330
1A
100
AcDbEntity
  8
ZUWAKU
100
AcDbLine
 10
447.8243643643325
 20
29.99999965533641
 30
0.0
 11
447.8243643643327
 21
0.7999996553364781
 31
0.0
  0
LINE
  5
B9E
330
1A
100
AcDbEntity
  8
ZUWAKU
100
AcDbLine
 10
447.4243643643326
 20
29.99999965533641
 30
0.0
 11
447.4243643643326
 21
0.7999996553364781
 31
0.0
  0
TEXT
  5
B9F
330
1A
100
AcDbEntity
  8
MOJI
100
AcDbText
 10
528.040908365654
 20
18.00492071274379
 30
0.0
 40
5.599999999999999
  1
Ａ３
 41
0.9
  7
ｽﾀｲﾙ1
100
AcDbText
  0
LINE
  5
BA0
330
1A
100
AcDbEntity
  8
ZUWAKU
100
AcDbLine
 10
504.999179891482
 20
29.99999965533641
 30
0.0
 11
504.9991798914823
 21
0.7999996553364781
 31
0.0
  0
LINE
  5
BA1
330
1A
100
AcDbEntity
  8
ZUWAKU
100
AcDbLine
 10
505.1991798914821
 20
29.99999965533641
 30
0.0
 11
505.1991798914823
 21
0.7999996553364781
 31
0.0
  0
LINE
  5
BA2
330
1A
100
AcDbEntity
  8
ZUWAKU
100
AcDbLine
 10
504.7991798914822
 20
29.99999965533641
 30
0.0
 11
504.7991798914822
 21
0.7999996553364781
 31
0.0
  0
TEXT
  5
BA3
330
1A
100
AcDbEntity
  8
ZUWAKU
100
AcDbText
 10
462.6937620488483
 20
2.614070566475902
 30
0.0
 40
3.0
  1
□には色品番が入ります
 41
0.9
  7
ｽﾀｲﾙ1
100
AcDbText
  0
TEXT
  5
BA4
330
1A
100
AcDbEntity
  8
ZUWAKU
100
AcDbText
 10
506.6766249136919
 20
9.655356193722028
 30
0.0
 40
4.0
  1
縮尺
 41
0.9
  7
ｽﾀｲﾙ1
100
AcDbText
  0
TEXT
  5
BA5
330
1A
100
AcDbEntity
  8
MOJI
100
AcDbText
 10
528.040908365654
 20
3.204920712743831
 30
0.0
 40
5.599999999999999
  1
１/２
 41
0.9
  7
ｽﾀｲﾙ1
100
AcDbText
  0
TEXT
  5
BA6
330
1A
100
AcDbEntity
  8
ZUWAKU
100
AcDbText
 10
449.3018093865421
 20
24.05535619372199
 30
0.0
 40
4.0
  1
品番
 41
0.9
  7
ｽﾀｲﾙ1
100
AcDbText
  0
TEXT
  5
BA7
330
1A
100
AcDbEntity
  8
ZUWAKU
100
AcDbText
 10
506.6766249136917
 20
24.05535619372199
 30
0.0
 40
4.0
  1
用紙
 41
0.9
  7
ｽﾀｲﾙ1
100
AcDbText
  0
LINE
  5
BA8
330
1A
100
AcDbEntity
  8
ZUWAKU
100
AcDbLine
 10
648.6172029035456
 20
29.99999965533641
 30
0.0
 11
648.6172029035458
 21
0.7999996553364781
 31
0.0
  0
LINE
  5
BA9
330
1A
100
AcDbEntity
  8
ZUWAKU
100
AcDbLine
 10
648.8172029035456
 20
29.99999965533641
 30
0.0
 11
648.8172029035458
 21
0.7999996553364781
 31
0.0
  0
LINE
  5
BAA
330
1A
100
AcDbEntity
  8
ZUWAKU
100
AcDbLine
 10
648.4172029035457
 20
29.99999965533641
 30
0.0
 11
648.4172029035457
 21
0.7999996553364781
 31
0.0
  0
LINE
  5
BAB
330
1A
100
AcDbEntity
  8
ZUWAKU
100
AcDbLine
 10
552.7269561594534
 20
29.99999965533641
 30
0.0
 11
552.7269561594537
 21
0.7999996553364781
 31
0.0
  0
LINE
  5
BAC
330
1A
100
AcDbEntity
  8
ZUWAKU
100
AcDbLine
 10
552.9269561594535
 20
29.99999965533641
 30
0.0
 11
552.9269561594538
 21
0.7999996553364781
 31
0.0
  0
LINE
  5
BAD
330
1A
100
AcDbEntity
  8
ZUWAKU
100
AcDbLine
 10
552.5269561594536
 20
29.99999965533641
 30
0.0
 11
552.5269561594536
 21
0.7999996553364781
 31
0.0
  0
TEXT
  5
BAE
330
1A
100
AcDbEntity
  8
ZUWAKU
100
AcDbText
 10
650.2946479257552
 20
24.05535619372199
 30
0.0
 40
4.0
  1
DATE
 41
0.9
  7
ｽﾀｲﾙ1
100
AcDbText
  0
LINE
  5
BAF
330
1A
100
AcDbEntity
  8
ZUWAKU
100
AcDbLine
 10
697.2490109418824
 20
29.99999965533641
 30
0.0
 11
697.2490109418824
 21
0.7999996553364781
 31
0.0
  0
LINE
  5
BB0
330
1A
100
AcDbEntity
  8
ZUWAKU
100
AcDbLine
 10
697.4490109418825
 20
29.99999965533641
 30
0.0
 11
697.4490109418825
 21
0.7999996553364781
 31
0.0
  0
LINE
  5
BB1
330
1A
100
AcDbEntity
  8
ZUWAKU
100
AcDbLine
 10
697.6490109418823
 20
29.99999965533641
 30
0.0
 11
697.6490109418826
 21
0.7999996553364781
 31
0.0
  0
LINE
  5
BB2
330
1A
100
AcDbEntity
  8
ZUWAKU
100
AcDbLine
 10
697.8490109418824
 20
29.99999965533641
 30
0.0
 11
697.8490109418826
 21
0.7999996553364781
 31
0.0
  0
TEXT
  5
BB3
330
1A
100
AcDbEntity
  8
ZUWAKU
100
AcDbText
 10
708.528084585585
 20
17.55383899102321
 30
0.0
 40
6.0
  1
積水化学工業株式会社
 41
0.9
  7
ｽﾀｲﾙ1
100
AcDbText
  0
TEXT
  5
BB4
330
1A
100
AcDbEntity
  8
ZUWAKU
100
AcDbText
 10
708.528084585585
 20
6.648839969190476
 30
0.0
 40
6.0
  1
建材事業部
 41
0.9
  7
ｽﾀｲﾙ1
100
AcDbText
  0
VIEWPORT
  5
22
330
17
100
AcDbEntity
 67
     1
  8
0
100
AcDbViewport
 10
313.6808219178082
 20
148.5
 30
0.0
 40
627.3616438356165
 41
297.0
 68
     2
 69
     1
1001
ACAD
1000
MVIEW
1002
{
1070
    16
1010
0.0
1020
0.0
1030
0.0
1010
0.0
1020
0.0
1030
1.0
1040
0.0
1040
297.0
1040
313.6808219178082
1040
148.5
1040
50.0
1040
0.0
1040
0.0
1070
     0
1070
   100
1070
     1
1070
     0
1070
     0
1070
     0
1070
     0
1070
     0
1040
0.0
1040
0.0
1040
0.0
1040
1.0
1040
1.0
1040
10.0
1040
10.0
1070
     0
1002
{
1002
}
1002
}
  0
VIEWPORT
  5
64
330
17
100
AcDbEntity
 67
     1
  8
VIEWPORT
100
AcDbViewport
 10
210.0
 20
148.5
 30
0.0
 40
420.0
 41
297.0
 68
     1
 69
     2
1001
ACAD
1000
MVIEW
1002
{
1070
    16
1010
0.0
1020
0.0
1030
0.0
1010
0.0
1020
0.0
1030
1.0
1040
0.0
1040
605.8799999999998
1040
420.0
1040
297.0
1040
50.0
1040
0.0
1040
0.0
1070
     0
1070
   100
1070
     1
1070
     0
1070
     0
1070
     0
1070
     0
1070
     0
1040
0.0
1040
0.0
1040
0.0
1040
10.0
1040
10.0
1040
0.0
1040
0.0
1070
     0
1002
{
1002
}
1002
}
  0
ENDSEC
  0
SECTION
  2
OBJECTS
  0
DICTIONARY
  5
C
330
0
100
AcDbDictionary
  3
ACAD_GROUP
350
D
  3
ACAD_LAYOUT
350
8CD
  3
ACAD_MLINESTYLE
350
E
  3
ACAD_PLOTSETTINGS
350
8CE
  3
ACAD_PLOTSTYLENAME
350
8CB
  3
ACDBHEADERROUNDTRIPXREC
350
BCB
  0
DICTIONARY
  5
9DE
330
1A
100
AcDbDictionary
280
     1
  3
ACAD_LAYOUTSELFREF
360
BED
  0
DICTIONARY
  5
9DC
330
17
100
AcDbDictionary
280
     1
  3
ACAD_LAYOUTSELFREF
360
BEC
  0
DICTIONARY
  5
D
102
{ACAD_REACTORS
330
C
102
}
330
C
100
AcDbDictionary
  0
DICTIONARY
  5
8CD
102
{ACAD_REACTORS
330
C
102
}
330
C
100
AcDbDictionary
  0
DICTIONARY
  5
E
102
{ACAD_REACTORS
330
C
102
}
330
C
100
AcDbDictionary
  3
STANDARD
350
13
  0
DICTIONARY
  5
8CE
102
{ACAD_REACTORS
330
C
102
}
330
C
100
AcDbDictionary
  0
ACDBDICTIONARYWDFLT
  5
8CB
102
{ACAD_REACTORS
330
C
102
}
330
C
100
AcDbDictionary
281
     1
  3
Normal
350
8CC
100
AcDbDictionaryWithDefault
340
8CC
1001
ACAD
1000
TREAT_AS_HARD
1070
     0
1000
TREAT_AS_HARD
1070
     0
  0
DICTIONARY
  5
BCB
102
{ACAD_REACTORS
330
C
102
}
330
C
100
AcDbDictionary
  3
TSTACKALIGN
350
BCC
  3
TSTACKSIZE
350
BCD
  3
HYPERLINKBASE
350
BCE
  3
STYLESHEET
350
BCF
  3
LAYOUTDICT
350
BD0
  3
PLOTSETDICT
350
BD1
  3
PLOTSTYLNAMDICT
350
BD2
  3
LWETCUNION
350
BD3
  3
INSUNITS
350
BD4
  3
CEPSNTYPE
350
BD5
  3
FINGERPRINTGUID
350
BD6
  3
VERSIONGUID
350
BD7
  3
PSVPSCALE
350
BD8
  3
DIMSTYLEDATA
350
BD9
  3
PUCSORTHOREF
350
BDA
  3
PUCSORTHOVIEW
350
BDB
  3
PUCSBASE
350
BDC
  3
PUCSORGTOP
350
BDD
  3
PUCSORGBOTTOM
350
BDE
  3
PUCSORGLEFT
350
BDF
  3
PUCSORGRIGHT
350
BE0
  3
PUCSORGFRONT
350
BE1
  3
PUCSORGBACK
350
BE2
  3
UCSORTHOREF
350
BE3
  3
UCSORTHOVIEW
350
BE4
  3
UCSBASE
350
BE5
  3
UCSORGTOP
350
BE6
  3
UCSORGBOTTOM
350
BE7
  3
UCSORGLEFT
350
BE8
  3
UCSORGRIGHT
350
BE9
  3
UCSORGFRONT
350
BEA
  3
UCSORGBACK
350
BEB
  0
XRECORD
  5
BED
102
{ACAD_REACTORS
330
9DE
102
}
330
9DE
100
AcDbXrecord
340
1A
  0
XRECORD
  5
BEC
102
{ACAD_REACTORS
330
9DC
102
}
330
9DC
100
AcDbXrecord
340
17
  0
MLINESTYLE
  5
13
102
{ACAD_REACTORS
330
E
102
}
330
E
100
AcDbMlineStyle
  2
STANDARD
 70
     0
  3

 62
     0
 51
90.0
 52
90.0
 71
     2
 49
0.5
 62
   256
  6
BYLAYER
 49
-0.5
 62
   256
  6
BYLAYER
  0
ACDBPLACEHOLDER
  5
8CC
102
{ACAD_REACTORS
330
8CB
102
}
330
8CB
100
AcDbPlaceHolder
280
     0
  0
XRECORD
  5
BCC
102
{ACAD_REACTORS
330
BCB
102
}
330
BCB
100
AcDbXrecord
 90
        1
  0
XRECORD
  5
BCD
102
{ACAD_REACTORS
330
BCB
102
}
330
BCB
100
AcDbXrecord
 90
       70
  0
XRECORD
  5
BCE
102
{ACAD_REACTORS
330
BCB
102
}
330
BCB
100
AcDbXrecord
  1

  0
XRECORD
  5
BCF
102
{ACAD_REACTORS
330
BCB
102
}
330
BCB
100
AcDbXrecord
  1
systemprinter.ctb
  0
XRECORD
  5
BD0
102
{ACAD_REACTORS
330
BCB
102
}
330
BCB
100
AcDbXrecord
340
8CD
  0
XRECORD
  5
BD1
102
{ACAD_REACTORS
330
BCB
102
}
330
BCB
100
AcDbXrecord
340
8CE
  0
XRECORD
  5
BD2
102
{ACAD_REACTORS
330
BCB
102
}
330
BCB
100
AcDbXrecord
340
8CB
  0
XRECORD
  5
BD3
102
{ACAD_REACTORS
330
BCB
102
}
330
BCB
100
AcDbXrecord
 90
    10781
  0
XRECORD
  5
BD4
102
{ACAD_REACTORS
330
BCB
102
}
330
BCB
100
AcDbXrecord
 90
        0
  0
XRECORD
  5
BD5
102
{ACAD_REACTORS
330
BCB
102
}
330
BCB
100
AcDbXrecord
 90
        0
  0
XRECORD
  5
BD6
102
{ACAD_REACTORS
330
BCB
102
}
330
BCB
100
AcDbXrecord
  1
{B4B71FC0-A839-11D5-932D-0050DA99388B}
  0
XRECORD
  5
BD7
102
{ACAD_REACTORS
330
BCB
102
}
330
BCB
100
AcDbXrecord
  1
{C8D5ED9A-0AFC-4BAE-B719-C45C20193D39}
  0
XRECORD
  5
BD8
102
{ACAD_REACTORS
330
BCB
102
}
330
BCB
100
AcDbXrecord
 40
0.0
  0
XRECORD
  5
BD9
102
{ACAD_REACTORS
330
BCB
102
}
330
BCB
100
AcDbXrecord
1000
DSTYLE
1002
{
1070
   341
340
6D
1070
   343
340
6D
1070
   344
340
6D
1070
   371
 70
    -1
1070
   372
 70
    -1
1002
}
  0
XRECORD
  5
BDA
102
{ACAD_REACTORS
330
BCB
102
}
330
BCB
100
AcDbXrecord
340
0
  0
XRECORD
  5
BDB
102
{ACAD_REACTORS
330
BCB
102
}
330
BCB
100
AcDbXrecord
 70
     0
  0
XRECORD
  5
BDC
102
{ACAD_REACTORS
330
BCB
102
}
330
BCB
100
AcDbXrecord
340
0
  0
XRECORD
  5
BDD
102
{ACAD_REACTORS
330
BCB
102
}
330
BCB
100
AcDbXrecord
 10
0.0
 20
0.0
 30
0.0
  0
XRECORD
  5
BDE
102
{ACAD_REACTORS
330
BCB
102
}
330
BCB
100
AcDbXrecord
 10
0.0
 20
0.0
 30
0.0
  0
XRECORD
  5
BDF
102
{ACAD_REACTORS
330
BCB
102
}
330
BCB
100
AcDbXrecord
 10
0.0
 20
0.0
 30
0.0
  0
XRECORD
  5
BE0
102
{ACAD_REACTORS
330
BCB
102
}
330
BCB
100
AcDbXrecord
 10
0.0
 20
0.0
 30
0.0
  0
XRECORD
  5
BE1
102
{ACAD_REACTORS
330
BCB
102
}
330
BCB
100
AcDbXrecord
 10
0.0
 20
0.0
 30
0.0
  0
XRECORD
  5
BE2
102
{ACAD_REACTORS
330
BCB
102
}
330
BCB
100
AcDbXrecord
 10
0.0
 20
0.0
 30
0.0
  0
XRECORD
  5
BE3
102
{ACAD_REACTORS
330
BCB
102
}
330
BCB
100
AcDbXrecord
340
0
  0
XRECORD
  5
BE4
102
{ACAD_REACTORS
330
BCB
102
}
330
BCB
100
AcDbXrecord
 70
     0
  0
XRECORD
  5
BE5
102
{ACAD_REACTORS
330
BCB
102
}
330
BCB
100
AcDbXrecord
340
0
  0
XRECORD
  5
BE6
102
{ACAD_REACTORS
330
BCB
102
}
330
BCB
100
AcDbXrecord
 10
0.0
 20
0.0
 30
0.0
  0
XRECORD
  5
BE7
102
{ACAD_REACTORS
330
BCB
102
}
330
BCB
100
AcDbXrecord
 10
0.0
 20
0.0
 30
0.0
  0
XRECORD
  5
BE8
102
{ACAD_REACTORS
330
BCB
102
}
330
BCB
100
AcDbXrecord
 10
0.0
 20
0.0
 30
0.0
  0
XRECORD
  5
BE9
102
{ACAD_REACTORS
330
BCB
102
}
330
BCB
100
AcDbXrecord
 10
0.0
 20
0.0
 30
0.0
  0
XRECORD
  5
BEA
102
{ACAD_REACTORS
330
BCB
102
}
330
BCB
100
AcDbXrecord
 10
0.0
 20
0.0
 30
0.0
  0
XRECORD
  5
BEB
102
{ACAD_REACTORS
330
BCB
102
}
330
BCB
100
AcDbXrecord
 10
0.0
 20
0.0
 30
0.0
  0
ENDSEC
  0
EOF
