  0
SECTION
  2
HEADER
  9
$ACADVER
  1
AC1014
  9
$ACADMAINTVER
 70
     9
  9
$DWGCODEPAGE
  3
ANSI_932
  9
$INSBASE
 10
0.0
 20
0.0
 30
0.0
  9
$EXTMIN
 10
-0.0256200969065503
 20
-0.01811706852709
 30
-0.000000000000013
  9
$EXTMAX
 10
797.6609570034488
 20
551.6420035689462
 30
0.0000000000000023
  9
$LIMMIN
 10
0.0
 20
0.0
  9
$LIMMAX
 10
840.0
 20
594.0
  9
$ORTHOMODE
 70
     0
  9
$REGENMODE
 70
     1
  9
$FILLMODE
 70
     1
  9
$QTEXTMODE
 70
     0
  9
$MIRRTEXT
 70
     1
  9
$DRAGMODE
 70
     2
  9
$LTSCALE
 40
1.0
  9
$OSMODE
 70
    35
  9
$ATTMODE
 70
     1
  9
$TEXTSIZE
 40
5.0
  9
$TRACEWID
 40
1.0
  9
$TEXTSTYLE
  7
ｽﾀｲﾙ1
  9
$CLAYER
  8
SUNPOU
  9
$CELTYPE
  6
BYLAYER
  9
$CECOLOR
 62
   256
  9
$CELTSCALE
 40
1.0
  9
$DELOBJ
 70
     1
  9
$DISPSILH
 70
     0
  9
$DIMSCALE
 40
1.0
  9
$DIMASZ
 40
6.0
  9
$DIMEXO
 40
6.0
  9
$DIMDLI
 40
14.0
  9
$DIMRND
 40
0.0
  9
$DIMDLE
 40
0.0
  9
$DIMEXE
 40
3.0
  9
$DIMTP
 40
0.0
  9
$DIMTM
 40
0.0
  9
$DIMTXT
 40
6.0
  9
$DIMCEN
 40
10.0
  9
$DIMTSZ
 40
0.0
  9
$DIMTOL
 70
     0
  9
$DIMLIM
 70
     0
  9
$DIMTIH
 70
     0
  9
$DIMTOH
 70
     0
  9
$DIMSE1
 70
     0
  9
$DIMSE2
 70
     0
  9
$DIMTAD
 70
     3
  9
$DIMZIN
 70
     0
  9
$DIMBLK
  1

  9
$DIMASO
 70
     1
  9
$DIMSHO
 70
     1
  9
$DIMPOST
  1

  9
$DIMAPOST
  1

  9
$DIMALT
 70
     0
  9
$DIMALTD
 70
     2
  9
$DIMALTF
 40
25.4
  9
$DIMLFAC
 40
1.0
  9
$DIMTOFL
 70
     1
  9
$DIMTVP
 40
0.0
  9
$DIMTIX
 70
     0
  9
$DIMSOXD
 70
     0
  9
$DIMSAH
 70
     1
  9
$DIMBLK1
  1
OPEN
  9
$DIMBLK2
  1
OPEN
  9
$DIMSTYLE
  2
STANDARD
  9
$DIMCLRD
 70
   256
  9
$DIMCLRE
 70
   256
  9
$DIMCLRT
 70
   256
  9
$DIMTFAC
 40
1.0
  9
$DIMGAP
 40
2.0
  9
$DIMJUST
 70
     0
  9
$DIMSD1
 70
     0
  9
$DIMSD2
 70
     0
  9
$DIMTOLJ
 70
     1
  9
$DIMTZIN
 70
     0
  9
$DIMALTZ
 70
     0
  9
$DIMALTTZ
 70
     0
  9
$DIMFIT
 70
     3
  9
$DIMUPT
 70
     0
  9
$DIMUNIT
 70
     2
  9
$DIMDEC
 70
     0
  9
$DIMTDEC
 70
     0
  9
$DIMALTU
 70
     2
  9
$DIMALTTD
 70
     2
  9
$DIMTXSTY
  7
STANDARD
  9
$DIMAUNIT
 70
     0
  9
$LUNITS
 70
     2
  9
$LUPREC
 70
     4
  9
$SKETCHINC
 40
1.0
  9
$FILLETRAD
 40
2.0
  9
$AUNITS
 70
     0
  9
$AUPREC
 70
     0
  9
$MENU
  1
.
  9
$ELEVATION
 40
0.0
  9
$PELEVATION
 40
0.0
  9
$THICKNESS
 40
0.0
  9
$LIMCHECK
 70
     0
  9
$BLIPMODE
 70
     0
  9
$CHAMFERA
 40
20.0
  9
$CHAMFERB
 40
20.0
  9
$CHAMFERC
 40
40.0
  9
$CHAMFERD
 40
0.0
  9
$SKPOLY
 70
     0
  9
$TDCREATE
 40
2451806.684426273
  9
$TDUPDATE
 40
2453483.427818819
  9
$TDINDWG
 40
0.0477254398
  9
$TDUSRTIMER
 40
0.0477254398
  9
$USRTIMER
 70
     1
  9
$ANGBASE
 50
0.0
  9
$ANGDIR
 70
     0
  9
$PDMODE
 70
     0
  9
$PDSIZE
 40
0.0
  9
$PLINEWID
 40
0.0
  9
$COORDS
 70
     1
  9
$SPLFRAME
 70
     0
  9
$SPLINETYPE
 70
     6
  9
$SPLINESEGS
 70
     8
  9
$ATTDIA
 70
     0
  9
$ATTREQ
 70
     1
  9
$HANDLING
 70
 10241
  9
$HANDSEED
  5
2035
  9
$SURFTAB1
 70
     6
  9
$SURFTAB2
 70
     6
  9
$SURFTYPE
 70
     6
  9
$SURFU
 70
     6
  9
$SURFV
 70
     6
  9
$UCSNAME
  2

  9
$UCSORG
 10
0.0
 20
0.0
 30
0.0
  9
$UCSXDIR
 10
1.0
 20
0.0
 30
0.0
  9
$UCSYDIR
 10
0.0
 20
1.0
 30
0.0
  9
$PUCSNAME
  2

  9
$PUCSORG
 10
0.0
 20
0.0
 30
0.0
  9
$PUCSXDIR
 10
1.0
 20
0.0
 30
0.0
  9
$PUCSYDIR
 10
0.0
 20
1.0
 30
0.0
  9
$USERI1
 70
     0
  9
$USERI2
 70
     0
  9
$USERI3
 70
     0
  9
$USERI4
 70
     0
  9
$USERI5
 70
     0
  9
$USERR1
 40
0.0
  9
$USERR2
 40
0.0
  9
$USERR3
 40
0.0
  9
$USERR4
 40
0.0
  9
$USERR5
 40
0.0
  9
$WORLDVIEW
 70
     1
  9
$SHADEDGE
 70
     3
  9
$SHADEDIF
 70
    70
  9
$TILEMODE
 70
     1
  9
$MAXACTVP
 70
    16
  9
$PINSBASE
 10
0.0
 20
0.0
 30
0.0
  9
$PLIMCHECK
 70
     0
  9
$PEXTMIN
 10
0.0
 20
0.0
 30
0.0
  9
$PEXTMAX
 10
420.0
 20
297.0
 30
0.0
  9
$PLIMMIN
 10
0.0
 20
0.0
  9
$PLIMMAX
 10
420.0
 20
297.0
  9
$UNITMODE
 70
     0
  9
$VISRETAIN
 70
     0
  9
$PLINEGEN
 70
     0
  9
$PSLTSCALE
 70
     1
  9
$TREEDEPTH
 70
  3020
  9
$PICKSTYLE
 70
     1
  9
$CMLSTYLE
  2
STANDARD
  9
$CMLJUST
 70
     0
  9
$CMLSCALE
 40
1.0
  9
$PROXYGRAPHICS
 70
     1
  9
$MEASUREMENT
 70
     1
  0
ENDSEC
  0
SECTION
  2
CLASSES
  0
CLASS
  1
ACDBDICTIONARYWDFLT
  2
AcDbDictionaryWithDefault
  3
AutoCAD 2000
 90
        0
280
     0
281
     0
  0
CLASS
  1
ACDBPLACEHOLDER
  2
AcDbPlaceHolder
  3
AutoCAD 2000
 90
        0
280
     0
281
     0
  0
CLASS
  1
LAYOUT
  2
AcDbLayout
  3
AutoCAD 2000
 90
        0
280
     0
281
     0
  0
CLASS
  1
LONG_TRANSACTION
  2
AcDbLongTransaction
  3
AutoCAD 2000
 90
        0
280
     0
281
     0
  0
CLASS
  1
LWPOLYLINE
  2
AcDbPolyline
  3
AutoCAD 2000
 90
        0
280
     0
281
     1
  0
CLASS
  1
HATCH
  2
AcDbHatch
  3
AutoCAD 2000
 90
        0
280
     0
281
     1
  0
CLASS
  1
XRECORD
  2
AcDbXrecord
  3
AutoCAD 2000
 90
        0
280
     0
281
     0
  0
CLASS
  1
LONG_TRANSACTION
  2
AcDbLongTransaction
  3
AutoCAD 2000
 90
        0
280
     0
281
     0
  0
CLASS
  1
LWPOLYLINE
  2
AcDbPolyline
  3
AutoCAD 2000
 90
        0
280
     0
281
     1
  0
CLASS
  1
HATCH
  2
AcDbHatch
  3
AutoCAD 2000
 90
        0
280
     0
281
     1
  0
CLASS
  1
XRECORD
  2
AcDbXrecord
  3
AutoCAD 2000
 90
        0
280
     0
281
     0
  0
CLASS
  1
LONG_TRANSACTION
  2
AcDbLongTransaction
  3
AutoCAD 2000
 90
        0
280
     0
281
     0
  0
CLASS
  1
LWPOLYLINE
  2
AcDbPolyline
  3
AutoCAD 2000
 90
        0
280
     0
281
     1
  0
CLASS
  1
HATCH
  2
AcDbHatch
  3
AutoCAD 2000
 90
        0
280
     0
281
     1
  0
CLASS
  1
XRECORD
  2
AcDbXrecord
  3
AutoCAD 2000
 90
        0
280
     0
281
     0
  0
ENDSEC
  0
SECTION
  2
TABLES
  0
TABLE
  2
VPORT
  5
8
330
0
100
AcDbSymbolTable
 70
     2
  0
VPORT
  5
1FB7
330
8
100
AcDbSymbolTableRecord
100
AcDbViewportTableRecord
  2
*ACTIVE
 70
     0
 10
0.0
 20
0.0
 11
1.0
 21
1.0
 12
413.306724411286
 22
275.8834277803692
 13
0.0
 23
0.0
 14
5.0
 24
5.0
 15
0.0
 25
0.0
 16
0.0
 26
0.0
 36
1.0
 17
0.0
 27
0.0
 37
0.0
 40
600.6214600569152
 41
1.752310536044362
 42
50.0
 43
0.0
 44
0.0
 50
0.0
 51
0.0
 71
     0
 72
   100
 73
     1
 74
     0
 75
     0
 76
     0
 77
     0
 78
     0
  0
ENDTAB
  0
TABLE
  2
LTYPE
  5
5
330
0
100
AcDbSymbolTable
 70
     2
  0
LTYPE
  5
14
330
5
100
AcDbSymbolTableRecord
100
AcDbLinetypeTableRecord
  2
BYBLOCK
 70
     0
  3

 72
    65
 73
     0
 40
0.0
  0
LTYPE
  5
15
330
5
100
AcDbSymbolTableRecord
100
AcDbLinetypeTableRecord
  2
BYLAYER
 70
     0
  3

 72
    65
 73
     0
 40
0.0
  0
LTYPE
  5
16
330
5
100
AcDbSymbolTableRecord
100
AcDbLinetypeTableRecord
  2
CONTINUOUS
 70
     0
  3
Solid line
 72
    65
 73
     0
 40
0.0
  0
LTYPE
  5
135
330
5
100
AcDbSymbolTableRecord
100
AcDbLinetypeTableRecord
  2
CENTER
 70
     0
  3
____ _ ____ _ ____ _ ____ _ ____ _ ____ _ ____ 
 72
    65
 73
     4
 40
2.0
 49
1.25
 74
     0
 49
-0.25
 74
     0
 49
0.25
 74
     0
 49
-0.25
 74
     0
  0
ENDTAB
  0
TABLE
  2
LAYER
  5
2
330
0
100
AcDbSymbolTable
 70
     8
  0
LAYER
  5
F
330
2
100
AcDbSymbolTableRecord
100
AcDbLayerTableRecord
  2
0
 70
     0
 62
     7
  6
CONTINUOUS
  0
LAYER
  5
62
330
2
100
AcDbSymbolTableRecord
100
AcDbLayerTableRecord
  2
VIEWPORT
 70
     0
 62
     7
  6
CONTINUOUS
  0
LAYER
  5
65
330
2
100
AcDbSymbolTableRecord
100
AcDbLayerTableRecord
  2
ZUWAKU
 70
     0
 62
     7
  6
CONTINUOUS
  0
LAYER
  5
1BD
330
2
100
AcDbSymbolTableRecord
100
AcDbLayerTableRecord
  2
DEFPOINTS
 70
     0
 62
     7
  6
CONTINUOUS
  0
LAYER
  5
1BF
330
2
100
AcDbSymbolTableRecord
100
AcDbLayerTableRecord
  2
SEIHIN
 70
     0
 62
     3
  6
CONTINUOUS
  0
LAYER
  5
1C0
330
2
100
AcDbSymbolTableRecord
100
AcDbLayerTableRecord
  2
CENTER_L
 70
     0
 62
     1
  6
CENTER
  0
LAYER
  5
1C1
330
2
100
AcDbSymbolTableRecord
100
AcDbLayerTableRecord
  2
SUNPOU
 70
     0
 62
     4
  6
CONTINUOUS
  0
LAYER
  5
DE3
330
2
100
AcDbSymbolTableRecord
100
AcDbLayerTableRecord
  2
MOJI
 70
     0
 62
     2
  6
CONTINUOUS
  0
ENDTAB
  0
TABLE
  2
STYLE
  5
3
330
0
100
AcDbSymbolTable
 70
     2
  0
STYLE
  5
10
330
3
100
AcDbSymbolTableRecord
100
AcDbTextStyleTableRecord
  2
STANDARD
 70
     0
 40
0.0
 41
1.0
 50
0.0
 71
     0
 42
5.0
  3
TXT
  4
c:\PROGRAM FILES\AUTOCAD LT\ms\bigfont.shx
  0
STYLE
  5
DD6
330
3
100
AcDbSymbolTableRecord
100
AcDbTextStyleTableRecord
  2
ｽﾀｲﾙ1
 70
     0
 40
0.0
 41
1.0
 50
0.0
 71
     0
 42
5.0
  3
MS Gothic.ttf
  4

1001
ACAD
1000
MS Gothic
1071
    32817
  0
ENDTAB
  0
TABLE
  2
VIEW
  5
6
330
0
100
AcDbSymbolTable
 70
     0
  0
ENDTAB
  0
TABLE
  2
UCS
  5
7
330
0
100
AcDbSymbolTable
 70
     0
  0
ENDTAB
  0
TABLE
  2
APPID
  5
9
330
0
100
AcDbSymbolTable
 70
     1
  0
APPID
  5
11
330
9
100
AcDbSymbolTableRecord
100
AcDbRegAppTableRecord
  2
ACAD
 70
     0
  0
ENDTAB
  0
TABLE
  2
DIMSTYLE
  5
A
330
0
100
AcDbSymbolTable
 70
     1
  0
DIMSTYLE
105
1D
102
{ACAD_REACTORS
330
1D58
330
1CFB
330
1CFD
330
1CFC
330
1CFA
330
1CB6
330
1C5B
330
1C61
330
1C5C
330
1C5A
102
}
330
A
100
AcDbSymbolTableRecord
100
AcDbDimStyleTableRecord
  2
STANDARD
 70
     0
  3

  4

  5

  6

  7

 40
1.0
 41
0.18
 42
0.0625
 43
0.38
 44
0.18
 45
0.0
 46
0.0
 47
0.0
 48
0.0
140
0.18
141
0.09
142
0.0
143
25.4
144
1.0
145
0.0
146
1.0
147
0.09
 71
     0
 72
     0
 73
     1
 74
     1
 75
     0
 76
     0
 77
     0
 78
     0
170
     0
171
     2
172
     0
173
     0
174
     0
175
     0
176
     0
177
     0
178
     0
270
     2
271
     4
272
     4
273
     2
274
     2
340
10
275
     0
280
     0
281
     0
282
     0
283
     1
284
     0
285
     0
286
     0
287
     3
288
     0
  0
ENDTAB
  0
TABLE
  2
BLOCK_RECORD
  5
1
330
0
100
AcDbSymbolTable
 70
    11
  0
BLOCK_RECORD
  5
1A
102
{ACAD_XDICTIONARY
360
CFB
102
}
330
1
100
AcDbSymbolTableRecord
100
AcDbBlockTableRecord
  2
*MODEL_SPACE
  0
BLOCK_RECORD
  5
17
102
{ACAD_XDICTIONARY
360
CF9
102
}
330
1
100
AcDbSymbolTableRecord
100
AcDbBlockTableRecord
  2
*PAPER_SPACE
  0
BLOCK_RECORD
  5
6D
330
1
100
AcDbSymbolTableRecord
100
AcDbBlockTableRecord
  2
_OPEN
  0
BLOCK_RECORD
  5
1D96
330
1
100
AcDbSymbolTableRecord
100
AcDbBlockTableRecord
  2
*D1
  0
BLOCK_RECORD
  5
1DA2
330
1
100
AcDbSymbolTableRecord
100
AcDbBlockTableRecord
  2
*D2
  0
BLOCK_RECORD
  5
1DAE
330
1
100
AcDbSymbolTableRecord
100
AcDbBlockTableRecord
  2
*D3
  0
BLOCK_RECORD
  5
1DBA
330
1
100
AcDbSymbolTableRecord
100
AcDbBlockTableRecord
  2
*D4
  0
BLOCK_RECORD
  5
1DC6
330
1
100
AcDbSymbolTableRecord
100
AcDbBlockTableRecord
  2
*D5
  0
BLOCK_RECORD
  5
1DD2
330
1
100
AcDbSymbolTableRecord
100
AcDbBlockTableRecord
  2
*D6
  0
BLOCK_RECORD
  5
1DDE
330
1
100
AcDbSymbolTableRecord
100
AcDbBlockTableRecord
  2
*D7
  0
BLOCK_RECORD
  5
1DEC
330
1
100
AcDbSymbolTableRecord
100
AcDbBlockTableRecord
  2
*D8
  0
BLOCK_RECORD
  5
1DF8
330
1
100
AcDbSymbolTableRecord
100
AcDbBlockTableRecord
  2
*D9
  0
BLOCK_RECORD
  5
1E04
330
1
100
AcDbSymbolTableRecord
100
AcDbBlockTableRecord
  2
*D10
  0
ENDTAB
  0
ENDSEC
  0
SECTION
  2
BLOCKS
  0
BLOCK
  5
1B
330
1A
100
AcDbEntity
  8
0
100
AcDbBlockBegin
  2
*MODEL_SPACE
 70
     0
 10
0.0
 20
0.0
 30
0.0
  3
*MODEL_SPACE
  1

  0
ENDBLK
  5
1C
330
1A
100
AcDbEntity
  8
0
100
AcDbBlockEnd
  0
BLOCK
  5
18
330
17
100
AcDbEntity
 67
     1
  8
0
100
AcDbBlockBegin
  2
*PAPER_SPACE
 70
     0
 10
0.0
 20
0.0
 30
0.0
  3
*PAPER_SPACE
  1

  0
ENDBLK
  5
19
330
17
100
AcDbEntity
 67
     1
  8
0
100
AcDbBlockEnd
  0
BLOCK
  5
6E
330
6D
100
AcDbEntity
  8
0
100
AcDbBlockBegin
  2
_OPEN
 70
     0
 10
0.0
 20
0.0
 30
0.0
  3
_OPEN
  1

  0
LINE
  5
6F
330
6D
100
AcDbEntity
  8
0
  6
BYBLOCK
 62
     0
100
AcDbLine
 10
-1.0
 20
0.1666666666666666
 30
0.0
 11
0.0
 21
0.0
 31
0.0
  0
LINE
  5
70
330
6D
100
AcDbEntity
  8
0
  6
BYBLOCK
 62
     0
100
AcDbLine
 10
0.0
 20
0.0
 30
0.0
 11
-1.0
 21
-0.1666666666666666
 31
0.0
  0
LINE
  5
71
330
6D
100
AcDbEntity
  8
0
  6
BYBLOCK
 62
     0
100
AcDbLine
 10
0.0
 20
0.0
 30
0.0
 11
-1.0
 21
0.0
 31
0.0
  0
ENDBLK
  5
72
330
6D
100
AcDbEntity
  8
0
100
AcDbBlockEnd
  0
BLOCK
  5
1DA0
330
1D96
100
AcDbEntity
  8
0
100
AcDbBlockBegin
  2
*D1
 70
     1
 10
0.0
 20
0.0
 30
0.0
  3
*D1
  1

  0
LINE
  5
1FDB
330
1D96
100
AcDbEntity
  8
SUNPOU
100
AcDbLine
 10
587.4948897796257
 20
135.8574569726253
 30
0.0
 11
611.8120045209543
 21
135.8574569726253
 31
0.0
  0
LINE
  5
1FDC
330
1D96
100
AcDbEntity
  8
SUNPOU
100
AcDbLine
 10
495.9855606796259
 20
52.65745700262534
 30
0.0
 11
611.8120045209543
 21
52.6574570026253
 31
0.0
  0
LINE
  5
1FDD
330
1D96
100
AcDbEntity
  8
SUNPOU
100
AcDbLine
 10
608.8120045209543
 20
129.8574569726252
 30
0.0
 11
608.8120045209543
 21
58.6574570026253
 31
0.0
  0
INSERT
  5
1FDE
330
1D96
100
AcDbEntity
  8
SUNPOU
100
AcDbBlockReference
  2
_OPEN
 10
608.8120045209543
 20
135.8574569726253
 30
0.0
 41
6.0
 42
6.0
 43
6.0
 50
90.0
  0
INSERT
  5
1FDF
330
1D96
100
AcDbEntity
  8
SUNPOU
100
AcDbBlockReference
  2
_OPEN
 10
608.8120045209543
 20
52.6574570026253
 30
0.0
 41
6.0
 42
6.0
 43
6.0
 50
270.0
  0
MTEXT
  5
1FE0
330
1D96
100
AcDbEntity
  8
SUNPOU
100
AcDbMText
 10
603.8120045209543
 20
94.25745698762538
 30
0.0
 40
6.0
 41
0.0
 71
     5
 72
     1
  1
\A1;83
 11
0.0000000000000001
 21
1.0
 31
0.0
  0
POINT
  5
1FE1
330
1D96
100
AcDbEntity
  8
DEFPOINTS
 62
     0
100
AcDbPoint
 10
581.4948897796257
 20
135.8574569726253
 30
0.0
  0
POINT
  5
1FE2
330
1D96
100
AcDbEntity
  8
DEFPOINTS
 62
     0
100
AcDbPoint
 10
489.9855606796259
 20
52.65745700262534
 30
0.0
  0
POINT
  5
1FE3
330
1D96
100
AcDbEntity
  8
DEFPOINTS
 62
     0
100
AcDbPoint
 10
608.8120045209543
 20
52.6574570026253
 30
0.0
  0
ENDBLK
  5
1DA1
330
1D96
100
AcDbEntity
  8
0
100
AcDbBlockEnd
  0
BLOCK
  5
1DAC
330
1DA2
100
AcDbEntity
  8
0
100
AcDbBlockBegin
  2
*D2
 70
     1
 10
0.0
 20
0.0
 30
0.0
  3
*D2
  1

  0
LINE
  5
1FE4
330
1DA2
100
AcDbEntity
  8
SUNPOU
100
AcDbLine
 10
380.0303834675592
 20
156.5008762706253
 30
0.0
 11
380.0303834675592
 21
206.1657963862223
 31
0.0
  0
LINE
  5
1FE5
330
1DA2
100
AcDbEntity
  8
SUNPOU
100
AcDbLine
 10
680.9787436796259
 20
175.1910317426253
 30
0.0
 11
680.9787436796259
 21
206.1657963862223
 31
0.0
  0
LINE
  5
1FE6
330
1DA2
100
AcDbEntity
  8
SUNPOU
100
AcDbLine
 10
386.0303834675592
 20
203.1657963862223
 30
0.0
 11
674.978743679626
 21
203.1657963862223
 31
0.0
  0
INSERT
  5
1FE7
330
1DA2
100
AcDbEntity
  8
SUNPOU
100
AcDbBlockReference
  2
_OPEN
 10
380.0303834675592
 20
203.1657963862223
 30
0.0
 41
6.0
 42
6.0
 43
6.0
 50
180.0
  0
INSERT
  5
1FE8
330
1DA2
100
AcDbEntity
  8
SUNPOU
100
AcDbBlockReference
  2
_OPEN
 10
680.9787436796259
 20
203.1657963862223
 30
0.0
 41
6.0
 42
6.0
 43
6.0
  0
MTEXT
  5
1FE9
330
1DA2
100
AcDbEntity
  8
SUNPOU
100
AcDbMText
 10
530.5045635735925
 20
208.1657963862223
 30
0.0
 40
6.0
 41
0.0
 71
     5
 72
     1
  1
\A1;301
  0
POINT
  5
1FEA
330
1DA2
100
AcDbEntity
  8
DEFPOINTS
 62
     0
100
AcDbPoint
 10
380.0303834675592
 20
150.5008762706253
 30
0.0
  0
POINT
  5
1FEB
330
1DA2
100
AcDbEntity
  8
DEFPOINTS
 62
     0
100
AcDbPoint
 10
680.9787436796259
 20
169.1910317426253
 30
0.0
  0
POINT
  5
1FEC
330
1DA2
100
AcDbEntity
  8
DEFPOINTS
 62
     0
100
AcDbPoint
 10
680.9787436796259
 20
203.1657963862223
 30
0.0
  0
ENDBLK
  5
1DAD
330
1DA2
100
AcDbEntity
  8
0
100
AcDbBlockEnd
  0
BLOCK
  5
1DB8
330
1DAE
100
AcDbEntity
  8
0
100
AcDbBlockBegin
  2
*D3
 70
     1
 10
0.0
 20
0.0
 30
0.0
  3
*D3
  1

  0
LINE
  5
1FED
330
1DAE
100
AcDbEntity
  8
SUNPOU
100
AcDbLine
 10
531.978744079626
 20
128.5574573136256
 30
0.0
 11
557.2935419475761
 21
128.5574573136256
 31
0.0
  0
LINE
  5
1FEE
330
1DAE
100
AcDbEntity
  8
SUNPOU
100
AcDbLine
 10
483.9855606796259
 20
52.65745700262534
 30
0.0
 11
557.2935419475761
 21
52.65745700262531
 31
0.0
  0
LINE
  5
1FEF
330
1DAE
100
AcDbEntity
  8
SUNPOU
100
AcDbLine
 10
554.2935419475761
 20
122.5574573136255
 30
0.0
 11
554.2935419475761
 21
58.65745700262531
 31
0.0
  0
INSERT
  5
1FF0
330
1DAE
100
AcDbEntity
  8
SUNPOU
100
AcDbBlockReference
  2
_OPEN
 10
554.2935419475761
 20
128.5574573136256
 30
0.0
 41
6.0
 42
6.0
 43
6.0
 50
90.0
  0
INSERT
  5
1FF1
330
1DAE
100
AcDbEntity
  8
SUNPOU
100
AcDbBlockReference
  2
_OPEN
 10
554.2935419475761
 20
52.65745700262531
 30
0.0
 41
6.0
 42
6.0
 43
6.0
 50
270.0
  0
MTEXT
  5
1FF2
330
1DAE
100
AcDbEntity
  8
SUNPOU
100
AcDbMText
 10
549.2935419475761
 20
90.60745715812556
 30
0.0
 40
6.0
 41
0.0
 71
     5
 72
     1
  1
\A1;76
 11
0.0000000000000001
 21
1.0
 31
0.0
  0
POINT
  5
1FF3
330
1DAE
100
AcDbEntity
  8
DEFPOINTS
 62
     0
100
AcDbPoint
 10
525.978744079626
 20
128.5574573136256
 30
0.0
  0
POINT
  5
1FF4
330
1DAE
100
AcDbEntity
  8
DEFPOINTS
 62
     0
100
AcDbPoint
 10
477.9855606796258
 20
52.65745700262534
 30
0.0
  0
POINT
  5
1FF5
330
1DAE
100
AcDbEntity
  8
DEFPOINTS
 62
     0
100
AcDbPoint
 10
554.2935419475761
 20
52.65745700262531
 30
0.0
  0
ENDBLK
  5
1DB9
330
1DAE
100
AcDbEntity
  8
0
100
AcDbBlockEnd
  0
BLOCK
  5
1DC4
330
1DBA
100
AcDbEntity
  8
0
100
AcDbBlockBegin
  2
*D4
 70
     1
 10
0.0
 20
0.0
 30
0.0
  3
*D4
  1

  0
LINE
  5
1FF6
330
1DBA
100
AcDbEntity
  8
SUNPOU
100
AcDbLine
 10
386.5687798796259
 20
169.1910317384209
 30
0.0
 11
352.7419460962137
 21
169.1910317384209
 31
0.0
  0
LINE
  5
1FF7
330
1DBA
100
AcDbEntity
  8
SUNPOU
100
AcDbLine
 10
471.9855606796259
 20
52.65745695808345
 30
0.0
 11
352.7419460962137
 21
52.65745695808349
 31
0.0
  0
LINE
  5
1FF8
330
1DBA
100
AcDbEntity
  8
SUNPOU
100
AcDbLine
 10
355.7419460962137
 20
163.1910317384209
 30
0.0
 11
355.7419460962137
 21
58.6574569580835
 31
0.0
  0
INSERT
  5
1FF9
330
1DBA
100
AcDbEntity
  8
SUNPOU
100
AcDbBlockReference
  2
_OPEN
 10
355.7419460962137
 20
169.1910317384209
 30
0.0
 41
6.0
 42
6.0
 43
6.0
 50
90.0
  0
INSERT
  5
1FFA
330
1DBA
100
AcDbEntity
  8
SUNPOU
100
AcDbBlockReference
  2
_OPEN
 10
355.7419460962137
 20
52.65745695808349
 30
0.0
 41
6.0
 42
6.0
 43
6.0
 50
270.0
  0
MTEXT
  5
1FFB
330
1DBA
100
AcDbEntity
  8
SUNPOU
100
AcDbMText
 10
350.7419460962137
 20
110.9242443482522
 30
0.0
 40
6.0
 41
0.0
 71
     5
 72
     1
  1
\A1;117
 11
0.0000000000000001
 21
1.0
 31
0.0
  0
POINT
  5
1FFC
330
1DBA
100
AcDbEntity
  8
DEFPOINTS
 62
     0
100
AcDbPoint
 10
392.5687798796259
 20
169.1910317384209
 30
0.0
  0
POINT
  5
1FFD
330
1DBA
100
AcDbEntity
  8
DEFPOINTS
 62
     0
100
AcDbPoint
 10
477.9855606796258
 20
52.65745695808345
 30
0.0
  0
POINT
  5
1FFE
330
1DBA
100
AcDbEntity
  8
DEFPOINTS
 62
     0
100
AcDbPoint
 10
355.7419460962137
 20
52.65745695808349
 30
0.0
  0
ENDBLK
  5
1DC5
330
1DBA
100
AcDbEntity
  8
0
100
AcDbBlockEnd
  0
BLOCK
  5
1DD0
330
1DC6
100
AcDbEntity
  8
0
100
AcDbBlockBegin
  2
*D5
 70
     1
 10
0.0
 20
0.0
 30
0.0
  3
*D5
  1

  0
LINE
  5
1FFF
330
1DC6
100
AcDbEntity
  8
SUNPOU
100
AcDbLine
 10
380.0303834675592
 20
156.5008762706253
 30
0.0
 11
380.0303834675592
 21
188.0663076745031
 31
0.0
  0
LINE
  5
2000
330
1DC6
100
AcDbEntity
  8
SUNPOU
100
AcDbLine
 10
530.9731045796259
 20
129.3200563426253
 30
0.0
 11
530.9731045796259
 21
188.0663076745031
 31
0.0
  0
LINE
  5
2001
330
1DC6
100
AcDbEntity
  8
SUNPOU
100
AcDbLine
 10
386.0303834675592
 20
185.0663076745031
 30
0.0
 11
524.9731045796258
 21
185.0663076745031
 31
0.0
  0
INSERT
  5
2002
330
1DC6
100
AcDbEntity
  8
SUNPOU
100
AcDbBlockReference
  2
_OPEN
 10
380.0303834675592
 20
185.0663076745031
 30
0.0
 41
6.0
 42
6.0
 43
6.0
 50
180.0
  0
INSERT
  5
2003
330
1DC6
100
AcDbEntity
  8
SUNPOU
100
AcDbBlockReference
  2
_OPEN
 10
530.9731045796259
 20
185.0663076745031
 30
0.0
 41
6.0
 42
6.0
 43
6.0
  0
MTEXT
  5
2004
330
1DC6
100
AcDbEntity
  8
SUNPOU
100
AcDbMText
 10
455.5017440235925
 20
190.0663076745031
 30
0.0
 40
6.0
 41
0.0
 71
     5
 72
     1
  1
\A1;151
  0
POINT
  5
2005
330
1DC6
100
AcDbEntity
  8
DEFPOINTS
 62
     0
100
AcDbPoint
 10
380.0303834675592
 20
150.5008762706253
 30
0.0
  0
POINT
  5
2006
330
1DC6
100
AcDbEntity
  8
DEFPOINTS
 62
     0
100
AcDbPoint
 10
530.9731045796259
 20
123.3200563426253
 30
0.0
  0
POINT
  5
2007
330
1DC6
100
AcDbEntity
  8
DEFPOINTS
 62
     0
100
AcDbPoint
 10
530.9731045796259
 20
185.0663076745031
 30
0.0
  0
ENDBLK
  5
1DD1
330
1DC6
100
AcDbEntity
  8
0
100
AcDbBlockEnd
  0
BLOCK
  5
1DDC
330
1DD2
100
AcDbEntity
  8
0
100
AcDbBlockBegin
  2
*D6
 70
     1
 10
0.0
 20
0.0
 30
0.0
  3
*D6
  1

  0
LINE
  5
2008
330
1DD2
100
AcDbEntity
  8
SUNPOU
100
AcDbLine
 10
531.8158126796259
 20
267.0995822844984
 30
0.0
 11
576.7129257161896
 21
267.0995822844984
 31
0.0
  0
LINE
  5
2009
330
1DD2
100
AcDbEntity
  8
SUNPOU
100
AcDbLine
 10
535.4787436796259
 20
223.0995823044984
 30
0.0
 11
576.7129257161895
 21
223.0995823044984
 31
0.0
  0
LINE
  5
200A
330
1DD2
100
AcDbEntity
  8
SUNPOU
100
AcDbLine
 10
573.7129257161897
 20
261.0995822844984
 30
0.0
 11
573.7129257161895
 21
229.0995823044984
 31
0.0
  0
INSERT
  5
200B
330
1DD2
100
AcDbEntity
  8
SUNPOU
100
AcDbBlockReference
  2
_OPEN
 10
573.7129257161897
 20
267.0995822844984
 30
0.0
 41
6.0
 42
6.0
 43
6.0
 50
90.0
  0
INSERT
  5
200C
330
1DD2
100
AcDbEntity
  8
SUNPOU
100
AcDbBlockReference
  2
_OPEN
 10
573.7129257161895
 20
223.0995823044984
 30
0.0
 41
6.0
 42
6.0
 43
6.0
 50
270.0
  0
MTEXT
  5
200D
330
1DD2
100
AcDbEntity
  8
SUNPOU
100
AcDbMText
 10
568.7129257161895
 20
245.0995822944985
 30
0.0
 40
6.0
 41
0.0
 71
     5
 72
     1
  1
\A1;※44
 11
0.0000000000000001
 21
1.0
 31
0.0
  0
POINT
  5
200E
330
1DD2
100
AcDbEntity
  8
DEFPOINTS
 62
     0
100
AcDbPoint
 10
525.8158126796258
 20
267.0995822844984
 30
0.0
  0
POINT
  5
200F
330
1DD2
100
AcDbEntity
  8
DEFPOINTS
 62
     0
100
AcDbPoint
 10
529.4787436796259
 20
223.0995823044984
 30
0.0
  0
POINT
  5
2010
330
1DD2
100
AcDbEntity
  8
DEFPOINTS
 62
     0
100
AcDbPoint
 10
573.7129257161895
 20
223.0995823044984
 30
0.0
  0
ENDBLK
  5
1DDD
330
1DD2
100
AcDbEntity
  8
0
100
AcDbBlockEnd
  0
BLOCK
  5
1DEA
330
1DDE
100
AcDbEntity
  8
0
100
AcDbBlockBegin
  2
*D7
 70
     1
 10
0.0
 20
0.0
 30
0.0
  3
*D7
  1

  0
LINE
  5
2011
330
1DDE
100
AcDbEntity
  8
SUNPOU
100
AcDbLine
 10
505.9787436796259
 20
323.9988167844983
 30
0.0
 11
505.9787436796259
 21
332.9955389986019
 31
0.0
  0
LINE
  5
2012
330
1DDE
100
AcDbEntity
  8
SUNPOU
100
AcDbLine
 10
530.9787436796259
 20
288.0995823847502
 30
0.0
 11
530.9787436796259
 21
332.9955389986019
 31
0.0
  0
LINE
  5
2013
330
1DDE
100
AcDbEntity
  8
SUNPOU
100
AcDbLine
 10
511.9787436796259
 20
329.9955389986018
 30
0.0
 11
524.978743679626
 21
329.9955389986018
 31
0.0
  0
INSERT
  5
2014
330
1DDE
100
AcDbEntity
  8
SUNPOU
100
AcDbBlockReference
  2
_OPEN
 10
505.9787436796259
 20
329.9955389986018
 30
0.0
 41
6.0
 42
6.0
 43
6.0
 50
180.0
  0
INSERT
  5
2015
330
1DDE
100
AcDbEntity
  8
SUNPOU
100
AcDbBlockReference
  2
_OPEN
 10
530.9787436796259
 20
329.9955389986018
 30
0.0
 41
6.0
 42
6.0
 43
6.0
  0
MTEXT
  5
2016
330
1DDE
100
AcDbEntity
  8
SUNPOU
100
AcDbMText
 10
518.4787436796259
 20
334.9955389986019
 30
0.0
 40
6.0
 41
0.0
 71
     5
 72
     1
  1
\A1;25
  0
POINT
  5
2017
330
1DDE
100
AcDbEntity
  8
DEFPOINTS
 62
     0
100
AcDbPoint
 10
505.9787436796259
 20
317.9988167844983
 30
0.0
  0
POINT
  5
2018
330
1DDE
100
AcDbEntity
  8
DEFPOINTS
 62
     0
100
AcDbPoint
 10
530.9787436796259
 20
282.0995823847503
 30
0.0
  0
POINT
  5
2019
330
1DDE
100
AcDbEntity
  8
DEFPOINTS
 62
     0
100
AcDbPoint
 10
530.9787436796259
 20
329.9955389986018
 30
0.0
  0
ENDBLK
  5
1DEB
330
1DDE
100
AcDbEntity
  8
0
100
AcDbBlockEnd
  0
BLOCK
  5
1DF6
330
1DEC
100
AcDbEntity
  8
0
100
AcDbBlockBegin
  2
*D8
 70
     1
 10
0.0
 20
0.0
 30
0.0
  3
*D8
  1

  0
LINE
  5
201A
330
1DEC
100
AcDbEntity
  8
SUNPOU
100
AcDbLine
 10
536.9787436796259
 20
282.0995823847503
 30
0.0
 11
593.0228025630709
 21
282.0995823847503
 31
0.0
  0
LINE
  5
201B
330
1DEC
100
AcDbEntity
  8
SUNPOU
100
AcDbLine
 10
535.4787436796259
 20
223.0995823044984
 30
0.0
 11
593.0228025630708
 21
223.0995823044984
 31
0.0
  0
LINE
  5
201C
330
1DEC
100
AcDbEntity
  8
SUNPOU
100
AcDbLine
 10
590.0228025630709
 20
276.0995823847502
 30
0.0
 11
590.0228025630708
 21
229.0995823044983
 31
0.0
  0
INSERT
  5
201D
330
1DEC
100
AcDbEntity
  8
SUNPOU
100
AcDbBlockReference
  2
_OPEN
 10
590.0228025630709
 20
282.0995823847503
 30
0.0
 41
6.0
 42
6.0
 43
6.0
 50
90.0
  0
INSERT
  5
201E
330
1DEC
100
AcDbEntity
  8
SUNPOU
100
AcDbBlockReference
  2
_OPEN
 10
590.0228025630708
 20
223.0995823044984
 30
0.0
 41
6.0
 42
6.0
 43
6.0
 50
270.0
  0
MTEXT
  5
201F
330
1DEC
100
AcDbEntity
  8
SUNPOU
100
AcDbMText
 10
585.0228025630708
 20
252.5995823446244
 30
0.0
 40
6.0
 41
0.0
 71
     5
 72
     1
  1
\A1;59
 11
0.0000000000000001
 21
1.0
 31
0.0
  0
POINT
  5
2020
330
1DEC
100
AcDbEntity
  8
DEFPOINTS
 62
     0
100
AcDbPoint
 10
530.9787436796259
 20
282.0995823847503
 30
0.0
  0
POINT
  5
2021
330
1DEC
100
AcDbEntity
  8
DEFPOINTS
 62
     0
100
AcDbPoint
 10
529.4787436796259
 20
223.0995823044984
 30
0.0
  0
POINT
  5
2022
330
1DEC
100
AcDbEntity
  8
DEFPOINTS
 62
     0
100
AcDbPoint
 10
590.0228025630708
 20
223.0995823044984
 30
0.0
  0
ENDBLK
  5
1DF7
330
1DEC
100
AcDbEntity
  8
0
100
AcDbBlockEnd
  0
BLOCK
  5
1E02
330
1DF8
100
AcDbEntity
  8
0
100
AcDbBlockBegin
  2
*D9
 70
     1
 10
0.0
 20
0.0
 30
0.0
  3
*D9
  1

  0
LINE
  5
2023
330
1DF8
100
AcDbEntity
  8
SUNPOU
100
AcDbLine
 10
655.8032509796257
 20
524.0663926844984
 30
0.0
 11
733.8603215024419
 21
524.0663926844984
 31
0.0
  0
LINE
  5
2024
330
1DF8
100
AcDbEntity
  8
SUNPOU
100
AcDbLine
 10
535.4787436796259
 20
223.0995823044984
 30
0.0
 11
733.8603215024418
 21
223.0995823044983
 31
0.0
  0
LINE
  5
2025
330
1DF8
100
AcDbEntity
  8
SUNPOU
100
AcDbLine
 10
730.8603215024419
 20
518.0663926844983
 30
0.0
 11
730.8603215024418
 21
229.0995823044983
 31
0.0
  0
INSERT
  5
2026
330
1DF8
100
AcDbEntity
  8
SUNPOU
100
AcDbBlockReference
  2
_OPEN
 10
730.8603215024419
 20
524.0663926844984
 30
0.0
 41
6.0
 42
6.0
 43
6.0
 50
90.0
  0
INSERT
  5
2027
330
1DF8
100
AcDbEntity
  8
SUNPOU
100
AcDbBlockReference
  2
_OPEN
 10
730.8603215024418
 20
223.0995823044983
 30
0.0
 41
6.0
 42
6.0
 43
6.0
 50
270.0
  0
MTEXT
  5
2028
330
1DF8
100
AcDbEntity
  8
SUNPOU
100
AcDbMText
 10
725.8603215024418
 20
373.5829874944984
 30
0.0
 40
6.0
 41
0.0
 71
     5
 72
     1
  1
\A1;301
 11
0.0000000000000001
 21
1.0
 31
0.0
  0
POINT
  5
2029
330
1DF8
100
AcDbEntity
  8
DEFPOINTS
 62
     0
100
AcDbPoint
 10
649.8032509796257
 20
524.0663926844984
 30
0.0
  0
POINT
  5
202A
330
1DF8
100
AcDbEntity
  8
DEFPOINTS
 62
     0
100
AcDbPoint
 10
529.4787436796259
 20
223.0995823044984
 30
0.0
  0
POINT
  5
202B
330
1DF8
100
AcDbEntity
  8
DEFPOINTS
 62
     0
100
AcDbPoint
 10
730.8603215024418
 20
223.0995823044983
 30
0.0
  0
ENDBLK
  5
1E03
330
1DF8
100
AcDbEntity
  8
0
100
AcDbBlockEnd
  0
BLOCK
  5
1E0E
330
1E04
100
AcDbEntity
  8
0
100
AcDbBlockBegin
  2
*D10
 70
     1
 10
0.0
 20
0.0
 30
0.0
  3
*D10
  1

  0
LINE
  5
202C
330
1E04
100
AcDbEntity
  8
SUNPOU
100
AcDbLine
 10
655.8032509796257
 20
524.0663926844984
 30
0.0
 11
709.1231063744749
 21
524.0663926844984
 31
0.0
  0
LINE
  5
202D
330
1E04
100
AcDbEntity
  8
SUNPOU
100
AcDbLine
 10
667.9625921793236
 20
373.4586131895347
 30
0.0
 11
709.1231063744749
 21
373.4586131895347
 31
0.0
  0
LINE
  5
202E
330
1E04
100
AcDbEntity
  8
SUNPOU
100
AcDbLine
 10
706.1231063744749
 20
518.0663926844983
 30
0.0
 11
706.1231063744749
 21
379.4586131895347
 31
0.0
  0
INSERT
  5
202F
330
1E04
100
AcDbEntity
  8
SUNPOU
100
AcDbBlockReference
  2
_OPEN
 10
706.1231063744749
 20
524.0663926844984
 30
0.0
 41
6.0
 42
6.0
 43
6.0
 50
90.0
  0
INSERT
  5
2030
330
1E04
100
AcDbEntity
  8
SUNPOU
100
AcDbBlockReference
  2
_OPEN
 10
706.1231063744749
 20
373.4586131895347
 30
0.0
 41
6.0
 42
6.0
 43
6.0
 50
270.0
  0
MTEXT
  5
2031
330
1E04
100
AcDbEntity
  8
SUNPOU
100
AcDbMText
 10
701.1231063744747
 20
448.7625029370167
 30
0.0
 40
6.0
 41
0.0
 71
     5
 72
     1
  1
\A1;151
 11
0.0000000000000001
 21
1.0
 31
0.0
  0
POINT
  5
2032
330
1E04
100
AcDbEntity
  8
DEFPOINTS
 62
     0
100
AcDbPoint
 10
649.8032509796257
 20
524.0663926844984
 30
0.0
  0
POINT
  5
2033
330
1E04
100
AcDbEntity
  8
DEFPOINTS
 62
     0
100
AcDbPoint
 10
661.9625921793235
 20
373.4586131895347
 30
0.0
  0
POINT
  5
2034
330
1E04
100
AcDbEntity
  8
DEFPOINTS
 62
     0
100
AcDbPoint
 10
706.1231063744749
 20
373.4586131895347
 30
0.0
  0
ENDBLK
  5
1E0F
330
1E04
100
AcDbEntity
  8
0
100
AcDbBlockEnd
  0
ENDSEC
  0
SECTION
  2
ENTITIES
  0
TEXT
  5
99A
330
1A
100
AcDbEntity
  8
SUNPOU
 62
     4
100
AcDbText
 10
680.8299615521068
 20
35.79833519369674
 30
0.0
 40
6.0
  1
※　のきといの差込み寸法を示す
100
AcDbText
  0
LINE
  5
EE6
330
1A
100
AcDbEntity
  8
ZUWAKU
100
AcDbLine
 10
208.646601303624
 20
15.19999986828872
 30
0.0
 11
447.4243639845474
 21
15.19999986828871
 31
0.0
  0
LINE
  5
EE7
330
1A
100
AcDbEntity
  8
ZUWAKU
100
AcDbLine
 10
208.646601303624
 20
15.59999986828871
 30
0.0
 11
447.4243639845474
 21
15.59999986828872
 31
0.0
  0
LINE
  5
EE8
330
1A
100
AcDbEntity
  8
ZUWAKU
100
AcDbLine
 10
208.646601303624
 20
15.39999986828871
 30
0.0
 11
447.4243639845474
 21
15.39999986828871
 31
0.0
  0
LINE
  5
EE9
330
1A
100
AcDbEntity
  8
ZUWAKU
100
AcDbLine
 10
0.0000000135560185
 20
30.79999986828869
 30
0.0
 11
797.4000000135559
 21
30.79999986828869
 31
0.0
  0
LINE
  5
EEA
330
1A
100
AcDbEntity
  8
ZUWAKU
100
AcDbLine
 10
0.0000000135560185
 20
30.59999986828869
 30
0.0
 11
797.4000000135559
 21
30.59999986828869
 31
0.0
  0
LINE
  5
EEB
330
1A
100
AcDbEntity
  8
ZUWAKU
100
AcDbLine
 10
0.0000000135560185
 20
30.39999986828869
 30
0.0
 11
797.4000000135559
 21
30.39999986828869
 31
0.0
  0
LINE
  5
EEC
330
1A
100
AcDbEntity
  8
ZUWAKU
100
AcDbLine
 10
0.0000000135560185
 20
30.19999986828868
 30
0.0
 11
797.4000000135559
 21
30.19999986828868
 31
0.0
  0
LINE
  5
EED
330
1A
100
AcDbEntity
  8
ZUWAKU
100
AcDbLine
 10
0.0000000135560185
 20
29.99999986828868
 30
0.0
 11
797.4000000135559
 21
29.99999986828868
 31
0.0
  0
LWPOLYLINE
  5
EEE
330
1A
100
AcDbEntity
  8
ZUWAKU
100
AcDbPolyline
 90
        4
 70
     1
 43
0.0
 10
0.2000000135559503
 20
551.3999998682887
 10
0.2000000135559503
 20
0.1999998682887281
 10
797.4000000135559
 20
0.1999998682887511
 10
797.4000000135561
 20
551.3999998682887
  0
LWPOLYLINE
  5
EEF
330
1A
100
AcDbEntity
  8
ZUWAKU
100
AcDbPolyline
 90
        4
 70
     1
 43
0.0
 10
0.6000000135559276
 20
550.9999998682888
 10
0.6000000135559276
 20
0.5999998682887054
 10
797.0000000135562
 20
0.5999998682887516
 10
797.000000013556
 20
550.9999998682888
  0
LWPOLYLINE
  5
EF0
330
1A
100
AcDbEntity
  8
ZUWAKU
100
AcDbPolyline
 90
        4
 70
     1
 43
0.0
 10
0.0000000135560185
 20
551.5999998682887
 10
0.0000000135560185
 20
-0.0000001317113174
 10
797.6000000135561
 20
-0.0000001317112499
 10
797.6000000135561
 20
551.5999998682888
  0
LWPOLYLINE
  5
EF1
330
1A
100
AcDbEntity
  8
ZUWAKU
100
AcDbPolyline
 90
        4
 70
     1
 43
0.0
 10
0.4000000135559958
 20
551.1999998682887
 10
0.4000000135559958
 20
0.3999998682887735
 10
797.200000013556
 20
0.3999998682887504
 10
797.200000013556
 20
551.1999998682887
  0
LWPOLYLINE
  5
EF2
330
1A
100
AcDbEntity
  8
ZUWAKU
100
AcDbPolyline
 90
        4
 70
     1
 43
0.0
 10
0.800000013555973
 20
550.7999998682887
 10
0.800000013555973
 20
0.7999998682887508
 10
796.8000000135559
 20
0.7999998682887508
 10
796.8000000135559
 20
550.7999998682887
  0
TEXT
  5
EF3
330
1A
100
AcDbEntity
  8
MOJI
100
AcDbText
 10
92.95778960172516
 20
12.74117799856344
 30
0.0
 40
6.0
  1
アートフェイスＨ１２０
 41
0.9
  7
ｽﾀｲﾙ1
100
AcDbText
  0
HATCH
  5
EF4
330
1A
100
AcDbEntity
  8
ZUWAKU
100
AcDbHatch
 10
0.0
 20
0.0
 30
0.0
210
0.0
220
0.0
230
1.0
  2
ANSI37
 70
     0
 71
     0
 91
        8
 92
        7
 72
     1
 73
     1
 93
       24
 10
14.50226267467587
 20
17.64484834927226
 42
-0.1989123673796348
 10
14.09221216833714
 20
18.63479784293331
 42
0.0
 10
14.09221216833714
 20
19.92499986828869
 42
-0.4142135623730912
 10
14.61721216833711
 20
20.44999986828868
 42
0.0
 10
17.59221216833702
 20
20.44999986828868
 42
0.4142135623731546
 10
18.11721216833712
 20
20.97499986828867
 42
0.0
 10
18.11721216833712
 20
22.72499986828869
 42
0.4142135623731586
 10
17.59221216833702
 20
23.24999986828868
 42
0.0
 10
14.09221216833714
 20
23.24999986828868
 42
0.4142135623730928
 10
11.29221216833718
 20
20.44999986828871
 42
0.0
 10
11.29221216833718
 20
18.63479784293344
 42
0.1989123673796619
 10
12.52236368735361
 20
15.66494936194983
 42
0.0
 10
15.43216166199829
 20
12.75515138730518
 42
-0.1989123673796613
 10
15.84221216833714
 20
11.76520189364399
 42
0.0
 10
15.84221216833714
 20
10.47499986828867
 42
-0.4142135623730911
 10
15.31721216833716
 20
9.949999868288685
 42
0.0
 10
12.34221216833725
 20
9.949999868288685
 42
0.4142135623731526
 10
11.81721216833716
 20
9.424999868288697
 42
0.0
 10
11.81721216833716
 20
7.674999868288676
 42
0.4142135623731526
 10
12.34221216833725
 20
7.149999868288688
 42
0.0
 10
15.84221216833714
 20
7.149999868288688
 42
0.4142135623731044
 10
18.64221216833721
 20
9.949999868288664
 42
0.0
 10
18.64221216833721
 20
11.76520189364393
 42
0.1989123673796604
 10
17.41206064932066
 20
14.73505037462747
 42
0.0
 97
        0
 92
        7
 72
     1
 73
     1
 93
       16
 10
23.54221216833718
 20
19.04999986828869
 42
-0.4142135623730935
 10
24.94221216833716
 20
20.44999986828868
 42
0.0
 10
26.86721216833712
 20
20.44999986828868
 42
0.4142135623731546
 10
27.39221216833721
 20
20.97499986828867
 42
0.0
 10
27.39221216833721
 20
22.72499986828869
 42
0.4142135623730951
 10
26.86721216833723
 20
23.24999986828868
 42
0.0
 10
24.94221216833705
 20
23.24999986828864
 42
0.4142135623730892
 10
20.74221216833711
 20
19.04999986828862
 42
0.0
 10
20.74221216833711
 20
11.34999986828871
 42
0.4142135623730969
 10
24.94221216833716
 20
7.149999868288688
 42
0.0
 10
26.86721216833712
 20
7.149999868288688
 42
0.4142135623731526
 10
27.39221216833721
 20
7.674999868288676
 42
0.0
 10
27.39221216833721
 20
9.424999868288697
 42
0.4142135623730891
 10
26.86721216833723
 20
9.949999868288685
 42
0.0
 10
24.94221216833716
 20
9.949999868288685
 42
-0.4142135623730928
 10
23.54221216833718
 20
11.34999986828867
 42
0.0
 97
        0
 92
        7
 72
     1
 73
     1
 93
        2
 10
24.24221216833712
 20
15.19999986828868
 42
1.0
 10
27.74221216833712
 20
15.19999986828868
 42
1.0
 97
        0
 92
        7
 72
     1
 73
     1
 93
       26
 10
37.31485865051513
 20
19.20504706185211
 42
0.0
 10
38.37649828365295
 20
22.5669059001217
 42
0.5069206636600134
 10
37.87586738445759
 20
23.24999986828868
 42
0.0
 10
36.17697800484836
 20
23.24999986828868
 42
0.3272098845218764
 10
35.676347105653
 20
22.88309383645565
 42
0.0
 10
33.80807723102122
 20
16.96690590012176
 42
-0.3272098845219541
 10
33.30744633182575
 20
16.59999986828868
 42
0.0
 10
33.1672121683373
 20
16.59999986828868
 42
-0.4142135623731526
 10
32.64221216833721
 20
17.12499986828867
 42
0.0
 10
32.64221216833721
 20
22.72499986828869
 42
0.4142135623730951
 10
32.11721216833723
 20
23.24999986828868
 42
0.0
 10
30.36721216833711
 20
23.24999986828868
 42
0.4142135623730871
 10
29.84221216833714
 20
22.7249998682887
 42
0.0
 10
29.84221216833714
 20
7.674999868288676
 42
0.4142135623730891
 10
30.36721216833711
 20
7.149999868288688
 42
0.0
 10
32.11721216833712
 20
7.149999868288688
 42
0.4142135623731526
 10
32.64221216833721
 20
7.674999868288676
 42
0.0
 10
32.64221216833721
 20
13.27499986828869
 42
-0.4142135623731526
 10
33.1672121683373
 20
13.79999986828868
 42
0.0
 10
33.30744633182587
 20
13.79999986828868
 42
-0.3272098845218915
 10
33.80807723102122
 20
13.43309383645561
 42
0.0
 10
35.676347105653
 20
7.516905900121759
 42
0.3272098845218902
 10
36.17697800484836
 20
7.149999868288688
 42
0.0
 10
37.87586738445759
 20
7.149999868288688
 42
0.5069206636600335
 10
38.37649828365295
 20
7.833093836455695
 42
0.0
 10
36.05010690517929
 20
15.19999986828882
 42
0.0
 97
        0
 92
        7
 72
     1
 73
     1
 93
        8
 10
43.49221216833711
 20
22.7249998682887
 42
0.4142135623731546
 10
42.96721216833702
 20
23.24999986828868
 42
0.0
 10
41.21721216833726
 20
23.24999986828868
 42
0.4142135623731507
 10
40.69221216833716
 20
22.7249998682887
 42
0.0
 10
40.69221216833716
 20
7.674999868288676
 42
0.4142135623731526
 10
41.21721216833726
 20
7.149999868288688
 42
0.0
 10
42.96721216833702
 20
7.149999868288688
 42
0.4142135623731526
 10
43.49221216833711
 20
7.674999868288676
 42
0.0
 97
        0
 92
        7
 72
     1
 73
     1
 93
       24
 10
48.3922121683372
 20
19.92499986828869
 42
-0.4142135623731546
 10
48.9172121683373
 20
20.44999986828868
 42
0.0
 10
51.89221216833721
 20
20.44999986828868
 42
0.4142135623730911
 10
52.41721216833719
 20
20.97499986828867
 42
0.0
 10
52.41721216833719
 20
22.72499986828869
 42
0.4142135623730952
 10
51.89221216833721
 20
23.24999986828868
 42
0.0
 10
48.3922121683372
 20
23.24999986828868
 42
0.4142135623731048
 10
45.59221216833714
 20
20.44999986828871
 42
0.0
 10
45.59221216833714
 20
18.63479784293344
 42
0.1989123673796613
 10
46.82236368735368
 20
15.66494936194989
 42
0.0
 10
49.73216166199836
 20
12.75515138730522
 42
-0.1989123673796402
 10
50.14221216833721
 20
11.76520189364415
 42
0.0
 10
50.14221216833721
 20
10.47499986828867
 42
-0.4142135623730911
 10
49.61721216833723
 20
9.949999868288685
 42
0.0
 10
46.64221216833721
 20
9.949999868288685
 42
0.4142135623731526
 10
46.11721216833712
 20
9.424999868288697
 42
0.0
 10
46.11721216833712
 20
7.674999868288676
 42
0.4142135623730891
 10
46.64221216833709
 20
7.149999868288688
 42
0.0
 10
50.14221216833721
 20
7.149999868288688
 42
0.4142135623730925
 10
52.94221216833716
 20
9.949999868288664
 42
0.0
 10
52.94221216833716
 20
11.76520189364393
 42
0.1989123673796675
 10
51.71206064932062
 20
14.73505037462759
 42
0.0
 10
48.80226267467605
 20
17.6448483492721
 42
-0.1989123673796652
 10
48.3922121683372
 20
18.63479784293327
 42
0.0
 97
        0
 92
        7
 72
     1
 73
     1
 93
       16
 10
57.84221216833714
 20
22.72499986828867
 42
0.414213562373103
 10
57.31721216833716
 20
23.24999986828868
 42
0.0
 10
55.56721216833716
 20
23.24999986828868
 42
0.4142135623730871
 10
55.04221216833719
 20
22.7249998682887
 42
0.0
 10
55.04221216833719
 20
9.949999868288664
 42
0.4142135623730926
 10
57.84221216833714
 20
7.149999868288688
 42
0.0
 10
61.34221216833714
 20
7.149999868288688
 42
0.4142135623731044
 10
64.14221216833721
 20
9.949999868288664
 42
0.0
 10
64.14221216833721
 20
22.72499986828869
 42
0.4142135623730951
 10
63.61721216833723
 20
23.24999986828868
 42
0.0
 10
61.86721216833712
 20
23.24999986828868
 42
0.4142135623730871
 10
61.34221216833714
 20
22.7249998682887
 42
0.0
 10
61.34221216833714
 20
10.99999986828866
 42
-0.414213562373088
 10
60.29221216833718
 20
9.949999868288685
 42
0.0
 10
58.89221216833721
 20
9.949999868288685
 42
-0.4142135623731197
 10
57.84221216833714
 20
10.99999986828866
 42
0.0
 97
        0
 92
        7
 72
     1
 73
     1
 93
        8
 10
69.04221216833718
 20
22.7249998682887
 42
0.4142135623730871
 10
68.51721216833721
 20
23.24999986828868
 42
0.0
 10
66.76721216833721
 20
23.24999986828868
 42
0.4142135623731507
 10
66.24221216833712
 20
22.7249998682887
 42
0.0
 10
66.24221216833712
 20
7.674999868288676
 42
0.4142135623730891
 10
66.76721216833709
 20
7.149999868288688
 42
0.0
 10
68.51721216833721
 20
7.149999868288688
 42
0.4142135623730891
 10
69.04221216833718
 20
7.674999868288676
 42
0.0
 97
        0
 75
     0
 76
     1
 52
0.0
 41
0.2
 77
     0
 78
     2
 53
45.0
 43
-900.942304321123
 44
-13.20000013171124
 45
-0.4490128060534576
 46
0.4490128060534577
 79
     0
 53
135.0
 43
-900.942304321123
 44
-13.20000013171124
 45
-0.4490128060534577
 46
-0.4490128060534576
 79
     0
 47
0.057451373970553
 98
        8
 10
16.07985497657932
 20
15.16717351417423
 10
22.40451501999519
 20
18.84406205073969
 10
25.16436789921567
 20
15.5118815143594
 10
30.91405999519315
 20
16.20129751473018
 10
41.83847203251275
 20
16.6609097822718
 10
46.89820090868557
 20
19.41857618469589
 10
56.55768598595637
 20
18.72915778338369
 10
67.82707963317875
 20
19.18877005092531
  0
LINE
  5
EF5
330
1A
100
AcDbEntity
  8
ZUWAKU
100
AcDbLine
 10
24.94221216833716
 20
23.24999986828864
 30
0.0
 11
26.86721216833712
 21
23.24999986828868
 31
0.0
  0
LINE
  5
EF6
330
1A
100
AcDbEntity
  8
ZUWAKU
100
AcDbLine
 10
26.86721216833712
 20
20.44999986828868
 30
0.0
 11
24.94221216833716
 21
20.44999986828868
 31
0.0
  0
LINE
  5
EF7
330
1A
100
AcDbEntity
  8
ZUWAKU
100
AcDbLine
 10
24.94221216833716
 20
9.949999868288685
 30
0.0
 11
26.86721216833712
 21
9.949999868288685
 31
0.0
  0
LINE
  5
EF8
330
1A
100
AcDbEntity
  8
ZUWAKU
100
AcDbLine
 10
26.86721216833712
 20
7.149999868288688
 30
0.0
 11
24.94221216833716
 21
7.149999868288688
 31
0.0
  0
CIRCLE
  5
EF9
330
1A
100
AcDbEntity
  8
ZUWAKU
100
AcDbCircle
 10
25.99221216833711
 20
15.19999986828868
 30
0.0
 40
1.75
  0
ARC
  5
EFA
330
1A
100
AcDbEntity
  8
ZUWAKU
100
AcDbCircle
 10
15.49221216833712
 20
18.63479784293338
 30
0.0
 40
1.399999999999999
100
AcDbArc
 50
180.0000000000016
 51
224.9999999999988
  0
LINE
  5
EFB
330
1A
100
AcDbEntity
  8
ZUWAKU
100
AcDbLine
 10
23.54221216833718
 20
19.04999986828868
 30
0.0
 11
23.54221216833718
 21
11.34999986828869
 31
0.0
  0
LINE
  5
EFC
330
1A
100
AcDbEntity
  8
ZUWAKU
100
AcDbLine
 10
20.74221216833711
 20
11.34999986828869
 30
0.0
 11
20.74221216833711
 21
19.04999986828864
 31
0.0
  0
ARC
  5
EFD
330
1A
100
AcDbEntity
  8
ZUWAKU
100
AcDbCircle
 10
15.49221216833712
 20
18.63479784293338
 30
0.0
 40
4.199999999999999
100
AcDbArc
 50
180.0
 51
225.0
  0
ARC
  5
EFE
330
1A
100
AcDbEntity
  8
ZUWAKU
100
AcDbCircle
 10
15.84221216833714
 20
9.949999868288685
 30
0.0
 40
2.799999999999999
100
AcDbArc
 50
270.0
 51
0.0
  0
ARC
  5
EFF
330
1A
100
AcDbEntity
  8
ZUWAKU
100
AcDbCircle
 10
24.94221216833716
 20
11.34999986828869
 30
0.0
 40
4.199999999999999
100
AcDbArc
 50
180.0
 51
270.0
  0
ARC
  5
F00
330
1A
100
AcDbEntity
  8
ZUWAKU
100
AcDbCircle
 10
14.44221216833716
 20
11.76520189364399
 30
0.0
 40
4.199999999999999
100
AcDbArc
 50
0.0
 51
45.0
  0
LINE
  5
F01
330
1A
100
AcDbEntity
  8
ZUWAKU
100
AcDbLine
 10
17.41206064932066
 20
14.73505037462751
 30
0.0
 11
14.50226267467598
 21
17.64484834927218
 31
0.0
  0
LINE
  5
F02
330
1A
100
AcDbEntity
  8
ZUWAKU
100
AcDbLine
 10
15.84221216833714
 20
10.47499986828869
 30
0.0
 11
15.84221216833714
 21
11.76520189364403
 31
0.0
  0
ARC
  5
F03
330
1A
100
AcDbEntity
  8
ZUWAKU
100
AcDbCircle
 10
15.31721216833716
 20
10.47499986828869
 30
0.0
 40
0.525
100
AcDbArc
 50
270.0
 51
0.0
  0
ARC
  5
F04
330
1A
100
AcDbEntity
  8
ZUWAKU
100
AcDbCircle
 10
14.44221216833716
 20
11.76520189364403
 30
0.0
 40
1.399999999999999
100
AcDbArc
 50
0.0
 51
45.0
  0
LINE
  5
F05
330
1A
100
AcDbEntity
  8
ZUWAKU
100
AcDbLine
 10
11.81721216833716
 20
7.674999868288686
 30
0.0
 11
11.81721216833716
 21
9.424999868288686
 31
0.0
  0
ARC
  5
F06
330
1A
100
AcDbEntity
  8
ZUWAKU
100
AcDbCircle
 10
12.34221216833714
 20
7.674999868288686
 30
0.0
 40
0.525
100
AcDbArc
 50
180.0
 51
270.0
  0
ARC
  5
F07
330
1A
100
AcDbEntity
  8
ZUWAKU
100
AcDbCircle
 10
12.34221216833714
 20
9.424999868288686
 30
0.0
 40
0.525
100
AcDbArc
 50
90.0
 51
180.0
  0
LINE
  5
F08
330
1A
100
AcDbEntity
  8
ZUWAKU
100
AcDbLine
 10
12.34221216833714
 20
7.149999868288688
 30
0.0
 11
15.84221216833714
 21
7.149999868288688
 31
0.0
  0
LINE
  5
F09
330
1A
100
AcDbEntity
  8
ZUWAKU
100
AcDbLine
 10
12.34221216833714
 20
9.949999868288685
 30
0.0
 11
15.31721216833716
 21
9.949999868288685
 31
0.0
  0
LINE
  5
F0A
330
1A
100
AcDbEntity
  8
ZUWAKU
100
AcDbLine
 10
12.52236368735361
 20
15.66494936194986
 30
0.0
 11
15.43216166199829
 21
12.7551513873052
 31
0.0
  0
LINE
  5
F0B
330
1A
100
AcDbEntity
  8
ZUWAKU
100
AcDbLine
 10
18.64221216833721
 20
9.949999868288685
 30
0.0
 11
18.64221216833721
 21
11.76520189364403
 31
0.0
  0
ARC
  5
F0C
330
1A
100
AcDbEntity
  8
ZUWAKU
100
AcDbCircle
 10
24.94221216833716
 20
11.34999986828869
 30
0.0
 40
1.399999999999999
100
AcDbArc
 50
180.0
 51
270.0
  0
ARC
  5
F0D
330
1A
100
AcDbEntity
  8
ZUWAKU
100
AcDbCircle
 10
17.59221216833714
 20
22.72499986828868
 30
0.0
 40
0.525
100
AcDbArc
 50
0.0
 51
90.0
  0
ARC
  5
F0E
330
1A
100
AcDbEntity
  8
ZUWAKU
100
AcDbCircle
 10
17.59221216833714
 20
20.97499986828868
 30
0.0
 40
0.525
100
AcDbArc
 50
270.0
 51
0.0
  0
LINE
  5
F0F
330
1A
100
AcDbEntity
  8
ZUWAKU
100
AcDbLine
 10
14.09221216833714
 20
23.24999986828868
 30
0.0
 11
17.59221216833714
 21
23.24999986828868
 31
0.0
  0
ARC
  5
F10
330
1A
100
AcDbEntity
  8
ZUWAKU
100
AcDbCircle
 10
14.61721216833711
 20
19.92499986828868
 30
0.0
 40
0.525
100
AcDbArc
 50
90.0
 51
180.0
  0
LINE
  5
F11
330
1A
100
AcDbEntity
  8
ZUWAKU
100
AcDbLine
 10
14.09221216833714
 20
19.92499986828868
 30
0.0
 11
14.09221216833714
 21
18.63479784293334
 31
0.0
  0
LINE
  5
F12
330
1A
100
AcDbEntity
  8
ZUWAKU
100
AcDbLine
 10
17.59221216833714
 20
20.44999986828868
 30
0.0
 11
14.61721216833711
 21
20.44999986828868
 31
0.0
  0
LINE
  5
F13
330
1A
100
AcDbEntity
  8
ZUWAKU
100
AcDbLine
 10
11.29221216833718
 20
20.44999986828868
 30
0.0
 11
11.29221216833718
 21
18.63479784293334
 31
0.0
  0
ARC
  5
F14
330
1A
100
AcDbEntity
  8
ZUWAKU
100
AcDbCircle
 10
14.09221216833714
 20
20.44999986828868
 30
0.0
 40
2.799999999999999
100
AcDbArc
 50
90.0
 51
180.0
  0
LINE
  5
F15
330
1A
100
AcDbEntity
  8
ZUWAKU
100
AcDbLine
 10
18.11721216833712
 20
22.72499986828868
 30
0.0
 11
18.11721216833712
 21
20.97499986828868
 31
0.0
  0
ARC
  5
F16
330
1A
100
AcDbEntity
  8
ZUWAKU
100
AcDbCircle
 10
24.94221216833716
 20
19.04999986828868
 30
0.0
 40
1.399999999999999
100
AcDbArc
 50
90.0
 51
180.0
  0
ARC
  5
F17
330
1A
100
AcDbEntity
  8
ZUWAKU
100
AcDbCircle
 10
24.94221216833716
 20
19.04999986828864
 30
0.0
 40
4.199999999999999
100
AcDbArc
 50
90.0
 51
180.0
  0
LINE
  5
F18
330
1A
100
AcDbEntity
  8
ZUWAKU
100
AcDbLine
 10
79.32662956154422
 20
29.99999986828868
 30
0.0
 11
79.32662956154445
 21
0.7999998682887508
 31
0.0
  0
LINE
  5
F19
330
1A
100
AcDbEntity
  8
ZUWAKU
100
AcDbLine
 10
79.52662956154426
 20
29.99999986828868
 30
0.0
 11
79.52662956154449
 21
0.7999998682887508
 31
0.0
  0
LINE
  5
F1A
330
1A
100
AcDbEntity
  8
ZUWAKU
100
AcDbLine
 10
79.12662956154441
 20
29.99999986828868
 30
0.0
 11
79.12662956154441
 21
0.7999998682887508
 31
0.0
  0
LINE
  5
F1B
330
1A
100
AcDbEntity
  8
ZUWAKU
100
AcDbLine
 10
64.14221216833721
 20
9.949999868288685
 30
0.0
 11
64.14221216833721
 21
22.72499986828868
 31
0.0
  0
LINE
  5
F1C
330
1A
100
AcDbEntity
  8
ZUWAKU
100
AcDbLine
 10
61.34221216833714
 20
22.72499986828868
 30
0.0
 11
61.34221216833714
 21
10.99999986828868
 31
0.0
  0
LINE
  5
F1D
330
1A
100
AcDbEntity
  8
ZUWAKU
100
AcDbLine
 10
69.04221216833718
 20
7.674999868288686
 30
0.0
 11
69.04221216833718
 21
22.72499986828868
 31
0.0
  0
LINE
  5
F1E
330
1A
100
AcDbEntity
  8
ZUWAKU
100
AcDbLine
 10
66.24221216833712
 20
22.72499986828868
 30
0.0
 11
66.24221216833712
 21
7.674999868288686
 31
0.0
  0
ARC
  5
F1F
330
1A
100
AcDbEntity
  8
ZUWAKU
100
AcDbCircle
 10
49.79221216833718
 20
18.63479784293338
 30
0.0
 40
1.399999999999999
100
AcDbArc
 50
180.0000000000016
 51
224.9999999999988
  0
ARC
  5
F20
330
1A
100
AcDbEntity
  8
ZUWAKU
100
AcDbCircle
 10
49.79221216833718
 20
18.63479784293338
 30
0.0
 40
4.199999999999999
100
AcDbArc
 50
180.0
 51
225.0
  0
LINE
  5
F21
330
1A
100
AcDbEntity
  8
ZUWAKU
100
AcDbLine
 10
37.31485865051513
 20
19.20504706185211
 30
0.0
 11
36.05010690517929
 21
15.1999998682887
 31
0.0
  0
LINE
  5
F22
330
1A
100
AcDbEntity
  8
ZUWAKU
100
AcDbLine
 10
40.69221216833716
 20
22.72499986828868
 30
0.0
 11
40.69221216833716
 21
7.674999868288686
 31
0.0
  0
LINE
  5
F23
330
1A
100
AcDbEntity
  8
ZUWAKU
100
AcDbLine
 10
43.49221216833711
 20
7.674999868288686
 30
0.0
 11
43.49221216833711
 21
22.72499986828868
 31
0.0
  0
LINE
  5
F24
330
1A
100
AcDbEntity
  8
ZUWAKU
100
AcDbLine
 10
55.04221216833719
 20
22.72499986828868
 30
0.0
 11
55.04221216833719
 21
9.949999868288685
 31
0.0
  0
LINE
  5
F25
330
1A
100
AcDbEntity
  8
ZUWAKU
100
AcDbLine
 10
57.84221216833714
 20
10.99999986828868
 30
0.0
 11
57.84221216833714
 21
22.72499986828868
 31
0.0
  0
LINE
  5
F26
330
1A
100
AcDbEntity
  8
ZUWAKU
100
AcDbLine
 10
32.64221216833721
 20
17.12499986828869
 30
0.0
 11
32.64221216833721
 21
22.72499986828868
 31
0.0
  0
LINE
  5
F27
330
1A
100
AcDbEntity
  8
ZUWAKU
100
AcDbLine
 10
29.84221216833714
 20
22.72499986828868
 30
0.0
 11
29.84221216833714
 21
7.674999868288686
 31
0.0
  0
LINE
  5
F28
330
1A
100
AcDbEntity
  8
ZUWAKU
100
AcDbLine
 10
35.676347105653
 20
22.88309383645565
 30
0.0
 11
33.80807723102122
 21
16.96690590012171
 31
0.0
  0
LINE
  5
F29
330
1A
100
AcDbEntity
  8
ZUWAKU
100
AcDbLine
 10
60.29221216833718
 20
9.949999868288685
 30
0.0
 11
58.89221216833721
 21
9.949999868288685
 31
0.0
  0
LINE
  5
F2A
330
1A
100
AcDbEntity
  8
ZUWAKU
100
AcDbLine
 10
57.84221216833714
 20
7.149999868288688
 30
0.0
 11
61.34221216833714
 21
7.149999868288688
 31
0.0
  0
LINE
  5
F2B
330
1A
100
AcDbEntity
  8
ZUWAKU
100
AcDbLine
 10
41.21721216833714
 20
7.149999868288688
 30
0.0
 11
42.96721216833714
 21
7.149999868288688
 31
0.0
  0
LINE
  5
F2C
330
1A
100
AcDbEntity
  8
ZUWAKU
100
AcDbLine
 10
35.676347105653
 20
7.516905900121713
 30
0.0
 11
33.80807723102122
 21
13.43309383645565
 31
0.0
  0
ARC
  5
F2D
330
1A
100
AcDbEntity
  8
ZUWAKU
100
AcDbCircle
 10
33.30744633182587
 20
17.12499986828869
 30
0.0
 40
0.525
100
AcDbArc
 50
270.0
 51
342.4744316262769
  0
LINE
  5
F2E
330
1A
100
AcDbEntity
  8
ZUWAKU
100
AcDbLine
 10
33.30744633182587
 20
16.59999986828868
 30
0.0
 11
33.16721216833718
 21
16.59999986828868
 31
0.0
  0
LINE
  5
F2F
330
1A
100
AcDbEntity
  8
ZUWAKU
100
AcDbLine
 10
33.16721216833718
 20
13.79999986828868
 30
0.0
 11
33.30744633182587
 21
13.79999986828868
 31
0.0
  0
ARC
  5
F30
330
1A
100
AcDbEntity
  8
ZUWAKU
100
AcDbCircle
 10
33.16721216833718
 20
17.12499986828869
 30
0.0
 40
0.525
100
AcDbArc
 50
180.0
 51
270.0
  0
LINE
  5
F31
330
1A
100
AcDbEntity
  8
ZUWAKU
100
AcDbLine
 10
30.36721216833711
 20
7.149999868288688
 30
0.0
 11
32.11721216833712
 21
7.149999868288688
 31
0.0
  0
ARC
  5
F32
330
1A
100
AcDbEntity
  8
ZUWAKU
100
AcDbCircle
 10
32.11721216833712
 20
7.674999868288686
 30
0.0
 40
0.525
100
AcDbArc
 50
270.0
 51
0.0
  0
LINE
  5
F33
330
1A
100
AcDbEntity
  8
ZUWAKU
100
AcDbLine
 10
32.64221216833721
 20
7.674999868288686
 30
0.0
 11
32.64221216833721
 21
13.27499986828868
 31
0.0
  0
LINE
  5
F34
330
1A
100
AcDbEntity
  8
ZUWAKU
100
AcDbLine
 10
27.39221216833721
 20
9.424999868288686
 30
0.0
 11
27.39221216833721
 21
7.674999868288686
 31
0.0
  0
ARC
  5
F35
330
1A
100
AcDbEntity
  8
ZUWAKU
100
AcDbCircle
 10
26.86721216833712
 20
7.674999868288686
 30
0.0
 40
0.525
100
AcDbArc
 50
270.0
 51
0.0
  0
ARC
  5
F36
330
1A
100
AcDbEntity
  8
ZUWAKU
100
AcDbCircle
 10
26.86721216833712
 20
9.424999868288686
 30
0.0
 40
0.525
100
AcDbArc
 50
0.0
 51
90.0
  0
ARC
  5
F37
330
1A
100
AcDbEntity
  8
ZUWAKU
100
AcDbCircle
 10
30.36721216833711
 20
7.674999868288686
 30
0.0
 40
0.525
100
AcDbArc
 50
180.0
 51
270.0
  0
ARC
  5
F38
330
1A
100
AcDbEntity
  8
ZUWAKU
100
AcDbCircle
 10
33.30744633182587
 20
13.27499986828868
 30
0.0
 40
0.525
100
AcDbArc
 50
17.52556837372303
 51
90.0
  0
ARC
  5
F39
330
1A
100
AcDbEntity
  8
ZUWAKU
100
AcDbCircle
 10
33.16721216833718
 20
13.27499986828868
 30
0.0
 40
0.525
100
AcDbArc
 50
90.0
 51
180.0
  0
ARC
  5
F3A
330
1A
100
AcDbEntity
  8
ZUWAKU
100
AcDbCircle
 10
41.21721216833714
 20
7.674999868288686
 30
0.0
 40
0.525
100
AcDbArc
 50
180.0
 51
270.0
  0
LINE
  5
F3B
330
1A
100
AcDbEntity
  8
ZUWAKU
100
AcDbLine
 10
36.17697800484847
 20
7.149999868288688
 30
0.0
 11
37.87586738445748
 21
7.149999868288688
 31
0.0
  0
ARC
  5
F3C
330
1A
100
AcDbEntity
  8
ZUWAKU
100
AcDbCircle
 10
37.87586738445748
 20
7.674999868288686
 30
0.0
 40
0.525
100
AcDbArc
 50
270.0
 51
17.52556837372303
  0
LINE
  5
F3D
330
1A
100
AcDbEntity
  8
ZUWAKU
100
AcDbLine
 10
38.37649828365295
 20
7.83309383645566
 30
0.0
 11
36.05010690517929
 21
15.1999998682887
 31
0.0
  0
ARC
  5
F3E
330
1A
100
AcDbEntity
  8
ZUWAKU
100
AcDbCircle
 10
36.17697800484847
 20
7.674999868288686
 30
0.0
 40
0.525
100
AcDbArc
 50
197.525568373723
 51
270.0
  0
ARC
  5
F3F
330
1A
100
AcDbEntity
  8
ZUWAKU
100
AcDbCircle
 10
57.84221216833714
 20
9.949999868288685
 30
0.0
 40
2.799999999999999
100
AcDbArc
 50
180.0
 51
270.0
  0
ARC
  5
F40
330
1A
100
AcDbEntity
  8
ZUWAKU
100
AcDbCircle
 10
50.14221216833721
 20
9.949999868288685
 30
0.0
 40
2.799999999999999
100
AcDbArc
 50
270.0
 51
0.0
  0
LINE
  5
F41
330
1A
100
AcDbEntity
  8
ZUWAKU
100
AcDbLine
 10
51.71206064932073
 20
14.73505037462751
 30
0.0
 11
48.80226267467595
 21
17.64484834927218
 31
0.0
  0
LINE
  5
F42
330
1A
100
AcDbEntity
  8
ZUWAKU
100
AcDbLine
 10
50.14221216833721
 20
10.47499986828869
 30
0.0
 11
50.14221216833721
 21
11.76520189364403
 31
0.0
  0
ARC
  5
F43
330
1A
100
AcDbEntity
  8
ZUWAKU
100
AcDbCircle
 10
48.74221216833712
 20
11.76520189364403
 30
0.0
 40
1.399999999999999
100
AcDbArc
 50
0.0
 51
45.0
  0
ARC
  5
F44
330
1A
100
AcDbEntity
  8
ZUWAKU
100
AcDbCircle
 10
49.61721216833712
 20
10.47499986828869
 30
0.0
 40
0.525
100
AcDbArc
 50
270.0
 51
0.0
  0
LINE
  5
F45
330
1A
100
AcDbEntity
  8
ZUWAKU
100
AcDbLine
 10
46.11721216833712
 20
7.674999868288686
 30
0.0
 11
46.11721216833712
 21
9.424999868288686
 31
0.0
  0
ARC
  5
F46
330
1A
100
AcDbEntity
  8
ZUWAKU
100
AcDbCircle
 10
46.64221216833721
 20
7.674999868288686
 30
0.0
 40
0.525
100
AcDbArc
 50
180.0
 51
270.0
  0
ARC
  5
F47
330
1A
100
AcDbEntity
  8
ZUWAKU
100
AcDbCircle
 10
42.96721216833714
 20
7.674999868288686
 30
0.0
 40
0.525
100
AcDbArc
 50
270.0
 51
0.0
  0
ARC
  5
F48
330
1A
100
AcDbEntity
  8
ZUWAKU
100
AcDbCircle
 10
46.64221216833721
 20
9.424999868288686
 30
0.0
 40
0.525
100
AcDbArc
 50
90.0
 51
180.0
  0
LINE
  5
F49
330
1A
100
AcDbEntity
  8
ZUWAKU
100
AcDbLine
 10
46.64221216833721
 20
9.949999868288685
 30
0.0
 11
49.61721216833712
 21
9.949999868288685
 31
0.0
  0
LINE
  5
F4A
330
1A
100
AcDbEntity
  8
ZUWAKU
100
AcDbLine
 10
46.64221216833721
 20
7.149999868288688
 30
0.0
 11
50.14221216833721
 21
7.149999868288688
 31
0.0
  0
LINE
  5
F4B
330
1A
100
AcDbEntity
  8
ZUWAKU
100
AcDbLine
 10
46.82236368735368
 20
15.66494936194986
 30
0.0
 11
49.73216166199836
 21
12.7551513873052
 31
0.0
  0
LINE
  5
F4C
330
1A
100
AcDbEntity
  8
ZUWAKU
100
AcDbLine
 10
52.94221216833716
 20
9.949999868288685
 30
0.0
 11
52.94221216833716
 21
11.76520189364403
 31
0.0
  0
ARC
  5
F4D
330
1A
100
AcDbEntity
  8
ZUWAKU
100
AcDbCircle
 10
48.74221216833712
 20
11.76520189364399
 30
0.0
 40
4.199999999999999
100
AcDbArc
 50
0.0
 51
45.0
  0
ARC
  5
F4E
330
1A
100
AcDbEntity
  8
ZUWAKU
100
AcDbCircle
 10
58.89221216833721
 20
10.99999986828868
 30
0.0
 40
1.049999999999999
100
AcDbArc
 50
180.0
 51
270.0
  0
ARC
  5
F4F
330
1A
100
AcDbEntity
  8
ZUWAKU
100
AcDbCircle
 10
61.34221216833714
 20
9.949999868288685
 30
0.0
 40
2.799999999999999
100
AcDbArc
 50
270.0
 51
0.0
  0
LINE
  5
F50
330
1A
100
AcDbEntity
  8
ZUWAKU
100
AcDbLine
 10
66.76721216833721
 20
7.149999868288688
 30
0.0
 11
68.51721216833721
 21
7.149999868288688
 31
0.0
  0
ARC
  5
F51
330
1A
100
AcDbEntity
  8
ZUWAKU
100
AcDbCircle
 10
66.76721216833721
 20
7.674999868288686
 30
0.0
 40
0.525
100
AcDbArc
 50
180.0
 51
270.0
  0
ARC
  5
F52
330
1A
100
AcDbEntity
  8
ZUWAKU
100
AcDbCircle
 10
60.29221216833718
 20
10.99999986828868
 30
0.0
 40
1.049999999999999
100
AcDbArc
 50
270.0
 51
0.0
  0
ARC
  5
F53
330
1A
100
AcDbEntity
  8
ZUWAKU
100
AcDbCircle
 10
68.51721216833721
 20
7.674999868288686
 30
0.0
 40
0.525
100
AcDbArc
 50
270.0
 51
0.0
  0
LINE
  5
F54
330
1A
100
AcDbEntity
  8
ZUWAKU
100
AcDbLine
 10
42.96721216833714
 20
23.24999986828868
 30
0.0
 11
41.21721216833714
 21
23.24999986828868
 31
0.0
  0
ARC
  5
F55
330
1A
100
AcDbEntity
  8
ZUWAKU
100
AcDbCircle
 10
32.11721216833712
 20
22.72499986828868
 30
0.0
 40
0.525
100
AcDbArc
 50
0.0
 51
90.0
  0
LINE
  5
F56
330
1A
100
AcDbEntity
  8
ZUWAKU
100
AcDbLine
 10
32.11721216833712
 20
23.24999986828868
 30
0.0
 11
30.36721216833711
 21
23.24999986828868
 31
0.0
  0
ARC
  5
F57
330
1A
100
AcDbEntity
  8
ZUWAKU
100
AcDbCircle
 10
26.86721216833712
 20
22.72499986828868
 30
0.0
 40
0.525
100
AcDbArc
 50
0.0
 51
90.0
  0
ARC
  5
F58
330
1A
100
AcDbEntity
  8
ZUWAKU
100
AcDbCircle
 10
30.36721216833711
 20
22.72499986828868
 30
0.0
 40
0.525
100
AcDbArc
 50
90.0
 51
180.0
  0
ARC
  5
F59
330
1A
100
AcDbEntity
  8
ZUWAKU
100
AcDbCircle
 10
26.86721216833712
 20
20.97499986828868
 30
0.0
 40
0.525
100
AcDbArc
 50
270.0
 51
0.0
  0
LINE
  5
F5A
330
1A
100
AcDbEntity
  8
ZUWAKU
100
AcDbLine
 10
27.39221216833721
 20
22.72499986828868
 30
0.0
 11
27.39221216833721
 21
20.97499986828868
 31
0.0
  0
ARC
  5
F5B
330
1A
100
AcDbEntity
  8
ZUWAKU
100
AcDbCircle
 10
41.21721216833714
 20
22.72499986828868
 30
0.0
 40
0.525
100
AcDbArc
 50
90.0
 51
180.0
  0
LINE
  5
F5C
330
1A
100
AcDbEntity
  8
ZUWAKU
100
AcDbLine
 10
36.17697800484847
 20
23.24999986828868
 30
0.0
 11
37.87586738445748
 21
23.24999986828868
 31
0.0
  0
ARC
  5
F5D
330
1A
100
AcDbEntity
  8
ZUWAKU
100
AcDbCircle
 10
37.87586738445748
 20
22.72499986828868
 30
0.0
 40
0.525
100
AcDbArc
 50
342.4744316262769
 51
90.0
  0
LINE
  5
F5E
330
1A
100
AcDbEntity
  8
ZUWAKU
100
AcDbLine
 10
38.37649828365295
 20
22.56690590012171
 30
0.0
 11
37.31485865051513
 21
19.20504706185211
 31
0.0
  0
ARC
  5
F5F
330
1A
100
AcDbEntity
  8
ZUWAKU
100
AcDbCircle
 10
36.17697800484847
 20
22.72499986828868
 30
0.0
 40
0.525
100
AcDbArc
 50
90.0
 51
162.4744316262769
  0
LINE
  5
F60
330
1A
100
AcDbEntity
  8
ZUWAKU
100
AcDbLine
 10
48.3922121683372
 20
23.24999986828868
 30
0.0
 11
51.89221216833721
 21
23.24999986828868
 31
0.0
  0
LINE
  5
F61
330
1A
100
AcDbEntity
  8
ZUWAKU
100
AcDbLine
 10
51.89221216833721
 20
20.44999986828868
 30
0.0
 11
48.91721216833719
 21
20.44999986828868
 31
0.0
  0
ARC
  5
F62
330
1A
100
AcDbEntity
  8
ZUWAKU
100
AcDbCircle
 10
48.91721216833719
 20
19.92499986828868
 30
0.0
 40
0.525
100
AcDbArc
 50
90.0
 51
180.0
  0
LINE
  5
F63
330
1A
100
AcDbEntity
  8
ZUWAKU
100
AcDbLine
 10
48.3922121683372
 20
19.92499986828868
 30
0.0
 11
48.3922121683372
 21
18.63479784293334
 31
0.0
  0
ARC
  5
F64
330
1A
100
AcDbEntity
  8
ZUWAKU
100
AcDbCircle
 10
42.96721216833714
 20
22.72499986828868
 30
0.0
 40
0.525
100
AcDbArc
 50
0.0
 51
90.0
  0
LINE
  5
F65
330
1A
100
AcDbEntity
  8
ZUWAKU
100
AcDbLine
 10
45.59221216833714
 20
20.44999986828868
 30
0.0
 11
45.59221216833714
 21
18.63479784293334
 31
0.0
  0
ARC
  5
F66
330
1A
100
AcDbEntity
  8
ZUWAKU
100
AcDbCircle
 10
48.3922121683372
 20
20.44999986828868
 30
0.0
 40
2.799999999999999
100
AcDbArc
 50
90.0
 51
180.0
  0
ARC
  5
F67
330
1A
100
AcDbEntity
  8
ZUWAKU
100
AcDbCircle
 10
57.31721216833716
 20
22.72499986828868
 30
0.0
 40
0.525
100
AcDbArc
 50
0.0
 51
90.0
  0
ARC
  5
F68
330
1A
100
AcDbEntity
  8
ZUWAKU
100
AcDbCircle
 10
55.56721216833716
 20
22.72499986828868
 30
0.0
 40
0.525
100
AcDbArc
 50
90.0
 51
180.0
  0
LINE
  5
F69
330
1A
100
AcDbEntity
  8
ZUWAKU
100
AcDbLine
 10
57.31721216833716
 20
23.24999986828868
 30
0.0
 11
55.56721216833716
 21
23.24999986828868
 31
0.0
  0
ARC
  5
F6A
330
1A
100
AcDbEntity
  8
ZUWAKU
100
AcDbCircle
 10
51.89221216833721
 20
22.72499986828868
 30
0.0
 40
0.525
100
AcDbArc
 50
0.0
 51
90.0
  0
ARC
  5
F6B
330
1A
100
AcDbEntity
  8
ZUWAKU
100
AcDbCircle
 10
51.89221216833721
 20
20.97499986828868
 30
0.0
 40
0.525
100
AcDbArc
 50
270.0
 51
0.0
  0
LINE
  5
F6C
330
1A
100
AcDbEntity
  8
ZUWAKU
100
AcDbLine
 10
52.41721216833719
 20
22.72499986828868
 30
0.0
 11
52.41721216833719
 21
20.97499986828868
 31
0.0
  0
LINE
  5
F6D
330
1A
100
AcDbEntity
  8
ZUWAKU
100
AcDbLine
 10
68.51721216833721
 20
23.24999986828868
 30
0.0
 11
66.76721216833721
 21
23.24999986828868
 31
0.0
  0
ARC
  5
F6E
330
1A
100
AcDbEntity
  8
ZUWAKU
100
AcDbCircle
 10
66.76721216833721
 20
22.72499986828868
 30
0.0
 40
0.525
100
AcDbArc
 50
90.0
 51
180.0
  0
ARC
  5
F6F
330
1A
100
AcDbEntity
  8
ZUWAKU
100
AcDbCircle
 10
63.61721216833712
 20
22.72499986828868
 30
0.0
 40
0.525
100
AcDbArc
 50
0.0
 51
90.0
  0
LINE
  5
F70
330
1A
100
AcDbEntity
  8
ZUWAKU
100
AcDbLine
 10
63.61721216833712
 20
23.24999986828868
 30
0.0
 11
61.86721216833712
 21
23.24999986828868
 31
0.0
  0
ARC
  5
F71
330
1A
100
AcDbEntity
  8
ZUWAKU
100
AcDbCircle
 10
61.86721216833712
 20
22.72499986828868
 30
0.0
 40
0.525
100
AcDbArc
 50
90.0
 51
180.0
  0
ARC
  5
F72
330
1A
100
AcDbEntity
  8
ZUWAKU
100
AcDbCircle
 10
68.51721216833721
 20
22.72499986828868
 30
0.0
 40
0.525
100
AcDbArc
 50
0.0
 51
90.0
  0
TEXT
  5
F73
330
1A
100
AcDbEntity
  8
MOJI
100
AcDbText
 10
239.827202694407
 20
18.00492092569607
 30
0.0
 40
5.599999999999999
  1
曲りⅡ（出）
 41
0.9
  7
ｽﾀｲﾙ1
100
AcDbText
  0
TEXT
  5
F74
330
1A
100
AcDbEntity
  8
MOJI
100
AcDbText
 10
239.827202694407
 20
3.204920925696104
 30
0.0
 40
5.599999999999999
  1
Ｈ１２０
 41
0.9
  7
ｽﾀｲﾙ1
100
AcDbText
  0
LINE
  5
F75
330
1A
100
AcDbEntity
  8
ZUWAKU
100
AcDbLine
 10
208.2466013036239
 20
29.99999986828868
 30
0.0
 11
208.2466013036239
 21
0.7999998682887508
 31
0.0
  0
LINE
  5
F76
330
1A
100
AcDbEntity
  8
ZUWAKU
100
AcDbLine
 10
208.6466013036238
 20
29.99999986828868
 30
0.0
 11
208.646601303624
 21
0.7999998682887508
 31
0.0
  0
LINE
  5
F77
330
1A
100
AcDbEntity
  8
ZUWAKU
100
AcDbLine
 10
208.4466013036237
 20
29.99999986828868
 30
0.0
 11
208.446601303624
 21
0.7999998682887508
 31
0.0
  0
TEXT
  5
F78
330
1A
100
AcDbEntity
  8
ZUWAKU
100
AcDbText
 10
209.7240463258335
 20
9.6553564066743
 30
0.0
 40
4.0
  1
サイズ
 41
0.9
  7
ｽﾀｲﾙ1
100
AcDbText
  0
TEXT
  5
F79
330
1A
100
AcDbEntity
  8
ZUWAKU
100
AcDbText
 10
209.7240463258333
 20
24.05535640667426
 30
0.0
 40
4.0
  1
品名
 41
0.9
  7
ｽﾀｲﾙ1
100
AcDbText
  0
LINE
  5
F7A
330
1A
100
AcDbEntity
  8
ZUWAKU
100
AcDbLine
 10
648.8172025237602
 20
15.19999986828871
 30
0.0
 11
697.2490105620972
 21
15.19999986828871
 31
0.0
  0
LINE
  5
F7B
330
1A
100
AcDbEntity
  8
ZUWAKU
100
AcDbLine
 10
648.8172025237604
 20
15.39999986828872
 30
0.0
 11
697.2490105620972
 21
15.39999986828871
 31
0.0
  0
LINE
  5
F7C
330
1A
100
AcDbEntity
  8
ZUWAKU
100
AcDbLine
 10
648.8172025237602
 20
15.59999986828871
 30
0.0
 11
697.2490105620972
 21
15.59999986828871
 31
0.0
  0
TEXT
  5
F7D
330
1A
100
AcDbEntity
  8
ZUWAKU
100
AcDbText
 10
656.0374517031416
 20
18.66376316516152
 30
0.0
 40
5.599999999999999
  1
　　．  ．　　
 41
0.9
  7
ｽﾀｲﾙ1
100
AcDbText
  0
LINE
  5
F7E
330
1A
100
AcDbEntity
  8
ZUWAKU
100
AcDbLine
 10
505.1991795116968
 20
15.19999986828872
 30
0.0
 11
552.5269557796685
 21
15.19999986828872
 31
0.0
  0
LINE
  5
F7F
330
1A
100
AcDbEntity
  8
ZUWAKU
100
AcDbLine
 10
505.1991795116968
 20
15.39999986828871
 30
0.0
 11
552.5269557796685
 21
15.39999986828871
 31
0.0
  0
LINE
  5
F80
330
1A
100
AcDbEntity
  8
ZUWAKU
100
AcDbLine
 10
505.1991795116968
 20
15.59999986828871
 30
0.0
 11
552.5269557796685
 21
15.59999986828871
 31
0.0
  0
TEXT
  5
F81
330
1A
100
AcDbEntity
  8
MOJI
100
AcDbText
 10
463.246432004558
 20
11.94261758994866
 30
0.0
 40
5.599999999999999
  1
ＰＥ３３□
 41
0.9
  7
ｽﾀｲﾙ1
100
AcDbText
  0
LINE
  5
F82
330
1A
100
AcDbEntity
  8
ZUWAKU
100
AcDbLine
 10
447.6243639845472
 20
29.99999986828868
 30
0.0
 11
447.6243639845474
 21
0.7999998682887508
 31
0.0
  0
LINE
  5
F83
330
1A
100
AcDbEntity
  8
ZUWAKU
100
AcDbLine
 10
447.8243639845472
 20
29.99999986828868
 30
0.0
 11
447.8243639845475
 21
0.7999998682887508
 31
0.0
  0
LINE
  5
F84
330
1A
100
AcDbEntity
  8
ZUWAKU
100
AcDbLine
 10
447.4243639845474
 20
29.99999986828868
 30
0.0
 11
447.4243639845474
 21
0.7999998682887508
 31
0.0
  0
TEXT
  5
F85
330
1A
100
AcDbEntity
  8
MOJI
100
AcDbText
 10
528.0409079858689
 20
18.00492092569607
 30
0.0
 40
5.599999999999999
  1
Ａ３
 41
0.9
  7
ｽﾀｲﾙ1
100
AcDbText
  0
LINE
  5
F86
330
1A
100
AcDbEntity
  8
ZUWAKU
100
AcDbLine
 10
504.9991795116969
 20
29.99999986828868
 30
0.0
 11
504.999179511697
 21
0.7999998682887508
 31
0.0
  0
LINE
  5
F87
330
1A
100
AcDbEntity
  8
ZUWAKU
100
AcDbLine
 10
505.1991795116968
 20
29.99999986828868
 30
0.0
 11
505.1991795116971
 21
0.7999998682887508
 31
0.0
  0
LINE
  5
F88
330
1A
100
AcDbEntity
  8
ZUWAKU
100
AcDbLine
 10
504.799179511697
 20
29.99999986828868
 30
0.0
 11
504.799179511697
 21
0.7999998682887508
 31
0.0
  0
TEXT
  5
F89
330
1A
100
AcDbEntity
  8
ZUWAKU
100
AcDbText
 10
464.0120022211934
 20
2.614070779428175
 30
0.0
 40
3.0
  1
□には色品番が入ります
 41
0.9
  7
ｽﾀｲﾙ1
100
AcDbText
  0
TEXT
  5
F8A
330
1A
100
AcDbEntity
  8
ZUWAKU
100
AcDbText
 10
506.6766245339067
 20
9.6553564066743
 30
0.0
 40
4.0
  1
縮尺
 41
0.9
  7
ｽﾀｲﾙ1
100
AcDbText
  0
TEXT
  5
F8B
330
1A
100
AcDbEntity
  8
MOJI
100
AcDbText
 10
528.0409079858689
 20
3.204920925696104
 30
0.0
 40
5.599999999999999
  1
１/２
 41
0.9
  7
ｽﾀｲﾙ1
100
AcDbText
  0
TEXT
  5
F8C
330
1A
100
AcDbEntity
  8
ZUWAKU
100
AcDbText
 10
449.3018090067569
 20
24.05535640667426
 30
0.0
 40
4.0
  1
品番
 41
0.9
  7
ｽﾀｲﾙ1
100
AcDbText
  0
TEXT
  5
F8D
330
1A
100
AcDbEntity
  8
ZUWAKU
100
AcDbText
 10
506.6766245339065
 20
24.05535640667426
 30
0.0
 40
4.0
  1
用紙
 41
0.9
  7
ｽﾀｲﾙ1
100
AcDbText
  0
LINE
  5
F8E
330
1A
100
AcDbEntity
  8
ZUWAKU
100
AcDbLine
 10
648.6172025237603
 20
29.99999986828868
 30
0.0
 11
648.6172025237606
 21
0.7999998682887508
 31
0.0
  0
LINE
  5
F8F
330
1A
100
AcDbEntity
  8
ZUWAKU
100
AcDbLine
 10
648.8172025237604
 20
29.99999986828868
 30
0.0
 11
648.8172025237607
 21
0.7999998682887508
 31
0.0
  0
LINE
  5
F90
330
1A
100
AcDbEntity
  8
ZUWAKU
100
AcDbLine
 10
648.4172025237605
 20
29.99999986828868
 30
0.0
 11
648.4172025237605
 21
0.7999998682887508
 31
0.0
  0
LINE
  5
F91
330
1A
100
AcDbEntity
  8
ZUWAKU
100
AcDbLine
 10
552.7269557796683
 20
29.99999986828868
 30
0.0
 11
552.7269557796684
 21
0.7999998682887508
 31
0.0
  0
LINE
  5
F92
330
1A
100
AcDbEntity
  8
ZUWAKU
100
AcDbLine
 10
552.9269557796683
 20
29.99999986828868
 30
0.0
 11
552.9269557796685
 21
0.7999998682887508
 31
0.0
  0
LINE
  5
F93
330
1A
100
AcDbEntity
  8
ZUWAKU
100
AcDbLine
 10
552.5269557796685
 20
29.99999986828868
 30
0.0
 11
552.5269557796685
 21
0.7999998682887508
 31
0.0
  0
TEXT
  5
F94
330
1A
100
AcDbEntity
  8
ZUWAKU
100
AcDbText
 10
650.29464754597
 20
24.05535640667426
 30
0.0
 40
4.0
  1
DATE
 41
0.9
  7
ｽﾀｲﾙ1
100
AcDbText
  0
LINE
  5
F95
330
1A
100
AcDbEntity
  8
ZUWAKU
100
AcDbLine
 10
697.2490105620972
 20
29.99999986828868
 30
0.0
 11
697.2490105620972
 21
0.7999998682887508
 31
0.0
  0
LINE
  5
F96
330
1A
100
AcDbEntity
  8
ZUWAKU
100
AcDbLine
 10
697.4490105620973
 20
29.99999986828868
 30
0.0
 11
697.4490105620973
 21
0.7999998682887508
 31
0.0
  0
LINE
  5
F97
330
1A
100
AcDbEntity
  8
ZUWAKU
100
AcDbLine
 10
697.6490105620971
 20
29.99999986828868
 30
0.0
 11
697.6490105620974
 21
0.7999998682887508
 31
0.0
  0
LINE
  5
F98
330
1A
100
AcDbEntity
  8
ZUWAKU
100
AcDbLine
 10
697.8490105620972
 20
29.99999986828868
 30
0.0
 11
697.8490105620974
 21
0.7999998682887508
 31
0.0
  0
TEXT
  5
F99
330
1A
100
AcDbEntity
  8
ZUWAKU
100
AcDbText
 10
708.5280842057998
 20
17.55383920397548
 30
0.0
 40
6.0
  1
積水化学工業株式会社
 41
0.9
  7
ｽﾀｲﾙ1
100
AcDbText
  0
TEXT
  5
F9A
330
1A
100
AcDbEntity
  8
ZUWAKU
100
AcDbText
 10
708.5280842057998
 20
6.648840182142748
 30
0.0
 40
6.0
  1
建材事業部
 41
0.9
  7
ｽﾀｲﾙ1
100
AcDbText
  0
LINE
  5
1C3F
330
1A
100
AcDbEntity
  8
SEIHIN
100
AcDbLine
 10
127.4039277253764
 20
52.65745700262534
 30
0.0
 11
296.3987094253764
 21
52.65745700262534
 31
0.0
  0
LINE
  5
1C40
330
1A
100
AcDbEntity
  8
SEIHIN
100
AcDbLine
 10
127.4039277253764
 20
67.70807215262533
 30
0.0
 11
330.3971107253764
 21
67.70807215262528
 31
0.0
  0
LINE
  5
1C41
330
1A
100
AcDbEntity
  8
SEIHIN
100
AcDbLine
 10
49.63711732537626
 20
165.4601778626252
 30
0.0
 11
330.3971107253764
 21
165.4601778626252
 31
0.0
  0
LINE
  5
1C42
330
1A
100
AcDbEntity
  8
SEIHIN
100
AcDbLine
 10
47.25556752537636
 20
150.2008762706253
 30
0.0
 11
330.3971107253764
 21
150.2008762706253
 31
0.0
  0
ARC
  5
1C43
330
1A
100
AcDbEntity
  8
SEIHIN
100
AcDbCircle
 10
285.6700360453764
 20
174.5759884926253
 30
0.0
 40
232.6999999644693
100
AcDbArc
 50
185.7826837352899
 51
206.8535797132746
  0
ARC
  5
1C44
330
1A
100
AcDbEntity
  8
SEIHIN
100
AcDbCircle
 10
144.9107447553763
 20
1055.357457002625
 30
0.0
 40
1002.70000003602
100
AcDbArc
 50
267.2057870798915
 51
270.0
  0
ARC
  5
1C45
330
1A
100
AcDbEntity
  8
SEIHIN
100
AcDbCircle
 10
96.30810492537648
 20
59.5428239226253
 30
0.0
 40
5.700000045828009
100
AcDbArc
 50
194.0362308881484
 51
267.2057866311647
  0
ARC
  5
1C46
330
1A
100
AcDbEntity
  8
SEIHIN
100
AcDbCircle
 10
96.1937298253763
 20
61.23725566262533
 30
0.0
 40
5.999999999391452
100
AcDbArc
 50
194.0362434679261
 51
263.7491791241433
  0
ARC
  5
1C47
330
1A
100
AcDbEntity
  8
SEIHIN
100
AcDbCircle
 10
149.9810051053764
 20
552.3003158026254
 30
0.0
 40
500.0000000115989
100
AcDbArc
 50
263.7491787043031
 51
267.4119775440543
  0
ARC
  5
1C48
330
1A
100
AcDbEntity
  8
SEIHIN
100
AcDbCircle
 10
157.4503271053763
 20
767.0629276026252
 30
0.0
 40
699.999999974724
100
AcDbArc
 50
263.5304818654246
 51
267.5399129373507
  0
ARC
  5
1C49
330
1A
100
AcDbEntity
  8
SEIHIN
100
AcDbCircle
 10
80.91844722537643
 20
70.90807215262532
 30
0.0
 40
3.199999976289512
100
AcDbArc
 50
206.853508405476
 51
278.9726259912402
  0
ARC
  5
1C4A
330
1A
100
AcDbEntity
  8
SEIHIN
100
AcDbCircle
 10
78.91612492537638
 20
74.50146531262532
 30
0.0
 40
2.999999995635207
100
AcDbArc
 50
205.8282452563569
 51
263.530480461199
  0
ARC
  5
1C4B
330
1A
100
AcDbEntity
  8
SEIHIN
100
AcDbCircle
 10
87.74304652537649
 20
68.23980250262531
 30
0.0
 40
0.4999999812756436
100
AcDbArc
 50
14.03624569132949
 51
98.97262798507917
  0
LINE
  5
1C4C
330
1A
100
AcDbEntity
  8
SEIHIN
100
AcDbLine
 10
87.66506522537634
 20
68.73368399262528
 30
0.0
 11
81.41752742537642
 21
67.74723066262533
 31
0.0
  0
LINE
  5
1C4D
330
1A
100
AcDbEntity
  8
SEIHIN
100
AcDbLine
 10
90.77829232537624
 20
58.1603720626253
 30
0.0
 11
87.68124732537627
 21
70.54855196262531
 31
0.0
  0
LINE
  5
1C4E
330
1A
100
AcDbEntity
  8
SEIHIN
100
AcDbLine
 10
144.9107447553763
 20
52.65745700262534
 30
0.0
 11
177.4039277353763
 21
52.65745700262534
 31
0.0
  0
ARC
  5
1C4F
330
1A
100
AcDbEntity
  8
SEIHIN
100
AcDbCircle
 10
51.50901932537635
 20
161.9252120856252
 30
0.0
 40
4.000000027840864
100
AcDbArc
 50
111.7707183625905
 51
177.2478533939152
  0
LINE
  5
1C50
330
1A
100
AcDbEntity
  8
SEIHIN
100
AcDbLine
 10
47.51363292537644
 20
162.1172742906253
 30
0.0
 11
46.95591352537644
 21
150.5152809356253
 31
0.0
  0
ARC
  5
1C51
330
1A
100
AcDbEntity
  8
SEIHIN
100
AcDbCircle
 10
59.49396392537642
 20
166.1910317426253
 30
0.0
 40
2.999999992654238
100
AcDbArc
 50
345.8998257197121
 51
111.7707116614594
  0
ARC
  5
1C52
330
1A
100
AcDbEntity
  8
SEIHIN
100
AcDbCircle
 10
58.27550312537642
 20
165.4890438926253
 30
0.0
 40
0.4999999839299562
100
AcDbArc
 50
356.6903560022051
 51
111.7707249977975
  0
LINE
  5
1C53
330
1A
100
AcDbEntity
  8
SEIHIN
100
AcDbLine
 10
56.8551290253763
 20
165.4601778626252
 30
0.0
 11
58.09005642537636
 21
165.9533816426253
 31
0.0
  0
LINE
  5
1C54
330
1A
100
AcDbEntity
  8
SEIHIN
100
AcDbLine
 10
50.0254462253763
 20
165.6399140826253
 30
0.0
 11
58.38128442537641
 21
168.9770583726253
 31
0.0
  0
LINE
  5
1C55
330
1A
100
AcDbEntity
  8
SEIHIN
100
AcDbLine
 10
330.3971107253764
 20
169.1910317426253
 30
0.0
 11
330.3971107253764
 21
53.85745700262532
 31
0.0
  0
LINE
  5
1C56
330
1A
100
AcDbEntity
  8
SEIHIN
100
AcDbLine
 10
304.3923171253763
 20
52.81726520262532
 30
0.0
 11
330.3971107253764
 21
53.85745700262532
 31
0.0
  0
ARC
  5
1C57
330
1A
100
AcDbEntity
  8
SEIHIN
100
AcDbCircle
 10
296.3987094253764
 20
252.6574569726253
 30
0.0
 40
199.9999999984147
100
AcDbArc
 50
270.0
 51
272.2906100509968
  0
LINE
  5
1C58
330
1A
100
AcDbEntity
  8
SEIHIN
100
AcDbLine
 10
290.3971107253764
 20
169.1910317426253
 30
0.0
 11
330.3971107253764
 21
169.1910317426253
 31
0.0
  0
LINE
  5
1C59
330
1A
100
AcDbEntity
  8
SEIHIN
100
AcDbLine
 10
290.3971107253764
 20
169.1910317426253
 30
0.0
 11
290.3971107253764
 21
165.4848237726252
 31
0.0
  0
DIMENSION
  5
1C5A
330
1A
100
AcDbEntity
  8
SUNPOU
100
AcDbDimension
  2
*D1
 10
608.8120045209543
 20
52.6574570026253
 30
0.0
 11
603.8120045209543
 21
94.25745698762538
 31
0.0
 70
    32
  3
STANDARD
100
AcDbAlignedDimension
 13
581.4948897796257
 23
135.8574569726253
 33
0.0
 14
489.9855606796259
 24
52.65745700262534
 34
0.0
 50
90.0
100
AcDbRotatedDimension
1001
ACAD
1000
DSTYLE
1002
{
1070
    41
1040
6.0
1070
    42
1040
6.0
1070
    43
1040
14.0
1070
    44
1040
3.0
1070
    73
1070
     0
1070
    74
1070
     0
1070
    77
1070
     3
1070
   140
1040
6.0
1070
   141
1040
10.0
1070
   147
1040
2.0
1070
   172
1070
     1
1070
   173
1070
     1
1070
   176
1070
   256
1070
   177
1070
   256
1070
   178
1070
   256
1070
   271
1070
     0
1070
   272
1070
     0
1070
   341
1005
6D
1070
     6
1000
OPEN
1070
     7
1000
OPEN
1002
}
  0
DIMENSION
  5
1C5B
330
1A
100
AcDbEntity
  8
SUNPOU
100
AcDbDimension
  2
*D2
 10
680.9787436796259
 20
203.1657963862223
 30
0.0
 11
530.5045635735925
 21
208.1657963862223
 31
0.0
 70
    32
  3
STANDARD
100
AcDbAlignedDimension
 13
380.0303834675592
 23
150.5008762706253
 33
0.0
 14
680.9787436796259
 24
169.1910317426253
 34
0.0
100
AcDbRotatedDimension
1001
ACAD
1000
DSTYLE
1002
{
1070
    41
1040
6.0
1070
    42
1040
6.0
1070
    43
1040
14.0
1070
    44
1040
3.0
1070
    73
1070
     0
1070
    74
1070
     0
1070
    77
1070
     3
1070
   140
1040
6.0
1070
   141
1040
10.0
1070
   147
1040
2.0
1070
   172
1070
     1
1070
   173
1070
     1
1070
   176
1070
   256
1070
   177
1070
   256
1070
   178
1070
   256
1070
   271
1070
     0
1070
   272
1070
     0
1070
   341
1005
6D
1070
     6
1000
OPEN
1070
     7
1000
OPEN
1002
}
  0
DIMENSION
  5
1C5C
330
1A
100
AcDbEntity
  8
SUNPOU
100
AcDbDimension
  2
*D3
 10
554.2935419475761
 20
52.65745700262531
 30
0.0
 11
549.2935419475761
 21
90.60745715812556
 31
0.0
 70
    32
  3
STANDARD
100
AcDbAlignedDimension
 13
525.978744079626
 23
128.5574573136256
 33
0.0
 14
477.9855606796258
 24
52.65745700262534
 34
0.0
 50
90.0
100
AcDbRotatedDimension
1001
ACAD
1000
DSTYLE
1002
{
1070
    41
1040
6.0
1070
    42
1040
6.0
1070
    43
1040
14.0
1070
    44
1040
3.0
1070
    73
1070
     0
1070
    74
1070
     0
1070
    77
1070
     3
1070
   140
1040
6.0
1070
   141
1040
10.0
1070
   147
1040
2.0
1070
   172
1070
     1
1070
   173
1070
     1
1070
   176
1070
   256
1070
   177
1070
   256
1070
   178
1070
   256
1070
   271
1070
     0
1070
   272
1070
     0
1070
   341
1005
6D
1070
     6
1000
OPEN
1070
     7
1000
OPEN
1002
}
  0
LINE
  5
1C5D
330
1A
100
AcDbEntity
  8
SEIHIN
100
AcDbLine
 10
503.8494879796258
 20
135.8574569726253
 30
0.0
 11
581.4948897796257
 21
135.8574569726253
 31
0.0
  0
LINE
  5
1C5E
330
1A
100
AcDbEntity
  8
SEIHIN
100
AcDbLine
 10
477.9855606796258
 20
52.65745700262534
 30
0.0
 11
646.9803423796259
 21
52.65745700262534
 31
0.0
  0
LINE
  5
1C5F
330
1A
100
AcDbEntity
  8
SEIHIN
100
AcDbLine
 10
387.3502319396259
 20
154.4313614622253
 30
0.0
 11
680.9787436796259
 21
154.4313614622253
 31
0.0
  0
LINE
  5
1C60
330
1A
100
AcDbEntity
  8
SEIHIN
100
AcDbLine
 10
395.4844736796258
 20
165.4848237726253
 30
0.0
 11
640.9787436796259
 21
165.4848237726253
 31
0.0
  0
DIMENSION
  5
1C61
330
1A
100
AcDbEntity
  8
SUNPOU
100
AcDbDimension
  2
*D4
 10
355.7419460962137
 20
52.65745695808349
 30
0.0
 11
350.7419460962137
 21
110.9242443482522
 31
0.0
 70
    32
  3
STANDARD
100
AcDbAlignedDimension
 13
392.5687798796259
 23
169.1910317384209
 33
0.0
 14
477.9855606796258
 24
52.65745695808345
 34
0.0
 50
90.0
100
AcDbRotatedDimension
1001
ACAD
1000
DSTYLE
1002
{
1070
    41
1040
6.0
1070
    42
1040
6.0
1070
    43
1040
14.0
1070
    44
1040
3.0
1070
    73
1070
     0
1070
    74
1070
     0
1070
    77
1070
     3
1070
   140
1040
6.0
1070
   141
1040
10.0
1070
   147
1040
2.0
1070
   172
1070
     1
1070
   173
1070
     1
1070
   176
1070
   256
1070
   177
1070
   256
1070
   178
1070
   256
1070
   271
1070
     0
1070
   272
1070
     0
1070
   341
1005
6D
1070
     6
1000
OPEN
1070
     7
1000
OPEN
1002
}
  0
LINE
  5
1C62
330
1A
100
AcDbEntity
  8
SEIHIN
100
AcDbLine
 10
525.8146847796258
 20
104.3099767926253
 30
0.0
 11
523.8712506796259
 21
63.42465733262532
 31
0.0
  0
LINE
  5
1C63
330
1A
100
AcDbEntity
  8
SEIHIN
100
AcDbLine
 10
524.0917067796258
 20
103.8669530026253
 30
0.0
 11
522.1731679796257
 21
63.50537363262532
 31
0.0
  0
LINE
  5
1C64
330
1A
100
AcDbEntity
  8
SEIHIN
100
AcDbLine
 10
523.1161500796258
 20
104.4049371526252
 30
0.0
 11
521.1742957796259
 21
63.5528538126253
 31
0.0
  0
LINE
  5
1C65
330
1A
100
AcDbEntity
  8
SEIHIN
100
AcDbLine
 10
529.4714109796259
 20
123.3200564226253
 30
0.0
 11
526.5073843796257
 21
60.96385376262531
 31
0.0
  0
LINE
  5
1C66
330
1A
100
AcDbEntity
  8
SEIHIN
100
AcDbLine
 10
528.1987905600196
 20
121.8207976766498
 30
0.0
 11
525.3086502796259
 21
61.01898926262532
 31
0.0
  0
LINE
  5
1C67
330
1A
100
AcDbEntity
  8
SEIHIN
100
AcDbLine
 10
530.9731045796259
 20
123.3200563426253
 30
0.0
 11
528.0056925796259
 21
60.89263349262535
 31
0.0
  0
LINE
  5
1C68
330
1A
100
AcDbEntity
  8
SEIHIN
100
AcDbLine
 10
503.8494879796258
 20
135.8574569726253
 30
0.0
 11
500.8892963820126
 21
74.3996189131409
 31
0.0
  0
ARC
  5
1C69
330
1A
100
AcDbEntity
  8
SEIHIN
100
AcDbCircle
 10
618.7448537796258
 20
174.5759849126253
 30
0.0
 40
228.4499999695157
100
AcDbArc
 50
197.9821520953701
 51
204.221102659582
  0
ARC
  5
1C6A
330
1A
100
AcDbEntity
  8
SEIHIN
100
AcDbCircle
 10
618.7448537796258
 20
174.5759849126253
 30
0.0
 40
225.7499999695046
100
AcDbArc
 50
198.0395716227208
 51
203.7777473273236
  0
ARC
  5
1C6B
330
1A
100
AcDbEntity
  8
SEIHIN
100
AcDbCircle
 10
618.7448537796258
 20
174.5759849126253
 30
0.0
 40
226.7499999689063
100
AcDbArc
 50
197.774025176184
 51
203.9430083897246
  0
ARC
  5
1C6C
330
1A
100
AcDbEntity
  8
SEIHIN
100
AcDbCircle
 10
618.7448537796258
 20
174.5759849126253
 30
0.0
 40
231.1999999709434
100
AcDbArc
 50
185.6446457433792
 51
206.85357971155
  0
ARC
  5
1C6D
330
1A
100
AcDbEntity
  8
SEIHIN
100
AcDbCircle
 10
618.7448537796258
 20
174.5759849126253
 30
0.0
 40
229.9999999690638
100
AcDbArc
 50
185.5892534145843
 51
206.8535797103872
  0
ARC
  5
1C6E
330
1A
100
AcDbEntity
  8
SEIHIN
100
AcDbCircle
 10
618.7448537796258
 20
174.5759849126253
 30
0.0
 40
232.6999999689301
100
AcDbArc
 50
185.7826837352899
 51
206.8535797121647
  0
ARC
  5
1C6F
330
1A
100
AcDbEntity
  8
SEIHIN
100
AcDbCircle
 10
472.203439458357
 20
1072.921322736619
 30
0.0
 40
1002.700000044541
100
AcDbArc
 50
267.4593374482638
 51
270.3304008962768
  0
ARC
  5
1C70
330
1A
100
AcDbEntity
  8
SEIHIN
100
AcDbCircle
 10
477.9855606796258
 20
1055.357457002625
 30
0.0
 40
995.7500000313272
100
AcDbArc
 50
267.3148073532487
 51
269.4245870685068
  0
ARC
  5
1C71
330
1A
100
AcDbEntity
  8
SEIHIN
100
AcDbCircle
 10
477.9855606796258
 20
1055.357457002625
 30
0.0
 40
998.4500000365608
100
AcDbArc
 50
267.3148073536791
 51
269.4261431473671
  0
ARC
  5
1C72
330
1A
100
AcDbEntity
  8
SEIHIN
100
AcDbCircle
 10
477.9855606796258
 20
1055.357457002625
 30
0.0
 40
996.7500000346738
100
AcDbArc
 50
267.3148073531965
 51
269.2807270371295
  0
ARC
  5
1C73
330
1A
100
AcDbEntity
  8
SEIHIN
100
AcDbCircle
 10
477.9855606796258
 20
1055.357457002625
 30
0.0
 40
1000.000000029982
100
AcDbArc
 50
267.2057870818545
 51
272.4382129477549
  0
ARC
  5
1C74
330
1A
100
AcDbEntity
  8
SEIHIN
100
AcDbCircle
 10
477.9855606796258
 20
1055.357457002625
 30
0.0
 40
1001.20000003436
100
AcDbArc
 50
267.2057870797873
 51
272.4381855739532
  0
ARC
  5
1C75
330
1A
100
AcDbEntity
  8
SEIHIN
100
AcDbCircle
 10
477.9855606796258
 20
1055.357457002625
 30
0.0
 40
1002.700000044541
100
AcDbArc
 50
267.2057870816067
 51
272.4381855748138
  0
ARC
  5
1C76
330
1A
100
AcDbEntity
  8
SEIHIN
100
AcDbCircle
 10
429.3829208796259
 20
59.5428239226253
 30
0.0
 40
5.700000042189902
100
AcDbArc
 50
194.0362434435466
 51
267.2057866311582
  0
ARC
  5
1C77
330
1A
100
AcDbEntity
  8
SEIHIN
100
AcDbCircle
 10
429.3829208796259
 20
59.5428239226253
 30
0.0
 40
4.20000002243646
100
AcDbArc
 50
194.0362434017542
 51
267.2057860378555
  0
ARC
  5
1C78
330
1A
100
AcDbEntity
  8
SEIHIN
100
AcDbCircle
 10
429.3829208796259
 20
59.5428239226253
 30
0.0
 40
3.000000021394741
100
AcDbArc
 50
194.0362433752844
 51
267.2057863103641
  0
LINE
  5
1C79
330
1A
100
AcDbEntity
  8
SEIHIN
100
AcDbLine
 10
403.1412340996257
 20
102.3574569726253
 30
0.0
 11
404.1414762396259
 21
102.3574569726253
 31
0.0
  0
ARC
  5
1C7A
330
1A
100
AcDbEntity
  8
SEIHIN
100
AcDbCircle
 10
403.4019884396259
 20
101.3574569726253
 30
0.0
 40
0.9999999978764497
100
AcDbArc
 50
90.0
 51
198.7784996953611
  0
LINE
  5
1C7B
330
1A
100
AcDbEntity
  8
SEIHIN
100
AcDbLine
 10
416.3588622896258
 20
83.14919914262532
 30
0.0
 11
426.7168937996259
 21
74.9338279126253
 31
0.0
  0
LINE
  5
1C7C
330
1A
100
AcDbEntity
  8
SEIHIN
100
AcDbLine
 10
415.4181116096258
 20
80.44919914262534
 30
0.0
 11
424.3200824296259
 21
73.38868819262529
 31
0.0
  0
LINE
  5
1C7D
330
1A
100
AcDbEntity
  8
SEIHIN
100
AcDbLine
 10
416.010436109626
 20
82.14919914262532
 30
0.0
 11
425.8291858796257
 21
74.36155394262534
 31
0.0
  0
LINE
  5
1C7E
330
1A
100
AcDbEntity
  8
SEIHIN
100
AcDbLine
 10
420.7398811896259
 20
68.73368399262528
 30
0.0
 11
414.4923434196257
 21
67.74723066262533
 31
0.0
  0
LINE
  5
1C7F
330
1A
100
AcDbEntity
  8
SEIHIN
100
AcDbLine
 10
421.8621018696258
 20
70.42945968262529
 30
0.0
 11
414.2583995596259
 21
69.2288751026253
 31
0.0
  0
LINE
  5
1C80
330
1A
100
AcDbEntity
  8
SEIHIN
100
AcDbLine
 10
422.7598784196259
 20
71.7860802326253
 30
0.0
 11
414.0712444796259
 21
70.41419066262529
 31
0.0
  0
LINE
  5
1C81
330
1A
100
AcDbEntity
  8
SEIHIN
100
AcDbLine
 10
422.7598784196259
 20
71.7860802326253
 30
0.0
 11
414.0712444796259
 21
70.41419066262529
 31
0.0
  0
ARC
  5
1C82
330
1A
100
AcDbEntity
  8
SEIHIN
100
AcDbCircle
 10
413.9932631896258
 20
70.90807215262532
 30
0.0
 40
0.5000000055162706
100
AcDbArc
 50
206.8535796338165
 51
278.9726268531905
  0
ARC
  5
1C83
330
1A
100
AcDbEntity
  8
SEIHIN
100
AcDbCircle
 10
413.9932631896258
 20
70.90807215262532
 30
0.0
 40
0.5000000055162706
100
AcDbArc
 50
206.8535796338165
 51
278.9726268531905
  0
ARC
  5
1C84
330
1A
100
AcDbEntity
  8
SEIHIN
100
AcDbCircle
 10
413.9932631896258
 20
70.90807215262532
 30
0.0
 40
1.700000005596404
100
AcDbArc
 50
206.8535798461978
 51
278.9726264046346
  0
ARC
  5
1C85
330
1A
100
AcDbEntity
  8
SEIHIN
100
AcDbCircle
 10
413.9932631896258
 20
70.90807215262532
 30
0.0
 40
3.200000002088126
100
AcDbArc
 50
206.8535798275223
 51
278.9726265218117
  0
ARC
  5
1C86
330
1A
100
AcDbEntity
  8
SEIHIN
100
AcDbCircle
 10
420.8178624696258
 20
68.23980250262531
 30
0.0
 40
0.5000000039695854
100
AcDbArc
 50
14.03624430170202
 51
98.97262572129552
  0
ARC
  5
1C87
330
1A
100
AcDbEntity
  8
SEIHIN
100
AcDbCircle
 10
422.8378597096259
 20
71.29219875262532
 30
0.0
 40
0.4999999985979155
100
AcDbArc
 50
14.0362431900011
 51
98.9726270319074
  0
ARC
  5
1C88
330
1A
100
AcDbEntity
  8
SEIHIN
100
AcDbCircle
 10
426.4061875996258
 20
74.5420860826253
 30
0.0
 40
0.5000000029171538
100
AcDbArc
 50
14.03624430170202
 51
51.5806514506572
  0
ARC
  5
1C89
330
1A
100
AcDbEntity
  8
SEIHIN
100
AcDbCircle
 10
421.9400831596258
 20
69.93557820262532
 30
0.0
 40
0.4999999985979011
100
AcDbArc
 50
14.0362431900011
 51
98.97262703191394
  0
ARC
  5
1C8A
330
1A
100
AcDbEntity
  8
SEIHIN
100
AcDbCircle
 10
422.8378597096259
 20
71.29219875262532
 30
0.0
 40
0.4999999985979155
100
AcDbArc
 50
14.0362431900011
 51
98.9726270319074
  0
ARC
  5
1C8B
330
1A
100
AcDbEntity
  8
SEIHIN
100
AcDbCircle
 10
425.5184796896259
 20
73.96981211262533
 30
0.0
 40
0.4999999985974148
100
AcDbArc
 50
14.0362431900011
 51
51.58065234846311
  0
ARC
  5
1C8C
330
1A
100
AcDbEntity
  8
SEIHIN
100
AcDbCircle
 10
424.0093762396258
 20
72.99694636262529
 30
0.0
 40
0.4999999985974092
100
AcDbArc
 50
14.0362431900011
 51
51.58065234846311
  0
ARC
  5
1C8D
330
1A
100
AcDbEntity
  8
SEIHIN
100
AcDbCircle
 10
431.3972697796257
 20
61.99934750262531
 30
0.0
 40
4.00000000347884
100
AcDbArc
 50
194.0362434679261
 51
267.3148072991966
  0
ARC
  5
1C8E
330
1A
100
AcDbEntity
  8
SEIHIN
100
AcDbCircle
 10
431.3972697796257
 20
61.99934750262531
 30
0.0
 40
1.299999975434645
100
AcDbArc
 50
194.0362438955036
 51
267.314806853269
  0
ARC
  5
1C8F
330
1A
100
AcDbEntity
  8
SEIHIN
100
AcDbCircle
 10
431.3972697796257
 20
61.99934750262531
 30
0.0
 40
2.299999978159317
100
AcDbArc
 50
194.0362438304387
 51
267.3148070500708
  0
LINE
  5
1C90
330
1A
100
AcDbEntity
  8
SEIHIN
100
AcDbLine
 10
423.8531085896259
 20
58.1603708526253
 30
0.0
 11
421.3029337196258
 21
68.36107032262532
 31
0.0
  0
LINE
  5
1C91
330
1A
100
AcDbEntity
  8
SEIHIN
100
AcDbLine
 10
425.3083223396258
 20
58.52417429262533
 30
0.0
 11
422.425154409626
 21
70.05684601262533
 31
0.0
  0
LINE
  5
1C92
330
1A
100
AcDbEntity
  8
SEIHIN
100
AcDbLine
 10
427.5166997796259
 20
61.02920500262531
 30
0.0
 11
424.4944474896258
 21
73.1182141726253
 31
0.0
  0
LINE
  5
1C93
330
1A
100
AcDbEntity
  8
SEIHIN
100
AcDbLine
 10
429.1659420796259
 20
61.44151556262534
 30
0.0
 11
426.0035509396259
 21
74.09107992262534
 31
0.0
  0
LINE
  5
1C94
330
1A
100
AcDbEntity
  8
SEIHIN
100
AcDbLine
 10
430.1360845796257
 20
61.6840511926253
 30
0.0
 11
426.8912588496259
 21
74.66335390262532
 31
0.0
  0
LINE
  5
1C95
330
1A
100
AcDbEntity
  8
SEIHIN
100
AcDbLine
 10
426.472493339626
 20
58.81521704262531
 30
0.0
 11
423.3229309596258
 21
71.41346656262533
 31
0.0
  0
ARC
  5
1C96
330
1A
100
AcDbEntity
  8
SEIHIN
100
AcDbCircle
 10
404.1414762396259
 20
101.3574569726253
 30
0.0
 40
0.9999999976248449
100
AcDbArc
 50
18.83864992215285
 51
90.0
  0
ARC
  5
1C97
330
1A
100
AcDbEntity
  8
SEIHIN
100
AcDbCircle
 10
415.1074054196258
 20
80.05745731262534
 30
0.0
 40
0.4999999989380343
100
AcDbArc
 50
51.58065234846311
 51
90.0
  0
ARC
  5
1C98
330
1A
100
AcDbEntity
  8
SEIHIN
100
AcDbCircle
 10
415.6997299196259
 20
81.75745731262532
 30
0.0
 40
0.4999999989380343
100
AcDbArc
 50
51.58065234846311
 51
90.0
  0
ARC
  5
1C99
330
1A
100
AcDbEntity
  8
SEIHIN
100
AcDbCircle
 10
416.0481560896259
 20
82.75745731262531
 30
0.0
 40
0.5000000020450944
100
AcDbArc
 50
51.5806514506572
 51
90.0
  0
ARC
  5
1C9A
330
1A
100
AcDbEntity
  8
SEIHIN
100
AcDbCircle
 10
410.8615031196259
 20
81.05745731262533
 30
0.0
 40
0.5000000000907481
100
AcDbArc
 50
204.2211020343561
 51
270.0
  0
ARC
  5
1C9B
330
1A
100
AcDbEntity
  8
SEIHIN
100
AcDbCircle
 10
411.9637606496257
 20
82.75745731262531
 30
0.0
 40
0.499999998666963
100
AcDbArc
 50
203.9430081278033
 51
270.0
  0
ARC
  5
1C9C
330
1A
100
AcDbEntity
  8
SEIHIN
100
AcDbCircle
 10
412.6149007596259
 20
83.75745731262531
 30
0.0
 40
0.4999999968240464
100
AcDbArc
 50
203.7777469161692
 51
270.0
  0
LINE
  5
1C9D
330
1A
100
AcDbEntity
  8
SEIHIN
100
AcDbLine
 10
410.8615031196259
 20
80.55745731262533
 30
0.0
 11
415.1074054196258
 21
80.55745731262533
 31
0.0
  0
LINE
  5
1C9E
330
1A
100
AcDbEntity
  8
SEIHIN
100
AcDbLine
 10
411.9637606496257
 20
82.25745731262533
 30
0.0
 11
415.6997299196259
 21
82.25745731262533
 31
0.0
  0
LINE
  5
1C9F
330
1A
100
AcDbEntity
  8
SEIHIN
100
AcDbLine
 10
412.6149007596259
 20
83.25745731262532
 30
0.0
 11
416.0481560896259
 21
83.25745731262532
 31
0.0
  0
ARC
  5
1CA0
330
1A
100
AcDbEntity
  8
SEIHIN
100
AcDbCircle
 10
480.9124559375593
 20
75.36182775578345
 30
0.0
 40
20.0
100
AcDbArc
 50
308.5775238177681
 51
357.2424102238991
  0
ARC
  5
1CA1
330
1A
100
AcDbEntity
  8
SEIHIN
100
AcDbCircle
 10
477.9855606796258
 20
1055.357457002625
 30
0.0
 40
998.450000032893
100
AcDbArc
 50
270.5738568526328
 51
272.30367812928
  0
ARC
  5
1CA2
330
1A
100
AcDbEntity
  8
SEIHIN
100
AcDbCircle
 10
477.9855606796258
 20
1055.357457002625
 30
0.0
 40
995.7500000345529
100
AcDbArc
 50
270.5754129314931
 51
272.3036781308642
  0
ARC
  5
1CA3
330
1A
100
AcDbEntity
  8
SEIHIN
100
AcDbCircle
 10
477.9855606796258
 20
1055.357457002625
 30
0.0
 40
996.7500000372167
100
AcDbArc
 50
270.7192729686159
 51
272.3036781287781
  0
LINE
  5
1CA4
330
1A
100
AcDbEntity
  8
SEIHIN
100
AcDbLine
 10
487.9855606796259
 20
59.6576716426253
 30
0.0
 11
487.9855606796259
 21
56.39799833262532
 31
0.0
  0
LINE
  5
1CA5
330
1A
100
AcDbEntity
  8
SEIHIN
100
AcDbLine
 10
467.9855606796259
 20
59.6576716426253
 30
0.0
 11
467.9855606796259
 21
56.39799833262532
 31
0.0
  0
LINE
  5
1CA6
330
1A
100
AcDbEntity
  8
CENTER_L
 48
5.0
100
AcDbLine
 10
477.9855606796258
 20
35.35745700262532
 30
0.0
 11
477.9855606796258
 21
65.35745697264349
 31
0.0
  0
ARC
  5
1CA7
330
1A
100
AcDbEntity
  8
SEIHIN
100
AcDbCircle
 10
477.9855606796258
 20
1055.357457002625
 30
0.0
 40
1000.000000035026
100
AcDbArc
 50
269.4838148241052
 51
270.5161851758947
  0
ARC
  5
1CA8
330
1A
100
AcDbEntity
  8
SEIHIN
100
AcDbCircle
 10
468.9855606796259
 20
56.39799833262532
 30
0.0
 40
1.000000000931939
100
AcDbArc
 50
180.0
 51
269.4838153407337
  0
ARC
  5
1CA9
330
1A
100
AcDbEntity
  8
SEIHIN
100
AcDbCircle
 10
480.9124559375593
 20
75.36182775578345
 30
0.0
 40
20.0
100
AcDbArc
 50
270.1711214231269
 51
290.7110494614882
  0
ARC
  5
1CAA
330
1A
100
AcDbEntity
  8
SEIHIN
100
AcDbCircle
 10
486.9855606796258
 20
56.39799833262532
 30
0.0
 40
1.000000000931939
100
AcDbArc
 50
270.5161846592662
 51
0.0
  0
LINE
  5
1CAB
330
1A
100
AcDbEntity
  8
SEIHIN
100
AcDbLine
 10
465.4730073796258
 20
58.68599730262531
 30
0.0
 11
467.9855606796259
 21
56.9575358426253
 31
0.0
  0
LINE
  5
1CAC
330
1A
100
AcDbEntity
  8
SEIHIN
100
AcDbLine
 10
465.4855606796258
 20
59.68591851262534
 30
0.0
 11
465.4730073796258
 21
58.68599730262531
 31
0.0
  0
LINE
  5
1CAD
330
1A
100
AcDbEntity
  8
SEIHIN
100
AcDbLine
 10
472.203439458357
 20
70.22132273661947
 30
0.0
 11
500.2405496911592
 21
70.22132273661947
 31
0.0
  0
LINE
  5
1CAE
330
1A
100
AcDbEntity
  8
SEIHIN
100
AcDbLine
 10
490.4855606796258
 20
59.68591851262534
 30
0.0
 11
490.4981140796258
 21
58.68599730262531
 31
0.0
  0
LINE
  5
1CAF
330
1A
100
AcDbEntity
  8
SEIHIN
100
AcDbLine
 10
490.4981140796258
 20
58.68599730262531
 30
0.0
 11
487.9855606796259
 21
56.9575358426253
 31
0.0
  0
ARC
  5
1CB0
330
1A
100
AcDbEntity
  8
SEIHIN
100
AcDbCircle
 10
520.3143771796257
 20
61.2582308826253
 30
0.0
 40
5.000000013125724
100
AcDbArc
 50
272.438185362031
 51
357.2574458219502
  0
ARC
  5
1CB1
330
1A
100
AcDbEntity
  8
SEIHIN
100
AcDbCircle
 10
520.3143768796258
 20
61.25823087262529
 30
0.0
 40
7.699999946758383
100
AcDbArc
 50
272.4381853337487
 51
357.2785629152008
  0
ARC
  5
1CB2
330
1A
100
AcDbEntity
  8
SEIHIN
100
AcDbCircle
 10
520.3143768796258
 20
61.25823087262529
 30
0.0
 40
6.199999991298399
100
AcDbArc
 50
272.4381851355635
 51
357.2785629493553
  0
ARC
  5
1CB3
330
1A
100
AcDbEntity
  8
SEIHIN
100
AcDbCircle
 10
517.8780175796259
 20
63.7095384126253
 30
0.0
 40
6.000000008520154
100
AcDbArc
 50
272.3036779654238
 51
357.278562910059
  0
ARC
  5
1CB4
330
1A
100
AcDbEntity
  8
SEIHIN
100
AcDbCircle
 10
517.8780175796259
 20
63.7095384126253
 30
0.0
 40
3.300000005231283
100
AcDbArc
 50
272.3036783088993
 51
357.2785628018799
  0
ARC
  5
1CB5
330
1A
100
AcDbEntity
  8
SEIHIN
100
AcDbCircle
 10
517.8780175796259
 20
63.7095384126253
 30
0.0
 40
4.300000015970625
100
AcDbArc
 50
272.3036777834382
 51
357.2785628375831
  0
DIMENSION
  5
1CB6
330
1A
100
AcDbEntity
  8
SUNPOU
100
AcDbDimension
  2
*D5
 10
530.9731045796259
 20
185.0663076745031
 30
0.0
 11
455.5017440235925
 21
190.0663076745031
 31
0.0
 70
    32
  3
STANDARD
100
AcDbAlignedDimension
 13
380.0303834675592
 23
150.5008762706253
 33
0.0
 14
530.9731045796259
 24
123.3200563426253
 34
0.0
100
AcDbRotatedDimension
1001
ACAD
1000
DSTYLE
1002
{
1070
    41
1040
6.0
1070
    42
1040
6.0
1070
    43
1040
14.0
1070
    44
1040
3.0
1070
    73
1070
     0
1070
    74
1070
     0
1070
    77
1070
     3
1070
   140
1040
6.0
1070
   141
1040
10.0
1070
   147
1040
2.0
1070
   172
1070
     1
1070
   173
1070
     1
1070
   176
1070
   256
1070
   177
1070
   256
1070
   178
1070
   256
1070
   271
1070
     0
1070
   272
1070
     0
1070
   341
1005
6D
1070
     6
1000
OPEN
1070
     7
1000
OPEN
1002
}
  0
ARC
  5
1CB7
330
1A
100
AcDbEntity
  8
SEIHIN
100
AcDbCircle
 10
403.1412340996257
 20
104.3574569726253
 30
0.0
 40
0.9999999970597528
100
AcDbArc
 50
18.03957157208626
 51
90.0
  0
ARC
  5
1CB8
330
1A
100
AcDbEntity
  8
SEIHIN
100
AcDbCircle
 10
402.4051652796258
 20
104.3574569726253
 30
0.0
 40
0.999999999685944
100
AcDbArc
 50
90.0
 51
197.9821520581471
  0
LINE
  5
1CB9
330
1A
100
AcDbEntity
  8
SEIHIN
100
AcDbLine
 10
403.1412340996257
 20
105.3574569726253
 30
0.0
 11
400.1419433896257
 21
105.3574569726253
 31
0.0
  0
ARC
  5
1CBA
330
1A
100
AcDbEntity
  8
SEIHIN
100
AcDbCircle
 10
400.1419433896257
 20
106.3574569726253
 30
0.0
 40
1.000000000195198
100
AcDbArc
 50
197.3313663700731
 51
270.0
  0
LINE
  5
1CBB
330
1A
100
AcDbEntity
  8
SEIHIN
100
AcDbLine
 10
383.1002621696259
 20
165.6399140826253
 30
0.0
 11
391.9918659296259
 21
169.1910317426253
 31
0.0
  0
LINE
  5
1CBC
330
1A
100
AcDbEntity
  8
SEIHIN
100
AcDbLine
 10
383.026486639626
 20
163.7798856416253
 30
0.0
 11
390.793979149626
 21
166.8820571426252
 31
0.0
  0
LINE
  5
1CBD
330
1A
100
AcDbEntity
  8
SEIHIN
100
AcDbLine
 10
383.3410399996259
 20
162.8287091816253
 30
0.0
 11
391.1648724196258
 21
165.9533816426253
 31
0.0
  0
ARC
  5
1CBE
330
1A
100
AcDbEntity
  8
SEIHIN
100
AcDbCircle
 10
387.1732021996258
 20
151.6879930566253
 30
0.0
 40
1.500000000156124
100
AcDbArc
 50
5.644645719727223
 51
102.3176619840213
  0
ARC
  5
1CBF
330
1A
100
AcDbEntity
  8
SEIHIN
100
AcDbCircle
 10
386.7315607496259
 20
151.0797757496253
 30
0.0
 40
0.5000000027798511
100
AcDbArc
 50
5.782683654446802
 51
102.3176608563347
  0
ARC
  5
1CC0
330
1A
100
AcDbEntity
  8
SEIHIN
100
AcDbCircle
 10
387.3502319396259
 20
151.9313614626253
 30
0.0
 40
2.500000002029399
100
AcDbArc
 50
5.589253382684566
 51
102.3176617607681
  0
LINE
  5
1CC1
330
1A
100
AcDbEntity
  8
SEIHIN
100
AcDbLine
 10
382.7119332696259
 20
163.3155478916253
 30
0.0
 11
382.7119332696259
 21
161.9000336816253
 31
0.0
  0
ARC
  5
1CC2
330
1A
100
AcDbEntity
  8
SEIHIN
100
AcDbCircle
 10
383.7119332696259
 20
161.9000336816253
 30
0.0
 40
1.000000000507886
100
AcDbArc
 50
111.7707180806047
 51
180.0
  0
ARC
  5
1CC3
330
1A
100
AcDbEntity
  8
SEIHIN
100
AcDbCircle
 10
383.2119332696258
 20
163.3155478916253
 30
0.0
 40
0.4999999993267101
100
AcDbArc
 50
111.770717548512
 51
180.0
  0
ARC
  5
1CC4
330
1A
100
AcDbEntity
  8
SEIHIN
100
AcDbCircle
 10
384.5838352296259
 20
161.9252120856252
 30
0.0
 40
3.999999995451831
100
AcDbArc
 50
111.7707178304978
 51
177.2478533595285
  0
LINE
  5
1CC5
330
1A
100
AcDbEntity
  8
SEIHIN
100
AcDbLine
 10
382.118599049626
 20
152.1196228626252
 30
0.0
 11
386.8532048596257
 21
153.1534628456253
 31
0.0
  0
ARC
  5
1CC6
330
1A
100
AcDbEntity
  8
SEIHIN
100
AcDbCircle
 10
382.0119332696258
 20
152.6081127926253
 30
0.0
 40
0.5000000001672067
100
AcDbArc
 50
180.0
 51
282.3176619758738
  0
LINE
  5
1CC7
330
1A
100
AcDbEntity
  8
SEIHIN
100
AcDbLine
 10
380.3943829396257
 20
150.2077823126253
 30
0.0
 11
386.6248949796258
 21
151.5682656796253
 31
0.0
  0
LINE
  5
1CC8
330
1A
100
AcDbEntity
  8
SEIHIN
100
AcDbLine
 10
382.7119332696259
 20
153.4774573166252
 30
0.0
 11
386.8169030496258
 21
154.3738111108253
 31
0.0
  0
ARC
  5
1CC9
330
1A
100
AcDbEntity
  8
SEIHIN
100
AcDbCircle
 10
380.3303834696257
 20
150.5008762706253
 30
0.0
 40
0.3000000020666587
100
AcDbArc
 50
177.2478534654539
 51
282.3176623490535
  0
LINE
  5
1CCA
330
1A
100
AcDbEntity
  8
SEIHIN
100
AcDbLine
 10
380.5884488796259
 20
162.1172742906253
 30
0.0
 11
380.0307294896258
 21
150.5152809356253
 31
0.0
  0
LINE
  5
1CCB
330
1A
100
AcDbEntity
  8
SEIHIN
100
AcDbLine
 10
381.5119332696258
 20
152.6081127926253
 30
0.0
 11
381.5119332696258
 21
164.4871290116253
 31
0.0
  0
LINE
  5
1CCC
330
1A
100
AcDbEntity
  8
SEIHIN
100
AcDbLine
 10
382.7119332696259
 20
153.4774573166252
 30
0.0
 11
382.7119332696259
 21
161.9000336816253
 31
0.0
  0
LINE
  5
1CCD
330
1A
100
AcDbEntity
  8
SEIHIN
100
AcDbLine
 10
389.9916556196258
 20
165.4848237726253
 30
0.0
 11
391.8503166396258
 21
165.4905969226252
 31
0.0
  0
ARC
  5
1CCE
330
1A
100
AcDbEntity
  8
SEIHIN
100
AcDbCircle
 10
392.5687798796259
 20
166.1910317426253
 30
0.0
 40
2.999999998896211
100
AcDbArc
 50
242.9324759862023
 51
252.7961757462454
  0
LINE
  5
1CCF
330
1A
100
AcDbEntity
  8
SEIHIN
100
AcDbLine
 10
392.7692379696259
 20
165.0025574026253
 30
0.0
 11
392.1578390096258
 21
163.2193104246252
 31
0.0
  0
LINE
  5
1CD0
330
1A
100
AcDbEntity
  8
SEIHIN
100
AcDbLine
 10
391.823292019626
 20
165.3268817326253
 30
0.0
 11
391.3563773796258
 21
163.9650473496253
 31
0.0
  0
ARC
  5
1CD1
330
1A
100
AcDbEntity
  8
SEIHIN
100
AcDbCircle
 10
391.8293503496258
 20
163.8028851876252
 30
0.0
 40
0.4999999976401444
100
AcDbArc
 50
161.0753554910365
 51
252.7961762935616
  0
LINE
  5
1CD2
330
1A
100
AcDbEntity
  8
SEIHIN
100
AcDbLine
 10
391.203659129626
 20
163.5196191316252
 30
0.0
 11
391.3563773796258
 21
163.9650473496253
 31
0.0
  0
ARC
  5
1CD3
330
1A
100
AcDbEntity
  8
SEIHIN
100
AcDbCircle
 10
391.3503190496257
 20
165.4890438926253
 30
0.0
 40
0.4999999975699536
100
AcDbArc
 50
341.0753557078312
 51
111.770717548512
  0
ARC
  5
1CD4
330
1A
100
AcDbEntity
  8
SEIHIN
100
AcDbCircle
 10
392.5687798796259
 20
166.1910317426253
 30
0.0
 40
2.999999995795562
100
AcDbArc
 50
252.7961757462454
 51
111.7707150659667
  0
ARC
  5
1CD5
330
1A
100
AcDbEntity
  8
SEIHIN
100
AcDbCircle
 10
391.3503190496257
 20
165.4890438926253
 30
0.0
 40
1.500000000915675
100
AcDbArc
 50
341.075355470389
 51
111.7707179032405
  0
LINE
  5
1CD6
330
1A
100
AcDbEntity
  8
SEIHIN
100
AcDbLine
 10
510.608042779626
 20
132.9209824726253
 30
0.0
 11
514.3149986796259
 21
121.8605134326253
 31
0.0
  0
LINE
  5
1CD7
330
1A
100
AcDbEntity
  8
SEIHIN
100
AcDbLine
 10
508.3675020796258
 20
132.9209824726253
 30
0.0
 11
511.7719816796259
 21
121.8607766626253
 31
0.0
  0
ARC
  5
1CD8
330
1A
100
AcDbEntity
  8
SEIHIN
100
AcDbCircle
 10
520.9119332796258
 20
125.9574573126253
 30
0.0
 40
2.600000000000008
100
AcDbArc
 50
89.99999338894728
 51
270.0
  0
LINE
  5
1CD9
330
1A
100
AcDbEntity
  8
SEIHIN
100
AcDbLine
 10
519.711933279626
 20
127.0574573126253
 30
0.0
 11
519.711933279626
 21
123.6509448026253
 31
0.0
  0
LINE
  5
1CDA
330
1A
100
AcDbEntity
  8
SEIHIN
100
AcDbLine
 10
519.711933279626
 20
127.0574573126253
 30
0.0
 11
520.9119332796258
 21
125.9574573126253
 31
0.0
  0
ARC
  5
1CDB
330
1A
100
AcDbEntity
  8
SEIHIN
100
AcDbCircle
 10
523.2043944796259
 20
122.0574573126253
 30
0.0
 40
4.999999999101081
100
AcDbArc
 50
357.2785630154536
 51
90.0
  0
ARC
  5
1CDC
330
1A
100
AcDbEntity
  8
SEIHIN
100
AcDbCircle
 10
525.9787436796259
 20
123.5574573126253
 30
0.0
 40
5.000000001000297
100
AcDbArc
 50
357.2785620997529
 51
89.999995416334
  0
ARC
  5
1CDD
330
1A
100
AcDbEntity
  8
SEIHIN
100
AcDbCircle
 10
524.4770500796257
 20
123.5574573126253
 30
0.0
 40
4.999999999101081
100
AcDbArc
 50
357.2785630154536
 51
90.0
  0
ARC
  5
1CDE
330
1A
100
AcDbEntity
  8
SEIHIN
100
AcDbCircle
 10
523.1473538796258
 20
120.8574573126253
 30
0.0
 40
4.999999999101101
100
AcDbArc
 50
357.2785630154536
 51
89.99999312450752
  0
LINE
  5
1CDF
330
1A
100
AcDbEntity
  8
SEIHIN
100
AcDbLine
 10
515.3935511796257
 20
119.5581970026253
 30
0.0
 11
518.515149179626
 21
119.5578738726253
 31
0.0
  0
LINE
  5
1CE0
330
1A
100
AcDbEntity
  8
SEIHIN
100
AcDbLine
 10
528.0911780796259
 20
119.5568826526252
 30
0.0
 11
517.9365681796257
 21
119.5579337626253
 31
0.0
  0
ARC
  5
1CE1
330
1A
100
AcDbEntity
  8
SEIHIN
100
AcDbCircle
 10
517.9369821796258
 20
123.5579337426253
 30
0.0
 40
4.000000012154294
100
AcDbArc
 50
205.1098485951731
 51
269.9940698868085
  0
ARC
  5
1CE2
330
1A
100
AcDbEntity
  8
SEIHIN
100
AcDbCircle
 10
515.3939651796259
 20
123.5581969726252
 30
0.0
 40
4.000000007154297
100
AcDbArc
 50
205.1098485951731
 51
269.9940698867954
  0
LINE
  5
1CE3
330
1A
100
AcDbEntity
  8
SEIHIN
100
AcDbLine
 10
520.9119332796258
 20
125.9574573126253
 30
0.0
 11
520.9119332796258
 21
123.3574573126253
 31
0.0
  0
LINE
  5
1CE4
330
1A
100
AcDbEntity
  8
SEIHIN
100
AcDbLine
 10
520.9119332796258
 20
125.8574573126253
 30
0.0
 11
523.1473538796258
 21
125.8574573126253
 31
0.0
  0
ARC
  5
1CE5
330
1A
100
AcDbEntity
  8
SEIHIN
100
AcDbCircle
 10
524.1150222796258
 20
104.3574569726253
 30
0.0
 40
1.000000009856429
100
AcDbArc
 50
90.0
 51
177.2785629553971
  0
ARC
  5
1CE6
330
1A
100
AcDbEntity
  8
SEIHIN
100
AcDbCircle
 10
524.8158126796258
 20
104.3574569726253
 30
0.0
 40
0.9999999599128088
100
AcDbArc
 50
357.2785626833583
 51
90.0
  0
LINE
  5
1CE7
330
1A
100
AcDbEntity
  8
SEIHIN
100
AcDbLine
 10
524.1150222796258
 20
105.3574569726253
 30
0.0
 11
526.4626302796259
 21
105.3574569726253
 31
0.0
  0
ARC
  5
1CE8
330
1A
100
AcDbEntity
  8
SEIHIN
100
AcDbCircle
 10
526.4626302796259
 20
106.3574569726253
 30
0.0
 40
1.000000009856429
100
AcDbArc
 50
270.0
 51
357.2785629553971
  0
ARC
  5
1CE9
330
1A
100
AcDbEntity
  8
SEIHIN
100
AcDbCircle
 10
506.6217965796258
 20
131.6846836126253
 30
0.0
 40
4.173558862860697
100
AcDbArc
 50
17.23081256406765
 51
91.11163749128625
  0
ARC
  5
1CEA
330
1A
100
AcDbEntity
  8
SEIHIN
100
AcDbCircle
 10
504.3812558796258
 20
131.6846836126253
 30
0.0
 40
4.173558862860684
100
AcDbArc
 50
17.23081256406765
 51
91.11163749128625
  0
LINE
  5
1CEB
330
1A
100
AcDbEntity
  8
SEIHIN
100
AcDbLine
 10
520.9119335796258
 20
128.5574573126253
 30
0.0
 11
525.9787440796258
 21
128.5574573126253
 31
0.0
  0
LINE
  5
1CEC
330
1A
100
AcDbEntity
  8
SEIHIN
100
AcDbLine
 10
519.711933279626
 20
127.0574573126253
 30
0.0
 11
523.2043944796259
 21
127.0574573126253
 31
0.0
  0
LINE
  5
1CED
330
1A
100
AcDbEntity
  8
SEIHIN
100
AcDbLine
 10
680.9787436796259
 20
169.1910317426253
 30
0.0
 11
680.9787436796259
 21
53.85745700262532
 31
0.0
  0
LINE
  5
1CEE
330
1A
100
AcDbEntity
  8
SEIHIN
100
AcDbLine
 10
654.9739500796258
 20
52.81726520262532
 30
0.0
 11
680.9787436796259
 21
53.85745700262532
 31
0.0
  0
ARC
  5
1CEF
330
1A
100
AcDbEntity
  8
SEIHIN
100
AcDbCircle
 10
646.9803423796259
 20
252.6574569726253
 30
0.0
 40
199.9999999984147
100
AcDbArc
 50
270.0
 51
272.2906100509968
  0
LINE
  5
1CF0
330
1A
100
AcDbEntity
  8
SEIHIN
100
AcDbLine
 10
605.1407988796259
 20
119.5574573126253
 30
0.0
 11
636.9787436796259
 21
119.5574573126253
 31
0.0
  0
LINE
  5
1CF1
330
1A
100
AcDbEntity
  8
SEIHIN
100
AcDbLine
 10
589.0715999796259
 20
132.3838236926252
 30
0.0
 11
602.1101147796257
 21
120.9469106226253
 31
0.0
  0
ARC
  5
1CF2
330
1A
100
AcDbEntity
  8
SEIHIN
100
AcDbCircle
 10
581.4948897796257
 20
125.8574569726252
 30
0.0
 40
10.00000000046769
100
AcDbArc
 50
40.74069188625796
 51
90.0
  0
ARC
  5
1CF3
330
1A
100
AcDbEntity
  8
SEIHIN
100
AcDbCircle
 10
605.1407988796259
 20
123.5574573126253
 30
0.0
 40
4.000000008416433
100
AcDbArc
 50
220.7406917209969
 51
270.0
  0
LINE
  5
1CF4
330
1A
100
AcDbEntity
  8
SEIHIN
100
AcDbLine
 10
640.9787436796259
 20
128.5574573126253
 30
0.0
 11
680.9787436796259
 21
128.5574573126253
 31
0.0
  0
LINE
  5
1CF5
330
1A
100
AcDbEntity
  8
SEIHIN
100
AcDbLine
 10
640.9787436796259
 20
128.5574573126253
 30
0.0
 11
640.9787436796259
 21
123.5574573126253
 31
0.0
  0
ARC
  5
1CF6
330
1A
100
AcDbEntity
  8
SEIHIN
100
AcDbCircle
 10
636.9787436796259
 20
123.5574573126253
 30
0.0
 40
4.0
100
AcDbArc
 50
270.0
 51
0.0
  0
LINE
  5
1CF7
330
1A
100
AcDbEntity
  8
SEIHIN
100
AcDbLine
 10
640.9787436796259
 20
169.1910317426253
 30
0.0
 11
680.9787436796259
 21
169.1910317426253
 31
0.0
  0
LINE
  5
1CF8
330
1A
100
AcDbEntity
  8
SEIHIN
100
AcDbLine
 10
640.9787436796259
 20
163.1910317426253
 30
0.0
 11
680.9787436796259
 21
163.1910317426253
 31
0.0
  0
LINE
  5
1CF9
330
1A
100
AcDbEntity
  8
SEIHIN
100
AcDbLine
 10
640.9787436796259
 20
169.1910317426253
 30
0.0
 11
640.9787436796259
 21
163.1910317426253
 31
0.0
  0
DIMENSION
  5
1CFA
330
1A
100
AcDbEntity
  8
SUNPOU
100
AcDbDimension
  2
*D6
 10
573.7129257161895
 20
223.0995823044984
 30
0.0
 11
568.7129257161895
 21
245.0995822944985
 31
0.0
 70
    32
  1
※<>
  3
STANDARD
100
AcDbAlignedDimension
 13
525.8158126796258
 23
267.0995822844984
 33
0.0
 14
529.4787436796259
 24
223.0995823044984
 34
0.0
 50
90.0
100
AcDbRotatedDimension
1001
ACAD
1000
DSTYLE
1002
{
1070
    41
1040
6.0
1070
    42
1040
6.0
1070
    43
1040
14.0
1070
    44
1040
3.0
1070
    73
1070
     0
1070
    74
1070
     0
1070
    77
1070
     3
1070
   140
1040
6.0
1070
   141
1040
10.0
1070
   147
1040
2.0
1070
   172
1070
     1
1070
   173
1070
     1
1070
   176
1070
   256
1070
   177
1070
   256
1070
   178
1070
   256
1070
   271
1070
     0
1070
   272
1070
     0
1070
   341
1005
6D
1070
     6
1000
OPEN
1070
     7
1000
OPEN
1002
}
  0
DIMENSION
  5
1CFB
330
1A
100
AcDbEntity
  8
SUNPOU
100
AcDbDimension
  2
*D7
 10
530.9787436796259
 20
329.9955389986018
 30
0.0
 11
518.4787436796259
 21
334.9955389986019
 31
0.0
 70
    32
  3
STANDARD
100
AcDbAlignedDimension
 13
505.9787436796259
 23
317.9988167844983
 33
0.0
 14
530.9787436796259
 24
282.0995823847503
 34
0.0
100
AcDbRotatedDimension
1001
ACAD
1000
DSTYLE
1002
{
1070
    41
1040
6.0
1070
    42
1040
6.0
1070
    43
1040
14.0
1070
    44
1040
3.0
1070
    73
1070
     0
1070
    74
1070
     0
1070
    77
1070
     3
1070
   140
1040
6.0
1070
   141
1040
10.0
1070
   147
1040
2.0
1070
   172
1070
     1
1070
   173
1070
     1
1070
   176
1070
   256
1070
   177
1070
   256
1070
   178
1070
   256
1070
   271
1070
     0
1070
   272
1070
     0
1070
   341
1005
6D
1070
     6
1000
OPEN
1070
     7
1000
OPEN
1002
}
  0
DIMENSION
  5
1CFC
330
1A
100
AcDbEntity
  8
SUNPOU
100
AcDbDimension
  2
*D8
 10
590.0228025630708
 20
223.0995823044984
 30
0.0
 11
585.0228025630708
 21
252.5995823446244
 31
0.0
 70
    32
  3
STANDARD
100
AcDbAlignedDimension
 13
530.9787436796259
 23
282.0995823847503
 33
0.0
 14
529.4787436796259
 24
223.0995823044984
 34
0.0
 50
90.0
100
AcDbRotatedDimension
1001
ACAD
1000
DSTYLE
1002
{
1070
    41
1040
6.0
1070
    42
1040
6.0
1070
    43
1040
14.0
1070
    44
1040
3.0
1070
    73
1070
     0
1070
    74
1070
     0
1070
    77
1070
     3
1070
   140
1040
6.0
1070
   141
1040
10.0
1070
   147
1040
2.0
1070
   172
1070
     1
1070
   173
1070
     1
1070
   176
1070
   256
1070
   177
1070
   256
1070
   178
1070
   256
1070
   271
1070
     0
1070
   272
1070
     0
1070
   341
1005
6D
1070
     6
1000
OPEN
1070
     7
1000
OPEN
1002
}
  0
DIMENSION
  5
1CFD
330
1A
100
AcDbEntity
  8
SUNPOU
100
AcDbDimension
  2
*D9
 10
730.8603215024418
 20
223.0995823044983
 30
0.0
 11
725.8603215024418
 21
373.5829874944984
 31
0.0
 70
    32
  3
STANDARD
100
AcDbAlignedDimension
 13
649.8032509796257
 23
524.0663926844984
 33
0.0
 14
529.4787436796259
 24
223.0995823044984
 34
0.0
 50
90.0
100
AcDbRotatedDimension
1001
ACAD
1000
DSTYLE
1002
{
1070
    41
1040
6.0
1070
    42
1040
6.0
1070
    43
1040
14.0
1070
    44
1040
3.0
1070
    73
1070
     0
1070
    74
1070
     0
1070
    77
1070
     3
1070
   140
1040
6.0
1070
   141
1040
10.0
1070
   147
1040
2.0
1070
   172
1070
     1
1070
   173
1070
     1
1070
   176
1070
   256
1070
   177
1070
   256
1070
   178
1070
   256
1070
   271
1070
     0
1070
   272
1070
     0
1070
   341
1005
6D
1070
     6
1000
OPEN
1070
     7
1000
OPEN
1002
}
  0
LINE
  5
1CFE
330
1A
100
AcDbEntity
  8
SEIHIN
100
AcDbLine
 10
532.8335483796259
 20
419.3826696844983
 30
0.0
 11
576.0956140796259
 21
419.3630549844983
 31
0.0
  0
LINE
  5
1CFF
330
1A
100
AcDbEntity
  8
CENTER_L
 48
5.0
100
AcDbLine
 10
692.4413431796258
 20
426.0927652844983
 30
0.0
 11
467.9855606796259
 21
426.0927652844983
 31
0.0
  0
LINE
  5
1D00
330
1A
100
AcDbEntity
  8
SEIHIN
100
AcDbLine
 10
526.3764875796259
 20
400.7018383844983
 30
0.0
 11
586.0795091796258
 21
400.7018383844983
 31
0.0
  0
LINE
  5
1D01
330
1A
100
AcDbEntity
  8
SEIHIN
100
AcDbLine
 10
532.2044072796258
 20
398.0995822844984
 30
0.0
 11
586.0795091796258
 21
398.0995822844984
 31
0.0
  0
LINE
  5
1D02
330
1A
100
AcDbEntity
  8
SEIHIN
100
AcDbLine
 10
631.9787436796259
 20
480.8663926844984
 30
0.0
 11
428.0119332796257
 21
480.8663926844984
 31
0.0
  0
LINE
  5
1D03
330
1A
100
AcDbEntity
  8
SEIHIN
100
AcDbLine
 10
631.9787436796259
 20
490.3663926844983
 30
0.0
 11
418.5119332696258
 21
490.3663926844983
 31
0.0
  0
LINE
  5
1D04
330
1A
100
AcDbEntity
  8
SEIHIN
100
AcDbLine
 10
640.9787436796259
 20
514.4963926844983
 30
0.0
 11
394.3819332696257
 21
514.4963926844983
 31
0.0
  0
LINE
  5
1D05
330
1A
100
AcDbEntity
  8
SEIHIN
100
AcDbLine
 10
638.9787436796259
 20
521.3663926844983
 30
0.0
 11
387.5119332696258
 21
521.3663926844983
 31
0.0
  0
LINE
  5
1D06
330
1A
100
AcDbEntity
  8
SEIHIN
100
AcDbLine
 10
649.8032509796257
 20
524.0663926844984
 30
0.0
 11
387.5119332696258
 21
524.0663926844984
 31
0.0
  0
LINE
  5
1D07
330
1A
100
AcDbEntity
  8
SEIHIN
100
AcDbLine
 10
631.9787436796259
 20
477.0663926844983
 30
0.0
 11
431.8119332796259
 21
477.0663926844983
 31
0.0
  0
LINE
  5
1D08
330
1A
100
AcDbEntity
  8
SEIHIN
100
AcDbLine
 10
484.6956562796258
 20
371.2447775844983
 30
0.0
 11
484.715270979626
 21
327.9827118844983
 31
0.0
  0
LINE
  5
1D09
330
1A
100
AcDbEntity
  8
SEIHIN
100
AcDbLine
 10
503.376487579626
 20
377.7018383844983
 30
0.0
 11
503.376487579626
 21
317.9988167844983
 31
0.0
  0
LINE
  5
1D0A
330
1A
100
AcDbEntity
  8
SEIHIN
100
AcDbLine
 10
505.9787436796259
 20
371.8739186844983
 30
0.0
 11
505.9787436796259
 21
317.9988167844983
 31
0.0
  0
LINE
  5
1D0B
330
1A
100
AcDbEntity
  8
CENTER_L
 48
5.0
100
AcDbLine
 10
477.9855606796258
 20
211.6369828544983
 30
0.0
 11
477.9855606796258
 21
436.0927652844983
 31
0.0
  0
LINE
  5
1D0C
330
1A
100
AcDbEntity
  8
SEIHIN
100
AcDbLine
 10
427.0119332696258
 20
272.0995822844983
 30
0.0
 11
427.0119332696258
 21
472.2663926844984
 31
0.0
  0
LINE
  5
1D0D
330
1A
100
AcDbEntity
  8
SEIHIN
100
AcDbLine
 10
423.2119332696258
 20
272.0995822844983
 30
0.0
 11
423.2119332696258
 21
476.0663926844983
 31
0.0
  0
LINE
  5
1D0E
330
1A
100
AcDbEntity
  8
SEIHIN
100
AcDbLine
 10
389.581933269626
 20
263.0995822844984
 30
0.0
 11
389.581933269626
 21
509.6963926844982
 31
0.0
  0
LINE
  5
1D0F
330
1A
100
AcDbEntity
  8
SEIHIN
100
AcDbLine
 10
382.7119332696259
 20
265.0995822844984
 30
0.0
 11
382.7119332696259
 21
516.5663926844984
 31
0.0
  0
LINE
  5
1D10
330
1A
100
AcDbEntity
  8
SEIHIN
100
AcDbLine
 10
380.0119332696258
 20
254.2750749844983
 30
0.0
 11
380.0119332696258
 21
516.5663926844984
 31
0.0
  0
LINE
  5
1D11
330
1A
100
AcDbEntity
  8
SEIHIN
100
AcDbLine
 10
413.7119332696259
 20
272.0995822844983
 30
0.0
 11
413.7119332696259
 21
485.5663926844983
 31
0.0
  0
LINE
  5
1D12
330
1A
100
AcDbEntity
  8
SEIHIN
100
AcDbLine
 10
465.4579731778515
 20
262.0995822844983
 30
0.0
 11
403.6107972169584
 21
262.0995822844983
 31
0.0
  0
LINE
  5
1D13
330
1A
100
AcDbEntity
  8
SEIHIN
100
AcDbLine
 10
529.4787436796259
 20
223.0995823044984
 30
0.0
 11
381.5227862496258
 21
223.0995823044984
 31
0.0
  0
LINE
  5
1D14
330
1A
100
AcDbEntity
  8
SEIHIN
100
AcDbLine
 10
528.3906682796259
 20
272.0995822844983
 30
0.0
 11
399.4076809696257
 21
272.0995822844983
 31
0.0
  0
LINE
  5
1D15
330
1A
100
AcDbEntity
  8
SEIHIN
100
AcDbLine
 10
467.9855606796259
 20
267.0995822844984
 30
0.0
 11
404.0920769596259
 21
267.0995822844984
 31
0.0
  0
LINE
  5
1D16
330
1A
100
AcDbEntity
  8
SEIHIN
100
AcDbLine
 10
423.2119332696256
 20
262.0995822844981
 30
0.0
 11
423.2119332696258
 21
223.0995823044984
 31
0.0
  0
LINE
  5
1D17
330
1A
100
AcDbEntity
  8
SEIHIN
100
AcDbLine
 10
427.0119332696258
 20
262.0995822844981
 30
0.0
 11
427.0119332696258
 21
223.0995823044984
 31
0.0
  0
LINE
  5
1D18
330
1A
100
AcDbEntity
  8
SEIHIN
100
AcDbLine
 10
395.5687798796259
 20
223.0995823044984
 30
0.0
 11
395.5687798796259
 21
263.0995822844984
 31
0.0
  0
LINE
  5
1D19
330
1A
100
AcDbEntity
  8
SEIHIN
100
AcDbLine
 10
413.7119332696256
 20
262.0995822844981
 30
0.0
 11
413.7119332696259
 21
223.0995823044984
 31
0.0
  0
LINE
  5
1D1A
330
1A
100
AcDbEntity
  8
SEIHIN
100
AcDbLine
 10
380.3709641796258
 20
242.2966168844983
 30
0.0
 11
381.5227862496258
 21
223.0995823044984
 31
0.0
  0
LINE
  5
1D1B
330
1A
100
AcDbEntity
  8
SEIHIN
100
AcDbLine
 10
395.5617560596258
 20
223.0995823044984
 30
0.0
 11
395.5687798796259
 21
223.1066061244983
 31
0.0
  0
ARC
  5
1D1C
330
1A
100
AcDbEntity
  8
SEIHIN
100
AcDbCircle
 10
580.0119332796257
 20
254.2750749844983
 30
0.0
 40
200.0000000070507
100
AcDbArc
 50
180.0
 51
183.4336303492973
  0
LINE
  5
1D1D
330
1A
100
AcDbEntity
  8
SEIHIN
100
AcDbLine
 10
427.0119332696258
 20
252.0995822844984
 30
0.0
 11
427.0119332696258
 21
223.0995823044984
 31
0.0
  0
ARC
  5
1D1E
330
1A
100
AcDbEntity
  8
SEIHIN
100
AcDbCircle
 10
403.6107972169584
 20
264.0995822844983
 30
0.0
 40
2.0
100
AcDbArc
 50
183.8357816656479
 51
270.0
  0
LINE
  5
1D1F
330
1A
100
AcDbEntity
  8
SEIHIN
100
AcDbLine
 10
399.4076809696257
 20
272.0995822844983
 30
0.0
 11
404.0920769596259
 21
267.0995822844984
 31
0.0
  0
LINE
  5
1D20
330
1A
100
AcDbEntity
  8
SEIHIN
100
AcDbLine
 10
395.5687798796259
 20
263.0995822844984
 30
0.0
 11
384.7119332696259
 21
263.0995822844984
 31
0.0
  0
ARC
  5
1D21
330
1A
100
AcDbEntity
  8
SEIHIN
100
AcDbCircle
 10
384.7119332696259
 20
265.0995822844984
 30
0.0
 40
2.0
100
AcDbArc
 50
180.0
 51
270.0
  0
LINE
  5
1D22
330
1A
100
AcDbEntity
  8
SEIHIN
100
AcDbLine
 10
399.4076809696257
 20
269.3995822844983
 30
0.0
 11
401.3930375796258
 21
267.2804652844984
 31
0.0
  0
LINE
  5
1D23
330
1A
100
AcDbEntity
  8
SEIHIN
100
AcDbLine
 10
399.4076809696257
 20
269.3995822844983
 30
0.0
 11
399.4076809696257
 21
272.0995822844983
 31
0.0
  0
LINE
  5
1D24
330
1A
100
AcDbEntity
  8
SEIHIN
100
AcDbLine
 10
401.3930375796258
 20
267.2804652844984
 30
0.0
 11
401.6152774466672
 21
263.9657882398727
 31
0.0
  0
LINE
  5
1D25
330
1A
100
AcDbEntity
  8
SEIHIN
100
AcDbLine
 10
412.3417684496257
 20
267.0995822844984
 30
0.0
 11
413.7119332696259
 21
272.0995822844983
 31
0.0
  0
LINE
  5
1D26
330
1A
100
AcDbEntity
  8
SEIHIN
100
AcDbLine
 10
416.2126691396258
 20
267.0995822844984
 30
0.0
 11
416.2126691396258
 21
262.0995822844981
 31
0.0
  0
LINE
  5
1D27
330
1A
100
AcDbEntity
  8
SEIHIN
100
AcDbLine
 10
404.0920769596259
 20
267.0995822844984
 30
0.0
 11
404.4269795376822
 21
262.0995822844983
 31
0.0
  0
LINE
  5
1D28
330
1A
100
AcDbEntity
  8
SEIHIN
100
AcDbLine
 10
412.3417684496257
 20
267.0995822844984
 30
0.0
 11
412.3417684496257
 21
262.0995822844981
 31
0.0
  0
LINE
  5
1D29
330
1A
100
AcDbEntity
  8
SEIHIN
100
AcDbLine
 10
427.0119332696258
 20
272.0995822844983
 30
0.0
 11
430.5734449796259
 21
267.0995822844984
 31
0.0
  0
LINE
  5
1D2A
330
1A
100
AcDbEntity
  8
SEIHIN
100
AcDbLine
 10
423.2119332696258
 20
272.0995822844983
 30
0.0
 11
426.826430969626
 21
267.0995822844984
 31
0.0
  0
LINE
  5
1D2B
330
1A
100
AcDbEntity
  8
SEIHIN
100
AcDbLine
 10
430.5734449796259
 20
267.0995822844984
 30
0.0
 11
430.5734449796259
 21
262.0995822844981
 31
0.0
  0
LINE
  5
1D2C
330
1A
100
AcDbEntity
  8
SEIHIN
100
AcDbLine
 10
426.826430969626
 20
267.0995822844984
 30
0.0
 11
426.826430969626
 21
262.0995822844981
 31
0.0
  0
LINE
  5
1D2D
330
1A
100
AcDbEntity
  8
SEIHIN
100
AcDbLine
 10
530.9787436796259
 20
254.0941919844983
 30
0.0
 11
530.9787436796259
 21
273.9156077844983
 31
0.0
  0
LINE
  5
1D2E
330
1A
100
AcDbEntity
  8
SEIHIN
100
AcDbLine
 10
518.3119332796259
 20
263.0995822844984
 30
0.0
 11
518.3119332796259
 21
223.0995823044984
 31
0.0
  0
LINE
  5
1D2F
330
1A
100
AcDbEntity
  8
SEIHIN
100
AcDbLine
 10
487.9855606796259
 20
267.0995822844984
 30
0.0
 11
490.2473991796259
 21
253.5285513844983
 31
0.0
  0
LINE
  5
1D30
330
1A
100
AcDbEntity
  8
SEIHIN
100
AcDbLine
 10
491.9175603796259
 20
251.8803776844984
 30
0.0
 11
518.3119332796259
 21
247.8400353844983
 31
0.0
  0
ARC
  5
1D31
330
1A
100
AcDbEntity
  8
SEIHIN
100
AcDbCircle
 10
492.2201870796259
 20
253.8573493844983
 30
0.0
 40
2.000000030668019
100
AcDbArc
 50
189.4623226789945
 51
261.2969552453458
  0
LINE
  5
1D32
330
1A
100
AcDbEntity
  8
SEIHIN
100
AcDbLine
 10
530.6197127796258
 20
242.1157338844983
 30
0.0
 11
529.4787436796259
 21
223.0995823044984
 31
0.0
  0
ARC
  5
1D33
330
1A
100
AcDbEntity
  8
SEIHIN
100
AcDbCircle
 10
330.9787436876258
 20
254.0941919844983
 30
0.0
 40
199.9999999940579
100
AcDbArc
 50
356.5663696505653
 51
0.0
  0
LINE
  5
1D34
330
1A
100
AcDbEntity
  8
SEIHIN
100
AcDbLine
 10
523.1490964796257
 20
267.0995822844984
 30
0.0
 11
487.9855606796259
 21
267.0995822844984
 31
0.0
  0
LINE
  5
1D35
330
1A
100
AcDbEntity
  8
SEIHIN
100
AcDbLine
 10
488.0867446796259
 20
318.5144184844983
 30
0.0
 11
518.413935579626
 21
281.2946841844983
 31
0.0
  0
LINE
  5
1D36
330
1A
100
AcDbEntity
  8
SEIHIN
100
AcDbLine
 10
467.9855606796259
 20
269.3995822844983
 30
0.0
 11
487.9855606796259
 21
269.3995822844983
 31
0.0
  0
LINE
  5
1D37
330
1A
100
AcDbEntity
  8
SEIHIN
100
AcDbLine
 10
467.9855606796259
 20
267.2804652844984
 30
0.0
 11
487.9855606796259
 21
267.2804652844984
 31
0.0
  0
ARC
  5
1D38
330
1A
100
AcDbEntity
  8
SEIHIN
100
AcDbCircle
 10
465.4579731778515
 20
264.0995822844983
 30
0.0
 40
2.0
100
AcDbArc
 50
270.0
 51
350.5376779313915
  0
LINE
  5
1D39
330
1A
100
AcDbEntity
  8
SEIHIN
100
AcDbLine
 10
467.9855606796259
 20
272.0995822844983
 30
0.0
 11
467.9855606796259
 21
267.0995822844984
 31
0.0
  0
LINE
  5
1D3A
330
1A
100
AcDbEntity
  8
SEIHIN
100
AcDbLine
 10
467.4307610263158
 20
263.7707843146879
 30
0.0
 11
467.9855606796259
 21
267.0995822844984
 31
0.0
  0
LINE
  5
1D3B
330
1A
100
AcDbEntity
  8
SEIHIN
100
AcDbLine
 10
487.9855606796259
 20
272.0995822844983
 30
0.0
 11
487.9855606796259
 21
267.0995822844984
 31
0.0
  0
ARC
  5
1D3C
330
1A
100
AcDbEntity
  8
SEIHIN
100
AcDbCircle
 10
499.7152694796259
 20
327.9895127844984
 30
0.0
 40
15.00000003783918
100
AcDbArc
 50
180.0259775252767
 51
219.1736580252819
  0
ARC
  5
1D3D
330
1A
100
AcDbEntity
  8
SEIHIN
100
AcDbCircle
 10
521.0764875796257
 20
317.9988167844983
 30
0.0
 40
17.7000000307038
100
AcDbArc
 50
180.0
 51
219.1736610004029
  0
LINE
  5
1D3E
330
1A
100
AcDbEntity
  8
SEIHIN
100
AcDbLine
 10
509.4479627796259
 20
308.5237224844984
 30
0.0
 11
525.8091483796258
 21
288.4440856844983
 31
0.0
  0
ARC
  5
1D3F
330
1A
100
AcDbEntity
  8
SEIHIN
100
AcDbCircle
 10
508.0906682796258
 20
273.7782457844983
 30
0.0
 40
20.29999999495982
100
AcDbArc
 50
0.0
 51
39.1736579623399
  0
ARC
  5
1D40
330
1A
100
AcDbEntity
  8
SEIHIN
100
AcDbCircle
 10
507.9787436796259
 20
273.9156077844983
 30
0.0
 40
23.00000002018011
100
AcDbArc
 50
0.0
 51
39.17365796329038
  0
ARC
  5
1D41
330
1A
100
AcDbEntity
  8
SEIHIN
100
AcDbCircle
 10
508.5979101796258
 20
273.2964412844983
 30
0.0
 40
12.66200000278086
100
AcDbArc
 50
0.0
 51
39.17365790548038
  0
LINE
  5
1D42
330
1A
100
AcDbEntity
  8
SEIHIN
100
AcDbLine
 10
518.3119332796259
 20
263.0995822844984
 30
0.0
 11
530.9787436796259
 21
263.0995822844984
 31
0.0
  0
LINE
  5
1D43
330
1A
100
AcDbEntity
  8
SEIHIN
100
AcDbLine
 10
520.2029475796257
 20
267.0995822844984
 30
0.0
 11
525.4445193796259
 21
272.0995822844983
 31
0.0
  0
LINE
  5
1D44
330
1A
100
AcDbEntity
  8
SEIHIN
100
AcDbLine
 10
525.8158126796258
 20
267.0995822844984
 30
0.0
 11
528.3906682796259
 21
269.5557688844983
 31
0.0
  0
LINE
  5
1D45
330
1A
100
AcDbEntity
  8
SEIHIN
100
AcDbLine
 10
523.1490964796257
 20
267.0995822844984
 30
0.0
 11
528.3906682796259
 21
272.0995822844983
 31
0.0
  0
LINE
  5
1D46
330
1A
100
AcDbEntity
  8
SEIHIN
100
AcDbLine
 10
525.8158126796258
 20
263.0995822844984
 30
0.0
 11
525.8158126796258
 21
267.0995822844984
 31
0.0
  0
LINE
  5
1D47
330
1A
100
AcDbEntity
  8
SEIHIN
100
AcDbLine
 10
520.2029475796257
 20
267.0995822844984
 30
0.0
 11
520.2029475796257
 21
263.0995822844984
 31
0.0
  0
LINE
  5
1D48
330
1A
100
AcDbEntity
  8
SEIHIN
100
AcDbLine
 10
523.1490964796257
 20
263.0995822844984
 30
0.0
 11
523.1490964796257
 21
267.0995822844984
 31
0.0
  0
LINE
  5
1D49
330
1A
100
AcDbEntity
  8
SEIHIN
100
AcDbLine
 10
528.3906682796259
 20
263.0995822844984
 30
0.0
 11
528.3906682796259
 21
273.7782457844983
 31
0.0
  0
LINE
  5
1D4A
330
1A
100
AcDbEntity
  8
SEIHIN
100
AcDbLine
 10
507.3548288796259
 20
306.8182047844983
 30
0.0
 11
523.827938479626
 21
286.6012066844983
 31
0.0
  0
LINE
  5
1D4B
330
1A
100
AcDbEntity
  8
SEIHIN
100
AcDbLine
 10
515.7646949796258
 20
300.7713748844983
 30
0.0
 11
513.6715611796257
 21
299.0658571844983
 31
0.0
  0
LINE
  5
1D4C
330
1A
100
AcDbEntity
  8
SEIHIN
100
AcDbLine
 10
505.9787436796259
 20
317.9988167844983
 30
0.0
 11
503.376487579626
 21
317.9988167844983
 31
0.0
  0
ARC
  5
1D4D
330
1A
100
AcDbEntity
  8
SEIHIN
100
AcDbCircle
 10
520.9787436796259
 20
317.9988167844983
 30
0.0
 40
15.00000001696845
100
AcDbArc
 50
180.0
 51
219.1736580252819
  0
LINE
  5
1D4E
330
1A
100
AcDbEntity
  8
CENTER_L
 48
5.0
100
AcDbLine
 10
542.9481384796258
 20
361.1301874844983
 30
0.0
 11
366.1714431896257
 21
537.9068827844982
 31
0.0
  0
ARC
  5
1D4F
330
1A
100
AcDbEntity
  8
SEIHIN
100
AcDbCircle
 10
418.5119332696258
 20
485.5663926844983
 30
0.0
 40
4.800000000000011
100
AcDbArc
 50
90.0
 51
180.0
  0
ARC
  5
1D50
330
1A
100
AcDbEntity
  8
SEIHIN
100
AcDbCircle
 10
431.8119332796259
 20
472.2663926844984
 30
0.0
 40
4.800000004999972
100
AcDbArc
 50
90.0
 51
180.0
  0
ARC
  5
1D51
330
1A
100
AcDbEntity
  8
SEIHIN
100
AcDbCircle
 10
428.0119332796257
 20
476.0663926844983
 30
0.0
 40
4.800000005000008
100
AcDbArc
 50
90.0
 51
180.0
  0
ARC
  5
1D52
330
1A
100
AcDbEntity
  8
SEIHIN
100
AcDbCircle
 10
387.5119332696258
 20
516.5663926844984
 30
0.0
 40
4.800000000000004
100
AcDbArc
 50
90.0
 51
180.0
  0
ARC
  5
1D53
330
1A
100
AcDbEntity
  8
SEIHIN
100
AcDbCircle
 10
387.5119332696258
 20
516.5663926844984
 30
0.0
 40
7.5
100
AcDbArc
 50
90.0
 51
180.0
  0
ARC
  5
1D54
330
1A
100
AcDbEntity
  8
SEIHIN
100
AcDbCircle
 10
394.3819332696257
 20
509.6963926844982
 30
0.0
 40
4.800000000000004
100
AcDbArc
 50
90.0
 51
180.0
  0
ARC
  5
1D55
330
1A
100
AcDbEntity
  8
SEIHIN
100
AcDbCircle
 10
531.6689779796258
 20
372.4093479844983
 30
0.0
 40
46.97449653039787
100
AcDbArc
 50
87.39643245484153
 51
180.0360970352963
  0
ARC
  5
1D56
330
1A
100
AcDbEntity
  8
SEIHIN
100
AcDbCircle
 10
526.3764875796259
 20
377.7018383844983
 30
0.0
 40
22.99999999999998
100
AcDbArc
 50
90.0
 51
180.0
  0
ARC
  5
1D57
330
1A
100
AcDbEntity
  8
SEIHIN
100
AcDbCircle
 10
531.0498114796259
 20
373.0285144844983
 30
0.0
 40
25.09763995932014
100
AcDbArc
 50
87.35291973219112
 51
182.6367747347027
  0
DIMENSION
  5
1D58
330
1A
100
AcDbEntity
  8
SUNPOU
100
AcDbDimension
  2
*D10
 10
706.1231063744749
 20
373.4586131895347
 30
0.0
 11
701.1231063744747
 21
448.7625029370167
 31
0.0
 70
    32
  3
STANDARD
100
AcDbAlignedDimension
 13
649.8032509796257
 23
524.0663926844984
 33
0.0
 14
661.9625921793235
 24
373.4586131895347
 34
0.0
 50
90.0
100
AcDbRotatedDimension
1001
ACAD
1000
DSTYLE
1002
{
1070
    41
1040
6.0
1070
    42
1040
6.0
1070
    43
1040
14.0
1070
    44
1040
3.0
1070
    73
1070
     0
1070
    74
1070
     0
1070
    77
1070
     3
1070
   140
1040
6.0
1070
   141
1040
10.0
1070
   147
1040
2.0
1070
   172
1070
     1
1070
   173
1070
     1
1070
   176
1070
   256
1070
   177
1070
   256
1070
   178
1070
   256
1070
   271
1070
     0
1070
   272
1070
     0
1070
   341
1005
6D
1070
     6
1000
OPEN
1070
     7
1000
OPEN
1002
}
  0
LINE
  5
1D59
330
1A
100
AcDbEntity
  8
SEIHIN
100
AcDbLine
 10
641.9787436796259
 20
438.6203527862728
 30
0.0
 11
641.9787436796259
 21
500.4675287425129
 31
0.0
  0
LINE
  5
1D5A
330
1A
100
AcDbEntity
  8
SEIHIN
100
AcDbLine
 10
636.9787436796259
 20
436.0927652844983
 30
0.0
 11
636.9787436796259
 21
499.9862489844984
 31
0.0
  0
LINE
  5
1D5B
330
1A
100
AcDbEntity
  8
SEIHIN
100
AcDbLine
 10
631.9787436796259
 20
375.6876576844983
 30
0.0
 11
631.9787436796259
 21
504.6706449844983
 31
0.0
  0
LINE
  5
1D5C
330
1A
100
AcDbEntity
  8
SEIHIN
100
AcDbLine
 10
680.9787436796259
 20
374.5995822844984
 30
0.0
 11
680.9787436796259
 21
522.5555397844983
 31
0.0
  0
LINE
  5
1D5D
330
1A
100
AcDbEntity
  8
SEIHIN
100
AcDbLine
 10
631.9787436796259
 20
436.0927652844983
 30
0.0
 11
636.9787436796259
 21
436.0927652844983
 31
0.0
  0
LINE
  5
1D5E
330
1A
100
AcDbEntity
  8
SEIHIN
100
AcDbLine
 10
631.9787436796259
 20
416.0927652844983
 30
0.0
 11
636.9787436796259
 21
416.0927652844983
 31
0.0
  0
LINE
  5
1D5F
330
1A
100
AcDbEntity
  8
SEIHIN
100
AcDbLine
 10
636.9787436796259
 20
380.9292295844983
 30
0.0
 11
631.9787436796259
 21
375.6876576844983
 31
0.0
  0
LINE
  5
1D60
330
1A
100
AcDbEntity
  8
SEIHIN
100
AcDbLine
 10
636.9787436796259
 20
383.8753783844984
 30
0.0
 11
631.9787436796259
 21
378.6338065844984
 31
0.0
  0
LINE
  5
1D61
330
1A
100
AcDbEntity
  8
SEIHIN
100
AcDbLine
 10
649.9841339796257
 20
373.0995822844984
 30
0.0
 11
630.1627181796259
 21
373.0995822844984
 31
0.0
  0
LINE
  5
1D62
330
1A
100
AcDbEntity
  8
SEIHIN
100
AcDbLine
 10
640.9787436796259
 20
375.6876576844983
 30
0.0
 11
630.3000802796259
 21
375.6876576844983
 31
0.0
  0
LINE
  5
1D63
330
1A
100
AcDbEntity
  8
SEIHIN
100
AcDbLine
 10
586.0795091796258
 20
398.0995822844984
 30
0.0
 11
586.0795091796258
 21
400.7018383844983
 31
0.0
  0
ARC
  5
1D64
330
1A
100
AcDbEntity
  8
SEIHIN
100
AcDbCircle
 10
586.0795091796258
 20
383.0018383844983
 30
0.0
 40
17.70000003070377
100
AcDbArc
 50
50.8263389995986
 51
90.0
  0
LINE
  5
1D65
330
1A
100
AcDbEntity
  8
SEIHIN
100
AcDbLine
 10
585.5639074796259
 20
415.9915812844984
 30
0.0
 11
622.7836417796258
 21
385.6643903844983
 31
0.0
  0
LINE
  5
1D66
330
1A
100
AcDbEntity
  8
SEIHIN
100
AcDbLine
 10
597.2601211796258
 20
396.7234970844983
 30
0.0
 11
617.4771193796259
 21
380.2503874844983
 31
0.0
  0
LINE
  5
1D67
330
1A
100
AcDbEntity
  8
SEIHIN
100
AcDbLine
 10
595.5546034796259
 20
394.6303631844983
 30
0.0
 11
615.6342402796258
 21
378.2691775844984
 31
0.0
  0
ARC
  5
1D68
330
1A
100
AcDbEntity
  8
SEIHIN
100
AcDbCircle
 10
586.0795091796258
 20
383.0995822844984
 30
0.0
 40
15.00000001696847
100
AcDbArc
 50
50.82634197471964
 51
90.0
  0
ARC
  5
1D69
330
1A
100
AcDbEntity
  8
SEIHIN
100
AcDbCircle
 10
630.3000802796259
 20
395.9876576844983
 30
0.0
 40
20.29999999495979
100
AcDbArc
 50
230.826342037661
 51
270.0
  0
ARC
  5
1D6A
330
1A
100
AcDbEntity
  8
SEIHIN
100
AcDbCircle
 10
630.1627181796259
 20
396.0995822844984
 30
0.0
 40
23.0000000201801
100
AcDbArc
 50
230.8263420367106
 51
270.0
  0
LINE
  5
1D6B
330
1A
100
AcDbEntity
  8
SEIHIN
100
AcDbLine
 10
603.3069510796258
 20
388.3136309844983
 30
0.0
 11
605.0124687796258
 21
390.4067647844983
 31
0.0
  0
ARC
  5
1D6C
330
1A
100
AcDbEntity
  8
SEIHIN
100
AcDbCircle
 10
630.7818846796258
 20
395.4804157844982
 30
0.0
 40
12.66200000278085
100
AcDbArc
 50
230.8263420945197
 51
270.0
  0
ARC
  5
1D6D
330
1A
100
AcDbEntity
  8
SEIHIN
100
AcDbCircle
 10
576.0888132796257
 20
404.3630564844984
 30
0.0
 40
15.00000000623285
100
AcDbArc
 50
50.82634227083586
 51
89.97402285669435
  0
LINE
  5
1D6E
330
1A
100
AcDbEntity
  8
SEIHIN
100
AcDbLine
 10
652.1979482796259
 20
412.1607656844982
 30
0.0
 11
656.2382905796257
 21
385.7663926844983
 31
0.0
  0
LINE
  5
1D6F
330
1A
100
AcDbEntity
  8
SEIHIN
100
AcDbLine
 10
636.9787436796259
 20
380.9292295844983
 30
0.0
 11
636.9787436796259
 21
416.0927652844983
 31
0.0
  0
LINE
  5
1D70
330
1A
100
AcDbEntity
  8
SEIHIN
100
AcDbLine
 10
640.9787436796259
 20
385.7663926844983
 30
0.0
 11
680.9787436796259
 21
385.7663926844983
 31
0.0
  0
LINE
  5
1D71
330
1A
100
AcDbEntity
  8
SEIHIN
100
AcDbLine
 10
661.9625921796259
 20
373.4586131844983
 30
0.0
 11
680.9787436796259
 21
374.5995822844984
 31
0.0
  0
LINE
  5
1D72
330
1A
100
AcDbEntity
  8
SEIHIN
100
AcDbLine
 10
636.9787436796259
 20
378.2625133844983
 30
0.0
 11
634.5225570796258
 21
375.6876576844983
 31
0.0
  0
LINE
  5
1D73
330
1A
100
AcDbEntity
  8
SEIHIN
100
AcDbLine
 10
640.9787436796259
 20
385.7663926844983
 30
0.0
 11
640.9787436796259
 21
373.0995822844984
 31
0.0
  0
ARC
  5
1D74
330
1A
100
AcDbEntity
  8
SEIHIN
100
AcDbCircle
 10
649.9841339796257
 20
573.0995822844984
 30
0.0
 40
200.0000000050453
100
AcDbArc
 50
270.0
 51
273.4336303778888
  0
LINE
  5
1D75
330
1A
100
AcDbEntity
  8
SEIHIN
100
AcDbLine
 10
640.9787436796259
 20
378.2625133844983
 30
0.0
 11
636.9787436796259
 21
378.2625133844983
 31
0.0
  0
LINE
  5
1D76
330
1A
100
AcDbEntity
  8
SEIHIN
100
AcDbLine
 10
640.9787436796259
 20
380.9292295844983
 30
0.0
 11
636.9787436796259
 21
380.9292295844983
 31
0.0
  0
LINE
  5
1D77
330
1A
100
AcDbEntity
  8
SEIHIN
100
AcDbLine
 10
636.9787436796259
 20
383.8753783844984
 30
0.0
 11
640.9787436796259
 21
383.8753783844984
 31
0.0
  0
LINE
  5
1D78
330
1A
100
AcDbEntity
  8
SEIHIN
100
AcDbLine
 10
634.6787436796257
 20
436.0927652844983
 30
0.0
 11
634.6787436796257
 21
416.0927652844983
 31
0.0
  0
LINE
  5
1D79
330
1A
100
AcDbEntity
  8
SEIHIN
100
AcDbLine
 10
636.7978606796259
 20
436.0927652844983
 30
0.0
 11
636.7978606796259
 21
416.0927652844983
 31
0.0
  0
LINE
  5
1D7A
330
1A
100
AcDbEntity
  8
SEIHIN
100
AcDbLine
 10
636.9787436796259
 20
416.0927652844983
 30
0.0
 11
650.5497745796258
 21
413.8309267844983
 31
0.0
  0
ARC
  5
1D7B
330
1A
100
AcDbEntity
  8
SEIHIN
100
AcDbCircle
 10
650.2209765796258
 20
411.8581389844982
 30
0.0
 40
1.999999981348342
100
AcDbArc
 50
8.703044754654664
 51
80.53767685003796
  0
ARC
  5
1D7C
330
1A
100
AcDbEntity
  8
SEIHIN
100
AcDbCircle
 10
639.9787436796259
 20
438.6203527862728
 30
0.0
 40
2.0
100
AcDbArc
 50
279.4623220686117
 51
0.0
  0
LINE
  5
1D7D
330
1A
100
AcDbEntity
  8
SEIHIN
100
AcDbLine
 10
640.3075416494364
 20
436.6475649378084
 30
0.0
 11
636.9787436796259
 21
436.0927652844983
 31
0.0
  0
LINE
  5
1D7E
330
1A
100
AcDbEntity
  8
SEIHIN
100
AcDbLine
 10
634.6787436796257
 20
504.6706449844983
 30
0.0
 11
631.9787436796259
 21
504.6706449844983
 31
0.0
  0
LINE
  5
1D7F
330
1A
100
AcDbEntity
  8
SEIHIN
100
AcDbLine
 10
631.9787436796259
 20
504.6706449844983
 30
0.0
 11
636.9787436796259
 21
499.9862489844984
 31
0.0
  0
LINE
  5
1D80
330
1A
100
AcDbEntity
  8
SEIHIN
100
AcDbLine
 10
636.9787436796259
 20
491.7365575844983
 30
0.0
 11
631.9787436796259
 21
490.3663926844983
 31
0.0
  0
LINE
  5
1D81
330
1A
100
AcDbEntity
  8
SEIHIN
100
AcDbLine
 10
631.9787436796259
 20
477.0663926844983
 30
0.0
 11
636.9787436796259
 21
473.5048809844983
 31
0.0
  0
LINE
  5
1D82
330
1A
100
AcDbEntity
  8
SEIHIN
100
AcDbLine
 10
631.9787436796259
 20
480.8663926844984
 30
0.0
 11
636.9787436796259
 21
477.2518949844983
 31
0.0
  0
LINE
  5
1D83
330
1A
100
AcDbEntity
  8
SEIHIN
100
AcDbLine
 10
641.9787436796259
 20
490.3663926844983
 30
0.0
 11
680.9787436796259
 21
490.3663926844983
 31
0.0
  0
LINE
  5
1D84
330
1A
100
AcDbEntity
  8
SEIHIN
100
AcDbLine
 10
641.9787436796259
 20
480.8663926844984
 30
0.0
 11
680.9787436796259
 21
480.8663926844984
 31
0.0
  0
LINE
  5
1D85
330
1A
100
AcDbEntity
  8
SEIHIN
100
AcDbLine
 10
641.9787436796259
 20
477.0663926844982
 30
0.0
 11
680.9787436796259
 21
477.0663926844983
 31
0.0
  0
LINE
  5
1D86
330
1A
100
AcDbEntity
  8
SEIHIN
100
AcDbLine
 10
651.9787436796259
 20
477.0663926844983
 30
0.0
 11
680.9787436796259
 21
477.0663926844983
 31
0.0
  0
LINE
  5
1D87
330
1A
100
AcDbEntity
  8
SEIHIN
100
AcDbLine
 10
636.9787436796259
 20
491.7365575844983
 30
0.0
 11
641.9787436796257
 21
491.7365575844983
 31
0.0
  0
LINE
  5
1D88
330
1A
100
AcDbEntity
  8
SEIHIN
100
AcDbLine
 10
636.9787436796259
 20
487.8656568844982
 30
0.0
 11
641.9787436796257
 21
487.8656568844982
 31
0.0
  0
LINE
  5
1D89
330
1A
100
AcDbEntity
  8
SEIHIN
100
AcDbLine
 10
636.9787436796259
 20
473.5048809844983
 30
0.0
 11
641.9787436796257
 21
473.5048809844983
 31
0.0
  0
LINE
  5
1D8A
330
1A
100
AcDbEntity
  8
SEIHIN
100
AcDbLine
 10
636.9787436796259
 20
477.2518949844983
 30
0.0
 11
641.9787436796257
 21
477.2518949844983
 31
0.0
  0
LINE
  5
1D8B
330
1A
100
AcDbEntity
  8
SEIHIN
100
AcDbLine
 10
661.7817090796259
 20
523.7073617844982
 30
0.0
 11
680.9787436796259
 21
522.5555397844983
 31
0.0
  0
LINE
  5
1D8C
330
1A
100
AcDbEntity
  8
SEIHIN
100
AcDbLine
 10
680.9787436796259
 20
508.5095460844984
 30
0.0
 11
640.9787436796259
 21
508.5095460844984
 31
0.0
  0
LINE
  5
1D8D
330
1A
100
AcDbEntity
  8
SEIHIN
100
AcDbLine
 10
640.9787436796259
 20
511.5095460844984
 30
0.0
 11
680.9787436796259
 21
511.5095460844984
 31
0.0
  0
LINE
  5
1D8E
330
1A
100
AcDbEntity
  8
SEIHIN
100
AcDbLine
 10
640.9787436796259
 20
508.5095460844984
 30
0.0
 11
640.9787436796259
 21
519.3663926844983
 31
0.0
  0
ARC
  5
1D8F
330
1A
100
AcDbEntity
  8
SEIHIN
100
AcDbCircle
 10
639.9787436796259
 20
500.4675287425129
 30
0.0
 40
2.0
100
AcDbArc
 50
0.0
 51
86.16421825428112
  0
LINE
  5
1D90
330
1A
100
AcDbEntity
  8
SEIHIN
100
AcDbLine
 10
634.6787436796257
 20
504.6706449844983
 30
0.0
 11
636.7978606796259
 21
502.6852883844983
 31
0.0
  0
LINE
  5
1D91
330
1A
100
AcDbEntity
  8
SEIHIN
100
AcDbLine
 10
636.9787436796259
 20
499.9862489844984
 30
0.0
 11
641.9787436796259
 21
499.651346434878
 31
0.0
  0
LINE
  5
1D92
330
1A
100
AcDbEntity
  8
SEIHIN
100
AcDbLine
 10
636.7978606796259
 20
502.6852883844983
 30
0.0
 11
640.11253772704
 21
502.4630485126171
 31
0.0
  0
ARC
  5
1D93
330
1A
100
AcDbEntity
  8
SEIHIN
100
AcDbCircle
 10
649.8032509796257
 20
324.0663926844983
 30
0.0
 40
200.0000000020507
100
AcDbArc
 50
86.5663696506993
 51
90.0
  0
ARC
  5
1D94
330
1A
100
AcDbEntity
  8
SEIHIN
100
AcDbCircle
 10
638.9787436796259
 20
519.3663926844983
 30
0.0
 40
2.0
100
AcDbArc
 50
0.0
 51
90.0
  0
LINE
  5
1D95
330
1A
100
AcDbEntity
  8
SEIHIN
100
AcDbLine
 10
680.9717198796258
 20
508.5095460844984
 30
0.0
 11
680.9787436796259
 21
508.5165698844983
 31
0.0
  0
VIEWPORT
  5
22
330
17
100
AcDbEntity
 67
     1
  8
0
100
AcDbViewport
 10
313.6808219178082
 20
148.5
 30
0.0
 40
627.3616438356165
 41
297.0
 68
     2
 69
     1
1001
ACAD
1000
MVIEW
1002
{
1070
    16
1010
0.0
1020
0.0
1030
0.0
1010
0.0
1020
0.0
1030
1.0
1040
0.0
1040
297.0
1040
313.6808219178082
1040
148.5
1040
50.0
1040
0.0
1040
0.0
1070
     0
1070
   100
1070
     1
1070
     0
1070
     0
1070
     0
1070
     0
1070
     0
1040
0.0
1040
0.0
1040
0.0
1040
1.0
1040
1.0
1040
10.0
1040
10.0
1070
     0
1002
{
1002
}
1002
}
  0
VIEWPORT
  5
64
330
17
100
AcDbEntity
 67
     1
  8
VIEWPORT
100
AcDbViewport
 10
210.0
 20
148.5
 30
0.0
 40
420.0
 41
297.0
 68
     1
 69
     2
1001
ACAD
1000
MVIEW
1002
{
1070
    16
1010
0.0
1020
0.0
1030
0.0
1010
0.0
1020
0.0
1030
1.0
1040
0.0
1040
605.8799999999998
1040
420.0
1040
297.0
1040
50.0
1040
0.0
1040
0.0
1070
     0
1070
   100
1070
     1
1070
     0
1070
     0
1070
     0
1070
     0
1070
     0
1040
0.0
1040
0.0
1040
0.0
1040
10.0
1040
10.0
1040
0.0
1040
0.0
1070
     0
1002
{
1002
}
1002
}
  0
ENDSEC
  0
SECTION
  2
OBJECTS
  0
DICTIONARY
  5
C
330
0
100
AcDbDictionary
  3
ACAD_GROUP
350
D
  3
ACAD_LAYOUT
350
14C
  3
ACAD_MLINESTYLE
350
E
  3
ACAD_PLOTSETTINGS
350
14D
  3
ACAD_PLOTSTYLENAME
350
14A
  3
ACDBHEADERROUNDTRIPXREC
350
1FB8
  0
DICTIONARY
  5
CFB
330
1A
100
AcDbDictionary
280
     1
  3
ACAD_LAYOUTSELFREF
360
1FDA
  0
DICTIONARY
  5
CF9
330
17
100
AcDbDictionary
280
     1
  3
ACAD_LAYOUTSELFREF
360
1FD9
  0
DICTIONARY
  5
D
102
{ACAD_REACTORS
330
C
102
}
330
C
100
AcDbDictionary
  0
DICTIONARY
  5
14C
102
{ACAD_REACTORS
330
C
102
}
330
C
100
AcDbDictionary
  0
DICTIONARY
  5
E
102
{ACAD_REACTORS
330
C
102
}
330
C
100
AcDbDictionary
  3
STANDARD
350
13
  0
DICTIONARY
  5
14D
102
{ACAD_REACTORS
330
C
102
}
330
C
100
AcDbDictionary
  0
ACDBDICTIONARYWDFLT
  5
14A
102
{ACAD_REACTORS
330
C
102
}
330
C
100
AcDbDictionary
281
     1
  3
Normal
350
14B
100
AcDbDictionaryWithDefault
340
14B
1001
ACAD
1000
TREAT_AS_HARD
1070
     0
1000
TREAT_AS_HARD
1070
     0
  0
DICTIONARY
  5
1FB8
102
{ACAD_REACTORS
330
C
102
}
330
C
100
AcDbDictionary
  3
TSTACKALIGN
350
1FB9
  3
TSTACKSIZE
350
1FBA
  3
HYPERLINKBASE
350
1FBB
  3
STYLESHEET
350
1FBC
  3
LAYOUTDICT
350
1FBD
  3
PLOTSETDICT
350
1FBE
  3
PLOTSTYLNAMDICT
350
1FBF
  3
LWETCUNION
350
1FC0
  3
INSUNITS
350
1FC1
  3
CEPSNTYPE
350
1FC2
  3
FINGERPRINTGUID
350
1FC3
  3
VERSIONGUID
350
1FC4
  3
PSVPSCALE
350
1FC5
  3
DIMSTYLEDATA
350
1FC6
  3
PUCSORTHOREF
350
1FC7
  3
PUCSORTHOVIEW
350
1FC8
  3
PUCSBASE
350
1FC9
  3
PUCSORGTOP
350
1FCA
  3
PUCSORGBOTTOM
350
1FCB
  3
PUCSORGLEFT
350
1FCC
  3
PUCSORGRIGHT
350
1FCD
  3
PUCSORGFRONT
350
1FCE
  3
PUCSORGBACK
350
1FCF
  3
UCSORTHOREF
350
1FD0
  3
UCSORTHOVIEW
350
1FD1
  3
UCSBASE
350
1FD2
  3
UCSORGTOP
350
1FD3
  3
UCSORGBOTTOM
350
1FD4
  3
UCSORGLEFT
350
1FD5
  3
UCSORGRIGHT
350
1FD6
  3
UCSORGFRONT
350
1FD7
  3
UCSORGBACK
350
1FD8
  0
XRECORD
  5
1FDA
102
{ACAD_REACTORS
330
CFB
102
}
330
CFB
100
AcDbXrecord
340
1A
  0
XRECORD
  5
1FD9
102
{ACAD_REACTORS
330
CF9
102
}
330
CF9
100
AcDbXrecord
340
17
  0
MLINESTYLE
  5
13
102
{ACAD_REACTORS
330
E
102
}
330
E
100
AcDbMlineStyle
  2
STANDARD
 70
     0
  3

 62
     0
 51
90.0
 52
90.0
 71
     2
 49
0.5
 62
   256
  6
BYLAYER
 49
-0.5
 62
   256
  6
BYLAYER
  0
ACDBPLACEHOLDER
  5
14B
102
{ACAD_REACTORS
330
14A
102
}
330
14A
100
AcDbPlaceHolder
280
     0
  0
XRECORD
  5
1FB9
102
{ACAD_REACTORS
330
1FB8
102
}
330
1FB8
100
AcDbXrecord
 90
        1
  0
XRECORD
  5
1FBA
102
{ACAD_REACTORS
330
1FB8
102
}
330
1FB8
100
AcDbXrecord
 90
       70
  0
XRECORD
  5
1FBB
102
{ACAD_REACTORS
330
1FB8
102
}
330
1FB8
100
AcDbXrecord
  1

  0
XRECORD
  5
1FBC
102
{ACAD_REACTORS
330
1FB8
102
}
330
1FB8
100
AcDbXrecord
  1
systemprinter.ctb
  0
XRECORD
  5
1FBD
102
{ACAD_REACTORS
330
1FB8
102
}
330
1FB8
100
AcDbXrecord
340
14C
  0
XRECORD
  5
1FBE
102
{ACAD_REACTORS
330
1FB8
102
}
330
1FB8
100
AcDbXrecord
340
14D
  0
XRECORD
  5
1FBF
102
{ACAD_REACTORS
330
1FB8
102
}
330
1FB8
100
AcDbXrecord
340
14A
  0
XRECORD
  5
1FC0
102
{ACAD_REACTORS
330
1FB8
102
}
330
1FB8
100
AcDbXrecord
 90
    10781
  0
XRECORD
  5
1FC1
102
{ACAD_REACTORS
330
1FB8
102
}
330
1FB8
100
AcDbXrecord
 90
        0
  0
XRECORD
  5
1FC2
102
{ACAD_REACTORS
330
1FB8
102
}
330
1FB8
100
AcDbXrecord
 90
        0
  0
XRECORD
  5
1FC3
102
{ACAD_REACTORS
330
1FB8
102
}
330
1FB8
100
AcDbXrecord
  1
{75772F4A-CE5A-11D3-932C-444553540000}
  0
XRECORD
  5
1FC4
102
{ACAD_REACTORS
330
1FB8
102
}
330
1FB8
100
AcDbXrecord
  1
{0B351A38-9E74-418D-BEB3-046C58B95F9D}
  0
XRECORD
  5
1FC5
102
{ACAD_REACTORS
330
1FB8
102
}
330
1FB8
100
AcDbXrecord
 40
0.0
  0
XRECORD
  5
1FC6
102
{ACAD_REACTORS
330
1FB8
102
}
330
1FB8
100
AcDbXrecord
1000
DSTYLE
1002
{
1070
   341
340
6D
1070
   343
340
6D
1070
   344
340
6D
1070
   371
 70
    -1
1070
   372
 70
    -1
1002
}
  0
XRECORD
  5
1FC7
102
{ACAD_REACTORS
330
1FB8
102
}
330
1FB8
100
AcDbXrecord
340
0
  0
XRECORD
  5
1FC8
102
{ACAD_REACTORS
330
1FB8
102
}
330
1FB8
100
AcDbXrecord
 70
     0
  0
XRECORD
  5
1FC9
102
{ACAD_REACTORS
330
1FB8
102
}
330
1FB8
100
AcDbXrecord
340
0
  0
XRECORD
  5
1FCA
102
{ACAD_REACTORS
330
1FB8
102
}
330
1FB8
100
AcDbXrecord
 10
0.0
 20
0.0
 30
0.0
  0
XRECORD
  5
1FCB
102
{ACAD_REACTORS
330
1FB8
102
}
330
1FB8
100
AcDbXrecord
 10
0.0
 20
0.0
 30
0.0
  0
XRECORD
  5
1FCC
102
{ACAD_REACTORS
330
1FB8
102
}
330
1FB8
100
AcDbXrecord
 10
0.0
 20
0.0
 30
0.0
  0
XRECORD
  5
1FCD
102
{ACAD_REACTORS
330
1FB8
102
}
330
1FB8
100
AcDbXrecord
 10
0.0
 20
0.0
 30
0.0
  0
XRECORD
  5
1FCE
102
{ACAD_REACTORS
330
1FB8
102
}
330
1FB8
100
AcDbXrecord
 10
0.0
 20
0.0
 30
0.0
  0
XRECORD
  5
1FCF
102
{ACAD_REACTORS
330
1FB8
102
}
330
1FB8
100
AcDbXrecord
 10
0.0
 20
0.0
 30
0.0
  0
XRECORD
  5
1FD0
102
{ACAD_REACTORS
330
1FB8
102
}
330
1FB8
100
AcDbXrecord
340
0
  0
XRECORD
  5
1FD1
102
{ACAD_REACTORS
330
1FB8
102
}
330
1FB8
100
AcDbXrecord
 70
     0
  0
XRECORD
  5
1FD2
102
{ACAD_REACTORS
330
1FB8
102
}
330
1FB8
100
AcDbXrecord
340
0
  0
XRECORD
  5
1FD3
102
{ACAD_REACTORS
330
1FB8
102
}
330
1FB8
100
AcDbXrecord
 10
0.0
 20
0.0
 30
0.0
  0
XRECORD
  5
1FD4
102
{ACAD_REACTORS
330
1FB8
102
}
330
1FB8
100
AcDbXrecord
 10
0.0
 20
0.0
 30
0.0
  0
XRECORD
  5
1FD5
102
{ACAD_REACTORS
330
1FB8
102
}
330
1FB8
100
AcDbXrecord
 10
0.0
 20
0.0
 30
0.0
  0
XRECORD
  5
1FD6
102
{ACAD_REACTORS
330
1FB8
102
}
330
1FB8
100
AcDbXrecord
 10
0.0
 20
0.0
 30
0.0
  0
XRECORD
  5
1FD7
102
{ACAD_REACTORS
330
1FB8
102
}
330
1FB8
100
AcDbXrecord
 10
0.0
 20
0.0
 30
0.0
  0
XRECORD
  5
1FD8
102
{ACAD_REACTORS
330
1FB8
102
}
330
1FB8
100
AcDbXrecord
 10
0.0
 20
0.0
 30
0.0
  0
ENDSEC
  0
EOF
