  0
SECTION
  2
HEADER
  9
$ACADVER
  1
AC1014
  9
$ACADMAINTVER
 70
     9
  9
$DWGCODEPAGE
  3
ANSI_932
  9
$INSBASE
 10
0.0
 20
0.0
 30
0.0
  9
$EXTMIN
 10
-0.03844315155402
 20
-0.0271848000274986
 30
-0.000000000000013
  9
$EXTMAX
 10
797.6635408581289
 20
551.6445885803111
 30
0.0000000000000023
  9
$LIMMIN
 10
0.0
 20
0.0
  9
$LIMMAX
 10
840.0
 20
594.0
  9
$ORTHOMODE
 70
     0
  9
$REGENMODE
 70
     1
  9
$FILLMODE
 70
     1
  9
$QTEXTMODE
 70
     0
  9
$MIRRTEXT
 70
     1
  9
$DRAGMODE
 70
     2
  9
$LTSCALE
 40
1.0
  9
$OSMODE
 70
    35
  9
$ATTMODE
 70
     1
  9
$TEXTSIZE
 40
5.0
  9
$TRACEWID
 40
1.0
  9
$TEXTSTYLE
  7
ｽﾀｲﾙ1
  9
$CLAYER
  8
SUNPOU
  9
$CELTYPE
  6
BYLAYER
  9
$CECOLOR
 62
   256
  9
$CELTSCALE
 40
1.0
  9
$DELOBJ
 70
     1
  9
$DISPSILH
 70
     0
  9
$DIMSCALE
 40
1.0
  9
$DIMASZ
 40
6.0
  9
$DIMEXO
 40
6.0
  9
$DIMDLI
 40
14.0
  9
$DIMRND
 40
0.0
  9
$DIMDLE
 40
0.0
  9
$DIMEXE
 40
3.0
  9
$DIMTP
 40
0.0
  9
$DIMTM
 40
0.0
  9
$DIMTXT
 40
6.0
  9
$DIMCEN
 40
10.0
  9
$DIMTSZ
 40
0.0
  9
$DIMTOL
 70
     0
  9
$DIMLIM
 70
     0
  9
$DIMTIH
 70
     0
  9
$DIMTOH
 70
     0
  9
$DIMSE1
 70
     0
  9
$DIMSE2
 70
     0
  9
$DIMTAD
 70
     3
  9
$DIMZIN
 70
     0
  9
$DIMBLK
  1

  9
$DIMASO
 70
     1
  9
$DIMSHO
 70
     1
  9
$DIMPOST
  1

  9
$DIMAPOST
  1

  9
$DIMALT
 70
     0
  9
$DIMALTD
 70
     2
  9
$DIMALTF
 40
25.4
  9
$DIMLFAC
 40
1.0
  9
$DIMTOFL
 70
     1
  9
$DIMTVP
 40
0.0
  9
$DIMTIX
 70
     0
  9
$DIMSOXD
 70
     0
  9
$DIMSAH
 70
     1
  9
$DIMBLK1
  1
OPEN
  9
$DIMBLK2
  1
OPEN
  9
$DIMSTYLE
  2
STANDARD
  9
$DIMCLRD
 70
   256
  9
$DIMCLRE
 70
   256
  9
$DIMCLRT
 70
   256
  9
$DIMTFAC
 40
1.0
  9
$DIMGAP
 40
2.0
  9
$DIMJUST
 70
     0
  9
$DIMSD1
 70
     0
  9
$DIMSD2
 70
     0
  9
$DIMTOLJ
 70
     1
  9
$DIMTZIN
 70
     0
  9
$DIMALTZ
 70
     0
  9
$DIMALTTZ
 70
     0
  9
$DIMFIT
 70
     3
  9
$DIMUPT
 70
     0
  9
$DIMUNIT
 70
     2
  9
$DIMDEC
 70
     0
  9
$DIMTDEC
 70
     0
  9
$DIMALTU
 70
     2
  9
$DIMALTTD
 70
     2
  9
$DIMTXSTY
  7
STANDARD
  9
$DIMAUNIT
 70
     0
  9
$LUNITS
 70
     2
  9
$LUPREC
 70
     4
  9
$SKETCHINC
 40
1.0
  9
$FILLETRAD
 40
2.0
  9
$AUNITS
 70
     0
  9
$AUPREC
 70
     0
  9
$MENU
  1
.
  9
$ELEVATION
 40
0.0
  9
$PELEVATION
 40
0.0
  9
$THICKNESS
 40
0.0
  9
$LIMCHECK
 70
     0
  9
$BLIPMODE
 70
     0
  9
$CHAMFERA
 40
20.0
  9
$CHAMFERB
 40
20.0
  9
$CHAMFERC
 40
40.0
  9
$CHAMFERD
 40
0.0
  9
$SKPOLY
 70
     0
  9
$TDCREATE
 40
2451806.684426273
  9
$TDUPDATE
 40
2453483.428634791
  9
$TDINDWG
 40
0.0299827546
  9
$TDUSRTIMER
 40
0.0299827546
  9
$USRTIMER
 70
     1
  9
$ANGBASE
 50
0.0
  9
$ANGDIR
 70
     0
  9
$PDMODE
 70
     0
  9
$PDSIZE
 40
0.0
  9
$PLINEWID
 40
0.0
  9
$COORDS
 70
     1
  9
$SPLFRAME
 70
     0
  9
$SPLINETYPE
 70
     6
  9
$SPLINESEGS
 70
     8
  9
$ATTDIA
 70
     0
  9
$ATTREQ
 70
     1
  9
$HANDLING
 70
 10241
  9
$HANDSEED
  5
14F8
  9
$SURFTAB1
 70
     6
  9
$SURFTAB2
 70
     6
  9
$SURFTYPE
 70
     6
  9
$SURFU
 70
     6
  9
$SURFV
 70
     6
  9
$UCSNAME
  2

  9
$UCSORG
 10
0.0
 20
0.0
 30
0.0
  9
$UCSXDIR
 10
1.0
 20
0.0
 30
0.0
  9
$UCSYDIR
 10
0.0
 20
1.0
 30
0.0
  9
$PUCSNAME
  2

  9
$PUCSORG
 10
0.0
 20
0.0
 30
0.0
  9
$PUCSXDIR
 10
1.0
 20
0.0
 30
0.0
  9
$PUCSYDIR
 10
0.0
 20
1.0
 30
0.0
  9
$USERI1
 70
     0
  9
$USERI2
 70
     0
  9
$USERI3
 70
     0
  9
$USERI4
 70
     0
  9
$USERI5
 70
     0
  9
$USERR1
 40
0.0
  9
$USERR2
 40
0.0
  9
$USERR3
 40
0.0
  9
$USERR4
 40
0.0
  9
$USERR5
 40
0.0
  9
$WORLDVIEW
 70
     1
  9
$SHADEDGE
 70
     3
  9
$SHADEDIF
 70
    70
  9
$TILEMODE
 70
     1
  9
$MAXACTVP
 70
    16
  9
$PINSBASE
 10
0.0
 20
0.0
 30
0.0
  9
$PLIMCHECK
 70
     0
  9
$PEXTMIN
 10
0.0
 20
0.0
 30
0.0
  9
$PEXTMAX
 10
420.0
 20
297.0
 30
0.0
  9
$PLIMMIN
 10
0.0
 20
0.0
  9
$PLIMMAX
 10
420.0
 20
297.0
  9
$UNITMODE
 70
     0
  9
$VISRETAIN
 70
     0
  9
$PLINEGEN
 70
     0
  9
$PSLTSCALE
 70
     1
  9
$TREEDEPTH
 70
  3020
  9
$PICKSTYLE
 70
     1
  9
$CMLSTYLE
  2
STANDARD
  9
$CMLJUST
 70
     0
  9
$CMLSCALE
 40
1.0
  9
$PROXYGRAPHICS
 70
     1
  9
$MEASUREMENT
 70
     1
  0
ENDSEC
  0
SECTION
  2
CLASSES
  0
CLASS
  1
ACDBDICTIONARYWDFLT
  2
AcDbDictionaryWithDefault
  3
AutoCAD 2000
 90
        0
280
     0
281
     0
  0
CLASS
  1
ACDBPLACEHOLDER
  2
AcDbPlaceHolder
  3
AutoCAD 2000
 90
        0
280
     0
281
     0
  0
CLASS
  1
LAYOUT
  2
AcDbLayout
  3
AutoCAD 2000
 90
        0
280
     0
281
     0
  0
CLASS
  1
LONG_TRANSACTION
  2
AcDbLongTransaction
  3
AutoCAD 2000
 90
        0
280
     0
281
     0
  0
CLASS
  1
LWPOLYLINE
  2
AcDbPolyline
  3
AutoCAD 2000
 90
        0
280
     0
281
     1
  0
CLASS
  1
HATCH
  2
AcDbHatch
  3
AutoCAD 2000
 90
        0
280
     0
281
     1
  0
CLASS
  1
XRECORD
  2
AcDbXrecord
  3
AutoCAD 2000
 90
        0
280
     0
281
     0
  0
CLASS
  1
LONG_TRANSACTION
  2
AcDbLongTransaction
  3
AutoCAD 2000
 90
        0
280
     0
281
     0
  0
CLASS
  1
LWPOLYLINE
  2
AcDbPolyline
  3
AutoCAD 2000
 90
        0
280
     0
281
     1
  0
CLASS
  1
HATCH
  2
AcDbHatch
  3
AutoCAD 2000
 90
        0
280
     0
281
     1
  0
CLASS
  1
XRECORD
  2
AcDbXrecord
  3
AutoCAD 2000
 90
        0
280
     0
281
     0
  0
CLASS
  1
LONG_TRANSACTION
  2
AcDbLongTransaction
  3
AutoCAD 2000
 90
        0
280
     0
281
     0
  0
CLASS
  1
LWPOLYLINE
  2
AcDbPolyline
  3
AutoCAD 2000
 90
        0
280
     0
281
     1
  0
CLASS
  1
HATCH
  2
AcDbHatch
  3
AutoCAD 2000
 90
        0
280
     0
281
     1
  0
CLASS
  1
XRECORD
  2
AcDbXrecord
  3
AutoCAD 2000
 90
        0
280
     0
281
     0
  0
ENDSEC
  0
SECTION
  2
TABLES
  0
TABLE
  2
VPORT
  5
8
330
0
100
AcDbSymbolTable
 70
     2
  0
VPORT
  5
148C
330
8
100
AcDbSymbolTableRecord
100
AcDbViewportTableRecord
  2
*ACTIVE
 70
     0
 10
0.0
 20
0.0
 11
1.0
 21
1.0
 12
418.8834564191792
 22
281.4535353150451
 13
0.0
 23
0.0
 14
5.0
 24
5.0
 15
0.0
 25
0.0
 16
0.0
 26
0.0
 36
1.0
 17
0.0
 27
0.0
 37
0.0
 40
600.5848055068753
 41
1.752310536044362
 42
50.0
 43
0.0
 44
0.0
 50
0.0
 51
0.0
 71
     0
 72
   100
 73
     1
 74
     0
 75
     0
 76
     0
 77
     0
 78
     0
  0
ENDTAB
  0
TABLE
  2
LTYPE
  5
5
330
0
100
AcDbSymbolTable
 70
     3
  0
LTYPE
  5
14
330
5
100
AcDbSymbolTableRecord
100
AcDbLinetypeTableRecord
  2
BYBLOCK
 70
     0
  3

 72
    65
 73
     0
 40
0.0
  0
LTYPE
  5
15
330
5
100
AcDbSymbolTableRecord
100
AcDbLinetypeTableRecord
  2
BYLAYER
 70
     0
  3

 72
    65
 73
     0
 40
0.0
  0
LTYPE
  5
16
330
5
100
AcDbSymbolTableRecord
100
AcDbLinetypeTableRecord
  2
CONTINUOUS
 70
     0
  3
Solid line
 72
    65
 73
     0
 40
0.0
  0
LTYPE
  5
115
330
5
100
AcDbSymbolTableRecord
100
AcDbLinetypeTableRecord
  2
PHANTOM
 70
     0
  3
______  __  __  ______  __  __  ______  __  __ 
 72
    65
 73
     6
 40
2.5
 49
1.25
 74
     0
 49
-0.25
 74
     0
 49
0.25
 74
     0
 49
-0.25
 74
     0
 49
0.25
 74
     0
 49
-0.25
 74
     0
  0
LTYPE
  5
135
330
5
100
AcDbSymbolTableRecord
100
AcDbLinetypeTableRecord
  2
CENTER
 70
     0
  3
____ _ ____ _ ____ _ ____ _ ____ _ ____ _ ____ 
 72
    65
 73
     4
 40
2.0
 49
1.25
 74
     0
 49
-0.25
 74
     0
 49
0.25
 74
     0
 49
-0.25
 74
     0
  0
ENDTAB
  0
TABLE
  2
LAYER
  5
2
330
0
100
AcDbSymbolTable
 70
     9
  0
LAYER
  5
F
330
2
100
AcDbSymbolTableRecord
100
AcDbLayerTableRecord
  2
0
 70
     0
 62
     7
  6
CONTINUOUS
  0
LAYER
  5
62
330
2
100
AcDbSymbolTableRecord
100
AcDbLayerTableRecord
  2
VIEWPORT
 70
     0
 62
     7
  6
CONTINUOUS
  0
LAYER
  5
65
330
2
100
AcDbSymbolTableRecord
100
AcDbLayerTableRecord
  2
ZUWAKU
 70
     0
 62
     7
  6
CONTINUOUS
  0
LAYER
  5
1BD
330
2
100
AcDbSymbolTableRecord
100
AcDbLayerTableRecord
  2
DEFPOINTS
 70
     0
 62
     7
  6
CONTINUOUS
  0
LAYER
  5
1BE
330
2
100
AcDbSymbolTableRecord
100
AcDbLayerTableRecord
  2
NOKITOI
 70
     0
 62
     9
  6
PHANTOM
  0
LAYER
  5
1BF
330
2
100
AcDbSymbolTableRecord
100
AcDbLayerTableRecord
  2
SEIHIN
 70
     0
 62
     3
  6
CONTINUOUS
  0
LAYER
  5
1C0
330
2
100
AcDbSymbolTableRecord
100
AcDbLayerTableRecord
  2
CENTER_L
 70
     0
 62
     1
  6
CENTER
  0
LAYER
  5
1C1
330
2
100
AcDbSymbolTableRecord
100
AcDbLayerTableRecord
  2
SUNPOU
 70
     0
 62
     4
  6
CONTINUOUS
  0
LAYER
  5
DE3
330
2
100
AcDbSymbolTableRecord
100
AcDbLayerTableRecord
  2
MOJI
 70
     0
 62
     2
  6
CONTINUOUS
  0
ENDTAB
  0
TABLE
  2
STYLE
  5
3
330
0
100
AcDbSymbolTable
 70
     2
  0
STYLE
  5
10
330
3
100
AcDbSymbolTableRecord
100
AcDbTextStyleTableRecord
  2
STANDARD
 70
     0
 40
0.0
 41
1.0
 50
0.0
 71
     0
 42
5.0
  3
TXT
  4
c:\PROGRAM FILES\AUTOCAD LT\ms\bigfont.shx
  0
STYLE
  5
DD6
330
3
100
AcDbSymbolTableRecord
100
AcDbTextStyleTableRecord
  2
ｽﾀｲﾙ1
 70
     0
 40
0.0
 41
1.0
 50
0.0
 71
     0
 42
5.0
  3
MS Gothic.ttf
  4

1001
ACAD
1000
MS Gothic
1071
    32817
  0
ENDTAB
  0
TABLE
  2
VIEW
  5
6
330
0
100
AcDbSymbolTable
 70
     0
  0
ENDTAB
  0
TABLE
  2
UCS
  5
7
330
0
100
AcDbSymbolTable
 70
     0
  0
ENDTAB
  0
TABLE
  2
APPID
  5
9
330
0
100
AcDbSymbolTable
 70
     1
  0
APPID
  5
11
330
9
100
AcDbSymbolTableRecord
100
AcDbRegAppTableRecord
  2
ACAD
 70
     0
  0
ENDTAB
  0
TABLE
  2
DIMSTYLE
  5
A
330
0
100
AcDbSymbolTable
 70
     1
  0
DIMSTYLE
105
1D
102
{ACAD_REACTORS
330
1189
330
11AD
330
11AC
330
1188
330
11AB
330
128E
330
128D
330
1187
102
}
330
A
100
AcDbSymbolTableRecord
100
AcDbDimStyleTableRecord
  2
STANDARD
 70
     0
  3

  4

  5

  6

  7

 40
1.0
 41
0.18
 42
0.0625
 43
0.38
 44
0.18
 45
0.0
 46
0.0
 47
0.0
 48
0.0
140
0.18
141
0.09
142
0.0
143
25.4
144
1.0
145
0.0
146
1.0
147
0.09
 71
     0
 72
     0
 73
     1
 74
     1
 75
     0
 76
     0
 77
     0
 78
     0
170
     0
171
     2
172
     0
173
     0
174
     0
175
     0
176
     0
177
     0
178
     0
270
     2
271
     4
272
     4
273
     2
274
     2
340
10
275
     0
280
     0
281
     0
282
     0
283
     1
284
     0
285
     0
286
     0
287
     3
288
     0
  0
ENDTAB
  0
TABLE
  2
BLOCK_RECORD
  5
1
330
0
100
AcDbSymbolTable
 70
     9
  0
BLOCK_RECORD
  5
1A
102
{ACAD_XDICTIONARY
360
CFB
102
}
330
1
100
AcDbSymbolTableRecord
100
AcDbBlockTableRecord
  2
*MODEL_SPACE
  0
BLOCK_RECORD
  5
17
102
{ACAD_XDICTIONARY
360
CF9
102
}
330
1
100
AcDbSymbolTableRecord
100
AcDbBlockTableRecord
  2
*PAPER_SPACE
  0
BLOCK_RECORD
  5
6D
330
1
100
AcDbSymbolTableRecord
100
AcDbBlockTableRecord
  2
_OPEN
  0
BLOCK_RECORD
  5
1309
330
1
100
AcDbSymbolTableRecord
100
AcDbBlockTableRecord
  2
*D1
  0
BLOCK_RECORD
  5
1315
330
1
100
AcDbSymbolTableRecord
100
AcDbBlockTableRecord
  2
*D2
  0
BLOCK_RECORD
  5
1321
330
1
100
AcDbSymbolTableRecord
100
AcDbBlockTableRecord
  2
*D3
  0
BLOCK_RECORD
  5
132D
330
1
100
AcDbSymbolTableRecord
100
AcDbBlockTableRecord
  2
*D4
  0
BLOCK_RECORD
  5
1339
330
1
100
AcDbSymbolTableRecord
100
AcDbBlockTableRecord
  2
*D5
  0
BLOCK_RECORD
  5
1345
330
1
100
AcDbSymbolTableRecord
100
AcDbBlockTableRecord
  2
*D6
  0
BLOCK_RECORD
  5
1351
330
1
100
AcDbSymbolTableRecord
100
AcDbBlockTableRecord
  2
*D7
  0
BLOCK_RECORD
  5
135D
330
1
100
AcDbSymbolTableRecord
100
AcDbBlockTableRecord
  2
*D8
  0
ENDTAB
  0
ENDSEC
  0
SECTION
  2
BLOCKS
  0
BLOCK
  5
1B
330
1A
100
AcDbEntity
  8
0
100
AcDbBlockBegin
  2
*MODEL_SPACE
 70
     0
 10
0.0
 20
0.0
 30
0.0
  3
*MODEL_SPACE
  1

  0
ENDBLK
  5
1C
330
1A
100
AcDbEntity
  8
0
100
AcDbBlockEnd
  0
BLOCK
  5
18
330
17
100
AcDbEntity
 67
     1
  8
0
100
AcDbBlockBegin
  2
*PAPER_SPACE
 70
     0
 10
0.0
 20
0.0
 30
0.0
  3
*PAPER_SPACE
  1

  0
ENDBLK
  5
19
330
17
100
AcDbEntity
 67
     1
  8
0
100
AcDbBlockEnd
  0
BLOCK
  5
6E
330
6D
100
AcDbEntity
  8
0
100
AcDbBlockBegin
  2
_OPEN
 70
     0
 10
0.0
 20
0.0
 30
0.0
  3
_OPEN
  1

  0
LINE
  5
6F
330
6D
100
AcDbEntity
  8
0
  6
BYBLOCK
 62
     0
100
AcDbLine
 10
-1.0
 20
0.1666666666666666
 30
0.0
 11
0.0
 21
0.0
 31
0.0
  0
LINE
  5
70
330
6D
100
AcDbEntity
  8
0
  6
BYBLOCK
 62
     0
100
AcDbLine
 10
0.0
 20
0.0
 30
0.0
 11
-1.0
 21
-0.1666666666666666
 31
0.0
  0
LINE
  5
71
330
6D
100
AcDbEntity
  8
0
  6
BYBLOCK
 62
     0
100
AcDbLine
 10
0.0
 20
0.0
 30
0.0
 11
-1.0
 21
0.0
 31
0.0
  0
ENDBLK
  5
72
330
6D
100
AcDbEntity
  8
0
100
AcDbBlockEnd
  0
BLOCK
  5
1313
330
1309
100
AcDbEntity
  8
0
100
AcDbBlockBegin
  2
*D1
 70
     1
 10
0.0
 20
0.0
 30
0.0
  3
*D1
  1

  0
LINE
  5
14B0
330
1309
100
AcDbEntity
  8
SUNPOU
100
AcDbLine
 10
426.7943769236921
 20
356.210347713131
 30
0.0
 11
356.8446431744578
 21
356.210347713131
 31
0.0
  0
LINE
  5
14B1
330
1309
100
AcDbEntity
  8
SUNPOU
100
AcDbLine
 10
406.9254073383222
 20
312.0103477131309
 30
0.0
 11
356.8446431744578
 21
312.010347713131
 31
0.0
  0
LINE
  5
14B2
330
1309
100
AcDbEntity
  8
SUNPOU
100
AcDbLine
 10
359.8446431744578
 20
350.210347713131
 30
0.0
 11
359.8446431744578
 21
318.010347713131
 31
0.0
  0
INSERT
  5
14B3
330
1309
100
AcDbEntity
  8
SUNPOU
100
AcDbBlockReference
  2
_OPEN
 10
359.8446431744578
 20
356.210347713131
 30
0.0
 41
6.0
 42
6.0
 43
6.0
 50
90.0
  0
INSERT
  5
14B4
330
1309
100
AcDbEntity
  8
SUNPOU
100
AcDbBlockReference
  2
_OPEN
 10
359.8446431744578
 20
312.010347713131
 30
0.0
 41
6.0
 42
6.0
 43
6.0
 50
270.0
  0
MTEXT
  5
14B5
330
1309
100
AcDbEntity
  8
SUNPOU
100
AcDbMText
 10
354.8446431744577
 20
334.110347713131
 30
0.0
 40
6.0
 41
0.0
 71
     5
 72
     1
  1
\A1;※44
 11
0.0000000000000001
 21
1.0
 31
0.0
  0
POINT
  5
14B6
330
1309
100
AcDbEntity
  8
DEFPOINTS
 62
     0
100
AcDbPoint
 10
432.7943769236922
 20
356.210347713131
 30
0.0
  0
POINT
  5
14B7
330
1309
100
AcDbEntity
  8
DEFPOINTS
 62
     0
100
AcDbPoint
 10
412.9254073383221
 20
312.0103477131309
 30
0.0
  0
POINT
  5
14B8
330
1309
100
AcDbEntity
  8
DEFPOINTS
 62
     0
100
AcDbPoint
 10
359.8446431744578
 20
312.010347713131
 30
0.0
  0
ENDBLK
  5
1314
330
1309
100
AcDbEntity
  8
0
100
AcDbBlockEnd
  0
BLOCK
  5
131F
330
1315
100
AcDbEntity
  8
0
100
AcDbBlockBegin
  2
*D2
 70
     1
 10
0.0
 20
0.0
 30
0.0
  3
*D2
  1

  0
LINE
  5
14B9
330
1315
100
AcDbEntity
  8
SUNPOU
100
AcDbLine
 10
406.1529514262947
 20
185.1856031507193
 30
0.0
 11
361.0372261704051
 21
185.1856031507193
 31
0.0
  0
LINE
  5
14BA
330
1315
100
AcDbEntity
  8
SUNPOU
100
AcDbLine
 10
450.2795953158693
 20
73.76568766495165
 30
0.0
 11
361.0372261704051
 21
73.76568766495167
 31
0.0
  0
LINE
  5
14BB
330
1315
100
AcDbEntity
  8
SUNPOU
100
AcDbLine
 10
364.0372261704051
 20
179.1856031507193
 30
0.0
 11
364.0372261704051
 21
79.76568766495167
 31
0.0
  0
INSERT
  5
14BC
330
1315
100
AcDbEntity
  8
SUNPOU
100
AcDbBlockReference
  2
_OPEN
 10
364.0372261704051
 20
185.1856031507193
 30
0.0
 41
6.0
 42
6.0
 43
6.0
 50
90.0
  0
INSERT
  5
14BD
330
1315
100
AcDbEntity
  8
SUNPOU
100
AcDbBlockReference
  2
_OPEN
 10
364.0372261704051
 20
73.76568766495167
 30
0.0
 41
6.0
 42
6.0
 43
6.0
 50
270.0
  0
MTEXT
  5
14BE
330
1315
100
AcDbEntity
  8
SUNPOU
100
AcDbMText
 10
359.0372261704051
 20
129.4756454078355
 30
0.0
 40
6.0
 41
0.0
 71
     5
 72
     1
  1
\A1;111
 11
0.0000000000000001
 21
1.0
 31
0.0
  0
POINT
  5
14BF
330
1315
100
AcDbEntity
  8
DEFPOINTS
 62
     0
100
AcDbPoint
 10
412.1529514262947
 20
185.1856031507193
 30
0.0
  0
POINT
  5
14C0
330
1315
100
AcDbEntity
  8
DEFPOINTS
 62
     0
100
AcDbPoint
 10
456.2795953158692
 20
73.76568766495165
 30
0.0
  0
POINT
  5
14C1
330
1315
100
AcDbEntity
  8
DEFPOINTS
 62
     0
100
AcDbPoint
 10
364.0372261704051
 20
73.76568766495167
 30
0.0
  0
ENDBLK
  5
1320
330
1315
100
AcDbEntity
  8
0
100
AcDbBlockEnd
  0
BLOCK
  5
132B
330
1321
100
AcDbEntity
  8
0
100
AcDbBlockBegin
  2
*D3
 70
     1
 10
0.0
 20
0.0
 30
0.0
  3
*D3
  1

  0
LINE
  5
14C2
330
1321
100
AcDbEntity
  8
SUNPOU
100
AcDbLine
 10
97.79908004997082
 20
176.2160603111193
 30
0.0
 11
97.79908004997082
 21
251.0689630292131
 31
0.0
  0
LINE
  5
14C3
330
1321
100
AcDbEntity
  8
SUNPOU
100
AcDbLine
 10
302.7067772185705
 20
195.0446544431586
 30
0.0
 11
302.7067772185705
 21
251.0689630292131
 31
0.0
  0
LINE
  5
14C4
330
1321
100
AcDbEntity
  8
SUNPOU
100
AcDbLine
 10
103.7990800499708
 20
248.0689630292131
 30
0.0
 11
296.7067772185705
 21
248.0689630292131
 31
0.0
  0
INSERT
  5
14C5
330
1321
100
AcDbEntity
  8
SUNPOU
100
AcDbBlockReference
  2
_OPEN
 10
97.79908004997082
 20
248.0689630292131
 30
0.0
 41
6.0
 42
6.0
 43
6.0
 50
180.0
  0
INSERT
  5
14C6
330
1321
100
AcDbEntity
  8
SUNPOU
100
AcDbBlockReference
  2
_OPEN
 10
302.7067772185705
 20
248.0689630292131
 30
0.0
 41
6.0
 42
6.0
 43
6.0
  0
MTEXT
  5
14C7
330
1321
100
AcDbEntity
  8
SUNPOU
100
AcDbMText
 10
200.2529286342706
 20
253.0689630292131
 30
0.0
 40
6.0
 41
0.0
 71
     5
 72
     1
  1
\A1;205
  0
POINT
  5
14C8
330
1321
100
AcDbEntity
  8
DEFPOINTS
 62
     0
100
AcDbPoint
 10
97.79908004997082
 20
170.2160603111193
 30
0.0
  0
POINT
  5
14C9
330
1321
100
AcDbEntity
  8
DEFPOINTS
 62
     0
100
AcDbPoint
 10
302.7067772185705
 20
189.0446544431586
 30
0.0
  0
POINT
  5
14CA
330
1321
100
AcDbEntity
  8
DEFPOINTS
 62
     0
100
AcDbPoint
 10
302.7067772185705
 20
248.0689630292131
 30
0.0
  0
ENDBLK
  5
132C
330
1321
100
AcDbEntity
  8
0
100
AcDbBlockEnd
  0
BLOCK
  5
1337
330
132D
100
AcDbEntity
  8
0
100
AcDbBlockBegin
  2
*D4
 70
     1
 10
0.0
 20
0.0
 30
0.0
  3
*D4
  1

  0
LINE
  5
14CB
330
132D
100
AcDbEntity
  8
SUNPOU
100
AcDbLine
 10
563.3813651688224
 20
148.2582366925194
 30
0.0
 11
647.7573260984918
 21
148.2582366925193
 31
0.0
  0
LINE
  5
14CC
330
132D
100
AcDbEntity
  8
SUNPOU
100
AcDbLine
 10
515.3881817984224
 20
72.35823634481937
 30
0.0
 11
647.7573260984918
 21
72.35823634481933
 31
0.0
  0
LINE
  5
14CD
330
132D
100
AcDbEntity
  8
SUNPOU
100
AcDbLine
 10
644.7573260984918
 20
142.2582366925193
 30
0.0
 11
644.7573260984918
 21
78.35823634481933
 31
0.0
  0
INSERT
  5
14CE
330
132D
100
AcDbEntity
  8
SUNPOU
100
AcDbBlockReference
  2
_OPEN
 10
644.7573260984918
 20
148.2582366925193
 30
0.0
 41
6.0
 42
6.0
 43
6.0
 50
90.0
  0
INSERT
  5
14CF
330
132D
100
AcDbEntity
  8
SUNPOU
100
AcDbBlockReference
  2
_OPEN
 10
644.7573260984918
 20
72.35823634481933
 30
0.0
 41
6.0
 42
6.0
 43
6.0
 50
270.0
  0
MTEXT
  5
14D0
330
132D
100
AcDbEntity
  8
SUNPOU
100
AcDbMText
 10
639.7573260984918
 20
110.3082365186693
 30
0.0
 40
6.0
 41
0.0
 71
     5
 72
     1
  1
\A1;76
 11
0.0000000000000001
 21
1.0
 31
0.0
  0
POINT
  5
14D1
330
132D
100
AcDbEntity
  8
DEFPOINTS
 62
     0
100
AcDbPoint
 10
557.3813651688224
 20
148.2582366925194
 30
0.0
  0
POINT
  5
14D2
330
132D
100
AcDbEntity
  8
DEFPOINTS
 62
     0
100
AcDbPoint
 10
509.3881817984224
 20
72.35823634481937
 30
0.0
  0
POINT
  5
14D3
330
132D
100
AcDbEntity
  8
DEFPOINTS
 62
     0
100
AcDbPoint
 10
644.7573260984918
 20
72.35823634481933
 30
0.0
  0
ENDBLK
  5
1338
330
132D
100
AcDbEntity
  8
0
100
AcDbBlockEnd
  0
BLOCK
  5
1343
330
1339
100
AcDbEntity
  8
0
100
AcDbBlockBegin
  2
*D5
 70
     1
 10
0.0
 20
0.0
 30
0.0
  3
*D5
  1

  0
LINE
  5
14D4
330
1339
100
AcDbEntity
  8
SUNPOU
100
AcDbLine
 10
411.4333505796203
 20
176.2160603110795
 30
0.0
 11
411.4333505796203
 21
251.0689630292131
 31
0.0
  0
LINE
  5
14D5
330
1339
100
AcDbEntity
  8
SUNPOU
100
AcDbLine
 10
616.3813647733222
 20
194.8918111184193
 30
0.0
 11
616.3813647733222
 21
251.0689630292131
 31
0.0
  0
LINE
  5
14D6
330
1339
100
AcDbEntity
  8
SUNPOU
100
AcDbLine
 10
417.4333505796202
 20
248.0689630292131
 30
0.0
 11
610.3813647733223
 21
248.0689630292131
 31
0.0
  0
INSERT
  5
14D7
330
1339
100
AcDbEntity
  8
SUNPOU
100
AcDbBlockReference
  2
_OPEN
 10
411.4333505796203
 20
248.0689630292131
 30
0.0
 41
6.0
 42
6.0
 43
6.0
 50
180.0
  0
INSERT
  5
14D8
330
1339
100
AcDbEntity
  8
SUNPOU
100
AcDbBlockReference
  2
_OPEN
 10
616.3813647733222
 20
248.0689630292131
 30
0.0
 41
6.0
 42
6.0
 43
6.0
  0
MTEXT
  5
14D9
330
1339
100
AcDbEntity
  8
SUNPOU
100
AcDbMText
 10
513.9073576764713
 20
253.0689630292131
 30
0.0
 40
6.0
 41
0.0
 71
     5
 72
     1
  1
\A1;205
  0
POINT
  5
14DA
330
1339
100
AcDbEntity
  8
DEFPOINTS
 62
     0
100
AcDbPoint
 10
411.4333505796203
 20
170.2160603110795
 30
0.0
  0
POINT
  5
14DB
330
1339
100
AcDbEntity
  8
DEFPOINTS
 62
     0
100
AcDbPoint
 10
616.3813647733222
 20
188.8918111184193
 30
0.0
  0
POINT
  5
14DC
330
1339
100
AcDbEntity
  8
DEFPOINTS
 62
     0
100
AcDbPoint
 10
616.3813647733222
 20
248.0689630292131
 30
0.0
  0
ENDBLK
  5
1344
330
1339
100
AcDbEntity
  8
0
100
AcDbBlockEnd
  0
BLOCK
  5
134F
330
1345
100
AcDbEntity
  8
0
100
AcDbBlockBegin
  2
*D6
 70
     1
 10
0.0
 20
0.0
 30
0.0
  3
*D6
  1

  0
LINE
  5
14DD
330
1345
100
AcDbEntity
  8
SUNPOU
100
AcDbLine
 10
411.4333505796203
 20
176.2160603110795
 30
0.0
 11
411.4333505796203
 21
232.1865860188211
 31
0.0
  0
LINE
  5
14DE
330
1345
100
AcDbEntity
  8
SUNPOU
100
AcDbLine
 10
562.3757256711985
 20
149.0208357199771
 30
0.0
 11
562.3757256711985
 21
232.1865860188211
 31
0.0
  0
LINE
  5
14DF
330
1345
100
AcDbEntity
  8
SUNPOU
100
AcDbLine
 10
417.4333505796202
 20
229.1865860188211
 30
0.0
 11
556.3757256711985
 21
229.1865860188211
 31
0.0
  0
INSERT
  5
14E0
330
1345
100
AcDbEntity
  8
SUNPOU
100
AcDbBlockReference
  2
_OPEN
 10
411.4333505796203
 20
229.1865860188211
 30
0.0
 41
6.0
 42
6.0
 43
6.0
 50
180.0
  0
INSERT
  5
14E1
330
1345
100
AcDbEntity
  8
SUNPOU
100
AcDbBlockReference
  2
_OPEN
 10
562.3757256711985
 20
229.1865860188211
 30
0.0
 41
6.0
 42
6.0
 43
6.0
  0
MTEXT
  5
14E2
330
1345
100
AcDbEntity
  8
SUNPOU
100
AcDbMText
 10
486.9045381254094
 20
234.1865860188211
 30
0.0
 40
6.0
 41
0.0
 71
     5
 72
     1
  1
\A1;151
  0
POINT
  5
14E3
330
1345
100
AcDbEntity
  8
DEFPOINTS
 62
     0
100
AcDbPoint
 10
411.4333505796203
 20
170.2160603110795
 30
0.0
  0
POINT
  5
14E4
330
1345
100
AcDbEntity
  8
DEFPOINTS
 62
     0
100
AcDbPoint
 10
562.3757256711985
 20
143.0208357199771
 30
0.0
  0
POINT
  5
14E5
330
1345
100
AcDbEntity
  8
DEFPOINTS
 62
     0
100
AcDbPoint
 10
562.3757256711985
 20
229.1865860188211
 30
0.0
  0
ENDBLK
  5
1350
330
1345
100
AcDbEntity
  8
0
100
AcDbBlockEnd
  0
BLOCK
  5
135B
330
1351
100
AcDbEntity
  8
0
100
AcDbBlockBegin
  2
*D7
 70
     1
 10
0.0
 20
0.0
 30
0.0
  3
*D7
  1

  0
LINE
  5
14E6
330
1351
100
AcDbEntity
  8
SUNPOU
100
AcDbLine
 10
622.3813647733223
 20
516.9771581301309
 30
0.0
 11
678.9535696524599
 21
516.9771581301309
 31
0.0
  0
LINE
  5
14E7
330
1351
100
AcDbEntity
  8
SUNPOU
100
AcDbLine
 10
622.3813647733223
 20
366.0103477131309
 30
0.0
 11
678.9535696524599
 21
366.0103477131309
 31
0.0
  0
LINE
  5
14E8
330
1351
100
AcDbEntity
  8
SUNPOU
100
AcDbLine
 10
675.9535696524599
 20
510.9771581301308
 30
0.0
 11
675.9535696524599
 21
372.0103477131309
 31
0.0
  0
INSERT
  5
14E9
330
1351
100
AcDbEntity
  8
SUNPOU
100
AcDbBlockReference
  2
_OPEN
 10
675.9535696524599
 20
516.9771581301309
 30
0.0
 41
6.0
 42
6.0
 43
6.0
 50
90.0
  0
INSERT
  5
14EA
330
1351
100
AcDbEntity
  8
SUNPOU
100
AcDbBlockReference
  2
_OPEN
 10
675.9535696524599
 20
366.0103477131309
 30
0.0
 41
6.0
 42
6.0
 43
6.0
 50
270.0
  0
MTEXT
  5
14EB
330
1351
100
AcDbEntity
  8
SUNPOU
100
AcDbMText
 10
670.9535696524597
 20
441.4937529216309
 30
0.0
 40
6.0
 41
0.0
 71
     5
 72
     1
  1
\A1;151
 11
0.0000000000000001
 21
1.0
 31
0.0
  0
POINT
  5
14EC
330
1351
100
AcDbEntity
  8
DEFPOINTS
 62
     0
100
AcDbPoint
 10
616.3813647733222
 20
516.9771581301309
 30
0.0
  0
POINT
  5
14ED
330
1351
100
AcDbEntity
  8
DEFPOINTS
 62
     0
100
AcDbPoint
 10
616.3813647733222
 20
366.0103477131309
 30
0.0
  0
POINT
  5
14EE
330
1351
100
AcDbEntity
  8
DEFPOINTS
 62
     0
100
AcDbPoint
 10
675.9535696524599
 20
366.0103477131309
 30
0.0
  0
ENDBLK
  5
135C
330
1351
100
AcDbEntity
  8
0
100
AcDbBlockEnd
  0
BLOCK
  5
1367
330
135D
100
AcDbEntity
  8
0
100
AcDbBlockBegin
  2
*D8
 70
     1
 10
0.0
 20
0.0
 30
0.0
  3
*D8
  1

  0
LINE
  5
14EF
330
135D
100
AcDbEntity
  8
SUNPOU
100
AcDbLine
 10
622.3813647733223
 20
516.9771581301309
 30
0.0
 11
698.9450306687567
 21
516.9771581301309
 31
0.0
  0
LINE
  5
14F0
330
135D
100
AcDbEntity
  8
SUNPOU
100
AcDbLine
 10
566.8813647733222
 20
312.0103477131309
 30
0.0
 11
698.9450306687567
 21
312.0103477131308
 31
0.0
  0
LINE
  5
14F1
330
135D
100
AcDbEntity
  8
SUNPOU
100
AcDbLine
 10
695.9450306687568
 20
510.9771581301308
 30
0.0
 11
695.9450306687568
 21
318.0103477131309
 31
0.0
  0
INSERT
  5
14F2
330
135D
100
AcDbEntity
  8
SUNPOU
100
AcDbBlockReference
  2
_OPEN
 10
695.9450306687568
 20
516.9771581301309
 30
0.0
 41
6.0
 42
6.0
 43
6.0
 50
90.0
  0
INSERT
  5
14F3
330
135D
100
AcDbEntity
  8
SUNPOU
100
AcDbBlockReference
  2
_OPEN
 10
695.9450306687568
 20
312.0103477131308
 30
0.0
 41
6.0
 42
6.0
 43
6.0
 50
270.0
  0
MTEXT
  5
14F4
330
135D
100
AcDbEntity
  8
SUNPOU
100
AcDbMText
 10
690.9450306687566
 20
414.4937529216309
 30
0.0
 40
6.0
 41
0.0
 71
     5
 72
     1
  1
\A1;205
 11
0.0000000000000001
 21
1.0
 31
0.0
  0
POINT
  5
14F5
330
135D
100
AcDbEntity
  8
DEFPOINTS
 62
     0
100
AcDbPoint
 10
616.3813647733222
 20
516.9771581301309
 30
0.0
  0
POINT
  5
14F6
330
135D
100
AcDbEntity
  8
DEFPOINTS
 62
     0
100
AcDbPoint
 10
560.8813647733223
 20
312.0103477131309
 30
0.0
  0
POINT
  5
14F7
330
135D
100
AcDbEntity
  8
DEFPOINTS
 62
     0
100
AcDbPoint
 10
695.9450306687568
 20
312.0103477131308
 30
0.0
  0
ENDBLK
  5
1368
330
135D
100
AcDbEntity
  8
0
100
AcDbBlockEnd
  0
ENDSEC
  0
SECTION
  2
ENTITIES
  0
TEXT
  5
99A
330
1A
100
AcDbEntity
  8
SUNPOU
 62
     4
100
AcDbText
 10
680.8299615521068
 20
35.79833519369674
 30
0.0
 40
6.0
  1
※　のきといの差込み寸法を示す
100
AcDbText
  0
LINE
  5
EE6
330
1A
100
AcDbEntity
  8
ZUWAKU
100
AcDbLine
 10
208.646601303624
 20
15.19999986828872
 30
0.0
 11
447.4243639845474
 21
15.19999986828871
 31
0.0
  0
LINE
  5
EE7
330
1A
100
AcDbEntity
  8
ZUWAKU
100
AcDbLine
 10
208.646601303624
 20
15.59999986828871
 30
0.0
 11
447.4243639845474
 21
15.59999986828872
 31
0.0
  0
LINE
  5
EE8
330
1A
100
AcDbEntity
  8
ZUWAKU
100
AcDbLine
 10
208.646601303624
 20
15.39999986828871
 30
0.0
 11
447.4243639845474
 21
15.39999986828871
 31
0.0
  0
LINE
  5
EE9
330
1A
100
AcDbEntity
  8
ZUWAKU
100
AcDbLine
 10
0.0000000135560185
 20
30.79999986828869
 30
0.0
 11
797.4000000135559
 21
30.79999986828869
 31
0.0
  0
LINE
  5
EEA
330
1A
100
AcDbEntity
  8
ZUWAKU
100
AcDbLine
 10
0.0000000135560185
 20
30.59999986828869
 30
0.0
 11
797.4000000135559
 21
30.59999986828869
 31
0.0
  0
LINE
  5
EEB
330
1A
100
AcDbEntity
  8
ZUWAKU
100
AcDbLine
 10
0.0000000135560185
 20
30.39999986828869
 30
0.0
 11
797.4000000135559
 21
30.39999986828869
 31
0.0
  0
LINE
  5
EEC
330
1A
100
AcDbEntity
  8
ZUWAKU
100
AcDbLine
 10
0.0000000135560185
 20
30.19999986828868
 30
0.0
 11
797.4000000135559
 21
30.19999986828868
 31
0.0
  0
LINE
  5
EED
330
1A
100
AcDbEntity
  8
ZUWAKU
100
AcDbLine
 10
0.0000000135560185
 20
29.99999986828868
 30
0.0
 11
797.4000000135559
 21
29.99999986828868
 31
0.0
  0
LWPOLYLINE
  5
EEE
330
1A
100
AcDbEntity
  8
ZUWAKU
100
AcDbPolyline
 90
        4
 70
     1
 43
0.0
 10
0.2000000135559503
 20
551.3999998682887
 10
0.2000000135559503
 20
0.1999998682887281
 10
797.4000000135559
 20
0.1999998682887511
 10
797.4000000135561
 20
551.3999998682887
  0
LWPOLYLINE
  5
EEF
330
1A
100
AcDbEntity
  8
ZUWAKU
100
AcDbPolyline
 90
        4
 70
     1
 43
0.0
 10
0.6000000135559276
 20
550.9999998682888
 10
0.6000000135559276
 20
0.5999998682887054
 10
797.0000000135562
 20
0.5999998682887516
 10
797.000000013556
 20
550.9999998682888
  0
LWPOLYLINE
  5
EF0
330
1A
100
AcDbEntity
  8
ZUWAKU
100
AcDbPolyline
 90
        4
 70
     1
 43
0.0
 10
0.0000000135560185
 20
551.5999998682887
 10
0.0000000135560185
 20
-0.0000001317113174
 10
797.6000000135561
 20
-0.0000001317112499
 10
797.6000000135561
 20
551.5999998682888
  0
LWPOLYLINE
  5
EF1
330
1A
100
AcDbEntity
  8
ZUWAKU
100
AcDbPolyline
 90
        4
 70
     1
 43
0.0
 10
0.4000000135559958
 20
551.1999998682887
 10
0.4000000135559958
 20
0.3999998682887735
 10
797.200000013556
 20
0.3999998682887504
 10
797.200000013556
 20
551.1999998682887
  0
LWPOLYLINE
  5
EF2
330
1A
100
AcDbEntity
  8
ZUWAKU
100
AcDbPolyline
 90
        4
 70
     1
 43
0.0
 10
0.800000013555973
 20
550.7999998682887
 10
0.800000013555973
 20
0.7999998682887508
 10
796.8000000135559
 20
0.7999998682887508
 10
796.8000000135559
 20
550.7999998682887
  0
TEXT
  5
EF3
330
1A
100
AcDbEntity
  8
MOJI
100
AcDbText
 10
92.95778960172516
 20
12.74117799856344
 30
0.0
 40
6.0
  1
アートフェイスＨ１２０
 41
0.9
  7
ｽﾀｲﾙ1
100
AcDbText
  0
HATCH
  5
EF4
330
1A
100
AcDbEntity
  8
ZUWAKU
100
AcDbHatch
 10
0.0
 20
0.0
 30
0.0
210
0.0
220
0.0
230
1.0
  2
ANSI37
 70
     0
 71
     0
 91
        8
 92
        7
 72
     1
 73
     1
 93
       24
 10
14.50226267467587
 20
17.64484834927226
 42
-0.1989123673796348
 10
14.09221216833714
 20
18.63479784293331
 42
0.0
 10
14.09221216833714
 20
19.92499986828869
 42
-0.4142135623730912
 10
14.61721216833711
 20
20.44999986828868
 42
0.0
 10
17.59221216833702
 20
20.44999986828868
 42
0.4142135623731546
 10
18.11721216833712
 20
20.97499986828867
 42
0.0
 10
18.11721216833712
 20
22.72499986828869
 42
0.4142135623731586
 10
17.59221216833702
 20
23.24999986828868
 42
0.0
 10
14.09221216833714
 20
23.24999986828868
 42
0.4142135623730928
 10
11.29221216833718
 20
20.44999986828871
 42
0.0
 10
11.29221216833718
 20
18.63479784293344
 42
0.1989123673796619
 10
12.52236368735361
 20
15.66494936194983
 42
0.0
 10
15.43216166199829
 20
12.75515138730518
 42
-0.1989123673796613
 10
15.84221216833714
 20
11.76520189364399
 42
0.0
 10
15.84221216833714
 20
10.47499986828867
 42
-0.4142135623730911
 10
15.31721216833716
 20
9.949999868288685
 42
0.0
 10
12.34221216833725
 20
9.949999868288685
 42
0.4142135623731526
 10
11.81721216833716
 20
9.424999868288697
 42
0.0
 10
11.81721216833716
 20
7.674999868288676
 42
0.4142135623731526
 10
12.34221216833725
 20
7.149999868288688
 42
0.0
 10
15.84221216833714
 20
7.149999868288688
 42
0.4142135623731044
 10
18.64221216833721
 20
9.949999868288664
 42
0.0
 10
18.64221216833721
 20
11.76520189364393
 42
0.1989123673796604
 10
17.41206064932066
 20
14.73505037462747
 42
0.0
 97
        0
 92
        7
 72
     1
 73
     1
 93
       16
 10
23.54221216833718
 20
19.04999986828869
 42
-0.4142135623730935
 10
24.94221216833716
 20
20.44999986828868
 42
0.0
 10
26.86721216833712
 20
20.44999986828868
 42
0.4142135623731546
 10
27.39221216833721
 20
20.97499986828867
 42
0.0
 10
27.39221216833721
 20
22.72499986828869
 42
0.4142135623730951
 10
26.86721216833723
 20
23.24999986828868
 42
0.0
 10
24.94221216833705
 20
23.24999986828864
 42
0.4142135623730892
 10
20.74221216833711
 20
19.04999986828862
 42
0.0
 10
20.74221216833711
 20
11.34999986828871
 42
0.4142135623730969
 10
24.94221216833716
 20
7.149999868288688
 42
0.0
 10
26.86721216833712
 20
7.149999868288688
 42
0.4142135623731526
 10
27.39221216833721
 20
7.674999868288676
 42
0.0
 10
27.39221216833721
 20
9.424999868288697
 42
0.4142135623730891
 10
26.86721216833723
 20
9.949999868288685
 42
0.0
 10
24.94221216833716
 20
9.949999868288685
 42
-0.4142135623730928
 10
23.54221216833718
 20
11.34999986828867
 42
0.0
 97
        0
 92
        7
 72
     1
 73
     1
 93
        2
 10
24.24221216833712
 20
15.19999986828868
 42
1.0
 10
27.74221216833712
 20
15.19999986828868
 42
1.0
 97
        0
 92
        7
 72
     1
 73
     1
 93
       26
 10
37.31485865051513
 20
19.20504706185211
 42
0.0
 10
38.37649828365295
 20
22.5669059001217
 42
0.5069206636600134
 10
37.87586738445759
 20
23.24999986828868
 42
0.0
 10
36.17697800484836
 20
23.24999986828868
 42
0.3272098845218764
 10
35.676347105653
 20
22.88309383645565
 42
0.0
 10
33.80807723102122
 20
16.96690590012176
 42
-0.3272098845219541
 10
33.30744633182575
 20
16.59999986828868
 42
0.0
 10
33.1672121683373
 20
16.59999986828868
 42
-0.4142135623731526
 10
32.64221216833721
 20
17.12499986828867
 42
0.0
 10
32.64221216833721
 20
22.72499986828869
 42
0.4142135623730951
 10
32.11721216833723
 20
23.24999986828868
 42
0.0
 10
30.36721216833711
 20
23.24999986828868
 42
0.4142135623730871
 10
29.84221216833714
 20
22.7249998682887
 42
0.0
 10
29.84221216833714
 20
7.674999868288676
 42
0.4142135623730891
 10
30.36721216833711
 20
7.149999868288688
 42
0.0
 10
32.11721216833712
 20
7.149999868288688
 42
0.4142135623731526
 10
32.64221216833721
 20
7.674999868288676
 42
0.0
 10
32.64221216833721
 20
13.27499986828869
 42
-0.4142135623731526
 10
33.1672121683373
 20
13.79999986828868
 42
0.0
 10
33.30744633182587
 20
13.79999986828868
 42
-0.3272098845218915
 10
33.80807723102122
 20
13.43309383645561
 42
0.0
 10
35.676347105653
 20
7.516905900121759
 42
0.3272098845218902
 10
36.17697800484836
 20
7.149999868288688
 42
0.0
 10
37.87586738445759
 20
7.149999868288688
 42
0.5069206636600335
 10
38.37649828365295
 20
7.833093836455695
 42
0.0
 10
36.05010690517929
 20
15.19999986828882
 42
0.0
 97
        0
 92
        7
 72
     1
 73
     1
 93
        8
 10
43.49221216833711
 20
22.7249998682887
 42
0.4142135623731546
 10
42.96721216833702
 20
23.24999986828868
 42
0.0
 10
41.21721216833726
 20
23.24999986828868
 42
0.4142135623731507
 10
40.69221216833716
 20
22.7249998682887
 42
0.0
 10
40.69221216833716
 20
7.674999868288676
 42
0.4142135623731526
 10
41.21721216833726
 20
7.149999868288688
 42
0.0
 10
42.96721216833702
 20
7.149999868288688
 42
0.4142135623731526
 10
43.49221216833711
 20
7.674999868288676
 42
0.0
 97
        0
 92
        7
 72
     1
 73
     1
 93
       24
 10
48.3922121683372
 20
19.92499986828869
 42
-0.4142135623731546
 10
48.9172121683373
 20
20.44999986828868
 42
0.0
 10
51.89221216833721
 20
20.44999986828868
 42
0.4142135623730911
 10
52.41721216833719
 20
20.97499986828867
 42
0.0
 10
52.41721216833719
 20
22.72499986828869
 42
0.4142135623730952
 10
51.89221216833721
 20
23.24999986828868
 42
0.0
 10
48.3922121683372
 20
23.24999986828868
 42
0.4142135623731048
 10
45.59221216833714
 20
20.44999986828871
 42
0.0
 10
45.59221216833714
 20
18.63479784293344
 42
0.1989123673796613
 10
46.82236368735368
 20
15.66494936194989
 42
0.0
 10
49.73216166199836
 20
12.75515138730522
 42
-0.1989123673796402
 10
50.14221216833721
 20
11.76520189364415
 42
0.0
 10
50.14221216833721
 20
10.47499986828867
 42
-0.4142135623730911
 10
49.61721216833723
 20
9.949999868288685
 42
0.0
 10
46.64221216833721
 20
9.949999868288685
 42
0.4142135623731526
 10
46.11721216833712
 20
9.424999868288697
 42
0.0
 10
46.11721216833712
 20
7.674999868288676
 42
0.4142135623730891
 10
46.64221216833709
 20
7.149999868288688
 42
0.0
 10
50.14221216833721
 20
7.149999868288688
 42
0.4142135623730925
 10
52.94221216833716
 20
9.949999868288664
 42
0.0
 10
52.94221216833716
 20
11.76520189364393
 42
0.1989123673796675
 10
51.71206064932062
 20
14.73505037462759
 42
0.0
 10
48.80226267467605
 20
17.6448483492721
 42
-0.1989123673796652
 10
48.3922121683372
 20
18.63479784293327
 42
0.0
 97
        0
 92
        7
 72
     1
 73
     1
 93
       16
 10
57.84221216833714
 20
22.72499986828867
 42
0.414213562373103
 10
57.31721216833716
 20
23.24999986828868
 42
0.0
 10
55.56721216833716
 20
23.24999986828868
 42
0.4142135623730871
 10
55.04221216833719
 20
22.7249998682887
 42
0.0
 10
55.04221216833719
 20
9.949999868288664
 42
0.4142135623730926
 10
57.84221216833714
 20
7.149999868288688
 42
0.0
 10
61.34221216833714
 20
7.149999868288688
 42
0.4142135623731044
 10
64.14221216833721
 20
9.949999868288664
 42
0.0
 10
64.14221216833721
 20
22.72499986828869
 42
0.4142135623730951
 10
63.61721216833723
 20
23.24999986828868
 42
0.0
 10
61.86721216833712
 20
23.24999986828868
 42
0.4142135623730871
 10
61.34221216833714
 20
22.7249998682887
 42
0.0
 10
61.34221216833714
 20
10.99999986828866
 42
-0.414213562373088
 10
60.29221216833718
 20
9.949999868288685
 42
0.0
 10
58.89221216833721
 20
9.949999868288685
 42
-0.4142135623731197
 10
57.84221216833714
 20
10.99999986828866
 42
0.0
 97
        0
 92
        7
 72
     1
 73
     1
 93
        8
 10
69.04221216833718
 20
22.7249998682887
 42
0.4142135623730871
 10
68.51721216833721
 20
23.24999986828868
 42
0.0
 10
66.76721216833721
 20
23.24999986828868
 42
0.4142135623731507
 10
66.24221216833712
 20
22.7249998682887
 42
0.0
 10
66.24221216833712
 20
7.674999868288676
 42
0.4142135623730891
 10
66.76721216833709
 20
7.149999868288688
 42
0.0
 10
68.51721216833721
 20
7.149999868288688
 42
0.4142135623730891
 10
69.04221216833718
 20
7.674999868288676
 42
0.0
 97
        0
 75
     0
 76
     1
 52
0.0
 41
0.2
 77
     0
 78
     2
 53
45.0
 43
-900.942304321123
 44
-13.20000013171124
 45
-0.4490128060534576
 46
0.4490128060534577
 79
     0
 53
135.0
 43
-900.942304321123
 44
-13.20000013171124
 45
-0.4490128060534577
 46
-0.4490128060534576
 79
     0
 47
0.057451373970553
 98
        8
 10
16.07985497657932
 20
15.16717351417423
 10
22.40451501999519
 20
18.84406205073969
 10
25.16436789921567
 20
15.5118815143594
 10
30.91405999519315
 20
16.20129751473018
 10
41.83847203251275
 20
16.6609097822718
 10
46.89820090868557
 20
19.41857618469589
 10
56.55768598595637
 20
18.72915778338369
 10
67.82707963317875
 20
19.18877005092531
  0
LINE
  5
EF5
330
1A
100
AcDbEntity
  8
ZUWAKU
100
AcDbLine
 10
24.94221216833716
 20
23.24999986828864
 30
0.0
 11
26.86721216833712
 21
23.24999986828868
 31
0.0
  0
LINE
  5
EF6
330
1A
100
AcDbEntity
  8
ZUWAKU
100
AcDbLine
 10
26.86721216833712
 20
20.44999986828868
 30
0.0
 11
24.94221216833716
 21
20.44999986828868
 31
0.0
  0
LINE
  5
EF7
330
1A
100
AcDbEntity
  8
ZUWAKU
100
AcDbLine
 10
24.94221216833716
 20
9.949999868288685
 30
0.0
 11
26.86721216833712
 21
9.949999868288685
 31
0.0
  0
LINE
  5
EF8
330
1A
100
AcDbEntity
  8
ZUWAKU
100
AcDbLine
 10
26.86721216833712
 20
7.149999868288688
 30
0.0
 11
24.94221216833716
 21
7.149999868288688
 31
0.0
  0
CIRCLE
  5
EF9
330
1A
100
AcDbEntity
  8
ZUWAKU
100
AcDbCircle
 10
25.99221216833711
 20
15.19999986828868
 30
0.0
 40
1.75
  0
ARC
  5
EFA
330
1A
100
AcDbEntity
  8
ZUWAKU
100
AcDbCircle
 10
15.49221216833712
 20
18.63479784293338
 30
0.0
 40
1.399999999999999
100
AcDbArc
 50
180.0000000000016
 51
224.9999999999988
  0
LINE
  5
EFB
330
1A
100
AcDbEntity
  8
ZUWAKU
100
AcDbLine
 10
23.54221216833718
 20
19.04999986828868
 30
0.0
 11
23.54221216833718
 21
11.34999986828869
 31
0.0
  0
LINE
  5
EFC
330
1A
100
AcDbEntity
  8
ZUWAKU
100
AcDbLine
 10
20.74221216833711
 20
11.34999986828869
 30
0.0
 11
20.74221216833711
 21
19.04999986828864
 31
0.0
  0
ARC
  5
EFD
330
1A
100
AcDbEntity
  8
ZUWAKU
100
AcDbCircle
 10
15.49221216833712
 20
18.63479784293338
 30
0.0
 40
4.199999999999999
100
AcDbArc
 50
180.0
 51
225.0
  0
ARC
  5
EFE
330
1A
100
AcDbEntity
  8
ZUWAKU
100
AcDbCircle
 10
15.84221216833714
 20
9.949999868288685
 30
0.0
 40
2.799999999999999
100
AcDbArc
 50
270.0
 51
0.0
  0
ARC
  5
EFF
330
1A
100
AcDbEntity
  8
ZUWAKU
100
AcDbCircle
 10
24.94221216833716
 20
11.34999986828869
 30
0.0
 40
4.199999999999999
100
AcDbArc
 50
180.0
 51
270.0
  0
ARC
  5
F00
330
1A
100
AcDbEntity
  8
ZUWAKU
100
AcDbCircle
 10
14.44221216833716
 20
11.76520189364399
 30
0.0
 40
4.199999999999999
100
AcDbArc
 50
0.0
 51
45.0
  0
LINE
  5
F01
330
1A
100
AcDbEntity
  8
ZUWAKU
100
AcDbLine
 10
17.41206064932066
 20
14.73505037462751
 30
0.0
 11
14.50226267467598
 21
17.64484834927218
 31
0.0
  0
LINE
  5
F02
330
1A
100
AcDbEntity
  8
ZUWAKU
100
AcDbLine
 10
15.84221216833714
 20
10.47499986828869
 30
0.0
 11
15.84221216833714
 21
11.76520189364403
 31
0.0
  0
ARC
  5
F03
330
1A
100
AcDbEntity
  8
ZUWAKU
100
AcDbCircle
 10
15.31721216833716
 20
10.47499986828869
 30
0.0
 40
0.525
100
AcDbArc
 50
270.0
 51
0.0
  0
ARC
  5
F04
330
1A
100
AcDbEntity
  8
ZUWAKU
100
AcDbCircle
 10
14.44221216833716
 20
11.76520189364403
 30
0.0
 40
1.399999999999999
100
AcDbArc
 50
0.0
 51
45.0
  0
LINE
  5
F05
330
1A
100
AcDbEntity
  8
ZUWAKU
100
AcDbLine
 10
11.81721216833716
 20
7.674999868288686
 30
0.0
 11
11.81721216833716
 21
9.424999868288686
 31
0.0
  0
ARC
  5
F06
330
1A
100
AcDbEntity
  8
ZUWAKU
100
AcDbCircle
 10
12.34221216833714
 20
7.674999868288686
 30
0.0
 40
0.525
100
AcDbArc
 50
180.0
 51
270.0
  0
ARC
  5
F07
330
1A
100
AcDbEntity
  8
ZUWAKU
100
AcDbCircle
 10
12.34221216833714
 20
9.424999868288686
 30
0.0
 40
0.525
100
AcDbArc
 50
90.0
 51
180.0
  0
LINE
  5
F08
330
1A
100
AcDbEntity
  8
ZUWAKU
100
AcDbLine
 10
12.34221216833714
 20
7.149999868288688
 30
0.0
 11
15.84221216833714
 21
7.149999868288688
 31
0.0
  0
LINE
  5
F09
330
1A
100
AcDbEntity
  8
ZUWAKU
100
AcDbLine
 10
12.34221216833714
 20
9.949999868288685
 30
0.0
 11
15.31721216833716
 21
9.949999868288685
 31
0.0
  0
LINE
  5
F0A
330
1A
100
AcDbEntity
  8
ZUWAKU
100
AcDbLine
 10
12.52236368735361
 20
15.66494936194986
 30
0.0
 11
15.43216166199829
 21
12.7551513873052
 31
0.0
  0
LINE
  5
F0B
330
1A
100
AcDbEntity
  8
ZUWAKU
100
AcDbLine
 10
18.64221216833721
 20
9.949999868288685
 30
0.0
 11
18.64221216833721
 21
11.76520189364403
 31
0.0
  0
ARC
  5
F0C
330
1A
100
AcDbEntity
  8
ZUWAKU
100
AcDbCircle
 10
24.94221216833716
 20
11.34999986828869
 30
0.0
 40
1.399999999999999
100
AcDbArc
 50
180.0
 51
270.0
  0
ARC
  5
F0D
330
1A
100
AcDbEntity
  8
ZUWAKU
100
AcDbCircle
 10
17.59221216833714
 20
22.72499986828868
 30
0.0
 40
0.525
100
AcDbArc
 50
0.0
 51
90.0
  0
ARC
  5
F0E
330
1A
100
AcDbEntity
  8
ZUWAKU
100
AcDbCircle
 10
17.59221216833714
 20
20.97499986828868
 30
0.0
 40
0.525
100
AcDbArc
 50
270.0
 51
0.0
  0
LINE
  5
F0F
330
1A
100
AcDbEntity
  8
ZUWAKU
100
AcDbLine
 10
14.09221216833714
 20
23.24999986828868
 30
0.0
 11
17.59221216833714
 21
23.24999986828868
 31
0.0
  0
ARC
  5
F10
330
1A
100
AcDbEntity
  8
ZUWAKU
100
AcDbCircle
 10
14.61721216833711
 20
19.92499986828868
 30
0.0
 40
0.525
100
AcDbArc
 50
90.0
 51
180.0
  0
LINE
  5
F11
330
1A
100
AcDbEntity
  8
ZUWAKU
100
AcDbLine
 10
14.09221216833714
 20
19.92499986828868
 30
0.0
 11
14.09221216833714
 21
18.63479784293334
 31
0.0
  0
LINE
  5
F12
330
1A
100
AcDbEntity
  8
ZUWAKU
100
AcDbLine
 10
17.59221216833714
 20
20.44999986828868
 30
0.0
 11
14.61721216833711
 21
20.44999986828868
 31
0.0
  0
LINE
  5
F13
330
1A
100
AcDbEntity
  8
ZUWAKU
100
AcDbLine
 10
11.29221216833718
 20
20.44999986828868
 30
0.0
 11
11.29221216833718
 21
18.63479784293334
 31
0.0
  0
ARC
  5
F14
330
1A
100
AcDbEntity
  8
ZUWAKU
100
AcDbCircle
 10
14.09221216833714
 20
20.44999986828868
 30
0.0
 40
2.799999999999999
100
AcDbArc
 50
90.0
 51
180.0
  0
LINE
  5
F15
330
1A
100
AcDbEntity
  8
ZUWAKU
100
AcDbLine
 10
18.11721216833712
 20
22.72499986828868
 30
0.0
 11
18.11721216833712
 21
20.97499986828868
 31
0.0
  0
ARC
  5
F16
330
1A
100
AcDbEntity
  8
ZUWAKU
100
AcDbCircle
 10
24.94221216833716
 20
19.04999986828868
 30
0.0
 40
1.399999999999999
100
AcDbArc
 50
90.0
 51
180.0
  0
ARC
  5
F17
330
1A
100
AcDbEntity
  8
ZUWAKU
100
AcDbCircle
 10
24.94221216833716
 20
19.04999986828864
 30
0.0
 40
4.199999999999999
100
AcDbArc
 50
90.0
 51
180.0
  0
LINE
  5
F18
330
1A
100
AcDbEntity
  8
ZUWAKU
100
AcDbLine
 10
79.32662956154422
 20
29.99999986828868
 30
0.0
 11
79.32662956154445
 21
0.7999998682887508
 31
0.0
  0
LINE
  5
F19
330
1A
100
AcDbEntity
  8
ZUWAKU
100
AcDbLine
 10
79.52662956154426
 20
29.99999986828868
 30
0.0
 11
79.52662956154449
 21
0.7999998682887508
 31
0.0
  0
LINE
  5
F1A
330
1A
100
AcDbEntity
  8
ZUWAKU
100
AcDbLine
 10
79.12662956154441
 20
29.99999986828868
 30
0.0
 11
79.12662956154441
 21
0.7999998682887508
 31
0.0
  0
LINE
  5
F1B
330
1A
100
AcDbEntity
  8
ZUWAKU
100
AcDbLine
 10
64.14221216833721
 20
9.949999868288685
 30
0.0
 11
64.14221216833721
 21
22.72499986828868
 31
0.0
  0
LINE
  5
F1C
330
1A
100
AcDbEntity
  8
ZUWAKU
100
AcDbLine
 10
61.34221216833714
 20
22.72499986828868
 30
0.0
 11
61.34221216833714
 21
10.99999986828868
 31
0.0
  0
LINE
  5
F1D
330
1A
100
AcDbEntity
  8
ZUWAKU
100
AcDbLine
 10
69.04221216833718
 20
7.674999868288686
 30
0.0
 11
69.04221216833718
 21
22.72499986828868
 31
0.0
  0
LINE
  5
F1E
330
1A
100
AcDbEntity
  8
ZUWAKU
100
AcDbLine
 10
66.24221216833712
 20
22.72499986828868
 30
0.0
 11
66.24221216833712
 21
7.674999868288686
 31
0.0
  0
ARC
  5
F1F
330
1A
100
AcDbEntity
  8
ZUWAKU
100
AcDbCircle
 10
49.79221216833718
 20
18.63479784293338
 30
0.0
 40
1.399999999999999
100
AcDbArc
 50
180.0000000000016
 51
224.9999999999988
  0
ARC
  5
F20
330
1A
100
AcDbEntity
  8
ZUWAKU
100
AcDbCircle
 10
49.79221216833718
 20
18.63479784293338
 30
0.0
 40
4.199999999999999
100
AcDbArc
 50
180.0
 51
225.0
  0
LINE
  5
F21
330
1A
100
AcDbEntity
  8
ZUWAKU
100
AcDbLine
 10
37.31485865051513
 20
19.20504706185211
 30
0.0
 11
36.05010690517929
 21
15.1999998682887
 31
0.0
  0
LINE
  5
F22
330
1A
100
AcDbEntity
  8
ZUWAKU
100
AcDbLine
 10
40.69221216833716
 20
22.72499986828868
 30
0.0
 11
40.69221216833716
 21
7.674999868288686
 31
0.0
  0
LINE
  5
F23
330
1A
100
AcDbEntity
  8
ZUWAKU
100
AcDbLine
 10
43.49221216833711
 20
7.674999868288686
 30
0.0
 11
43.49221216833711
 21
22.72499986828868
 31
0.0
  0
LINE
  5
F24
330
1A
100
AcDbEntity
  8
ZUWAKU
100
AcDbLine
 10
55.04221216833719
 20
22.72499986828868
 30
0.0
 11
55.04221216833719
 21
9.949999868288685
 31
0.0
  0
LINE
  5
F25
330
1A
100
AcDbEntity
  8
ZUWAKU
100
AcDbLine
 10
57.84221216833714
 20
10.99999986828868
 30
0.0
 11
57.84221216833714
 21
22.72499986828868
 31
0.0
  0
LINE
  5
F26
330
1A
100
AcDbEntity
  8
ZUWAKU
100
AcDbLine
 10
32.64221216833721
 20
17.12499986828869
 30
0.0
 11
32.64221216833721
 21
22.72499986828868
 31
0.0
  0
LINE
  5
F27
330
1A
100
AcDbEntity
  8
ZUWAKU
100
AcDbLine
 10
29.84221216833714
 20
22.72499986828868
 30
0.0
 11
29.84221216833714
 21
7.674999868288686
 31
0.0
  0
LINE
  5
F28
330
1A
100
AcDbEntity
  8
ZUWAKU
100
AcDbLine
 10
35.676347105653
 20
22.88309383645565
 30
0.0
 11
33.80807723102122
 21
16.96690590012171
 31
0.0
  0
LINE
  5
F29
330
1A
100
AcDbEntity
  8
ZUWAKU
100
AcDbLine
 10
60.29221216833718
 20
9.949999868288685
 30
0.0
 11
58.89221216833721
 21
9.949999868288685
 31
0.0
  0
LINE
  5
F2A
330
1A
100
AcDbEntity
  8
ZUWAKU
100
AcDbLine
 10
57.84221216833714
 20
7.149999868288688
 30
0.0
 11
61.34221216833714
 21
7.149999868288688
 31
0.0
  0
LINE
  5
F2B
330
1A
100
AcDbEntity
  8
ZUWAKU
100
AcDbLine
 10
41.21721216833714
 20
7.149999868288688
 30
0.0
 11
42.96721216833714
 21
7.149999868288688
 31
0.0
  0
LINE
  5
F2C
330
1A
100
AcDbEntity
  8
ZUWAKU
100
AcDbLine
 10
35.676347105653
 20
7.516905900121713
 30
0.0
 11
33.80807723102122
 21
13.43309383645565
 31
0.0
  0
ARC
  5
F2D
330
1A
100
AcDbEntity
  8
ZUWAKU
100
AcDbCircle
 10
33.30744633182587
 20
17.12499986828869
 30
0.0
 40
0.525
100
AcDbArc
 50
270.0
 51
342.4744316262769
  0
LINE
  5
F2E
330
1A
100
AcDbEntity
  8
ZUWAKU
100
AcDbLine
 10
33.30744633182587
 20
16.59999986828868
 30
0.0
 11
33.16721216833718
 21
16.59999986828868
 31
0.0
  0
LINE
  5
F2F
330
1A
100
AcDbEntity
  8
ZUWAKU
100
AcDbLine
 10
33.16721216833718
 20
13.79999986828868
 30
0.0
 11
33.30744633182587
 21
13.79999986828868
 31
0.0
  0
ARC
  5
F30
330
1A
100
AcDbEntity
  8
ZUWAKU
100
AcDbCircle
 10
33.16721216833718
 20
17.12499986828869
 30
0.0
 40
0.525
100
AcDbArc
 50
180.0
 51
270.0
  0
LINE
  5
F31
330
1A
100
AcDbEntity
  8
ZUWAKU
100
AcDbLine
 10
30.36721216833711
 20
7.149999868288688
 30
0.0
 11
32.11721216833712
 21
7.149999868288688
 31
0.0
  0
ARC
  5
F32
330
1A
100
AcDbEntity
  8
ZUWAKU
100
AcDbCircle
 10
32.11721216833712
 20
7.674999868288686
 30
0.0
 40
0.525
100
AcDbArc
 50
270.0
 51
0.0
  0
LINE
  5
F33
330
1A
100
AcDbEntity
  8
ZUWAKU
100
AcDbLine
 10
32.64221216833721
 20
7.674999868288686
 30
0.0
 11
32.64221216833721
 21
13.27499986828868
 31
0.0
  0
LINE
  5
F34
330
1A
100
AcDbEntity
  8
ZUWAKU
100
AcDbLine
 10
27.39221216833721
 20
9.424999868288686
 30
0.0
 11
27.39221216833721
 21
7.674999868288686
 31
0.0
  0
ARC
  5
F35
330
1A
100
AcDbEntity
  8
ZUWAKU
100
AcDbCircle
 10
26.86721216833712
 20
7.674999868288686
 30
0.0
 40
0.525
100
AcDbArc
 50
270.0
 51
0.0
  0
ARC
  5
F36
330
1A
100
AcDbEntity
  8
ZUWAKU
100
AcDbCircle
 10
26.86721216833712
 20
9.424999868288686
 30
0.0
 40
0.525
100
AcDbArc
 50
0.0
 51
90.0
  0
ARC
  5
F37
330
1A
100
AcDbEntity
  8
ZUWAKU
100
AcDbCircle
 10
30.36721216833711
 20
7.674999868288686
 30
0.0
 40
0.525
100
AcDbArc
 50
180.0
 51
270.0
  0
ARC
  5
F38
330
1A
100
AcDbEntity
  8
ZUWAKU
100
AcDbCircle
 10
33.30744633182587
 20
13.27499986828868
 30
0.0
 40
0.525
100
AcDbArc
 50
17.52556837372303
 51
90.0
  0
ARC
  5
F39
330
1A
100
AcDbEntity
  8
ZUWAKU
100
AcDbCircle
 10
33.16721216833718
 20
13.27499986828868
 30
0.0
 40
0.525
100
AcDbArc
 50
90.0
 51
180.0
  0
ARC
  5
F3A
330
1A
100
AcDbEntity
  8
ZUWAKU
100
AcDbCircle
 10
41.21721216833714
 20
7.674999868288686
 30
0.0
 40
0.525
100
AcDbArc
 50
180.0
 51
270.0
  0
LINE
  5
F3B
330
1A
100
AcDbEntity
  8
ZUWAKU
100
AcDbLine
 10
36.17697800484847
 20
7.149999868288688
 30
0.0
 11
37.87586738445748
 21
7.149999868288688
 31
0.0
  0
ARC
  5
F3C
330
1A
100
AcDbEntity
  8
ZUWAKU
100
AcDbCircle
 10
37.87586738445748
 20
7.674999868288686
 30
0.0
 40
0.525
100
AcDbArc
 50
270.0
 51
17.52556837372303
  0
LINE
  5
F3D
330
1A
100
AcDbEntity
  8
ZUWAKU
100
AcDbLine
 10
38.37649828365295
 20
7.83309383645566
 30
0.0
 11
36.05010690517929
 21
15.1999998682887
 31
0.0
  0
ARC
  5
F3E
330
1A
100
AcDbEntity
  8
ZUWAKU
100
AcDbCircle
 10
36.17697800484847
 20
7.674999868288686
 30
0.0
 40
0.525
100
AcDbArc
 50
197.525568373723
 51
270.0
  0
ARC
  5
F3F
330
1A
100
AcDbEntity
  8
ZUWAKU
100
AcDbCircle
 10
57.84221216833714
 20
9.949999868288685
 30
0.0
 40
2.799999999999999
100
AcDbArc
 50
180.0
 51
270.0
  0
ARC
  5
F40
330
1A
100
AcDbEntity
  8
ZUWAKU
100
AcDbCircle
 10
50.14221216833721
 20
9.949999868288685
 30
0.0
 40
2.799999999999999
100
AcDbArc
 50
270.0
 51
0.0
  0
LINE
  5
F41
330
1A
100
AcDbEntity
  8
ZUWAKU
100
AcDbLine
 10
51.71206064932073
 20
14.73505037462751
 30
0.0
 11
48.80226267467595
 21
17.64484834927218
 31
0.0
  0
LINE
  5
F42
330
1A
100
AcDbEntity
  8
ZUWAKU
100
AcDbLine
 10
50.14221216833721
 20
10.47499986828869
 30
0.0
 11
50.14221216833721
 21
11.76520189364403
 31
0.0
  0
ARC
  5
F43
330
1A
100
AcDbEntity
  8
ZUWAKU
100
AcDbCircle
 10
48.74221216833712
 20
11.76520189364403
 30
0.0
 40
1.399999999999999
100
AcDbArc
 50
0.0
 51
45.0
  0
ARC
  5
F44
330
1A
100
AcDbEntity
  8
ZUWAKU
100
AcDbCircle
 10
49.61721216833712
 20
10.47499986828869
 30
0.0
 40
0.525
100
AcDbArc
 50
270.0
 51
0.0
  0
LINE
  5
F45
330
1A
100
AcDbEntity
  8
ZUWAKU
100
AcDbLine
 10
46.11721216833712
 20
7.674999868288686
 30
0.0
 11
46.11721216833712
 21
9.424999868288686
 31
0.0
  0
ARC
  5
F46
330
1A
100
AcDbEntity
  8
ZUWAKU
100
AcDbCircle
 10
46.64221216833721
 20
7.674999868288686
 30
0.0
 40
0.525
100
AcDbArc
 50
180.0
 51
270.0
  0
ARC
  5
F47
330
1A
100
AcDbEntity
  8
ZUWAKU
100
AcDbCircle
 10
42.96721216833714
 20
7.674999868288686
 30
0.0
 40
0.525
100
AcDbArc
 50
270.0
 51
0.0
  0
ARC
  5
F48
330
1A
100
AcDbEntity
  8
ZUWAKU
100
AcDbCircle
 10
46.64221216833721
 20
9.424999868288686
 30
0.0
 40
0.525
100
AcDbArc
 50
90.0
 51
180.0
  0
LINE
  5
F49
330
1A
100
AcDbEntity
  8
ZUWAKU
100
AcDbLine
 10
46.64221216833721
 20
9.949999868288685
 30
0.0
 11
49.61721216833712
 21
9.949999868288685
 31
0.0
  0
LINE
  5
F4A
330
1A
100
AcDbEntity
  8
ZUWAKU
100
AcDbLine
 10
46.64221216833721
 20
7.149999868288688
 30
0.0
 11
50.14221216833721
 21
7.149999868288688
 31
0.0
  0
LINE
  5
F4B
330
1A
100
AcDbEntity
  8
ZUWAKU
100
AcDbLine
 10
46.82236368735368
 20
15.66494936194986
 30
0.0
 11
49.73216166199836
 21
12.7551513873052
 31
0.0
  0
LINE
  5
F4C
330
1A
100
AcDbEntity
  8
ZUWAKU
100
AcDbLine
 10
52.94221216833716
 20
9.949999868288685
 30
0.0
 11
52.94221216833716
 21
11.76520189364403
 31
0.0
  0
ARC
  5
F4D
330
1A
100
AcDbEntity
  8
ZUWAKU
100
AcDbCircle
 10
48.74221216833712
 20
11.76520189364399
 30
0.0
 40
4.199999999999999
100
AcDbArc
 50
0.0
 51
45.0
  0
ARC
  5
F4E
330
1A
100
AcDbEntity
  8
ZUWAKU
100
AcDbCircle
 10
58.89221216833721
 20
10.99999986828868
 30
0.0
 40
1.049999999999999
100
AcDbArc
 50
180.0
 51
270.0
  0
ARC
  5
F4F
330
1A
100
AcDbEntity
  8
ZUWAKU
100
AcDbCircle
 10
61.34221216833714
 20
9.949999868288685
 30
0.0
 40
2.799999999999999
100
AcDbArc
 50
270.0
 51
0.0
  0
LINE
  5
F50
330
1A
100
AcDbEntity
  8
ZUWAKU
100
AcDbLine
 10
66.76721216833721
 20
7.149999868288688
 30
0.0
 11
68.51721216833721
 21
7.149999868288688
 31
0.0
  0
ARC
  5
F51
330
1A
100
AcDbEntity
  8
ZUWAKU
100
AcDbCircle
 10
66.76721216833721
 20
7.674999868288686
 30
0.0
 40
0.525
100
AcDbArc
 50
180.0
 51
270.0
  0
ARC
  5
F52
330
1A
100
AcDbEntity
  8
ZUWAKU
100
AcDbCircle
 10
60.29221216833718
 20
10.99999986828868
 30
0.0
 40
1.049999999999999
100
AcDbArc
 50
270.0
 51
0.0
  0
ARC
  5
F53
330
1A
100
AcDbEntity
  8
ZUWAKU
100
AcDbCircle
 10
68.51721216833721
 20
7.674999868288686
 30
0.0
 40
0.525
100
AcDbArc
 50
270.0
 51
0.0
  0
LINE
  5
F54
330
1A
100
AcDbEntity
  8
ZUWAKU
100
AcDbLine
 10
42.96721216833714
 20
23.24999986828868
 30
0.0
 11
41.21721216833714
 21
23.24999986828868
 31
0.0
  0
ARC
  5
F55
330
1A
100
AcDbEntity
  8
ZUWAKU
100
AcDbCircle
 10
32.11721216833712
 20
22.72499986828868
 30
0.0
 40
0.525
100
AcDbArc
 50
0.0
 51
90.0
  0
LINE
  5
F56
330
1A
100
AcDbEntity
  8
ZUWAKU
100
AcDbLine
 10
32.11721216833712
 20
23.24999986828868
 30
0.0
 11
30.36721216833711
 21
23.24999986828868
 31
0.0
  0
ARC
  5
F57
330
1A
100
AcDbEntity
  8
ZUWAKU
100
AcDbCircle
 10
26.86721216833712
 20
22.72499986828868
 30
0.0
 40
0.525
100
AcDbArc
 50
0.0
 51
90.0
  0
ARC
  5
F58
330
1A
100
AcDbEntity
  8
ZUWAKU
100
AcDbCircle
 10
30.36721216833711
 20
22.72499986828868
 30
0.0
 40
0.525
100
AcDbArc
 50
90.0
 51
180.0
  0
ARC
  5
F59
330
1A
100
AcDbEntity
  8
ZUWAKU
100
AcDbCircle
 10
26.86721216833712
 20
20.97499986828868
 30
0.0
 40
0.525
100
AcDbArc
 50
270.0
 51
0.0
  0
LINE
  5
F5A
330
1A
100
AcDbEntity
  8
ZUWAKU
100
AcDbLine
 10
27.39221216833721
 20
22.72499986828868
 30
0.0
 11
27.39221216833721
 21
20.97499986828868
 31
0.0
  0
ARC
  5
F5B
330
1A
100
AcDbEntity
  8
ZUWAKU
100
AcDbCircle
 10
41.21721216833714
 20
22.72499986828868
 30
0.0
 40
0.525
100
AcDbArc
 50
90.0
 51
180.0
  0
LINE
  5
F5C
330
1A
100
AcDbEntity
  8
ZUWAKU
100
AcDbLine
 10
36.17697800484847
 20
23.24999986828868
 30
0.0
 11
37.87586738445748
 21
23.24999986828868
 31
0.0
  0
ARC
  5
F5D
330
1A
100
AcDbEntity
  8
ZUWAKU
100
AcDbCircle
 10
37.87586738445748
 20
22.72499986828868
 30
0.0
 40
0.525
100
AcDbArc
 50
342.4744316262769
 51
90.0
  0
LINE
  5
F5E
330
1A
100
AcDbEntity
  8
ZUWAKU
100
AcDbLine
 10
38.37649828365295
 20
22.56690590012171
 30
0.0
 11
37.31485865051513
 21
19.20504706185211
 31
0.0
  0
ARC
  5
F5F
330
1A
100
AcDbEntity
  8
ZUWAKU
100
AcDbCircle
 10
36.17697800484847
 20
22.72499986828868
 30
0.0
 40
0.525
100
AcDbArc
 50
90.0
 51
162.4744316262769
  0
LINE
  5
F60
330
1A
100
AcDbEntity
  8
ZUWAKU
100
AcDbLine
 10
48.3922121683372
 20
23.24999986828868
 30
0.0
 11
51.89221216833721
 21
23.24999986828868
 31
0.0
  0
LINE
  5
F61
330
1A
100
AcDbEntity
  8
ZUWAKU
100
AcDbLine
 10
51.89221216833721
 20
20.44999986828868
 30
0.0
 11
48.91721216833719
 21
20.44999986828868
 31
0.0
  0
ARC
  5
F62
330
1A
100
AcDbEntity
  8
ZUWAKU
100
AcDbCircle
 10
48.91721216833719
 20
19.92499986828868
 30
0.0
 40
0.525
100
AcDbArc
 50
90.0
 51
180.0
  0
LINE
  5
F63
330
1A
100
AcDbEntity
  8
ZUWAKU
100
AcDbLine
 10
48.3922121683372
 20
19.92499986828868
 30
0.0
 11
48.3922121683372
 21
18.63479784293334
 31
0.0
  0
ARC
  5
F64
330
1A
100
AcDbEntity
  8
ZUWAKU
100
AcDbCircle
 10
42.96721216833714
 20
22.72499986828868
 30
0.0
 40
0.525
100
AcDbArc
 50
0.0
 51
90.0
  0
LINE
  5
F65
330
1A
100
AcDbEntity
  8
ZUWAKU
100
AcDbLine
 10
45.59221216833714
 20
20.44999986828868
 30
0.0
 11
45.59221216833714
 21
18.63479784293334
 31
0.0
  0
ARC
  5
F66
330
1A
100
AcDbEntity
  8
ZUWAKU
100
AcDbCircle
 10
48.3922121683372
 20
20.44999986828868
 30
0.0
 40
2.799999999999999
100
AcDbArc
 50
90.0
 51
180.0
  0
ARC
  5
F67
330
1A
100
AcDbEntity
  8
ZUWAKU
100
AcDbCircle
 10
57.31721216833716
 20
22.72499986828868
 30
0.0
 40
0.525
100
AcDbArc
 50
0.0
 51
90.0
  0
ARC
  5
F68
330
1A
100
AcDbEntity
  8
ZUWAKU
100
AcDbCircle
 10
55.56721216833716
 20
22.72499986828868
 30
0.0
 40
0.525
100
AcDbArc
 50
90.0
 51
180.0
  0
LINE
  5
F69
330
1A
100
AcDbEntity
  8
ZUWAKU
100
AcDbLine
 10
57.31721216833716
 20
23.24999986828868
 30
0.0
 11
55.56721216833716
 21
23.24999986828868
 31
0.0
  0
ARC
  5
F6A
330
1A
100
AcDbEntity
  8
ZUWAKU
100
AcDbCircle
 10
51.89221216833721
 20
22.72499986828868
 30
0.0
 40
0.525
100
AcDbArc
 50
0.0
 51
90.0
  0
ARC
  5
F6B
330
1A
100
AcDbEntity
  8
ZUWAKU
100
AcDbCircle
 10
51.89221216833721
 20
20.97499986828868
 30
0.0
 40
0.525
100
AcDbArc
 50
270.0
 51
0.0
  0
LINE
  5
F6C
330
1A
100
AcDbEntity
  8
ZUWAKU
100
AcDbLine
 10
52.41721216833719
 20
22.72499986828868
 30
0.0
 11
52.41721216833719
 21
20.97499986828868
 31
0.0
  0
LINE
  5
F6D
330
1A
100
AcDbEntity
  8
ZUWAKU
100
AcDbLine
 10
68.51721216833721
 20
23.24999986828868
 30
0.0
 11
66.76721216833721
 21
23.24999986828868
 31
0.0
  0
ARC
  5
F6E
330
1A
100
AcDbEntity
  8
ZUWAKU
100
AcDbCircle
 10
66.76721216833721
 20
22.72499986828868
 30
0.0
 40
0.525
100
AcDbArc
 50
90.0
 51
180.0
  0
ARC
  5
F6F
330
1A
100
AcDbEntity
  8
ZUWAKU
100
AcDbCircle
 10
63.61721216833712
 20
22.72499986828868
 30
0.0
 40
0.525
100
AcDbArc
 50
0.0
 51
90.0
  0
LINE
  5
F70
330
1A
100
AcDbEntity
  8
ZUWAKU
100
AcDbLine
 10
63.61721216833712
 20
23.24999986828868
 30
0.0
 11
61.86721216833712
 21
23.24999986828868
 31
0.0
  0
ARC
  5
F71
330
1A
100
AcDbEntity
  8
ZUWAKU
100
AcDbCircle
 10
61.86721216833712
 20
22.72499986828868
 30
0.0
 40
0.525
100
AcDbArc
 50
90.0
 51
180.0
  0
ARC
  5
F72
330
1A
100
AcDbEntity
  8
ZUWAKU
100
AcDbCircle
 10
68.51721216833721
 20
22.72499986828868
 30
0.0
 40
0.525
100
AcDbArc
 50
0.0
 51
90.0
  0
TEXT
  5
F73
330
1A
100
AcDbEntity
  8
MOJI
100
AcDbText
 10
239.827202694407
 20
18.00492092569607
 30
0.0
 40
5.599999999999999
  1
曲りⅢ（出）
 41
0.9
  7
ｽﾀｲﾙ1
100
AcDbText
  0
TEXT
  5
F74
330
1A
100
AcDbEntity
  8
MOJI
100
AcDbText
 10
239.827202694407
 20
3.204920925696104
 30
0.0
 40
5.599999999999999
  1
Ｈ１２０
 41
0.9
  7
ｽﾀｲﾙ1
100
AcDbText
  0
LINE
  5
F75
330
1A
100
AcDbEntity
  8
ZUWAKU
100
AcDbLine
 10
208.2466013036239
 20
29.99999986828868
 30
0.0
 11
208.2466013036239
 21
0.7999998682887508
 31
0.0
  0
LINE
  5
F76
330
1A
100
AcDbEntity
  8
ZUWAKU
100
AcDbLine
 10
208.6466013036238
 20
29.99999986828868
 30
0.0
 11
208.646601303624
 21
0.7999998682887508
 31
0.0
  0
LINE
  5
F77
330
1A
100
AcDbEntity
  8
ZUWAKU
100
AcDbLine
 10
208.4466013036237
 20
29.99999986828868
 30
0.0
 11
208.446601303624
 21
0.7999998682887508
 31
0.0
  0
TEXT
  5
F78
330
1A
100
AcDbEntity
  8
ZUWAKU
100
AcDbText
 10
209.7240463258335
 20
9.6553564066743
 30
0.0
 40
4.0
  1
サイズ
 41
0.9
  7
ｽﾀｲﾙ1
100
AcDbText
  0
TEXT
  5
F79
330
1A
100
AcDbEntity
  8
ZUWAKU
100
AcDbText
 10
209.7240463258333
 20
24.05535640667426
 30
0.0
 40
4.0
  1
品名
 41
0.9
  7
ｽﾀｲﾙ1
100
AcDbText
  0
LINE
  5
F7A
330
1A
100
AcDbEntity
  8
ZUWAKU
100
AcDbLine
 10
648.8172025237602
 20
15.19999986828871
 30
0.0
 11
697.2490105620972
 21
15.19999986828871
 31
0.0
  0
LINE
  5
F7B
330
1A
100
AcDbEntity
  8
ZUWAKU
100
AcDbLine
 10
648.8172025237604
 20
15.39999986828872
 30
0.0
 11
697.2490105620972
 21
15.39999986828871
 31
0.0
  0
LINE
  5
F7C
330
1A
100
AcDbEntity
  8
ZUWAKU
100
AcDbLine
 10
648.8172025237602
 20
15.59999986828871
 30
0.0
 11
697.2490105620972
 21
15.59999986828871
 31
0.0
  0
TEXT
  5
F7D
330
1A
100
AcDbEntity
  8
ZUWAKU
100
AcDbText
 10
656.0374517031416
 20
18.66376316516152
 30
0.0
 40
5.599999999999999
  1
　　．  ．　　
 41
0.9
  7
ｽﾀｲﾙ1
100
AcDbText
  0
LINE
  5
F7E
330
1A
100
AcDbEntity
  8
ZUWAKU
100
AcDbLine
 10
505.1991795116968
 20
15.19999986828872
 30
0.0
 11
552.5269557796685
 21
15.19999986828872
 31
0.0
  0
LINE
  5
F7F
330
1A
100
AcDbEntity
  8
ZUWAKU
100
AcDbLine
 10
505.1991795116968
 20
15.39999986828871
 30
0.0
 11
552.5269557796685
 21
15.39999986828871
 31
0.0
  0
LINE
  5
F80
330
1A
100
AcDbEntity
  8
ZUWAKU
100
AcDbLine
 10
505.1991795116968
 20
15.59999986828871
 30
0.0
 11
552.5269557796685
 21
15.59999986828871
 31
0.0
  0
TEXT
  5
F81
330
1A
100
AcDbEntity
  8
MOJI
100
AcDbText
 10
463.246432004558
 20
11.94261758994866
 30
0.0
 40
5.599999999999999
  1
ＰＥ３４□
 41
0.9
  7
ｽﾀｲﾙ1
100
AcDbText
  0
LINE
  5
F82
330
1A
100
AcDbEntity
  8
ZUWAKU
100
AcDbLine
 10
447.6243639845472
 20
29.99999986828868
 30
0.0
 11
447.6243639845474
 21
0.7999998682887508
 31
0.0
  0
LINE
  5
F83
330
1A
100
AcDbEntity
  8
ZUWAKU
100
AcDbLine
 10
447.8243639845472
 20
29.99999986828868
 30
0.0
 11
447.8243639845475
 21
0.7999998682887508
 31
0.0
  0
LINE
  5
F84
330
1A
100
AcDbEntity
  8
ZUWAKU
100
AcDbLine
 10
447.4243639845474
 20
29.99999986828868
 30
0.0
 11
447.4243639845474
 21
0.7999998682887508
 31
0.0
  0
TEXT
  5
F85
330
1A
100
AcDbEntity
  8
MOJI
100
AcDbText
 10
528.0409079858689
 20
18.00492092569607
 30
0.0
 40
5.599999999999999
  1
Ａ３
 41
0.9
  7
ｽﾀｲﾙ1
100
AcDbText
  0
LINE
  5
F86
330
1A
100
AcDbEntity
  8
ZUWAKU
100
AcDbLine
 10
504.9991795116969
 20
29.99999986828868
 30
0.0
 11
504.999179511697
 21
0.7999998682887508
 31
0.0
  0
LINE
  5
F87
330
1A
100
AcDbEntity
  8
ZUWAKU
100
AcDbLine
 10
505.1991795116968
 20
29.99999986828868
 30
0.0
 11
505.1991795116971
 21
0.7999998682887508
 31
0.0
  0
LINE
  5
F88
330
1A
100
AcDbEntity
  8
ZUWAKU
100
AcDbLine
 10
504.799179511697
 20
29.99999986828868
 30
0.0
 11
504.799179511697
 21
0.7999998682887508
 31
0.0
  0
TEXT
  5
F89
330
1A
100
AcDbEntity
  8
ZUWAKU
100
AcDbText
 10
464.0120022211934
 20
2.614070779428175
 30
0.0
 40
3.0
  1
□には色品番が入ります
 41
0.9
  7
ｽﾀｲﾙ1
100
AcDbText
  0
TEXT
  5
F8A
330
1A
100
AcDbEntity
  8
ZUWAKU
100
AcDbText
 10
506.6766245339067
 20
9.6553564066743
 30
0.0
 40
4.0
  1
縮尺
 41
0.9
  7
ｽﾀｲﾙ1
100
AcDbText
  0
TEXT
  5
F8B
330
1A
100
AcDbEntity
  8
MOJI
100
AcDbText
 10
528.0409079858689
 20
3.204920925696104
 30
0.0
 40
5.599999999999999
  1
１/２
 41
0.9
  7
ｽﾀｲﾙ1
100
AcDbText
  0
TEXT
  5
F8C
330
1A
100
AcDbEntity
  8
ZUWAKU
100
AcDbText
 10
449.3018090067569
 20
24.05535640667426
 30
0.0
 40
4.0
  1
品番
 41
0.9
  7
ｽﾀｲﾙ1
100
AcDbText
  0
TEXT
  5
F8D
330
1A
100
AcDbEntity
  8
ZUWAKU
100
AcDbText
 10
506.6766245339065
 20
24.05535640667426
 30
0.0
 40
4.0
  1
用紙
 41
0.9
  7
ｽﾀｲﾙ1
100
AcDbText
  0
LINE
  5
F8E
330
1A
100
AcDbEntity
  8
ZUWAKU
100
AcDbLine
 10
648.6172025237603
 20
29.99999986828868
 30
0.0
 11
648.6172025237606
 21
0.7999998682887508
 31
0.0
  0
LINE
  5
F8F
330
1A
100
AcDbEntity
  8
ZUWAKU
100
AcDbLine
 10
648.8172025237604
 20
29.99999986828868
 30
0.0
 11
648.8172025237607
 21
0.7999998682887508
 31
0.0
  0
LINE
  5
F90
330
1A
100
AcDbEntity
  8
ZUWAKU
100
AcDbLine
 10
648.4172025237605
 20
29.99999986828868
 30
0.0
 11
648.4172025237605
 21
0.7999998682887508
 31
0.0
  0
LINE
  5
F91
330
1A
100
AcDbEntity
  8
ZUWAKU
100
AcDbLine
 10
552.7269557796683
 20
29.99999986828868
 30
0.0
 11
552.7269557796684
 21
0.7999998682887508
 31
0.0
  0
LINE
  5
F92
330
1A
100
AcDbEntity
  8
ZUWAKU
100
AcDbLine
 10
552.9269557796683
 20
29.99999986828868
 30
0.0
 11
552.9269557796685
 21
0.7999998682887508
 31
0.0
  0
LINE
  5
F93
330
1A
100
AcDbEntity
  8
ZUWAKU
100
AcDbLine
 10
552.5269557796685
 20
29.99999986828868
 30
0.0
 11
552.5269557796685
 21
0.7999998682887508
 31
0.0
  0
TEXT
  5
F94
330
1A
100
AcDbEntity
  8
ZUWAKU
100
AcDbText
 10
650.29464754597
 20
24.05535640667426
 30
0.0
 40
4.0
  1
DATE
 41
0.9
  7
ｽﾀｲﾙ1
100
AcDbText
  0
LINE
  5
F95
330
1A
100
AcDbEntity
  8
ZUWAKU
100
AcDbLine
 10
697.2490105620972
 20
29.99999986828868
 30
0.0
 11
697.2490105620972
 21
0.7999998682887508
 31
0.0
  0
LINE
  5
F96
330
1A
100
AcDbEntity
  8
ZUWAKU
100
AcDbLine
 10
697.4490105620973
 20
29.99999986828868
 30
0.0
 11
697.4490105620973
 21
0.7999998682887508
 31
0.0
  0
LINE
  5
F97
330
1A
100
AcDbEntity
  8
ZUWAKU
100
AcDbLine
 10
697.6490105620971
 20
29.99999986828868
 30
0.0
 11
697.6490105620974
 21
0.7999998682887508
 31
0.0
  0
LINE
  5
F98
330
1A
100
AcDbEntity
  8
ZUWAKU
100
AcDbLine
 10
697.8490105620972
 20
29.99999986828868
 30
0.0
 11
697.8490105620974
 21
0.7999998682887508
 31
0.0
  0
TEXT
  5
F99
330
1A
100
AcDbEntity
  8
ZUWAKU
100
AcDbText
 10
708.5280842057998
 20
17.55383920397548
 30
0.0
 40
6.0
  1
積水化学工業株式会社
 41
0.9
  7
ｽﾀｲﾙ1
100
AcDbText
  0
TEXT
  5
F9A
330
1A
100
AcDbEntity
  8
ZUWAKU
100
AcDbText
 10
708.5280842057998
 20
6.648840182142748
 30
0.0
 40
6.0
  1
建材事業部
 41
0.9
  7
ｽﾀｲﾙ1
100
AcDbText
  0
DIMENSION
  5
1187
330
1A
100
AcDbEntity
  8
SUNPOU
100
AcDbDimension
  2
*D1
 10
359.8446431744578
 20
312.010347713131
 30
0.0
 11
354.8446431744577
 21
334.110347713131
 31
0.0
 70
    32
  1
※<>
  3
STANDARD
100
AcDbAlignedDimension
 13
432.7943769236922
 23
356.210347713131
 33
0.0
 14
412.9254073383221
 24
312.0103477131309
 34
0.0
 50
90.0
100
AcDbRotatedDimension
1001
ACAD
1000
DSTYLE
1002
{
1070
    41
1040
6.0
1070
    42
1040
6.0
1070
    43
1040
14.0
1070
    44
1040
3.0
1070
    73
1070
     0
1070
    74
1070
     0
1070
    77
1070
     3
1070
   140
1040
6.0
1070
   141
1040
10.0
1070
   147
1040
2.0
1070
   172
1070
     1
1070
   173
1070
     1
1070
   176
1070
   256
1070
   177
1070
   256
1070
   178
1070
   256
1070
   271
1070
     0
1070
   272
1070
     0
1070
   341
1005
6D
1070
     6
1000
OPEN
1070
     7
1000
OPEN
1002
}
  0
DIMENSION
  5
1188
330
1A
100
AcDbEntity
  8
SUNPOU
100
AcDbDimension
  2
*D2
 10
364.0372261704051
 20
73.76568766495167
 30
0.0
 11
359.0372261704051
 21
129.4756454078355
 31
0.0
 70
    32
  3
STANDARD
100
AcDbAlignedDimension
 13
412.1529514262947
 23
185.1856031507193
 33
0.0
 14
456.2795953158692
 24
73.76568766495165
 34
0.0
 50
90.0
100
AcDbRotatedDimension
1001
ACAD
1000
DSTYLE
1002
{
1070
    41
1040
6.0
1070
    42
1040
6.0
1070
    43
1040
14.0
1070
    44
1040
3.0
1070
    73
1070
     0
1070
    74
1070
     0
1070
    77
1070
     3
1070
   140
1040
6.0
1070
   141
1040
10.0
1070
   147
1040
2.0
1070
   172
1070
     1
1070
   173
1070
     1
1070
   176
1070
   256
1070
   177
1070
   256
1070
   178
1070
   256
1070
   271
1070
     0
1070
   272
1070
     0
1070
   341
1005
6D
1070
     6
1000
OPEN
1070
     7
1000
OPEN
1002
}
  0
DIMENSION
  5
1189
330
1A
100
AcDbEntity
  8
SUNPOU
100
AcDbDimension
  2
*D3
 10
302.7067772185705
 20
248.0689630292131
 30
0.0
 11
200.2529286342706
 21
253.0689630292131
 31
0.0
 70
    32
  3
STANDARD
100
AcDbAlignedDimension
 13
97.79908004997082
 23
170.2160603111193
 33
0.0
 14
302.7067772185705
 24
189.0446544431586
 34
0.0
100
AcDbRotatedDimension
1001
ACAD
1000
DSTYLE
1002
{
1070
    41
1040
6.0
1070
    42
1040
6.0
1070
    43
1040
14.0
1070
    44
1040
3.0
1070
    73
1070
     0
1070
    74
1070
     0
1070
    77
1070
     3
1070
   140
1040
6.0
1070
   141
1040
10.0
1070
   147
1040
2.0
1070
   172
1070
     1
1070
   173
1070
     1
1070
   176
1070
   256
1070
   177
1070
   256
1070
   178
1070
   256
1070
   271
1070
     0
1070
   272
1070
     0
1070
   341
1005
6D
1070
     6
1000
OPEN
1070
     7
1000
OPEN
1002
}
  0
LINE
  5
118A
330
1A
100
AcDbEntity
  8
SEIHIN
  6
CONTINUOUS
 62
     3
100
AcDbLine
 10
264.7067772185705
 20
185.1609572381193
 30
0.0
 11
302.7067772185705
 21
185.1609572381193
 31
0.0
  0
LINE
  5
118B
330
1A
100
AcDbEntity
  8
SEIHIN
  6
CONTINUOUS
 62
     3
100
AcDbLine
 10
195.7539112687707
 20
75.0485968161413
 30
0.0
 11
268.8856941015192
 21
75.0485968161413
 31
0.0
  0
LINE
  5
118C
330
1A
100
AcDbEntity
  8
SEIHIN
  6
CONTINUOUS
 62
     3
100
AcDbLine
 10
262.7067772185705
 20
189.0446544431586
 30
0.0
 11
302.7067772185705
 21
189.0446544431586
 31
0.0
  0
LINE
  5
118D
330
1A
100
AcDbEntity
  8
SEIHIN
  6
CONTINUOUS
 62
     3
100
AcDbLine
 10
98.09873402647077
 20
169.9016556457193
 30
0.0
 11
302.7067772185705
 21
169.9016556457193
 31
0.0
  0
LINE
  5
118E
330
1A
100
AcDbEntity
  8
SEIHIN
  6
CONTINUOUS
 62
     3
100
AcDbLine
 10
195.7539112687707
 20
72.35823634481937
 30
0.0
 11
268.8856941015192
 21
72.35823634481937
 31
0.0
  0
LINE
  5
118F
330
1A
100
AcDbEntity
  8
SEIHIN
  6
CONTINUOUS
 62
     3
100
AcDbLine
 10
178.2470942436707
 20
87.40885152331935
 30
0.0
 11
268.8856941015214
 21
87.40885152331935
 31
0.0
  0
LINE
  5
1190
330
1A
100
AcDbEntity
  8
SEIHIN
  6
CONTINUOUS
 62
     3
100
AcDbLine
 10
138.5082317419707
 20
88.43446336511936
 30
0.0
 11
132.2606939795707
 21
87.44801003421935
 31
0.0
  0
ARC
  5
1191
330
1A
100
AcDbEntity
  8
SEIHIN
  6
CONTINUOUS
 62
     3
100
AcDbCircle
 10
208.2934936124706
 20
786.7637070044192
 30
0.0
 40
700.0
100
AcDbArc
 50
263.5304818621468
 51
267.5399129384004
  0
LINE
  5
1192
330
1A
100
AcDbEntity
  8
SEIHIN
  6
CONTINUOUS
 62
     3
100
AcDbLine
 10
100.4802838266707
 20
185.1609572381194
 30
0.0
 11
262.7067772185705
 21
185.1609572381193
 31
0.0
  0
ARC
  5
1193
330
1A
100
AcDbEntity
  8
SEIHIN
  6
CONTINUOUS
 62
     3
100
AcDbCircle
 10
336.5132025538707
 20
194.2767678717193
 30
0.0
 40
232.6999999999999
100
AcDbArc
 50
186.0127105071657
 51
206.8535807106103
  0
ARC
  5
1194
330
1A
100
AcDbEntity
  8
SEIHIN
  6
CONTINUOUS
 62
     3
100
AcDbCircle
 10
129.7592913166786
 20
94.20224469961885
 30
0.0
 40
3.0
100
AcDbArc
 50
205.8282462122202
 51
263.5304818621468
  0
ARC
  5
1195
330
1A
100
AcDbEntity
  8
SEIHIN
  6
CONTINUOUS
 62
     3
100
AcDbCircle
 10
129.7592914010706
 20
94.20224469001936
 30
0.0
 40
3.0
100
AcDbArc
 50
205.8282452231998
 51
263.5304818691021
  0
ARC
  5
1196
330
1A
100
AcDbEntity
  8
SEIHIN
  6
CONTINUOUS
 62
     3
100
AcDbCircle
 10
131.7616137444706
 20
90.60885152331934
 30
0.0
 40
3.2
100
AcDbArc
 50
206.8535078574984
 51
278.9726266148993
  0
LINE
  5
1197
330
1A
100
AcDbEntity
  8
SEIHIN
  6
CONTINUOUS
 62
     3
100
AcDbLine
 10
98.35679943597074
 20
181.8180536659193
 30
0.0
 11
97.79908004997082
 21
170.2160603111193
 31
0.0
  0
ARC
  5
1198
330
1A
100
AcDbEntity
  8
SEIHIN
  6
CONTINUOUS
 62
     3
100
AcDbCircle
 10
98.09873402647077
 20
170.2016556457193
 30
0.0
 40
0.3
100
AcDbArc
 50
177.2478533649002
 51
282.3176619502983
  0
LINE
  5
1199
330
1A
100
AcDbEntity
  8
SEIHIN
  6
CONTINUOUS
 62
     3
100
AcDbLine
 10
100.8686127226708
 20
185.3406934623193
 30
0.0
 11
109.2244509652707
 21
188.6778377498193
 31
0.0
  0
ARC
  5
119A
330
1A
100
AcDbEntity
  8
SEIHIN
  6
CONTINUOUS
 62
     3
100
AcDbCircle
 10
102.3521857888708
 20
181.6259914612193
 30
0.0
 40
4.0
100
AcDbArc
 50
111.7707178918005
 51
177.2478533649002
  0
ARC
  5
119B
330
1A
100
AcDbEntity
  8
SEIHIN
  6
CONTINUOUS
 62
     3
100
AcDbCircle
 10
110.3371304381707
 20
185.8918111184193
 30
0.0
 40
3.0
100
AcDbArc
 50
345.8998258259001
 51
111.7707111698017
  0
ARC
  5
119C
330
1A
100
AcDbEntity
  8
SEIHIN
  6
CONTINUOUS
 62
     3
100
AcDbCircle
 10
109.1186696073707
 20
185.1898232685193
 30
0.0
 40
0.5
100
AcDbArc
 50
356.6903563296991
 51
111.7707178918005
  0
LINE
  5
119D
330
1A
100
AcDbEntity
  8
SEIHIN
  6
CONTINUOUS
 62
     3
100
AcDbLine
 10
107.6982955462708
 20
185.1609572381194
 30
0.0
 11
108.9332229740707
 21
185.6541610186193
 31
0.0
  0
LINE
  5
119E
330
1A
100
AcDbEntity
  8
SEIHIN
  6
CONTINUOUS
 62
     3
100
AcDbLine
 10
141.6214591446212
 20
77.86115023161812
 30
0.0
 11
138.5244138683708
 21
90.24933133671936
 31
0.0
  0
ARC
  5
119F
330
1A
100
AcDbEntity
  8
SEIHIN
  6
CONTINUOUS
 62
     3
100
AcDbCircle
 10
200.8241716113707
 20
574.6914556341413
 30
0.0
 40
500.0
100
AcDbArc
 50
263.6684724392285
 51
267.4119775453975
  0
ARC
  5
11A0
330
1A
100
AcDbEntity
  8
SEIHIN
  6
CONTINUOUS
 62
     3
100
AcDbCircle
 10
200.8241716113707
 20
572.0010951628194
 30
0.0
 40
500.0
100
AcDbArc
 50
263.7491787049714
 51
267.4119775453975
  0
ARC
  5
11A1
330
1A
100
AcDbEntity
  8
SEIHIN
  6
CONTINUOUS
 62
     3
100
AcDbCircle
 10
147.0368963825517
 20
80.93803503361426
 30
0.0
 40
6.0
100
AcDbArc
 50
194.036243467817
 51
263.7491787049714
  0
ARC
  5
11A2
330
1A
100
AcDbEntity
  8
SEIHIN
  6
CONTINUOUS
 62
     3
100
AcDbCircle
 10
146.3452434242731
 20
83.70464686675189
 30
0.0
 40
6.0
100
AcDbArc
 50
194.036243467817
 51
263.6684724392284
  0
LINE
  5
11A3
330
1A
100
AcDbEntity
  8
SEIHIN
100
AcDbLine
 10
195.7539112687707
 20
72.35823634481937
 30
0.0
 11
178.2470942433935
 21
72.5110796694961
 31
0.0
  0
LINE
  5
11A4
330
1A
100
AcDbEntity
  8
SEIHIN
100
AcDbLine
 10
178.2470942433935
 20
75.20144014081802
 30
0.0
 11
195.7539112687707
 21
75.0485968161413
 31
0.0
  0
ARC
  5
11A5
330
1A
100
AcDbEntity
  8
SEIHIN
  6
CONTINUOUS
 62
     3
100
AcDbCircle
 10
138.5862130286707
 20
87.94058188251938
 30
0.0
 40
0.5
100
AcDbArc
 50
14.03624346789922
 51
98.97262661489934
  0
LINE
  5
11A6
330
1A
100
AcDbEntity
  8
SEIHIN
  6
CONTINUOUS
 62
     3
100
AcDbLine
 10
262.7067772185705
 20
189.0446544431586
 30
0.0
 11
262.7067772185705
 21
185.1609572381193
 31
0.0
  0
LINE
  5
11A7
330
1A
100
AcDbEntity
  8
SEIHIN
  6
CONTINUOUS
 62
     3
100
AcDbLine
 10
302.7067772185705
 20
189.0446544431586
 30
0.0
 11
302.7067772185705
 21
73.71107966955861
 31
0.0
  0
LINE
  5
11A8
330
1A
100
AcDbEntity
  8
SEIHIN
  6
CONTINUOUS
 62
     3
100
AcDbLine
 10
268.8856941015206
 20
75.0485968161413
 30
0.0
 11
302.7067772185705
 21
76.40144014088054
 31
0.0
  0
LINE
  5
11A9
330
1A
100
AcDbEntity
  8
SEIHIN
  6
CONTINUOUS
 62
     3
100
AcDbLine
 10
268.8856941015206
 20
72.35823634481937
 30
0.0
 11
302.7067772185705
 21
73.71107966955861
 31
0.0
  0
LINE
  5
11AA
330
1A
100
AcDbEntity
  8
SEIHIN
  6
CONTINUOUS
 62
     3
100
AcDbLine
 10
268.8856941015206
 20
87.40885152331935
 30
0.0
 11
302.7067772185705
 21
88.7616948480586
 31
0.0
  0
DIMENSION
  5
11AB
330
1A
100
AcDbEntity
  8
SUNPOU
100
AcDbDimension
  2
*D4
 10
644.7573260984918
 20
72.35823634481933
 30
0.0
 11
644.7573260984918
 21
110.3082365186693
 31
0.0
 70
   160
  3
STANDARD
100
AcDbAlignedDimension
 13
557.3813651688224
 23
148.2582366925194
 33
0.0
 14
509.3881817984224
 24
72.35823634481937
 34
0.0
 50
90.0
100
AcDbRotatedDimension
1001
ACAD
1000
DSTYLE
1002
{
1070
    41
1040
6.0
1070
    42
1040
6.0
1070
    43
1040
14.0
1070
    44
1040
3.0
1070
    73
1070
     0
1070
    74
1070
     0
1070
    77
1070
     3
1070
   140
1040
6.0
1070
   141
1040
10.0
1070
   147
1040
2.0
1070
   172
1070
     1
1070
   173
1070
     1
1070
   176
1070
   256
1070
   177
1070
   256
1070
   178
1070
   256
1070
   271
1070
     0
1070
   272
1070
     0
1070
   341
1005
6D
1070
     6
1000
OPEN
1070
     7
1000
OPEN
1002
}
  0
DIMENSION
  5
11AC
330
1A
100
AcDbEntity
  8
SUNPOU
100
AcDbDimension
  2
*D5
 10
616.3813647733222
 20
248.0689630292131
 30
0.0
 11
513.9073576764713
 21
253.0689630292131
 31
0.0
 70
    32
  3
STANDARD
100
AcDbAlignedDimension
 13
411.4333505796203
 23
170.2160603110795
 33
0.0
 14
616.3813647733222
 24
188.8918111184193
 34
0.0
100
AcDbRotatedDimension
1001
ACAD
1000
DSTYLE
1002
{
1070
    41
1040
6.0
1070
    42
1040
6.0
1070
    43
1040
14.0
1070
    44
1040
3.0
1070
    73
1070
     0
1070
    74
1070
     0
1070
    77
1070
     3
1070
   140
1040
6.0
1070
   141
1040
10.0
1070
   147
1040
2.0
1070
   172
1070
     1
1070
   173
1070
     1
1070
   176
1070
   256
1070
   177
1070
   256
1070
   178
1070
   256
1070
   271
1070
     0
1070
   272
1070
     0
1070
   341
1005
6D
1070
     6
1000
OPEN
1070
     7
1000
OPEN
1002
}
  0
DIMENSION
  5
11AD
330
1A
100
AcDbEntity
  8
SUNPOU
100
AcDbDimension
  2
*D6
 10
562.3757256711985
 20
229.1865860188211
 30
0.0
 11
486.9045381254094
 21
234.1865860188211
 31
0.0
 70
    32
  3
STANDARD
100
AcDbAlignedDimension
 13
411.4333505796203
 23
170.2160603110795
 33
0.0
 14
562.3757256711985
 24
143.0208357199771
 34
0.0
100
AcDbRotatedDimension
1001
ACAD
1000
DSTYLE
1002
{
1070
    41
1040
6.0
1070
    42
1040
6.0
1070
    43
1040
14.0
1070
    44
1040
3.0
1070
    73
1070
     0
1070
    74
1070
     0
1070
    77
1070
     3
1070
   140
1040
6.0
1070
   141
1040
10.0
1070
   147
1040
2.0
1070
   172
1070
     1
1070
   173
1070
     1
1070
   176
1070
   256
1070
   177
1070
   256
1070
   178
1070
   256
1070
   271
1070
     0
1070
   272
1070
     0
1070
   341
1005
6D
1070
     6
1000
OPEN
1070
     7
1000
OPEN
1002
}
  0
ARC
  5
11AE
330
1A
100
AcDbEntity
  8
SEIHIN
  6
CONTINUOUS
 62
     3
100
AcDbCircle
 10
509.3881817984224
 20
1075.058236344819
 30
0.0
 40
1000.0
100
AcDbArc
 50
269.4838148235971
 51
270.5161851763964
  0
LINE
  5
11AF
330
1A
100
AcDbEntity
  8
SEIHIN
  6
CONTINUOUS
 62
     3
100
AcDbLine
 10
426.8870947628222
 20
185.1856031507193
 30
0.0
 11
576.3813647733222
 21
185.1856031507193
 31
0.0
  0
LINE
  5
11B0
330
1A
100
AcDbEntity
  8
SEIHIN
  6
CONTINUOUS
 62
     3
100
AcDbLine
 10
509.3881817984224
 20
72.35823634481937
 30
0.0
 11
582.3829634946223
 21
72.35823634481937
 31
0.0
  0
ARC
  5
11B1
330
1A
100
AcDbEntity
  8
SEIHIN
  6
CONTINUOUS
 62
     3
100
AcDbCircle
 10
509.3881817984224
 20
1075.058236344819
 30
0.0
 40
1001.2
100
AcDbArc
 50
267.2057870798981
 51
272.4381855725188
  0
ARC
  5
11B2
330
1A
100
AcDbEntity
  8
SEIHIN
  6
CONTINUOUS
 62
     3
100
AcDbCircle
 10
509.3881817984224
 20
1075.058236344819
 30
0.0
 40
1000.0
100
AcDbArc
 50
267.2057870798981
 51
272.4381855921953
  0
ARC
  5
11B3
330
1A
100
AcDbEntity
  8
SEIHIN
  6
CONTINUOUS
 62
     3
100
AcDbCircle
 10
509.3881817984224
 20
1075.058236344819
 30
0.0
 40
1002.7
100
AcDbArc
 50
267.2057870798981
 51
272.4381855724993
  0
ARC
  5
11B4
330
1A
100
AcDbEntity
  8
NOKITOI
  6
PHANTOM
 62
     8
 48
3.0
100
AcDbCircle
 10
509.3881817984224
 20
1075.058236344819
 30
0.0
 40
998.7
100
AcDbArc
 50
267.2027850585025
 51
272.4394137225952
  0
ARC
  5
11B5
330
1A
100
AcDbEntity
  8
NOKITOI
  6
PHANTOM
 62
     8
 48
3.0
100
AcDbCircle
 10
509.3881817984224
 20
1075.058236344819
 30
0.0
 40
1000.0
100
AcDbArc
 50
267.2057870798981
 51
272.4394137225952
  0
LINE
  5
11B6
330
1A
100
AcDbEntity
  8
SEIHIN
  6
CONTINUOUS
 62
     3
100
AcDbLine
 10
418.7528530299223
 20
174.1321408377193
 30
0.0
 11
616.3813647733222
 21
174.1321408377193
 31
0.0
  0
ARC
  5
11B7
330
1A
100
AcDbEntity
  8
NOKITOI
  6
PHANTOM
 62
     8
 48
3.0
100
AcDbCircle
 10
650.1474748962223
 20
194.2767642915193
 30
0.0
 40
228.6
100
AcDbArc
 50
190.8722588021987
 51
204.3402516129994
  0
ARC
  5
11B8
330
1A
100
AcDbEntity
  8
NOKITOI
  6
PHANTOM
 62
     8
 48
3.0
100
AcDbCircle
 10
650.1474748962223
 20
194.2767642915193
 30
0.0
 40
230.0
100
AcDbArc
 50
184.048286762199
 51
206.8535797088011
  0
ARC
  5
11B9
330
1A
100
AcDbEntity
  8
SEIHIN
  6
CONTINUOUS
 62
     3
100
AcDbCircle
 10
650.1474748962223
 20
194.2767642915193
 30
0.0
 40
230.0
100
AcDbArc
 50
185.5892534144994
 51
206.8535797088011
  0
ARC
  5
11BA
330
1A
100
AcDbEntity
  8
SEIHIN
  6
CONTINUOUS
 62
     3
100
AcDbCircle
 10
650.1474748962223
 20
194.2767642915193
 30
0.0
 40
232.6999999999999
100
AcDbArc
 50
185.7826837352997
 51
206.8535797088011
  0
ARC
  5
11BB
330
1A
100
AcDbEntity
  8
SEIHIN
  6
CONTINUOUS
 62
     3
100
AcDbCircle
 10
650.1474748962223
 20
194.2767642915193
 30
0.0
 40
231.1999999999999
100
AcDbArc
 50
185.6446457434003
 51
206.8535797088011
  0
LINE
  5
11BC
330
1A
100
AcDbEntity
  8
SEIHIN
  6
CONTINUOUS
 62
     3
100
AcDbLine
 10
447.4130571956222
 20
101.8499785217193
 30
0.0
 11
457.2318069692223
 21
94.06233331851934
 31
0.0
  0
LINE
  5
11BD
330
1A
100
AcDbEntity
  8
SEIHIN
  6
CONTINUOUS
 62
     3
100
AcDbLine
 10
446.8207326983224
 20
100.1499785217193
 30
0.0
 11
455.7227035162222
 21
93.08946756701937
 31
0.0
  0
LINE
  5
11BE
330
1A
100
AcDbEntity
  8
NOKITOI
  6
PHANTOM
 62
     8
 48
3.0
100
AcDbLine
 10
446.6145543563222
 20
100.0582366925193
 30
0.0
 11
455.5497382618223
 21
92.97138310271936
 31
0.0
  0
LINE
  5
11BF
330
1A
100
AcDbEntity
  8
SEIHIN
  6
CONTINUOUS
 62
     3
100
AcDbLine
 10
447.7614833704223
 20
102.8499785217193
 30
0.0
 11
458.1195148827223
 21
94.63460729001935
 31
0.0
  0
LINE
  5
11C0
330
1A
100
AcDbEntity
  8
SEIHIN
  6
CONTINUOUS
 62
     3
100
AcDbLine
 10
454.1624995074223
 20
91.48685961111937
 30
0.0
 11
445.4738655608223
 21
90.11497004061936
 31
0.0
  0
LINE
  5
11C1
330
1A
100
AcDbEntity
  8
NOKITOI
  6
PHANTOM
 62
     8
 48
3.0
100
AcDbLine
 10
454.1624995074223
 20
91.48685961111937
 30
0.0
 11
445.4738655608223
 21
90.11497004061936
 31
0.0
  0
LINE
  5
11C2
330
1A
100
AcDbEntity
  8
SEIHIN
  6
CONTINUOUS
 62
     3
100
AcDbLine
 10
452.1425022716223
 20
88.43446336511936
 30
0.0
 11
445.8949645092222
 21
87.44801003421935
 31
0.0
  0
LINE
  5
11C3
330
1A
100
AcDbEntity
  8
SEIHIN
  6
CONTINUOUS
 62
     3
100
AcDbLine
 10
453.2647229582223
 20
90.13023905731939
 30
0.0
 11
445.6610206490222
 21
88.92965448221934
 31
0.0
  0
LINE
  5
11C4
330
1A
100
AcDbEntity
  8
NOKITOI
  6
PHANTOM
 62
     8
 48
3.0
100
AcDbLine
 10
445.9745744528222
 20
91.45951513291937
 30
0.0
 11
453.8721568816222
 21
92.70650183221937
 31
0.0
  0
LINE
  5
11C5
330
1A
100
AcDbEntity
  8
NOKITOI
  6
PHANTOM
 62
     8
 48
3.0
100
AcDbLine
 10
453.8721568816222
 20
92.70650183221937
 30
0.0
 11
446.1790216378221
 21
98.80823669251936
 31
0.0
  0
ARC
  5
11C6
330
1A
100
AcDbEntity
  8
SEIHIN
  6
CONTINUOUS
 62
     3
100
AcDbCircle
 10
650.1474748962223
 20
194.2767642915193
 30
0.0
 40
226.75
100
AcDbArc
 50
197.7740251754999
 51
203.9430083867006
  0
ARC
  5
11C7
330
1A
100
AcDbEntity
  8
SEIHIN
  6
CONTINUOUS
 62
     3
100
AcDbCircle
 10
650.1474748962223
 20
194.2767642915193
 30
0.0
 40
225.7499999999999
100
AcDbArc
 50
198.0395716216001
 51
203.777747324799
  0
ARC
  5
11C8
330
1A
100
AcDbEntity
  8
SEIHIN
  6
CONTINUOUS
 62
     3
100
AcDbCircle
 10
650.1474748962223
 20
194.2767642915193
 30
0.0
 40
228.4499999999999
100
AcDbArc
 50
197.9821520948996
 51
204.2211026572002
  0
LINE
  5
11C9
330
1A
100
AcDbEntity
  8
SEIHIN
100
AcDbLine
 10
444.6229409751745
 20
89.09473176034628
 30
0.0
 11
443.9450724011849
 21
87.7566339808896
 31
0.0
  0
LINE
  5
11CA
330
1A
100
AcDbEntity
  8
SEIHIN
  6
CONTINUOUS
 62
     3
100
AcDbLine
 10
444.0175218453223
 20
102.9582366925193
 30
0.0
 11
447.4507771759221
 21
102.9582366925193
 31
0.0
  0
LINE
  5
11CB
330
1A
100
AcDbEntity
  8
SEIHIN
  6
CONTINUOUS
 62
     3
100
AcDbLine
 10
443.3663817335222
 20
101.9582366925193
 30
0.0
 11
447.1023510011223
 21
101.9582366925193
 31
0.0
  0
ARC
  5
11CC
330
1A
100
AcDbEntity
  8
SEIHIN
  6
CONTINUOUS
 62
     3
100
AcDbCircle
 10
444.0175218453223
 20
103.4582366925193
 30
0.0
 40
0.5
100
AcDbArc
 50
203.777747324799
 51
270.0
  0
ARC
  5
11CD
330
1A
100
AcDbEntity
  8
SEIHIN
  6
CONTINUOUS
 62
     3
100
AcDbCircle
 10
447.4507771759221
 20
102.4582366925193
 30
0.0
 40
0.5
100
AcDbArc
 50
51.58065188620099
 51
90.0
  0
ARC
  5
11CE
330
1A
100
AcDbEntity
  8
SEIHIN
  6
CONTINUOUS
 62
     3
100
AcDbCircle
 10
447.1023510011223
 20
101.4582366925193
 30
0.0
 40
0.5
100
AcDbArc
 50
51.58065188620099
 51
90.0
  0
ARC
  5
11CF
330
1A
100
AcDbEntity
  8
SEIHIN
  6
CONTINUOUS
 62
     3
100
AcDbCircle
 10
443.3663817335222
 20
102.4582366925193
 30
0.0
 40
0.5
100
AcDbArc
 50
203.9430083867006
 51
270.0
  0
ARC
  5
11D0
330
1A
100
AcDbEntity
  8
NOKITOI
  6
PHANTOM
 62
     8
 48
3.0
100
AcDbCircle
 10
445.3958842741221
 20
90.60885152331934
 30
0.0
 40
0.5
100
AcDbArc
 50
206.8535797088011
 51
278.9726266148993
  0
ARC
  5
11D1
330
1A
100
AcDbEntity
  8
SEIHIN
  6
CONTINUOUS
 62
     3
100
AcDbCircle
 10
445.3958842741221
 20
90.60885152331934
 30
0.0
 40
0.5
100
AcDbArc
 50
206.8535797088011
 51
278.9726266148993
  0
LINE
  5
11D2
330
1A
100
AcDbEntity
  8
SEIHIN
  6
CONTINUOUS
 62
     3
100
AcDbLine
 10
445.1145543563223
 20
90.05823669251936
 30
0.0
 11
444.9498023773221
 21
90.38299550421937
 31
0.0
  0
LINE
  5
11D3
330
1A
100
AcDbEntity
  8
SEIHIN
  6
CONTINUOUS
 62
     3
100
AcDbLine
 10
445.1145543563223
 20
90.05823669251936
 30
0.0
 11
445.4738655608223
 21
90.11497004061936
 31
0.0
  0
ARC
  5
11D4
330
1A
100
AcDbEntity
  8
SEIHIN
  6
CONTINUOUS
 62
     3
100
AcDbCircle
 10
446.5100265039223
 20
99.75823669251935
 30
0.0
 40
0.5
100
AcDbArc
 50
51.58065188620099
 51
90.0
  0
ARC
  5
11D5
330
1A
100
AcDbEntity
  8
SEIHIN
  6
CONTINUOUS
 62
     3
100
AcDbCircle
 10
442.2641242023224
 20
100.7582366925193
 30
0.0
 40
0.5
100
AcDbArc
 50
204.2211026572002
 51
270.0
  0
ARC
  5
11D6
330
1A
100
AcDbEntity
  8
NOKITOI
  6
PHANTOM
 62
     8
 48
3.0
100
AcDbCircle
 10
650.1474748962223
 20
194.2767642915193
 30
0.0
 40
228.6
100
AcDbArc
 50
204.6845833638996
 51
206.7288798443987
  0
LINE
  5
11D7
330
1A
100
AcDbEntity
  8
NOKITOI
  6
PHANTOM
 62
     8
 48
3.0
100
AcDbLine
 10
441.8668251539222
 20
100.0582366925193
 30
0.0
 11
446.6145543563222
 21
100.0582366925193
 31
0.0
  0
LINE
  5
11D8
330
1A
100
AcDbEntity
  8
SEIHIN
  6
CONTINUOUS
 62
     3
100
AcDbLine
 10
442.2641242023224
 20
100.2582366925193
 30
0.0
 11
446.5100265039223
 21
100.2582366925193
 31
0.0
  0
LINE
  5
11D9
330
1A
100
AcDbEntity
  8
NOKITOI
  6
PHANTOM
 62
     8
 48
3.0
100
AcDbLine
 10
446.1790216378221
 20
98.80823669251936
 30
0.0
 11
442.4368101770223
 21
98.80823669251936
 31
0.0
  0
ARC
  5
11DA
330
1A
100
AcDbEntity
  8
SEIHIN
  6
CONTINUOUS
 62
     3
100
AcDbCircle
 10
445.3958842741221
 20
90.60885152331934
 30
0.0
 40
1.7
100
AcDbArc
 50
206.8535797088011
 51
278.9726266148993
  0
ARC
  5
11DB
330
1A
100
AcDbEntity
  8
SEIHIN
  6
CONTINUOUS
 62
     3
100
AcDbCircle
 10
445.3958842741221
 20
90.60885152331934
 30
0.0
 40
3.2
100
AcDbArc
 50
206.8535797088011
 51
278.9726266148993
  0
ARC
  5
11DC
330
1A
100
AcDbEntity
  8
SEIHIN
  6
CONTINUOUS
 62
     3
100
AcDbCircle
 10
431.5445644746223
 20
126.0582363448193
 30
0.0
 40
1.0
100
AcDbArc
 50
197.3313658938991
 51
270.0
  0
ARC
  5
11DD
330
1A
100
AcDbEntity
  8
SEIHIN
  6
CONTINUOUS
 62
     3
100
AcDbCircle
 10
435.5440973242223
 20
121.0582363448193
 30
0.0
 40
1.0
100
AcDbArc
 50
18.83864998859887
 51
90.0
  0
LINE
  5
11DE
330
1A
100
AcDbEntity
  8
SEIHIN
  6
CONTINUOUS
 62
     3
100
AcDbLine
 10
434.5438551840222
 20
125.0582363448193
 30
0.0
 11
431.5445644746223
 21
125.0582363448193
 31
0.0
  0
ARC
  5
11DF
330
1A
100
AcDbEntity
  8
SEIHIN
  6
CONTINUOUS
 62
     3
100
AcDbCircle
 10
433.8077863668222
 20
124.0582363448193
 30
0.0
 40
1.0
100
AcDbArc
 50
90.0
 51
197.9821520948996
  0
ARC
  5
11E0
330
1A
100
AcDbEntity
  8
SEIHIN
  6
CONTINUOUS
 62
     3
100
AcDbCircle
 10
434.5438551840222
 20
124.0582363448193
 30
0.0
 40
1.0
100
AcDbArc
 50
18.03957162160017
 51
90.0
  0
LINE
  5
11E1
330
1A
100
AcDbEntity
  8
SEIHIN
  6
CONTINUOUS
 62
     3
100
AcDbLine
 10
434.5438551840222
 20
122.0582363448193
 30
0.0
 11
435.5440973242223
 21
122.0582363448193
 31
0.0
  0
ARC
  5
11E2
330
1A
100
AcDbEntity
  8
SEIHIN
  6
CONTINUOUS
 62
     3
100
AcDbCircle
 10
434.8046095272223
 20
121.0582363448193
 30
0.0
 40
1.0
100
AcDbArc
 50
90.0
 51
198.7784991785984
  0
LINE
  5
11E3
330
1A
100
AcDbEntity
  8
SEIHIN
  6
CONTINUOUS
 62
     3
100
AcDbLine
 10
456.7109434245224
 20
78.22495366921936
 30
0.0
 11
453.8277754950222
 21
89.75762538721937
 31
0.0
  0
LINE
  5
11E4
330
1A
100
AcDbEntity
  8
SEIHIN
  6
CONTINUOUS
 62
     3
100
AcDbLine
 10
455.2557296742222
 20
77.86115023161937
 30
0.0
 11
452.7055548084222
 21
88.06184969501936
 31
0.0
  0
LINE
  5
11E5
330
1A
100
AcDbEntity
  8
SEIHIN
  6
CONTINUOUS
 62
     3
100
AcDbLine
 10
461.5387056159222
 20
81.38483056311935
 30
0.0
 11
458.2938799383223
 21
94.36413327341938
 31
0.0
  0
LINE
  5
11E6
330
1A
100
AcDbEntity
  8
SEIHIN
  6
CONTINUOUS
 62
     3
100
AcDbLine
 10
460.5685631157223
 20
81.14229493811933
 30
0.0
 11
457.4061720248223
 21
93.79185930191937
 31
0.0
  0
LINE
  5
11E7
330
1A
100
AcDbEntity
  8
SEIHIN
  6
CONTINUOUS
 62
     3
100
AcDbLine
 10
458.9193208655224
 20
80.72998437551939
 30
0.0
 11
455.8970685718223
 21
92.81899355031937
 31
0.0
  0
LINE
  5
11E8
330
1A
100
AcDbEntity
  8
NOKITOI
  6
PHANTOM
 62
     8
 48
3.0
100
AcDbLine
 10
455.5497382618223
 20
92.97138310271936
 30
0.0
 11
459.0841238770222
 21
78.83384064161936
 31
0.0
  0
LINE
  5
11E9
330
1A
100
AcDbEntity
  8
SEIHIN
  6
CONTINUOUS
 62
     3
100
AcDbLine
 10
457.8751144246223
 20
78.51599641921939
 30
0.0
 11
454.7255520442222
 21
91.11424594101936
 31
0.0
  0
LINE
  5
11EA
330
1A
100
AcDbEntity
  8
NOKITOI
  6
PHANTOM
 62
     8
 48
3.0
100
AcDbLine
 10
457.8751144246223
 20
78.51599641921939
 30
0.0
 11
454.7255520442222
 21
91.11424594101936
 31
0.0
  0
LINE
  5
11EB
330
1A
100
AcDbEntity
  8
CENTER_L
  6
CENTER
 62
     1
 48
3.0
100
AcDbLine
 10
509.3881817984224
 20
55.05823634481936
 30
0.0
 11
509.3881817984224
 21
86.30823634481931
 31
0.0
  0
ARC
  5
11EC
330
1A
100
AcDbEntity
  8
SEIHIN
  6
CONTINUOUS
 62
     3
100
AcDbCircle
 10
509.3881817984224
 20
1075.058236344819
 30
0.0
 40
998.45
100
AcDbArc
 50
267.3148073520032
 51
269.4261431472954
  0
ARC
  5
11ED
330
1A
100
AcDbEntity
  8
SEIHIN
  6
CONTINUOUS
 62
     3
100
AcDbCircle
 10
509.3881817984224
 20
1075.058236344819
 30
0.0
 40
995.7499999999999
100
AcDbArc
 50
267.3148073520032
 51
269.4245870685002
  0
ARC
  5
11EE
330
1A
100
AcDbEntity
  8
SEIHIN
  6
CONTINUOUS
 62
     3
100
AcDbCircle
 10
509.3881817984224
 20
1075.058236344819
 30
0.0
 40
996.7499999999999
100
AcDbArc
 50
267.3148073520032
 51
269.2807270341004
  0
LINE
  5
11EF
330
1A
100
AcDbEntity
  8
SEIHIN
100
AcDbLine
 10
458.1191714910215
 20
75.99853492706319
 30
0.0
 11
457.1653749788074
 21
74.84083243032808
 31
0.0
  0
ARC
  5
11F0
330
1A
100
AcDbEntity
  8
SEIHIN
  6
CONTINUOUS
 62
     3
100
AcDbCircle
 10
462.7998908661222
 20
81.70012687571938
 30
0.0
 40
2.299999999999999
100
AcDbArc
 50
194.0362434678992
 51
267.3148073520032
  0
ARC
  5
11F1
330
1A
100
AcDbEntity
  8
SEIHIN
  6
CONTINUOUS
 62
     3
100
AcDbCircle
 10
462.7998908661222
 20
81.70012687571938
 30
0.0
 40
1.3
100
AcDbArc
 50
194.0362434678992
 51
267.3148073520032
  0
ARC
  5
11F2
330
1A
100
AcDbEntity
  8
SEIHIN
  6
CONTINUOUS
 62
     3
100
AcDbCircle
 10
460.7855419251222
 20
79.24360329431937
 30
0.0
 40
5.7
100
AcDbArc
 50
194.0362434678992
 51
267.2057870798981
  0
ARC
  5
11F3
330
1A
100
AcDbEntity
  8
SEIHIN
  6
CONTINUOUS
 62
     3
100
AcDbCircle
 10
460.7855419251222
 20
79.24360329431937
 30
0.0
 40
4.2
100
AcDbArc
 50
194.0362434678992
 51
267.2057870798981
  0
ARC
  5
11F4
330
1A
100
AcDbEntity
  8
NOKITOI
  6
PHANTOM
 62
     8
 48
3.0
100
AcDbCircle
 10
460.7855419251222
 20
79.24360329431937
 30
0.0
 40
3.0
100
AcDbArc
 50
194.0362434678992
 51
267.2057870798981
  0
ARC
  5
11F5
330
1A
100
AcDbEntity
  8
SEIHIN
  6
CONTINUOUS
 62
     3
100
AcDbCircle
 10
460.7855419251222
 20
79.24360329431937
 30
0.0
 40
3.0
100
AcDbArc
 50
194.0362434678992
 51
267.2057870798981
  0
ARC
  5
11F6
330
1A
100
AcDbEntity
  8
SEIHIN
  6
CONTINUOUS
 62
     3
100
AcDbCircle
 10
462.7998908661222
 20
81.70012687571938
 30
0.0
 40
4.0
100
AcDbArc
 50
194.0362434678992
 51
267.3148073520032
  0
ARC
  5
11F7
330
1A
100
AcDbEntity
  8
NOKITOI
  6
PHANTOM
 62
     8
 48
3.0
100
AcDbCircle
 10
460.7333661273223
 20
79.24615120421936
 30
0.0
 40
1.7
100
AcDbArc
 50
194.0362434678992
 51
267.2027850585025
  0
LINE
  5
11F8
330
1A
100
AcDbEntity
  8
SEIHIN
  6
CONTINUOUS
 62
     3
100
AcDbLine
 10
496.8756284467222
 20
78.38677668081937
 30
0.0
 11
499.3881817984224
 21
76.65831522101939
 31
0.0
  0
LINE
  5
11F9
330
1A
100
AcDbEntity
  8
SEIHIN
  6
CONTINUOUS
 62
     3
100
AcDbLine
 10
496.8881817984224
 20
79.38669788441939
 30
0.0
 11
496.8756284467222
 21
78.38677668081937
 31
0.0
  0
LINE
  5
11FA
330
1A
100
AcDbEntity
  8
SEIHIN
  6
CONTINUOUS
 62
     3
100
AcDbLine
 10
499.3881817984224
 20
79.35845101791938
 30
0.0
 11
499.3881817984224
 21
76.09877770791934
 31
0.0
  0
ARC
  5
11FB
330
1A
100
AcDbEntity
  8
SEIHIN
  6
CONTINUOUS
 62
     3
100
AcDbCircle
 10
500.3881817984225
 20
76.09877770791934
 30
0.0
 40
1.0
100
AcDbArc
 50
180.0
 51
269.4838148235971
  0
LINE
  5
11FC
330
1A
100
AcDbEntity
  8
SEIHIN
100
AcDbLine
 10
453.6186404628913
 20
90.05332184610592
 30
0.0
 11
452.4964197762917
 21
88.35754615390568
 31
0.0
  0
ARC
  5
11FD
330
1A
100
AcDbEntity
  8
SEIHIN
  6
CONTINUOUS
 62
     3
100
AcDbCircle
 10
454.2404807941222
 20
90.99297812841939
 30
0.0
 40
0.5
100
AcDbArc
 50
14.03624346800073
 51
98.97262661489934
  0
ARC
  5
11FE
330
1A
100
AcDbEntity
  8
NOKITOI
  6
PHANTOM
 62
     8
 48
3.0
100
AcDbCircle
 10
454.2404807941222
 20
90.99297812841939
 30
0.0
 40
0.5
100
AcDbArc
 50
14.03624346800073
 51
98.97262661489934
  0
ARC
  5
11FF
330
1A
100
AcDbEntity
  8
SEIHIN
  6
CONTINUOUS
 62
     3
100
AcDbCircle
 10
455.4119973217223
 20
92.69772573781938
 30
0.0
 40
0.5
100
AcDbArc
 50
14.03624346789922
 51
51.58065188620099
  0
ARC
  5
1200
330
1A
100
AcDbEntity
  8
SEIHIN
  6
CONTINUOUS
 62
     3
100
AcDbCircle
 10
456.9211007747221
 20
93.67059148941939
 30
0.0
 40
0.5
100
AcDbArc
 50
14.03624346789922
 51
51.58065188620099
  0
ARC
  5
1201
330
1A
100
AcDbEntity
  8
SEIHIN
  6
CONTINUOUS
 62
     3
100
AcDbCircle
 10
457.8088086882224
 20
94.24286546091934
 30
0.0
 40
0.5
100
AcDbArc
 50
14.03624346789922
 51
51.58065188620099
  0
ARC
  5
1202
330
1A
100
AcDbEntity
  8
SEIHIN
  6
CONTINUOUS
 62
     3
100
AcDbCircle
 10
452.2204835583222
 20
87.94058188251938
 30
0.0
 40
0.5
100
AcDbArc
 50
14.03624346789922
 51
98.97262661489934
  0
ARC
  5
1203
330
1A
100
AcDbEntity
  8
SEIHIN
  6
CONTINUOUS
 62
     3
100
AcDbCircle
 10
453.3427042449223
 20
89.63635757471934
 30
0.0
 40
0.5
100
AcDbArc
 50
14.03624346789922
 51
98.97262661489934
  0
LINE
  5
1204
330
1A
100
AcDbEntity
  8
NOKITOI
  6
PHANTOM
 62
     8
 48
3.0
100
AcDbLine
 10
438.7267175782222
 20
179.8571901870193
 30
0.0
 11
436.8821765981224
 21
172.6782366925193
 31
0.0
  0
LINE
  5
1205
330
1A
100
AcDbEntity
  8
NOKITOI
  6
PHANTOM
 62
     8
 48
3.0
100
AcDbLine
 10
440.2727188394224
 20
179.8278128606193
 30
0.0
 11
438.2110530332222
 21
171.8038095429193
 31
0.0
  0
ARC
  5
1206
330
1A
100
AcDbEntity
  8
NOKITOI
  6
PHANTOM
 62
     8
 48
3.0
100
AcDbCircle
 10
650.1474748962223
 20
194.2767642915193
 30
0.0
 40
228.6
100
AcDbArc
 50
183.3911788462007
 51
185.3586595373005
  0
ARC
  5
1207
330
1A
100
AcDbEntity
  8
NOKITOI
  6
PHANTOM
 62
     8
 48
3.0
100
AcDbCircle
 10
430.7282724267222
 20
169.1782366925193
 30
0.0
 40
9.0
100
AcDbArc
 50
90.0
 51
155.3786098682994
  0
LINE
  5
1208
330
1A
100
AcDbEntity
  8
NOKITOI
  6
PHANTOM
 62
     8
 48
3.0
100
AcDbLine
 10
435.5013895673223
 20
175.1593148006193
 30
0.0
 11
433.3868543644223
 21
178.1782366925193
 31
0.0
  0
LINE
  5
1209
330
1A
100
AcDbEntity
  8
NOKITOI
  6
PHANTOM
 62
     8
 48
3.0
100
AcDbLine
 10
414.6145543563222
 20
174.4782366925193
 30
0.0
 11
414.6145543563222
 21
181.4568436127193
 31
0.0
  0
LINE
  5
120A
330
1A
100
AcDbEntity
  8
SEIHIN
  6
CONTINUOUS
 62
     3
100
AcDbLine
 10
414.1145543563222
 20
173.1782366925193
 30
0.0
 11
414.1145543563222
 21
181.6008130572194
 31
0.0
  0
LINE
  5
120B
330
1A
100
AcDbEntity
  8
SEIHIN
  6
CONTINUOUS
 62
     3
100
AcDbLine
 10
411.9910699656222
 20
181.8180536659193
 30
0.0
 11
411.4333505796223
 21
170.2160603111193
 31
0.0
  0
LINE
  5
120C
330
1A
100
AcDbEntity
  8
SEIHIN
  6
CONTINUOUS
 62
     3
100
AcDbLine
 10
412.9145543563222
 20
172.3088921678194
 30
0.0
 11
412.9145543563222
 21
184.1879083869193
 31
0.0
  0
LINE
  5
120D
330
1A
100
AcDbEntity
  8
NOKITOI
  6
PHANTOM
 62
     8
 48
3.0
100
AcDbLine
 10
420.7213460946222
 20
178.0394177377193
 30
0.0
 11
416.0145543563223
 21
176.7782366925193
 31
0.0
  0
LINE
  5
120E
330
1A
100
AcDbEntity
  8
SEIHIN
  6
CONTINUOUS
 62
     3
100
AcDbLine
 10
413.5212201360222
 20
171.8204022381193
 30
0.0
 11
418.2558259487223
 21
172.8542422210193
 31
0.0
  0
LINE
  5
120F
330
1A
100
AcDbEntity
  8
SEIHIN
  6
CONTINUOUS
 62
     3
100
AcDbLine
 10
414.1145543563222
 20
173.1782366925193
 30
0.0
 11
418.2195241314222
 21
174.0745904863193
 31
0.0
  0
ARC
  5
1210
330
1A
100
AcDbEntity
  8
NOKITOI
  6
PHANTOM
 62
     8
 48
3.0
100
AcDbCircle
 10
415.3145543563223
 20
174.4782366925193
 30
0.0
 40
0.7
100
AcDbArc
 50
180.0
 51
270.0
  0
LINE
  5
1211
330
1A
100
AcDbEntity
  8
SEIHIN
  6
CONTINUOUS
 62
     3
100
AcDbLine
 10
411.7970040239224
 20
169.9085616879193
 30
0.0
 11
418.0275160602223
 21
171.2690450549193
 31
0.0
  0
LINE
  5
1212
330
1A
100
AcDbEntity
  8
SEIHIN
100
AcDbLine
 10
413.1009725407063
 20
171.9194484043373
 30
0.0
 11
411.5357770538366
 21
169.9755996518987
 31
0.0
  0
ARC
  5
1213
330
1A
100
AcDbEntity
  8
SEIHIN
  6
CONTINUOUS
 62
     3
100
AcDbCircle
 10
413.4145543563222
 20
172.3088921678194
 30
0.0
 40
0.5
100
AcDbArc
 50
180.0
 51
282.3176619502983
  0
ARC
  5
1214
330
1A
100
AcDbEntity
  8
SEIHIN
  6
CONTINUOUS
 62
     3
100
AcDbCircle
 10
411.7330045561223
 20
170.2016556457193
 30
0.0
 40
0.3
100
AcDbArc
 50
177.2478533649002
 51
282.3176619502983
  0
ARC
  5
1215
330
1A
100
AcDbEntity
  8
NOKITOI
  6
PHANTOM
 62
     8
 48
3.0
100
AcDbCircle
 10
448.0210415270224
 20
117.9984306222193
 30
0.0
 40
40.0
100
AcDbArc
 50
110.1459171418998
 51
124.0043462569017
  0
ARC
  5
1216
330
1A
100
AcDbEntity
  8
NOKITOI
  6
PHANTOM
 62
     8
 48
3.0
100
AcDbCircle
 10
448.1114695084222
 20
118.0317391443193
 30
0.0
 40
41.25
100
AcDbArc
 50
109.816613006499
 51
123.401719942503
  0
ARC
  5
1217
330
1A
100
AcDbEntity
  8
NOKITOI
  6
PHANTOM
 62
     8
 48
3.0
100
AcDbCircle
 10
650.1474748962223
 20
194.2767642915193
 30
0.0
 40
228.6
100
AcDbArc
 50
187.6923095857003
 51
190.5380321243994
  0
LINE
  5
1218
330
1A
100
AcDbEntity
  8
NOKITOI
  6
PHANTOM
 62
     8
 48
3.0
100
AcDbLine
 10
433.3868543644223
 20
176.9282366925193
 30
0.0
 11
430.7282724267222
 21
176.9282366925193
 31
0.0
  0
LINE
  5
1219
330
1A
100
AcDbEntity
  8
NOKITOI
  6
PHANTOM
 62
     8
 48
3.0
100
AcDbLine
 10
430.7282724267222
 20
160.1782366925193
 30
0.0
 11
433.3945543563222
 21
160.1782366925193
 31
0.0
  0
LINE
  5
121A
330
1A
100
AcDbEntity
  8
NOKITOI
  6
PHANTOM
 62
     8
 48
3.0
100
AcDbLine
 10
430.7282724267222
 20
161.4282366925193
 30
0.0
 11
433.3945543563222
 21
161.4282366925193
 31
0.0
  0
LINE
  5
121B
330
1A
100
AcDbEntity
  8
SEIHIN
100
AcDbLine
 10
419.4601076882195
 20
172.6003998908415
 30
0.0
 11
418.4274700737942
 21
171.185502049979
 31
0.0
  0
ARC
  5
121C
330
1A
100
AcDbEntity
  8
NOKITOI
  6
PHANTOM
 62
     8
 48
3.0
100
AcDbCircle
 10
430.7282724267222
 20
169.1782366925193
 30
0.0
 40
7.75
100
AcDbArc
 50
90.0
 51
270.0
  0
ARC
  5
121D
330
1A
100
AcDbEntity
  8
NOKITOI
  6
PHANTOM
 62
     8
 48
3.0
100
AcDbCircle
 10
430.7282724267222
 20
169.1782366925193
 30
0.0
 40
9.0
100
AcDbArc
 50
217.6723592547009
 51
270.0
  0
ARC
  5
121E
330
1A
100
AcDbEntity
  8
NOKITOI
  6
PHANTOM
 62
     8
 48
3.0
100
AcDbCircle
 10
415.3145543563223
 20
174.4782366925193
 30
0.0
 40
0.7
100
AcDbArc
 50
270.0
 51
0.0
  0
LINE
  5
121F
330
1A
100
AcDbEntity
  8
NOKITOI
  6
PHANTOM
 62
     8
 48
3.0
100
AcDbLine
 10
416.0145543563223
 20
176.7782366925193
 30
0.0
 11
416.0145543563223
 21
174.4782366925193
 31
0.0
  0
ARC
  5
1220
330
1A
100
AcDbEntity
  8
SEIHIN
  6
CONTINUOUS
 62
     3
100
AcDbCircle
 10
418.1341818399223
 20
170.7805551252193
 30
0.0
 40
0.5
100
AcDbArc
 50
5.782683735299801
 51
102.3176619502983
  0
ARC
  5
1221
330
1A
100
AcDbEntity
  8
SEIHIN
  6
CONTINUOUS
 62
     3
100
AcDbCircle
 10
418.5758232878225
 20
171.3887724319193
 30
0.0
 40
1.5
100
AcDbArc
 50
5.644645743400412
 51
102.3176619502983
  0
ARC
  5
1222
330
1A
100
AcDbEntity
  8
SEIHIN
  6
CONTINUOUS
 62
     3
100
AcDbCircle
 10
418.7528530299223
 20
171.6321408377193
 30
0.0
 40
2.5
100
AcDbArc
 50
5.589253414499476
 51
102.3176619502983
  0
ARC
  5
1223
330
1A
100
AcDbEntity
  8
NOKITOI
  6
PHANTOM
 62
     8
 48
3.0
100
AcDbCircle
 10
437.7267825670223
 20
171.9282366925193
 30
0.0
 40
0.5
100
AcDbArc
 50
270.0
 51
345.5902741235998
  0
ARC
  5
1224
330
1A
100
AcDbEntity
  8
NOKITOI
  6
PHANTOM
 62
     8
 48
3.0
100
AcDbCircle
 10
433.5284043523222
 20
171.9282366925193
 30
0.0
 40
0.5
100
AcDbArc
 50
160.0168934781001
 51
270.0
  0
ARC
  5
1225
330
1A
100
AcDbEntity
  8
NOKITOI
  6
PHANTOM
 62
     8
 48
3.0
100
AcDbCircle
 10
433.3868543644223
 20
175.9282366925193
 30
0.0
 40
1.0
100
AcDbArc
 50
340.0168934781006
 51
90.0
  0
LINE
  5
1226
330
1A
100
AcDbEntity
  8
NOKITOI
  6
PHANTOM
 62
     8
 48
3.0
100
AcDbLine
 10
433.0585076405222
 20
172.0991082241194
 30
0.0
 11
434.3266477879224
 21
175.5864936294193
 31
0.0
  0
LINE
  5
1227
330
1A
100
AcDbEntity
  8
NOKITOI
  6
PHANTOM
 62
     8
 48
3.0
100
AcDbLine
 10
436.8821765981224
 20
172.6782366925193
 30
0.0
 11
434.5991793462221
 21
172.6782366925193
 31
0.0
  0
LINE
  5
1228
330
1A
100
AcDbEntity
  8
NOKITOI
  6
PHANTOM
 62
     8
 48
3.0
100
AcDbLine
 10
437.7267825670223
 20
171.4282366925193
 30
0.0
 11
433.5284043523222
 21
171.4282366925193
 31
0.0
  0
LINE
  5
1229
330
1A
100
AcDbEntity
  8
NOKITOI
  6
PHANTOM
 62
     8
 48
3.0
100
AcDbLine
 10
434.5991793462221
 20
172.6782366925193
 30
0.0
 11
435.5013895673223
 21
175.1593148006193
 31
0.0
  0
ARC
  5
122A
330
1A
100
AcDbEntity
  8
NOKITOI
  6
PHANTOM
 62
     8
 48
3.0
100
AcDbCircle
 10
433.3945543563222
 20
158.4282366925193
 30
0.0
 40
3.0
100
AcDbArc
 50
286.4592496282992
 51
90.0
  0
ARC
  5
122B
330
1A
100
AcDbEntity
  8
NOKITOI
  6
PHANTOM
 62
     8
 48
3.0
100
AcDbCircle
 10
433.3945543563222
 20
158.4282366925193
 30
0.0
 40
1.75
100
AcDbArc
 50
294.7524724260971
 51
90.0
  0
LINE
  5
122C
330
1A
100
AcDbEntity
  8
SEIHIN
  6
CONTINUOUS
 62
     3
100
AcDbLine
 10
414.5028832523223
 20
185.3406934623193
 30
0.0
 11
422.8587211681269
 21
188.6778376192733
 31
0.0
  0
LINE
  5
122D
330
1A
100
AcDbEntity
  8
SEIHIN
  6
CONTINUOUS
 62
     3
100
AcDbLine
 10
414.7436610898223
 20
182.5294885575193
 30
0.0
 11
422.5674935037223
 21
185.6541610186193
 31
0.0
  0
LINE
  5
122E
330
1A
100
AcDbEntity
  8
SEIHIN
  6
CONTINUOUS
 62
     3
100
AcDbLine
 10
414.4291077230223
 20
183.4806650169193
 30
0.0
 11
422.1966002371223
 21
186.5828365189194
 31
0.0
  0
LINE
  5
122F
330
1A
100
AcDbEntity
  8
NOKITOI
  6
PHANTOM
 62
     8
 48
3.0
100
AcDbLine
 10
414.9069274352223
 20
181.9116964038194
 30
0.0
 11
422.0568752548224
 21
185.1754372909193
 31
0.0
  0
ARC
  5
1230
330
1A
100
AcDbEntity
  8
SEIHIN
  6
CONTINUOUS
 62
     3
100
AcDbCircle
 10
414.6145543563222
 20
183.0163272668193
 30
0.0
 40
0.5
100
AcDbArc
 50
111.7707178918005
 51
180.0
  0
ARC
  5
1231
330
1A
100
AcDbEntity
  8
SEIHIN
  6
CONTINUOUS
 62
     3
100
AcDbCircle
 10
415.1145543563222
 20
181.6008130572194
 30
0.0
 40
1.0
100
AcDbArc
 50
111.7707178918005
 51
180.0
  0
ARC
  5
1232
330
1A
100
AcDbEntity
  8
NOKITOI
  6
PHANTOM
 62
     8
 48
3.0
100
AcDbCircle
 10
415.1145543563222
 20
181.4568436127193
 30
0.0
 40
0.5
100
AcDbArc
 50
114.5353031558015
 51
180.0
  0
ARC
  5
1233
330
1A
100
AcDbEntity
  8
SEIHIN
  6
CONTINUOUS
 62
     3
100
AcDbCircle
 10
415.9864563185224
 20
181.6259914612193
 30
0.0
 40
4.0
100
AcDbArc
 50
111.7707178918005
 51
177.2478533649002
  0
LINE
  5
1234
330
1A
100
AcDbEntity
  8
SEIHIN
  6
CONTINUOUS
 62
     3
100
AcDbLine
 10
414.1145543563222
 20
183.0163272668193
 30
0.0
 11
414.1145543563222
 21
181.6008130572194
 31
0.0
  0
LINE
  5
1235
330
1A
100
AcDbEntity
  8
NOKITOI
  6
PHANTOM
 62
     8
 48
3.0
100
AcDbLine
 10
432.1350683431224
 20
178.1782366925193
 30
0.0
 11
430.7282724267222
 21
178.1782366925193
 31
0.0
  0
LINE
  5
1236
330
1A
100
AcDbEntity
  8
NOKITOI
  6
PHANTOM
 62
     8
 48
3.0
100
AcDbLine
 10
421.9477656590222
 20
180.7544603431193
 30
0.0
 11
432.2433921606223
 21
180.2038920810193
 31
0.0
  0
LINE
  5
1237
330
1A
100
AcDbEntity
  8
NOKITOI
  6
PHANTOM
 62
     8
 48
3.0
100
AcDbLine
 10
421.9145543563222
 20
182.1582366925193
 30
0.0
 11
439.3956500926224
 21
181.2234187387193
 31
0.0
  0
ARC
  5
1238
330
1A
100
AcDbEntity
  8
SEIHIN
  6
CONTINUOUS
 62
     3
100
AcDbCircle
 10
422.7529401370222
 20
185.1898232685193
 30
0.0
 40
1.5
100
AcDbArc
 50
341.0753555840008
 51
111.7707178918005
  0
LINE
  5
1239
330
1A
100
AcDbEntity
  8
SEIHIN
  6
CONTINUOUS
 62
     3
100
AcDbLine
 10
421.3942767007224
 20
185.1856031507193
 30
0.0
 11
423.2529377251223
 21
185.1913763012193
 31
0.0
  0
ARC
  5
123A
330
1A
100
AcDbEntity
  8
SEIHIN
  6
CONTINUOUS
 62
     3
100
AcDbCircle
 10
423.2319714379222
 20
183.5036645629193
 30
0.0
 40
0.5
100
AcDbArc
 50
161.0753555840008
 51
252.7961756440988
  0
LINE
  5
123B
330
1A
100
AcDbEntity
  8
SEIHIN
  6
CONTINUOUS
 62
     3
100
AcDbLine
 10
423.2259131100222
 20
185.0276611063193
 30
0.0
 11
422.7589984650223
 21
183.6658267251193
 31
0.0
  0
ARC
  5
123C
330
1A
100
AcDbEntity
  8
SEIHIN
  6
CONTINUOUS
 62
     3
100
AcDbCircle
 10
422.7529401370222
 20
185.1898232685193
 30
0.0
 40
0.5
100
AcDbArc
 50
341.0753555840008
 51
111.7707178918005
  0
ARC
  5
123D
330
1A
100
AcDbEntity
  8
NOKITOI
  6
PHANTOM
 62
     8
 48
3.0
100
AcDbCircle
 10
422.2645021759221
 20
184.7205844997193
 30
0.0
 40
0.5
100
AcDbArc
 50
341.0753555840008
 51
114.5353031557013
  0
LINE
  5
123E
330
1A
100
AcDbEntity
  8
SEIHIN
  6
CONTINUOUS
 62
     3
100
AcDbLine
 10
424.1718590559223
 20
184.7033367820193
 30
0.0
 11
423.5604600906222
 21
182.9200897998193
 31
0.0
  0
ARC
  5
123F
330
1A
100
AcDbEntity
  8
SEIHIN
  6
CONTINUOUS
 62
     3
100
AcDbCircle
 10
423.9714009678222
 20
185.8918111184193
 30
0.0
 40
3.0
100
AcDbArc
 50
252.7961756440988
 51
111.7707151217985
  0
ARC
  5
1240
330
1A
100
AcDbEntity
  8
NOKITOI
  6
PHANTOM
 62
     8
 48
3.0
100
AcDbCircle
 10
650.1474748962223
 20
194.2767642915193
 30
0.0
 40
230.0
100
AcDbArc
 50
182.9998310042997
 51
183.7309486312997
  0
LINE
  5
1241
330
1A
100
AcDbEntity
  8
NOKITOI
  6
PHANTOM
 62
     8
 48
3.0
100
AcDbLine
 10
420.4626463993222
 20
182.2401718180193
 30
0.0
 11
420.7344082512222
 21
183.0328105527193
 31
0.0
  0
LINE
  5
1242
330
1A
100
AcDbEntity
  8
NOKITOI
  6
PHANTOM
 62
     8
 48
3.0
100
AcDbLine
 10
422.7374751489223
 20
184.5584223376193
 30
0.0
 11
421.9145543563222
 21
182.1582366925193
 31
0.0
  0
LINE
  5
1243
330
1A
100
AcDbEntity
  8
NOKITOI
  6
PHANTOM
 62
     8
 48
3.0
100
AcDbLine
 10
416.0145543563223
 20
180.8783360689193
 30
0.0
 11
416.0145543563223
 21
178.0723319180193
 31
0.0
  0
LINE
  5
1244
330
1A
100
AcDbEntity
  8
NOKITOI
  6
PHANTOM
 62
     8
 48
3.0
100
AcDbLine
 10
420.6349333975222
 20
179.3103587508193
 30
0.0
 11
416.0145543563223
 21
178.0723319180193
 31
0.0
  0
LINE
  5
1245
330
1A
100
AcDbEntity
  8
NOKITOI
  6
PHANTOM
 62
     8
 48
3.0
100
AcDbLine
 10
420.7344082512222
 20
183.0328105527193
 30
0.0
 11
416.0145543563223
 21
180.8783360689193
 31
0.0
  0
ARC
  5
1246
330
1A
100
AcDbEntity
  8
NOKITOI
  6
PHANTOM
 62
     8
 48
3.0
100
AcDbCircle
 10
439.3422504551222
 20
180.2248455172193
 30
0.0
 40
1.0
100
AcDbArc
 50
345.5902741235998
 51
86.93897020059976
  0
LINE
  5
1247
330
1A
100
AcDbEntity
  8
NOKITOI
  6
PHANTOM
 62
     8
 48
3.0
100
AcDbLine
 10
432.2433921606223
 20
180.2038920810193
 30
0.0
 11
432.1350683431224
 21
178.1782366925193
 31
0.0
  0
LINE
  5
1248
330
1A
100
AcDbEntity
  8
NOKITOI
  6
PHANTOM
 62
     8
 48
3.0
100
AcDbLine
 10
433.3868543644223
 20
178.1782366925193
 30
0.0
 11
433.4916086875223
 21
180.1371425341193
 31
0.0
  0
LINE
  5
1249
330
1A
100
AcDbEntity
  8
NOKITOI
  6
PHANTOM
 62
     8
 48
3.0
100
AcDbLine
 10
433.4916086875223
 20
180.1371425341193
 30
0.0
 11
438.7267175782222
 21
179.8571901870193
 31
0.0
  0
LINE
  5
124A
330
1A
100
AcDbEntity
  8
SEIHIN
  6
CONTINUOUS
 62
     3
100
AcDbLine
 10
616.3813647733222
 20
188.8918111184193
 30
0.0
 11
616.3813647733222
 21
73.55823634481936
 31
0.0
  0
ARC
  5
124B
330
1A
100
AcDbEntity
  8
NOKITOI
  6
PHANTOM
 62
     8
 48
3.0
100
AcDbCircle
 10
557.3143527048223
 20
130.4843107731193
 30
0.0
 40
0.5
100
AcDbArc
 50
357.2574457103996
 51
95.58470098440025
  0
LINE
  5
124C
330
1A
100
AcDbEntity
  8
SEIHIN
  6
CONTINUOUS
 62
     3
100
AcDbLine
 10
560.8740320350222
 20
143.0208357942193
 30
0.0
 11
557.9100054425223
 21
80.66463313461936
 31
0.0
  0
LINE
  5
124D
330
1A
100
AcDbEntity
  8
SEIHIN
  6
CONTINUOUS
 62
     3
100
AcDbLine
 10
559.5443358924221
 20
140.3208357942193
 30
0.0
 11
556.7112713300223
 21
80.71976863491938
 31
0.0
  0
LINE
  5
124E
330
1A
100
AcDbEntity
  8
NOKITOI
  6
PHANTOM
 62
     8
 48
3.0
100
AcDbLine
 10
559.5635779518222
 20
139.8189950645193
 30
0.0
 11
556.7325797578223
 21
80.72067617801934
 31
0.0
  0
LINE
  5
124F
330
1A
100
AcDbEntity
  8
SEIHIN
  6
CONTINUOUS
 62
     3
100
AcDbLine
 10
562.3757256712224
 20
143.0208357200193
 30
0.0
 11
559.4083137129223
 21
80.59341286511937
 31
0.0
  0
LINE
  5
1250
330
1A
100
AcDbEntity
  8
NOKITOI
  6
PHANTOM
 62
     8
 48
3.0
100
AcDbLine
 10
547.7999490887222
 20
130.7346256559193
 30
0.0
 11
550.8145543563223
 21
142.0582366925193
 31
0.0
  0
LINE
  5
1251
330
1A
100
AcDbEntity
  8
NOKITOI
  6
PHANTOM
 62
     8
 48
3.0
100
AcDbLine
 10
557.2656941286222
 20
130.9819374836193
 30
0.0
 11
548.3317784672221
 21
130.1083677834193
 31
0.0
  0
LINE
  5
1252
330
1A
100
AcDbEntity
  8
SEIHIN
  6
CONTINUOUS
 62
     3
100
AcDbLine
 10
554.6918463452071
 20
73.85687839417028
 30
0.0
 11
582.3829634946223
 21
73.85687839417028
 31
0.0
  0
LINE
  5
1253
330
1A
100
AcDbEntity
  8
NOKITOI
  6
PHANTOM
 62
     8
 48
3.0
100
AcDbLine
 10
555.4340687610224
 20
80.78287900131938
 30
0.0
 11
557.8137800112222
 21
130.4603866103193
 31
0.0
  0
LINE
  5
1254
330
1A
100
AcDbEntity
  8
SEIHIN
  6
CONTINUOUS
 62
     3
100
AcDbLine
 10
557.2173059111223
 20
124.0107561651193
 30
0.0
 11
555.2738717546222
 21
83.12543670681936
 31
0.0
  0
LINE
  5
1255
330
1A
100
AcDbEntity
  8
SEIHIN
  6
CONTINUOUS
 62
     3
100
AcDbLine
 10
554.5187711854223
 20
124.1057165244193
 30
0.0
 11
552.5769168679223
 21
83.2536331918194
 31
0.0
  0
LINE
  5
1256
330
1A
100
AcDbEntity
  8
SEIHIN
  6
CONTINUOUS
 62
     3
100
AcDbLine
 10
555.4943278536223
 20
123.5677323807193
 30
0.0
 11
553.5757890481222
 21
83.20615301221938
 31
0.0
  0
ARC
  5
1257
330
1A
100
AcDbEntity
  8
SEIHIN
  6
CONTINUOUS
 62
     3
100
AcDbCircle
 10
509.3881817984224
 20
1075.058236344819
 30
0.0
 40
995.7499999999999
100
AcDbArc
 50
270.5754129314997
 51
272.3036781288954
  0
ARC
  5
1258
330
1A
100
AcDbEntity
  8
SEIHIN
  6
CONTINUOUS
 62
     3
100
AcDbCircle
 10
509.3881817984224
 20
1075.058236344819
 30
0.0
 40
998.45
100
AcDbArc
 50
270.5738568527045
 51
272.3036781288954
  0
ARC
  5
1259
330
1A
100
AcDbEntity
  8
SEIHIN
  6
CONTINUOUS
 62
     3
100
AcDbCircle
 10
509.3881817984224
 20
1075.058236344819
 30
0.0
 40
996.7499999999999
100
AcDbArc
 50
270.7192729658995
 51
272.3036781288954
  0
LINE
  5
125A
330
1A
100
AcDbEntity
  8
SEIHIN
  6
CONTINUOUS
 62
     3
100
AcDbLine
 10
521.8881817984224
 20
79.38669788441939
 30
0.0
 11
521.9007351502223
 21
78.38677668081937
 31
0.0
  0
ARC
  5
125B
330
1A
100
AcDbEntity
  8
SEIHIN
  6
CONTINUOUS
 62
     3
100
AcDbCircle
 10
518.3881817984224
 20
76.09877770791934
 30
0.0
 40
1.0
100
AcDbArc
 50
270.5161851763964
 51
0.0
  0
LINE
  5
125C
330
1A
100
AcDbEntity
  8
SEIHIN
  6
CONTINUOUS
 62
     3
100
AcDbLine
 10
521.9007351502223
 20
78.38677668081937
 30
0.0
 11
519.3881817984224
 21
76.65831522101939
 31
0.0
  0
LINE
  5
125D
330
1A
100
AcDbEntity
  8
SEIHIN
  6
CONTINUOUS
 62
     3
100
AcDbLine
 10
519.3881817984224
 20
79.35845101791938
 30
0.0
 11
519.3881817984224
 21
76.09877770791934
 31
0.0
  0
LINE
  5
125E
330
1A
100
AcDbEntity
  8
SEIHIN
100
AcDbLine
 10
556.0937188121372
 20
76.56761932140739
 30
0.0
 11
557.1551216324847
 21
75.507697513025
 31
0.0
  0
ARC
  5
125F
330
1A
100
AcDbEntity
  8
NOKITOI
  6
PHANTOM
 62
     8
 48
3.0
100
AcDbCircle
 10
551.7383066933223
 20
80.95991780611939
 30
0.0
 40
5.0
100
AcDbArc
 50
272.4394137225952
 51
357.2574457103
  0
ARC
  5
1260
330
1A
100
AcDbEntity
  8
SEIHIN
  6
CONTINUOUS
 62
     3
100
AcDbCircle
 10
551.7169979247223
 20
80.95901024841936
 30
0.0
 40
6.2
100
AcDbArc
 50
272.4381855724993
 51
357.2785629215004
  0
ARC
  5
1261
330
1A
100
AcDbEntity
  8
SEIHIN
  6
CONTINUOUS
 62
     3
100
AcDbCircle
 10
551.7169979247223
 20
80.95901024841936
 30
0.0
 40
7.7
100
AcDbArc
 50
272.4381855724993
 51
357.2785629215004
  0
ARC
  5
1262
330
1A
100
AcDbEntity
  8
SEIHIN
  6
CONTINUOUS
 62
     3
100
AcDbCircle
 10
551.7169982654222
 20
80.95901026291938
 30
0.0
 40
5.0
100
AcDbArc
 50
272.4381855921953
 51
357.2574457103
  0
ARC
  5
1263
330
1A
100
AcDbEntity
  8
NOKITOI
  6
PHANTOM
 62
     8
 48
3.0
100
AcDbCircle
 10
551.7383066933223
 20
80.95991780611939
 30
0.0
 40
3.7
100
AcDbArc
 50
272.4394137225952
 51
357.2574457103
  0
ARC
  5
1264
330
1A
100
AcDbEntity
  8
SEIHIN
  6
CONTINUOUS
 62
     3
100
AcDbCircle
 10
549.2806386729223
 20
83.41031778471938
 30
0.0
 40
6.0
100
AcDbArc
 50
272.3036781288954
 51
357.2785629215004
  0
ARC
  5
1265
330
1A
100
AcDbEntity
  8
SEIHIN
  6
CONTINUOUS
 62
     3
100
AcDbCircle
 10
549.2806386729223
 20
83.41031778471938
 30
0.0
 40
4.299999999999999
100
AcDbArc
 50
272.3036781288954
 51
357.2785629215004
  0
ARC
  5
1266
330
1A
100
AcDbEntity
  8
SEIHIN
  6
CONTINUOUS
 62
     3
100
AcDbCircle
 10
549.2806386729223
 20
83.41031778471938
 30
0.0
 40
3.299999999999999
100
AcDbArc
 50
272.3036781288954
 51
357.2785629215004
  0
ARC
  5
1267
330
1A
100
AcDbEntity
  8
SEIHIN
  6
CONTINUOUS
 62
     3
100
AcDbCircle
 10
557.8652514036223
 20
126.0582363448193
 30
0.0
 40
1.0
100
AcDbArc
 50
270.0
 51
357.2785629215004
  0
LINE
  5
1268
330
1A
100
AcDbEntity
  8
SEIHIN
  6
CONTINUOUS
 62
     3
100
AcDbLine
 10
555.5176433657222
 20
125.0582363448193
 30
0.0
 11
557.8652514036223
 21
125.0582363448193
 31
0.0
  0
ARC
  5
1269
330
1A
100
AcDbEntity
  8
SEIHIN
  6
CONTINUOUS
 62
     3
100
AcDbCircle
 10
556.2184337309222
 20
124.0582363448193
 30
0.0
 40
1.0
100
AcDbArc
 50
357.2785629215004
 51
90.0
  0
ARC
  5
126A
330
1A
100
AcDbEntity
  8
SEIHIN
  6
CONTINUOUS
 62
     3
100
AcDbCircle
 10
555.5176433657222
 20
124.0582363448193
 30
0.0
 40
1.0
100
AcDbArc
 50
90.0
 51
177.2785629215003
  0
ARC
  5
126B
330
1A
100
AcDbEntity
  8
NOKITOI
  6
PHANTOM
 62
     8
 48
3.0
100
AcDbCircle
 10
548.2831198909223
 20
130.6059944939193
 30
0.0
 40
0.5
100
AcDbArc
 50
165.0923200672999
 51
275.5847009844003
  0
LINE
  5
126C
330
1A
100
AcDbEntity
  8
SEIHIN
  6
CONTINUOUS
 62
     3
100
AcDbLine
 10
590.3765711644223
 20
74.01668664977023
 30
0.0
 11
616.3813647733222
 21
75.05687839417027
 31
0.0
  0
LINE
  5
126D
330
1A
100
AcDbEntity
  8
SEIHIN
  6
CONTINUOUS
 62
     3
100
AcDbLine
 10
590.3765711644223
 20
72.51804460041933
 30
0.0
 11
616.3813647733222
 21
73.55823634481936
 31
0.0
  0
ARC
  5
126E
330
1A
100
AcDbEntity
  8
SEIHIN
  6
CONTINUOUS
 62
     3
100
AcDbCircle
 10
582.3829634946223
 20
273.8568783941702
 30
0.0
 40
200.0
100
AcDbArc
 50
270.0
 51
272.2906100426004
  0
ARC
  5
126F
330
1A
100
AcDbEntity
  8
SEIHIN
  6
CONTINUOUS
 62
     3
100
AcDbCircle
 10
582.3829634946223
 20
272.3582363448193
 30
0.0
 40
200.0
100
AcDbArc
 50
270.0
 51
272.2906100426004
  0
LINE
  5
1270
330
1A
100
AcDbEntity
  8
SEIHIN
  6
CONTINUOUS
 62
     3
100
AcDbLine
 10
576.3813647733222
 20
182.8918111184193
 30
0.0
 11
616.3813647733222
 21
182.8918111184193
 31
0.0
  0
LINE
  5
1271
330
1A
100
AcDbEntity
  8
SEIHIN
  6
CONTINUOUS
 62
     3
100
AcDbLine
 10
576.3813647733222
 20
188.8918111184193
 30
0.0
 11
616.3813647733222
 21
188.8918111184193
 31
0.0
  0
LINE
  5
1272
330
1A
100
AcDbEntity
  8
SEIHIN
  6
CONTINUOUS
 62
     3
100
AcDbLine
 10
576.3813647733222
 20
148.2582366925194
 30
0.0
 11
616.3813647733222
 21
148.2582366925194
 31
0.0
  0
ARC
  5
1273
330
1A
100
AcDbEntity
  8
SEIHIN
  6
CONTINUOUS
 62
     3
100
AcDbCircle
 10
557.3813647733222
 20
143.2582366925194
 30
0.0
 40
5.0
100
AcDbArc
 50
357.2785620695001
 51
89.99999546769513
  0
LINE
  5
1274
330
1A
100
AcDbEntity
  8
SEIHIN
  6
CONTINUOUS
 62
     3
100
AcDbLine
 10
562.0685338348223
 20
136.5582363448193
 30
0.0
 11
572.3813647733222
 21
136.5582363448193
 31
0.0
  0
LINE
  5
1275
330
1A
100
AcDbEntity
  8
SEIHIN
  6
CONTINUOUS
 62
     3
100
AcDbLine
 10
552.3145546541222
 20
148.2582366925194
 30
0.0
 11
557.3813651688224
 21
148.2582366925194
 31
0.0
  0
LINE
  5
1276
330
1A
100
AcDbEntity
  8
SEIHIN
  6
CONTINUOUS
 62
     3
100
AcDbLine
 10
551.1145543563222
 20
146.7582366925194
 30
0.0
 11
554.6070155380223
 21
146.7582366925194
 31
0.0
  0
LINE
  5
1277
330
1A
100
AcDbEntity
  8
SEIHIN
  6
CONTINUOUS
 62
     3
100
AcDbLine
 10
552.3145543563223
 20
145.5582366925193
 30
0.0
 11
554.5499749910223
 21
145.5582366925193
 31
0.0
  0
LINE
  5
1278
330
1A
100
AcDbEntity
  8
SEIHIN
  6
CONTINUOUS
 62
     3
100
AcDbLine
 10
551.1145543563222
 20
146.7582366925194
 30
0.0
 11
552.3145543563223
 21
145.6582366925193
 31
0.0
  0
LINE
  5
1279
330
1A
100
AcDbEntity
  8
SEIHIN
  6
CONTINUOUS
 62
     3
100
AcDbLine
 10
551.1145543563222
 20
146.7582366925194
 30
0.0
 11
551.1145543563222
 21
143.3517241736193
 31
0.0
  0
LINE
  5
127A
330
1A
100
AcDbEntity
  8
SEIHIN
  6
CONTINUOUS
 62
     3
100
AcDbLine
 10
552.3145543563223
 20
145.6582366925193
 30
0.0
 11
552.3145543563223
 21
143.0582366925193
 31
0.0
  0
LINE
  5
127B
330
1A
100
AcDbEntity
  8
NOKITOI
  6
PHANTOM
 62
     8
 48
3.0
100
AcDbLine
 10
552.8145543563223
 20
145.0582366925193
 30
0.0
 11
554.5693048872221
 21
145.0582366925193
 31
0.0
  0
LINE
  5
127C
330
1A
100
AcDbEntity
  8
NOKITOI
  6
PHANTOM
 62
     8
 48
3.0
100
AcDbLine
 10
552.8145543563223
 20
142.0582366925193
 30
0.0
 11
552.8145543563223
 21
145.0582366925193
 31
0.0
  0
LINE
  5
127D
330
1A
100
AcDbEntity
  8
NOKITOI
  6
PHANTOM
 62
     8
 48
3.0
100
AcDbLine
 10
550.8145543563223
 20
142.0582366925193
 30
0.0
 11
552.8145543563223
 21
142.0582366925193
 31
0.0
  0
LINE
  5
127E
330
1A
100
AcDbEntity
  8
NOKITOI
  6
PHANTOM
 62
     8
 48
3.0
100
AcDbLine
 10
554.1145543563223
 20
140.7582366925194
 30
0.0
 11
551.8295636846223
 21
140.7582366925194
 31
0.0
  0
LINE
  5
127F
330
1A
100
AcDbEntity
  8
NOKITOI
  6
PHANTOM
 62
     8
 48
3.0
100
AcDbLine
 10
554.1145543563223
 20
143.7582366925194
 30
0.0
 11
554.1145543563223
 21
140.7582366925194
 31
0.0
  0
LINE
  5
1280
330
1A
100
AcDbEntity
  8
NOKITOI
  6
PHANTOM
 62
     8
 48
3.0
100
AcDbLine
 10
554.5693048872221
 20
143.7582366925194
 30
0.0
 11
554.1145543563223
 21
143.7582366925194
 31
0.0
  0
ARC
  5
1281
330
1A
100
AcDbEntity
  8
NOKITOI
  6
PHANTOM
 62
     8
 48
3.0
100
AcDbCircle
 10
554.5693048872221
 20
140.0582366925193
 30
0.0
 40
5.0
100
AcDbArc
 50
357.2574457103
 51
90.0
  0
ARC
  5
1282
330
1A
100
AcDbEntity
  8
NOKITOI
  6
PHANTOM
 62
     8
 48
3.0
100
AcDbCircle
 10
554.5693048872221
 20
140.0582366925193
 30
0.0
 40
3.7
100
AcDbArc
 50
357.2574457103
 51
90.0
  0
ARC
  5
1283
330
1A
100
AcDbEntity
  8
SEIHIN
  6
CONTINUOUS
 62
     3
100
AcDbCircle
 10
554.6070155380223
 20
141.7582366925194
 30
0.0
 40
5.0
100
AcDbArc
 50
357.2785629215004
 51
90.0
  0
ARC
  5
1284
330
1A
100
AcDbEntity
  8
SEIHIN
  6
CONTINUOUS
 62
     3
100
AcDbCircle
 10
554.5499749910223
 20
140.5582366925193
 30
0.0
 40
5.0
100
AcDbArc
 50
357.2785629215004
 51
89.99999359379902
  0
ARC
  5
1285
330
1A
100
AcDbEntity
  8
SEIHIN
  6
CONTINUOUS
 62
     3
100
AcDbCircle
 10
555.8796711336221
 20
143.2582366925194
 30
0.0
 40
5.0
100
AcDbArc
 50
357.2785629215004
 51
90.0
  0
ARC
  5
1286
330
1A
100
AcDbEntity
  8
SEIHIN
  6
CONTINUOUS
 62
     3
100
AcDbCircle
 10
552.3145543563223
 20
145.6582366925193
 30
0.0
 40
2.6
100
AcDbArc
 50
89.99999343839986
 51
270.0
  0
LINE
  5
1287
330
1A
100
AcDbEntity
  8
NOKITOI
  6
PHANTOM
 62
     8
 48
3.0
100
AcDbLine
 10
557.9053023620222
 20
132.3709554974193
 30
0.0
 11
558.2650669550223
 21
139.8811978878193
 31
0.0
  0
LINE
  5
1288
330
1A
100
AcDbEntity
  8
NOKITOI
  6
PHANTOM
 62
     8
 48
3.0
100
AcDbLine
 10
549.5237877671222
 20
131.5351330224193
 30
0.0
 11
557.9053023620222
 21
132.3709554974193
 31
0.0
  0
LINE
  5
1289
330
1A
100
AcDbEntity
  8
NOKITOI
  6
PHANTOM
 62
     8
 48
3.0
100
AcDbLine
 10
551.8295636846223
 20
140.7582366925194
 30
0.0
 11
549.5237877671222
 21
131.5351330224193
 31
0.0
  0
LINE
  5
128A
330
1A
100
AcDbEntity
  8
SEIHIN
  6
CONTINUOUS
 62
     3
100
AcDbLine
 10
576.3813647733222
 20
148.2582366925194
 30
0.0
 11
576.3813647733222
 21
140.5582363448193
 31
0.0
  0
ARC
  5
128B
330
1A
100
AcDbEntity
  8
SEIHIN
  6
CONTINUOUS
 62
     3
100
AcDbCircle
 10
572.3813647733222
 20
140.5582363448193
 30
0.0
 40
4.0
100
AcDbArc
 50
270.0
 51
0.0
  0
LINE
  5
128C
330
1A
100
AcDbEntity
  8
SEIHIN
  6
CONTINUOUS
 62
     3
100
AcDbLine
 10
576.3813647733222
 20
188.8918111184193
 30
0.0
 11
576.3813647733222
 21
182.8918111184193
 31
0.0
  0
DIMENSION
  5
128D
330
1A
100
AcDbEntity
  8
SUNPOU
100
AcDbDimension
  2
*D7
 10
675.9535696524599
 20
366.0103477131309
 30
0.0
 11
670.9535696524597
 21
441.4937529216309
 31
0.0
 70
    32
  3
STANDARD
100
AcDbAlignedDimension
 13
616.3813647733222
 23
516.9771581301309
 33
0.0
 14
616.3813647733222
 24
366.0103477131309
 34
0.0
 50
90.0
100
AcDbRotatedDimension
1001
ACAD
1000
DSTYLE
1002
{
1070
    41
1040
6.0
1070
    42
1040
6.0
1070
    43
1040
14.0
1070
    44
1040
3.0
1070
    73
1070
     0
1070
    74
1070
     0
1070
    77
1070
     3
1070
   140
1040
6.0
1070
   141
1040
10.0
1070
   147
1040
2.0
1070
   172
1070
     1
1070
   173
1070
     1
1070
   176
1070
   256
1070
   177
1070
   256
1070
   178
1070
   256
1070
   271
1070
     0
1070
   272
1070
     0
1070
   341
1005
6D
1070
     6
1000
OPEN
1070
     7
1000
OPEN
1002
}
  0
DIMENSION
  5
128E
330
1A
100
AcDbEntity
  8
SUNPOU
100
AcDbDimension
  2
*D8
 10
695.9450306687568
 20
312.0103477131308
 30
0.0
 11
690.9450306687566
 21
414.4937529216309
 31
0.0
 70
    32
  3
STANDARD
100
AcDbAlignedDimension
 13
616.3813647733222
 23
516.9771581301309
 33
0.0
 14
560.8813647733223
 24
312.0103477131309
 34
0.0
 50
90.0
100
AcDbRotatedDimension
1001
ACAD
1000
DSTYLE
1002
{
1070
    41
1040
6.0
1070
    42
1040
6.0
1070
    43
1040
14.0
1070
    44
1040
3.0
1070
    73
1070
     0
1070
    74
1070
     0
1070
    77
1070
     3
1070
   140
1040
6.0
1070
   141
1040
10.0
1070
   147
1040
2.0
1070
   172
1070
     1
1070
   173
1070
     1
1070
   176
1070
   256
1070
   177
1070
   256
1070
   178
1070
   256
1070
   271
1070
     0
1070
   272
1070
     0
1070
   341
1005
6D
1070
     6
1000
OPEN
1070
     7
1000
OPEN
1002
}
  0
LINE
  5
128F
330
1A
100
AcDbEntity
  8
SEIHIN
  6
CONTINUOUS
 62
     3
100
AcDbLine
 10
577.381364773322
 20
431.5311181981303
 30
0.0
 11
577.3813647733223
 21
493.3782941841179
 31
0.0
  0
LINE
  5
1290
330
1A
100
AcDbEntity
  8
CENTER_L
  6
CENTER
 62
     1
 48
3.0
100
AcDbLine
 10
574.3507595693222
 20
354.0409529171309
 30
0.0
 11
397.5740642727223
 21
530.817648213831
 31
0.0
  0
LINE
  5
1291
330
1A
100
AcDbEntity
  8
SEIHIN
  6
CONTINUOUS
 62
     3
100
AcDbLine
 10
616.3813647733222
 20
367.5103477131309
 30
0.0
 11
616.3813647733222
 21
515.4663051482309
 31
0.0
  0
LINE
  5
1292
330
1A
100
AcDbEntity
  8
SEIHIN
  6
CONTINUOUS
 62
     3
100
AcDbLine
 10
567.3813647733222
 20
469.977158130131
 30
0.0
 11
572.3813647733222
 21
466.4156464015309
 31
0.0
  0
LINE
  5
1293
330
1A
100
AcDbEntity
  8
SEIHIN
  6
CONTINUOUS
 62
     3
100
AcDbLine
 10
572.3813647733222
 20
429.0035306880309
 30
0.0
 11
572.3813647733222
 21
492.897014437131
 31
0.0
  0
ARC
  5
1294
330
1A
100
AcDbEntity
  8
SEIHIN
  6
CONTINUOUS
 62
     3
100
AcDbCircle
 10
459.4145543563222
 20
468.9771581301309
 30
0.0
 40
4.799999999999999
100
AcDbArc
 50
90.0
 51
180.0
  0
ARC
  5
1295
330
1A
100
AcDbEntity
  8
SEIHIN
  6
CONTINUOUS
 62
     3
100
AcDbCircle
 10
463.2145543563224
 20
465.1771581301309
 30
0.0
 40
4.799999999999999
100
AcDbArc
 50
90.0
 51
180.0
  0
LINE
  5
1296
330
1A
100
AcDbEntity
  8
SEIHIN
  6
CONTINUOUS
 62
     3
100
AcDbLine
 10
420.9845543563224
 20
352.0103477131309
 30
0.0
 11
420.9845543563224
 21
502.607158130131
 31
0.0
  0
LINE
  5
1297
330
1A
100
AcDbEntity
  8
SEIHIN
  6
CONTINUOUS
 62
     3
100
AcDbLine
 10
445.1145543563223
 20
361.0103477131309
 30
0.0
 11
445.1145543563223
 21
478.4771581301308
 31
0.0
  0
LINE
  5
1298
330
1A
100
AcDbEntity
  8
SEIHIN
  6
CONTINUOUS
 62
     3
100
AcDbLine
 10
567.3813647733222
 20
368.598423083831
 30
0.0
 11
567.3813647733222
 21
497.5814104290309
 31
0.0
  0
LINE
  5
1299
330
1A
100
AcDbEntity
  8
SEIHIN
  6
CONTINUOUS
 62
     3
100
AcDbLine
 10
411.4145543563222
 20
343.1858404440309
 30
0.0
 11
411.4145543563222
 21
509.4771581301309
 31
0.0
  0
LINE
  5
129A
330
1A
100
AcDbEntity
  8
SEIHIN
  6
CONTINUOUS
 62
     3
100
AcDbLine
 10
414.1145543563222
 20
354.0103477131309
 30
0.0
 11
414.1145543563222
 21
509.4771581301309
 31
0.0
  0
LINE
  5
129B
330
1A
100
AcDbEntity
  8
SEIHIN
  6
CONTINUOUS
 62
     3
 48
3.0
100
AcDbLine
 10
459.8204418066591
 20
468.5712706798585
 30
0.0
 11
422.3904418066699
 21
506.0012706798693
 31
0.0
  0
LINE
  5
129C
330
1A
100
AcDbEntity
  8
SEIHIN
  6
CONTINUOUS
 62
     3
100
AcDbLine
 10
519.3881817984224
 20
356.210347713131
 30
0.0
 11
499.3881817984222
 21
356.210347713131
 31
0.0
  0
LINE
  5
129D
330
1A
100
AcDbEntity
  8
SEIHIN
  6
CONTINUOUS
 62
     3
100
AcDbLine
 10
499.3881817984224
 20
358.310347713131
 30
0.0
 11
519.3881817984224
 21
358.310347713131
 31
0.0
  0
LINE
  5
129E
330
1A
100
AcDbEntity
  8
SEIHIN
  6
CONTINUOUS
 62
     3
100
AcDbLine
 10
559.7932894027222
 20
361.0103477131309
 30
0.0
 11
430.8103020574221
 21
361.0103477131309
 31
0.0
  0
LINE
  5
129F
330
1A
100
AcDbEntity
  8
CENTER_L
  6
CENTER
 62
     1
 48
3.0
100
AcDbLine
 10
627.8439642228222
 20
419.0035306880308
 30
0.0
 11
502.3881817984224
 21
419.0035306880308
 31
0.0
  0
LINE
  5
12A0
330
1A
100
AcDbEntity
  8
SEIHIN
  6
CONTINUOUS
 62
     3
100
AcDbLine
 10
560.8813647733223
 20
312.0103477131309
 30
0.0
 11
412.9254073383221
 21
312.0103477131309
 31
0.0
  0
LINE
  5
12A1
330
1A
100
AcDbEntity
  8
SEIHIN
  6
CONTINUOUS
 62
     3
100
AcDbLine
 10
454.6145543563222
 20
361.0103477131309
 30
0.0
 11
454.6145543563222
 21
468.9771581301309
 31
0.0
  0
LINE
  5
12A2
330
1A
100
AcDbEntity
  8
SEIHIN
  6
CONTINUOUS
 62
     3
100
AcDbLine
 10
458.4145543563222
 20
361.0103477131309
 30
0.0
 11
458.4145543563222
 21
465.1771581301309
 31
0.0
  0
LINE
  5
12A3
330
1A
100
AcDbEntity
  8
CENTER_L
  6
CENTER
 62
     1
 48
3.0
100
AcDbLine
 10
509.3881817984224
 20
300.8336133454888
 30
0.0
 11
509.3881817984224
 21
426.0035306880308
 31
0.0
  0
LINE
  5
12A4
330
1A
100
AcDbEntity
  8
SEIHIN
  6
CONTINUOUS
 62
     3
100
AcDbLine
 10
496.860594288323
 20
351.0103477131308
 30
0.0
 11
435.0134183024192
 21
351.010347713131
 31
0.0
  0
LINE
  5
12A5
330
1A
100
AcDbEntity
  8
SEIHIN
  6
CONTINUOUS
 62
     3
100
AcDbLine
 10
499.3881817984224
 20
356.0103477131309
 30
0.0
 11
435.4946980493223
 21
356.0103477131309
 31
0.0
  0
LINE
  5
12A6
330
1A
100
AcDbEntity
  8
SEIHIN
  6
CONTINUOUS
 62
     3
100
AcDbLine
 10
445.1145543563225
 20
351.0103477131309
 30
0.0
 11
445.1145543563223
 21
312.0103477131309
 31
0.0
  0
LINE
  5
12A7
330
1A
100
AcDbEntity
  8
SEIHIN
  6
CONTINUOUS
 62
     3
100
AcDbLine
 10
426.9714009678223
 20
312.0103477131309
 30
0.0
 11
426.9714009678223
 21
352.0103477131309
 31
0.0
  0
LINE
  5
12A8
330
1A
100
AcDbEntity
  8
SEIHIN
  6
CONTINUOUS
 62
     3
100
AcDbLine
 10
411.7735852632222
 20
331.2073822984309
 30
0.0
 11
412.9254073383221
 21
312.0103477131309
 31
0.0
  0
ARC
  5
12A9
330
1A
100
AcDbEntity
  8
SEIHIN
  6
CONTINUOUS
 62
     3
100
AcDbCircle
 10
416.1145543563223
 20
354.0103477131309
 30
0.0
 40
2.0
100
AcDbArc
 50
180.0
 51
270.0
  0
ARC
  5
12AA
330
1A
100
AcDbEntity
  8
SEIHIN
  6
CONTINUOUS
 62
     3
100
AcDbCircle
 10
611.4145543563222
 20
343.1858404440309
 30
0.0
 40
200.0
100
AcDbArc
 50
180.0
 51
183.4336303625002
  0
LINE
  5
12AB
330
1A
100
AcDbEntity
  8
SEIHIN
  6
CONTINUOUS
 62
     3
100
AcDbLine
 10
447.6152902232222
 20
356.0103477131309
 30
0.0
 11
447.615290223222
 21
351.0103477131309
 31
0.0
  0
LINE
  5
12AC
330
1A
100
AcDbEntity
  8
SEIHIN
  6
CONTINUOUS
 62
     3
100
AcDbLine
 10
443.7443895311223
 20
356.0103477131309
 30
0.0
 11
443.7443895311223
 21
351.010347713131
 31
0.0
  0
LINE
  5
12AD
330
1A
100
AcDbEntity
  8
SEIHIN
  6
CONTINUOUS
 62
     3
100
AcDbLine
 10
435.4946980493223
 20
356.0103477131309
 30
0.0
 11
435.8296006271948
 21
351.010347713131
 31
0.0
  0
LINE
  5
12AE
330
1A
100
AcDbEntity
  8
SEIHIN
  6
CONTINUOUS
 62
     3
100
AcDbLine
 10
432.7956586631223
 20
356.191230745831
 30
0.0
 11
433.017898532119
 21
352.8765536686422
 31
0.0
  0
LINE
  5
12AF
330
1A
100
AcDbEntity
  8
SEIHIN
  6
CONTINUOUS
 62
     3
100
AcDbLine
 10
426.9714009678223
 20
352.0103477131309
 30
0.0
 11
416.1145543563223
 21
352.0103477131309
 31
0.0
  0
ARC
  5
12B0
330
1A
100
AcDbEntity
  8
SEIHIN
  6
CONTINUOUS
 62
     3
100
AcDbCircle
 10
435.0134183024192
 20
353.010347713131
 30
0.0
 40
2.0
100
AcDbArc
 50
183.8357816617197
 51
270.0
  0
LINE
  5
12B1
330
1A
100
AcDbEntity
  8
SEIHIN
  6
CONTINUOUS
 62
     3
100
AcDbLine
 10
430.8103020574221
 20
358.310347713131
 30
0.0
 11
432.7956586631223
 21
356.191230745831
 31
0.0
  0
LINE
  5
12B2
330
1A
100
AcDbEntity
  8
SEIHIN
  6
CONTINUOUS
 62
     3
100
AcDbLine
 10
430.8103020574221
 20
361.0103477131309
 30
0.0
 11
435.4946980493223
 21
356.0103477131309
 31
0.0
  0
LINE
  5
12B3
330
1A
100
AcDbEntity
  8
SEIHIN
  6
CONTINUOUS
 62
     3
100
AcDbLine
 10
430.8103020574221
 20
358.310347713131
 30
0.0
 11
430.8103020574221
 21
361.0103477131309
 31
0.0
  0
LINE
  5
12B4
330
1A
100
AcDbEntity
  8
SEIHIN
100
AcDbLine
 10
445.1145543563223
 20
361.0103477131309
 30
0.0
 11
447.6152902232222
 21
356.0103477131309
 31
0.0
  0
LINE
  5
12B5
330
1A
100
AcDbEntity
  8
SEIHIN
  6
CONTINUOUS
 62
     3
100
AcDbLine
 10
443.7443895311223
 20
356.0103477131309
 30
0.0
 11
445.1145543563223
 21
361.0103477131309
 31
0.0
  0
LINE
  5
12B6
330
1A
100
AcDbEntity
  8
SEIHIN
  6
CONTINUOUS
 62
     3
100
AcDbLine
 10
458.4145543563222
 20
351.0103477131309
 30
0.0
 11
458.4145543563222
 21
312.0103477131309
 31
0.0
  0
LINE
  5
12B7
330
1A
100
AcDbEntity
  8
SEIHIN
  6
CONTINUOUS
 62
     3
100
AcDbLine
 10
454.6145543563222
 20
351.0103477131309
 30
0.0
 11
454.6145543563222
 21
312.0103477131309
 31
0.0
  0
LINE
  5
12B8
330
1A
100
AcDbEntity
  8
SEIHIN
  6
CONTINUOUS
 62
     3
100
AcDbLine
 10
458.4145543563222
 20
341.0103477131309
 30
0.0
 11
458.4145543563222
 21
312.0103477131309
 31
0.0
  0
LINE
  5
12B9
330
1A
100
AcDbEntity
  8
SEIHIN
  6
CONTINUOUS
 62
     3
100
AcDbLine
 10
461.9760660849224
 20
356.0103477131309
 30
0.0
 11
461.9760660849224
 21
351.0103477131309
 31
0.0
  0
LINE
  5
12BA
330
1A
100
AcDbEntity
  8
SEIHIN
  6
CONTINUOUS
 62
     3
100
AcDbLine
 10
458.2290520508222
 20
356.0103477131309
 30
0.0
 11
458.2290520508222
 21
351.0103477131309
 31
0.0
  0
LINE
  5
12BB
330
1A
100
AcDbEntity
  8
SEIHIN
  6
CONTINUOUS
 62
     3
100
AcDbLine
 10
454.6145543563222
 20
361.0103477131309
 30
0.0
 11
458.2290520508222
 21
356.0103477131309
 31
0.0
  0
LINE
  5
12BC
330
1A
100
AcDbEntity
  8
SEIHIN
  6
CONTINUOUS
 62
     3
100
AcDbLine
 10
458.4145543563222
 20
361.0103477131309
 30
0.0
 11
461.9760660849224
 21
356.0103477131309
 31
0.0
  0
LINE
  5
12BD
330
1A
100
AcDbEntity
  8
SEIHIN
  6
CONTINUOUS
 62
     3
100
AcDbLine
 10
498.8333821359874
 20
352.68154973852
 30
0.0
 11
499.3881817984224
 21
356.0103477131309
 31
0.0
  0
ARC
  5
12BE
330
1A
100
AcDbEntity
  8
SEIHIN
  6
CONTINUOUS
 62
     3
100
AcDbCircle
 10
496.860594288323
 20
353.0103477131308
 30
0.0
 40
2.0
100
AcDbArc
 50
270.0
 51
350.5376777919742
  0
LINE
  5
12BF
330
1A
100
AcDbEntity
  8
SEIHIN
  6
CONTINUOUS
 62
     3
100
AcDbLine
 10
499.3881817984224
 20
361.0103477131309
 30
0.0
 11
499.3881817984224
 21
356.0103477131309
 31
0.0
  0
LINE
  5
12C0
330
1A
100
AcDbEntity
  8
SEIHIN
  6
CONTINUOUS
 62
     3
100
AcDbLine
 10
576.3813647733222
 20
378.6771581301309
 30
0.0
 11
576.3813647733222
 21
366.0103477131309
 31
0.0
  0
LINE
  5
12C1
330
1A
100
AcDbEntity
  8
SEIHIN
  6
CONTINUOUS
 62
     3
100
AcDbLine
 10
572.3813647733222
 20
373.8399949471308
 30
0.0
 11
572.3813647733222
 21
409.0035306880309
 31
0.0
  0
LINE
  5
12C2
330
1A
100
AcDbEntity
  8
SEIHIN
  6
CONTINUOUS
 62
     3
100
AcDbLine
 10
585.3867550751224
 20
366.0103477131309
 30
0.0
 11
567.3813647733222
 21
366.0103477131309
 31
0.0
  0
LINE
  5
12C3
330
1A
100
AcDbEntity
  8
SEIHIN
  6
CONTINUOUS
 62
     3
100
AcDbLine
 10
549.7145543563224
 20
352.0103477131309
 30
0.0
 11
549.7145543563224
 21
312.0103477131309
 31
0.0
  0
LINE
  5
12C4
330
1A
100
AcDbEntity
  8
SEIHIN
  6
CONTINUOUS
 62
     3
100
AcDbLine
 10
562.0223338665223
 20
331.0264992657309
 30
0.0
 11
560.8813647733223
 21
312.0103477131309
 31
0.0
  0
LINE
  5
12C5
330
1A
100
AcDbEntity
  8
SEIHIN
  6
CONTINUOUS
 62
     3
100
AcDbLine
 10
554.5517175394222
 20
356.0103477131309
 30
0.0
 11
519.3881817984224
 21
356.0103477131309
 31
0.0
  0
LINE
  5
12C6
330
1A
100
AcDbEntity
  8
SEIHIN
  6
CONTINUOUS
 62
     3
100
AcDbLine
 10
523.3201814174221
 20
340.7911430884309
 30
0.0
 11
549.7145543563224
 21
336.750800801531
 31
0.0
  0
LINE
  5
12C7
330
1A
100
AcDbEntity
  8
SEIHIN
  6
CONTINUOUS
 62
     3
100
AcDbLine
 10
519.3881817984224
 20
356.0103477131309
 30
0.0
 11
521.6500202829224
 21
342.4393168062309
 31
0.0
  0
ARC
  5
12C8
330
1A
100
AcDbEntity
  8
SEIHIN
  6
CONTINUOUS
 62
     3
100
AcDbCircle
 10
523.6228081306221
 20
342.7681147808309
 30
0.0
 40
2.0
100
AcDbArc
 50
189.4623222079993
 51
261.2969548393046
  0
LINE
  5
12C9
330
1A
100
AcDbEntity
  8
SEIHIN
  6
CONTINUOUS
 62
     3
100
AcDbLine
 10
519.3881817984224
 20
361.0103477131309
 30
0.0
 11
519.3881817984224
 21
356.0103477131309
 31
0.0
  0
LINE
  5
12CA
330
1A
100
AcDbEntity
  8
SEIHIN
  6
CONTINUOUS
 62
     3
100
AcDbLine
 10
554.5517175394222
 20
352.0103477131309
 30
0.0
 11
554.5517175394222
 21
356.0103477131309
 31
0.0
  0
LINE
  5
12CB
330
1A
100
AcDbEntity
  8
SEIHIN
  6
CONTINUOUS
 62
     3
100
AcDbLine
 10
551.6055686485223
 20
356.0103477131309
 30
0.0
 11
551.6055686485223
 21
352.0103477131309
 31
0.0
  0
LINE
  5
12CC
330
1A
100
AcDbEntity
  8
SEIHIN
  6
CONTINUOUS
 62
     3
100
AcDbLine
 10
557.2184337309222
 20
352.0103477131309
 30
0.0
 11
557.2184337309222
 21
356.0103477131309
 31
0.0
  0
LINE
  5
12CD
330
1A
100
AcDbEntity
  8
SEIHIN
  6
CONTINUOUS
 62
     3
100
AcDbLine
 10
562.3813647733222
 20
343.0049574113309
 30
0.0
 11
562.3813647733222
 21
361.0103477131309
 31
0.0
  0
LINE
  5
12CE
330
1A
100
AcDbEntity
  8
SEIHIN
  6
CONTINUOUS
 62
     3
100
AcDbLine
 10
559.7932894027222
 20
352.0103477131309
 30
0.0
 11
559.7932894027222
 21
361.010347713131
 31
0.0
  0
LINE
  5
12CF
330
1A
100
AcDbEntity
  8
SEIHIN
  6
CONTINUOUS
 62
     3
100
AcDbLine
 10
549.7145543563224
 20
352.0103477131309
 30
0.0
 11
562.3813647733222
 21
352.0103477131309
 31
0.0
  0
ARC
  5
12D0
330
1A
100
AcDbEntity
  8
SEIHIN
  6
CONTINUOUS
 62
     3
100
AcDbCircle
 10
362.3813647733222
 20
343.0049574113309
 30
0.0
 40
200.0
100
AcDbArc
 50
356.5663696374997
 51
0.0
  0
ARC
  5
12D1
330
1A
100
AcDbEntity
  8
SEIHIN
  6
CONTINUOUS
 62
     3
100
AcDbCircle
 10
567.3813647733222
 20
361.0103477131309
 30
0.0
 40
10.8881
100
AcDbArc
 50
90.0
 51
180.0
  0
ARC
  5
12D2
330
1A
100
AcDbEntity
  8
SEIHIN
  6
CONTINUOUS
 62
     3
100
AcDbCircle
 10
567.3813647733222
 20
361.0103477131309
 30
0.0
 40
7.588099999999999
100
AcDbArc
 50
90.0
 51
180.0
  0
ARC
  5
12D3
330
1A
100
AcDbEntity
  8
SEIHIN
  6
CONTINUOUS
 62
     3
100
AcDbCircle
 10
567.3813647733222
 20
361.0103477131309
 30
0.0
 40
5.0
100
AcDbArc
 50
90.0
 51
180.0
  0
LINE
  5
12D4
330
1A
100
AcDbEntity
  8
SEIHIN
  6
CONTINUOUS
 62
     3
100
AcDbLine
 10
551.6055686485223
 20
356.0103477131309
 30
0.0
 11
556.8471405118223
 21
361.0103477131309
 31
0.0
  0
LINE
  5
12D5
330
1A
100
AcDbEntity
  8
SEIHIN
  6
CONTINUOUS
 62
     3
100
AcDbLine
 10
557.2184337309222
 20
356.0103477131309
 30
0.0
 11
559.7932894027222
 21
358.466534272231
 31
0.0
  0
LINE
  5
12D6
330
1A
100
AcDbEntity
  8
SEIHIN
  6
CONTINUOUS
 62
     3
100
AcDbLine
 10
554.5517175394222
 20
356.0103477131309
 30
0.0
 11
559.7932894027222
 21
361.0103477131309
 31
0.0
  0
LINE
  5
12D7
330
1A
100
AcDbEntity
  8
SEIHIN
  6
CONTINUOUS
 62
     3
100
AcDbLine
 10
572.3813647733222
 20
376.7861438380309
 30
0.0
 11
576.3813647733222
 21
376.7861438380309
 31
0.0
  0
LINE
  5
12D8
330
1A
100
AcDbEntity
  8
SEIHIN
  6
CONTINUOUS
 62
     3
100
AcDbLine
 10
576.3813647733222
 20
373.8399949471308
 30
0.0
 11
572.3813647733222
 21
373.8399949471308
 31
0.0
  0
LINE
  5
12D9
330
1A
100
AcDbEntity
  8
SEIHIN
  6
CONTINUOUS
 62
     3
100
AcDbLine
 10
576.3813647733222
 20
371.1732787556309
 30
0.0
 11
572.3813647733222
 21
371.1732787556309
 31
0.0
  0
LINE
  5
12DA
330
1A
100
AcDbEntity
  8
SEIHIN
  6
CONTINUOUS
 62
     3
100
AcDbLine
 10
572.3813647733222
 20
371.1732787556309
 30
0.0
 11
569.9251782142223
 21
368.598423083831
 31
0.0
  0
LINE
  5
12DB
330
1A
100
AcDbEntity
  8
SEIHIN
  6
CONTINUOUS
 62
     3
100
AcDbLine
 10
576.3813647733222
 20
368.598423083831
 30
0.0
 11
567.3813647733222
 21
368.5984230838308
 31
0.0
  0
LINE
  5
12DC
330
1A
100
AcDbEntity
  8
SEIHIN
  6
CONTINUOUS
 62
     3
100
AcDbLine
 10
572.3813647733222
 20
373.8399949471308
 30
0.0
 11
567.3813647733222
 21
368.598423083831
 31
0.0
  0
LINE
  5
12DD
330
1A
100
AcDbEntity
  8
SEIHIN
  6
CONTINUOUS
 62
     3
100
AcDbLine
 10
572.3813647733222
 20
376.7861438380309
 30
0.0
 11
567.3813647733222
 21
371.5445719746309
 31
0.0
  0
LINE
  5
12DE
330
1A
100
AcDbEntity
  8
SEIHIN
  6
CONTINUOUS
 62
     3
100
AcDbLine
 10
597.3652132207223
 20
366.3693786200309
 30
0.0
 11
616.3813647733222
 21
367.5103477131309
 31
0.0
  0
ARC
  5
12DF
330
1A
100
AcDbEntity
  8
SEIHIN
  6
CONTINUOUS
 62
     3
100
AcDbCircle
 10
585.3867550751224
 20
566.0103477131309
 30
0.0
 40
200.0
100
AcDbArc
 50
270.0
 51
273.4336303625017
  0
LINE
  5
12E0
330
1A
100
AcDbEntity
  8
SEIHIN
  6
CONTINUOUS
 62
     3
100
AcDbLine
 10
576.3813647733222
 20
378.6771581301309
 30
0.0
 11
616.3813647733222
 21
378.6771581301309
 31
0.0
  0
LINE
  5
12E1
330
1A
100
AcDbEntity
  8
SEIHIN
  6
CONTINUOUS
 62
     3
100
AcDbLine
 10
572.3813647733222
 20
409.0035306880309
 30
0.0
 11
585.9523956803222
 21
406.741692203531
 31
0.0
  0
LINE
  5
12E2
330
1A
100
AcDbEntity
  8
SEIHIN
  6
CONTINUOUS
 62
     3
100
AcDbLine
 10
570.0813647733223
 20
429.0035306880309
 30
0.0
 11
570.0813647733223
 21
409.0035306880309
 31
0.0
  0
LINE
  5
12E3
330
1A
100
AcDbEntity
  8
SEIHIN
  6
CONTINUOUS
 62
     3
100
AcDbLine
 10
567.3813647733222
 20
409.0035306880309
 30
0.0
 11
572.3813647733222
 21
409.0035306880309
 31
0.0
  0
LINE
  5
12E4
330
1A
100
AcDbEntity
  8
SEIHIN
  6
CONTINUOUS
 62
     3
100
AcDbLine
 10
575.7101627479328
 20
429.558330350466
 30
0.0
 11
572.3813647733222
 21
429.0035306880309
 31
0.0
  0
ARC
  5
12E5
330
1A
100
AcDbEntity
  8
SEIHIN
  6
CONTINUOUS
 62
     3
100
AcDbCircle
 10
575.381364773322
 20
431.5311181981303
 30
0.0
 40
2.0
100
AcDbArc
 50
279.4623222080273
 51
0.0
  0
LINE
  5
12E6
330
1A
100
AcDbEntity
  8
SEIHIN
  6
CONTINUOUS
 62
     3
100
AcDbLine
 10
567.3813647733222
 20
429.0035306880309
 30
0.0
 11
572.3813647733222
 21
429.0035306880309
 31
0.0
  0
LINE
  5
12E7
330
1A
100
AcDbEntity
  8
SEIHIN
  6
CONTINUOUS
 62
     3
100
AcDbLine
 10
572.3813647733222
 20
466.4156464015309
 30
0.0
 11
577.3813647733223
 21
466.415646401531
 31
0.0
  0
LINE
  5
12E8
330
1A
100
AcDbEntity
  8
SEIHIN
  6
CONTINUOUS
 62
     3
100
AcDbLine
 10
587.6005693980223
 20
405.0715310690309
 30
0.0
 11
591.6409116850222
 21
378.6771581301309
 31
0.0
  0
ARC
  5
12E9
330
1A
100
AcDbEntity
  8
SEIHIN
  6
CONTINUOUS
 62
     3
100
AcDbCircle
 10
585.6235977057222
 20
404.768904355931
 30
0.0
 40
2.0
100
AcDbArc
 50
8.703045160700334
 51
80.53767779199894
  0
LINE
  5
12EA
330
1A
100
AcDbEntity
  8
SEIHIN
  6
CONTINUOUS
 62
     3
100
AcDbLine
 10
574.3813647733222
 20
514.2771581301309
 30
0.0
 11
418.9145543563222
 21
514.2771581301309
 31
0.0
  0
LINE
  5
12EB
330
1A
100
AcDbEntity
  8
SEIHIN
  6
CONTINUOUS
 62
     3
100
AcDbLine
 10
576.3813647733222
 20
507.4071581301309
 30
0.0
 11
425.7845543563223
 21
507.4071581301309
 31
0.0
  0
LINE
  5
12EC
330
1A
100
AcDbEntity
  8
SEIHIN
  6
CONTINUOUS
 62
     3
100
AcDbLine
 10
567.3813647733222
 20
483.2771581301309
 30
0.0
 11
449.9145543563222
 21
483.2771581301309
 31
0.0
  0
LINE
  5
12ED
330
1A
100
AcDbEntity
  8
SEIHIN
  6
CONTINUOUS
 62
     3
100
AcDbLine
 10
567.3813647733222
 20
473.777158130131
 30
0.0
 11
459.4145543563222
 21
473.777158130131
 31
0.0
  0
LINE
  5
12EE
330
1A
100
AcDbEntity
  8
SEIHIN
  6
CONTINUOUS
 62
     3
100
AcDbLine
 10
567.3813647733222
 20
469.977158130131
 30
0.0
 11
463.2145543563224
 21
469.977158130131
 31
0.0
  0
LINE
  5
12EF
330
1A
100
AcDbEntity
  8
SEIHIN
  6
CONTINUOUS
 62
     3
100
AcDbLine
 10
585.2058720425223
 20
516.9771581301309
 30
0.0
 11
418.9145543563222
 21
516.9771581301309
 31
0.0
  0
ARC
  5
12F0
330
1A
100
AcDbEntity
  8
SEIHIN
  6
CONTINUOUS
 62
     3
100
AcDbCircle
 10
449.9145543563222
 20
478.4771581301308
 30
0.0
 40
4.799999999999999
100
AcDbArc
 50
90.0
 51
180.0
  0
ARC
  5
12F1
330
1A
100
AcDbEntity
  8
SEIHIN
  6
CONTINUOUS
 62
     3
100
AcDbCircle
 10
418.9145543563222
 20
509.4771581301309
 30
0.0
 40
7.5
100
AcDbArc
 50
90.0
 51
180.0
  0
ARC
  5
12F2
330
1A
100
AcDbEntity
  8
SEIHIN
  6
CONTINUOUS
 62
     3
100
AcDbCircle
 10
418.9145543563222
 20
509.4771581301309
 30
0.0
 40
4.799999999999999
100
AcDbArc
 50
90.0
 51
180.0
  0
ARC
  5
12F3
330
1A
100
AcDbEntity
  8
SEIHIN
  6
CONTINUOUS
 62
     3
100
AcDbCircle
 10
425.7845543563223
 20
502.607158130131
 30
0.0
 40
4.799999999999999
100
AcDbArc
 50
90.0
 51
180.0
  0
LINE
  5
12F4
330
1A
100
AcDbEntity
  8
SEIHIN
  6
CONTINUOUS
 62
     3
100
AcDbLine
 10
577.381364773322
 20
469.9771581301308
 30
0.0
 11
616.3813647733222
 21
469.977158130131
 31
0.0
  0
LINE
  5
12F5
330
1A
100
AcDbEntity
  8
SEIHIN
  6
CONTINUOUS
 62
     3
100
AcDbLine
 10
577.381364773322
 20
473.777158130131
 30
0.0
 11
616.3813647733222
 21
473.777158130131
 31
0.0
  0
LINE
  5
12F6
330
1A
100
AcDbEntity
  8
SEIHIN
  6
CONTINUOUS
 62
     3
100
AcDbLine
 10
577.381364773322
 20
483.2771581301308
 30
0.0
 11
616.3813647733222
 21
483.2771581301309
 31
0.0
  0
LINE
  5
12F7
330
1A
100
AcDbEntity
  8
SEIHIN
  6
CONTINUOUS
 62
     3
100
AcDbLine
 10
616.3813647733222
 20
501.4203115187309
 30
0.0
 11
576.3813647733222
 21
501.4203115187309
 31
0.0
  0
LINE
  5
12F8
330
1A
100
AcDbEntity
  8
SEIHIN
  6
CONTINUOUS
 62
     3
100
AcDbLine
 10
567.3813647733222
 20
497.5814104290309
 30
0.0
 11
572.3813647733222
 21
492.897014437131
 31
0.0
  0
LINE
  5
12F9
330
1A
100
AcDbEntity
  8
SEIHIN
  6
CONTINUOUS
 62
     3
100
AcDbLine
 10
572.3813647733222
 20
470.1626604357309
 30
0.0
 11
577.3813647733223
 21
470.1626604357309
 31
0.0
  0
LINE
  5
12FA
330
1A
100
AcDbEntity
  8
SEIHIN
  6
CONTINUOUS
 62
     3
100
AcDbLine
 10
572.3813647733222
 20
480.7764222633308
 30
0.0
 11
577.3813647733223
 21
480.7764222633308
 31
0.0
  0
LINE
  5
12FB
330
1A
100
AcDbEntity
  8
SEIHIN
  6
CONTINUOUS
 62
     3
100
AcDbLine
 10
572.3813647733222
 20
484.647322955331
 30
0.0
 11
577.3813647733223
 21
484.647322955331
 31
0.0
  0
LINE
  5
12FC
330
1A
100
AcDbEntity
  8
SEIHIN
  6
CONTINUOUS
 62
     3
100
AcDbLine
 10
572.3813647733222
 20
492.897014437131
 30
0.0
 11
577.3813647733223
 21
492.5621118592586
 31
0.0
  0
LINE
  5
12FD
330
1A
100
AcDbEntity
  8
SEIHIN
100
AcDbLine
 10
567.3813647733222
 20
483.2771581301309
 30
0.0
 11
572.3813647733222
 21
480.7764222633308
 31
0.0
  0
LINE
  5
12FE
330
1A
100
AcDbEntity
  8
SEIHIN
  6
CONTINUOUS
 62
     3
100
AcDbLine
 10
567.3813647733222
 20
473.777158130131
 30
0.0
 11
572.3813647733222
 21
470.1626604357309
 31
0.0
  0
LINE
  5
12FF
330
1A
100
AcDbEntity
  8
SEIHIN
  6
CONTINUOUS
 62
     3
100
AcDbLine
 10
572.3813647733222
 20
484.647322955331
 30
0.0
 11
567.3813647733222
 21
483.2771581301309
 31
0.0
  0
LINE
  5
1300
330
1A
100
AcDbEntity
  8
SEIHIN
  6
CONTINUOUS
 62
     3
100
AcDbLine
 10
572.2004817407223
 20
495.596053823431
 30
0.0
 11
575.515158817825
 21
495.3738139544172
 31
0.0
  0
ARC
  5
1301
330
1A
100
AcDbEntity
  8
SEIHIN
  6
CONTINUOUS
 62
     3
100
AcDbCircle
 10
575.3813647733222
 20
493.3782941841179
 30
0.0
 40
2.0
100
AcDbArc
 50
0.0
 51
86.16421833788379
  0
LINE
  5
1302
330
1A
100
AcDbEntity
  8
SEIHIN
  6
CONTINUOUS
 62
     3
100
AcDbLine
 10
570.0813647733223
 20
497.5814104290309
 30
0.0
 11
572.2004817407223
 21
495.596053823431
 31
0.0
  0
LINE
  5
1303
330
1A
100
AcDbEntity
  8
SEIHIN
  6
CONTINUOUS
 62
     3
100
AcDbLine
 10
576.3813647733222
 20
501.4203115187309
 30
0.0
 11
576.3813647733222
 21
512.2771581301309
 31
0.0
  0
LINE
  5
1304
330
1A
100
AcDbEntity
  8
SEIHIN
  6
CONTINUOUS
 62
     3
100
AcDbLine
 10
570.0813647733223
 20
497.5814104290309
 30
0.0
 11
567.3813647733222
 21
497.5814104290309
 31
0.0
  0
ARC
  5
1305
330
1A
100
AcDbEntity
  8
SEIHIN
  6
CONTINUOUS
 62
     3
100
AcDbCircle
 10
574.3813647733222
 20
512.2771581301309
 30
0.0
 40
2.0
100
AcDbArc
 50
0.0
 51
90.0
  0
LINE
  5
1306
330
1A
100
AcDbEntity
  8
SEIHIN
  6
CONTINUOUS
 62
     3
100
AcDbLine
 10
597.1843301881222
 20
516.6181272233309
 30
0.0
 11
616.3813647733222
 21
515.4663051482309
 31
0.0
  0
LINE
  5
1307
330
1A
100
AcDbEntity
  8
SEIHIN
  6
CONTINUOUS
 62
     3
100
AcDbLine
 10
587.3813647733222
 20
469.977158130131
 30
0.0
 11
616.3813647733222
 21
469.977158130131
 31
0.0
  0
ARC
  5
1308
330
1A
100
AcDbEntity
  8
SEIHIN
  6
CONTINUOUS
 62
     3
100
AcDbCircle
 10
585.2058720425223
 20
316.977158130131
 30
0.0
 40
200.0
100
AcDbArc
 50
86.56636963749823
 51
90.0
  0
VIEWPORT
  5
22
330
17
100
AcDbEntity
 67
     1
  8
0
100
AcDbViewport
 10
313.6808219178082
 20
148.5
 30
0.0
 40
627.3616438356165
 41
297.0
 68
     2
 69
     1
1001
ACAD
1000
MVIEW
1002
{
1070
    16
1010
0.0
1020
0.0
1030
0.0
1010
0.0
1020
0.0
1030
1.0
1040
0.0
1040
297.0
1040
313.6808219178082
1040
148.5
1040
50.0
1040
0.0
1040
0.0
1070
     0
1070
   100
1070
     1
1070
     0
1070
     0
1070
     0
1070
     0
1070
     0
1040
0.0
1040
0.0
1040
0.0
1040
1.0
1040
1.0
1040
10.0
1040
10.0
1070
     0
1002
{
1002
}
1002
}
  0
VIEWPORT
  5
64
330
17
100
AcDbEntity
 67
     1
  8
VIEWPORT
100
AcDbViewport
 10
210.0
 20
148.5
 30
0.0
 40
420.0
 41
297.0
 68
     1
 69
     2
1001
ACAD
1000
MVIEW
1002
{
1070
    16
1010
0.0
1020
0.0
1030
0.0
1010
0.0
1020
0.0
1030
1.0
1040
0.0
1040
605.8799999999998
1040
420.0
1040
297.0
1040
50.0
1040
0.0
1040
0.0
1070
     0
1070
   100
1070
     1
1070
     0
1070
     0
1070
     0
1070
     0
1070
     0
1040
0.0
1040
0.0
1040
0.0
1040
10.0
1040
10.0
1040
0.0
1040
0.0
1070
     0
1002
{
1002
}
1002
}
  0
ENDSEC
  0
SECTION
  2
OBJECTS
  0
DICTIONARY
  5
C
330
0
100
AcDbDictionary
  3
ACAD_GROUP
350
D
  3
ACAD_LAYOUT
350
14C
  3
ACAD_MLINESTYLE
350
E
  3
ACAD_PLOTSETTINGS
350
14D
  3
ACAD_PLOTSTYLENAME
350
14A
  3
ACDBHEADERROUNDTRIPXREC
350
148D
  0
DICTIONARY
  5
CFB
330
1A
100
AcDbDictionary
280
     1
  3
ACAD_LAYOUTSELFREF
360
14AF
  0
DICTIONARY
  5
CF9
330
17
100
AcDbDictionary
280
     1
  3
ACAD_LAYOUTSELFREF
360
14AE
  0
DICTIONARY
  5
D
102
{ACAD_REACTORS
330
C
102
}
330
C
100
AcDbDictionary
  0
DICTIONARY
  5
14C
102
{ACAD_REACTORS
330
C
102
}
330
C
100
AcDbDictionary
  0
DICTIONARY
  5
E
102
{ACAD_REACTORS
330
C
102
}
330
C
100
AcDbDictionary
  3
STANDARD
350
13
  0
DICTIONARY
  5
14D
102
{ACAD_REACTORS
330
C
102
}
330
C
100
AcDbDictionary
  0
ACDBDICTIONARYWDFLT
  5
14A
102
{ACAD_REACTORS
330
C
102
}
330
C
100
AcDbDictionary
281
     1
  3
Normal
350
14B
100
AcDbDictionaryWithDefault
340
14B
1001
ACAD
1000
TREAT_AS_HARD
1070
     0
1000
TREAT_AS_HARD
1070
     0
  0
DICTIONARY
  5
148D
102
{ACAD_REACTORS
330
C
102
}
330
C
100
AcDbDictionary
  3
TSTACKALIGN
350
148E
  3
TSTACKSIZE
350
148F
  3
HYPERLINKBASE
350
1490
  3
STYLESHEET
350
1491
  3
LAYOUTDICT
350
1492
  3
PLOTSETDICT
350
1493
  3
PLOTSTYLNAMDICT
350
1494
  3
LWETCUNION
350
1495
  3
INSUNITS
350
1496
  3
CEPSNTYPE
350
1497
  3
FINGERPRINTGUID
350
1498
  3
VERSIONGUID
350
1499
  3
PSVPSCALE
350
149A
  3
DIMSTYLEDATA
350
149B
  3
PUCSORTHOREF
350
149C
  3
PUCSORTHOVIEW
350
149D
  3
PUCSBASE
350
149E
  3
PUCSORGTOP
350
149F
  3
PUCSORGBOTTOM
350
14A0
  3
PUCSORGLEFT
350
14A1
  3
PUCSORGRIGHT
350
14A2
  3
PUCSORGFRONT
350
14A3
  3
PUCSORGBACK
350
14A4
  3
UCSORTHOREF
350
14A5
  3
UCSORTHOVIEW
350
14A6
  3
UCSBASE
350
14A7
  3
UCSORGTOP
350
14A8
  3
UCSORGBOTTOM
350
14A9
  3
UCSORGLEFT
350
14AA
  3
UCSORGRIGHT
350
14AB
  3
UCSORGFRONT
350
14AC
  3
UCSORGBACK
350
14AD
  0
XRECORD
  5
14AF
102
{ACAD_REACTORS
330
CFB
102
}
330
CFB
100
AcDbXrecord
340
1A
  0
XRECORD
  5
14AE
102
{ACAD_REACTORS
330
CF9
102
}
330
CF9
100
AcDbXrecord
340
17
  0
MLINESTYLE
  5
13
102
{ACAD_REACTORS
330
E
102
}
330
E
100
AcDbMlineStyle
  2
STANDARD
 70
     0
  3

 62
     0
 51
90.0
 52
90.0
 71
     2
 49
0.5
 62
   256
  6
BYLAYER
 49
-0.5
 62
   256
  6
BYLAYER
  0
ACDBPLACEHOLDER
  5
14B
102
{ACAD_REACTORS
330
14A
102
}
330
14A
100
AcDbPlaceHolder
280
     0
  0
XRECORD
  5
148E
102
{ACAD_REACTORS
330
148D
102
}
330
148D
100
AcDbXrecord
 90
        1
  0
XRECORD
  5
148F
102
{ACAD_REACTORS
330
148D
102
}
330
148D
100
AcDbXrecord
 90
       70
  0
XRECORD
  5
1490
102
{ACAD_REACTORS
330
148D
102
}
330
148D
100
AcDbXrecord
  1

  0
XRECORD
  5
1491
102
{ACAD_REACTORS
330
148D
102
}
330
148D
100
AcDbXrecord
  1
systemprinter.ctb
  0
XRECORD
  5
1492
102
{ACAD_REACTORS
330
148D
102
}
330
148D
100
AcDbXrecord
340
14C
  0
XRECORD
  5
1493
102
{ACAD_REACTORS
330
148D
102
}
330
148D
100
AcDbXrecord
340
14D
  0
XRECORD
  5
1494
102
{ACAD_REACTORS
330
148D
102
}
330
148D
100
AcDbXrecord
340
14A
  0
XRECORD
  5
1495
102
{ACAD_REACTORS
330
148D
102
}
330
148D
100
AcDbXrecord
 90
    10781
  0
XRECORD
  5
1496
102
{ACAD_REACTORS
330
148D
102
}
330
148D
100
AcDbXrecord
 90
        0
  0
XRECORD
  5
1497
102
{ACAD_REACTORS
330
148D
102
}
330
148D
100
AcDbXrecord
 90
        0
  0
XRECORD
  5
1498
102
{ACAD_REACTORS
330
148D
102
}
330
148D
100
AcDbXrecord
  1
{75772F4A-CE5A-11D3-932C-444553540000}
  0
XRECORD
  5
1499
102
{ACAD_REACTORS
330
148D
102
}
330
148D
100
AcDbXrecord
  1
{7BC6E87E-6B2B-4DA1-83B1-F7412D46EC49}
  0
XRECORD
  5
149A
102
{ACAD_REACTORS
330
148D
102
}
330
148D
100
AcDbXrecord
 40
0.0
  0
XRECORD
  5
149B
102
{ACAD_REACTORS
330
148D
102
}
330
148D
100
AcDbXrecord
1000
DSTYLE
1002
{
1070
   341
340
6D
1070
   343
340
6D
1070
   344
340
6D
1070
   371
 70
    -1
1070
   372
 70
    -1
1002
}
  0
XRECORD
  5
149C
102
{ACAD_REACTORS
330
148D
102
}
330
148D
100
AcDbXrecord
340
0
  0
XRECORD
  5
149D
102
{ACAD_REACTORS
330
148D
102
}
330
148D
100
AcDbXrecord
 70
     0
  0
XRECORD
  5
149E
102
{ACAD_REACTORS
330
148D
102
}
330
148D
100
AcDbXrecord
340
0
  0
XRECORD
  5
149F
102
{ACAD_REACTORS
330
148D
102
}
330
148D
100
AcDbXrecord
 10
0.0
 20
0.0
 30
0.0
  0
XRECORD
  5
14A0
102
{ACAD_REACTORS
330
148D
102
}
330
148D
100
AcDbXrecord
 10
0.0
 20
0.0
 30
0.0
  0
XRECORD
  5
14A1
102
{ACAD_REACTORS
330
148D
102
}
330
148D
100
AcDbXrecord
 10
0.0
 20
0.0
 30
0.0
  0
XRECORD
  5
14A2
102
{ACAD_REACTORS
330
148D
102
}
330
148D
100
AcDbXrecord
 10
0.0
 20
0.0
 30
0.0
  0
XRECORD
  5
14A3
102
{ACAD_REACTORS
330
148D
102
}
330
148D
100
AcDbXrecord
 10
0.0
 20
0.0
 30
0.0
  0
XRECORD
  5
14A4
102
{ACAD_REACTORS
330
148D
102
}
330
148D
100
AcDbXrecord
 10
0.0
 20
0.0
 30
0.0
  0
XRECORD
  5
14A5
102
{ACAD_REACTORS
330
148D
102
}
330
148D
100
AcDbXrecord
340
0
  0
XRECORD
  5
14A6
102
{ACAD_REACTORS
330
148D
102
}
330
148D
100
AcDbXrecord
 70
     0
  0
XRECORD
  5
14A7
102
{ACAD_REACTORS
330
148D
102
}
330
148D
100
AcDbXrecord
340
0
  0
XRECORD
  5
14A8
102
{ACAD_REACTORS
330
148D
102
}
330
148D
100
AcDbXrecord
 10
0.0
 20
0.0
 30
0.0
  0
XRECORD
  5
14A9
102
{ACAD_REACTORS
330
148D
102
}
330
148D
100
AcDbXrecord
 10
0.0
 20
0.0
 30
0.0
  0
XRECORD
  5
14AA
102
{ACAD_REACTORS
330
148D
102
}
330
148D
100
AcDbXrecord
 10
0.0
 20
0.0
 30
0.0
  0
XRECORD
  5
14AB
102
{ACAD_REACTORS
330
148D
102
}
330
148D
100
AcDbXrecord
 10
0.0
 20
0.0
 30
0.0
  0
XRECORD
  5
14AC
102
{ACAD_REACTORS
330
148D
102
}
330
148D
100
AcDbXrecord
 10
0.0
 20
0.0
 30
0.0
  0
XRECORD
  5
14AD
102
{ACAD_REACTORS
330
148D
102
}
330
148D
100
AcDbXrecord
 10
0.0
 20
0.0
 30
0.0
  0
ENDSEC
  0
EOF
