  0
SECTION
  2
HEADER
  9
$ACADVER
  1
AC1014
  9
$ACADMAINTVER
 70
     9
  9
$DWGCODEPAGE
  3
ANSI_932
  9
$INSBASE
 10
0.0
 20
0.0
 30
0.0
  9
$EXTMIN
 10
-0.05126640194635
 20
-0.0362526699479986
 30
-0.0000000000000058
  9
$EXTMAX
 10
797.6628945888771
 20
551.6439420217511
 30
0.0000000000000104
  9
$LIMMIN
 10
0.0
 20
0.0
  9
$LIMMAX
 10
840.0
 20
594.0
  9
$ORTHOMODE
 70
     1
  9
$REGENMODE
 70
     1
  9
$FILLMODE
 70
     1
  9
$QTEXTMODE
 70
     0
  9
$MIRRTEXT
 70
     1
  9
$DRAGMODE
 70
     2
  9
$LTSCALE
 40
2.0
  9
$OSMODE
 70
    35
  9
$ATTMODE
 70
     1
  9
$TEXTSIZE
 40
5.0
  9
$TRACEWID
 40
1.0
  9
$TEXTSTYLE
  7
STANDARD
  9
$CLAYER
  8
SUNPOU
  9
$CELTYPE
  6
BYLAYER
  9
$CECOLOR
 62
   256
  9
$CELTSCALE
 40
1.0
  9
$DELOBJ
 70
     1
  9
$DISPSILH
 70
     0
  9
$DIMSCALE
 40
1.0
  9
$DIMASZ
 40
7.0
  9
$DIMEXO
 40
6.0
  9
$DIMDLI
 40
14.0
  9
$DIMRND
 40
0.0
  9
$DIMDLE
 40
0.0
  9
$DIMEXE
 40
3.0
  9
$DIMTP
 40
0.0
  9
$DIMTM
 40
0.0
  9
$DIMTXT
 40
6.0
  9
$DIMCEN
 40
150.0
  9
$DIMTSZ
 40
0.0
  9
$DIMTOL
 70
     0
  9
$DIMLIM
 70
     0
  9
$DIMTIH
 70
     0
  9
$DIMTOH
 70
     0
  9
$DIMSE1
 70
     0
  9
$DIMSE2
 70
     0
  9
$DIMTAD
 70
     3
  9
$DIMZIN
 70
     0
  9
$DIMBLK
  1

  9
$DIMASO
 70
     1
  9
$DIMSHO
 70
     1
  9
$DIMPOST
  1

  9
$DIMAPOST
  1

  9
$DIMALT
 70
     0
  9
$DIMALTD
 70
     2
  9
$DIMALTF
 40
25.4
  9
$DIMLFAC
 40
1.0
  9
$DIMTOFL
 70
     1
  9
$DIMTVP
 40
0.0
  9
$DIMTIX
 70
     0
  9
$DIMSOXD
 70
     0
  9
$DIMSAH
 70
     1
  9
$DIMBLK1
  1
OPEN
  9
$DIMBLK2
  1
OPEN
  9
$DIMSTYLE
  2
STANDARD
  9
$DIMCLRD
 70
   256
  9
$DIMCLRE
 70
   256
  9
$DIMCLRT
 70
   256
  9
$DIMTFAC
 40
1.0
  9
$DIMGAP
 40
2.0
  9
$DIMJUST
 70
     0
  9
$DIMSD1
 70
     0
  9
$DIMSD2
 70
     0
  9
$DIMTOLJ
 70
     1
  9
$DIMTZIN
 70
     0
  9
$DIMALTZ
 70
     0
  9
$DIMALTTZ
 70
     0
  9
$DIMFIT
 70
     3
  9
$DIMUPT
 70
     0
  9
$DIMUNIT
 70
     2
  9
$DIMDEC
 70
     0
  9
$DIMTDEC
 70
     0
  9
$DIMALTU
 70
     2
  9
$DIMALTTD
 70
     2
  9
$DIMTXSTY
  7
STANDARD
  9
$DIMAUNIT
 70
     0
  9
$LUNITS
 70
     2
  9
$LUPREC
 70
     4
  9
$SKETCHINC
 40
1.0
  9
$FILLETRAD
 40
2.0
  9
$AUNITS
 70
     0
  9
$AUPREC
 70
     0
  9
$MENU
  1
.
  9
$ELEVATION
 40
0.0
  9
$PELEVATION
 40
0.0
  9
$THICKNESS
 40
0.0
  9
$LIMCHECK
 70
     0
  9
$BLIPMODE
 70
     0
  9
$CHAMFERA
 40
20.0
  9
$CHAMFERB
 40
20.0
  9
$CHAMFERC
 40
40.0
  9
$CHAMFERD
 40
0.0
  9
$SKPOLY
 70
     0
  9
$TDCREATE
 40
2451159.834708796
  9
$TDUPDATE
 40
2453483.426976631
  9
$TDINDWG
 40
0.0499630671
  9
$TDUSRTIMER
 40
0.0499630671
  9
$USRTIMER
 70
     1
  9
$ANGBASE
 50
0.0
  9
$ANGDIR
 70
     0
  9
$PDMODE
 70
     0
  9
$PDSIZE
 40
0.0
  9
$PLINEWID
 40
0.0
  9
$COORDS
 70
     1
  9
$SPLFRAME
 70
     0
  9
$SPLINETYPE
 70
     6
  9
$SPLINESEGS
 70
     8
  9
$ATTDIA
 70
     0
  9
$ATTREQ
 70
     1
  9
$HANDLING
 70
 10241
  9
$HANDSEED
  5
91A
  9
$SURFTAB1
 70
     6
  9
$SURFTAB2
 70
     6
  9
$SURFTYPE
 70
     6
  9
$SURFU
 70
     6
  9
$SURFV
 70
     6
  9
$UCSNAME
  2

  9
$UCSORG
 10
0.0
 20
0.0
 30
0.0
  9
$UCSXDIR
 10
1.0
 20
0.0
 30
0.0
  9
$UCSYDIR
 10
0.0
 20
1.0
 30
0.0
  9
$PUCSNAME
  2

  9
$PUCSORG
 10
0.0
 20
0.0
 30
0.0
  9
$PUCSXDIR
 10
1.0
 20
0.0
 30
0.0
  9
$PUCSYDIR
 10
0.0
 20
1.0
 30
0.0
  9
$USERI1
 70
     0
  9
$USERI2
 70
     0
  9
$USERI3
 70
     0
  9
$USERI4
 70
     0
  9
$USERI5
 70
     0
  9
$USERR1
 40
0.0
  9
$USERR2
 40
0.0
  9
$USERR3
 40
0.0
  9
$USERR4
 40
0.0
  9
$USERR5
 40
0.0
  9
$WORLDVIEW
 70
     1
  9
$SHADEDGE
 70
     3
  9
$SHADEDIF
 70
    70
  9
$TILEMODE
 70
     1
  9
$MAXACTVP
 70
    16
  9
$PINSBASE
 10
0.0
 20
0.0
 30
0.0
  9
$PLIMCHECK
 70
     0
  9
$PEXTMIN
 10
0.0
 20
0.0
 30
0.0
  9
$PEXTMAX
 10
420.0
 20
297.0
 30
0.0
  9
$PLIMMIN
 10
0.0
 20
0.0
  9
$PLIMMAX
 10
420.0
 20
297.0
  9
$UNITMODE
 70
     0
  9
$VISRETAIN
 70
     0
  9
$PLINEGEN
 70
     0
  9
$PSLTSCALE
 70
     1
  9
$TREEDEPTH
 70
  3020
  9
$PICKSTYLE
 70
     1
  9
$CMLSTYLE
  2
STANDARD
  9
$CMLJUST
 70
     0
  9
$CMLSCALE
 40
1.0
  9
$PROXYGRAPHICS
 70
     1
  9
$MEASUREMENT
 70
     1
  0
ENDSEC
  0
SECTION
  2
CLASSES
  0
CLASS
  1
ACDBDICTIONARYWDFLT
  2
AcDbDictionaryWithDefault
  3
AutoCAD 2000
 90
        0
280
     0
281
     0
  0
CLASS
  1
ACDBPLACEHOLDER
  2
AcDbPlaceHolder
  3
AutoCAD 2000
 90
        0
280
     0
281
     0
  0
CLASS
  1
LAYOUT
  2
AcDbLayout
  3
AutoCAD 2000
 90
        0
280
     0
281
     0
  0
CLASS
  1
LONG_TRANSACTION
  2
AcDbLongTransaction
  3
AutoCAD 2000
 90
        0
280
     0
281
     0
  0
CLASS
  1
LWPOLYLINE
  2
AcDbPolyline
  3
AutoCAD 2000
 90
        0
280
     0
281
     1
  0
CLASS
  1
HATCH
  2
AcDbHatch
  3
AutoCAD 2000
 90
        0
280
     0
281
     1
  0
CLASS
  1
XRECORD
  2
AcDbXrecord
  3
AutoCAD 2000
 90
        0
280
     0
281
     0
  0
CLASS
  1
LONG_TRANSACTION
  2
AcDbLongTransaction
  3
AutoCAD 2000
 90
        0
280
     0
281
     0
  0
CLASS
  1
LWPOLYLINE
  2
AcDbPolyline
  3
AutoCAD 2000
 90
        0
280
     0
281
     1
  0
CLASS
  1
HATCH
  2
AcDbHatch
  3
AutoCAD 2000
 90
        0
280
     0
281
     1
  0
CLASS
  1
XRECORD
  2
AcDbXrecord
  3
AutoCAD 2000
 90
        0
280
     0
281
     0
  0
CLASS
  1
LONG_TRANSACTION
  2
AcDbLongTransaction
  3
AutoCAD 2000
 90
        0
280
     0
281
     0
  0
CLASS
  1
LWPOLYLINE
  2
AcDbPolyline
  3
AutoCAD 2000
 90
        0
280
     0
281
     1
  0
CLASS
  1
HATCH
  2
AcDbHatch
  3
AutoCAD 2000
 90
        0
280
     0
281
     1
  0
CLASS
  1
XRECORD
  2
AcDbXrecord
  3
AutoCAD 2000
 90
        0
280
     0
281
     0
  0
ENDSEC
  0
SECTION
  2
TABLES
  0
TABLE
  2
VPORT
  5
8
330
0
100
AcDbSymbolTable
 70
     2
  0
VPORT
  5
8F6
330
8
100
AcDbSymbolTableRecord
100
AcDbViewportTableRecord
  2
*ACTIVE
 70
     0
 10
0.0
 20
0.0
 11
1.0
 21
1.0
 12
414.4364079357158
 22
282.5589201948472
 13
0.0
 23
0.0
 14
5.0
 24
5.0
 15
0.0
 25
0.0
 16
0.0
 26
0.0
 36
1.0
 17
0.0
 27
0.0
 37
0.0
 40
600.5939729976956
 41
1.752310536044362
 42
50.0
 43
0.0
 44
0.0
 50
0.0
 51
0.0
 71
     0
 72
   100
 73
     1
 74
     0
 75
     0
 76
     0
 77
     0
 78
     0
  0
ENDTAB
  0
TABLE
  2
LTYPE
  5
5
330
0
100
AcDbSymbolTable
 70
     2
  0
LTYPE
  5
14
330
5
100
AcDbSymbolTableRecord
100
AcDbLinetypeTableRecord
  2
BYBLOCK
 70
     0
  3

 72
    65
 73
     0
 40
0.0
  0
LTYPE
  5
15
330
5
100
AcDbSymbolTableRecord
100
AcDbLinetypeTableRecord
  2
BYLAYER
 70
     0
  3

 72
    65
 73
     0
 40
0.0
  0
LTYPE
  5
16
330
5
100
AcDbSymbolTableRecord
100
AcDbLinetypeTableRecord
  2
CONTINUOUS
 70
     0
  3
Solid line
 72
    65
 73
     0
 40
0.0
  0
LTYPE
  5
135
330
5
100
AcDbSymbolTableRecord
100
AcDbLinetypeTableRecord
  2
CENTER
 70
     0
  3
____ _ ____ _ ____ _ ____ _ ____ _ ____ _ ____ 
 72
    65
 73
     4
 40
2.0
 49
1.25
 74
     0
 49
-0.25
 74
     0
 49
0.25
 74
     0
 49
-0.25
 74
     0
  0
ENDTAB
  0
TABLE
  2
LAYER
  5
2
330
0
100
AcDbSymbolTable
 70
     8
  0
LAYER
  5
F
330
2
100
AcDbSymbolTableRecord
100
AcDbLayerTableRecord
  2
0
 70
     0
 62
     7
  6
CONTINUOUS
  0
LAYER
  5
62
330
2
100
AcDbSymbolTableRecord
100
AcDbLayerTableRecord
  2
VIEWPORT
 70
     0
 62
     7
  6
CONTINUOUS
  0
LAYER
  5
65
330
2
100
AcDbSymbolTableRecord
100
AcDbLayerTableRecord
  2
ZUWAKU
 70
     0
 62
     7
  6
CONTINUOUS
  0
LAYER
  5
144
330
2
100
AcDbSymbolTableRecord
100
AcDbLayerTableRecord
  2
SEIHIN
 70
     0
 62
     3
  6
CONTINUOUS
  0
LAYER
  5
2B4
330
2
100
AcDbSymbolTableRecord
100
AcDbLayerTableRecord
  2
SUNPOU
 70
     0
 62
     4
  6
CONTINUOUS
  0
LAYER
  5
2B5
330
2
100
AcDbSymbolTableRecord
100
AcDbLayerTableRecord
  2
CENTER_L
 70
     0
 62
     1
  6
CENTER
  0
LAYER
  5
43A
330
2
100
AcDbSymbolTableRecord
100
AcDbLayerTableRecord
  2
DEFPOINTS
 70
     0
 62
     7
  6
CONTINUOUS
  0
LAYER
  5
764
330
2
100
AcDbSymbolTableRecord
100
AcDbLayerTableRecord
  2
MOJI
 70
     0
 62
     2
  6
CONTINUOUS
  0
ENDTAB
  0
TABLE
  2
STYLE
  5
3
330
0
100
AcDbSymbolTable
 70
     2
  0
STYLE
  5
10
330
3
100
AcDbSymbolTableRecord
100
AcDbTextStyleTableRecord
  2
STANDARD
 70
     0
 40
0.0
 41
1.0
 50
0.0
 71
     0
 42
5.0
  3
TXT
  4
A:\Program Files\AutoCAD LT\ms\bigfont.shx
  0
STYLE
  5
765
330
3
100
AcDbSymbolTableRecord
100
AcDbTextStyleTableRecord
  2
ｽﾀｲﾙ1
 70
     0
 40
0.0
 41
1.0
 50
0.0
 71
     0
 42
2.5
  3
MS PGothic.ttf
  4

1001
ACAD
1000
MS PGothic
1071
    32818
  0
ENDTAB
  0
TABLE
  2
VIEW
  5
6
330
0
100
AcDbSymbolTable
 70
     0
  0
ENDTAB
  0
TABLE
  2
UCS
  5
7
330
0
100
AcDbSymbolTable
 70
     0
  0
ENDTAB
  0
TABLE
  2
APPID
  5
9
330
0
100
AcDbSymbolTable
 70
     1
  0
APPID
  5
11
330
9
100
AcDbSymbolTableRecord
100
AcDbRegAppTableRecord
  2
ACAD
 70
     0
  0
ENDTAB
  0
TABLE
  2
DIMSTYLE
  5
A
330
0
100
AcDbSymbolTable
 70
     1
  0
DIMSTYLE
105
1D
102
{ACAD_REACTORS
330
459
330
467
330
474
330
481
330
49D
330
4C4
330
525
102
}
330
A
100
AcDbSymbolTableRecord
100
AcDbDimStyleTableRecord
  2
STANDARD
 70
     0
  3

  4

  5

  6

  7

 40
1.0
 41
0.18
 42
0.0625
 43
0.38
 44
0.18
 45
0.0
 46
0.0
 47
0.0
 48
0.0
140
0.18
141
0.09
142
0.0
143
25.4
144
1.0
145
0.0
146
1.0
147
0.09
 71
     0
 72
     0
 73
     1
 74
     1
 75
     0
 76
     0
 77
     0
 78
     0
170
     0
171
     2
172
     0
173
     0
174
     0
175
     0
176
     0
177
     0
178
     0
270
     2
271
     4
272
     4
273
     2
274
     2
340
10
275
     0
280
     0
281
     0
282
     0
283
     1
284
     0
285
     0
286
     0
287
     3
288
     0
  0
ENDTAB
  0
TABLE
  2
BLOCK_RECORD
  5
1
330
0
100
AcDbSymbolTable
 70
     8
  0
BLOCK_RECORD
  5
1A
102
{ACAD_XDICTIONARY
360
6C6
102
}
330
1
100
AcDbSymbolTableRecord
100
AcDbBlockTableRecord
  2
*MODEL_SPACE
  0
BLOCK_RECORD
  5
17
102
{ACAD_XDICTIONARY
360
6C4
102
}
330
1
100
AcDbSymbolTableRecord
100
AcDbBlockTableRecord
  2
*PAPER_SPACE
  0
BLOCK_RECORD
  5
6D
330
1
100
AcDbSymbolTableRecord
100
AcDbBlockTableRecord
  2
_OPEN
  0
BLOCK_RECORD
  5
44D
330
1
100
AcDbSymbolTableRecord
100
AcDbBlockTableRecord
  2
*D1
  0
BLOCK_RECORD
  5
45B
330
1
100
AcDbSymbolTableRecord
100
AcDbBlockTableRecord
  2
*D2
  0
BLOCK_RECORD
  5
468
330
1
100
AcDbSymbolTableRecord
100
AcDbBlockTableRecord
  2
*D3
  0
BLOCK_RECORD
  5
475
330
1
100
AcDbSymbolTableRecord
100
AcDbBlockTableRecord
  2
*D4
  0
BLOCK_RECORD
  5
491
330
1
100
AcDbSymbolTableRecord
100
AcDbBlockTableRecord
  2
*D5
  0
BLOCK_RECORD
  5
4B8
330
1
100
AcDbSymbolTableRecord
100
AcDbBlockTableRecord
  2
*D6
  0
BLOCK_RECORD
  5
519
330
1
100
AcDbSymbolTableRecord
100
AcDbBlockTableRecord
  2
*D7
  0
ENDTAB
  0
ENDSEC
  0
SECTION
  2
BLOCKS
  0
BLOCK
  5
1B
330
1A
100
AcDbEntity
  8
0
100
AcDbBlockBegin
  2
*MODEL_SPACE
 70
     0
 10
0.0
 20
0.0
 30
0.0
  3
*MODEL_SPACE
  1

  0
ENDBLK
  5
1C
330
1A
100
AcDbEntity
  8
0
100
AcDbBlockEnd
  0
BLOCK
  5
18
330
17
100
AcDbEntity
 67
     1
  8
0
100
AcDbBlockBegin
  2
*PAPER_SPACE
 70
     0
 10
0.0
 20
0.0
 30
0.0
  3
*PAPER_SPACE
  1

  0
ENDBLK
  5
19
330
17
100
AcDbEntity
 67
     1
  8
0
100
AcDbBlockEnd
  0
BLOCK
  5
6E
330
6D
100
AcDbEntity
  8
0
100
AcDbBlockBegin
  2
_OPEN
 70
     0
 10
0.0
 20
0.0
 30
0.0
  3
_OPEN
  1

  0
LINE
  5
6F
330
6D
100
AcDbEntity
  8
0
  6
BYBLOCK
 62
     0
100
AcDbLine
 10
-1.0
 20
0.1666666666666666
 30
0.0
 11
0.0
 21
0.0
 31
0.0
  0
LINE
  5
70
330
6D
100
AcDbEntity
  8
0
  6
BYBLOCK
 62
     0
100
AcDbLine
 10
0.0
 20
0.0
 30
0.0
 11
-1.0
 21
-0.1666666666666666
 31
0.0
  0
LINE
  5
71
330
6D
100
AcDbEntity
  8
0
  6
BYBLOCK
 62
     0
100
AcDbLine
 10
0.0
 20
0.0
 30
0.0
 11
-1.0
 21
0.0
 31
0.0
  0
ENDBLK
  5
72
330
6D
100
AcDbEntity
  8
0
100
AcDbBlockEnd
  0
BLOCK
  5
44E
330
44D
100
AcDbEntity
  8
0
100
AcDbBlockBegin
  2
*D1
 70
     1
 10
0.0
 20
0.0
 30
0.0
  3
*D1
  1

  0
LINE
  5
6CE
330
44D
100
AcDbEntity
  8
SUNPOU
100
AcDbLine
 10
499.0998167638574
 20
76.11713139041467
 30
0.0
 11
535.1123499820592
 21
76.11713139041467
 31
0.0
  0
LINE
  5
6CF
330
44D
100
AcDbEntity
  8
SUNPOU
100
AcDbLine
 10
495.9040691400355
 20
150.7852882380496
 30
0.0
 11
535.1123499820592
 21
150.7852882380496
 31
0.0
  0
LINE
  5
6D0
330
44D
100
AcDbEntity
  8
SUNPOU
100
AcDbLine
 10
532.1123499820592
 20
83.11713139041467
 30
0.0
 11
532.1123499820592
 21
143.7852882380496
 31
0.0
  0
INSERT
  5
6D1
330
44D
100
AcDbEntity
  8
SUNPOU
100
AcDbBlockReference
  2
_OPEN
 10
532.1123499820592
 20
76.11713139041467
 30
0.0
 41
7.0
 42
7.0
 43
7.0
 50
270.0
  0
INSERT
  5
6D2
330
44D
100
AcDbEntity
  8
SUNPOU
100
AcDbBlockReference
  2
_OPEN
 10
532.1123499820592
 20
150.7852882380496
 30
0.0
 41
7.0
 42
7.0
 43
7.0
 50
90.0
  0
MTEXT
  5
6D3
330
44D
100
AcDbEntity
  8
SUNPOU
100
AcDbMText
 10
527.1123499820592
 20
113.4512098142322
 30
0.0
 40
6.0
 41
0.0
 71
     5
 72
     5
  1
\A1;75
 11
0.0000000000000001
 21
1.0
 31
0.0
1001
ACAD
1000
MTEXTBEGIN
1070
    73
1070
     1
1070
    44
1040
1.0
1070
    74
1070
     0
1000
MTEXTEND
1000
MTEXTBEGIN
1070
    73
1070
     1
1070
    44
1040
1.0
1070
    74
1070
     0
1000
MTEXTEND
  0
POINT
  5
6D4
330
44D
100
AcDbEntity
  8
DEFPOINTS
 62
     0
100
AcDbPoint
 10
493.0998167638574
 20
76.11713139041467
 30
0.0
  0
POINT
  5
6D5
330
44D
100
AcDbEntity
  8
DEFPOINTS
 62
     0
100
AcDbPoint
 10
489.9040691400355
 20
150.7852882380496
 30
0.0
  0
POINT
  5
6D6
330
44D
100
AcDbEntity
  8
DEFPOINTS
 62
     0
100
AcDbPoint
 10
532.1123499820592
 20
150.7852882380496
 30
0.0
  0
ENDBLK
  5
458
330
44D
100
AcDbEntity
  8
0
100
AcDbBlockEnd
  0
BLOCK
  5
45C
330
45B
100
AcDbEntity
  8
0
100
AcDbBlockBegin
  2
*D2
 70
     1
 10
0.0
 20
0.0
 30
0.0
  3
*D2
  1

  0
LINE
  5
6D7
330
45B
100
AcDbEntity
  8
SUNPOU
100
AcDbLine
 10
269.4389523627356
 20
191.4188626639496
 30
0.0
 11
226.516762424846
 21
191.4188626639496
 31
0.0
  0
LINE
  5
6D8
330
45B
100
AcDbEntity
  8
SUNPOU
100
AcDbLine
 10
269.4389523627356
 20
74.88528789034962
 30
0.0
 11
226.516762424846
 21
74.88528789034962
 31
0.0
  0
LINE
  5
6D9
330
45B
100
AcDbEntity
  8
SUNPOU
100
AcDbLine
 10
229.5167624248461
 20
184.4188626639495
 30
0.0
 11
229.5167624248461
 21
81.88528789034961
 31
0.0
  0
INSERT
  5
6DA
330
45B
100
AcDbEntity
  8
SUNPOU
100
AcDbBlockReference
  2
_OPEN
 10
229.5167624248461
 20
191.4188626639496
 30
0.0
 41
7.0
 42
7.0
 43
7.0
 50
90.0
  0
INSERT
  5
6DB
330
45B
100
AcDbEntity
  8
SUNPOU
100
AcDbBlockReference
  2
_OPEN
 10
229.5167624248461
 20
74.88528789034962
 30
0.0
 41
7.0
 42
7.0
 43
7.0
 50
270.0
  0
MTEXT
  5
6DC
330
45B
100
AcDbEntity
  8
SUNPOU
100
AcDbMText
 10
224.516762424846
 20
133.1520752771496
 30
0.0
 40
6.0
 41
0.0
 71
     5
 72
     5
  1
\A1;117
 11
0.0000000000000001
 21
1.0
 31
0.0
1001
ACAD
1000
MTEXTBEGIN
1070
    73
1070
     1
1070
    44
1040
1.0
1070
    74
1070
     0
1000
MTEXTEND
1000
MTEXTBEGIN
1070
    73
1070
     1
1070
    44
1040
1.0
1070
    74
1070
     0
1000
MTEXTEND
  0
POINT
  5
6DD
330
45B
100
AcDbEntity
  8
DEFPOINTS
 62
     0
100
AcDbPoint
 10
275.4389523627356
 20
191.4188626639496
 30
0.0
  0
POINT
  5
6DE
330
45B
100
AcDbEntity
  8
DEFPOINTS
 62
     0
100
AcDbPoint
 10
275.4389523627356
 20
74.88528789034962
 30
0.0
  0
POINT
  5
6DF
330
45B
100
AcDbEntity
  8
DEFPOINTS
 62
     0
100
AcDbPoint
 10
229.5167624248461
 20
74.88528789034962
 30
0.0
  0
ENDBLK
  5
466
330
45B
100
AcDbEntity
  8
0
100
AcDbBlockEnd
  0
BLOCK
  5
469
330
468
100
AcDbEntity
  8
0
100
AcDbBlockBegin
  2
*D3
 70
     1
 10
0.0
 20
0.0
 30
0.0
  3
*D3
  1

  0
LINE
  5
6E0
330
468
100
AcDbEntity
  8
SUNPOU
100
AcDbLine
 10
345.4574025625355
 20
178.7287071912496
 30
0.0
 11
345.4574025625355
 21
228.9254492541722
 31
0.0
  0
LINE
  5
6E1
330
468
100
AcDbEntity
  8
SUNPOU
100
AcDbLine
 10
496.4001237034572
 20
151.5478878092355
 30
0.0
 11
496.4001237034572
 21
228.9254492541722
 31
0.0
  0
LINE
  5
6E2
330
468
100
AcDbEntity
  8
SUNPOU
100
AcDbLine
 10
352.4574025625355
 20
225.9254492541722
 30
0.0
 11
489.4001237034573
 21
225.9254492541722
 31
0.0
  0
INSERT
  5
6E3
330
468
100
AcDbEntity
  8
SUNPOU
100
AcDbBlockReference
  2
_OPEN
 10
345.4574025625355
 20
225.9254492541722
 30
0.0
 41
7.0
 42
7.0
 43
7.0
 50
180.0
  0
INSERT
  5
6E4
330
468
100
AcDbEntity
  8
SUNPOU
100
AcDbBlockReference
  2
_OPEN
 10
496.4001237034572
 20
225.9254492541722
 30
0.0
 41
7.0
 42
7.0
 43
7.0
  0
MTEXT
  5
6E5
330
468
100
AcDbEntity
  8
SUNPOU
100
AcDbMText
 10
420.9287631329964
 20
230.9254492541722
 30
0.0
 40
6.0
 41
0.0
 71
     5
 72
     5
  1
\A1;151
1001
ACAD
1000
MTEXTBEGIN
1070
    73
1070
     1
1070
    44
1040
1.0
1070
    74
1070
     0
1000
MTEXTEND
1000
MTEXTBEGIN
1070
    73
1070
     1
1070
    44
1040
1.0
1070
    74
1070
     0
1000
MTEXTEND
  0
POINT
  5
6E6
330
468
100
AcDbEntity
  8
DEFPOINTS
 62
     0
100
AcDbPoint
 10
345.4574025625355
 20
172.7287071912496
 30
0.0
  0
POINT
  5
6E7
330
468
100
AcDbEntity
  8
DEFPOINTS
 62
     0
100
AcDbPoint
 10
496.4001237034572
 20
145.5478878092355
 30
0.0
  0
POINT
  5
6E8
330
468
100
AcDbEntity
  8
DEFPOINTS
 62
     0
100
AcDbPoint
 10
496.4001237034572
 20
225.9254492541722
 30
0.0
  0
ENDBLK
  5
473
330
468
100
AcDbEntity
  8
0
100
AcDbBlockEnd
  0
BLOCK
  5
476
330
475
100
AcDbEntity
  8
0
100
AcDbBlockBegin
  2
*D4
 70
     1
 10
0.0
 20
0.0
 30
0.0
  3
*D4
  1

  0
LINE
  5
6E9
330
475
100
AcDbEntity
  8
SUNPOU
100
AcDbLine
 10
275.4389523627356
 20
197.4188626639495
 30
0.0
 11
275.4389523627356
 21
245.9483163333863
 31
0.0
  0
LINE
  5
6EA
330
475
100
AcDbEntity
  8
SUNPOU
100
AcDbLine
 10
496.4001237034355
 20
151.5478878092496
 30
0.0
 11
496.4001237034355
 21
245.9483163333863
 31
0.0
  0
LINE
  5
6EB
330
475
100
AcDbEntity
  8
SUNPOU
100
AcDbLine
 10
282.4389523627356
 20
242.9483163333864
 30
0.0
 11
489.4001237034355
 21
242.9483163333864
 31
0.0
  0
INSERT
  5
6EC
330
475
100
AcDbEntity
  8
SUNPOU
100
AcDbBlockReference
  2
_OPEN
 10
275.4389523627356
 20
242.9483163333864
 30
0.0
 41
7.0
 42
7.0
 43
7.0
 50
180.0
  0
INSERT
  5
6ED
330
475
100
AcDbEntity
  8
SUNPOU
100
AcDbBlockReference
  2
_OPEN
 10
496.4001237034355
 20
242.9483163333864
 30
0.0
 41
7.0
 42
7.0
 43
7.0
  0
MTEXT
  5
6EE
330
475
100
AcDbEntity
  8
SUNPOU
100
AcDbMText
 10
385.9195380330855
 20
247.9483163333863
 30
0.0
 40
6.0
 41
0.0
 71
     5
 72
     5
  1
\A1;221
1001
ACAD
1000
MTEXTBEGIN
1070
    73
1070
     1
1070
    44
1040
1.0
1070
    74
1070
     0
1000
MTEXTEND
1000
MTEXTBEGIN
1070
    73
1070
     1
1070
    44
1040
1.0
1070
    74
1070
     0
1000
MTEXTEND
  0
POINT
  5
6EF
330
475
100
AcDbEntity
  8
DEFPOINTS
 62
     0
100
AcDbPoint
 10
275.4389523627356
 20
191.4188626639496
 30
0.0
  0
POINT
  5
6F0
330
475
100
AcDbEntity
  8
DEFPOINTS
 62
     0
100
AcDbPoint
 10
496.4001237034355
 20
145.5478878092496
 30
0.0
  0
POINT
  5
6F1
330
475
100
AcDbEntity
  8
DEFPOINTS
 62
     0
100
AcDbPoint
 10
496.4001237034355
 20
242.9483163333864
 30
0.0
  0
ENDBLK
  5
480
330
475
100
AcDbEntity
  8
0
100
AcDbBlockEnd
  0
BLOCK
  5
4EC
330
491
100
AcDbEntity
  8
0
100
AcDbBlockBegin
  2
*D5
 70
     1
 10
0.0
 20
0.0
 30
0.0
  3
*D5
  1

  0
LINE
  5
832
330
491
100
AcDbEntity
  8
SUNPOU
100
AcDbLine
 10
500.9057627797355
 20
285.4535386454084
 30
0.0
 11
535.1123499820592
 21
285.4535386454084
 31
0.0
  0
LINE
  5
833
330
491
100
AcDbEntity
  8
SUNPOU
100
AcDbLine
 10
497.2428317373355
 20
329.4535386454085
 30
0.0
 11
535.1123499820592
 21
329.4535386454085
 31
0.0
  0
LINE
  5
834
330
491
100
AcDbEntity
  8
SUNPOU
100
AcDbLine
 10
532.1123499820592
 20
292.4535386454085
 30
0.0
 11
532.1123499820592
 21
322.4535386454085
 31
0.0
  0
INSERT
  5
835
330
491
100
AcDbEntity
  8
SUNPOU
100
AcDbBlockReference
  2
_OPEN
 10
532.1123499820592
 20
285.4535386454084
 30
0.0
 41
7.0
 42
7.0
 43
7.0
 50
270.0
  0
INSERT
  5
836
330
491
100
AcDbEntity
  8
SUNPOU
100
AcDbBlockReference
  2
_OPEN
 10
532.1123499820592
 20
329.4535386454085
 30
0.0
 41
7.0
 42
7.0
 43
7.0
 50
90.0
  0
MTEXT
  5
837
330
491
100
AcDbEntity
  8
SUNPOU
100
AcDbMText
 10
527.112349982059
 20
307.4535386454085
 30
0.0
 40
6.0
 41
0.0
 71
     5
 72
     1
  1
\A1;※44
 11
0.0000000000000001
 21
1.0
 31
0.0
1001
ACAD
1000
MTEXTBEGIN
1070
    73
1070
     1
1070
    44
1040
1.0
1070
    74
1070
     0
1000
MTEXTEND
  0
POINT
  5
838
330
491
100
AcDbEntity
  8
DEFPOINTS
 62
     0
100
AcDbPoint
 10
494.9057627797355
 20
285.4535386454084
 30
0.0
  0
POINT
  5
839
330
491
100
AcDbEntity
  8
DEFPOINTS
 62
     0
100
AcDbPoint
 10
491.2428317373355
 20
329.4535386454085
 30
0.0
  0
POINT
  5
83A
330
491
100
AcDbEntity
  8
DEFPOINTS
 62
     0
100
AcDbPoint
 10
532.1123499820592
 20
329.4535386454085
 30
0.0
  0
ENDBLK
  5
4F6
330
491
100
AcDbEntity
  8
0
100
AcDbBlockEnd
  0
BLOCK
  5
4B9
330
4B8
100
AcDbEntity
  8
0
100
AcDbBlockBegin
  2
*D6
 70
     1
 10
0.0
 20
0.0
 30
0.0
  3
*D6
  1

  0
LINE
  5
829
330
4B8
100
AcDbEntity
  8
SUNPOU
100
AcDbLine
 10
300.4335620609355
 20
506.4203490624083
 30
0.0
 11
209.8719862648377
 21
506.4203490624083
 31
0.0
  0
LINE
  5
82A
330
4B8
100
AcDbEntity
  8
SUNPOU
100
AcDbLine
 10
340.9498053447356
 20
285.4535386454084
 30
0.0
 11
209.8719862648376
 21
285.4535386454084
 31
0.0
  0
LINE
  5
82B
330
4B8
100
AcDbEntity
  8
SUNPOU
100
AcDbLine
 10
212.8719862648377
 20
499.4203490624084
 30
0.0
 11
212.8719862648376
 21
292.4535386454085
 31
0.0
  0
INSERT
  5
82C
330
4B8
100
AcDbEntity
  8
SUNPOU
100
AcDbBlockReference
  2
_OPEN
 10
212.8719862648377
 20
506.4203490624083
 30
0.0
 41
7.0
 42
7.0
 43
7.0
 50
90.0
  0
INSERT
  5
82D
330
4B8
100
AcDbEntity
  8
SUNPOU
100
AcDbBlockReference
  2
_OPEN
 10
212.8719862648376
 20
285.4535386454084
 30
0.0
 41
7.0
 42
7.0
 43
7.0
 50
270.0
  0
MTEXT
  5
82E
330
4B8
100
AcDbEntity
  8
SUNPOU
100
AcDbMText
 10
207.8719862648376
 20
395.9369438539084
 30
0.0
 40
6.0
 41
0.0
 71
     5
 72
     1
  1
\A1;221
 11
0.0000000000000001
 21
1.0
 31
0.0
1001
ACAD
1000
MTEXTBEGIN
1070
    73
1070
     1
1070
    44
1040
1.0
1070
    74
1070
     0
1000
MTEXTEND
  0
POINT
  5
82F
330
4B8
100
AcDbEntity
  8
DEFPOINTS
 62
     0
100
AcDbPoint
 10
306.4335620609355
 20
506.4203490624083
 30
0.0
  0
POINT
  5
830
330
4B8
100
AcDbEntity
  8
DEFPOINTS
 62
     0
100
AcDbPoint
 10
346.9498053447356
 20
285.4535386454084
 30
0.0
  0
POINT
  5
831
330
4B8
100
AcDbEntity
  8
DEFPOINTS
 62
     0
100
AcDbPoint
 10
212.8719862648376
 20
285.4535386454084
 30
0.0
  0
ENDBLK
  5
4C3
330
4B8
100
AcDbEntity
  8
0
100
AcDbBlockEnd
  0
BLOCK
  5
51A
330
519
100
AcDbEntity
  8
0
100
AcDbBlockBegin
  2
*D7
 70
     1
 10
0.0
 20
0.0
 30
0.0
  3
*D7
  1

  0
LINE
  5
820
330
519
100
AcDbEntity
  8
SUNPOU
100
AcDbLine
 10
300.4335620609355
 20
506.4203490624083
 30
0.0
 11
228.4797692142779
 21
506.4203490624083
 31
0.0
  0
LINE
  5
821
330
519
100
AcDbEntity
  8
SUNPOU
100
AcDbLine
 10
317.3678845509355
 20
355.4535386454085
 30
0.0
 11
228.4797692142778
 21
355.4535386454085
 31
0.0
  0
LINE
  5
822
330
519
100
AcDbEntity
  8
SUNPOU
100
AcDbLine
 10
231.4797692142779
 20
499.4203490624084
 30
0.0
 11
231.4797692142779
 21
362.4535386454085
 31
0.0
  0
INSERT
  5
823
330
519
100
AcDbEntity
  8
SUNPOU
100
AcDbBlockReference
  2
_OPEN
 10
231.4797692142779
 20
506.4203490624083
 30
0.0
 41
7.0
 42
7.0
 43
7.0
 50
90.0
  0
INSERT
  5
824
330
519
100
AcDbEntity
  8
SUNPOU
100
AcDbBlockReference
  2
_OPEN
 10
231.4797692142779
 20
355.4535386454085
 30
0.0
 41
7.0
 42
7.0
 43
7.0
 50
270.0
  0
MTEXT
  5
825
330
519
100
AcDbEntity
  8
SUNPOU
100
AcDbMText
 10
226.4797692142778
 20
430.9369438539085
 30
0.0
 40
6.0
 41
0.0
 71
     5
 72
     1
  1
\A1;151
 11
0.0000000000000001
 21
1.0
 31
0.0
1001
ACAD
1000
MTEXTBEGIN
1070
    73
1070
     1
1070
    44
1040
1.0
1070
    74
1070
     0
1000
MTEXTEND
  0
POINT
  5
826
330
519
100
AcDbEntity
  8
DEFPOINTS
 62
     0
100
AcDbPoint
 10
306.4335620609355
 20
506.4203490624083
 30
0.0
  0
POINT
  5
827
330
519
100
AcDbEntity
  8
DEFPOINTS
 62
     0
100
AcDbPoint
 10
323.3678845509355
 20
355.4535386454085
 30
0.0
  0
POINT
  5
828
330
519
100
AcDbEntity
  8
DEFPOINTS
 62
     0
100
AcDbPoint
 10
231.4797692142779
 20
355.4535386454085
 30
0.0
  0
ENDBLK
  5
524
330
519
100
AcDbEntity
  8
0
100
AcDbBlockEnd
  0
ENDSEC
  0
SECTION
  2
ENTITIES
  0
LINE
  5
2B8
330
1A
100
AcDbEntity
  8
SEIHIN
  6
CONTINUOUS
 62
     3
100
AcDbLine
 10
443.4125798048355
 20
74.88528789034962
 30
0.0
 11
294.6359869480356
 21
74.88528789034962
 31
0.0
  0
ARC
  5
2B9
330
1A
100
AcDbEntity
  8
SEIHIN
  6
CONTINUOUS
 62
     3
100
AcDbCircle
 10
443.4125798048355
 20
1077.585287890349
 30
0.0
 40
998.45
100
AcDbArc
 50
267.314807352
 51
269.4261431472999
  0
ARC
  5
2BA
330
1A
100
AcDbEntity
  8
SEIHIN
  6
CONTINUOUS
 62
     3
100
AcDbCircle
 10
443.4125798048355
 20
1077.585287890349
 30
0.0
 40
995.7499999999999
100
AcDbArc
 50
267.314807352
 51
269.4245870685
  0
ARC
  5
2BB
330
1A
100
AcDbEntity
  8
SEIHIN
  6
CONTINUOUS
 62
     3
100
AcDbCircle
 10
423.4125798048355
 20
1077.585287890349
 30
0.0
 40
1002.7
100
AcDbArc
 50
267.2057870799
 51
270.5714244474862
  0
ARC
  5
2BC
330
1A
100
AcDbEntity
  8
SEIHIN
  6
CONTINUOUS
 62
     3
100
AcDbCircle
 10
443.4125798048355
 20
1077.585287890349
 30
0.0
 40
996.7499999999999
100
AcDbArc
 50
267.314807352
 51
269.2807270340999
  0
ARC
  5
2BD
330
1A
100
AcDbEntity
  8
SEIHIN
  6
CONTINUOUS
 62
     3
100
AcDbCircle
 10
443.4125798048355
 20
1077.585287890349
 30
0.0
 40
1000.0
100
AcDbArc
 50
267.2057870799
 51
272.4381855922
  0
ARC
  5
2BE
330
1A
100
AcDbEntity
  8
SEIHIN
  6
CONTINUOUS
 62
     3
100
AcDbCircle
 10
443.4125798048355
 20
1077.585287890349
 30
0.0
 40
1002.7
100
AcDbArc
 50
267.2057870799
 51
272.4381855724999
  0
ARC
  5
2BF
330
1A
100
AcDbEntity
  8
SEIHIN
  6
CONTINUOUS
 62
     3
100
AcDbCircle
 10
443.4125798048355
 20
1077.585287890349
 30
0.0
 40
1001.2
100
AcDbArc
 50
267.2057870799
 51
272.4381855724999
  0
LINE
  5
2C1
330
1A
100
AcDbEntity
  8
SEIHIN
  6
CONTINUOUS
 62
     3
100
AcDbLine
 10
433.4125798048354
 20
329.4535386454085
 30
0.0
 11
369.5190960557356
 21
329.4535386454085
 31
0.0
  0
LINE
  5
2C2
330
1A
100
AcDbEntity
  8
SEIHIN
  6
CONTINUOUS
 62
     3
100
AcDbLine
 10
494.9057627797355
 20
285.4535386454084
 30
0.0
 11
346.9498053447356
 21
285.4535386454084
 31
0.0
  0
LINE
  5
2C3
330
1A
100
AcDbEntity
  8
SEIHIN
  6
CONTINUOUS
 62
     3
100
AcDbLine
 10
493.8176874091356
 20
334.4535386454085
 30
0.0
 11
364.8347000638355
 21
334.4535386454085
 31
0.0
  0
LINE
  5
2C4
330
1A
100
AcDbEntity
  8
CENTER_L
  6
CENTER
 62
     1
 48
5.0
100
AcDbLine
 10
263.9763529132355
 20
453.4271660876085
 30
0.0
 11
448.4125798048354
 21
453.4271660876085
 31
0.0
  0
LINE
  5
2C5
330
1A
100
AcDbEntity
  8
CENTER_L
  6
CENTER
 62
     1
 48
5.0
100
AcDbLine
 10
263.9763529132355
 20
453.4271660876085
 30
0.0
 11
448.4125798048354
 21
453.4271660876085
 31
0.0
  0
LINE
  5
2C6
330
1A
100
AcDbEntity
  8
SEIHIN
  6
CONTINUOUS
 62
     3
100
AcDbLine
 10
306.4335620609355
 20
506.4203490624083
 30
0.0
 11
488.9057627797355
 21
506.4203490624083
 31
0.0
  0
LINE
  5
2C7
330
1A
100
AcDbEntity
  8
SEIHIN
  6
CONTINUOUS
 62
     3
100
AcDbLine
 10
315.4389523627354
 20
503.8322736918084
 30
0.0
 11
489.0176874091356
 21
503.8322736918084
 31
0.0
  0
LINE
  5
2C8
330
1A
100
AcDbEntity
  8
SEIHIN
  6
CONTINUOUS
 62
     3
100
AcDbLine
 10
324.4389523627355
 20
500.5322255348085
 30
0.0
 11
485.7176392520355
 21
500.5322255348085
 31
0.0
  0
LINE
  5
2CB
330
1A
100
AcDbEntity
  8
SEIHIN
  6
CONTINUOUS
 62
     3
100
AcDbLine
 10
275.4389523627356
 20
76.03710996544965
 30
0.0
 11
275.4389523627356
 21
191.4188626639496
 31
0.0
  0
ARC
  5
2CC
330
1A
100
AcDbEntity
  8
SEIHIN
  6
CONTINUOUS
 62
     3
100
AcDbCircle
 10
396.8242888725355
 20
84.22717842124962
 30
0.0
 40
1.3
100
AcDbArc
 50
194.0362434679
 51
267.314807352
  0
ARC
  5
2CD
330
1A
100
AcDbEntity
  8
SEIHIN
  6
CONTINUOUS
 62
     3
100
AcDbCircle
 10
396.8242888725355
 20
84.22717842124962
 30
0.0
 40
4.0
100
AcDbArc
 50
194.0362434679
 51
267.314807352
  0
ARC
  5
2CE
330
1A
100
AcDbEntity
  8
SEIHIN
  6
CONTINUOUS
 62
     3
100
AcDbCircle
 10
396.8242888725355
 20
84.22717842124962
 30
0.0
 40
2.299999999999999
100
AcDbArc
 50
194.0362434679
 51
267.314807352
  0
LINE
  5
2CF
330
1A
100
AcDbEntity
  8
SEIHIN
  6
CONTINUOUS
 62
     3
100
AcDbLine
 10
369.2801276806355
 20
80.38820177714962
 30
0.0
 11
366.8932023577355
 21
89.93590306884959
 31
0.0
  0
LINE
  5
2D0
330
1A
100
AcDbEntity
  8
SEIHIN
  6
CONTINUOUS
 62
     3
100
AcDbLine
 10
390.7353414309356
 20
80.75200521474959
 30
0.0
 11
387.8521735014355
 21
92.28467693274962
 31
0.0
  0
LINE
  5
2D1
330
1A
100
AcDbEntity
  8
SEIHIN
  6
CONTINUOUS
 62
     3
100
AcDbLine
 10
391.8995124310356
 20
81.04304796474961
 30
0.0
 11
388.7499500506354
 21
93.6412974865496
 31
0.0
  0
LINE
  5
2D2
330
1A
100
AcDbEntity
  8
SEIHIN
  6
CONTINUOUS
 62
     3
100
AcDbLine
 10
389.2801276806355
 20
80.38820177714962
 30
0.0
 11
386.7299528148356
 21
90.58890124054959
 31
0.0
  0
ARC
  5
2D3
330
1A
100
AcDbEntity
  8
SEIHIN
  6
CONTINUOUS
 62
     3
100
AcDbCircle
 10
374.8099399315355
 20
81.77065483984961
 30
0.0
 40
5.7
100
AcDbArc
 50
194.0362434679
 51
267.2057870799
  0
ARC
  5
2D4
330
1A
100
AcDbEntity
  8
SEIHIN
  6
CONTINUOUS
 62
     3
100
AcDbCircle
 10
394.8099399315355
 20
81.77065483984961
 30
0.0
 40
4.2
100
AcDbArc
 50
194.0362434679
 51
267.2057870799
  0
ARC
  5
2D5
330
1A
100
AcDbEntity
  8
SEIHIN
  6
CONTINUOUS
 62
     3
100
AcDbCircle
 10
394.8099399315355
 20
81.77065483984961
 30
0.0
 40
5.7
100
AcDbArc
 50
194.0362434679
 51
267.2057870799
  0
ARC
  5
2D8
330
1A
100
AcDbEntity
  8
SEIHIN
  6
CONTINUOUS
 62
     3
100
AcDbCircle
 10
394.8099399315355
 20
81.77065483984961
 30
0.0
 40
3.0
100
AcDbArc
 50
194.0362434679
 51
267.2057870799
  0
LINE
  5
2E1
330
1A
100
AcDbEntity
  8
SEIHIN
  6
CONTINUOUS
 62
     3
100
AcDbLine
 10
326.0154679720355
 20
184.3451052114495
 30
0.0
 11
325.4389523627355
 21
172.3521022140496
 31
0.0
  0
LINE
  5
2E2
330
1A
100
AcDbEntity
  8
SEIHIN
  6
CONTINUOUS
 62
     3
100
AcDbLine
 10
346.0154679720355
 20
184.3451052114495
 30
0.0
 11
345.4577485860356
 21
172.7431118566496
 31
0.0
  0
LINE
  5
2E3
330
1A
100
AcDbEntity
  8
SEIHIN
  6
CONTINUOUS
 62
     3
100
AcDbLine
 10
346.9389523627355
 20
174.8359437133496
 30
0.0
 11
346.9389523627355
 21
186.7149599324496
 31
0.0
  0
ARC
  5
2E4
330
1A
100
AcDbEntity
  8
SEIHIN
  6
CONTINUOUS
 62
     3
100
AcDbCircle
 10
352.7772510363356
 20
174.1591923832496
 30
0.0
 40
2.5
100
AcDbArc
 50
5.5892534145
 51
102.3176619503
  0
ARC
  5
2E5
330
1A
100
AcDbEntity
  8
SEIHIN
  6
CONTINUOUS
 62
     3
100
AcDbCircle
 10
352.6002212942354
 20
173.9158239774496
 30
0.0
 40
1.5
100
AcDbArc
 50
5.644645743399999
 51
102.3176619503
  0
LINE
  5
2E6
330
1A
100
AcDbEntity
  8
SEIHIN
  6
CONTINUOUS
 62
     3
100
AcDbLine
 10
345.4389523627355
 20
172.3521022140496
 30
0.0
 11
294.6359869480355
 21
172.3521022140496
 31
0.0
  0
LINE
  5
2E7
330
1A
100
AcDbEntity
  8
SEIHIN
  6
CONTINUOUS
 62
     3
100
AcDbLine
 10
379.4202822805355
 20
89.93590306884959
 30
0.0
 11
294.6359869480356
 21
89.93590306884959
 31
0.0
  0
ARC
  5
2E8
330
1A
100
AcDbEntity
  8
SEIHIN
  6
CONTINUOUS
 62
     3
100
AcDbCircle
 10
564.1718729026356
 20
196.8038158370496
 30
0.0
 40
232.6999999999999
100
AcDbArc
 50
186.0316760949
 51
206.8535797088
  0
ARC
  5
2EA
330
1A
100
AcDbEntity
  8
SEIHIN
  6
CONTINUOUS
 62
     3
100
AcDbCircle
 10
584.1718729026356
 20
196.8038158370496
 30
0.0
 40
231.1999999999999
100
AcDbArc
 50
185.6446457434
 51
206.8535797088
  0
ARC
  5
2EB
330
1A
100
AcDbEntity
  8
SEIHIN
  6
CONTINUOUS
 62
     3
100
AcDbCircle
 10
584.1718729026356
 20
196.8038158370496
 30
0.0
 40
230.0
100
AcDbArc
 50
185.5892534145
 51
206.8535797088
  0
ARC
  5
2EC
330
1A
100
AcDbEntity
  8
SEIHIN
  6
CONTINUOUS
 62
     3
100
AcDbCircle
 10
584.1718729026356
 20
196.8038158370496
 30
0.0
 40
232.6999999999999
100
AcDbArc
 50
185.7826837353
 51
206.8535797088
  0
LINE
  5
2ED
330
1A
100
AcDbEntity
  8
SEIHIN
  6
CONTINUOUS
 62
     3
100
AcDbLine
 10
368.5682531904355
 20
127.5852878903495
 30
0.0
 11
365.5689624810356
 21
127.5852878903495
 31
0.0
  0
ARC
  5
2EE
330
1A
100
AcDbEntity
  8
SEIHIN
  6
CONTINUOUS
 62
     3
100
AcDbCircle
 10
359.4202822805355
 20
93.13590306884961
 30
0.0
 40
3.2
100
AcDbArc
 50
206.8535797088
 51
278.9726266149
  0
ARC
  5
2EF
330
1A
100
AcDbEntity
  8
SEIHIN
  6
CONTINUOUS
 62
     3
100
AcDbCircle
 10
365.5689624810356
 20
128.5852878903495
 30
0.0
 40
1.0
100
AcDbArc
 50
197.3313658939
 51
270.0
  0
ARC
  5
2F0
330
1A
100
AcDbEntity
  8
SEIHIN
  6
CONTINUOUS
 62
     3
100
AcDbCircle
 10
584.1718729026356
 20
196.8038158370496
 30
0.0
 40
225.7499999999999
100
AcDbArc
 50
198.0395716216
 51
203.7777473248
  0
ARC
  5
2F1
330
1A
100
AcDbEntity
  8
SEIHIN
  6
CONTINUOUS
 62
     3
100
AcDbCircle
 10
584.1718729026356
 20
196.8038158370496
 30
0.0
 40
226.75
100
AcDbArc
 50
197.7740251754999
 51
203.9430083866999
  0
ARC
  5
2F2
330
1A
100
AcDbEntity
  8
SEIHIN
  6
CONTINUOUS
 62
     3
100
AcDbCircle
 10
584.1718729026356
 20
196.8038158370496
 30
0.0
 40
228.4499999999999
100
AcDbArc
 50
197.9821520949
 51
204.2211026572
  0
LINE
  5
2F7
330
1A
100
AcDbEntity
  8
SEIHIN
  6
CONTINUOUS
 62
     3
100
AcDbLine
 10
381.4374552020355
 20
104.3770300672496
 30
0.0
 11
391.2562049756356
 21
96.58938486404961
 31
0.0
  0
LINE
  5
2F8
330
1A
100
AcDbEntity
  8
SEIHIN
  6
CONTINUOUS
 62
     3
100
AcDbLine
 10
381.7858813768355
 20
105.3770300672496
 30
0.0
 11
392.1439128891356
 21
97.16165883554959
 31
0.0
  0
LINE
  5
2F9
330
1A
100
AcDbEntity
  8
SEIHIN
  6
CONTINUOUS
 62
     3
100
AcDbLine
 10
380.8451307047356
 20
102.6770300672495
 30
0.0
 11
389.7471015226355
 21
95.6165191125496
 31
0.0
  0
LINE
  5
2FA
330
1A
100
AcDbEntity
  8
SEIHIN
  6
CONTINUOUS
 62
     3
100
AcDbLine
 10
388.1868975138356
 20
94.01391115664962
 30
0.0
 11
379.4982635672356
 21
92.64202158614962
 31
0.0
  0
LINE
  5
2FB
330
1A
100
AcDbEntity
  8
SEIHIN
  6
CONTINUOUS
 62
     3
100
AcDbLine
 10
387.2891209646356
 20
92.65729060284959
 30
0.0
 11
379.6854186554355
 21
91.45670602774959
 31
0.0
  0
LINE
  5
2FC
330
1A
100
AcDbEntity
  8
SEIHIN
  6
CONTINUOUS
 62
     3
100
AcDbLine
 10
386.1669002780356
 20
90.96151491064961
 30
0.0
 11
379.9193625156355
 21
89.97506157974958
 31
0.0
  0
LINE
  5
2FF
330
1A
100
AcDbEntity
  8
SEIHIN
  6
CONTINUOUS
 62
     3
100
AcDbLine
 10
379.1389523627355
 20
92.5852882380496
 30
0.0
 11
378.9742003837356
 21
92.91004704974961
 31
0.0
  0
ARC
  5
300
330
1A
100
AcDbEntity
  8
SEIHIN
  6
CONTINUOUS
 62
     3
100
AcDbCircle
 10
379.4202822805355
 20
93.13590306884961
 30
0.0
 40
1.7
100
AcDbArc
 50
206.8535797088
 51
278.9726266149
  0
ARC
  5
301
330
1A
100
AcDbEntity
  8
SEIHIN
  6
CONTINUOUS
 62
     3
100
AcDbCircle
 10
379.4202822805355
 20
93.13590306884961
 30
0.0
 40
0.5
100
AcDbArc
 50
206.8535797088
 51
278.9726266149
  0
ARC
  5
302
330
1A
100
AcDbEntity
  8
SEIHIN
  6
CONTINUOUS
 62
     3
100
AcDbCircle
 10
379.4202822805355
 20
93.13590306884961
 30
0.0
 40
3.2
100
AcDbArc
 50
206.8535797088
 51
278.9726266149
  0
LINE
  5
303
330
1A
100
AcDbEntity
  8
SEIHIN
  6
CONTINUOUS
 62
     3
100
AcDbLine
 10
379.1389523627355
 20
92.5852882380496
 30
0.0
 11
379.4982635672356
 21
92.64202158614962
 31
0.0
  0
LINE
  5
306
330
1A
100
AcDbEntity
  8
SEIHIN
  6
CONTINUOUS
 62
     3
100
AcDbLine
 10
378.0419198517356
 20
105.4852882380496
 30
0.0
 11
381.4751751823355
 21
105.4852882380496
 31
0.0
  0
LINE
  5
307
330
1A
100
AcDbEntity
  8
SEIHIN
  6
CONTINUOUS
 62
     3
100
AcDbLine
 10
377.3907797399355
 20
104.4852882380496
 30
0.0
 11
381.1267490075355
 21
104.4852882380496
 31
0.0
  0
LINE
  5
308
330
1A
100
AcDbEntity
  8
SEIHIN
  6
CONTINUOUS
 62
     3
100
AcDbLine
 10
376.2885222087356
 20
102.7852882380496
 30
0.0
 11
380.5344245103355
 21
102.7852882380496
 31
0.0
  0
ARC
  5
309
330
1A
100
AcDbEntity
  8
SEIHIN
  6
CONTINUOUS
 62
     3
100
AcDbCircle
 10
378.0419198517356
 20
105.9852882380496
 30
0.0
 40
0.5
100
AcDbArc
 50
203.7777473248
 51
270.0
  0
ARC
  5
30A
330
1A
100
AcDbEntity
  8
SEIHIN
  6
CONTINUOUS
 62
     3
100
AcDbCircle
 10
377.3907797399355
 20
104.9852882380496
 30
0.0
 40
0.5
100
AcDbArc
 50
203.9430083866999
 51
270.0
  0
ARC
  5
30B
330
1A
100
AcDbEntity
  8
SEIHIN
  6
CONTINUOUS
 62
     3
100
AcDbCircle
 10
376.2885222087356
 20
103.2852882380496
 30
0.0
 40
0.5
100
AcDbArc
 50
204.2211026572
 51
270.0
  0
ARC
  5
30C
330
1A
100
AcDbEntity
  8
SEIHIN
  6
CONTINUOUS
 62
     3
100
AcDbCircle
 10
381.4751751823355
 20
104.9852882380496
 30
0.0
 40
0.5
100
AcDbArc
 50
51.5806518862
 51
90.0
  0
ARC
  5
30D
330
1A
100
AcDbEntity
  8
SEIHIN
  6
CONTINUOUS
 62
     3
100
AcDbCircle
 10
381.1267490075355
 20
103.9852882380496
 30
0.0
 40
0.5
100
AcDbArc
 50
51.5806518862
 51
90.0
  0
ARC
  5
30E
330
1A
100
AcDbEntity
  8
SEIHIN
  6
CONTINUOUS
 62
     3
100
AcDbCircle
 10
380.5344245103355
 20
102.2852882380496
 30
0.0
 40
0.5
100
AcDbArc
 50
51.5806518862
 51
90.0
  0
LINE
  5
30F
330
1A
100
AcDbEntity
  8
SEIHIN
  6
CONTINUOUS
 62
     3
100
AcDbLine
 10
395.5631036223355
 20
83.91188210864958
 30
0.0
 11
392.3182779447356
 21
96.8911848189496
 31
0.0
  0
LINE
  5
310
330
1A
100
AcDbEntity
  8
SEIHIN
  6
CONTINUOUS
 62
     3
100
AcDbLine
 10
392.9437188719355
 20
83.25703592104961
 30
0.0
 11
389.9214665782355
 21
95.3460450958496
 31
0.0
  0
LINE
  5
311
330
1A
100
AcDbEntity
  8
SEIHIN
  6
CONTINUOUS
 62
     3
100
AcDbLine
 10
394.5929611221356
 20
83.6693464836496
 30
0.0
 11
391.4305700312356
 21
96.31891084744962
 31
0.0
  0
ARC
  5
313
330
1A
100
AcDbEntity
  8
SEIHIN
  6
CONTINUOUS
 62
     3
100
AcDbCircle
 10
386.2448815647355
 20
90.46763342804959
 30
0.0
 40
0.5
100
AcDbArc
 50
14.0362434679
 51
98.97262661489998
  0
ARC
  5
316
330
1A
100
AcDbEntity
  8
SEIHIN
  6
CONTINUOUS
 62
     3
100
AcDbCircle
 10
387.3671022513355
 20
92.16340912024961
 30
0.0
 40
0.5
100
AcDbArc
 50
14.0362434679
 51
98.97262661489998
  0
ARC
  5
317
330
1A
100
AcDbEntity
  8
SEIHIN
  6
CONTINUOUS
 62
     3
100
AcDbCircle
 10
388.2648788005355
 20
93.52002967394961
 30
0.0
 40
0.5
100
AcDbArc
 50
14.036243468
 51
98.97262661489998
  0
ARC
  5
319
330
1A
100
AcDbEntity
  8
SEIHIN
  6
CONTINUOUS
 62
     3
100
AcDbCircle
 10
389.4363953281355
 20
95.22477728334962
 30
0.0
 40
0.5
100
AcDbArc
 50
14.0362434679
 51
51.5806518862
  0
ARC
  5
31A
330
1A
100
AcDbEntity
  8
SEIHIN
  6
CONTINUOUS
 62
     3
100
AcDbCircle
 10
390.9454987811356
 20
96.1976430349496
 30
0.0
 40
0.5
100
AcDbArc
 50
14.0362434679
 51
51.5806518862
  0
ARC
  5
31B
330
1A
100
AcDbEntity
  8
SEIHIN
  6
CONTINUOUS
 62
     3
100
AcDbCircle
 10
391.8332066946356
 20
96.76991700644959
 30
0.0
 40
0.5
100
AcDbArc
 50
14.0362434679
 51
51.5806518862
  0
ARC
  5
31C
330
1A
100
AcDbEntity
  8
SEIHIN
  6
CONTINUOUS
 62
     3
100
AcDbCircle
 10
368.8290075336355
 20
123.5852878903496
 30
0.0
 40
1.0
100
AcDbArc
 50
90.0
 51
198.7784991786
  0
ARC
  5
31D
330
1A
100
AcDbEntity
  8
SEIHIN
  6
CONTINUOUS
 62
     3
100
AcDbCircle
 10
367.8321843732355
 20
126.5852878903496
 30
0.0
 40
1.0
100
AcDbArc
 50
90.0
 51
197.9821520949
  0
ARC
  5
31E
330
1A
100
AcDbEntity
  8
SEIHIN
  6
CONTINUOUS
 62
     3
100
AcDbCircle
 10
368.5682531904355
 20
126.5852878903496
 30
0.0
 40
1.0
100
AcDbArc
 50
18.0395716216
 51
90.0
  0
LINE
  5
31F
330
1A
100
AcDbEntity
  8
SEIHIN
  6
CONTINUOUS
 62
     3
100
AcDbLine
 10
368.5682531904355
 20
124.5852878903496
 30
0.0
 11
369.5684953306356
 21
124.5852878903496
 31
0.0
  0
ARC
  5
320
330
1A
100
AcDbEntity
  8
SEIHIN
  6
CONTINUOUS
 62
     3
100
AcDbCircle
 10
369.5684953306356
 20
123.5852878903496
 30
0.0
 40
1.0
100
AcDbArc
 50
18.8386499886
 51
90.0
  0
LINE
  5
325
330
1A
100
AcDbEntity
  8
SEIHIN
  6
CONTINUOUS
 62
     3
100
AcDbLine
 10
345.8214020303356
 20
172.4356132334496
 30
0.0
 11
352.0519140666355
 21
173.7960966004496
 31
0.0
  0
LINE
  5
326
330
1A
100
AcDbEntity
  8
SEIHIN
  6
CONTINUOUS
 62
     3
100
AcDbLine
 10
347.5456181424355
 20
174.3474537836496
 30
0.0
 11
352.2802239551355
 21
175.3812937665496
 31
0.0
  0
ARC
  5
327
330
1A
100
AcDbEntity
  8
SEIHIN
  6
CONTINUOUS
 62
     3
100
AcDbCircle
 10
345.7574025625355
 20
172.7287071912496
 30
0.0
 40
0.3
100
AcDbArc
 50
177.2478533649
 51
282.3176619502999
  0
ARC
  5
328
330
1A
100
AcDbEntity
  8
SEIHIN
  6
CONTINUOUS
 62
     3
100
AcDbCircle
 10
347.4389523627355
 20
174.8359437133496
 30
0.0
 40
0.5
100
AcDbArc
 50
180.0
 51
282.3176619502999
  0
ARC
  5
32B
330
1A
100
AcDbEntity
  8
SEIHIN
  6
CONTINUOUS
 62
     3
100
AcDbCircle
 10
352.1585798463356
 20
173.3076066707496
 30
0.0
 40
0.5
100
AcDbArc
 50
5.7826837353
 51
102.3176619503
  0
LINE
  5
332
330
1A
100
AcDbEntity
  8
SEIHIN
  6
CONTINUOUS
 62
     3
100
AcDbLine
 10
348.1389523627355
 20
187.7126546962496
 30
0.0
 11
316.9389523627355
 21
187.7126546962496
 31
0.0
  0
LINE
  5
333
330
1A
100
AcDbEntity
  8
SEIHIN
  6
CONTINUOUS
 62
     3
100
AcDbLine
 10
275.4389523627356
 20
191.4188626639496
 30
0.0
 11
315.4389523627354
 21
191.4188626639496
 31
0.0
  0
ARC
  5
334
330
1A
100
AcDbEntity
  8
SEIHIN
  6
CONTINUOUS
 62
     3
100
AcDbCircle
 10
316.9389523627355
 20
189.2126546962496
 30
0.0
 40
1.5
100
AcDbArc
 50
180.0
 51
270.0
  0
LINE
  5
335
330
1A
100
AcDbEntity
  8
SEIHIN
  6
CONTINUOUS
 62
     3
100
AcDbLine
 10
315.4389523627354
 20
189.2126546962496
 30
0.0
 11
315.4389523627354
 21
191.4188626639496
 31
0.0
  0
ARC
  5
336
330
1A
100
AcDbEntity
  8
SEIHIN
  6
CONTINUOUS
 62
     3
100
AcDbCircle
 10
330.0108543249355
 20
184.1530430067496
 30
0.0
 40
4.0
100
AcDbArc
 50
117.138949311
 51
177.2478533649
  0
LINE
  5
33D
330
1A
100
AcDbEntity
  8
SEIHIN
  6
CONTINUOUS
 62
     3
100
AcDbLine
 10
348.1389523627355
 20
175.7052882380496
 30
0.0
 11
352.2439221378355
 21
176.6016420318496
 31
0.0
  0
LINE
  5
33E
330
1A
100
AcDbEntity
  8
SEIHIN
  6
CONTINUOUS
 62
     3
100
AcDbLine
 10
348.7680590962356
 20
185.0565401030495
 30
0.0
 11
356.5918915101355
 21
188.1812125641496
 31
0.0
  0
LINE
  5
33F
330
1A
100
AcDbEntity
  8
SEIHIN
  6
CONTINUOUS
 62
     3
100
AcDbLine
 10
348.5272812587356
 20
187.8677450078496
 30
0.0
 11
356.8831193092354
 21
191.2048892185496
 31
0.0
  0
LINE
  5
340
330
1A
100
AcDbEntity
  8
SEIHIN
  6
CONTINUOUS
 62
     3
100
AcDbLine
 10
348.4535057294355
 20
186.0077165624496
 30
0.0
 11
356.2209982435355
 21
189.1098880644495
 31
0.0
  0
ARC
  5
341
330
1A
100
AcDbEntity
  8
SEIHIN
  6
CONTINUOUS
 62
     3
100
AcDbCircle
 10
350.0108543249355
 20
184.1530430067496
 30
0.0
 40
4.0
100
AcDbArc
 50
111.7707178917999
 51
177.2478533649
  0
LINE
  5
345
330
1A
100
AcDbEntity
  8
SEIHIN
  6
CONTINUOUS
 62
     3
100
AcDbLine
 10
348.1389523627355
 20
175.7052882380496
 30
0.0
 11
348.1389523627355
 21
184.1278646027496
 31
0.0
  0
ARC
  5
346
330
1A
100
AcDbEntity
  8
SEIHIN
  6
CONTINUOUS
 62
     3
100
AcDbCircle
 10
349.1389523627355
 20
184.1278646027496
 30
0.0
 40
1.0
100
AcDbArc
 50
111.7707178917999
 51
180.0
  0
LINE
  5
347
330
1A
100
AcDbEntity
  8
SEIHIN
  6
CONTINUOUS
 62
     3
100
AcDbLine
 10
348.1389523627355
 20
185.5433788123496
 30
0.0
 11
348.1389523627355
 21
184.1278646027496
 31
0.0
  0
ARC
  5
348
330
1A
100
AcDbEntity
  8
SEIHIN
  6
CONTINUOUS
 62
     3
100
AcDbCircle
 10
348.6389523627355
 20
185.5433788123496
 30
0.0
 40
0.5
100
AcDbArc
 50
111.7707178917999
 51
180.0
  0
LINE
  5
34A
330
1A
100
AcDbEntity
  8
SEIHIN
  6
CONTINUOUS
 62
     3
100
AcDbLine
 10
357.2503111164355
 20
187.5547126518496
 30
0.0
 11
356.7833964714356
 21
186.1928782706496
 31
0.0
  0
ARC
  5
34B
330
1A
100
AcDbEntity
  8
SEIHIN
  6
CONTINUOUS
 62
     3
100
AcDbCircle
 10
357.9957989742355
 20
188.4188626639496
 30
0.0
 40
3.0
100
AcDbArc
 50
252.7961756440999
 51
111.7707151218
  0
ARC
  5
34C
330
1A
100
AcDbEntity
  8
SEIHIN
  6
CONTINUOUS
 62
     3
100
AcDbCircle
 10
356.7773381434355
 20
187.7168748140496
 30
0.0
 40
1.5
100
AcDbArc
 50
341.075355584
 51
111.7707178917999
  0
LINE
  5
34D
330
1A
100
AcDbEntity
  8
SEIHIN
  6
CONTINUOUS
 62
     3
100
AcDbLine
 10
358.1962570623356
 20
187.2303883275496
 30
0.0
 11
357.5848580970355
 21
185.4471413453496
 31
0.0
  0
ARC
  5
356
330
1A
100
AcDbEntity
  8
SEIHIN
  6
CONTINUOUS
 62
     3
100
AcDbCircle
 10
357.9957989742355
 20
188.4188626639496
 30
0.0
 40
3.0
100
AcDbArc
 50
242.9324760070999
 51
252.7961756440999
  0
LINE
  5
357
330
1A
100
AcDbEntity
  8
SEIHIN
  6
CONTINUOUS
 62
     3
100
AcDbLine
 10
356.6306782251355
 20
185.7474500524496
 30
0.0
 11
356.7833964714356
 21
186.1928782706496
 31
0.0
  0
ARC
  5
358
330
1A
100
AcDbEntity
  8
SEIHIN
  6
CONTINUOUS
 62
     3
100
AcDbCircle
 10
357.2563694443355
 20
186.0307161084496
 30
0.0
 40
0.5
100
AcDbArc
 50
161.0753555839999
 51
252.7961756440999
  0
LINE
  5
359
330
1A
100
AcDbEntity
  8
SEIHIN
  6
CONTINUOUS
 62
     3
100
AcDbLine
 10
357.6036511981355
 20
188.5852878903495
 30
0.0
 11
356.5918915101355
 21
188.1812125641496
 31
0.0
  0
LINE
  5
35A
330
1A
100
AcDbEntity
  8
SEIHIN
  6
CONTINUOUS
 62
     3
100
AcDbLine
 10
357.6036511981355
 20
188.5852878903495
 30
0.0
 11
357.2503111164355
 21
187.5547126518496
 31
0.0
  0
ARC
  5
35B
330
1A
100
AcDbEntity
  8
SEIHIN
  6
CONTINUOUS
 62
     3
100
AcDbCircle
 10
356.7773381434355
 20
187.7168748140496
 30
0.0
 40
0.5
100
AcDbArc
 50
341.075355584
 51
111.7707178917999
  0
LINE
  5
362
330
1A
100
AcDbEntity
  8
SEIHIN
  6
CONTINUOUS
 62
     3
100
AcDbLine
 10
275.4389523627356
 20
504.9203490624083
 30
0.0
 11
275.4389523627356
 21
356.9643916274085
 31
0.0
  0
LINE
  5
363
330
1A
100
AcDbEntity
  8
SEIHIN
  6
CONTINUOUS
 62
     3
100
AcDbLine
 10
324.4389523627355
 20
503.8322736918084
 30
0.0
 11
324.4389523627355
 21
374.8492863466085
 31
0.0
  0
LINE
  5
364
330
1A
100
AcDbEntity
  8
SEIHIN
  6
CONTINUOUS
 62
     3
100
AcDbLine
 10
322.5278353954355
 20
443.4271660876085
 30
0.0
 11
322.5278353954355
 21
463.4271660876085
 31
0.0
  0
LINE
  5
365
330
1A
100
AcDbEntity
  8
SEIHIN
  6
CONTINUOUS
 62
     3
100
AcDbLine
 10
319.6198353954355
 20
443.4271660876085
 30
0.0
 11
319.6198353954355
 21
463.4271660876085
 31
0.0
  0
ARC
  5
366
330
1A
100
AcDbEntity
  8
SEIHIN
  6
CONTINUOUS
 62
     3
100
AcDbCircle
 10
323.4567834282356
 20
350.3646397681085
 30
0.0
 40
8.0
100
AcDbArc
 50
45.0
 51
91.52852486989999
  0
LINE
  5
367
330
1A
100
AcDbEntity
  8
SEIHIN
  6
CONTINUOUS
 62
     3
100
AcDbLine
 10
352.7536745779355
 20
342.0971042909085
 30
0.0
 11
332.0825180082355
 21
362.7682608606085
 31
0.0
  0
LINE
  5
368
330
1A
100
AcDbEntity
  8
SEIHIN
  6
CONTINUOUS
 62
     3
100
AcDbLine
 10
388.6389523627355
 20
334.4535386454085
 30
0.0
 11
388.6389523627355
 21
378.1902717952084
 31
0.0
  0
LINE
  5
369
330
1A
100
AcDbEntity
  8
SEIHIN
  6
CONTINUOUS
 62
     3
100
AcDbLine
 10
392.4389523627354
 20
334.4535386454085
 30
0.0
 11
392.4389523627354
 21
382.2300744527085
 31
0.0
  0
LINE
  5
36A
330
1A
100
AcDbEntity
  8
SEIHIN
  6
CONTINUOUS
 62
     3
100
AcDbLine
 10
379.1389523627355
 20
334.4535386454085
 30
0.0
 11
379.1389523627355
 21
368.0907651515085
 31
0.0
  0
LINE
  5
36B
330
1A
100
AcDbEntity
  8
SEIHIN
  6
CONTINUOUS
 62
     3
100
AcDbLine
 10
329.1136376777355
 20
356.0214940176085
 30
0.0
 11
346.0069077349355
 21
339.1282239604085
 31
0.0
  0
LINE
  5
36C
330
1A
100
AcDbEntity
  8
SEIHIN
  6
CONTINUOUS
 62
     3
100
AcDbLine
 10
343.9744862686356
 20
336.9180047395085
 30
0.0
 11
326.9034184568356
 21
353.9890725514085
 31
0.0
  0
ARC
  5
36D
330
1A
100
AcDbEntity
  8
SEIHIN
  6
CONTINUOUS
 62
     3
100
AcDbCircle
 10
306.6144450936355
 20
555.4535386454086
 30
0.0
 40
200.0
100
AcDbArc
 50
266.5663696375999
 51
270.0
  0
LINE
  5
36E
330
1A
100
AcDbEntity
  8
SEIHIN
  6
CONTINUOUS
 62
     3
100
AcDbLine
 10
294.6359869480356
 20
355.8125695523084
 30
0.0
 11
275.4389523627356
 21
356.9643916274085
 31
0.0
  0
LINE
  5
36F
330
1A
100
AcDbEntity
  8
SEIHIN
  6
CONTINUOUS
 62
     3
100
AcDbLine
 10
306.6144450936355
 20
355.4535386454085
 30
0.0
 11
323.3678845509355
 21
355.4535386454085
 31
0.0
  0
ARC
  5
370
330
1A
100
AcDbEntity
  8
SEIHIN
  6
CONTINUOUS
 62
     3
100
AcDbCircle
 10
323.3678845509355
 20
350.4535386454085
 30
0.0
 40
5.0
100
AcDbArc
 50
45.0
 51
90.0
  0
LINE
  5
371
330
1A
100
AcDbEntity
  8
SEIHIN
  6
CONTINUOUS
 62
     3
100
AcDbLine
 10
360.9957989742355
 20
285.4535386454084
 30
0.0
 11
360.9957989742355
 21
325.4535386454085
 31
0.0
  0
LINE
  5
372
330
1A
100
AcDbEntity
  8
SEIHIN
  6
CONTINUOUS
 62
     3
100
AcDbLine
 10
357.9957989742355
 20
325.4535386454085
 30
0.0
 11
357.9957989742355
 21
285.4535386454084
 31
0.0
  0
ARC
  5
373
330
1A
100
AcDbEntity
  8
SEIHIN
  6
CONTINUOUS
 62
     3
100
AcDbCircle
 10
545.4389523627358
 20
316.6290313763085
 30
0.0
 40
200.0
100
AcDbArc
 50
180.0
 51
183.4336303625
  0
LINE
  5
374
330
1A
100
AcDbEntity
  8
SEIHIN
  6
CONTINUOUS
 62
     3
100
AcDbLine
 10
388.6389523627355
 20
324.4535386454084
 30
0.0
 11
388.6389523627355
 21
285.4535386454084
 31
0.0
  0
LINE
  5
375
330
1A
100
AcDbEntity
  8
SEIHIN
  6
CONTINUOUS
 62
     3
100
AcDbLine
 10
392.4389523627354
 20
314.4535386454085
 30
0.0
 11
392.4389523627354
 21
285.4535386454084
 31
0.0
  0
LINE
  5
376
330
1A
100
AcDbEntity
  8
SEIHIN
  6
CONTINUOUS
 62
     3
100
AcDbLine
 10
392.4389523627354
 20
324.4535386454084
 30
0.0
 11
392.4389523627354
 21
285.4535386454084
 31
0.0
  0
LINE
  5
377
330
1A
100
AcDbEntity
  8
SEIHIN
  6
CONTINUOUS
 62
     3
100
AcDbLine
 10
379.1389523627355
 20
324.4535386454084
 30
0.0
 11
379.1389523627355
 21
285.4535386454084
 31
0.0
  0
LINE
  5
378
330
1A
100
AcDbEntity
  8
SEIHIN
  6
CONTINUOUS
 62
     3
100
AcDbLine
 10
345.7979832696356
 20
304.6505732307085
 30
0.0
 11
346.9498053447356
 21
285.4535386454084
 31
0.0
  0
LINE
  5
379
330
1A
100
AcDbEntity
  8
SEIHIN
  6
CONTINUOUS
 62
     3
100
AcDbLine
 10
364.8347000638355
 20
331.7535386454085
 30
0.0
 11
366.8200566695356
 21
329.6344216781085
 31
0.0
  0
LINE
  5
37A
330
1A
100
AcDbEntity
  8
SEIHIN
  6
CONTINUOUS
 62
     3
100
AcDbLine
 10
364.8347000638355
 20
334.4535386454085
 30
0.0
 11
369.5190960557356
 21
329.4535386454085
 31
0.0
  0
LINE
  5
37B
330
1A
100
AcDbEntity
  8
SEIHIN
  6
CONTINUOUS
 62
     3
100
AcDbLine
 10
355.0089523627355
 20
336.6523820758085
 30
0.0
 11
355.0089523627355
 21
325.4535386454085
 31
0.0
  0
ARC
  5
37C
330
1A
100
AcDbEntity
  8
SEIHIN
  6
CONTINUOUS
 62
     3
100
AcDbCircle
 10
340.3500534854355
 20
333.4713697109084
 30
0.0
 40
8.0
100
AcDbArc
 50
358.4714751301
 51
45.0
  0
ARC
  5
37D
330
1A
100
AcDbEntity
  8
SEIHIN
  6
CONTINUOUS
 62
     3
100
AcDbCircle
 10
340.4389523627354
 20
333.3824708336085
 30
0.0
 40
5.0
100
AcDbArc
 50
0.0
 51
45.0
  0
ARC
  5
37E
330
1A
100
AcDbEntity
  8
SEIHIN
  6
CONTINUOUS
 62
     3
100
AcDbCircle
 10
350.1930325232355
 20
327.4535386454085
 30
0.0
 40
2.0
100
AcDbArc
 50
178.4714751300999
 51
270.0
  0
LINE
  5
37F
330
1A
100
AcDbEntity
  8
SEIHIN
  6
CONTINUOUS
 62
     3
100
AcDbLine
 10
345.4389523627355
 20
316.6290313763085
 30
0.0
 11
345.4389523627355
 21
333.3824708336085
 31
0.0
  0
LINE
  5
380
330
1A
100
AcDbEntity
  8
SEIHIN
  6
CONTINUOUS
 62
     3
100
AcDbLine
 10
348.3472068359355
 20
333.2579726922085
 30
0.0
 11
348.1937441855356
 21
327.5068879001085
 31
0.0
  0
LINE
  5
381
330
1A
100
AcDbEntity
  8
SEIHIN
  6
CONTINUOUS
 62
     3
100
AcDbLine
 10
360.9957989742355
 20
325.4535386454085
 30
0.0
 11
350.1930325232355
 21
325.4535386454085
 31
0.0
  0
LINE
  5
382
330
1A
100
AcDbEntity
  8
SEIHIN
  6
CONTINUOUS
 62
     3
100
AcDbLine
 10
364.8347000638355
 20
331.7535386454085
 30
0.0
 11
364.8347000638355
 21
334.4535386454085
 31
0.0
  0
ARC
  5
383
330
1A
100
AcDbEntity
  8
SEIHIN
  6
CONTINUOUS
 62
     3
100
AcDbCircle
 10
347.3089523627356
 20
336.6523820758085
 30
0.0
 40
7.7
100
AcDbArc
 50
0.0
 51
45.0
  0
LINE
  5
384
330
1A
100
AcDbEntity
  8
SEIHIN
  6
CONTINUOUS
 62
     3
100
AcDbLine
 10
381.6396882296355
 20
329.4535386454085
 30
0.0
 11
381.6396882296355
 21
324.4535386454084
 31
0.0
  0
LINE
  5
385
330
1A
100
AcDbEntity
  8
SEIHIN
  6
CONTINUOUS
 62
     3
100
AcDbLine
 10
377.7687875375356
 20
329.4535386454085
 30
0.0
 11
377.7687875375356
 21
324.4535386454084
 31
0.0
  0
LINE
  5
386
330
1A
100
AcDbEntity
  8
SEIHIN
  6
CONTINUOUS
 62
     3
100
AcDbLine
 10
369.5190960557356
 20
329.4535386454085
 30
0.0
 11
369.8539986336081
 21
324.4535386454084
 31
0.0
  0
LINE
  5
387
330
1A
100
AcDbEntity
  8
SEIHIN
  6
CONTINUOUS
 62
     3
100
AcDbLine
 10
366.8200566695356
 20
329.6344216781085
 30
0.0
 11
367.0422965385319
 21
326.3197446009197
 31
0.0
  0
LINE
  5
38A
330
1A
100
AcDbEntity
  8
SEIHIN
  6
CONTINUOUS
 62
     3
100
AcDbLine
 10
377.7687875375356
 20
329.4535386454085
 30
0.0
 11
379.1389523627355
 21
334.4535386454085
 31
0.0
  0
LINE
  5
38B
330
1A
100
AcDbEntity
  8
SEIHIN
  6
CONTINUOUS
 62
     3
100
AcDbLine
 10
396.0004640913355
 20
329.4535386454085
 30
0.0
 11
396.0004640913355
 21
324.4535386454084
 31
0.0
  0
LINE
  5
38C
330
1A
100
AcDbEntity
  8
SEIHIN
  6
CONTINUOUS
 62
     3
100
AcDbLine
 10
392.2534500572355
 20
329.4535386454085
 30
0.0
 11
392.2534500572355
 21
324.4535386454084
 31
0.0
  0
LINE
  5
38D
330
1A
100
AcDbEntity
  8
SEIHIN
  6
CONTINUOUS
 62
     3
100
AcDbLine
 10
388.6389523627355
 20
334.4535386454085
 30
0.0
 11
392.2534500572355
 21
329.4535386454085
 31
0.0
  0
LINE
  5
38E
330
1A
100
AcDbEntity
  8
SEIHIN
  6
CONTINUOUS
 62
     3
100
AcDbLine
 10
392.4389523627354
 20
334.4535386454085
 30
0.0
 11
396.0004640913355
 21
329.4535386454085
 31
0.0
  0
LINE
  5
38F
330
1A
100
AcDbEntity
  8
SEIHIN
  6
CONTINUOUS
 62
     3
100
AcDbLine
 10
324.4389523627355
 20
402.4535386454084
 30
0.0
 11
372.2154881700356
 21
402.4535386454084
 31
0.0
  0
LINE
  5
390
330
1A
100
AcDbEntity
  8
SEIHIN
  6
CONTINUOUS
 62
     3
100
AcDbLine
 10
324.4389523627355
 20
398.6535386454085
 30
0.0
 11
368.1756855125356
 21
398.6535386454085
 31
0.0
  0
LINE
  5
391
330
1A
100
AcDbEntity
  8
SEIHIN
  6
CONTINUOUS
 62
     3
100
AcDbLine
 10
324.4389523627355
 20
389.1535386454085
 30
0.0
 11
358.0761788687355
 21
389.1535386454085
 31
0.0
  0
LINE
  5
392
330
1A
100
AcDbEntity
  8
SEIHIN
  6
CONTINUOUS
 62
     3
100
AcDbLine
 10
319.4389523627354
 20
443.4271660876085
 30
0.0
 11
319.4389523627354
 21
379.5336823384085
 31
0.0
  0
LINE
  5
394
330
1A
100
AcDbEntity
  8
SEIHIN
  6
CONTINUOUS
 62
     3
100
AcDbLine
 10
324.4389523627355
 20
402.4535386454084
 30
0.0
 11
319.4389523627354
 21
406.0150503741085
 31
0.0
  0
LINE
  5
395
330
1A
100
AcDbEntity
  8
SEIHIN
  6
CONTINUOUS
 62
     3
100
AcDbLine
 10
314.4389523627355
 20
389.1535386454085
 30
0.0
 11
275.4389523627356
 21
389.1535386454085
 31
0.0
  0
LINE
  5
396
330
1A
100
AcDbEntity
  8
SEIHIN
  6
CONTINUOUS
 62
     3
100
AcDbLine
 10
315.4389523627354
 20
368.0103852569085
 30
0.0
 11
275.4389523627356
 21
368.0103852569085
 31
0.0
  0
LINE
  5
397
330
1A
100
AcDbEntity
  8
SEIHIN
  6
CONTINUOUS
 62
     3
100
AcDbLine
 10
275.4389523627356
 20
371.0103852569084
 30
0.0
 11
315.4389523627354
 21
371.0103852569084
 31
0.0
  0
LINE
  5
398
330
1A
100
AcDbEntity
  8
SEIHIN
  6
CONTINUOUS
 62
     3
100
AcDbLine
 10
304.4389523627356
 20
402.4535386454084
 30
0.0
 11
275.4389523627356
 21
402.4535386454084
 31
0.0
  0
LINE
  5
399
330
1A
100
AcDbEntity
  8
SEIHIN
  6
CONTINUOUS
 62
     3
100
AcDbLine
 10
314.4389523627355
 20
398.6535386454085
 30
0.0
 11
275.4389523627356
 21
398.6535386454085
 31
0.0
  0
LINE
  5
39A
330
1A
100
AcDbEntity
  8
SEIHIN
  6
CONTINUOUS
 62
     3
100
AcDbLine
 10
314.4389523627355
 20
402.4535386454084
 30
0.0
 11
275.4389523627356
 21
402.4535386454084
 31
0.0
  0
ARC
  5
39C
330
1A
100
AcDbEntity
  8
SEIHIN
  6
CONTINUOUS
 62
     3
100
AcDbCircle
 10
317.4389523627354
 20
360.2076188059085
 30
0.0
 40
2.0
100
AcDbArc
 50
180.0
 51
271.5285248699
  0
LINE
  5
39D
330
1A
100
AcDbEntity
  8
SEIHIN
  6
CONTINUOUS
 62
     3
100
AcDbLine
 10
326.6377957931355
 20
365.0235386454085
 30
0.0
 11
315.4389523627354
 21
365.0235386454085
 31
0.0
  0
LINE
  5
39E
330
1A
100
AcDbEntity
  8
SEIHIN
  6
CONTINUOUS
 62
     3
100
AcDbLine
 10
319.4389523627354
 20
379.5336823384085
 30
0.0
 11
314.4389523627355
 21
379.8685849162809
 31
0.0
  0
LINE
  5
39F
330
1A
100
AcDbEntity
  8
SEIHIN
  6
CONTINUOUS
 62
     3
100
AcDbLine
 10
319.6198353954355
 20
376.8346429522085
 30
0.0
 11
316.3051583182328
 21
377.0568828212291
 31
0.0
  0
LINE
  5
3A0
330
1A
100
AcDbEntity
  8
SEIHIN
  6
CONTINUOUS
 62
     3
100
AcDbLine
 10
315.4389523627354
 20
371.0103852569084
 30
0.0
 11
315.4389523627354
 21
360.2076188059085
 31
0.0
  0
LINE
  5
3A2
330
1A
100
AcDbEntity
  8
SEIHIN
  6
CONTINUOUS
 62
     3
100
AcDbLine
 10
317.4923016174355
 20
358.2083304683085
 30
0.0
 11
323.2433864095355
 21
358.3617931187085
 31
0.0
  0
ARC
  5
3A3
330
1A
100
AcDbEntity
  8
SEIHIN
  6
CONTINUOUS
 62
     3
100
AcDbCircle
 10
326.6377957931355
 20
357.3235386454085
 30
0.0
 40
7.7
100
AcDbArc
 50
45.0
 51
90.0
  0
LINE
  5
3A4
330
1A
100
AcDbEntity
  8
SEIHIN
  6
CONTINUOUS
 62
     3
100
AcDbLine
 10
324.4389523627355
 20
374.8492863466085
 30
0.0
 11
319.4389523627354
 21
379.5336823384085
 31
0.0
  0
LINE
  5
3A5
330
1A
100
AcDbEntity
  8
SEIHIN
  6
CONTINUOUS
 62
     3
100
AcDbLine
 10
321.7389523627355
 20
374.8492863466085
 30
0.0
 11
319.6198353954355
 21
376.8346429522085
 31
0.0
  0
LINE
  5
3A6
330
1A
100
AcDbEntity
  8
SEIHIN
  6
CONTINUOUS
 62
     3
100
AcDbLine
 10
321.7389523627355
 20
374.8492863466085
 30
0.0
 11
324.4389523627355
 21
374.8492863466085
 31
0.0
  0
LINE
  5
3A7
330
1A
100
AcDbEntity
  8
SEIHIN
  6
CONTINUOUS
 62
     3
100
AcDbLine
 10
319.4389523627354
 20
387.7833738203085
 30
0.0
 11
314.4389523627355
 21
387.7833738203085
 31
0.0
  0
LINE
  5
3A8
330
1A
100
AcDbEntity
  8
SEIHIN
  6
CONTINUOUS
 62
     3
100
AcDbLine
 10
319.4389523627354
 20
391.6542745123085
 30
0.0
 11
314.4389523627355
 21
391.6542745123085
 31
0.0
  0
LINE
  5
3A9
330
1A
100
AcDbEntity
  8
SEIHIN
  6
CONTINUOUS
 62
     3
100
AcDbLine
 10
319.4389523627354
 20
402.2680363399085
 30
0.0
 11
314.4389523627355
 21
402.2680363399084
 31
0.0
  0
LINE
  5
3AA
330
1A
100
AcDbEntity
  8
SEIHIN
  6
CONTINUOUS
 62
     3
100
AcDbLine
 10
319.4389523627354
 20
387.7833738203085
 30
0.0
 11
324.4389523627355
 21
389.1535386454085
 31
0.0
  0
LINE
  5
3AB
330
1A
100
AcDbEntity
  8
SEIHIN
  6
CONTINUOUS
 62
     3
100
AcDbLine
 10
324.4389523627355
 20
398.6535386454085
 30
0.0
 11
319.4389523627354
 21
402.2680363399085
 31
0.0
  0
LINE
  5
3AC
330
1A
100
AcDbEntity
  8
SEIHIN
  6
CONTINUOUS
 62
     3
100
AcDbLine
 10
319.4389523627354
 20
406.0150503741085
 30
0.0
 11
314.4389523627355
 21
406.0150503741085
 31
0.0
  0
LINE
  5
3AD
330
1A
100
AcDbEntity
  8
SEIHIN
  6
CONTINUOUS
 62
     3
100
AcDbLine
 10
316.1101543881247
 20
442.8723664251734
 30
0.0
 11
319.4389523627354
 21
443.4271660876085
 31
0.0
  0
LINE
  5
3AF
330
1A
100
AcDbEntity
  8
SEIHIN
  6
CONTINUOUS
 62
     3
100
AcDbLine
 10
322.5278353954355
 20
443.4271660876085
 30
0.0
 11
319.4389523627354
 21
443.4271660876085
 31
0.0
  0
LINE
  5
3B0
330
1A
100
AcDbEntity
  8
SEIHIN
  6
CONTINUOUS
 62
     3
100
AcDbLine
 10
363.5209010839356
 20
386.8982608606085
 30
0.0
 11
376.8836745779355
 21
373.5354873666084
 31
0.0
  0
ARC
  5
3B1
330
1A
100
AcDbEntity
  8
SEIHIN
  6
CONTINUOUS
 62
     3
100
AcDbCircle
 10
358.0761788687355
 20
381.4535386454085
 30
0.0
 40
7.7
100
AcDbArc
 50
45.0
 51
90.0
  0
ARC
  5
3B2
330
1A
100
AcDbEntity
  8
SEIHIN
  6
CONTINUOUS
 62
     3
100
AcDbCircle
 10
380.9389523627355
 20
378.1902717952084
 30
0.0
 40
7.7
100
AcDbArc
 50
0.0
 51
45.0
  0
ARC
  5
3B3
330
1A
100
AcDbEntity
  8
SEIHIN
  6
CONTINUOUS
 62
     3
100
AcDbCircle
 10
371.4389523627354
 20
368.0907651515085
 30
0.0
 40
7.7
100
AcDbArc
 50
0.0
 51
45.0
  0
LINE
  5
3B4
330
1A
100
AcDbEntity
  8
SEIHIN
  6
CONTINUOUS
 62
     3
100
AcDbLine
 10
377.6602103851355
 20
400.1982608606085
 30
0.0
 11
390.1836745779355
 21
387.6747966679085
 31
0.0
  0
LINE
  5
3B5
330
1A
100
AcDbEntity
  8
SEIHIN
  6
CONTINUOUS
 62
     3
100
AcDbLine
 10
373.6204077276356
 20
396.3982608606085
 30
0.0
 11
386.3836745779355
 21
383.6349940104085
 31
0.0
  0
ARC
  5
3B6
330
1A
100
AcDbEntity
  8
SEIHIN
  6
CONTINUOUS
 62
     3
100
AcDbCircle
 10
372.2154881700356
 20
394.7535386454085
 30
0.0
 40
7.7
100
AcDbArc
 50
45.0
 51
90.0
  0
ARC
  5
3B7
330
1A
100
AcDbEntity
  8
SEIHIN
  6
CONTINUOUS
 62
     3
100
AcDbCircle
 10
368.1756855125356
 20
390.9535386454085
 30
0.0
 40
7.7
100
AcDbArc
 50
45.0
 51
90.0
  0
ARC
  5
3B8
330
1A
100
AcDbEntity
  8
SEIHIN
  6
CONTINUOUS
 62
     3
100
AcDbCircle
 10
384.7389523627355
 20
382.2300744527085
 30
0.0
 40
7.7
100
AcDbArc
 50
0.0
 51
45.0
  0
LINE
  5
3B9
330
1A
100
AcDbEntity
  8
SEIHIN
  6
CONTINUOUS
 62
     3
100
AcDbLine
 10
319.4389523627354
 20
498.5907018285083
 30
0.0
 11
319.4389523627354
 21
463.4271660876085
 31
0.0
  0
LINE
  5
3BA
330
1A
100
AcDbEntity
  8
SEIHIN
  6
CONTINUOUS
 62
     3
100
AcDbLine
 10
315.4389523627354
 20
493.7535386454085
 30
0.0
 11
315.4389523627354
 21
506.4203490624083
 31
0.0
  0
LINE
  5
3BB
330
1A
100
AcDbEntity
  8
SEIHIN
  6
CONTINUOUS
 62
     3
100
AcDbLine
 10
319.4389523627354
 20
495.6445529376085
 30
0.0
 11
324.4389523627355
 21
500.8861248009086
 31
0.0
  0
LINE
  5
3BC
330
1A
100
AcDbEntity
  8
SEIHIN
  6
CONTINUOUS
 62
     3
100
AcDbLine
 10
315.4389523627354
 20
493.7535386454085
 30
0.0
 11
275.4389523627356
 21
493.7535386454085
 31
0.0
  0
LINE
  5
3BD
330
1A
100
AcDbEntity
  8
SEIHIN
  6
CONTINUOUS
 62
     3
100
AcDbLine
 10
304.2197477380355
 20
467.3591657065085
 30
0.0
 11
300.1794054510356
 21
493.7535386454085
 31
0.0
  0
LINE
  5
3BE
330
1A
100
AcDbEntity
  8
SEIHIN
  6
CONTINUOUS
 62
     3
100
AcDbLine
 10
319.4389523627354
 20
463.4271660876085
 30
0.0
 11
305.8679214557356
 21
465.6890045721085
 31
0.0
  0
ARC
  5
3BF
330
1A
100
AcDbEntity
  8
SEIHIN
  6
CONTINUOUS
 62
     3
100
AcDbCircle
 10
306.1967194304356
 20
467.6617924197085
 30
0.0
 40
2.0
100
AcDbArc
 50
188.7030451607
 51
260.537677792
  0
LINE
  5
3C0
330
1A
100
AcDbEntity
  8
SEIHIN
  6
CONTINUOUS
 62
     3
100
AcDbLine
 10
322.5278353954355
 20
463.4271660876085
 30
0.0
 11
319.4389523627354
 21
463.4271660876085
 31
0.0
  0
LINE
  5
3C1
330
1A
100
AcDbEntity
  8
SEIHIN
  6
CONTINUOUS
 62
     3
100
AcDbLine
 10
319.4389523627354
 20
495.6445529376085
 30
0.0
 11
315.4389523627354
 21
495.6445529376085
 31
0.0
  0
ARC
  5
3C2
330
1A
100
AcDbEntity
  8
SEIHIN
  6
CONTINUOUS
 62
     3
100
AcDbCircle
 10
306.4335620609355
 20
306.4203490624085
 30
0.0
 40
200.0
100
AcDbArc
 50
90.0
 51
93.43363036250002
  0
LINE
  5
3C3
330
1A
100
AcDbEntity
  8
SEIHIN
  6
CONTINUOUS
 62
     3
100
AcDbLine
 10
294.4551039153355
 20
506.0613181556084
 30
0.0
 11
275.4389523627356
 21
504.9203490624083
 31
0.0
  0
LINE
  5
3C4
330
1A
100
AcDbEntity
  8
SEIHIN
  6
CONTINUOUS
 62
     3
100
AcDbLine
 10
315.4389523627354
 20
498.5907018285083
 30
0.0
 11
319.4389523627354
 21
498.5907018285083
 31
0.0
  0
LINE
  5
3C5
330
1A
100
AcDbEntity
  8
SEIHIN
  6
CONTINUOUS
 62
     3
100
AcDbLine
 10
315.4389523627354
 20
501.2574180200085
 30
0.0
 11
319.4389523627354
 21
501.2574180200085
 31
0.0
  0
LINE
  5
3C6
330
1A
100
AcDbEntity
  8
SEIHIN
  6
CONTINUOUS
 62
     3
100
AcDbLine
 10
319.4389523627354
 20
501.2574180200085
 30
0.0
 11
321.8951389218355
 21
503.8322736918084
 31
0.0
  0
LINE
  5
3C7
330
1A
100
AcDbEntity
  8
SEIHIN
  6
CONTINUOUS
 62
     3
100
AcDbLine
 10
319.4389523627354
 20
498.5907018285083
 30
0.0
 11
324.4389523627355
 21
503.8322736918084
 31
0.0
  0
LINE
  5
3CA
330
1A
100
AcDbEntity
  8
CENTER_L
  6
CENTER
 62
     1
 48
5.0
100
AcDbLine
 10
443.4125798048355
 20
67.88528789034945
 30
0.0
 11
443.4125798048355
 21
88.83528789034949
 31
0.0
  0
ARC
  5
3CB
330
1A
100
AcDbEntity
  8
SEIHIN
  6
CONTINUOUS
 62
     3
100
AcDbCircle
 10
485.7413959311356
 20
83.48606179394961
 30
0.0
 40
7.7
100
AcDbArc
 50
272.4381855724999
 51
357.2785629215
  0
ARC
  5
3CC
330
1A
100
AcDbEntity
  8
SEIHIN
  6
CONTINUOUS
 62
     3
100
AcDbCircle
 10
485.7413959311356
 20
83.48606179394961
 30
0.0
 40
6.2
100
AcDbArc
 50
272.4381855724999
 51
357.2785629215
  0
ARC
  5
3CD
330
1A
100
AcDbEntity
  8
SEIHIN
  6
CONTINUOUS
 62
     3
100
AcDbCircle
 10
483.3050366793356
 20
85.93736933024961
 30
0.0
 40
3.299999999999999
100
AcDbArc
 50
272.3036781289
 51
357.2785629215
  0
ARC
  5
3CE
330
1A
100
AcDbEntity
  8
SEIHIN
  6
CONTINUOUS
 62
     3
100
AcDbCircle
 10
483.3050366793356
 20
85.93736933024961
 30
0.0
 40
4.299999999999999
100
AcDbArc
 50
272.3036781289
 51
357.2785629215
  0
ARC
  5
3CF
330
1A
100
AcDbEntity
  8
SEIHIN
  6
CONTINUOUS
 62
     3
100
AcDbCircle
 10
483.3050366793356
 20
85.93736933024961
 30
0.0
 40
6.0
100
AcDbArc
 50
272.3036781289
 51
357.2785629215
  0
ARC
  5
3D0
330
1A
100
AcDbEntity
  8
SEIHIN
  6
CONTINUOUS
 62
     3
100
AcDbCircle
 10
485.7413962718355
 20
83.48606180844962
 30
0.0
 40
5.0
100
AcDbArc
 50
272.4381855922
 51
357.2574457102999
  0
ARC
  5
3D1
330
1A
100
AcDbEntity
  8
SEIHIN
  6
CONTINUOUS
 62
     3
100
AcDbCircle
 10
443.4125798048355
 20
1077.585287890349
 30
0.0
 40
998.45
100
AcDbArc
 50
270.5738568527
 51
272.3036781289
  0
ARC
  5
3D2
330
1A
100
AcDbEntity
  8
SEIHIN
  6
CONTINUOUS
 62
     3
100
AcDbCircle
 10
443.4125798048355
 20
1077.585287890349
 30
0.0
 40
996.7499999999999
100
AcDbArc
 50
270.7192729659
 51
272.3036781289
  0
ARC
  5
3D3
330
1A
100
AcDbEntity
  8
SEIHIN
  6
CONTINUOUS
 62
     3
100
AcDbCircle
 10
443.4125798048355
 20
1077.585287890349
 30
0.0
 40
995.7499999999999
100
AcDbArc
 50
270.5754129315
 51
272.3036781289
  0
LINE
  5
3D4
330
1A
100
AcDbEntity
  8
SEIHIN
  6
CONTINUOUS
 62
     3
100
AcDbLine
 10
430.9000264531356
 20
80.9138282263496
 30
0.0
 11
433.4125798048354
 21
79.1853667665496
 31
0.0
  0
LINE
  5
3D5
330
1A
100
AcDbEntity
  8
SEIHIN
  6
CONTINUOUS
 62
     3
100
AcDbLine
 10
430.9125798048355
 20
81.9137494299496
 30
0.0
 11
430.9000264531356
 21
80.9138282263496
 31
0.0
  0
ARC
  5
3D6
330
1A
100
AcDbEntity
  8
SEIHIN
  6
CONTINUOUS
 62
     3
100
AcDbCircle
 10
443.4125798048355
 20
1077.585287890349
 30
0.0
 40
1000.0
100
AcDbArc
 50
269.4838148236
 51
270.5161851763999
  0
LINE
  5
3D7
330
1A
100
AcDbEntity
  8
SEIHIN
  6
CONTINUOUS
 62
     3
100
AcDbLine
 10
433.4125798048354
 20
81.88550256344962
 30
0.0
 11
433.4125798048354
 21
78.62582925344961
 31
0.0
  0
ARC
  5
3D8
330
1A
100
AcDbEntity
  8
SEIHIN
  6
CONTINUOUS
 62
     3
100
AcDbCircle
 10
434.4125798048355
 20
78.62582925344961
 30
0.0
 40
1.0
100
AcDbArc
 50
180.0
 51
269.4838148236
  0
ARC
  5
3D9
330
1A
100
AcDbEntity
  8
SEIHIN
  6
CONTINUOUS
 62
     3
100
AcDbCircle
 10
452.4125798048355
 20
78.62582925344961
 30
0.0
 40
1.0
100
AcDbArc
 50
270.5161851763999
 51
0.0
  0
LINE
  5
3DA
330
1A
100
AcDbEntity
  8
SEIHIN
  6
CONTINUOUS
 62
     3
100
AcDbLine
 10
453.4125798048354
 20
81.88550256344962
 30
0.0
 11
453.4125798048354
 21
78.62582925344961
 31
0.0
  0
LINE
  5
3DB
330
1A
100
AcDbEntity
  8
SEIHIN
  6
CONTINUOUS
 62
     3
100
AcDbLine
 10
455.9251331566356
 20
80.9138282263496
 30
0.0
 11
453.4125798048354
 21
79.1853667665496
 31
0.0
  0
LINE
  5
3DC
330
1A
100
AcDbEntity
  8
SEIHIN
  6
CONTINUOUS
 62
     3
100
AcDbLine
 10
455.9125798048355
 20
81.9137494299496
 30
0.0
 11
455.9251331566356
 21
80.9138282263496
 31
0.0
  0
LINE
  5
3DF
330
1A
100
AcDbEntity
  8
SEIHIN
  6
CONTINUOUS
 62
     3
100
AcDbLine
 10
496.4001237034355
 20
145.5478878092496
 30
0.0
 11
493.4327117193356
 21
83.12046441064962
 31
0.0
  0
LINE
  5
3E0
330
1A
100
AcDbEntity
  8
SEIHIN
  6
CONTINUOUS
 62
     3
100
AcDbLine
 10
494.8984300414355
 20
145.5478873397496
 30
0.0
 11
491.9344034489355
 21
83.19168468014959
 31
0.0
  0
LINE
  5
3E1
330
1A
100
AcDbEntity
  8
SEIHIN
  6
CONTINUOUS
 62
     3
100
AcDbLine
 10
493.5687338988355
 20
142.8478873397495
 30
0.0
 11
490.7356693364356
 21
83.24682018044962
 31
0.0
  0
LINE
  5
3E2
330
1A
100
AcDbEntity
  8
SEIHIN
  6
CONTINUOUS
 62
     3
100
AcDbLine
 10
491.2417039175356
 20
126.5378077106496
 30
0.0
 11
489.2982697610356
 21
85.65248825234959
 31
0.0
  0
LINE
  5
3E3
330
1A
100
AcDbEntity
  8
SEIHIN
  6
CONTINUOUS
 62
     3
100
AcDbLine
 10
488.5431691918356
 20
126.6327680699496
 30
0.0
 11
486.6013148743355
 21
85.78068473734962
 31
0.0
  0
LINE
  5
3E4
330
1A
100
AcDbEntity
  8
SEIHIN
  6
CONTINUOUS
 62
     3
100
AcDbLine
 10
489.5187258600355
 20
126.0947839262496
 30
0.0
 11
487.6001870545355
 21
85.73320455774961
 31
0.0
  0
ARC
  5
3E5
330
1A
100
AcDbEntity
  8
SEIHIN
  6
CONTINUOUS
 62
     3
100
AcDbCircle
 10
489.5420413721355
 20
126.5852878903496
 30
0.0
 40
1.0
100
AcDbArc
 50
90.0
 51
177.2785629215
  0
LINE
  5
3E6
330
1A
100
AcDbEntity
  8
SEIHIN
  6
CONTINUOUS
 62
     3
100
AcDbLine
 10
489.5420413721355
 20
127.5852878903495
 30
0.0
 11
491.8896494100356
 21
127.5852878903495
 31
0.0
  0
ARC
  5
3E7
330
1A
100
AcDbEntity
  8
SEIHIN
  6
CONTINUOUS
 62
     3
100
AcDbCircle
 10
490.2428317373355
 20
126.5852878903496
 30
0.0
 40
1.0
100
AcDbArc
 50
357.2785629215
 51
90.0
  0
ARC
  5
3E8
330
1A
100
AcDbEntity
  8
SEIHIN
  6
CONTINUOUS
 62
     3
100
AcDbCircle
 10
491.8896494100356
 20
128.5852878903495
 30
0.0
 40
1.0
100
AcDbArc
 50
270.0
 51
357.2785629215
  0
ARC
  5
3E9
330
1A
100
AcDbEntity
  8
SEIHIN
  6
CONTINUOUS
 62
     3
100
AcDbCircle
 10
491.4057627797355
 20
145.7852882380496
 30
0.0
 40
5.0
100
AcDbArc
 50
357.2785683072
 51
90.00000235379999
  0
ARC
  5
3F4
330
1A
100
AcDbEntity
  8
SEIHIN
  6
CONTINUOUS
 62
     3
100
AcDbCircle
 10
486.3389523627356
 20
148.1852882380496
 30
0.0
 40
2.6
100
AcDbArc
 50
89.9999934384
 51
270.0
  0
ARC
  5
3F5
330
1A
100
AcDbEntity
  8
SEIHIN
  6
CONTINUOUS
 62
     3
100
AcDbCircle
 10
488.6314135444355
 20
144.2852882380496
 30
0.0
 40
5.0
100
AcDbArc
 50
357.2785629215
 51
90.0
  0
ARC
  5
3F6
330
1A
100
AcDbEntity
  8
SEIHIN
  6
CONTINUOUS
 62
     3
100
AcDbCircle
 10
488.5743729974355
 20
143.0852882380496
 30
0.0
 40
5.0
100
AcDbArc
 50
357.2785629215
 51
89.99999359379998
  0
LINE
  5
3F7
330
1A
100
AcDbEntity
  8
SEIHIN
  6
CONTINUOUS
 62
     3
100
AcDbLine
 10
486.3389526605355
 20
150.7852882380496
 30
0.0
 11
491.4057625743356
 21
150.7852882380496
 31
0.0
  0
LINE
  5
3FF
330
1A
100
AcDbEntity
  8
SEIHIN
  6
CONTINUOUS
 62
     3
100
AcDbLine
 10
485.1389523627355
 20
149.2852882380496
 30
0.0
 11
485.1389523627355
 21
145.8787757191496
 31
0.0
  0
LINE
  5
400
330
1A
100
AcDbEntity
  8
SEIHIN
  6
CONTINUOUS
 62
     3
100
AcDbLine
 10
486.3389523627356
 20
148.1852882380496
 30
0.0
 11
486.3389523627356
 21
145.5852882380495
 31
0.0
  0
LINE
  5
401
330
1A
100
AcDbEntity
  8
SEIHIN
  6
CONTINUOUS
 62
     3
100
AcDbLine
 10
485.1389523627355
 20
149.2852882380496
 30
0.0
 11
488.6314135444355
 21
149.2852882380496
 31
0.0
  0
LINE
  5
402
330
1A
100
AcDbEntity
  8
SEIHIN
  6
CONTINUOUS
 62
     3
100
AcDbLine
 10
485.1389523627355
 20
149.2852882380496
 30
0.0
 11
486.3389523627356
 21
148.1852882380496
 31
0.0
  0
LINE
  5
403
330
1A
100
AcDbEntity
  8
SEIHIN
  6
CONTINUOUS
 62
     3
100
AcDbLine
 10
486.3389523627356
 20
148.0852882380496
 30
0.0
 11
488.5743729974355
 21
148.0852882380496
 31
0.0
  0
ARC
  5
405
330
1A
100
AcDbEntity
  8
SEIHIN
  6
CONTINUOUS
 62
     3
100
AcDbCircle
 10
489.9040691400355
 20
145.7852882380496
 30
0.0
 40
5.0
100
AcDbArc
 50
357.2785629215
 51
90.0
  0
LINE
  5
406
330
1A
100
AcDbEntity
  8
SEIHIN
  6
CONTINUOUS
 62
     3
100
AcDbLine
 10
496.4057627797355
 20
316.4481483436085
 30
0.0
 11
496.4057627797355
 21
498.9203490624084
 31
0.0
  0
LINE
  5
407
330
1A
100
AcDbEntity
  8
SEIHIN
  6
CONTINUOUS
 62
     3
100
AcDbLine
 10
493.8176874091356
 20
325.4535386454085
 30
0.0
 11
493.8176874091356
 21
499.0322736918085
 31
0.0
  0
LINE
  5
408
330
1A
100
AcDbEntity
  8
SEIHIN
  6
CONTINUOUS
 62
     3
100
AcDbLine
 10
490.5176392520356
 20
334.4535386454085
 30
0.0
 11
490.5176392520356
 21
495.7322255348085
 31
0.0
  0
LINE
  5
409
330
1A
100
AcDbEntity
  8
CENTER_L
  6
CENTER
 62
     1
 48
5.0
100
AcDbLine
 10
443.4125798048355
 20
273.9909391960085
 30
0.0
 11
443.4125798048355
 21
458.4271660876085
 31
0.0
  0
LINE
  5
40A
330
1A
100
AcDbEntity
  8
SEIHIN
  6
CONTINUOUS
 62
     3
100
AcDbLine
 10
457.3445794238355
 20
314.2343340207085
 30
0.0
 11
483.7389523627355
 21
310.1939917338085
 31
0.0
  0
LINE
  5
40B
330
1A
100
AcDbEntity
  8
SEIHIN
  6
CONTINUOUS
 62
     3
100
AcDbLine
 10
488.5761155458355
 20
329.4535386454085
 30
0.0
 11
453.4125798048354
 21
329.4535386454085
 31
0.0
  0
LINE
  5
40C
330
1A
100
AcDbEntity
  8
SEIHIN
  6
CONTINUOUS
 62
     3
100
AcDbLine
 10
432.8577801424003
 20
326.1247406707977
 30
0.0
 11
433.4125798048354
 21
329.4535386454085
 31
0.0
  0
LINE
  5
40E
330
1A
100
AcDbEntity
  8
SEIHIN
  6
CONTINUOUS
 62
     3
100
AcDbLine
 10
433.4125798048354
 20
329.6344216781085
 30
0.0
 11
453.4125798048354
 21
329.6344216781085
 31
0.0
  0
LINE
  5
40F
330
1A
100
AcDbEntity
  8
SEIHIN
  6
CONTINUOUS
 62
     3
100
AcDbLine
 10
433.4125798048354
 20
332.5425394365085
 30
0.0
 11
453.4125798048354
 21
332.5425394365085
 31
0.0
  0
LINE
  5
410
330
1A
100
AcDbEntity
  8
SEIHIN
  6
CONTINUOUS
 62
     3
100
AcDbLine
 10
433.4125798048354
 20
332.5425394365085
 30
0.0
 11
433.4125798048354
 21
329.4535386454085
 31
0.0
  0
LINE
  5
411
330
1A
100
AcDbEntity
  8
SEIHIN
  6
CONTINUOUS
 62
     3
100
AcDbLine
 10
453.4125798048354
 20
329.4535386454085
 30
0.0
 11
455.6744182893354
 21
315.8825077385085
 31
0.0
  0
ARC
  5
412
330
1A
100
AcDbEntity
  8
SEIHIN
  6
CONTINUOUS
 62
     3
100
AcDbCircle
 10
457.6472061370356
 20
316.2113057131085
 30
0.0
 40
2.0
100
AcDbArc
 50
189.4623222079999
 51
261.2969548392999
  0
LINE
  5
413
330
1A
100
AcDbEntity
  8
SEIHIN
  6
CONTINUOUS
 62
     3
100
AcDbLine
 10
453.4125798048354
 20
332.5425394365085
 30
0.0
 11
453.4125798048354
 21
329.4535386454085
 31
0.0
  0
LINE
  5
414
330
1A
100
AcDbEntity
  8
SEIHIN
  6
CONTINUOUS
 62
     3
100
AcDbLine
 10
483.7389523627355
 20
325.4535386454085
 30
0.0
 11
483.7389523627355
 21
285.4535386454084
 31
0.0
  0
ARC
  5
415
330
1A
100
AcDbEntity
  8
SEIHIN
  6
CONTINUOUS
 62
     3
100
AcDbCircle
 10
296.4057627797355
 20
316.4481483436085
 30
0.0
 40
200.0
100
AcDbArc
 50
356.5663696374999
 51
0.0
  0
LINE
  5
416
330
1A
100
AcDbEntity
  8
SEIHIN
  6
CONTINUOUS
 62
     3
100
AcDbLine
 10
496.0467318729356
 20
304.4696901980085
 30
0.0
 11
494.9057627797355
 21
285.4535386454084
 31
0.0
  0
LINE
  5
417
330
1A
100
AcDbEntity
  8
SEIHIN
  6
CONTINUOUS
 62
     3
100
AcDbLine
 10
483.7389523627355
 20
325.4535386454085
 30
0.0
 11
496.4057627797355
 21
325.4535386454085
 31
0.0
  0
LINE
  5
418
330
1A
100
AcDbEntity
  8
SEIHIN
  6
CONTINUOUS
 62
     3
100
AcDbLine
 10
485.6299666549356
 20
329.4535386454085
 30
0.0
 11
490.8715385182356
 21
334.4535386454085
 31
0.0
  0
LINE
  5
419
330
1A
100
AcDbEntity
  8
SEIHIN
  6
CONTINUOUS
 62
     3
100
AcDbLine
 10
488.5761155458355
 20
329.4535386454085
 30
0.0
 11
493.8176874091356
 21
334.4535386454085
 31
0.0
  0
LINE
  5
41A
330
1A
100
AcDbEntity
  8
SEIHIN
  6
CONTINUOUS
 62
     3
100
AcDbLine
 10
485.6299666549356
 20
329.4535386454085
 30
0.0
 11
485.6299666549356
 21
325.4535386454085
 31
0.0
  0
LINE
  5
41B
330
1A
100
AcDbEntity
  8
SEIHIN
  6
CONTINUOUS
 62
     3
100
AcDbLine
 10
488.5761155458355
 20
325.4535386454085
 30
0.0
 11
488.5761155458355
 21
329.4535386454085
 31
0.0
  0
LINE
  5
41C
330
1A
100
AcDbEntity
  8
SEIHIN
  6
CONTINUOUS
 62
     3
100
AcDbLine
 10
491.2428317373355
 20
325.4535386454085
 30
0.0
 11
491.2428317373355
 21
329.4535386454085
 31
0.0
  0
LINE
  5
41D
330
1A
100
AcDbEntity
  8
SEIHIN
  6
CONTINUOUS
 62
     3
100
AcDbLine
 10
491.2428317373355
 20
329.4535386454085
 30
0.0
 11
493.8176874091356
 21
331.9097252045085
 31
0.0
  0
ARC
  5
41E
330
1A
100
AcDbEntity
  8
SEIHIN
  6
CONTINUOUS
 62
     3
100
AcDbCircle
 10
485.7176392520355
 20
495.7322255348085
 30
0.0
 40
4.799999999999999
100
AcDbArc
 50
0.0
 51
90.0
  0
ARC
  5
41F
330
1A
100
AcDbEntity
  8
SEIHIN
  6
CONTINUOUS
 62
     3
100
AcDbCircle
 10
488.9057627797355
 20
498.9203490624084
 30
0.0
 40
7.5
100
AcDbArc
 50
0.0
 51
90.0
  0
ARC
  5
420
330
1A
100
AcDbEntity
  8
SEIHIN
  6
CONTINUOUS
 62
     3
100
AcDbCircle
 10
489.0176874091356
 20
499.0322736918085
 30
0.0
 40
4.799999999999999
100
AcDbArc
 50
0.0
 51
90.0
  0
LINE
  5
424
330
1A
100
AcDbEntity
  8
CENTER_L
  6
CENTER
 62
     1
 48
5.0
100
AcDbLine
 10
325.5394574260987
 20
335.554043708872
 30
0.0
 11
503.4057627796353
 21
513.4203490624084
 31
0.0
  0
DIMENSION
  5
459
330
1A
100
AcDbEntity
  8
SUNPOU
100
AcDbDimension
  2
*D1
 10
532.1123499820592
 20
150.7852882380496
 30
0.0
 11
527.1123499820592
 21
113.4512098142322
 31
0.0
 70
    32
  3
STANDARD
100
AcDbAlignedDimension
 13
493.0998167638574
 23
76.11713139041467
 33
0.0
 14
489.9040691400355
 24
150.7852882380496
 34
0.0
 50
90.0
100
AcDbRotatedDimension
1001
ACAD
1000
DSTYLE
1002
{
1070
   372
1070
    -1
1070
   371
1070
    -1
1070
    41
1040
7.0
1070
    42
1040
6.0
1070
    43
1040
14.0
1070
    44
1040
3.0
1070
    73
1070
     0
1070
    74
1070
     0
1070
    77
1070
     3
1070
   140
1040
6.0
1070
   141
1040
150.0
1070
   147
1040
2.0
1070
   172
1070
     1
1070
   173
1070
     1
1070
   176
1070
   256
1070
   177
1070
   256
1070
   178
1070
   256
1070
   271
1070
     0
1070
   272
1070
     2
1070
     6
1000
OPEN
1070
     7
1000
OPEN
1002
}
  0
DIMENSION
  5
467
330
1A
100
AcDbEntity
  8
SUNPOU
100
AcDbDimension
  2
*D2
 10
229.5167624248461
 20
74.88528789034962
 30
0.0
 11
224.516762424846
 21
133.1520752771496
 31
0.0
 70
    32
  3
STANDARD
100
AcDbAlignedDimension
 13
275.4389523627356
 23
191.4188626639496
 33
0.0
 14
275.4389523627356
 24
74.88528789034962
 34
0.0
 50
90.0
100
AcDbRotatedDimension
1001
ACAD
1000
DSTYLE
1002
{
1070
   372
1070
    -1
1070
   371
1070
    -1
1070
    41
1040
7.0
1070
    42
1040
6.0
1070
    43
1040
14.0
1070
    44
1040
3.0
1070
    73
1070
     0
1070
    74
1070
     0
1070
    77
1070
     3
1070
   140
1040
6.0
1070
   141
1040
150.0
1070
   147
1040
2.0
1070
   172
1070
     1
1070
   173
1070
     1
1070
   176
1070
   256
1070
   177
1070
   256
1070
   178
1070
   256
1070
   271
1070
     0
1070
   272
1070
     2
1070
     6
1000
OPEN
1070
     7
1000
OPEN
1002
}
  0
DIMENSION
  5
474
330
1A
100
AcDbEntity
  8
SUNPOU
100
AcDbDimension
  2
*D3
 10
496.4001237034572
 20
225.9254492541722
 30
0.0
 11
420.9287631329964
 21
230.9254492541722
 31
0.0
 70
    32
  3
STANDARD
100
AcDbAlignedDimension
 13
345.4574025625355
 23
172.7287071912496
 33
0.0
 14
496.4001237034572
 24
145.5478878092355
 34
0.0
100
AcDbRotatedDimension
1001
ACAD
1000
DSTYLE
1002
{
1070
   372
1070
    -1
1070
   371
1070
    -1
1070
    41
1040
7.0
1070
    42
1040
6.0
1070
    43
1040
14.0
1070
    44
1040
3.0
1070
    73
1070
     0
1070
    74
1070
     0
1070
    77
1070
     3
1070
   140
1040
6.0
1070
   141
1040
150.0
1070
   147
1040
2.0
1070
   172
1070
     1
1070
   173
1070
     1
1070
   176
1070
   256
1070
   177
1070
   256
1070
   178
1070
   256
1070
   271
1070
     0
1070
   272
1070
     2
1070
     6
1000
OPEN
1070
     7
1000
OPEN
1002
}
  0
DIMENSION
  5
481
330
1A
100
AcDbEntity
  8
SUNPOU
100
AcDbDimension
  2
*D4
 10
496.4001237034355
 20
242.9483163333864
 30
0.0
 11
385.9195380330855
 21
247.9483163333863
 31
0.0
 70
    32
  3
STANDARD
100
AcDbAlignedDimension
 13
275.4389523627356
 23
191.4188626639496
 33
0.0
 14
496.4001237034355
 24
145.5478878092496
 34
0.0
100
AcDbRotatedDimension
1001
ACAD
1000
DSTYLE
1002
{
1070
   372
1070
    -1
1070
   371
1070
    -1
1070
    41
1040
7.0
1070
    42
1040
6.0
1070
    43
1040
14.0
1070
    44
1040
3.0
1070
    73
1070
     0
1070
    74
1070
     0
1070
    77
1070
     3
1070
   140
1040
6.0
1070
   141
1040
150.0
1070
   147
1040
2.0
1070
   172
1070
     1
1070
   173
1070
     1
1070
   176
1070
   256
1070
   177
1070
   256
1070
   178
1070
   256
1070
   271
1070
     0
1070
   272
1070
     2
1070
     6
1000
OPEN
1070
     7
1000
OPEN
1002
}
  0
DIMENSION
  5
49D
330
1A
100
AcDbEntity
  8
SUNPOU
100
AcDbDimension
  2
*D5
 10
532.1123499820592
 20
329.4535386454085
 30
0.0
 11
527.112349982059
 21
307.4535386454085
 31
0.0
 70
    32
  1
※<>
  3
STANDARD
100
AcDbAlignedDimension
 13
494.9057627797355
 23
285.4535386454084
 33
0.0
 14
491.2428317373355
 24
329.4535386454085
 34
0.0
 50
90.0
100
AcDbRotatedDimension
1001
ACAD
1000
DSTYLE
1002
{
1070
   372
1070
    -1
1070
   371
1070
    -1
1070
    41
1040
7.0
1070
    42
1040
6.0
1070
    43
1040
14.0
1070
    44
1040
3.0
1070
    73
1070
     0
1070
    74
1070
     0
1070
    77
1070
     3
1070
   140
1040
6.0
1070
   141
1040
150.0
1070
   147
1040
2.0
1070
   172
1070
     1
1070
   173
1070
     1
1070
   176
1070
   256
1070
   177
1070
   256
1070
   178
1070
   256
1070
   271
1070
     0
1070
   272
1070
     2
1070
     6
1000
OPEN
1070
     7
1000
OPEN
1002
}
  0
DIMENSION
  5
4C4
330
1A
100
AcDbEntity
  8
SUNPOU
100
AcDbDimension
  2
*D6
 10
212.8719862648376
 20
285.4535386454084
 30
0.0
 11
207.8719862648376
 21
395.9369438539084
 31
0.0
 70
    32
  3
STANDARD
100
AcDbAlignedDimension
 13
306.4335620609355
 23
506.4203490624083
 33
0.0
 14
346.9498053447356
 24
285.4535386454084
 34
0.0
 50
90.0
100
AcDbRotatedDimension
1001
ACAD
1000
DSTYLE
1002
{
1070
   372
1070
    -1
1070
   371
1070
    -1
1070
    41
1040
7.0
1070
    42
1040
6.0
1070
    43
1040
14.0
1070
    44
1040
3.0
1070
    73
1070
     0
1070
    74
1070
     0
1070
    77
1070
     3
1070
   140
1040
6.0
1070
   141
1040
150.0
1070
   147
1040
2.0
1070
   172
1070
     1
1070
   173
1070
     1
1070
   176
1070
   256
1070
   177
1070
   256
1070
   178
1070
   256
1070
   271
1070
     0
1070
   272
1070
     2
1070
     6
1000
OPEN
1070
     7
1000
OPEN
1002
}
  0
TEXT
  5
4F7
330
1A
100
AcDbEntity
  8
SUNPOU
 62
     4
100
AcDbText
 10
681.8562633158149
 20
38.70344910013922
 30
0.0
 40
6.0
  1
※　のきといの差込み寸法を示す
100
AcDbText
  0
LINE
  5
4FC
330
1A
100
AcDbEntity
  8
SEIHIN
100
AcDbLine
 10
374.0650495305512
 20
401.1931910252879
 30
0.0
 11
370.8539803561357
 21
398.1727308945971
 31
0.0
  0
LINE
  5
4FD
330
1A
100
AcDbEntity
  8
SEIHIN
100
AcDbLine
 10
391.1786047425879
 20
384.0796358133185
 30
0.0
 11
388.1581446118995
 21
380.8685666388747
 31
0.0
  0
LINE
  5
500
330
1A
100
AcDbEntity
  8
SEIHIN
100
AcDbLine
 10
313.4389523627355
 20
187.7126546962496
 30
0.0
 11
277.4389523627356
 21
187.7126546962496
 31
0.0
  0
LINE
  5
50B
330
1A
100
AcDbEntity
  8
SEIHIN
  6
CONTINUOUS
 62
     3
100
AcDbLine
 10
294.6359869480356
 20
74.88528789034962
 30
0.0
 11
275.4389523627356
 21
76.03710996544965
 31
0.0
  0
LINE
  5
50C
330
1A
100
AcDbEntity
  8
SEIHIN
  6
CONTINUOUS
 62
     3
100
AcDbLine
 10
294.6359869480356
 20
89.93590306884959
 30
0.0
 11
275.4389523627356
 21
91.08772514394962
 31
0.0
  0
LINE
  5
50F
330
1A
100
AcDbEntity
  8
SEIHIN
100
AcDbLine
 10
346.9389523627355
 20
174.2149833385644
 30
0.0
 11
345.56017506025
 21
172.502651197429
 31
0.0
  0
LINE
  5
510
330
1A
100
AcDbEntity
  8
SEIHIN
100
AcDbLine
 10
353.4845056946327
 20
175.1274514363716
 30
0.0
 11
352.600221294256
 21
173.9158239774031
 31
0.0
  0
LINE
  5
512
330
1A
100
AcDbEntity
  8
SEIHIN
100
AcDbLine
 10
378.4661883880861
 20
91.26419598554244
 30
0.0
 11
377.9694704075982
 21
90.28368552641989
 31
0.0
  0
LINE
  5
513
330
1A
100
AcDbEntity
  8
SEIHIN
100
AcDbLine
 10
387.6430384693047
 20
92.58037339163607
 30
0.0
 11
386.6189551269605
 21
91.03289199205844
 31
0.0
  0
LINE
  5
514
330
1A
100
AcDbEntity
  8
SEIHIN
100
AcDbLine
 10
392.1435694974369
 20
78.52558647259607
 30
0.0
 11
391.1897729852209
 21
77.36788397585825
 31
0.0
  0
LINE
  5
515
330
1A
100
AcDbEntity
  8
SEIHIN
100
AcDbLine
 10
490.118116818536
 20
79.0946708669464
 30
0.0
 11
491.1795196388972
 21
78.03474905855444
 31
0.0
  0
LINE
  5
518
330
1A
100
AcDbEntity
  8
SEIHIN
  6
CONTINUOUS
 62
     3
100
AcDbLine
 10
294.6359869480356
 20
172.3521022140496
 30
0.0
 11
275.4389523627356
 21
173.5039242891496
 31
0.0
  0
DIMENSION
  5
525
330
1A
100
AcDbEntity
  8
SUNPOU
100
AcDbDimension
  2
*D7
 10
231.4797692142779
 20
355.4535386454085
 30
0.0
 11
226.4797692142778
 21
430.9369438539085
 31
0.0
 70
    32
  3
STANDARD
100
AcDbAlignedDimension
 13
306.4335620609355
 23
506.4203490624083
 33
0.0
 14
323.3678845509355
 24
355.4535386454085
 34
0.0
 50
90.0
100
AcDbRotatedDimension
1001
ACAD
1000
DSTYLE
1002
{
1070
   372
1070
    -1
1070
   371
1070
    -1
1070
    41
1040
7.0
1070
    42
1040
6.0
1070
    43
1040
14.0
1070
    44
1040
3.0
1070
    73
1070
     0
1070
    74
1070
     0
1070
    77
1070
     3
1070
   140
1040
6.0
1070
   141
1040
150.0
1070
   147
1040
2.0
1070
   172
1070
     1
1070
   173
1070
     1
1070
   176
1070
   256
1070
   177
1070
   256
1070
   178
1070
   256
1070
   271
1070
     0
1070
   272
1070
     2
1070
     6
1000
OPEN
1070
     7
1000
OPEN
1002
}
  0
LINE
  5
52C
330
1A
100
AcDbEntity
  8
SEIHIN
  6
CONTINUOUS
 62
     3
100
AcDbLine
 10
369.3082482730422
 20
76.38350448972341
 30
0.0
 11
294.6359869480356
 21
76.38350448972341
 31
0.0
  0
LINE
  5
52D
330
1A
100
AcDbEntity
  8
SEIHIN
  6
CONTINUOUS
 62
     3
100
AcDbLine
 10
294.6359869480356
 20
76.38350448972341
 30
0.0
 11
275.4389523627356
 21
77.53532656482343
 31
0.0
  0
LINE
  5
53C
330
1A
100
AcDbEntity
  8
SEIHIN
100
AcDbLine
 10
375.4838982655011
 20
76.38350448972341
 30
0.0
 11
391.1217650528791
 21
76.38350448972341
 31
0.0
  0
LINE
  5
53F
330
1A
100
AcDbEntity
  8
SEIHIN
100
AcDbLine
 10
360.7544737124063
 20
388.6727308945708
 30
0.0
 11
332.6315732561906
 21
362.2192056126535
 31
0.0
  0
LINE
  5
540
330
1A
100
AcDbEntity
  8
SEIHIN
100
AcDbLine
 10
378.6581446119258
 20
370.769059995104
 30
0.0
 11
352.2046193301142
 21
342.6461595387299
 31
0.0
  0
LINE
  5
747
330
1A
100
AcDbEntity
  8
SEIHIN
  6
CONTINUOUS
 62
     3
100
AcDbLine
 10
314.4389523627355
 20
440.8995785775091
 30
0.0
 11
314.4389523627355
 21
379.0524025915285
 31
0.0
  0
ARC
  5
748
330
1A
100
AcDbEntity
  8
SEIHIN
  6
CONTINUOUS
 62
     3
100
AcDbCircle
 10
316.4389523627355
 20
440.8995785775091
 30
0.0
 40
2.0
100
AcDbArc
 50
99.46232220802594
 51
180.0
  0
ARC
  5
749
330
1A
100
AcDbEntity
  8
SEIHIN
  6
CONTINUOUS
 62
     3
100
AcDbCircle
 10
316.4389523627355
 20
379.0524025915285
 30
0.0
 40
2.0
100
AcDbArc
 50
180.0
 51
266.1642183378797
  0
LINE
  5
74A
330
1A
100
AcDbEntity
  8
SEIHIN
  6
CONTINUOUS
 62
     3
100
AcDbLine
 10
430.884992294736
 20
324.4535386454085
 30
0.0
 11
369.0378163088322
 21
324.4535386454084
 31
0.0
  0
ARC
  5
74B
330
1A
100
AcDbEntity
  8
SEIHIN
  6
CONTINUOUS
 62
     3
100
AcDbCircle
 10
369.0378163088322
 20
326.4535386454084
 30
0.0
 40
2.0
100
AcDbArc
 50
183.8357816617196
 51
270.0
  0
ARC
  5
74C
330
1A
100
AcDbEntity
  8
SEIHIN
  6
CONTINUOUS
 62
     3
100
AcDbCircle
 10
430.884992294736
 20
326.4535386454085
 30
0.0
 40
2.0
100
AcDbArc
 50
270.0
 51
350.5376777919746
  0
LWPOLYLINE
  5
83B
330
1A
100
AcDbEntity
  8
ZUWAKU
100
AcDbPolyline
 90
        4
 70
     1
 43
0.0
 10
0.7999999839298653
 20
550.8000004406949
 10
0.7999999839298653
 20
0.8000004406949301
 10
796.7999999839299
 20
0.8000004406949301
 10
796.7999999839299
 20
550.8000004406949
  0
LWPOLYLINE
  5
83C
330
1A
100
AcDbEntity
  8
ZUWAKU
100
AcDbPolyline
 90
        4
 70
     1
 43
0.0
 10
0.399999983929888
 20
551.2000004406949
 10
0.399999983929888
 20
0.4000004406949529
 10
797.1999999839299
 20
0.4000004406949298
 10
797.1999999839299
 20
551.2000004406949
  0
LWPOLYLINE
  5
83D
330
1A
100
AcDbEntity
  8
ZUWAKU
100
AcDbPolyline
 90
        4
 70
     1
 43
0.0
 10
-0.0000000160700893
 20
551.6000004406948
 10
-0.0000000160700893
 20
0.0000004406948619
 10
797.59999998393
 20
0.0000004406949294
 10
797.59999998393
 20
551.600000440695
  0
LWPOLYLINE
  5
83E
330
1A
100
AcDbEntity
  8
ZUWAKU
100
AcDbPolyline
 90
        4
 70
     1
 43
0.0
 10
0.5999999839298198
 20
551.000000440695
 10
0.5999999839298198
 20
0.6000004406948847
 10
796.9999999839301
 20
0.6000004406949309
 10
796.9999999839298
 20
551.000000440695
  0
LWPOLYLINE
  5
83F
330
1A
100
AcDbEntity
  8
ZUWAKU
100
AcDbPolyline
 90
        4
 70
     1
 43
0.0
 10
0.1999999839298425
 20
551.4000004406949
 10
0.1999999839298425
 20
0.2000004406949074
 10
797.3999999839297
 20
0.2000004406949305
 10
797.39999998393
 20
551.4000004406949
  0
LINE
  5
840
330
1A
100
AcDbEntity
  8
ZUWAKU
100
AcDbLine
 10
-0.0000000160700893
 20
30.00000044069486
 30
0.0
 11
797.3999999839297
 21
30.00000044069486
 31
0.0
  0
LINE
  5
841
330
1A
100
AcDbEntity
  8
ZUWAKU
100
AcDbLine
 10
-0.0000000160700893
 20
30.20000044069486
 30
0.0
 11
797.3999999839297
 21
30.20000044069486
 31
0.0
  0
LINE
  5
842
330
1A
100
AcDbEntity
  8
ZUWAKU
100
AcDbLine
 10
-0.0000000160700893
 20
30.40000044069486
 30
0.0
 11
797.3999999839297
 21
30.40000044069486
 31
0.0
  0
LINE
  5
843
330
1A
100
AcDbEntity
  8
ZUWAKU
100
AcDbLine
 10
-0.0000000160700893
 20
30.60000044069487
 30
0.0
 11
797.3999999839297
 21
30.60000044069487
 31
0.0
  0
LINE
  5
844
330
1A
100
AcDbEntity
  8
ZUWAKU
100
AcDbLine
 10
-0.0000000160700893
 20
30.80000044069487
 30
0.0
 11
797.3999999839297
 21
30.80000044069487
 31
0.0
  0
LINE
  5
845
330
1A
100
AcDbEntity
  8
ZUWAKU
100
AcDbLine
 10
208.6466012739979
 20
15.40000044069489
 30
0.0
 11
447.4243639549213
 21
15.40000044069489
 31
0.0
  0
LINE
  5
846
330
1A
100
AcDbEntity
  8
ZUWAKU
100
AcDbLine
 10
208.6466012739979
 20
15.60000044069489
 30
0.0
 11
447.4243639549213
 21
15.6000004406949
 31
0.0
  0
LINE
  5
847
330
1A
100
AcDbEntity
  8
ZUWAKU
100
AcDbLine
 10
208.6466012739979
 20
15.2000004406949
 30
0.0
 11
447.4243639549213
 21
15.20000044069489
 31
0.0
  0
TEXT
  5
848
330
1A
100
AcDbEntity
  8
MOJI
100
AcDbText
 10
92.95778957209904
 20
12.74117857096962
 30
0.0
 40
6.0
  1
アートフェイスＨ１２０
 41
0.9
  7
ｽﾀｲﾙ1
100
AcDbText
  0
CIRCLE
  5
849
330
1A
100
AcDbEntity
  8
ZUWAKU
100
AcDbCircle
 10
25.99221213871101
 20
15.20000044069486
 30
0.0
 40
1.75
  0
LINE
  5
84A
330
1A
100
AcDbEntity
  8
ZUWAKU
100
AcDbLine
 10
26.86721213871101
 20
7.150000440694867
 30
0.0
 11
24.94221213871105
 21
7.150000440694867
 31
0.0
  0
LINE
  5
84B
330
1A
100
AcDbEntity
  8
ZUWAKU
100
AcDbLine
 10
24.94221213871105
 20
9.950000440694864
 30
0.0
 11
26.86721213871101
 21
9.950000440694864
 31
0.0
  0
LINE
  5
84C
330
1A
100
AcDbEntity
  8
ZUWAKU
100
AcDbLine
 10
26.86721213871101
 20
20.45000044069486
 30
0.0
 11
24.94221213871105
 21
20.45000044069486
 31
0.0
  0
LINE
  5
84D
330
1A
100
AcDbEntity
  8
ZUWAKU
100
AcDbLine
 10
24.94221213871105
 20
23.25000044069482
 30
0.0
 11
26.86721213871101
 21
23.25000044069486
 31
0.0
  0
HATCH
  5
84E
330
1A
100
AcDbEntity
  8
ZUWAKU
100
AcDbHatch
 10
0.0
 20
0.0
 30
0.0
210
0.0
220
0.0
230
1.0
  2
ANSI37
 70
     0
 71
     0
 91
        8
 92
        7
 72
     1
 73
     1
 93
       24
 10
14.50226264504976
 20
17.64484892167844
 42
-0.1989123673796348
 10
14.09221213871103
 20
18.63479841533949
 42
0.0
 10
14.09221213871103
 20
19.92500044069487
 42
-0.4142135623730912
 10
14.61721213871101
 20
20.45000044069486
 42
0.0
 10
17.59221213871092
 20
20.45000044069486
 42
0.4142135623731546
 10
18.11721213871101
 20
20.97500044069485
 42
0.0
 10
18.11721213871101
 20
22.72500044069487
 42
0.4142135623731586
 10
17.59221213871092
 20
23.25000044069486
 42
0.0
 10
14.09221213871103
 20
23.25000044069486
 42
0.4142135623730928
 10
11.29221213871107
 20
20.45000044069489
 42
0.0
 10
11.29221213871107
 20
18.63479841533962
 42
0.1989123673796619
 10
12.52236365772751
 20
15.66494993435601
 42
0.0
 10
15.43216163237218
 20
12.75515195971135
 42
-0.1989123673796613
 10
15.84221213871103
 20
11.76520246605017
 42
0.0
 10
15.84221213871103
 20
10.47500044069485
 42
-0.4142135623730911
 10
15.31721213871105
 20
9.950000440694864
 42
0.0
 10
12.34221213871114
 20
9.950000440694864
 42
0.4142135623731526
 10
11.81721213871105
 20
9.425000440694876
 42
0.0
 10
11.81721213871105
 20
7.675000440694855
 42
0.4142135623731526
 10
12.34221213871114
 20
7.150000440694867
 42
0.0
 10
15.84221213871103
 20
7.150000440694867
 42
0.4142135623731044
 10
18.6422121387111
 20
9.950000440694843
 42
0.0
 10
18.6422121387111
 20
11.76520246605011
 42
0.1989123673796604
 10
17.41206061969455
 20
14.73505094703365
 42
0.0
 97
        0
 92
        7
 72
     1
 73
     1
 93
       16
 10
23.54221213871107
 20
19.05000044069487
 42
-0.4142135623730935
 10
24.94221213871105
 20
20.45000044069486
 42
0.0
 10
26.86721213871101
 20
20.45000044069486
 42
0.4142135623731546
 10
27.3922121387111
 20
20.97500044069485
 42
0.0
 10
27.3922121387111
 20
22.72500044069487
 42
0.4142135623730951
 10
26.86721213871112
 20
23.25000044069486
 42
0.0
 10
24.94221213871094
 20
23.25000044069482
 42
0.4142135623730892
 10
20.74221213871101
 20
19.0500004406948
 42
0.0
 10
20.74221213871101
 20
11.35000044069489
 42
0.4142135623730969
 10
24.94221213871105
 20
7.150000440694867
 42
0.0
 10
26.86721213871101
 20
7.150000440694867
 42
0.4142135623731526
 10
27.3922121387111
 20
7.675000440694855
 42
0.0
 10
27.3922121387111
 20
9.425000440694876
 42
0.4142135623730891
 10
26.86721213871112
 20
9.950000440694864
 42
0.0
 10
24.94221213871105
 20
9.950000440694864
 42
-0.4142135623730928
 10
23.54221213871107
 20
11.35000044069485
 42
0.0
 97
        0
 92
        7
 72
     1
 73
     1
 93
        2
 10
24.24221213871101
 20
15.20000044069486
 42
1.0
 10
27.74221213871101
 20
15.20000044069486
 42
1.0
 97
        0
 92
        7
 72
     1
 73
     1
 93
       26
 10
37.31485862088902
 20
19.20504763425829
 42
0.0
 10
38.37649825402684
 20
22.56690647252788
 42
0.5069206636600134
 10
37.87586735483148
 20
23.25000044069486
 42
0.0
 10
36.17697797522225
 20
23.25000044069486
 42
0.3272098845218764
 10
35.6763470760269
 20
22.88309440886183
 42
0.0
 10
33.80807720139512
 20
16.96690647252794
 42
-0.3272098845219541
 10
33.30744630219965
 20
16.60000044069486
 42
0.0
 10
33.16721213871119
 20
16.60000044069486
 42
-0.4142135623731526
 10
32.6422121387111
 20
17.12500044069485
 42
0.0
 10
32.6422121387111
 20
22.72500044069487
 42
0.4142135623730951
 10
32.11721213871112
 20
23.25000044069486
 42
0.0
 10
30.36721213871101
 20
23.25000044069486
 42
0.4142135623730871
 10
29.84221213871103
 20
22.72500044069488
 42
0.0
 10
29.84221213871103
 20
7.675000440694855
 42
0.4142135623730891
 10
30.36721213871101
 20
7.150000440694867
 42
0.0
 10
32.11721213871101
 20
7.150000440694867
 42
0.4142135623731526
 10
32.6422121387111
 20
7.675000440694855
 42
0.0
 10
32.6422121387111
 20
13.27500044069487
 42
-0.4142135623731526
 10
33.16721213871119
 20
13.80000044069486
 42
0.0
 10
33.30744630219976
 20
13.80000044069486
 42
-0.3272098845218915
 10
33.80807720139512
 20
13.43309440886179
 42
0.0
 10
35.6763470760269
 20
7.516906472527939
 42
0.3272098845218902
 10
36.17697797522225
 20
7.150000440694867
 42
0.0
 10
37.87586735483148
 20
7.150000440694867
 42
0.5069206636600335
 10
38.37649825402684
 20
7.833094408861875
 42
0.0
 10
36.05010687555318
 20
15.200000440695
 42
0.0
 97
        0
 92
        7
 72
     1
 73
     1
 93
        8
 10
43.49221213871101
 20
22.72500044069488
 42
0.4142135623731546
 10
42.96721213871092
 20
23.25000044069486
 42
0.0
 10
41.21721213871114
 20
23.25000044069486
 42
0.4142135623731507
 10
40.69221213871105
 20
22.72500044069488
 42
0.0
 10
40.69221213871105
 20
7.675000440694855
 42
0.4142135623731526
 10
41.21721213871114
 20
7.150000440694867
 42
0.0
 10
42.96721213871092
 20
7.150000440694867
 42
0.4142135623731526
 10
43.49221213871101
 20
7.675000440694855
 42
0.0
 97
        0
 92
        7
 72
     1
 73
     1
 93
       24
 10
48.3922121387111
 20
19.92500044069487
 42
-0.4142135623731546
 10
48.91721213871119
 20
20.45000044069486
 42
0.0
 10
51.8922121387111
 20
20.45000044069486
 42
0.4142135623730911
 10
52.41721213871108
 20
20.97500044069485
 42
0.0
 10
52.41721213871108
 20
22.72500044069487
 42
0.4142135623730952
 10
51.8922121387111
 20
23.25000044069486
 42
0.0
 10
48.3922121387111
 20
23.25000044069486
 42
0.4142135623731048
 10
45.59221213871103
 20
20.45000044069489
 42
0.0
 10
45.59221213871103
 20
18.63479841533962
 42
0.1989123673796613
 10
46.82236365772758
 20
15.66494993435607
 42
0.0
 10
49.73216163237225
 20
12.7551519597114
 42
-0.1989123673796402
 10
50.1422121387111
 20
11.76520246605033
 42
0.0
 10
50.1422121387111
 20
10.47500044069485
 42
-0.4142135623730911
 10
49.61721213871112
 20
9.950000440694864
 42
0.0
 10
46.6422121387111
 20
9.950000440694864
 42
0.4142135623731526
 10
46.11721213871101
 20
9.425000440694876
 42
0.0
 10
46.11721213871101
 20
7.675000440694855
 42
0.4142135623730891
 10
46.64221213871099
 20
7.150000440694867
 42
0.0
 10
50.1422121387111
 20
7.150000440694867
 42
0.4142135623730925
 10
52.94221213871106
 20
9.950000440694843
 42
0.0
 10
52.94221213871106
 20
11.76520246605011
 42
0.1989123673796675
 10
51.71206061969451
 20
14.73505094703376
 42
0.0
 10
48.80226264504995
 20
17.64484892167828
 42
-0.1989123673796652
 10
48.3922121387111
 20
18.63479841533945
 42
0.0
 97
        0
 92
        7
 72
     1
 73
     1
 93
       16
 10
57.84221213871103
 20
22.72500044069485
 42
0.414213562373103
 10
57.31721213871106
 20
23.25000044069486
 42
0.0
 10
55.56721213871106
 20
23.25000044069486
 42
0.4142135623730871
 10
55.04221213871108
 20
22.72500044069488
 42
0.0
 10
55.04221213871108
 20
9.950000440694843
 42
0.4142135623730926
 10
57.84221213871103
 20
7.150000440694867
 42
0.0
 10
61.34221213871104
 20
7.150000440694867
 42
0.4142135623731044
 10
64.1422121387111
 20
9.950000440694843
 42
0.0
 10
64.1422121387111
 20
22.72500044069487
 42
0.4142135623730951
 10
63.61721213871113
 20
23.25000044069486
 42
0.0
 10
61.86721213871101
 20
23.25000044069486
 42
0.4142135623730871
 10
61.34221213871104
 20
22.72500044069488
 42
0.0
 10
61.34221213871104
 20
11.00000044069484
 42
-0.414213562373088
 10
60.29221213871108
 20
9.950000440694864
 42
0.0
 10
58.8922121387111
 20
9.950000440694864
 42
-0.4142135623731197
 10
57.84221213871103
 20
11.00000044069484
 42
0.0
 97
        0
 92
        7
 72
     1
 73
     1
 93
        8
 10
69.04221213871108
 20
22.72500044069488
 42
0.4142135623730871
 10
68.5172121387111
 20
23.25000044069486
 42
0.0
 10
66.7672121387111
 20
23.25000044069486
 42
0.4142135623731507
 10
66.24221213871101
 20
22.72500044069488
 42
0.0
 10
66.24221213871101
 20
7.675000440694855
 42
0.4142135623730891
 10
66.76721213871099
 20
7.150000440694867
 42
0.0
 10
68.5172121387111
 20
7.150000440694867
 42
0.4142135623730891
 10
69.04221213871108
 20
7.675000440694855
 42
0.0
 97
        0
 75
     0
 76
     1
 52
0.0
 41
0.2
 77
     0
 78
     2
 53
45.0
 43
-900.942304350749
 44
-13.19999955930507
 45
-0.4490128060534576
 46
0.4490128060534577
 79
     0
 53
135.0
 43
-900.942304350749
 44
-13.19999955930507
 45
-0.4490128060534577
 46
-0.4490128060534576
 79
     0
 47
0.057451373970553
 98
        8
 10
16.07985494695322
 20
15.16717408658041
 10
22.40451499036907
 20
18.84406262314587
 10
25.16436786958957
 20
15.51188208676558
 10
30.91405996556705
 20
16.20129808713636
 10
41.83847200288664
 20
16.66091035467798
 10
46.89820087905945
 20
19.41857675710207
 10
56.55768595633026
 20
18.72915835578987
 10
67.82707960355264
 20
19.18877062333149
  0
ARC
  5
84F
330
1A
100
AcDbEntity
  8
ZUWAKU
100
AcDbCircle
 10
15.49221213871101
 20
18.63479841533956
 30
0.0
 40
4.199999999999999
100
AcDbArc
 50
180.0
 51
225.0
  0
LINE
  5
850
330
1A
100
AcDbEntity
  8
ZUWAKU
100
AcDbLine
 10
20.74221213871101
 20
11.35000044069487
 30
0.0
 11
20.74221213871101
 21
19.05000044069482
 31
0.0
  0
LINE
  5
851
330
1A
100
AcDbEntity
  8
ZUWAKU
100
AcDbLine
 10
23.54221213871107
 20
19.05000044069486
 30
0.0
 11
23.54221213871107
 21
11.35000044069487
 31
0.0
  0
ARC
  5
852
330
1A
100
AcDbEntity
  8
ZUWAKU
100
AcDbCircle
 10
15.49221213871101
 20
18.63479841533956
 30
0.0
 40
1.399999999999999
100
AcDbArc
 50
180.0000000000016
 51
224.9999999999988
  0
ARC
  5
853
330
1A
100
AcDbEntity
  8
ZUWAKU
100
AcDbCircle
 10
24.94221213871105
 20
11.35000044069487
 30
0.0
 40
4.199999999999999
100
AcDbArc
 50
180.0
 51
270.0
  0
ARC
  5
854
330
1A
100
AcDbEntity
  8
ZUWAKU
100
AcDbCircle
 10
15.84221213871103
 20
9.950000440694864
 30
0.0
 40
2.799999999999999
100
AcDbArc
 50
270.0
 51
0.0
  0
ARC
  5
855
330
1A
100
AcDbEntity
  8
ZUWAKU
100
AcDbCircle
 10
14.44221213871105
 20
11.76520246605017
 30
0.0
 40
4.199999999999999
100
AcDbArc
 50
0.0
 51
45.0
  0
LINE
  5
856
330
1A
100
AcDbEntity
  8
ZUWAKU
100
AcDbLine
 10
12.52236365772751
 20
15.66494993435604
 30
0.0
 11
15.43216163237218
 21
12.75515195971138
 31
0.0
  0
LINE
  5
857
330
1A
100
AcDbEntity
  8
ZUWAKU
100
AcDbLine
 10
12.34221213871103
 20
9.950000440694864
 30
0.0
 11
15.31721213871105
 21
9.950000440694864
 31
0.0
  0
LINE
  5
858
330
1A
100
AcDbEntity
  8
ZUWAKU
100
AcDbLine
 10
12.34221213871103
 20
7.150000440694867
 30
0.0
 11
15.84221213871103
 21
7.150000440694867
 31
0.0
  0
ARC
  5
859
330
1A
100
AcDbEntity
  8
ZUWAKU
100
AcDbCircle
 10
12.34221213871103
 20
9.425000440694866
 30
0.0
 40
0.525
100
AcDbArc
 50
90.0
 51
180.0
  0
ARC
  5
85A
330
1A
100
AcDbEntity
  8
ZUWAKU
100
AcDbCircle
 10
12.34221213871103
 20
7.675000440694866
 30
0.0
 40
0.525
100
AcDbArc
 50
180.0
 51
270.0
  0
LINE
  5
85B
330
1A
100
AcDbEntity
  8
ZUWAKU
100
AcDbLine
 10
11.81721213871105
 20
7.675000440694866
 30
0.0
 11
11.81721213871105
 21
9.425000440694866
 31
0.0
  0
ARC
  5
85C
330
1A
100
AcDbEntity
  8
ZUWAKU
100
AcDbCircle
 10
14.44221213871105
 20
11.76520246605021
 30
0.0
 40
1.399999999999999
100
AcDbArc
 50
0.0
 51
45.0
  0
ARC
  5
85D
330
1A
100
AcDbEntity
  8
ZUWAKU
100
AcDbCircle
 10
15.31721213871105
 20
10.47500044069487
 30
0.0
 40
0.525
100
AcDbArc
 50
270.0
 51
0.0
  0
LINE
  5
85E
330
1A
100
AcDbEntity
  8
ZUWAKU
100
AcDbLine
 10
15.84221213871103
 20
10.47500044069487
 30
0.0
 11
15.84221213871103
 21
11.76520246605021
 31
0.0
  0
LINE
  5
85F
330
1A
100
AcDbEntity
  8
ZUWAKU
100
AcDbLine
 10
17.41206061969455
 20
14.73505094703369
 30
0.0
 11
14.50226264504988
 21
17.64484892167836
 31
0.0
  0
ARC
  5
860
330
1A
100
AcDbEntity
  8
ZUWAKU
100
AcDbCircle
 10
24.94221213871105
 20
11.35000044069487
 30
0.0
 40
1.399999999999999
100
AcDbArc
 50
180.0
 51
270.0
  0
LINE
  5
861
330
1A
100
AcDbEntity
  8
ZUWAKU
100
AcDbLine
 10
18.6422121387111
 20
9.950000440694864
 30
0.0
 11
18.6422121387111
 21
11.76520246605021
 31
0.0
  0
ARC
  5
862
330
1A
100
AcDbEntity
  8
ZUWAKU
100
AcDbCircle
 10
17.59221213871103
 20
20.97500044069486
 30
0.0
 40
0.525
100
AcDbArc
 50
270.0
 51
0.0
  0
ARC
  5
863
330
1A
100
AcDbEntity
  8
ZUWAKU
100
AcDbCircle
 10
17.59221213871103
 20
22.72500044069486
 30
0.0
 40
0.525
100
AcDbArc
 50
0.0
 51
90.0
  0
ARC
  5
864
330
1A
100
AcDbEntity
  8
ZUWAKU
100
AcDbCircle
 10
14.09221213871103
 20
20.45000044069486
 30
0.0
 40
2.799999999999999
100
AcDbArc
 50
90.0
 51
180.0
  0
LINE
  5
865
330
1A
100
AcDbEntity
  8
ZUWAKU
100
AcDbLine
 10
11.29221213871107
 20
20.45000044069486
 30
0.0
 11
11.29221213871107
 21
18.63479841533952
 31
0.0
  0
LINE
  5
866
330
1A
100
AcDbEntity
  8
ZUWAKU
100
AcDbLine
 10
17.59221213871103
 20
20.45000044069486
 30
0.0
 11
14.61721213871101
 21
20.45000044069486
 31
0.0
  0
LINE
  5
867
330
1A
100
AcDbEntity
  8
ZUWAKU
100
AcDbLine
 10
14.09221213871103
 20
19.92500044069486
 30
0.0
 11
14.09221213871103
 21
18.63479841533952
 31
0.0
  0
ARC
  5
868
330
1A
100
AcDbEntity
  8
ZUWAKU
100
AcDbCircle
 10
14.61721213871101
 20
19.92500044069486
 30
0.0
 40
0.525
100
AcDbArc
 50
90.0
 51
180.0
  0
LINE
  5
869
330
1A
100
AcDbEntity
  8
ZUWAKU
100
AcDbLine
 10
14.09221213871103
 20
23.25000044069486
 30
0.0
 11
17.59221213871103
 21
23.25000044069486
 31
0.0
  0
ARC
  5
86A
330
1A
100
AcDbEntity
  8
ZUWAKU
100
AcDbCircle
 10
24.94221213871105
 20
19.05000044069482
 30
0.0
 40
4.199999999999999
100
AcDbArc
 50
90.0
 51
180.0
  0
ARC
  5
86B
330
1A
100
AcDbEntity
  8
ZUWAKU
100
AcDbCircle
 10
24.94221213871105
 20
19.05000044069486
 30
0.0
 40
1.399999999999999
100
AcDbArc
 50
90.0
 51
180.0
  0
LINE
  5
86C
330
1A
100
AcDbEntity
  8
ZUWAKU
100
AcDbLine
 10
18.11721213871101
 20
22.72500044069486
 30
0.0
 11
18.11721213871101
 21
20.97500044069486
 31
0.0
  0
LINE
  5
86D
330
1A
100
AcDbEntity
  8
ZUWAKU
100
AcDbLine
 10
35.6763470760269
 20
22.88309440886183
 30
0.0
 11
33.80807720139512
 21
16.96690647252789
 31
0.0
  0
LINE
  5
86E
330
1A
100
AcDbEntity
  8
ZUWAKU
100
AcDbLine
 10
29.84221213871103
 20
22.72500044069486
 30
0.0
 11
29.84221213871103
 21
7.675000440694866
 31
0.0
  0
LINE
  5
86F
330
1A
100
AcDbEntity
  8
ZUWAKU
100
AcDbLine
 10
32.6422121387111
 20
17.12500044069487
 30
0.0
 11
32.6422121387111
 21
22.72500044069486
 31
0.0
  0
LINE
  5
870
330
1A
100
AcDbEntity
  8
ZUWAKU
100
AcDbLine
 10
57.84221213871103
 20
11.00000044069486
 30
0.0
 11
57.84221213871103
 21
22.72500044069486
 31
0.0
  0
LINE
  5
871
330
1A
100
AcDbEntity
  8
ZUWAKU
100
AcDbLine
 10
55.04221213871108
 20
22.72500044069486
 30
0.0
 11
55.04221213871108
 21
9.950000440694864
 31
0.0
  0
LINE
  5
872
330
1A
100
AcDbEntity
  8
ZUWAKU
100
AcDbLine
 10
43.49221213871101
 20
7.675000440694866
 30
0.0
 11
43.49221213871101
 21
22.72500044069486
 31
0.0
  0
LINE
  5
873
330
1A
100
AcDbEntity
  8
ZUWAKU
100
AcDbLine
 10
40.69221213871105
 20
22.72500044069486
 30
0.0
 11
40.69221213871105
 21
7.675000440694866
 31
0.0
  0
LINE
  5
874
330
1A
100
AcDbEntity
  8
ZUWAKU
100
AcDbLine
 10
37.31485862088902
 20
19.20504763425829
 30
0.0
 11
36.05010687555318
 21
15.20000044069488
 31
0.0
  0
ARC
  5
875
330
1A
100
AcDbEntity
  8
ZUWAKU
100
AcDbCircle
 10
49.79221213871108
 20
18.63479841533956
 30
0.0
 40
4.199999999999999
100
AcDbArc
 50
180.0
 51
225.0
  0
ARC
  5
876
330
1A
100
AcDbEntity
  8
ZUWAKU
100
AcDbCircle
 10
49.79221213871108
 20
18.63479841533956
 30
0.0
 40
1.399999999999999
100
AcDbArc
 50
180.0000000000016
 51
224.9999999999988
  0
LINE
  5
877
330
1A
100
AcDbEntity
  8
ZUWAKU
100
AcDbLine
 10
66.24221213871101
 20
22.72500044069486
 30
0.0
 11
66.24221213871101
 21
7.675000440694866
 31
0.0
  0
LINE
  5
878
330
1A
100
AcDbEntity
  8
ZUWAKU
100
AcDbLine
 10
69.04221213871108
 20
7.675000440694866
 30
0.0
 11
69.04221213871108
 21
22.72500044069486
 31
0.0
  0
LINE
  5
879
330
1A
100
AcDbEntity
  8
ZUWAKU
100
AcDbLine
 10
61.34221213871104
 20
22.72500044069486
 30
0.0
 11
61.34221213871104
 21
11.00000044069486
 31
0.0
  0
LINE
  5
87A
330
1A
100
AcDbEntity
  8
ZUWAKU
100
AcDbLine
 10
64.1422121387111
 20
9.950000440694864
 30
0.0
 11
64.1422121387111
 21
22.72500044069486
 31
0.0
  0
LINE
  5
87B
330
1A
100
AcDbEntity
  8
ZUWAKU
100
AcDbLine
 10
79.1266295319183
 20
30.00000044069486
 30
0.0
 11
79.1266295319183
 21
0.8000004406949301
 31
0.0
  0
LINE
  5
87C
330
1A
100
AcDbEntity
  8
ZUWAKU
100
AcDbLine
 10
79.52662953191816
 20
30.00000044069486
 30
0.0
 11
79.52662953191839
 21
0.8000004406949301
 31
0.0
  0
LINE
  5
87D
330
1A
100
AcDbEntity
  8
ZUWAKU
100
AcDbLine
 10
79.32662953191812
 20
30.00000044069486
 30
0.0
 11
79.32662953191834
 21
0.8000004406949301
 31
0.0
  0
LINE
  5
87E
330
1A
100
AcDbEntity
  8
ZUWAKU
100
AcDbLine
 10
57.84221213871103
 20
7.150000440694867
 30
0.0
 11
61.34221213871104
 21
7.150000440694867
 31
0.0
  0
LINE
  5
87F
330
1A
100
AcDbEntity
  8
ZUWAKU
100
AcDbLine
 10
60.29221213871108
 20
9.950000440694864
 30
0.0
 11
58.8922121387111
 21
9.950000440694864
 31
0.0
  0
LINE
  5
880
330
1A
100
AcDbEntity
  8
ZUWAKU
100
AcDbLine
 10
41.21721213871103
 20
7.150000440694867
 30
0.0
 11
42.96721213871103
 21
7.150000440694867
 31
0.0
  0
LINE
  5
881
330
1A
100
AcDbEntity
  8
ZUWAKU
100
AcDbLine
 10
35.6763470760269
 20
7.516906472527892
 30
0.0
 11
33.80807720139512
 21
13.43309440886183
 31
0.0
  0
ARC
  5
882
330
1A
100
AcDbEntity
  8
ZUWAKU
100
AcDbCircle
 10
33.16721213871108
 20
13.27500044069486
 30
0.0
 40
0.525
100
AcDbArc
 50
90.0
 51
180.0
  0
ARC
  5
883
330
1A
100
AcDbEntity
  8
ZUWAKU
100
AcDbCircle
 10
33.30744630219976
 20
13.27500044069486
 30
0.0
 40
0.525
100
AcDbArc
 50
17.52556837372303
 51
90.0
  0
ARC
  5
884
330
1A
100
AcDbEntity
  8
ZUWAKU
100
AcDbCircle
 10
30.36721213871101
 20
7.675000440694866
 30
0.0
 40
0.525
100
AcDbArc
 50
180.0
 51
270.0
  0
ARC
  5
885
330
1A
100
AcDbEntity
  8
ZUWAKU
100
AcDbCircle
 10
26.86721213871101
 20
9.425000440694866
 30
0.0
 40
0.525
100
AcDbArc
 50
0.0
 51
90.0
  0
ARC
  5
886
330
1A
100
AcDbEntity
  8
ZUWAKU
100
AcDbCircle
 10
26.86721213871101
 20
7.675000440694866
 30
0.0
 40
0.525
100
AcDbArc
 50
270.0
 51
0.0
  0
LINE
  5
887
330
1A
100
AcDbEntity
  8
ZUWAKU
100
AcDbLine
 10
27.3922121387111
 20
9.425000440694866
 30
0.0
 11
27.3922121387111
 21
7.675000440694866
 31
0.0
  0
LINE
  5
888
330
1A
100
AcDbEntity
  8
ZUWAKU
100
AcDbLine
 10
32.6422121387111
 20
7.675000440694866
 30
0.0
 11
32.6422121387111
 21
13.27500044069486
 31
0.0
  0
ARC
  5
889
330
1A
100
AcDbEntity
  8
ZUWAKU
100
AcDbCircle
 10
32.11721213871101
 20
7.675000440694866
 30
0.0
 40
0.525
100
AcDbArc
 50
270.0
 51
0.0
  0
LINE
  5
88A
330
1A
100
AcDbEntity
  8
ZUWAKU
100
AcDbLine
 10
30.36721213871101
 20
7.150000440694867
 30
0.0
 11
32.11721213871101
 21
7.150000440694867
 31
0.0
  0
ARC
  5
88B
330
1A
100
AcDbEntity
  8
ZUWAKU
100
AcDbCircle
 10
33.16721213871108
 20
17.12500044069487
 30
0.0
 40
0.525
100
AcDbArc
 50
180.0
 51
270.0
  0
LINE
  5
88C
330
1A
100
AcDbEntity
  8
ZUWAKU
100
AcDbLine
 10
33.16721213871108
 20
13.80000044069486
 30
0.0
 11
33.30744630219976
 21
13.80000044069486
 31
0.0
  0
LINE
  5
88D
330
1A
100
AcDbEntity
  8
ZUWAKU
100
AcDbLine
 10
33.30744630219976
 20
16.60000044069486
 30
0.0
 11
33.16721213871108
 21
16.60000044069486
 31
0.0
  0
ARC
  5
88E
330
1A
100
AcDbEntity
  8
ZUWAKU
100
AcDbCircle
 10
33.30744630219976
 20
17.12500044069487
 30
0.0
 40
0.525
100
AcDbArc
 50
270.0
 51
342.4744316262769
  0
ARC
  5
88F
330
1A
100
AcDbEntity
  8
ZUWAKU
100
AcDbCircle
 10
36.17697797522237
 20
7.675000440694866
 30
0.0
 40
0.525
100
AcDbArc
 50
197.525568373723
 51
270.0
  0
LINE
  5
890
330
1A
100
AcDbEntity
  8
ZUWAKU
100
AcDbLine
 10
38.37649825402684
 20
7.833094408861839
 30
0.0
 11
36.05010687555318
 21
15.20000044069488
 31
0.0
  0
ARC
  5
891
330
1A
100
AcDbEntity
  8
ZUWAKU
100
AcDbCircle
 10
37.87586735483137
 20
7.675000440694866
 30
0.0
 40
0.525
100
AcDbArc
 50
270.0
 51
17.52556837372303
  0
LINE
  5
892
330
1A
100
AcDbEntity
  8
ZUWAKU
100
AcDbLine
 10
36.17697797522237
 20
7.150000440694867
 30
0.0
 11
37.87586735483137
 21
7.150000440694867
 31
0.0
  0
ARC
  5
893
330
1A
100
AcDbEntity
  8
ZUWAKU
100
AcDbCircle
 10
41.21721213871103
 20
7.675000440694866
 30
0.0
 40
0.525
100
AcDbArc
 50
180.0
 51
270.0
  0
ARC
  5
894
330
1A
100
AcDbEntity
  8
ZUWAKU
100
AcDbCircle
 10
50.1422121387111
 20
9.950000440694864
 30
0.0
 40
2.799999999999999
100
AcDbArc
 50
270.0
 51
0.0
  0
ARC
  5
895
330
1A
100
AcDbEntity
  8
ZUWAKU
100
AcDbCircle
 10
57.84221213871103
 20
9.950000440694864
 30
0.0
 40
2.799999999999999
100
AcDbArc
 50
180.0
 51
270.0
  0
LINE
  5
896
330
1A
100
AcDbEntity
  8
ZUWAKU
100
AcDbLine
 10
51.71206061969463
 20
14.73505094703369
 30
0.0
 11
48.80226264504983
 21
17.64484892167836
 31
0.0
  0
LINE
  5
897
330
1A
100
AcDbEntity
  8
ZUWAKU
100
AcDbLine
 10
46.82236365772758
 20
15.66494993435604
 30
0.0
 11
49.73216163237225
 21
12.75515195971138
 31
0.0
  0
LINE
  5
898
330
1A
100
AcDbEntity
  8
ZUWAKU
100
AcDbLine
 10
46.6422121387111
 20
7.150000440694867
 30
0.0
 11
50.1422121387111
 21
7.150000440694867
 31
0.0
  0
LINE
  5
899
330
1A
100
AcDbEntity
  8
ZUWAKU
100
AcDbLine
 10
46.6422121387111
 20
9.950000440694864
 30
0.0
 11
49.61721213871101
 21
9.950000440694864
 31
0.0
  0
ARC
  5
89A
330
1A
100
AcDbEntity
  8
ZUWAKU
100
AcDbCircle
 10
46.6422121387111
 20
9.425000440694866
 30
0.0
 40
0.525
100
AcDbArc
 50
90.0
 51
180.0
  0
ARC
  5
89B
330
1A
100
AcDbEntity
  8
ZUWAKU
100
AcDbCircle
 10
42.96721213871103
 20
7.675000440694866
 30
0.0
 40
0.525
100
AcDbArc
 50
270.0
 51
0.0
  0
ARC
  5
89C
330
1A
100
AcDbEntity
  8
ZUWAKU
100
AcDbCircle
 10
46.6422121387111
 20
7.675000440694866
 30
0.0
 40
0.525
100
AcDbArc
 50
180.0
 51
270.0
  0
LINE
  5
89D
330
1A
100
AcDbEntity
  8
ZUWAKU
100
AcDbLine
 10
46.11721213871101
 20
7.675000440694866
 30
0.0
 11
46.11721213871101
 21
9.425000440694866
 31
0.0
  0
ARC
  5
89E
330
1A
100
AcDbEntity
  8
ZUWAKU
100
AcDbCircle
 10
49.61721213871101
 20
10.47500044069487
 30
0.0
 40
0.525
100
AcDbArc
 50
270.0
 51
0.0
  0
ARC
  5
89F
330
1A
100
AcDbEntity
  8
ZUWAKU
100
AcDbCircle
 10
48.74221213871101
 20
11.76520246605021
 30
0.0
 40
1.399999999999999
100
AcDbArc
 50
0.0
 51
45.0
  0
LINE
  5
8A0
330
1A
100
AcDbEntity
  8
ZUWAKU
100
AcDbLine
 10
50.1422121387111
 20
10.47500044069487
 30
0.0
 11
50.1422121387111
 21
11.76520246605021
 31
0.0
  0
ARC
  5
8A1
330
1A
100
AcDbEntity
  8
ZUWAKU
100
AcDbCircle
 10
58.8922121387111
 20
11.00000044069486
 30
0.0
 40
1.049999999999999
100
AcDbArc
 50
180.0
 51
270.0
  0
ARC
  5
8A2
330
1A
100
AcDbEntity
  8
ZUWAKU
100
AcDbCircle
 10
48.74221213871101
 20
11.76520246605017
 30
0.0
 40
4.199999999999999
100
AcDbArc
 50
0.0
 51
45.0
  0
LINE
  5
8A3
330
1A
100
AcDbEntity
  8
ZUWAKU
100
AcDbLine
 10
52.94221213871106
 20
9.950000440694864
 30
0.0
 11
52.94221213871106
 21
11.76520246605021
 31
0.0
  0
ARC
  5
8A4
330
1A
100
AcDbEntity
  8
ZUWAKU
100
AcDbCircle
 10
61.34221213871104
 20
9.950000440694864
 30
0.0
 40
2.799999999999999
100
AcDbArc
 50
270.0
 51
0.0
  0
LINE
  5
8A5
330
1A
100
AcDbEntity
  8
ZUWAKU
100
AcDbLine
 10
66.7672121387111
 20
7.150000440694867
 30
0.0
 11
68.5172121387111
 21
7.150000440694867
 31
0.0
  0
ARC
  5
8A6
330
1A
100
AcDbEntity
  8
ZUWAKU
100
AcDbCircle
 10
60.29221213871108
 20
11.00000044069486
 30
0.0
 40
1.049999999999999
100
AcDbArc
 50
270.0
 51
0.0
  0
ARC
  5
8A7
330
1A
100
AcDbEntity
  8
ZUWAKU
100
AcDbCircle
 10
66.7672121387111
 20
7.675000440694866
 30
0.0
 40
0.525
100
AcDbArc
 50
180.0
 51
270.0
  0
ARC
  5
8A8
330
1A
100
AcDbEntity
  8
ZUWAKU
100
AcDbCircle
 10
68.5172121387111
 20
7.675000440694866
 30
0.0
 40
0.525
100
AcDbArc
 50
270.0
 51
0.0
  0
LINE
  5
8A9
330
1A
100
AcDbEntity
  8
ZUWAKU
100
AcDbLine
 10
42.96721213871103
 20
23.25000044069486
 30
0.0
 11
41.21721213871103
 21
23.25000044069486
 31
0.0
  0
LINE
  5
8AA
330
1A
100
AcDbEntity
  8
ZUWAKU
100
AcDbLine
 10
27.3922121387111
 20
22.72500044069486
 30
0.0
 11
27.3922121387111
 21
20.97500044069486
 31
0.0
  0
ARC
  5
8AB
330
1A
100
AcDbEntity
  8
ZUWAKU
100
AcDbCircle
 10
26.86721213871101
 20
20.97500044069486
 30
0.0
 40
0.525
100
AcDbArc
 50
270.0
 51
0.0
  0
ARC
  5
8AC
330
1A
100
AcDbEntity
  8
ZUWAKU
100
AcDbCircle
 10
30.36721213871101
 20
22.72500044069486
 30
0.0
 40
0.525
100
AcDbArc
 50
90.0
 51
180.0
  0
ARC
  5
8AD
330
1A
100
AcDbEntity
  8
ZUWAKU
100
AcDbCircle
 10
26.86721213871101
 20
22.72500044069486
 30
0.0
 40
0.525
100
AcDbArc
 50
0.0
 51
90.0
  0
LINE
  5
8AE
330
1A
100
AcDbEntity
  8
ZUWAKU
100
AcDbLine
 10
32.11721213871101
 20
23.25000044069486
 30
0.0
 11
30.36721213871101
 21
23.25000044069486
 31
0.0
  0
ARC
  5
8AF
330
1A
100
AcDbEntity
  8
ZUWAKU
100
AcDbCircle
 10
32.11721213871101
 20
22.72500044069486
 30
0.0
 40
0.525
100
AcDbArc
 50
0.0
 51
90.0
  0
ARC
  5
8B0
330
1A
100
AcDbEntity
  8
ZUWAKU
100
AcDbCircle
 10
36.17697797522237
 20
22.72500044069486
 30
0.0
 40
0.525
100
AcDbArc
 50
90.0
 51
162.4744316262769
  0
LINE
  5
8B1
330
1A
100
AcDbEntity
  8
ZUWAKU
100
AcDbLine
 10
38.37649825402684
 20
22.56690647252789
 30
0.0
 11
37.31485862088902
 21
19.20504763425829
 31
0.0
  0
ARC
  5
8B2
330
1A
100
AcDbEntity
  8
ZUWAKU
100
AcDbCircle
 10
37.87586735483137
 20
22.72500044069486
 30
0.0
 40
0.525
100
AcDbArc
 50
342.4744316262769
 51
90.0
  0
LINE
  5
8B3
330
1A
100
AcDbEntity
  8
ZUWAKU
100
AcDbLine
 10
36.17697797522237
 20
23.25000044069486
 30
0.0
 11
37.87586735483137
 21
23.25000044069486
 31
0.0
  0
ARC
  5
8B4
330
1A
100
AcDbEntity
  8
ZUWAKU
100
AcDbCircle
 10
41.21721213871103
 20
22.72500044069486
 30
0.0
 40
0.525
100
AcDbArc
 50
90.0
 51
180.0
  0
LINE
  5
8B5
330
1A
100
AcDbEntity
  8
ZUWAKU
100
AcDbLine
 10
51.8922121387111
 20
20.45000044069486
 30
0.0
 11
48.91721213871107
 21
20.45000044069486
 31
0.0
  0
LINE
  5
8B6
330
1A
100
AcDbEntity
  8
ZUWAKU
100
AcDbLine
 10
48.3922121387111
 20
23.25000044069486
 30
0.0
 11
51.8922121387111
 21
23.25000044069486
 31
0.0
  0
ARC
  5
8B7
330
1A
100
AcDbEntity
  8
ZUWAKU
100
AcDbCircle
 10
48.3922121387111
 20
20.45000044069486
 30
0.0
 40
2.799999999999999
100
AcDbArc
 50
90.0
 51
180.0
  0
LINE
  5
8B8
330
1A
100
AcDbEntity
  8
ZUWAKU
100
AcDbLine
 10
45.59221213871103
 20
20.45000044069486
 30
0.0
 11
45.59221213871103
 21
18.63479841533952
 31
0.0
  0
ARC
  5
8B9
330
1A
100
AcDbEntity
  8
ZUWAKU
100
AcDbCircle
 10
42.96721213871103
 20
22.72500044069486
 30
0.0
 40
0.525
100
AcDbArc
 50
0.0
 51
90.0
  0
LINE
  5
8BA
330
1A
100
AcDbEntity
  8
ZUWAKU
100
AcDbLine
 10
48.3922121387111
 20
19.92500044069486
 30
0.0
 11
48.3922121387111
 21
18.63479841533952
 31
0.0
  0
ARC
  5
8BB
330
1A
100
AcDbEntity
  8
ZUWAKU
100
AcDbCircle
 10
48.91721213871107
 20
19.92500044069486
 30
0.0
 40
0.525
100
AcDbArc
 50
90.0
 51
180.0
  0
LINE
  5
8BC
330
1A
100
AcDbEntity
  8
ZUWAKU
100
AcDbLine
 10
52.41721213871108
 20
22.72500044069486
 30
0.0
 11
52.41721213871108
 21
20.97500044069486
 31
0.0
  0
ARC
  5
8BD
330
1A
100
AcDbEntity
  8
ZUWAKU
100
AcDbCircle
 10
51.8922121387111
 20
20.97500044069486
 30
0.0
 40
0.525
100
AcDbArc
 50
270.0
 51
0.0
  0
ARC
  5
8BE
330
1A
100
AcDbEntity
  8
ZUWAKU
100
AcDbCircle
 10
51.8922121387111
 20
22.72500044069486
 30
0.0
 40
0.525
100
AcDbArc
 50
0.0
 51
90.0
  0
LINE
  5
8BF
330
1A
100
AcDbEntity
  8
ZUWAKU
100
AcDbLine
 10
57.31721213871106
 20
23.25000044069486
 30
0.0
 11
55.56721213871106
 21
23.25000044069486
 31
0.0
  0
ARC
  5
8C0
330
1A
100
AcDbEntity
  8
ZUWAKU
100
AcDbCircle
 10
55.56721213871106
 20
22.72500044069486
 30
0.0
 40
0.525
100
AcDbArc
 50
90.0
 51
180.0
  0
ARC
  5
8C1
330
1A
100
AcDbEntity
  8
ZUWAKU
100
AcDbCircle
 10
57.31721213871106
 20
22.72500044069486
 30
0.0
 40
0.525
100
AcDbArc
 50
0.0
 51
90.0
  0
LINE
  5
8C2
330
1A
100
AcDbEntity
  8
ZUWAKU
100
AcDbLine
 10
68.5172121387111
 20
23.25000044069486
 30
0.0
 11
66.7672121387111
 21
23.25000044069486
 31
0.0
  0
ARC
  5
8C3
330
1A
100
AcDbEntity
  8
ZUWAKU
100
AcDbCircle
 10
61.86721213871101
 20
22.72500044069486
 30
0.0
 40
0.525
100
AcDbArc
 50
90.0
 51
180.0
  0
LINE
  5
8C4
330
1A
100
AcDbEntity
  8
ZUWAKU
100
AcDbLine
 10
63.61721213871101
 20
23.25000044069486
 30
0.0
 11
61.86721213871101
 21
23.25000044069486
 31
0.0
  0
ARC
  5
8C5
330
1A
100
AcDbEntity
  8
ZUWAKU
100
AcDbCircle
 10
63.61721213871101
 20
22.72500044069486
 30
0.0
 40
0.525
100
AcDbArc
 50
0.0
 51
90.0
  0
ARC
  5
8C6
330
1A
100
AcDbEntity
  8
ZUWAKU
100
AcDbCircle
 10
66.7672121387111
 20
22.72500044069486
 30
0.0
 40
0.525
100
AcDbArc
 50
90.0
 51
180.0
  0
ARC
  5
8C7
330
1A
100
AcDbEntity
  8
ZUWAKU
100
AcDbCircle
 10
68.5172121387111
 20
22.72500044069486
 30
0.0
 40
0.525
100
AcDbArc
 50
0.0
 51
90.0
  0
LINE
  5
8C8
330
1A
100
AcDbEntity
  8
ZUWAKU
100
AcDbLine
 10
208.4466012739976
 20
30.00000044069486
 30
0.0
 11
208.4466012739978
 21
0.8000004406949301
 31
0.0
  0
LINE
  5
8C9
330
1A
100
AcDbEntity
  8
ZUWAKU
100
AcDbLine
 10
208.6466012739977
 20
30.00000044069486
 30
0.0
 11
208.6466012739979
 21
0.8000004406949301
 31
0.0
  0
LINE
  5
8CA
330
1A
100
AcDbEntity
  8
ZUWAKU
100
AcDbLine
 10
208.2466012739978
 20
30.00000044069486
 30
0.0
 11
208.2466012739978
 21
0.8000004406949301
 31
0.0
  0
TEXT
  5
8CB
330
1A
100
AcDbEntity
  8
MOJI
100
AcDbText
 10
239.827202664781
 20
18.00492149810224
 30
0.0
 40
5.599999999999999
  1
曲り（入）
 41
0.9
  7
ｽﾀｲﾙ1
100
AcDbText
  0
TEXT
  5
8CC
330
1A
100
AcDbEntity
  8
ZUWAKU
100
AcDbText
 10
209.7240462962074
 20
9.65535697908048
 30
0.0
 40
4.0
  1
サイズ
 41
0.9
  7
ｽﾀｲﾙ1
100
AcDbText
  0
TEXT
  5
8CD
330
1A
100
AcDbEntity
  8
MOJI
100
AcDbText
 10
239.827202664781
 20
3.204921498102283
 30
0.0
 40
5.599999999999999
  1
Ｈ１２０
 41
0.9
  7
ｽﾀｲﾙ1
100
AcDbText
  0
TEXT
  5
8CE
330
1A
100
AcDbEntity
  8
ZUWAKU
100
AcDbText
 10
209.7240462962072
 20
24.05535697908044
 30
0.0
 40
4.0
  1
品名
 41
0.9
  7
ｽﾀｲﾙ1
100
AcDbText
  0
TEXT
  5
8CF
330
1A
100
AcDbEntity
  8
ZUWAKU
100
AcDbText
 10
658.2039376712323
 20
18.00492149810224
 30
0.0
 40
5.599999999999999
  1
　　．　　．　　
 41
0.9
  7
ｽﾀｲﾙ1
100
AcDbText
  0
LINE
  5
8D0
330
1A
100
AcDbEntity
  8
ZUWAKU
100
AcDbLine
 10
648.8172024941341
 20
15.60000044069489
 30
0.0
 11
697.2490105324712
 21
15.60000044069489
 31
0.0
  0
LINE
  5
8D1
330
1A
100
AcDbEntity
  8
ZUWAKU
100
AcDbLine
 10
648.8172024941343
 20
15.4000004406949
 30
0.0
 11
697.2490105324712
 21
15.40000044069489
 31
0.0
  0
LINE
  5
8D2
330
1A
100
AcDbEntity
  8
ZUWAKU
100
AcDbLine
 10
648.8172024941341
 20
15.20000044069489
 30
0.0
 11
697.2490105324712
 21
15.20000044069489
 31
0.0
  0
LINE
  5
8D3
330
1A
100
AcDbEntity
  8
ZUWAKU
100
AcDbLine
 10
505.1991794820708
 20
15.60000044069489
 30
0.0
 11
552.5269557500423
 21
15.60000044069489
 31
0.0
  0
LINE
  5
8D4
330
1A
100
AcDbEntity
  8
ZUWAKU
100
AcDbLine
 10
505.1991794820708
 20
15.40000044069489
 30
0.0
 11
552.5269557500423
 21
15.40000044069489
 31
0.0
  0
LINE
  5
8D5
330
1A
100
AcDbEntity
  8
ZUWAKU
100
AcDbLine
 10
505.1991794820708
 20
15.2000004406949
 30
0.0
 11
552.5269557500423
 21
15.2000004406949
 31
0.0
  0
LINE
  5
8D6
330
1A
100
AcDbEntity
  8
ZUWAKU
100
AcDbLine
 10
504.7991794820709
 20
30.00000044069486
 30
0.0
 11
504.7991794820709
 21
0.8000004406949301
 31
0.0
  0
LINE
  5
8D7
330
1A
100
AcDbEntity
  8
ZUWAKU
100
AcDbLine
 10
505.1991794820708
 20
30.00000044069486
 30
0.0
 11
505.199179482071
 21
0.8000004406949301
 31
0.0
  0
LINE
  5
8D8
330
1A
100
AcDbEntity
  8
ZUWAKU
100
AcDbLine
 10
504.9991794820707
 20
30.00000044069486
 30
0.0
 11
504.999179482071
 21
0.8000004406949301
 31
0.0
  0
TEXT
  5
8D9
330
1A
100
AcDbEntity
  8
MOJI
100
AcDbText
 10
528.0409079562428
 20
18.00492149810224
 30
0.0
 40
5.599999999999999
  1
Ａ３
 41
0.9
  7
ｽﾀｲﾙ1
100
AcDbText
  0
LINE
  5
8DA
330
1A
100
AcDbEntity
  8
ZUWAKU
100
AcDbLine
 10
447.4243639549213
 20
30.00000044069486
 30
0.0
 11
447.4243639549213
 21
0.8000004406949301
 31
0.0
  0
LINE
  5
8DB
330
1A
100
AcDbEntity
  8
ZUWAKU
100
AcDbLine
 10
447.8243639549211
 20
30.00000044069486
 30
0.0
 11
447.8243639549214
 21
0.8000004406949301
 31
0.0
  0
LINE
  5
8DC
330
1A
100
AcDbEntity
  8
ZUWAKU
100
AcDbLine
 10
447.6243639549211
 20
30.00000044069486
 30
0.0
 11
447.6243639549213
 21
0.8000004406949301
 31
0.0
  0
TEXT
  5
8DD
330
1A
100
AcDbEntity
  8
MOJI
100
AcDbText
 10
463.0302597965978
 20
11.94261816235484
 30
0.0
 40
5.599999999999999
  1
ＰＥ３５□
 41
0.9
  7
ｽﾀｲﾙ1
100
AcDbText
  0
TEXT
  5
8DE
330
1A
100
AcDbEntity
  8
ZUWAKU
100
AcDbText
 10
462.693761639437
 20
2.614071351834354
 30
0.0
 40
3.0
  1
□には色品番が入ります
 41
0.9
  7
ｽﾀｲﾙ1
100
AcDbText
  0
TEXT
  5
8DF
330
1A
100
AcDbEntity
  8
ZUWAKU
100
AcDbText
 10
506.6766245042806
 20
9.65535697908048
 30
0.0
 40
4.0
  1
縮尺
 41
0.9
  7
ｽﾀｲﾙ1
100
AcDbText
  0
TEXT
  5
8E0
330
1A
100
AcDbEntity
  8
MOJI
100
AcDbText
 10
528.0409079562428
 20
3.204921498102283
 30
0.0
 40
5.599999999999999
  1
１/２
 41
0.9
  7
ｽﾀｲﾙ1
100
AcDbText
  0
TEXT
  5
8E1
330
1A
100
AcDbEntity
  8
ZUWAKU
100
AcDbText
 10
449.3018089771307
 20
24.05535697908044
 30
0.0
 40
4.0
  1
品番
 41
0.9
  7
ｽﾀｲﾙ1
100
AcDbText
  0
TEXT
  5
8E2
330
1A
100
AcDbEntity
  8
ZUWAKU
100
AcDbText
 10
506.6766245042804
 20
24.05535697908044
 30
0.0
 40
4.0
  1
用紙
 41
0.9
  7
ｽﾀｲﾙ1
100
AcDbText
  0
LINE
  5
8E3
330
1A
100
AcDbEntity
  8
ZUWAKU
100
AcDbLine
 10
552.5269557500423
 20
30.00000044069486
 30
0.0
 11
552.5269557500423
 21
0.8000004406949301
 31
0.0
  0
LINE
  5
8E4
330
1A
100
AcDbEntity
  8
ZUWAKU
100
AcDbLine
 10
552.9269557500422
 20
30.00000044069486
 30
0.0
 11
552.9269557500424
 21
0.8000004406949301
 31
0.0
  0
LINE
  5
8E5
330
1A
100
AcDbEntity
  8
ZUWAKU
100
AcDbLine
 10
552.7269557500422
 20
30.00000044069486
 30
0.0
 11
552.7269557500424
 21
0.8000004406949301
 31
0.0
  0
LINE
  5
8E6
330
1A
100
AcDbEntity
  8
ZUWAKU
100
AcDbLine
 10
648.4172024941345
 20
30.00000044069486
 30
0.0
 11
648.4172024941345
 21
0.8000004406949301
 31
0.0
  0
LINE
  5
8E7
330
1A
100
AcDbEntity
  8
ZUWAKU
100
AcDbLine
 10
648.8172024941343
 20
30.00000044069486
 30
0.0
 11
648.8172024941345
 21
0.8000004406949301
 31
0.0
  0
LINE
  5
8E8
330
1A
100
AcDbEntity
  8
ZUWAKU
100
AcDbLine
 10
648.6172024941343
 20
30.00000044069486
 30
0.0
 11
648.6172024941345
 21
0.8000004406949301
 31
0.0
  0
TEXT
  5
8E9
330
1A
100
AcDbEntity
  8
ZUWAKU
100
AcDbText
 10
650.2946475163439
 20
24.05535697908044
 30
0.0
 40
4.0
  1
DATE
 41
0.9
  7
ｽﾀｲﾙ1
100
AcDbText
  0
TEXT
  5
8EA
330
1A
100
AcDbEntity
  8
ZUWAKU
100
AcDbText
 10
708.5280841761736
 20
17.55383977638166
 30
0.0
 40
6.0
  1
積水化学工業株式会社
 41
0.9
  7
ｽﾀｲﾙ1
100
AcDbText
  0
LINE
  5
8EB
330
1A
100
AcDbEntity
  8
ZUWAKU
100
AcDbLine
 10
697.849010532471
 20
30.00000044069486
 30
0.0
 11
697.8490105324713
 21
0.8000004406949301
 31
0.0
  0
LINE
  5
8EC
330
1A
100
AcDbEntity
  8
ZUWAKU
100
AcDbLine
 10
697.649010532471
 20
30.00000044069486
 30
0.0
 11
697.6490105324712
 21
0.8000004406949301
 31
0.0
  0
LINE
  5
8ED
330
1A
100
AcDbEntity
  8
ZUWAKU
100
AcDbLine
 10
697.4490105324711
 20
30.00000044069486
 30
0.0
 11
697.4490105324711
 21
0.8000004406949301
 31
0.0
  0
LINE
  5
8EE
330
1A
100
AcDbEntity
  8
ZUWAKU
100
AcDbLine
 10
697.2490105324712
 20
30.00000044069486
 30
0.0
 11
697.2490105324712
 21
0.8000004406949301
 31
0.0
  0
TEXT
  5
8EF
330
1A
100
AcDbEntity
  8
ZUWAKU
100
AcDbText
 10
708.5280841761736
 20
6.648840754548928
 30
0.0
 40
6.0
  1
建材事業部
 41
0.9
  7
ｽﾀｲﾙ1
100
AcDbText
  0
VIEWPORT
  5
22
330
17
100
AcDbEntity
 67
     1
  8
0
100
AcDbViewport
 10
313.6808219178082
 20
148.5
 30
0.0
 40
627.3616438356165
 41
297.0
 68
     2
 69
     1
1001
ACAD
1000
MVIEW
1002
{
1070
    16
1010
0.0
1020
0.0
1030
0.0
1010
0.0
1020
0.0
1030
1.0
1040
0.0
1040
297.0
1040
313.6808219178082
1040
148.5
1040
50.0
1040
0.0
1040
0.0
1070
     0
1070
   100
1070
     1
1070
     0
1070
     0
1070
     0
1070
     0
1070
     0
1040
0.0
1040
0.0
1040
0.0
1040
1.0
1040
1.0
1040
10.0
1040
10.0
1070
     0
1002
{
1002
}
1002
}
  0
VIEWPORT
  5
64
330
17
100
AcDbEntity
 67
     1
  8
VIEWPORT
100
AcDbViewport
 10
210.0
 20
148.5
 30
0.0
 40
420.0
 41
297.0
 68
     1
 69
     2
1001
ACAD
1000
MVIEW
1002
{
1070
    16
1010
0.0
1020
0.0
1030
0.0
1010
0.0
1020
0.0
1030
1.0
1040
0.0
1040
605.8799999999998
1040
420.0
1040
297.0
1040
50.0
1040
0.0
1040
0.0
1070
     0
1070
   100
1070
     1
1070
     0
1070
     0
1070
     0
1070
     0
1070
     0
1040
0.0
1040
0.0
1040
0.0
1040
10.0
1040
10.0
1040
0.0
1040
0.0
1070
     0
1002
{
1002
}
1002
}
  0
ENDSEC
  0
SECTION
  2
OBJECTS
  0
DICTIONARY
  5
C
330
0
100
AcDbDictionary
  3
ACAD_GROUP
350
D
  3
ACAD_LAYOUT
350
556
  3
ACAD_MLINESTYLE
350
E
  3
ACAD_PLOTSETTINGS
350
557
  3
ACAD_PLOTSTYLENAME
350
554
  3
ACDBHEADERROUNDTRIPXREC
350
8F7
  0
DICTIONARY
  5
6C6
330
1A
100
AcDbDictionary
280
     1
  3
ACAD_LAYOUTSELFREF
360
919
  0
DICTIONARY
  5
6C4
330
17
100
AcDbDictionary
280
     1
  3
ACAD_LAYOUTSELFREF
360
918
  0
DICTIONARY
  5
D
102
{ACAD_REACTORS
330
C
102
}
330
C
100
AcDbDictionary
  0
DICTIONARY
  5
556
102
{ACAD_REACTORS
330
C
102
}
330
C
100
AcDbDictionary
  0
DICTIONARY
  5
E
102
{ACAD_REACTORS
330
C
102
}
330
C
100
AcDbDictionary
  3
STANDARD
350
13
  0
DICTIONARY
  5
557
102
{ACAD_REACTORS
330
C
102
}
330
C
100
AcDbDictionary
  0
ACDBDICTIONARYWDFLT
  5
554
102
{ACAD_REACTORS
330
C
102
}
330
C
100
AcDbDictionary
281
     1
  3
Normal
350
555
100
AcDbDictionaryWithDefault
340
555
1001
ACAD
1000
TREAT_AS_HARD
1070
     0
1000
TREAT_AS_HARD
1070
     0
  0
DICTIONARY
  5
8F7
102
{ACAD_REACTORS
330
C
102
}
330
C
100
AcDbDictionary
  3
TSTACKALIGN
350
8F8
  3
TSTACKSIZE
350
8F9
  3
HYPERLINKBASE
350
8FA
  3
STYLESHEET
350
8FB
  3
LAYOUTDICT
350
8FC
  3
PLOTSETDICT
350
8FD
  3
PLOTSTYLNAMDICT
350
8FE
  3
LWETCUNION
350
8FF
  3
INSUNITS
350
900
  3
CEPSNTYPE
350
901
  3
FINGERPRINTGUID
350
902
  3
VERSIONGUID
350
903
  3
PSVPSCALE
350
904
  3
DIMSTYLEDATA
350
905
  3
PUCSORTHOREF
350
906
  3
PUCSORTHOVIEW
350
907
  3
PUCSBASE
350
908
  3
PUCSORGTOP
350
909
  3
PUCSORGBOTTOM
350
90A
  3
PUCSORGLEFT
350
90B
  3
PUCSORGRIGHT
350
90C
  3
PUCSORGFRONT
350
90D
  3
PUCSORGBACK
350
90E
  3
UCSORTHOREF
350
90F
  3
UCSORTHOVIEW
350
910
  3
UCSBASE
350
911
  3
UCSORGTOP
350
912
  3
UCSORGBOTTOM
350
913
  3
UCSORGLEFT
350
914
  3
UCSORGRIGHT
350
915
  3
UCSORGFRONT
350
916
  3
UCSORGBACK
350
917
  0
XRECORD
  5
919
102
{ACAD_REACTORS
330
6C6
102
}
330
6C6
100
AcDbXrecord
340
1A
  0
XRECORD
  5
918
102
{ACAD_REACTORS
330
6C4
102
}
330
6C4
100
AcDbXrecord
340
17
  0
MLINESTYLE
  5
13
102
{ACAD_REACTORS
330
E
102
}
330
E
100
AcDbMlineStyle
  2
STANDARD
 70
     0
  3

 62
     0
 51
90.0
 52
90.0
 71
     2
 49
0.5
 62
   256
  6
BYLAYER
 49
-0.5
 62
   256
  6
BYLAYER
  0
ACDBPLACEHOLDER
  5
555
102
{ACAD_REACTORS
330
554
102
}
330
554
100
AcDbPlaceHolder
280
     0
  0
XRECORD
  5
8F8
102
{ACAD_REACTORS
330
8F7
102
}
330
8F7
100
AcDbXrecord
 90
        1
  0
XRECORD
  5
8F9
102
{ACAD_REACTORS
330
8F7
102
}
330
8F7
100
AcDbXrecord
 90
       70
  0
XRECORD
  5
8FA
102
{ACAD_REACTORS
330
8F7
102
}
330
8F7
100
AcDbXrecord
  1

  0
XRECORD
  5
8FB
102
{ACAD_REACTORS
330
8F7
102
}
330
8F7
100
AcDbXrecord
  1
systemprinter.ctb
  0
XRECORD
  5
8FC
102
{ACAD_REACTORS
330
8F7
102
}
330
8F7
100
AcDbXrecord
340
556
  0
XRECORD
  5
8FD
102
{ACAD_REACTORS
330
8F7
102
}
330
8F7
100
AcDbXrecord
340
557
  0
XRECORD
  5
8FE
102
{ACAD_REACTORS
330
8F7
102
}
330
8F7
100
AcDbXrecord
340
554
  0
XRECORD
  5
8FF
102
{ACAD_REACTORS
330
8F7
102
}
330
8F7
100
AcDbXrecord
 90
    10781
  0
XRECORD
  5
900
102
{ACAD_REACTORS
330
8F7
102
}
330
8F7
100
AcDbXrecord
 90
        0
  0
XRECORD
  5
901
102
{ACAD_REACTORS
330
8F7
102
}
330
8F7
100
AcDbXrecord
 90
        0
  0
XRECORD
  5
902
102
{ACAD_REACTORS
330
8F7
102
}
330
8F7
100
AcDbXrecord
  1
{B06877AA-F1AE-4EC1-AEA7-B60A7FDC8903}
  0
XRECORD
  5
903
102
{ACAD_REACTORS
330
8F7
102
}
330
8F7
100
AcDbXrecord
  1
{69BAC438-E1E7-4E43-9287-C4DFA103E208}
  0
XRECORD
  5
904
102
{ACAD_REACTORS
330
8F7
102
}
330
8F7
100
AcDbXrecord
 40
0.0
  0
XRECORD
  5
905
102
{ACAD_REACTORS
330
8F7
102
}
330
8F7
100
AcDbXrecord
1000
DSTYLE
1002
{
1070
   341
340
6D
1070
   343
340
6D
1070
   344
340
6D
1070
   371
 70
    -1
1070
   372
 70
    -1
1002
}
  0
XRECORD
  5
906
102
{ACAD_REACTORS
330
8F7
102
}
330
8F7
100
AcDbXrecord
340
0
  0
XRECORD
  5
907
102
{ACAD_REACTORS
330
8F7
102
}
330
8F7
100
AcDbXrecord
 70
     0
  0
XRECORD
  5
908
102
{ACAD_REACTORS
330
8F7
102
}
330
8F7
100
AcDbXrecord
340
0
  0
XRECORD
  5
909
102
{ACAD_REACTORS
330
8F7
102
}
330
8F7
100
AcDbXrecord
 10
0.0
 20
0.0
 30
0.0
  0
XRECORD
  5
90A
102
{ACAD_REACTORS
330
8F7
102
}
330
8F7
100
AcDbXrecord
 10
0.0
 20
0.0
 30
0.0
  0
XRECORD
  5
90B
102
{ACAD_REACTORS
330
8F7
102
}
330
8F7
100
AcDbXrecord
 10
0.0
 20
0.0
 30
0.0
  0
XRECORD
  5
90C
102
{ACAD_REACTORS
330
8F7
102
}
330
8F7
100
AcDbXrecord
 10
0.0
 20
0.0
 30
0.0
  0
XRECORD
  5
90D
102
{ACAD_REACTORS
330
8F7
102
}
330
8F7
100
AcDbXrecord
 10
0.0
 20
0.0
 30
0.0
  0
XRECORD
  5
90E
102
{ACAD_REACTORS
330
8F7
102
}
330
8F7
100
AcDbXrecord
 10
0.0
 20
0.0
 30
0.0
  0
XRECORD
  5
90F
102
{ACAD_REACTORS
330
8F7
102
}
330
8F7
100
AcDbXrecord
340
0
  0
XRECORD
  5
910
102
{ACAD_REACTORS
330
8F7
102
}
330
8F7
100
AcDbXrecord
 70
     0
  0
XRECORD
  5
911
102
{ACAD_REACTORS
330
8F7
102
}
330
8F7
100
AcDbXrecord
340
0
  0
XRECORD
  5
912
102
{ACAD_REACTORS
330
8F7
102
}
330
8F7
100
AcDbXrecord
 10
0.0
 20
0.0
 30
0.0
  0
XRECORD
  5
913
102
{ACAD_REACTORS
330
8F7
102
}
330
8F7
100
AcDbXrecord
 10
0.0
 20
0.0
 30
0.0
  0
XRECORD
  5
914
102
{ACAD_REACTORS
330
8F7
102
}
330
8F7
100
AcDbXrecord
 10
0.0
 20
0.0
 30
0.0
  0
XRECORD
  5
915
102
{ACAD_REACTORS
330
8F7
102
}
330
8F7
100
AcDbXrecord
 10
0.0
 20
0.0
 30
0.0
  0
XRECORD
  5
916
102
{ACAD_REACTORS
330
8F7
102
}
330
8F7
100
AcDbXrecord
 10
0.0
 20
0.0
 30
0.0
  0
XRECORD
  5
917
102
{ACAD_REACTORS
330
8F7
102
}
330
8F7
100
AcDbXrecord
 10
0.0
 20
0.0
 30
0.0
  0
ENDSEC
  0
EOF
